  0
SECTION
  2
HEADER
  9
$ACADVER
  1
AC1015
  9
$ACADMAINTVER
 70
     6
  9
$DWGCODEPAGE
  3
ANSI_1252
  9
$INSBASE
 10
0.0
 20
0.0
 30
0.0
  9
$EXTMIN
 10
0.0
 20
0.0
 30
0.0
  9
$EXTMAX
 10
297.0
 20
210.0
 30
0.0
  9
$LIMMIN
 10
0.0
 20
0.0
  9
$LIMMAX
 10
297.0
 20
210.0
  9
$ORTHOMODE
 70
     0
  9
$REGENMODE
 70
     1
  9
$FILLMODE
 70
     1
  9
$QTEXTMODE
 70
     0
  9
$MIRRTEXT
 70
     1
  9
$LTSCALE
 40
1.0
  9
$ATTMODE
 70
     1
  9
$TEXTSIZE
 40
2.0
  9
$TRACEWID
 40
1.0
  9
$TEXTSTYLE
  7
Standard
  9
$CLAYER
  8
0
  9
$CELTYPE
  6
ByLayer
  9
$CECOLOR
 62
   256
  9
$CELTSCALE
 40
1.0
  9
$DISPSILH
 70
     0
  9
$DIMSCALE
 40
1.0
  9
$DIMASZ
 40
3.0
  9
$DIMEXO
 40
0.0
  9
$DIMDLI
 40
3.75
  9
$DIMRND
 40
0.0
  9
$DIMDLE
 40
0.0
  9
$DIMEXE
 40
1.0
  9
$DIMTP
 40
0.0
  9
$DIMTM
 40
0.0
  9
$DIMTXT
 40
2.0
  9
$DIMCEN
 40
2.5
  9
$DIMTSZ
 40
0.0
  9
$DIMTOL
 70
     0
  9
$DIMLIM
 70
     0
  9
$DIMTIH
 70
     1
  9
$DIMTOH
 70
     1
  9
$DIMSE1
 70
     0
  9
$DIMSE2
 70
     0
  9
$DIMTAD
 70
     1
  9
$DIMZIN
 70
     0
  9
$DIMBLK
  1

  9
$DIMASO
 70
     1
  9
$DIMSHO
 70
     1
  9
$DIMPOST
  1

  9
$DIMAPOST
  1

  9
$DIMALT
 70
     0
  9
$DIMALTD
 70
     3
  9
$DIMALTF
 40
0.0393700787
  9
$DIMLFAC
 40
1.0
  9
$DIMTOFL
 70
     1
  9
$DIMTVP
 40
0.0
  9
$DIMTIX
 70
     0
  9
$DIMSOXD
 70
     0
  9
$DIMSAH
 70
     0
  9
$DIMBLK1
  1

  9
$DIMBLK2
  1

  9
$DIMSTYLE
  2
ISO-25
  9
$DIMCLRD
 70
     0
  9
$DIMCLRE
 70
     0
  9
$DIMCLRT
 70
     0
  9
$DIMTFAC
 40
1.0
  9
$DIMGAP
 40
1.524
  9
$DIMJUST
 70
     0
  9
$DIMSD1
 70
     0
  9
$DIMSD2
 70
     0
  9
$DIMTOLJ
 70
     0
  9
$DIMTZIN
 70
     0
  9
$DIMALTZ
 70
     0
  9
$DIMALTTZ
 70
     0
  9
$DIMUPT
 70
     0
  9
$DIMDEC
 70
     2
  9
$DIMTDEC
 70
     3
  9
$DIMALTU
 70
     2
  9
$DIMALTTD
 70
     3
  9
$DIMTXSTY
  7
Standard
  9
$DIMAUNIT
 70
     0
  9
$DIMADEC
 70
     2
  9
$DIMALTRND
 40
0.0
  9
$DIMAZIN
 70
     0
  9
$DIMDSEP
 70
    44
  9
$DIMATFIT
 70
     3
  9
$DIMFRAC
 70
     0
  9
$DIMLDRBLK
  1

  9
$DIMLUNIT
 70
     2
  9
$DIMLWD
 70
    -2
  9
$DIMLWE
 70
    -2
  9
$DIMTMOVE
 70
     0
  9
$LUNITS
 70
     2
  9
$LUPREC
 70
     2
  9
$SKETCHINC
 40
1.0
  9
$FILLETRAD
 40
10.0
  9
$AUNITS
 70
     0
  9
$AUPREC
 70
     2
  9
$MENU
  1
.
  9
$ELEVATION
 40
0.0
  9
$PELEVATION
 40
0.0
  9
$THICKNESS
 40
0.0
  9
$LIMCHECK
 70
     0
  9
$CHAMFERA
 40
10.0
  9
$CHAMFERB
 40
10.0
  9
$CHAMFERC
 40
20.0
  9
$CHAMFERD
 40
0.0
  9
$SKPOLY
 70
     0
  9
$TDCREATE
 40
2456087.498160463
  9
$TDUCREATE
 40
2456087.41482713
  9
$TDUPDATE
 40
2456087.498162095
  9
$TDUUPDATE
 40
2456087.414828761
  9
$TDINDWG
 40
0.0000000116
  9
$TDUSRTIMER
 40
0.0000000116
  9
$USRTIMER
 70
     1
  9
$ANGBASE
 50
0.0
  9
$ANGDIR
 70
     0
  9
$PDMODE
 70
     0
  9
$PDSIZE
 40
-1.0
  9
$PLINEWID
 40
0.0
  9
$SPLFRAME
 70
     0
  9
$SPLINETYPE
 70
     6
  9
$SPLINESEGS
 70
     8
  9
$HANDSEED
  5
284
  9
$SURFTAB1
 70
     6
  9
$SURFTAB2
 70
     6
  9
$SURFTYPE
 70
     6
  9
$SURFU
 70
     6
  9
$SURFV
 70
     6
  9
$UCSBASE
  2

  9
$UCSNAME
  2

  9
$UCSORG
 10
0.0
 20
0.0
 30
0.0
  9
$UCSXDIR
 10
1.0
 20
0.0
 30
0.0
  9
$UCSYDIR
 10
0.0
 20
1.0
 30
0.0
  9
$UCSORTHOREF
  2

  9
$UCSORTHOVIEW
 70
     0
  9
$UCSORGTOP
 10
0.0
 20
0.0
 30
0.0
  9
$UCSORGBOTTOM
 10
0.0
 20
0.0
 30
0.0
  9
$UCSORGLEFT
 10
0.0
 20
0.0
 30
0.0
  9
$UCSORGRIGHT
 10
0.0
 20
0.0
 30
0.0
  9
$UCSORGFRONT
 10
0.0
 20
0.0
 30
0.0
  9
$UCSORGBACK
 10
0.0
 20
0.0
 30
0.0
  9
$PUCSBASE
  2

  9
$PUCSNAME
  2

  9
$PUCSORG
 10
0.0
 20
0.0
 30
0.0
  9
$PUCSXDIR
 10
1.0
 20
0.0
 30
0.0
  9
$PUCSYDIR
 10
0.0
 20
1.0
 30
0.0
  9
$PUCSORTHOREF
  2

  9
$PUCSORTHOVIEW
 70
     0
  9
$PUCSORGTOP
 10
0.0
 20
0.0
 30
0.0
  9
$PUCSORGBOTTOM
 10
0.0
 20
0.0
 30
0.0
  9
$PUCSORGLEFT
 10
0.0
 20
0.0
 30
0.0
  9
$PUCSORGRIGHT
 10
0.0
 20
0.0
 30
0.0
  9
$PUCSORGFRONT
 10
0.0
 20
0.0
 30
0.0
  9
$PUCSORGBACK
 10
0.0
 20
0.0
 30
0.0
  9
$USERI1
 70
     0
  9
$USERI2
 70
     0
  9
$USERI3
 70
     0
  9
$USERI4
 70
     0
  9
$USERI5
 70
     0
  9
$USERR1
 40
0.0
  9
$USERR2
 40
0.0
  9
$USERR3
 40
0.0
  9
$USERR4
 40
0.0
  9
$USERR5
 40
0.0
  9
$WORLDVIEW
 70
     1
  9
$SHADEDGE
 70
     3
  9
$SHADEDIF
 70
    70
  9
$TILEMODE
 70
     1
  9
$MAXACTVP
 70
    64
  9
$PINSBASE
 10
0.0
 20
0.0
 30
0.0
  9
$PLIMCHECK
 70
     0
  9
$PEXTMIN
 10
1.0000000000E+20
 20
1.0000000000E+20
 30
1.0000000000E+20
  9
$PEXTMAX
 10
-1.0000000000E+20
 20
-1.0000000000E+20
 30
-1.0000000000E+20
  9
$PLIMMIN
 10
0.0
 20
0.0
  9
$PLIMMAX
 10
420.0
 20
297.0
  9
$UNITMODE
 70
     0
  9
$VISRETAIN
 70
     1
  9
$PLINEGEN
 70
     0
  9
$PSLTSCALE
 70
     1
  9
$TREEDEPTH
 70
  3020
  9
$CMLSTYLE
  2
Standard
  9
$CMLJUST
 70
     0
  9
$CMLSCALE
 40
20.0
  9
$PROXYGRAPHICS
 70
     1
  9
$MEASUREMENT
 70
     1
  9
$CELWEIGHT
370
    -1
  9
$ENDCAPS
280
     0
  9
$JOINSTYLE
280
     0
  9
$LWDISPLAY
290
     1
  9
$INSUNITS
 70
     4
  9
$HYPERLINKBASE
  1

  9
$STYLESHEET
  1

  9
$XEDIT
290
     1
  9
$CEPSNTYPE
380
     0
  9
$PSTYLEMODE
290
     1
  9
$FINGERPRINTGUID
  2
{BBB8FA88-4EAC-4BEE-9C52-4F64F3B7C624}
  9
$VERSIONGUID
  2
{FAEB1C32-E019-11D5-929B-00C0DF256EC4}
  9
$EXTNAMES
290
     1
  9
$PSVPSCALE
 40
0.0
  9
$OLESTARTUP
290
     0
  0
ENDSEC
  0
SECTION
  2
CLASSES
  0
CLASS
  1
ACDBDICTIONARYWDFLT
  2
AcDbDictionaryWithDefault
  3
ObjectDBX Classes
 90
        0
280
     0
281
     0
  0
CLASS
  1
VISUALSTYLE
  2
AcDbVisualStyle
  3
ObjectDBX Classes
 90
     4095
280
     0
281
     0
  0
CLASS
  1
MATERIAL
  2
AcDbMaterial
  3
ObjectDBX Classes
 90
     1153
280
     0
281
     0
  0
CLASS
  1
ACDBPLACEHOLDER
  2
AcDbPlaceHolder
  3
ObjectDBX Classes
 90
        0
280
     0
281
     0
  0
CLASS
  1
LAYOUT
  2
AcDbLayout
  3
ObjectDBX Classes
 90
        0
280
     0
281
     0
  0
ENDSEC
  0
SECTION
  2
TABLES
  0
TABLE
  2
VPORT
  5
8
330
0
100
AcDbSymbolTable
 70
     1
  0
VPORT
  5
29
330
8
100
AcDbSymbolTableRecord
100
AcDbViewportTableRecord
  2
*Active
 70
     0
 10
0.0
 20
0.0
 11
1.0
 21
1.0
 12
148.5
 22
105.0
 13
0.0
 23
0.0
 14
10.0
 24
10.0
 15
10.0
 25
10.0
 16
0.0
 26
0.0
 36
1.0
 17
0.0
 27
0.0
 37
0.0
 40
210.0
 41
1.4142857143
 42
50.0
 43
0.0
 44
0.0
 50
0.0
 51
0.0
 71
     0
 72
  2000
 73
     1
 74
     3
 75
     0
 76
     0
 77
     0
 78
     0
281
     0
 65
     1
110
0.0
120
0.0
130
0.0
111
1.0
121
0.0
131
0.0
112
0.0
122
1.0
132
0.0
 79
     0
146
0.0
  0
ENDTAB
  0
TABLE
  2
LTYPE
  5
5
330
0
100
AcDbSymbolTable
 70
     6
  0
LTYPE
  5
14
330
5
100
AcDbSymbolTableRecord
100
AcDbLinetypeTableRecord
  2
ByBlock
 70
     0
  3

 72
    65
 73
     0
 40
0.0
  0
LTYPE
  5
15
330
5
100
AcDbSymbolTableRecord
100
AcDbLinetypeTableRecord
  2
ByLayer
 70
     0
  3

 72
    65
 73
     0
 40
0.0
  0
LTYPE
  5
16
330
5
100
AcDbSymbolTableRecord
100
AcDbLinetypeTableRecord
  2
Continuous
 70
     0
  3
Solid line
 72
    65
 73
     0
 40
0.0
  0
LTYPE
  5
3F
330
5
100
AcDbSymbolTableRecord
100
AcDbLinetypeTableRecord
  2
HIDDEN
 70
     0
  3
Hidden __ __ __ __ __ __ __ __ __ __ __ __ __ __
 72
    65
 73
     2
 40
1.905
 49
1.27
 74
     0
 49
-0.635
 74
     0
  0
LTYPE
  5
40
330
5
100
AcDbSymbolTableRecord
100
AcDbLinetypeTableRecord
  2
PHANTOM
 70
     0
  3
Phantom ______  __  __  ______  __  __  ______
 72
    65
 73
     6
 40
12.7
 49
6.35
 74
     0
 49
-1.27
 74
     0
 49
1.27
 74
     0
 49
-1.27
 74
     0
 49
1.27
 74
     0
 49
-1.27
 74
     0
  0
LTYPE
  5
41
330
5
100
AcDbSymbolTableRecord
100
AcDbLinetypeTableRecord
  2
CENTER
 70
     0
  3
Center ____ _ ____ _ ____ _ ____ _ ____ _ ____
 72
    65
 73
     4
 40
10.16
 49
6.35
 74
     0
 49
-1.27
 74
     0
 49
1.27
 74
     0
 49
-1.27
 74
     0
  0
LTYPE
  5
42
330
5
100
AcDbSymbolTableRecord
100
AcDbLinetypeTableRecord
  2
CENTERX2
 70
     0
  3
Center (2x) ________  __  ________  __  _____
 72
    65
 73
     4
 40
20.32
 49
12.7
 74
     0
 49
-2.54
 74
     0
 49
2.54
 74
     0
 49
-2.54
 74
     0
  0
LTYPE
  5
43
330
5
100
AcDbSymbolTableRecord
100
AcDbLinetypeTableRecord
  2
DOT2
 70
     0
  3
Dot (.5x) ........................................
 72
    65
 73
     2
 40
0.635
 49
0.0
 74
     0
 49
-0.635
 74
     0
  0
ENDTAB
  0
TABLE
  2
LAYER
  5
2
330
0
100
AcDbSymbolTable
 70
     5
  0
LAYER
  5
10
330
2
100
AcDbSymbolTableRecord
100
AcDbLayerTableRecord
  2
0
 70
     0
 62
     7
  6
Continuous
370
    -3
390
F
  0
LAYER
  5
44
330
2
100
AcDbSymbolTableRecord
100
AcDbLayerTableRecord
  2
FORMAT
 70
     0
 62
     7
  6
Continuous
370
    -3
390
F
  0
LAYER
  5
45
330
2
100
AcDbSymbolTableRecord
100
AcDbLayerTableRecord
  2
VERMASSUNG
 70
     0
 62
     7
  6
Continuous
370
    -3
390
F
  0
LAYER
  5
46
330
2
100
AcDbSymbolTableRecord
100
AcDbLayerTableRecord
  2
KOPF_DÜNN
 70
     0
 62
     7
  6
Continuous
370
    -3
390
F
  0
LAYER
  5
47
330
2
100
AcDbSymbolTableRecord
100
AcDbLayerTableRecord
  2
KOPF_DICK
 70
     0
 62
     7
  6
Continuous
370
    15
390
F
  0
ENDTAB
  0
TABLE
  2
STYLE
  5
3
330
0
100
AcDbSymbolTable
 70
     2
  0
STYLE
  5
11
330
3
100
AcDbSymbolTableRecord
100
AcDbTextStyleTableRecord
  2
Standard
 70
     0
 40
0.0
 41
1.0
 50
0.0
 71
     0
 42
2.0
  3
txt
  4

  0
STYLE
  5
48
330
3
100
AcDbSymbolTableRecord
100
AcDbTextStyleTableRecord
  2
SLDTEXTSTYLE0
 70
     0
 40
0.0
 41
0.7
 50
0.0
 71
     0
 42
0.2
  3
TXT
  4

  0
ENDTAB
  0
TABLE
  2
VIEW
  5
6
330
0
100
AcDbSymbolTable
 70
     0
  0
ENDTAB
  0
TABLE
  2
UCS
  5
7
330
0
100
AcDbSymbolTable
 70
     0
  0
ENDTAB
  0
TABLE
  2
APPID
  5
9
330
0
100
AcDbSymbolTable
 70
     1
  0
APPID
  5
12
330
9
100
AcDbSymbolTableRecord
100
AcDbRegAppTableRecord
  2
ACAD
 70
     0
  0
ENDTAB
  0
TABLE
  2
DIMSTYLE
  5
A
330
0
100
AcDbSymbolTable
 70
     5
100
AcDbDimStyleTable
  0
DIMSTYLE
105
27
330
A
100
AcDbSymbolTableRecord
100
AcDbDimStyleTableRecord
  2
ISO-25
 70
     0
 41
2.5
 42
0.625
 43
3.75
 44
1.25
 73
     0
 74
     0
 77
     1
 78
     8
140
2.5
141
2.5
143
0.0393700787
147
0.625
171
     3
172
     1
178
     0
271
     2
272
     2
274
     3
278
    44
283
     0
284
     8
340
11
  0
DIMSTYLE
105
1CA
102
{ACAD_REACTORS
330
1C9
330
1DD
330
1E7
330
1F1
330
1FA
102
}
330
A
100
AcDbSymbolTableRecord
100
AcDbDimStyleTableRecord
  2
SLDDIMSTYLE0
 70
     0
 41
3.0
 44
0.0
 45
0.000000001
 73
     0
 74
     0
 77
     1
 78
    12
 79
     3
140
2.0
147
0.5
173
     1
178
     0
271
     2
272
     3
276
     2
284
    12
340
48
  0
DIMSTYLE
105
1D5
102
{ACAD_REACTORS
330
1D4
102
}
330
A
100
AcDbSymbolTableRecord
100
AcDbDimStyleTableRecord
  2
SLDDIMSTYLE1
 70
     0
 41
3.0
 44
0.0
 73
     0
 74
     0
 77
     1
 78
    12
 79
     3
140
2.0
147
0.5
173
     1
178
     0
179
     1
272
     3
276
     2
284
    12
340
48
  0
DIMSTYLE
105
25E
102
{ACAD_REACTORS
330
25D
102
}
330
A
100
AcDbSymbolTableRecord
100
AcDbDimStyleTableRecord
  2
SLDDIMSTYLE2
 70
     0
 41
3.0
 44
0.0
 45
0.000000001
 73
     0
 74
     0
 77
     1
 78
    12
 79
     3
140
2.0
147
0.5
172
     1
173
     1
178
     0
271
     2
272
     3
276
     2
284
    12
289
     0
340
48
  0
DIMSTYLE
105
26D
102
{ACAD_REACTORS
330
26C
102
}
330
A
100
AcDbSymbolTableRecord
100
AcDbDimStyleTableRecord
  2
SLDDIMSTYLE3
 70
     0
 41
3.0
 44
0.0
 73
     0
 74
     0
 77
     1
 78
    12
 79
     3
140
2.0
147
0.5
173
     1
178
     0
179
     2
272
     3
276
     2
284
    12
340
48
  0
ENDTAB
  0
TABLE
  2
BLOCK_RECORD
  5
1
330
0
100
AcDbSymbolTable
 70
    10
  0
BLOCK_RECORD
  5
1F
330
1
100
AcDbSymbolTableRecord
100
AcDbBlockTableRecord
  2
*Model_Space
340
22
  0
BLOCK_RECORD
  5
1B
330
1
100
AcDbSymbolTableRecord
100
AcDbBlockTableRecord
  2
*Paper_Space
340
1E
  0
BLOCK_RECORD
  5
23
330
1
100
AcDbSymbolTableRecord
100
AcDbBlockTableRecord
  2
*Paper_Space0
340
26
  0
BLOCK_RECORD
  5
1CB
330
1
100
AcDbSymbolTableRecord
100
AcDbBlockTableRecord
  2
_D
340
0
  0
BLOCK_RECORD
  5
1D6
330
1
100
AcDbSymbolTableRecord
100
AcDbBlockTableRecord
  2
_D_1
340
0
  0
BLOCK_RECORD
  5
1DE
330
1
100
AcDbSymbolTableRecord
100
AcDbBlockTableRecord
  2
_D_2
340
0
  0
BLOCK_RECORD
  5
1E8
330
1
100
AcDbSymbolTableRecord
100
AcDbBlockTableRecord
  2
_D_3
340
0
  0
BLOCK_RECORD
  5
1F2
330
1
100
AcDbSymbolTableRecord
100
AcDbBlockTableRecord
  2
_D_4
340
0
  0
BLOCK_RECORD
  5
1FB
330
1
100
AcDbSymbolTableRecord
100
AcDbBlockTableRecord
  2
_D_5
340
0
  0
BLOCK_RECORD
  5
25F
330
1
100
AcDbSymbolTableRecord
100
AcDbBlockTableRecord
  2
_D_6
340
0
  0
BLOCK_RECORD
  5
26E
330
1
100
AcDbSymbolTableRecord
100
AcDbBlockTableRecord
  2
_D_7
340
0
  0
BLOCK_RECORD
  5
277
330
1
100
AcDbSymbolTableRecord
100
AcDbBlockTableRecord
  2
SW_CENTERMARKSYMBOL_0
340
0
102
{BLKREFS
331
282
102
}
  0
ENDTAB
  0
ENDSEC
  0
SECTION
  2
BLOCKS
  0
BLOCK
  5
20
330
1F
100
AcDbEntity
  8
0
100
AcDbBlockBegin
  2
*Model_Space
 70
     0
 10
0.0
 20
0.0
 30
0.0
  3
*Model_Space
  1

  0
ENDBLK
  5
21
330
1F
100
AcDbEntity
  8
0
100
AcDbBlockEnd
  0
BLOCK
  5
1C
330
1B
100
AcDbEntity
 67
     1
  8
0
100
AcDbBlockBegin
  2
*Paper_Space
 70
     0
 10
0.0
 20
0.0
 30
0.0
  3
*Paper_Space
  1

  0
ENDBLK
  5
1D
330
1B
100
AcDbEntity
 67
     1
  8
0
100
AcDbBlockEnd
  0
BLOCK
  5
24
330
23
100
AcDbEntity
  8
0
100
AcDbBlockBegin
  2
*Paper_Space0
 70
     0
 10
0.0
 20
0.0
 30
0.0
  3
*Paper_Space0
  1

  0
ENDBLK
  5
25
330
23
100
AcDbEntity
  8
0
100
AcDbBlockEnd
  0
BLOCK
  5
1CC
330
1CB
100
AcDbEntity
  8
0
100
AcDbBlockBegin
  2
_D
 70
     0
 10
0.0
 20
0.0
 30
0.0
  3
_D
  1

  0
SOLID
  5
1CE
330
1CB
100
AcDbEntity
  8
VERMASSUNG
100
AcDbTrace
 10
270.3838282369
 20
108.4237840031
 30
0.0
 11
270.8338282369
 21
111.4237840031
 31
0.0
 12
269.9338282369
 22
111.4237840031
 32
0.0
 13
269.9338282369
 23
111.4237840031
 33
0.0
  0
SOLID
  5
1CF
330
1CB
100
AcDbEntity
  8
VERMASSUNG
100
AcDbTrace
 10
270.3838282369
 20
130.4237840031
 30
0.0
 11
269.9338282369
 21
127.4237840031
 31
0.0
 12
270.8338282369
 22
127.4237840031
 32
0.0
 13
270.8338282369
 23
127.4237840031
 33
0.0
  0
LINE
  5
1D0
330
1CB
100
AcDbEntity
  8
VERMASSUNG
100
AcDbLine
 10
252.0442682392
 20
108.4237840031
 30
0.0
 11
271.3838282369
 21
108.4237840031
 31
0.0
  0
LINE
  5
1D1
330
1CB
100
AcDbEntity
  8
VERMASSUNG
100
AcDbLine
 10
252.0442682392
 20
130.4237840031
 30
0.0
 11
271.3838282369
 21
130.4237840031
 31
0.0
  0
LINE
  5
1D2
330
1CB
100
AcDbEntity
  8
VERMASSUNG
100
AcDbLine
 10
270.3838282369
 20
108.4237840031
 30
0.0
 11
270.3838282369
 21
130.4237840031
 31
0.0
  0
MTEXT
  5
1D3
330
1CB
100
AcDbEntity
  8
VERMASSUNG
100
AcDbMText
 10
267.8056928738
 20
117.1237839521
 30
0.1
 40
2.0
 41
0.0
 71
     1
 72
     1
  1
22
  7
SLDTEXTSTYLE0
 11
2.503722994132712E-15
 21
1.0
 31
0.0
 73
     1
 44
1.0
  0
ENDBLK
  5
1CD
330
1CB
100
AcDbEntity
  8
0
100
AcDbBlockEnd
  0
BLOCK
  5
1D7
330
1D6
100
AcDbEntity
  8
0
100
AcDbBlockBegin
  2
_D_1
 70
     0
 10
0.0
 20
0.0
 30
0.0
  3
_D_1
  1

  0
ARC
  5
1D9
330
1D6
100
AcDbEntity
  8
VERMASSUNG
100
AcDbCircle
 10
252.1894553784
 20
130.4237840031
 30
0.0
 40
11.91139165716089
100
AcDbArc
 50
252.4906330447
 51
0.0
  0
SOLID
  5
1DA
330
1D6
100
AcDbEntity
  8
VERMASSUNG
100
AcDbTrace
 10
248.6057736784
 20
119.0642735963
 30
0.0
 11
251.4745473605
 21
118.0780497063
 31
0.0
 12
251.6376499045
 22
118.9631471926
 32
0.0
 13
251.6376499045
 23
118.9631471926
 33
0.0
  0
SOLID
  5
1DB
330
1D6
100
AcDbEntity
  8
VERMASSUNG
100
AcDbTrace
 10
264.1008470355
 20
130.4237840031
 30
0.0
 11
263.2851125528
 21
127.5019562783
 31
0.0
 12
264.178272816
 22
127.391209973
 32
0.0
 13
264.178272816
 23
127.391209973
 33
0.0
  0
MTEXT
  5
1DC
330
1D6
100
AcDbEntity
  8
VERMASSUNG
100
AcDbMText
 10
254.1591157033
 20
120.2951063478
 30
0.1
 40
2.0
 41
0.0
 71
     1
 72
     1
  1
107.5°
  7
SLDTEXTSTYLE0
 11
0.806492936469038
 21
0.5912437259079781
 31
0.0
 73
     1
 44
1.0
  0
ENDBLK
  5
1D8
330
1D6
100
AcDbEntity
  8
0
100
AcDbBlockEnd
  0
BLOCK
  5
1DF
330
1DE
100
AcDbEntity
  8
0
100
AcDbBlockBegin
  2
_D_2
 70
     0
 10
0.0
 20
0.0
 30
0.0
  3
_D_2
  1

  0
SOLID
  5
1E1
330
1DE
100
AcDbEntity
  8
VERMASSUNG
100
AcDbTrace
 10
118.0442682392
 20
144.2044228888
 30
0.0
 11
121.0442682392
 21
143.7544228888
 31
0.0
 12
121.0442682392
 22
144.6544228888
 32
0.0
 13
121.0442682392
 23
144.6544228888
 33
0.0
  0
SOLID
  5
1E2
330
1DE
100
AcDbEntity
  8
VERMASSUNG
100
AcDbTrace
 10
252.0442682392
 20
144.2044228888
 30
0.0
 11
249.0442682392
 21
144.6544228888
 31
0.0
 12
249.0442682392
 22
143.7544228888
 32
0.0
 13
249.0442682392
 23
143.7544228888
 33
0.0
  0
LINE
  5
1E3
330
1DE
100
AcDbEntity
  8
VERMASSUNG
100
AcDbLine
 10
118.0442682392
 20
121.0552889852
 30
0.0
 11
118.0442682392
 21
145.2044228888
 31
0.0
  0
LINE
  5
1E4
330
1DE
100
AcDbEntity
  8
VERMASSUNG
100
AcDbLine
 10
252.0442682392
 20
130.4237840031
 30
0.0
 11
252.0442682392
 21
145.2044228888
 31
0.0
  0
LINE
  5
1E5
330
1DE
100
AcDbEntity
  8
VERMASSUNG
100
AcDbLine
 10
118.0442682392
 20
144.2044228888
 30
0.0
 11
252.0442682392
 21
144.2044228888
 31
0.0
  0
MTEXT
  5
1E6
330
1DE
100
AcDbEntity
  8
VERMASSUNG
100
AcDbMText
 10
182.1442680433
 20
146.7825582519
 30
0.1
 40
2.0
 41
0.0
 71
     1
 72
     1
  1
134
  7
SLDTEXTSTYLE0
 73
     1
 44
1.0
  0
ENDBLK
  5
1E0
330
1DE
100
AcDbEntity
  8
0
100
AcDbBlockEnd
  0
BLOCK
  5
1E9
330
1E8
100
AcDbEntity
  8
0
100
AcDbBlockBegin
  2
_D_3
 70
     0
 10
0.0
 20
0.0
 30
0.0
  3
_D_3
  1

  0
SOLID
  5
1EB
330
1E8
100
AcDbEntity
  8
VERMASSUNG
100
AcDbTrace
 10
252.0442682392
 20
136.6900868127
 30
0.0
 11
249.0442682392
 21
137.1400868127
 31
0.0
 12
249.0442682392
 22
136.2400868127
 32
0.0
 13
249.0442682392
 23
136.2400868127
 33
0.0
  0
SOLID
  5
1EC
330
1E8
100
AcDbEntity
  8
VERMASSUNG
100
AcDbTrace
 10
142.0442682392
 20
136.6900868127
 30
0.0
 11
145.0442682392
 21
136.2400868127
 31
0.0
 12
145.0442682392
 22
137.1400868127
 32
0.0
 13
145.0442682392
 23
137.1400868127
 33
0.0
  0
LINE
  5
1ED
330
1E8
100
AcDbEntity
  8
VERMASSUNG
100
AcDbLine
 10
252.0442682392
 20
130.4237840031
 30
0.0
 11
252.0442682392
 21
137.6900868127
 31
0.0
  0
LINE
  5
1EE
330
1E8
100
AcDbEntity
  8
VERMASSUNG
100
AcDbLine
 10
142.0442682392
 20
128.1237840031
 30
0.0
 11
142.0442682392
 21
137.6900868127
 31
0.0
  0
LINE
  5
1EF
330
1E8
100
AcDbEntity
  8
VERMASSUNG
100
AcDbLine
 10
252.0442682392
 20
136.6900868127
 30
0.0
 11
142.0442682392
 21
136.6900868127
 31
0.0
  0
MTEXT
  5
1F0
330
1E8
100
AcDbEntity
  8
VERMASSUNG
100
AcDbMText
 10
194.4442679993
 20
139.2682221758
 30
0.1
 40
2.0
 41
0.0
 71
     1
 72
     1
  1
110
  7
SLDTEXTSTYLE0
 73
     1
 44
1.0
  0
ENDBLK
  5
1EA
330
1E8
100
AcDbEntity
  8
0
100
AcDbBlockEnd
  0
BLOCK
  5
1F3
330
1F2
100
AcDbEntity
  8
0
100
AcDbBlockBegin
  2
_D_4
 70
     0
 10
0.0
 20
0.0
 30
0.0
  3
_D_4
  1

  0
SOLID
  5
1F5
330
1F2
100
AcDbEntity
  8
VERMASSUNG
100
AcDbTrace
 10
179.7126056547
 20
92.4237840031
 30
0.0
 11
180.1626056547
 21
95.4237840031
 31
0.0
 12
179.2626056547
 22
95.4237840031
 32
0.0
 13
179.2626056547
 23
95.4237840031
 33
0.0
  0
SOLID
  5
1F6
330
1F2
100
AcDbEntity
  8
VERMASSUNG
100
AcDbTrace
 10
179.7126056547
 20
124.4237840031
 30
0.0
 11
179.2626056547
 21
121.4237840031
 31
0.0
 12
180.1626056547
 22
121.4237840031
 32
0.0
 13
180.1626056547
 23
121.4237840031
 33
0.0
  0
LINE
  5
1F7
330
1F2
100
AcDbEntity
  8
VERMASSUNG
100
AcDbLine
 10
179.7126056547
 20
92.4237840031
 30
0.0
 11
179.7126056547
 21
124.4237840031
 31
0.0
  0
MTEXT
  5
1F8
330
1F2
100
AcDbEntity
  8
VERMASSUNG
100
AcDbMText
 10
177.1344701752
 20
113.0779608386
 30
0.1
 40
2.0
 41
0.0
 71
     1
 72
     1
  1
%%c
  7
SLDTEXTSTYLE0
 11
6.123233995736766E-17
 21
1.0
 31
0.0
 73
     1
 44
1.0
  0
MTEXT
  5
1F9
330
1F2
100
AcDbEntity
  8
VERMASSUNG
100
AcDbMText
 10
176.9344701657
 20
116.687960853
 30
0.1
 40
2.0
 41
0.0
 71
     1
 72
     1
  1
32
  7
SLDTEXTSTYLE0
 11
6.123233995736766E-17
 21
1.0
 31
0.0
 73
     1
 44
1.0
  0
ENDBLK
  5
1F4
330
1F2
100
AcDbEntity
  8
0
100
AcDbBlockEnd
  0
BLOCK
  5
1FC
330
1FB
100
AcDbEntity
  8
0
100
AcDbBlockBegin
  2
_D_5
 70
     0
 10
0.0
 20
0.0
 30
0.0
  3
_D_5
  1

  0
SOLID
  5
1FE
330
1FB
100
AcDbEntity
  8
VERMASSUNG
100
AcDbTrace
 10
112.223277136
 20
128.4237840031
 30
0.0
 11
111.773277136
 21
125.4237840031
 31
0.0
 12
112.673277136
 22
125.4237840031
 32
0.0
 13
112.673277136
 23
125.4237840031
 33
0.0
  0
SOLID
  5
1FF
330
1FB
100
AcDbEntity
  8
VERMASSUNG
100
AcDbTrace
 10
112.223277136
 20
88.4237840031
 30
0.0
 11
112.673277136
 21
91.4237840031
 31
0.0
 12
111.773277136
 22
91.4237840031
 32
0.0
 13
111.773277136
 23
91.4237840031
 33
0.0
  0
LINE
  5
200
330
1FB
100
AcDbEntity
  8
VERMASSUNG
100
AcDbLine
 10
142.3442682392
 20
128.4237840031
 30
0.0
 11
111.223277136
 21
128.4237840031
 31
0.0
  0
LINE
  5
201
330
1FB
100
AcDbEntity
  8
VERMASSUNG
100
AcDbLine
 10
142.3442682392
 20
88.4237840031
 30
0.0
 11
111.223277136
 21
88.4237840031
 31
0.0
  0
LINE
  5
202
330
1FB
100
AcDbEntity
  8
VERMASSUNG
100
AcDbLine
 10
112.223277136
 20
128.4237840031
 30
0.0
 11
112.223277136
 21
88.4237840031
 31
0.0
  0
MTEXT
  5
203
330
1FB
100
AcDbEntity
  8
VERMASSUNG
100
AcDbMText
 10
109.445141647
 20
101.9187840638
 30
0.1
 40
2.0
 41
0.0
 71
     1
 72
     1
  1
PSC
  7
SLDTEXTSTYLE0
 11
-7.044195017643634E-15
 21
1.0
 31
0.0
 73
     1
 44
1.0
  0
MTEXT
  5
204
330
1FB
100
AcDbEntity
  8
VERMASSUNG
100
AcDbMText
 10
109.6451416565
 20
106.5187841659
 30
0.1
 40
2.0
 41
0.0
 71
     1
 72
     1
  1
%%c
  7
SLDTEXTSTYLE0
 11
-7.044195017643634E-15
 21
1.0
 31
0.0
 73
     1
 44
1.0
  0
MTEXT
  5
205
330
1FB
100
AcDbEntity
  8
VERMASSUNG
100
AcDbMText
 10
109.445141647
 20
110.1287846458
 30
0.1
 40
2.0
 41
0.0
 71
     1
 72
     1
  1
40
  7
SLDTEXTSTYLE0
 11
-7.044195017643634E-15
 21
1.0
 31
0.0
 73
     1
 44
1.0
  0
ENDBLK
  5
1FD
330
1FB
100
AcDbEntity
  8
0
100
AcDbBlockEnd
  0
BLOCK
  5
260
330
25F
100
AcDbEntity
  8
0
100
AcDbBlockBegin
  2
_D_6
 70
     0
 10
0.0
 20
0.0
 30
0.0
  3
_D_6
  1

  0
SOLID
  5
262
330
25F
100
AcDbEntity
  8
VERMASSUNG
100
AcDbTrace
 10
76.8446169623
 20
96.2725795884
 30
0.0
 11
78.6477392543
 21
93.8330611933
 31
0.0
 12
79.2841353573
 22
94.4694572964
 32
0.0
 13
79.2841353573
 23
94.4694572964
 33
0.0
  0
SOLID
  5
263
330
25F
100
AcDbEntity
  8
VERMASSUNG
100
AcDbTrace
 10
48.5603457148
 20
124.5568508359
 30
0.0
 11
46.7572234228
 21
126.996369231
 31
0.0
 12
46.1208273197
 22
126.3599731279
 32
0.0
 13
46.1208273197
 23
126.3599731279
 33
0.0
  0
LINE
  5
264
330
25F
100
AcDbEntity
  8
VERMASSUNG
100
AcDbLine
 10
76.8446169623
 20
96.2725795884
 30
0.0
 11
76.1375101811
 21
95.5654728072
 31
0.0
  0
LINE
  5
265
330
25F
100
AcDbEntity
  8
VERMASSUNG
100
AcDbLine
 10
48.5603457148
 20
124.5568508359
 30
0.0
 11
47.8532389336
 21
123.8497440547
 31
0.0
  0
LINE
  5
266
330
25F
100
AcDbEntity
  8
VERMASSUNG
100
AcDbLine
 10
76.8446169623
 20
96.2725795884
 30
0.0
 11
81.0872576494
 21
92.0299389013
 31
0.0
  0
LINE
  5
267
330
25F
100
AcDbEntity
  8
VERMASSUNG
100
AcDbLine
 10
76.8446169623
 20
96.2725795884
 30
0.0
 11
48.5603457148
 21
124.5568508359
 31
0.0
  0
LINE
  5
268
330
25F
100
AcDbEntity
  8
VERMASSUNG
100
AcDbLine
 10
48.5603457148
 20
124.5568508359
 30
0.0
 11
36.045562656
 21
137.0716338946
 31
0.0
  0
MTEXT
  5
269
330
25F
100
AcDbEntity
  8
VERMASSUNG
100
AcDbMText
 10
37.8685797364
 20
138.894650975
 30
0.1
 40
2.0
 41
0.0
 71
     1
 72
     1
  1
%%c
  7
SLDTEXTSTYLE0
 11
0.7071067811865464
 21
-0.7071067811865488
 31
0.0
 73
     1
 44
1.0
  0
MTEXT
  5
26A
330
25F
100
AcDbEntity
  8
VERMASSUNG
100
AcDbMText
 10
40.5626565896
 20
136.4834168478
 30
0.1
 40
2.0
 41
0.0
 71
     1
 72
     1
  1
40
  7
SLDTEXTSTYLE0
 11
0.7071067811865464
 21
-0.7071067811865488
 31
0.0
 73
     1
 44
1.0
  0
MTEXT
  5
26B
330
25F
100
AcDbEntity
  8
VERMASSUNG
100
AcDbMText
 10
44.7964586032
 20
132.2496148342
 30
0.1
 40
2.0
 41
0.0
 71
     1
 72
     1
  1
min.
  7
SLDTEXTSTYLE0
 11
0.7071067811865464
 21
-0.7071067811865488
 31
0.0
 73
     1
 44
1.0
  0
ENDBLK
  5
261
330
25F
100
AcDbEntity
  8
0
100
AcDbBlockEnd
  0
BLOCK
  5
26F
330
26E
100
AcDbEntity
  8
0
100
AcDbBlockBegin
  2
_D_7
 70
     0
 10
0.0
 20
0.0
 30
0.0
  3
_D_7
  1

  0
ARC
  5
271
330
26E
100
AcDbEntity
  8
VERMASSUNG
100
AcDbCircle
 10
62.7024813385
 20
130.4147152122
 30
0.0
 40
49.61153948162966
100
AcDbArc
 50
258.0
 51
270.0
  0
SOLID
  5
272
330
26E
100
AcDbEntity
  8
VERMASSUNG
100
AcDbTrace
 10
52.3876622808
 20
81.8873068995
 30
0.0
 11
55.2593725342
 21
80.9096667711
 31
0.0
 12
55.4198273774
 22
81.7952480736
 32
0.0
 13
55.4198273774
 23
81.7952480736
 33
0.0
  0
SOLID
  5
273
330
26E
100
AcDbEntity
  8
VERMASSUNG
100
AcDbTrace
 10
62.7024813385
 20
80.8031757305
 30
0.0
 11
59.7174362182
 21
81.3435511829
 31
0.0
 12
59.6902620321
 22
80.4439615189
 32
0.0
 13
59.6902620321
 23
80.4439615189
 33
0.0
  0
LINE
  5
274
330
26E
100
AcDbEntity
  8
VERMASSUNG
100
AcDbLine
 10
53.3656187681
 20
86.4882304351
 30
0.0
 11
52.17975059
 21
80.9091592988
 31
0.0
  0
LINE
  5
275
330
26E
100
AcDbEntity
  8
VERMASSUNG
100
AcDbLine
 10
62.7024813385
 20
85.9237840031
 30
0.0
 11
62.7024813385
 21
79.8031757305
 31
0.0
  0
MTEXT
  5
276
330
26E
100
AcDbEntity
  8
VERMASSUNG
100
AcDbMText
 10
55.1009426966
 20
83.9211918607
 30
0.1
 40
2.0
 41
0.0
 71
     1
 72
     1
  1
12°
  7
SLDTEXTSTYLE0
 11
0.9945218953682752
 21
-0.1045284632676357
 31
0.0
 73
     1
 44
1.0
  0
ENDBLK
  5
270
330
26E
100
AcDbEntity
  8
0
100
AcDbBlockEnd
  0
BLOCK
  5
278
330
277
100
AcDbEntity
  8
0
100
AcDbBlockBegin
  2
SW_CENTERMARKSYMBOL_0
 70
     0
 10
0.0
 20
0.0
 30
0.0
  3
SW_CENTERMARKSYMBOL_0
  1

  0
LINE
  5
27A
330
277
100
AcDbEntity
  8
VERMASSUNG
 62
     0
100
AcDbLine
 10
0.0
 20
0.0
 30
0.0
 11
0.0
 21
2.5
 31
0.0
  0
LINE
  5
27B
330
277
100
AcDbEntity
  8
VERMASSUNG
 62
     0
100
AcDbLine
 10
0.0
 20
0.0
 30
0.0
 11
-2.5
 21
0.0
 31
0.0
  0
LINE
  5
27C
330
277
100
AcDbEntity
  8
VERMASSUNG
 62
     0
100
AcDbLine
 10
0.0
 20
0.0
 30
0.0
 11
0.0
 21
-2.5
 31
0.0
  0
LINE
  5
27D
330
277
100
AcDbEntity
  8
VERMASSUNG
 62
     0
100
AcDbLine
 10
0.0
 20
0.0
 30
0.0
 11
2.5
 21
0.0
 31
0.0
  0
LINE
  5
27E
330
277
100
AcDbEntity
  8
VERMASSUNG
 62
     0
100
AcDbLine
 10
0.0
 20
5.0
 30
0.0
 11
0.0
 21
22.5
 31
0.0
  0
LINE
  5
27F
330
277
100
AcDbEntity
  8
VERMASSUNG
 62
     0
100
AcDbLine
 10
-5.0
 20
0.0
 30
0.0
 11
-22.5
 21
0.0
 31
0.0
  0
LINE
  5
280
330
277
100
AcDbEntity
  8
VERMASSUNG
 62
     0
100
AcDbLine
 10
0.0
 20
-5.0
 30
0.0
 11
0.0
 21
-22.5
 31
0.0
  0
LINE
  5
281
330
277
100
AcDbEntity
  8
VERMASSUNG
 62
     0
100
AcDbLine
 10
5.0
 20
0.0
 30
0.0
 11
22.5
 21
0.0
 31
0.0
  0
ENDBLK
  5
279
330
277
100
AcDbEntity
  8
0
100
AcDbBlockEnd
  0
ENDSEC
  0
SECTION
  2
ENTITIES
  0
MTEXT
  5
49
330
1F
100
AcDbEntity
  8
KOPF_DÜNN
100
AcDbMText
 10
13.8892156294
 20
23.8442973028
 30
0.0
 40
3.0
 41
0.0
 71
     1
 72
     1
  1
PS4.PDF.RQB.110
  7
SLDTEXTSTYLE0
 73
     1
 44
1.0
  0
MTEXT
  5
4A
330
1F
100
AcDbEntity
  8
VERMASSUNG
100
AcDbMText
 10
13.9329988022
 20
28.8834360957
 30
0.0
 40
3.0
 41
0.0
 71
     1
 72
     1
  1
Bohrstange rechts_Boring bar right
  7
SLDTEXTSTYLE0
 73
     1
 44
1.0
  0
MTEXT
  5
4B
330
1F
100
AcDbEntity
  8
VERMASSUNG
100
AcDbMText
 10
98.8601118557
 20
13.8365368179
 30
0.0
 40
2.0
 41
0.0
 71
     1
 72
     1
  1
Datum: 08.06.2012
  7
SLDTEXTSTYLE0
 73
     1
 44
1.0
  0
MTEXT
  5
4C
330
1F
100
AcDbEntity
  8
VERMASSUNG
100
AcDbMText
 10
13.933048693
 20
18.0482802738
 30
0.0
 40
2.0
 41
0.0
 71
     1
 72
     1
  1
PSC ø40 / Wp.: DN..15 06..
  7
SLDTEXTSTYLE0
 73
     1
 44
1.0
  0
MTEXT
  5
4D
330
1F
100
AcDbEntity
  8
VERMASSUNG
100
AcDbMText
 10
13.9808475933
 20
13.9090973692
 30
0.0
 40
2.0
 41
0.0
 71
     1
 72
     1
  1
Gewicht: 699g
  7
SLDTEXTSTYLE0
 73
     1
 44
1.0
  0
ARC
  5
4E
330
1F
100
AcDbEntity
  8
0
  6
Continuous
 62
     7
370
    15
100
AcDbCircle
 10
161.4442682392
 20
89.0237840031
 30
0.0
 40
0.5999999999999943
100
AcDbArc
 50
270.0
 51
0.0
  0
ARC
  5
4F
330
1F
100
AcDbEntity
  8
0
  6
Continuous
 62
     7
370
    15
100
AcDbCircle
 10
161.4442682392
 20
127.8237840031
 30
0.0
 40
0.5999999999999801
100
AcDbArc
 50
0.0
 51
90.0
  0
LINE
  5
50
330
1F
100
AcDbEntity
  8
0
  6
Continuous
 62
     7
370
    15
100
AcDbLine
 10
142.3442682535
 20
88.4237844502
 30
0.0
 11
161.4442688114
 21
88.4237844502
 31
0.0
  0
LINE
  5
51
330
1F
100
AcDbEntity
  8
0
  6
Continuous
 62
     7
370
    15
100
AcDbLine
 10
161.4442688114
 20
128.4237835561
 30
0.0
 11
142.3442682535
 21
128.4237835561
 31
0.0
  0
ARC
  5
52
330
1F
100
AcDbEntity
  8
0
  6
Continuous
 62
     7
370
    15
100
AcDbCircle
 10
142.3442682392
 20
88.7237840031
 30
0.0
 40
0.3000000000000114
100
AcDbArc
 50
180.0
 51
270.0
  0
ARC
  5
53
330
1F
100
AcDbEntity
  8
0
  6
Continuous
 62
     7
370
    15
100
AcDbCircle
 10
142.3442682392
 20
128.1237840031
 30
0.0
 40
0.3000000000000114
100
AcDbArc
 50
90.0
 51
180.0
  0
ARC
  5
54
330
1F
100
AcDbEntity
  8
0
  6
Continuous
 62
     7
370
    15
100
AcDbCircle
 10
164.0442682392
 20
90.4237840031
 30
0.0
 40
2.000000000000028
100
AcDbArc
 50
90.0
 51
180.0
  0
ARC
  5
55
330
1F
100
AcDbEntity
  8
0
  6
Continuous
 62
     7
370
    15
100
AcDbCircle
 10
164.0442682392
 20
126.4237840031
 30
0.0
 40
2.000000000000028
100
AcDbArc
 50
180.0
 51
270.0
  0
LINE
  5
56
330
1F
100
AcDbEntity
  8
0
  6
Continuous
 62
     7
370
    15
100
AcDbLine
 10
164.04426812
 20
92.4237832432
 30
0.0
 11
225.6300520784
 21
92.4237832432
 31
0.0
  0
LINE
  5
57
330
1F
100
AcDbEntity
  8
0
  6
Continuous
 62
     7
370
    15
100
AcDbLine
 10
225.6300520784
 20
124.4237847631
 30
0.0
 11
164.04426812
 21
124.4237847631
 31
0.0
  0
LWPOLYLINE
  5
58
330
1F
100
AcDbEntity
  8
0
  6
Continuous
 62
     7
370
    15
100
AcDbPolyline
 90
        3
 70
   128
 43
0.0
 10
141.8442682443
 20
94.3339640279
 10
141.9697231795
 20
94.2656617616
 10
142.0442682392
 20
94.2129237582
  0
LWPOLYLINE
  5
59
330
1F
100
AcDbEntity
  8
0
  6
Continuous
 62
     7
370
    15
100
AcDbPolyline
 90
        3
 70
   128
 43
0.0
 10
142.0442682392
 20
122.6346442481
 10
141.9697231795
 20
122.5819062446
 10
141.8442682443
 20
122.5136039783
  0
ARC
  5
5A
330
1F
100
AcDbEntity
  8
0
  6
Continuous
 62
     7
370
    15
100
AcDbCircle
 10
225.6300546768
 20
91.4237840031
 30
0.0
 40
0.9999999999999858
100
AcDbArc
 50
45.0
 51
90.0
  0
ARC
  5
5B
330
1F
100
AcDbEntity
  8
0
  6
Continuous
 62
     7
370
    15
100
AcDbCircle
 10
225.6300546768
 20
125.4237840031
 30
0.0
 40
0.9999999999999716
100
AcDbArc
 50
270.0
 51
315.0
  0
LINE
  5
5C
330
1F
100
AcDbEntity
  8
0
  6
Continuous
 62
     7
370
    15
100
AcDbLine
 10
226.9421887285
 20
125.3217026596
 30
0.0
 11
226.3371643312
 21
124.7166763996
 31
0.0
  0
LINE
  5
5D
330
1F
100
AcDbEntity
  8
0
  6
Continuous
 62
     7
370
    15
100
AcDbLine
 10
226.3371643312
 20
92.1308916067
 30
0.0
 11
226.54426812
 21
91.9237840925
 31
0.0
  0
LINE
  5
5E
330
1F
100
AcDbEntity
  8
0
  6
Continuous
 62
     7
370
    15
100
AcDbLine
 10
226.54426812
 20
91.9237840925
 30
0.0
 11
239.2586541063
 21
91.9237840925
 31
0.0
  0
LINE
  5
5F
330
1F
100
AcDbEntity
  8
0
  6
Continuous
 62
     7
370
    15
100
AcDbLine
 10
246.841638971
 20
114.6634641108
 30
0.0
 11
246.970735181
 21
114.9188369517
 31
0.0
  0
LINE
  5
60
330
1F
100
AcDbEntity
  8
0
  6
Continuous
 62
     7
370
    15
100
AcDbLine
 10
247.0859882123
 20
115.0543974717
 30
0.0
 11
247.7497380859
 21
116.3674039771
 31
0.0
  0
LINE
  5
61
330
1F
100
AcDbEntity
  8
0
  6
Continuous
 62
     7
370
    15
100
AcDbLine
 10
237.5401329882
 20
126.154390723
 30
0.0
 11
237.4938201792
 21
126.0627802466
 31
0.0
  0
LINE
  5
62
330
1F
100
AcDbEntity
  8
0
  6
Continuous
 62
     7
370
    15
100
AcDbLine
 10
244.3746101744
 20
119.3590747197
 30
0.0
 11
244.4386255629
 21
119.4795049732
 31
0.0
  0
LINE
  5
63
330
1F
100
AcDbEntity
  8
0
  6
Continuous
 62
     7
370
    15
100
AcDbLine
 10
240.2866032607
 20
121.6819403698
 30
0.0
 11
240.0791939981
 21
121.29175067
 31
0.0
  0
LINE
  5
64
330
1F
100
AcDbEntity
  8
0
  6
Continuous
 62
     7
370
    15
100
AcDbLine
 10
162.0442677922
 20
127.8237845753
 30
0.0
 11
162.0442677922
 21
89.0237834309
 31
0.0
  0
SPLINE
  5
65
330
1F
100
AcDbEntity
  8
0
  6
Continuous
 62
     7
370
    15
100
AcDbSpline
210
0.0
220
0.0
230
1.0
 70
     8
 71
     3
 72
    12
 73
     8
 74
     0
 42
0.00000001
 43
0.00000001
 12
1.0
 22
0.0
 32
0.0
 13
1.0
 23
0.0
 33
0.0
 40
0.0
 40
0.0
 40
0.0
 40
0.0
 40
0.2500000000000008
 40
0.2500000000000008
 40
0.5000000000000016
 40
0.5000000000000016
 40
1.0
 40
1.0
 40
1.0
 40
1.0
 10
148.9761702412148
 20
114.2529969987873
 30
0.0
 10
148.9386583551702
 20
114.2529969987873
 30
0.0
 10
148.9033710074654
 20
114.2678018130741
 30
0.0
 10
148.844441159227
 20
114.3113936861999
 30
0.0
 10
148.820915432758
 20
114.3389071122859
 30
0.0
 10
148.7606566449899
 20
114.4280388443995
 30
0.0
 10
148.7350618827005
 20
114.4944246950173
 30
0.0
 10
148.7163626200795
 20
114.5620291301947
 30
0.0
  0
LINE
  5
66
330
1F
100
AcDbEntity
  8
0
  6
Continuous
 62
     7
370
    15
100
AcDbLine
 10
151.1123661584
 20
114.2529971902
 30
0.0
 11
148.9761701486
 21
114.2529971902
 31
0.0
  0
SPLINE
  5
67
330
1F
100
AcDbEntity
  8
0
  6
Continuous
 62
     7
370
    15
100
AcDbSpline
210
0.0
220
0.0
230
1.0
 70
     8
 71
     3
 72
    12
 73
     8
 74
     0
 42
0.00000001
 43
0.00000001
 12
1.0
 22
0.0
 32
0.0
 13
1.0
 23
0.0
 33
0.0
 40
0.0
 40
0.0
 40
0.0
 40
0.0
 40
0.5000000000000027
 40
0.5000000000000027
 40
0.7500000000000013
 40
0.7500000000000013
 40
1.0
 40
1.0
 40
1.0
 40
1.0
 10
151.3721738583518
 20
114.5620291301947
 30
0.0
 10
151.3534806252214
 20
114.4944464937543
 30
0.0
 10
151.3278253278096
 20
114.4279639242769
 30
0.0
 10
151.2676647051231
 20
114.3389688413794
 30
0.0
 10
151.2435923933688
 20
114.3109669443802
 30
0.0
 10
151.1852108730182
 20
114.2678905437151
 30
0.0
 10
151.1497420453652
 20
114.2529969987873
 30
0.0
 10
151.1123662372164
 20
114.2529969987873
 30
0.0
  0
ELLIPSE
  5
68
330
1F
100
AcDbEntity
  8
0
  6
Continuous
 62
     7
370
    15
100
AcDbEllipse
 10
141.0953390668
 20
108.4237840031
 30
0.0
 11
9.367417879781694
 21
19.74174915274993
 31
0.0
210
0.0
220
0.0
230
1.0
 40
0.3419987131
 41
5.185211263708394
 42
6.132113578252555
  0
SPLINE
  5
69
330
1F
100
AcDbEntity
  8
0
  6
Continuous
 62
     7
370
    15
100
AcDbSpline
210
0.0
220
0.0
230
1.0
 70
     8
 71
     3
 72
    12
 73
     8
 74
     0
 42
0.00000001
 43
0.00000001
 12
1.0
 22
0.0
 32
0.0
 13
1.0
 23
0.0
 33
0.0
 40
0.0
 40
0.0
 40
0.0
 40
0.0
 40
0.2500000000000002
 40
0.2500000000000002
 40
0.5000000000000003
 40
0.5000000000000003
 40
1.0
 40
1.0
 40
1.0
 40
1.0
 10
151.1123662372165
 20
127.5554403833691
 30
0.0
 10
151.1498781232611
 20
127.5554403833691
 30
0.0
 10
151.1851654709658
 20
127.5509368391066
 30
0.0
 10
151.2440953192042
 20
127.5375636396533
 30
0.0
 10
151.2676210456733
 20
127.5290787370821
 30
0.0
 10
151.3278798334414
 20
127.5013309332476
 30
0.0
 10
151.3534745957307
 20
127.4803410695072
 30
0.0
 10
151.3721738583518
 20
127.4585402863176
 30
0.0
  0
LINE
  5
6A
330
1F
100
AcDbEntity
  8
0
  6
Continuous
 62
     7
370
    15
100
AcDbLine
 10
148.9761701486
 20
127.5554407393
 30
0.0
 11
151.1123661584
 21
127.5554407393
 31
0.0
  0
SPLINE
  5
6B
330
1F
100
AcDbEntity
  8
0
  6
Continuous
 62
     7
370
    15
100
AcDbSpline
210
0.0
220
0.0
230
1.0
 70
     8
 71
     3
 72
    12
 73
     8
 74
     0
 42
0.00000001
 43
0.00000001
 12
1.0
 22
0.0
 32
0.0
 13
1.0
 23
0.0
 33
0.0
 40
0.0
 40
0.0
 40
0.0
 40
0.0
 40
0.4999999999999971
 40
0.4999999999999971
 40
0.7499999999999986
 40
0.7499999999999986
 40
1.0
 40
1.0
 40
1.0
 40
1.0
 10
148.7163626200795
 20
127.4585402863176
 30
0.0
 10
148.7350558532099
 20
127.4803340399456
 30
0.0
 10
148.7607111506217
 20
127.5013542016553
 30
0.0
 10
148.8208717733082
 20
127.529059547619
 30
0.0
 10
148.8449440850625
 20
127.5376947638124
 30
0.0
 10
148.903325605413
 20
127.5509094090389
 30
0.0
 10
148.9387944330661
 20
127.5554403833691
 30
0.0
 10
148.9761702412148
 20
127.5554403833691
 30
0.0
  0
ELLIPSE
  5
6C
330
1F
100
AcDbEntity
  8
0
  6
Continuous
 62
     7
370
    15
100
AcDbEllipse
 10
158.9931974117
 20
108.4237840031
 30
0.0
 11
-9.367417879781556
 21
19.74174915274993
 31
0.0
210
0.0
220
0.0
230
1.0
 40
0.3419987131
 41
0.1510717289270775
 42
1.097974043471208
  0
SPLINE
  5
6D
330
1F
100
AcDbEntity
  8
0
  6
Continuous
 62
     7
370
    15
100
AcDbSpline
210
0.0
220
0.0
230
1.0
 70
     8
 71
     3
 72
    12
 73
     8
 74
     0
 42
0.00000001
 43
0.00000001
 12
1.0
 22
0.0
 32
0.0
 13
1.0
 23
0.0
 33
0.0
 40
0.0
 40
0.0
 40
0.0
 40
0.0
 40
0.2500000000000008
 40
0.2500000000000008
 40
0.5000000000000017
 40
0.5000000000000017
 40
1.0
 40
1.0
 40
1.0
 40
1.0
 10
148.9761702412148
 20
89.2921276229024
 30
0.0
 10
148.938669418337
 20
89.29212762290238
 30
0.0
 10
148.9033910143011
 20
89.29662859076556
 30
0.0
 10
148.8444732942487
 20
89.30999511198286
 30
0.0
 10
148.8209499128503
 20
89.3184763722277
 30
0.0
 10
148.7606943283844
 20
89.34621376790562
 30
0.0
 10
148.7351726759733
 20
89.36709776695865
 30
0.0
 10
148.7163626200795
 20
89.38902771995383
 30
0.0
  0
LINE
  5
6E
330
1F
100
AcDbEntity
  8
0
  6
Continuous
 62
     7
370
    15
100
AcDbLine
 10
151.1123661584
 20
89.292127267
 30
0.0
 11
148.9761701486
 21
89.292127267
 31
0.0
  0
SPLINE
  5
6F
330
1F
100
AcDbEntity
  8
0
  6
Continuous
 62
     7
370
    15
100
AcDbSpline
210
0.0
220
0.0
230
1.0
 70
     8
 71
     3
 72
    12
 73
     8
 74
     0
 42
0.00000001
 43
0.00000001
 12
1.0
 22
0.0
 32
0.0
 13
1.0
 23
0.0
 33
0.0
 40
0.0
 40
0.0
 40
0.0
 40
0.0
 40
0.4999999999999977
 40
0.4999999999999977
 40
0.7499999999999988
 40
0.7499999999999988
 40
1.0
 40
1.0
 40
1.0
 40
1.0
 10
151.3721738583518
 20
89.38902771995383
 30
0.0
 10
151.3533706255001
 20
89.36710572169277
 30
0.0
 10
151.3278339664809
 20
89.34621191368284
 30
0.0
 10
151.2676077925324
 20
89.31848518756506
 30
0.0
 10
151.2436817151325
 20
89.30991205418961
 30
0.0
 10
151.1856207949511
 20
89.29673294838207
 30
0.0
 10
151.1498190963252
 20
89.29212762290238
 30
0.0
 10
151.1123662372164
 20
89.29212762290238
 30
0.0
  0
ELLIPSE
  5
70
330
1F
100
AcDbEntity
  8
0
  6
Continuous
 62
     7
370
    15
100
AcDbEllipse
 10
141.0953390668
 20
108.4237840031
 30
0.0
 11
-9.367417879781785
 21
19.74174915274996
 31
0.0
210
0.0
220
0.0
230
1.0
 40
0.3419987131
 41
3.292664382516895
 42
4.239566697060999
  0
SPLINE
  5
71
330
1F
100
AcDbEntity
  8
0
  6
Continuous
 62
     7
370
    15
100
AcDbSpline
210
0.0
220
0.0
230
1.0
 70
     8
 71
     3
 72
    12
 73
     8
 74
     0
 42
0.00000001
 43
0.00000001
 12
1.0
 22
0.0
 32
0.0
 13
1.0
 23
0.0
 33
0.0
 40
0.0
 40
0.0
 40
0.0
 40
0.0
 40
0.2500000000000003
 40
0.2500000000000003
 40
0.5000000000000006
 40
0.5000000000000006
 40
1.0
 40
1.0
 40
1.0
 40
1.0
 10
151.1123662372164
 20
102.594571007484
 30
0.0
 10
151.1498670600942
 20
102.594571007484
 30
0.0
 10
151.1851454641302
 20
102.5797746697309
 30
0.0
 10
151.2440631841826
 20
102.5362044085718
 30
0.0
 10
151.2675865655809
 20
102.5087026100702
 30
0.0
 10
151.3278421500469
 20
102.4196034468272
 30
0.0
 10
151.353363802458
 20
102.3535438680448
 30
0.0
 10
151.3721738583518
 20
102.2855388760766
 30
0.0
  0
LINE
  5
72
330
1F
100
AcDbEntity
  8
0
  6
Continuous
 62
     7
370
    15
100
AcDbLine
 10
148.9761701486
 20
102.594570816
 30
0.0
 11
151.1123661584
 21
102.594570816
 31
0.0
  0
SPLINE
  5
73
330
1F
100
AcDbEntity
  8
0
  6
Continuous
 62
     7
370
    15
100
AcDbSpline
210
0.0
220
0.0
230
1.0
 70
     8
 71
     3
 72
    12
 73
     8
 74
     0
 42
0.00000001
 43
0.00000001
 12
1.0
 22
0.0
 32
0.0
 13
1.0
 23
0.0
 33
0.0
 40
0.0
 40
0.0
 40
0.0
 40
0.0
 40
0.500000000000001
 40
0.500000000000001
 40
0.7500000000000004
 40
0.7500000000000004
 40
1.0
 40
1.0
 40
1.0
 40
1.0
 10
148.7163626200795
 20
102.2855388760766
 30
0.0
 10
148.7351658529312
 20
102.353519200339
 30
0.0
 10
148.7607025119504
 20
102.4196095881358
 30
0.0
 10
148.8209286858988
 20
102.508674200583
 30
0.0
 10
148.8448547632988
 20
102.5364752876029
 30
0.0
 10
148.9029156834801
 20
102.5794343608278
 30
0.0
 10
148.9387173821061
 20
102.594571007484
 30
0.0
 10
148.9761702412148
 20
102.594571007484
 30
0.0
  0
ELLIPSE
  5
74
330
1F
100
AcDbEntity
  8
0
  6
Continuous
 62
     7
370
    15
100
AcDbEllipse
 10
158.9931974117
 20
108.4237840031
 30
0.0
 11
9.367417879781669
 21
19.74174915274996
 31
0.0
210
0.0
220
0.0
230
1.0
 40
0.3419987131
 41
2.043618610118599
 42
2.99052092466273
  0
LINE
  5
75
330
1F
100
AcDbEntity
  8
0
  6
Continuous
 62
     7
370
    15
100
AcDbLine
 10
142.0442682392
 20
88.7237839406
 30
0.0
 11
142.0442682392
 21
128.1237840657
 31
0.0
  0
ELLIPSE
  5
76
330
1F
100
AcDbEntity
  8
0
  6
Continuous
 62
     7
370
    15
100
AcDbEllipse
 10
224.0339334809
 20
108.4237840031
 30
0.0
 11
-0.9567516492559207
 21
15.99804791108561
 31
0.0
210
0.0
220
0.0
230
1.0
 40
0.2612235458
 41
0.4042282772435513
 42
2.287243328004809
  0
ELLIPSE
  5
77
330
1F
100
AcDbEntity
  8
0
  6
Continuous
 62
     7
370
    15
100
AcDbEllipse
 10
221.2406369074
 20
116.4780470538
 30
0.0
 11
-0.01037355945925356
 21
2.312655903003289
 31
0.0
210
0.0
220
0.0
230
1.0
 40
0.2522252297
 41
5.784274248687521
 42
9.888124866070603
  0
SPLINE
  5
78
330
1F
100
AcDbEntity
  8
0
  6
Continuous
 62
     7
370
    15
100
AcDbSpline
210
0.0
220
0.0
230
1.0
 70
     8
 71
     3
 72
    14
 73
    10
 74
     0
 42
0.00000001
 43
0.00000001
 12
1.0
 22
0.0
 32
0.0
 13
1.0
 23
0.0
 33
0.0
 40
0.0
 40
0.0
 40
0.0
 40
0.0
 40
0.25
 40
0.25
 40
0.5
 40
0.5
 40
0.75
 40
0.75
 40
1.0
 40
1.0
 40
1.0
 40
1.0
 10
224.0948161240126
 20
95.95154806093294
 30
0.0
 10
223.7681832608435
 20
95.97563650786877
 30
0.0
 10
223.4572862194869
 20
96.03583404528163
 30
0.0
 10
222.8739299388978
 20
96.22799319650525
 30
0.0
 10
222.6139176119772
 20
96.35637573592034
 30
0.0
 10
222.1626537309826
 20
96.67300821071589
 30
0.0
 10
221.9777075663187
 20
96.85692940972218
 30
0.0
 10
221.6846434176259
 20
97.26878740200122
 30
0.0
 10
221.5800247285417
 20
97.49094239860453
 30
0.0
 10
221.5106240349484
 20
97.7292361654311
 30
0.0
  0
ELLIPSE
  5
79
330
1F
100
AcDbEntity
  8
0
  6
Continuous
 62
     7
370
    15
100
AcDbEllipse
 10
292.6934837853
 20
108.4237840031
 30
0.0
 11
152.2294392357667
 21
-3.362096597003827
 31
0.0
210
0.0
220
0.0
230
1.0
 40
0.1027578619
 41
4.24719239408864
 42
4.258457631709121
  0
ELLIPSE
  5
7A
330
1F
100
AcDbEntity
  8
0
  6
Continuous
 62
     7
370
    15
100
AcDbEllipse
 10
292.6934837853
 20
108.4237840031
 30
0.0
 11
152.2294392357667
 21
-3.362096597003827
 31
0.0
210
0.0
220
0.0
230
1.0
 40
0.1027578619
 41
2.029266630176572
 42
2.040531867797053
  0
SPLINE
  5
7B
330
1F
100
AcDbEntity
  8
0
  6
Continuous
 62
     7
370
    15
100
AcDbSpline
210
0.0
220
0.0
230
1.0
 70
     8
 71
     3
 72
    18
 73
    14
 74
     0
 42
0.00000001
 43
0.00000001
 12
1.0
 22
0.0
 32
0.0
 13
1.0
 23
0.0
 33
0.0
 40
0.0
 40
0.0
 40
0.0
 40
0.0
 40
0.2500000000000006
 40
0.2500000000000006
 40
0.3750000000000004
 40
0.3750000000000004
 40
0.5000000000000002
 40
0.5000000000000002
 40
0.7500000000000003
 40
0.7500000000000003
 40
0.8750000000000001
 40
0.8750000000000001
 40
1.0
 40
1.0
 40
1.0
 40
1.0
 10
221.5106240349484
 20
123.0341901317965
 30
0.0
 10
221.5801231059494
 20
123.1649678862216
 30
0.0
 10
221.6847856631312
 20
123.2812391317841
 30
0.0
 10
221.903459341898
 20
123.436116109822
 30
0.0
 10
221.9875425098198
 20
123.4847445767497
 30
0.0
 10
222.1730423866558
 20
123.5727930501986
 30
0.0
 10
222.2747817676898
 20
123.6125948621409
 30
0.0
 10
222.6083391017697
 20
123.7205931274937
 30
0.0
 10
222.8743092757916
 20
123.7780091074994
 30
0.0
 10
223.3059791452857
 20
123.8387371978874
 30
0.0
 10
223.4559933736593
 20
123.8550746556793
 30
0.0
 10
223.7690506200906
 20
123.8803737882394
 30
0.0
 10
223.9310392819103
 20
123.8891905512346
 30
0.0
 10
224.0948161240126
 20
123.8941108950655
 30
0.0
  0
SPLINE
  5
7C
330
1F
100
AcDbEntity
  8
0
  6
Continuous
 62
     7
370
    15
100
AcDbSpline
210
0.0
220
0.0
230
1.0
 70
     8
 71
     3
 72
    18
 73
    14
 74
     0
 42
0.00000001
 43
0.00000001
 12
1.0
 22
0.0
 32
0.0
 13
1.0
 23
0.0
 33
0.0
 40
0.0
 40
0.0
 40
0.0
 40
0.0
 40
0.25
 40
0.25
 40
0.5
 40
0.5
 40
0.625
 40
0.625
 40
0.75
 40
0.75
 40
0.875
 40
0.875
 40
1.0
 40
1.0
 40
1.0
 40
1.0
 10
140.7881839216516
 20
94.5925956204569
 30
0.0
 10
140.8224807411034
 20
94.59173396497506
 30
0.0
 10
140.8602920210806
 20
94.59198556807003
 30
0.0
 10
140.9468643882606
 20
94.59438408068186
 30
0.0
 10
140.9952035183435
 20
94.59655506541378
 30
0.0
 10
141.0844758756659
 20
94.60064994370902
 30
0.0
 10
141.1170173414419
 20
94.60215456165864
 30
0.0
 10
141.1931935412953
 20
94.60511761962674
 30
0.0
 10
141.2364096012899
 20
94.60660495788252
 30
0.0
 10
141.3420989032558
 20
94.60823036920621
 30
0.0
 10
141.4070699619704
 20
94.60818812813231
 30
0.0
 10
141.5407303503282
 20
94.6041659548113
 30
0.0
 10
141.6000368036644
 20
94.6006247279878
 30
0.0
 10
141.6492913503403
 20
94.5970580205517
 30
0.0
  0
SPLINE
  5
7D
330
1F
100
AcDbEntity
  8
0
  6
Continuous
 62
     7
370
    15
100
AcDbSpline
210
0.0
220
0.0
230
1.0
 70
     8
 71
     3
 72
    14
 73
    10
 74
     0
 42
0.00000001
 43
0.00000001
 12
1.0
 22
0.0
 32
0.0
 13
1.0
 23
0.0
 33
0.0
 40
0.0
 40
0.0
 40
0.0
 40
0.0
 40
0.1249999999999995
 40
0.1249999999999995
 40
0.249999999999999
 40
0.249999999999999
 40
0.499999999999998
 40
0.499999999999998
 40
1.0
 40
1.0
 40
1.0
 40
1.0
 10
141.6492913503095
 20
94.59705802057066
 30
0.0
 10
141.6608181280269
 20
94.59622332313664
 30
0.0
 10
141.6741709356793
 20
94.59448290885646
 30
0.0
 10
141.7043135082796
 20
94.58723531885616
 30
0.0
 10
141.7193740338941
 20
94.5818882846282
 30
0.0
 10
141.7547203878224
 20
94.56614101439975
 30
0.0
 10
141.7684524875513
 20
94.55630274023848
 30
0.0
 10
141.8018237332424
 20
94.530098754288
 30
0.0
 10
141.8127641010964
 20
94.5160108528874
 30
0.0
 10
141.8214172261097
 20
94.50323722939905
 30
0.0
  0
LINE
  5
7E
330
1F
100
AcDbEntity
  8
0
  6
Continuous
 62
     7
370
    15
100
AcDbLine
 10
141.8442682443
 20
102.9183390555
 30
0.0
 11
141.8442682443
 21
94.3339640279
 31
0.0
  0
SPLINE
  5
7F
330
1F
100
AcDbEntity
  8
0
  6
Continuous
 62
     7
370
    15
100
AcDbSpline
210
0.0
220
0.0
230
1.0
 70
     8
 71
     3
 72
    16
 73
    12
 74
     0
 42
0.00000001
 43
0.00000001
 12
1.0
 22
0.0
 32
0.0
 13
1.0
 23
0.0
 33
0.0
 40
0.0
 40
0.0
 40
0.0
 40
0.0
 40
0.5000000000000042
 40
0.5000000000000042
 40
0.7500000000000048
 40
0.7500000000000048
 40
0.8750000000000034
 40
0.8750000000000034
 40
0.9375000000000018
 40
0.9375000000000018
 40
1.0
 40
1.0
 40
1.0
 40
1.0
 10
141.8442682392156
 20
102.918339236173
 30
0.0
 10
141.8442682392156
 20
103.0359146171924
 30
0.0
 10
141.8403848140567
 20
103.1546103702937
 30
0.0
 10
141.815569488782
 20
103.3353678482862
 30
0.0
 10
141.8047300410695
 20
103.3970119250591
 30
0.0
 10
141.7715142590207
 20
103.4863488994004
 30
0.0
 10
141.758132515392
 20
103.5166084308255
 30
0.0
 10
141.7226228655297
 20
103.550124674813
 30
0.0
 10
141.7072058990289
 20
103.558263020619
 30
0.0
 10
141.6755048768803
 20
103.5582476111877
 30
0.0
 10
141.6613585919295
 20
103.5512053738318
 30
0.0
 10
141.6492913503399
 20
103.5420643102222
 30
0.0
  0
SPLINE
  5
80
330
1F
100
AcDbEntity
  8
0
  6
Continuous
 62
     7
370
    15
100
AcDbSpline
210
0.0
220
0.0
230
1.0
 70
     8
 71
     3
 72
    18
 73
    14
 74
     0
 42
0.00000001
 43
0.00000001
 12
1.0
 22
0.0
 32
0.0
 13
1.0
 23
0.0
 33
0.0
 40
0.0
 40
0.0
 40
0.0
 40
0.0
 40
0.1250000000000003
 40
0.1250000000000003
 40
0.2500000000000007
 40
0.2500000000000007
 40
0.375000000000001
 40
0.375000000000001
 40
0.5000000000000013
 40
0.5000000000000013
 40
0.7500000000000007
 40
0.7500000000000007
 40
1.0
 40
1.0
 40
1.0
 40
1.0
 10
141.6492913503461
 20
103.542064310215
 30
0.0
 10
141.6005867666581
 20
103.5051700710244
 30
0.0
 10
141.5420782838826
 20
103.4756387665984
 30
0.0
 10
141.4103514686128
 20
103.4664027933195
 30
0.0
 10
141.3455933971152
 20
103.4894659678765
 30
0.0
 10
141.2403827949645
 20
103.556984089524
 30
0.0
 10
141.1971666464443
 20
103.5999951861745
 30
0.0
 10
141.1209883303605
 20
103.6902372081706
 30
0.0
 10
141.0881334980693
 20
103.7378680896459
 30
0.0
 10
140.9977655921083
 20
103.8849323889954
 30
0.0
 10
140.9483429342687
 20
103.9888457143
 30
0.0
 10
140.8606918086771
 20
104.1999796779403
 30
0.0
 10
140.8226302612865
 20
104.3077024226991
 30
0.0
 10
140.7881839216526
 20
104.4170355386085
 30
0.0
  0
SPLINE
  5
81
330
1F
100
AcDbEntity
  8
0
  6
Continuous
 62
     7
370
    15
100
AcDbSpline
210
0.0
220
0.0
230
1.0
 70
     8
 71
     3
 72
     8
 73
     4
 74
     0
 42
0.00000001
 43
0.00000001
 12
1.0
 22
0.0
 32
0.0
 13
1.0
 23
0.0
 33
0.0
 40
0.0
 40
0.0
 40
0.0
 40
0.0
 40
1.0
 40
1.0
 40
1.0
 40
1.0
 10
140.7229478956559
 20
104.6522393127374
 30
0.0
 10
140.7423741009548
 20
104.5726470411646
 30
0.0
 10
140.7638709253833
 20
104.4942052950318
 30
0.0
 10
140.7881839216526
 20
104.4170355386085
 30
0.0
  0
SPLINE
  5
82
330
1F
100
AcDbEntity
  8
0
  6
Continuous
 62
     7
370
    15
100
AcDbSpline
210
0.0
220
0.0
230
1.0
 70
     8
 71
     3
 72
     8
 73
     4
 74
     0
 42
0.00000001
 43
0.00000001
 12
1.0
 22
0.0
 32
0.0
 13
1.0
 23
0.0
 33
0.0
 40
0.0
 40
0.0
 40
0.0
 40
0.0
 40
1.0
 40
1.0
 40
1.0
 40
1.0
 10
140.7881839216526
 20
112.430532467663
 30
0.0
 10
140.7638709253833
 20
112.3533627112397
 30
0.0
 10
140.7423741009548
 20
112.274920965107
 30
0.0
 10
140.7229478956559
 20
112.1953286935342
 30
0.0
  0
SPLINE
  5
83
330
1F
100
AcDbEntity
  8
0
  6
Continuous
 62
     7
370
    15
100
AcDbSpline
210
0.0
220
0.0
230
1.0
 70
     8
 71
     3
 72
    18
 73
    14
 74
     0
 42
0.00000001
 43
0.00000001
 12
1.0
 22
0.0
 32
0.0
 13
1.0
 23
0.0
 33
0.0
 40
0.0
 40
0.0
 40
0.0
 40
0.0
 40
0.2499999999999993
 40
0.2499999999999993
 40
0.4999999999999987
 40
0.4999999999999987
 40
0.624999999999999
 40
0.624999999999999
 40
0.7499999999999993
 40
0.7499999999999993
 40
0.8749999999999997
 40
0.8749999999999997
 40
1.0
 40
1.0
 40
1.0
 40
1.0
 10
140.7881839216526
 20
112.430532467663
 30
0.0
 10
140.8224822406653
 20
112.5393957642561
 30
0.0
 10
140.8602966379773
 20
112.6464031874924
 30
0.0
 10
140.9468846990508
 20
112.8554380116307
 30
0.0
 10
140.9952348047295
 20
112.9576081056202
 30
0.0
 10
141.0845513935293
 20
113.1042888771849
 30
0.0
 10
141.1171117490176
 20
113.1520905757205
 30
0.0
 10
141.1933573827465
 20
113.2436461137459
 30
0.0
 10
141.2365167525265
 20
113.2873255057378
 30
0.0
 10
141.3422455765446
 20
113.3566797230644
 30
0.0
 10
141.4072427535993
 20
113.3807960367303
 30
0.0
 10
141.5407272435535
 20
113.3725918146921
 30
0.0
 10
141.600054636999
 20
113.3428010291001
 30
0.0
 10
141.6492913503403
 20
113.3055036960491
 30
0.0
  0
SPLINE
  5
84
330
1F
100
AcDbEntity
  8
0
  6
Continuous
 62
     7
370
    15
100
AcDbSpline
210
0.0
220
0.0
230
1.0
 70
     8
 71
     3
 72
    16
 73
    12
 74
     0
 42
0.00000001
 43
0.00000001
 12
1.0
 22
0.0
 32
0.0
 13
1.0
 23
0.0
 33
0.0
 40
0.0
 40
0.0
 40
0.0
 40
0.0
 40
0.0625
 40
0.0625
 40
0.125
 40
0.125
 40
0.25
 40
0.25
 40
0.5
 40
0.5
 40
1.0
 40
1.0
 40
1.0
 40
1.0
 10
141.6492913503095
 20
113.3055036960007
 30
0.0
 10
141.6613611835853
 20
113.2963606691549
 30
0.0
 10
141.6756368385187
 20
113.2893162214636
 30
0.0
 10
141.7071012506431
 20
113.289309149565
 30
0.0
 10
141.7226017754535
 20
113.297437118362
 30
0.0
 10
141.7580406720604
 20
113.3308455793692
 30
0.0
 10
141.7716332881638
 20
113.3615127458313
 30
0.0
 10
141.8046276065566
 20
113.4503337399132
 30
0.0
 10
141.8154149998754
 20
113.511236385461
 30
0.0
 10
141.8404682471545
 20
113.6932444628394
 30
0.0
 10
141.8442682392158
 20
113.811933177878
 30
0.0
 10
141.8442682392158
 20
113.9292287700986
 30
0.0
  0
LINE
  5
85
330
1F
100
AcDbEntity
  8
0
  6
Continuous
 62
     7
370
    15
100
AcDbLine
 10
141.8442682443
 20
122.5136039783
 30
0.0
 11
141.8442682443
 21
113.9292289508
 31
0.0
  0
SPLINE
  5
86
330
1F
100
AcDbEntity
  8
0
  6
Continuous
 62
     7
370
    15
100
AcDbSpline
210
0.0
220
0.0
230
1.0
 70
     8
 71
     3
 72
    12
 73
     8
 74
     0
 42
0.00000001
 43
0.00000001
 12
1.0
 22
0.0
 32
0.0
 13
1.0
 23
0.0
 33
0.0
 40
0.0
 40
0.0
 40
0.0
 40
0.0
 40
0.4999999999999987
 40
0.4999999999999987
 40
0.7499999999999993
 40
0.7499999999999993
 40
1.0
 40
1.0
 40
1.0
 40
1.0
 10
141.803928909348
 20
122.3223915060065
 30
0.0
 10
141.7938060572669
 20
122.3114577613689
 30
0.0
 10
141.7814432729208
 20
122.2993924745463
 30
0.0
 10
141.7466086697475
 20
122.2780431342021
 30
0.0
 10
141.7312514485045
 20
122.2698234579731
 30
0.0
 10
141.6885824063647
 20
122.2554841583435
 30
0.0
 10
141.6661581920049
 20
122.2517313773202
 30
0.0
 10
141.6492913503399
 20
122.2505099857198
 30
0.0
  0
SPLINE
  5
87
330
1F
100
AcDbEntity
  8
0
  6
Continuous
 62
     7
370
    15
100
AcDbSpline
210
0.0
220
0.0
230
1.0
 70
     8
 71
     3
 72
    18
 73
    14
 74
     0
 42
0.00000001
 43
0.00000001
 12
1.0
 22
0.0
 32
0.0
 13
1.0
 23
0.0
 33
0.0
 40
0.0
 40
0.0
 40
0.0
 40
0.0
 40
0.125
 40
0.125
 40
0.25
 40
0.25
 40
0.375
 40
0.375
 40
0.5
 40
0.5
 40
0.75
 40
0.75
 40
1.0
 40
1.0
 40
1.0
 40
1.0
 10
141.6492913503461
 20
122.2505099857197
 30
0.0
 10
141.6005872213293
 20
122.2469831361015
 30
0.0
 10
141.5420795521248
 20
122.2434828629039
 30
0.0
 10
141.4103538894939
 20
122.2394398790159
 30
0.0
 10
141.3455962508736
 20
122.2393283043853
 30
0.0
 10
141.2403858342545
 20
122.2408604891468
 30
0.0
 10
141.1971697993143
 20
122.2423156413619
 30
0.0
 10
141.1209915778333
 20
122.2452409028916
 30
0.0
 10
141.0881368101492
 20
122.2467512333999
 30
0.0
 10
140.9977690913074
 20
122.2508932260882
 30
0.0
 10
140.9483467221179
 20
122.2531313110747
 30
0.0
 10
140.8606942600299
 20
122.2555825941212
 30
0.0
 10
140.8226315237955
 20
122.2558378294822
 30
0.0
 10
140.7881839216521
 20
122.2549723858144
 30
0.0
  0
SPLINE
  5
88
330
1F
100
AcDbEntity
  8
0
  6
Continuous
 62
     7
370
    15
100
AcDbSpline
210
0.0
220
0.0
230
1.0
 70
     8
 71
     3
 72
     8
 73
     4
 74
     0
 42
0.00000001
 43
0.00000001
 12
1.0
 22
0.0
 32
0.0
 13
1.0
 23
0.0
 33
0.0
 40
0.0
 40
0.0
 40
0.0
 40
0.0
 40
1.0
 40
1.0
 40
1.0
 40
1.0
 10
140.5492282612763
 20
105.4772931987719
 30
0.0
 10
140.5999553439987
 20
105.1939420774528
 30
0.0
 10
140.6578426569858
 20
104.918985893313
 30
0.0
 10
140.722947895656
 20
104.6522393127374
 30
0.0
  0
SPLINE
  5
89
330
1F
100
AcDbEntity
  8
0
  6
Continuous
 62
     7
370
    15
100
AcDbSpline
210
0.0
220
0.0
230
1.0
 70
     8
 71
     3
 72
    24
 73
    20
 74
     0
 42
0.00000001
 43
0.00000001
 12
1.0
 22
0.0
 32
0.0
 13
1.0
 23
0.0
 33
0.0
 40
0.0
 40
0.0
 40
0.0
 40
0.0
 40
0.2500000000000016
 40
0.2500000000000016
 40
0.3750000000000018
 40
0.3750000000000018
 40
0.4375000000000019
 40
0.4375000000000019
 40
0.4687500000000019
 40
0.4687500000000019
 40
0.500000000000002
 40
0.500000000000002
 40
0.5625000000000021
 40
0.5625000000000021
 40
0.6250000000000021
 40
0.6250000000000021
 40
0.7500000000000023
 40
0.7500000000000023
 40
1.0
 40
1.0
 40
1.0
 40
1.0
 10
140.3442682392074
 20
105.4775856070652
 30
0.0
 10
140.3446712685813
 20
105.5708538996948
 30
0.0
 10
140.3467010082963
 20
105.6646114585438
 30
0.0
 10
140.3560097197162
 20
105.8062013441833
 30
0.0
 10
140.3599357128307
 20
105.8533817627925
 30
0.0
 10
140.3708650727467
 20
105.9239778094779
 30
0.0
 10
140.3749867008411
 20
105.9477577232427
 30
0.0
 10
140.3868812220235
 20
105.9812088702899
 30
0.0
 10
140.3921680339772
 20
105.9933638223595
 30
0.0
 10
140.4087359654921
 20
106.0012464613276
 30
0.0
 10
140.4166626742595
 20
105.9936828622256
 30
0.0
 10
140.4336550124847
 20
105.9698904309988
 30
0.0
 10
140.4410527132756
 20
105.9497019531543
 30
0.0
 10
140.4551551036175
 20
105.9092523285345
 30
0.0
 10
140.4613082609097
 20
105.888396654137
 30
0.0
 10
140.4786219943708
 20
105.825271618836
 30
0.0
 10
140.4886270352594
 20
105.7822925069345
 30
0.0
 10
140.5169834914901
 20
105.6525668626456
 30
0.0
 10
140.5335320308363
 20
105.5649691355097
 30
0.0
 10
140.5492282612764
 20
105.4772931987719
 30
0.0
  0
SPLINE
  5
8A
330
1F
100
AcDbEntity
  8
0
  6
Continuous
 62
     7
370
    15
100
AcDbSpline
210
0.0
220
0.0
230
1.0
 70
     8
 71
     3
 72
    16
 73
    12
 74
     0
 42
0.00000001
 43
0.00000001
 12
1.0
 22
0.0
 32
0.0
 13
1.0
 23
0.0
 33
0.0
 40
0.0
 40
0.0
 40
0.0
 40
0.0
 40
0.2499999999999999
 40
0.2499999999999999
 40
0.375
 40
0.375
 40
0.5000000000000001
 40
0.5000000000000001
 40
0.75
 40
0.75
 40
1.0
 40
1.0
 40
1.0
 40
1.0
 10
140.3442682392156
 20
111.3699823992051
 30
0.0
 10
140.2637314298202
 20
110.900909572342
 30
0.0
 10
140.203694021018
 20
110.4205459221621
 30
0.0
 10
140.1429560737707
 20
109.6833616430211
 30
0.0
 10
140.1276335927278
 20
109.434843239794
 30
0.0
 10
140.1070506409499
 20
108.9320597945803
 30
0.0
 10
140.1018510939133
 20
108.6772012415557
 30
0.0
 10
140.1017973833731
 20
107.9209239018349
 30
0.0
 10
140.1219947206422
 20
107.4222657025251
 30
0.0
 10
140.2026730277152
 20
106.4358427317809
 30
0.0
 10
140.2637193760565
 20
105.9467286390079
 30
0.0
 10
140.3442682392156
 20
105.4775856070665
 30
0.0
  0
SPLINE
  5
8B
330
1F
100
AcDbEntity
  8
0
  6
Continuous
 62
     7
370
    15
100
AcDbSpline
210
0.0
220
0.0
230
1.0
 70
     8
 71
     3
 72
    24
 73
    20
 74
     0
 42
0.00000001
 43
0.00000001
 12
1.0
 22
0.0
 32
0.0
 13
1.0
 23
0.0
 33
0.0
 40
0.0
 40
0.0
 40
0.0
 40
0.0
 40
0.2499999999999917
 40
0.2499999999999917
 40
0.3749999999999876
 40
0.3749999999999876
 40
0.437499999999985
 40
0.437499999999985
 40
0.4999999999999823
 40
0.4999999999999823
 40
0.5312499999999829
 40
0.5312499999999829
 40
0.5624999999999833
 40
0.5624999999999833
 40
0.6249999999999857
 40
0.6249999999999857
 40
0.7499999999999903
 40
0.7499999999999903
 40
1.0
 40
1.0
 40
1.0
 40
1.0
 10
140.5492282612714
 20
111.3702748074715
 30
0.0
 10
140.5334592163619
 20
111.282192143983
 30
0.0
 10
140.5168450518015
 20
111.1942473274759
 30
0.0
 10
140.4883129243082
 20
111.0638999602166
 30
0.0
 10
140.4782252907543
 20
111.0206387824158
 30
0.0
 10
140.4607374679051
 20
110.9572030065825
 30
0.0
 10
140.4545276599787
 20
110.9362888830394
 30
0.0
 10
140.4402498003958
 20
110.8958140913562
 30
0.0
 10
140.432678638044
 20
110.8753364478974
 30
0.0
 10
140.4152588128666
 20
110.8524900683658
 30
0.0
 10
140.4067747304086
 20
110.8459382713293
 30
0.0
 10
140.3907386567956
 20
110.85650964657
 30
0.0
 10
140.3859182845198
 20
110.8686006868531
 30
0.0
 10
140.3745113839169
 20
110.9022439300729
 30
0.0
 10
140.3704904222077
 20
110.9256516093691
 30
0.0
 10
140.3597364104296
 20
110.9962402124285
 30
0.0
 10
140.3558645248072
 20
111.0432052399496
 30
0.0
 10
140.3466965600069
 20
111.183782104552
 30
0.0
 10
140.3446682254938
 20
111.277418334169
 30
0.0
 10
140.3442682392156
 20
111.3699823992051
 30
0.0
  0
SPLINE
  5
8C
330
1F
100
AcDbEntity
  8
0
  6
Continuous
 62
     7
370
    15
100
AcDbSpline
210
0.0
220
0.0
230
1.0
 70
     8
 71
     3
 72
     8
 73
     4
 74
     0
 42
0.00000001
 43
0.00000001
 12
1.0
 22
0.0
 32
0.0
 13
1.0
 23
0.0
 33
0.0
 40
0.0
 40
0.0
 40
0.0
 40
0.0
 40
1.0
 40
1.0
 40
1.0
 40
1.0
 10
140.722947895656
 20
112.1953286935341
 30
0.0
 10
140.6578426569837
 20
111.9285821129497
 30
0.0
 10
140.5999553439949
 20
111.6536259288006
 30
0.0
 10
140.5492282612713
 20
111.3702748074715
 30
0.0
  0
LINE
  5
8D
330
1F
100
AcDbEntity
  8
0
  6
Continuous
 62
     7
370
    15
100
AcDbLine
 10
140.3442682167
 20
105.4775855509
 30
0.0
 11
140.3442682167
 21
104.3225802486
 31
0.0
  0
LINE
  5
8E
330
1F
100
AcDbEntity
  8
0
  6
Continuous
 62
     7
370
    15
100
AcDbLine
 10
119.5442673451
 20
112.2637035796
 30
0.0
 11
119.5442673451
 21
104.5838644267
 31
0.0
  0
LINE
  5
8F
330
1F
100
AcDbEntity
  8
0
  6
Continuous
 62
     7
370
    15
100
AcDbLine
 10
140.3442682167
 20
112.5249877577
 30
0.0
 11
140.3442682167
 21
111.3699824554
 31
0.0
  0
LINE
  5
90
330
1F
100
AcDbEntity
  8
0
  6
Continuous
 62
     7
370
    15
100
AcDbLine
 10
118.0442680306
 20
111.8306907364
 30
0.0
 11
118.0442680306
 21
105.0168772698
 31
0.0
  0
LINE
  5
91
330
1F
100
AcDbEntity
  8
0
  6
Continuous
 62
     7
370
    15
100
AcDbLine
 10
140.5492282174
 20
122.2489686688
 30
0.0
 11
140.7881839368
 21
122.2549719741
 31
0.0
  0
LINE
  5
92
330
1F
100
AcDbEntity
  8
0
  6
Continuous
 62
     7
370
    15
100
AcDbLine
 10
119.5442673451
 20
112.2637035796
 30
0.0
 11
119.5442673451
 21
121.9213144858
 31
0.0
  0
LINE
  5
93
330
1F
100
AcDbEntity
  8
0
  6
Continuous
 62
     7
370
    15
100
AcDbLine
 10
119.5442673451
 20
121.9213144858
 30
0.0
 11
140.3442682167
 21
122.4438823764
 31
0.0
  0
LINE
  5
94
330
1F
100
AcDbEntity
  8
0
  6
Continuous
 62
     7
370
    15
100
AcDbLine
 10
140.3442682167
 20
112.5249877577
 30
0.0
 11
140.3442682167
 21
122.4438823764
 31
0.0
  0
ARC
  5
95
330
1F
100
AcDbEntity
  8
0
  6
Continuous
 62
     7
370
    15
100
AcDbCircle
 10
140.5442051502
 20
122.4489058988
 30
0.0
 40
0.2000000000000059
100
AcDbArc
 50
181.4391666667
 51
271.4391666667
  0
LINE
  5
96
330
1F
100
AcDbEntity
  8
0
  6
Continuous
 62
     7
370
    15
100
AcDbLine
 10
140.3442682167
 20
94.4036856298
 30
0.0
 11
140.3442682167
 21
104.3225802486
 31
0.0
  0
ARC
  5
97
330
1F
100
AcDbEntity
  8
0
  6
Continuous
 62
     7
370
    15
100
AcDbCircle
 10
140.5442051502
 20
94.3986621074
 30
0.0
 40
0.2000000000000066
100
AcDbArc
 50
88.5608333333
 51
178.5608333333
  0
LINE
  5
98
330
1F
100
AcDbEntity
  8
0
  6
Continuous
 62
     7
370
    15
100
AcDbLine
 10
119.5442673451
 20
94.9262535204
 30
0.0
 11
119.5442673451
 21
104.5838644267
 31
0.0
  0
LINE
  5
99
330
1F
100
AcDbEntity
  8
0
  6
Continuous
 62
     7
370
    15
100
AcDbLine
 10
119.5442673451
 20
94.9262535204
 30
0.0
 11
140.3442682167
 21
94.4036856298
 31
0.0
  0
LINE
  5
9A
330
1F
100
AcDbEntity
  8
0
  6
Continuous
 62
     7
370
    15
100
AcDbLine
 10
140.5492282174
 20
94.5985993375
 30
0.0
 11
140.7881839368
 21
94.5925960322
 31
0.0
  0
LINE
  5
9B
330
1F
100
AcDbEntity
  8
0
  6
Continuous
 62
     7
370
    15
100
AcDbLine
 10
118.0442680306
 20
121.0552887996
 30
0.0
 11
119.5442673451
 21
121.9213144858
 31
0.0
  0
LINE
  5
9C
330
1F
100
AcDbEntity
  8
0
  6
Continuous
 62
     7
370
    15
100
AcDbLine
 10
118.0442680306
 20
111.8306907364
 30
0.0
 11
118.0442680306
 21
121.0552887996
 31
0.0
  0
LINE
  5
9D
330
1F
100
AcDbEntity
  8
0
  6
Continuous
 62
     7
370
    15
100
AcDbLine
 10
118.0442680306
 20
95.7922792067
 30
0.0
 11
119.5442673451
 21
94.9262535204
 31
0.0
  0
LINE
  5
9E
330
1F
100
AcDbEntity
  8
0
  6
Continuous
 62
     7
370
    15
100
AcDbLine
 10
118.0442680306
 20
95.7922792067
 30
0.0
 11
118.0442680306
 21
105.0168772698
 31
0.0
  0
SPLINE
  5
9F
330
1F
100
AcDbEntity
  8
0
  6
Continuous
 62
     7
370
    15
100
AcDbSpline
210
0.0
220
0.0
230
1.0
 70
     8
 71
     3
 72
    24
 73
    20
 74
     0
 42
0.00000001
 43
0.00000001
 12
1.0
 22
0.0
 32
0.0
 13
1.0
 23
0.0
 33
0.0
 40
0.0
 40
0.0
 40
0.0
 40
0.0
 40
0.1250000000000006
 40
0.1250000000000006
 40
0.2500000000000012
 40
0.2500000000000012
 40
0.3750000000000018
 40
0.3750000000000018
 40
0.437500000000001
 40
0.437500000000001
 40
0.5000000000000002
 40
0.5000000000000002
 40
0.6250000000000002
 40
0.6250000000000002
 40
0.7500000000000002
 40
0.7500000000000002
 40
0.8750000000000003
 40
0.8750000000000003
 40
1.0
 40
1.0
 40
1.0
 40
1.0
 10
221.5106240349484
 20
118.5100516052691
 30
0.0
 10
221.5646592018386
 20
118.394678263219
 30
0.0
 10
221.6360196811738
 20
118.2613973054308
 30
0.0
 10
221.7972766944887
 20
117.9491944327732
 30
0.0
 10
221.8842411606621
 20
117.7762044410126
 30
0.0
 10
222.0378403971931
 20
117.3869542232612
 30
0.0
 10
222.101030580943
 20
117.1727152785406
 30
0.0
 10
222.1480839814631
 20
116.8438423839242
 30
0.0
 10
222.1560202893382
 20
116.7350684494316
 30
0.0
 10
222.1581636512109
 20
116.518861605538
 30
0.0
 10
222.1522619131176
 20
116.4112256391817
 30
0.0
 10
222.1192458308074
 20
116.1005771185344
 30
0.0
 10
222.0771974688558
 20
115.9042820248228
 30
0.0
 10
221.9754604320765
 20
115.5326158871464
 30
0.0
 10
221.9166510421736
 20
115.360425482566
 30
0.0
 10
221.7953866381573
 20
115.0389256852114
 30
0.0
 10
221.732220808179
 20
114.8885944285287
 30
0.0
 10
221.6127409508039
 20
114.620157957693
 30
0.0
 10
221.5568998706422
 20
114.5031006483756
 30
0.0
 10
221.5106240349484
 20
114.4104032397958
 30
0.0
  0
LINE
  5
A0
330
1F
100
AcDbEntity
  8
0
  6
Continuous
 62
     7
370
    15
100
AcDbLine
 10
231.5318357832
 20
115.7149538403
 30
0.0
 11
234.5064204819
 21
116.5933651854
 31
0.0
  0
ARC
  5
A1
330
1F
100
AcDbEntity
  8
0
  6
Continuous
 62
     7
370
    15
100
AcDbCircle
 10
232.1654966055
 20
113.7435887795
 30
0.0
 40
2.070701871469438
100
AcDbArc
 50
107.8190935163
 51
288.2444569434
  0
LINE
  5
A2
330
1F
100
AcDbEntity
  8
0
  6
Continuous
 62
     7
370
    15
100
AcDbLine
 10
247.2173419482
 20
116.0304337745
 30
0.0
 11
232.8137752301
 21
111.7769822949
 31
0.0
  0
LINE
  5
A3
330
1F
100
AcDbEntity
  8
0
  6
Continuous
 62
     7
370
    15
100
AcDbLine
 10
240.3776717073
 20
94.3501252686
 30
0.0
 11
247.2173419482
 21
116.0304337745
 31
0.0
  0
ELLIPSE
  5
A4
330
1F
100
AcDbEntity
  8
0
  6
Continuous
 62
     7
370
    15
100
AcDbEllipse
 10
292.6934837853
 20
108.4237840031
 30
0.0
 11
156.9866092118845
 21
-3.467162115660201
 31
0.0
210
0.0
220
0.0
230
1.0
 40
0.1027578619
 41
4.279705833564714
 42
4.374910667118913
  0
SPLINE
  5
A5
330
1F
100
AcDbEntity
  8
0
  6
Continuous
 62
     7
370
    15
100
AcDbSpline
210
0.0
220
0.0
230
1.0
 70
     8
 71
     3
 72
     8
 73
     4
 74
     0
 42
0.00000001
 43
0.00000001
 12
1.0
 22
0.0
 32
0.0
 13
1.0
 23
0.0
 33
0.0
 40
0.0
 40
0.0
 40
0.0
 40
0.0
 40
1.0
 40
1.0
 40
1.0
 40
1.0
 10
226.544268239214
 20
95.23261039551448
 30
0.0
 10
226.4751533297905
 20
95.31196767210284
 30
0.0
 10
226.4061166350882
 20
95.39139296158397
 30
0.0
 10
226.3371614580291
 20
95.47088913606788
 30
0.0
  0
SPLINE
  5
A6
330
1F
100
AcDbEntity
  8
0
  6
Continuous
 62
     7
370
    15
100
AcDbSpline
210
0.0
220
0.0
230
1.0
 70
     8
 71
     3
 72
    10
 73
     6
 74
     0
 42
0.00000001
 43
0.00000001
 12
1.0
 22
0.0
 32
0.0
 13
1.0
 23
0.0
 33
0.0
 40
0.0
 40
0.0
 40
0.0
 40
0.0
 40
0.5
 40
0.5
 40
1.0
 40
1.0
 40
1.0
 40
1.0
 10
226.3371614580291
 20
95.47088913606788
 30
0.0
 10
226.2473393762551
 20
95.57444208437074
 30
0.0
 10
226.1405409105453
 20
95.66115490227176
 30
0.0
 10
225.8990873014199
 20
95.78951133308104
 30
0.0
 10
225.7670700768478
 20
95.82953344699088
 30
0.0
 10
225.6300546768425
 20
95.83944002740266
 30
0.0
  0
SPLINE
  5
A7
330
1F
100
AcDbEntity
  8
0
  6
Continuous
 62
     7
370
    15
100
AcDbSpline
210
0.0
220
0.0
230
1.0
 70
     8
 71
     3
 72
     8
 73
     4
 74
     0
 42
0.00000001
 43
0.00000001
 12
1.0
 22
0.0
 32
0.0
 13
1.0
 23
0.0
 33
0.0
 40
0.0
 40
0.0
 40
0.0
 40
0.0
 40
1.0
 40
1.0
 40
1.0
 40
1.0
 10
225.6300546768425
 20
123.9391216369454
 30
0.0
 10
225.9036690749693
 20
123.9469464286517
 30
0.0
 10
226.1577052335147
 20
124.0777224391796
 30
0.0
 10
226.3371614580298
 20
124.2767685688666
 30
0.0
  0
SPLINE
  5
A8
330
1F
100
AcDbEntity
  8
0
  6
Continuous
 62
     7
370
    15
100
AcDbSpline
210
0.0
220
0.0
230
1.0
 70
     8
 71
     3
 72
     8
 73
     4
 74
     0
 42
0.00000001
 43
0.00000001
 12
1.0
 22
0.0
 32
0.0
 13
1.0
 23
0.0
 33
0.0
 40
0.0
 40
0.0
 40
0.0
 40
0.0
 40
1.0
 40
1.0
 40
1.0
 40
1.0
 10
226.3371614580291
 20
124.2767685688674
 30
0.0
 10
226.8521904524414
 20
124.8480194591129
 30
0.0
 10
227.3717278416366
 20
125.415152962296
 30
0.0
 10
227.8946116905244
 20
125.9792302402577
 30
0.0
  0
LINE
  5
A9
330
1F
100
AcDbEntity
  8
0
  6
Continuous
 62
     7
370
    15
100
AcDbLine
 10
233.3305549509
 20
125.8604411041
 30
0.0
 11
227.8946113474
 21
125.9792294358
 31
0.0
  0
ARC
  5
AA
330
1F
100
AcDbEntity
  8
0
  6
Continuous
 62
     7
370
    15
100
AcDbCircle
 10
233.9061083089
 20
152.0166649616
 30
0.0
 40
26.16255545913751
100
AcDbArc
 50
268.7394412275
 51
277.9099652089
  0
LINE
  5
AB
330
1F
100
AcDbEntity
  8
0
  6
Continuous
 62
     7
370
    15
100
AcDbLine
 10
234.5064204819
 20
116.5933651854
 30
0.0
 11
237.5065159685
 21
126.1030320083
 31
0.0
  0
LWPOLYLINE
  5
AC
330
1F
100
AcDbEntity
  8
0
  6
Continuous
 62
     7
370
    15
100
AcDbPolyline
 90
       33
 70
   128
 43
0.0
 10
236.7687594778
 20
111.1018204601
 10
237.5448492057
 20
111.0096819238
 10
238.2911068089
 20
110.7707252731
 10
238.9788699038
 20
110.394134047
 10
239.5816963799
 20
109.8943799506
 10
240.0764223821
 20
109.2906686016
 10
240.4440340287
 20
108.6062000749
 10
240.6704124696
 20
107.8672781941
 10
240.7468479759
 20
107.1022993191
 10
240.6704124696
 20
106.3406612729
 10
240.4440340287
 20
105.6116331373
 10
240.0764223821
 20
104.9432310746
 10
239.5816963799
 20
104.3611416598
 10
238.9788699038
 20
103.887734097
 10
238.2911068089
 20
103.5412010742
 10
237.5448492057
 20
103.3348595728
 10
236.7687594778
 20
103.2766398047
 10
235.9926772005
 20
103.368778341
 10
235.2464121468
 20
103.6077347589
 10
234.5586565024
 20
103.9843262178
 10
233.9558300263
 20
104.4840804306
 10
233.4611040241
 20
105.0877916631
 10
233.0934849269
 20
105.7722602044
 10
232.8671139366
 20
106.5111820125
 10
232.7906709797
 20
107.2761608292
 10
232.8671139366
 20
108.037799021
 10
233.0934849269
 20
108.7668271856
 10
233.4611040241
 20
109.4352291902
 10
233.9558300263
 20
110.017318605
 10
234.5586565024
 20
110.4907261678
 10
235.2464121468
 20
110.8372591906
 10
235.9926772005
 20
111.0436004591
 10
236.7687594778
 20
111.1018204601
  0
LINE
  5
AD
330
1F
100
AcDbEntity
  8
0
  6
Continuous
 62
     7
370
    15
100
AcDbLine
 10
226.54426812
 20
95.2326102187
 30
0.0
 11
226.54426812
 21
91.9237840925
 31
0.0
  0
SPLINE
  5
AE
330
1F
100
AcDbEntity
  8
0
  6
Continuous
 62
     7
370
    15
100
AcDbSpline
210
0.0
220
0.0
230
1.0
 70
     8
 71
     3
 72
     9
 73
     5
 74
     0
 42
0.00000001
 43
0.00000001
 12
1.0
 22
0.0
 32
0.0
 13
1.0
 23
0.0
 33
0.0
 40
0.0
 40
0.0
 40
0.0
 40
0.0
 40
0.5181327893430959
 40
1.0
 40
1.0
 40
1.0
 40
1.0
 10
227.8946113473928
 20
125.9792294357988
 30
0.0
 10
227.6867754058966
 20
125.8633880335478
 30
0.0
 10
227.2856505480011
 20
125.6398132962729
 30
0.0
 10
227.0736838281335
 20
125.4053361048777
 30
0.0
 10
226.9715440160787
 20
125.2923492346975
 30
0.0
  0
ELLIPSE
  5
AF
330
1F
100
AcDbEntity
  8
0
  6
Continuous
 62
     7
370
    15
100
AcDbEllipse
 10
244.6201429677
 20
108.4237840031
 30
0.0
 11
5.368298186719842
 21
16.49894757830364
 31
0.0
210
0.0
220
0.0
230
1.0
 40
0.0347142918
 41
3.152887237351147
 42
3.702074538209181
  0
LINE
  5
B0
330
1F
100
AcDbEntity
  8
0
  6
Continuous
 62
     7
370
    15
100
AcDbLine
 10
230.5680808312
 20
113.808509056
 30
0.0
 11
230.0933596379
 21
113.6003528726
 31
0.0
  0
LINE
  5
B1
330
1F
100
AcDbEntity
  8
0
  6
Continuous
 62
     7
370
    15
100
AcDbLine
 10
233.5426655299
 20
114.6869208668
 30
0.0
 11
234.5064204819
 21
116.5933651854
 31
0.0
  0
LINE
  5
B2
330
1F
100
AcDbEntity
  8
0
  6
Continuous
 62
     7
370
    15
100
AcDbLine
 10
233.5426655299
 20
114.6869208668
 30
0.0
 11
230.5680808312
 21
113.808509056
 31
0.0
  0
LWPOLYLINE
  5
B3
330
1F
100
AcDbEntity
  8
0
  6
Continuous
 62
     7
370
    15
100
AcDbPolyline
 90
       31
 70
   128
 43
0.0
 10
237.2280207164
 20
110.5727812746
 10
237.9353639371
 20
110.3892527525
 10
238.5917228348
 20
110.0658676359
 10
239.1684052236
 20
109.6167597924
 10
239.6402132399
 20
109.0615571947
 10
239.9865236766
 20
108.4245249449
 10
240.1922044045
 20
107.7335043582
 10
240.248262573
 20
107.0186964707
 10
240.1522469408
 20
106.3113416084
 10
239.9083670861
 20
105.6423546751
 10
239.527262438
 20
105.0409738445
 10
239.0255999453
 20
104.5334817381
 10
238.4253066666
 20
104.1420587343
 10
237.7526086456
 20
103.8838118319
 10
237.0369133241
 20
103.7700274964
 10
236.3094982392
 20
103.8056789902
 10
235.6021624691
 20
103.9892077451
 10
234.9458035714
 20
104.3125927453
 10
234.3691211826
 20
104.7617004723
 10
233.8973131663
 20
105.3169030701
 10
233.5510027296
 20
105.9539351617
 10
233.3453220017
 20
106.6449557901
 10
233.2892638332
 20
107.3597637941
 10
233.3852720148
 20
108.0671185982
 10
233.6291593201
 20
108.7361054733
 10
234.0102639682
 20
109.3374864785
 10
234.5119190104
 20
109.8449784103
 10
235.1122197396
 20
110.2364012976
 10
235.7849177606
 20
110.4946482
 10
236.5006056315
 20
110.6084325356
 10
237.2280207164
 20
110.5727812746
  0
LWPOLYLINE
  5
B4
330
1F
100
AcDbEntity
  8
0
  6
Continuous
 62
     7
370
    15
100
AcDbPolyline
 90
       23
 70
   128
 43
0.0
 10
237.0311987288
 20
109.1226879279
 10
237.5760447866
 20
108.9595117145
 10
238.0554896481
 20
108.6529177618
 10
238.4306934363
 20
108.2277445593
 10
238.6712577827
 20
107.7184370724
 10
238.7576994187
 20
107.1662563835
 10
238.6829998977
 20
106.6159369429
 10
238.4532239921
 20
106.1120623262
 10
238.0869832522
 20
105.6954533332
 10
237.6139458901
 20
105.3998613269
 10
237.0724376924
 20
105.2492331718
 10
236.5063276774
 20
105.2557722204
 10
235.961474169
 20
105.4189485503
 10
235.4820293076
 20
105.725542503
 10
235.1068255193
 20
106.1507157055
 10
234.866261173
 20
106.660023076
 10
234.7798269875
 20
107.2122037648
 10
234.8545265085
 20
107.7625232637
 10
235.0843024141
 20
108.2663979386
 10
235.450543154
 20
108.6830068734
 10
235.9235805161
 20
108.9785989379
 10
236.4650887138
 20
109.1292269183
 10
237.0311987288
 20
109.1226879279
  0
SPLINE
  5
B5
330
1F
100
AcDbEntity
  8
0
  6
Continuous
 62
     7
370
    15
100
AcDbSpline
210
0.0
220
0.0
230
1.0
 70
     8
 71
     3
 72
    11
 73
     7
 74
     0
 42
0.00000001
 43
0.00000001
 12
1.0
 22
0.0
 32
0.0
 13
1.0
 23
0.0
 33
0.0
 40
0.0
 40
0.0
 40
0.0
 40
0.0
 40
0.1081088498118517
 40
0.4711570810103829
 40
0.8135794194495783
 40
0.9999999999999999
 40
0.9999999999999999
 40
0.9999999999999999
 40
0.9999999999999999
 10
235.690176177696
 20
105.8141552847894
 30
0.0
 10
235.7449734058967
 20
105.7995539935363
 30
0.0
 10
235.9837892117391
 20
105.7359190387868
 30
0.0
 10
236.4493717686048
 20
105.6363849364335
 30
0.0
 10
236.9944567594658
 20
105.5746055616815
 30
0.0
 10
237.2925855445971
 20
105.5588596113636
 30
0.0
 10
237.3976778871572
 20
105.5533090611073
 30
0.0
  0
SPLINE
  5
B6
330
1F
100
AcDbEntity
  8
0
  6
Continuous
 62
     7
370
    15
100
AcDbSpline
210
0.0
220
0.0
230
1.0
 70
     8
 71
     3
 72
    10
 73
     6
 74
     0
 42
0.00000001
 43
0.00000001
 12
1.0
 22
0.0
 32
0.0
 13
1.0
 23
0.0
 33
0.0
 40
0.0
 40
0.0
 40
0.0
 40
0.0
 40
0.4391160272484509
 40
0.7513680518253749
 40
1.0
 40
1.0
 40
1.0
 40
1.0
 10
237.3976778871572
 20
105.5533090611073
 30
0.0
 10
237.5373360202729
 20
105.7209879285111
 30
0.0
 10
237.776303976096
 20
106.007901946938
 30
0.0
 10
238.1585736877804
 20
106.4939697807548
 30
0.0
 10
238.3592828958881
 20
106.7565716918147
 30
0.0
 10
238.4482544548071
 20
106.8729794123294
 30
0.0
  0
SPLINE
  5
B7
330
1F
100
AcDbEntity
  8
0
  6
Continuous
 62
     7
370
    15
100
AcDbSpline
210
0.0
220
0.0
230
1.0
 70
     8
 71
     3
 72
    10
 73
     6
 74
     0
 42
0.00000001
 43
0.00000001
 12
1.0
 22
0.0
 32
0.0
 13
1.0
 23
0.0
 33
0.0
 40
0.0
 40
0.0
 40
0.0
 40
0.0
 40
0.4391167653344804
 40
0.7513668164656915
 40
1.0
 40
1.0
 40
1.0
 40
1.0
 10
238.4482544548071
 20
106.8729794123294
 30
0.0
 10
238.3434710933444
 20
107.0779996364229
 30
0.0
 10
238.1641776868155
 20
107.4288069962168
 30
0.0
 10
237.9384262923516
 20
108.007764364789
 30
0.0
 10
237.8365083722998
 20
108.316594789579
 30
0.0
 10
237.7913293129957
 20
108.4534958180677
 30
0.0
  0
SPLINE
  5
B8
330
1F
100
AcDbEntity
  8
0
  6
Continuous
 62
     7
370
    15
100
AcDbSpline
210
0.0
220
0.0
230
1.0
 70
     8
 71
     3
 72
    11
 73
     7
 74
     0
 42
0.00000001
 43
0.00000001
 12
1.0
 22
0.0
 32
0.0
 13
1.0
 23
0.0
 33
0.0
 40
0.0
 40
0.0
 40
0.0
 40
0.0
 40
0.1864166505517952
 40
0.5288430724611026
 40
0.8918912776925472
 40
1.0
 40
1.0
 40
1.0
 40
1.0
 10
237.7913293129957
 20
108.4534958180677
 30
0.0
 10
237.6862394688656
 20
108.4590464200344
 30
0.0
 10
237.3881113998885
 20
108.474792853571
 30
0.0
 10
236.8430252824864
 20
108.5365709776033
 30
0.0
 10
236.3774409015636
 20
108.6361056782882
 30
0.0
 10
236.1386248429545
 20
108.6997406869309
 30
0.0
 10
236.0838276035345
 20
108.7143419780853
 30
0.0
  0
SPLINE
  5
B9
330
1F
100
AcDbEntity
  8
0
  6
Continuous
 62
     7
370
    15
100
AcDbSpline
210
0.0
220
0.0
230
1.0
 70
     8
 71
     3
 72
    10
 73
     6
 74
     0
 42
0.00000001
 43
0.00000001
 12
1.0
 22
0.0
 32
0.0
 13
1.0
 23
0.0
 33
0.0
 40
0.0
 40
0.0
 40
0.0
 40
0.0
 40
0.4391169547408816
 40
0.7513681976280286
 40
1.0
 40
1.0
 40
1.0
 40
1.0
 10
236.0838276035345
 20
108.7143419780853
 30
0.0
 10
235.9226907009927
 20
108.5041780720219
 30
0.0
 10
235.6469711171166
 20
108.1445689209737
 30
0.0
 10
235.2810388924463
 20
107.6908118584987
 30
0.0
 10
235.1093558059986
 20
107.4856271908801
 30
0.0
 10
235.0332510358846
 20
107.3946716268631
 30
0.0
  0
SPLINE
  5
BA
330
1F
100
AcDbEntity
  8
0
  6
Continuous
 62
     7
370
    15
100
AcDbSpline
210
0.0
220
0.0
230
1.0
 70
     8
 71
     3
 72
    10
 73
     6
 74
     0
 42
0.00000001
 43
0.00000001
 12
1.0
 22
0.0
 32
0.0
 13
1.0
 23
0.0
 33
0.0
 40
0.0
 40
0.0
 40
0.0
 40
0.0
 40
0.4391161738282452
 40
0.7513667517292739
 40
1.0
 40
1.0
 40
1.0
 40
1.0
 10
235.0332510358846
 20
107.3946716268631
 30
0.0
 10
235.116555443698
 20
107.1471657327624
 30
0.0
 10
235.259096680013
 20
106.723661178004
 30
0.0
 10
235.5011866723077
 20
106.1770183009355
 30
0.0
 10
235.632130367302
 20
105.9256042130827
 30
0.0
 10
235.690176177696
 20
105.8141552847894
 30
0.0
  0
LINE
  5
BB
330
1F
100
AcDbEntity
  8
0
  6
Continuous
 62
     7
370
    15
100
AcDbLine
 10
235.6937226541
 20
107.9426556307
 30
0.0
 11
236.0838276035
 21
108.7143419781
 31
0.0
  0
LINE
  5
BC
330
1F
100
AcDbEntity
  8
0
  6
Continuous
 62
     7
370
    15
100
AcDbLine
 10
235.6937226541
 20
107.9426556307
 30
0.0
 11
235.1684343702
 21
107.2828204841
 31
0.0
  0
LINE
  5
BD
330
1F
100
AcDbEntity
  8
0
  6
Continuous
 62
     7
370
    15
100
AcDbLine
 10
235.1684343702
 20
107.2828204841
 30
0.0
 11
235.102638293
 21
107.2001770143
 31
0.0
  0
LINE
  5
BE
330
1F
100
AcDbEntity
  8
0
  6
Continuous
 62
     7
370
    15
100
AcDbLine
 10
237.9853722341
 20
106.2763872095
 30
0.0
 11
237.7296906597
 21
106.891551265
 31
0.0
  0
LINE
  5
BF
330
1F
100
AcDbEntity
  8
0
  6
Continuous
 62
     7
370
    15
100
AcDbLine
 10
237.7296906597
 20
106.891551265
 30
0.0
 11
237.4012243635
 21
107.6818094943
 31
0.0
  0
LINE
  5
C0
330
1F
100
AcDbEntity
  8
0
  6
Continuous
 62
     7
370
    15
100
AcDbLine
 10
237.4012243635
 20
107.6818094943
 30
0.0
 11
237.791329313
 21
108.4534958181
 31
0.0
  0
LINE
  5
C1
330
1F
100
AcDbEntity
  8
0
  6
Continuous
 62
     7
370
    15
100
AcDbLine
 10
237.4012243635
 20
107.6818094943
 30
0.0
 11
236.5474697835
 21
107.8122325479
 31
0.0
  0
LINE
  5
C2
330
1F
100
AcDbEntity
  8
0
  6
Continuous
 62
     7
370
    15
100
AcDbLine
 10
236.5474697835
 20
107.8122325479
 30
0.0
 11
235.6937226541
 21
107.9426556307
 31
0.0
  0
ARC
  5
C3
330
1F
100
AcDbEntity
  8
0
  6
Continuous
 62
     7
370
    15
100
AcDbCircle
 10
236.3908386104
 20
106.3308677084
 30
0.0
 40
1.451513300213074
100
AcDbArc
 50
347.1407127478
 51
22.7229276359
  0
LINE
  5
C4
330
1F
100
AcDbEntity
  8
0
  6
Continuous
 62
     7
370
    15
100
AcDbLine
 10
235.0999933369
 20
107.1892680838
 30
0.0
 11
235.1684343702
 21
107.2828204841
 31
0.0
  0
ARC
  5
C5
330
1F
100
AcDbEntity
  8
0
  6
Continuous
 62
     7
370
    15
100
AcDbCircle
 10
236.31481867
 20
106.3574606786
 30
0.0
 40
1.473257524104221
100
AcDbArc
 50
80.9140389199
 51
141.089579728
  0
ARC
  5
C6
330
1F
100
AcDbEntity
  8
0
  6
Continuous
 62
     7
370
    15
100
AcDbCircle
 10
236.3180567601
 20
106.2982808647
 30
0.0
 40
1.531234807065092
100
AcDbArc
 50
22.7956588558
 51
81.3833749532
  0
LINE
  5
C7
330
1F
100
AcDbEntity
  8
0
  6
Continuous
 62
     7
370
    15
100
AcDbLine
 10
232.6349687464
 20
111.7723473352
 30
0.0
 11
232.6227572448
 21
111.7302636621
 31
0.0
  0
LINE
  5
C8
330
1F
100
AcDbEntity
  8
0
  6
Continuous
 62
     7
370
    15
100
AcDbLine
 10
233.8750731833
 20
115.3444583532
 30
0.0
 11
232.936016906
 21
112.3678526846
 31
0.0
  0
LINE
  5
C9
330
1F
100
AcDbEntity
  8
0
  6
Continuous
 62
     7
370
    15
100
AcDbLine
 10
233.5740250237
 20
114.7489525382
 30
0.0
 11
232.6349687464
 21
111.7723473352
 31
0.0
  0
ARC
  5
CA
330
1F
100
AcDbEntity
  8
0
  6
Continuous
 62
     7
370
    15
100
AcDbCircle
 10
245.9981502365
 20
115.0896558951
 30
0.0
 40
0.9450463916675758
100
AcDbArc
 50
321.0520027493
 51
333.1937786284
  0
LINE
  5
CB
330
1F
100
AcDbEntity
  8
0
  6
Continuous
 62
     7
370
    15
100
AcDbLine
 10
233.7644544131
 20
112.1122544636
 30
0.0
 11
247.514851082
 21
116.1728204233
 31
0.0
  0
ARC
  5
CC
330
1F
100
AcDbEntity
  8
0
  6
Continuous
 62
     7
370
    15
100
AcDbCircle
 10
233.6487487808
 20
112.4979663756
 30
0.0
 40
0.4026927766946604
100
AcDbArc
 50
163.7234618256
 51
286.6981619954
  0
LINE
  5
CD
330
1F
100
AcDbEntity
  8
0
  6
Continuous
 62
     7
370
    15
100
AcDbLine
 10
237.5169393308
 20
126.0974608366
 30
0.0
 11
233.2621958739
 21
112.6108305534
 31
0.0
  0
ARC
  5
CE
330
1F
100
AcDbEntity
  8
0
  6
Continuous
 62
     7
370
    15
100
AcDbCircle
 10
237.8817593144
 20
125.9812835469
 30
0.0
 40
0.3828717580119431
100
AcDbArc
 50
106.1877684271
 51
162.3358716007
  0
LINE
  5
CF
330
1F
100
AcDbEntity
  8
0
  6
Continuous
 62
     7
370
    15
100
AcDbLine
 10
251.525416661
 20
130.4095402365
 30
0.0
 11
237.7750199921
 21
126.3489756738
 31
0.0
  0
ARC
  5
D0
330
1F
100
AcDbEntity
  8
0
  6
Continuous
 62
     7
370
    15
100
AcDbCircle
 10
251.6411204304
 20
130.0238268694
 30
0.0
 40
0.4026936351314415
100
AcDbArc
 50
343.7239892453
 51
106.6978486233
  0
LINE
  5
D1
330
1F
100
AcDbEntity
  8
0
  6
Continuous
 62
     7
370
    15
100
AcDbLine
 10
247.7729317433
 20
116.4243338634
 30
0.0
 11
252.0276752002
 21
129.9109660094
 31
0.0
  0
ARC
  5
D2
330
1F
100
AcDbEntity
  8
0
  6
Continuous
 62
     7
370
    15
100
AcDbCircle
 10
247.4081139776
 20
116.5405109196
 30
0.0
 40
0.3828695738154062
100
AcDbArc
 50
286.187517706
 51
342.3358041897
  0
ARC
  5
D3
330
1F
100
AcDbEntity
  8
0
  6
Continuous
 62
     7
370
    15
100
AcDbCircle
 10
251.6414412709
 20
130.0243674219
 30
0.0
 40
0.3825542294729172
100
AcDbArc
 50
343.722680488
 51
106.6986868653
  0
LINE
  5
D4
330
1F
100
AcDbEntity
  8
0
  6
Continuous
 62
     7
370
    15
100
AcDbLine
 10
251.5315186865
 20
130.3907889878
 30
0.0
 11
237.7811220176
 21
126.3302225624
 31
0.0
  0
ARC
  5
D5
330
1F
100
AcDbEntity
  8
0
  6
Continuous
 62
     7
370
    15
100
AcDbCircle
 10
237.8825052199
 20
125.9809456553
 30
0.0
 40
0.3636934307095775
100
AcDbArc
 50
106.1862151128
 51
162.3390516095
  0
LINE
  5
D6
330
1F
100
AcDbEntity
  8
0
  6
Continuous
 62
     7
370
    15
100
AcDbLine
 10
237.5359532125
 20
126.0912843053
 30
0.0
 11
233.2812097556
 21
112.604654022
 31
0.0
  0
ARC
  5
D7
330
1F
100
AcDbEntity
  8
0
  6
Continuous
 62
     7
370
    15
100
AcDbCircle
 10
233.6484289345
 20
112.4974275453
 30
0.0
 40
0.3825538428643129
100
AcDbArc
 50
163.7224146357
 51
286.6988400611
  0
LINE
  5
D8
330
1F
100
AcDbEntity
  8
0
  6
Continuous
 62
     7
370
    15
100
AcDbLine
 10
233.7583523876
 20
112.1310066437
 30
0.0
 11
247.5087490565
 21
116.1915726033
 31
0.0
  0
ARC
  5
D9
330
1F
100
AcDbEntity
  8
0
  6
Continuous
 62
     7
370
    15
100
AcDbCircle
 10
247.4073606966
 20
116.5408550176
 30
0.0
 40
0.3637001573634809
100
AcDbArc
 50
286.1867535735
 51
342.3384015232
  0
LINE
  5
DA
330
1F
100
AcDbEntity
  8
0
  6
Continuous
 62
     7
370
    15
100
AcDbLine
 10
247.7539178617
 20
116.4305103947
 30
0.0
 11
252.0086613185
 21
129.9171425407
 31
0.0
  0
LINE
  5
DB
330
1F
100
AcDbEntity
  8
0
  6
Continuous
 62
     7
370
    15
100
AcDbLine
 10
235.0803163535
 20
113.8047530321
 30
0.0
 11
233.6194363124
 21
112.4419347388
 31
0.0
  0
LINE
  5
DC
330
1F
100
AcDbEntity
  8
0
  6
Continuous
 62
     7
370
    15
100
AcDbLine
 10
235.0803163535
 20
113.8047530321
 30
0.0
 11
235.7194346077
 21
113.9934888114
 31
0.0
  0
LINE
  5
DD
330
1F
100
AcDbEntity
  8
0
  6
Continuous
 62
     7
370
    15
100
AcDbLine
 10
246.9989207274
 20
116.7932149028
 30
0.0
 11
247.3698329813
 21
116.5025006984
 31
0.0
  0
LINE
  5
DE
330
1F
100
AcDbEntity
  8
0
  6
Continuous
 62
     7
370
    15
100
AcDbLine
 10
246.8477186448
 20
114.8588174027
 30
0.0
 11
246.8510937578
 21
114.8598134522
 31
0.0
  0
LINE
  5
DF
330
1F
100
AcDbEntity
  8
0
  6
Continuous
 62
     7
370
    15
100
AcDbLine
 10
233.8750731833
 20
115.3444583532
 30
0.0
 11
232.7434790022
 21
111.7575590969
 31
0.0
  0
LINE
  5
E0
330
1F
100
AcDbEntity
  8
0
  6
Continuous
 62
     7
370
    15
100
AcDbLine
 10
238.1929305083
 20
125.534671918
 30
0.0
 11
237.8741723187
 21
125.9285654877
 31
0.0
  0
LINE
  5
E1
330
1F
100
AcDbEntity
  8
0
  6
Continuous
 62
     7
370
    15
100
AcDbLine
 10
235.2780771143
 20
114.4316141498
 30
0.0
 11
235.0803163535
 21
113.8047530321
 31
0.0
  0
ARC
  5
E2
330
1F
100
AcDbEntity
  8
0
  6
Continuous
 62
     7
370
    15
100
AcDbCircle
 10
237.6224819991
 20
116.3772939122
 30
0.0
 40
1.006726635369652
100
AcDbArc
 50
163.7230813931
 51
286.6982238671
  0
LINE
  5
E3
330
1F
100
AcDbEntity
  8
0
  6
Continuous
 62
     7
370
    15
100
AcDbLine
 10
235.8553704507
 20
114.5617106003
 30
0.0
 11
235.8570095784
 21
114.5600784575
 31
0.0
  0
SPLINE
  5
E4
330
1F
100
AcDbEntity
  8
0
  6
Continuous
 62
     7
370
    15
100
AcDbSpline
210
0.0
220
0.0
230
1.0
 70
     8
 71
     3
 72
    14
 73
    10
 74
     0
 42
0.00000001
 43
0.00000001
 12
1.0
 22
0.0
 32
0.0
 13
1.0
 23
0.0
 33
0.0
 40
0.0
 40
0.0
 40
0.0
 40
0.0
 40
0.2234975780024653
 40
0.3567636002817781
 40
0.4531223478907487
 40
0.5344618796650561
 40
0.6157312182834778
 40
0.7396168096260188
 40
1.0
 40
1.0
 40
1.0
 40
1.0
 10
235.7194346077001
 20
113.9934888114306
 30
0.0
 10
235.7752223264354
 20
114.0126083018702
 30
0.0
 10
235.864274868147
 20
114.04312826681
 30
0.0
 10
235.9613907307626
 20
114.1130742027702
 30
0.0
 10
236.0109490242673
 20
114.1783431737815
 30
0.0
 10
236.0303724997181
 20
114.2441075819884
 30
0.0
 10
236.0249954832847
 20
114.319898670625
 30
0.0
 10
235.9754208014462
 20
114.4345561635499
 30
0.0
 10
235.9048373884065
 20
114.5093783948498
 30
0.0
 10
235.8570095784223
 20
114.560078457472
 30
0.0
  0
SPLINE
  5
E5
330
1F
100
AcDbEntity
  8
0
  6
Continuous
 62
     7
370
    15
100
AcDbSpline
210
0.0
220
0.0
230
1.0
 70
     8
 71
     3
 72
    14
 73
    10
 74
     0
 42
0.00000001
 43
0.00000001
 12
1.0
 22
0.0
 32
0.0
 13
1.0
 23
0.0
 33
0.0
 40
0.0
 40
0.0
 40
0.0
 40
0.0
 40
0.2210584337387682
 40
0.3460811654505503
 40
0.4396060038766504
 40
0.5338955271450236
 40
0.6146587736329235
 40
0.7517250652289542
 40
1.0
 40
1.0
 40
1.0
 40
1.0
 10
235.855370450691
 20
114.561710600284
 30
0.0
 10
235.8122234101472
 20
114.6019505595606
 30
0.0
 10
235.7446739490179
 20
114.664948798391
 30
0.0
 10
235.6398558368571
 20
114.7202387226162
 30
0.0
 10
235.556982769967
 20
114.7370819691645
 30
0.0
 10
235.4853071034914
 20
114.7238561427914
 30
0.0
 10
235.4148576654813
 20
114.6809060246808
 30
0.0
 10
235.3351590437085
 20
114.5868056577208
 30
0.0
 10
235.3004439874474
 20
114.492424091028
 30
0.0
 10
235.2780771142995
 20
114.4316141498359
 30
0.0
  0
LINE
  5
E6
330
1F
100
AcDbEntity
  8
0
  6
Continuous
 62
     7
370
    15
100
AcDbLine
 10
237.9117455966
 20
115.4130195272
 30
0.0
 11
245.607345987
 21
117.6855718722
 31
0.0
  0
LINE
  5
E7
330
1F
100
AcDbEntity
  8
0
  6
Continuous
 62
     7
370
    15
100
AcDbLine
 10
239.0373271591
 20
124.207438529
 30
0.0
 11
236.6561066992
 21
116.6594592859
 31
0.0
  0
ARC
  5
E8
330
1F
100
AcDbEntity
  8
0
  6
Continuous
 62
     7
370
    15
100
AcDbCircle
 10
239.949361505
 20
123.9170115449
 30
0.0
 40
0.9571595902203621
100
AcDbArc
 50
106.1873715906
 51
162.3365143099
  0
LINE
  5
E9
330
1F
100
AcDbEntity
  8
0
  6
Continuous
 62
     7
370
    15
100
AcDbLine
 10
247.3781254775
 20
127.1087765698
 30
0.0
 11
239.6825250871
 21
124.8362246906
 31
0.0
  0
ARC
  5
EA
330
1F
100
AcDbEntity
  8
0
  6
Continuous
 62
     7
370
    15
100
AcDbCircle
 10
247.6673875622
 20
126.1445003447
 30
0.0
 40
1.006727963311289
100
AcDbArc
 50
343.7231297391
 51
106.6981113069
  0
LINE
  5
EB
330
1F
100
AcDbEntity
  8
0
  6
Continuous
 62
     7
370
    15
100
AcDbLine
 10
246.252543915
 20
118.3143561711
 30
0.0
 11
248.6337643749
 21
125.8623354142
 31
0.0
  0
ARC
  5
EC
330
1F
100
AcDbEntity
  8
0
  6
Continuous
 62
     7
370
    15
100
AcDbCircle
 10
245.3404959311
 20
118.6047998723
 30
0.0
 40
0.9571776577931038
100
AcDbArc
 50
286.187907706
 51
342.335808524
  0
LWPOLYLINE
  5
ED
330
1F
100
AcDbEntity
  8
0
  6
Continuous
 62
     7
370
    15
100
AcDbPolyline
 90
       27
 70
   128
 43
0.0
 10
245.0970110185
 20
120.4641224821
 10
245.2065941579
 20
121.0604827856
 10
245.1672997958
 20
121.6684911405
 10
244.9814227111
 20
122.2528103744
 10
244.6597513444
 20
122.7794844662
 10
244.220986653
 20
123.2179027055
 10
243.6906245238
 20
123.5425878321
 10
243.0994954593
 20
123.7346693878
 10
242.4819466359
 20
123.782983609
 10
241.8738675005
 20
123.6847234895
 10
241.3106036074
 20
123.4455998992
 10
240.8248853571
 20
123.0795091023
 10
240.4449429996
 20
122.607727163
 10
240.1928600556
 20
122.0576731493
 10
240.0832769162
 20
121.4613128458
 10
240.1225712783
 20
120.8533044909
 10
240.308448363
 20
120.268985257
 10
240.6301197297
 20
119.7423111652
 10
241.0688844211
 20
119.3038929259
 10
241.5992465503
 20
118.9792077993
 10
242.1903756148
 20
118.7871262436
 10
242.8079244382
 20
118.7388120224
 10
243.4160035736
 20
118.8370721419
 10
243.9792674667
 20
119.0761957322
 10
244.464985717
 20
119.4422865291
 10
244.8449280746
 20
119.9140684684
 10
245.0970110185
 20
120.4641224821
  0
LINE
  5
EE
330
1F
100
AcDbEntity
  8
0
  6
Continuous
 62
     7
370
    15
100
AcDbLine
 10
244.5144501216
 20
119.4915395235
 30
0.0
 11
244.539312709
 21
119.6961995219
 31
0.0
  0
LWPOLYLINE
  5
EF
330
1F
100
AcDbEntity
  8
0
  6
Continuous
 62
     7
370
    15
100
AcDbPolyline
 90
        3
 70
   128
 43
0.0
 10
240.5535650141
 20
122.0760248606
 10
240.1611280329
 20
121.7665025969
 10
240.1116710789
 20
121.7172486712
  0
SPLINE
  5
F0
330
1F
100
AcDbEntity
  8
0
  6
Continuous
 62
     7
370
    15
100
AcDbSpline
210
0.0
220
0.0
230
1.0
 70
     8
 71
     3
 72
    11
 73
     7
 74
     0
 42
0.00000001
 43
0.00000001
 12
1.0
 22
0.0
 32
0.0
 13
1.0
 23
0.0
 33
0.0
 40
0.0
 40
0.0
 40
0.0
 40
0.0
 40
0.3280465191661063
 40
0.6557054590734976
 40
0.9906985070839375
 40
1.0
 40
1.0
 40
1.0
 40
1.0
 10
246.9989207274473
 20
116.7932149027558
 30
0.0
 10
246.9431999446296
 20
116.8394957349973
 30
0.0
 10
246.8318242117906
 20
116.9320027197639
 30
0.0
 10
246.6596867224665
 20
117.1068059726879
 30
0.0
 10
246.5561943847046
 20
117.2270704620029
 30
0.0
 10
246.5095526226827
 20
117.2862499067273
 30
0.0
 10
246.5082925445593
 20
117.2878487040373
 30
0.0
  0
ARC
  5
F1
330
1F
100
AcDbEntity
  8
0
  6
Continuous
 62
     7
370
    15
100
AcDbCircle
 10
246.7439451461
 20
115.2282290477
 30
0.0
 40
0.3836806952936496
100
AcDbArc
 50
286.216345999
 51
333.0596184407
  0
LINE
  5
F2
330
1F
100
AcDbEntity
  8
0
  6
Continuous
 62
     7
370
    15
100
AcDbLine
 10
250.0423115379
 20
128.3862065529
 30
0.0
 11
251.6245689876
 21
129.9891319131
 31
0.0
  0
LINE
  5
F3
330
1F
100
AcDbEntity
  8
0
  6
Continuous
 62
     7
370
    15
100
AcDbLine
 10
249.8445507772
 20
127.7593445038
 30
0.0
 11
250.0423115379
 21
128.3862065529
 31
0.0
  0
SPLINE
  5
F4
330
1F
100
AcDbEntity
  8
0
  6
Continuous
 62
     7
370
    15
100
AcDbSpline
210
0.0
220
0.0
230
1.0
 70
     8
 71
     3
 72
    11
 73
     7
 74
     0
 42
0.00000001
 43
0.00000001
 12
1.0
 22
0.0
 32
0.0
 13
1.0
 23
0.0
 33
0.0
 40
0.0
 40
0.0
 40
0.0
 40
0.0
 40
0.3280427619240134
 40
0.6557018748763433
 40
0.9906976344979311
 40
1.0
 40
1.0
 40
1.0
 40
1.0
 10
238.1929305083311
 20
125.5346719180318
 30
0.0
 10
238.2425689915738
 20
125.4763653224517
 30
0.0
 10
238.341787905405
 20
125.3598203213815
 30
0.0
 10
238.516564706979
 20
125.190224504177
 30
0.0
 10
238.6318738194977
 20
125.0933748877678
 30
0.0
 10
238.6871756262196
 20
125.0512975225801
 30
0.0
 10
238.6886697895086
 20
125.0501606618138
 30
0.0
  0
LINE
  5
F5
330
1F
100
AcDbEntity
  8
0
  6
Continuous
 62
     7
370
    15
100
AcDbLine
 10
250.0423115379
 20
128.3862065529
 30
0.0
 11
249.4031932838
 21
128.1974703078
 31
0.0
  0
ARC
  5
F6
330
1F
100
AcDbEntity
  8
0
  6
Continuous
 62
     7
370
    15
100
AcDbCircle
 10
249.1139163959
 20
127.4761532799
 30
0.0
 40
0.216682915093349
100
AcDbArc
 50
44.9539534398
 51
45.5669136958
  0
SPLINE
  5
F7
330
1F
100
AcDbEntity
  8
0
  6
Continuous
 62
     7
370
    15
100
AcDbSpline
210
0.0
220
0.0
230
1.0
 70
     8
 71
     3
 72
    14
 73
    10
 74
     0
 42
0.00000001
 43
0.00000001
 12
1.0
 22
0.0
 32
0.0
 13
1.0
 23
0.0
 33
0.0
 40
0.0
 40
0.0
 40
0.0
 40
0.0
 40
0.2210587321818519
 40
0.3460816375070899
 40
0.4395973417321816
 40
0.5338870599584401
 40
0.6146576470943215
 40
0.7517242305620986
 40
1.0
 40
1.0
 40
1.0
 40
1.0
 10
249.2672574407613
 20
127.6292480533096
 30
0.0
 10
249.3104045036359
 20
127.5890080292252
 30
0.0
 10
249.3779540006672
 20
127.526009688056
 30
0.0
 10
249.4827697420546
 20
127.4707214046871
 30
0.0
 10
249.5656404104514
 20
127.4538765390525
 30
0.0
 10
249.6373141147495
 20
127.4671051796341
 30
0.0
 10
249.7077704526822
 20
127.5100485372006
 30
0.0
 10
249.7874680492943
 20
127.6041538506472
 30
0.0
 10
249.8221835851787
 20
127.6985348812865
 30
0.0
 10
249.8445507771528
 20
127.7593445037576
 30
0.0
  0
SPLINE
  5
F8
330
1F
100
AcDbEntity
  8
0
  6
Continuous
 62
     7
370
    15
100
AcDbSpline
210
0.0
220
0.0
230
1.0
 70
     8
 71
     3
 72
    14
 73
    10
 74
     0
 42
0.00000001
 43
0.00000001
 12
1.0
 22
0.0
 32
0.0
 13
1.0
 23
0.0
 33
0.0
 40
0.0
 40
0.0
 40
0.0
 40
0.0
 40
0.2234974143383862
 40
0.3567629655015422
 40
0.4531216311070223
 40
0.5344641307649783
 40
0.6157344675938158
 40
0.7396166156919591
 40
1.0
 40
1.0
 40
1.0
 40
1.0
 10
249.4031932837522
 20
128.1974703078242
 30
0.0
 10
249.3474059294624
 20
128.1783506910467
 30
0.0
 10
249.2583540627424
 20
128.1478305563909
 30
0.0
 10
249.1612354664062
 20
128.0778856829699
 30
0.0
 10
249.1116823085675
 20
128.0126150151523
 30
0.0
 10
249.09224274429
 20
127.9468524558502
 30
0.0
 10
249.0976386514031
 20
127.8710615615487
 30
0.0
 10
249.1471914088198
 20
127.7563997328046
 30
0.0
 10
249.2177794656929
 20
127.6815791455393
 30
0.0
 10
249.2656108624494
 20
127.6308797304603
 30
0.0
  0
ELLIPSE
  5
F9
330
1F
100
AcDbEntity
  8
0
  6
Continuous
 62
     7
370
    15
100
AcDbEllipse
 10
242.3626139855
 20
120.5807226748
 30
0.0
 11
2.09333716601634
 21
-1.06795101100549
 31
0.0
210
0.0
220
0.0
230
1.0
 40
0.9741101241
 41
0.0
 42
6.283185307179586
  0
LINE
  5
FA
330
1F
100
AcDbEntity
  8
0
  6
HIDDEN
 62
     7
370
     0
100
AcDbLine
 10
162.0442677922
 20
89.0237834309
 30
0.0
 11
162.0442677922
 21
127.8237845753
 31
0.0
  0
SPLINE
  5
FB
330
1F
100
AcDbEntity
  8
0
  6
HIDDEN
 62
     7
370
     0
100
AcDbSpline
210
0.0
220
0.0
230
1.0
 70
     8
 71
     3
 72
    58
 73
    54
 74
     0
 42
0.00000001
 43
0.00000001
 12
1.0
 22
0.0
 32
0.0
 13
1.0
 23
0.0
 33
0.0
 40
-0.0625000000000004
 40
-0.0625000000000004
 40
0.0
 40
0.0
 40
0.03125
 40
0.03125
 40
0.0624999999999999
 40
0.0624999999999999
 40
0.0937499999999999
 40
0.0937499999999999
 40
0.1249999999999998
 40
0.1249999999999998
 40
0.1874999999999994
 40
0.1874999999999994
 40
0.2499999999999991
 40
0.2499999999999991
 40
0.2812499999999991
 40
0.2812499999999991
 40
0.3124999999999991
 40
0.3124999999999991
 40
0.3437499999999992
 40
0.3437499999999992
 40
0.3749999999999992
 40
0.3749999999999992
 40
0.4062499999999992
 40
0.4062499999999992
 40
0.4374999999999993
 40
0.4374999999999993
 40
0.4687499999999993
 40
0.4687499999999993
 40
0.4999999999999993
 40
0.4999999999999993
 40
0.5624999999999994
 40
0.5624999999999994
 40
0.6249999999999994
 40
0.6249999999999994
 40
0.6562499999999994
 40
0.6562499999999994
 40
0.6874999999999994
 40
0.6874999999999994
 40
0.7187499999999994
 40
0.7187499999999994
 40
0.7499999999999994
 40
0.7499999999999994
 40
0.7812499999999993
 40
0.7812499999999993
 40
0.8124999999999993
 40
0.8124999999999993
 40
0.8437499999999993
 40
0.8437499999999993
 40
0.8749999999999993
 40
0.8749999999999993
 40
0.9374999999999996
 40
0.9374999999999996
 40
1.0
 40
1.0
 40
1.03125
 40
1.03125
 10
152.0442682392156
 20
108.1593478886878
 30
0.0
 10
152.0442682392156
 20
108.5560020603598
 30
0.0
 10
152.0572502768878
 20
108.6859942212003
 30
0.0
 10
152.1081010791461
 20
108.9417138336526
 30
0.0
 10
152.146592983199
 20
109.0687725175137
 30
0.0
 10
152.2470082689255
 20
109.3109357151725
 30
0.0
 10
152.3084444081985
 20
109.4257774995572
 30
0.0
 10
152.4535778845094
 20
109.6431196971274
 30
0.0
 10
152.5379995733605
 20
109.7459613449752
 30
0.0
 10
152.8145997475253
 20
110.0225048257268
 30
0.0
 10
153.0375986587924
 20
110.1714874618589
 30
0.0
 10
153.5188331763781
 20
110.3710305254136
 30
0.0
 10
153.7821325918871
 20
110.423640998445
 30
0.0
 10
154.1736960319273
 20
110.4238550571975
 30
0.0
 10
154.306283642532
 20
110.410856207792
 30
0.0
 10
154.5628493481313
 20
110.3598061237656
 30
0.0
 10
154.6875591143119
 20
110.3220348849534
 30
0.0
 10
154.9297982993388
 20
110.2218429768409
 30
0.0
 10
155.0468149531126
 20
110.1592575830164
 30
0.0
 10
155.2634581579588
 20
110.0145524973059
 30
0.0
 10
155.3644649144173
 20
109.9319331559256
 30
0.0
 10
155.5512710100739
 20
109.7452891211356
 30
0.0
 10
155.6339845456058
 20
109.6443432731757
 30
0.0
 10
155.7788546749811
 20
109.427862069494
 30
0.0
 10
155.8415249710778
 20
109.3109449044856
 30
0.0
 10
155.941952909114
 20
109.0687484352871
 30
0.0
 10
155.9798240880438
 20
108.9440874443836
 30
0.0
 10
156.0310864858194
 20
108.6876880953156
 30
0.0
 10
156.0442201264601
 20
108.5550771700178
 30
0.0
 10
156.0443640595989
 20
108.1634025576827
 30
0.0
 10
155.9919988023341
 20
107.9001185380221
 30
0.0
 10
155.7928381389835
 20
107.4186058241623
 30
0.0
 10
155.6440404656215
 20
107.1954847371173
 30
0.0
 10
155.3677398070353
 20
106.9186525886098
 30
0.0
 10
155.2649747599756
 20
106.8341453743255
 30
0.0
 10
155.0477574861812
 20
106.6888244326396
 30
0.0
 10
154.9329877927435
 20
106.6273022093775
 30
0.0
 10
154.6910012555988
 20
106.5267058061055
 30
0.0
 10
154.5639186827074
 20
106.4880779180169
 30
0.0
 10
154.3082439827042
 20
106.4369998079508
 30
0.0
 10
154.17830346536
 20
106.4239106681836
 30
0.0
 10
153.9140400975987
 20
106.423659149825
 30
0.0
 10
153.7838292039517
 20
106.4365336198814
 30
0.0
 10
153.5280792585181
 20
106.4871525170134
 30
0.0
 10
153.4010618741508
 20
106.5255003358092
 30
0.0
 10
153.158710146399
 20
106.6257344560026
 30
0.0
 10
153.0438073671127
 20
106.6870786429926
 30
0.0
 10
152.8263852019637
 20
106.8319836475217
 30
0.0
 10
152.723448804519
 20
106.9163225396437
 30
0.0
 10
152.4466116473621
 20
107.1927236526855
 30
0.0
 10
152.297456406298
 20
107.415567285728
 30
0.0
 10
152.0974858210627
 20
107.8966305669785
 30
0.0
 10
152.0442682392156
 20
108.1593478886878
 30
0.0
 10
152.0442682392156
 20
108.5560020603598
 30
0.0
  0
SPLINE
  5
FC
330
1F
100
AcDbEntity
  8
0
  6
HIDDEN
 62
     7
370
     0
100
AcDbSpline
210
0.0
220
0.0
230
1.0
 70
     8
 71
     3
 72
    12
 73
     8
 74
     0
 42
0.00000001
 43
0.00000001
 12
1.0
 22
0.0
 32
0.0
 13
1.0
 23
0.0
 33
0.0
 40
0.0
 40
0.0
 40
0.0
 40
0.0
 40
0.2500000000000018
 40
0.2500000000000018
 40
0.5000000000000037
 40
0.5000000000000037
 40
1.0
 40
1.0
 40
1.0
 40
1.0
 10
148.9761702412148
 20
102.5945710074841
 30
0.0
 10
148.9386583551702
 20
102.5945710074841
 30
0.0
 10
148.9033710074654
 20
102.5797661931973
 30
0.0
 10
148.844441159227
 20
102.5361743200715
 30
0.0
 10
148.8209154327579
 20
102.5086608939855
 30
0.0
 10
148.7606566449899
 20
102.4195291618719
 30
0.0
 10
148.7350618827005
 20
102.3531433112541
 30
0.0
 10
148.7163626200795
 20
102.2855388760767
 30
0.0
  0
LINE
  5
FD
330
1F
100
AcDbEntity
  8
0
  6
HIDDEN
 62
     7
370
     0
100
AcDbLine
 10
151.1123661584
 20
102.594570816
 30
0.0
 11
148.9761701486
 21
102.594570816
 31
0.0
  0
SPLINE
  5
FE
330
1F
100
AcDbEntity
  8
0
  6
HIDDEN
 62
     7
370
     0
100
AcDbSpline
210
0.0
220
0.0
230
1.0
 70
     8
 71
     3
 72
    12
 73
     8
 74
     0
 42
0.00000001
 43
0.00000001
 12
1.0
 22
0.0
 32
0.0
 13
1.0
 23
0.0
 33
0.0
 40
0.0
 40
0.0
 40
0.0
 40
0.0
 40
0.4999999999999962
 40
0.4999999999999962
 40
0.7499999999999981
 40
0.7499999999999981
 40
1.0
 40
1.0
 40
1.0
 40
1.0
 10
151.3721738583518
 20
102.2855388760767
 30
0.0
 10
151.3534806252214
 20
102.3531215125171
 30
0.0
 10
151.3278253278096
 20
102.4196040819945
 30
0.0
 10
151.2676647051231
 20
102.508599164892
 30
0.0
 10
151.2435923933688
 20
102.5366010618912
 30
0.0
 10
151.1852108730182
 20
102.5796774625564
 30
0.0
 10
151.1497420453652
 20
102.5945710074841
 30
0.0
 10
151.1123662372164
 20
102.5945710074841
 30
0.0
  0
ELLIPSE
  5
FF
330
1F
100
AcDbEntity
  8
0
  6
HIDDEN
 62
     7
370
     0
100
AcDbEllipse
 10
141.0953390668
 20
108.4237840031
 30
0.0
 11
-9.367417879781726
 21
19.74174915274994
 31
0.0
210
0.0
220
0.0
230
1.0
 40
0.3419987131
 41
3.292664382516903
 42
4.239566697061004
  0
SPLINE
  5
100
330
1F
100
AcDbEntity
  8
0
  6
HIDDEN
 62
     7
370
     0
100
AcDbSpline
210
0.0
220
0.0
230
1.0
 70
     8
 71
     3
 72
    12
 73
     8
 74
     0
 42
0.00000001
 43
0.00000001
 12
1.0
 22
0.0
 32
0.0
 13
1.0
 23
0.0
 33
0.0
 40
0.0
 40
0.0
 40
0.0
 40
0.0
 40
0.2499999999999986
 40
0.2499999999999986
 40
0.4999999999999971
 40
0.4999999999999971
 40
1.0
 40
1.0
 40
1.0
 40
1.0
 10
151.1123662372164
 20
89.29212762290244
 30
0.0
 10
151.1498781232611
 20
89.29212762290244
 30
0.0
 10
151.1851654709658
 20
89.29663116716496
 30
0.0
 10
151.2440953192042
 20
89.31000436661826
 30
0.0
 10
151.2676210456733
 20
89.3184892691894
 30
0.0
 10
151.3278798334414
 20
89.34623707302399
 30
0.0
 10
151.3534745957307
 20
89.36722693676435
 30
0.0
 10
151.3721738583518
 20
89.38902771995389
 30
0.0
  0
LINE
  5
101
330
1F
100
AcDbEntity
  8
0
  6
HIDDEN
 62
     7
370
     0
100
AcDbLine
 10
148.9761701486
 20
89.292127267
 30
0.0
 11
151.1123661584
 21
89.292127267
 31
0.0
  0
SPLINE
  5
102
330
1F
100
AcDbEntity
  8
0
  6
HIDDEN
 62
     7
370
     0
100
AcDbSpline
210
0.0
220
0.0
230
1.0
 70
     8
 71
     3
 72
    12
 73
     8
 74
     0
 42
0.00000001
 43
0.00000001
 12
1.0
 22
0.0
 32
0.0
 13
1.0
 23
0.0
 33
0.0
 40
0.0
 40
0.0
 40
0.0
 40
0.0
 40
0.5000000000000029
 40
0.5000000000000029
 40
0.7500000000000014
 40
0.7500000000000014
 40
1.0
 40
1.0
 40
1.0
 40
1.0
 10
148.7163626200795
 20
89.38902771995389
 30
0.0
 10
148.7350558532099
 20
89.36723396632593
 30
0.0
 10
148.7607111506217
 20
89.34621380461628
 30
0.0
 10
148.8208717733082
 20
89.31850845865257
 30
0.0
 10
148.8449440850625
 20
89.3098732424592
 30
0.0
 10
148.903325605413
 20
89.29665859723261
 30
0.0
 10
148.9387944330661
 20
89.29212762290243
 30
0.0
 10
148.9761702412148
 20
89.29212762290243
 30
0.0
  0
ELLIPSE
  5
103
330
1F
100
AcDbEntity
  8
0
  6
HIDDEN
 62
     7
370
     0
100
AcDbEllipse
 10
158.9931974117
 20
108.4237840031
 30
0.0
 11
9.367417879781643
 21
19.74174915274997
 31
0.0
210
0.0
220
0.0
230
1.0
 40
0.3419987131
 41
2.043618610118591
 42
2.990520924662724
  0
SPLINE
  5
104
330
1F
100
AcDbEntity
  8
0
  6
HIDDEN
 62
     7
370
     0
100
AcDbSpline
210
0.0
220
0.0
230
1.0
 70
     8
 71
     3
 72
    12
 73
     8
 74
     0
 42
0.00000001
 43
0.00000001
 12
1.0
 22
0.0
 32
0.0
 13
1.0
 23
0.0
 33
0.0
 40
0.0
 40
0.0
 40
0.0
 40
0.0
 40
0.2500000000000007
 40
0.2500000000000007
 40
0.5000000000000013
 40
0.5000000000000013
 40
1.0
 40
1.0
 40
1.0
 40
1.0
 10
148.9761702412148
 20
127.5554403833692
 30
0.0
 10
148.9386583551702
 20
127.5554403833692
 30
0.0
 10
148.9033710074654
 20
127.5509368391067
 30
0.0
 10
148.844441159227
 20
127.5375636396534
 30
0.0
 10
148.8209154327579
 20
127.5290787370823
 30
0.0
 10
148.7606566449899
 20
127.5013309332477
 30
0.0
 10
148.7350618827005
 20
127.4803410695073
 30
0.0
 10
148.7163626200795
 20
127.4585402863178
 30
0.0
  0
LINE
  5
105
330
1F
100
AcDbEntity
  8
0
  6
HIDDEN
 62
     7
370
     0
100
AcDbLine
 10
151.1123661584
 20
127.5554407393
 30
0.0
 11
148.9761701486
 21
127.5554407393
 31
0.0
  0
SPLINE
  5
106
330
1F
100
AcDbEntity
  8
0
  6
HIDDEN
 62
     7
370
     0
100
AcDbSpline
210
0.0
220
0.0
230
1.0
 70
     8
 71
     3
 72
    12
 73
     8
 74
     0
 42
0.00000001
 43
0.00000001
 12
1.0
 22
0.0
 32
0.0
 13
1.0
 23
0.0
 33
0.0
 40
0.0
 40
0.0
 40
0.0
 40
0.0
 40
0.4999999999999947
 40
0.4999999999999947
 40
0.7499999999999973
 40
0.7499999999999973
 40
1.0
 40
1.0
 40
1.0
 40
1.0
 10
151.3721738583518
 20
127.4585402863178
 30
0.0
 10
151.3534806252214
 20
127.4803340399457
 30
0.0
 10
151.3278253278096
 20
127.5013542016554
 30
0.0
 10
151.2676647051231
 20
127.5290595476191
 30
0.0
 10
151.2435923933688
 20
127.5376947638125
 30
0.0
 10
151.1852108730182
 20
127.550909409039
 30
0.0
 10
151.1497420453652
 20
127.5554403833692
 30
0.0
 10
151.1123662372164
 20
127.5554403833692
 30
0.0
  0
ELLIPSE
  5
107
330
1F
100
AcDbEntity
  8
0
  6
HIDDEN
 62
     7
370
     0
100
AcDbEllipse
 10
141.0953390668
 20
108.4237840031
 30
0.0
 11
9.367417879781812
 21
19.74174915274993
 31
0.0
210
0.0
220
0.0
230
1.0
 40
0.3419987131
 41
5.185211263708412
 42
6.132113578252571
  0
SPLINE
  5
108
330
1F
100
AcDbEntity
  8
0
  6
HIDDEN
 62
     7
370
     0
100
AcDbSpline
210
0.0
220
0.0
230
1.0
 70
     8
 71
     3
 72
    12
 73
     8
 74
     0
 42
0.00000001
 43
0.00000001
 12
1.0
 22
0.0
 32
0.0
 13
1.0
 23
0.0
 33
0.0
 40
0.0
 40
0.0
 40
0.0
 40
0.0
 40
0.249999999999999
 40
0.249999999999999
 40
0.499999999999998
 40
0.499999999999998
 40
1.0
 40
1.0
 40
1.0
 40
1.0
 10
151.1123662372164
 20
114.2529969987877
 30
0.0
 10
151.1498781232611
 20
114.2529969987877
 30
0.0
 10
151.1851654709658
 20
114.2678018130745
 30
0.0
 10
151.2440953192042
 20
114.3113936862003
 30
0.0
 10
151.2676210456733
 20
114.3389071122863
 30
0.0
 10
151.3278798334414
 20
114.4280388443999
 30
0.0
 10
151.3534745957307
 20
114.4944246950177
 30
0.0
 10
151.3721738583518
 20
114.5620291301951
 30
0.0
  0
LINE
  5
109
330
1F
100
AcDbEntity
  8
0
  6
HIDDEN
 62
     7
370
     0
100
AcDbLine
 10
148.9761701486
 20
114.2529971902
 30
0.0
 11
151.1123661584
 21
114.2529971902
 31
0.0
  0
SPLINE
  5
10A
330
1F
100
AcDbEntity
  8
0
  6
HIDDEN
 62
     7
370
     0
100
AcDbSpline
210
0.0
220
0.0
230
1.0
 70
     8
 71
     3
 72
    12
 73
     8
 74
     0
 42
0.00000001
 43
0.00000001
 12
1.0
 22
0.0
 32
0.0
 13
1.0
 23
0.0
 33
0.0
 40
0.0
 40
0.0
 40
0.0
 40
0.0
 40
0.4999999999999956
 40
0.4999999999999956
 40
0.7499999999999978
 40
0.7499999999999978
 40
1.0
 40
1.0
 40
1.0
 40
1.0
 10
148.7163626200795
 20
114.5620291301951
 30
0.0
 10
148.7350558532099
 20
114.4944464937548
 30
0.0
 10
148.7607111506217
 20
114.4279639242773
 30
0.0
 10
148.8208717733082
 20
114.3389688413798
 30
0.0
 10
148.8449440850625
 20
114.3109669443806
 30
0.0
 10
148.903325605413
 20
114.2678905437155
 30
0.0
 10
148.9387944330661
 20
114.2529969987877
 30
0.0
 10
148.9761702412148
 20
114.2529969987877
 30
0.0
  0
ELLIPSE
  5
10B
330
1F
100
AcDbEntity
  8
0
  6
HIDDEN
 62
     7
370
     0
100
AcDbEllipse
 10
158.9931974117
 20
108.4237840031
 30
0.0
 11
-9.367417879781669
 21
19.74174915274996
 31
0.0
210
0.0
220
0.0
230
1.0
 40
0.3419987131
 41
0.1510717289270587
 42
1.09797404347119
  0
LINE
  5
10C
330
1F
100
AcDbEntity
  8
0
  6
HIDDEN
 62
     7
370
     0
100
AcDbLine
 10
142.0442682392
 20
88.7237839406
 30
0.0
 11
142.0442682392
 21
128.1237840657
 31
0.0
  0
LINE
  5
10D
330
1F
100
AcDbEntity
  8
0
  6
HIDDEN
 62
     7
370
     0
100
AcDbLine
 10
162.0442677922
 20
90.423784778
 30
0.0
 11
162.0442677922
 21
126.4237832283
 31
0.0
  0
SPLINE
  5
10E
330
1F
100
AcDbEntity
  8
0
  6
HIDDEN
 62
     7
370
     0
100
AcDbSpline
210
0.0
220
0.0
230
1.0
 70
     8
 71
     3
 72
    66
 73
    62
 74
     0
 42
0.00000001
 43
0.00000001
 12
1.0
 22
0.0
 32
0.0
 13
1.0
 23
0.0
 33
0.0
 40
-0.0312500000000011
 40
-0.0312500000000011
 40
0.0
 40
0.0
 40
0.0312499999999999
 40
0.0312499999999999
 40
0.0624999999999999
 40
0.0624999999999999
 40
0.0937499999999998
 40
0.0937499999999998
 40
0.1249999999999998
 40
0.1249999999999998
 40
0.1562499999999997
 40
0.1562499999999997
 40
0.1874999999999996
 40
0.1874999999999996
 40
0.2187499999999996
 40
0.2187499999999996
 40
0.2499999999999995
 40
0.2499999999999995
 40
0.2812499999999994
 40
0.2812499999999994
 40
0.3124999999999994
 40
0.3124999999999994
 40
0.3437499999999993
 40
0.3437499999999993
 40
0.3749999999999992
 40
0.3749999999999992
 40
0.4062499999999992
 40
0.4062499999999992
 40
0.4374999999999991
 40
0.4374999999999991
 40
0.4687499999999991
 40
0.4687499999999991
 40
0.499999999999999
 40
0.499999999999999
 40
0.5624999999999989
 40
0.5624999999999989
 40
0.5937499999999988
 40
0.5937499999999988
 40
0.6249999999999988
 40
0.6249999999999988
 40
0.6562499999999987
 40
0.6562499999999987
 40
0.6874999999999987
 40
0.6874999999999987
 40
0.7187499999999986
 40
0.7187499999999986
 40
0.7499999999999984
 40
0.7499999999999984
 40
0.7812499999999984
 40
0.7812499999999984
 40
0.8124999999999983
 40
0.8124999999999983
 40
0.8437499999999982
 40
0.8437499999999982
 40
0.874999999999998
 40
0.874999999999998
 40
0.9374999999999978
 40
0.9374999999999978
 40
0.9687499999999989
 40
0.9687499999999989
 40
1.0
 40
1.0
 40
1.03125
 40
1.03125
 10
212.2097019869369
 20
105.9178812091514
 30
0.0
 10
211.8788344914943
 20
105.9178812091514
 30
0.0
 10
211.7162167437669
 20
105.901616055077
 30
0.0
 10
211.3963668850319
 20
105.8380250492698
 30
0.0
 10
211.2374583931752
 20
105.78991061678
 30
0.0
 10
210.9348353438497
 20
105.6648296025599
 30
0.0
 10
210.7913452903238
 20
105.588437215755
 30
0.0
 10
210.5197853149737
 20
105.4085617529608
 30
0.0
 10
210.3914077584139
 20
105.304283140164
 30
0.0
 10
210.161200641916
 20
105.0773853457416
 30
0.0
 10
210.0578059980041
 20
104.953919762788
 30
0.0
 10
209.8750360308884
 20
104.6867451898323
 30
0.0
 10
209.7975278067129
 20
104.5453674724578
 30
0.0
 10
209.6727602329121
 20
104.2538057307415
 30
0.0
 10
209.6246244531841
 20
104.1014626618625
 30
0.0
 10
209.560302818292
 20
103.7913967847749
 30
0.0
 10
209.5443615374528
 20
103.636193117878
 30
0.0
 10
209.544175749792
 20
103.3255358785276
 30
0.0
 10
209.5604637615791
 20
103.168524374492
 30
0.0
 10
209.6243476560082
 20
102.8664328995985
 30
0.0
 10
209.6716120887762
 20
102.7203225737573
 30
0.0
 10
209.7970201996012
 20
102.4377679299137
 30
0.0
 10
209.8751870023609
 20
102.3022687075093
 30
0.0
 10
210.0559946358769
 20
102.0521999268685
 30
0.0
 10
210.1595311132028
 20
101.9358312785378
 30
0.0
 10
210.3923643196428
 20
101.72225579462
 30
0.0
 10
210.5183346544353
 20
101.6279934444561
 30
0.0
 10
210.7887898698781
 20
101.4631331073453
 30
0.0
 10
210.935051122263
 20
101.391967345453
 30
0.0
 10
211.2374932130607
 20
101.2782903259013
 30
0.0
 10
211.3933126936843
 20
101.2354567371316
 30
0.0
 10
211.7141634548847
 20
101.1774722689569
 30
0.0
 10
211.8800242104795
 20
101.1626558728261
 30
0.0
 10
212.3698502439193
 20
101.1624846453061
 30
0.0
 10
212.699292499946
 20
101.2215323469697
 30
0.0
 10
213.1507504134827
 20
101.3908009521326
 30
0.0
 10
213.2964697918218
 20
101.4613206368518
 30
0.0
 10
213.569292826704
 20
101.6272572017481
 30
0.0
 10
213.6950380482492
 20
101.7214881340288
 30
0.0
 10
213.9257039969775
 20
101.9325355165599
 30
0.0
 10
214.0312747038802
 20
102.0506432666733
 30
0.0
 10
214.2126600914813
 20
102.3011214706862
 30
0.0
 10
214.2896054913305
 20
102.4341658468091
 30
0.0
 10
214.4155652576035
 20
102.7165753176197
 30
0.0
 10
214.4637773743887
 20
102.8651300968475
 30
0.0
 10
214.5276963230479
 20
103.1661095544915
 30
0.0
 10
214.5441302103972
 20
103.3204071629505
 30
0.0
 10
214.5444045450042
 20
103.6346693287357
 30
0.0
 10
214.5283209390741
 20
103.7900630345947
 30
0.0
 10
214.464935052721
 20
104.0974283116303
 30
0.0
 10
214.4168090305273
 20
104.2510437224859
 30
0.0
 10
214.2916032655577
 20
104.5443220616576
 30
0.0
 10
214.2149425547997
 20
104.6841945801751
 30
0.0
 10
214.033596156113
 20
104.9501628447662
 30
0.0
 10
213.928359128472
 20
105.0762316319284
 30
0.0
 10
213.5834145727094
 20
105.416650706926
 30
0.0
 10
213.3050190454503
 20
105.6019805234556
 30
0.0
 10
212.8541027015744
 20
105.7888119047459
 30
0.0
 10
212.6961545202749
 20
105.8370669915872
 30
0.0
 10
212.3731539400578
 20
105.9016135410518
 30
0.0
 10
212.2097019869369
 20
105.9178812091514
 30
0.0
 10
211.8788344914943
 20
105.9178812091514
 30
0.0
  0
SPLINE
  5
10F
330
1F
100
AcDbEntity
  8
0
  6
HIDDEN
 62
     7
370
     0
100
AcDbSpline
210
0.0
220
0.0
230
1.0
 70
     8
 71
     3
 72
    66
 73
    62
 74
     0
 42
0.00000001
 43
0.00000001
 12
1.0
 22
0.0
 32
0.0
 13
1.0
 23
0.0
 33
0.0
 40
-0.0312500000000011
 40
-0.0312500000000011
 40
0.0
 40
0.0
 40
0.0312499999999999
 40
0.0312499999999999
 40
0.0624999999999999
 40
0.0624999999999999
 40
0.0937499999999998
 40
0.0937499999999998
 40
0.1249999999999998
 40
0.1249999999999998
 40
0.1562499999999997
 40
0.1562499999999997
 40
0.1874999999999996
 40
0.1874999999999996
 40
0.2187499999999996
 40
0.2187499999999996
 40
0.2499999999999995
 40
0.2499999999999995
 40
0.2812499999999994
 40
0.2812499999999994
 40
0.3124999999999994
 40
0.3124999999999994
 40
0.3437499999999993
 40
0.3437499999999993
 40
0.3749999999999992
 40
0.3749999999999992
 40
0.4062499999999992
 40
0.4062499999999992
 40
0.4374999999999991
 40
0.4374999999999991
 40
0.4687499999999991
 40
0.4687499999999991
 40
0.499999999999999
 40
0.499999999999999
 40
0.5624999999999989
 40
0.5624999999999989
 40
0.5937499999999988
 40
0.5937499999999988
 40
0.6249999999999988
 40
0.6249999999999988
 40
0.6562499999999987
 40
0.6562499999999987
 40
0.6874999999999987
 40
0.6874999999999987
 40
0.7187499999999986
 40
0.7187499999999986
 40
0.7499999999999984
 40
0.7499999999999984
 40
0.7812499999999984
 40
0.7812499999999984
 40
0.8124999999999983
 40
0.8124999999999983
 40
0.8437499999999982
 40
0.8437499999999982
 40
0.874999999999998
 40
0.874999999999998
 40
0.9374999999999978
 40
0.9374999999999978
 40
0.9687499999999989
 40
0.9687499999999989
 40
1.0
 40
1.0
 40
1.03125
 40
1.03125
 10
212.2097019869369
 20
105.9178812091514
 30
0.0
 10
211.8788344914943
 20
105.9178812091514
 30
0.0
 10
211.7162167437669
 20
105.901616055077
 30
0.0
 10
211.3963668850319
 20
105.8380250492698
 30
0.0
 10
211.2374583931752
 20
105.78991061678
 30
0.0
 10
210.9348353438497
 20
105.6648296025599
 30
0.0
 10
210.7913452903238
 20
105.588437215755
 30
0.0
 10
210.5197853149737
 20
105.4085617529608
 30
0.0
 10
210.3914077584139
 20
105.304283140164
 30
0.0
 10
210.161200641916
 20
105.0773853457416
 30
0.0
 10
210.0578059980041
 20
104.953919762788
 30
0.0
 10
209.8750360308884
 20
104.6867451898323
 30
0.0
 10
209.7975278067129
 20
104.5453674724578
 30
0.0
 10
209.6727602329121
 20
104.2538057307415
 30
0.0
 10
209.6246244531841
 20
104.1014626618625
 30
0.0
 10
209.560302818292
 20
103.7913967847749
 30
0.0
 10
209.5443615374528
 20
103.636193117878
 30
0.0
 10
209.544175749792
 20
103.3255358785276
 30
0.0
 10
209.5604637615791
 20
103.168524374492
 30
0.0
 10
209.6243476560082
 20
102.8664328995985
 30
0.0
 10
209.6716120887762
 20
102.7203225737573
 30
0.0
 10
209.7970201996012
 20
102.4377679299137
 30
0.0
 10
209.8751870023609
 20
102.3022687075093
 30
0.0
 10
210.0559946358769
 20
102.0521999268685
 30
0.0
 10
210.1595311132028
 20
101.9358312785378
 30
0.0
 10
210.3923643196428
 20
101.72225579462
 30
0.0
 10
210.5183346544353
 20
101.6279934444561
 30
0.0
 10
210.7887898698781
 20
101.4631331073453
 30
0.0
 10
210.935051122263
 20
101.391967345453
 30
0.0
 10
211.2374932130607
 20
101.2782903259013
 30
0.0
 10
211.3933126936843
 20
101.2354567371316
 30
0.0
 10
211.7141634548847
 20
101.1774722689569
 30
0.0
 10
211.8800242104795
 20
101.1626558728261
 30
0.0
 10
212.3698502439193
 20
101.1624846453061
 30
0.0
 10
212.699292499946
 20
101.2215323469697
 30
0.0
 10
213.1507504134827
 20
101.3908009521326
 30
0.0
 10
213.2964697918218
 20
101.4613206368518
 30
0.0
 10
213.569292826704
 20
101.6272572017481
 30
0.0
 10
213.6950380482492
 20
101.7214881340288
 30
0.0
 10
213.9257039969775
 20
101.9325355165599
 30
0.0
 10
214.0312747038802
 20
102.0506432666733
 30
0.0
 10
214.2126600914813
 20
102.3011214706862
 30
0.0
 10
214.2896054913305
 20
102.4341658468091
 30
0.0
 10
214.4155652576035
 20
102.7165753176197
 30
0.0
 10
214.4637773743887
 20
102.8651300968475
 30
0.0
 10
214.5276963230479
 20
103.1661095544915
 30
0.0
 10
214.5441302103972
 20
103.3204071629505
 30
0.0
 10
214.5444045450042
 20
103.6346693287357
 30
0.0
 10
214.5283209390741
 20
103.7900630345947
 30
0.0
 10
214.464935052721
 20
104.0974283116303
 30
0.0
 10
214.4168090305273
 20
104.2510437224859
 30
0.0
 10
214.2916032655577
 20
104.5443220616576
 30
0.0
 10
214.2149425547997
 20
104.6841945801751
 30
0.0
 10
214.033596156113
 20
104.9501628447662
 30
0.0
 10
213.928359128472
 20
105.0762316319284
 30
0.0
 10
213.5834145727094
 20
105.416650706926
 30
0.0
 10
213.3050190454503
 20
105.6019805234556
 30
0.0
 10
212.8541027015744
 20
105.7888119047459
 30
0.0
 10
212.6961545202749
 20
105.8370669915872
 30
0.0
 10
212.3731539400578
 20
105.9016135410518
 30
0.0
 10
212.2097019869369
 20
105.9178812091514
 30
0.0
 10
211.8788344914943
 20
105.9178812091514
 30
0.0
  0
LINE
  5
110
330
1F
100
AcDbEntity
  8
0
  6
HIDDEN
 62
     7
370
     0
100
AcDbLine
 10
142.0442682392
 20
92.6237847661
 30
0.0
 11
142.0442682392
 21
124.2237832402
 31
0.0
  0
SPLINE
  5
111
330
1F
100
AcDbEntity
  8
0
  6
HIDDEN
 62
     7
370
     0
100
AcDbSpline
210
0.0
220
0.0
230
1.0
 70
     8
 71
     3
 72
    18
 73
    14
 74
     0
 42
0.00000001
 43
0.00000001
 12
1.0
 22
0.0
 32
0.0
 13
1.0
 23
0.0
 33
0.0
 40
0.0
 40
0.0
 40
0.0
 40
0.0
 40
0.25
 40
0.25
 40
0.5
 40
0.5
 40
0.625
 40
0.625
 40
0.75
 40
0.75
 40
0.875
 40
0.875
 40
1.0
 40
1.0
 40
1.0
 40
1.0
 10
140.7881839216527
 20
118.2482239212871
 30
0.0
 10
140.8224849661854
 20
118.1402137354895
 30
0.0
 10
140.8603052374822
 20
118.0329366474616
 30
0.0
 10
140.946923557943
 20
117.821439950145
 30
0.0
 10
140.9952948926865
 20
117.7170535999753
 30
0.0
 10
141.084697874805
 20
117.566178677331
 30
0.0
 10
141.1172951586822
 20
117.5168336742955
 30
0.0
 10
141.1936770626271
 20
117.4222280358252
 30
0.0
 10
141.2367154999679
 20
117.3772321010706
 30
0.0
 10
141.3425285327997
 20
117.3063043284127
 30
0.0
 10
141.4075669575308
 20
117.2823577845062
 30
0.0
 10
141.5407190293334
 20
117.294638448577
 30
0.0
 10
141.6000882097966
 20
117.3279554065819
 30
0.0
 10
141.6492913503403
 20
117.3687902928066
 30
0.0
  0
SPLINE
  5
112
330
1F
100
AcDbEntity
  8
0
  6
HIDDEN
 62
     7
370
     0
100
AcDbSpline
210
0.0
220
0.0
230
1.0
 70
     8
 71
     3
 72
    16
 73
    12
 74
     0
 42
0.00000001
 43
0.00000001
 12
1.0
 22
0.0
 32
0.0
 13
1.0
 23
0.0
 33
0.0
 40
0.0
 40
0.0
 40
0.0
 40
0.0
 40
0.0624999999999998
 40
0.0624999999999998
 40
0.1249999999999995
 40
0.1249999999999995
 40
0.2499999999999989
 40
0.2499999999999989
 40
0.4999999999999978
 40
0.4999999999999978
 40
1.0
 40
1.0
 40
1.0
 40
1.0
 10
141.6492913503095
 20
117.368790292836
 30
0.0
 10
141.6613611835853
 20
117.3788073418164
 30
0.0
 10
141.6756368385187
 20
117.387766448872
 30
0.0
 10
141.7071012506431
 20
117.3956368442662
 30
0.0
 10
141.7226017754535
 20
117.3932793536239
 30
0.0
 10
141.7580406720604
 20
117.3763036614459
 30
0.0
 10
141.7716332881638
 20
117.3557551702783
 30
0.0
 10
141.8046276065566
 20
117.2938128432647
 30
0.0
 10
141.8154149998754
 20
117.2474172930595
 30
0.0
 10
141.8404682471545
 20
117.104481264365
 30
0.0
 10
141.8442682392158
 20
117.0049185474795
 30
0.0
 10
141.8442682392158
 20
116.903151142833
 30
0.0
  0
LINE
  5
113
330
1F
100
AcDbEntity
  8
0
  6
HIDDEN
 62
     7
370
     0
100
AcDbLine
 10
141.8442682443
 20
99.9444169928
 30
0.0
 11
141.8442682443
 21
116.9031510134
 31
0.0
  0
SPLINE
  5
114
330
1F
100
AcDbEntity
  8
0
  6
HIDDEN
 62
     7
370
     0
100
AcDbSpline
210
0.0
220
0.0
230
1.0
 70
     8
 71
     3
 72
    16
 73
    12
 74
     0
 42
0.00000001
 43
0.00000001
 12
1.0
 22
0.0
 32
0.0
 13
1.0
 23
0.0
 33
0.0
 40
0.0
 40
0.0
 40
0.0
 40
0.0
 40
0.499999999999999
 40
0.499999999999999
 40
0.7499999999999984
 40
0.7499999999999984
 40
0.8749999999999981
 40
0.8749999999999981
 40
0.9374999999999991
 40
0.9374999999999991
 40
1.0
 40
1.0
 40
1.0
 40
1.0
 10
141.8442682392156
 20
99.94441686343849
 30
0.0
 10
141.8442682392156
 20
99.84240670985844
 30
0.0
 10
141.8403848140567
 20
99.74288233460518
 30
0.0
 10
141.815569488782
 20
99.60089723859454
 30
0.0
 10
141.8047300410695
 20
99.55390393802408
 30
0.0
 10
141.7715142590207
 20
99.49161120766244
 30
0.0
 10
141.7581325153919
 20
99.47132977537736
 30
0.0
 10
141.7226228655297
 20
99.4542880671769
 30
0.0
 10
141.7072058990289
 20
99.45190181216078
 30
0.0
 10
141.6755048768803
 20
99.45983774201879
 30
0.0
 10
141.6613585919295
 20
99.4687628153934
 30
0.0
 10
141.6492913503399
 20
99.4787777134653
 30
0.0
  0
SPLINE
  5
115
330
1F
100
AcDbEntity
  8
0
  6
HIDDEN
 62
     7
370
     0
100
AcDbSpline
210
0.0
220
0.0
230
1.0
 70
     8
 71
     3
 72
    18
 73
    14
 74
     0
 42
0.00000001
 43
0.00000001
 12
1.0
 22
0.0
 32
0.0
 13
1.0
 23
0.0
 33
0.0
 40
0.0
 40
0.0
 40
0.0
 40
0.0
 40
0.1249999999999997
 40
0.1249999999999997
 40
0.2499999999999993
 40
0.2499999999999993
 40
0.374999999999999
 40
0.374999999999999
 40
0.4999999999999987
 40
0.4999999999999987
 40
0.7499999999999993
 40
0.7499999999999993
 40
1.0
 40
1.0
 40
1.0
 40
1.0
 10
141.6492913503461
 20
99.4787777134727
 30
0.0
 10
141.6005858582039
 20
99.51919958915414
 30
0.0
 10
141.5420757498771
 20
99.55223171062191
 30
0.0
 10
141.410346631585
 20
99.56550886257479
 30
0.0
 10
141.3455876952444
 20
99.54255527559461
 30
0.0
 10
141.2403767223848
 20
99.47350207867501
 30
0.0
 10
141.1971603469449
 20
99.42903442683414
 30
0.0
 10
141.120981841833
 20
99.33586476746412
 30
0.0
 10
141.0881268804531
 20
99.28672239790332
 30
0.0
 10
140.9977586006193
 20
99.13551266296346
 30
0.0
 10
140.9483353662492
 20
99.02935789343522
 30
0.0
 10
140.860686911201
 20
98.81577627777374
 30
0.0
 10
140.8226277389982
 20
98.70780384653847
 30
0.0
 10
140.7881839216527
 20
98.59934408498451
 30
0.0
  0
SPLINE
  5
116
330
1F
100
AcDbEntity
  8
0
  6
HIDDEN
 62
     7
370
     0
100
AcDbSpline
210
0.0
220
0.0
230
1.0
 70
     8
 71
     3
 72
     8
 73
     4
 74
     0
 42
0.00000001
 43
0.00000001
 12
1.0
 22
0.0
 32
0.0
 13
1.0
 23
0.0
 33
0.0
 40
0.0
 40
0.0
 40
0.0
 40
0.0
 40
1.0
 40
1.0
 40
1.0
 40
1.0
 10
140.788183921652
 20
98.59934408498398
 30
0.0
 10
140.7638702177619
 20
98.5227829274339
 30
0.0
 10
140.7423735758058
 20
98.44635755630068
 30
0.0
 10
140.7229478956559
 20
98.37026468552895
 30
0.0
  0
SPLINE
  5
117
330
1F
100
AcDbEntity
  8
0
  6
HIDDEN
 62
     7
370
     0
100
AcDbSpline
210
0.0
220
0.0
230
1.0
 70
     8
 71
     3
 72
     8
 73
     4
 74
     0
 42
0.00000001
 43
0.00000001
 12
1.0
 22
0.0
 32
0.0
 13
1.0
 23
0.0
 33
0.0
 40
0.0
 40
0.0
 40
0.0
 40
0.0
 40
1.0
 40
1.0
 40
1.0
 40
1.0
 10
140.7229478956559
 20
94.5987199951306
 30
0.0
 10
140.7423733225492
 20
94.5952227915433
 30
0.0
 10
140.7638698765182
 20
94.59320647390108
 30
0.0
 10
140.7881839216526
 20
94.59259562045722
 30
0.0
  0
SPLINE
  5
118
330
1F
100
AcDbEntity
  8
0
  6
HIDDEN
 62
     7
370
     0
100
AcDbSpline
210
0.0
220
0.0
230
1.0
 70
     8
 71
     3
 72
     8
 73
     4
 74
     0
 42
0.00000001
 43
0.00000001
 12
1.0
 22
0.0
 32
0.0
 13
1.0
 23
0.0
 33
0.0
 40
0.0
 40
0.0
 40
0.0
 40
0.0
 40
1.0
 40
1.0
 40
1.0
 40
1.0
 10
141.8214172261097
 20
94.50323722939905
 30
0.0
 10
141.8403541582755
 20
94.47528279199759
 30
0.0
 10
141.8442682392158
 20
94.45519894064127
 30
0.0
 10
141.8442682392158
 20
94.43897209647585
 30
0.0
  0
LINE
  5
119
330
1F
100
AcDbEntity
  8
0
  6
HIDDEN
 62
     7
370
     0
100
AcDbLine
 10
141.8442682443
 20
94.3339640279
 30
0.0
 11
141.8442682443
 21
94.4389725109
 31
0.0
  0
LINE
  5
11A
330
1F
100
AcDbEntity
  8
0
  6
HIDDEN
 62
     7
370
     0
100
AcDbLine
 10
141.8442682443
 20
122.4085954954
 30
0.0
 11
141.8442682443
 21
122.5136039783
 31
0.0
  0
SPLINE
  5
11B
330
1F
100
AcDbEntity
  8
0
  6
HIDDEN
 62
     7
370
     0
100
AcDbSpline
210
0.0
220
0.0
230
1.0
 70
     8
 71
     3
 72
    10
 73
     6
 74
     0
 42
0.00000001
 43
0.00000001
 12
1.0
 22
0.0
 32
0.0
 13
1.0
 23
0.0
 33
0.0
 40
0.0
 40
0.0
 40
0.0
 40
0.0
 40
0.5
 40
0.5
 40
1.0
 40
1.0
 40
1.0
 40
1.0
 10
141.8442682392156
 20
122.4085959097959
 30
0.0
 10
141.8442682392156
 20
122.3984697096758
 30
0.0
 10
141.8422596601701
 20
122.3867091171221
 30
0.0
 10
141.8310764322647
 20
122.3587279023718
 30
0.0
 10
141.8227752985902
 20
122.3427475880341
 30
0.0
 10
141.803928909348
 20
122.3223915060065
 30
0.0
  0
SPLINE
  5
11C
330
1F
100
AcDbEntity
  8
0
  6
HIDDEN
 62
     7
370
     0
100
AcDbSpline
210
0.0
220
0.0
230
1.0
 70
     8
 71
     3
 72
     8
 73
     4
 74
     0
 42
0.00000001
 43
0.00000001
 12
1.0
 22
0.0
 32
0.0
 13
1.0
 23
0.0
 33
0.0
 40
0.0
 40
0.0
 40
0.0
 40
0.0
 40
1.0
 40
1.0
 40
1.0
 40
1.0
 10
140.7881839216523
 20
122.2549723858144
 30
0.0
 10
140.763869876518
 20
122.2543615323705
 30
0.0
 10
140.7423733225491
 20
122.2523452147283
 30
0.0
 10
140.7229478956559
 20
122.248848011141
 30
0.0
  0
SPLINE
  5
11D
330
1F
100
AcDbEntity
  8
0
  6
HIDDEN
 62
     7
370
     0
100
AcDbSpline
210
0.0
220
0.0
230
1.0
 70
     8
 71
     3
 72
     8
 73
     4
 74
     0
 42
0.00000001
 43
0.00000001
 12
1.0
 22
0.0
 32
0.0
 13
1.0
 23
0.0
 33
0.0
 40
0.0
 40
0.0
 40
0.0
 40
0.0
 40
1.0
 40
1.0
 40
1.0
 40
1.0
 10
140.7229478956559
 20
118.4773033207426
 30
0.0
 10
140.7423735758058
 20
118.4012104499709
 30
0.0
 10
140.7638702177619
 20
118.3247850788377
 30
0.0
 10
140.788183921652
 20
118.2482239212876
 30
0.0
  0
LINE
  5
11E
330
1F
100
AcDbEntity
  8
0
  6
HIDDEN
 62
     7
370
     0
100
AcDbLine
 10
141.8442682443
 20
94.4389725109
 30
0.0
 11
141.8442682443
 21
102.9183390555
 31
0.0
  0
LINE
  5
11F
330
1F
100
AcDbEntity
  8
0
  6
HIDDEN
 62
     7
370
     0
100
AcDbLine
 10
141.8442682443
 20
113.9292289508
 30
0.0
 11
141.8442682443
 21
122.4085954954
 31
0.0
  0
SPLINE
  5
120
330
1F
100
AcDbEntity
  8
0
  6
HIDDEN
 62
     7
370
     0
100
AcDbSpline
210
0.0
220
0.0
230
1.0
 70
     8
 71
     3
 72
    16
 73
    12
 74
     0
 42
0.00000001
 43
0.00000001
 12
1.0
 22
0.0
 32
0.0
 13
1.0
 23
0.0
 33
0.0
 40
0.0
 40
0.0
 40
0.0
 40
0.0
 40
0.4999999999999998
 40
0.4999999999999998
 40
0.7499999999999999
 40
0.7499999999999999
 40
0.8749999999999996
 40
0.8749999999999996
 40
0.9374999999999998
 40
0.9374999999999998
 40
1.0
 40
1.0
 40
1.0
 40
1.0
 10
212.7365592065449
 20
114.3265768842324
 30
0.0
 10
212.4412823344023
 20
114.3644375970636
 30
0.0
 10
212.154601228635
 20
114.3259703394039
 30
0.0
 10
211.7252185941751
 20
114.1856599161147
 30
0.0
 10
211.5848271913003
 20
114.1249742730684
 30
0.0
 10
211.3683342942712
 20
114.014889817198
 30
0.0
 10
211.2946348985181
 20
113.9745558073457
 30
0.0
 10
211.1765222406717
 20
113.9110865764589
 30
0.0
 10
211.1357521405236
 20
113.8895131542252
 30
0.0
 10
211.0540791416815
 20
113.8486235246815
 30
0.0
 10
211.013670549423
 20
113.8296357525912
 30
0.0
 10
210.9757591010188
 20
113.8126916009761
 30
0.0
  0
SPLINE
  5
121
330
1F
100
AcDbEntity
  8
0
  6
HIDDEN
 62
     7
370
     0
100
AcDbSpline
210
0.0
220
0.0
230
1.0
 70
     8
 71
     3
 72
    34
 73
    30
 74
     0
 42
0.00000001
 43
0.00000001
 12
1.0
 22
0.0
 32
0.0
 13
1.0
 23
0.0
 33
0.0
 40
0.0
 40
0.0
 40
0.0
 40
0.0
 40
0.124999999999989
 40
0.124999999999989
 40
0.249999999999978
 40
0.249999999999978
 40
0.3124999999999767
 40
0.3124999999999767
 40
0.3437499999999797
 40
0.3437499999999797
 40
0.3749999999999828
 40
0.3749999999999828
 40
0.4374999999999848
 40
0.4374999999999848
 40
0.4999999999999869
 40
0.4999999999999869
 40
0.5624999999999889
 40
0.5624999999999889
 40
0.624999999999991
 40
0.624999999999991
 40
0.6562499999999921
 40
0.6562499999999921
 40
0.6874999999999932
 40
0.6874999999999932
 40
0.7499999999999967
 40
0.7499999999999967
 40
0.8749999999999983
 40
0.8749999999999983
 40
1.0
 40
1.0
 40
1.0
 40
1.0
 10
214.0921783046577
 20
111.9989279536226
 30
0.0
 10
213.9204724813668
 20
111.9919419856592
 30
0.0
 10
213.7483171003582
 20
111.9906516471696
 30
0.0
 10
213.4029469492091
 20
112.0082203416088
 30
0.0
 10
213.228458426869
 20
112.0240928131708
 30
0.0
 10
212.9700743692925
 20
112.0957534027823
 30
0.0
 10
212.8838782617542
 20
112.1281805073792
 30
0.0
 10
212.7754872703953
 20
112.2112740220003
 30
0.0
 10
212.7432995606088
 20
112.245682192601
 30
0.0
 10
212.692331665083
 20
112.3222386514218
 30
0.0
 10
212.6725146904886
 20
112.3649247018987
 30
0.0
 10
212.6216329973087
 20
112.4937345766698
 30
0.0
 10
212.5959239634067
 20
112.5817672230737
 30
0.0
 10
212.5273287733228
 20
112.7496574336182
 30
0.0
 10
212.4847977724489
 20
112.8304403097306
 30
0.0
 10
212.3816190604875
 20
112.9734070503907
 30
0.0
 10
212.3205225347379
 20
113.0368478222457
 30
0.0
 10
212.1867560135511
 20
113.1497904567543
 30
0.0
 10
212.1129058844265
 20
113.196682962593
 30
0.0
 10
212.01871583331
 20
113.2780092461463
 30
0.0
 10
211.9912560605503
 20
113.3088550382658
 30
0.0
 10
211.9691169572176
 20
113.3792985852931
 30
0.0
 10
211.9739160674587
 20
113.4169713798343
 30
0.0
 10
212.0065430204924
 20
113.5244205283859
 30
0.0
 10
212.0474007279896
 20
113.5895243274536
 30
0.0
 10
212.1776955716461
 20
113.779037044424
 30
0.0
 10
212.2823157341884
 20
113.8960815646704
 30
0.0
 10
212.5008249982656
 20
114.1186858544512
 30
0.0
 10
212.6165961987704
 20
114.2244809327031
 30
0.0
 10
212.7365592065452
 20
114.3265768842325
 30
0.0
  0
SPLINE
  5
122
330
1F
100
AcDbEntity
  8
0
  6
HIDDEN
 62
     7
370
     0
100
AcDbSpline
210
0.0
220
0.0
230
1.0
 70
     8
 71
     3
 72
    52
 73
    48
 74
     0
 42
0.00000001
 43
0.00000001
 12
1.0
 22
0.0
 32
0.0
 13
1.0
 23
0.0
 33
0.0
 40
0.0
 40
0.0
 40
0.0
 40
0.0
 40
0.0156249999999999
 40
0.0156249999999999
 40
0.0312499999999998
 40
0.0312499999999998
 40
0.0624999999999996
 40
0.0624999999999996
 40
0.1249999999999988
 40
0.1249999999999988
 40
0.187499999999998
 40
0.187499999999998
 40
0.2499999999999972
 40
0.2499999999999972
 40
0.3124999999999964
 40
0.3124999999999964
 40
0.3437499999999958
 40
0.3437499999999958
 40
0.3749999999999953
 40
0.3749999999999953
 40
0.4374999999999947
 40
0.4374999999999947
 40
0.4999999999999939
 40
0.4999999999999939
 40
0.5624999999999932
 40
0.5624999999999932
 40
0.6249999999999926
 40
0.6249999999999926
 40
0.6874999999999918
 40
0.6874999999999918
 40
0.7187499999999923
 40
0.7187499999999923
 40
0.7499999999999928
 40
0.7499999999999928
 40
0.7812499999999932
 40
0.7812499999999932
 40
0.7968749999999933
 40
0.7968749999999933
 40
0.8124999999999933
 40
0.8124999999999933
 40
0.8437499999999938
 40
0.8437499999999938
 40
0.8749999999999943
 40
0.8749999999999943
 40
0.9374999999999971
 40
0.9374999999999971
 40
1.0
 40
1.0
 40
1.0
 40
1.0
 10
210.9448866293945
 20
113.5686412891706
 30
0.0
 10
210.9879628277318
 20
113.5986479427597
 30
0.0
 10
211.0340502943939
 20
113.6255784761488
 30
0.0
 10
211.1268106066121
 20
113.6677244380748
 30
0.0
 10
211.1726929802361
 20
113.6827599368134
 30
0.0
 10
211.3022958913361
 20
113.7146716950175
 30
0.0
 10
211.3816862128039
 20
113.7211855317773
 30
0.0
 10
211.6159027532714
 20
113.7254069995932
 30
0.0
 10
211.7663659020435
 20
113.706041584658
 30
0.0
 10
212.0761604743288
 20
113.6386161793572
 30
0.0
 10
212.2355065607271
 20
113.5886716424127
 30
0.0
 10
212.5537749399988
 20
113.4578611065313
 30
0.0
 10
212.7135128243264
 20
113.3770698721056
 30
0.0
 10
213.0357901421303
 20
113.1761106330056
 30
0.0
 10
213.1961967111356
 20
113.0567573425815
 30
0.0
 10
213.4232718283745
 20
112.8493971917129
 30
0.0
 10
213.4973701210697
 20
112.7747979076038
 30
0.0
 10
213.6355839142638
 20
112.6198104635642
 30
0.0
 10
213.700444481028
 20
112.5388158113215
 30
0.0
 10
213.8807338189632
 20
112.2840505770755
 30
0.0
 10
213.9750661468623
 20
112.1070780297185
 30
0.0
 10
214.1034301779676
 20
111.759917174858
 30
0.0
 10
214.1362383801275
 20
111.593001725579
 30
0.0
 10
214.1496225094813
 20
111.2915775075952
 30
0.0
 10
214.1308051324273
 20
111.1546212832745
 30
0.0
 10
214.0567961220222
 20
110.9134666077181
 30
0.0
 10
214.0022917217142
 20
110.8095081029188
 30
0.0
 10
213.8669320186877
 20
110.6286976855864
 30
0.0
 10
213.7859450987991
 20
110.552576850216
 30
0.0
 10
213.6545533439906
 20
110.4621658245799
 30
0.0
 10
213.6089142027247
 20
110.4358147453082
 30
0.0
 10
213.5162419930831
 20
110.3920394144463
 30
0.0
 10
213.4688607514892
 20
110.3743056388189
 30
0.0
 10
213.3803402853232
 20
110.3541669255639
 30
0.0
 10
213.3361043665215
 20
110.3504229991278
 30
0.0
 10
213.3164033029652
 20
110.3844711726421
 30
0.0
 10
213.3194329015163
 20
110.4032993774144
 30
0.0
 10
213.3421698549007
 20
110.4514346947268
 30
0.0
 10
213.3609397980232
 20
110.4803598687185
 30
0.0
 10
213.4235059447857
 20
110.5711350045803
 30
0.0
 10
213.4739615548765
 20
110.6387761711391
 30
0.0
 10
213.5729112886293
 20
110.7806551806666
 30
0.0
 10
213.6219957728717
 20
110.8547917603362
 30
0.0
 10
213.7628967585304
 20
111.0859624220477
 30
0.0
 10
213.8486417666876
 20
111.2516331877653
 30
0.0
 10
213.9939813918783
 20
111.6091244976555
 30
0.0
 10
214.0529859157721
 20
111.7994245954736
 30
0.0
 10
214.0921783046575
 20
111.9989279536219
 30
0.0
  0
ARC
  5
123
330
1F
100
AcDbEntity
  8
0
  6
HIDDEN
 62
     7
370
     0
100
AcDbCircle
 10
211.3468598594
 20
113.6417647881
 30
0.0
 40
0.408573445798251
100
AcDbArc
 50
155.2695190767
 51
190.309921995
  0
SPLINE
  5
124
330
1F
100
AcDbEntity
  8
0
  6
HIDDEN
 62
     7
370
     0
100
AcDbSpline
210
0.0
220
0.0
230
1.0
 70
     8
 71
     3
 72
    62
 73
    58
 74
     0
 42
0.00000001
 43
0.00000001
 12
1.0
 22
0.0
 32
0.0
 13
1.0
 23
0.0
 33
0.0
 40
-0.0312500000000014
 40
-0.0312500000000014
 40
0.0
 40
0.0
 40
0.0312499999999973
 40
0.0312499999999973
 40
0.0624999999999946
 40
0.0624999999999946
 40
0.124999999999992
 40
0.124999999999992
 40
0.1874999999999893
 40
0.1874999999999893
 40
0.2187499999999887
 40
0.2187499999999887
 40
0.249999999999988
 40
0.249999999999988
 40
0.2812499999999873
 40
0.2812499999999873
 40
0.3124999999999866
 40
0.3124999999999866
 40
0.3437499999999859
 40
0.3437499999999859
 40
0.3749999999999852
 40
0.3749999999999852
 40
0.4374999999999837
 40
0.4374999999999837
 40
0.4687499999999845
 40
0.4687499999999845
 40
0.4999999999999851
 40
0.4999999999999851
 40
0.5312499999999859
 40
0.5312499999999859
 40
0.5624999999999865
 40
0.5624999999999865
 40
0.5937499999999871
 40
0.5937499999999871
 40
0.6249999999999878
 40
0.6249999999999878
 40
0.6562499999999883
 40
0.6562499999999883
 40
0.687499999999989
 40
0.687499999999989
 40
0.7187499999999897
 40
0.7187499999999897
 40
0.7499999999999902
 40
0.7499999999999902
 40
0.7812499999999909
 40
0.7812499999999909
 40
0.8124999999999917
 40
0.8124999999999917
 40
0.8749999999999943
 40
0.8749999999999943
 40
0.9062499999999958
 40
0.9062499999999958
 40
0.9374999999999972
 40
0.9374999999999972
 40
0.9687499999999986
 40
0.9687499999999986
 40
1.0
 40
1.0
 40
1.031249999999997
 40
1.031249999999997
 10
212.1854664631956
 20
111.5627985281905
 30
0.0
 10
211.9030700152358
 20
111.5627985281905
 30
0.0
 10
211.764792138222
 20
111.551903023669
 30
0.0
 10
211.4936260670142
 20
111.5092592216503
 30
0.0
 10
211.3594227395546
 20
111.4769196083153
 30
0.0
 10
210.9803595597645
 20
111.351058947584
 30
0.0
 10
210.7513526380707
 20
111.2267216764478
 30
0.0
 10
210.3703220190679
 20
110.908936304975
 30
0.0
 10
210.2146989421463
 20
110.7118641625566
 30
0.0
 10
210.0556284655776
 20
110.3751478432322
 30
0.0
 10
210.0139013204342
 20
110.2534557556332
 30
0.0
 10
209.9586306192922
 20
110.0028905233412
 30
0.0
 10
209.9445506878024
 20
109.8739204247743
 30
0.0
 10
209.9439941214812
 20
109.6082466828313
 30
0.0
 10
209.9579833989018
 20
109.4717285850944
 30
0.0
 10
210.0124649181375
 20
109.205029975174
 30
0.0
 10
210.0533153762924
 20
109.0720146867213
 30
0.0
 10
210.1599293431518
 20
108.8140535705059
 30
0.0
 10
210.2246814854248
 20
108.6909201365057
 30
0.0
 10
210.3762400273774
 20
108.4561174668253
 30
0.0
 10
210.4635781505504
 20
108.3442676590049
 30
0.0
 10
210.749354571512
 20
108.0393524457621
 30
0.0
 10
210.9788909199778
 20
107.8692069815348
 30
0.0
 10
211.3552090559721
 20
107.6935706766321
 30
0.0
 10
211.4875419643327
 20
107.6473585799305
 30
0.0
 10
211.7615746233236
 20
107.584640410157
 30
0.0
 10
211.8995997829457
 20
107.5687898483297
 30
0.0
 10
212.1776711641644
 20
107.5679494938272
 30
0.0
 10
212.3193841028348
 20
107.5835686337759
 30
0.0
 10
212.5918063585152
 20
107.6446326951887
 30
0.0
 10
212.7236345030122
 20
107.6896864761814
 30
0.0
 10
212.9790333986168
 20
107.8076437892801
 30
0.0
 10
213.0991994018061
 20
107.8790174896747
 30
0.0
 10
213.3243708143625
 20
108.0432185120658
 30
0.0
 10
213.4305218756968
 20
108.137262169443
 30
0.0
 10
213.621969164399
 20
108.3406417600817
 30
0.0
 10
213.7079031783186
 20
108.4501362497846
 30
0.0
 10
213.8603154963585
 20
108.6846534335822
 30
0.0
 10
213.9264989866461
 20
108.8099464693714
 30
0.0
 10
214.0326806851971
 20
109.064916921563
 30
0.0
 10
214.0736607484129
 20
109.1959266553598
 30
0.0
 10
214.1297408892102
 20
109.4652067552206
 30
0.0
 10
214.1439650646515
 20
109.6005169502737
 30
0.0
 10
214.144561748523
 20
109.8651245929026
 30
0.0
 10
214.1307931810246
 20
109.9970700785051
 30
0.0
 10
214.0759431140825
 20
110.2492539961655
 30
0.0
 10
214.035446600806
 20
110.3687550601899
 30
0.0
 10
213.8759841296299
 20
110.7092911552385
 30
0.0
 10
213.7213157053157
 20
110.9060198441811
 30
0.0
 10
213.4330076739711
 20
111.1469663093428
 30
0.0
 10
213.3289828586232
 20
111.2172780577233
 30
0.0
 10
213.1045636004445
 20
111.3399455654411
 30
0.0
 10
212.982632812584
 20
111.3926842360622
 30
0.0
 10
212.730175661158
 20
111.4766258046275
 30
0.0
 10
212.5992891312408
 20
111.5083509050943
 30
0.0
 10
212.327348213528
 20
111.5515496362786
 30
0.0
 10
212.1854664631956
 20
111.5627985281905
 30
0.0
 10
211.9030700152358
 20
111.5627985281905
 30
0.0
  0
SPLINE
  5
125
330
1F
100
AcDbEntity
  8
0
  6
HIDDEN
 62
     7
370
     0
100
AcDbSpline
210
0.0
220
0.0
230
1.0
 70
     8
 71
     3
 72
     8
 73
     4
 74
     0
 42
0.00000001
 43
0.00000001
 12
1.0
 22
0.0
 32
0.0
 13
1.0
 23
0.0
 33
0.0
 40
0.0
 40
0.0
 40
0.0
 40
0.0
 40
1.0
 40
1.0
 40
1.0
 40
1.0
 10
210.9757591010276
 20
113.8126916010082
 30
0.0
 10
210.9517168269759
 20
113.7235543949385
 30
0.0
 10
210.9416164361052
 20
113.6420114297989
 30
0.0
 10
210.9448866293959
 20
113.5686412891411
 30
0.0
  0
LWPOLYLINE
  5
126
330
1F
100
AcDbEntity
  8
0
  6
HIDDEN
 62
     7
370
     0
100
AcDbPolyline
 90
       19
 70
   128
 43
0.0
 10
214.0921798236
 20
111.9989278731
 10
213.8959240801
 20
111.4988458348
 10
213.5674056298
 20
111.0660607
 10
213.1300938017
 20
110.7314860919
 10
212.6152214295
 20
110.5190202133
 10
212.0595645792
 20
110.4438391985
 10
211.5028199441
 20
110.5113130533
 10
210.9847438223
 20
110.7166224164
 10
210.5423581488
 20
111.0451019839
 10
210.2072459347
 20
111.4732891792
 10
210.0033458955
 20
111.970598903
 10
209.9452313668
 20
112.5015091156
 10
210.0370448715
 20
113.0280975257
 10
210.2722373492
 20
113.5127508086
 10
210.6340002901
 20
113.9208507729
 10
211.0964950807
 20
114.2232474876
 10
211.6266932971
 20
114.3983403226
 10
212.1867087371
 20
114.433623944
 10
212.7365615851
 20
114.3265767959
  0
CIRCLE
  5
127
330
1F
100
AcDbEntity
  8
0
  6
HIDDEN
 62
     7
370
     0
100
AcDbCircle
 10
130.5442682392
 20
108.4237840031
 30
0.0
 40
2.299999999999997
  0
LINE
  5
128
330
1F
100
AcDbEntity
  8
0
  6
HIDDEN
 62
     7
370
     0
100
AcDbLine
 10
119.0713007636
 20
117.9864775394
 30
0.0
 11
119.0713007636
 21
98.8610904669
 31
0.0
  0
LINE
  5
129
330
1F
100
AcDbEntity
  8
0
  6
HIDDEN
 62
     7
370
     0
100
AcDbLine
 10
118.0442680306
 20
98.2681332161
 30
0.0
 11
118.0442680306
 21
118.5601722454
 31
0.0
  0
LINE
  5
12A
330
1F
100
AcDbEntity
  8
0
  6
HIDDEN
 62
     7
370
     0
100
AcDbLine
 10
122.5713004059
 20
117.6547236745
 30
0.0
 11
122.5713004059
 21
99.1928443317
 31
0.0
  0
LINE
  5
12B
330
1F
100
AcDbEntity
  8
0
  6
HIDDEN
 62
     7
370
     0
100
AcDbLine
 10
226.54426812
 20
91.9237840925
 30
0.0
 11
226.54426812
 21
108.4237840031
 31
0.0
  0
SPLINE
  5
12C
330
1F
100
AcDbEntity
  8
0
  6
HIDDEN
 62
     7
370
     0
100
AcDbSpline
210
0.0
220
0.0
230
1.0
 70
     8
 71
     3
 72
    12
 73
     8
 74
     0
 42
0.00000001
 43
0.00000001
 12
1.0
 22
0.0
 32
0.0
 13
1.0
 23
0.0
 33
0.0
 40
0.0
 40
0.0
 40
0.0
 40
0.0
 40
0.25
 40
0.25
 40
0.5
 40
0.5
 40
1.0
 40
1.0
 40
1.0
 40
1.0
 10
227.501072070387
 20
114.1237840031358
 30
0.0
 10
227.3508902511622
 20
113.6638375895894
 30
0.0
 10
227.2144389623824
 20
113.1957293999727
 30
0.0
 10
226.9773576684533
 20
112.2560441490887
 30
0.0
 10
226.8763802991952
 20
111.7836954143097
 30
0.0
 10
226.6309163550791
 20
110.3584490605513
 30
0.0
 10
226.5442682392157
 20
109.3972984545982
 30
0.0
 10
226.5442682392157
 20
108.4237840031358
 30
0.0
  0
SPLINE
  5
12D
330
1F
100
AcDbEntity
  8
0
  6
HIDDEN
 62
     7
370
     0
100
AcDbSpline
210
0.0
220
0.0
230
1.0
 70
     8
 71
     3
 72
    14
 73
    10
 74
     0
 42
0.00000001
 43
0.00000001
 12
1.0
 22
0.0
 32
0.0
 13
1.0
 23
0.0
 33
0.0
 40
0.0
 40
0.0
 40
0.0
 40
0.0
 40
0.4999999999999996
 40
0.4999999999999996
 40
0.6249999999999996
 40
0.6249999999999996
 40
0.7499999999999996
 40
0.7499999999999996
 40
1.0
 40
1.0
 40
1.0
 40
1.0
 10
227.501072070387
 20
114.1237840031358
 30
0.0
 10
227.9605506882145
 20
115.5309819147206
 30
0.0
 10
228.4007031821313
 20
116.9190916352459
 30
0.0
 10
228.9310935015762
 20
118.6287782106904
 30
0.0
 10
229.0365001228381
 20
118.970491476259
 30
0.0
 10
229.2435342881244
 20
119.645134339838
 30
0.0
 10
229.3451149325652
 20
119.9778951781937
 30
0.0
 10
229.644349572296
 20
120.962650435394
 30
0.0
 10
229.8365144724081
 20
121.6011675996762
 30
0.0
 10
230.0219173723807
 20
122.2214980807382
 30
0.0
  0
SPLINE
  5
12E
330
1F
100
AcDbEntity
  8
0
  6
HIDDEN
 62
     7
370
     0
100
AcDbSpline
210
0.0
220
0.0
230
1.0
 70
     8
 71
     3
 72
    13
 73
     9
 74
     0
 42
0.00000001
 43
0.00000001
 12
1.0
 22
0.0
 32
0.0
 13
1.0
 23
0.0
 33
0.0
 40
0.0
 40
0.0
 40
0.0
 40
0.0
 40
0.085176763755253
 40
0.2829274295793431
 40
0.475420535773461
 40
0.6729812947884233
 40
0.8359669054443113
 40
1.0
 40
1.0
 40
1.0
 40
1.0
 10
226.9715440160787
 20
125.2923492346975
 30
0.0
 10
226.8691703515444
 20
125.2035309204368
 30
0.0
 10
226.5291208299807
 20
124.9085075332425
 30
0.0
 10
226.4876081476862
 20
124.3939374678416
 30
0.0
 10
226.8945378294415
 20
123.768438738549
 30
0.0
 10
227.7465654548355
 20
123.2007119153311
 30
0.0
 10
228.8152750585135
 20
122.6839818405649
 30
0.0
 10
229.6188443871663
 20
122.3759883800985
 30
0.0
 10
230.0219160205877
 20
122.2214983780953
 30
0.0
  0
SPLINE
  5
12F
330
1F
100
AcDbEntity
  8
0
  6
HIDDEN
 62
     7
370
     0
100
AcDbSpline
210
0.0
220
0.0
230
1.0
 70
     8
 71
     3
 72
    70
 73
    66
 74
     0
 42
0.00000001
 43
0.00000001
 12
1.0
 22
0.0
 32
0.0
 13
1.0
 23
0.0
 33
0.0
 40
-0.03125
 40
-0.03125
 40
0.0
 40
0.0
 40
0.03125
 40
0.03125
 40
0.0625
 40
0.0625
 40
0.09375
 40
0.09375
 40
0.125
 40
0.125
 40
0.15625
 40
0.15625
 40
0.1875
 40
0.1875
 40
0.21875
 40
0.21875
 40
0.2500000000000001
 40
0.2500000000000001
 40
0.2812500000000001
 40
0.2812500000000001
 40
0.3125000000000001
 40
0.3125000000000001
 40
0.3437500000000001
 40
0.3437500000000001
 40
0.3750000000000001
 40
0.3750000000000001
 40
0.4062500000000001
 40
0.4062500000000001
 40
0.4375000000000001
 40
0.4375000000000001
 40
0.4687500000000001
 40
0.4687500000000001
 40
0.5
 40
0.5
 40
0.53125
 40
0.53125
 40
0.5625
 40
0.5625
 40
0.59375
 40
0.59375
 40
0.625
 40
0.625
 40
0.65625
 40
0.65625
 40
0.6875
 40
0.6875
 40
0.71875
 40
0.71875
 40
0.75
 40
0.75
 40
0.78125
 40
0.78125
 40
0.8125
 40
0.8125
 40
0.84375
 40
0.84375
 40
0.875
 40
0.875
 40
0.90625
 40
0.90625
 40
0.9375
 40
0.9375
 40
0.96875
 40
0.96875
 40
1.0
 40
1.0
 40
1.03125
 40
1.03125
 10
234.706988446496
 20
106.6628269898769
 30
0.0
 10
234.1447129424476
 20
106.6628269898769
 30
0.0
 10
233.8683251078199
 20
106.6351896847835
 30
0.0
 10
233.3245937831357
 20
106.5273814643698
 30
0.0
 10
233.0544501648807
 20
106.4459177032147
 30
0.0
 10
232.5391841379008
 20
106.2339042666771
 30
0.0
 10
232.2947443192838
 20
106.104419515493
 30
0.0
 10
231.8320822434372
 20
105.7992757905978
 30
0.0
 10
231.6129576121891
 20
105.6219545471356
 30
0.0
 10
231.2208701049273
 20
105.2357621075493
 30
0.0
 10
231.0452542247538
 20
105.025540836236
 30
0.0
 10
230.7365354093925
 20
104.5702531666701
 30
0.0
 10
230.6063616021744
 20
104.3285416340641
 30
0.0
 10
230.4008946313249
 20
103.8322291710562
 30
0.0
 10
230.323778074033
 20
103.5731444643557
 30
0.0
 10
230.2267902933413
 20
103.0491256979823
 30
0.0
 10
230.2070819541977
 20
102.7882261760061
 30
0.0
 10
230.2228352794392
 20
102.2688753235278
 30
0.0
 10
230.2592441102805
 20
102.0090083776335
 30
0.0
 10
230.3834170979939
 20
101.5133254061695
 30
0.0
 10
230.4709475712419
 20
101.2747341693454
 30
0.0
 10
230.6963157496867
 20
100.8150739648726
 30
0.0
 10
230.8316487244605
 20
100.5994368661548
 30
0.0
 10
231.1425567413935
 20
100.1976181797684
 30
0.0
 10
231.3202726879499
 20
100.0092529570879
 30
0.0
 10
231.7101727621788
 20
99.66777887330284
 30
0.0
 10
231.9205809187625
 20
99.51555868208077
 30
0.0
 10
232.3726714448193
 20
99.24646410340992
 30
0.0
 10
232.6173291445463
 20
99.1286738754562
 30
0.0
 10
233.122795204532
 20
98.93791163032411
 30
0.0
 10
233.3839741816729
 20
98.86402431676846
 30
0.0
 10
233.9241873069093
 20
98.76012741696645
 30
0.0
 10
234.2058962329334
 20
98.73054249757449
 30
0.0
 10
234.760681561156
 20
98.72090375109205
 30
0.0
 10
235.0366560386266
 20
98.73987137643616
 30
0.0
 10
235.5856599190631
 20
98.82766732813413
 30
0.0
 10
235.8542570314718
 20
98.89633348353328
 30
0.0
 10
236.3633009668015
 20
99.07810134114716
 30
0.0
 10
236.6089141520492
 20
99.1931742144646
 30
0.0
 10
237.0638706813831
 20
99.46370177819384
 30
0.0
 10
237.2725793930588
 20
99.61797154881658
 30
0.0
 10
237.6543234909871
 20
99.96495619837904
 30
0.0
 10
237.8265864900172
 20
100.1579217597577
 30
0.0
 10
238.1223450696132
 20
100.5680542895414
 30
0.0
 10
238.2479819813646
 20
100.7869857089316
 30
0.0
 10
238.4537250093211
 20
101.2547603914796
 30
0.0
 10
238.5305584949952
 20
101.4961772487955
 30
0.0
 10
238.6341961038703
 20
101.9943108873934
 30
0.0
 10
238.6609041052401
 20
102.2538244633749
 30
0.0
 10
238.6603960459232
 20
102.7753067787534
 30
0.0
 10
238.6338229834024
 20
103.0353833061744
 30
0.0
 10
238.5280443127459
 20
103.5538861616664
 30
0.0
 10
238.4474730724616
 20
103.8144870296685
 30
0.0
 10
238.2383365241213
 20
104.3112604940271
 30
0.0
 10
238.1097416431852
 20
104.5498096936675
 30
0.0
 10
237.8031517790155
 20
105.0057973271429
 30
0.0
 10
237.626174808349
 20
105.2206539843557
 30
0.0
 10
237.2371840831722
 20
105.609510815095
 30
0.0
 10
237.0223880940385
 20
105.7866898178252
 30
0.0
 10
236.5582801869384
 20
106.0980267806775
 30
0.0
 10
236.3141479552803
 20
106.2290830254129
 30
0.0
 10
235.8023125815693
 20
106.4426956732983
 30
0.0
 10
235.5317469415829
 20
106.525573499812
 30
0.0
 10
234.984567151331
 20
106.6351459040302
 30
0.0
 10
234.706988446496
 20
106.6628269898769
 30
0.0
 10
234.1447129424476
 20
106.6628269898769
 30
0.0
  0
ELLIPSE
  5
130
330
1F
100
AcDbEntity
  8
0
  6
HIDDEN
 62
     7
370
     0
100
AcDbEllipse
 10
244.6201429677
 20
108.4237840031
 30
0.0
 11
5.368298186719842
 21
16.49894757830364
 31
0.0
210
0.0
220
0.0
230
1.0
 40
0.0347142918
 41
1.582090910555887
 42
3.152887237351147
  0
LINE
  5
131
330
1F
100
AcDbEntity
  8
0
  6
HIDDEN
 62
     7
370
     0
100
AcDbLine
 10
125.9713002182
 20
117.4237836157
 30
0.0
 11
125.9713002182
 21
99.4237843906
 31
0.0
  0
LINE
  5
132
330
1F
100
AcDbEntity
  8
0
  6
HIDDEN
 62
     7
370
     0
100
AcDbLine
 10
121.1713009215
 20
117.4237836157
 30
0.0
 11
121.1713009215
 21
99.4237843906
 31
0.0
  0
LINE
  5
133
330
1F
100
AcDbEntity
  8
0
  6
HIDDEN
 62
     7
370
     0
100
AcDbLine
 10
122.1713010854
 20
117.4237836157
 30
0.0
 11
122.1713010854
 21
99.4237843906
 31
0.0
  0
SPLINE
  5
134
330
1F
100
AcDbEntity
  8
0
  6
HIDDEN
 62
     7
370
     0
100
AcDbSpline
210
0.0
220
0.0
230
1.0
 70
     8
 71
     3
 72
    14
 73
    10
 74
     0
 42
0.00000001
 43
0.00000001
 12
1.0
 22
0.0
 32
0.0
 13
1.0
 23
0.0
 33
0.0
 40
0.0
 40
0.0
 40
0.0
 40
0.0
 40
0.25
 40
0.25
 40
0.5
 40
0.5
 40
0.75
 40
0.75
 40
1.0
 40
1.0
 40
1.0
 40
1.0
 10
132.5442682392157
 20
109.5595656722958
 30
0.0
 10
132.6424925857186
 20
109.3866022424923
 30
0.0
 10
132.7178074237027
 20
109.2015696880679
 30
0.0
 10
132.818774133897
 20
108.8185574739334
 30
0.0
 10
132.8441497201871
 20
108.6238389204678
 30
0.0
 10
132.8443859454535
 20
108.2264636192022
 30
0.0
 10
132.8186828761179
 20
108.0289712847269
 30
0.0
 10
132.7183627626015
 20
107.6477994500958
 30
0.0
 10
132.6424709345139
 20
107.4609276381233
 30
0.0
 10
132.5442682392202
 20
107.2880023339734
 30
0.0
  0
LINE
  5
135
330
1F
100
AcDbEntity
  8
0
  6
HIDDEN
 62
     7
370
     0
100
AcDbLine
 10
133.0442686266
 20
116.9237835337
 30
0.0
 11
133.0442686266
 21
99.9237835412
 31
0.0
  0
SPLINE
  5
136
330
1F
100
AcDbEntity
  8
0
  6
HIDDEN
 62
     7
370
     0
100
AcDbSpline
210
0.0
220
0.0
230
1.0
 70
     8
 71
     3
 72
    14
 73
    10
 74
     0
 42
0.00000001
 43
0.00000001
 12
1.0
 22
0.0
 32
0.0
 13
1.0
 23
0.0
 33
0.0
 40
0.0
 40
0.0
 40
0.0
 40
0.0
 40
0.2500000000000001
 40
0.2500000000000001
 40
0.5000000000000001
 40
0.5000000000000001
 40
0.7500000000000001
 40
0.7500000000000001
 40
1.0
 40
1.0
 40
1.0
 40
1.0
 10
132.5442682392157
 20
107.2880023339757
 30
0.0
 10
132.6424925857186
 20
107.4609657637793
 30
0.0
 10
132.7178074237027
 20
107.6459983182037
 30
0.0
 10
132.818774133897
 20
108.0290105323381
 30
0.0
 10
132.8441497201872
 20
108.2237290858038
 30
0.0
 10
132.8443859454535
 20
108.6211043870693
 30
0.0
 10
132.8186828761179
 20
108.8185967215447
 30
0.0
 10
132.7183627626015
 20
109.1997685561757
 30
0.0
 10
132.6424709345139
 20
109.3866403681483
 30
0.0
 10
132.5442682392202
 20
109.5595656722982
 30
0.0
  0
SPLINE
  5
137
330
1F
100
AcDbEntity
  8
0
  6
HIDDEN
 62
     7
370
     0
100
AcDbSpline
210
0.0
220
0.0
230
1.0
 70
     8
 71
     3
 72
    60
 73
    56
 74
     0
 42
0.00000001
 43
0.00000001
 12
1.0
 22
0.0
 32
0.0
 13
1.0
 23
0.0
 33
0.0
 40
0.0
 40
0.0
 40
0.0
 40
0.0
 40
0.0624999999999995
 40
0.0624999999999995
 40
0.1249999999999991
 40
0.1249999999999991
 40
0.1874999999999986
 40
0.1874999999999986
 40
0.2187499999999984
 40
0.2187499999999984
 40
0.2499999999999982
 40
0.2499999999999982
 40
0.3124999999999982
 40
0.3124999999999982
 40
0.3749999999999982
 40
0.3749999999999982
 40
0.4062499999999983
 40
0.4062499999999983
 40
0.4374999999999983
 40
0.4374999999999983
 40
0.4687499999999984
 40
0.4687499999999984
 40
0.4999999999999986
 40
0.4999999999999986
 40
0.5312499999999987
 40
0.5312499999999987
 40
0.5624999999999988
 40
0.5624999999999988
 40
0.5937499999999989
 40
0.5937499999999989
 40
0.6249999999999989
 40
0.6249999999999989
 40
0.656249999999999
 40
0.656249999999999
 40
0.6874999999999991
 40
0.6874999999999991
 40
0.7187499999999992
 40
0.7187499999999992
 40
0.7499999999999993
 40
0.7499999999999993
 40
0.7812499999999994
 40
0.7812499999999994
 40
0.8124999999999996
 40
0.8124999999999996
 40
0.8437499999999997
 40
0.8437499999999997
 40
0.8749999999999997
 40
0.8749999999999997
 40
0.9062499999999998
 40
0.9062499999999998
 40
0.9374999999999999
 40
0.9374999999999999
 40
0.96875
 40
0.96875
 40
1.0
 40
1.0
 40
1.0
 40
1.0
 10
132.5442682392157
 20
107.2880023339757
 30
0.0
 10
132.4190783376369
 20
107.0675552093602
 30
0.0
 10
132.2622110190688
 20
106.8738214805398
 30
0.0
 10
131.8851734992499
 20
106.5381317817774
 30
0.0
 10
131.6734601928289
 20
106.4041544234646
 30
0.0
 10
131.2075702108802
 20
106.2070276787795
 30
0.0
 10
130.9617309798286
 20
106.1478102665576
 30
0.0
 10
130.582249926734
 20
106.120603530667
 30
0.0
 10
130.4545041980401
 20
106.1220967958088
 30
0.0
 10
130.204037951372
 20
106.1456126016178
 30
0.0
 10
130.0802085685637
 20
106.167531820422
 30
0.0
 10
129.7129888944651
 20
106.2643683852669
 30
0.0
 10
129.4822198763794
 20
106.3681695067187
 30
0.0
 10
129.0623309149599
 20
106.6468879876467
 30
0.0
 10
128.8780725400723
 20
106.8184502791504
 30
0.0
 10
128.647324152589
 20
107.1170976404172
 30
0.0
 10
128.5782773028
 20
107.2235651809195
 30
0.0
 10
128.4597126389945
 20
107.4438485293125
 30
0.0
 10
128.4095042702449
 20
107.5585100457139
 30
0.0
 10
128.3276724178871
 20
107.7971906824907
 30
0.0
 10
128.2963215190044
 20
107.9212363093687
 30
0.0
 10
128.2549271409658
 20
108.1693513454771
 30
0.0
 10
128.2444213659015
 20
108.2945890479656
 30
0.0
 10
128.2441184135657
 20
108.5474681035566
 30
0.0
 10
128.2546029431823
 20
108.6753477897932
 30
0.0
 10
128.2957430206438
 20
108.9237698509987
 30
0.0
 10
128.3263211411923
 20
109.0455687777671
 30
0.0
 10
128.4076038495436
 20
109.2843483072414
 30
0.0
 10
128.4586047361055
 20
109.4013898695481
 30
0.0
 10
128.5771717844686
 20
109.622215067474
 30
0.0
 10
128.6450605377404
 20
109.7271534310367
 30
0.0
 10
128.798210975478
 20
109.9261307642661
 30
0.0
 10
128.8837671470505
 20
110.0201388894603
 30
0.0
 10
129.0664785180097
 20
110.190631574397
 30
0.0
 10
129.1642858176916
 20
110.2680697694464
 30
0.0
 10
129.3730889296086
 20
110.4072356653347
 30
0.0
 10
129.4846711048964
 20
110.4690174743417
 30
0.0
 10
129.7133169043955
 20
110.5720963449424
 30
0.0
 10
129.8312717153666
 20
110.6141003801381
 30
0.0
 10
130.0746001603553
 20
110.6788365014349
 30
0.0
 10
130.2009440356984
 20
110.7015097639976
 30
0.0
 10
130.4520500167162
 20
110.7253925601787
 30
0.0
 10
130.5777320104392
 20
110.7269958614454
 30
0.0
 10
130.829354080231
 20
110.7095291226745
 30
0.0
 10
130.9562517005168
 20
110.6900932320345
 30
0.0
 10
131.2014422667779
 20
110.6315000607109
 30
0.0
 10
131.3206314238114
 20
110.5924372095542
 30
0.0
 10
131.5523164481662
 20
110.4949274874304
 30
0.0
 10
131.6654912525167
 20
110.4358921331418
 30
0.0
 10
131.8775696694524
 20
110.3020884163024
 30
0.0
 10
131.9773584481533
 20
110.2270932001576
 30
0.0
 10
132.1646166351422
 20
110.0608981356368
 30
0.0
 10
132.2525116720856
 20
109.9690039368953
 30
0.0
 10
132.4107327477175
 20
109.7736397391809
 30
0.0
 10
132.4816707040092
 20
109.6697937855084
 30
0.0
 10
132.5442682392157
 20
109.5595656722958
 30
0.0
  0
SPLINE
  5
138
330
1F
100
AcDbEntity
  8
0
  6
HIDDEN
 62
     7
370
     0
100
AcDbSpline
210
0.0
220
0.0
230
1.0
 70
     8
 71
     3
 72
    60
 73
    56
 74
     0
 42
0.00000001
 43
0.00000001
 12
1.0
 22
0.0
 32
0.0
 13
1.0
 23
0.0
 33
0.0
 40
0.0
 40
0.0
 40
0.0
 40
0.0
 40
0.0625000000000003
 40
0.0625000000000003
 40
0.1250000000000006
 40
0.1250000000000006
 40
0.1875000000000009
 40
0.1875000000000009
 40
0.2187500000000011
 40
0.2187500000000011
 40
0.2500000000000013
 40
0.2500000000000013
 40
0.3125000000000012
 40
0.3125000000000012
 40
0.3750000000000011
 40
0.3750000000000011
 40
0.4062500000000011
 40
0.4062500000000011
 40
0.437500000000001
 40
0.437500000000001
 40
0.468750000000001
 40
0.468750000000001
 40
0.500000000000001
 40
0.500000000000001
 40
0.5312500000000009
 40
0.5312500000000009
 40
0.5625000000000009
 40
0.5625000000000009
 40
0.5937500000000008
 40
0.5937500000000008
 40
0.6250000000000008
 40
0.6250000000000008
 40
0.6562500000000007
 40
0.6562500000000007
 40
0.6875000000000007
 40
0.6875000000000007
 40
0.7187500000000006
 40
0.7187500000000006
 40
0.7500000000000004
 40
0.7500000000000004
 40
0.7812500000000004
 40
0.7812500000000004
 40
0.8125000000000003
 40
0.8125000000000003
 40
0.8437500000000003
 40
0.8437500000000003
 40
0.8750000000000002
 40
0.8750000000000002
 40
0.9062500000000002
 40
0.9062500000000002
 40
0.9375000000000001
 40
0.9375000000000001
 40
0.9687500000000001
 40
0.9687500000000001
 40
1.0
 40
1.0
 40
1.0
 40
1.0
 10
132.5442682392157
 20
109.5595656722958
 30
0.0
 10
132.4190783376369
 20
109.7800127969114
 30
0.0
 10
132.2622110190688
 20
109.9737465257318
 30
0.0
 10
131.8851734992499
 20
110.3094362244942
 30
0.0
 10
131.6734601928289
 20
110.4434135828069
 30
0.0
 10
131.2075702108802
 20
110.6405403274921
 30
0.0
 10
130.9617309798286
 20
110.6997577397139
 30
0.0
 10
130.5822499267341
 20
110.7269644756046
 30
0.0
 10
130.4545041980401
 20
110.7254712104627
 30
0.0
 10
130.204037951372
 20
110.7019554046538
 30
0.0
 10
130.0802085685638
 20
110.6800361858496
 30
0.0
 10
129.7129888944652
 20
110.5831996210047
 30
0.0
 10
129.4822198763794
 20
110.4793984995529
 30
0.0
 10
129.0623309149599
 20
110.2006800186249
 30
0.0
 10
128.8780725400723
 20
110.0291177271211
 30
0.0
 10
128.647324152589
 20
109.7304703658544
 30
0.0
 10
128.5782773028
 20
109.6240028253521
 30
0.0
 10
128.4597126389945
 20
109.4037194769591
 30
0.0
 10
128.4095042702449
 20
109.2890579605577
 30
0.0
 10
128.3276724178871
 20
109.0503773237809
 30
0.0
 10
128.2963215190044
 20
108.9263316969028
 30
0.0
 10
128.2549271409658
 20
108.6782166607945
 30
0.0
 10
128.2444213659015
 20
108.552978958306
 30
0.0
 10
128.2441184135657
 20
108.300099902715
 30
0.0
 10
128.2546029431823
 20
108.1722202164784
 30
0.0
 10
128.2957430206438
 20
107.9237981552729
 30
0.0
 10
128.3263211411923
 20
107.8019992285045
 30
0.0
 10
128.4076038495436
 20
107.5632196990302
 30
0.0
 10
128.4586047361055
 20
107.4461781367235
 30
0.0
 10
128.5771717844686
 20
107.2253529387976
 30
0.0
 10
128.6450605377404
 20
107.1204145752348
 30
0.0
 10
128.798210975478
 20
106.9214372420055
 30
0.0
 10
128.8837671470505
 20
106.8274291168113
 30
0.0
 10
129.0664785180097
 20
106.6569364318745
 30
0.0
 10
129.1642858176916
 20
106.5794982368252
 30
0.0
 10
129.3730889296086
 20
106.4403323409369
 30
0.0
 10
129.4846711048964
 20
106.3785505319299
 30
0.0
 10
129.7133169043955
 20
106.2754716613291
 30
0.0
 10
129.8312717153666
 20
106.2334676261335
 30
0.0
 10
130.0746001603553
 20
106.1687315048367
 30
0.0
 10
130.2009440356984
 20
106.146058242274
 30
0.0
 10
130.4520500167162
 20
106.1221754460929
 30
0.0
 10
130.5777320104391
 20
106.1205721448262
 30
0.0
 10
130.829354080231
 20
106.1380388835971
 30
0.0
 10
130.9562517005168
 20
106.157474774237
 30
0.0
 10
131.2014422667779
 20
106.2160679455607
 30
0.0
 10
131.3206314238114
 20
106.2551307967173
 30
0.0
 10
131.5523164481662
 20
106.3526405188411
 30
0.0
 10
131.6654912525167
 20
106.4116758731297
 30
0.0
 10
131.8775696694524
 20
106.5454795899692
 30
0.0
 10
131.9773584481533
 20
106.620474806114
 30
0.0
 10
132.1646166351422
 20
106.7866698706348
 30
0.0
 10
132.2525116720856
 20
106.8785640693763
 30
0.0
 10
132.4107327477175
 20
107.0739282670907
 30
0.0
 10
132.4816707040092
 20
107.1777742207631
 30
0.0
 10
132.5442682392157
 20
107.2880023339758
 30
0.0
  0
LWPOLYLINE
  5
139
330
1F
100
AcDbEntity
  8
0
  6
HIDDEN
 62
     7
370
     0
100
AcDbPolyline
 90
       31
 70
   128
 43
0.0
 10
236.7164936549
 20
110.5093603027
 10
237.4401983506
 20
110.4187335358
 10
238.1322753317
 20
110.1824436109
 10
238.7624752409
 20
109.8108172654
 10
239.3032532818
 20
109.3200965906
 10
239.7309836633
 20
108.7317283154
 10
240.0269579775
 20
108.0714269837
 10
240.1782569177
 20
107.3680509352
 10
240.1782569177
 20
106.6523410617
 10
240.0269579775
 20
105.9555773162
 10
239.7309836633
 20
105.308211735
 10
239.3032532818
 20
104.7385370829
 10
238.7624752409
 20
104.2714511049
 10
238.1322753317
 20
103.9273674605
 10
237.4401983506
 20
103.721324448
 10
236.7164936549
 20
103.6623270256
 10
235.9927889592
 20
103.7529540253
 10
235.3007194287
 20
103.9892440667
 10
234.6705195195
 20
104.3608701793
 10
234.1297414786
 20
104.8515907959
 10
233.7020110971
 20
105.4399591875
 10
233.4060367829
 20
106.1002603737
 10
233.2547378428
 20
106.8036365095
 10
233.2547378428
 20
107.5193463829
 10
233.4060367829
 20
108.2161100993
 10
233.7020110971
 20
108.8634757388
 10
234.1297414786
 20
109.4331503618
 10
234.6705195195
 20
109.9002363398
 10
235.3007194287
 20
110.2443199842
 10
235.9927889592
 20
110.4503628803
 10
236.7164936549
 20
110.5093603027
  0
LINE
  5
13A
330
1F
100
AcDbEntity
  8
0
  6
HIDDEN
 62
     7
370
     0
100
AcDbLine
 10
133.9442680291
 20
114.6737840963
 30
0.0
 11
133.9442680291
 21
102.17378391
 31
0.0
  0
LINE
  5
13B
330
1F
100
AcDbEntity
  8
0
  6
HIDDEN
 62
     7
370
     0
100
AcDbLine
 10
133.0442686266
 20
101.2737840419
 30
0.0
 11
133.0442686266
 21
115.5547100124
 31
0.0
  0
LWPOLYLINE
  5
13C
330
1F
100
AcDbEntity
  8
0
  6
HIDDEN
 62
     7
370
     0
100
AcDbPolyline
 90
       31
 70
   128
 43
0.0
 10
236.2900820262
 20
109.6658521337
 10
237.0137867219
 20
109.5752254832
 10
237.705863703
 20
109.3389354418
 10
238.3360636122
 20
108.9673091546
 10
238.8768416531
 20
108.4765884361
 10
239.304564584
 20
107.8882201463
 10
239.6005463488
 20
107.2279187855
 10
239.7518452889
 20
106.5245427662
 10
239.7518452889
 20
105.8088330091
 10
239.6005463488
 20
105.1120691472
 10
239.304564584
 20
104.4647033331
 10
238.8768416531
 20
103.8950291467
 10
238.3360636122
 20
103.4279429359
 10
237.705863703
 20
103.0838592914
 10
237.0137867219
 20
102.877816279
 10
236.2900820262
 20
102.8188188565
 10
235.5663773305
 20
102.9094458562
 10
234.8743078
 20
103.1457358976
 10
234.2441078908
 20
103.5173620102
 10
233.7033223993
 20
104.0080828597
 10
233.2755994684
 20
104.5964510185
 10
232.9796177036
 20
105.2567522046
 10
232.828326214
 20
105.9601284568
 10
232.828326214
 20
106.6758382139
 10
232.9796177036
 20
107.3726019594
 10
233.2755994684
 20
108.0199675988
 10
233.7033223993
 20
108.5896421782
 10
234.2441078908
 20
109.0567282289
 10
234.8743078
 20
109.4008118152
 10
235.5663773305
 20
109.6068548276
 10
236.2900820262
 20
109.6658521337
  0
LINE
  5
13D
330
1F
100
AcDbEntity
  8
0
  6
HIDDEN
 62
     7
370
     0
100
AcDbLine
 10
153.0442681796
 20
114.6737840963
 30
0.0
 11
153.0442681796
 21
102.17378391
 31
0.0
  0
LINE
  5
13E
330
1F
100
AcDbEntity
  8
0
  6
HIDDEN
 62
     7
370
     0
100
AcDbLine
 10
154.2459890879
 20
112.6737842341
 30
0.0
 11
154.2459890879
 21
104.1737837722
 31
0.0
  0
ARC
  5
13F
330
1F
100
AcDbEntity
  8
0
  6
HIDDEN
 62
     7
370
     0
100
AcDbCircle
 10
231.2169872873
 20
111.8509749385
 30
0.0
 40
2.079149405641499
100
AcDbArc
 50
122.7126842491
 51
287.7261178444
  0
LINE
  5
140
330
1F
100
AcDbEntity
  8
0
  6
HIDDEN
 62
     7
370
     0
100
AcDbLine
 10
247.2173419482
 20
116.0304337745
 30
0.0
 11
246.2535869963
 21
114.1239889902
 31
0.0
  0
LINE
  5
141
330
1F
100
AcDbEntity
  8
0
  6
HIDDEN
 62
     7
370
     0
100
AcDbLine
 10
217.0442712194
 20
112.6737842341
 30
0.0
 11
217.0442712194
 21
104.1737837722
 31
0.0
  0
SPLINE
  5
142
330
1F
100
AcDbEntity
  8
0
  6
HIDDEN
 62
     7
370
     0
100
AcDbSpline
210
0.0
220
0.0
230
1.0
 70
     8
 71
     3
 72
    62
 73
    58
 74
     0
 42
0.00000001
 43
0.00000001
 12
1.0
 22
0.0
 32
0.0
 13
1.0
 23
0.0
 33
0.0
 40
-0.0312500000000003
 40
-0.0312500000000003
 40
0.0
 40
0.0
 40
0.0312500000000008
 40
0.0312500000000008
 40
0.0625000000000016
 40
0.0625000000000016
 40
0.1250000000000004
 40
0.1250000000000004
 40
0.1874999999999991
 40
0.1874999999999991
 40
0.2187499999999991
 40
0.2187499999999991
 40
0.2499999999999991
 40
0.2499999999999991
 40
0.2812499999999991
 40
0.2812499999999991
 40
0.3124999999999991
 40
0.3124999999999991
 40
0.3437499999999989
 40
0.3437499999999989
 40
0.3749999999999987
 40
0.3749999999999987
 40
0.4374999999999985
 40
0.4374999999999985
 40
0.4687499999999984
 40
0.4687499999999984
 40
0.4999999999999982
 40
0.4999999999999982
 40
0.5312499999999981
 40
0.5312499999999981
 40
0.562499999999998
 40
0.562499999999998
 40
0.593749999999998
 40
0.593749999999998
 40
0.6249999999999979
 40
0.6249999999999979
 40
0.6562499999999978
 40
0.6562499999999978
 40
0.6874999999999977
 40
0.6874999999999977
 40
0.7187499999999976
 40
0.7187499999999976
 40
0.7499999999999974
 40
0.7499999999999974
 40
0.7812499999999974
 40
0.7812499999999974
 40
0.8124999999999973
 40
0.8124999999999973
 40
0.8749999999999982
 40
0.8749999999999982
 40
0.9062499999999987
 40
0.9062499999999987
 40
0.9374999999999992
 40
0.9374999999999992
 40
0.9687499999999997
 40
0.9687499999999997
 40
1.0
 40
1.0
 40
1.031250000000001
 40
1.031250000000001
 10
211.9030700152357
 20
109.2792068465207
 30
0.0
 10
212.1854664631955
 20
109.2792068465207
 30
0.0
 10
212.3237443402093
 20
109.2633027845029
 30
0.0
 10
212.5949104114171
 20
109.201950926306
 30
0.0
 10
212.7291137388766
 20
109.1556871134741
 30
0.0
 10
213.1081769186669
 20
108.9795894460147
 30
0.0
 10
213.3371838403607
 20
108.8098315930097
 30
0.0
 10
213.7182144593634
 20
108.4043091955443
 30
0.0
 10
213.873837536285
 20
108.164319403534
 30
0.0
 10
214.0329080128536
 20
107.7819828314963
 30
0.0
 10
214.074635157997
 20
107.6478500440416
 30
0.0
 10
214.1299058591391
 20
107.3806631734518
 30
0.0
 10
214.1439857906289
 20
107.2473622270322
 30
0.0
 10
214.14454235695
 20
106.9815185202858
 30
0.0
 10
214.1305530795295
 20
106.849303370574
 30
0.0
 10
214.0760715602938
 20
106.5989953962984
 30
0.0
 10
214.0352211021389
 20
106.478173484226
 30
0.0
 10
213.9286071352795
 20
106.2508136246979
 30
0.0
 10
213.8638549930065
 20
106.1457979767619
 30
0.0
 10
213.7122964510539
 20
105.950973151783
 30
0.0
 10
213.6249583278808
 20
105.8610881978412
 30
0.0
 10
213.3391819069193
 20
105.6220529458581
 30
0.0
 10
213.1096455584535
 20
105.4974130443447
 30
0.0
 10
212.7333274224592
 20
105.3718433720492
 30
0.0
 10
212.6009945140985
 20
105.3395241807825
 30
0.0
 10
212.3269618551077
 20
105.2959209955577
 30
0.0
 10
212.1889366954856
 20
105.2850645184521
 30
0.0
 10
211.9108653142668
 20
105.2844861533616
 30
0.0
 10
211.7691523755965
 20
105.295184608444
 30
0.0
 10
211.4967301199162
 20
105.3376208692322
 30
0.0
 10
211.3649019754191
 20
105.3690964952503
 30
0.0
 10
211.1095030798145
 20
105.4533705791214
 30
0.0
 10
210.9893370766252
 20
105.5051027689956
 30
0.0
 10
210.7641656640688
 20
105.6273745027844
 30
0.0
 10
210.6580146027345
 20
105.6988611000113
 30
0.0
 10
210.4665673140323
 20
105.8581947867313
 30
0.0
 10
210.3806333001128
 20
105.9461123944182
 30
0.0
 10
210.2282209820728
 20
106.1405013590141
 30
0.0
 10
210.1620374917853
 20
106.2472969663528
 30
0.0
 10
210.0558557932342
 20
106.4718189196929
 30
0.0
 10
210.0148757300184
 20
106.59061217953
 30
0.0
 10
209.9587955892211
 20
106.8430307806281
 30
0.0
 10
209.9445714137798
 20
106.9739650818302
 30
0.0
 10
209.9439747299083
 20
107.2383905085602
 30
0.0
 10
209.9577432974067
 20
107.3745724591508
 30
0.0
 10
210.0125933643487
 20
107.6432582305494
 30
0.0
 10
210.0530898776252
 20
107.774846788591
 30
0.0
 10
210.2125523488014
 20
108.1611601807308
 30
0.0
 10
210.3672207731156
 20
108.4006422500657
 30
0.0
 10
210.6555288044601
 20
108.7080295922364
 30
0.0
 10
210.759553619808
 20
108.8004923144144
 30
0.0
 10
210.9839728779868
 20
108.9651112905372
 30
0.0
 10
211.1059036658473
 20
109.0378345325786
 30
0.0
 10
211.3583608172733
 20
109.1552709212844
 30
0.0
 10
211.4892473471904
 20
109.2006501423692
 30
0.0
 10
211.7611882649032
 20
109.2627885216498
 30
0.0
 10
211.9030700152357
 20
109.2792068465207
 30
0.0
 10
212.1854664631955
 20
109.2792068465207
 30
0.0
  0
SPLINE
  5
143
330
1F
100
AcDbEntity
  8
0
  6
HIDDEN
 62
     7
370
     0
100
AcDbSpline
210
0.0
220
0.0
230
1.0
 70
     8
 71
     3
 72
    34
 73
    30
 74
     0
 42
0.00000001
 43
0.00000001
 12
1.0
 22
0.0
 32
0.0
 13
1.0
 23
0.0
 33
0.0
 40
0.0
 40
0.0
 40
0.0
 40
0.0
 40
0.1250000000000002
 40
0.1250000000000002
 40
0.2500000000000004
 40
0.2500000000000004
 40
0.3125000000000004
 40
0.3125000000000004
 40
0.3750000000000005
 40
0.3750000000000005
 40
0.4375000000000006
 40
0.4375000000000006
 40
0.4687500000000007
 40
0.4687500000000007
 40
0.5000000000000007
 40
0.5000000000000007
 40
0.5312500000000008
 40
0.5312500000000008
 40
0.5625000000000008
 40
0.5625000000000008
 40
0.6250000000000008
 40
0.6250000000000008
 40
0.6875000000000008
 40
0.6875000000000008
 40
0.7500000000000008
 40
0.7500000000000008
 40
0.8750000000000004
 40
0.8750000000000004
 40
1.0
 40
1.0
 40
1.0
 40
1.0
 10
234.5395923669995
 20
108.8366059061423
 30
0.0
 10
234.5983732395522
 20
108.9528831481516
 30
0.0
 10
234.722661267444
 20
109.0832030516525
 30
0.0
 10
235.0502738698747
 20
109.3486209167771
 30
0.0
 10
235.2563170352917
 20
109.4847762491944
 30
0.0
 10
235.6258550831256
 20
109.6690300641032
 30
0.0
 10
235.7594846437198
 20
109.7272493962049
 30
0.0
 10
236.0546573495847
 20
109.8312605012586
 30
0.0
 10
236.2164575346025
 20
109.8773913762171
 30
0.0
 10
236.57835321178
 20
109.9426237158702
 30
0.0
 10
236.7773192409546
 20
109.9629630642375
 30
0.0
 10
237.124797182982
 20
109.944158004643
 30
0.0
 10
237.247399005873
 20
109.9293372789956
 30
0.0
 10
237.5077676261149
 20
109.8719716946567
 30
0.0
 10
237.6403983617978
 20
109.830042848533
 30
0.0
 10
237.898828682288
 20
109.7174466372632
 30
0.0
 10
238.0194337467815
 20
109.6487218758868
 30
0.0
 10
238.2302263347758
 20
109.5028334280376
 30
0.0
 10
238.3220561939969
 20
109.4251949202766
 30
0.0
 10
238.561135194679
 20
109.1936198654177
 30
0.0
 10
238.6766926454307
 20
109.0391173242625
 30
0.0
 10
238.8627863002606
 20
108.7433088319408
 30
0.0
 10
238.9326529280351
 20
108.6015388816329
 30
0.0
 10
239.0463824251627
 20
108.3273728127203
 30
0.0
 10
239.0897615283152
 20
108.1950231664015
 30
0.0
 10
239.1913025155539
 20
107.8125374188791
 30
0.0
 10
239.2204940589225
 20
107.5820838226941
 30
0.0
 10
239.2268382373089
 20
107.1811989969669
 30
0.0
 10
239.2045083999542
 20
107.0095802814746
 30
0.0
 10
239.1459687760736
 20
106.8937802649474
 30
0.0
  0
ELLIPSE
  5
144
330
1F
100
AcDbEntity
  8
0
  6
HIDDEN
 62
     7
370
     0
100
AcDbEllipse
 10
238.9270409323
 20
112.6057100502
 30
0.0
 11
3.434281587992587
 21
1.718550178042065
 31
0.0
210
0.0
220
0.0
230
1.0
 40
0.1647216549
 41
6.064908987715087
 42
9.206501641304781
  0
LINE
  5
145
330
1F
100
AcDbEntity
  8
0
  6
HIDDEN
 62
     7
370
     0
100
AcDbLine
 10
236.5427684671
 20
124.1965867584
 30
0.0
 11
237.5065159685
 21
126.1030320083
 31
0.0
  0
LINE
  5
146
330
1F
100
AcDbEntity
  8
0
  6
HIDDEN
 62
     7
370
     0
100
AcDbLine
 10
234.1014292724
 20
107.9698487946
 30
0.0
 11
234.5395904667
 21
108.8366059184
 31
0.0
  0
ELLIPSE
  5
147
330
1F
100
AcDbEntity
  8
0
  6
HIDDEN
 62
     7
370
     0
100
AcDbEllipse
 10
235.3783209735
 20
104.438733864
 30
0.0
 11
3.809839114181642
 21
-1.769635718921236
 31
0.0
210
0.0
220
0.0
230
1.0
 40
0.816602865
 41
0.9769531800217632
 42
2.25207702126018
  0
LINE
  5
148
330
1F
100
AcDbEntity
  8
0
  6
HIDDEN
 62
     7
370
     0
100
AcDbLine
 10
239.1459715254
 20
106.8937802692
 30
0.0
 11
238.7078028805
 21
106.0270232619
 31
0.0
  0
LWPOLYLINE
  5
149
330
1F
100
AcDbEntity
  8
0
  6
HIDDEN
 62
     7
370
     0
100
AcDbPolyline
 90
       34
 70
   128
 43
0.0
 10
236.2461161501
 20
110.2635863707
 10
237.0366227514
 20
110.1720711221
 10
237.7985489256
 20
109.9353817762
 10
238.5043722279
 20
109.5620727637
 10
239.1285744197
 20
109.065636504
 10
239.648595143
 20
108.4640155195
 10
240.0456440336
 20
107.7789539476
 10
240.3053712732
 20
107.0352117303
 10
240.4183816797
 20
106.2596695037
 10
240.3805923349
 20
105.4803576325
 10
240.1933815963
 20
104.7254422219
 10
239.8634996898
 20
104.0222082292
 10
239.4028824455
 20
103.3960716804
 10
238.82816701
 20
102.8696634811
 10
238.160125602
 20
102.4620091547
 10
237.4229130036
 20
102.1878426899
 10
236.6431650407
 20
102.0570724276
 10
235.8490672595
 20
102.0744252955
 10
235.0693267471
 20
102.2392740478
 10
234.3321141488
 20
102.5456605484
 10
233.6640727407
 20
102.9825113718
 10
233.0893573052
 20
103.5340373409
 10
232.628740061
 20
104.1803048928
 10
232.2988581545
 20
104.8979564575
 10
232.1116399653
 20
105.6610540026
 10
232.073858071
 20
106.4420173415
 10
232.1868684775
 20
107.2126202989
 10
232.4465957171
 20
107.9450114402
 10
232.8436446077
 20
108.6127201042
 10
233.3636653311
 20
109.1916135983
 10
233.9878675229
 20
109.6607692079
 10
234.6936908252
 20
110.0032304884
 10
235.4556169993
 20
110.2066198136
 10
236.2461161501
 20
110.2635863707
  0
LINE
  5
14A
330
1F
100
AcDbEntity
  8
0
  6
HIDDEN
 62
     7
370
     0
100
AcDbLine
 10
238.7078028805
 20
106.0270232619
 30
0.0
 11
240.3858151919
 21
110.212184466
 31
0.0
  0
LINE
  5
14B
330
1F
100
AcDbEntity
  8
0
  6
HIDDEN
 62
     7
370
     0
100
AcDbLine
 10
243.1514409072
 20
116.4219589909
 30
0.0
 11
242.8798523433
 21
115.8847241667
 31
0.0
  0
SPLINE
  5
14C
330
1F
100
AcDbEntity
  8
0
  6
HIDDEN
 62
     7
370
     0
100
AcDbSpline
210
0.0
220
0.0
230
1.0
 70
     8
 71
     3
 72
     8
 73
     4
 74
     0
 42
0.00000001
 43
0.00000001
 12
1.0
 22
0.0
 32
0.0
 13
1.0
 23
0.0
 33
0.0
 40
0.0
 40
0.0
 40
0.0
 40
0.0
 40
1.0
 40
1.0
 40
1.0
 40
1.0
 10
242.9301930344329
 20
115.8697387832991
 30
0.0
 10
243.0008820032359
 20
116.0468490309517
 30
0.0
 10
243.0739608192578
 20
116.2293979617722
 30
0.0
 10
243.1514389444593
 20
116.4219585990287
 30
0.0
  0
LINE
  5
14D
330
1F
100
AcDbEntity
  8
0
  6
HIDDEN
 62
     7
370
     0
100
AcDbLine
 10
241.632595349
 20
112.7593844202
 30
0.0
 11
242.9301959164
 21
115.8697387208
 31
0.0
  0
LINE
  5
14E
330
1F
100
AcDbEntity
  8
0
  6
HIDDEN
 62
     7
370
     0
100
AcDbLine
 10
242.3411381132
 20
114.1609820542
 30
0.0
 11
241.632595349
 21
112.7593844202
 31
0.0
  0
LWPOLYLINE
  5
14F
330
1F
100
AcDbEntity
  8
0
  6
HIDDEN
 62
     7
370
     0
100
AcDbPolyline
 90
       24
 70
   128
 43
0.0
 10
212.0442685372
 20
107.330832724
 10
212.6108404882
 20
107.2567704604
 10
213.1353911645
 20
107.0400764938
 10
213.579021085
 20
106.6968219592
 10
213.9088284857
 20
106.2524645594
 10
214.1003456599
 20
105.7399603077
 10
214.1393718011
 20
105.1973189232
 10
214.0230160839
 20
104.6647863467
 10
213.7599062807
 20
104.1818574076
 10
213.3695554621
 20
103.7843489093
 10
212.8809091336
 20
103.5017423336
 10
212.3302218205
 20
103.3549975609
 10
211.7583152539
 20
103.3549975609
 10
211.2076279408
 20
103.5017423336
 10
210.7189816124
 20
103.7843489093
 10
210.3286307938
 20
104.1818574076
 10
210.0655209906
 20
104.6647863467
 10
209.9491652734
 20
105.1973189232
 10
209.9881914146
 20
105.7399603077
 10
210.1797085888
 20
106.2524645594
 10
210.5095159895
 20
106.6968219592
 10
210.9531384594
 20
107.0400764938
 10
211.4776965863
 20
107.2567704604
 10
212.0442685372
 20
107.330832724
  0
LINE
  5
150
330
1F
100
AcDbEntity
  8
0
  6
HIDDEN
 62
     7
370
     0
100
AcDbLine
 10
249.7048225886
 20
127.7844380592
 30
0.0
 11
240.3026145584
 21
125.0079158698
 31
0.0
  0
LINE
  5
151
330
1F
100
AcDbEntity
  8
0
  6
HIDDEN
 62
     7
370
     0
100
AcDbLine
 10
250.358469475
 20
127.1355818962
 30
0.0
 11
249.7048225886
 21
127.7844380592
 31
0.0
  0
ARC
  5
152
330
1F
100
AcDbEntity
  8
0
  6
HIDDEN
 62
     7
370
     0
100
AcDbCircle
 10
241.6657756285
 20
119.3040445917
 30
0.0
 40
3.659674231305216
100
AcDbArc
 50
290.2123680038
 51
204.0506816868
  0
LINE
  5
153
330
1F
100
AcDbEntity
  8
0
  6
HIDDEN
 62
     7
370
     0
100
AcDbLine
 10
238.3238148577
 20
117.8125642245
 30
0.0
 11
235.4545813686
 21
110.9349840325
 31
0.0
  0
ARC
  5
154
330
1F
100
AcDbEntity
  8
0
  6
HIDDEN
 62
     7
370
     0
100
AcDbCircle
 10
232.9849384787
 20
149.8017840339
 30
0.0
 40
25.85119497709249
100
AcDbArc
 50
277.9105710958
 51
286.4434675741
  0
LINE
  5
155
330
1F
100
AcDbEntity
  8
0
  6
HIDDEN
 62
     7
370
     0
100
AcDbLine
 10
236.5427684671
 20
124.1965867584
 30
0.0
 11
233.5426655299
 21
114.6869208668
 31
0.0
  0
LINE
  5
156
330
1F
100
AcDbEntity
  8
0
  6
HIDDEN
 62
     7
370
     0
100
AcDbLine
 10
231.8500202782
 20
109.8705377434
 30
0.0
 11
235.4545813686
 21
110.9349840325
 31
0.0
  0
LINE
  5
157
330
1F
100
AcDbEntity
  8
0
  6
HIDDEN
 62
     7
370
     0
100
AcDbLine
 10
241.632595349
 20
112.7593844202
 30
0.0
 11
246.2535869963
 21
114.1239889902
 31
0.0
  0
LINE
  5
158
330
1F
100
AcDbEntity
  8
0
  6
HIDDEN
 62
     7
370
     0
100
AcDbLine
 10
246.2535869963
 20
114.1239889902
 30
0.0
 11
250.358469475
 21
127.1355818962
 31
0.0
  0
LINE
  5
159
330
1F
100
AcDbEntity
  8
0
  6
HIDDEN
 62
     7
370
     0
100
AcDbLine
 10
235.4545813686
 20
110.9349840325
 30
0.0
 11
235.512949217
 21
111.0504382295
 31
0.0
  0
LINE
  5
15A
330
1F
100
AcDbEntity
  8
0
  6
HIDDEN
 62
     7
370
     0
100
AcDbLine
 10
119.5442673451
 20
98.766172864
 30
0.0
 11
119.5442673451
 21
94.9262535204
 31
0.0
  0
LINE
  5
15B
330
1F
100
AcDbEntity
  8
0
  6
HIDDEN
 62
     7
370
     0
100
AcDbLine
 10
118.0442680306
 20
99.1991857071
 30
0.0
 11
118.0442680306
 21
95.7922792067
 31
0.0
  0
LINE
  5
15C
330
1F
100
AcDbEntity
  8
0
  6
HIDDEN
 62
     7
370
     0
100
AcDbLine
 10
140.3442682167
 20
98.5048884531
 30
0.0
 11
140.3442682167
 21
97.4497456108
 31
0.0
  0
LINE
  5
15D
330
1F
100
AcDbEntity
  8
0
  6
HIDDEN
 62
     7
370
     0
100
AcDbLine
 10
140.3442682167
 20
94.5035476242
 30
0.0
 11
140.3442682167
 21
94.4036856298
 31
0.0
  0
SPLINE
  5
15E
330
1F
100
AcDbEntity
  8
0
  6
HIDDEN
 62
     7
370
     0
100
AcDbSpline
210
0.0
220
0.0
230
1.0
 70
     8
 71
     3
 72
    16
 73
    12
 74
     0
 42
0.00000001
 43
0.00000001
 12
1.0
 22
0.0
 32
0.0
 13
1.0
 23
0.0
 33
0.0
 40
0.0
 40
0.0
 40
0.0
 40
0.0
 40
0.2499999999999998
 40
0.2499999999999998
 40
0.3749999999999999
 40
0.3749999999999999
 40
0.5000000000000001
 40
0.5000000000000001
 40
0.75
 40
0.75
 40
1.0
 40
1.0
 40
1.0
 40
1.0
 10
140.3442682392155
 20
97.44974601088933
 30
0.0
 10
140.2637309073163
 20
97.06073882694534
 30
0.0
 10
140.2036935632891
 20
96.70423838532098
 30
0.0
 10
140.1429558561354
 20
96.21773600013368
 30
0.0
 10
140.1276334810225
 20
96.06365705928025
 30
0.0
 10
140.1070506717182
 20
95.77218750078758
 30
0.0
 10
140.1018510746925
 20
95.63461761688872
 30
0.0
 10
140.1017974215122
 20
95.25637278169947
 30
0.0
 10
140.1219949649897
 20
95.04649171314739
 30
0.0
 10
140.2026730533471
 20
94.70991241423556
 30
0.0
 10
140.2637192179542
 20
94.58362792231704
 30
0.0
 10
140.3442682392118
 20
94.50354761482454
 30
0.0
  0
SPLINE
  5
15F
330
1F
100
AcDbEntity
  8
0
  6
HIDDEN
 62
     7
370
     0
100
AcDbSpline
210
0.0
220
0.0
230
1.0
 70
     8
 71
     3
 72
    24
 73
    20
 74
     0
 42
0.00000001
 43
0.00000001
 12
1.0
 22
0.0
 32
0.0
 13
1.0
 23
0.0
 33
0.0
 40
0.0
 40
0.0
 40
0.0
 40
0.0
 40
0.2500000000000036
 40
0.2500000000000036
 40
0.3750000000000062
 40
0.3750000000000062
 40
0.4375000000000065
 40
0.4375000000000065
 40
0.4687500000000052
 40
0.4687500000000052
 40
0.5000000000000039
 40
0.5000000000000039
 40
0.5625000000000039
 40
0.5625000000000039
 40
0.6250000000000039
 40
0.6250000000000039
 40
0.7500000000000033
 40
0.7500000000000033
 40
1.0
 40
1.0
 40
1.0
 40
1.0
 10
140.3442682392156
 20
94.50354761482836
 30
0.0
 10
140.3446711498514
 20
94.53397185166637
 30
0.0
 10
140.346715129192
 20
94.56682995222054
 30
0.0
 10
140.3559523720181
 20
94.62285531937411
 30
0.0
 10
140.3598394349986
 20
94.64246637255954
 30
0.0
 10
140.3707433264053
 20
94.67674065598908
 30
0.0
 10
140.3748853721557
 20
94.68880308146129
 30
0.0
 10
140.3867804459084
 20
94.71112224616078
 30
0.0
 10
140.3920275102172
 20
94.72008875852106
 30
0.0
 10
140.4088945765964
 20
94.73773832304737
 30
0.0
 10
140.4167169841215
 20
94.74188260718712
 30
0.0
 10
140.4336657847431
 20
94.74837014836116
 30
0.0
 10
140.4411221359611
 20
94.7477732669895
 30
0.0
 10
140.4551820391534
 20
94.74602700301747
 30
0.0
 10
140.4613144242894
 20
94.74419631511898
 30
0.0
 10
140.4786091868126
 20
94.73762990554616
 30
0.0
 10
140.4886265052216
 20
94.73176469038746
 30
0.0
 10
140.5169978394644
 20
94.71302000635711
 30
0.0
 10
140.5335332771088
 20
94.69885585827045
 30
0.0
 10
140.5492282612733
 20
94.68469947197822
 30
0.0
  0
SPLINE
  5
160
330
1F
100
AcDbEntity
  8
0
  6
HIDDEN
 62
     7
370
     0
100
AcDbSpline
210
0.0
220
0.0
230
1.0
 70
     8
 71
     3
 72
     8
 73
     4
 74
     0
 42
0.00000001
 43
0.00000001
 12
1.0
 22
0.0
 32
0.0
 13
1.0
 23
0.0
 33
0.0
 40
0.0
 40
0.0
 40
0.0
 40
0.0
 40
1.0
 40
1.0
 40
1.0
 40
1.0
 10
140.5492282612733
 20
94.68469947197819
 30
0.0
 10
140.5999554044799
 20
94.63894517065297
 30
0.0
 10
140.6578427340408
 20
94.61044102478945
 30
0.0
 10
140.722947895656
 20
94.59871999513064
 30
0.0
  0
LINE
  5
161
330
1F
100
AcDbEntity
  8
0
  6
HIDDEN
 62
     7
370
     0
100
AcDbLine
 10
140.3442682167
 20
122.4438823764
 30
0.0
 11
140.3442682167
 21
122.344020382
 31
0.0
  0
LINE
  5
162
330
1F
100
AcDbEntity
  8
0
  6
HIDDEN
 62
     7
370
     0
100
AcDbLine
 10
119.5442673451
 20
121.9213144858
 30
0.0
 11
119.5442673451
 21
118.0813951423
 31
0.0
  0
LINE
  5
163
330
1F
100
AcDbEntity
  8
0
  6
HIDDEN
 62
     7
370
     0
100
AcDbLine
 10
140.3442682167
 20
119.3978223954
 30
0.0
 11
140.3442682167
 21
118.3426795532
 31
0.0
  0
SPLINE
  5
164
330
1F
100
AcDbEntity
  8
0
  6
HIDDEN
 62
     7
370
     0
100
AcDbSpline
210
0.0
220
0.0
230
1.0
 70
     8
 71
     3
 72
    16
 73
    12
 74
     0
 42
0.00000001
 43
0.00000001
 12
1.0
 22
0.0
 32
0.0
 13
1.0
 23
0.0
 33
0.0
 40
0.0
 40
0.0
 40
0.0
 40
0.0
 40
0.2499999999999998
 40
0.2499999999999998
 40
0.3749999999999997
 40
0.3749999999999997
 40
0.4999999999999996
 40
0.4999999999999996
 40
0.7499999999999998
 40
0.7499999999999998
 40
1.0
 40
1.0
 40
1.0
 40
1.0
 10
140.3442682392155
 20
122.3440203914507
 30
0.0
 10
140.263730907316
 20
122.2639517052981
 30
0.0
 10
140.2036935632886
 20
122.1400872138075
 30
0.0
 10
140.142955856135
 20
121.8894063898746
 30
0.0
 10
140.1276334810221
 20
121.7949677855648
 30
0.0
 10
140.107050671718
 20
121.5836567179453
 30
0.0
 10
140.1018510746924
 20
121.4663672631913
 30
0.0
 10
140.1017974215125
 20
121.0883315914348
 30
0.0
 10
140.1219949649905
 20
120.7995544376897
 30
0.0
 10
140.2026730533492
 20
120.1497145745485
 30
0.0
 10
140.2637192179571
 20
119.7868856406545
 30
0.0
 10
140.3442682392156
 20
119.3978219953815
 30
0.0
  0
SPLINE
  5
165
330
1F
100
AcDbEntity
  8
0
  6
HIDDEN
 62
     7
370
     0
100
AcDbSpline
210
0.0
220
0.0
230
1.0
 70
     8
 71
     3
 72
     8
 73
     4
 74
     0
 42
0.00000001
 43
0.00000001
 12
1.0
 22
0.0
 32
0.0
 13
1.0
 23
0.0
 33
0.0
 40
0.0
 40
0.0
 40
0.0
 40
0.0
 40
1.0
 40
1.0
 40
1.0
 40
1.0
 10
140.722947895656
 20
122.2488480111409
 30
0.0
 10
140.6578427340419
 20
122.2371269814823
 30
0.0
 10
140.599955404482
 20
122.2086228356196
 30
0.0
 10
140.549228261276
 20
122.1628685342958
 30
0.0
  0
SPLINE
  5
166
330
1F
100
AcDbEntity
  8
0
  6
HIDDEN
 62
     7
370
     0
100
AcDbSpline
210
0.0
220
0.0
230
1.0
 70
     8
 71
     3
 72
    24
 73
    20
 74
     0
 42
0.00000001
 43
0.00000001
 12
1.0
 22
0.0
 32
0.0
 13
1.0
 23
0.0
 33
0.0
 40
0.0
 40
0.0
 40
0.0
 40
0.0
 40
0.2499999999999967
 40
0.2499999999999967
 40
0.3749999999999951
 40
0.3749999999999951
 40
0.4374999999999931
 40
0.4374999999999931
 40
0.499999999999991
 40
0.499999999999991
 40
0.5312499999999912
 40
0.5312499999999912
 40
0.5624999999999917
 40
0.5624999999999917
 40
0.6249999999999921
 40
0.6249999999999921
 40
0.7499999999999953
 40
0.7499999999999953
 40
1.0
 40
1.0
 40
1.0
 40
1.0
 10
140.549228261276
 20
122.1628685342958
 30
0.0
 10
140.5334616729777
 20
122.1486475633075
 30
0.0
 10
140.5168501400231
 20
122.1344172729727
 30
0.0
 10
140.488323792065
 20
122.1156202177512
 30
0.0
 10
140.4782383582751
 20
122.1097317974099
 30
0.0
 10
140.4607555877402
 20
122.1031944026076
 30
0.0
 10
140.4545479312946
 20
122.1013831886064
 30
0.0
 10
140.4402764310494
 20
122.0997773860999
 30
0.0
 10
140.4327063605464
 20
122.0992246087138
 30
0.0
 10
140.4153100311111
 20
122.1064233534266
 30
0.0
 10
140.4068507581511
 20
122.1115151021743
 30
0.0
 10
140.3907897936035
 20
122.1293300346534
 30
0.0
 10
140.3859565577572
 20
122.1378524495158
 30
0.0
 10
140.3745306380219
 20
122.1597488861646
 30
0.0
 10
140.3705092821394
 20
122.1714894089705
 30
0.0
 10
140.3597487871083
 20
122.2055396729238
 30
0.0
 10
140.3558744780474
 20
122.2251146619525
 30
0.0
 10
140.3467016059203
 20
122.2809629706337
 30
0.0
 10
140.3446692352055
 20
122.3137407316626
 30
0.0
 10
140.3442682392156
 20
122.3440203914505
 30
0.0
  0
LINE
  5
167
330
1F
100
AcDbEntity
  8
0
  6
HIDDEN
 62
     7
370
     0
100
AcDbLine
 10
118.0442680306
 20
121.0552887996
 30
0.0
 11
118.0442680306
 21
117.6483822991
 31
0.0
  0
ARC
  5
168
330
1F
100
AcDbEntity
  8
0
  6
HIDDEN
 62
     7
370
     0
100
AcDbCircle
 10
241.603566811
 20
119.1842043751
 30
0.0
 40
3.166372337601283
100
AcDbArc
 50
299.2648777694
 51
194.9981719213
  0
SPLINE
  5
169
330
1F
100
AcDbEntity
  8
0
  6
HIDDEN
 62
     7
370
     0
100
AcDbSpline
210
0.0
220
0.0
230
1.0
 70
     8
 71
     3
 72
     8
 73
     4
 74
     0
 42
0.00000001
 43
0.00000001
 12
1.0
 22
0.0
 32
0.0
 13
1.0
 23
0.0
 33
0.0
 40
0.0
 40
0.0
 40
0.0
 40
0.0
 40
1.0
 40
1.0
 40
1.0
 40
1.0
 10
238.5450625353851
 20
118.3647842402234
 30
0.0
 10
238.4675844101836
 20
118.1722236029669
 30
0.0
 10
238.3945055941616
 20
117.9896746721465
 30
0.0
 10
238.3238166253587
 20
117.8125644244939
 30
0.0
  0
SPLINE
  5
16A
330
1F
100
AcDbEntity
  8
0
  6
HIDDEN
 62
     7
370
     0
100
AcDbSpline
210
0.0
220
0.0
230
1.0
 70
     8
 71
     3
 72
    12
 73
     8
 74
     0
 42
0.00000001
 43
0.00000001
 12
1.0
 22
0.0
 32
0.0
 13
1.0
 23
0.0
 33
0.0
 40
0.0
 40
0.0
 40
0.0
 40
0.0
 40
0.5000000000000007
 40
0.5000000000000007
 40
0.7500000000000003
 40
0.7500000000000003
 40
1.0
 40
1.0
 40
1.0
 40
1.0
 10
241.9708594233013
 20
114.9884788555139
 30
0.0
 10
242.1915986318853
 20
115.1450835216466
 30
0.0
 10
242.3807476461802
 20
115.3081779157109
 30
0.0
 10
242.6159548733384
 20
115.5421284076781
 30
0.0
 10
242.6860340638935
 20
115.6183095088406
 30
0.0
 10
242.803738940152
 20
115.761485593126
 30
0.0
 10
242.8512729497049
 20
115.8281859566836
 30
0.0
 10
242.8798543324677
 20
115.8847241504215
 30
0.0
  0
ARC
  5
16B
330
1F
100
AcDbEntity
  8
0
  6
HIDDEN
 62
     7
370
     0
100
AcDbCircle
 10
241.0081293361
 20
118.0061961572
 30
0.0
 40
3.167564679927013
100
AcDbArc
 50
287.6940274672
 51
206.5690190999
  0
SPLINE
  5
16C
330
1F
100
AcDbEntity
  8
0
  6
HIDDEN
 62
     7
370
     0
100
AcDbSpline
210
0.0
220
0.0
230
1.0
 70
     8
 71
     3
 72
    12
 73
     8
 74
     0
 42
0.00000001
 43
0.00000001
 12
1.0
 22
0.0
 32
0.0
 13
1.0
 23
0.0
 33
0.0
 40
0.0
 40
0.0
 40
0.0
 40
0.0
 40
0.2500000000000001
 40
0.2500000000000001
 40
0.5000000000000002
 40
0.5000000000000002
 40
1.0
 40
1.0
 40
1.0
 40
1.0
 10
238.2734779233935
 20
117.8275497916163
 30
0.0
 10
238.2450071547048
 20
117.7712304088436
 30
0.0
 10
238.2226110041123
 20
117.6945971163494
 30
0.0
 10
238.1866036181591
 20
117.5174005154602
 30
0.0
 10
238.1732000554403
 20
117.4168212306208
 30
0.0
 10
238.1470778132105
 20
117.0941275686704
 30
0.0
 10
238.1476055747193
 20
116.8507734491677
 30
0.0
 10
238.1750746922485
 20
116.5894222541945
 30
0.0
  0
LINE
  5
16D
330
1F
100
AcDbEntity
  8
0
  6
HIDDEN
 62
     7
370
     0
100
AcDbLine
 10
238.2734787352
 20
117.827550136
 30
0.0
 11
238.5450598485
 21
118.3647844945
 31
0.0
  0
ELLIPSE
  5
16E
330
1F
100
AcDbEntity
  8
0
  6
HIDDEN
 62
     7
370
     0
100
AcDbEllipse
 10
239.4329795673
 20
114.2548949933
 30
0.0
 11
1.101654435681411
 21
2.719284888726094
 31
0.0
210
0.0
220
0.0
230
1.0
 40
0.8519509261
 41
5.302591628140096
 42
7.239561653762282
  0
LWPOLYLINE
  5
16F
330
1F
100
AcDbEntity
  8
0
  6
HIDDEN
 62
     7
370
     0
100
AcDbPolyline
 90
       13
 70
   128
 43
0.0
 10
235.7794341332
 20
112.155010086
 10
236.0210415608
 20
112.5287633394
 10
236.4031371362
 20
112.8108460461
 10
236.8996885306
 20
112.9820343112
 10
237.4768552072
 20
113.0306619224
 10
238.0953055508
 20
112.9534152341
 10
238.712891627
 20
112.7555585471
 10
239.2875251061
 20
112.450575084
 10
239.7800457365
 20
112.0592491706
 10
240.1568886525
 20
111.6082489961
 10
240.3923791534
 20
111.1283096024
 10
240.4704612381
 20
110.652138107
 10
240.3858151919
 20
110.212184466
  0
LWPOLYLINE
  5
170
330
1F
100
AcDbEntity
  8
0
  6
HIDDEN
 62
     7
370
     0
100
AcDbPolyline
 90
       26
 70
   128
 43
0.0
 10
212.0442685372
 20
107.666266128
 10
212.6659896857
 20
107.5915681785
 10
213.2486548907
 20
107.3721678467
 10
213.755637098
 20
107.0218507438
 10
214.1550850756
 20
106.5626287372
 10
214.4219127185
 20
106.0233564121
 10
214.5393338687
 20
105.4379181941
 10
214.4999873526
 20
104.8430992295
 10
214.3063393123
 20
104.2762744245
 10
213.9705490953
 20
103.773059417
 10
213.5137316472
 20
103.3650726085
 10
212.9645791537
 20
103.0779500497
 10
212.3576027042
 20
102.9297319246
 10
211.7309343702
 20
102.9297319246
 10
211.1239579207
 20
103.0779500497
 10
210.5748054273
 20
103.3650726085
 10
210.1179879791
 20
103.773059417
 10
209.7821977622
 20
104.2762744245
 10
209.5885497219
 20
104.8430992295
 10
209.5492032058
 20
105.4379181941
 10
209.666624356
 20
106.0233564121
 10
209.9334519989
 20
106.5626287372
 10
210.3328999764
 20
107.0218507438
 10
210.8398821837
 20
107.3721678467
 10
211.4225399382
 20
107.5915681785
 10
212.0442685372
 20
107.666266128
  0
LINE
  5
171
330
1F
100
AcDbEntity
  8
0
  6
HIDDEN
 62
     7
370
     0
100
AcDbLine
 10
249.7048225886
 20
127.7844380592
 30
0.0
 11
249.6084120757
 21
127.5937218224
 31
0.0
  0
LINE
  5
172
330
1F
100
AcDbEntity
  8
0
  6
HIDDEN
 62
     7
370
     0
100
AcDbLine
 10
250.1406517512
 20
126.7047148203
 30
0.0
 11
250.358469475
 21
127.1355818962
 31
0.0
  0
LINE
  5
173
330
1F
100
AcDbEntity
  8
0
  6
HIDDEN
 62
     7
370
     0
100
AcDbLine
 10
118.0442680306
 20
117.6483822991
 30
0.0
 11
118.0442680306
 21
110.2739978586
 31
0.0
  0
LINE
  5
174
330
1F
100
AcDbEntity
  8
0
  6
HIDDEN
 62
     7
370
     0
100
AcDbLine
 10
118.0442680306
 20
106.5735701476
 30
0.0
 11
118.0442680306
 21
99.1991857071
 31
0.0
  0
SPLINE
  5
175
330
1F
100
AcDbEntity
  8
0
  6
HIDDEN
 62
     7
370
     0
100
AcDbSpline
210
0.0
220
0.0
230
1.0
 70
     8
 71
     3
 72
    24
 73
    20
 74
     0
 42
0.00000001
 43
0.00000001
 12
1.0
 22
0.0
 32
0.0
 13
1.0
 23
0.0
 33
0.0
 40
0.0
 40
0.0
 40
0.0
 40
0.0
 40
0.2500000000000062
 40
0.2500000000000062
 40
0.3750000000000062
 40
0.3750000000000062
 40
0.4375000000000043
 40
0.4375000000000043
 40
0.5000000000000024
 40
0.5000000000000024
 40
0.5312500000000023
 40
0.5312500000000023
 40
0.5625000000000021
 40
0.5625000000000021
 40
0.6250000000000033
 40
0.6250000000000033
 40
0.7500000000000019
 40
0.7500000000000019
 40
1.0
 40
1.0
 40
1.0
 40
1.0
 10
140.549228261276
 20
97.63119027633753
 30
0.0
 10
140.5334593839186
 20
97.55733158440793
 30
0.0
 10
140.5168454020686
 20
97.48362019567216
 30
0.0
 10
140.4883137360635
 20
97.3720733720501
 30
0.0
 10
140.4782263212448
 20
97.33470179892161
 30
0.0
 10
140.4607387607905
 20
97.27780230128393
 30
0.0
 10
140.4545291990072
 20
97.25869920113863
 30
0.0
 10
140.4402516453546
 20
97.21982568690306
 30
0.0
 10
140.4326800975592
 20
97.19990102746966
 30
0.0
 10
140.4152625138809
 20
97.1698288094423
 30
0.0
 10
140.4067800172358
 20
97.15814743063922
 30
0.0
 10
140.390741705364
 20
97.15088591989064
 30
0.0
 10
140.3859211571605
 20
97.15446416690044
 30
0.0
 10
140.3745119326126
 20
97.16622502213208
 30
0.0
 10
140.3704914521551
 20
97.17789067218263
 30
0.0
 10
140.3597375973347
 20
97.21442600229621
 30
0.0
 10
140.3558649160526
 20
97.24182173561978
 30
0.0
 10
140.346696766215
 20
97.32654772737574
 30
0.0
 10
140.3446682608459
 20
97.38737984954781
 30
0.0
 10
140.3442682392156
 20
97.44974601088943
 30
0.0
  0
SPLINE
  5
176
330
1F
100
AcDbEntity
  8
0
  6
HIDDEN
 62
     7
370
     0
100
AcDbSpline
210
0.0
220
0.0
230
1.0
 70
     8
 71
     3
 72
    24
 73
    20
 74
     0
 42
0.00000001
 43
0.00000001
 12
1.0
 22
0.0
 32
0.0
 13
1.0
 23
0.0
 33
0.0
 40
0.0
 40
0.0
 40
0.0
 40
0.0
 40
0.2500000000000005
 40
0.2500000000000005
 40
0.3749999999999993
 40
0.3749999999999993
 40
0.4374999999999977
 40
0.4374999999999977
 40
0.4687499999999967
 40
0.4687499999999967
 40
0.4999999999999958
 40
0.4999999999999958
 40
0.5624999999999939
 40
0.5624999999999939
 40
0.624999999999992
 40
0.624999999999992
 40
0.7499999999999943
 40
0.7499999999999943
 40
1.0
 40
1.0
 40
1.0
 40
1.0
 10
140.344268239212
 20
119.3978219953844
 30
0.0
 10
140.3446729087876
 20
119.4609128038779
 30
0.0
 10
140.3467163556018
 20
119.5220985263813
 30
0.0
 10
140.3561159208557
 20
119.6075982588845
 30
0.0
 10
140.3600668143844
 20
119.6351786423261
 30
0.0
 10
140.3712191226807
 20
119.6716327244388
 30
0.0
 10
140.3754406636072
 20
119.6834911461334
 30
0.0
 10
140.3876483851694
 20
119.6941111975108
 30
0.0
 10
140.3934391554198
 20
119.696944564735
 30
0.0
 10
140.4103606685295
 20
119.6856299777423
 30
0.0
 10
140.4177667844808
 20
119.6738490919881
 30
0.0
 10
140.4342240377253
 20
119.6438082507579
 30
0.0
 10
140.4416805556365
 20
119.6240952971445
 30
0.0
 10
140.4555884849115
 20
119.585693231084
 30
0.0
 10
140.4616804308066
 20
119.5668115811723
 30
0.0
 10
140.4788747231581
 20
119.51051067064
 30
0.0
 10
140.4888596733618
 20
119.47343459283
 30
0.0
 10
140.5171057184611
 20
119.3627759219388
 30
0.0
 10
140.5335852554224
 20
119.2896468615295
 30
0.0
 10
140.5492282612823
 20
119.2163777299048
 30
0.0
  0
LINE
  5
177
330
1F
100
AcDbEntity
  8
0
  6
HIDDEN
 62
     7
370
     0
100
AcDbLine
 10
235.7794341332
 20
112.155010086
 30
0.0
 11
234.1014292724
 21
107.9698487946
 31
0.0
  0
SPLINE
  5
178
330
1F
100
AcDbEntity
  8
0
  6
HIDDEN
 62
     7
370
     0
100
AcDbSpline
210
0.0
220
0.0
230
1.0
 70
     8
 71
     3
 72
     8
 73
     4
 74
     0
 42
0.00000001
 43
0.00000001
 12
1.0
 22
0.0
 32
0.0
 13
1.0
 23
0.0
 33
0.0
 40
0.0
 40
0.0
 40
0.0
 40
0.0
 40
1.0
 40
1.0
 40
1.0
 40
1.0
 10
140.722947895656
 20
98.37026468552895
 30
0.0
 10
140.6578427340419
 20
98.1152394503233
 30
0.0
 10
140.599955404482
 20
97.86878743418207
 30
0.0
 10
140.549228261276
 20
97.63119027633752
 30
0.0
  0
SPLINE
  5
179
330
1F
100
AcDbEntity
  8
0
  6
HIDDEN
 62
     7
370
     0
100
AcDbSpline
210
0.0
220
0.0
230
1.0
 70
     8
 71
     3
 72
     8
 73
     4
 74
     0
 42
0.00000001
 43
0.00000001
 12
1.0
 22
0.0
 32
0.0
 13
1.0
 23
0.0
 33
0.0
 40
0.0
 40
0.0
 40
0.0
 40
0.0
 40
1.0
 40
1.0
 40
1.0
 40
1.0
 10
140.5492282612822
 20
119.2163777299048
 30
0.0
 10
140.5999554044867
 20
118.9787805720693
 30
0.0
 10
140.6578427340446
 20
118.7323285559378
 30
0.0
 10
140.722947895656
 20
118.4773033207426
 30
0.0
  0
ELLIPSE
  5
17A
330
1F
100
AcDbEntity
  8
0
  6
HIDDEN
 62
     7
370
     0
100
AcDbEllipse
 10
265.9985472254
 20
114.1237840031
 30
0.0
 11
17.20799578203901
 21
-16.78295253849008
 31
0.0
210
0.0
220
0.0
230
1.0
 40
0.1573605504
 41
3.637771462858626
 42
3.71926998245288
  0
ELLIPSE
  5
17B
330
1F
100
AcDbEntity
  8
0
  6
HIDDEN
 62
     7
370
     0
100
AcDbEllipse
 10
202.5728521366
 20
114.1237840031
 30
0.0
 11
53.03216677918599
 21
16.78388808837926
 31
0.0
210
0.0
220
0.0
230
1.0
 40
0.0509512444
 41
5.470047812492077
 42
5.786660632975072
  0
SPLINE
  5
17C
330
1F
100
AcDbEntity
  8
0
  6
HIDDEN
 62
     7
370
     0
100
AcDbSpline
210
0.0
220
0.0
230
1.0
 70
     8
 71
     3
 72
    12
 73
     8
 74
     0
 42
0.00000001
 43
0.00000001
 12
1.0
 22
0.0
 32
0.0
 13
1.0
 23
0.0
 33
0.0
 40
0.0
 40
0.0
 40
0.0
 40
0.0
 40
0.5
 40
0.5
 40
0.75
 40
0.75
 40
1.0
 40
1.0
 40
1.0
 40
1.0
 10
231.490984792136
 20
122.2214980807383
 30
0.0
 10
232.8999116177553
 20
122.2214980807383
 30
0.0
 10
234.2842582070657
 20
122.3510426004889
 30
0.0
 10
236.3254883583609
 20
122.723193175547
 30
0.0
 10
236.99994141345
 20
122.8771207549337
 30
0.0
 10
238.3363511629754
 20
123.2442280846909
 30
0.0
 10
238.9959352654292
 20
123.4570086774987
 30
0.0
 10
239.6389837770136
 20
123.6951517344494
 30
0.0
  0
LINE
  5
17D
330
1F
100
AcDbEntity
  8
0
  6
HIDDEN
 62
     7
370
     0
100
AcDbLine
 10
230.0219160206
 20
122.2214983781
 30
0.0
 11
231.4909842498
 21
122.2214983781
 31
0.0
  0
ELLIPSE
  5
17E
330
1F
100
AcDbEntity
  8
0
  6
HIDDEN
 62
     7
370
     0
100
AcDbEllipse
 10
246.491485253
 20
114.1237840031
 30
0.0
 11
5.530973889347764
 21
16.99891568673709
 31
0.0
210
0.0
220
0.0
230
1.0
 40
0.0347142918
 41
0.7489391516584514
 42
1.582090910555887
  0
LINE
  5
17F
330
1F
100
AcDbEntity
  8
0
  6
HIDDEN
 62
     7
370
     0
100
AcDbLine
 10
119.5442673451
 20
105.8687557005
 30
0.0
 11
119.5442673451
 21
98.766172864
 31
0.0
  0
LINE
  5
180
330
1F
100
AcDbEntity
  8
0
  6
HIDDEN
 62
     7
370
     0
100
AcDbLine
 10
119.5442673451
 20
118.0813951423
 30
0.0
 11
119.5442673451
 21
110.9788123057
 31
0.0
  0
LINE
  5
181
330
1F
100
AcDbEntity
  8
0
  6
HIDDEN
 62
     7
370
     0
100
AcDbLine
 10
140.3442682167
 20
118.3426795532
 30
0.0
 11
140.3442682167
 21
98.5048884531
 31
0.0
  0
LINE
  5
182
330
1F
100
AcDbEntity
  8
0
  6
HIDDEN
 62
     7
370
     0
100
AcDbLine
 10
141.8442682443
 20
116.9031510134
 30
0.0
 11
141.8442682443
 21
99.9444169928
 31
0.0
  0
SPLINE
  5
183
330
1F
100
AcDbEntity
  8
0
  6
HIDDEN
 62
     7
370
     0
100
AcDbSpline
210
0.0
220
0.0
230
1.0
 70
     8
 71
     3
 72
     8
 73
     4
 74
     0
 42
0.00000001
 43
0.00000001
 12
1.0
 22
0.0
 32
0.0
 13
1.0
 23
0.0
 33
0.0
 40
0.0000137051794235
 40
0.0000137051794235
 40
0.0000137051794235
 40
0.0000137051794235
 40
0.0027147144718018
 40
0.0027147144718018
 40
0.0027147144718018
 40
0.0027147144718018
 10
119.5442682392156
 20
105.8687557660741
 30
0.0
 10
120.4442643747104
 20
105.8557841988757
 30
0.0
 10
121.3442645533058
 20
105.8431493415636
 30
0.0
 10
122.2442682392156
 20
105.8308393233078
 30
0.0
  0
SPLINE
  5
184
330
1F
100
AcDbEntity
  8
0
  6
HIDDEN
 62
     7
370
     0
100
AcDbSpline
210
0.0
220
0.0
230
1.0
 70
     8
 71
     3
 72
     8
 73
     4
 74
     0
 42
0.00000001
 43
0.00000001
 12
1.0
 22
0.0
 32
0.0
 13
1.0
 23
0.0
 33
0.0
 40
0.0000137050638847
 40
0.0000137050638847
 40
0.0000137050638847
 40
0.0000137050638847
 40
0.0027147143562631
 40
0.0027147143562631
 40
0.0027147143562631
 40
0.0027147143562631
 10
122.2442682392156
 20
111.0167286829637
 30
0.0
 10
121.3442645533058
 20
111.004418664708
 30
0.0
 10
120.4442643747104
 20
110.9917838073959
 30
0.0
 10
119.5442682392156
 20
110.9788122401975
 30
0.0
  0
SPLINE
  5
185
330
1F
100
AcDbEntity
  8
0
  6
HIDDEN
 62
     7
370
     0
100
AcDbSpline
210
0.0
220
0.0
230
1.0
 70
     8
 71
     3
 72
    10
 73
     6
 74
     0
 42
0.00000001
 43
0.00000001
 12
1.0
 22
0.0
 32
0.0
 13
1.0
 23
0.0
 33
0.0
 40
0.0
 40
0.0
 40
0.0
 40
0.0
 40
0.5
 40
0.5
 40
1.0
 40
1.0
 40
1.0
 40
1.0
 10
118.0442682392148
 20
106.5735701894857
 30
0.0
 10
118.2814101999306
 20
106.4179553749568
 30
0.0
 10
118.5267529586941
 20
106.2860463455375
 30
0.0
 10
119.0280165474271
 20
106.0543894689
 30
0.0
 10
119.2840511166774
 20
105.9549438527772
 30
0.0
 10
119.5442682392156
 20
105.8687557660741
 30
0.0
  0
SPLINE
  5
186
330
1F
100
AcDbEntity
  8
0
  6
HIDDEN
 62
     7
370
     0
100
AcDbSpline
210
0.0
220
0.0
230
1.0
 70
     8
 71
     3
 72
    10
 73
     6
 74
     0
 42
0.00000001
 43
0.00000001
 12
1.0
 22
0.0
 32
0.0
 13
1.0
 23
0.0
 33
0.0
 40
0.0
 40
0.0
 40
0.0
 40
0.0
 40
0.5
 40
0.5
 40
1.0
 40
1.0
 40
1.0
 40
1.0
 10
119.5442682392156
 20
110.9788122401975
 30
0.0
 10
119.2840511166776
 20
110.8926241534945
 30
0.0
 10
119.0280165474274
 20
110.7931785373717
 30
0.0
 10
118.5267529586947
 20
110.5615216607344
 30
0.0
 10
118.2814101999314
 20
110.4296126313152
 30
0.0
 10
118.0442682392156
 20
110.2739978167865
 30
0.0
  0
LINE
  5
187
330
1F
100
AcDbEntity
  8
0
  6
HIDDEN
 62
     7
370
     0
100
AcDbLine
 10
118.0442680306
 20
106.5735701476
 30
0.0
 11
118.0442680306
 21
110.2739978586
 31
0.0
  0
LINE
  5
188
330
1F
100
AcDbEntity
  8
0
  6
HIDDEN
 62
     7
370
     0
100
AcDbLine
 10
122.2442683465
 20
105.8308392302
 30
0.0
 11
122.2442683465
 21
111.016728776
 31
0.0
  0
SPLINE
  5
189
330
1F
100
AcDbEntity
  8
0
  6
HIDDEN
 62
     7
370
     0
100
AcDbSpline
210
0.0
220
0.0
230
1.0
 70
     8
 71
     3
 72
    22
 73
    18
 74
     0
 42
0.00000001
 43
0.00000001
 12
1.0
 22
0.0
 32
0.0
 13
1.0
 23
0.0
 33
0.0
 40
0.0
 40
0.0
 40
0.0
 40
0.0
 40
0.1249999999999999
 40
0.1249999999999999
 40
0.2499999999999999
 40
0.2499999999999999
 40
0.3749999999999999
 40
0.3749999999999999
 40
0.5
 40
0.5
 40
0.625
 40
0.625
 40
0.75
 40
0.75
 40
0.8750000000000001
 40
0.8750000000000001
 40
1.0
 40
1.0
 40
1.0
 40
1.0
 10
122.2442682392156
 20
105.8308393233078
 30
0.0
 10
122.4252045972918
 20
106.0224591826144
 30
0.0
 10
122.6043000460686
 20
106.2161010470015
 30
0.0
 10
122.9551400345807
 20
106.6107563003858
 30
0.0
 10
123.1273331424853
 20
106.8117678310534
 30
0.0
 10
123.4530646481046
 20
107.2279789462871
 30
0.0
 10
123.6091408832729
 20
107.4439947865739
 30
0.0
 10
123.860520097162
 20
107.9093175497386
 30
0.0
 10
123.9543852274808
 20
108.1648567427614
 30
0.0
 10
123.9506573106187
 20
108.699187377862
 30
0.0
 10
123.8532846681313
 20
108.9546082438627
 30
0.0
 10
123.6014638591374
 20
109.4146369598104
 30
0.0
 10
123.4464946036648
 20
109.628473960739
 30
0.0
 10
123.1216818459396
 20
110.0425125434327
 30
0.0
 10
122.9507887818117
 20
110.2418050154686
 30
0.0
 10
122.6021545422841
 20
110.6337799079027
 30
0.0
 10
122.4241466917556
 20
110.8262291938921
 30
0.0
 10
122.2442682392156
 20
111.0167286829637
 30
0.0
  0
SPLINE
  5
18A
330
1F
100
AcDbEntity
  8
0
  6
HIDDEN
 62
     7
370
     0
100
AcDbSpline
210
0.0
220
0.0
230
1.0
 70
     8
 71
     3
 72
    62
 73
    58
 74
     0
 42
0.00000001
 43
0.00000001
 12
1.0
 22
0.0
 32
0.0
 13
1.0
 23
0.0
 33
0.0
 40
-0.03125
 40
-0.03125
 40
0.0
 40
0.0
 40
0.0312500000000001
 40
0.0312500000000001
 40
0.0625000000000002
 40
0.0625000000000002
 40
0.0937500000000002
 40
0.0937500000000002
 40
0.1250000000000003
 40
0.1250000000000003
 40
0.1875000000000001
 40
0.1875000000000001
 40
0.2499999999999999
 40
0.2499999999999999
 40
0.2812499999999999
 40
0.2812499999999999
 40
0.3125
 40
0.3125
 40
0.34375
 40
0.34375
 40
0.375
 40
0.375
 40
0.4375000000000001
 40
0.4375000000000001
 40
0.4687500000000001
 40
0.4687500000000001
 40
0.5
 40
0.5
 40
0.5625000000000002
 40
0.5625000000000002
 40
0.5937500000000002
 40
0.5937500000000002
 40
0.6250000000000002
 40
0.6250000000000002
 40
0.6562500000000001
 40
0.6562500000000001
 40
0.6875000000000001
 40
0.6875000000000001
 40
0.7187500000000001
 40
0.7187500000000001
 40
0.75
 40
0.75
 40
0.78125
 40
0.78125
 40
0.8125
 40
0.8125
 40
0.8437500000000001
 40
0.8437500000000001
 40
0.8750000000000001
 40
0.8750000000000001
 40
0.9062500000000001
 40
0.9062500000000001
 40
0.9375000000000001
 40
0.9375000000000001
 40
0.96875
 40
0.96875
 40
1.0
 40
1.0
 40
1.03125
 40
1.03125
 10
128.4980403671439
 20
109.9117630417921
 30
0.0
 10
128.7255407137322
 20
110.1611095836528
 30
0.0
 10
128.8500032426496
 20
110.2727072611097
 30
0.0
 10
129.1190975088014
 20
110.4713580569281
 30
0.0
 10
129.2649106003907
 20
110.5586983017168
 30
0.0
 10
129.5660774786801
 20
110.702894054359
 30
0.0
 10
129.7224132057445
 20
110.7607137248732
 30
0.0
 10
130.0465365050789
 20
110.8479673369243
 30
0.0
 10
130.2132017167893
 20
110.8767693864061
 30
0.0
 10
130.7112179834212
 20
110.9175486916739
 30
0.0
 10
131.0518889322142
 20
110.8841054315327
 30
0.0
 10
131.6908998476357
 20
110.7016527870739
 30
0.0
 10
131.9973544546995
 20
110.5502282267611
 30
0.0
 10
132.3939103639619
 20
110.2497303211768
 30
0.0
 10
132.5182595548114
 20
110.1354691359814
 30
0.0
 10
132.7407236488606
 20
109.8858092654089
 30
0.0
 10
132.8382889873379
 20
109.7516426574098
 30
0.0
 10
133.0055445909767
 20
109.4641735629111
 30
0.0
 10
133.0756302464958
 20
109.3089067130112
 30
0.0
 10
133.1796856072173
 20
108.9919272929242
 30
0.0
 10
133.2146613698847
 20
108.8292745414197
 30
0.0
 10
133.2665258894088
 20
108.3283375212172
 30
0.0
 10
133.2272197816374
 20
107.9881829199069
 30
0.0
 10
133.0644999891765
 20
107.5116882878097
 30
0.0
 10
132.9942194912903
 20
107.3606209279823
 30
0.0
 10
132.8228863461602
 20
107.0733263575414
 30
0.0
 10
132.7214941049785
 20
106.937468579244
 30
0.0
 10
132.3848945177554
 20
106.5686601842458
 30
0.0
 10
132.1096617515907
 20
106.3662350749147
 30
0.0
 10
131.6598785242448
 20
106.1491583483059
 30
0.0
 10
131.5010787257412
 20
106.0898560762317
 30
0.0
 10
131.1785170048615
 20
106.0018835584312
 30
0.0
 10
131.0146578928943
 20
105.9727637945849
 30
0.0
 10
130.6818251195404
 20
105.9439071794747
 30
0.0
 10
130.5117728280995
 20
105.9445307026887
 30
0.0
 10
130.1794971640798
 20
105.9757871464931
 30
0.0
 10
130.0157825523311
 20
106.006105841545
 30
0.0
 10
129.6933170667567
 20
106.096822880548
 30
0.0
 10
129.5348059682302
 20
106.1575917892498
 30
0.0
 10
129.2362522620324
 20
106.3051024640467
 30
0.0
 10
129.0944261328303
 20
106.3922374919106
 30
0.0
 10
128.826504394272
 20
106.5948229584827
 30
0.0
 10
128.7024109638795
 20
106.7091611251248
 30
0.0
 10
128.4812767759613
 20
106.9573475630776
 30
0.0
 10
128.3828197738626
 20
107.0923801799314
 30
0.0
 10
128.2134612601276
 20
107.3843845779861
 30
0.0
 10
128.1452944224217
 20
107.5365203244217
 30
0.0
 10
128.0415604560953
 20
107.8529292728617
 30
0.0
 10
128.0058918942261
 20
108.019425742216
 30
0.0
 10
127.9716781295736
 20
108.3526876183265
 30
0.0
 10
127.9725365324027
 20
108.5193500721483
 30
0.0
 10
128.0103333123523
 20
108.8527382713659
 30
0.0
 10
128.0476760678063
 20
109.0184938438454
 30
0.0
 10
128.1549256508748
 20
109.3343851603081
 30
0.0
 10
128.2256868674139
 20
109.4876644933802
 30
0.0
 10
128.3978100175146
 20
109.7770415358667
 30
0.0
 10
128.4980403671439
 20
109.9117630417921
 30
0.0
 10
128.7255407137322
 20
110.1611095836528
 30
0.0
  0
SPLINE
  5
18B
330
1F
100
AcDbEntity
  8
0
  6
HIDDEN
 62
     7
370
     0
100
AcDbSpline
210
0.0
220
0.0
230
1.0
 70
     8
 71
     3
 72
    62
 73
    58
 74
     0
 42
0.00000001
 43
0.00000001
 12
1.0
 22
0.0
 32
0.0
 13
1.0
 23
0.0
 33
0.0
 40
-0.03125
 40
-0.03125
 40
0.0
 40
0.0
 40
0.0312500000000001
 40
0.0312500000000001
 40
0.0625000000000002
 40
0.0625000000000002
 40
0.0937500000000002
 40
0.0937500000000002
 40
0.1250000000000003
 40
0.1250000000000003
 40
0.1875000000000001
 40
0.1875000000000001
 40
0.2499999999999999
 40
0.2499999999999999
 40
0.2812499999999999
 40
0.2812499999999999
 40
0.3125
 40
0.3125
 40
0.34375
 40
0.34375
 40
0.375
 40
0.375
 40
0.4375000000000001
 40
0.4375000000000001
 40
0.4687500000000001
 40
0.4687500000000001
 40
0.5
 40
0.5
 40
0.5625000000000002
 40
0.5625000000000002
 40
0.5937500000000002
 40
0.5937500000000002
 40
0.6250000000000002
 40
0.6250000000000002
 40
0.6562500000000001
 40
0.6562500000000001
 40
0.6875000000000001
 40
0.6875000000000001
 40
0.7187500000000001
 40
0.7187500000000001
 40
0.75
 40
0.75
 40
0.78125
 40
0.78125
 40
0.8125
 40
0.8125
 40
0.8437500000000001
 40
0.8437500000000001
 40
0.8750000000000001
 40
0.8750000000000001
 40
0.9062500000000001
 40
0.9062500000000001
 40
0.9375000000000001
 40
0.9375000000000001
 40
0.96875
 40
0.96875
 40
1.0
 40
1.0
 40
1.03125
 40
1.03125
 10
128.4980403671439
 20
109.9117630417921
 30
0.0
 10
128.7255407137322
 20
110.1611095836528
 30
0.0
 10
128.8500032426496
 20
110.2727072611097
 30
0.0
 10
129.1190975088014
 20
110.4713580569281
 30
0.0
 10
129.2649106003907
 20
110.5586983017168
 30
0.0
 10
129.5660774786801
 20
110.702894054359
 30
0.0
 10
129.7224132057445
 20
110.7607137248732
 30
0.0
 10
130.0465365050789
 20
110.8479673369243
 30
0.0
 10
130.2132017167893
 20
110.8767693864061
 30
0.0
 10
130.7112179834212
 20
110.9175486916739
 30
0.0
 10
131.0518889322142
 20
110.8841054315327
 30
0.0
 10
131.6908998476357
 20
110.7016527870739
 30
0.0
 10
131.9973544546995
 20
110.5502282267611
 30
0.0
 10
132.3939103639619
 20
110.2497303211768
 30
0.0
 10
132.5182595548114
 20
110.1354691359814
 30
0.0
 10
132.7407236488606
 20
109.8858092654089
 30
0.0
 10
132.8382889873379
 20
109.7516426574098
 30
0.0
 10
133.0055445909767
 20
109.4641735629111
 30
0.0
 10
133.0756302464958
 20
109.3089067130112
 30
0.0
 10
133.1796856072173
 20
108.9919272929242
 30
0.0
 10
133.2146613698847
 20
108.8292745414197
 30
0.0
 10
133.2665258894088
 20
108.3283375212172
 30
0.0
 10
133.2272197816374
 20
107.9881829199069
 30
0.0
 10
133.0644999891765
 20
107.5116882878097
 30
0.0
 10
132.9942194912903
 20
107.3606209279823
 30
0.0
 10
132.8228863461602
 20
107.0733263575414
 30
0.0
 10
132.7214941049785
 20
106.937468579244
 30
0.0
 10
132.3848945177554
 20
106.5686601842458
 30
0.0
 10
132.1096617515907
 20
106.3662350749147
 30
0.0
 10
131.6598785242448
 20
106.1491583483059
 30
0.0
 10
131.5010787257412
 20
106.0898560762317
 30
0.0
 10
131.1785170048615
 20
106.0018835584312
 30
0.0
 10
131.0146578928943
 20
105.9727637945849
 30
0.0
 10
130.6818251195404
 20
105.9439071794747
 30
0.0
 10
130.5117728280995
 20
105.9445307026887
 30
0.0
 10
130.1794971640798
 20
105.9757871464931
 30
0.0
 10
130.0157825523311
 20
106.006105841545
 30
0.0
 10
129.6933170667567
 20
106.096822880548
 30
0.0
 10
129.5348059682302
 20
106.1575917892498
 30
0.0
 10
129.2362522620324
 20
106.3051024640467
 30
0.0
 10
129.0944261328303
 20
106.3922374919106
 30
0.0
 10
128.826504394272
 20
106.5948229584827
 30
0.0
 10
128.7024109638795
 20
106.7091611251248
 30
0.0
 10
128.4812767759613
 20
106.9573475630776
 30
0.0
 10
128.3828197738626
 20
107.0923801799314
 30
0.0
 10
128.2134612601276
 20
107.3843845779861
 30
0.0
 10
128.1452944224217
 20
107.5365203244217
 30
0.0
 10
128.0415604560953
 20
107.8529292728617
 30
0.0
 10
128.0058918942261
 20
108.019425742216
 30
0.0
 10
127.9716781295736
 20
108.3526876183265
 30
0.0
 10
127.9725365324027
 20
108.5193500721483
 30
0.0
 10
128.0103333123523
 20
108.8527382713659
 30
0.0
 10
128.0476760678063
 20
109.0184938438454
 30
0.0
 10
128.1549256508748
 20
109.3343851603081
 30
0.0
 10
128.2256868674139
 20
109.4876644933802
 30
0.0
 10
128.3978100175146
 20
109.7770415358667
 30
0.0
 10
128.4980403671439
 20
109.9117630417921
 30
0.0
 10
128.7255407137322
 20
110.1611095836528
 30
0.0
  0
CIRCLE
  5
18C
330
1F
100
AcDbEntity
  8
0
  6
HIDDEN
 62
     7
370
     0
100
AcDbCircle
 10
130.5442682392
 20
108.4237840031
 30
0.0
 40
2.299999999999997
  0
LINE
  5
18D
330
1F
100
AcDbEntity
  8
0
  6
HIDDEN
 62
     7
370
     0
100
AcDbLine
 10
245.8389472849
 20
114.1237840992
 30
0.0
 11
243.9868000037
 21
108.4237840031
 31
0.0
  0
CIRCLE
  5
18E
330
1F
100
AcDbEntity
  8
0
  6
HIDDEN
 62
     7
370
     0
100
AcDbCircle
 10
154.0442682392
 20
108.4237840031
 30
0.0
 40
2.0
  0
LINE
  5
18F
330
1F
100
AcDbEntity
  8
0
  6
HIDDEN
 62
     7
370
     0
100
AcDbLine
 10
142.0442682392
 20
92.6237847661
 30
0.0
 11
142.1371614596
 21
92.7166767423
 31
0.0
  0
LINE
  5
190
330
1F
100
AcDbEntity
  8
0
  6
HIDDEN
 62
     7
370
     0
100
AcDbLine
 10
142.1371614596
 20
124.130891264
 30
0.0
 11
142.0442682392
 21
124.2237832402
 31
0.0
  0
ARC
  5
191
330
1F
100
AcDbEntity
  8
0
  6
HIDDEN
 62
     7
370
     0
100
AcDbCircle
 10
141.4300546768
 20
93.4237840031
 30
0.0
 40
1.000000000000008
100
AcDbArc
 50
315.0
 51
0.0
  0
ARC
  5
192
330
1F
100
AcDbEntity
  8
0
  6
HIDDEN
 62
     7
370
     0
100
AcDbCircle
 10
141.4300546768
 20
93.4237840031
 30
0.0
 40
1.0
100
AcDbArc
 50
0.0
 51
52.1052014664
  0
ARC
  5
193
330
1F
100
AcDbEntity
  8
0
  6
HIDDEN
 62
     7
370
     0
100
AcDbCircle
 10
141.4300546768
 20
123.4237840031
 30
0.0
 40
1.000000000000008
100
AcDbArc
 50
351.8087250651
 51
45.0
  0
ARC
  5
194
330
1F
100
AcDbEntity
  8
0
  6
HIDDEN
 62
     7
370
     0
100
AcDbCircle
 10
141.4300546768
 20
123.4237840031
 30
0.0
 40
0.9999999999999877
100
AcDbArc
 50
307.8947985336
 51
351.8087250651
  0
LINE
  5
195
330
1F
100
AcDbEntity
  8
0
  6
HIDDEN
 62
     7
370
     0
100
AcDbLine
 10
142.430054675
 20
93.4237843384
 30
0.0
 11
142.430054675
 21
123.4237836679
 31
0.0
  0
LINE
  5
196
330
1F
100
AcDbEntity
  8
0
  6
HIDDEN
 62
     7
370
     0
100
AcDbLine
 10
142.430054675
 20
93.4237843384
 30
0.0
 11
142.430054675
 21
123.4237836679
 31
0.0
  0
LINE
  5
197
330
1F
100
AcDbEntity
  8
0
  6
HIDDEN
 62
     7
370
     0
100
AcDbLine
 10
221.1602029092
 20
118.7736090277
 30
0.0
 11
211.4994969852
 21
114.0810112474
 31
0.0
  0
LINE
  5
198
330
1F
100
AcDbEntity
  8
0
  6
HIDDEN
 62
     7
370
     0
100
AcDbLine
 10
213.5797959454
 20
110.4222297208
 30
0.0
 11
221.3210758454
 21
114.1824848955
 31
0.0
  0
LINE
  5
199
330
1F
100
AcDbEntity
  8
0
  6
HIDDEN
 62
     7
370
     0
100
AcDbLine
 10
214.1442668325
 20
109.7329641697
 30
0.0
 11
214.1442668325
 21
111.3884603609
 31
0.0
  0
LINE
  5
19A
330
1F
100
AcDbEntity
  8
0
  6
HIDDEN
 62
     7
370
     0
100
AcDbLine
 10
209.9442702419
 20
112.4410048132
 30
0.0
 11
209.9442702419
 21
109.7345155203
 31
0.0
  0
LINE
  5
19B
330
1F
100
AcDbEntity
  8
0
  6
HIDDEN
 62
     7
370
     0
100
AcDbLine
 10
118.0442680306
 20
98.2681332161
 30
0.0
 11
119.0713007636
 21
98.8610904669
 31
0.0
  0
LINE
  5
19C
330
1F
100
AcDbEntity
  8
0
  6
HIDDEN
 62
     7
370
     0
100
AcDbLine
 10
119.0713007636
 20
117.9864775394
 30
0.0
 11
118.0442680306
 21
118.5794347902
 31
0.0
  0
LINE
  5
19D
330
1F
100
AcDbEntity
  8
0
  6
HIDDEN
 62
     7
370
     0
100
AcDbLine
 10
123.5442680008
 20
98.4237842267
 30
0.0
 11
124.5570868886
 21
98.4237842267
 31
0.0
  0
LINE
  5
19E
330
1F
100
AcDbEntity
  8
0
  6
HIDDEN
 62
     7
370
     0
100
AcDbLine
 10
124.5570868886
 20
118.4237837796
 30
0.0
 11
123.5442680008
 21
118.4237837796
 31
0.0
  0
ARC
  5
19F
330
1F
100
AcDbEntity
  8
0
  6
HIDDEN
 62
     7
370
     0
100
AcDbCircle
 10
124.5570867089
 20
99.4237840031
 30
0.0
 40
1.000000000000018
100
AcDbArc
 50
270.0
 51
315.0
  0
ARC
  5
1A0
330
1F
100
AcDbEntity
  8
0
  6
HIDDEN
 62
     7
370
     0
100
AcDbCircle
 10
124.5570867089
 20
117.4237840031
 30
0.0
 40
1.000000000000018
100
AcDbArc
 50
45.0
 51
90.0
  0
ARC
  5
1A1
330
1F
100
AcDbEntity
  8
0
  6
HIDDEN
 62
     7
370
     0
100
AcDbCircle
 10
123.5442682392
 20
99.4237840031
 30
0.0
 40
1.0
100
AcDbArc
 50
193.3524261238
 51
270.0
  0
ARC
  5
1A2
330
1F
100
AcDbEntity
  8
0
  6
HIDDEN
 62
     7
370
     0
100
AcDbCircle
 10
123.5442682392
 20
117.4237840031
 30
0.0
 40
1.0
100
AcDbArc
 50
90.0
 51
166.6475738762
  0
LINE
  5
1A3
330
1F
100
AcDbEntity
  8
0
  6
HIDDEN
 62
     7
370
     0
100
AcDbLine
 10
125.2641935534
 20
98.7166767945
 30
0.0
 11
125.9713002182
 21
99.4237843906
 31
0.0
  0
LINE
  5
1A4
330
1F
100
AcDbEntity
  8
0
  6
HIDDEN
 62
     7
370
     0
100
AcDbLine
 10
125.9713002182
 20
117.4237836157
 30
0.0
 11
125.2641935534
 21
118.1308912118
 31
0.0
  0
LINE
  5
1A5
330
1F
100
AcDbEntity
  8
0
  6
HIDDEN
 62
     7
370
     0
100
AcDbLine
 10
119.0713007636
 20
98.8610904669
 30
0.0
 11
121.1713009215
 21
99.4237843906
 31
0.0
  0
LINE
  5
1A6
330
1F
100
AcDbEntity
  8
0
  6
HIDDEN
 62
     7
370
     0
100
AcDbLine
 10
121.1713009215
 20
117.4237836157
 30
0.0
 11
119.0713007636
 21
117.9864775394
 31
0.0
  0
LINE
  5
1A7
330
1F
100
AcDbEntity
  8
0
  6
HIDDEN
 62
     7
370
     0
100
AcDbLine
 10
122.5713004059
 20
117.6547236745
 30
0.0
 11
122.1713010854
 21
117.4237836157
 31
0.0
  0
LINE
  5
1A8
330
1F
100
AcDbEntity
  8
0
  6
HIDDEN
 62
     7
370
     0
100
AcDbLine
 10
122.1713010854
 20
99.4237843906
 30
0.0
 11
122.5713004059
 21
99.1928443317
 31
0.0
  0
ARC
  5
1A9
330
1F
100
AcDbEntity
  8
0
  6
HIDDEN
 62
     7
370
     0
100
AcDbCircle
 10
132.5442682392
 20
99.9237840031
 30
0.0
 40
0.5000000000000142
100
AcDbArc
 50
270.0
 51
360.0
  0
ARC
  5
1AA
330
1F
100
AcDbEntity
  8
0
  6
HIDDEN
 62
     7
370
     0
100
AcDbCircle
 10
132.5442682392
 20
116.9237840031
 30
0.0
 40
0.5000000000000142
100
AcDbArc
 50
0.0
 51
90.0
  0
LINE
  5
1AB
330
1F
100
AcDbEntity
  8
0
  6
HIDDEN
 62
     7
370
     0
100
AcDbLine
 10
121.1713009215
 20
99.4237843906
 30
0.0
 11
122.1713010854
 21
99.4237843906
 31
0.0
  0
LINE
  5
1AC
330
1F
100
AcDbEntity
  8
0
  6
HIDDEN
 62
     7
370
     0
100
AcDbLine
 10
122.1713010854
 20
117.4237836157
 30
0.0
 11
121.1713009215
 21
117.4237836157
 31
0.0
  0
LINE
  5
1AD
330
1F
100
AcDbEntity
  8
0
  6
HIDDEN
 62
     7
370
     0
100
AcDbLine
 10
125.9713002182
 20
99.4237843906
 30
0.0
 11
132.5442685447
 21
99.4237843906
 31
0.0
  0
LINE
  5
1AE
330
1F
100
AcDbEntity
  8
0
  6
HIDDEN
 62
     7
370
     0
100
AcDbLine
 10
132.5442685447
 20
117.4237836157
 30
0.0
 11
125.9713002182
 21
117.4237836157
 31
0.0
  0
LINE
  5
1AF
330
1F
100
AcDbEntity
  8
0
  6
HIDDEN
 62
     7
370
     0
100
AcDbLine
 10
133.0442686266
 20
101.2737840419
 30
0.0
 11
133.9442680291
 21
102.17378391
 31
0.0
  0
LINE
  5
1B0
330
1F
100
AcDbEntity
  8
0
  6
HIDDEN
 62
     7
370
     0
100
AcDbLine
 10
133.9442680291
 20
114.6737840963
 30
0.0
 11
133.0442686266
 21
115.5737839644
 31
0.0
  0
LINE
  5
1B1
330
1F
100
AcDbEntity
  8
0
  6
HIDDEN
 62
     7
370
     0
100
AcDbLine
 10
239.4136485345
 20
104.6633008872
 30
0.0
 11
239.8400601632
 21
105.5068090563
 31
0.0
  0
LINE
  5
1B2
330
1F
100
AcDbEntity
  8
0
  6
HIDDEN
 62
     7
370
     0
100
AcDbLine
 10
233.5929345972
 20
108.6648783884
 30
0.0
 11
233.1665229685
 21
107.8213702194
 31
0.0
  0
LINE
  5
1B3
330
1F
100
AcDbEntity
  8
0
  6
HIDDEN
 62
     7
370
     0
100
AcDbLine
 10
153.0442681796
 20
102.17378391
 30
0.0
 11
154.2459890879
 21
104.1737837722
 31
0.0
  0
LINE
  5
1B4
330
1F
100
AcDbEntity
  8
0
  6
HIDDEN
 62
     7
370
     0
100
AcDbLine
 10
154.2459890879
 20
112.6737842341
 30
0.0
 11
153.0442681796
 21
114.6737840963
 31
0.0
  0
LINE
  5
1B5
330
1F
100
AcDbEntity
  8
0
  6
HIDDEN
 62
     7
370
     0
100
AcDbLine
 10
133.9442680291
 20
102.17378391
 30
0.0
 11
153.0442681796
 21
102.17378391
 31
0.0
  0
LINE
  5
1B6
330
1F
100
AcDbEntity
  8
0
  6
HIDDEN
 62
     7
370
     0
100
AcDbLine
 10
153.0442681796
 20
114.6737840963
 30
0.0
 11
133.9442680291
 21
114.6737840963
 31
0.0
  0
LINE
  5
1B7
330
1F
100
AcDbEntity
  8
0
  6
HIDDEN
 62
     7
370
     0
100
AcDbLine
 10
230.2986678369
 20
114.6933889021
 30
0.0
 11
229.3349128849
 21
112.7869441179
 31
0.0
  0
LINE
  5
1B8
330
1F
100
AcDbEntity
  8
0
  6
HIDDEN
 62
     7
370
     0
100
AcDbLine
 10
154.2459890879
 20
104.1737837722
 30
0.0
 11
217.0442712194
 21
104.1737837722
 31
0.0
  0
LINE
  5
1B9
330
1F
100
AcDbEntity
  8
0
  6
HIDDEN
 62
     7
370
     0
100
AcDbLine
 10
217.0442712194
 20
112.6737842341
 30
0.0
 11
154.2459890879
 21
112.6737842341
 31
0.0
  0
LINE
  5
1BA
330
1F
100
AcDbEntity
  8
0
  6
HIDDEN
 62
     7
370
     0
100
AcDbLine
 10
217.0442712194
 20
104.1737837722
 30
0.0
 11
219.5979279167
 21
108.4237840031
 31
0.0
  0
LINE
  5
1BB
330
1F
100
AcDbEntity
  8
0
  6
HIDDEN
 62
     7
370
     0
100
AcDbLine
 10
219.5979279167
 20
108.4237840031
 30
0.0
 11
217.0442712194
 21
112.6737842341
 31
0.0
  0
LINE
  5
1BC
330
1F
100
AcDbEntity
  8
0
  6
HIDDEN
 62
     7
370
     0
100
AcDbLine
 10
239.1586896665
 20
106.9211618514
 30
0.0
 11
242.3507046587
 21
114.1812019986
 31
0.0
  0
LINE
  5
1BD
330
1F
100
AcDbEntity
  8
0
  6
HIDDEN
 62
     7
370
     0
100
AcDbLine
 10
238.2681068666
 20
100.8456732151
 30
0.0
 11
239.9943989403
 21
104.2605248285
 31
0.0
  0
LINE
  5
1BE
330
1F
100
AcDbEntity
  8
0
  6
HIDDEN
 62
     7
370
     0
100
AcDbLine
 10
232.4978408105
 20
108.0502080212
 30
0.0
 11
230.6300696618
 21
104.3554801499
 31
0.0
  0
LINE
  5
1BF
330
1F
100
AcDbEntity
  8
0
  6
HIDDEN
 62
     7
370
     0
100
AcDbLine
 10
214.1442668325
 20
105.3336140239
 30
0.0
 11
214.1442668325
 21
107.113052486
 31
0.0
  0
LINE
  5
1C0
330
1F
100
AcDbEntity
  8
0
  6
HIDDEN
 62
     7
370
     0
100
AcDbLine
 10
209.9442702419
 20
107.1146038366
 30
0.0
 11
209.9442702419
 21
105.3336140239
 31
0.0
  0
LINE
  5
1C1
330
1F
100
AcDbEntity
  8
0
  6
HIDDEN
 62
     7
370
     0
100
AcDbLine
 10
238.7406822927
 20
120.630655997
 30
0.0
 11
238.1344210989
 21
119.4313742225
 31
0.0
  0
LINE
  5
1C2
330
1F
100
AcDbEntity
  8
0
  6
HIDDEN
 62
     7
370
     0
100
AcDbLine
 10
243.846080888
 20
116.5439967071
 30
0.0
 11
244.4523420817
 21
117.7432784815
 31
0.0
  0
LINE
  5
1C3
330
1F
100
AcDbEntity
  8
0
  6
HIDDEN
 62
     7
370
     0
100
AcDbLine
 10
238.2728007323
 20
117.827550136
 30
0.0
 11
235.794059623
 21
112.1898098854
 31
0.0
  0
LINE
  5
1C4
330
1F
100
AcDbEntity
  8
0
  6
HIDDEN
 62
     7
370
     0
100
AcDbLine
 10
214.5442661531
 20
103.4796704543
 30
0.0
 11
214.5442661531
 21
105.2886248571
 31
0.0
  0
LINE
  5
1C5
330
1F
100
AcDbEntity
  8
0
  6
HIDDEN
 62
     7
370
     0
100
AcDbLine
 10
209.5442709214
 20
105.2886248571
 30
0.0
 11
209.5442709214
 21
103.480996192
 31
0.0
  0
LINE
  5
1C6
330
1F
100
AcDbEntity
  8
VERMASSUNG
  6
CENTERX2
100
AcDbLine
 10
115.9672157126
 20
108.4237840031
 30
0.0
 11
252.0442682392
 21
108.4237840031
 31
0.0
  0
LINE
  5
1C7
330
1F
100
AcDbEntity
  8
VERMASSUNG
  6
CENTERX2
100
AcDbLine
 10
252.0442682392
 20
108.4237840031
 30
0.0
 11
252.0442682392
 21
130.4237840031
 31
0.0
  0
LINE
  5
1C8
330
1F
100
AcDbEntity
  8
VERMASSUNG
  6
CENTERX2
100
AcDbLine
 10
252.0442682392
 20
130.4237840031
 30
0.0
 11
271.809970975
 21
130.4237840031
 31
0.0
  0
DIMENSION
  5
1C9
330
1F
100
AcDbEntity
  8
VERMASSUNG
100
AcDbDimension
  2
_D
 10
270.3838282369
 20
130.4237840031
 30
0.0
 11
270.3838282369
 21
119.4237840031
 31
0.0
 70
   160
  1
<>
 71
     2
 42
-1.0
  3
SLDDIMSTYLE0
100
AcDbAlignedDimension
 13
252.0442682392
 23
108.4237840031
 33
0.0
 14
252.0442682392
 24
130.4237840031
 34
0.0
 50
90.0
100
AcDbRotatedDimension
  0
DIMENSION
  5
1D4
330
1F
100
AcDbEntity
  8
VERMASSUNG
100
AcDbDimension
  2
_D_1
 10
252.0442682392
 20
130.4237840031
 30
0.0
 11
259.2319909625
 21
120.8173307681
 31
0.0
 70
   162
  1
<>
 71
     1
 42
-1.0
  3
SLDDIMSTYLE1
100
AcDb2LineAngularDimension
 13
252.0276720257
 23
129.9109651113
 33
0.0
 14
247.772929474
 24
116.4243342267
 34
0.0
 15
271.809970975
 25
130.4237840031
 35
0.0
 16
259.2319909625
 26
120.8173307681
 36
0.0
  0
DIMENSION
  5
1DD
330
1F
100
AcDbEntity
  8
VERMASSUNG
100
AcDbDimension
  2
_D_2
 10
252.0442682392
 20
144.2044228888
 30
0.0
 11
185.0442682392
 21
144.2044228888
 31
0.0
 70
   160
  1
<>
 71
     2
 42
-1.0
  3
SLDDIMSTYLE0
100
AcDbAlignedDimension
 13
118.0442682392
 23
121.0552889852
 33
0.0
 14
252.0442682392
 24
130.4237840031
 34
0.0
100
AcDbRotatedDimension
  0
DIMENSION
  5
1E7
330
1F
100
AcDbEntity
  8
VERMASSUNG
100
AcDbDimension
  2
_D_3
 10
142.0442682392
 20
136.6900868127
 30
0.0
 11
197.0442682392
 21
136.6900868127
 31
0.0
 70
   160
  1
<>
 71
     2
 42
-1.0
  3
SLDDIMSTYLE0
100
AcDbAlignedDimension
 13
252.0442682392
 23
130.4237840031
 33
0.0
 14
142.0442682392
 24
128.1237840031
 34
0.0
 50
0.0
100
AcDbRotatedDimension
  0
DIMENSION
  5
1F1
330
1F
100
AcDbEntity
  8
VERMASSUNG
100
AcDbDimension
  2
_D_4
 10
179.7126056547
 20
124.4237840031
 30
0.0
 11
179.7126056547
 21
117.182960664
 31
0.0
 70
   160
  1
%%c<>
 71
     2
 42
-1.0
  3
SLDDIMSTYLE0
100
AcDbAlignedDimension
 13
164.0442682392
 23
92.4237840031
 33
0.0
 14
164.0442682392
 24
124.4237840031
 34
0.0
 50
90.0
100
AcDbRotatedDimension
  0
DIMENSION
  5
1FA
330
1F
100
AcDbEntity
  8
VERMASSUNG
100
AcDbDimension
  2
_D_5
 10
112.223277136
 20
88.4237840031
 30
0.0
 11
112.223277136
 21
108.4237840031
 31
0.0
 70
   160
  1
PSC%%c<>
 71
     2
 42
-1.0
  3
SLDDIMSTYLE0
100
AcDbAlignedDimension
 13
142.3442682392
 23
128.4237840031
 33
0.0
 14
142.3442682392
 24
88.4237840031
 34
0.0
 50
90.0
100
AcDbRotatedDimension
  0
LINE
  5
206
330
1F
100
AcDbEntity
  8
0
  6
Continuous
 62
     7
370
    15
100
AcDbLine
 10
57.3560909198
 20
110.7590129604
 30
0.0
 11
57.1168755943
 21
110.6017791671
 31
0.0
  0
LINE
  5
207
330
1F
100
AcDbEntity
  8
0
  6
Continuous
 62
     7
370
    15
100
AcDbLine
 10
55.6695546785
 20
103.7926702765
 30
0.0
 11
55.8241365308
 21
103.5517324698
 31
0.0
  0
LINE
  5
208
330
1F
100
AcDbEntity
  8
0
  6
Continuous
 62
     7
370
    15
100
AcDbLine
 10
71.4679757895
 20
128.2193992292
 30
0.0
 11
68.799841387
 21
128.786528111
 31
0.0
  0
LINE
  5
209
330
1F
100
AcDbEntity
  8
0
  6
Continuous
 62
     7
370
    15
100
AcDbLine
 10
71.7041554691
 20
127.8585322206
 30
0.0
 11
71.4775702746
 21
128.2116971915
 31
0.0
  0
LINE
  5
20A
330
1F
100
AcDbEntity
  8
0
  6
Continuous
 62
     7
370
    15
100
AcDbLine
 10
68.8271989876
 20
129.1127480571
 30
0.0
 11
62.6499874471
 21
130.4257545625
 31
0.0
  0
LINE
  5
20B
330
1F
100
AcDbEntity
  8
0
  6
Continuous
 62
     7
370
    15
100
AcDbLine
 10
61.9924932199
 20
127.6883479212
 30
0.0
 11
61.5055126201
 21
127.1369230007
 31
0.0
  0
LINE
  5
20C
330
1F
100
AcDbEntity
  8
0
  6
Continuous
 62
     7
370
    15
100
AcDbLine
 10
57.9264407808
 20
115.3927851473
 30
0.0
 11
58.1889834085
 21
114.5575028849
 31
0.0
  0
LINE
  5
20D
330
1F
100
AcDbEntity
  8
0
  6
Continuous
 62
     7
370
    15
100
AcDbLine
 10
56.8191923031
 20
112.0960403704
 30
0.0
 11
57.1271881291
 21
112.0305737485
 31
0.0
  0
LINE
  5
20E
330
1F
100
AcDbEntity
  8
0
  6
Continuous
 62
     7
370
    15
100
AcDbLine
 10
60.2803967723
 20
122.8314187382
 30
0.0
 11
59.9668910091
 21
122.8822577749
 31
0.0
  0
LINE
  5
20F
330
1F
100
AcDbEntity
  8
0
  6
Continuous
 62
     7
370
    15
100
AcDbLine
 10
58.9905529579
 20
118.279187568
 30
0.0
 11
59.0681169943
 21
118.2666091253
 31
0.0
  0
LINE
  5
210
330
1F
100
AcDbEntity
  8
0
  6
Continuous
 62
     7
370
    15
100
AcDbLine
 10
79.2024812491
 20
114.1237840992
 30
0.0
 11
79.2024812491
 21
108.4237840031
 31
0.0
  0
ARC
  5
211
330
1F
100
AcDbEntity
  8
0
  6
Continuous
 62
     7
370
    15
100
AcDbCircle
 10
62.7024813385
 20
108.4237840031
 30
0.0
 40
16.50000000000001
100
AcDbArc
 50
238.5338854986
 51
0.0
  0
LINE
  5
212
330
1F
100
AcDbEntity
  8
0
  6
Continuous
 62
     7
370
    15
100
AcDbLine
 10
54.0895766409
 20
94.3501252686
 30
0.0
 11
59.4328073149
 21
116.0304337745
 31
0.0
  0
LINE
  5
213
330
1F
100
AcDbEntity
  8
0
  6
Continuous
 62
     7
370
    15
100
AcDbLine
 10
59.4328073149
 20
116.0304337745
 30
0.0
 11
68.4019240381
 21
114.1239889902
 31
0.0
  0
LINE
  5
214
330
1F
100
AcDbEntity
  8
0
  6
Continuous
 62
     7
370
    15
100
AcDbLine
 10
68.4019240381
 20
114.1239889902
 30
0.0
 11
68.5026181692
 21
114.532559738
 31
0.0
  0
LINE
  5
215
330
1F
100
AcDbEntity
  8
0
  6
Continuous
 62
     7
370
    15
100
AcDbLine
 10
73.6357743682
 20
126.7047148203
 30
0.0
 11
71.6169827448
 21
127.1338216965
 31
0.0
  0
ARC
  5
216
330
1F
100
AcDbEntity
  8
0
  6
Continuous
 62
     7
370
    15
100
AcDbCircle
 10
62.2024813385
 20
114.1237840031
 30
0.0
 40
17.00000000000001
100
AcDbArc
 50
0.0
 51
47.7360794787
  0
LINE
  5
217
330
1F
100
AcDbEntity
  8
0
  6
Continuous
 62
     7
370
    15
100
AcDbLine
 10
71.71400048
 20
127.7764417236
 30
0.0
 11
72.5736326368
 21
127.5937218224
 31
0.0
  0
ARC
  5
218
330
1F
100
AcDbEntity
  8
0
  6
Continuous
 62
     7
370
    15
100
AcDbCircle
 10
62.2024813385
 20
114.1237840031
 30
0.0
 40
17.00000000000001
100
AcDbArc
 50
47.7360794787
 51
52.405600688
  0
LWPOLYLINE
  5
219
330
1F
100
AcDbEntity
  8
0
  6
Continuous
 62
     7
370
    15
100
AcDbPolyline
 90
        5
 70
   128
 43
0.0
 10
56.9810114631
 20
111.7769822949
 10
56.899850426
 20
111.6913686046
 10
56.8535907024
 20
111.7722064727
 10
56.8459804
 20
112.0129466062
 10
56.8498509766
 20
112.0895236735
  0
ARC
  5
21A
330
1F
100
AcDbEntity
  8
0
  6
Continuous
 62
     7
370
    15
100
AcDbCircle
 10
70.0850544619
 20
111.0370007882
 30
0.0
 40
13.2703148026526
100
AcDbArc
 50
159.8669706968
 51
172.4431375739
  0
ARC
  5
21B
330
1F
100
AcDbEntity
  8
0
  6
Continuous
 62
     7
370
    15
100
AcDbCircle
 10
62.7024813385
 20
108.4237840031
 30
0.0
 40
16.50000000000002
100
AcDbArc
 50
233.0790503467
 51
238.5338854986
  0
SPLINE
  5
21C
330
1F
100
AcDbEntity
  8
0
  6
Continuous
 62
     7
370
    15
100
AcDbSpline
210
0.0
220
0.0
230
1.0
 70
     8
 71
     3
 72
     8
 73
     4
 74
     0
 42
0.00000001
 43
0.00000001
 12
1.0
 22
0.0
 32
0.0
 13
1.0
 23
0.0
 33
0.0
 40
0.0
 40
0.0
 40
0.0
 40
0.0
 40
1.0
 40
1.0
 40
1.0
 40
1.0
 10
52.79072373184741
 20
95.23261039551448
 30
0.0
 10
52.80016508389575
 20
95.31196767210284
 30
0.0
 10
52.80962929688447
 20
95.39139296158397
 30
0.0
 10
52.81911733620606
 20
95.47088913606788
 30
0.0
  0
SPLINE
  5
21D
330
1F
100
AcDbEntity
  8
0
  6
Continuous
 62
     7
370
    15
100
AcDbSpline
210
0.0
220
0.0
230
1.0
 70
     8
 71
     3
 72
    10
 73
     6
 74
     0
 42
0.00000001
 43
0.00000001
 12
1.0
 22
0.0
 32
0.0
 13
1.0
 23
0.0
 33
0.0
 40
0.0
 40
0.0
 40
0.0
 40
0.0
 40
0.5
 40
0.5
 40
1.0
 40
1.0
 40
1.0
 40
1.0
 10
52.81911733620606
 20
95.47088913606788
 30
0.0
 10
52.83147660319902
 20
95.57444208437074
 30
0.0
 10
52.83843223802783
 20
95.66115490227176
 30
0.0
 10
52.83977048760966
 20
95.78951133308104
 30
0.0
 10
52.83409189262737
 20
95.82953344699088
 30
0.0
 10
52.82147497781381
 20
95.83944002740266
 30
0.0
  0
ARC
  5
21E
330
1F
100
AcDbEntity
  8
0
  6
Continuous
 62
     7
370
    15
100
AcDbCircle
 10
62.7024813385
 20
108.4237840031
 30
0.0
 40
16.00000000000003
100
AcDbArc
 50
231.2161674873
 51
231.8616180582
  0
ARC
  5
21F
330
1F
100
AcDbEntity
  8
0
  6
Continuous
 62
     7
370
    15
100
AcDbCircle
 10
62.7024813385
 20
108.4237840031
 30
0.0
 40
16.00000000000002
100
AcDbArc
 50
104.1383819418
 51
104.7838325127
  0
SPLINE
  5
220
330
1F
100
AcDbEntity
  8
0
  6
Continuous
 62
     7
370
    15
100
AcDbSpline
210
0.0
220
0.0
230
1.0
 70
     8
 71
     3
 72
     8
 73
     4
 74
     0
 42
0.00000001
 43
0.00000001
 12
1.0
 22
0.0
 32
0.0
 13
1.0
 23
0.0
 33
0.0
 40
0.0
 40
0.0
 40
0.0
 40
0.0
 40
1.0
 40
1.0
 40
1.0
 40
1.0
 10
58.79424668476017
 20
123.9391216369454
 30
0.0
 10
58.82531039919751
 20
123.9469464286517
 30
0.0
 10
58.88040447457075
 20
124.0777224391796
 30
0.0
 10
58.94199602432263
 20
124.2767685688666
 30
0.0
  0
SPLINE
  5
221
330
1F
100
AcDbEntity
  8
0
  6
Continuous
 62
     7
370
    15
100
AcDbSpline
210
0.0
220
0.0
230
1.0
 70
     8
 71
     3
 72
     8
 73
     4
 74
     0
 42
0.00000001
 43
0.00000001
 12
1.0
 22
0.0
 32
0.0
 13
1.0
 23
0.0
 33
0.0
 40
0.0
 40
0.0
 40
0.0
 40
0.0
 40
1.0
 40
1.0
 40
1.0
 40
1.0
 10
58.94199602432272
 20
124.2767685688674
 30
0.0
 10
59.11876021301955
 20
124.8480194591129
 30
0.0
 10
59.29513366158707
 20
125.415152962296
 30
0.0
 10
59.47121707430904
 20
125.9792302402577
 30
0.0
  0
LINE
  5
222
330
1F
100
AcDbEntity
  8
0
  6
Continuous
 62
     7
370
    15
100
AcDbLine
 10
60.0300726311
 20
125.8604411041
 30
0.0
 11
59.4712171534
 21
125.9792294358
 31
0.0
  0
ARC
  5
223
330
1F
100
AcDbEntity
  8
0
  6
Continuous
 62
     7
370
    15
100
AcDbCircle
 10
60.0917700469
 20
126.1663506531
 30
0.0
 40
0.3120692604314239
100
AcDbArc
 50
258.5972587757
 51
281.3507313823
  0
LWPOLYLINE
  5
224
330
1F
100
AcDbEntity
  8
0
  6
Continuous
 62
     7
370
    15
100
AcDbPolyline
 90
       33
 70
   128
 43
0.0
 10
57.262473909
 20
111.1018204601
 10
57.3262816125
 20
111.0096819238
 10
57.3556774126
 20
110.7707252731
 10
57.3495316149
 20
110.394134047
 10
57.3080807754
 20
109.8943799506
 10
57.2329174557
 20
109.2906686016
 10
57.1269301528
 20
108.6062000749
 10
56.9941920058
 20
107.8672781941
 10
56.8398043343
 20
107.1022993191
 10
56.6696996631
 20
106.3406612729
 10
56.4904154108
 20
105.6116331373
 10
56.3088410364
 20
104.9432310746
 10
56.1319544741
 20
104.3611416598
 10
55.9665539132
 20
103.887734097
 10
55.8189946988
 20
103.5412010742
 10
55.6949476542
 20
103.3348595728
 10
55.5991806851
 20
103.2766398047
 10
55.5353729816
 20
103.368778341
 10
55.5059771815
 20
103.6077347589
 10
55.5121229792
 20
103.9843262178
 10
55.5535738186
 20
104.4840804306
 10
55.6287371384
 20
105.0877916631
 10
55.7347244413
 20
105.7722602044
 10
55.8674625882
 20
106.5111820125
 10
56.0218502597
 20
107.2761608292
 10
56.191954931
 20
108.037799021
 10
56.3712391832
 20
108.7668271856
 10
56.5528135577
 20
109.4352291902
 10
56.7296996543
 20
110.017318605
 10
56.8951006809
 20
110.4907261678
 10
57.0426598953
 20
110.8372591906
 10
57.1667069399
 20
111.0436004591
 10
57.262473909
 20
111.1018204601
  0
LINE
  5
225
330
1F
100
AcDbEntity
  8
0
  6
Continuous
 62
     7
370
    15
100
AcDbLine
 10
59.4328073149
 20
116.0304337745
 30
0.0
 11
56.9810114631
 21
111.7769822949
 31
0.0
  0
SPLINE
  5
226
330
1F
100
AcDbEntity
  8
0
  6
Continuous
 62
     7
370
    15
100
AcDbSpline
210
0.0
220
0.0
230
1.0
 70
     8
 71
     3
 72
    24
 73
    20
 74
     0
 42
0.00000001
 43
0.00000001
 12
1.0
 22
0.0
 32
0.0
 13
1.0
 23
0.0
 33
0.0
 40
0.0
 40
0.0
 40
0.0
 40
0.0
 40
0.1250000000000006
 40
0.1250000000000006
 40
0.2500000000000012
 40
0.2500000000000012
 40
0.3750000000000018
 40
0.3750000000000018
 40
0.437500000000001
 40
0.437500000000001
 40
0.5000000000000002
 40
0.5000000000000002
 40
0.6250000000000002
 40
0.6250000000000002
 40
0.7500000000000002
 40
0.7500000000000002
 40
0.8750000000000003
 40
0.8750000000000003
 40
1.0
 40
1.0
 40
1.0
 40
1.0
 10
55.21888060292042
 20
118.5100516052691
 30
0.0
 10
55.40052447903454
 20
118.394678263219
 30
0.0
 10
55.55886466596144
 20
118.2613973054308
 30
0.0
 10
55.82752891664142
 20
117.9491944327732
 30
0.0
 10
55.93216418592277
 20
117.7762044410126
 30
0.0
 10
56.07092393936971
 20
117.3869542232612
 30
0.0
 10
56.10156901399109
 20
117.1727152785406
 30
0.0
 10
56.08768427689582
 20
116.8438423839242
 30
0.0
 10
56.07367382294929
 20
116.7350684494316
 30
0.0
 10
56.03020558795838
 20
116.518861605538
 30
0.0
 10
56.0005354979275
 20
116.4112256391817
 30
0.0
 10
55.89555544852033
 20
116.1005771185344
 30
0.0
 10
55.80353278845574
 20
115.9042820248228
 30
0.0
 10
55.58867441611368
 20
115.5326158871464
 30
0.0
 10
55.46767800824942
 20
115.360425482566
 30
0.0
 10
55.19862530279703
 20
115.0389256852114
 30
0.0
 10
55.04932237447431
 20
114.8885944285287
 30
0.0
 10
54.7207299546205
 20
114.620157957693
 30
0.0
 10
54.54373895967141
 20
114.5031006483756
 30
0.0
 10
54.34747344229935
 20
114.4104032397958
 30
0.0
  0
SPLINE
  5
227
330
1F
100
AcDbEntity
  8
0
  6
Continuous
 62
     7
370
    15
100
AcDbSpline
210
0.0
220
0.0
230
1.0
 70
     8
 71
     3
 72
    14
 73
    10
 74
     0
 42
0.00000001
 43
0.00000001
 12
1.0
 22
0.0
 32
0.0
 13
1.0
 23
0.0
 33
0.0
 40
0.0
 40
0.0
 40
0.0
 40
0.0
 40
0.25
 40
0.25
 40
0.5
 40
0.5
 40
0.75
 40
0.75
 40
1.0
 40
1.0
 40
1.0
 40
1.0
 10
52.68033932186938
 20
95.95154806093294
 30
0.0
 10
52.6503620182984
 20
95.97563650786877
 30
0.0
 10
52.57522988919207
 20
96.03583404528163
 30
0.0
 10
52.34462380536591
 20
96.22799319650525
 30
0.0
 10
52.19372992322678
 20
96.35637573592034
 30
0.0
 10
51.84083013474982
 20
96.67300821071589
 30
0.0
 10
51.64384653548309
 20
96.85692940972218
 30
0.0
 10
51.22852911094017
 20
97.26878740200122
 30
0.0
 10
51.01592430370201
 20
97.49094239860453
 30
0.0
 10
50.80178192432944
 20
97.7292361654311
 30
0.0
  0
SPLINE
  5
228
330
1F
100
AcDbEntity
  8
0
  6
Continuous
 62
     7
370
    15
100
AcDbSpline
210
0.0
220
0.0
230
1.0
 70
     8
 71
     3
 72
    18
 73
    14
 74
     0
 42
0.00000001
 43
0.00000001
 12
1.0
 22
0.0
 32
0.0
 13
1.0
 23
0.0
 33
0.0
 40
0.0
 40
0.0
 40
0.0
 40
0.0
 40
0.2500000000000006
 40
0.2500000000000006
 40
0.3750000000000004
 40
0.3750000000000004
 40
0.5000000000000002
 40
0.5000000000000002
 40
0.7500000000000003
 40
0.7500000000000003
 40
0.8750000000000001
 40
0.8750000000000001
 40
1.0
 40
1.0
 40
1.0
 40
1.0
 10
56.18051593263789
 20
123.0341901317965
 30
0.0
 10
56.4734822373995
 20
123.1649678862216
 30
0.0
 10
56.75766477789612
 20
123.2812391317841
 30
0.0
 10
57.16613877972458
 20
123.436116109822
 30
0.0
 10
57.30014028311662
 20
123.4847445767497
 30
0.0
 10
57.55220492158247
 20
123.5727930501986
 30
0.0
 10
57.67120604461654
 20
123.6125948621409
 30
0.0
 10
58.00541244528171
 20
123.7205931274937
 30
0.0
 10
58.20027606112377
 20
123.7780091074994
 30
0.0
 10
58.41473854861239
 20
123.8387371978874
 30
0.0
 10
58.47428886612868
 20
123.8550746556793
 30
0.0
 10
58.56772922963889
 20
123.8803737882394
 30
0.0
 10
58.60107034807878
 20
123.8891905512346
 30
0.0
 10
58.61971440214076
 20
123.8941108950655
 30
0.0
  0
ELLIPSE
  5
229
330
1F
100
AcDbEntity
  8
0
  6
Continuous
 62
     7
370
    15
100
AcDbEllipse
 10
53.7568485146
 20
116.4780470538
 30
0.0
 11
1.695031979916714
 21
1.853747149386365
 31
0.0
210
0.0
220
0.0
230
1.0
 40
0.8157680509
 41
0.1431071350207799
 42
4.246957752403972
  0
ARC
  5
22A
330
1F
100
AcDbEntity
  8
0
  6
Continuous
 62
     7
370
    15
100
AcDbCircle
 10
62.7024813385
 20
108.4237840031
 30
0.0
 40
16.00000000000001
100
AcDbArc
 50
114.0555924159
 51
221.9444075841
  0
ARC
  5
22B
330
1F
100
AcDbEntity
  8
0
  6
Continuous
 62
     7
370
    15
100
AcDbCircle
 10
62.7024813385
 20
108.4237840031
 30
0.0
 40
20.00000000000001
100
AcDbArc
 50
93.5423492635
 51
270.0
  0
ARC
  5
22C
330
1F
100
AcDbEntity
  8
0
  6
Continuous
 62
     7
370
    15
100
AcDbCircle
 10
62.7024813385
 20
108.4237840031
 30
0.0
 40
20.00000000000001
100
AcDbArc
 50
270.0
 51
43.9178210909
  0
LWPOLYLINE
  5
22D
330
1F
100
AcDbEntity
  8
0
  6
Continuous
 62
     7
370
    15
100
AcDbPolyline
 90
       31
 70
   128
 43
0.0
 10
57.1993716823
 20
110.5727812746
 10
57.2363670745
 20
110.3892527525
 10
57.2381566109
 20
110.0658676359
 10
57.2046615945
 20
109.6167597924
 10
57.1373465301
 20
109.0615571947
 10
57.0391530001
 20
108.4245249449
 10
56.9143730046
 20
107.7335043582
 10
56.7684594372
 20
107.0186964707
 10
56.6077899949
 20
106.3113416084
 10
56.4393863843
 20
105.6423546751
 10
56.2706083821
 20
105.0409738445
 10
56.1088329942
 20
104.5334817381
 10
55.9611303562
 20
104.1420587343
 10
55.8339554647
 20
103.8838118319
 10
55.7328669184
 20
103.7700274964
 10
55.6622824462
 20
103.8056789902
 10
55.6252875195
 20
103.9892077451
 10
55.6234979832
 20
104.3125927453
 10
55.6569929996
 20
104.7617004723
 10
55.724308064
 20
105.3169030701
 10
55.8225011283
 20
105.9539351617
 10
55.9472815895
 20
106.6449557901
 10
56.0931946912
 20
107.3597637941
 10
56.2538645992
 20
108.0671185982
 10
56.4222682098
 20
108.7361054733
 10
56.5910457464
 20
109.3374864785
 10
56.7528215998
 20
109.8449784103
 10
56.9005242379
 20
110.2364012976
 10
57.0276991294
 20
110.4946482
 10
57.1287876756
 20
110.6084325356
 10
57.1993716823
 20
110.5727812746
  0
LWPOLYLINE
  5
22E
330
1F
100
AcDbEntity
  8
0
  6
Continuous
 62
     7
370
    15
100
AcDbPolyline
 90
       23
 70
   128
 43
0.0
 10
56.8699954839
 20
109.1226879279
 10
56.8938568996
 20
108.9595117145
 10
56.8802060389
 20
108.6529177618
 10
56.8301493132
 20
108.2277445593
 10
56.7477417009
 20
107.7184370724
 10
56.6396598534
 20
107.1662563835
 10
56.5146596001
 20
106.6159369429
 10
56.3828676769
 20
106.1120623262
 10
56.2549607658
 20
105.6954533332
 10
56.1413021588
 20
105.3998613269
 10
56.0510989109
 20
105.2492331718
 10
55.9916591102
 20
105.2557722204
 10
55.9677976945
 20
105.4189485503
 10
55.9814485551
 20
105.725542503
 10
56.0315052809
 20
106.1507157055
 10
56.1139128932
 20
106.660023076
 10
56.2219947407
 20
107.2122037648
 10
56.346994994
 20
107.7625232637
 10
56.4787869172
 20
108.2663979386
 10
56.6066938282
 20
108.6830068734
 10
56.7203524353
 20
108.9785989379
 10
56.8105556832
 20
109.1292269183
 10
56.8699954839
 20
109.1226879279
  0
LINE
  5
22F
330
1F
100
AcDbEntity
  8
0
  6
Continuous
 62
     7
370
    15
100
AcDbLine
 10
56.7189130762
 20
107.5663172877
 30
0.0
 11
56.5634548494
 21
107.3946716269
 31
0.0
  0
LINE
  5
230
330
1F
100
AcDbEntity
  8
0
  6
Continuous
 62
     7
370
    15
100
AcDbLine
 10
56.5634548494
 20
107.3946716269
 30
0.0
 11
56.6122081892
 21
107.0548150227
 31
0.0
  0
LINE
  5
231
330
1F
100
AcDbEntity
  8
0
  6
Continuous
 62
     7
370
    15
100
AcDbLine
 10
56.6814897412
 20
107.3695824952
 30
0.0
 11
56.5634548494
 21
107.3946716269
 31
0.0
  0
LINE
  5
232
330
1F
100
AcDbEntity
  8
0
  6
Continuous
 62
     7
370
    15
100
AcDbLine
 10
65.506236797
 20
115.4012946417
 30
0.0
 11
68.4949124062
 21
127.5279294704
 31
0.0
  0
LINE
  5
233
330
1F
100
AcDbEntity
  8
0
  6
Continuous
 62
     7
370
    15
100
AcDbLine
 10
68.3078697713
 20
114.8057892923
 30
0.0
 11
71.2965453805
 21
126.9324231898
 31
0.0
  0
LINE
  5
234
330
1F
100
AcDbEntity
  8
0
  6
Continuous
 62
     7
370
    15
100
AcDbLine
 10
71.5774378569
 20
126.9630394881
 30
0.0
 11
68.5887622477
 21
114.8364055907
 31
0.0
  0
ARC
  5
235
330
1F
100
AcDbEntity
  8
0
  6
Continuous
 62
     7
370
    15
100
AcDbCircle
 10
68.5980762554
 20
127.9467758127
 30
0.0
 40
2.882819255977402
100
AcDbArc
 50
339.3987951796
 51
5.4264753628
  0
ARC
  5
236
330
1F
100
AcDbEntity
  8
0
  6
Continuous
 62
     7
370
    15
100
AcDbCircle
 10
68.7403403643
 20
127.8212178801
 30
0.0
 40
2.964049988627249
100
AcDbArc
 50
343.1702407035
 51
0.7213139815
  0
ARC
  5
237
330
1F
100
AcDbEntity
  8
0
  6
Continuous
 62
     7
370
    15
100
AcDbCircle
 10
65.1277751425
 20
115.4800185187
 30
0.0
 40
3.250782505468456
100
AcDbArc
 50
336.5438543118
 51
348.029665922
  0
ARC
  5
238
330
1F
100
AcDbEntity
  8
0
  6
Continuous
 62
     7
370
    15
100
AcDbCircle
 10
66.4446116904
 20
115.2855570397
 30
0.0
 40
2.190689078059624
100
AcDbArc
 50
336.0496042848
 51
348.1688926174
  0
LINE
  5
239
330
1F
100
AcDbEntity
  8
0
  6
Continuous
 62
     7
370
    15
100
AcDbLine
 10
68.4466764161
 20
114.3962564883
 30
0.0
 11
68.3019800873
 21
114.1452329238
 31
0.0
  0
LINE
  5
23A
330
1F
100
AcDbEntity
  8
0
  6
Continuous
 62
     7
370
    15
100
AcDbLine
 10
56.8357572721
 20
112.1122544636
 30
0.0
 11
59.1763695066
 21
116.1728204233
 31
0.0
  0
LWPOLYLINE
  5
23B
330
1F
100
AcDbEntity
  8
0
  6
Continuous
 62
     7
370
    15
100
AcDbPolyline
 90
        9
 70
   128
 43
0.0
 10
56.8877641873
 20
112.6108305534
 10
56.8636536428
 20
112.5062462878
 10
56.84240319
 20
112.4002622445
 10
56.8255839699
 20
112.3007106134
 10
56.8144388327
 20
112.2149500069
 10
56.8097919987
 20
112.1493185409
 10
56.8119866604
 20
112.1086672419
 10
56.8208603018
 20
112.0960003235
 10
56.8357572721
 20
112.1122544636
  0
LINE
  5
23C
330
1F
100
AcDbEntity
  8
0
  6
Continuous
 62
     7
370
    15
100
AcDbLine
 10
60.2116183674
 20
126.0974608366
 30
0.0
 11
56.8877641873
 21
112.6108305534
 31
0.0
  0
ARC
  5
23D
330
1F
100
AcDbEntity
  8
0
  6
Continuous
 62
     7
370
    15
100
AcDbCircle
 10
61.4368564243
 20
125.8408016032
 30
0.0
 40
1.251831561443705
100
AcDbArc
 50
156.0496754193
 51
168.1689220799
  0
LINE
  5
23E
330
1F
100
AcDbEntity
  8
0
  6
Continuous
 62
     7
370
    15
100
AcDbLine
 10
62.6334222344
 20
130.4095402365
 30
0.0
 11
60.2928103709
 21
126.3489756738
 31
0.0
  0
LWPOLYLINE
  5
23F
330
1F
100
AcDbEntity
  8
0
  6
Continuous
 62
     7
370
    15
100
AcDbPolyline
 90
        9
 70
   128
 43
0.0
 10
62.5814152974
 20
129.9109660094
 10
62.6055262274
 20
130.0155498092
 10
62.6267766003
 20
130.1215324556
 10
62.6435958021
 20
130.2210852509
 10
62.6547407284
 20
130.3068451588
 10
62.6593876606
 20
130.3724773233
 10
62.6571931481
 20
130.413127691
 10
62.6483193865
 20
130.4257955407
 10
62.6334222344
 20
130.4095402365
  0
LINE
  5
240
330
1F
100
AcDbEntity
  8
0
  6
Continuous
 62
     7
370
    15
100
AcDbLine
 10
59.2575615102
 20
116.4243338634
 30
0.0
 11
62.5814152974
 21
129.9109660094
 31
0.0
  0
ARC
  5
241
330
1F
100
AcDbEntity
  8
0
  6
Continuous
 62
     7
370
    15
100
AcDbCircle
 10
58.0323158526
 20
116.6809983731
 30
0.0
 40
1.251840082463789
100
AcDbArc
 50
336.0496543788
 51
348.1687570482
  0
LWPOLYLINE
  5
242
330
1F
100
AcDbEntity
  8
0
  6
Continuous
 62
     7
370
    15
100
AcDbPolyline
 90
        9
 70
   128
 43
0.0
 10
62.5806856716
 20
129.9171425407
 10
62.6035910556
 20
130.016496033
 10
62.623778913
 20
130.1171813165
 10
62.6397571488
 20
130.2117552613
 10
62.6503448276
 20
130.2932273601
 10
62.6547594167
 20
130.3555775439
 10
62.6526746292
 20
130.3941957657
 10
62.6442445556
 20
130.406230316
 10
62.6300922614
 20
130.3907889878
  0
LINE
  5
243
330
1F
100
AcDbEntity
  8
0
  6
Continuous
 62
     7
370
    15
100
AcDbLine
 10
62.6300922614
 20
130.3907889878
 30
0.0
 11
60.2894801942
 21
126.3302225624
 31
0.0
  0
ARC
  5
244
330
1F
100
AcDbEntity
  8
0
  6
Continuous
 62
     7
370
    15
100
AcDbCircle
 10
61.3762470845
 20
125.8474813217
 30
0.0
 40
1.189159946896161
100
AcDbArc
 50
156.0492344574
 51
168.1692606914
  0
LINE
  5
245
330
1F
100
AcDbEntity
  8
0
  6
Continuous
 62
     7
370
    15
100
AcDbLine
 10
60.2123478258
 20
126.0912843053
 30
0.0
 11
56.8884938785
 21
112.604654022
 31
0.0
  0
LWPOLYLINE
  5
246
330
1F
100
AcDbEntity
  8
0
  6
Continuous
 62
     7
370
    15
100
AcDbPolyline
 90
        9
 70
   128
 43
0.0
 10
56.8884938785
 20
112.604654022
 10
56.8655884655
 20
112.5052991328
 10
56.8454006517
 20
112.4046138492
 10
56.8294224159
 20
112.3100401373
 10
56.8188346752
 20
112.2285675728
 10
56.8144202062
 20
112.1662176219
 10
56.8165049718
 20
112.1275987015
 10
56.8249353038
 20
112.1155653154
 10
56.839087216
 20
112.1310066437
  0
LINE
  5
247
330
1F
100
AcDbEntity
  8
0
  6
Continuous
 62
     7
370
    15
100
AcDbLine
 10
56.839087216
 20
112.1310066437
 30
0.0
 11
59.1796994505
 21
116.1915726033
 31
0.0
  0
ARC
  5
248
330
1F
100
AcDbEntity
  8
0
  6
Continuous
 62
     7
370
    15
100
AcDbCircle
 10
58.0928593563
 20
116.6743379504
 30
0.0
 40
1.189236633578253
100
AcDbArc
 50
336.0496047853
 51
348.1688250748
  0
LINE
  5
249
330
1F
100
AcDbEntity
  8
0
  6
Continuous
 62
     7
370
    15
100
AcDbLine
 10
59.256831819
 20
116.4305103947
 30
0.0
 11
62.5806856716
 21
129.9171425407
 31
0.0
  0
ARC
  5
24A
330
1F
100
AcDbEntity
  8
0
  6
Continuous
 62
     7
370
    15
100
AcDbCircle
 10
67.6792440462
 20
129.0036984321
 30
0.0
 40
1.153122876440426
100
AcDbArc
 50
339.398718762
 51
5.426511041
  0
LINE
  5
24B
330
1F
100
AcDbEntity
  8
0
  6
Continuous
 62
     7
370
    15
100
AcDbLine
 10
65.4347729234
 20
115.1113273581
 30
0.0
 11
68.7586266378
 21
128.5979576414
 31
0.0
  0
LINE
  5
24C
330
1F
100
AcDbEntity
  8
0
  6
Continuous
 62
     7
370
    15
100
AcDbLine
 10
60.6143015267
 20
125.5962025379
 30
0.0
 11
60.4396340733
 21
125.9285654877
 31
0.0
  0
LWPOLYLINE
  5
24D
330
1F
100
AcDbEntity
  8
0
  6
Continuous
 62
     7
370
    15
100
AcDbPolyline
 90
        9
 70
   128
 43
0.0
 10
61.3561695737
 20
125.8623354142
 10
61.4164469827
 20
126.1237967764
 10
61.4695728819
 20
126.3887561862
 10
61.5116208156
 20
126.6376353805
 10
61.5394831931
 20
126.8520370131
 10
61.5511005109
 20
127.0161155616
 10
61.545614206
 20
127.1177433436
 10
61.5234298694
 20
127.1494101738
 10
61.4861869782
 20
127.1087765698
  0
LWPOLYLINE
  5
24E
330
1F
100
AcDbEntity
  8
0
  6
Continuous
 62
     7
370
    15
100
AcDbPolyline
 90
        3
 70
   128
 43
0.0
 10
61.9594771361
 20
127.6406269525
 10
62.0125461665
 20
127.7092505251
 10
62.0344901637
 20
127.7445606892
  0
LINE
  5
24F
330
1F
100
AcDbEntity
  8
0
  6
Continuous
 62
     7
370
    15
100
AcDbLine
 10
59.4959286337
 20
118.3143561711
 30
0.0
 11
61.3561695737
 21
125.8623354142
 31
0.0
  0
LINE
  5
250
330
1F
100
AcDbEntity
  8
0
  6
Continuous
 62
     7
370
    15
100
AcDbLine
 10
57.9829925501
 20
115.4130195272
 30
0.0
 11
59.2929487412
 21
117.6855718722
 31
0.0
  0
LWPOLYLINE
  5
251
330
1F
100
AcDbEntity
  8
0
  6
Continuous
 62
     7
370
    15
100
AcDbPolyline
 90
        9
 70
   128
 43
0.0
 10
58.1130103038
 20
116.6594592859
 10
58.0527327785
 20
116.3979997863
 10
57.9996068792
 20
116.1330385138
 10
57.9575590619
 20
115.8841602509
 10
57.9296966845
 20
115.6697581527
 10
57.9180793667
 20
115.5056796041
 10
57.9235653223
 20
115.4040513565
 10
57.9457498917
 20
115.3723845263
 10
57.9829925501
 20
115.4130195272
  0
LINE
  5
252
330
1F
100
AcDbEntity
  8
0
  6
Continuous
 62
     7
370
    15
100
AcDbLine
 10
59.973251011
 20
124.207438529
 30
0.0
 11
58.1130103038
 21
116.6594592859
 31
0.0
  0
ARC
  5
253
330
1F
100
AcDbEntity
  8
0
  6
Continuous
 62
     7
370
    15
100
AcDbCircle
 10
63.0363444637
 20
123.5657896386
 30
0.0
 40
3.12957741531363
100
AcDbArc
 50
156.0496658119
 51
168.1689012819
  0
LINE
  5
254
330
1F
100
AcDbEntity
  8
0
  6
Continuous
 62
     7
370
    15
100
AcDbLine
 10
61.4861869782
 20
127.1087765698
 30
0.0
 11
60.1762309035
 21
124.8362246906
 31
0.0
  0
ARC
  5
255
330
1F
100
AcDbEntity
  8
0
  6
Continuous
 62
     7
370
    15
100
AcDbCircle
 10
56.432875963
 20
118.9559956599
 30
0.0
 40
3.129535572151088
100
AcDbArc
 50
336.0495511871
 51
348.1689166682
  0
LWPOLYLINE
  5
256
330
1F
100
AcDbEntity
  8
0
  6
Continuous
 62
     7
370
    15
100
AcDbPolyline
 90
       14
 70
   128
 43
0.0
 10
59.8287116101
 20
120.4641224821
 10
59.9672467744
 20
121.0604827856
 10
60.0922607647
 20
121.6684911405
 10
60.1964881008
 20
122.2528103744
 10
60.2738716935
 20
122.7794844662
 10
60.3199141861
 20
123.2179027055
 10
60.3319396561
 20
123.5425878321
 10
60.3092493785
 20
123.7346693878
 10
60.2531621063
 20
123.782983609
 10
60.1669370027
 20
123.6847234895
 10
60.0555857474
 20
123.4455998992
 10
59.9255791695
 20
123.0795091023
 10
59.7844730893
 20
122.607727163
 10
59.7815103193
 20
122.5970942532
  0
ARC
  5
257
330
1F
100
AcDbEntity
  8
0
  6
Continuous
 62
     7
370
    15
100
AcDbCircle
 10
46.5798028295
 20
123.6147724183
 30
0.0
 40
13.61837651473996
100
AcDbArc
 50
341.7581642828
 51
346.623268457
  0
ARC
  5
258
330
1F
100
AcDbEntity
  8
0
  6
Continuous
 62
     7
370
    15
100
AcDbCircle
 10
64.2095279128
 20
115.367990718
 30
0.0
 40
1.251839213364344
100
AcDbArc
 50
336.0496709701
 51
348.1688024812
  0
LINE
  5
259
330
1F
100
AcDbEntity
  8
0
  6
Continuous
 62
     7
370
    15
100
AcDbLine
 10
65.3084541501
 20
114.7815264766
 30
0.0
 11
65.3535809198
 21
114.8598134522
 31
0.0
  0
ELLIPSE
  5
25A
330
1F
100
AcDbEntity
  8
0
  6
Continuous
 62
     7
370
    15
100
AcDbEllipse
 10
59.4787219261
 20
120.5807226748
 30
0.0
 11
0.489400446611576
 21
2.301304685160517
 31
0.0
210
0.0
220
0.0
230
1.0
 40
0.10442579
 41
0.0
 42
6.283185307179586
  0
LINE
  5
25B
330
1F
100
AcDbEntity
  8
VERMASSUNG
100
AcDbLine
 10
62.7024813385
 20
130.4147152121
 30
0.0
 11
53.3656187681
 21
86.4882304351
 31
0.0
  0
CIRCLE
  5
25C
330
1F
100
AcDbEntity
  8
VERMASSUNG
  6
CENTERX2
100
AcDbCircle
 10
62.7024813385
 20
110.4147152121
 30
0.0
 40
20.00000000000037
  0
DIMENSION
  5
25D
330
1F
100
AcDbEntity
  8
VERMASSUNG
100
AcDbDimension
  2
_D_6
 10
48.5603457148
 20
124.5568508359
 30
0.0
 11
40.9988456733
 21
132.1183508774
 31
0.0
 70
   160
  1
%%c<> min. 
 71
     2
 42
-1.0
  3
SLDDIMSTYLE2
100
AcDbAlignedDimension
 13
76.8446169623
 23
96.2725795884
 33
0.0
 14
48.5603457148
 24
124.5568508359
 34
0.0
 50
-45.0
100
AcDbRotatedDimension
  0
DIMENSION
  5
26C
330
1F
100
AcDbEntity
  8
VERMASSUNG
100
AcDbDimension
  2
_D_7
 10
62.7024813385
 20
130.9237840031
 30
0.0
 11
57.5166633562
 21
81.0749529347
 31
0.0
 70
   162
  1
<>
 71
     1
 42
-1.0
  3
SLDDIMSTYLE3
100
AcDb2LineAngularDimension
 13
53.3656187681
 23
86.4882304351
 33
0.0
 14
62.7024813385
 24
130.4147152121
 34
0.0
 15
62.7024813385
 25
85.9237840031
 35
0.0
 16
57.5166633562
 26
81.0749529347
 36
0.0
  0
INSERT
  5
282
330
1F
100
AcDbEntity
  8
VERMASSUNG
100
AcDbBlockReference
  2
SW_CENTERMARKSYMBOL_0
 10
62.7024813385
 20
108.4237840031
 30
0.0
  0
OLE2FRAME
  5
283
330
1F
100
AcDbEntity
  8
0
100
AcDbOle2Frame
 70
     2
  3
Paintbrush-Bild
 10
13.8511154363
 20
38.264191557
 30
0.0
 11
51.6290888628
 21
31.9806341108
 31
0.0
 71
     2
 72
     0
 73
     1
 90
    12928
310
80552BED0767C5B32B40DDAF6807D121434000000000000000006FFBDDFB85D0
310
4940DDAF6807D121434000000000000000006FFBDDFB85D04940416F4BD60AFB
310
3F4000000000000000002BED0767C5B32B40416F4BD60AFB3F40000000000000
310
0000000000000100000000010000010000000100000000000100000000320000
310
D0CF11E0A1B11AE1000000000000000000000000000000003E000300FEFF0900
310
0600000000000000000000000100000001000000000000000010000002000000
310
01000000FEFFFFFF0000000000000000FFFFFFFFFFFFFFFFFFFFFFFFFFFFFFFF
310
FFFFFFFFFFFFFFFFFFFFFFFFFFFFFFFFFFFFFFFFFFFFFFFFFFFFFFFFFFFFFFFF
310
FFFFFFFFFFFFFFFFFFFFFFFFFFFFFFFFFFFFFFFFFFFFFFFFFFFFFFFFFFFFFFFF
310
FFFFFFFFFFFFFFFFFFFFFFFFFFFFFFFFFFFFFFFFFFFFFFFFFFFFFFFFFFFFFFFF
310
FFFFFFFFFFFFFFFFFFFFFFFFFFFFFFFFFFFFFFFFFFFFFFFFFFFFFFFFFFFFFFFF
310
FFFFFFFFFFFFFFFFFFFFFFFFFFFFFFFFFFFFFFFFFFFFFFFFFFFFFFFFFFFFFFFF
310
FFFFFFFFFFFFFFFFFFFFFFFFFFFFFFFFFFFFFFFFFFFFFFFFFFFFFFFFFFFFFFFF
310
FFFFFFFFFFFFFFFFFFFFFFFFFFFFFFFFFFFFFFFFFFFFFFFFFFFFFFFFFFFFFFFF
310
FFFFFFFFFFFFFFFFFFFFFFFFFFFFFFFFFFFFFFFFFFFFFFFFFFFFFFFFFFFFFFFF
310
FFFFFFFFFFFFFFFFFFFFFFFFFFFFFFFFFFFFFFFFFFFFFFFFFFFFFFFFFFFFFFFF
310
FFFFFFFFFFFFFFFFFFFFFFFFFFFFFFFFFFFFFFFFFFFFFFFFFFFFFFFFFFFFFFFF
310
FFFFFFFFFFFFFFFFFFFFFFFFFFFFFFFFFFFFFFFFFFFFFFFFFFFFFFFFFFFFFFFF
310
FFFFFFFFFFFFFFFFFFFFFFFFFFFFFFFFFFFFFFFFFFFFFFFFFFFFFFFFFFFFFFFF
310
FFFFFFFFFFFFFFFFFFFFFFFFFFFFFFFFFFFFFFFFFFFFFFFFFFFFFFFFFFFFFFFF
310
FDFFFFFFFEFFFFFFFEFFFFFFFEFFFFFF05000000060000000700000008000000
310
090000000A0000000B0000000C0000000D0000000E0000000F00000010000000
310
11000000120000001300000014000000150000001600000017000000FEFFFFFF
310
FFFFFFFFFFFFFFFFFFFFFFFFFFFFFFFFFFFFFFFFFFFFFFFFFFFFFFFFFFFFFFFF
310
FFFFFFFFFFFFFFFFFFFFFFFFFFFFFFFFFFFFFFFFFFFFFFFFFFFFFFFFFFFFFFFF
310
FFFFFFFFFFFFFFFFFFFFFFFFFFFFFFFFFFFFFFFFFFFFFFFFFFFFFFFFFFFFFFFF
310
FFFFFFFFFFFFFFFFFFFFFFFFFFFFFFFFFFFFFFFFFFFFFFFFFFFFFFFFFFFFFFFF
310
FFFFFFFFFFFFFFFFFFFFFFFFFFFFFFFFFFFFFFFFFFFFFFFFFFFFFFFFFFFFFFFF
310
FFFFFFFFFFFFFFFFFFFFFFFFFFFFFFFFFFFFFFFFFFFFFFFFFFFFFFFFFFFFFFFF
310
FFFFFFFFFFFFFFFFFFFFFFFFFFFFFFFFFFFFFFFFFFFFFFFFFFFFFFFFFFFFFFFF
310
FFFFFFFFFFFFFFFFFFFFFFFFFFFFFFFFFFFFFFFFFFFFFFFFFFFFFFFFFFFFFFFF
310
FFFFFFFFFFFFFFFFFFFFFFFFFFFFFFFFFFFFFFFFFFFFFFFFFFFFFFFFFFFFFFFF
310
FFFFFFFFFFFFFFFFFFFFFFFFFFFFFFFFFFFFFFFFFFFFFFFFFFFFFFFFFFFFFFFF
310
FFFFFFFFFFFFFFFFFFFFFFFFFFFFFFFFFFFFFFFFFFFFFFFFFFFFFFFFFFFFFFFF
310
FFFFFFFFFFFFFFFFFFFFFFFFFFFFFFFFFFFFFFFFFFFFFFFFFFFFFFFFFFFFFFFF
310
FFFFFFFFFFFFFFFFFFFFFFFFFFFFFFFFFFFFFFFFFFFFFFFFFFFFFFFFFFFFFFFF
310
52006F006F007400200045006E00740072007900000000000000000000000000
310
0000000000000000000000000000000000000000000000000000000000000000
310
16000500FFFFFFFFFFFFFFFF020000000A00030000000000C000000000000046
310
000000000000000000000000509EAF185D45CD0103000000C000000000000000
310
01004F006C006500000000000000000000000000000000000000000000000000
310
0000000000000000000000000000000000000000000000000000000000000000
310
0A000200FFFFFFFFFFFFFFFFFFFFFFFF00000000000000000000000000000000
310
0000000000000000000000000000000000000000000000001400000000000000
310
010043006F006D0070004F0062006A0000000000000000000000000000000000
310
0000000000000000000000000000000000000000000000000000000000000000
310
120002010100000003000000FFFFFFFF00000000000000000000000000000000
310
0000000000000000000000000000000000000000010000004D00000000000000
310
01004F006C006500310030004E00610074006900760065000000000000000000
310
0000000000000000000000000000000000000000000000000000000000000000
310
1A000200FFFFFFFFFFFFFFFFFFFFFFFF00000000000000000000000000000000
310
0000000000000000000000000000000000000000040000002426000000000000
310
FEFFFFFF02000000FEFFFFFFFFFFFFFFFFFFFFFFFFFFFFFFFFFFFFFFFFFFFFFF
310
FFFFFFFFFFFFFFFFFFFFFFFFFFFFFFFFFFFFFFFFFFFFFFFFFFFFFFFFFFFFFFFF
310
FFFFFFFFFFFFFFFFFFFFFFFFFFFFFFFFFFFFFFFFFFFFFFFFFFFFFFFFFFFFFFFF
310
FFFFFFFFFFFFFFFFFFFFFFFFFFFFFFFFFFFFFFFFFFFFFFFFFFFFFFFFFFFFFFFF
310
FFFFFFFFFFFFFFFFFFFFFFFFFFFFFFFFFFFFFFFFFFFFFFFFFFFFFFFFFFFFFFFF
310
FFFFFFFFFFFFFFFFFFFFFFFFFFFFFFFFFFFFFFFFFFFFFFFFFFFFFFFFFFFFFFFF
310
FFFFFFFFFFFFFFFFFFFFFFFFFFFFFFFFFFFFFFFFFFFFFFFFFFFFFFFFFFFFFFFF
310
FFFFFFFFFFFFFFFFFFFFFFFFFFFFFFFFFFFFFFFFFFFFFFFFFFFFFFFFFFFFFFFF
310
FFFFFFFFFFFFFFFFFFFFFFFFFFFFFFFFFFFFFFFFFFFFFFFFFFFFFFFFFFFFFFFF
310
FFFFFFFFFFFFFFFFFFFFFFFFFFFFFFFFFFFFFFFFFFFFFFFFFFFFFFFFFFFFFFFF
310
FFFFFFFFFFFFFFFFFFFFFFFFFFFFFFFFFFFFFFFFFFFFFFFFFFFFFFFFFFFFFFFF
310
FFFFFFFFFFFFFFFFFFFFFFFFFFFFFFFFFFFFFFFFFFFFFFFFFFFFFFFFFFFFFFFF
310
FFFFFFFFFFFFFFFFFFFFFFFFFFFFFFFFFFFFFFFFFFFFFFFFFFFFFFFFFFFFFFFF
310
FFFFFFFFFFFFFFFFFFFFFFFFFFFFFFFFFFFFFFFFFFFFFFFFFFFFFFFFFFFFFFFF
310
FFFFFFFFFFFFFFFFFFFFFFFFFFFFFFFFFFFFFFFFFFFFFFFFFFFFFFFFFFFFFFFF
310
FFFFFFFFFFFFFFFFFFFFFFFFFFFFFFFFFFFFFFFFFFFFFFFFFFFFFFFFFFFFFFFF
310
0100000200000000000000000000000000000000000000000000000000000000
310
0000000000000000000000000000000000000000000000000000000000000000
310
0100FEFF030A0000FFFFFFFF0A00030000000000C00000000000004607000000
310
5042727573680007000000504272757368000700000050427275736800F439B2
310
7100000000000000000000000000000000000000000000000000000000000000
310
0000000000000000000000000000000000000000000000000000000000000000
310
0000000000000000000000000000000000000000000000000000000000000000
310
0000000000000000000000000000000000000000000000000000000000000000
310
0000000000000000000000000000000000000000000000000000000000000000
310
0000000000000000000000000000000000000000000000000000000000000000
310
0000000000000000000000000000000000000000000000000000000000000000
310
0000000000000000000000000000000000000000000000000000000000000000
310
0000000000000000000000000000000000000000000000000000000000000000
310
0000000000000000000000000000000000000000000000000000000000000000
310
0000000000000000000000000000000000000000000000000000000000000000
310
0000000000000000000000000000000000000000000000000000000000000000
310
20260000424D0E260000000000003E00000028000000B40200006E0000000100
310
01000000000000000000130B0000130B00000200000002000000000000FFFFFF
310
FFFFFFFFFFFFFFFFFFFFFFFFFFFFFFFFFFFFFFFFFFFFFFFFFFFFFFFFFFFFFFFF
310
FFFFFFFFFFFFFFFFFFFFFFFFFFFFFFFFFFFFFFFFFFFFFFFFFFFFFFFFFFFFFFFF
310
FFFFFFFFFFFFFFFFFFFFFFFFFFFFFFFFFFFFFFFFFFFFFFFFF000FFFFFFFFFFFF
310
FFFFFFFFFFFFFFFFFFFFFFFFFFFFFFFFFFFFFFFFFFFFFFFFFFFFFFFFFFFFFFFF
310
FFFFFFFFFFFFFFFFFFFFFFFFFFFFFFFFFFFFFFFFFFFFFFFFFFFFFFFFFFFFFFFF
310
FFFFFFFFFFFFFFFFFFFFFFFFFFFFFFFFF000FFFFFFFFFFFFFFFFFFFFFFFFFFFF
310
FFFFFFFFFFFFFFFFFFFFFFFFFFFFFFFFFFFFFFFFFFFFFFFFFFFFFFFFFFFFFFFF
310
FFFFFFFFFFFFFFFFFFFFFFFFFFFFFFFFFFFFFFFFFFFFFFFFFFFFFFFFFFFFFFFF
310
FFFFFFFFFFFFFFFFF000FFFFFFFFFFFFFFFFFFFFFFFFFFFFFFFFFFFFFFFFFFFF
310
FFFFFFFFFFFFFFFFFFFFFFFFFFFFFFFFFFFFFFFFFFFFFFFFFFFFFFFFFFFFFFFF
310
FFFFFFFFFFFFFFFFFFFFFFFFFFFFFFFFFFFFFFFFFFFFFFFFFFFFFFFFFFFFFFFF
310
F000FFFFFFFFFFFFFFFFFFFFFFFFFFFFFFFFFFFFFFFFFFFFFFFFFFFFFFFFFFFF
310
FFFFFFFFFFFFFFFFFFFFFFFFFFFFFFFFFFFFFFFFFFFFFFFFFFFFFFFFFFFFFFFF
310
FFFFFFFFFFFFFFFFFFFFFFFFFFFFFFFFFFFFFFFFFFFFFFFFF000FFFFFFFFFFFF
310
FFFFFFFFFFFFFFFFFFFFFFFFFFFFFFFFFFFFFFFFFFFFFFFFFFFFFFFFFFFFFFFF
310
FFFFFFFFFFFFFFFFFFFFFFFFFFFFFFFFFFFFFFFFFFFFFFFFFFFFFFFFFFFFFFFF
310
FFFFFFFFFFFFFFFFFFFFFFFFFFFFFFFFF000FFFFFFFFFFFFFFFFFFFFFFFFFFFF
310
FFFFFFFFFFFFFFFFFFFFFFFFFFFFFFFFFFFFFFFFFFFFFFFFFFFFFFFFFFFFFFFF
310
FFFFFFFFFFFFFFFFFFFFFFFFFFFFFFFFFFFFFFFFFFFFFFFFFFFFFFFFFFFFFFFF
310
FFFFFFFFFFFFFFFFF000FFFFFFFFFFFFFFFFFFFFFFFFFFFFFFFFFFFFFFFFFFFF
310
FFFFFFFFFFFFFFFFFFFFFFFFFFFFFFFFFFFFFFFFFFFFFFFFFFFFFFFFFFFFFFFF
310
FFFFFFFFFFFFFFFFFFFFFFFFFFFFFFFFFFFFFFFFFFFFFFFFFFFFFFFFFFFFFFFF
310
F000FFFFFFFFFFFFFFFFFFFFFFFFFFFFFFFFFFFFFFFFFFFFFFFFFFFFFFFFFFFF
310
FFFFFFFFFFFFFFFFFFFFFFFFFFFFFFFFFFFFFFFFFFFFFFFFFFFFFFFFFFFFFFFF
310
FFFFFFFFFFFFFFFFFFFFFFFFFFFFFFFFFFFFFFFFFFFFFFFFF000FFFFFFFFFFFF
310
FFFFFFFFFFFFFFFFFFFFFFFFFFFFFFFFFFFFFFFFFFFFFFFFFFFFFFFFFFFFFFFF
310
FFFFFFFFFFFFFFFFFFFFFFFFFFFFFFFFFFFFFFFFFFFFFFFFFFFFFFFFFFFFFFFF
310
FFFFFFFFFFFFFFFFFFFFFFFFFFFFFFFFF000FFFFFFFFFFFFFFFFFFFFFFFFFFFF
310
FFFFFFFFFFFFFFFFFFFFFFFFFFFFFFFFFFFFFFFFFFFFFFFFFFFFFFFFFFFFFFFF
310
FFFFFFFFFFFFFFFFFFFFFFFFFFFFFFFFFFFFFFFFFFFFFFFFFFFFFFFFFFFFFFFF
310
FFFFFFFFFFFFFFFFF000FFFFFFFFFFFFFFFFFFFFFFFFFFFFFFFFFFFFFFFFFFFF
310
FFFFFFFFFFFFFFFFFFFFFFFFFFFFFFFFFFFFFFFFFFFFFFFFFFFFFFFFFFFFFFFF
310
FFFFFFFFFFFFFFFFFFFFFFFFFFFFFFFFFFFFFFFFFFFFFFFFFFFFFFFFFFFFFFFF
310
F000FFFFFFFFFFFFFFFFFFFFFFFFFFFFFFFFFFFFFFFFFFFFFFFFFFFFFFFFFFFF
310
FFFFFFFFFFFFFFFFFFFFFFFFFFFFFFFFFFFFFFFFFFFFFFFFFFFFFFFFFFFFFFFF
310
FFFFFFFFFFFFFFFFFFFFFFFFFFFFFFFFFFFFFFFFFFFFFFFFF000FFFFFFFFFFFF
310
FFFFFFFFFFFFFFFFFFFFFFFFFFFFFFFFFFFFFFFFFFFFFFFFFFFFFFFFFFFFFFFF
310
FFFFFFFFFFFFFFFFFFFFFFFFFFFFFFFFFFFFFFFFFFFFFFFFFFFFFFFFFFFFFFFF
310
FFFFFFFFFFFFFFFFFFFFFFFFFFFFFFFFF000FFFFFFFFFFFFFFFFFFFFFFFFFFFF
310
FFFFFFFFFFFFFFFFFFFFFFFFFFFFFFFFFFFFFFFFFFFFFFFFFFFFFFFFFFFFFFFF
310
FFFFFFFFFFFFFFFFFFFFFFFFFFFFFFFFFFFFFFFFFFFFFFFFFFFFFFFFFFFFFFFF
310
FFFFFFFFFFFFFFFFF000FFFFFFFFFFFFFFFFFFFFFFFFFFFFFFFFFFFFFFFFFFFF
310
FFFFFFFFFFFFFFFFFFFFFFFFFFFFFFFFFFFFFFFFFFFFFFFFFFFFFFFFFFFFFFFF
310
FFFFFFFFFFFFFFFFFFFFFFFFFFFFFFFFFFFFFFFFFFFFFFFFFFFFFFFFFFFFFFFF
310
F000FFFFFFFFFFFFFFFFFFFFFFFFFFFFFFFFFFFFFFFFFFFFFFFFFFFFFFFFFFFF
310
FFFFFFFFFFFFFFFFFFFFFFFFFFFFFFFFFFFFFFFFFFFFFFFFFFFFFFFFFFFFFFFF
310
FFFFFFFFFFFFFFFFFFFFFFFFFFFFFFFFFFFFFFFFFFFFFFFFF000FFFFFFFFFFFF
310
FFFFFFFFFFFFFFFFFFFFFFFFFFFFFFFFFFFFFFFFFFFFFFFFFFFFFFFFFFFFFFFF
310
FFFFFFFFFFFFFFFFFFFFFFFFFFFFFFFFFFFFFFFFFFFFFFFFFFFFFFFFFFFFFFFF
310
FFFFFFFFFFFFFFFFFFFFFFFFFFFFFFFFF000FFFFFFFFFFFFFFFFFFFFFFFFFFFF
310
FFFFFFFFFFFFFFFFFFFFFFFFFFFFFFFFFFFFFFFFFFFFFFFFFFFFFFFFFFFFFFFF
310
FFFFFFFFFFFFFFFFFFFFFFFFFFFFFFFFFFFFFFFFFFFFFFFFFFFFFFFFFFFFFFFF
310
FFFFFFFFFFFFFFFFF000FFFFF80003FFFFFFFFFFFFFFFFFFFFFFFFFFFFFFFFFF
310
FFFFF00007FFFFFFFFFF00007FFFFFF800000000000000007FFFFFFFFFFFFFFF
310
FFFFFFFC001FFFFFFFFFFFFFFC001FFFFFFFFFFFFFFFFFFFFFFFFFFE0007FFFF
310
F000FFFF8000007FFFFFFFF8000FFFFFC0007FFFFF80007FFFFF0000007FFFFF
310
FFF8000007FFFFF800000000000000007FFFFFF0001FFFFFFFFFFFC00001FFFF
310
FFFFFFFFC00001FFFFFFFF000000000003FFFFE000007FFFF000FFFE0000000F
310
FFFFFFF0000FFFFF80007FFFFF80007FFFFC0000001FFFFFFFC0000001FFFFF8
310
00000000000000007FFFFFF0001FFFFFFFFFFE0000003FFFFFFFFFFE0000003F
310
FFFFFF000000000003FFFF0000000FFFF000FFF800000003FFFFFFF00007FFFF
310
80007FFFFF80007FFFF000000007FFFFFF000000003FFFF80000000000000000
310
7FFFFFF0001FFFFFFFFFF80000000FFFFFFFFFF80000000FFFFFFF0000000000
310
03FFFC00000003FFF000FFE000000000FFFFFFF00007FFFF80003FFFFF80007F
310
FFC000000001FFFFFC000000001FFFF800000000000000007FFFFFF0001FFFFF
310
FFFFE000000003FFFFFFFFE000000003FFFFFF000000000003FFF000000000FF
310
F000FF80000000007FFFFFF00007FFFF80003FFFFF80007FFF8000000000FFFF
310
F80000000007FFF800000000000000007FFFFFF0001FFFFFFFFFC000000001FF
310
FFFFFFC000000001FFFFFF000000000003FFC0000000007FF000FF0000000000
310
3FFFFFE00007FFFF00003FFFFF80007FFE00000000003FFFF00000000003FFF8
310
00000000000000007FFFFFF0001FFFFFFFFF8000000000FFFFFFFF8000000000
310
FFFFFF000000000003FF80000000003FF000FE00000000001FFFFFE00003FFFF
310
00003FFFFF80007FFC00000000001FFFE00000000001FFF8000001FFFE000000
310
7FFFFFF0001FFFFFFFFE00000000003FFFFFFE00000000003FFFFF0000000000
310
03FF00000000001FF000FC00000000000FFFFFE00003FFFF00001FFFFF80007F
310
F800000000001FFFC00000000000FFF8000001FFFE0000007FFFFFF0001FFFFF
310
FFFC00000000001FFFFFFC00000000001FFFFF000000000003FE00000000000F
310
F000F8000000000007FFFFE00003FFFF00001FFFFF80007FF800000000000FFF
310
800000000000FFF8000001FFFE0000007FFFFFF0001FFFFFFFF800000000000F
310
FFFFF800000000000FFFFF000000000003FC000000000007F000F80000000000
310
03FFFFC00003FFFE00001FFFFF80007FF0000000000007FF0000000000007FF8
310
000001FFFE0000007FFFFFF0001FFFFFFFF0000000000007FFFFF00000000000
310
07FFFF000000000003F8000000000003F000F0000000000003FFFFC00001FFFE
310
00001FFFFF80007FE0000000000007FE0000000000003FF8000001FFFE000000
310
7FFFFFF0001FFFFFFFF0000000000007FFFFF0000000000007FFFF0000000000
310
03F800001F800003F000E00001FFF00001FFFFC00001FFFE00000FFFFF80007F
310
E00001FFE00003FE00001FFF00003FF8000001FFFE0000007FFFFFF0001FFFFF
310
FFE000003E000003FFFFE000003E000003FFFF000000000003F00001FFF80001
310
F000E00007FFFC0001FFFFC00001FFFE00000FFFFF80007FC0000FFFFC0003FC
310
0000FFFFC0001FF8000001FFFE0000007FFFFFF0001FFFFFFFC00003FFE00001
310
FFFFC00003FFE00001FFFF0001FFFFFFFFF00007FFFE0001F000E0000FFFFF00
310
00FFFF800001FFFC00000FFFFF80007FC0001FFFFE0001FC0001FFFFE0001FF8
310
000001FFFE0000007FFFFFF0001FFFFFFF80000FFFF80000FFFF80000FFFF800
310
00FFFF0003FFFFFFFFE0000FFFFF8000F000C0003FFFFF8000FFFF800000FFFC
310
000007FFFF80007F80003FFFFF0001FC0003FFFFF0001FF8000001FFFE000000
310
7FFFFFF0001FFFFFFF80003FFFFE0000FFFF80003FFFFE0000FFFF0003FFFFFF
310
FFE0003FFFFF8000F000C0003FFFFF8000FFFF800000FFFC000007FFFF80007F
310
80007FFFFF8001F80007FFFFF8000FF8000001FFFE0000007FFFFFF0001FFFFF
310
FF00007FFFFF00007FFF00007FFFFF00007FFF0003FFFFFFFFE0003FFFFFC000
310
F000C0007FFFFFC000FFFF000000FFFC000007FFFF80007F8000FFFFFF8000F8
310
000FFFFFF8000FF8000001FFFE0000007FFFFFF0001FFFFFFF0000FFFFFF8000
310
7FFF0000FFFFFF80007FFF0003FFFFFFFFC0007FFFFFC00070008000FFFFFFC0
310
00FFFF000000FFF8000007FFFF80007F8000FFFFFF8000F8000FFFFFF8000FF8
310
000001FFFE0000007FFFFFF0001FFFFFFE0001FFFFFFC0003FFE0001FFFFFFC0
310
003FFF0003FFFFFFFFC0007FFFFFE00070008000FFFFFFC0007FFF0000007FF8
310
000003FFFF80007F0001FFFFFF8000F8000FFFFFF8000FF8000001FFFE000000
310
7FFFFFF0001FFFFFFE0001FFFFFFC0003FFE0001FFFFFFC0003FFF0003FFFFFF
310
FFC000FFFFFFE00070008000FFFFFFC0007FFF0000007FF8000003FFFF80007F
310
0001FFFFFF8000F8001FFFFFF8000FF8000001FFFE0000007FFFFFF0001FFFFF
310
FE0003FFFFFFE0003FFE0003FFFFFFE0003FFF0003FFFFFFFFC000FFFFFFE000
310
70008000FFFFFFC0007FFE0000007FF8000003FFFF80007F0001FFFFFF8000F0
310
001FFFFFF8000FF8000001FFFE0000007FFFFFF0001FFFFFFC0003FFFFFFE000
310
1FFC0003FFFFFFE0001FFF0003FFFFFFFFC000FFFFFFC00070008000FFFFFF80
310
007FFE0000007FF0000003FFFF80007F0001FFFFFF0000F0001FFFFFF8000FF8
310
000001FFFE0000007FFFFFF0001FFFFFFC0007FFFFFFF0001FFC0007FFFFFFF0
310
001FFF0003FFFFFFFFC000FFFFFFC00070008001FFFFFF0000FFFE0000003FF0
310
000001FFFF80007F0001FFFFFF0000F8001FFFFFF0000FF8000001FFFE000000
310
7FFFFFF0001FFFFFFC0007FFFFFFF0001FFC0007FFFFFFF0001FFF0003FFFFFF
310
FFC001FFFFFF80007000FFFFFFFFFE0000FFFE0008003FF0008001FFFF80007F
310
FFFFFFFFFC0000FFFFFFFFFFE0000FF8000001FFFE0000007FFFFFF0001FFFFF
310
F8000FFFFFFFF8000FF8000FFFFFFFF8000FFF0003FFFFFFFFFFFFFFFFFF0000
310
7000FFFFFFFFFC0000FFFC0008003FF0008001FFFF80007FFFFFFFFFF80001FF
310
FFFFFFFF80000FF8000001FFFE0000007FFFFFF0001FFFFFF8000FFFFFFFF800
310
0FF8000FFFFFFFF8000FFF0003FFFFFFFFFFFFFFFFFE0000F000FFFFFFFFE000
310
00FFFC000C003FE000C001FFFF80007FFFFFFFFFC00001FFFFFFFFFE00001FF8
310
000001FFFE0000007FFFFFF0001FFFFFF8000FFFFFFFF8000FF8000FFFFFFFF8
310
000FFF0003FFFFFFFFFFFFFFFFF00000F000FFFFFFFE000001FFFC000C001FE0
310
00C000FFFF80007FFFFFFFFE000001FFFFFFFFE000001FF80FFFFFFFFFFFFFC0
310
7FFFFFF0001FFFFFF8000FFFFFFFF8000FF8000FFFFFFFF8000FFF0003FFFFFF
310
FFFFFFFFFF800000F000FFFFFFC0000001FFFC001C001FE001C000FFFF80007F
310
FFFFFF80000003FFFFFFF80000001FF80FFFFFFFFFFFFFC07FFFFFF0001FFFFF
310
F8001FFFFFFFFC000FF8001FFFFFFFFC000FFF0003FFFFFFFFFFFFFFF0000001
310
F000FFFFF800000001FFF8001C001FE001C000FFFF80007FFFFFF800000003FF
310
FFFF800000003FF80FFFFFFFFFFFFFC07FFFFFF0001FFFFFF8001FFFFFFFFC00
310
0FF8001FFFFFFFFC000FFF0003FFFFFFFFFFFFFE00000001F000FFFFC0000000
310
03FFF8001E001FC001E000FFFF80007FFFFF8000000007FFFFFC000000003FF8
310
0FFFFFFFFFFFFFC07FFFFFF0001FFFFFF8001FFFFFFFFC000FF8001FFFFFFFFC
310
000FFF0003FFFFFFFFFFFFE000000003F000FFFE0000000007FFF8001E000FC0
310
01E0007FFF80007FFFFE0000000007FFFFE0000000007FF80FFFFFFFFFFFFFC0
310
7FFFFFF0001FFFFFF0001FFFFFFFFC0007F0001FFFFFFFFC0007FF0003FFFFFF
310
FFFFFF0000000003F000FFF80000000007FFF8001E000FC003E0007FFF80007F
310
FFF0000000000FFFFF8000000000FFF80FFFFFFFFFFFFFC07FFFFFF0001FFFFF
310
F0001FFFFFFFFC0007F0001FFFFFFFFC0007FF0003FFFFFFFFFFFC0000000007
310
F000FFE0000000000FFFF0003E000FC003E0007FFF80007FFFC0000000001FFF
310
FE0000000001FFF80FFFFFFFFFFFFFC07FFFFFF0001FFFFFF0001FFFFFFFFC00
310
07F0001FFFFFFFFC0007FF0003FFFFFFFFFFF0000000000FF000FFC000000000
310
1FFFF0003F000F8003F0003FFF80007FFF80000000003FFFF80000000003FFF8
310
0FFFFFFFFFFFFFC07FFFFFF0001FFFFFF0001FFFFFFFFC0007F0001FFFFFFFFC
310
0007FF0003FFFFFFFFFFE0000000001FF000FF00000000007FFFF0003F000780
310
03F0003FFF80007FFF00000000007FFFF00000000007FFF80FFFFFFFFFFFFFC0
310
7FFFFFF0001FFFFFF0001FFFFFFFFC0007F0001FFFFFFFFC0007FF0003FFFFFF
310
FFFF80000000007FF000FE0000000000FFFFE0003F00078007F0003FFF80007F
310
FE0000000001FFFFE0000000001FFFF80FFFFFFFFFFFFFC07FFFFFF0001FFFFF
310
F0001FFFFFFFFC0007F0001FFFFFFFFC0007FF0003FFFFFFFFFF0000000000FF
310
F000FC0000000003FFFFE0007F00078007F0003FFF80007FFC0000000007FFFF
310
C0000000007FFFF80FFFFFFFFFFFFFC07FFFFFF0001FFFFFF8001FFFFFFFFC00
310
0FF8001FFFFFFFFC000FFF0003FFFFFFFFFE0000000003FFF000FC000000000F
310
FFFFE0007F80070007F8001FFF80007FF8000000001FFFFF8000000001FFFFF8
310
0FFFFFFFFFFFFFC07FFFFFF0001FFFFFF8001FFFFFFFFC000FF8001FFFFFFFFC
310
000FFF0003FFFFFFFFFC000000000FFFF000F8000000007FFFFFE0007F800700
310
07F8001FFF80007FF000000000FFFFFF800000000FFFFFF80FFFFFFFFFFFFFC0
310
7FFFFFF0001FFFFFF8000FFFFFFFF8000FF8000FFFFFFFF8000FFF0003FFFFFF
310
FFFC000000007FFFF000F800000007FFFFFFC0007F8003000FF8001FFF80007F
310
F000000007FFFFFF000000007FFFFFF80FFFFFFFFFFFFFC07FFFFFF0001FFFFF
310
F8000FFFFFFFF8000FF8000FFFFFFFF8000FFF0003FFFFFFFFF80000000FFFFF
310
F000F0000000FFFFFFFFC000FF8003000FF8001FFF80007FE0000000FFFFFFFF
310
0000000FFFFFFFF8000001FFFE0000007FFFFFF0001FFFFFF8000FFFFFFFF800
310
0FF8000FFFFFFFF8000FFF0003FFFFFFFFF8000000FFFFFFF000F000000FFFFF
310
FFFFC000FFC002000FF8000FFF80007FE000001FFFFFFFFE000001FFFFFFFFF8
310
000001FFFE0000007FFFFFF0001FFFFFF8000FFFFFFFF8000FF8000FFFFFFFF8
310
000FFF0003FFFFFFFFF000001FFFFFFFF000E00000FFFFFFFFFFC000FFC00200
310
0FFC000FFF80007FE00001FFFFFFFFFE00001FFFFFFFFFF8000001FFFE000000
310
7FFFFFF0001FFFFFFC000FFFFFFFF8001FFC000FFFFFFFF8001FFF0003FFFFFF
310
FFF00001FFFFFFFFF000E00007FFFFFFFFFF8000FFC000001FFC000FFF80007F
310
C0000FFFFFFFFFFE0000FFFFFFFFFFF8000001FFFE0000007FFFFFF0001FFFFF
310
FC0007FFFFFFF0001FFC0007FFFFFFF0001FFF0003FFFFFFFFF00007FFFFFFFF
310
F000E0001FFFFFFFFFFF8000FFC000001FFC000FFF80007FC0003FFFFFFFFFFE
310
0001FFFFFFFFFFF8000001FFFE0000007FFFFFF0001FFFFFFC0007FFFFFFF000
310
1FFC0007FFFFFFF0001FFF0003FFFFFFFFF0001FFFFFFFFFF000E0003FFFFF00
310
03FF8001FFE000001FFC0007FF80007FC0007FFFFF0007FC0003FFFFF0003FF8
310
000001FFFE0000007FFFFFF0001FFFFFFC0003FFFFFFE0001FFC0003FFFFFFE0
310
001FFF0003FFFFFFFFF0003FFFFFFFFFF000E0003FFFFF0001FF8001FFE00000
310
1FFE0007FF80007FC0007FFFFE0003FC0007FFFFE0003FF8000001FFFE000000
310
7FFFFFF0001FFFFFFE0003FFFFFFE0003FFE0003FFFFFFE0003FFF0003FFFFFF
310
FFF0003FFFFF8001F000E0003FFFFF0001FF0001FFE000001FFE0007FF80007F
310
C0007FFFFE0003FC0007FFFFE0003FF8000001FFFE0000007FFFFFF0001FFFFF
310
FE0001FFFFFFC0003FFE0001FFFFFFC0003FFF0003FFFFFFFFF0003FFFFF0001
310
F000E0003FFFFF0003FF0001FFE000003FFE0007FF80007FC0007FFFFE0003FC
310
0007FFFFE0003FF8000001FFFE0000007FFFFFF0001FFFFFFF0001FFFFFFC000
310
7FFF0001FFFFFFC0007FFF0003FFFFFFFFF0003FFFFF0001F000E0003FFFFE00
310
03FF0003FFF000003FFE0003FF80007FC0007FFFFC0003FE0007FFFFE0003FF8
310
000001FFFE0000007FFFFFF0001FFFFFFF0000FFFFFF80007FFF0000FFFFFF80
310
007FFF0003FFFFFFFFF0003FFFFF0001F000E0003FFFFE0003FF0003FFF00000
310
3FFF0003FF80007FC0007FFFFC0007FE0007FFFFC0003FF8000001FFFE000000
310
7FFFFFF0001FFFFFFF80007FFFFF0000FFFF80007FFFFF0000FFFF0003FFFFFF
310
FFF0003FFFFF0003F000E0003FFFFC0003FE0003FFF000003FFF0003FF80007F
310
E0003FFFF80007FE0003FFFFC0007FF8000001FFFE0000007FFFFFF0001FFFFF
310
FF80003FFFFE0000FFFF80003FFFFE0000FFFF0003FFFFFFFFF0001FFFFE0003
310
F000F0001FFFF80003FE0003FFF000007FFF0001FF80007FE0003FFFF00007FE
310
0001FFFF80007FF8000001FFFE0000007FFFFFF0001FFFFFFFC0000FFFF80001
310
FFFFC0000FFFF80001FFFF0003FFFFFFFFF0001FFFFC0003F000F0000FFFF000
310
07FE0007FFF800007FFF0001FF80007FE0001FFFE00007FF0000FFFE00007FF8
310
000001FFFE0000007FFFFFF0001FFFFFFFC00003FFE00001FFFFC00003FFE000
310
01FFFF0003FFFFFFFFF8000FFFF80003F000F00003FFC00007FC0007FFF80000
310
7FFF8001FF80007FF00007FF80000FFF00007FF80000FFF8000001FFFE000000
310
7F80000000000001FFE000003E000003FFFFE000003E000003FFFF0003FFFFFF
310
FFF80003FFE00007F000F800000000000FFC0007FFF800007FFF8001FF80007F
310
F000000000000FFF000000000000FFF8000001FFFE0000007F80000000000001
310
FFF0000000000007FFFFF0000000000007FFFF0003FFFFFFFFFC00007E000007
310
F000F800000000000FFC0007FFF80000FFFF8000FF80007FF800000000001FFF
310
800000000001FFF8000001FFFE0000007F80000000000001FFF800000000000F
310
FFFFF800000000000FFFFF0003FFFFFFFFFC00000000000FF000FC0000000000
310
1FFC0007FFFC0000FFFF8000FF80007FF800000000003FFFC00000000001FFF8
310
000001FFFE0000007F80000000000001FFF800000000000FFFFFF80000000000
310
0FFFFF0003FFFFFFFFFE00000000001FF000FE00000000003FF8000FFFFC0000
310
FFFF8000FF80007FFC00000000003FFFC00000000003FFF8000001FFFE000000
310
7F80000000000001FFFC00000000001FFFFFFC00000000001FFFFF0003FFFFFF
310
FFFF00000000001FF000FF00000000003FF8000FFFFC0000FFFFC000FF80007F
310
FE00000000007FFFE00000000007FFF8000001FFFE0000007F80000000000001
310
FFFE00000000003FFFFFFE00000000003FFFFF0003FFFFFFFFFF80000000003F
310
F000FF80000000007FF8000FFFFC0001FFFFC0007F80007FFF0000000000FFFF
310
F0000000000FFFF800000000000000007F80000000000001FFFF8000000000FF
310
FFFFFF8000000000FFFFFF0003FFFFFFFFFFC0000000007FF000FFC000000000
310
FFF8000FFFFE0001FFFFC0007F80007FFF8000000001FFFFF8000000001FFFF8
310
00000000000000007F80000000000001FFFFC000000001FFFFFFFFC000000001
310
FFFFFF0003FFFFFFFFFFE000000000FFF000FFE000000003FFF0001FFFFE0001
310
FFFFC0007F80007FFFC000000007FFFFFE000000003FFFF80000000000000000
310
7F80000000000001FFFFE000000003FFFFFFFFE000000003FFFFFF0003FFFFFF
310
FFFFF000000003FFF000FFF80000000FFFF0001FFFFE0001FFFFE0007F80007F
310
FFF00000000FFFFFFF00000000FFFFF800000000000000007F80000000000001
310
FFFFF80000000FFFFFFFFFF80000000FFFFFFF0003FFFFFFFFFFFC0000000FFF
310
F000FFFE0000003FFFF0001FFFFE0003FFFFE0003F80007FFFFC0000003FFFFF
310
FFC0000003FFFFF800000000000000007F80000000000001FFFFFE0000003FFF
310
FFFFFFFE0000003FFFFFFF0003FFFFFFFFFFFF0000003FFFF000FFFF800000FF
310
FFF0001FFFFF0003FFFFE0003F80007FFFFF000001FFFFFFFFF800001FFFFFF8
310
00000000000000007F80000000000001FFFFFFC00001FFFFFFFFFFFFC00001FF
310
FFFFFF0003FFFFFFFFFFFFC00000FFFFF000FFFFF8000FFFFFFFFFFFFFFFFFFF
310
FFFFFFFFFFFFFFFFFFFFF0001FFFFFFFFFFF0000FFFFFFF80000000000000000
310
7FFFFFFFFFFFFFFFFFFFFFFC001FFFFFFFFFFFFFFC001FFFFFFFFFFFFFFFFFFF
310
FFFFFFFC001FFFFFF000FFFFFFFFFFFFFFFFFFFFFFFFFFFFFFFFFFFFFFFFFFFF
310
FFFFFFFFFFFFFFFFFFFFFFFFFFFFFFFFFFFFFFFFFFFFFFFFFFFFFFFFFFFFFFFF
310
FFFFFFFFFFFFFFFFFFFFFFFFFFFFFFFFFFFFFFFFFFFFFFFFFFFFFFFFFFFFFFFF
310
F000FFFFFFFFFFFFFFFFFFFFFFFFFFFFFFFFFFFFFFFFFFFFFFFFFFFFFFFFFFFF
310
FFFFFFFFFFFFFFFFFFFFFFFFFFFFFFFFFFFFFFFFFFFFFFFFFFFFFFFFFFFFFFFF
310
FFFFFFFFFFFFFFFFFFFFFFFFFFFFFFFFFFFFFFFFFFFFFFFFF000FFFFFFFFFFFF
310
FFFFFFFFFFFFFFFFFFFFFFFFFFFFFFFFFFFFFFFFFFFFFFFFFFFFFFFFFFFFFFFF
310
FFFFFFFFFFFFFFFFFFFFFFFFFFFFFFFFFFFFFFFFFFFFFFFFFFFFFFFFFFFFFFFF
310
FFFFFFFFFFFFFFFFFFFFFFFFFFFFFFFFF000FFFFFFFFFFFFFFFFFFFFFFFFFFFF
310
FFFFFFFFFFFFFFFFFFFFFFFFFFFFFFFFFFFFFFFFFFFFFFFFFFFFFFFFFFFFFFFF
310
FFFFFFFFFFFFFFFFFFFFFFFFFFFFFFFFFFFFFFFFFFFFFFFFFFFFFFFFFFFFFFFF
310
FFFFFFFFFFFFFFFFF000FFFFFFFFFFFFFFFFFFFFFFFFFFFFFFFFFFFFFFFFFFFF
310
FFFFFFFFFFFFFFFFFFFFFFFFFFFFFFFFFFFFFFFFFFFFFFFFFFFFFFFFFFFFFFFF
310
FFFFFFFFFFFFFFFFFFFFFFFFFFFFFFFFFFFFFFFFFFFFFFFFFFFFFFFFFFFFFFFF
310
F000FFFFFFFFFFFFFFFFFFFFFFFFFFFFFFFFFFFFFFFFFFFFFFFFFFFFFFFFFFFF
310
FFFFFFFFFFFFFFFFFFFFFFFFFFFFFFFFFFFFFFFFFFFFFFFFFFFFFFFFFFFFFFFF
310
FFFFFFFFFFFFFFFFFFFFFFFFFFFFFFFFFFFFFFFFFFFFFFFFF000FFFFFFFFFFFF
310
FFFFFFFFFFFFFFFFFFFFFFFFFFFFFFFFFFFFFFFFFFFFFFFFFFFFFFFFFFFFFFFF
310
FFFFFFFFFFFFFFFFFFFFFFFFFFFFFFFFFFFFFFFFFFFFFFFFFFFFFFFFFFFFFFFF
310
FFFFFFFFFFFFFFFFFFFFFFFFFFFFFFFFF000FFFFFFFFFFFFFFFFFFFFFFFFFFFF
310
FFFFFFFFFFFFFFFFFFFFFFFFFFFFFFFFFFFFFFFFFFFFFFFFFFFFFFFFFFFFFFFF
310
FFFFFFFFFFFFFFFFFFFFFFFFFFFFFFFFFFFFFFFFFFFFFFFFFFFFFFFFFFFFFFFF
310
FFFFFFFFFFFFFFFFF000FFFFFFFFFFFFFFFFFFFFFFFFFFFFFFFFFFFFFFFFFFFF
310
FFFFFFFFFFFFFFFFFFFFFFFFFFFFFFFFFFFFFFFFFFFFFFFFFFFFFFFFFFFFFFFF
310
FFFFFFFFFFFFFFFFFFFFFFFFFFFFFFFFFFFFFFFFFFFFFFFFFFFFFFFFFFFFFFFF
310
F000FFFFFFFFFFFFFFFFFFFFFFFFFFFFFFFFFFFFFFFFFFFFFFFFFFFFFFFFFFFF
310
FFFFFFFFFFFFFFFFFFFFFFFFFFFFFFFFFFFFFFFFFFFFFFFFFFFFFFFFFFFFFFFF
310
FFFFFFFFFFFFFFFFFFFFFFFFFFFFFFFFFFFFFFFFFFFFFFFFF000FFFFFFFFFFFF
310
FFFFFFFFFFFFFFFFFFFFFFFFFFFFFFFFFFFFFFFFFFFFFFFFFFFFFFFFFFFFFFFF
310
FFFFFFFFFFFFFFFFFFFFFFFFFFFFFFFFFFFFFFFFFFFFFFFFFFFFFFFFFFFFFFFF
310
FFFFFFFFFFFFFFFFFFFFFFFFFFFFFFFFF000FFFFFFFFFFFFFFFFFFFFFFFFFFFF
310
FFFFFFFFFFFFFFFFFFFFFFFFFFFFFFFFFFFFFFFFFFFFFFFFFFFFFFFFFFFFFFFF
310
FFFFFFFFFFFFFFFFFFFFFFFFFFFFFFFFFFFFFFFFFFFFFFFFFFFFFFFFFFFFFFFF
310
FFFFFFFFFFFFFFFFF000FFFFFFFFFFFFFFFFFFFFFFFFFFFFFFFFFFFFFFFFFFFF
310
FFFFFFFFFFFFFFFFFFFFFFFFFFFFFFFFFFFFFFFFFFFFFFFFFFFFFFFFFFFFFFFF
310
FFFFFFFFFFFFFFFFFFFFFFFFFFFFFFFFFFFFFFFFFFFFFFFFFFFFFFFFFFFFFFFF
310
F000FFFFFFFFFFFFFFFFFFFFFFFFFFFFFFFFFFFFFFFFFFFFFFFFFFFFFFFFFFFF
310
FFFFFFFFFFFFFFFFFFFFFFFFFFFFFFFFFFFFFFFFFFFFFFFFFFFFFFFFFFFFFFFF
310
FFFFFFFFFFFFFFFFFFFFFFFFFFFFFFFFFFFFFFFFFFFFFFFFF000FFFFFFFFFFFF
310
FFFFFFFFFFFFFFFFFFFFFFFFFFFFFFFFFFFFFFFFFFFFFFFFFFFFFFFFFFFFFFFF
310
FFFFFFFFFFFFFFFFFFFFFFFFFFFFFFFFFFFFFFFFFFFFFFFFFFFFFFFFFFFFFFFF
310
FFFFFFFFFFFFFFFFFFFFFFFFFFFFFFFFF000FFFFFFFFFFFFFFFFFFFFFFFFFFFF
310
FFFFFFFFFFFFFFFFFFFFFFFFFFFFFFFFFFFFFFFFFFFFFFFFFFFFFFFFFFFFFFFF
310
FFFFFFFFFFFFFFFFFFFFFFFFFFFFFFFFFFFFFFFFFFFFFFFFFFFFFFFFFFFFFFFF
310
FFFFFFFFFFFFFFFFF000FFFFFFFFFFFFFFFFFFFFFFFFFFFFFFFFFFFFFFFFFFFF
310
FFFFFFFFFFFFFFFFFFFFFFFFFFFFFFFFFFFFFFFFFFFFFFFFFFFFFFFFFFFFFFFF
310
FFFFFFFFFFFFFFFFFFFFFFFFFFFFFFFFFFFFFFFFFFFFFFFFFFFFFFFFFFFFFFFF
310
F000FFFFFFFFFFFFFFFFFFFFFFFFFFFFFFFFFFFFFFFFFFFFFFFFFFFFFFFFFFFF
310
FFFFFFFFFFFFFFFFFFFFFFFFFFFFFFFFFFFFFFFFFFFFFFFFFFFFFFFFFFFFFFFF
310
FFFFFFFFFFFFFFFFFFFFFFFFFFFFFFFFFFFFFFFFFFFFFFFFF000FFFFFFFFFFFF
310
FFFFFFFFFFFFFFFFFFFFFFFFFFFFFFFFFFFFFFFFFFFFFFFFFFFFFFFFFFFFFFFF
310
FFFFFFFFFFFFFFFFFFFFFFFFFFFFFFFFFFFFFFFFFFFFFFFFFFFFFFFFFFFFFFFF
310
FFFFFFFFFFFFFFFFFFFFFFFFFFFFFFFFF000FFFFFFFFFFFFFFFFFFFFFFFFFFFF
310
FFFFFFFFFFFFFFFFFFFFFFFFFFFFFFFFFFFFFFFFFFFFFFFFFFFFFFFFFFFFFFFF
310
FFFFFFFFFFFFFFFFFFFFFFFFFFFFFFFFFFFFFFFFFFFFFFFFFFFFFFFFFFFFFFFF
310
FFFFFFFFFFFFFFFFF000FFFFFFFFFFFFFFFFFFFFFFFFFFFFFFFFFFFFFFFFFFFF
310
FFFFFFFFFFFFFFFFFFFFFFFFFFFFFFFFFFFFFFFFFFFFFFFFFFFFFFFFFFFFFFFF
310
FFFFFFFFFFFFFFFFFFFFFFFFFFFFFFFFFFFFFFFFFFFFFFFFFFFFFFFFFFFFFFFF
310
F000FFFFFFFFFFFFFFFFFFFFFFFFFFFFFFFFFFFFFFFFFFFFFFFFFFFFFFFFFFFF
310
FFFFFFFFFFFFFFFFFFFFFFFFFFFFFFFFFFFFFFFFFFFFFFFFFFFFFFFFFFFFFFFF
310
FFFFFFFFFFFFFFFFFFFFFFFFFFFFFFFFFFFFFFFFFFFFFFFFF000FFFFFFFFFFFF
310
FFFFFFFFFFFFFFFFFFFFFFFFFFFFFFFFFFFFFFFFFFFFFFFFFFFFFFFFFFFFFFFF
310
FFFFFFFFFFFFFFFFFFFFFFFFFFFFFFFFFFFFFFFFFFFFFFFFFFFFFFFFFFFFFFFF
310
FFFFFFFFFFFFFFFFFFFFFFFFFFFFFFFFF0000000000000000000000000000000
310
0000000000000000000000000000000000000000000000000000000000000000
310
0000000000000000000000000000000000000000000000000000000000000000
310
0000000000000000000000000000000000000000000000000000000000000000
310
0000000000000000000000000000000000000000000000000000000000000000
310
0000000000000000000000000000000000000000000000000000000000000000
310
0000000000000000000000000000000000000000000000000000000000000000
310
0000000000000000000000000000000000000000000000000000000000000000
310
0000000000000000000000000000000000000000000000000000000000000000
310
0000000000000000000000000000000000000000000000000000000000000000
310
0000000000000000000000000000000000000000000000000000000000000000
310
0000000000000000000000000000000000000000000000000000000000000000
310
0000000000000000000000000000000000000000000000000000000000000000
310
0000000000000000000000000000000000000000000000000000000000000000
310
0000000000000000000000000000000000000000000000000000000000000000
310
0000000000000000000000000000000000000000000000000000000000000000
  1
OLE
  0
ENDSEC
  0
SECTION
  2
OBJECTS
  0
DICTIONARY
  5
C
330
0
100
AcDbDictionary
281
     1
  3
ACAD_GROUP
350
D
  3
ACAD_LAYOUT
350
1A
  3
ACAD_MLINESTYLE
350
17
  3
ACAD_PLOTSETTINGS
350
19
  3
ACAD_PLOTSTYLENAME
350
E
  0
DICTIONARY
  5
D
102
{ACAD_REACTORS
330
C
102
}
330
C
100
AcDbDictionary
281
     1
  0
DICTIONARY
  5
1A
102
{ACAD_REACTORS
330
C
102
}
330
C
100
AcDbDictionary
281
     1
  3
Layout1
350
1E
  3
Layout2
350
26
  3
Model
350
22
  0
DICTIONARY
  5
17
102
{ACAD_REACTORS
330
C
102
}
330
C
100
AcDbDictionary
281
     1
  3
Standard
350
18
  0
DICTIONARY
  5
19
102
{ACAD_REACTORS
330
C
102
}
330
C
100
AcDbDictionary
281
     1
  0
ACDBDICTIONARYWDFLT
  5
E
102
{ACAD_REACTORS
330
C
102
}
330
C
100
AcDbDictionary
281
     1
  3
Normal
350
F
100
AcDbDictionaryWithDefault
340
F
  0
LAYOUT
  5
1E
102
{ACAD_REACTORS
330
1A
102
}
330
1A
100
AcDbPlotSettings
  1

  2
none_device
  4

  6

 40
0.0
 41
0.0
 42
0.0
 43
0.0
 44
0.0
 45
0.0
 46
0.0
 47
0.0
 48
0.0
 49
0.0
140
0.0
141
0.0
142
1.0
143
1.0
 70
   688
 72
     0
 73
     0
 74
     5
  7

 75
    16
147
1.0
148
0.0
149
0.0
100
AcDbLayout
  1
Layout1
 70
     1
 71
     1
 10
0.0
 20
0.0
 11
420.0
 21
297.0
 12
0.0
 22
0.0
 32
0.0
 14
1.0000000000E+20
 24
1.0000000000E+20
 34
1.0000000000E+20
 15
-1.0000000000E+20
 25
-1.0000000000E+20
 35
-1.0000000000E+20
146
0.0
 13
0.0
 23
0.0
 33
0.0
 16
1.0
 26
0.0
 36
0.0
 17
0.0
 27
1.0
 37
0.0
 76
     0
330
1B
  0
LAYOUT
  5
26
102
{ACAD_REACTORS
330
1A
102
}
330
1A
100
AcDbPlotSettings
  1

  2
none_device
  4

  6

 40
0.0
 41
0.0
 42
0.0
 43
0.0
 44
0.0
 45
0.0
 46
0.0
 47
0.0
 48
0.0
 49
0.0
140
0.0
141
0.0
142
1.0
143
1.0
 70
   688
 72
     0
 73
     0
 74
     5
  7

 75
    16
147
1.0
148
0.0
149
0.0
100
AcDbLayout
  1
Layout2
 70
     1
 71
     2
 10
0.0
 20
0.0
 11
0.0
 21
0.0
 12
0.0
 22
0.0
 32
0.0
 14
0.0
 24
0.0
 34
0.0
 15
0.0
 25
0.0
 35
0.0
146
0.0
 13
0.0
 23
0.0
 33
0.0
 16
1.0
 26
0.0
 36
0.0
 17
0.0
 27
1.0
 37
0.0
 76
     0
330
23
  0
LAYOUT
  5
22
102
{ACAD_REACTORS
330
1A
102
}
330
1A
100
AcDbPlotSettings
  1

  2
none_device
  4

  6

 40
0.0
 41
0.0
 42
0.0
 43
0.0
 44
0.0
 45
0.0
 46
0.0
 47
0.0
 48
0.0
 49
0.0
140
0.0
141
0.0
142
1.0
143
1.0
 70
  1712
 72
     0
 73
     0
 74
     0
  7

 75
     0
147
1.0
148
0.0
149
0.0
100
AcDbLayout
  1
Model
 70
     1
 71
     0
 10
0.0
 20
0.0
 11
297.0
 21
210.0
 12
0.0
 22
0.0
 32
0.0
 14
0.0
 24
0.0
 34
0.0
 15
297.0
 25
210.0
 35
0.0
146
0.0
 13
0.0
 23
0.0
 33
0.0
 16
1.0
 26
0.0
 36
0.0
 17
0.0
 27
1.0
 37
0.0
 76
     0
330
1F
331
29
  0
MLINESTYLE
  5
18
102
{ACAD_REACTORS
330
17
102
}
330
17
100
AcDbMlineStyle
  2
Standard
 70
     0
  3

 62
   256
 51
90.0
 52
90.0
 71
     2
 49
0.5
 62
   256
  6
BYLAYER
 49
-0.5
 62
   256
  6
BYLAYER
  0
ACDBPLACEHOLDER
  5
F
102
{ACAD_REACTORS
330
E
102
}
330
E
  0
ENDSEC
  0
EOF
