  0
SECTION
  2
HEADER
  9
$ACADVER
  1
AC1015
  9
$ACADMAINTVER
 70
     6
  9
$DWGCODEPAGE
  3
ANSI_1252
  9
$INSBASE
 10
0.0
 20
0.0
 30
0.0
  9
$EXTMIN
 10
0.0
 20
0.0
 30
0.0
  9
$EXTMAX
 10
297.0
 20
210.0
 30
0.0
  9
$LIMMIN
 10
0.0
 20
0.0
  9
$LIMMAX
 10
297.0
 20
210.0
  9
$ORTHOMODE
 70
     0
  9
$REGENMODE
 70
     1
  9
$FILLMODE
 70
     1
  9
$QTEXTMODE
 70
     0
  9
$MIRRTEXT
 70
     1
  9
$LTSCALE
 40
1.0
  9
$ATTMODE
 70
     1
  9
$TEXTSIZE
 40
2.0
  9
$TRACEWID
 40
1.0
  9
$TEXTSTYLE
  7
Standard
  9
$CLAYER
  8
0
  9
$CELTYPE
  6
ByLayer
  9
$CECOLOR
 62
   256
  9
$CELTSCALE
 40
1.0
  9
$DISPSILH
 70
     0
  9
$DIMSCALE
 40
1.0
  9
$DIMASZ
 40
3.0
  9
$DIMEXO
 40
0.0
  9
$DIMDLI
 40
3.75
  9
$DIMRND
 40
0.0
  9
$DIMDLE
 40
0.0
  9
$DIMEXE
 40
1.0
  9
$DIMTP
 40
0.0
  9
$DIMTM
 40
0.0
  9
$DIMTXT
 40
2.0
  9
$DIMCEN
 40
2.5
  9
$DIMTSZ
 40
0.0
  9
$DIMTOL
 70
     0
  9
$DIMLIM
 70
     0
  9
$DIMTIH
 70
     1
  9
$DIMTOH
 70
     1
  9
$DIMSE1
 70
     0
  9
$DIMSE2
 70
     0
  9
$DIMTAD
 70
     1
  9
$DIMZIN
 70
     0
  9
$DIMBLK
  1

  9
$DIMASO
 70
     1
  9
$DIMSHO
 70
     1
  9
$DIMPOST
  1

  9
$DIMAPOST
  1

  9
$DIMALT
 70
     0
  9
$DIMALTD
 70
     3
  9
$DIMALTF
 40
0.0393700787
  9
$DIMLFAC
 40
1.0
  9
$DIMTOFL
 70
     1
  9
$DIMTVP
 40
0.0
  9
$DIMTIX
 70
     0
  9
$DIMSOXD
 70
     0
  9
$DIMSAH
 70
     0
  9
$DIMBLK1
  1

  9
$DIMBLK2
  1

  9
$DIMSTYLE
  2
ISO-25
  9
$DIMCLRD
 70
     0
  9
$DIMCLRE
 70
     0
  9
$DIMCLRT
 70
     0
  9
$DIMTFAC
 40
1.0
  9
$DIMGAP
 40
1.524
  9
$DIMJUST
 70
     0
  9
$DIMSD1
 70
     0
  9
$DIMSD2
 70
     0
  9
$DIMTOLJ
 70
     0
  9
$DIMTZIN
 70
     0
  9
$DIMALTZ
 70
     0
  9
$DIMALTTZ
 70
     0
  9
$DIMUPT
 70
     0
  9
$DIMDEC
 70
     2
  9
$DIMTDEC
 70
     3
  9
$DIMALTU
 70
     2
  9
$DIMALTTD
 70
     3
  9
$DIMTXSTY
  7
Standard
  9
$DIMAUNIT
 70
     0
  9
$DIMADEC
 70
     2
  9
$DIMALTRND
 40
0.0
  9
$DIMAZIN
 70
     0
  9
$DIMDSEP
 70
    44
  9
$DIMATFIT
 70
     3
  9
$DIMFRAC
 70
     0
  9
$DIMLDRBLK
  1

  9
$DIMLUNIT
 70
     2
  9
$DIMLWD
 70
    -2
  9
$DIMLWE
 70
    -2
  9
$DIMTMOVE
 70
     0
  9
$LUNITS
 70
     2
  9
$LUPREC
 70
     2
  9
$SKETCHINC
 40
1.0
  9
$FILLETRAD
 40
10.0
  9
$AUNITS
 70
     0
  9
$AUPREC
 70
     2
  9
$MENU
  1
.
  9
$ELEVATION
 40
0.0
  9
$PELEVATION
 40
0.0
  9
$THICKNESS
 40
0.0
  9
$LIMCHECK
 70
     0
  9
$CHAMFERA
 40
10.0
  9
$CHAMFERB
 40
10.0
  9
$CHAMFERC
 40
20.0
  9
$CHAMFERD
 40
0.0
  9
$SKPOLY
 70
     0
  9
$TDCREATE
 40
2456071.39006456
  9
$TDUCREATE
 40
2456071.306731227
  9
$TDUPDATE
 40
2456071.390066007
  9
$TDUUPDATE
 40
2456071.306732674
  9
$TDINDWG
 40
0.0000000116
  9
$TDUSRTIMER
 40
0.0000000116
  9
$USRTIMER
 70
     1
  9
$ANGBASE
 50
0.0
  9
$ANGDIR
 70
     0
  9
$PDMODE
 70
     0
  9
$PDSIZE
 40
-1.0
  9
$PLINEWID
 40
0.0
  9
$SPLFRAME
 70
     0
  9
$SPLINETYPE
 70
     6
  9
$SPLINESEGS
 70
     8
  9
$HANDSEED
  5
260
  9
$SURFTAB1
 70
     6
  9
$SURFTAB2
 70
     6
  9
$SURFTYPE
 70
     6
  9
$SURFU
 70
     6
  9
$SURFV
 70
     6
  9
$UCSBASE
  2

  9
$UCSNAME
  2

  9
$UCSORG
 10
0.0
 20
0.0
 30
0.0
  9
$UCSXDIR
 10
1.0
 20
0.0
 30
0.0
  9
$UCSYDIR
 10
0.0
 20
1.0
 30
0.0
  9
$UCSORTHOREF
  2

  9
$UCSORTHOVIEW
 70
     0
  9
$UCSORGTOP
 10
0.0
 20
0.0
 30
0.0
  9
$UCSORGBOTTOM
 10
0.0
 20
0.0
 30
0.0
  9
$UCSORGLEFT
 10
0.0
 20
0.0
 30
0.0
  9
$UCSORGRIGHT
 10
0.0
 20
0.0
 30
0.0
  9
$UCSORGFRONT
 10
0.0
 20
0.0
 30
0.0
  9
$UCSORGBACK
 10
0.0
 20
0.0
 30
0.0
  9
$PUCSBASE
  2

  9
$PUCSNAME
  2

  9
$PUCSORG
 10
0.0
 20
0.0
 30
0.0
  9
$PUCSXDIR
 10
1.0
 20
0.0
 30
0.0
  9
$PUCSYDIR
 10
0.0
 20
1.0
 30
0.0
  9
$PUCSORTHOREF
  2

  9
$PUCSORTHOVIEW
 70
     0
  9
$PUCSORGTOP
 10
0.0
 20
0.0
 30
0.0
  9
$PUCSORGBOTTOM
 10
0.0
 20
0.0
 30
0.0
  9
$PUCSORGLEFT
 10
0.0
 20
0.0
 30
0.0
  9
$PUCSORGRIGHT
 10
0.0
 20
0.0
 30
0.0
  9
$PUCSORGFRONT
 10
0.0
 20
0.0
 30
0.0
  9
$PUCSORGBACK
 10
0.0
 20
0.0
 30
0.0
  9
$USERI1
 70
     0
  9
$USERI2
 70
     0
  9
$USERI3
 70
     0
  9
$USERI4
 70
     0
  9
$USERI5
 70
     0
  9
$USERR1
 40
0.0
  9
$USERR2
 40
0.0
  9
$USERR3
 40
0.0
  9
$USERR4
 40
0.0
  9
$USERR5
 40
0.0
  9
$WORLDVIEW
 70
     1
  9
$SHADEDGE
 70
     3
  9
$SHADEDIF
 70
    70
  9
$TILEMODE
 70
     1
  9
$MAXACTVP
 70
    64
  9
$PINSBASE
 10
0.0
 20
0.0
 30
0.0
  9
$PLIMCHECK
 70
     0
  9
$PEXTMIN
 10
1.0000000000E+20
 20
1.0000000000E+20
 30
1.0000000000E+20
  9
$PEXTMAX
 10
-1.0000000000E+20
 20
-1.0000000000E+20
 30
-1.0000000000E+20
  9
$PLIMMIN
 10
0.0
 20
0.0
  9
$PLIMMAX
 10
420.0
 20
297.0
  9
$UNITMODE
 70
     0
  9
$VISRETAIN
 70
     1
  9
$PLINEGEN
 70
     0
  9
$PSLTSCALE
 70
     1
  9
$TREEDEPTH
 70
  3020
  9
$CMLSTYLE
  2
Standard
  9
$CMLJUST
 70
     0
  9
$CMLSCALE
 40
20.0
  9
$PROXYGRAPHICS
 70
     1
  9
$MEASUREMENT
 70
     1
  9
$CELWEIGHT
370
    -1
  9
$ENDCAPS
280
     0
  9
$JOINSTYLE
280
     0
  9
$LWDISPLAY
290
     1
  9
$INSUNITS
 70
     4
  9
$HYPERLINKBASE
  1

  9
$STYLESHEET
  1

  9
$XEDIT
290
     1
  9
$CEPSNTYPE
380
     0
  9
$PSTYLEMODE
290
     1
  9
$FINGERPRINTGUID
  2
{A661E66A-AE2F-4824-8AE5-BAA105388852}
  9
$VERSIONGUID
  2
{FAEB1C32-E019-11D5-929B-00C0DF256EC4}
  9
$EXTNAMES
290
     1
  9
$PSVPSCALE
 40
0.0
  9
$OLESTARTUP
290
     0
  0
ENDSEC
  0
SECTION
  2
CLASSES
  0
CLASS
  1
ACDBDICTIONARYWDFLT
  2
AcDbDictionaryWithDefault
  3
ObjectDBX Classes
 90
        0
280
     0
281
     0
  0
CLASS
  1
VISUALSTYLE
  2
AcDbVisualStyle
  3
ObjectDBX Classes
 90
     4095
280
     0
281
     0
  0
CLASS
  1
MATERIAL
  2
AcDbMaterial
  3
ObjectDBX Classes
 90
     1153
280
     0
281
     0
  0
CLASS
  1
ACDBPLACEHOLDER
  2
AcDbPlaceHolder
  3
ObjectDBX Classes
 90
        0
280
     0
281
     0
  0
CLASS
  1
LAYOUT
  2
AcDbLayout
  3
ObjectDBX Classes
 90
        0
280
     0
281
     0
  0
ENDSEC
  0
SECTION
  2
TABLES
  0
TABLE
  2
VPORT
  5
8
330
0
100
AcDbSymbolTable
 70
     1
  0
VPORT
  5
29
330
8
100
AcDbSymbolTableRecord
100
AcDbViewportTableRecord
  2
*Active
 70
     0
 10
0.0
 20
0.0
 11
1.0
 21
1.0
 12
148.5
 22
105.0
 13
0.0
 23
0.0
 14
10.0
 24
10.0
 15
10.0
 25
10.0
 16
0.0
 26
0.0
 36
1.0
 17
0.0
 27
0.0
 37
0.0
 40
210.0
 41
1.4142857143
 42
50.0
 43
0.0
 44
0.0
 50
0.0
 51
0.0
 71
     0
 72
  2000
 73
     1
 74
     3
 75
     0
 76
     0
 77
     0
 78
     0
281
     0
 65
     1
110
0.0
120
0.0
130
0.0
111
1.0
121
0.0
131
0.0
112
0.0
122
1.0
132
0.0
 79
     0
146
0.0
  0
ENDTAB
  0
TABLE
  2
LTYPE
  5
5
330
0
100
AcDbSymbolTable
 70
     6
  0
LTYPE
  5
14
330
5
100
AcDbSymbolTableRecord
100
AcDbLinetypeTableRecord
  2
ByBlock
 70
     0
  3

 72
    65
 73
     0
 40
0.0
  0
LTYPE
  5
15
330
5
100
AcDbSymbolTableRecord
100
AcDbLinetypeTableRecord
  2
ByLayer
 70
     0
  3

 72
    65
 73
     0
 40
0.0
  0
LTYPE
  5
16
330
5
100
AcDbSymbolTableRecord
100
AcDbLinetypeTableRecord
  2
Continuous
 70
     0
  3
Solid line
 72
    65
 73
     0
 40
0.0
  0
LTYPE
  5
3F
330
5
100
AcDbSymbolTableRecord
100
AcDbLinetypeTableRecord
  2
HIDDEN
 70
     0
  3
Hidden __ __ __ __ __ __ __ __ __ __ __ __ __ __
 72
    65
 73
     2
 40
1.905
 49
1.27
 74
     0
 49
-0.635
 74
     0
  0
LTYPE
  5
40
330
5
100
AcDbSymbolTableRecord
100
AcDbLinetypeTableRecord
  2
PHANTOM
 70
     0
  3
Phantom ______  __  __  ______  __  __  ______
 72
    65
 73
     6
 40
12.7
 49
6.35
 74
     0
 49
-1.27
 74
     0
 49
1.27
 74
     0
 49
-1.27
 74
     0
 49
1.27
 74
     0
 49
-1.27
 74
     0
  0
LTYPE
  5
41
330
5
100
AcDbSymbolTableRecord
100
AcDbLinetypeTableRecord
  2
CENTER
 70
     0
  3
Center ____ _ ____ _ ____ _ ____ _ ____ _ ____
 72
    65
 73
     4
 40
10.16
 49
6.35
 74
     0
 49
-1.27
 74
     0
 49
1.27
 74
     0
 49
-1.27
 74
     0
  0
LTYPE
  5
42
330
5
100
AcDbSymbolTableRecord
100
AcDbLinetypeTableRecord
  2
CENTERX2
 70
     0
  3
Center (2x) ________  __  ________  __  _____
 72
    65
 73
     4
 40
20.32
 49
12.7
 74
     0
 49
-2.54
 74
     0
 49
2.54
 74
     0
 49
-2.54
 74
     0
  0
LTYPE
  5
43
330
5
100
AcDbSymbolTableRecord
100
AcDbLinetypeTableRecord
  2
DOT2
 70
     0
  3
Dot (.5x) ........................................
 72
    65
 73
     2
 40
0.635
 49
0.0
 74
     0
 49
-0.635
 74
     0
  0
ENDTAB
  0
TABLE
  2
LAYER
  5
2
330
0
100
AcDbSymbolTable
 70
     5
  0
LAYER
  5
10
330
2
100
AcDbSymbolTableRecord
100
AcDbLayerTableRecord
  2
0
 70
     0
 62
     7
  6
Continuous
370
    -3
390
F
  0
LAYER
  5
44
330
2
100
AcDbSymbolTableRecord
100
AcDbLayerTableRecord
  2
FORMAT
 70
     0
 62
     7
  6
Continuous
370
    -3
390
F
  0
LAYER
  5
45
330
2
100
AcDbSymbolTableRecord
100
AcDbLayerTableRecord
  2
VERMASSUNG
 70
     0
 62
     7
  6
Continuous
370
    -3
390
F
  0
LAYER
  5
46
330
2
100
AcDbSymbolTableRecord
100
AcDbLayerTableRecord
  2
KOPF_DÜNN
 70
     0
 62
     7
  6
Continuous
370
    -3
390
F
  0
LAYER
  5
47
330
2
100
AcDbSymbolTableRecord
100
AcDbLayerTableRecord
  2
KOPF_DICK
 70
     0
 62
     7
  6
Continuous
370
    15
390
F
  0
ENDTAB
  0
TABLE
  2
STYLE
  5
3
330
0
100
AcDbSymbolTable
 70
     2
  0
STYLE
  5
11
330
3
100
AcDbSymbolTableRecord
100
AcDbTextStyleTableRecord
  2
Standard
 70
     0
 40
0.0
 41
1.0
 50
0.0
 71
     0
 42
2.0
  3
txt
  4

  0
STYLE
  5
48
330
3
100
AcDbSymbolTableRecord
100
AcDbTextStyleTableRecord
  2
SLDTEXTSTYLE0
 70
     0
 40
0.0
 41
0.7
 50
0.0
 71
     0
 42
0.2
  3
TXT
  4

  0
ENDTAB
  0
TABLE
  2
VIEW
  5
6
330
0
100
AcDbSymbolTable
 70
     0
  0
ENDTAB
  0
TABLE
  2
UCS
  5
7
330
0
100
AcDbSymbolTable
 70
     0
  0
ENDTAB
  0
TABLE
  2
APPID
  5
9
330
0
100
AcDbSymbolTable
 70
     1
  0
APPID
  5
12
330
9
100
AcDbSymbolTableRecord
100
AcDbRegAppTableRecord
  2
ACAD
 70
     0
  0
ENDTAB
  0
TABLE
  2
DIMSTYLE
  5
A
330
0
100
AcDbSymbolTable
 70
     4
100
AcDbDimStyleTable
  0
DIMSTYLE
105
27
330
A
100
AcDbSymbolTableRecord
100
AcDbDimStyleTableRecord
  2
ISO-25
 70
     0
 41
2.5
 42
0.625
 43
3.75
 44
1.25
 73
     0
 74
     0
 77
     1
 78
     8
140
2.5
141
2.5
143
0.0393700787
147
0.625
171
     3
172
     1
178
     0
271
     2
272
     2
274
     3
278
    44
283
     0
284
     8
340
11
  0
DIMSTYLE
105
1BD
102
{ACAD_REACTORS
330
1BC
102
}
330
A
100
AcDbSymbolTableRecord
100
AcDbDimStyleTableRecord
  2
SLDDIMSTYLE0
 70
     0
 41
3.0
 44
0.0
 73
     0
 74
     0
 77
     1
 78
    12
 79
     3
140
2.0
147
0.5
173
     1
178
     0
179
     1
272
     3
276
     2
284
    12
340
48
  0
DIMSTYLE
105
1C7
102
{ACAD_REACTORS
330
1C6
330
1D3
102
}
330
A
100
AcDbSymbolTableRecord
100
AcDbDimStyleTableRecord
  2
SLDDIMSTYLE1
 70
     0
 41
3.0
 44
0.0
 45
0.000000001
 47
0.1
 48
0.1
 71
     1
 73
     0
 74
     0
 77
     1
 78
    12
 79
     3
140
2.0
147
0.5
173
     1
178
     0
271
     2
272
     1
276
     2
284
     8
340
48
  0
DIMSTYLE
105
1E0
102
{ACAD_REACTORS
330
1DF
330
1EA
102
}
330
A
100
AcDbSymbolTableRecord
100
AcDbDimStyleTableRecord
  2
SLDDIMSTYLE2
 70
     0
 41
3.0
 44
0.0
 45
0.000000001
 73
     0
 74
     0
 77
     1
 78
    12
 79
     3
140
2.0
147
0.5
173
     1
178
     0
271
     2
272
     3
276
     2
284
    12
340
48
  0
ENDTAB
  0
TABLE
  2
BLOCK_RECORD
  5
1
330
0
100
AcDbSymbolTable
 70
     7
  0
BLOCK_RECORD
  5
1F
330
1
100
AcDbSymbolTableRecord
100
AcDbBlockTableRecord
  2
*Model_Space
340
22
  0
BLOCK_RECORD
  5
1B
330
1
100
AcDbSymbolTableRecord
100
AcDbBlockTableRecord
  2
*Paper_Space
340
1E
  0
BLOCK_RECORD
  5
23
330
1
100
AcDbSymbolTableRecord
100
AcDbBlockTableRecord
  2
*Paper_Space0
340
26
  0
BLOCK_RECORD
  5
1BE
330
1
100
AcDbSymbolTableRecord
100
AcDbBlockTableRecord
  2
_D
340
0
  0
BLOCK_RECORD
  5
1C8
330
1
100
AcDbSymbolTableRecord
100
AcDbBlockTableRecord
  2
_D_1
340
0
  0
BLOCK_RECORD
  5
1D4
330
1
100
AcDbSymbolTableRecord
100
AcDbBlockTableRecord
  2
_D_2
340
0
  0
BLOCK_RECORD
  5
1E1
330
1
100
AcDbSymbolTableRecord
100
AcDbBlockTableRecord
  2
_D_3
340
0
  0
BLOCK_RECORD
  5
1EB
330
1
100
AcDbSymbolTableRecord
100
AcDbBlockTableRecord
  2
_D_4
340
0
  0
BLOCK_RECORD
  5
253
330
1
100
AcDbSymbolTableRecord
100
AcDbBlockTableRecord
  2
SW_CENTERMARKSYMBOL_0
340
0
102
{BLKREFS
331
25E
102
}
  0
ENDTAB
  0
ENDSEC
  0
SECTION
  2
BLOCKS
  0
BLOCK
  5
20
330
1F
100
AcDbEntity
  8
0
100
AcDbBlockBegin
  2
*Model_Space
 70
     0
 10
0.0
 20
0.0
 30
0.0
  3
*Model_Space
  1

  0
ENDBLK
  5
21
330
1F
100
AcDbEntity
  8
0
100
AcDbBlockEnd
  0
BLOCK
  5
1C
330
1B
100
AcDbEntity
 67
     1
  8
0
100
AcDbBlockBegin
  2
*Paper_Space
 70
     0
 10
0.0
 20
0.0
 30
0.0
  3
*Paper_Space
  1

  0
ENDBLK
  5
1D
330
1B
100
AcDbEntity
 67
     1
  8
0
100
AcDbBlockEnd
  0
BLOCK
  5
24
330
23
100
AcDbEntity
  8
0
100
AcDbBlockBegin
  2
*Paper_Space0
 70
     0
 10
0.0
 20
0.0
 30
0.0
  3
*Paper_Space0
  1

  0
ENDBLK
  5
25
330
23
100
AcDbEntity
  8
0
100
AcDbBlockEnd
  0
BLOCK
  5
1BF
330
1BE
100
AcDbEntity
  8
0
100
AcDbBlockBegin
  2
_D
 70
     0
 10
0.0
 20
0.0
 30
0.0
  3
_D
  1

  0
ARC
  5
1C1
330
1BE
100
AcDbEntity
  8
VERMASSUNG
100
AcDbCircle
 10
236.5416463948
 20
141.7848616023
 30
0.0
 40
12.41402986611286
100
AcDbArc
 50
90.0
 51
183.0076247934
  0
SOLID
  5
1C2
330
1BE
100
AcDbEntity
  8
VERMASSUNG
100
AcDbTrace
 10
236.5416463948
 20
154.1988914684
 30
0.0
 11
233.5094795085
 21
154.2908913267
 31
0.0
 12
233.6159318825
 22
153.397209117
 32
0.0
 13
233.6159318825
 23
153.397209117
 33
0.0
  0
SOLID
  5
1C3
330
1BE
100
AcDbEntity
  8
VERMASSUNG
100
AcDbTrace
 10
224.1447160955
 20
141.133511717
 30
0.0
 11
224.7917852993
 21
144.0972595885
 31
0.0
 12
223.8937486483
 22
144.156674852
 32
0.0
 13
223.8937486483
 23
144.156674852
 33
0.0
  0
LINE
  5
1C4
330
1BE
100
AcDbEntity
  8
VERMASSUNG
100
AcDbLine
 10
236.5416463948
 20
150.1052267868
 30
0.0
 11
236.5416463948
 21
155.1988914684
 31
0.0
  0
MTEXT
  5
1C5
330
1BE
100
AcDbEntity
  8
VERMASSUNG
100
AcDbMText
 10
223.6699388896
 20
150.0003448685
 30
0.1
 40
2.0
 41
0.0
 71
     1
 72
     1
  1
93°
  7
SLDTEXTSTYLE0
 11
0.6883063085752748
 21
0.7254201717456433
 31
0.0
 73
     1
 44
1.0
  0
ENDBLK
  5
1C0
330
1BE
100
AcDbEntity
  8
0
100
AcDbBlockEnd
  0
BLOCK
  5
1C9
330
1C8
100
AcDbEntity
  8
0
100
AcDbBlockBegin
  2
_D_1
 70
     0
 10
0.0
 20
0.0
 30
0.0
  3
_D_1
  1

  0
SOLID
  5
1CB
330
1C8
100
AcDbEntity
  8
VERMASSUNG
100
AcDbTrace
 10
186.5416463948
 20
158.12518709
 30
0.0
 11
189.5416463948
 21
157.67518709
 31
0.0
 12
189.5416463948
 22
158.57518709
 32
0.0
 13
189.5416463948
 23
158.57518709
 33
0.0
  0
SOLID
  5
1CC
330
1C8
100
AcDbEntity
  8
VERMASSUNG
100
AcDbTrace
 10
236.5416463948
 20
158.12518709
 30
0.0
 11
233.5416463948
 21
158.57518709
 31
0.0
 12
233.5416463948
 22
157.67518709
 32
0.0
 13
233.5416463948
 23
157.67518709
 33
0.0
  0
LINE
  5
1CD
330
1C8
100
AcDbEntity
  8
VERMASSUNG
100
AcDbLine
 10
186.5416463948
 20
134.4613703875
 30
0.0
 11
186.5416463948
 21
159.12518709
 31
0.0
  0
LINE
  5
1CE
330
1C8
100
AcDbEntity
  8
VERMASSUNG
100
AcDbLine
 10
236.5416463948
 20
141.7613703875
 30
0.0
 11
236.5416463948
 21
159.12518709
 31
0.0
  0
LINE
  5
1CF
330
1C8
100
AcDbEntity
  8
VERMASSUNG
100
AcDbLine
 10
186.5416463948
 20
158.12518709
 30
0.0
 11
236.5416463948
 21
158.12518709
 31
0.0
  0
MTEXT
  5
1D0
330
1C8
100
AcDbEntity
  8
VERMASSUNG
100
AcDbMText
 10
206.9916462078
 20
160.7033224531
 30
0.1
 40
2.0
 41
0.0
 71
     1
 72
     1
  1
50
  7
SLDTEXTSTYLE0
 73
     1
 44
1.0
  0
MTEXT
  5
1D1
330
1C8
100
AcDbEntity
  8
VERMASSUNG
100
AcDbMText
 10
212.7791463098
 20
160.7033224531
 30
0.1
 40
2.0
 41
0.0
 71
     1
 72
     1
  1

  7
SLDTEXTSTYLE0
 73
     1
 44
1.0
  0
MTEXT
  5
1D2
330
1C8
100
AcDbEntity
  8
VERMASSUNG
100
AcDbMText
 10
212.7916465997
 20
160.2087885903
 30
0.1
 40
1.5
 41
0.0
 71
     1
 72
     1
  1
±0.1
  7
SLDTEXTSTYLE0
 73
     1
 44
1.0
  0
ENDBLK
  5
1CA
330
1C8
100
AcDbEntity
  8
0
100
AcDbBlockEnd
  0
BLOCK
  5
1D5
330
1D4
100
AcDbEntity
  8
0
100
AcDbBlockBegin
  2
_D_2
 70
     0
 10
0.0
 20
0.0
 30
0.0
  3
_D_2
  1

  0
SOLID
  5
1D7
330
1D4
100
AcDbEntity
  8
VERMASSUNG
100
AcDbTrace
 10
246.6881833767
 20
141.7613703875
 30
0.0
 11
246.2381833767
 21
138.7613703875
 31
0.0
 12
247.1381833767
 22
138.7613703875
 32
0.0
 13
247.1381833767
 23
138.7613703875
 33
0.0
  0
SOLID
  5
1D8
330
1D4
100
AcDbEntity
  8
VERMASSUNG
100
AcDbTrace
 10
246.6881833767
 20
114.7613703875
 30
0.0
 11
247.1381833767
 21
117.7613703875
 31
0.0
 12
246.2381833767
 22
117.7613703875
 32
0.0
 13
246.2381833767
 23
117.7613703875
 33
0.0
  0
LINE
  5
1D9
330
1D4
100
AcDbEntity
  8
VERMASSUNG
100
AcDbLine
 10
236.5416463948
 20
141.7613703875
 30
0.0
 11
247.6881833767
 21
141.7613703875
 31
0.0
  0
LINE
  5
1DA
330
1D4
100
AcDbEntity
  8
VERMASSUNG
100
AcDbLine
 10
236.5416463948
 20
114.7613703875
 30
0.0
 11
247.6881833767
 21
114.7613703875
 31
0.0
  0
LINE
  5
1DB
330
1D4
100
AcDbEntity
  8
VERMASSUNG
100
AcDbLine
 10
246.6881833767
 20
141.7613703875
 30
0.0
 11
246.6881833767
 21
114.7613703875
 31
0.0
  0
MTEXT
  5
1DC
330
1D4
100
AcDbEntity
  8
VERMASSUNG
100
AcDbMText
 10
244.1100480135
 20
123.7113702005
 30
0.1
 40
2.0
 41
0.0
 71
     1
 72
     1
  1
27
  7
SLDTEXTSTYLE0
 11
-7.044195017643634E-15
 21
1.0
 31
0.0
 73
     1
 44
1.0
  0
MTEXT
  5
1DD
330
1D4
100
AcDbEntity
  8
VERMASSUNG
100
AcDbMText
 10
244.1100480135
 20
129.4988703025
 30
0.1
 40
2.0
 41
0.0
 71
     1
 72
     1
  1

  7
SLDTEXTSTYLE0
 11
-7.044195017643634E-15
 21
1.0
 31
0.0
 73
     1
 44
1.0
  0
MTEXT
  5
1DE
330
1D4
100
AcDbEntity
  8
VERMASSUNG
100
AcDbMText
 10
244.6045818763
 20
129.5113705924
 30
0.1
 40
1.5
 41
0.0
 71
     1
 72
     1
  1
±0.1
  7
SLDTEXTSTYLE0
 11
-7.044195017643634E-15
 21
1.0
 31
0.0
 73
     1
 44
1.0
  0
ENDBLK
  5
1D6
330
1D4
100
AcDbEntity
  8
0
100
AcDbBlockEnd
  0
BLOCK
  5
1E2
330
1E1
100
AcDbEntity
  8
0
100
AcDbBlockBegin
  2
_D_3
 70
     0
 10
0.0
 20
0.0
 30
0.0
  3
_D_3
  1

  0
SOLID
  5
1E4
330
1E1
100
AcDbEntity
  8
VERMASSUNG
100
AcDbTrace
 10
236.5416463948
 20
166.3478211725
 30
0.0
 11
233.5416463948
 21
166.7978211725
 31
0.0
 12
233.5416463948
 22
165.8978211725
 32
0.0
 13
233.5416463948
 23
165.8978211725
 33
0.0
  0
SOLID
  5
1E5
330
1E1
100
AcDbEntity
  8
VERMASSUNG
100
AcDbTrace
 10
162.5416463948
 20
166.3478211725
 30
0.0
 11
165.5416463948
 21
165.8978211725
 31
0.0
 12
165.5416463948
 22
166.7978211725
 32
0.0
 13
165.5416463948
 23
166.7978211725
 33
0.0
  0
LINE
  5
1E6
330
1E1
100
AcDbEntity
  8
VERMASSUNG
100
AcDbLine
 10
236.5416463948
 20
141.7613703875
 30
0.0
 11
236.5416463948
 21
167.3478211725
 31
0.0
  0
LINE
  5
1E7
330
1E1
100
AcDbEntity
  8
VERMASSUNG
100
AcDbLine
 10
162.5416463948
 20
127.3928753695
 30
0.0
 11
162.5416463948
 21
167.3478211725
 31
0.0
  0
LINE
  5
1E8
330
1E1
100
AcDbEntity
  8
VERMASSUNG
100
AcDbLine
 10
236.5416463948
 20
166.3478211725
 30
0.0
 11
162.5416463948
 21
166.3478211725
 31
0.0
  0
MTEXT
  5
1E9
330
1E1
100
AcDbEntity
  8
VERMASSUNG
100
AcDbMText
 10
197.1416462808
 20
168.9259565356
 30
0.1
 40
2.0
 41
0.0
 71
     1
 72
     1
  1
74
  7
SLDTEXTSTYLE0
 73
     1
 44
1.0
  0
ENDBLK
  5
1E3
330
1E1
100
AcDbEntity
  8
0
100
AcDbBlockEnd
  0
BLOCK
  5
1EC
330
1EB
100
AcDbEntity
  8
0
100
AcDbBlockBegin
  2
_D_4
 70
     0
 10
0.0
 20
0.0
 30
0.0
  3
_D_4
  1

  0
SOLID
  5
1EE
330
1EB
100
AcDbEntity
  8
VERMASSUNG
100
AcDbTrace
 10
154.3259848181
 20
134.7613703875
 30
0.0
 11
153.8759848181
 21
131.7613703875
 31
0.0
 12
154.7759848181
 22
131.7613703875
 32
0.0
 13
154.7759848181
 23
131.7613703875
 33
0.0
  0
SOLID
  5
1EF
330
1EB
100
AcDbEntity
  8
VERMASSUNG
100
AcDbTrace
 10
154.3259848181
 20
94.7613703875
 30
0.0
 11
154.7759848181
 21
97.7613703875
 31
0.0
 12
153.8759848181
 22
97.7613703875
 32
0.0
 13
153.8759848181
 23
97.7613703875
 33
0.0
  0
LINE
  5
1F0
330
1EB
100
AcDbEntity
  8
VERMASSUNG
100
AcDbLine
 10
186.8416463948
 20
134.7613703875
 30
0.0
 11
153.3259848181
 21
134.7613703875
 31
0.0
  0
LINE
  5
1F1
330
1EB
100
AcDbEntity
  8
VERMASSUNG
100
AcDbLine
 10
186.8416463948
 20
94.7613703875
 30
0.0
 11
153.3259848181
 21
94.7613703875
 31
0.0
  0
LINE
  5
1F2
330
1EB
100
AcDbEntity
  8
VERMASSUNG
100
AcDbLine
 10
154.3259848181
 20
134.7613703875
 30
0.0
 11
154.3259848181
 21
94.7613703875
 31
0.0
  0
MTEXT
  5
1F3
330
1EB
100
AcDbEntity
  8
VERMASSUNG
100
AcDbMText
 10
151.5478493291
 20
108.2563704481
 30
0.3724419899
 40
2.0
 41
0.0
 71
     1
 72
     1
  1
PSC
  7
SLDTEXTSTYLE0
 11
-7.044195017643634E-15
 21
1.0
 31
0.0
 73
     1
 44
1.0
  0
MTEXT
  5
1F4
330
1EB
100
AcDbEntity
  8
VERMASSUNG
100
AcDbMText
 10
151.7478493386
 20
112.8563705502
 30
0.3724419899
 40
2.0
 41
0.0
 71
     1
 72
     1
  1
%%c
  7
SLDTEXTSTYLE0
 11
-7.044195017643634E-15
 21
1.0
 31
0.0
 73
     1
 44
1.0
  0
MTEXT
  5
1F5
330
1EB
100
AcDbEntity
  8
VERMASSUNG
100
AcDbMText
 10
151.5478493291
 20
116.4663710302
 30
0.3724419899
 40
2.0
 41
0.0
 71
     1
 72
     1
  1
40
  7
SLDTEXTSTYLE0
 11
-7.044195017643634E-15
 21
1.0
 31
0.0
 73
     1
 44
1.0
  0
ENDBLK
  5
1ED
330
1EB
100
AcDbEntity
  8
0
100
AcDbBlockEnd
  0
BLOCK
  5
254
330
253
100
AcDbEntity
  8
0
100
AcDbBlockBegin
  2
SW_CENTERMARKSYMBOL_0
 70
     0
 10
0.0
 20
0.0
 30
0.0
  3
SW_CENTERMARKSYMBOL_0
  1

  0
LINE
  5
256
330
253
100
AcDbEntity
  8
VERMASSUNG
 62
     0
100
AcDbLine
 10
0.0
 20
0.0
 30
0.0
 11
0.0
 21
2.5
 31
0.0
  0
LINE
  5
257
330
253
100
AcDbEntity
  8
VERMASSUNG
 62
     0
100
AcDbLine
 10
0.0
 20
0.0
 30
0.0
 11
-2.5
 21
0.0
 31
0.0
  0
LINE
  5
258
330
253
100
AcDbEntity
  8
VERMASSUNG
 62
     0
100
AcDbLine
 10
0.0
 20
0.0
 30
0.0
 11
0.0
 21
-2.5
 31
0.0
  0
LINE
  5
259
330
253
100
AcDbEntity
  8
VERMASSUNG
 62
     0
100
AcDbLine
 10
0.0
 20
0.0
 30
0.0
 11
2.5
 21
0.0
 31
0.0
  0
LINE
  5
25A
330
253
100
AcDbEntity
  8
VERMASSUNG
 62
     0
100
AcDbLine
 10
0.0
 20
5.0
 30
0.0
 11
0.0
 21
22.5
 31
0.0
  0
LINE
  5
25B
330
253
100
AcDbEntity
  8
VERMASSUNG
 62
     0
100
AcDbLine
 10
-5.0
 20
0.0
 30
0.0
 11
-22.5
 21
0.0
 31
0.0
  0
LINE
  5
25C
330
253
100
AcDbEntity
  8
VERMASSUNG
 62
     0
100
AcDbLine
 10
0.0
 20
-5.0
 30
0.0
 11
0.0
 21
-22.5
 31
0.0
  0
LINE
  5
25D
330
253
100
AcDbEntity
  8
VERMASSUNG
 62
     0
100
AcDbLine
 10
5.0
 20
0.0
 30
0.0
 11
22.5
 21
0.0
 31
0.0
  0
ENDBLK
  5
255
330
253
100
AcDbEntity
  8
0
100
AcDbBlockEnd
  0
ENDSEC
  0
SECTION
  2
ENTITIES
  0
MTEXT
  5
49
330
1F
100
AcDbEntity
  8
KOPF_DÜNN
100
AcDbMText
 10
13.8892156294
 20
23.8442973028
 30
0.0
 40
3.0
 41
0.0
 71
     1
 72
     1
  1
PS4.PDF.RJA.050
  7
SLDTEXTSTYLE0
 73
     1
 44
1.0
  0
MTEXT
  5
4A
330
1F
100
AcDbEntity
  8
VERMASSUNG
100
AcDbMText
 10
13.9329988022
 20
28.8834360957
 30
0.0
 40
3.0
 41
0.0
 71
     1
 72
     1
  1
Klemmhalter rechts_Turning tool right 55°/93°
  7
SLDTEXTSTYLE0
 73
     1
 44
1.0
  0
MTEXT
  5
4B
330
1F
100
AcDbEntity
  8
VERMASSUNG
100
AcDbMText
 10
98.8601118557
 20
13.8365368179
 30
0.0
 40
2.0
 41
0.0
 71
     1
 72
     1
  1
Datum: 22.05.2012
  7
SLDTEXTSTYLE0
 73
     1
 44
1.0
  0
MTEXT
  5
4C
330
1F
100
AcDbEntity
  8
VERMASSUNG
100
AcDbMText
 10
13.933048693
 20
18.0482802738
 30
0.0
 40
2.0
 41
0.0
 71
     1
 72
     1
  1
PSC ø40 / DN..15 06 ..
  7
SLDTEXTSTYLE0
 73
     1
 44
1.0
  0
MTEXT
  5
4D
330
1F
100
AcDbEntity
  8
VERMASSUNG
100
AcDbMText
 10
13.9808475933
 20
13.9090973692
 30
0.0
 40
2.0
 41
0.0
 71
     1
 72
     1
  1
Gewicht: 367g
  7
SLDTEXTSTYLE0
 73
     1
 44
1.0
  0
LINE
  5
4E
330
1F
100
AcDbEntity
  8
0
  6
Continuous
 62
     7
370
    15
100
AcDbLine
 10
228.4654822684
 20
128.1989786444
 30
0.0
 11
229.2236943281
 21
128.9456730379
 31
0.0
  0
LINE
  5
4F
330
1F
100
AcDbEntity
  8
0
  6
Continuous
 62
     7
370
    15
100
AcDbLine
 10
221.6114882863
 20
140.9048765568
 30
0.0
 11
220.830555681
 21
140.1358071385
 31
0.0
  0
LINE
  5
50
330
1F
100
AcDbEntity
  8
0
  6
Continuous
 62
     7
370
    15
100
AcDbLine
 10
223.3418260253
 20
136.0002245424
 30
0.0
 11
222.9636494553
 21
135.6590922592
 31
0.0
  0
LINE
  5
51
330
1F
100
AcDbEntity
  8
0
  6
Continuous
 62
     7
370
    15
100
AcDbLine
 10
208.7743185944
 20
134.7613699404
 30
0.0
 11
186.841646409
 21
134.7613699404
 31
0.0
  0
LINE
  5
52
330
1F
100
AcDbEntity
  8
0
  6
Continuous
 62
     7
370
    15
100
AcDbLine
 10
186.841646409
 20
94.7613708345
 30
0.0
 11
208.7743185944
 21
94.7613708345
 31
0.0
  0
ARC
  5
53
330
1F
100
AcDbEntity
  8
0
  6
Continuous
 62
     7
370
    15
100
AcDbCircle
 10
186.8416463948
 20
95.0613703875
 30
0.0
 40
0.3000000000000114
100
AcDbArc
 50
180.0
 51
270.0
  0
ARC
  5
54
330
1F
100
AcDbEntity
  8
0
  6
Continuous
 62
     7
370
    15
100
AcDbCircle
 10
186.8416463948
 20
134.4613703875
 30
0.0
 40
0.3000000000000114
100
AcDbArc
 50
90.0
 51
180.0
  0
LWPOLYLINE
  5
55
330
1F
100
AcDbEntity
  8
0
  6
Continuous
 62
     7
370
    15
100
AcDbPolyline
 90
        3
 70
   128
 43
0.0
 10
186.3416463998
 20
100.6715504123
 10
186.467101335
 20
100.603248146
 10
186.5416463948
 20
100.5505101426
  0
LWPOLYLINE
  5
56
330
1F
100
AcDbEntity
  8
0
  6
Continuous
 62
     7
370
    15
100
AcDbPolyline
 90
        3
 70
   128
 43
0.0
 10
186.5416463948
 20
128.9722306324
 10
186.467101335
 20
128.919492629
 10
186.3416463998
 20
128.8511903627
  0
ARC
  5
57
330
1F
100
AcDbEntity
  8
0
  6
Continuous
 62
     7
370
    15
100
AcDbCircle
 10
208.7743194068
 20
93.7613703875
 30
0.0
 40
1.000000000000008
100
AcDbArc
 50
30.0
 51
90.0
  0
LINE
  5
58
330
1F
100
AcDbEntity
  8
0
  6
Continuous
 62
     7
370
    15
100
AcDbLine
 10
209.6403442806
 20
94.2613698212
 30
0.0
 11
211.7913455254
 21
94.2613698212
 31
0.0
  0
ARC
  5
59
330
1F
100
AcDbEntity
  8
0
  6
Continuous
 62
     7
370
    15
100
AcDbCircle
 10
208.7743194068
 20
135.7613703875
 30
0.0
 40
1.0
100
AcDbArc
 50
270.0
 51
345.0
  0
LINE
  5
5A
330
1F
100
AcDbEntity
  8
0
  6
Continuous
 62
     7
370
    15
100
AcDbLine
 10
210.6368184573
 20
138.8486075817
 30
0.0
 11
209.7402453906
 21
135.5025518356
 31
0.0
  0
LINE
  5
5B
330
1F
100
AcDbEntity
  8
0
  6
Continuous
 62
     7
370
    15
100
AcDbLine
 10
221.0083526111
 20
140.1576373396
 30
0.0
 11
210.6516972667
 21
138.886000183
 31
0.0
  0
LINE
  5
5C
330
1F
100
AcDbEntity
  8
0
  6
Continuous
 62
     7
370
    15
100
AcDbLine
 10
214.7183694429
 20
128.0880087657
 30
0.0
 11
228.9756719506
 21
128.8371050401
 31
0.0
  0
ARC
  5
5D
330
1F
100
AcDbEntity
  8
0
  6
Continuous
 62
     7
370
    15
100
AcDbCircle
 10
214.6971835671
 20
128.4915414152
 30
0.0
 40
0.4040884068697893
100
AcDbArc
 50
150.5166696915
 51
273.0053276553
  0
LINE
  5
5E
330
1F
100
AcDbEntity
  8
0
  6
Continuous
 62
     7
370
    15
100
AcDbLine
 10
221.5518575645
 20
140.8287223099
 30
0.0
 11
214.3454250431
 21
128.6904217346
 31
0.0
  0
ARC
  5
5F
330
1F
100
AcDbEntity
  8
0
  6
Continuous
 62
     7
370
    15
100
AcDbCircle
 10
221.8778132517
 20
140.6344040303
 30
0.0
 40
0.3794821521389912
100
AcDbArc
 50
92.764472644
 51
149.1987429823
  0
LINE
  5
60
330
1F
100
AcDbEntity
  8
0
  6
Continuous
 62
     7
370
    15
100
AcDbLine
 10
236.1168150342
 20
141.762540829
 30
0.0
 11
221.8595106638
 21
141.0134445546
 31
0.0
  0
ARC
  5
61
330
1F
100
AcDbEntity
  8
0
  6
Continuous
 62
     7
370
    15
100
AcDbCircle
 10
236.1379989005
 20
141.3590080231
 30
0.0
 40
0.4040884576929736
100
AcDbArc
 50
330.5166992386
 51
93.0050419645
  0
LINE
  5
62
330
1F
100
AcDbEntity
  8
0
  6
Continuous
 62
     7
370
    15
100
AcDbLine
 10
229.2833213246
 20
129.0218272848
 30
0.0
 11
236.4897575713
 21
141.1601278601
 31
0.0
  0
ARC
  5
63
330
1F
100
AcDbEntity
  8
0
  6
Continuous
 62
     7
370
    15
100
AcDbCircle
 10
228.9573708312
 20
129.2161365451
 30
0.0
 40
0.3794730725350954
100
AcDbArc
 50
272.7643168543
 51
329.1995111391
  0
ARC
  5
64
330
1F
100
AcDbEntity
  8
0
  6
Continuous
 62
     7
370
    15
100
AcDbCircle
 10
236.1385703063
 20
141.3595040151
 30
0.0
 40
0.3838857781209124
100
AcDbArc
 50
330.5171872993
 51
93.0048671832
  0
LINE
  5
65
330
1F
100
AcDbEntity
  8
0
  6
Continuous
 62
     7
370
    15
100
AcDbLine
 10
236.1184467113
 20
141.742861983
 30
0.0
 11
221.8611423409
 21
140.9937657086
 31
0.0
  0
ARC
  5
66
330
1F
100
AcDbEntity
  8
0
  6
Continuous
 62
     7
370
    15
100
AcDbCircle
 10
221.878525551
 20
140.6336884326
 30
0.0
 40
0.3604966306784997
100
AcDbArc
 50
92.7638842293
 51
149.1996001305
  0
LINE
  5
67
330
1F
100
AcDbEntity
  8
0
  6
Continuous
 62
     7
370
    15
100
AcDbLine
 10
221.5688746906
 20
140.8182803212
 30
0.0
 11
214.3624403066
 21
128.6799797459
 31
0.0
  0
ARC
  5
68
330
1F
100
AcDbEntity
  8
0
  6
Continuous
 62
     7
370
    15
100
AcDbCircle
 10
214.6966090853
 20
128.4910424968
 30
0.0
 40
0.3838828685055991
100
AcDbArc
 50
150.5164132031
 51
273.0053716546
  0
LINE
  5
69
330
1F
100
AcDbEntity
  8
0
  6
Continuous
 62
     7
370
    15
100
AcDbLine
 10
214.7167359031
 20
128.1076876117
 30
0.0
 11
228.9740402735
 21
128.8567838861
 31
0.0
  0
ARC
  5
6A
330
1F
100
AcDbEntity
  8
0
  6
Continuous
 62
     7
370
    15
100
AcDbCircle
 10
228.9566595101
 20
129.2168561076
 30
0.0
 40
0.3604914640247576
100
AcDbArc
 50
272.763534546
 51
329.2002182053
  0
LINE
  5
6B
330
1F
100
AcDbEntity
  8
0
  6
Continuous
 62
     7
370
    15
100
AcDbLine
 10
229.2663079238
 20
129.0322702048
 30
0.0
 11
236.4727441705
 21
141.1705698488
 31
0.0
  0
LINE
  5
6C
330
1F
100
AcDbEntity
  8
0
  6
Continuous
 62
     7
370
    15
100
AcDbLine
 10
216.3606524951
 20
129.4338518424
 30
0.0
 11
214.6476261801
 21
128.4440580426
 31
0.0
  0
LINE
  5
6D
330
1F
100
AcDbEntity
  8
0
  6
Continuous
 62
     7
370
    15
100
AcDbLine
 10
216.3606524951
 20
129.4338518424
 30
0.0
 11
217.023335073
 21
129.4686702682
 31
0.0
  0
LINE
  5
6E
330
1F
100
AcDbEntity
  8
0
  6
Continuous
 62
     7
370
    15
100
AcDbLine
 10
228.6055531836
 20
129.5640824033
 30
0.0
 11
228.9049286878
 21
129.193154317
 31
0.0
  0
LINE
  5
6F
330
1F
100
AcDbEntity
  8
0
  6
Continuous
 62
     7
370
    15
100
AcDbLine
 10
215.4050335771
 20
131.2465790329
 30
0.0
 11
213.4607878065
 21
127.9717489747
 31
0.0
  0
LINE
  5
70
330
1F
100
AcDbEntity
  8
0
  6
Continuous
 62
     7
370
    15
100
AcDbLine
 10
222.066785816
 20
140.1260971693
 30
0.0
 11
221.8540605641
 21
140.5823576866
 31
0.0
  0
LINE
  5
71
330
1F
100
AcDbEntity
  8
0
  6
Continuous
 62
     7
370
    15
100
AcDbLine
 10
216.6956101096
 20
129.9980424015
 30
0.0
 11
216.3606524951
 21
129.4338518424
 31
0.0
  0
ARC
  5
72
330
1F
100
AcDbEntity
  8
0
  6
Continuous
 62
     7
370
    15
100
AcDbCircle
 10
219.4400053534
 20
131.343884315
 30
0.0
 40
1.010222802363372
100
AcDbArc
 50
150.5168509168
 51
273.0051976586
  0
ARC
  5
73
330
1F
100
AcDbEntity
  8
0
  6
Continuous
 62
     7
370
    15
100
AcDbCircle
 10
216.5087644347
 20
129.5077747957
 30
0.0
 40
0.9138848253259811
100
AcDbArc
 50
31.7156432181
 51
31.8610663383
  0
SPLINE
  5
74
330
1F
100
AcDbEntity
  8
0
  6
Continuous
 62
     7
370
    15
100
AcDbSpline
210
0.0
220
0.0
230
1.0
 70
     8
 71
     3
 72
    14
 73
    10
 74
     0
 42
0.00000001
 43
0.00000001
 12
1.0
 22
0.0
 32
0.0
 13
1.0
 23
0.0
 33
0.0
 40
0.0
 40
0.0
 40
0.0
 40
0.0
 40
0.2234974236772179
 40
0.3567627521551293
 40
0.4531219802739533
 40
0.5344628806634244
 40
0.6157324628165542
 40
0.7396165346874498
 40
1.0
 40
1.0
 40
1.0
 40
1.0
 10
217.0233350730316
 20
129.4686702681679
 30
0.0
 10
217.081783729302
 20
129.4742843789016
 30
0.0
 10
217.1750837017478
 20
129.4832460284961
 30
0.0
 10
217.2852094492024
 20
129.5287130398136
 30
0.0
 10
217.348164966186
 20
129.5807063960416
 30
0.0
 10
217.3820283159087
 20
129.6402025409769
 30
0.0
 10
217.3941262669988
 20
129.7152425288541
 30
0.0
 10
217.3722813481818
 20
129.8384161806199
 30
0.0
 10
217.3209555329204
 20
129.9277047927205
 30
0.0
 10
217.2861766553299
 20
129.9882076350946
 30
0.0
  0
SPLINE
  5
75
330
1F
100
AcDbEntity
  8
0
  6
Continuous
 62
     7
370
    15
100
AcDbSpline
210
0.0
220
0.0
230
1.0
 70
     8
 71
     3
 72
    14
 73
    10
 74
     0
 42
0.00000001
 43
0.00000001
 12
1.0
 22
0.0
 32
0.0
 13
1.0
 23
0.0
 33
0.0
 40
0.0
 40
0.0
 40
0.0
 40
0.0
 40
0.22105944983173
 40
0.3460788962471126
 40
0.4396023725273999
 40
0.5338901971977179
 40
0.6146566727875109
 40
0.7517250790555947
 40
1.0
 40
1.0
 40
1.0
 40
1.0
 10
217.284954760112
 20
129.9901792449851
 30
0.0
 10
217.2523240358261
 20
130.0394077189974
 30
0.0
 10
217.2012391125027
 20
130.1164771949375
 30
0.0
 10
217.1122688844443
 20
130.1947298464483
 30
0.0
 10
217.03578338507
 20
130.2304366007865
 30
0.0
 10
216.9632806542819
 20
130.2342606880725
 30
0.0
 10
216.8851714985507
 20
130.2088654507099
 30
0.0
 10
216.7864060567612
 20
130.1358283939734
 30
0.0
 10
216.7311872992895
 20
130.0520320182469
 30
0.0
 10
216.695610109605
 20
129.9980424014825
 30
0.0
  0
LINE
  5
76
330
1F
100
AcDbEntity
  8
0
  6
Continuous
 62
     7
370
    15
100
AcDbLine
 10
219.4929678476
 20
130.3350507883
 30
0.0
 11
227.4722639954
 21
130.7542930959
 31
0.0
  0
LINE
  5
77
330
1F
100
AcDbEntity
  8
0
  6
Continuous
 62
     7
370
    15
100
AcDbLine
 10
222.5937877334
 20
138.6344499556
 30
0.0
 11
218.560605917
 21
131.8410832105
 31
0.0
  0
ARC
  5
78
330
1F
100
AcDbEntity
  8
0
  6
Continuous
 62
     7
370
    15
100
AcDbCircle
 10
223.4086665133
 20
138.1486756477
 30
0.0
 40
0.9486854611589888
100
AcDbArc
 50
92.764012218
 51
149.1995298573
  0
LINE
  5
79
330
1F
100
AcDbEntity
  8
0
  6
Continuous
 62
     7
370
    15
100
AcDbLine
 10
231.3422147668
 20
139.515497875
 30
0.0
 11
223.362918619
 21
139.0962574301
 31
0.0
  0
ARC
  5
7A
330
1F
100
AcDbEntity
  8
0
  6
Continuous
 62
     7
370
    15
100
AcDbCircle
 10
231.3951784648
 20
138.5066657085
 30
0.0
 40
1.010221507121876
100
AcDbArc
 50
330.5168421173
 51
93.0052698879
  0
LINE
  5
7B
330
1F
100
AcDbEntity
  8
0
  6
Continuous
 62
     7
370
    15
100
AcDbLine
 10
228.241394881
 20
131.2160987077
 30
0.0
 11
232.2745766974
 21
138.0094673155
 31
0.0
  0
ARC
  5
7C
330
1F
100
AcDbEntity
  8
0
  6
Continuous
 62
     7
370
    15
100
AcDbCircle
 10
227.4265178862
 20
131.7018738645
 30
0.0
 40
0.9486843624974725
100
AcDbArc
 50
272.7639074839
 51
329.1994306148
  0
LWPOLYLINE
  5
7D
330
1F
100
AcDbEntity
  8
0
  6
Continuous
 62
     7
370
    15
100
AcDbPolyline
 90
       32
 70
   128
 43
0.0
 10
227.6125137246
 20
133.5782233296
 10
227.8252128995
 20
134.0397420941
 10
227.9393446184
 20
134.5375172464
 10
227.9502373672
 20
135.0511658607
 10
227.8574441111
 20
135.5596605359
 10
227.664760921
 20
136.0421843497
 10
227.3800779617
 20
136.4789802251
 10
227.0150516665
 20
136.8521686314
 10
226.5846241749
 20
137.1464684276
 10
226.1064198351
 20
137.3498338876
 10
225.6000113225
 20
137.4539352624
 10
225.0861373282
 20
137.454514545
 10
224.5858345664
 20
137.3515475212
 10
224.1195809579
 20
137.1492474942
 10
223.7064686156
 20
136.855897647
 10
223.3634103573
 20
136.4835064528
 10
223.1044505275
 20
136.0473233877
 10
222.9401913023
 20
135.5652019052
 10
222.8773568309
 20
135.0568823187
 10
222.9185212887
 20
134.5431759624
 10
223.0619971192
 20
134.0451121001
 10
223.3019095397
 20
133.5830811081
 10
223.628438685
 20
133.1760000108
 10
224.0282182134
 20
132.8405357568
 10
224.484875474
 20
132.5904197661
 10
224.9797206855
 20
132.4358928619
 10
225.4924919939
 20
132.3832824497
 10
226.0021973884
 20
132.4347398845
 10
226.4879677928
 20
132.5881622402
 10
226.9299176073
 20
132.8372649519
 10
227.3099493719
 20
133.1718500374
 10
227.6125137246
 20
133.5782233296
  0
LWPOLYLINE
  5
7E
330
1F
100
AcDbEntity
  8
0
  6
Continuous
 62
     7
370
    15
100
AcDbPolyline
 90
        3
 70
   128
 43
0.0
 10
223.8713313377
 20
136.3547250299
 10
223.4831672645
 20
136.2656328497
 10
223.1446799374
 20
136.1304551033
  0
SPLINE
  5
7F
330
1F
100
AcDbEntity
  8
0
  6
Continuous
 62
     7
370
    15
100
AcDbSpline
210
0.0
220
0.0
230
1.0
 70
     8
 71
     3
 72
    11
 73
     7
 74
     0
 42
0.00000001
 43
0.00000001
 12
1.0
 22
0.0
 32
0.0
 13
1.0
 23
0.0
 33
0.0
 40
0.0
 40
0.0
 40
0.0
 40
0.0
 40
0.3280462410465604
 40
0.6557013819751681
 40
0.9906969180031968
 40
0.9999999999999999
 40
0.9999999999999999
 40
0.9999999999999999
 40
0.9999999999999999
 10
228.6055531835929
 20
129.5640824032921
 30
0.0
 10
228.5613864703734
 20
129.6222946923755
 30
0.0
 10
228.4731056999461
 20
129.7386498692498
 30
0.0
 10
228.3464853145138
 20
129.9488565492154
 30
0.0
 10
228.2751140975036
 20
130.0897373473195
 30
0.0
 10
228.244422111667
 20
130.157958592361
 30
0.0
 10
228.2435928023235
 20
130.1598019568223
 30
0.0
  0
LINE
  5
80
330
1F
100
AcDbEntity
  8
0
  6
Continuous
 62
     7
370
    15
100
AcDbLine
 10
234.1966923809
 20
140.1430807678
 30
0.0
 11
236.1113612092
 21
141.3314539609
 31
0.0
  0
LINE
  5
81
330
1F
100
AcDbEntity
  8
0
  6
Continuous
 62
     7
370
    15
100
AcDbLine
 10
233.861736629
 20
139.57889114
 30
0.0
 11
234.1966923809
 21
140.1430807678
 31
0.0
  0
SPLINE
  5
82
330
1F
100
AcDbEntity
  8
0
  6
Continuous
 62
     7
370
    15
100
AcDbSpline
210
0.0
220
0.0
230
1.0
 70
     8
 71
     3
 72
    11
 73
     7
 74
     0
 42
0.00000001
 43
0.00000001
 12
1.0
 22
0.0
 32
0.0
 13
1.0
 23
0.0
 33
0.0
 40
0.0
 40
0.0
 40
0.0
 40
0.0
 40
0.328044869383278
 40
0.6557022534583253
 40
0.9906981158562391
 40
0.9999999999999999
 40
0.9999999999999999
 40
0.9999999999999999
 40
0.9999999999999999
 10
222.0667858159916
 20
140.1260971693296
 30
0.0
 10
222.100852764219
 20
140.0579394103816
 30
0.0
 10
222.1689464209289
 20
139.9217044001621
 30
0.0
 10
222.2999308516825
 20
139.7157972042158
 30
0.0
 10
222.3909986688828
 20
139.5943019856939
 30
0.0
 10
222.4360270536174
 20
139.5402088448938
 30
0.0
 10
222.4372435844318
 20
139.5387474117775
 30
0.0
  0
LINE
  5
83
330
1F
100
AcDbEntity
  8
0
  6
Continuous
 62
     7
370
    15
100
AcDbLine
 10
234.1966923809
 20
140.1430807678
 30
0.0
 11
233.5340116656
 21
140.1082642047
 31
0.0
  0
ARC
  5
84
330
1F
100
AcDbEntity
  8
0
  6
Continuous
 62
     7
370
    15
100
AcDbCircle
 10
232.864291762
 20
139.3360901894
 30
0.0
 40
0.4789308654570624
100
AcDbArc
 50
31.559297194
 51
31.8366507121
  0
SPLINE
  5
85
330
1F
100
AcDbEntity
  8
0
  6
Continuous
 62
     7
370
    15
100
AcDbSpline
210
0.0
220
0.0
230
1.0
 70
     8
 71
     3
 72
    14
 73
    10
 74
     0
 42
0.00000001
 43
0.00000001
 12
1.0
 22
0.0
 32
0.0
 13
1.0
 23
0.0
 33
0.0
 40
0.0
 40
0.0
 40
0.0
 40
0.0
 40
0.2210577561497364
 40
0.346079307989264
 40
0.4396019804637162
 40
0.5338918321062095
 40
0.614656217341239
 40
0.7517259626093358
 40
1.0
 40
1.0
 40
1.0
 40
1.0
 10
233.2723882532493
 20
139.5867533652086
 30
0.0
 10
233.3050190153321
 20
139.5375253001571
 30
0.0
 10
233.3561044500051
 20
139.4604557822927
 30
0.0
 10
233.4450752156677
 20
139.3822026679996
 30
0.0
 10
233.5215622277292
 20
139.3464974516813
 30
0.0
 10
233.5940652386593
 20
139.3426708763314
 30
0.0
 10
233.6721737853545
 20
139.3680695791668
 30
0.0
 10
233.770941033454
 20
139.4411037115688
 30
0.0
 10
233.8261596796904
 20
139.524901116262
 30
0.0
 10
233.8617366290466
 20
139.5788911400337
 30
0.0
  0
SPLINE
  5
86
330
1F
100
AcDbEntity
  8
0
  6
Continuous
 62
     7
370
    15
100
AcDbSpline
210
0.0
220
0.0
230
1.0
 70
     8
 71
     3
 72
    14
 73
    10
 74
     0
 42
0.00000001
 43
0.00000001
 12
1.0
 22
0.0
 32
0.0
 13
1.0
 23
0.0
 33
0.0
 40
0.0
 40
0.0
 40
0.0
 40
0.0
 40
0.22349881838325
 40
0.3567634553758136
 40
0.4531222315397944
 40
0.5344627298378262
 40
0.6157334788965185
 40
0.7396157907479408
 40
0.9999999999999999
 40
0.9999999999999999
 40
0.9999999999999999
 40
0.9999999999999999
 10
233.53401166562
 20
140.1082642046709
 30
0.0
 10
233.4755623747185
 20
140.1026497736882
 30
0.0
 10
233.3822617875517
 20
140.0936876511506
 30
0.0
 10
233.2721354773377
 20
140.0482204898165
 30
0.0
 10
233.2091797241312
 20
139.9962271861489
 30
0.0
 10
233.1753169628509
 20
139.9367305301734
 30
0.0
 10
233.1632158383789
 20
139.8616909572866
 30
0.0
 10
233.1850622287706
 20
139.7385163067528
 30
0.0
 10
233.2363898146244
 20
139.6492285214148
 30
0.0
 10
233.2711700833217
 20
139.5887259064216
 30
0.0
  0
LINE
  5
87
330
1F
100
AcDbEntity
  8
0
  6
Continuous
 62
     7
370
    15
100
AcDbLine
 10
213.3144099749
 20
128.0750512747
 30
0.0
 11
213.2567294425
 21
127.9610275893
 31
0.0
  0
LINE
  5
88
330
1F
100
AcDbEntity
  8
0
  6
Continuous
 62
     7
370
    15
100
AcDbLine
 10
215.4050335771
 20
131.2465790329
 30
0.0
 11
213.8145171589
 21
128.5675607292
 31
0.0
  0
LINE
  5
89
330
1F
100
AcDbEntity
  8
0
  6
Continuous
 62
     7
370
    15
100
AcDbLine
 10
214.9049263931
 20
130.7540695785
 30
0.0
 11
213.3144099749
 21
128.0750512747
 31
0.0
  0
LWPOLYLINE
  5
8A
330
1F
100
AcDbEntity
  8
0
  6
Continuous
 62
     7
370
    15
100
AcDbPolyline
 90
       38
 70
   128
 43
0.0
 10
214.2288867867
 20
125.2611895693
 10
214.7000205255
 20
125.5929089753
 10
215.2228780574
 20
125.8384437902
 10
215.7824129349
 20
125.990729001
 10
216.3625337667
 20
126.0453864602
 10
216.9465475268
 20
126.0008413015
 10
217.5176550186
 20
125.8583759559
 10
218.059427712
 20
125.6220891742
 10
218.5562771297
 20
125.2987777485
 10
218.9939093328
 20
124.8977437286
 10
219.3597402907
 20
124.4305234073
 10
219.6432386077
 20
123.9105585633
 10
219.8362496233
 20
123.3528062372
 10
219.9332263804
 20
122.7733131168
 10
219.9313711858
 20
122.1887503421
 10
219.8307473696
 20
121.6159338733
 10
219.6342383063
 20
121.0713434635
 10
219.3475064373
 20
120.5706448896
 10
218.9787921048
 20
120.1282433836
 10
218.5387123859
 20
119.7568654684
 10
218.0399183667
 20
119.4671952767
 10
217.4967654533
 20
119.2675658172
 10
216.9248775131
 20
119.1637205562
 10
216.3407054282
 20
119.1586462451
 10
215.7610558457
 20
119.2524895674
 10
215.2026050276
 20
119.4425501531
 10
214.6814164257
 20
119.7233606731
 10
214.2124861962
 20
120.0868428355
 10
213.8093036151
 20
120.5225397503
 10
213.4834655112
 20
121.0179172127
 10
213.2443484402
 20
121.5587236589
 10
213.0988292879
 20
122.1294022767
 10
213.0510971433
 20
122.7135343147
 10
213.1025229133
 20
123.2943163855
 10
213.2516257948
 20
123.8550396306
 10
213.4941198415
 20
124.3795744745
 10
213.8230275846
 20
124.8528288348
 10
214.2288867867
 20
125.2611895693
  0
LWPOLYLINE
  5
8B
330
1F
100
AcDbEntity
  8
0
  6
Continuous
 62
     7
370
    15
100
AcDbPolyline
 90
       29
 70
   128
 43
0.0
 10
215.2013235277
 20
124.1194253458
 10
215.5637532956
 20
124.3596721111
 10
215.9730248636
 20
124.5115345014
 10
216.4086156077
 20
124.5673980234
 10
216.8486841506
 20
124.5244612588
 10
217.2711637354
 20
124.3848764939
 10
217.6548686362
 20
124.1556444807
 10
217.9805595911
 20
123.8482596023
 10
218.2319012022
 20
123.478134316
 10
218.3962982631
 20
123.0638289494
 10
218.4654955304
 20
122.6261185152
 10
218.4360359347
 20
122.1869519582
 10
218.3093872404
 20
121.7683504006
 10
218.0919010675
 20
121.3913049219
 10
217.7944887913
 20
121.0747213704
 10
217.4320608861
 20
120.8344746051
 10
217.022789318
 20
120.6826122148
 10
216.5871967113
 20
120.6267491585
 10
216.1471281684
 20
120.6696859231
 10
215.7246485836
 20
120.8092702223
 10
215.3409436828
 20
121.0385022355
 10
215.0152545905
 20
121.3458875796
 10
214.7639111168
 20
121.7160128659
 10
214.5995159185
 20
122.1303177668
 10
214.5303167886
 20
122.568028201
 10
214.5597782469
 20
123.0071952237
 10
214.6864269412
 20
123.42579585
 10
214.9039112515
 20
123.8028417943
 10
215.2013235277
 20
124.1194253458
  0
SPLINE
  5
8C
330
1F
100
AcDbEntity
  8
0
  6
Continuous
 62
     7
370
    15
100
AcDbSpline
210
0.0
220
0.0
230
1.0
 70
     8
 71
     3
 72
    11
 73
     7
 74
     0
 42
0.00000001
 43
0.00000001
 12
1.0
 22
0.0
 32
0.0
 13
1.0
 23
0.0
 33
0.0
 40
0.0
 40
0.0
 40
0.0
 40
0.0
 40
0.1081097664503826
 40
0.4711575165949344
 40
0.8135805336092604
 40
1.0
 40
1.0
 40
1.0
 40
1.0
 10
216.7818077391759
 20
120.8677079198856
 30
0.0
 10
216.8203564684915
 20
120.899554366987
 30
0.0
 10
216.9883572344589
 20
121.0383456475653
 30
0.0
 10
217.3263455344569
 20
121.3204455496481
 30
0.0
 10
217.7454112706692
 20
121.6764493303965
 30
0.0
 10
217.9823145230878
 20
121.8796405006081
 30
0.0
 10
218.0658240354435
 20
121.9512663451928
 30
0.0
  0
SPLINE
  5
8D
330
1F
100
AcDbEntity
  8
0
  6
Continuous
 62
     7
370
    15
100
AcDbSpline
210
0.0
220
0.0
230
1.0
 70
     8
 71
     3
 72
    11
 73
     7
 74
     0
 42
0.00000001
 43
0.00000001
 12
1.0
 22
0.0
 32
0.0
 13
1.0
 23
0.0
 33
0.0
 40
0.0
 40
0.0
 40
0.0
 40
0.0
 40
0.216450392281745
 40
0.4403000894744605
 40
0.7518915037305943
 40
1.0
 40
1.0
 40
1.0
 40
1.0
 10
218.0658240354435
 20
121.9512663451928
 30
0.0
 10
218.0337549972808
 20
122.0572972111444
 30
0.0
 10
217.968520648553
 20
122.27298358285
 30
0.0
 10
217.8670821925717
 20
122.6925635345709
 30
0.0
 10
217.7850713949164
 20
123.1690440820633
 30
0.0
 10
217.7506508694229
 20
123.4917555295602
 30
0.0
 10
217.735392648615
 20
123.6348097814221
 30
0.0
  0
SPLINE
  5
8E
330
1F
100
AcDbEntity
  8
0
  6
Continuous
 62
     7
370
    15
100
AcDbSpline
210
0.0
220
0.0
230
1.0
 70
     8
 71
     3
 72
    11
 73
     7
 74
     0
 42
0.00000001
 43
0.00000001
 12
1.0
 22
0.0
 32
0.0
 13
1.0
 23
0.0
 33
0.0
 40
0.0
 40
0.0
 40
0.0
 40
0.0
 40
0.2164505487016138
 40
0.4403005065200924
 40
0.7518921115544648
 40
0.9999999999999999
 40
0.9999999999999999
 40
0.9999999999999999
 40
0.9999999999999999
 10
217.735392648615
 20
123.6348097814221
 30
0.0
 10
217.6153701933084
 20
123.6666177825422
 30
0.0
 10
217.3712222889381
 20
123.7313211482237
 30
0.0
 10
216.937760622194
 20
123.8707123187074
 30
0.0
 10
216.4995872791555
 20
124.046634762309
 30
0.0
 10
216.2372427761824
 20
124.1770038030731
 30
0.0
 10
216.1209486908094
 20
124.234794792344
 30
0.0
  0
SPLINE
  5
8F
330
1F
100
AcDbEntity
  8
0
  6
Continuous
 62
     7
370
    15
100
AcDbSpline
210
0.0
220
0.0
230
1.0
 70
     8
 71
     3
 72
    11
 73
     7
 74
     0
 42
0.00000001
 43
0.00000001
 12
1.0
 22
0.0
 32
0.0
 13
1.0
 23
0.0
 33
0.0
 40
0.0
 40
0.0
 40
0.0
 40
0.0
 40
0.1864195185999738
 40
0.5288417015265028
 40
0.8918895820941845
 40
1.0
 40
1.0
 40
1.0
 40
1.0
 10
216.1209486908094
 20
124.234794792344
 30
0.0
 10
216.037439166955
 20
124.1631689636614
 30
0.0
 10
215.8005362985189
 20
123.9599781958799
 30
0.0
 10
215.3814714332885
 20
123.6039742268935
 30
0.0
 10
215.0434847183137
 20
123.3218733170449
 30
0.0
 10
214.8754817886503
 20
123.183082782101
 30
0.0
 10
214.8369323945419
 20
123.1512363670368
 30
0.0
  0
SPLINE
  5
90
330
1F
100
AcDbEntity
  8
0
  6
Continuous
 62
     7
370
    15
100
AcDbSpline
210
0.0
220
0.0
230
1.0
 70
     8
 71
     3
 72
    11
 73
     7
 74
     0
 42
0.00000001
 43
0.00000001
 12
1.0
 22
0.0
 32
0.0
 13
1.0
 23
0.0
 33
0.0
 40
0.0
 40
0.0
 40
0.0
 40
0.0
 40
0.2164502047420483
 40
0.4402999182890491
 40
0.7518917121094614
 40
1.0
 40
1.0
 40
1.0
 40
1.0
 10
214.8369323945419
 20
123.1512363670368
 30
0.0
 10
214.8501326299223
 20
123.0266241410382
 30
0.0
 10
214.876984360399
 20
122.7731397288135
 30
0.0
 10
214.9464316514302
 20
122.3220537250098
 30
0.0
 10
215.0477311730044
 20
121.8645667956528
 30
0.0
 10
215.1306201144878
 20
121.5895877994678
 30
0.0
 10
215.1673637813703
 20
121.4676929308075
 30
0.0
  0
SPLINE
  5
91
330
1F
100
AcDbEntity
  8
0
  6
Continuous
 62
     7
370
    15
100
AcDbSpline
210
0.0
220
0.0
230
1.0
 70
     8
 71
     3
 72
    11
 73
     7
 74
     0
 42
0.00000001
 43
0.00000001
 12
1.0
 22
0.0
 32
0.0
 13
1.0
 23
0.0
 33
0.0
 40
0.0
 40
0.0
 40
0.0
 40
0.0
 40
0.2164494708281866
 40
0.4402997067763597
 40
0.7518913120621777
 40
0.9999999999999999
 40
0.9999999999999999
 40
0.9999999999999999
 40
0.9999999999999999
 10
215.1673637813703
 20
121.4676929308075
 30
0.0
 10
215.2685175939399
 20
121.4173037679004
 30
0.0
 10
215.4742838351015
 20
121.3148025533314
 30
0.0
 10
215.8757531449912
 20
121.1439049801407
 30
0.0
 10
216.3332133322836
 20
120.9869766915522
 30
0.0
 10
216.6440274318188
 20
120.904339870186
 30
0.0
 10
216.7818077391759
 20
120.8677079198856
 30
0.0
  0
LINE
  5
92
330
1F
100
AcDbEntity
  8
0
  6
Continuous
 62
     7
370
    15
100
AcDbLine
 10
215.472884152
 20
123.5965771271
 30
0.0
 11
216.1209486908
 21
124.2347947923
 31
0.0
  0
LINE
  5
93
330
1F
100
AcDbEntity
  8
0
  6
Continuous
 62
     7
370
    15
100
AcDbLine
 10
215.472884152
 20
123.5965771271
 30
0.0
 11
214.8308769352
 21
123.0547969831
 31
0.0
  0
LINE
  5
94
330
1F
100
AcDbEntity
  8
0
  6
Continuous
 62
     7
370
    15
100
AcDbLine
 10
217.4032830185
 20
121.3868047712
 30
0.0
 11
217.2525428719
 21
122.1548199324
 31
0.0
  0
LINE
  5
95
330
1F
100
AcDbEntity
  8
0
  6
Continuous
 62
     7
370
    15
100
AcDbLine
 10
217.2525428719
 20
122.1548199324
 30
0.0
 11
217.0873281098
 21
122.9965921162
 31
0.0
  0
LINE
  5
96
330
1F
100
AcDbEntity
  8
0
  6
Continuous
 62
     7
370
    15
100
AcDbLine
 10
217.0873281098
 20
122.9965921162
 30
0.0
 11
217.7353926486
 21
123.6348097814
 31
0.0
  0
LINE
  5
97
330
1F
100
AcDbEntity
  8
0
  6
Continuous
 62
     7
370
    15
100
AcDbLine
 10
217.0873281098
 20
122.9965921162
 30
0.0
 11
216.2801061309
 21
123.296584156
 31
0.0
  0
LINE
  5
98
330
1F
100
AcDbEntity
  8
0
  6
Continuous
 62
     7
370
    15
100
AcDbLine
 10
216.2801061309
 20
123.296584156
 30
0.0
 11
215.472884152
 21
123.5965771271
 31
0.0
  0
ARC
  5
99
330
1F
100
AcDbEntity
  8
0
  6
Continuous
 62
     7
370
    15
100
AcDbCircle
 10
215.7432742856
 20
121.8543736235
 30
0.0
 40
1.538882597909276
100
AcDbArc
 50
11.2585493321
 51
69.5832998534
  0
ARC
  5
9A
330
1F
100
AcDbEntity
  8
0
  6
Continuous
 62
     7
370
    15
100
AcDbCircle
 10
215.8274129702
 20
121.8687108189
 30
0.0
 40
1.453565843553309
100
AcDbArc
 50
326.9388999422
 51
11.3517976729
  0
ARC
  5
9B
330
1F
100
AcDbEntity
  8
0
  6
Continuous
 62
     7
370
    15
100
AcDbCircle
 10
215.7623356213
 20
121.9359039911
 30
0.0
 40
1.455862909581197
100
AcDbArc
 50
69.1670137791
 51
129.7767845482
  0
ELLIPSE
  5
9C
330
1F
100
AcDbEntity
  8
0
  6
Continuous
 62
     7
370
    15
100
AcDbEllipse
 10
224.91947525
 20
134.2585165607
 30
0.0
 11
-1.636441407150727
 21
1.686705215780648
 31
0.0
210
0.0
220
0.0
230
1.0
 40
0.9711043057
 41
4.882443948612099
 42
6.536468713903529
  0
ELLIPSE
  5
9D
330
1F
100
AcDbEntity
  8
0
  6
Continuous
 62
     7
370
    15
100
AcDbEllipse
 10
224.91947525
 20
134.2585165607
 30
0.0
 11
-1.636441407150727
 21
1.686705215780648
 31
0.0
210
0.0
220
0.0
230
1.0
 40
0.9711043057
 41
3.197179086748385
 42
4.882443948612115
  0
ELLIPSE
  5
9E
330
1F
100
AcDbEntity
  8
0
  6
Continuous
 62
     7
370
    15
100
AcDbEllipse
 10
261.4038245812
 20
114.7613703875
 30
0.0
 11
113.4239353356014
 21
-3.580780956114764
 31
0.0
210
0.0
220
0.0
230
1.0
 40
0.1734804855
 41
2.05877852885813
 42
2.076083349313656
  0
SPLINE
  5
9F
330
1F
100
AcDbEntity
  8
0
  6
Continuous
 62
     7
370
    15
100
AcDbSpline
210
0.0
220
0.0
230
1.0
 70
     8
 71
     3
 72
    12
 73
     8
 74
     0
 42
0.00000001
 43
0.00000001
 12
1.0
 22
0.0
 32
0.0
 13
1.0
 23
0.0
 33
0.0
 40
0.0
 40
0.0
 40
0.0
 40
0.0
 40
0.2500000000000007
 40
0.2500000000000007
 40
0.5000000000000013
 40
0.5000000000000013
 40
1.0
 40
1.0
 40
1.0
 40
1.0
 10
206.4097376615146
 20
133.488625200449
 30
0.0
 10
206.4281121355764
 20
133.5165774764313
 30
0.0
 10
206.4553262192601
 20
133.5428125138918
 30
0.0
 10
206.5285071018147
 20
133.5919355425925
 30
0.0
 10
206.574901001047
 20
133.6147763206096
 30
0.0
 10
206.7371969086885
 20
133.6738037025989
 30
0.0
 10
206.8826842822748
 20
133.7022840501708
 30
0.0
 10
207.0435597804123
 20
133.7126127090785
 30
0.0
  0
ELLIPSE
  5
A0
330
1F
100
AcDbEntity
  8
0
  6
Continuous
 62
     7
370
    15
100
AcDbEllipse
 10
209.1337017374
 20
114.7613703875
 30
0.0
 11
-0.9999649288125453
 21
19.99826732264189
 31
0.0
210
0.0
220
0.0
230
1.0
 40
0.263265937
 41
0.3455118550688253
 42
2.420688517473266
  0
SPLINE
  5
A1
330
1F
100
AcDbEntity
  8
0
  6
Continuous
 62
     7
370
    15
100
AcDbSpline
210
0.0
220
0.0
230
1.0
 70
     8
 71
     3
 72
    10
 73
     6
 74
     0
 42
0.00000001
 43
0.00000001
 12
1.0
 22
0.0
 32
0.0
 13
1.0
 23
0.0
 33
0.0
 40
0.0
 40
0.0
 40
0.0
 40
0.0
 40
0.5
 40
0.5
 40
1.0
 40
1.0
 40
1.0
 40
1.0
 10
207.0435597804123
 20
99.13902661841436
 30
0.0
 10
206.8830910529234
 20
99.159155900145
 30
0.0
 10
206.7396304110179
 20
99.21339183944221
 30
0.0
 10
206.5202045922111
 20
99.36571781297813
 30
0.0
 10
206.4464334748116
 20
99.46133453455005
 30
0.0
 10
206.4097376615145
 20
99.56472071286036
 30
0.0
  0
ELLIPSE
  5
A2
330
1F
100
AcDbEntity
  8
0
  6
Continuous
 62
     7
370
    15
100
AcDbEllipse
 10
261.4038245812
 20
114.7613703875
 30
0.0
 11
113.4239353356014
 21
-3.580780956114764
 31
0.0
210
0.0
220
0.0
230
1.0
 40
0.1734804855
 41
4.218055367413115
 42
4.235360187868638
  0
SPLINE
  5
A3
330
1F
100
AcDbEntity
  8
0
  6
Continuous
 62
     7
370
    15
100
AcDbSpline
210
0.0
220
0.0
230
1.0
 70
     8
 71
     3
 72
    12
 73
     8
 74
     0
 42
0.00000001
 43
0.00000001
 12
1.0
 22
0.0
 32
0.0
 13
1.0
 23
0.0
 33
0.0
 40
0.0
 40
0.0
 40
0.0
 40
0.0
 40
0.4999999999999977
 40
0.4999999999999977
 40
0.7499999999999988
 40
0.7499999999999988
 40
1.0
 40
1.0
 40
1.0
 40
1.0
 10
193.2137407756308
 20
120.8996155145434
 30
0.0
 10
193.2324340087612
 20
120.8320328781031
 30
0.0
 10
193.258089306173
 20
120.7655503086256
 30
0.0
 10
193.3182499288595
 20
120.6765552257281
 30
0.0
 10
193.3423222406138
 20
120.6485533287289
 30
0.0
 10
193.4007037609643
 20
120.6054769280638
 30
0.0
 10
193.4361725886174
 20
120.590583383136
 30
0.0
 10
193.4735483967661
 20
120.590583383136
 30
0.0
  0
LINE
  5
A4
330
1F
100
AcDbEntity
  8
0
  6
Continuous
 62
     7
370
    15
100
AcDbLine
 10
193.4735483042
 20
120.5905835746
 30
0.0
 11
195.609744314
 21
120.5905835746
 31
0.0
  0
SPLINE
  5
A5
330
1F
100
AcDbEntity
  8
0
  6
Continuous
 62
     7
370
    15
100
AcDbSpline
210
0.0
220
0.0
230
1.0
 70
     8
 71
     3
 72
    12
 73
     8
 74
     0
 42
0.00000001
 43
0.00000001
 12
1.0
 22
0.0
 32
0.0
 13
1.0
 23
0.0
 33
0.0
 40
0.0
 40
0.0
 40
0.0
 40
0.0
 40
0.2500000000000014
 40
0.2500000000000014
 40
0.5000000000000029
 40
0.5000000000000029
 40
1.0
 40
1.0
 40
1.0
 40
1.0
 10
195.6097443927677
 20
120.590583383136
 30
0.0
 10
195.6472562788124
 20
120.590583383136
 30
0.0
 10
195.6825436265171
 20
120.6053881974228
 30
0.0
 10
195.7414734747556
 20
120.6489800705486
 30
0.0
 10
195.7649992012246
 20
120.6764934966346
 30
0.0
 10
195.8252579889927
 20
120.7656252287482
 30
0.0
 10
195.850852751282
 20
120.832011079366
 30
0.0
 10
195.8695520139031
 20
120.8996155145434
 30
0.0
  0
ELLIPSE
  5
A6
330
1F
100
AcDbEntity
  8
0
  6
Continuous
 62
     7
370
    15
100
AcDbEllipse
 10
185.5927172223
 20
114.7613703875
 30
0.0
 11
9.367417879781694
 21
19.74174915274993
 31
0.0
210
0.0
220
0.0
230
1.0
 40
0.3419987131
 41
5.185211263708394
 42
6.132113578252552
  0
SPLINE
  5
A7
330
1F
100
AcDbEntity
  8
0
  6
Continuous
 62
     7
370
    15
100
AcDbSpline
210
0.0
220
0.0
230
1.0
 70
     8
 71
     3
 72
    12
 73
     8
 74
     0
 42
0.00000001
 43
0.00000001
 12
1.0
 22
0.0
 32
0.0
 13
1.0
 23
0.0
 33
0.0
 40
0.0
 40
0.0
 40
0.0
 40
0.0
 40
0.4999999999999977
 40
0.4999999999999977
 40
0.7499999999999988
 40
0.7499999999999988
 40
1.0
 40
1.0
 40
1.0
 40
1.0
 10
195.8695520139031
 20
133.7961266706664
 30
0.0
 10
195.8508587807727
 20
133.8179204242943
 30
0.0
 10
195.8252034833609
 20
133.838940586004
 30
0.0
 10
195.7650428606744
 20
133.8666459319676
 30
0.0
 10
195.7409705489201
 20
133.8752811481611
 30
0.0
 10
195.6825890285695
 20
133.8884957933876
 30
0.0
 10
195.6471202009164
 20
133.8930267677178
 30
0.0
 10
195.6097443927677
 20
133.8930267677178
 30
0.0
  0
LINE
  5
A8
330
1F
100
AcDbEntity
  8
0
  6
Continuous
 62
     7
370
    15
100
AcDbLine
 10
195.609744314
 20
133.8930271236
 30
0.0
 11
193.4735483042
 21
133.8930271236
 31
0.0
  0
SPLINE
  5
A9
330
1F
100
AcDbEntity
  8
0
  6
Continuous
 62
     7
370
    15
100
AcDbSpline
210
0.0
220
0.0
230
1.0
 70
     8
 71
     3
 72
    12
 73
     8
 74
     0
 42
0.00000001
 43
0.00000001
 12
1.0
 22
0.0
 32
0.0
 13
1.0
 23
0.0
 33
0.0
 40
0.0
 40
0.0
 40
0.0
 40
0.0
 40
0.2500000000000007
 40
0.2500000000000007
 40
0.5000000000000013
 40
0.5000000000000013
 40
1.0
 40
1.0
 40
1.0
 40
1.0
 10
193.4735483967661
 20
133.8930267677178
 30
0.0
 10
193.4360365107215
 20
133.8930267677178
 30
0.0
 10
193.4007491630167
 20
133.8885232234553
 30
0.0
 10
193.3418193147783
 20
133.875150024002
 30
0.0
 10
193.3182935883093
 20
133.8666651214309
 30
0.0
 10
193.2580348005412
 20
133.8389173175963
 30
0.0
 10
193.2324400382518
 20
133.8179274538559
 30
0.0
 10
193.2137407756308
 20
133.7961266706664
 30
0.0
  0
ELLIPSE
  5
AA
330
1F
100
AcDbEntity
  8
0
  6
Continuous
 62
     7
370
    15
100
AcDbEllipse
 10
203.4905755672
 20
114.7613703875
 30
0.0
 11
-9.367417879781557
 21
19.74174915274996
 31
0.0
210
0.0
220
0.0
230
1.0
 40
0.3419987131
 41
0.1510717289270777
 42
1.097974043471207
  0
SPLINE
  5
AB
330
1F
100
AcDbEntity
  8
0
  6
Continuous
 62
     7
370
    15
100
AcDbSpline
210
0.0
220
0.0
230
1.0
 70
     8
 71
     3
 72
    12
 73
     8
 74
     0
 42
0.00000001
 43
0.00000001
 12
1.0
 22
0.0
 32
0.0
 13
1.0
 23
0.0
 33
0.0
 40
0.0
 40
0.0
 40
0.0
 40
0.0
 40
0.499999999999996
 40
0.499999999999996
 40
0.749999999999998
 40
0.749999999999998
 40
1.0
 40
1.0
 40
1.0
 40
1.0
 10
193.2137407756308
 20
95.72661410430254
 30
0.0
 10
193.2325440084825
 20
95.70469210604148
 30
0.0
 10
193.2580806675017
 20
95.68379829803153
 30
0.0
 10
193.3183068414502
 20
95.65607157191376
 30
0.0
 10
193.3422329188501
 20
95.64749843853832
 30
0.0
 10
193.4002938390314
 20
95.63431933273075
 30
0.0
 10
193.4360955376574
 20
95.62971400725111
 30
0.0
 10
193.4735483967661
 20
95.62971400725111
 30
0.0
  0
LINE
  5
AC
330
1F
100
AcDbEntity
  8
0
  6
Continuous
 62
     7
370
    15
100
AcDbLine
 10
193.4735483042
 20
95.6297136513
 30
0.0
 11
195.609744314
 21
95.6297136513
 31
0.0
  0
SPLINE
  5
AD
330
1F
100
AcDbEntity
  8
0
  6
Continuous
 62
     7
370
    15
100
AcDbSpline
210
0.0
220
0.0
230
1.0
 70
     8
 71
     3
 72
    12
 73
     8
 74
     0
 42
0.00000001
 43
0.00000001
 12
1.0
 22
0.0
 32
0.0
 13
1.0
 23
0.0
 33
0.0
 40
0.0
 40
0.0
 40
0.0
 40
0.0
 40
0.2499999999999988
 40
0.2499999999999988
 40
0.4999999999999977
 40
0.4999999999999977
 40
1.0
 40
1.0
 40
1.0
 40
1.0
 10
195.6097443927678
 20
95.62971400725111
 30
0.0
 10
195.6472452156455
 20
95.62971400725112
 30
0.0
 10
195.6825236196815
 20
95.63421497511425
 30
0.0
 10
195.7414413397339
 20
95.64758149633155
 30
0.0
 10
195.7649647211323
 20
95.6560627565764
 30
0.0
 10
195.8252203055982
 20
95.6838001522543
 30
0.0
 10
195.8507419580093
 20
95.70468415130736
 30
0.0
 10
195.8695520139031
 20
95.72661410430253
 30
0.0
  0
ELLIPSE
  5
AE
330
1F
100
AcDbEntity
  8
0
  6
Continuous
 62
     7
370
    15
100
AcDbEllipse
 10
185.5927172223
 20
114.7613703875
 30
0.0
 11
-9.367417879781812
 21
19.74174915274996
 31
0.0
210
0.0
220
0.0
230
1.0
 40
0.3419987131
 41
3.292664382516895
 42
4.239566697061001
  0
SPLINE
  5
AF
330
1F
100
AcDbEntity
  8
0
  6
Continuous
 62
     7
370
    15
100
AcDbSpline
210
0.0
220
0.0
230
1.0
 70
     8
 71
     3
 72
    12
 73
     8
 74
     0
 42
0.00000001
 43
0.00000001
 12
1.0
 22
0.0
 32
0.0
 13
1.0
 23
0.0
 33
0.0
 40
0.0
 40
0.0
 40
0.0
 40
0.0
 40
0.4999999999999971
 40
0.4999999999999971
 40
0.7499999999999986
 40
0.7499999999999986
 40
1.0
 40
1.0
 40
1.0
 40
1.0
 10
195.8695520139031
 20
108.6231252604254
 30
0.0
 10
195.8507487810514
 20
108.6911055846877
 30
0.0
 10
195.8252121220322
 20
108.7571959724846
 30
0.0
 10
195.7649859480837
 20
108.8462605849317
 30
0.0
 10
195.7410598706838
 20
108.8740616719516
 30
0.0
 10
195.6829989505025
 20
108.9170207451765
 30
0.0
 10
195.6471972518765
 20
108.9321573918327
 30
0.0
 10
195.6097443927677
 20
108.9321573918327
 30
0.0
  0
LINE
  5
B0
330
1F
100
AcDbEntity
  8
0
  6
Continuous
 62
     7
370
    15
100
AcDbLine
 10
195.609744314
 20
108.9321572004
 30
0.0
 11
193.4735483042
 21
108.9321572004
 31
0.0
  0
SPLINE
  5
B1
330
1F
100
AcDbEntity
  8
0
  6
Continuous
 62
     7
370
    15
100
AcDbSpline
210
0.0
220
0.0
230
1.0
 70
     8
 71
     3
 72
    12
 73
     8
 74
     0
 42
0.00000001
 43
0.00000001
 12
1.0
 22
0.0
 32
0.0
 13
1.0
 23
0.0
 33
0.0
 40
0.0
 40
0.0
 40
0.0
 40
0.0
 40
0.2500000000000023
 40
0.2500000000000023
 40
0.5000000000000046
 40
0.5000000000000046
 40
1.0
 40
1.0
 40
1.0
 40
1.0
 10
193.4735483967661
 20
108.9321573918327
 30
0.0
 10
193.4360475738883
 20
108.9321573918327
 30
0.0
 10
193.4007691698524
 20
108.9173610540796
 30
0.0
 10
193.3418514498
 20
108.8737907929205
 30
0.0
 10
193.3183280684016
 20
108.846288994419
 30
0.0
 10
193.2580724839357
 20
108.7571898311759
 30
0.0
 10
193.2325508315246
 20
108.6911302523935
 30
0.0
 10
193.2137407756308
 20
108.6231252604253
 30
0.0
  0
ELLIPSE
  5
B2
330
1F
100
AcDbEntity
  8
0
  6
Continuous
 62
     7
370
    15
100
AcDbEllipse
 10
203.4905755672
 20
114.7613703875
 30
0.0
 11
9.367417879781694
 21
19.74174915274993
 31
0.0
210
0.0
220
0.0
230
1.0
 40
0.3419987131
 41
2.043618610118598
 42
2.990520924662734
  0
LINE
  5
B3
330
1F
100
AcDbEntity
  8
0
  6
Continuous
 62
     7
370
    15
100
AcDbLine
 10
186.5416463948
 20
95.0613703249
 30
0.0
 11
186.5416463948
 21
134.4613704501
 31
0.0
  0
ELLIPSE
  5
B4
330
1F
100
AcDbEntity
  8
0
  6
Continuous
 62
     7
370
    15
100
AcDbEllipse
 10
205.5906277254
 20
123.4503945974
 30
0.0
 11
0.07015558194842697
 21
2.493831804543646
 31
0.0
210
0.0
220
0.0
230
1.0
 40
0.2406917832
 41
0.0
 42
6.283185307179586
  0
SPLINE
  5
B5
330
1F
100
AcDbEntity
  8
0
  6
Continuous
 62
     7
370
    15
100
AcDbSpline
210
0.0
220
0.0
230
1.0
 70
     8
 71
     3
 72
    18
 73
    14
 74
     0
 42
0.00000001
 43
0.00000001
 12
1.0
 22
0.0
 32
0.0
 13
1.0
 23
0.0
 33
0.0
 40
0.0
 40
0.0
 40
0.0
 40
0.0
 40
0.25
 40
0.25
 40
0.5
 40
0.5
 40
0.625
 40
0.625
 40
0.75
 40
0.75
 40
0.875
 40
0.875
 40
1.0
 40
1.0
 40
1.0
 40
1.0
 10
185.2855620772029
 20
100.9301820048056
 30
0.0
 10
185.3198588966547
 20
100.9293203493238
 30
0.0
 10
185.3576701766319
 20
100.9295719524187
 30
0.0
 10
185.4442425438119
 20
100.9319704650306
 30
0.0
 10
185.4925816738948
 20
100.9341414497625
 30
0.0
 10
185.5818540312172
 20
100.9382363280577
 30
0.0
 10
185.6143954969932
 20
100.9397409460073
 30
0.0
 10
185.6905716968466
 20
100.9427040039755
 30
0.0
 10
185.7337877568412
 20
100.9441913422312
 30
0.0
 10
185.8394770588071
 20
100.9458167535549
 30
0.0
 10
185.9044481175217
 20
100.945774512481
 30
0.0
 10
186.0381085058795
 20
100.94175233916
 30
0.0
 10
186.0974149592157
 20
100.9382111123365
 30
0.0
 10
186.1466695058916
 20
100.9346444049004
 30
0.0
  0
SPLINE
  5
B6
330
1F
100
AcDbEntity
  8
0
  6
Continuous
 62
     7
370
    15
100
AcDbSpline
210
0.0
220
0.0
230
1.0
 70
     8
 71
     3
 72
    14
 73
    10
 74
     0
 42
0.00000001
 43
0.00000001
 12
1.0
 22
0.0
 32
0.0
 13
1.0
 23
0.0
 33
0.0
 40
0.0
 40
0.0
 40
0.0
 40
0.0
 40
0.1250000000000006
 40
0.1250000000000006
 40
0.2500000000000012
 40
0.2500000000000012
 40
0.5000000000000004
 40
0.5000000000000004
 40
1.0
 40
1.0
 40
1.0
 40
1.0
 10
186.1466695058608
 20
100.9346444049194
 30
0.0
 10
186.1581962835782
 20
100.9338097074853
 30
0.0
 10
186.1715490912306
 20
100.9320692932052
 30
0.0
 10
186.2016916638308
 20
100.9248217032049
 30
0.0
 10
186.2167521894453
 20
100.9194746689769
 30
0.0
 10
186.2520985433736
 20
100.9037273987485
 30
0.0
 10
186.2658306431025
 20
100.8938891245872
 30
0.0
 10
186.2992018887936
 20
100.8676851386368
 30
0.0
 10
186.3101422566476
 20
100.8535972372362
 30
0.0
 10
186.3187953816609
 20
100.8408236137478
 30
0.0
  0
LINE
  5
B7
330
1F
100
AcDbEntity
  8
0
  6
Continuous
 62
     7
370
    15
100
AcDbLine
 10
186.3416463998
 20
109.2559254399
 30
0.0
 11
186.3416463998
 21
100.6715504123
 31
0.0
  0
SPLINE
  5
B8
330
1F
100
AcDbEntity
  8
0
  6
Continuous
 62
     7
370
    15
100
AcDbSpline
210
0.0
220
0.0
230
1.0
 70
     8
 71
     3
 72
    15
 73
    11
 74
     0
 42
0.00000001
 43
0.00000001
 12
1.0
 22
0.0
 32
0.0
 13
1.0
 23
0.0
 33
0.0
 40
0.0
 40
0.0
 40
0.0
 40
0.0
 40
0.5905875095509616
 40
0.7057282413739585
 40
0.8216340210307502
 40
0.8668627649254803
 40
0.8968556981023309
 40
0.9270590727430383
 40
0.9537823903438548
 40
1.0
 40
1.0
 40
1.0
 40
1.0
 10
186.3330770679797
 20
109.3549655420679
 30
0.0
 10
186.3317881963358
 20
109.4774844986684
 30
0.0
 10
186.3302480467325
 20
109.623889707682
 30
0.0
 10
186.2820670894994
 20
109.7937164158855
 30
0.0
 10
186.2570376104722
 20
109.8496218695202
 30
0.0
 10
186.2282708324375
 20
109.8814126836379
 30
0.0
 10
186.207924996378
 20
109.8934824981309
 30
0.0
 10
186.1890176801369
 20
109.8969127781454
 30
0.0
 10
186.1672906342751
 20
109.8931972636116
 30
0.0
 10
186.1546677438664
 20
109.8849050166457
 30
0.0
 10
186.146669493178
 20
109.8796507945258
 30
0.0
  0
SPLINE
  5
B9
330
1F
100
AcDbEntity
  8
0
  6
Continuous
 62
     7
370
    15
100
AcDbSpline
210
0.0
220
0.0
230
1.0
 70
     8
 71
     3
 72
    18
 73
    14
 74
     0
 42
0.00000001
 43
0.00000001
 12
1.0
 22
0.0
 32
0.0
 13
1.0
 23
0.0
 33
0.0
 40
0.0
 40
0.0
 40
0.0
 40
0.0
 40
0.1250000000000004
 40
0.1250000000000004
 40
0.2500000000000008
 40
0.2500000000000008
 40
0.3750000000000012
 40
0.3750000000000012
 40
0.5000000000000016
 40
0.5000000000000016
 40
0.7500000000000008
 40
0.7500000000000008
 40
1.0
 40
1.0
 40
1.0
 40
1.0
 10
186.1466695058974
 20
109.8796506945636
 30
0.0
 10
186.0979649222094
 20
109.8427564553731
 30
0.0
 10
186.0394564394339
 20
109.8132251509471
 30
0.0
 10
185.9077296241641
 20
109.8039891776683
 30
0.0
 10
185.8429715526666
 20
109.8270523522252
 30
0.0
 10
185.7377609505158
 20
109.8945704738726
 30
0.0
 10
185.6945448019957
 20
109.9375815705232
 30
0.0
 10
185.6183664859118
 20
110.0278235925193
 30
0.0
 10
185.5855116536206
 20
110.0754544739946
 30
0.0
 10
185.4951437476596
 20
110.2225187733441
 30
0.0
 10
185.44572108982
 20
110.3264320986487
 30
0.0
 10
185.3580699642284
 20
110.5375660622891
 30
0.0
 10
185.3200084168379
 20
110.6452888070478
 30
0.0
 10
185.285562077204
 20
110.7546219229573
 30
0.0
  0
SPLINE
  5
BA
330
1F
100
AcDbEntity
  8
0
  6
Continuous
 62
     7
370
    15
100
AcDbSpline
210
0.0
220
0.0
230
1.0
 70
     8
 71
     3
 72
     8
 73
     4
 74
     0
 42
0.00000001
 43
0.00000001
 12
1.0
 22
0.0
 32
0.0
 13
1.0
 23
0.0
 33
0.0
 40
0.0
 40
0.0
 40
0.0
 40
0.0
 40
1.0
 40
1.0
 40
1.0
 40
1.0
 10
185.2203260512072
 20
110.9898256970861
 30
0.0
 10
185.2397522565061
 20
110.9102334255133
 30
0.0
 10
185.2612490809346
 20
110.8317916793805
 30
0.0
 10
185.285562077204
 20
110.7546219229572
 30
0.0
  0
SPLINE
  5
BB
330
1F
100
AcDbEntity
  8
0
  6
Continuous
 62
     7
370
    15
100
AcDbSpline
210
0.0
220
0.0
230
1.0
 70
     8
 71
     3
 72
     8
 73
     4
 74
     0
 42
0.00000001
 43
0.00000001
 12
1.0
 22
0.0
 32
0.0
 13
1.0
 23
0.0
 33
0.0
 40
0.0
 40
0.0
 40
0.0
 40
0.0
 40
1.0
 40
1.0
 40
1.0
 40
1.0
 10
185.2855620772039
 20
118.7681188520118
 30
0.0
 10
185.2612490809346
 20
118.6909490955885
 30
0.0
 10
185.2397522565061
 20
118.6125073494557
 30
0.0
 10
185.2203260512072
 20
118.5329150778829
 30
0.0
  0
SPLINE
  5
BC
330
1F
100
AcDbEntity
  8
0
  6
Continuous
 62
     7
370
    15
100
AcDbSpline
210
0.0
220
0.0
230
1.0
 70
     8
 71
     3
 72
    18
 73
    14
 74
     0
 42
0.00000001
 43
0.00000001
 12
1.0
 22
0.0
 32
0.0
 13
1.0
 23
0.0
 33
0.0
 40
0.0
 40
0.0
 40
0.0
 40
0.0
 40
0.2500000000000009
 40
0.2500000000000009
 40
0.5000000000000018
 40
0.5000000000000018
 40
0.6250000000000013
 40
0.6250000000000013
 40
0.7500000000000009
 40
0.7500000000000009
 40
0.8750000000000004
 40
0.8750000000000004
 40
1.0
 40
1.0
 40
1.0
 40
1.0
 10
185.2855620772039
 20
118.7681188520117
 30
0.0
 10
185.3198603962166
 20
118.8769821486048
 30
0.0
 10
185.3576747935286
 20
118.9839895718411
 30
0.0
 10
185.4442628546021
 20
119.1930243959794
 30
0.0
 10
185.4926129602808
 20
119.295194489969
 30
0.0
 10
185.5819295490806
 20
119.4418752615337
 30
0.0
 10
185.6144899045689
 20
119.4896769600693
 30
0.0
 10
185.6907355382978
 20
119.5812324980946
 30
0.0
 10
185.7338949080778
 20
119.6249118900866
 30
0.0
 10
185.8396237320958
 20
119.6942661074132
 30
0.0
 10
185.9046209091506
 20
119.7183824210792
 30
0.0
 10
186.0381053991048
 20
119.7101781990409
 30
0.0
 10
186.0974327925503
 20
119.6803874134489
 30
0.0
 10
186.1466695058917
 20
119.6430900803979
 30
0.0
  0
SPLINE
  5
BD
330
1F
100
AcDbEntity
  8
0
  6
Continuous
 62
     7
370
    15
100
AcDbSpline
210
0.0
220
0.0
230
1.0
 70
     8
 71
     3
 72
    16
 73
    12
 74
     0
 42
0.00000001
 43
0.00000001
 12
1.0
 22
0.0
 32
0.0
 13
1.0
 23
0.0
 33
0.0
 40
0.0
 40
0.0
 40
0.0
 40
0.0
 40
0.0625000000000001
 40
0.0625000000000001
 40
0.1250000000000002
 40
0.1250000000000002
 40
0.2500000000000026
 40
0.2500000000000026
 40
0.5000000000000028
 40
0.5000000000000028
 40
1.0
 40
1.0
 40
1.0
 40
1.0
 10
186.1466695058609
 20
119.6430900803495
 30
0.0
 10
186.1587393391367
 20
119.6339470535037
 30
0.0
 10
186.17301499407
 20
119.6269026058124
 30
0.0
 10
186.2044794061945
 20
119.6268955339138
 30
0.0
 10
186.2199799310048
 20
119.6350235027108
 30
0.0
 10
186.2554188276118
 20
119.668431963718
 30
0.0
 10
186.2690114437151
 20
119.6990991301801
 30
0.0
 10
186.3020057621079
 20
119.787920124262
 30
0.0
 10
186.3127931554267
 20
119.8488227698098
 30
0.0
 10
186.3378464027058
 20
120.0308308471881
 30
0.0
 10
186.3416463947671
 20
120.1495195622268
 30
0.0
 10
186.3416463947671
 20
120.2668151544473
 30
0.0
  0
LINE
  5
BE
330
1F
100
AcDbEntity
  8
0
  6
Continuous
 62
     7
370
    15
100
AcDbLine
 10
186.3416463998
 20
128.8511903627
 30
0.0
 11
186.3416463998
 21
120.2668153351
 31
0.0
  0
SPLINE
  5
BF
330
1F
100
AcDbEntity
  8
0
  6
Continuous
 62
     7
370
    15
100
AcDbSpline
210
0.0
220
0.0
230
1.0
 70
     8
 71
     3
 72
    12
 73
     8
 74
     0
 42
0.00000001
 43
0.00000001
 12
1.0
 22
0.0
 32
0.0
 13
1.0
 23
0.0
 33
0.0
 40
0.0
 40
0.0
 40
0.0
 40
0.0
 40
0.4999999999999989
 40
0.4999999999999989
 40
0.7499999999999994
 40
0.7499999999999994
 40
1.0
 40
1.0
 40
1.0
 40
1.0
 10
186.3013070648993
 20
128.6599778903552
 30
0.0
 10
186.2911842128182
 20
128.6490441457175
 30
0.0
 10
186.2788214284721
 20
128.636978858895
 30
0.0
 10
186.2439868252989
 20
128.6156295185508
 30
0.0
 10
186.2286296040558
 20
128.6074098423218
 30
0.0
 10
186.185960561916
 20
128.5930705426922
 30
0.0
 10
186.1635363475562
 20
128.5893177616689
 30
0.0
 10
186.1466695058912
 20
128.5880963700685
 30
0.0
  0
SPLINE
  5
C0
330
1F
100
AcDbEntity
  8
0
  6
Continuous
 62
     7
370
    15
100
AcDbSpline
210
0.0
220
0.0
230
1.0
 70
     8
 71
     3
 72
    18
 73
    14
 74
     0
 42
0.00000001
 43
0.00000001
 12
1.0
 22
0.0
 32
0.0
 13
1.0
 23
0.0
 33
0.0
 40
0.0
 40
0.0
 40
0.0
 40
0.0
 40
0.1249999999999998
 40
0.1249999999999998
 40
0.2499999999999997
 40
0.2499999999999997
 40
0.3749999999999995
 40
0.3749999999999995
 40
0.4999999999999993
 40
0.4999999999999993
 40
0.7499999999999997
 40
0.7499999999999997
 40
1.0
 40
1.0
 40
1.0
 40
1.0
 10
186.1466695058974
 20
128.5880963700684
 30
0.0
 10
186.0979653768806
 20
128.5845695204502
 30
0.0
 10
186.039457707676
 20
128.5810692472526
 30
0.0
 10
185.9077320450452
 20
128.5770262633647
 30
0.0
 10
185.8429744064248
 20
128.5769146887341
 30
0.0
 10
185.7377639898058
 20
128.5784468734955
 30
0.0
 10
185.6945479548655
 20
128.5799020257106
 30
0.0
 10
185.6183697333846
 20
128.5828272872403
 30
0.0
 10
185.5855149657005
 20
128.5843376177486
 30
0.0
 10
185.4951472468587
 20
128.5884796104369
 30
0.0
 10
185.4457248776692
 20
128.5907176954235
 30
0.0
 10
185.3580724155812
 20
128.5931689784699
 30
0.0
 10
185.3200096793468
 20
128.593424213831
 30
0.0
 10
185.2855620772034
 20
128.5925587701631
 30
0.0
  0
SPLINE
  5
C1
330
1F
100
AcDbEntity
  8
0
  6
Continuous
 62
     7
370
    15
100
AcDbSpline
210
0.0
220
0.0
230
1.0
 70
     8
 71
     3
 72
    16
 73
    12
 74
     0
 42
0.00000001
 43
0.00000001
 12
1.0
 22
0.0
 32
0.0
 13
1.0
 23
0.0
 33
0.0
 40
0.0
 40
0.0
 40
0.0
 40
0.0
 40
0.25
 40
0.25
 40
0.375
 40
0.375
 40
0.5
 40
0.5
 40
0.75
 40
0.75
 40
1.0
 40
1.0
 40
1.0
 40
1.0
 10
184.8416463947669
 20
117.7075687835539
 30
0.0
 10
184.7611095853715
 20
117.2384959566908
 30
0.0
 10
184.7010721765693
 20
116.7581323065108
 30
0.0
 10
184.640334229322
 20
116.0209480273699
 30
0.0
 10
184.6250117482791
 20
115.7724296241428
 30
0.0
 10
184.6044287965012
 20
115.2696461789291
 30
0.0
 10
184.5992292494646
 20
115.0147876259044
 30
0.0
 10
184.5991755389244
 20
114.2585102861837
 30
0.0
 10
184.6193728761935
 20
113.7598520868738
 30
0.0
 10
184.7000511832665
 20
112.7734291161295
 30
0.0
 10
184.7610975316077
 20
112.2843150233566
 30
0.0
 10
184.8416463947669
 20
111.8151719914152
 30
0.0
  0
LINE
  5
C2
330
1F
100
AcDbEntity
  8
0
  6
Continuous
 62
     7
370
    15
100
AcDbLine
 10
184.8416463722
 20
111.8151719352
 30
0.0
 11
184.8416463722
 21
110.6601666329
 31
0.0
  0
LINE
  5
C3
330
1F
100
AcDbEntity
  8
0
  6
Continuous
 62
     7
370
    15
100
AcDbLine
 10
164.0416455007
 20
118.6012899639
 30
0.0
 11
164.0416455007
 21
110.9214508111
 31
0.0
  0
LINE
  5
C4
330
1F
100
AcDbEntity
  8
0
  6
Continuous
 62
     7
370
    15
100
AcDbLine
 10
184.8416463722
 20
118.862574142
 30
0.0
 11
184.8416463722
 21
117.7075688397
 31
0.0
  0
SPLINE
  5
C5
330
1F
100
AcDbEntity
  8
0
  6
Continuous
 62
     7
370
    15
100
AcDbSpline
210
0.0
220
0.0
230
1.0
 70
     8
 71
     3
 72
     8
 73
     4
 74
     0
 42
0.00000001
 43
0.00000001
 12
1.0
 22
0.0
 32
0.0
 13
1.0
 23
0.0
 33
0.0
 40
0.0
 40
0.0
 40
0.0
 40
0.0
 40
1.0
 40
1.0
 40
1.0
 40
1.0
 10
185.0466064168277
 20
111.8148795831206
 30
0.0
 10
185.0973334995501
 20
111.5315284618015
 30
0.0
 10
185.1552208125371
 20
111.2565722776617
 30
0.0
 10
185.2203260512073
 20
110.9898256970861
 30
0.0
  0
SPLINE
  5
C6
330
1F
100
AcDbEntity
  8
0
  6
Continuous
 62
     7
370
    15
100
AcDbSpline
210
0.0
220
0.0
230
1.0
 70
     8
 71
     3
 72
    24
 73
    20
 74
     0
 42
0.00000001
 43
0.00000001
 12
1.0
 22
0.0
 32
0.0
 13
1.0
 23
0.0
 33
0.0
 40
0.0
 40
0.0
 40
0.0
 40
0.0
 40
0.2499999999999968
 40
0.2499999999999968
 40
0.3749999999999949
 40
0.3749999999999949
 40
0.4374999999999944
 40
0.4374999999999944
 40
0.4687499999999937
 40
0.4687499999999937
 40
0.499999999999993
 40
0.499999999999993
 40
0.5624999999999942
 40
0.5624999999999942
 40
0.6249999999999953
 40
0.6249999999999953
 40
0.749999999999997
 40
0.749999999999997
 40
1.0
 40
1.0
 40
1.0
 40
1.0
 10
184.8416463947587
 20
111.8151719914139
 30
0.0
 10
184.8420494241326
 20
111.9084402840435
 30
0.0
 10
184.8440791638477
 20
112.0021978428925
 30
0.0
 10
184.8533878752675
 20
112.143787728532
 30
0.0
 10
184.8573138683821
 20
112.1909681471413
 30
0.0
 10
184.868243228298
 20
112.2615641938267
 30
0.0
 10
184.8723648563924
 20
112.2853441075914
 30
0.0
 10
184.8842593775748
 20
112.3187952546386
 30
0.0
 10
184.8895461895286
 20
112.3309502067082
 30
0.0
 10
184.9061141210435
 20
112.3388328456763
 30
0.0
 10
184.9140408298108
 20
112.3312692465742
 30
0.0
 10
184.931033168036
 20
112.3074768153474
 30
0.0
 10
184.938430868827
 20
112.287288337503
 30
0.0
 10
184.9525332591688
 20
112.2468387128832
 30
0.0
 10
184.958686416461
 20
112.2259830384857
 30
0.0
 10
184.9760001499221
 20
112.1628580031847
 30
0.0
 10
184.9860051908107
 20
112.1198788912832
 30
0.0
 10
185.0143616470414
 20
111.9901532469943
 30
0.0
 10
185.0309101863877
 20
111.9025555198584
 30
0.0
 10
185.0466064168277
 20
111.8148795831206
 30
0.0
  0
SPLINE
  5
C7
330
1F
100
AcDbEntity
  8
0
  6
Continuous
 62
     7
370
    15
100
AcDbSpline
210
0.0
220
0.0
230
1.0
 70
     8
 71
     3
 72
    24
 73
    20
 74
     0
 42
0.00000001
 43
0.00000001
 12
1.0
 22
0.0
 32
0.0
 13
1.0
 23
0.0
 33
0.0
 40
0.0
 40
0.0
 40
0.0
 40
0.0
 40
0.2500000000000099
 40
0.2500000000000099
 40
0.3750000000000143
 40
0.3750000000000143
 40
0.4375000000000165
 40
0.4375000000000165
 40
0.5000000000000187
 40
0.5000000000000187
 40
0.5312500000000181
 40
0.5312500000000181
 40
0.5625000000000175
 40
0.5625000000000175
 40
0.6250000000000155
 40
0.6250000000000155
 40
0.7500000000000103
 40
0.7500000000000103
 40
1.0
 40
1.0
 40
1.0
 40
1.0
 10
185.0466064168278
 20
117.7078611918483
 30
0.0
 10
185.030837371918
 20
117.6197785283575
 30
0.0
 10
185.0142232073574
 20
117.531833711848
 30
0.0
 10
184.985691079864
 20
117.401486344585
 30
0.0
 10
184.9756034463102
 20
117.3582251667829
 30
0.0
 10
184.9581156234612
 20
117.2947893909475
 30
0.0
 10
184.9519058155349
 20
117.2738752674038
 30
0.0
 10
184.9376279559526
 20
117.2334004757187
 30
0.0
 10
184.9300567936008
 20
117.2129228322595
 30
0.0
 10
184.9126369684264
 20
117.1900764527226
 30
0.0
 10
184.9041528859719
 20
117.1835246556789
 30
0.0
 10
184.8881168123544
 20
117.1940960309052
 30
0.0
 10
184.8832964400765
 20
117.2061870711891
 30
0.0
 10
184.8718895394705
 20
117.239830314409
 30
0.0
 10
184.8678685777612
 20
117.2632379937058
 30
0.0
 10
184.8571145659819
 20
117.3338265967669
 30
0.0
 10
184.8532426803592
 20
117.3807916242895
 30
0.0
 10
184.8440747155583
 20
117.5213684888957
 30
0.0
 10
184.8420463810452
 20
117.6150047185152
 30
0.0
 10
184.8416463947669
 20
117.7075687835539
 30
0.0
  0
SPLINE
  5
C8
330
1F
100
AcDbEntity
  8
0
  6
Continuous
 62
     7
370
    15
100
AcDbSpline
210
0.0
220
0.0
230
1.0
 70
     8
 71
     3
 72
     8
 73
     4
 74
     0
 42
0.00000001
 43
0.00000001
 12
1.0
 22
0.0
 32
0.0
 13
1.0
 23
0.0
 33
0.0
 40
0.0
 40
0.0
 40
0.0
 40
0.0
 40
1.0
 40
1.0
 40
1.0
 40
1.0
 10
185.2203260512073
 20
118.5329150778829
 30
0.0
 10
185.1552208125371
 20
118.2661684973073
 30
0.0
 10
185.09733349955
 20
117.9912123131675
 30
0.0
 10
185.0466064168276
 20
117.7078611918484
 30
0.0
  0
LINE
  5
C9
330
1F
100
AcDbEntity
  8
0
  6
Continuous
 62
     7
370
    15
100
AcDbLine
 10
162.5416461862
 20
118.1682771208
 30
0.0
 11
162.5416461862
 21
111.3544636542
 31
0.0
  0
LINE
  5
CA
330
1F
100
AcDbEntity
  8
0
  6
Continuous
 62
     7
370
    15
100
AcDbLine
 10
185.0466063729
 20
128.5865550531
 30
0.0
 11
185.2855620923
 21
128.5925583584
 31
0.0
  0
LINE
  5
CB
330
1F
100
AcDbEntity
  8
0
  6
Continuous
 62
     7
370
    15
100
AcDbLine
 10
184.8416463722
 20
118.862574142
 30
0.0
 11
184.8416463722
 21
128.7814687608
 31
0.0
  0
ARC
  5
CC
330
1F
100
AcDbEntity
  8
0
  6
Continuous
 62
     7
370
    15
100
AcDbCircle
 10
185.0415833057
 20
128.7864922832
 30
0.0
 40
0.2000000000000059
100
AcDbArc
 50
181.4391666667
 51
271.4391666667
  0
LINE
  5
CD
330
1F
100
AcDbEntity
  8
0
  6
Continuous
 62
     7
370
    15
100
AcDbLine
 10
164.0416455007
 20
118.6012899639
 30
0.0
 11
164.0416455007
 21
128.2589008702
 31
0.0
  0
LINE
  5
CE
330
1F
100
AcDbEntity
  8
0
  6
Continuous
 62
     7
370
    15
100
AcDbLine
 10
164.0416455007
 20
128.2589008702
 30
0.0
 11
184.8416463722
 21
128.7814687608
 31
0.0
  0
LINE
  5
CF
330
1F
100
AcDbEntity
  8
0
  6
Continuous
 62
     7
370
    15
100
AcDbLine
 10
164.0416455007
 20
101.2638399048
 30
0.0
 11
164.0416455007
 21
110.9214508111
 31
0.0
  0
LINE
  5
D0
330
1F
100
AcDbEntity
  8
0
  6
Continuous
 62
     7
370
    15
100
AcDbLine
 10
184.8416463722
 20
100.7412720142
 30
0.0
 11
184.8416463722
 21
110.6601666329
 31
0.0
  0
LINE
  5
D1
330
1F
100
AcDbEntity
  8
0
  6
Continuous
 62
     7
370
    15
100
AcDbLine
 10
164.0416455007
 20
101.2638399048
 30
0.0
 11
184.8416463722
 21
100.7412720142
 31
0.0
  0
ARC
  5
D2
330
1F
100
AcDbEntity
  8
0
  6
Continuous
 62
     7
370
    15
100
AcDbCircle
 10
185.0415833057
 20
100.7362484918
 30
0.0
 40
0.2000000000000066
100
AcDbArc
 50
88.5608333333
 51
178.5608333333
  0
LINE
  5
D3
330
1F
100
AcDbEntity
  8
0
  6
Continuous
 62
     7
370
    15
100
AcDbLine
 10
185.0466063729
 20
100.9361857219
 30
0.0
 11
185.2855620923
 21
100.9301824165
 31
0.0
  0
LINE
  5
D4
330
1F
100
AcDbEntity
  8
0
  6
Continuous
 62
     7
370
    15
100
AcDbLine
 10
162.5416461862
 20
127.3928751839
 30
0.0
 11
164.0416455007
 21
128.2589008702
 31
0.0
  0
LINE
  5
D5
330
1F
100
AcDbEntity
  8
0
  6
Continuous
 62
     7
370
    15
100
AcDbLine
 10
162.5416461862
 20
118.1682771208
 30
0.0
 11
162.5416461862
 21
127.3928751839
 31
0.0
  0
LINE
  5
D6
330
1F
100
AcDbEntity
  8
0
  6
Continuous
 62
     7
370
    15
100
AcDbLine
 10
162.5416461862
 20
102.129865591
 30
0.0
 11
164.0416455007
 21
101.2638399048
 31
0.0
  0
LINE
  5
D7
330
1F
100
AcDbEntity
  8
0
  6
Continuous
 62
     7
370
    15
100
AcDbLine
 10
162.5416461862
 20
102.129865591
 30
0.0
 11
162.5416461862
 21
111.3544636542
 31
0.0
  0
LINE
  5
D8
330
1F
100
AcDbEntity
  8
0
  6
Continuous
 62
     7
370
    15
100
AcDbLine
 10
216.4538685716
 20
132.2794790981
 30
0.0
 11
212.7807714528
 21
132.0864904342
 31
0.0
  0
ARC
  5
D9
330
1F
100
AcDbEntity
  8
0
  6
Continuous
 62
     7
370
    15
100
AcDbCircle
 10
212.9592748256
 20
130.0208504369
 30
0.0
 40
2.073338383497743
100
AcDbArc
 50
94.9389753044
 51
274.5445462881
  0
LINE
  5
DA
330
1F
100
AcDbEntity
  8
0
  6
Continuous
 62
     7
370
    15
100
AcDbLine
 10
213.1235540396
 20
127.9540305627
 30
0.0
 11
228.7261706329
 21
128.7738114266
 31
0.0
  0
ARC
  5
DB
330
1F
100
AcDbEntity
  8
0
  6
Continuous
 62
     7
370
    15
100
AcDbCircle
 10
243.5565105212
 20
121.7194209158
 30
0.0
 40
16.42264919805936
100
AcDbArc
 50
154.5608340793
 51
180.079798887
  0
LINE
  5
DC
330
1F
100
AcDbEntity
  8
0
  6
Continuous
 62
     7
370
    15
100
AcDbLine
 10
227.1338772512
 20
121.6965482241
 30
0.0
 11
227.1338772512
 21
114.8343283499
 31
0.0
  0
LINE
  5
DD
330
1F
100
AcDbEntity
  8
0
  6
Continuous
 62
     7
370
    15
100
AcDbLine
 10
227.1338772512
 20
114.8343283499
 30
0.0
 11
214.8634080327
 21
97.6859882144
 31
0.0
  0
ELLIPSE
  5
DE
330
1F
100
AcDbEntity
  8
0
  6
Continuous
 62
     7
370
    15
100
AcDbEllipse
 10
261.4038245812
 20
114.7613703875
 30
0.0
 11
116.2595337189913
 21
-3.670300480017645
 31
0.0
210
0.0
220
0.0
230
1.0
 40
0.1734804855
 41
4.256430049875154
 42
4.306011839677291
  0
SPLINE
  5
DF
330
1F
100
AcDbEntity
  8
0
  6
Continuous
 62
     7
370
    15
100
AcDbSpline
210
0.0
220
0.0
230
1.0
 70
     8
 71
     3
 72
    14
 73
    10
 74
     0
 42
0.00000001
 43
0.00000001
 12
1.0
 22
0.0
 32
0.0
 13
1.0
 23
0.0
 33
0.0
 40
0.0
 40
0.0
 40
0.0
 40
0.0
 40
0.25
 40
0.25
 40
0.5
 40
0.5
 40
0.75
 40
0.75
 40
1.0
 40
1.0
 40
1.0
 40
1.0
 10
209.6403448105724
 20
98.26918617934197
 30
0.0
 10
209.5987189635058
 20
98.35335085940872
 30
0.0
 10
209.5471310070455
 20
98.43443604489417
 30
0.0
 10
209.4292868074012
 20
98.58093922182974
 30
0.0
 10
209.3627462884727
 20
98.64738431838511
 30
0.0
 10
209.2124194599866
 20
98.76486667782301
 30
0.0
 10
209.1320568575086
 20
98.81321143968935
 30
0.0
 10
208.9604148066771
 20
98.88775439180542
 30
0.0
 10
208.8681383123063
 20
98.91387313937201
 30
0.0
 10
208.7743194067882
 20
98.92527923872287
 30
0.0
  0
SPLINE
  5
E0
330
1F
100
AcDbEntity
  8
0
  6
Continuous
 62
     7
370
    15
100
AcDbSpline
210
0.0
220
0.0
230
1.0
 70
     8
 71
     3
 72
    10
 73
     6
 74
     0
 42
0.00000001
 43
0.00000001
 12
1.0
 22
0.0
 32
0.0
 13
1.0
 23
0.0
 33
0.0
 40
0.0
 40
0.0
 40
0.0
 40
0.0
 40
0.5
 40
0.5
 40
1.0
 40
1.0
 40
1.0
 40
1.0
 10
208.774319406788
 20
133.820372319283
 30
0.0
 10
209.0105673029576
 20
133.8346270412518
 30
0.0
 10
209.2287388876003
 20
133.9401544242301
 30
0.0
 10
209.567285435961
 20
134.2581941231407
 30
0.0
 10
209.6851597026623
 20
134.4653950558838
 30
0.0
 10
209.740245233077
 20
134.6937432303706
 30
0.0
  0
SPLINE
  5
E1
330
1F
100
AcDbEntity
  8
0
  6
Continuous
 62
     7
370
    15
100
AcDbSpline
210
0.0
220
0.0
230
1.0
 70
     8
 71
     3
 72
     8
 73
     4
 74
     0
 42
0.00000001
 43
0.00000001
 12
1.0
 22
0.0
 32
0.0
 13
1.0
 23
0.0
 33
0.0
 40
0.0
 40
0.0
 40
0.0
 40
0.0
 40
1.0
 40
1.0
 40
1.0
 40
1.0
 10
209.740245233077
 20
134.6937432303706
 30
0.0
 10
210.0537222002582
 20
135.9932113967021
 30
0.0
 10
210.3742482505408
 20
137.2907258520678
 30
0.0
 10
210.6991268187138
 20
138.5870339715441
 30
0.0
  0
ELLIPSE
  5
E2
330
1F
100
AcDbEntity
  8
0
  6
Continuous
 62
     7
370
    15
100
AcDbEllipse
 10
251.8803333838
 20
118.7604949677
 30
0.0
 11
126.4960526088443
 21
11.56772908869243
 31
0.0
210
0.0
220
0.0
230
1.0
 40
0.1944540569
 41
1.798763528327807
 42
1.884558309162351
  0
LINE
  5
E3
330
1F
100
AcDbEntity
  8
0
  6
Continuous
 62
     7
370
    15
100
AcDbLine
 10
221.1013097799
 20
140.1074893443
 30
0.0
 11
216.4538685716
 21
132.2794790981
 31
0.0
  0
LWPOLYLINE
  5
E4
330
1F
100
AcDbEntity
  8
0
  6
Continuous
 62
     7
370
    15
100
AcDbPolyline
 90
       38
 70
   128
 43
0.0
 10
219.9431207514
 20
122.5970733581
 10
219.9113887287
 20
122.0142838215
 10
219.7814617789
 20
121.448259954
 10
219.5570726431
 20
120.9152854649
 10
219.2446735239
 20
120.430692718
 10
218.8532572723
 20
120.0084231464
 10
218.3940817154
 20
119.6606239906
 10
217.8803567326
 20
119.3973013801
 10
217.3268624133
 20
119.2260302274
 10
216.7495187855
 20
119.1517381599
 10
216.1649369187
 20
119.1765616318
 10
215.5899346358
 20
119.29978725
 10
215.0410522259
 20
119.517869935
 10
214.5340811944
 20
119.8245353667
 10
214.083606053
 20
120.2109620577
 10
213.702585224
 20
120.6660328103
 10
213.4019822365
 20
121.1766555576
 10
213.1904416269
 20
121.7281414798
 10
213.0740523821
 20
122.3046250312
 10
213.0561598128
 20
122.8895216851
 10
213.1372798717
 20
123.4660057021
 10
213.3150805271
 20
124.0174911587
 10
213.5844432301
 20
124.5281139059
 10
213.9376231021
 20
124.9831851242
 10
214.3644556886
 20
125.3696113495
 10
214.8526661581
 20
125.6762772469
 10
215.3882045782
 20
125.8943594662
 10
215.9556687361
 20
126.0175846187
 10
216.5387325472
 20
126.042409022
 10
217.1206210292
 20
125.9681164889
 10
217.6845945901
 20
125.7968453361
 10
218.2144295907
 20
125.53352226
 10
218.6948840058
 20
125.1857235698
 10
219.1121351457
 20
124.7634535326
 10
219.454180125
 20
124.2788612513
 10
219.7111767269
 20
123.7458867623
 10
219.8757339752
 20
123.1798633603
 10
219.9431207514
 20
122.5970733581
  0
LINE
  5
E5
330
1F
100
AcDbEntity
  8
0
  6
Continuous
 62
     7
370
    15
100
AcDbLine
 10
209.6403442806
 20
98.2691861359
 30
0.0
 11
209.6403442806
 21
94.2613698212
 31
0.0
  0
ELLIPSE
  5
E6
330
1F
100
AcDbEntity
  8
0
  6
Continuous
 62
     7
370
    15
100
AcDbEllipse
 10
226.7732865035
 20
114.7613703875
 30
0.0
 11
15.00226541746079
 21
20.49413197769097
 31
0.0
210
0.0
220
0.0
230
1.0
 40
0.0326926316
 41
3.165519987239049
 42
3.751906757919331
  0
LINE
  5
E7
330
1F
100
AcDbEntity
  8
0
  6
Continuous
 62
     7
370
    15
100
AcDbLine
 10
211.1797348148
 20
130.5097780792
 30
0.0
 11
210.9226245916
 21
130.4798844872
 31
0.0
  0
SPLINE
  5
E8
330
1F
100
AcDbEntity
  8
0
  6
Continuous
 62
     7
370
    15
100
AcDbSpline
210
0.0
220
0.0
230
1.0
 70
     8
 71
     3
 72
    10
 73
     6
 74
     0
 42
0.00000001
 43
0.00000001
 12
1.0
 22
0.0
 32
0.0
 13
1.0
 23
0.0
 33
0.0
 40
0.0
 40
0.0
 40
0.0
 40
0.0
 40
0.37909616732221
 40
0.7581924447966629
 40
1.0
 40
1.0
 40
1.0
 40
1.0
 10
210.6991276628152
 20
138.5870344607133
 30
0.0
 10
210.691495465205
 20
138.6683673545573
 30
0.0
 10
210.6762310677668
 20
138.8310331658777
 30
0.0
 10
210.6568994776036
 20
138.9098422357773
 30
0.0
 10
210.6456106652275
 20
138.8649236745586
 30
0.0
 10
210.6412142998354
 20
138.8474303899307
 30
0.0
  0
LINE
  5
E9
330
1F
100
AcDbEntity
  8
0
  6
Continuous
 62
     7
370
    15
100
AcDbLine
 10
214.8528319335
 20
130.7027667431
 30
0.0
 11
216.4538685716
 21
132.2794790981
 31
0.0
  0
LINE
  5
EA
330
1F
100
AcDbEntity
  8
0
  6
Continuous
 62
     7
370
    15
100
AcDbLine
 10
214.8528319335
 20
130.7027667431
 30
0.0
 11
211.1797348148
 21
130.5097780792
 31
0.0
  0
ELLIPSE
  5
EB
330
1F
100
AcDbEntity
  8
0
  6
Continuous
 62
     7
370
    15
100
AcDbEllipse
 10
204.290540797
 20
112.9172031815
 30
0.0
 11
16.77809014457071
 21
27.22995866704595
 31
0.0
210
0.0
220
0.0
230
1.0
 40
0.0471546166
 41
6.250933461335565
 42
6.320864208024717
  0
SPLINE
  5
EC
330
1F
100
AcDbEntity
  8
0
  6
HIDDEN
 62
     7
370
     0
100
AcDbSpline
210
0.0
220
0.0
230
1.0
 70
     8
 71
     3
 72
    68
 73
    64
 74
     0
 42
0.00000001
 43
0.00000001
 12
1.0
 22
0.0
 32
0.0
 13
1.0
 23
0.0
 33
0.0
 40
-0.0624999999999996
 40
-0.0624999999999996
 40
0.0
 40
0.0
 40
0.0312499999999999
 40
0.0312499999999999
 40
0.0624999999999999
 40
0.0624999999999999
 40
0.0937499999999998
 40
0.0937499999999998
 40
0.1249999999999998
 40
0.1249999999999998
 40
0.1562499999999997
 40
0.1562499999999997
 40
0.1874999999999996
 40
0.1874999999999996
 40
0.2187499999999996
 40
0.2187499999999996
 40
0.2499999999999995
 40
0.2499999999999995
 40
0.2812499999999996
 40
0.2812499999999996
 40
0.3124999999999997
 40
0.3124999999999997
 40
0.3437499999999998
 40
0.3437499999999998
 40
0.3749999999999999
 40
0.3749999999999999
 40
0.40625
 40
0.40625
 40
0.4375000000000001
 40
0.4375000000000001
 40
0.4687500000000002
 40
0.4687500000000002
 40
0.5000000000000003
 40
0.5000000000000003
 40
0.5312500000000003
 40
0.5312500000000003
 40
0.5625000000000004
 40
0.5625000000000004
 40
0.5937500000000004
 40
0.5937500000000004
 40
0.6250000000000006
 40
0.6250000000000006
 40
0.6562500000000006
 40
0.6562500000000006
 40
0.6875000000000007
 40
0.6875000000000007
 40
0.7187500000000007
 40
0.7187500000000007
 40
0.7500000000000007
 40
0.7500000000000007
 40
0.7812500000000008
 40
0.7812500000000008
 40
0.8125000000000007
 40
0.8125000000000007
 40
0.8437500000000007
 40
0.8437500000000007
 40
0.8750000000000006
 40
0.8750000000000006
 40
0.9062500000000006
 40
0.9062500000000006
 40
0.9375000000000004
 40
0.9375000000000004
 40
1.0
 40
1.0
 40
1.03125
 40
1.03125
 10
200.2109758820903
 20
105.0100416085906
 30
0.0
 10
200.7069816511053
 20
105.0100416085906
 30
0.0
 10
200.8695213935279
 20
105.0243251240251
 30
0.0
 10
201.1892486032253
 20
105.0803504189219
 30
0.0
 10
201.3481051798106
 20
105.1227839861838
 30
0.0
 10
201.6507770780395
 20
105.2337139926866
 30
0.0
 10
201.7943048936357
 20
105.3016831506586
 30
0.0
 10
202.0659366725829
 20
105.462783929329
 30
0.0
 10
202.194421304906
 20
105.5566986485806
 30
0.0
 10
202.4247780608665
 20
105.7626686664867
 30
0.0
 10
202.5282055608293
 20
105.8754552219419
 30
0.0
 10
202.7109706373846
 20
106.1216456006616
 30
0.0
 10
202.788537013106
 20
106.2530813537808
 30
0.0
 10
202.9132722061022
 20
106.5265265891057
 30
0.0
 10
202.961352549445
 20
106.6705632786547
 30
0.0
 10
203.0256360582564
 20
106.9668833857757
 30
0.0
 10
203.0415553858128
 20
107.1166246618117
 30
0.0
 10
203.041736632999
 20
107.4192783758473
 30
0.0
 10
203.0254726037184
 20
107.573783207416
 30
0.0
 10
202.9616323859193
 20
107.8741103911429
 30
0.0
 10
202.9143988413323
 20
108.020821127493
 30
0.0
 10
202.7890936751039
 20
108.3070677734003
 30
0.0
 10
202.7108858974788
 20
108.4458827728074
 30
0.0
 10
202.5300340149806
 20
108.7039514658091
 30
0.0
 10
202.4266618513208
 20
108.8249136963633
 30
0.0
 10
202.1935253154436
 20
109.0489932220611
 30
0.0
 10
202.0674352784592
 20
109.1486132008889
 30
0.0
 10
201.7968931421361
 20
109.3235833670294
 30
0.0
 10
201.650698181549
 20
109.3995495294631
 30
0.0
 10
201.3480728325993
 20
109.5213854305964
 30
0.0
 10
201.1922503340502
 20
109.5674677468783
 30
0.0
 10
200.8716171617717
 20
109.629891374333
 30
0.0
 10
200.7058119811637
 20
109.6459009928694
 30
0.0
 10
200.3793581650539
 20
109.6460204265625
 30
0.0
 10
200.2170185627653
 20
109.6306466578634
 30
0.0
 10
199.8941565751107
 20
109.5683515875394
 30
0.0
 10
199.7364158646855
 20
109.5217163002974
 30
0.0
 10
199.435463532013
 20
109.4008531259641
 30
0.0
 10
199.2899440540732
 20
109.3256731713437
 30
0.0
 10
199.0167407981826
 20
109.1493837024742
 30
0.0
 10
198.8909101502513
 20
109.0497967780525
 30
0.0
 10
198.6602303266754
 20
108.8286619818043
 30
0.0
 10
198.5546128487364
 20
108.7056832499129
 30
0.0
 10
198.3730684614125
 20
108.4470250204511
 30
0.0
 10
198.296150004419
 20
108.3108118535138
 30
0.0
 10
198.1703222092944
 20
108.0247774461727
 30
0.0
 10
198.1220619400087
 20
107.8753871781547
 30
0.0
 10
198.0581871712105
 20
107.5761144854678
 30
0.0
 10
198.0417970107447
 20
107.4246235994181
 30
0.0
 10
198.0414978257843
 20
107.1180484599333
 30
0.0
 10
198.0575871946991
 20
106.9680910276945
 30
0.0
 10
198.1209026016136
 20
106.6744745853979
 30
0.0
 10
198.1689162691044
 20
106.5292986514812
 30
0.0
 10
198.2941718081143
 20
106.2540150514469
 30
0.0
 10
198.3708422557627
 20
106.1240836842401
 30
0.0
 10
198.5520520399775
 20
105.8791100304217
 30
0.0
 10
198.6574150860647
 20
105.7637935939394
 30
0.0
 10
198.887596704379
 20
105.5576982291841
 30
0.0
 10
199.0132620442548
 20
105.4655021582665
 30
0.0
 10
199.2863902787002
 20
105.3029406812528
 30
0.0
 10
199.43151001342
 20
105.2342210955846
 30
0.0
 10
199.882460263673
 20
105.068533946239
 30
0.0
 10
200.2109758820903
 20
105.0100416085906
 30
0.0
 10
200.7069816511053
 20
105.0100416085906
 30
0.0
  0
SPLINE
  5
ED
330
1F
100
AcDbEntity
  8
0
  6
HIDDEN
 62
     7
370
     0
100
AcDbSpline
210
0.0
220
0.0
230
1.0
 70
     8
 71
     3
 72
    22
 73
    18
 74
     0
 42
0.00000001
 43
0.00000001
 12
1.0
 22
0.0
 32
0.0
 13
1.0
 23
0.0
 33
0.0
 40
0.0
 40
0.0
 40
0.0
 40
0.0
 40
0.1250000000000001
 40
0.1250000000000001
 40
0.2500000000000002
 40
0.2500000000000002
 40
0.3750000000000002
 40
0.3750000000000002
 40
0.5000000000000002
 40
0.5000000000000002
 40
0.6250000000000002
 40
0.6250000000000002
 40
0.7500000000000001
 40
0.7500000000000001
 40
0.8750000000000001
 40
0.8750000000000001
 40
1.0
 40
1.0
 40
1.0
 40
1.0
 10
208.774319406788
 20
114.7268049864197
 30
0.0
 10
208.5607274406224
 20
114.9244194930982
 30
0.0
 10
208.3725227078661
 20
115.1415464718582
 30
0.0
 10
208.0454934245048
 20
115.6136586382324
 30
0.0
 10
207.9059515953633
 20
115.8717710624157
 30
0.0
 10
207.6895341571174
 20
116.4032631331697
 30
0.0
 10
207.6107047130014
 20
116.6783867742925
 30
0.0
 10
207.5109409702721
 20
117.2469025953629
 30
0.0
 10
207.4915411895454
 20
117.5327095085031
 30
0.0
 10
207.5084728796463
 20
118.1006213971061
 30
0.0
 10
207.5454844922488
 20
118.3863695010597
 30
0.0
 10
207.669819530008
 20
118.9382943545806
 30
0.0
 10
207.7566567476482
 20
119.2057120589452
 30
0.0
 10
207.9767614311038
 20
119.7246898185446
 30
0.0
 10
208.1100126728351
 20
119.9750416510803
 30
0.0
 10
208.4131565341902
 20
120.4450987459453
 30
0.0
 10
208.5838783982429
 20
120.6669238734278
 30
0.0
 10
208.7743194067879
 20
120.8755530023784
 30
0.0
  0
SPLINE
  5
EE
330
1F
100
AcDbEntity
  8
0
  6
HIDDEN
 62
     7
370
     0
100
AcDbSpline
210
0.0
220
0.0
230
1.0
 70
     8
 71
     3
 72
    58
 73
    54
 74
     0
 42
0.00000001
 43
0.00000001
 12
1.0
 22
0.0
 32
0.0
 13
1.0
 23
0.0
 33
0.0
 40
-0.0624999999999998
 40
-0.0624999999999998
 40
0.0
 40
0.0
 40
0.0312500000000001
 40
0.0312500000000001
 40
0.0625000000000003
 40
0.0625000000000003
 40
0.0937500000000004
 40
0.0937500000000004
 40
0.1250000000000005
 40
0.1250000000000005
 40
0.1875000000000005
 40
0.1875000000000005
 40
0.2500000000000004
 40
0.2500000000000004
 40
0.2812500000000005
 40
0.2812500000000005
 40
0.3125000000000004
 40
0.3125000000000004
 40
0.3437500000000004
 40
0.3437500000000004
 40
0.3750000000000004
 40
0.3750000000000004
 40
0.4062500000000004
 40
0.4062500000000004
 40
0.4375000000000004
 40
0.4375000000000004
 40
0.4687500000000003
 40
0.4687500000000003
 40
0.5000000000000003
 40
0.5000000000000003
 40
0.5625000000000004
 40
0.5625000000000004
 40
0.6250000000000004
 40
0.6250000000000004
 40
0.6562500000000006
 40
0.6562500000000006
 40
0.6875000000000006
 40
0.6875000000000006
 40
0.7187500000000006
 40
0.7187500000000006
 40
0.7500000000000006
 40
0.7500000000000006
 40
0.7812500000000007
 40
0.7812500000000007
 40
0.8125000000000007
 40
0.8125000000000007
 40
0.8437500000000006
 40
0.8437500000000006
 40
0.8750000000000006
 40
0.8750000000000006
 40
0.9375000000000002
 40
0.9375000000000002
 40
1.0
 40
1.0
 40
1.03125
 40
1.03125
 10
200.541646394767
 20
114.4969342730365
 30
0.0
 10
200.541646394767
 20
114.8935884447085
 30
0.0
 10
200.5286643570948
 20
115.023580605549
 30
0.0
 10
200.4778135548365
 20
115.2793002180013
 30
0.0
 10
200.4393216507835
 20
115.4063589018624
 30
0.0
 10
200.3389063650571
 20
115.6485220995212
 30
0.0
 10
200.277470225784
 20
115.763363883906
 30
0.0
 10
200.1323367494732
 20
115.9807060814761
 30
0.0
 10
200.0479150606221
 20
116.0835477293239
 30
0.0
 10
199.7713148864572
 20
116.3600912100755
 30
0.0
 10
199.5483159751901
 20
116.5090738462076
 30
0.0
 10
199.0670814576045
 20
116.7086169097623
 30
0.0
 10
198.8037820420955
 20
116.7612273827937
 30
0.0
 10
198.4122186020552
 20
116.7614414415462
 30
0.0
 10
198.2796309914505
 20
116.7484425921407
 30
0.0
 10
198.0230652858513
 20
116.6973925081143
 30
0.0
 10
197.8983555196707
 20
116.6596212693021
 30
0.0
 10
197.6561163346437
 20
116.5594293611896
 30
0.0
 10
197.53909968087
 20
116.4968439673651
 30
0.0
 10
197.3224564760237
 20
116.3521388816545
 30
0.0
 10
197.2214497195653
 20
116.2695195402743
 30
0.0
 10
197.0346436239087
 20
116.0828755054843
 30
0.0
 10
196.9519300883768
 20
115.9819296575244
 30
0.0
 10
196.8070599590015
 20
115.7654484538427
 30
0.0
 10
196.7443896629048
 20
115.6485312888343
 30
0.0
 10
196.6439617248685
 20
115.4063348196358
 30
0.0
 10
196.6060905459388
 20
115.2816738287323
 30
0.0
 10
196.5548281481632
 20
115.0252744796643
 30
0.0
 10
196.5416945075225
 20
114.8926635543665
 30
0.0
 10
196.5415505743836
 20
114.5009889420313
 30
0.0
 10
196.5939158316484
 20
114.2377049223708
 30
0.0
 10
196.7930764949991
 20
113.756192208511
 30
0.0
 10
196.9418741683611
 20
113.533071121466
 30
0.0
 10
197.2181748269472
 20
113.2562389729585
 30
0.0
 10
197.320939874007
 20
113.1717317586742
 30
0.0
 10
197.5381571478014
 20
113.0264108169883
 30
0.0
 10
197.6529268412392
 20
112.9648885937262
 30
0.0
 10
197.8949133783838
 20
112.8642921904542
 30
0.0
 10
198.0219959512752
 20
112.8256643023656
 30
0.0
 10
198.2776706512784
 20
112.7745861922995
 30
0.0
 10
198.4076111686226
 20
112.7614970525323
 30
0.0
 10
198.6718745363839
 20
112.7612455341737
 30
0.0
 10
198.8020854300309
 20
112.7741200042301
 30
0.0
 10
199.0578353754645
 20
112.8247389013621
 30
0.0
 10
199.1848527598318
 20
112.8630867201579
 30
0.0
 10
199.4272044875835
 20
112.9633208403513
 30
0.0
 10
199.5421072668699
 20
113.0246650273413
 30
0.0
 10
199.7595294320189
 20
113.1695700318704
 30
0.0
 10
199.8624658294636
 20
113.2539089239924
 30
0.0
 10
200.1393029866205
 20
113.5303100370342
 30
0.0
 10
200.2884582276846
 20
113.7531536700767
 30
0.0
 10
200.4884288129199
 20
114.2342169513272
 30
0.0
 10
200.541646394767
 20
114.4969342730365
 30
0.0
 10
200.541646394767
 20
114.8935884447085
 30
0.0
  0
SPLINE
  5
EF
330
1F
100
AcDbEntity
  8
0
  6
HIDDEN
 62
     7
370
     0
100
AcDbSpline
210
0.0
220
0.0
230
1.0
 70
     8
 71
     3
 72
    12
 73
     8
 74
     0
 42
0.00000001
 43
0.00000001
 12
1.0
 22
0.0
 32
0.0
 13
1.0
 23
0.0
 33
0.0
 40
0.0
 40
0.0
 40
0.0
 40
0.0
 40
0.5000000000000016
 40
0.5000000000000016
 40
0.7500000000000008
 40
0.7500000000000008
 40
1.0
 40
1.0
 40
1.0
 40
1.0
 10
193.2137407756308
 20
108.6231252604254
 30
0.0
 10
193.2324340087613
 20
108.6907078968658
 30
0.0
 10
193.258089306173
 20
108.7571904663432
 30
0.0
 10
193.3182499288595
 20
108.8461855492407
 30
0.0
 10
193.3423222406138
 20
108.8741874462399
 30
0.0
 10
193.4007037609644
 20
108.9172638469051
 30
0.0
 10
193.4361725886174
 20
108.9321573918328
 30
0.0
 10
193.4735483967661
 20
108.9321573918328
 30
0.0
  0
LINE
  5
F0
330
1F
100
AcDbEntity
  8
0
  6
HIDDEN
 62
     7
370
     0
100
AcDbLine
 10
193.4735483042
 20
108.9321572004
 30
0.0
 11
195.609744314
 21
108.9321572004
 31
0.0
  0
SPLINE
  5
F1
330
1F
100
AcDbEntity
  8
0
  6
HIDDEN
 62
     7
370
     0
100
AcDbSpline
210
0.0
220
0.0
230
1.0
 70
     8
 71
     3
 72
    12
 73
     8
 74
     0
 42
0.00000001
 43
0.00000001
 12
1.0
 22
0.0
 32
0.0
 13
1.0
 23
0.0
 33
0.0
 40
0.0
 40
0.0
 40
0.0
 40
0.0
 40
0.2500000000000031
 40
0.2500000000000031
 40
0.5000000000000061
 40
0.5000000000000061
 40
1.0
 40
1.0
 40
1.0
 40
1.0
 10
195.6097443927678
 20
108.9321573918328
 30
0.0
 10
195.6472562788124
 20
108.9321573918328
 30
0.0
 10
195.6825436265171
 20
108.9173525775461
 30
0.0
 10
195.7414734747556
 20
108.8737607044202
 30
0.0
 10
195.7649992012246
 20
108.8462472783342
 30
0.0
 10
195.8252579889927
 20
108.7571155462206
 30
0.0
 10
195.850852751282
 20
108.6907296956028
 30
0.0
 10
195.8695520139031
 20
108.6231252604254
 30
0.0
  0
ELLIPSE
  5
F2
330
1F
100
AcDbEntity
  8
0
  6
HIDDEN
 62
     7
370
     0
100
AcDbEllipse
 10
185.5927172223
 20
114.7613703875
 30
0.0
 11
-9.367417879781755
 21
19.74174915274993
 31
0.0
210
0.0
220
0.0
230
1.0
 40
0.3419987131
 41
3.292664382516901
 42
4.239566697061004
  0
SPLINE
  5
F3
330
1F
100
AcDbEntity
  8
0
  6
HIDDEN
 62
     7
370
     0
100
AcDbSpline
210
0.0
220
0.0
230
1.0
 70
     8
 71
     3
 72
    12
 73
     8
 74
     0
 42
0.00000001
 43
0.00000001
 12
1.0
 22
0.0
 32
0.0
 13
1.0
 23
0.0
 33
0.0
 40
0.0
 40
0.0
 40
0.0
 40
0.0
 40
0.5000000000000009
 40
0.5000000000000009
 40
0.7500000000000004
 40
0.7500000000000004
 40
1.0
 40
1.0
 40
1.0
 40
1.0
 10
195.8695520139031
 20
95.72661410430258
 30
0.0
 10
195.8508587807727
 20
95.70482035067461
 30
0.0
 10
195.8252034833609
 20
95.68380018896498
 30
0.0
 10
195.7650428606744
 20
95.65609484300127
 30
0.0
 10
195.7409705489201
 20
95.64745962680789
 30
0.0
 10
195.6825890285696
 20
95.63424498158129
 30
0.0
 10
195.6471202009165
 20
95.62971400725115
 30
0.0
 10
195.6097443927678
 20
95.62971400725115
 30
0.0
  0
LINE
  5
F4
330
1F
100
AcDbEntity
  8
0
  6
HIDDEN
 62
     7
370
     0
100
AcDbLine
 10
195.609744314
 20
95.6297136513
 30
0.0
 11
193.4735483042
 21
95.6297136513
 31
0.0
  0
SPLINE
  5
F5
330
1F
100
AcDbEntity
  8
0
  6
HIDDEN
 62
     7
370
     0
100
AcDbSpline
210
0.0
220
0.0
230
1.0
 70
     8
 71
     3
 72
    12
 73
     8
 74
     0
 42
0.00000001
 43
0.00000001
 12
1.0
 22
0.0
 32
0.0
 13
1.0
 23
0.0
 33
0.0
 40
0.0
 40
0.0
 40
0.0
 40
0.0
 40
0.2499999999999973
 40
0.2499999999999973
 40
0.4999999999999947
 40
0.4999999999999947
 40
1.0
 40
1.0
 40
1.0
 40
1.0
 10
193.4735483967661
 20
95.62971400725115
 30
0.0
 10
193.4360365107215
 20
95.62971400725115
 30
0.0
 10
193.4007491630168
 20
95.63421755151366
 30
0.0
 10
193.3418193147784
 20
95.64759075096696
 30
0.0
 10
193.3182935883093
 20
95.6560756535381
 30
0.0
 10
193.2580348005412
 20
95.68382345737268
 30
0.0
 10
193.2324400382518
 20
95.70481332111304
 30
0.0
 10
193.2137407756308
 20
95.72661410430258
 30
0.0
  0
ELLIPSE
  5
F6
330
1F
100
AcDbEntity
  8
0
  6
HIDDEN
 62
     7
370
     0
100
AcDbEllipse
 10
203.4905755672
 20
114.7613703875
 30
0.0
 11
9.367417879781613
 21
19.74174915274996
 31
0.0
210
0.0
220
0.0
230
1.0
 40
0.3419987131
 41
2.043618610118592
 42
2.990520924662722
  0
SPLINE
  5
F7
330
1F
100
AcDbEntity
  8
0
  6
HIDDEN
 62
     7
370
     0
100
AcDbSpline
210
0.0
220
0.0
230
1.0
 70
     8
 71
     3
 72
    12
 73
     8
 74
     0
 42
0.00000001
 43
0.00000001
 12
1.0
 22
0.0
 32
0.0
 13
1.0
 23
0.0
 33
0.0
 40
0.0
 40
0.0
 40
0.0
 40
0.0
 40
0.4999999999999984
 40
0.4999999999999984
 40
0.7499999999999992
 40
0.7499999999999992
 40
1.0
 40
1.0
 40
1.0
 40
1.0
 10
193.2137407756308
 20
133.7961266706665
 30
0.0
 10
193.2324340087612
 20
133.8179204242944
 30
0.0
 10
193.258089306173
 20
133.8389405860041
 30
0.0
 10
193.3182499288594
 20
133.8666459319678
 30
0.0
 10
193.3423222406138
 20
133.8752811481612
 30
0.0
 10
193.4007037609643
 20
133.8884957933878
 30
0.0
 10
193.4361725886174
 20
133.8930267677179
 30
0.0
 10
193.4735483967661
 20
133.8930267677179
 30
0.0
  0
LINE
  5
F8
330
1F
100
AcDbEntity
  8
0
  6
HIDDEN
 62
     7
370
     0
100
AcDbLine
 10
193.4735483042
 20
133.8930271236
 30
0.0
 11
195.609744314
 21
133.8930271236
 31
0.0
  0
SPLINE
  5
F9
330
1F
100
AcDbEntity
  8
0
  6
HIDDEN
 62
     7
370
     0
100
AcDbSpline
210
0.0
220
0.0
230
1.0
 70
     8
 71
     3
 72
    12
 73
     8
 74
     0
 42
0.00000001
 43
0.00000001
 12
1.0
 22
0.0
 32
0.0
 13
1.0
 23
0.0
 33
0.0
 40
0.0
 40
0.0
 40
0.0
 40
0.0
 40
0.2500000000000014
 40
0.2500000000000014
 40
0.5000000000000029
 40
0.5000000000000029
 40
1.0
 40
1.0
 40
1.0
 40
1.0
 10
195.6097443927677
 20
133.8930267677179
 30
0.0
 10
195.6472562788124
 20
133.8930267677179
 30
0.0
 10
195.6825436265171
 20
133.8885232234554
 30
0.0
 10
195.7414734747556
 20
133.8751500240021
 30
0.0
 10
195.7649992012246
 20
133.866665121431
 30
0.0
 10
195.8252579889927
 20
133.8389173175964
 30
0.0
 10
195.850852751282
 20
133.817927453856
 30
0.0
 10
195.8695520139031
 20
133.7961266706665
 30
0.0
  0
ELLIPSE
  5
FA
330
1F
100
AcDbEntity
  8
0
  6
HIDDEN
 62
     7
370
     0
100
AcDbEllipse
 10
185.5927172223
 20
114.7613703875
 30
0.0
 11
9.36741787978184
 21
19.74174915274993
 31
0.0
210
0.0
220
0.0
230
1.0
 40
0.3419987131
 41
5.185211263708412
 42
6.132113578252572
  0
SPLINE
  5
FB
330
1F
100
AcDbEntity
  8
0
  6
HIDDEN
 62
     7
370
     0
100
AcDbSpline
210
0.0
220
0.0
230
1.0
 70
     8
 71
     3
 72
    12
 73
     8
 74
     0
 42
0.00000001
 43
0.00000001
 12
1.0
 22
0.0
 32
0.0
 13
1.0
 23
0.0
 33
0.0
 40
0.0
 40
0.0
 40
0.0
 40
0.0
 40
0.4999999999999994
 40
0.4999999999999994
 40
0.7499999999999997
 40
0.7499999999999997
 40
1.0
 40
1.0
 40
1.0
 40
1.0
 10
195.8695520139031
 20
120.8996155145438
 30
0.0
 10
195.8508587807727
 20
120.8320328781034
 30
0.0
 10
195.8252034833609
 20
120.765550308626
 30
0.0
 10
195.7650428606744
 20
120.6765552257285
 30
0.0
 10
195.7409705489201
 20
120.6485533287293
 30
0.0
 10
195.6825890285696
 20
120.6054769280641
 30
0.0
 10
195.6471202009165
 20
120.5905833831364
 30
0.0
 10
195.6097443927678
 20
120.5905833831364
 30
0.0
  0
LINE
  5
FC
330
1F
100
AcDbEntity
  8
0
  6
HIDDEN
 62
     7
370
     0
100
AcDbLine
 10
195.609744314
 20
120.5905835746
 30
0.0
 11
193.4735483042
 21
120.5905835746
 31
0.0
  0
SPLINE
  5
FD
330
1F
100
AcDbEntity
  8
0
  6
HIDDEN
 62
     7
370
     0
100
AcDbSpline
210
0.0
220
0.0
230
1.0
 70
     8
 71
     3
 72
    12
 73
     8
 74
     0
 42
0.00000001
 43
0.00000001
 12
1.0
 22
0.0
 32
0.0
 13
1.0
 23
0.0
 33
0.0
 40
0.0
 40
0.0
 40
0.0
 40
0.0
 40
0.2499999999999982
 40
0.2499999999999982
 40
0.4999999999999963
 40
0.4999999999999963
 40
1.0
 40
1.0
 40
1.0
 40
1.0
 10
193.4735483967661
 20
120.5905833831364
 30
0.0
 10
193.4360365107215
 20
120.5905833831364
 30
0.0
 10
193.4007491630167
 20
120.6053881974231
 30
0.0
 10
193.3418193147783
 20
120.648980070549
 30
0.0
 10
193.3182935883092
 20
120.676493496635
 30
0.0
 10
193.2580348005412
 20
120.7656252287486
 30
0.0
 10
193.2324400382518
 20
120.8320110793664
 30
0.0
 10
193.2137407756308
 20
120.8996155145438
 30
0.0
  0
ELLIPSE
  5
FE
330
1F
100
AcDbEntity
  8
0
  6
HIDDEN
 62
     7
370
     0
100
AcDbEllipse
 10
203.4905755672
 20
114.7613703875
 30
0.0
 11
-9.367417879781698
 21
19.74174915274996
 31
0.0
210
0.0
220
0.0
230
1.0
 40
0.3419987131
 41
0.1510717289270573
 42
1.097974043471187
  0
LINE
  5
FF
330
1F
100
AcDbEntity
  8
0
  6
HIDDEN
 62
     7
370
     0
100
AcDbLine
 10
186.5416463948
 20
95.0613703249
 30
0.0
 11
186.5416463948
 21
134.4613704501
 31
0.0
  0
LINE
  5
100
330
1F
100
AcDbEntity
  8
0
  6
HIDDEN
 62
     7
370
     0
100
AcDbLine
 10
186.5416463948
 20
98.9613711504
 30
0.0
 11
186.5416463948
 21
130.5613696245
 31
0.0
  0
SPLINE
  5
101
330
1F
100
AcDbEntity
  8
0
  6
HIDDEN
 62
     7
370
     0
100
AcDbSpline
210
0.0
220
0.0
230
1.0
 70
     8
 71
     3
 72
    14
 73
    10
 74
     0
 42
0.00000001
 43
0.00000001
 12
1.0
 22
0.0
 32
0.0
 13
1.0
 23
0.0
 33
0.0
 40
0.0
 40
0.0
 40
0.0
 40
0.0
 40
0.25
 40
0.25
 40
0.5
 40
0.5
 40
0.75
 40
0.75
 40
1.0
 40
1.0
 40
1.0
 40
1.0
 10
198.6127118131316
 20
121.150205787821
 30
0.0
 10
198.5961380359083
 20
121.0684364560596
 30
0.0
 10
198.5842139965787
 20
120.9915456416331
 30
0.0
 10
198.5739800975343
 20
120.8701074670596
 30
0.0
 10
198.5755547531028
 20
120.8258764596253
 30
0.0
 10
198.5904397052687
 20
120.7650041026709
 30
0.0
 10
198.6034754833994
 20
120.7479919423033
 30
0.0
 10
198.6364148286636
 20
120.7250665614493
 30
0.0
 10
198.6564308222256
 20
120.7190009110797
 30
0.0
 10
198.6790613784513
 20
120.7143077576039
 30
0.0
  0
SPLINE
  5
102
330
1F
100
AcDbEntity
  8
0
  6
HIDDEN
 62
     7
370
     0
100
AcDbSpline
210
0.0
220
0.0
230
1.0
 70
     8
 71
     3
 72
    22
 73
    18
 74
     0
 42
0.00000001
 43
0.00000001
 12
1.0
 22
0.0
 32
0.0
 13
1.0
 23
0.0
 33
0.0
 40
0.0
 40
0.0
 40
0.0
 40
0.0
 40
0.2500000000000002
 40
0.2500000000000002
 40
0.3750000000000001
 40
0.3750000000000001
 40
0.4374999999999999
 40
0.4374999999999999
 40
0.4999999999999998
 40
0.4999999999999998
 40
0.5624999999999996
 40
0.5624999999999996
 40
0.6249999999999994
 40
0.6249999999999994
 40
0.7499999999999993
 40
0.7499999999999993
 40
1.0
 40
1.0
 40
1.0
 40
1.0
 10
200.7815565493462
 20
118.4461310710085
 30
0.0
 10
200.4992073308786
 20
118.621712841571
 30
0.0
 10
200.2163385195653
 20
118.7953520841893
 30
0.0
 10
199.7822970044009
 20
119.0358081395425
 30
0.0
 10
199.634572763876
 20
119.1123284356438
 30
0.0
 10
199.4165968901353
 20
119.2240839628272
 30
0.0
 10
199.3447173567974
 20
119.2608144812898
 30
0.0
 10
199.2053877699398
 20
119.3394577559671
 30
0.0
 10
199.1370006020201
 20
119.3817332112023
 30
0.0
 10
199.0178624450255
 20
119.4856403104758
 30
0.0
 10
198.9680920316804
 20
119.5503198983933
 30
0.0
 10
198.8967467097416
 20
119.6939632387814
 30
0.0
 10
198.8724821065281
 20
119.7716493774631
 30
0.0
 10
198.8109123148903
 20
120.0058400750971
 30
0.0
 10
198.7835737405526
 20
120.1616670036267
 30
0.0
 10
198.7017079872895
 20
120.6109813251463
 30
0.0
 10
198.653637882062
 20
120.890537584357
 30
0.0
 10
198.6127118131316
 20
121.1502057878211
 30
0.0
  0
SPLINE
  5
103
330
1F
100
AcDbEntity
  8
0
  6
HIDDEN
 62
     7
370
     0
100
AcDbSpline
210
0.0
220
0.0
230
1.0
 70
     8
 71
     3
 72
    12
 73
     8
 74
     0
 42
0.00000001
 43
0.00000001
 12
1.0
 22
0.0
 32
0.0
 13
1.0
 23
0.0
 33
0.0
 40
0.0
 40
0.0
 40
0.0
 40
0.0
 40
0.5000000000000021
 40
0.5000000000000021
 40
0.750000000000001
 40
0.750000000000001
 40
1.0
 40
1.0
 40
1.0
 40
1.0
 10
200.8222446559222
 20
117.9772538515413
 30
0.0
 10
200.7595887961055
 20
118.0463110087303
 30
0.0
 10
200.710989700059
 20
118.120821237047
 30
0.0
 10
200.6951851443015
 20
118.2401185022251
 30
0.0
 10
200.6999380310296
 20
118.2811774554104
 30
0.0
 10
200.7284573134632
 20
118.3629484552688
 30
0.0
 10
200.7519195483002
 20
118.4041044868086
 30
0.0
 10
200.7815565493462
 20
118.4461310710086
 30
0.0
  0
LWPOLYLINE
  5
104
330
1F
100
AcDbEntity
  8
0
  6
HIDDEN
 62
     7
370
     0
100
AcDbPolyline
 90
       19
 70
   128
 43
0.0
 10
200.8222450054
 20
117.9772537803
 10
200.9164063743
 20
118.052308601
 10
200.9504015109
 20
118.2157699155
 10
200.9224813915
 20
118.4592353316
 10
200.8340821153
 20
118.7701892709
 10
200.6897485367
 20
119.1326469785
 10
200.4968986398
 20
119.5279761819
 10
200.2654463536
 20
119.9358544914
 10
200.0072902552
 20
120.3353150418
 10
199.7357016912
 20
120.7058235673
 10
199.4646393246
 20
121.02833359
 10
199.2080394662
 20
121.2862666367
 10
198.9790915063
 20
121.4663630022
 10
198.7895654998
 20
121.5593648745
 10
198.6492040119
 20
121.5604922404
 10
198.5652210674
 20
121.4696859611
 10
198.5419361404
 20
121.2916147565
 10
198.5805441177
 20
121.0354325963
 10
198.6790612823
 20
120.714307916
  0
SPLINE
  5
105
330
1F
100
AcDbEntity
  8
0
  6
HIDDEN
 62
     7
370
     0
100
AcDbSpline
210
0.0
220
0.0
230
1.0
 70
     8
 71
     3
 72
    16
 73
    12
 74
     0
 42
0.00000001
 43
0.00000001
 12
1.0
 22
0.0
 32
0.0
 13
1.0
 23
0.0
 33
0.0
 40
0.0
 40
0.0
 40
0.0
 40
0.0
 40
0.2499999999999984
 40
0.2499999999999984
 40
0.374999999999999
 40
0.374999999999999
 40
0.4999999999999997
 40
0.4999999999999997
 40
0.7499999999999998
 40
0.7499999999999998
 40
1.0
 40
1.0
 40
1.0
 40
1.0
 10
201.1394551454266
 20
118.5139432457119
 30
0.0
 10
201.2043131235853
 20
118.4935860542317
 30
0.0
 10
201.2614471347918
 20
118.4721224955516
 30
0.0
 10
201.2992954466389
 20
118.4188780634508
 30
0.0
 10
201.3028525111302
 20
118.3967963861484
 30
0.0
 10
201.288722802446
 20
118.346760539643
 30
0.0
 10
201.2713118876181
 20
118.3183516945056
 30
0.0
 10
201.2017150507323
 20
118.2329025832981
 30
0.0
 10
201.1337743289561
 20
118.1748648957055
 30
0.0
 10
200.9869571940524
 20
118.0690391111298
 30
0.0
 10
200.9066524142044
 20
118.0204622381584
 30
0.0
 10
200.8222446559215
 20
117.9772538515415
 30
0.0
  0
SPLINE
  5
106
330
1F
100
AcDbEntity
  8
0
  6
HIDDEN
 62
     7
370
     0
100
AcDbSpline
210
0.0
220
0.0
230
1.0
 70
     8
 71
     3
 72
    10
 73
     6
 74
     0
 42
0.00000001
 43
0.00000001
 12
1.0
 22
0.0
 32
0.0
 13
1.0
 23
0.0
 33
0.0
 40
0.0
 40
0.0
 40
0.0
 40
0.0
 40
0.5
 40
0.5
 40
1.0
 40
1.0
 40
1.0
 40
1.0
 10
202.2487042273404
 20
119.2464383172073
 30
0.0
 10
202.0615011919765
 20
119.1551732121337
 30
0.0
 10
201.8736982447751
 20
119.0516578257957
 30
0.0
 10
201.4992702326038
 20
118.8036965394348
 30
0.0
 10
201.3166780269809
 20
118.6617002753681
 30
0.0
 10
201.1394551454266
 20
118.5139432457125
 30
0.0
  0
SPLINE
  5
107
330
1F
100
AcDbEntity
  8
0
  6
HIDDEN
 62
     7
370
     0
100
AcDbSpline
210
0.0
220
0.0
230
1.0
 70
     8
 71
     3
 72
    48
 73
    44
 74
     0
 42
0.00000001
 43
0.00000001
 12
1.0
 22
0.0
 32
0.0
 13
1.0
 23
0.0
 33
0.0
 40
0.0
 40
0.0
 40
0.0
 40
0.0
 40
0.0625000000000003
 40
0.0625000000000003
 40
0.0937500000000004
 40
0.0937500000000004
 40
0.1250000000000006
 40
0.1250000000000006
 40
0.1562500000000007
 40
0.1562500000000007
 40
0.1875000000000009
 40
0.1875000000000009
 40
0.2500000000000008
 40
0.2500000000000008
 40
0.3125000000000007
 40
0.3125000000000007
 40
0.3750000000000007
 40
0.3750000000000007
 40
0.4375000000000007
 40
0.4375000000000007
 40
0.5000000000000006
 40
0.5000000000000006
 40
0.5312500000000004
 40
0.5312500000000004
 40
0.5625000000000003
 40
0.5625000000000003
 40
0.5937500000000001
 40
0.5937500000000001
 40
0.6249999999999999
 40
0.6249999999999999
 40
0.75
 40
0.75
 40
0.8125
 40
0.8125
 40
0.875
 40
0.875
 40
0.90625
 40
0.90625
 40
0.9375
 40
0.9375
 40
0.9687500000000001
 40
0.9687500000000001
 40
1.0
 40
1.0
 40
1.0
 40
1.0
 10
198.6790613784513
 20
120.7143077576037
 30
0.0
 10
198.7507196651325
 20
120.8847343724624
 30
0.0
 10
198.8363753298534
 20
121.0475785058565
 30
0.0
 10
198.9923787015848
 20
121.2769843002383
 30
0.0
 10
199.0487297587224
 20
121.3507219481023
 30
0.0
 10
199.1778186459336
 20
121.4910795206702
 30
0.0
 10
199.2512587243349
 20
121.5572471465321
 30
0.0
 10
199.4104034254129
 20
121.6598880683039
 30
0.0
 10
199.490599119509
 20
121.6929078028081
 30
0.0
 10
199.6432303070183
 20
121.7351887073584
 30
0.0
 10
199.7163384473285
 20
121.7455875270898
 30
0.0
 10
199.9357489080529
 20
121.7607552236724
 30
0.0
 10
200.0788661668036
 20
121.749250023732
 30
0.0
 10
200.3709613674219
 20
121.7009158545076
 30
0.0
 10
200.5197304253425
 20
121.6631363708455
 30
0.0
 10
200.8280669501346
 20
121.5587930153398
 30
0.0
 10
200.9834083418814
 20
121.4935077584372
 30
0.0
 10
201.2971387600348
 20
121.3330762408038
 30
0.0
 10
201.456956898201
 20
121.2366587230491
 30
0.0
 10
201.7627532917721
 20
121.0162685199841
 30
0.0
 10
201.9125115209856
 20
120.88916601574
 30
0.0
 10
202.1109915365932
 20
120.6856381626651
 30
0.0
 10
202.1740381700134
 20
120.6144284627669
 30
0.0
 10
202.2883276867257
 20
120.4709891152591
 30
0.0
 10
202.3394966630651
 20
120.3990648754673
 30
0.0
 10
202.4303801835878
 20
120.2548917930453
 30
0.0
 10
202.470251556792
 20
120.1821192824905
 30
0.0
 10
202.5362300196417
 20
120.0416651169494
 30
0.0
 10
202.5627935091485
 20
119.9733839812984
 30
0.0
 10
202.6667907641684
 20
119.6409574778025
 30
0.0
 10
202.6537033900773
 20
119.4184382310036
 30
0.0
 10
202.5560003817384
 20
119.160908157191
 30
0.0
 10
202.510254224425
 20
119.0869416720417
 30
0.0
 10
202.3995661217441
 20
118.9631316215143
 30
0.0
 10
202.334557595201
 20
118.91338434125
 30
0.0
 10
202.2364975293648
 20
118.8684947129167
 30
0.0
 10
202.2036959464691
 20
118.8585190997258
 30
0.0
 10
202.1479625574505
 20
118.8584676134976
 30
0.0
 10
202.125182869678
 20
118.8688853244085
 30
0.0
 10
202.1158933780918
 20
118.9311609163417
 30
0.0
 10
202.1314630966153
 20
118.9832006328532
 30
0.0
 10
202.1817283658485
 20
119.1045935658049
 30
0.0
 10
202.2150178789316
 20
119.1739451565623
 30
0.0
 10
202.2487042273411
 20
119.2464383172073
 30
0.0
  0
SPLINE
  5
108
330
1F
100
AcDbEntity
  8
0
  6
HIDDEN
 62
     7
370
     0
100
AcDbSpline
210
0.0
220
0.0
230
1.0
 70
     8
 71
     3
 72
    18
 73
    14
 74
     0
 42
0.00000001
 43
0.00000001
 12
1.0
 22
0.0
 32
0.0
 13
1.0
 23
0.0
 33
0.0
 40
0.0
 40
0.0
 40
0.0
 40
0.0
 40
0.249999999999998
 40
0.249999999999998
 40
0.499999999999996
 40
0.499999999999996
 40
0.624999999999997
 40
0.624999999999997
 40
0.749999999999998
 40
0.749999999999998
 40
0.874999999999999
 40
0.874999999999999
 40
1.0
 40
1.0
 40
1.0
 40
1.0
 10
185.285562077204
 20
124.5858103056358
 30
0.0
 10
185.3198631217367
 20
124.4778001198382
 30
0.0
 10
185.3576833930335
 20
124.3705230318102
 30
0.0
 10
185.4443017134943
 20
124.1590263344936
 30
0.0
 10
185.4926730482378
 20
124.054639984324
 30
0.0
 10
185.5820760303563
 20
123.9037650616797
 30
0.0
 10
185.6146733142335
 20
123.8544200586441
 30
0.0
 10
185.6910552181784
 20
123.7598144201739
 30
0.0
 10
185.7340936555192
 20
123.7148184854192
 30
0.0
 10
185.839906688351
 20
123.6438907127614
 30
0.0
 10
185.9049451130821
 20
123.6199441688548
 30
0.0
 10
186.0380971848847
 20
123.6322248329256
 30
0.0
 10
186.0974663653479
 20
123.6655417909305
 30
0.0
 10
186.1466695058917
 20
123.7063766771552
 30
0.0
  0
SPLINE
  5
109
330
1F
100
AcDbEntity
  8
0
  6
HIDDEN
 62
     7
370
     0
100
AcDbSpline
210
0.0
220
0.0
230
1.0
 70
     8
 71
     3
 72
    16
 73
    12
 74
     0
 42
0.00000001
 43
0.00000001
 12
1.0
 22
0.0
 32
0.0
 13
1.0
 23
0.0
 33
0.0
 40
0.0
 40
0.0
 40
0.0
 40
0.0
 40
0.0625000000000003
 40
0.0625000000000003
 40
0.1250000000000006
 40
0.1250000000000006
 40
0.2500000000000011
 40
0.2500000000000011
 40
0.5000000000000022
 40
0.5000000000000022
 40
1.0
 40
1.0
 40
1.0
 40
1.0
 10
186.1466695058608
 20
123.7063766771847
 30
0.0
 10
186.1587393391367
 20
123.716393726165
 30
0.0
 10
186.17301499407
 20
123.7253528332206
 30
0.0
 10
186.2044794061944
 20
123.7332232286148
 30
0.0
 10
186.2199799310048
 20
123.7308657379726
 30
0.0
 10
186.2554188276117
 20
123.7138900457946
 30
0.0
 10
186.2690114437151
 20
123.693341554627
 30
0.0
 10
186.3020057621079
 20
123.6313992276133
 30
0.0
 10
186.3127931554267
 20
123.5850036774082
 30
0.0
 10
186.3378464027058
 20
123.4420676487136
 30
0.0
 10
186.3416463947671
 20
123.3425049318281
 30
0.0
 10
186.3416463947671
 20
123.2407375271816
 30
0.0
  0
LINE
  5
10A
330
1F
100
AcDbEntity
  8
0
  6
HIDDEN
 62
     7
370
     0
100
AcDbLine
 10
186.3416463998
 20
106.2820033772
 30
0.0
 11
186.3416463998
 21
123.2407373978
 31
0.0
  0
SPLINE
  5
10B
330
1F
100
AcDbEntity
  8
0
  6
HIDDEN
 62
     7
370
     0
100
AcDbSpline
210
0.0
220
0.0
230
1.0
 70
     8
 71
     3
 72
    16
 73
    12
 74
     0
 42
0.00000001
 43
0.00000001
 12
1.0
 22
0.0
 32
0.0
 13
1.0
 23
0.0
 33
0.0
 40
0.0
 40
0.0
 40
0.0
 40
0.0
 40
0.5000000000000007
 40
0.5000000000000007
 40
0.7499999999999988
 40
0.7499999999999988
 40
0.875
 40
0.875
 40
0.9375
 40
0.9375
 40
1.0
 40
1.0
 40
1.0
 40
1.0
 10
186.3416463947669
 20
106.2820032477873
 30
0.0
 10
186.3416463947669
 20
106.1799930942072
 30
0.0
 10
186.337762969608
 20
106.080468718954
 30
0.0
 10
186.3129476443334
 20
105.9384836229433
 30
0.0
 10
186.3021081966208
 20
105.8914903223728
 30
0.0
 10
186.268892414572
 20
105.8291975920112
 30
0.0
 10
186.2555106709433
 20
105.8089161597261
 30
0.0
 10
186.220001021081
 20
105.7918744515256
 30
0.0
 10
186.2045840545802
 20
105.7894881965095
 30
0.0
 10
186.1728830324316
 20
105.7974241263675
 30
0.0
 10
186.1587367474808
 20
105.8063491997422
 30
0.0
 10
186.1466695058911
 20
105.8163640978141
 30
0.0
  0
SPLINE
  5
10C
330
1F
100
AcDbEntity
  8
0
  6
HIDDEN
 62
     7
370
     0
100
AcDbSpline
210
0.0
220
0.0
230
1.0
 70
     8
 71
     3
 72
    18
 73
    14
 74
     0
 42
0.00000001
 43
0.00000001
 12
1.0
 22
0.0
 32
0.0
 13
1.0
 23
0.0
 33
0.0
 40
0.0
 40
0.0
 40
0.0
 40
0.0
 40
0.1250000000000007
 40
0.1250000000000007
 40
0.2500000000000013
 40
0.2500000000000013
 40
0.375000000000002
 40
0.375000000000002
 40
0.5000000000000027
 40
0.5000000000000027
 40
0.7500000000000013
 40
0.7500000000000013
 40
1.0
 40
1.0
 40
1.0
 40
1.0
 10
186.1466695058973
 20
105.8163640978214
 30
0.0
 10
186.0979640137552
 20
105.8567859735029
 30
0.0
 10
186.0394539054284
 20
105.8898180949706
 30
0.0
 10
185.9077247871363
 20
105.9030952469235
 30
0.0
 10
185.8429658507957
 20
105.8801416599433
 30
0.0
 10
185.7377548779362
 20
105.8110884630237
 30
0.0
 10
185.6945385024962
 20
105.7666208111828
 30
0.0
 10
185.6183599973843
 20
105.6734511518128
 30
0.0
 10
185.5855050360044
 20
105.624308782252
 30
0.0
 10
185.4951367561706
 20
105.4730990473122
 30
0.0
 10
185.4457135218006
 20
105.3669442777839
 30
0.0
 10
185.3580650667524
 20
105.1533626621225
 30
0.0
 10
185.3200058945496
 20
105.0453902308872
 30
0.0
 10
185.285562077204
 20
104.9369304693332
 30
0.0
  0
SPLINE
  5
10D
330
1F
100
AcDbEntity
  8
0
  6
HIDDEN
 62
     7
370
     0
100
AcDbSpline
210
0.0
220
0.0
230
1.0
 70
     8
 71
     3
 72
     8
 73
     4
 74
     0
 42
0.00000001
 43
0.00000001
 12
1.0
 22
0.0
 32
0.0
 13
1.0
 23
0.0
 33
0.0
 40
0.0
 40
0.0
 40
0.0
 40
0.0
 40
1.0
 40
1.0
 40
1.0
 40
1.0
 10
185.2855620772034
 20
104.9369304693327
 30
0.0
 10
185.2612483733133
 20
104.8603693117826
 30
0.0
 10
185.2397517313572
 20
104.7839439406495
 30
0.0
 10
185.2203260512072
 20
104.7078510698777
 30
0.0
  0
SPLINE
  5
10E
330
1F
100
AcDbEntity
  8
0
  6
HIDDEN
 62
     7
370
     0
100
AcDbSpline
210
0.0
220
0.0
230
1.0
 70
     8
 71
     3
 72
     8
 73
     4
 74
     0
 42
0.00000001
 43
0.00000001
 12
1.0
 22
0.0
 32
0.0
 13
1.0
 23
0.0
 33
0.0
 40
0.0
 40
0.0
 40
0.0
 40
0.0
 40
1.0
 40
1.0
 40
1.0
 40
1.0
 10
185.2203260512072
 20
100.9363063794793
 30
0.0
 10
185.2397514781006
 20
100.932809175892
 30
0.0
 10
185.2612480320695
 20
100.9307928582498
 30
0.0
 10
185.285562077204
 20
100.9301820048059
 30
0.0
  0
SPLINE
  5
10F
330
1F
100
AcDbEntity
  8
0
  6
HIDDEN
 62
     7
370
     0
100
AcDbSpline
210
0.0
220
0.0
230
1.0
 70
     8
 71
     3
 72
     8
 73
     4
 74
     0
 42
0.00000001
 43
0.00000001
 12
1.0
 22
0.0
 32
0.0
 13
1.0
 23
0.0
 33
0.0
 40
0.0
 40
0.0
 40
0.0
 40
0.0
 40
1.0
 40
1.0
 40
1.0
 40
1.0
 10
186.3187953816609
 20
100.8408236137478
 30
0.0
 10
186.3377323138268
 20
100.8128691763463
 30
0.0
 10
186.3416463947671
 20
100.79278532499
 30
0.0
 10
186.3416463947671
 20
100.7765584808246
 30
0.0
  0
LINE
  5
110
330
1F
100
AcDbEntity
  8
0
  6
HIDDEN
 62
     7
370
     0
100
AcDbLine
 10
186.3416463998
 20
100.6715504123
 30
0.0
 11
186.3416463998
 21
100.7765588952
 31
0.0
  0
LINE
  5
111
330
1F
100
AcDbEntity
  8
0
  6
HIDDEN
 62
     7
370
     0
100
AcDbLine
 10
186.3416463998
 20
109.2559254399
 30
0.0
 11
186.333077068
 21
109.3549655421
 31
0.0
  0
LINE
  5
112
330
1F
100
AcDbEntity
  8
0
  6
HIDDEN
 62
     7
370
     0
100
AcDbLine
 10
186.3416463998
 20
128.7461818797
 30
0.0
 11
186.3416463998
 21
128.8511903627
 31
0.0
  0
SPLINE
  5
113
330
1F
100
AcDbEntity
  8
0
  6
HIDDEN
 62
     7
370
     0
100
AcDbSpline
210
0.0
220
0.0
230
1.0
 70
     8
 71
     3
 72
    10
 73
     6
 74
     0
 42
0.00000001
 43
0.00000001
 12
1.0
 22
0.0
 32
0.0
 13
1.0
 23
0.0
 33
0.0
 40
0.0
 40
0.0
 40
0.0
 40
0.0
 40
0.5000000000000007
 40
0.5000000000000007
 40
1.0
 40
1.0
 40
1.0
 40
1.0
 10
186.3416463947669
 20
128.7461822941446
 30
0.0
 10
186.3416463947669
 20
128.7360560940245
 30
0.0
 10
186.3396378157214
 20
128.7242955014708
 30
0.0
 10
186.328454587816
 20
128.6963142867205
 30
0.0
 10
186.3201534541415
 20
128.6803339723828
 30
0.0
 10
186.3013070648993
 20
128.6599778903552
 30
0.0
  0
SPLINE
  5
114
330
1F
100
AcDbEntity
  8
0
  6
HIDDEN
 62
     7
370
     0
100
AcDbSpline
210
0.0
220
0.0
230
1.0
 70
     8
 71
     3
 72
     8
 73
     4
 74
     0
 42
0.00000001
 43
0.00000001
 12
1.0
 22
0.0
 32
0.0
 13
1.0
 23
0.0
 33
0.0
 40
0.0
 40
0.0
 40
0.0
 40
0.0
 40
1.0
 40
1.0
 40
1.0
 40
1.0
 10
185.2855620772036
 20
128.5925587701631
 30
0.0
 10
185.2612480320693
 20
128.5919479167192
 30
0.0
 10
185.2397514781005
 20
128.589931599077
 30
0.0
 10
185.2203260512072
 20
128.5864343954897
 30
0.0
  0
SPLINE
  5
115
330
1F
100
AcDbEntity
  8
0
  6
HIDDEN
 62
     7
370
     0
100
AcDbSpline
210
0.0
220
0.0
230
1.0
 70
     8
 71
     3
 72
     8
 73
     4
 74
     0
 42
0.00000001
 43
0.00000001
 12
1.0
 22
0.0
 32
0.0
 13
1.0
 23
0.0
 33
0.0
 40
0.0
 40
0.0
 40
0.0
 40
0.0
 40
1.0
 40
1.0
 40
1.0
 40
1.0
 10
185.2203260512072
 20
124.8148897050913
 30
0.0
 10
185.2397517313572
 20
124.7387968343196
 30
0.0
 10
185.2612483733133
 20
124.6623714631864
 30
0.0
 10
185.2855620772034
 20
124.5858103056363
 30
0.0
  0
SPLINE
  5
116
330
1F
100
AcDbEntity
  8
0
  6
HIDDEN
 62
     7
370
     0
100
AcDbSpline
210
0.0
220
0.0
230
1.0
 70
     8
 71
     3
 72
    62
 73
    58
 74
     0
 42
0.00000001
 43
0.00000001
 12
1.0
 22
0.0
 32
0.0
 13
1.0
 23
0.0
 33
0.0
 40
-0.03125
 40
-0.03125
 40
0.0
 40
0.0
 40
0.0312500000000001
 40
0.0312500000000001
 40
0.0625000000000002
 40
0.0625000000000002
 40
0.0937500000000002
 40
0.0937500000000002
 40
0.1250000000000003
 40
0.1250000000000003
 40
0.1875000000000005
 40
0.1875000000000005
 40
0.2187500000000005
 40
0.2187500000000005
 40
0.2500000000000006
 40
0.2500000000000006
 40
0.2812500000000006
 40
0.2812500000000006
 40
0.3125000000000007
 40
0.3125000000000007
 40
0.3437500000000008
 40
0.3437500000000008
 40
0.3750000000000008
 40
0.3750000000000008
 40
0.4062500000000009
 40
0.4062500000000009
 40
0.4375000000000009
 40
0.4375000000000009
 40
0.468750000000001
 40
0.468750000000001
 40
0.500000000000001
 40
0.500000000000001
 40
0.562500000000001
 40
0.562500000000001
 40
0.5937500000000011
 40
0.5937500000000011
 40
0.6250000000000012
 40
0.6250000000000012
 40
0.6875000000000012
 40
0.6875000000000012
 40
0.7187500000000011
 40
0.7187500000000011
 40
0.7500000000000009
 40
0.7500000000000009
 40
0.7812500000000008
 40
0.7812500000000008
 40
0.8125000000000007
 40
0.8125000000000007
 40
0.8750000000000001
 40
0.8750000000000001
 40
0.9062500000000001
 40
0.9062500000000001
 40
0.9375000000000001
 40
0.9375000000000001
 40
0.96875
 40
0.96875
 40
1.0
 40
1.0
 40
1.03125
 40
1.03125
 10
200.6814879405687
 20
115.0194574798305
 30
0.0
 10
200.4018048489652
 20
115.0194574798305
 30
0.0
 10
200.2645208920077
 20
115.0341442791979
 30
0.0
 10
199.9947851371563
 20
115.0912367455788
 30
0.0
 10
199.8609031180608
 20
115.1343915335782
 30
0.0
 10
199.6071565596627
 20
115.2453298422266
 30
0.0
 10
199.4869708979201
 20
115.3127754766007
 30
0.0
 10
199.2595083064063
 20
115.4705820926608
 30
0.0
 10
199.1526931009447
 20
115.5610334107795
 30
0.0
 10
198.86444850362
 20
115.8547413883764
 30
0.0
 10
198.7083278047188
 20
116.0878611368714
 30
0.0
 10
198.5506123438766
 20
116.4572961734741
 30
0.0
 10
198.509703114769
 20
116.5860337926024
 30
0.0
 10
198.4553262097467
 20
116.8445678374295
 30
0.0
 10
198.4417387418571
 20
116.9732824679373
 30
0.0
 10
198.4415549768695
 20
117.2294502581931
 30
0.0
 10
198.4554410130756
 20
117.3577520265458
 30
0.0
 10
198.5095280976263
 20
117.6016232890246
 30
0.0
 10
198.5495368536713
 20
117.7186183131037
 30
0.0
 10
198.6558831282536
 20
117.9431939937166
 30
0.0
 10
198.7210824031711
 20
118.0480965096062
 30
0.0
 10
198.8727898072093
 20
118.2419247000967
 30
0.0
 10
198.9605904818492
 20
118.3321569851607
 30
0.0
 10
199.1539283912126
 20
118.493578448956
 30
0.0
 10
199.2588767772242
 20
118.5647034502153
 30
0.0
 10
199.4856047871702
 20
118.6890902575309
 30
0.0
 10
199.6083765381523
 20
118.7424428881719
 30
0.0
 10
199.8610550103776
 20
118.8270963507089
 30
0.0
 10
199.9920359818783
 20
118.859159913413
 30
0.0
 10
200.2638243531271
 20
118.9026599111528
 30
0.0
 10
200.4030579634614
 20
118.9135847445835
 30
0.0
 10
200.8162417462597
 20
118.9137190981553
 30
0.0
 10
201.0943174909745
 20
118.8698412708446
 30
0.0
 10
201.4743863190057
 20
118.7426758895038
 30
0.0
 10
201.5971545609478
 20
118.689338180198
 30
0.0
 10
201.8238407268342
 20
118.5650635755281
 30
0.0
 10
201.9290088353796
 20
118.4938758130534
 30
0.0
 10
202.2200953311097
 20
118.2508407187977
 30
0.0
 10
202.3740258533378
 20
118.0557052753223
 30
0.0
 10
202.5334574560875
 20
117.7193589246575
 30
0.0
 10
202.573458653643
 20
117.6025765040048
 30
0.0
 10
202.6276178745725
 20
117.3592290883542
 30
0.0
 10
202.6416407811219
 20
117.2310506623483
 30
0.0
 10
202.6416520049586
 20
116.9744304469614
 30
0.0
 10
202.6281110517596
 20
116.8456120885084
 30
0.0
 10
202.5738929651497
 20
116.5871213549998
 30
0.0
 10
202.5330130105434
 20
116.4581777293014
 30
0.0
 10
202.3750449333676
 20
116.0878440313159
 30
0.0
 10
202.2190169760127
 20
115.8548765324756
 30
0.0
 10
201.9302698566875
 20
115.5607177626623
 30
0.0
 10
201.8230550219585
 20
115.4700361167483
 30
0.0
 10
201.5962016150086
 20
115.3127320800736
 30
0.0
 10
201.4761841027687
 20
115.2453517252721
 30
0.0
 10
201.2223658953146
 20
115.1343801857472
 30
0.0
 10
201.0884988512632
 20
115.0912367070135
 30
0.0
 10
200.8188316093689
 20
115.0341550939094
 30
0.0
 10
200.6814879405687
 20
115.0194574798305
 30
0.0
 10
200.4018048489652
 20
115.0194574798305
 30
0.0
  0
SPLINE
  5
117
330
1F
100
AcDbEntity
  8
0
  6
HIDDEN
 62
     7
370
     0
100
AcDbSpline
210
0.0
220
0.0
230
1.0
 70
     8
 71
     3
 72
    22
 73
    18
 74
     0
 42
0.00000001
 43
0.00000001
 12
1.0
 22
0.0
 32
0.0
 13
1.0
 23
0.0
 33
0.0
 40
-0.125
 40
-0.125
 40
0.0
 40
0.0
 40
0.125
 40
0.125
 40
0.25
 40
0.25
 40
0.375
 40
0.375
 40
0.5
 40
0.5
 40
0.625
 40
0.625
 40
0.75
 40
0.75
 40
0.875
 40
0.875
 40
1.0
 40
1.0
 40
1.125
 40
1.125
 10
198.6999897100857
 20
119.2776038532643
 30
0.0
 10
198.6973051128209
 20
119.3130221295599
 30
0.0
 10
198.7051326160234
 20
119.3147946077072
 30
0.0
 10
198.7332757571602
 20
119.2911637164048
 30
0.0
 10
198.7535980922595
 20
119.2663389402235
 30
0.0
 10
198.7977857834402
 20
119.2048073033061
 30
0.0
 10
198.8213365272854
 20
119.1686276170213
 30
0.0
 10
198.8591086155811
 20
119.1009676162981
 30
0.0
 10
198.8720958511099
 20
119.0709615355029
 30
0.0
 10
198.8758359222673
 20
119.0359988275835
 30
0.0
 10
198.8662068098536
 20
119.0318599072431
 30
0.0
 10
198.8325050687885
 20
119.0522636188294
 30
0.0
 10
198.8093854165707
 20
119.0760281990594
 30
0.0
 10
198.7645638391504
 20
119.1373589618881
 30
0.0
 10
198.7427630298096
 20
119.1750714756822
 30
0.0
 10
198.710502885049
 20
119.2452082320454
 30
0.0
 10
198.6999897100857
 20
119.2776038532643
 30
0.0
 10
198.6973051128209
 20
119.3130221295599
 30
0.0
  0
ARC
  5
118
330
1F
100
AcDbEntity
  8
0
  6
HIDDEN
 62
     7
370
     0
100
AcDbCircle
 10
200.5948211499
 20
120.5448438318
 30
0.0
 40
2.102661006016019
100
AcDbArc
 50
285.0120031177
 51
321.8657715708
  0
ARC
  5
119
330
1F
100
AcDbEntity
  8
0
  6
HIDDEN
 62
     7
370
     0
100
AcDbCircle
 10
200.4565380021
 20
120.4072599538
 30
0.0
 40
1.987879058258002
100
AcDbArc
 50
158.053661928
 51
279.4101140794
  0
LINE
  5
11A
330
1F
100
AcDbEntity
  8
0
  6
HIDDEN
 62
     7
370
     0
100
AcDbLine
 10
186.3416463998
 20
100.7765588952
 30
0.0
 11
186.3416463998
 21
109.2559254399
 31
0.0
  0
LINE
  5
11B
330
1F
100
AcDbEntity
  8
0
  6
HIDDEN
 62
     7
370
     0
100
AcDbLine
 10
186.3416463998
 20
120.2668153351
 30
0.0
 11
186.3416463998
 21
128.7461818797
 31
0.0
  0
SPLINE
  5
11C
330
1F
100
AcDbEntity
  8
0
  6
HIDDEN
 62
     7
370
     0
100
AcDbSpline
210
0.0
220
0.0
230
1.0
 70
     8
 71
     3
 72
    10
 73
     6
 74
     0
 42
0.00000001
 43
0.00000001
 12
1.0
 22
0.0
 32
0.0
 13
1.0
 23
0.0
 33
0.0
 40
0.0
 40
0.0
 40
0.0
 40
0.0
 40
0.5
 40
0.5
 40
1.0
 40
1.0
 40
1.0
 40
1.0
 10
209.6403448105722
 20
113.982981844788
 30
0.0
 10
209.5428474657821
 20
114.0755590135115
 30
0.0
 10
209.4001225409696
 20
114.1897258668389
 30
0.0
 10
209.0953952065495
 20
114.4417445417723
 30
0.0
 10
208.9319711496385
 20
114.580946169958
 30
0.0
 10
208.7743194067877
 20
114.7268049864188
 30
0.0
  0
LINE
  5
11D
330
1F
100
AcDbEntity
  8
0
  6
HIDDEN
 62
     7
370
     0
100
AcDbLine
 10
209.6403442806
 20
94.2613698212
 30
0.0
 11
209.6403442806
 21
113.9829818645
 31
0.0
  0
SPLINE
  5
11E
330
1F
100
AcDbEntity
  8
0
  6
HIDDEN
 62
     7
370
     0
100
AcDbSpline
210
0.0
220
0.0
230
1.0
 70
     8
 71
     3
 72
    20
 73
    16
 74
     0
 42
0.00000001
 43
0.00000001
 12
1.0
 22
0.0
 32
0.0
 13
1.0
 23
0.0
 33
0.0
 40
0.0
 40
0.0
 40
0.0
 40
0.0
 40
0.2499999999999987
 40
0.2499999999999987
 40
0.3749999999999989
 40
0.3749999999999989
 40
0.4999999999999991
 40
0.4999999999999991
 40
0.6249999999999993
 40
0.6249999999999993
 40
0.7499999999999996
 40
0.7499999999999996
 40
0.8749999999999998
 40
0.8749999999999998
 40
1.0
 40
1.0
 40
1.0
 40
1.0
 10
214.5260352096496
 20
114.7613703874845
 30
0.0
 10
214.2049179893205
 20
114.4560291380274
 30
0.0
 10
213.8472517602667
 20
114.2050877885842
 30
0.0
 10
213.2558707604159
 20
113.9101812408444
 30
0.0
 10
213.0502082931079
 20
113.8264151533651
 30
0.0
 10
212.6338340291993
 20
113.6922769031999
 30
0.0
 10
212.4215258432716
 20
113.6410513257091
 30
0.0
 10
211.9885484953605
 20
113.5707083299051
 30
0.0
 10
211.7663176034415
 20
113.551776389267
 30
0.0
 10
211.327566144842
 20
113.5481244419151
 30
0.0
 10
211.1096581126488
 20
113.5629522134127
 30
0.0
 10
210.6767826066591
 20
113.6259858923306
 30
0.0
 10
210.4599750953229
 20
113.6748107993909
 30
0.0
 10
210.0392217518013
 20
113.8052916247891
 30
0.0
 10
209.8361563955468
 20
113.8863028848194
 30
0.0
 10
209.6403448105725
 20
113.982981844789
 30
0.0
  0
ELLIPSE
  5
11F
330
1F
100
AcDbEntity
  8
0
  6
HIDDEN
 62
     7
370
     0
100
AcDbEllipse
 10
226.7732865035
 20
114.7613703875
 30
0.0
 11
15.00226541746079
 21
20.49413197769097
 31
0.0
210
0.0
220
0.0
230
1.0
 40
0.0326926316
 41
1.817636942010801
 42
3.165519987239049
  0
ELLIPSE
  5
120
330
1F
100
AcDbEntity
  8
0
  6
HIDDEN
 62
     7
370
     0
100
AcDbEllipse
 10
226.0683843923
 20
114.7613703875
 30
0.0
 11
0.6471730019342774
 21
20.49969255924289
 31
0.0
210
0.0
220
0.0
230
1.0
 40
0.1734804855
 41
1.576273031568479
 42
1.799186313135576
  0
CIRCLE
  5
121
330
1F
100
AcDbEntity
  8
0
  6
HIDDEN
 62
     7
370
     0
100
AcDbCircle
 10
175.0416463948
 20
114.7613703875
 30
0.0
 40
2.300000000000011
  0
LINE
  5
122
330
1F
100
AcDbEntity
  8
0
  6
HIDDEN
 62
     7
370
     0
100
AcDbLine
 10
163.5686789191
 20
124.3240639238
 30
0.0
 11
163.5686789191
 21
105.1986768512
 31
0.0
  0
LINE
  5
123
330
1F
100
AcDbEntity
  8
0
  6
HIDDEN
 62
     7
370
     0
100
AcDbLine
 10
162.5416461862
 20
104.6057196004
 30
0.0
 11
162.5416461862
 21
124.904397097
 31
0.0
  0
LINE
  5
124
330
1F
100
AcDbEntity
  8
0
  6
HIDDEN
 62
     7
370
     0
100
AcDbLine
 10
167.0686785615
 20
123.9923100589
 30
0.0
 11
167.0686785615
 21
105.5304307161
 31
0.0
  0
LINE
  5
125
330
1F
100
AcDbEntity
  8
0
  6
HIDDEN
 62
     7
370
     0
100
AcDbLine
 10
170.4686783737
 20
123.7613700001
 30
0.0
 11
170.4686783737
 21
105.7613707749
 31
0.0
  0
LINE
  5
126
330
1F
100
AcDbEntity
  8
0
  6
HIDDEN
 62
     7
370
     0
100
AcDbLine
 10
165.6686790771
 20
123.7613700001
 30
0.0
 11
165.6686790771
 21
105.7613707749
 31
0.0
  0
LINE
  5
127
330
1F
100
AcDbEntity
  8
0
  6
HIDDEN
 62
     7
370
     0
100
AcDbLine
 10
166.668679241
 20
123.7613700001
 30
0.0
 11
166.668679241
 21
105.7613707749
 31
0.0
  0
SPLINE
  5
128
330
1F
100
AcDbEntity
  8
0
  6
HIDDEN
 62
     7
370
     0
100
AcDbSpline
210
0.0
220
0.0
230
1.0
 70
     8
 71
     3
 72
    14
 73
    10
 74
     0
 42
0.00000001
 43
0.00000001
 12
1.0
 22
0.0
 32
0.0
 13
1.0
 23
0.0
 33
0.0
 40
0.0
 40
0.0
 40
0.0
 40
0.0
 40
0.2499999999999999
 40
0.2499999999999999
 40
0.4999999999999999
 40
0.4999999999999999
 40
0.7499999999999998
 40
0.7499999999999998
 40
1.0
 40
1.0
 40
1.0
 40
1.0
 10
177.0416463947669
 20
115.8971520566446
 30
0.0
 10
177.1398707412699
 20
115.7241886268411
 30
0.0
 10
177.215185579254
 20
115.5391560724166
 30
0.0
 10
177.3161522894483
 20
115.1561438582822
 30
0.0
 10
177.3415278757385
 20
114.9614253048165
 30
0.0
 10
177.3417641010048
 20
114.5640500035509
 30
0.0
 10
177.3160610316693
 20
114.3665576690755
 30
0.0
 10
177.2157409181528
 20
113.9853858344445
 30
0.0
 10
177.1398490900652
 20
113.798514022472
 30
0.0
 10
177.0416463947715
 20
113.6255887183221
 30
0.0
  0
LINE
  5
129
330
1F
100
AcDbEntity
  8
0
  6
HIDDEN
 62
     7
370
     0
100
AcDbLine
 10
177.5416467822
 20
123.2613708494
 30
0.0
 11
177.5416467822
 21
106.2613699255
 31
0.0
  0
SPLINE
  5
12A
330
1F
100
AcDbEntity
  8
0
  6
HIDDEN
 62
     7
370
     0
100
AcDbSpline
210
0.0
220
0.0
230
1.0
 70
     8
 71
     3
 72
    14
 73
    10
 74
     0
 42
0.00000001
 43
0.00000001
 12
1.0
 22
0.0
 32
0.0
 13
1.0
 23
0.0
 33
0.0
 40
0.0
 40
0.0
 40
0.0
 40
0.0
 40
0.25
 40
0.25
 40
0.5
 40
0.5
 40
0.75
 40
0.75
 40
1.0
 40
1.0
 40
1.0
 40
1.0
 10
177.0416463947669
 20
113.6255887183244
 30
0.0
 10
177.1398707412699
 20
113.798552148128
 30
0.0
 10
177.215185579254
 20
113.9835847025523
 30
0.0
 10
177.3161522894483
 20
114.3665969166868
 30
0.0
 10
177.3415278757385
 20
114.5613154701525
 30
0.0
 10
177.3417641010048
 20
114.958690771418
 30
0.0
 10
177.3160610316693
 20
115.1561831058934
 30
0.0
 10
177.2157409181528
 20
115.5373549405245
 30
0.0
 10
177.1398490900652
 20
115.724226752497
 30
0.0
 10
177.0416463947715
 20
115.8971520566469
 30
0.0
  0
SPLINE
  5
12B
330
1F
100
AcDbEntity
  8
0
  6
HIDDEN
 62
     7
370
     0
100
AcDbSpline
210
0.0
220
0.0
230
1.0
 70
     8
 71
     3
 72
    60
 73
    56
 74
     0
 42
0.00000001
 43
0.00000001
 12
1.0
 22
0.0
 32
0.0
 13
1.0
 23
0.0
 33
0.0
 40
0.0
 40
0.0
 40
0.0
 40
0.0
 40
0.0625000000000006
 40
0.0625000000000006
 40
0.1250000000000011
 40
0.1250000000000011
 40
0.1875000000000017
 40
0.1875000000000017
 40
0.218750000000002
 40
0.218750000000002
 40
0.2500000000000023
 40
0.2500000000000023
 40
0.3125000000000024
 40
0.3125000000000024
 40
0.3750000000000025
 40
0.3750000000000025
 40
0.4062500000000025
 40
0.4062500000000025
 40
0.4375000000000024
 40
0.4375000000000024
 40
0.4687500000000023
 40
0.4687500000000023
 40
0.5000000000000022
 40
0.5000000000000022
 40
0.5312500000000021
 40
0.5312500000000021
 40
0.5625000000000019
 40
0.5625000000000019
 40
0.5937500000000018
 40
0.5937500000000018
 40
0.6250000000000016
 40
0.6250000000000016
 40
0.6562500000000014
 40
0.6562500000000014
 40
0.6875000000000012
 40
0.6875000000000012
 40
0.7187500000000011
 40
0.7187500000000011
 40
0.7500000000000009
 40
0.7500000000000009
 40
0.7812500000000008
 40
0.7812500000000008
 40
0.8125000000000007
 40
0.8125000000000007
 40
0.8437500000000004
 40
0.8437500000000004
 40
0.8750000000000003
 40
0.8750000000000003
 40
0.9062500000000001
 40
0.9062500000000001
 40
0.9375000000000001
 40
0.9375000000000001
 40
0.96875
 40
0.96875
 40
1.0
 40
1.0
 40
1.0
 40
1.0
 10
177.0416463947669
 20
113.6255887183244
 30
0.0
 10
176.9164564931882
 20
113.4051415937088
 30
0.0
 10
176.7595891746201
 20
113.2114078648885
 30
0.0
 10
176.3825516548012
 20
112.8757181661261
 30
0.0
 10
176.1708383483802
 20
112.7417408078134
 30
0.0
 10
175.7049483664315
 20
112.5446140631282
 30
0.0
 10
175.4591091353799
 20
112.4853966509064
 30
0.0
 10
175.0796280822853
 20
112.4581899150157
 30
0.0
 10
174.9518823535914
 20
112.4596831801575
 30
0.0
 10
174.7014161069233
 20
112.4831989859665
 30
0.0
 10
174.5775867241151
 20
112.5051182047707
 30
0.0
 10
174.2103670500164
 20
112.6019547696156
 30
0.0
 10
173.9795980319307
 20
112.7057558910674
 30
0.0
 10
173.5597090705112
 20
112.9844743719954
 30
0.0
 10
173.3754506956236
 20
113.1560366634992
 30
0.0
 10
173.1447023081403
 20
113.454684024766
 30
0.0
 10
173.0756554583513
 20
113.5611515652682
 30
0.0
 10
172.9570907945458
 20
113.7814349136612
 30
0.0
 10
172.9068824257962
 20
113.8960964300626
 30
0.0
 10
172.8250505734384
 20
114.1347770668394
 30
0.0
 10
172.7936996745557
 20
114.2588226937175
 30
0.0
 10
172.7523052965171
 20
114.5069377298258
 30
0.0
 10
172.7417995214528
 20
114.6321754323143
 30
0.0
 10
172.741496569117
 20
114.8850544879053
 30
0.0
 10
172.7519810987336
 20
115.0129341741419
 30
0.0
 10
172.7931211761951
 20
115.2613562353474
 30
0.0
 10
172.8236992967437
 20
115.3831551621158
 30
0.0
 10
172.904982005095
 20
115.6219346915901
 30
0.0
 10
172.9559828916569
 20
115.7389762538968
 30
0.0
 10
173.0745499400199
 20
115.9598014518227
 30
0.0
 10
173.1424386932917
 20
116.0647398153855
 30
0.0
 10
173.2955891310293
 20
116.2637171486148
 30
0.0
 10
173.3811453026018
 20
116.357725273809
 30
0.0
 10
173.563856673561
 20
116.5282179587457
 30
0.0
 10
173.6616639732429
 20
116.6056561537951
 30
0.0
 10
173.8704670851599
 20
116.7448220496834
 30
0.0
 10
173.9820492604478
 20
116.8066038586904
 30
0.0
 10
174.2106950599468
 20
116.9096827292912
 30
0.0
 10
174.3286498709179
 20
116.9516867644868
 30
0.0
 10
174.5719783159066
 20
117.0164228857836
 30
0.0
 10
174.6983221912497
 20
117.0390961483463
 30
0.0
 10
174.9494281722675
 20
117.0629789445274
 30
0.0
 10
175.0751101659905
 20
117.0645822457941
 30
0.0
 10
175.3267322357823
 20
117.0471155070232
 30
0.0
 10
175.4536298560681
 20
117.0276796163833
 30
0.0
 10
175.6988204223292
 20
116.9690864450596
 30
0.0
 10
175.8180095793627
 20
116.930023593903
 30
0.0
 10
176.0496946037175
 20
116.8325138717792
 30
0.0
 10
176.162869408068
 20
116.7734785174906
 30
0.0
 10
176.3749478250037
 20
116.6396748006511
 30
0.0
 10
176.4747366037046
 20
116.5646795845063
 30
0.0
 10
176.6619947906935
 20
116.3984845199855
 30
0.0
 10
176.7498898276369
 20
116.306590321244
 30
0.0
 10
176.9081109032688
 20
116.1112261235297
 30
0.0
 10
176.9790488595605
 20
116.0073801698572
 30
0.0
 10
177.0416463947669
 20
115.8971520566446
 30
0.0
  0
SPLINE
  5
12C
330
1F
100
AcDbEntity
  8
0
  6
HIDDEN
 62
     7
370
     0
100
AcDbSpline
210
0.0
220
0.0
230
1.0
 70
     8
 71
     3
 72
    60
 73
    56
 74
     0
 42
0.00000001
 43
0.00000001
 12
1.0
 22
0.0
 32
0.0
 13
1.0
 23
0.0
 33
0.0
 40
0.0
 40
0.0
 40
0.0
 40
0.0
 40
0.0625
 40
0.0625
 40
0.1250000000000001
 40
0.1250000000000001
 40
0.1875000000000001
 40
0.1875000000000001
 40
0.2187500000000001
 40
0.2187500000000001
 40
0.2500000000000001
 40
0.2500000000000001
 40
0.3125000000000001
 40
0.3125000000000001
 40
0.3750000000000002
 40
0.3750000000000002
 40
0.4062500000000002
 40
0.4062500000000002
 40
0.4375000000000002
 40
0.4375000000000002
 40
0.4687500000000002
 40
0.4687500000000002
 40
0.5000000000000002
 40
0.5000000000000002
 40
0.5312500000000002
 40
0.5312500000000002
 40
0.5625000000000002
 40
0.5625000000000002
 40
0.5937500000000002
 40
0.5937500000000002
 40
0.6250000000000002
 40
0.6250000000000002
 40
0.6562500000000003
 40
0.6562500000000003
 40
0.6875000000000003
 40
0.6875000000000003
 40
0.7187500000000003
 40
0.7187500000000003
 40
0.7500000000000003
 40
0.7500000000000003
 40
0.7812500000000003
 40
0.7812500000000003
 40
0.8125000000000003
 40
0.8125000000000003
 40
0.8437500000000003
 40
0.8437500000000003
 40
0.8750000000000004
 40
0.8750000000000004
 40
0.9062500000000004
 40
0.9062500000000004
 40
0.9375000000000003
 40
0.9375000000000003
 40
0.9687500000000002
 40
0.9687500000000002
 40
1.0
 40
1.0
 40
1.0
 40
1.0
 10
177.0416463947669
 20
115.8971520566446
 30
0.0
 10
176.9164564931882
 20
116.1175991812601
 30
0.0
 10
176.7595891746201
 20
116.3113329100805
 30
0.0
 10
176.3825516548013
 20
116.6470226088429
 30
0.0
 10
176.1708383483803
 20
116.7809999671557
 30
0.0
 10
175.7049483664315
 20
116.9781267118408
 30
0.0
 10
175.4591091353799
 20
117.0373441240627
 30
0.0
 10
175.0796280822854
 20
117.0645508599533
 30
0.0
 10
174.9518823535914
 20
117.0630575948115
 30
0.0
 10
174.7014161069233
 20
117.0395417890025
 30
0.0
 10
174.5775867241151
 20
117.0176225701983
 30
0.0
 10
174.2103670500164
 20
116.9207860053534
 30
0.0
 10
173.9795980319307
 20
116.8169848839016
 30
0.0
 10
173.5597090705112
 20
116.5382664029736
 30
0.0
 10
173.3754506956236
 20
116.3667041114699
 30
0.0
 10
173.1447023081403
 20
116.0680567502031
 30
0.0
 10
173.0756554583513
 20
115.9615892097008
 30
0.0
 10
172.9570907945458
 20
115.7413058613078
 30
0.0
 10
172.9068824257962
 20
115.6266443449064
 30
0.0
 10
172.8250505734384
 20
115.3879637081296
 30
0.0
 10
172.7936996745557
 20
115.2639180812516
 30
0.0
 10
172.7523052965171
 20
115.0158030451432
 30
0.0
 10
172.7417995214528
 20
114.8905653426548
 30
0.0
 10
172.741496569117
 20
114.6376862870637
 30
0.0
 10
172.7519810987336
 20
114.5098066008271
 30
0.0
 10
172.7931211761951
 20
114.2613845396216
 30
0.0
 10
172.8236992967436
 20
114.1395856128533
 30
0.0
 10
172.9049820050949
 20
113.9008060833789
 30
0.0
 10
172.9559828916568
 20
113.7837645210723
 30
0.0
 10
173.0745499400199
 20
113.5629393231464
 30
0.0
 10
173.1424386932917
 20
113.4580009595836
 30
0.0
 10
173.2955891310293
 20
113.2590236263542
 30
0.0
 10
173.3811453026018
 20
113.16501550116
 30
0.0
 10
173.563856673561
 20
112.9945228162233
 30
0.0
 10
173.6616639732429
 20
112.9170846211739
 30
0.0
 10
173.8704670851598
 20
112.7779187252857
 30
0.0
 10
173.9820492604477
 20
112.7161369162787
 30
0.0
 10
174.2106950599467
 20
112.6130580456779
 30
0.0
 10
174.3286498709179
 20
112.5710540104822
 30
0.0
 10
174.5719783159066
 20
112.5063178891854
 30
0.0
 10
174.6983221912496
 20
112.4836446266227
 30
0.0
 10
174.9494281722675
 20
112.4597618304416
 30
0.0
 10
175.0751101659905
 20
112.4581585291749
 30
0.0
 10
175.3267322357823
 20
112.4756252679458
 30
0.0
 10
175.453629856068
 20
112.4950611585858
 30
0.0
 10
175.6988204223292
 20
112.5536543299094
 30
0.0
 10
175.8180095793627
 20
112.592717181066
 30
0.0
 10
176.0496946037175
 20
112.6902269031898
 30
0.0
 10
176.162869408068
 20
112.7492622574784
 30
0.0
 10
176.3749478250037
 20
112.8830659743179
 30
0.0
 10
176.4747366037045
 20
112.9580611904627
 30
0.0
 10
176.6619947906935
 20
113.1242562549835
 30
0.0
 10
176.7498898276369
 20
113.216150453725
 30
0.0
 10
176.9081109032687
 20
113.4115146514393
 30
0.0
 10
176.9790488595605
 20
113.5153606051118
 30
0.0
 10
177.0416463947669
 20
113.6255887183244
 30
0.0
  0
LWPOLYLINE
  5
12D
330
1F
100
AcDbEntity
  8
0
  6
HIDDEN
 62
     7
370
     0
100
AcDbPolyline
 90
       38
 70
   128
 43
0.0
 10
219.147916559
 20
121.8139502821
 10
219.1161882615
 20
121.2311607456
 10
218.9862575865
 20
120.665136878
 10
218.7618684507
 20
120.132162389
 10
218.4494693315
 20
119.647569642
 10
218.0580530799
 20
119.2253000705
 10
217.5988793856
 20
118.8775009146
 10
217.0851544029
 20
118.6141783042
 10
216.5316582209
 20
118.4429073842
 10
215.9543145931
 20
118.368615084
 10
215.3697327263
 20
118.3934387887
 10
214.7947304434
 20
118.5166644068
 10
214.2458480335
 20
118.734746859
 10
213.738877002
 20
119.0414122907
 10
213.2884018606
 20
119.4278389817
 10
212.9073810316
 20
119.8829092687
 10
212.6067780441
 20
120.3935324816
 10
212.3952374345
 20
120.9450184038
 10
212.2788481897
 20
121.5215019552
 10
212.2609556204
 20
122.1063986091
 10
212.3420756793
 20
122.6828826262
 10
212.5198763347
 20
123.2343680827
 10
212.7892390377
 20
123.7449908299
 10
213.1424189097
 20
124.2000620482
 10
213.5692533589
 20
124.5864882736
 10
214.0574619657
 20
124.8931541709
 10
214.5930022484
 20
125.1112363903
 10
215.1604645437
 20
125.2344615428
 10
215.7435283548
 20
125.259285946
 10
216.3254168368
 20
125.1849934129
 10
216.8893903977
 20
125.0137222601
 10
217.4192253983
 20
124.750399184
 10
217.8996798134
 20
124.4026004938
 10
218.3169309533
 20
123.9803304566
 10
218.6589759326
 20
123.4957381753
 10
218.9159725345
 20
122.9627636863
 10
219.0805297828
 20
122.3967398187
 10
219.147916559
 20
121.8139502821
  0
LINE
  5
12E
330
1F
100
AcDbEntity
  8
0
  6
HIDDEN
 62
     7
370
     0
100
AcDbLine
 10
178.4416461847
 20
121.0113704806
 30
0.0
 11
178.4416461847
 21
108.5113702944
 31
0.0
  0
LINE
  5
12F
330
1F
100
AcDbEntity
  8
0
  6
HIDDEN
 62
     7
370
     0
100
AcDbLine
 10
177.5416467822
 20
107.6113704262
 30
0.0
 11
177.5416467822
 21
121.8988128608
 31
0.0
  0
ARC
  5
130
330
1F
100
AcDbEntity
  8
0
  6
HIDDEN
 62
     7
370
     0
100
AcDbCircle
 10
211.3617532104
 20
128.448953026
 30
0.0
 40
2.077863456567039
100
AcDbArc
 50
102.2006925024
 51
274.4374577615
  0
SPLINE
  5
131
330
1F
100
AcDbEntity
  8
0
  6
HIDDEN
 62
     7
370
     0
100
AcDbSpline
210
0.0
220
0.0
230
1.0
 70
     8
 71
     3
 72
    62
 73
    58
 74
     0
 42
0.00000001
 43
0.00000001
 12
1.0
 22
0.0
 32
0.0
 13
1.0
 23
0.0
 33
0.0
 40
-0.0312500000000001
 40
-0.0312500000000001
 40
0.0
 40
0.0
 40
0.0312499999999999
 40
0.0312499999999999
 40
0.0624999999999998
 40
0.0624999999999998
 40
0.0937499999999998
 40
0.0937499999999998
 40
0.1249999999999997
 40
0.1249999999999997
 40
0.1874999999999997
 40
0.1874999999999997
 40
0.2187499999999996
 40
0.2187499999999996
 40
0.2499999999999996
 40
0.2499999999999996
 40
0.2812499999999994
 40
0.2812499999999994
 40
0.3124999999999994
 40
0.3124999999999994
 40
0.3437499999999994
 40
0.3437499999999994
 40
0.3749999999999994
 40
0.3749999999999994
 40
0.4062499999999993
 40
0.4062499999999993
 40
0.4374999999999993
 40
0.4374999999999993
 40
0.4687499999999993
 40
0.4687499999999993
 40
0.4999999999999993
 40
0.4999999999999993
 40
0.5624999999999992
 40
0.5624999999999992
 40
0.5937499999999993
 40
0.5937499999999993
 40
0.6249999999999993
 40
0.6249999999999993
 40
0.6874999999999992
 40
0.6874999999999992
 40
0.7187499999999993
 40
0.7187499999999993
 40
0.7499999999999993
 40
0.7499999999999993
 40
0.7812499999999993
 40
0.7812499999999993
 40
0.8124999999999993
 40
0.8124999999999993
 40
0.8749999999999994
 40
0.8749999999999994
 40
0.9062499999999996
 40
0.9062499999999996
 40
0.9374999999999997
 40
0.9374999999999997
 40
0.9687499999999999
 40
0.9687499999999999
 40
1.0
 40
1.0
 40
1.03125
 40
1.03125
 10
200.4018048489652
 20
110.609111105958
 30
0.0
 10
200.6814879405687
 20
110.609111105958
 30
0.0
 10
200.8187718975262
 20
110.6200641434051
 30
0.0
 10
201.0885076523776
 20
110.6630472981554
 30
0.0
 10
201.2223896714732
 20
110.6956519755699
 30
0.0
 10
201.4761362298711
 20
110.7807501806413
 30
0.0
 10
201.5963218916138
 20
110.8329820525199
 30
0.0
 10
201.8237844831276
 20
110.9576105591976
 30
0.0
 10
201.9305996885892
 20
111.0301198523568
 30
0.0
 10
202.2188442859139
 20
111.2710029698983
 30
0.0
 10
202.3749649848151
 20
111.4691831222033
 30
0.0
 10
202.5326804456573
 20
111.8016596785869
 30
0.0
 10
202.5735896747649
 20
111.9203761271888
 30
0.0
 10
202.6279665797872
 20
112.165458664211
 30
0.0
 10
202.6415540476767
 20
112.2907232972869
 30
0.0
 10
202.6417378126644
 20
112.5468448273567
 30
0.0
 10
202.6278517764582
 20
112.6786711656461
 30
0.0
 10
202.5737646919076
 20
112.9359224157799
 30
0.0
 10
202.5337559358626
 20
113.0627270297086
 30
0.0
 10
202.4274096612803
 20
113.3122290175088
 30
0.0
 10
202.3622103863628
 20
113.4319664807931
 30
0.0
 10
202.2105029823246
 20
113.6580933619263
 30
0.0
 10
202.1227023076846
 20
113.7660451732334
 30
0.0
 10
201.9293643983213
 20
113.9628839837498
 30
0.0
 10
201.8244160123097
 20
114.0516261418167
 30
0.0
 10
201.5976880023636
 20
114.2091111091541
 30
0.0
 10
201.4749162513816
 20
114.2779981587395
 30
0.0
 10
201.2222377791562
 20
114.3883615058211
 30
0.0
 10
201.0912568076556
 20
114.4307968965457
 30
0.0
 10
200.8194684364067
 20
114.4885727327619
 30
0.0
 10
200.6802348260725
 20
114.5032232397167
 30
0.0
 10
200.2670510432742
 20
114.5034028449088
 30
0.0
 10
199.9889752985594
 20
114.4440945837987
 30
0.0
 10
199.6089064705282
 20
114.2782988362097
 30
0.0
 10
199.486138228586
 20
114.2094293399456
 30
0.0
 10
199.2594520626997
 20
114.0520777760297
 30
0.0
 10
199.1542839541543
 20
113.9632465315802
 30
0.0
 10
198.8631974584241
 20
113.6668874950531
 30
0.0
 10
198.7092669361961
 20
113.4372497069678
 30
0.0
 10
198.5498353334463
 20
113.0635391576816
 30
0.0
 10
198.5098341358909
 20
112.9369505516399
 30
0.0
 10
198.4556749149614
 20
112.6802068684157
 30
0.0
 10
198.441652008412
 20
112.5484696578038
 30
0.0
 10
198.4416407845753
 20
112.2918466169773
 30
0.0
 10
198.4551817377743
 20
112.1664665241695
 30
0.0
 10
198.5093998243842
 20
111.9213893099562
 30
0.0
 10
198.5502797789905
 20
111.8024618727406
 30
0.0
 10
198.7082478561663
 20
111.4691501308994
 30
0.0
 10
198.8642758135212
 20
111.2711100900257
 30
0.0
 10
199.1530229328464
 20
111.029862836309
 30
0.0
 10
199.2602377675754
 20
110.957176761213
 30
0.0
 10
199.4870911745253
 20
110.8329504006887
 30
0.0
 10
199.6071086867651
 20
110.7807669993355
 30
0.0
 10
199.8609268942193
 20
110.6956432381977
 30
0.0
 10
199.9947939382707
 20
110.6630472862742
 30
0.0
 10
200.2644611801649
 20
110.6200722683173
 30
0.0
 10
200.4018048489652
 20
110.609111105958
 30
0.0
 10
200.6814879405687
 20
110.609111105958
 30
0.0
  0
LINE
  5
132
330
1F
100
AcDbEntity
  8
0
  6
HIDDEN
 62
     7
370
     0
100
AcDbLine
 10
203.5262674576
 20
108.5113702944
 30
0.0
 11
203.5262674576
 21
121.0113704806
 31
0.0
  0
LINE
  5
133
330
1F
100
AcDbEntity
  8
0
  6
HIDDEN
 62
     7
370
     0
100
AcDbLine
 10
222.457911495
 20
110.2293992085
 30
0.0
 11
227.1338772512
 21
114.8343283499
 31
0.0
  0
SPLINE
  5
134
330
1F
100
AcDbEntity
  8
0
  6
HIDDEN
 62
     7
370
     0
100
AcDbSpline
210
0.0
220
0.0
230
1.0
 70
     8
 71
     3
 72
    14
 73
    10
 74
     0
 42
0.00000001
 43
0.00000001
 12
1.0
 22
0.0
 32
0.0
 13
1.0
 23
0.0
 33
0.0
 40
0.0
 40
0.0
 40
0.0
 40
0.0
 40
0.25
 40
0.25
 40
0.5
 40
0.5
 40
0.75
 40
0.75
 40
1.0
 40
1.0
 40
1.0
 40
1.0
 10
208.7743194067879
 20
120.8755530023784
 30
0.0
 10
208.8570041007135
 20
120.9661345205243
 30
0.0
 10
208.9433437933289
 20
121.054404942395
 30
0.0
 10
209.1255217364361
 20
121.2255562992995
 30
0.0
 10
209.2221061688695
 20
121.3087512649297
 30
0.0
 10
209.4117300467306
 20
121.455563021196
 30
0.0
 10
209.5034803373007
 20
121.5179014784278
 30
0.0
 10
209.6529376934608
 20
121.6065065117436
 30
0.0
 10
209.7083649161605
 20
121.631955616083
 30
0.0
 10
209.740245233077
 20
121.6416660790606
 30
0.0
  0
SPLINE
  5
135
330
1F
100
AcDbEntity
  8
0
  6
HIDDEN
 62
     7
370
     0
100
AcDbSpline
210
0.0
220
0.0
230
1.0
 70
     8
 71
     3
 72
     8
 73
     4
 74
     0
 42
0.00000001
 43
0.00000001
 12
1.0
 22
0.0
 32
0.0
 13
1.0
 23
0.0
 33
0.0
 40
0.0
 40
0.0
 40
0.0
 40
0.0
 40
1.0
 40
1.0
 40
1.0
 40
1.0
 10
209.740245233077
 20
121.6416660790606
 30
0.0
 10
209.8212057031431
 20
121.6663259232299
 30
0.0
 10
209.9012431360085
 20
121.6807796720835
 30
0.0
 10
209.9806065804351
 20
121.6868767953506
 30
0.0
  0
SPLINE
  5
136
330
1F
100
AcDbEntity
  8
0
  6
HIDDEN
 62
     7
370
     0
100
AcDbSpline
210
0.0
220
0.0
230
1.0
 70
     8
 71
     3
 72
     8
 73
     4
 74
     0
 42
0.00000001
 43
0.00000001
 12
1.0
 22
0.0
 32
0.0
 13
1.0
 23
0.0
 33
0.0
 40
0.0
 40
0.0
 40
0.0
 40
0.0
 40
1.0
 40
1.0
 40
1.0
 40
1.0
 10
210.5170719093033
 20
126.5348813702304
 30
0.0
 10
210.3020365893632
 20
124.9234751802548
 30
0.0
 10
210.1196272563878
 20
123.3079289000207
 30
0.0
 10
209.9806065804351
 20
121.6868767953506
 30
0.0
  0
SPLINE
  5
137
330
1F
100
AcDbEntity
  8
0
  6
HIDDEN
 62
     7
370
     0
100
AcDbSpline
210
0.0
220
0.0
230
1.0
 70
     8
 71
     3
 72
    19
 73
    15
 74
     0
 42
0.00000001
 43
0.00000001
 12
1.0
 22
0.0
 32
0.0
 13
1.0
 23
0.0
 33
0.0
 40
0.0
 40
0.0
 40
0.0
 40
0.0
 40
0.0286695522646907
 40
0.1047921541938904
 40
0.1875930870983981
 40
0.270394213232076
 40
0.3555865349250415
 40
0.4407791559880428
 40
0.5238385044349428
 40
0.6068981748055351
 40
0.6923426646656028
 40
0.7777875183019265
 40
0.8882197489191312
 40
1.0
 40
1.0
 40
1.0
 40
1.0
 10
210.6412142998354
 20
138.8474303899307
 30
0.0
 10
210.63851951643
 20
138.8418915441634
 30
0.0
 10
210.6286696186875
 20
138.8216461083668
 30
0.0
 10
210.612295487168
 20
138.6301937169901
 30
0.0
 10
210.592427801116
 20
138.2612822294447
 30
0.0
 10
210.5737220621199
 20
137.70011147677
 30
0.0
 10
210.556916412201
 20
136.9671044626886
 30
0.0
 10
210.5424107032431
 20
136.0679286010066
 30
0.0
 10
210.5305047978574
 20
135.0203249280766
 30
0.0
 10
210.5211899563349
 20
133.8260530770341
 30
0.0
 10
210.5146077662105
 20
132.4791144943367
 30
0.0
 10
210.5107057515532
 20
130.8381222228075
 30
0.0
 10
210.5104078127479
 20
128.8827633856415
 30
0.0
 10
210.5148421215008
 20
127.3206673554909
 30
0.0
 10
210.5170727259294
 20
126.5348812235493
 30
0.0
  0
LINE
  5
138
330
1F
100
AcDbEntity
  8
0
  6
HIDDEN
 62
     7
370
     0
100
AcDbLine
 10
228.7261706329
 20
128.7738114266
 30
0.0
 11
227.1251377201
 21
127.1970981402
 31
0.0
  0
LINE
  5
139
330
1F
100
AcDbEntity
  8
0
  6
HIDDEN
 62
     7
370
     0
100
AcDbLine
 10
210.5170727259
 20
126.5348812235
 30
0.0
 11
226.3000566996
 21
128.4727884127
 31
0.0
  0
SPLINE
  5
13A
330
1F
100
AcDbEntity
  8
0
  6
HIDDEN
 62
     7
370
     0
100
AcDbSpline
210
0.0
220
0.0
230
1.0
 70
     8
 71
     3
 72
    24
 73
    20
 74
     0
 42
0.00000001
 43
0.00000001
 12
1.0
 22
0.0
 32
0.0
 13
1.0
 23
0.0
 33
0.0
 40
0.0
 40
0.0
 40
0.0
 40
0.0
 40
0.0231178347940464
 40
0.0463925506430569
 40
0.0698260997300712
 40
0.0934203948126048
 40
0.1171773098212885
 40
0.1763148816774539
 40
0.2365741604172117
 40
0.2968006953896302
 40
0.3582739743217839
 40
0.4822714475898228
 40
0.6085513708089832
 40
0.6719563062880619
 40
0.7370428199722951
 40
0.8013807246526597
 40
0.8675860346283648
 40
0.9327384786275916
 40
1.0
 40
1.0
 40
1.0
 40
1.0
 10
233.8715326355039
 20
139.6493768570692
 30
0.0
 10
233.8281967036497
 20
139.5914885392572
 30
0.0
 10
233.7412307558815
 20
139.4753190649247
 30
0.0
 10
233.6065554363725
 20
139.2936661528897
 30
0.0
 10
233.468244951917
 20
139.1058607680859
 30
0.0
 10
233.3260220938849
 20
138.9113935796098
 30
0.0
 10
233.1077969217765
 20
138.6110799417217
 30
0.0
 10
232.8045534011295
 20
138.1893511378468
 30
0.0
 10
232.4074560775953
 20
137.6295609480497
 30
0.0
 10
231.989311455809
 20
137.0329721285194
 30
0.0
 10
231.4046085104165
 20
136.1895936311149
 30
0.0
 10
230.6263673440587
 20
135.0505323817506
 30
0.0
 10
229.8014265945987
 20
133.8228262465589
 30
0.0
 10
229.1097517257413
 20
132.7822576920023
 30
0.0
 10
228.5759580172363
 20
131.9737364205419
 30
0.0
 10
228.0248705872635
 20
131.1337694739946
 30
0.0
 10
227.4647042689494
 20
130.274679203688
 30
0.0
 10
226.8885122929147
 20
129.3863438985669
 30
0.0
 10
226.4982825155188
 20
128.7805237512
 30
0.0
 10
226.3000598549498
 20
128.4727889539254
 30
0.0
  0
ELLIPSE
  5
13B
330
1F
100
AcDbEntity
  8
0
  6
HIDDEN
 62
     7
370
     0
100
AcDbEllipse
 10
204.5121872712
 20
112.9444179465
 30
0.0
 11
126.4960526088442
 21
11.56772908869242
 31
0.0
210
0.0
220
0.0
230
1.0
 40
0.1944540569
 41
1.318820681770354
 42
1.432515577575669
  0
ELLIPSE
  5
13C
330
1F
100
AcDbEntity
  8
0
  6
HIDDEN
 62
     7
370
     0
100
AcDbEllipse
 10
204.290540797
 20
112.9172031815
 30
0.0
 11
16.77809014457071
 21
27.22995866704595
 31
0.0
210
0.0
220
0.0
230
1.0
 40
0.0471546166
 41
0.0376789008451299
 42
0.3339961049078192
  0
SPLINE
  5
13D
330
1F
100
AcDbEntity
  8
0
  6
HIDDEN
 62
     7
370
     0
100
AcDbSpline
210
0.0
220
0.0
230
1.0
 70
     8
 71
     3
 72
    36
 73
    32
 74
     0
 42
0.00000001
 43
0.00000001
 12
1.0
 22
0.0
 32
0.0
 13
1.0
 23
0.0
 33
0.0
 40
0.0
 40
0.0
 40
0.0
 40
0.0
 40
0.125
 40
0.125
 40
0.2500000000000001
 40
0.2500000000000001
 40
0.3125
 40
0.3125
 40
0.3749999999999999
 40
0.3749999999999999
 40
0.4374999999999999
 40
0.4374999999999999
 40
0.4687499999999999
 40
0.4687499999999999
 40
0.4999999999999999
 40
0.4999999999999999
 40
0.5312499999999999
 40
0.5312499999999999
 40
0.5624999999999999
 40
0.5624999999999999
 40
0.5937499999999999
 40
0.5937499999999999
 40
0.6249999999999999
 40
0.6249999999999999
 40
0.6874999999999999
 40
0.6874999999999999
 40
0.7499999999999999
 40
0.7499999999999999
 40
0.875
 40
0.875
 40
1.0
 40
1.0
 40
1.0
 40
1.0
 10
218.4493669872087
 20
121.8230932314367
 30
0.0
 10
218.5458925548734
 20
121.9181523588369
 30
0.0
 10
218.622496274184
 20
122.0801362471754
 30
0.0
 10
218.7353100768649
 20
122.4702989960818
 30
0.0
 10
218.7722114340126
 20
122.6996568864417
 30
0.0
 10
218.7798278427137
 20
123.0889860162339
 30
0.0
 10
218.7742586062281
 20
123.226545410865
 30
0.0
 10
218.7377488478954
 20
123.5208728112224
 30
0.0
 10
218.7069093039872
 20
123.677901396619
 30
0.0
 10
218.6020514258859
 20
124.0100334920212
 30
0.0
 10
218.5283361243053
 20
124.1881415531275
 30
0.0
 10
218.3497911073781
 20
124.4703804032024
 30
0.0
 10
218.2781814208558
 20
124.5672596480943
 30
0.0
 10
218.1044226401208
 20
124.7580183543202
 30
0.0
 10
218.0015104488226
 20
124.851923182389
 30
0.0
 10
217.7714470185265
 20
125.01942233066
 30
0.0
 10
217.6491199288286
 20
125.0895618473797
 30
0.0
 10
217.4093784128399
 20
125.2006784845152
 30
0.0
 10
217.2918707283607
 20
125.2422764084902
 30
0.0
 10
217.0678931739236
 20
125.3056539920837
 30
0.0
 10
216.9620524771566
 20
125.3274259500602
 30
0.0
 10
216.7583211180596
 20
125.3587653056298
 30
0.0
 10
216.6601507374503
 20
125.3681860784125
 30
0.0
 10
216.3803802159545
 20
125.3832516377471
 30
0.0
 10
216.2108707347525
 20
125.3765459731837
 30
0.0
 10
215.8928191311404
 20
125.3458593125839
 30
0.0
 10
215.7446167992033
 20
125.321486602147
 30
0.0
 10
215.3262725438992
 20
125.2316073217471
 30
0.0
 10
215.0865896930334
 20
125.1509201693974
 30
0.0
 10
214.6869217559197
 20
124.9769291927338
 30
0.0
 10
214.5248563790863
 20
124.8832228293066
 30
0.0
 10
214.4280046607141
 20
124.7878425061611
 30
0.0
  0
ELLIPSE
  5
13E
330
1F
100
AcDbEntity
  8
0
  6
HIDDEN
 62
     7
370
     0
100
AcDbEllipse
 10
219.6887072815
 20
127.400244048
 30
0.0
 11
3.820382603359974
 21
0.8609686982688771
 31
0.0
210
0.0
220
0.0
230
1.0
 40
0.1511474516
 41
6.044622274064118
 42
9.186214927653726
  0
LINE
  5
13F
330
1F
100
AcDbEntity
  8
0
  6
HIDDEN
 62
     7
370
     0
100
AcDbLine
 10
214.4280054158
 20
124.7878420768
 30
0.0
 11
213.7001004553
 21
124.0709965719
 31
0.0
  0
ELLIPSE
  5
140
330
1F
100
AcDbEntity
  8
0
  6
HIDDEN
 62
     7
370
     0
100
AcDbEllipse
 10
214.1880340259
 20
120.322293006
 30
0.0
 11
3.169172162257808
 21
-2.762630819039344
 31
0.0
210
0.0
220
0.0
230
1.0
 40
0.8059898683
 41
1.03445234471965
 42
2.309576185958059
  0
LINE
  5
141
330
1F
100
AcDbEntity
  8
0
  6
HIDDEN
 62
     7
370
     0
100
AcDbLine
 10
217.7214619255
 20
121.1062471053
 30
0.0
 11
218.4493687487
 21
121.8230930759
 31
0.0
  0
ELLIPSE
  5
142
330
1F
100
AcDbEntity
  8
0
  6
HIDDEN
 62
     7
370
     0
100
AcDbEllipse
 10
211.635232639
 20
117.8082744083
 30
0.0
 11
-3.08553303694464
 21
-3.038656856958582
 31
0.0
210
-5.935348239644413E-16
220
6.026910553343755E-16
230
1.0
 40
0.9698463104
 41
1.552728271623097
 42
4.348180635419967
  0
LWPOLYLINE
  5
143
330
1F
100
AcDbEntity
  8
0
  6
HIDDEN
 62
     7
370
     0
100
AcDbPolyline
 90
       41
 70
   128
 43
0.0
 10
219.7639193869
 20
121.7420233084
 10
219.7328243888
 20
121.0946768193
 10
219.6006920672
 20
120.4632703816
 10
219.3707820511
 20
119.863351029
 10
219.0487530566
 20
119.3096909342
 10
218.6425362265
 20
118.8159227973
 10
218.1621302402
 20
118.3942048015
 10
217.6193666196
 20
118.0549214264
 10
217.0276117063
 20
117.8064266356
 10
216.401433248
 20
117.654839451
 10
215.7562520838
 20
117.6038921481
 10
215.1079528517
 20
117.654839451
 10
214.4725021458
 20
117.8064266356
 10
213.8655424601
 20
118.0549214264
 10
213.302021522
 20
118.3942048015
 10
212.7958160377
 20
118.8159227973
 10
212.359388966
 20
119.3096909342
 10
212.0034859068
 20
119.863351029
 10
211.736872468
 20
120.4632703816
 10
211.5661126113
 20
121.0946768193
 10
211.4954103268
 20
121.7420233084
 10
211.5265071875
 20
122.3893693319
 10
211.6586376465
 20
123.0207757695
 10
211.8885476625
 20
123.6206955878
 10
212.2105785197
 20
124.1743556825
 10
212.6167953498
 20
124.6681233538
 10
213.0972013361
 20
125.0898411168
 10
213.6399649567
 20
125.4291247247
 10
214.23171987
 20
125.6776192827
 10
214.8578983283
 20
125.8292069329
 10
215.5030794925
 20
125.880154003
 10
216.1513787246
 20
125.8292069329
 10
216.7868294305
 20
125.6776192827
 10
217.3937891162
 20
125.4291247247
 10
217.9573100543
 20
125.0898411168
 10
218.4635174013
 20
124.6681233538
 10
218.8999426103
 20
124.1743556825
 10
219.2558456695
 20
123.6206955878
 10
219.5224572456
 20
123.0207757695
 10
219.6932171023
 20
122.3893693319
 10
219.7639193869
 20
121.7420233084
  0
LINE
  5
144
330
1F
100
AcDbEntity
  8
0
  6
HIDDEN
 62
     7
370
     0
100
AcDbLine
 10
217.7214619255
 20
121.1062471053
 30
0.0
 11
220.2111814654
 21
124.8117379514
 31
0.0
  0
LINE
  5
145
330
1F
100
AcDbEntity
  8
0
  6
HIDDEN
 62
     7
370
     0
100
AcDbLine
 10
224.6381786204
 20
130.2414007155
 30
0.0
 11
224.1001833713
 21
129.7115787534
 31
0.0
  0
LINE
  5
146
330
1F
100
AcDbEntity
  8
0
  6
HIDDEN
 62
     7
370
     0
100
AcDbLine
 10
222.2545776999
 20
126.9411930485
 30
0.0
 11
224.6381786204
 21
130.2414007155
 31
0.0
  0
LINE
  5
147
330
1F
100
AcDbEntity
  8
0
  6
HIDDEN
 62
     7
370
     0
100
AcDbLine
 10
223.4316427744
 20
128.1003757982
 30
0.0
 11
222.2545776999
 21
126.9411930485
 31
0.0
  0
ARC
  5
148
330
1F
100
AcDbEntity
  8
0
  6
HIDDEN
 62
     7
370
     0
100
AcDbCircle
 10
223.7803352223
 20
133.2874744441
 30
0.0
 40
3.164563233001774
100
AcDbArc
 50
285.7284228041
 51
181.4725981838
  0
LINE
  5
149
330
1F
100
AcDbEntity
  8
0
  6
HIDDEN
 62
     7
370
     0
100
AcDbLine
 10
220.6168171502
 20
133.2061487852
 30
0.0
 11
215.8488143719
 21
126.6046270398
 31
0.0
  0
LINE
  5
14A
330
1F
100
AcDbEntity
  8
0
  6
HIDDEN
 62
     7
370
     0
100
AcDbLine
 10
234.1508228815
 20
139.1602094887
 30
0.0
 11
233.8715341425
 21
139.6493754951
 31
0.0
  0
LINE
  5
14B
330
1F
100
AcDbEntity
  8
0
  6
HIDDEN
 62
     7
370
     0
100
AcDbLine
 10
227.8119136131
 20
128.4831465824
 30
0.0
 11
234.1508228815
 21
139.1602094887
 31
0.0
  0
ARC
  5
14C
330
1F
100
AcDbEntity
  8
0
  6
HIDDEN
 62
     7
370
     0
100
AcDbCircle
 10
241.6715095447
 20
120.2554415544
 30
0.0
 40
16.11780163093928
100
AcDbArc
 50
149.3046485929
 51
154.4891130471
  0
LINE
  5
14D
330
1F
100
AcDbEntity
  8
0
  6
HIDDEN
 62
     7
370
     0
100
AcDbLine
 10
219.7205421067
 20
138.9017916886
 30
0.0
 11
214.8528319335
 21
130.7027667431
 31
0.0
  0
LINE
  5
14E
330
1F
100
AcDbEntity
  8
0
  6
HIDDEN
 62
     7
370
     0
100
AcDbLine
 10
211.5225192643
 20
126.3773182077
 30
0.0
 11
215.8488143719
 21
126.6046270398
 31
0.0
  0
LINE
  5
14F
330
1F
100
AcDbEntity
  8
0
  6
HIDDEN
 62
     7
370
     0
100
AcDbLine
 10
222.2545776999
 20
126.9411930485
 30
0.0
 11
227.1251377201
 21
127.1970981402
 31
0.0
  0
LINE
  5
150
330
1F
100
AcDbEntity
  8
0
  6
HIDDEN
 62
     7
370
     0
100
AcDbLine
 10
215.8488143719
 20
126.6046270398
 30
0.0
 11
215.9457725025
 21
126.7001127494
 31
0.0
  0
LINE
  5
151
330
1F
100
AcDbEntity
  8
0
  6
HIDDEN
 62
     7
370
     0
100
AcDbLine
 10
164.0416455007
 20
105.1037592484
 30
0.0
 11
164.0416455007
 21
101.2638399048
 31
0.0
  0
LINE
  5
152
330
1F
100
AcDbEntity
  8
0
  6
HIDDEN
 62
     7
370
     0
100
AcDbLine
 10
162.5416461862
 20
105.5367720915
 30
0.0
 11
162.5416461862
 21
102.129865591
 31
0.0
  0
LINE
  5
153
330
1F
100
AcDbEntity
  8
0
  6
HIDDEN
 62
     7
370
     0
100
AcDbLine
 10
164.0416455007
 20
128.2589008702
 30
0.0
 11
164.0416455007
 21
124.4189815266
 31
0.0
  0
LINE
  5
154
330
1F
100
AcDbEntity
  8
0
  6
HIDDEN
 62
     7
370
     0
100
AcDbLine
 10
162.5416461862
 20
127.3928751839
 30
0.0
 11
162.5416461862
 21
123.9859686835
 31
0.0
  0
SPLINE
  5
155
330
1F
100
AcDbEntity
  8
0
  6
HIDDEN
 62
     7
370
     0
100
AcDbSpline
210
0.0
220
0.0
230
1.0
 70
     8
 71
     3
 72
     8
 73
     4
 74
     0
 42
0.00000001
 43
0.00000001
 12
1.0
 22
0.0
 32
0.0
 13
1.0
 23
0.0
 33
0.0
 40
0.0
 40
0.0
 40
0.0
 40
0.0
 40
1.0
 40
1.0
 40
1.0
 40
1.0
 10
185.0466064168246
 20
101.0222858563269
 30
0.0
 10
185.0973335600312
 20
100.9765315550017
 30
0.0
 10
185.1552208895921
 20
100.9480274091382
 30
0.0
 10
185.2203260512073
 20
100.9363063794793
 30
0.0
  0
LINE
  5
156
330
1F
100
AcDbEntity
  8
0
  6
HIDDEN
 62
     7
370
     0
100
AcDbLine
 10
184.8416463722
 20
128.7814687608
 30
0.0
 11
184.8416463722
 21
128.6816067664
 31
0.0
  0
LINE
  5
157
330
1F
100
AcDbEntity
  8
0
  6
HIDDEN
 62
     7
370
     0
100
AcDbLine
 10
184.8416463722
 20
125.7354087798
 30
0.0
 11
184.8416463722
 21
124.6802659376
 31
0.0
  0
SPLINE
  5
158
330
1F
100
AcDbEntity
  8
0
  6
HIDDEN
 62
     7
370
     0
100
AcDbSpline
210
0.0
220
0.0
230
1.0
 70
     8
 71
     3
 72
    16
 73
    12
 74
     0
 42
0.00000001
 43
0.00000001
 12
1.0
 22
0.0
 32
0.0
 13
1.0
 23
0.0
 33
0.0
 40
0.0
 40
0.0
 40
0.0
 40
0.0
 40
0.2500000000000003
 40
0.2500000000000003
 40
0.3750000000000001
 40
0.3750000000000001
 40
0.4999999999999999
 40
0.4999999999999999
 40
0.7499999999999999
 40
0.7499999999999999
 40
1.0
 40
1.0
 40
1.0
 40
1.0
 10
184.8416463947668
 20
128.6816067757994
 30
0.0
 10
184.7611090628675
 20
128.601538089647
 30
0.0
 10
184.7010717188402
 20
128.4776735981567
 30
0.0
 10
184.6403340116865
 20
128.2269927742246
 30
0.0
 10
184.6250116365736
 20
128.1325541699152
 30
0.0
 10
184.6044288272694
 20
127.9212431022964
 30
0.0
 10
184.5992292302438
 20
127.8039536475428
 30
0.0
 10
184.5991755770637
 20
127.4259179757876
 30
0.0
 10
184.6193731205414
 20
127.1371408220435
 30
0.0
 10
184.7000512088993
 20
126.4873009589046
 30
0.0
 10
184.7610973735068
 20
126.1244720250119
 30
0.0
 10
184.8416463947649
 20
125.7354083797403
 30
0.0
  0
LINE
  5
159
330
1F
100
AcDbEntity
  8
0
  6
HIDDEN
 62
     7
370
     0
100
AcDbLine
 10
184.8416463722
 20
104.8424748374
 30
0.0
 11
184.8416463722
 21
103.7873319952
 31
0.0
  0
LINE
  5
15A
330
1F
100
AcDbEntity
  8
0
  6
HIDDEN
 62
     7
370
     0
100
AcDbLine
 10
184.8416463722
 20
100.8411340086
 30
0.0
 11
184.8416463722
 21
100.7412720142
 31
0.0
  0
SPLINE
  5
15B
330
1F
100
AcDbEntity
  8
0
  6
HIDDEN
 62
     7
370
     0
100
AcDbSpline
210
0.0
220
0.0
230
1.0
 70
     8
 71
     3
 72
    16
 73
    12
 74
     0
 42
0.00000001
 43
0.00000001
 12
1.0
 22
0.0
 32
0.0
 13
1.0
 23
0.0
 33
0.0
 40
0.0
 40
0.0
 40
0.0
 40
0.0
 40
0.2499999999999987
 40
0.2499999999999987
 40
0.3749999999999986
 40
0.3749999999999986
 40
0.4999999999999986
 40
0.4999999999999986
 40
0.7499999999999992
 40
0.7499999999999992
 40
1.0
 40
1.0
 40
1.0
 40
1.0
 10
184.8416463947668
 20
103.7873323952381
 30
0.0
 10
184.7611090628676
 20
103.3983252112941
 30
0.0
 10
184.7010717188404
 20
103.0418247696697
 30
0.0
 10
184.6403340116867
 20
102.5553223844824
 30
0.0
 10
184.6250116365738
 20
102.4012434436289
 30
0.0
 10
184.6044288272695
 20
102.1097738851363
 30
0.0
 10
184.5992292302438
 20
101.9722040012374
 30
0.0
 10
184.5991755770635
 20
101.5939591660482
 30
0.0
 10
184.619373120541
 20
101.3840780974961
 30
0.0
 10
184.7000512088984
 20
101.0474987985843
 30
0.0
 10
184.7610973735055
 20
100.9212143066657
 30
0.0
 10
184.8416463947631
 20
100.8411339991732
 30
0.0
  0
SPLINE
  5
15C
330
1F
100
AcDbEntity
  8
0
  6
HIDDEN
 62
     7
370
     0
100
AcDbSpline
210
0.0
220
0.0
230
1.0
 70
     8
 71
     3
 72
    24
 73
    20
 74
     0
 42
0.00000001
 43
0.00000001
 12
1.0
 22
0.0
 32
0.0
 13
1.0
 23
0.0
 33
0.0
 40
0.0
 40
0.0
 40
0.0
 40
0.0
 40
0.2500000000000082
 40
0.2500000000000082
 40
0.3750000000000123
 40
0.3750000000000123
 40
0.4375000000000142
 40
0.4375000000000142
 40
0.5000000000000161
 40
0.5000000000000161
 40
0.531250000000016
 40
0.531250000000016
 40
0.5625000000000159
 40
0.5625000000000159
 40
0.6250000000000142
 40
0.6250000000000142
 40
0.7500000000000088
 40
0.7500000000000088
 40
1.0
 40
1.0
 40
1.0
 40
1.0
 10
185.0466064168274
 20
128.5004549186445
 30
0.0
 10
185.030839828529
 20
128.4862339476562
 30
0.0
 10
185.0142282955744
 20
128.4720036573214
 30
0.0
 10
184.9857019476164
 20
128.4532066021
 30
0.0
 10
184.9756165138264
 20
128.4473181817587
 30
0.0
 10
184.9581337432916
 20
128.4407807869563
 30
0.0
 10
184.951926086846
 20
128.4389695729551
 30
0.0
 10
184.9376545866009
 20
128.4373637704486
 30
0.0
 10
184.9300845160978
 20
128.4368109930625
 30
0.0
 10
184.9126881866626
 20
128.4440097377752
 30
0.0
 10
184.9042289137026
 20
128.4491014865227
 30
0.0
 10
184.8881679491549
 20
128.4669164190019
 30
0.0
 10
184.8833347133086
 20
128.4754388338643
 30
0.0
 10
184.8719087935732
 20
128.4973352705131
 30
0.0
 10
184.8678874376907
 20
128.5090757933191
 30
0.0
 10
184.8571269426596
 20
128.5431260572725
 30
0.0
 10
184.8532526335987
 20
128.5627010463012
 30
0.0
 10
184.8440797614716
 20
128.6185493549824
 30
0.0
 10
184.8420473907568
 20
128.6513271160113
 30
0.0
 10
184.8416463947669
 20
128.6816067757993
 30
0.0
  0
SPLINE
  5
15D
330
1F
100
AcDbEntity
  8
0
  6
HIDDEN
 62
     7
370
     0
100
AcDbSpline
210
0.0
220
0.0
230
1.0
 70
     8
 71
     3
 72
     8
 73
     4
 74
     0
 42
0.00000001
 43
0.00000001
 12
1.0
 22
0.0
 32
0.0
 13
1.0
 23
0.0
 33
0.0
 40
0.0
 40
0.0
 40
0.0
 40
0.0
 40
1.0
 40
1.0
 40
1.0
 40
1.0
 10
185.2203260512073
 20
128.5864343954897
 30
0.0
 10
185.1552208895933
 20
128.5747133658311
 30
0.0
 10
185.0973335600333
 20
128.5462092199683
 30
0.0
 10
185.0466064168273
 20
128.5004549186445
 30
0.0
  0
SPLINE
  5
15E
330
1F
100
AcDbEntity
  8
0
  6
HIDDEN
 62
     7
370
     0
100
AcDbSpline
210
0.0
220
0.0
230
1.0
 70
     8
 71
     3
 72
    24
 73
    20
 74
     0
 42
0.00000001
 43
0.00000001
 12
1.0
 22
0.0
 32
0.0
 13
1.0
 23
0.0
 33
0.0
 40
0.0
 40
0.0
 40
0.0
 40
0.0
 40
0.2499999999999986
 40
0.2499999999999986
 40
0.3749999999999979
 40
0.3749999999999979
 40
0.4374999999999986
 40
0.4374999999999986
 40
0.468749999999999
 40
0.468749999999999
 40
0.4999999999999994
 40
0.4999999999999994
 40
0.5624999999999989
 40
0.5624999999999989
 40
0.6249999999999983
 40
0.6249999999999983
 40
0.7499999999999988
 40
0.7499999999999988
 40
1.0
 40
1.0
 40
1.0
 40
1.0
 10
184.8416463947669
 20
100.841133999177
 30
0.0
 10
184.8420493054027
 20
100.871558236015
 30
0.0
 10
184.8440932847433
 20
100.9044163365691
 30
0.0
 10
184.8533305275693
 20
100.9604417037226
 30
0.0
 10
184.8572175905499
 20
100.980052756908
 30
0.0
 10
184.8681214819564
 20
101.0143270403375
 30
0.0
 10
184.8722635277068
 20
101.0263894658097
 30
0.0
 10
184.8841586014595
 20
101.048708630509
 30
0.0
 10
184.8894056657682
 20
101.0576751428693
 30
0.0
 10
184.9062727321471
 20
101.0753247073957
 30
0.0
 10
184.9140951396724
 20
101.0794689915357
 30
0.0
 10
184.9310439402942
 20
101.0859565327099
 30
0.0
 10
184.9385002915122
 20
101.0853596513382
 30
0.0
 10
184.9525601947046
 20
101.0836133873662
 30
0.0
 10
184.9586925798406
 20
101.0817826994677
 30
0.0
 10
184.9759873423639
 20
101.0752162898949
 30
0.0
 10
184.9860046607728
 20
101.0693510747362
 30
0.0
 10
185.0143759950157
 20
101.0506063907059
 30
0.0
 10
185.0309114326601
 20
101.0364422426192
 30
0.0
 10
185.0466064168246
 20
101.0222858563269
 30
0.0
  0
LWPOLYLINE
  5
15F
330
1F
100
AcDbEntity
  8
0
  6
HIDDEN
 62
     7
370
     0
100
AcDbPolyline
 90
       29
 70
   128
 43
0.0
 10
200.5416468269
 20
107.6598266741
 10
201.0089407227
 20
107.7086438095
 10
201.4528025425
 20
107.8526486313
 10
201.8509746081
 20
108.0846191986
 10
202.1834921575
 20
108.3929242237
 10
202.4336807913
 20
108.7621037519
 10
202.5889955944
 20
109.1736454187
 10
202.6416469849
 20
109.6069125129
 10
202.5889955944
 20
110.0401800727
 10
202.4336807913
 20
110.4517217396
 10
202.1834921575
 20
110.8209008021
 10
201.8509746081
 20
111.1292058272
 10
201.4528025425
 20
111.3611766273
 10
201.0089407227
 20
111.5051812163
 10
200.5416468269
 20
111.5539988173
 10
200.0743519998
 20
111.5051812163
 10
199.63049018
 20
111.3611766273
 10
199.2323181144
 20
111.1292058272
 10
198.899800565
 20
110.8209008021
 10
198.6496119312
 20
110.4517217396
 10
198.4942980594
 20
110.0401800727
 10
198.4416466689
 20
109.6069125129
 10
198.4942980594
 20
109.1736454187
 10
198.6496119312
 20
108.7621037519
 10
198.899800565
 20
108.3929242237
 10
199.2323181144
 20
108.0846191986
 10
199.63049018
 20
107.8526486313
 10
200.0743519998
 20
107.7086438095
 10
200.5416468269
 20
107.6598266741
  0
SPLINE
  5
160
330
1F
100
AcDbEntity
  8
0
  6
HIDDEN
 62
     7
370
     0
100
AcDbSpline
210
0.0
220
0.0
230
1.0
 70
     8
 71
     3
 72
    10
 73
     6
 74
     0
 42
0.00000001
 43
0.00000001
 12
1.0
 22
0.0
 32
0.0
 13
1.0
 23
0.0
 33
0.0
 40
0.0
 40
0.0
 40
0.0
 40
0.0
 40
0.5
 40
0.5
 40
1.0
 40
1.0
 40
1.0
 40
1.0
 10
223.2685827371845
 20
129.2083694504293
 30
0.0
 10
223.4525990003053
 20
129.29221890335
 30
0.0
 10
223.6187192680795
 20
129.3806059161271
 30
0.0
 10
223.9044542989229
 20
129.5535259911702
 30
0.0
 10
224.0259180475978
 20
129.6384410899952
 30
0.0
 10
224.100184278689
 20
129.7115790501608
 30
0.0
  0
ARC
  5
161
330
1F
100
AcDbEntity
  8
0
  6
HIDDEN
 62
     7
370
     0
100
AcDbCircle
 10
222.8187073997
 20
132.3395845311
 30
0.0
 40
3.163367944224767
100
AcDbArc
 50
278.1759900656
 51
189.0250395604
  0
SPLINE
  5
162
330
1F
100
AcDbEntity
  8
0
  6
HIDDEN
 62
     7
370
     0
100
AcDbSpline
210
0.0
220
0.0
230
1.0
 70
     8
 71
     3
 72
    10
 73
     6
 74
     0
 42
0.00000001
 43
0.00000001
 12
1.0
 22
0.0
 32
0.0
 13
1.0
 23
0.0
 33
0.0
 40
0.0
 40
0.0
 40
0.0
 40
0.0
 40
0.5
 40
0.5
 40
1.0
 40
1.0
 40
1.0
 40
1.0
 10
220.0788219521616
 20
132.6763283248449
 30
0.0
 10
220.0046428589437
 20
132.6032761787325
 30
0.0
 10
219.934029370309
 20
132.4806870862025
 30
0.0
 10
219.8037499507417
 20
132.1931491097604
 30
0.0
 10
219.7441619263448
 20
132.026234574003
 30
0.0
 10
219.6945026151788
 20
131.8433599310452
 30
0.0
  0
LINE
  5
163
330
1F
100
AcDbEntity
  8
0
  6
HIDDEN
 62
     7
370
     0
100
AcDbLine
 10
220.0788219011
 20
132.6763286857
 30
0.0
 11
220.6168171502
 21
133.2061487852
 31
0.0
  0
LWPOLYLINE
  5
164
330
1F
100
AcDbEntity
  8
0
  6
HIDDEN
 62
     7
370
     0
100
AcDbPolyline
 90
       16
 70
   128
 43
0.0
 10
216.1898199952
 20
127.7764869524
 10
216.4281864202
 20
128.0334639965
 10
216.7440128065
 20
128.2144227667
 10
217.123493228
 20
128.3114554031
 10
217.5500445551
 20
128.3203197313
 10
218.0050235725
 20
128.2406301839
 10
218.4685465432
 20
128.0758671133
 10
218.9203534758
 20
127.8332333682
 10
219.340700332
 20
127.5233329875
 10
219.7112139798
 20
127.1597092641
 10
220.0157043076
 20
126.7582552178
 10
220.2408608532
 20
126.3365160344
 10
220.376845125
 20
125.9129225878
 10
220.4177078343
 20
125.5059895707
 10
220.3616720176
 20
125.1335015191
 10
220.2111814654
 20
124.8117379514
  0
ELLIPSE
  5
165
330
1F
100
AcDbEntity
  8
0
  6
HIDDEN
 62
     7
370
     0
100
AcDbEllipse
 10
220.6960251183
 20
129.4382789686
 30
0.0
 11
1.65128909660956
 21
2.417222755667979
 31
0.0
210
0.0
220
0.0
230
1.0
 40
0.8531826433
 41
5.15782724324514
 42
7.347151613788258
  0
SPLINE
  5
166
330
1F
100
AcDbEntity
  8
0
  6
HIDDEN
 62
     7
370
     0
100
AcDbSpline
210
0.0
220
0.0
230
1.0
 70
     8
 71
     3
 72
    24
 73
    20
 74
     0
 42
0.00000001
 43
0.00000001
 12
1.0
 22
0.0
 32
0.0
 13
1.0
 23
0.0
 33
0.0
 40
0.0
 40
0.0
 40
0.0
 40
0.0
 40
0.0333454966135393
 40
0.0665643023467994
 40
0.0996659215084083
 40
0.132659959677934
 40
0.1982782834428778
 40
0.2634124950857697
 40
0.3279993181623881
 40
0.3920583009821021
 40
0.5184166994394789
 40
0.6424013148285218
 40
0.7034789066049245
 40
0.763986330578518
 40
0.8238526138705881
 40
0.883159025272728
 40
0.9223438935295019
 40
0.9612798226830966
 40
1.0
 40
1.0
 40
1.0
 40
1.0
 10
226.2775067229936
 20
127.6666865629839
 30
0.0
 10
226.3796211224966
 20
127.8235874568056
 30
0.0
 10
226.5834619541767
 20
128.1367931246015
 30
0.0
 10
226.8864828922379
 20
128.6008188833391
 30
0.0
 10
227.1867131488892
 20
129.0594029780495
 30
0.0
 10
227.5822698449689
 20
129.6618749023014
 30
0.0
 10
228.0690348148343
 20
130.4000945427361
 30
0.0
 10
228.6408311299402
 20
131.2620586482768
 30
0.0
 10
229.1984536079305
 20
132.0973376731764
 30
0.0
 10
229.9183669330802
 20
133.1684618950029
 30
0.0
 10
230.7785431211102
 20
134.4344402656384
 30
0.0
 10
231.5876569654607
 20
135.6055913174892
 30
0.0
 10
232.1960155182529
 20
136.4733719530153
 30
0.0
 10
232.630062959569
 20
137.085797625811
 30
0.0
 10
233.0434949196195
 20
137.6621158093953
 30
0.0
 10
233.3925741594585
 20
138.1421845428928
 30
0.0
 10
233.6834987944231
 20
138.5371423816775
 30
0.0
 10
233.9231373381926
 20
138.8591059402304
 30
0.0
 10
234.0750680214774
 20
139.0600283046049
 30
0.0
 10
234.1508223087324
 20
139.1602103756499
 30
0.0
  0
LINE
  5
167
330
1F
100
AcDbEntity
  8
0
  6
HIDDEN
 62
     7
370
     0
100
AcDbLine
 10
216.1898199952
 20
127.7764869524
 30
0.0
 11
213.7001004553
 21
124.0709965719
 31
0.0
  0
LINE
  5
168
330
1F
100
AcDbEntity
  8
0
  6
HIDDEN
 62
     7
370
     0
100
AcDbLine
 10
162.5416461862
 20
123.9859686835
 30
0.0
 11
162.5416461862
 21
116.611584243
 31
0.0
  0
LINE
  5
169
330
1F
100
AcDbEntity
  8
0
  6
HIDDEN
 62
     7
370
     0
100
AcDbLine
 10
162.5416461862
 20
112.911156532
 30
0.0
 11
162.5416461862
 21
105.5367720915
 31
0.0
  0
SPLINE
  5
16A
330
1F
100
AcDbEntity
  8
0
  6
HIDDEN
 62
     7
370
     0
100
AcDbSpline
210
0.0
220
0.0
230
1.0
 70
     8
 71
     3
 72
    24
 73
    20
 74
     0
 42
0.00000001
 43
0.00000001
 12
1.0
 22
0.0
 32
0.0
 13
1.0
 23
0.0
 33
0.0
 40
0.0
 40
0.0
 40
0.0
 40
0.0
 40
0.250000000000007
 40
0.250000000000007
 40
0.3750000000000102
 40
0.3750000000000102
 40
0.4375000000000087
 40
0.4375000000000087
 40
0.5000000000000072
 40
0.5000000000000072
 40
0.5312500000000061
 40
0.5312500000000061
 40
0.562500000000005
 40
0.562500000000005
 40
0.6250000000000043
 40
0.6250000000000043
 40
0.7500000000000028
 40
0.7500000000000028
 40
1.0
 40
1.0
 40
1.0
 40
1.0
 10
185.0466064168274
 20
103.9687766606863
 30
0.0
 10
185.0308375394699
 20
103.8949179687566
 30
0.0
 10
185.0142235576199
 20
103.8212065800208
 30
0.0
 10
184.9856918916147
 20
103.7096597563986
 30
0.0
 10
184.975604476796
 20
103.6722881832701
 30
0.0
 10
184.9581169163417
 20
103.6153886856323
 30
0.0
 10
184.9519073545584
 20
103.596285585487
 30
0.0
 10
184.9376298009057
 20
103.5574120712514
 30
0.0
 10
184.9300582531103
 20
103.537487411818
 30
0.0
 10
184.9126406694319
 20
103.5074151937906
 30
0.0
 10
184.9041581727866
 20
103.4957338149874
 30
0.0
 10
184.888119860915
 20
103.4884723042394
 30
0.0
 10
184.8832993127116
 20
103.4920505512492
 30
0.0
 10
184.8718900881638
 20
103.503811406481
 30
0.0
 10
184.8678696077062
 20
103.5154770565316
 30
0.0
 10
184.857115752886
 20
103.5520123866452
 30
0.0
 10
184.8532430716039
 20
103.5794081199687
 30
0.0
 10
184.8440749217662
 20
103.6641341117246
 30
0.0
 10
184.8420464163972
 20
103.7249662338966
 30
0.0
 10
184.8416463947669
 20
103.7873323952382
 30
0.0
  0
SPLINE
  5
16B
330
1F
100
AcDbEntity
  8
0
  6
HIDDEN
 62
     7
370
     0
100
AcDbSpline
210
0.0
220
0.0
230
1.0
 70
     8
 71
     3
 72
    24
 73
    20
 74
     0
 42
0.00000001
 43
0.00000001
 12
1.0
 22
0.0
 32
0.0
 13
1.0
 23
0.0
 33
0.0
 40
0.0
 40
0.0
 40
0.0
 40
0.0
 40
0.2499999999999957
 40
0.2499999999999957
 40
0.3749999999999922
 40
0.3749999999999922
 40
0.4374999999999905
 40
0.4374999999999905
 40
0.4687499999999903
 40
0.4687499999999903
 40
0.4999999999999901
 40
0.4999999999999901
 40
0.5624999999999912
 40
0.5624999999999912
 40
0.6249999999999925
 40
0.6249999999999925
 40
0.7499999999999949
 40
0.7499999999999949
 40
1.0
 40
1.0
 40
1.0
 40
1.0
 10
184.8416463947633
 20
125.7354083797417
 30
0.0
 10
184.8420510643392
 20
125.7984991882343
 30
0.0
 10
184.8440945111535
 20
125.8596849107368
 30
0.0
 10
184.8534940764078
 20
125.9451846432384
 30
0.0
 10
184.8574449699365
 20
125.9727650266796
 30
0.0
 10
184.8685972782335
 20
126.0092191087912
 30
0.0
 10
184.87281881916
 20
126.0210775304856
 30
0.0
 10
184.8850265407235
 20
126.031697581861
 30
0.0
 10
184.8908173109758
 20
126.0345309490833
 30
0.0
 10
184.9077388240856
 20
126.0232163620852
 30
0.0
 10
184.9151449400355
 20
126.0114354763313
 30
0.0
 10
184.9316021932786
 20
125.9813946351016
 30
0.0
 10
184.9390587111897
 20
125.9616816814885
 30
0.0
 10
184.9529666404643
 20
125.9232796154284
 30
0.0
 10
184.9590585863592
 20
125.9043979655169
 30
0.0
 10
184.9762528787103
 20
125.8480970549854
 30
0.0
 10
184.9862378289139
 20
125.8110209771758
 30
0.0
 10
185.0144838740128
 20
125.7003623062859
 30
0.0
 10
185.0309634109739
 20
125.6272332458774
 30
0.0
 10
185.0466064168336
 20
125.5539641142535
 30
0.0
  0
SPLINE
  5
16C
330
1F
100
AcDbEntity
  8
0
  6
HIDDEN
 62
     7
370
     0
100
AcDbSpline
210
0.0
220
0.0
230
1.0
 70
     8
 71
     3
 72
     8
 73
     4
 74
     0
 42
0.00000001
 43
0.00000001
 12
1.0
 22
0.0
 32
0.0
 13
1.0
 23
0.0
 33
0.0
 40
0.0
 40
0.0
 40
0.0
 40
0.0
 40
1.0
 40
1.0
 40
1.0
 40
1.0
 10
185.2203260512073
 20
104.7078510698777
 30
0.0
 10
185.1552208895933
 20
104.4528258346721
 30
0.0
 10
185.0973335600333
 20
104.2063738185308
 30
0.0
 10
185.0466064168273
 20
103.9687766606863
 30
0.0
  0
SPLINE
  5
16D
330
1F
100
AcDbEntity
  8
0
  6
HIDDEN
 62
     7
370
     0
100
AcDbSpline
210
0.0
220
0.0
230
1.0
 70
     8
 71
     3
 72
     8
 73
     4
 74
     0
 42
0.00000001
 43
0.00000001
 12
1.0
 22
0.0
 32
0.0
 13
1.0
 23
0.0
 33
0.0
 40
0.0
 40
0.0
 40
0.0
 40
0.0
 40
1.0
 40
1.0
 40
1.0
 40
1.0
 10
185.0466064168335
 20
125.5539641142535
 30
0.0
 10
185.097333560038
 20
125.316366956418
 30
0.0
 10
185.1552208895959
 20
125.0699149402865
 30
0.0
 10
185.2203260512073
 20
124.8148897050913
 30
0.0
  0
LINE
  5
16E
330
1F
100
AcDbEntity
  8
0
  6
HIDDEN
 62
     7
370
     0
100
AcDbLine
 10
164.0416455007
 20
112.2063420849
 30
0.0
 11
164.0416455007
 21
105.1037592484
 31
0.0
  0
LINE
  5
16F
330
1F
100
AcDbEntity
  8
0
  6
HIDDEN
 62
     7
370
     0
100
AcDbLine
 10
164.0416455007
 20
124.4189815266
 30
0.0
 11
164.0416455007
 21
117.3163986901
 31
0.0
  0
LINE
  5
170
330
1F
100
AcDbEntity
  8
0
  6
HIDDEN
 62
     7
370
     0
100
AcDbLine
 10
184.8416463722
 20
124.6802659376
 30
0.0
 11
184.8416463722
 21
104.8424748374
 31
0.0
  0
LINE
  5
171
330
1F
100
AcDbEntity
  8
0
  6
HIDDEN
 62
     7
370
     0
100
AcDbLine
 10
186.3416463998
 20
123.2407373978
 30
0.0
 11
186.3416463998
 21
106.2820033772
 31
0.0
  0
SPLINE
  5
172
330
1F
100
AcDbEntity
  8
0
  6
HIDDEN
 62
     7
370
     0
100
AcDbSpline
210
0.0
220
0.0
230
1.0
 70
     8
 71
     3
 72
     8
 73
     4
 74
     0
 42
0.00000001
 43
0.00000001
 12
1.0
 22
0.0
 32
0.0
 13
1.0
 23
0.0
 33
0.0
 40
0.0000137051794234
 40
0.0000137051794234
 40
0.0000137051794234
 40
0.0000137051794234
 40
0.0027147144718018
 40
0.0027147144718018
 40
0.0027147144718018
 40
0.0027147144718018
 10
164.041646394767
 20
112.2063421504228
 30
0.0
 10
164.9416425302617
 20
112.1933705832244
 30
0.0
 10
165.8416427088571
 20
112.1807357259123
 30
0.0
 10
166.7416463947669
 20
112.1684257076566
 30
0.0
  0
SPLINE
  5
173
330
1F
100
AcDbEntity
  8
0
  6
HIDDEN
 62
     7
370
     0
100
AcDbSpline
210
0.0
220
0.0
230
1.0
 70
     8
 71
     3
 72
     8
 73
     4
 74
     0
 42
0.00000001
 43
0.00000001
 12
1.0
 22
0.0
 32
0.0
 13
1.0
 23
0.0
 33
0.0
 40
0.0000137050638847
 40
0.0000137050638847
 40
0.0000137050638847
 40
0.0000137050638847
 40
0.0027147143562631
 40
0.0027147143562631
 40
0.0027147143562631
 40
0.0027147143562631
 10
166.741646394767
 20
117.3543150673124
 30
0.0
 10
165.8416427088571
 20
117.3420050490567
 30
0.0
 10
164.9416425302617
 20
117.3293701917446
 30
0.0
 10
164.041646394767
 20
117.3163986245462
 30
0.0
  0
SPLINE
  5
174
330
1F
100
AcDbEntity
  8
0
  6
HIDDEN
 62
     7
370
     0
100
AcDbSpline
210
0.0
220
0.0
230
1.0
 70
     8
 71
     3
 72
    10
 73
     6
 74
     0
 42
0.00000001
 43
0.00000001
 12
1.0
 22
0.0
 32
0.0
 13
1.0
 23
0.0
 33
0.0
 40
0.0
 40
0.0
 40
0.0
 40
0.0
 40
0.5
 40
0.5
 40
1.0
 40
1.0
 40
1.0
 40
1.0
 10
162.541646394766
 20
112.9111565738344
 30
0.0
 10
162.7787883554819
 20
112.7555417593055
 30
0.0
 10
163.0241311142454
 20
112.6236327298862
 30
0.0
 10
163.5253947029784
 20
112.3919758532487
 30
0.0
 10
163.7814292722287
 20
112.2925302371258
 30
0.0
 10
164.0416463947669
 20
112.2063421504227
 30
0.0
  0
SPLINE
  5
175
330
1F
100
AcDbEntity
  8
0
  6
HIDDEN
 62
     7
370
     0
100
AcDbSpline
210
0.0
220
0.0
230
1.0
 70
     8
 71
     3
 72
    10
 73
     6
 74
     0
 42
0.00000001
 43
0.00000001
 12
1.0
 22
0.0
 32
0.0
 13
1.0
 23
0.0
 33
0.0
 40
0.0
 40
0.0
 40
0.0
 40
0.0
 40
0.5
 40
0.5
 40
1.0
 40
1.0
 40
1.0
 40
1.0
 10
164.0416463947669
 20
117.3163986245463
 30
0.0
 10
163.7814292722289
 20
117.2302105378432
 30
0.0
 10
163.5253947029787
 20
117.1307649217204
 30
0.0
 10
163.024131114246
 20
116.8991080450831
 30
0.0
 10
162.7787883554827
 20
116.7671990156639
 30
0.0
 10
162.5416463947669
 20
116.6115842011352
 30
0.0
  0
LINE
  5
176
330
1F
100
AcDbEntity
  8
0
  6
HIDDEN
 62
     7
370
     0
100
AcDbLine
 10
162.5416461862
 20
112.911156532
 30
0.0
 11
162.5416461862
 21
116.611584243
 31
0.0
  0
LINE
  5
177
330
1F
100
AcDbEntity
  8
0
  6
HIDDEN
 62
     7
370
     0
100
AcDbLine
 10
166.7416465021
 20
112.1684256146
 30
0.0
 11
166.7416465021
 21
117.3543151604
 31
0.0
  0
SPLINE
  5
178
330
1F
100
AcDbEntity
  8
0
  6
HIDDEN
 62
     7
370
     0
100
AcDbSpline
210
0.0
220
0.0
230
1.0
 70
     8
 71
     3
 72
    22
 73
    18
 74
     0
 42
0.00000001
 43
0.00000001
 12
1.0
 22
0.0
 32
0.0
 13
1.0
 23
0.0
 33
0.0
 40
0.0
 40
0.0
 40
0.0
 40
0.0
 40
0.1250000000000001
 40
0.1250000000000001
 40
0.25
 40
0.25
 40
0.375
 40
0.375
 40
0.5
 40
0.5
 40
0.625
 40
0.625
 40
0.7500000000000001
 40
0.7500000000000001
 40
0.8750000000000001
 40
0.8750000000000001
 40
1.0
 40
1.0
 40
1.0
 40
1.0
 10
166.7416463947669
 20
112.1684257076566
 30
0.0
 10
166.9225827528431
 20
112.3600455669631
 30
0.0
 10
167.10167820162
 20
112.5536874313503
 30
0.0
 10
167.452518190132
 20
112.9483426847345
 30
0.0
 10
167.6247112980366
 20
113.1493542154021
 30
0.0
 10
167.9504428036559
 20
113.5655653306358
 30
0.0
 10
168.1065190388242
 20
113.7815811709226
 30
0.0
 10
168.3578982527133
 20
114.2469039340873
 30
0.0
 10
168.4517633830321
 20
114.5024431271101
 30
0.0
 10
168.44803546617
 20
115.0367737622107
 30
0.0
 10
168.3506628236826
 20
115.2921946282114
 30
0.0
 10
168.0988420146887
 20
115.7522233441591
 30
0.0
 10
167.9438727592162
 20
115.9660603450877
 30
0.0
 10
167.6190600014909
 20
116.3800989277814
 30
0.0
 10
167.448166937363
 20
116.5793913998173
 30
0.0
 10
167.0995326978354
 20
116.9713662922514
 30
0.0
 10
166.9215248473069
 20
117.1638155782408
 30
0.0
 10
166.741646394767
 20
117.3543150673124
 30
0.0
  0
LWPOLYLINE
  5
179
330
1F
100
AcDbEntity
  8
0
  6
HIDDEN
 62
     7
370
     0
100
AcDbPolyline
 90
       32
 70
   128
 43
0.0
 10
200.5416468269
 20
107.1989183916
 10
201.044892568
 20
107.2463674141
 10
201.5275355912
 20
107.3867708115
 10
201.9698169566
 20
107.6143813921
 10
202.3536280281
 20
107.9198803423
 10
202.6632573939
 20
108.2907609312
 10
202.8860260284
 20
108.7118384099
 10
203.0128162837
 20
109.1658744631
 10
203.0384369678
 20
109.6342808237
 10
202.9618394113
 20
110.0978806285
 10
202.7861584461
 20
110.5376939891
 10
202.5185857451
 20
110.9357149476
 10
202.1700773871
 20
111.2756488515
 10
201.7549012339
 20
111.543578249
 10
201.2900539226
 20
111.7285342557
 10
200.7945670298
 20
111.8229449863
 10
200.2887256927
 20
111.8229449863
 10
199.7932387999
 20
111.7285342557
 10
199.3283914885
 20
111.543578249
 10
198.9132153353
 20
111.2756488515
 10
198.5647069773
 20
110.9357149476
 10
198.2971352077
 20
110.5376939891
 10
198.1214533112
 20
110.0978806285
 10
198.0448548234
 20
109.6342808237
 10
198.0704755074
 20
109.1658744631
 10
198.1972657627
 20
108.7118384099
 10
198.4200353286
 20
108.2907609312
 10
198.7296646944
 20
107.9198803423
 10
199.1134757659
 20
107.6143813921
 10
199.5557571313
 20
107.3867708115
 10
200.0384001544
 20
107.2463674141
 10
200.5416468269
 20
107.1989183916
  0
SPLINE
  5
17A
330
1F
100
AcDbEntity
  8
0
  6
HIDDEN
 62
     7
370
     0
100
AcDbSpline
210
0.0
220
0.0
230
1.0
 70
     8
 71
     3
 72
    62
 73
    58
 74
     0
 42
0.00000001
 43
0.00000001
 12
1.0
 22
0.0
 32
0.0
 13
1.0
 23
0.0
 33
0.0
 40
-0.0312499999999999
 40
-0.0312499999999999
 40
0.0
 40
0.0
 40
0.0312500000000001
 40
0.0312500000000001
 40
0.0625000000000001
 40
0.0625000000000001
 40
0.0937500000000002
 40
0.0937500000000002
 40
0.1250000000000003
 40
0.1250000000000003
 40
0.1875000000000005
 40
0.1875000000000005
 40
0.2500000000000007
 40
0.2500000000000007
 40
0.2812500000000006
 40
0.2812500000000006
 40
0.3125000000000006
 40
0.3125000000000006
 40
0.3437500000000006
 40
0.3437500000000006
 40
0.3750000000000006
 40
0.3750000000000006
 40
0.4375000000000005
 40
0.4375000000000005
 40
0.4687500000000006
 40
0.4687500000000006
 40
0.5000000000000006
 40
0.5000000000000006
 40
0.5625000000000009
 40
0.5625000000000009
 40
0.5937500000000008
 40
0.5937500000000008
 40
0.6250000000000008
 40
0.6250000000000008
 40
0.6562500000000007
 40
0.6562500000000007
 40
0.6875000000000007
 40
0.6875000000000007
 40
0.7187500000000006
 40
0.7187500000000006
 40
0.7500000000000006
 40
0.7500000000000006
 40
0.7812500000000004
 40
0.7812500000000004
 40
0.8125000000000004
 40
0.8125000000000004
 40
0.8437500000000003
 40
0.8437500000000003
 40
0.8750000000000003
 40
0.8750000000000003
 40
0.9062500000000002
 40
0.9062500000000002
 40
0.9375000000000002
 40
0.9375000000000002
 40
0.9687500000000001
 40
0.9687500000000001
 40
1.0
 40
1.0
 40
1.03125
 40
1.03125
 10
172.9954185226952
 20
116.2493494261409
 30
0.0
 10
173.2229188692835
 20
116.4986959680015
 30
0.0
 10
173.3473813982009
 20
116.6102936454584
 30
0.0
 10
173.6164756643527
 20
116.8089444412768
 30
0.0
 10
173.762288755942
 20
116.8962846860655
 30
0.0
 10
174.0634556342314
 20
117.0404804387077
 30
0.0
 10
174.2197913612958
 20
117.098300109222
 30
0.0
 10
174.5439146606302
 20
117.185553721273
 30
0.0
 10
174.7105798723406
 20
117.2143557707548
 30
0.0
 10
175.2085961389726
 20
117.2551350760226
 30
0.0
 10
175.5492670877655
 20
117.2216918158814
 30
0.0
 10
176.188278003187
 20
117.0392391714226
 30
0.0
 10
176.4947326102508
 20
116.8878146111098
 30
0.0
 10
176.8912885195132
 20
116.5873167055255
 30
0.0
 10
177.0156377103628
 20
116.4730555203301
 30
0.0
 10
177.2381018044119
 20
116.2233956497576
 30
0.0
 10
177.3356671428892
 20
116.0892290417585
 30
0.0
 10
177.502922746528
 20
115.8017599472598
 30
0.0
 10
177.5730084020471
 20
115.6464930973599
 30
0.0
 10
177.6770637627687
 20
115.3295136772729
 30
0.0
 10
177.712039525436
 20
115.1668609257684
 30
0.0
 10
177.7639040449601
 20
114.6659239055659
 30
0.0
 10
177.7245979371887
 20
114.3257693042556
 30
0.0
 10
177.5618781447278
 20
113.8492746721584
 30
0.0
 10
177.4915976468416
 20
113.698207312331
 30
0.0
 10
177.3202645017116
 20
113.4109127418901
 30
0.0
 10
177.2188722605299
 20
113.2750549635927
 30
0.0
 10
176.8822726733067
 20
112.9062465685945
 30
0.0
 10
176.607039907142
 20
112.7038214592634
 30
0.0
 10
176.1572566797961
 20
112.4867447326546
 30
0.0
 10
175.9984568812924
 20
112.4274424605804
 30
0.0
 10
175.6758951604128
 20
112.3394699427799
 30
0.0
 10
175.5120360484456
 20
112.3103501789336
 30
0.0
 10
175.1792032750917
 20
112.2814935638234
 30
0.0
 10
175.0091509836509
 20
112.2821170870374
 30
0.0
 10
174.6768753196312
 20
112.3133735308418
 30
0.0
 10
174.5131607078824
 20
112.3436922258936
 30
0.0
 10
174.1906952223081
 20
112.4344092648966
 30
0.0
 10
174.0321841237816
 20
112.4951781735984
 30
0.0
 10
173.7336304175837
 20
112.6426888483954
 30
0.0
 10
173.5918042883816
 20
112.7298238762593
 30
0.0
 10
173.3238825498233
 20
112.9324093428313
 30
0.0
 10
173.1997891194308
 20
113.0467475094735
 30
0.0
 10
172.9786549315126
 20
113.2949339474263
 30
0.0
 10
172.8801979294139
 20
113.4299665642801
 30
0.0
 10
172.7108394156789
 20
113.7219709623348
 30
0.0
 10
172.642672577973
 20
113.8741067087704
 30
0.0
 10
172.5389386116466
 20
114.1905156572104
 30
0.0
 10
172.5032700497774
 20
114.3570121265647
 30
0.0
 10
172.4690562851249
 20
114.6902740026752
 30
0.0
 10
172.469914687954
 20
114.8569364564971
 30
0.0
 10
172.5077114679036
 20
115.1903246557146
 30
0.0
 10
172.5450542233576
 20
115.3560802281941
 30
0.0
 10
172.652303806426
 20
115.6719715446568
 30
0.0
 10
172.7230650229652
 20
115.8252508777289
 30
0.0
 10
172.8951881730658
 20
116.1146279202154
 30
0.0
 10
172.9954185226952
 20
116.2493494261409
 30
0.0
 10
173.2229188692835
 20
116.4986959680015
 30
0.0
  0
CIRCLE
  5
17B
330
1F
100
AcDbEntity
  8
0
  6
HIDDEN
 62
     7
370
     0
100
AcDbCircle
 10
175.0416463948
 20
114.7613703875
 30
0.0
 40
2.300000000000011
  0
CIRCLE
  5
17C
330
1F
100
AcDbEntity
  8
0
  6
HIDDEN
 62
     7
370
     0
100
AcDbCircle
 10
198.5416463948
 20
114.7613703875
 30
0.0
 40
2.0
  0
SPLINE
  5
17D
330
1F
100
AcDbEntity
  8
0
  6
HIDDEN
 62
     7
370
     0
100
AcDbSpline
210
0.0
220
0.0
230
1.0
 70
     8
 71
     3
 72
     9
 73
     5
 74
     0
 42
0.00000001
 43
0.00000001
 12
1.0
 22
0.0
 32
0.0
 13
1.0
 23
0.0
 33
0.0
 40
0.0
 40
0.0
 40
0.0
 40
0.0
 40
0.4999999838847328
 40
1.0
 40
1.0
 40
1.0
 40
1.0
 10
226.3000573206437
 20
128.4727877443527
 30
0.0
 10
226.297704022127
 20
128.3383982442534
 30
0.0
 10
226.2929974249418
 20
128.0696192353917
 30
0.0
 10
226.2826692260642
 20
127.8009975014051
 30
0.0
 10
226.277505126459
 20
127.6666866300829
 30
0.0
  0
LINE
  5
17E
330
1F
100
AcDbEntity
  8
0
  6
HIDDEN
 62
     7
370
     0
100
AcDbLine
 10
226.2775075174
 20
127.6666868148
 30
0.0
 11
225.1999114192
 21
125.9108261807
 31
0.0
  0
ELLIPSE
  5
17F
330
1F
100
AcDbEntity
  8
0
  6
HIDDEN
 62
     7
370
     0
100
AcDbEllipse
 10
239.8459929423
 20
117.2155372927
 30
0.0
 11
12.48906229239503
 21
12.29932537340363
 31
0.0
210
-4.399140459971684E-16
220
4.467004292478332E-16
230
1.0
 40
0.9698463104
 41
1.820644308496264
 42
2.348540373423701
  0
LINE
  5
180
330
1F
100
AcDbEntity
  8
0
  6
HIDDEN
 62
     7
370
     0
100
AcDbLine
 10
222.5837406254
 20
117.2155373866
 30
0.0
 11
222.5085977948
 21
114.7613703875
 31
0.0
  0
LINE
  5
181
330
1F
100
AcDbEntity
  8
0
  6
HIDDEN
 62
     7
370
     0
100
AcDbLine
 10
186.5416463948
 20
98.9613711504
 30
0.0
 11
186.6345396152
 21
99.0542631267
 31
0.0
  0
LINE
  5
182
330
1F
100
AcDbEntity
  8
0
  6
HIDDEN
 62
     7
370
     0
100
AcDbLine
 10
186.6345396152
 20
130.4684776483
 30
0.0
 11
186.5416463948
 21
130.5613696245
 31
0.0
  0
LINE
  5
183
330
1F
100
AcDbEntity
  8
0
  6
HIDDEN
 62
     7
370
     0
100
AcDbLine
 10
198.5441582761
 20
121.2531176066
 30
0.0
 11
198.5756183526
 21
120.8544319166
 31
0.0
  0
LINE
  5
184
330
1F
100
AcDbEntity
  8
0
  6
HIDDEN
 62
     7
370
     0
100
AcDbLine
 10
202.3287933803
 20
118.9163189052
 30
0.0
 11
205.6168333179
 21
120.9856222054
 31
0.0
  0
LINE
  5
185
330
1F
100
AcDbEntity
  8
0
  6
HIDDEN
 62
     7
370
     0
100
AcDbLine
 10
200.8645084238
 20
117.9947824353
 30
0.0
 11
200.9648379422
 21
118.0579240104
 31
0.0
  0
LINE
  5
186
330
1F
100
AcDbEntity
  8
0
  6
HIDDEN
 62
     7
370
     0
100
AcDbLine
 10
205.5644222087
 20
125.9151670752
 30
0.0
 11
198.6274241022
 21
121.5494206777
 31
0.0
  0
ARC
  5
187
330
1F
100
AcDbEntity
  8
0
  6
HIDDEN
 62
     7
370
     0
100
AcDbCircle
 10
185.9274328324
 20
99.7613703875
 30
0.0
 40
1.0
100
AcDbArc
 50
315.0
 51
0.0
  0
ARC
  5
188
330
1F
100
AcDbEntity
  8
0
  6
HIDDEN
 62
     7
370
     0
100
AcDbCircle
 10
185.9274328324
 20
99.7613703875
 30
0.0
 40
1.0
100
AcDbArc
 50
0.0
 51
52.1052014664
  0
ARC
  5
189
330
1F
100
AcDbEntity
  8
0
  6
HIDDEN
 62
     7
370
     0
100
AcDbCircle
 10
185.9274328324
 20
129.7613703875
 30
0.0
 40
0.9999999999999776
100
AcDbArc
 50
351.8087250651
 51
45.0
  0
ARC
  5
18A
330
1F
100
AcDbEntity
  8
0
  6
HIDDEN
 62
     7
370
     0
100
AcDbCircle
 10
185.9274328324
 20
129.7613703875
 30
0.0
 40
0.9999999999999989
100
AcDbArc
 50
307.8947985336
 51
351.8087250651
  0
LINE
  5
18B
330
1F
100
AcDbEntity
  8
0
  6
HIDDEN
 62
     7
370
     0
100
AcDbLine
 10
186.9274328306
 20
99.7613707228
 30
0.0
 11
186.9274328306
 21
129.7613700522
 31
0.0
  0
LINE
  5
18C
330
1F
100
AcDbEntity
  8
0
  6
HIDDEN
 62
     7
370
     0
100
AcDbLine
 10
186.9274328306
 20
99.7613707228
 30
0.0
 11
186.9274328306
 21
129.7613700522
 31
0.0
  0
LINE
  5
18D
330
1F
100
AcDbEntity
  8
0
  6
HIDDEN
 62
     7
370
     0
100
AcDbLine
 10
198.4416466689
 20
120.3804692855
 30
0.0
 11
198.4416466689
 21
117.0998126404
 31
0.0
  0
LINE
  5
18E
330
1F
100
AcDbEntity
  8
0
  6
HIDDEN
 62
     7
370
     0
100
AcDbLine
 10
202.6416469849
 20
117.1001833068
 30
0.0
 11
202.6416469849
 21
119.5568886256
 31
0.0
  0
LINE
  5
18F
330
1F
100
AcDbEntity
  8
0
  6
HIDDEN
 62
     7
370
     0
100
AcDbLine
 10
198.6986656225
 20
119.2950836053
 30
0.0
 11
198.7123542017
 21
119.1216056837
 31
0.0
  0
LINE
  5
190
330
1F
100
AcDbEntity
  8
0
  6
HIDDEN
 62
     7
370
     0
100
AcDbLine
 10
198.7123542017
 20
119.1216056837
 30
0.0
 11
198.8496562949
 21
119.0418737611
 31
0.0
  0
LINE
  5
191
330
1F
100
AcDbEntity
  8
0
  6
HIDDEN
 62
     7
370
     0
100
AcDbLine
 10
162.5416461862
 20
104.6057196004
 30
0.0
 11
163.5686789191
 21
105.1986768512
 31
0.0
  0
LINE
  5
192
330
1F
100
AcDbEntity
  8
0
  6
HIDDEN
 62
     7
370
     0
100
AcDbLine
 10
163.5686789191
 20
124.3240639238
 30
0.0
 11
162.5416461862
 21
124.9170211745
 31
0.0
  0
LINE
  5
193
330
1F
100
AcDbEntity
  8
0
  6
HIDDEN
 62
     7
370
     0
100
AcDbLine
 10
168.0416461563
 20
104.761370611
 30
0.0
 11
169.0544650442
 21
104.761370611
 31
0.0
  0
LINE
  5
194
330
1F
100
AcDbEntity
  8
0
  6
HIDDEN
 62
     7
370
     0
100
AcDbLine
 10
169.0544650442
 20
124.761370164
 30
0.0
 11
168.0416461563
 21
124.761370164
 31
0.0
  0
ARC
  5
195
330
1F
100
AcDbEntity
  8
0
  6
HIDDEN
 62
     7
370
     0
100
AcDbCircle
 10
168.0416463948
 20
105.7613703875
 30
0.0
 40
1.0
100
AcDbArc
 50
193.3524261238
 51
270.0
  0
ARC
  5
196
330
1F
100
AcDbEntity
  8
0
  6
HIDDEN
 62
     7
370
     0
100
AcDbCircle
 10
168.0416463948
 20
123.7613703875
 30
0.0
 40
1.000000000000008
100
AcDbArc
 50
90.0
 51
166.6475738762
  0
ARC
  5
197
330
1F
100
AcDbEntity
  8
0
  6
HIDDEN
 62
     7
370
     0
100
AcDbCircle
 10
169.0544648644
 20
105.7613703875
 30
0.0
 40
1.0
100
AcDbArc
 50
270.0
 51
315.0
  0
ARC
  5
198
330
1F
100
AcDbEntity
  8
0
  6
HIDDEN
 62
     7
370
     0
100
AcDbCircle
 10
169.0544648644
 20
123.7613703875
 30
0.0
 40
1.0
100
AcDbArc
 50
45.0
 51
90.0
  0
LINE
  5
199
330
1F
100
AcDbEntity
  8
0
  6
HIDDEN
 62
     7
370
     0
100
AcDbLine
 10
169.761571709
 20
105.0542631788
 30
0.0
 11
170.4686783737
 21
105.7613707749
 31
0.0
  0
LINE
  5
19A
330
1F
100
AcDbEntity
  8
0
  6
HIDDEN
 62
     7
370
     0
100
AcDbLine
 10
170.4686783737
 20
123.7613700001
 30
0.0
 11
169.761571709
 21
124.4684775962
 31
0.0
  0
LINE
  5
19B
330
1F
100
AcDbEntity
  8
0
  6
HIDDEN
 62
     7
370
     0
100
AcDbLine
 10
163.5686789191
 20
105.1986768512
 30
0.0
 11
165.6686790771
 21
105.7613707749
 31
0.0
  0
LINE
  5
19C
330
1F
100
AcDbEntity
  8
0
  6
HIDDEN
 62
     7
370
     0
100
AcDbLine
 10
165.6686790771
 20
123.7613700001
 30
0.0
 11
163.5686789191
 21
124.3240639238
 31
0.0
  0
LINE
  5
19D
330
1F
100
AcDbEntity
  8
0
  6
HIDDEN
 62
     7
370
     0
100
AcDbLine
 10
167.0686785615
 20
123.9923100589
 30
0.0
 11
166.668679241
 21
123.7613700001
 31
0.0
  0
LINE
  5
19E
330
1F
100
AcDbEntity
  8
0
  6
HIDDEN
 62
     7
370
     0
100
AcDbLine
 10
166.668679241
 20
105.7613707749
 30
0.0
 11
167.0686785615
 21
105.5304307161
 31
0.0
  0
ARC
  5
19F
330
1F
100
AcDbEntity
  8
0
  6
HIDDEN
 62
     7
370
     0
100
AcDbCircle
 10
177.0416463948
 20
106.2613703875
 30
0.0
 40
0.5
100
AcDbArc
 50
270.0
 51
0.0
  0
ARC
  5
1A0
330
1F
100
AcDbEntity
  8
0
  6
HIDDEN
 62
     7
370
     0
100
AcDbCircle
 10
177.0416463948
 20
123.2613703875
 30
0.0
 40
0.5
100
AcDbArc
 50
0.0
 51
90.0
  0
LINE
  5
1A1
330
1F
100
AcDbEntity
  8
0
  6
HIDDEN
 62
     7
370
     0
100
AcDbLine
 10
170.4686783737
 20
105.7613707749
 30
0.0
 11
177.0416467002
 21
105.7613707749
 31
0.0
  0
LINE
  5
1A2
330
1F
100
AcDbEntity
  8
0
  6
HIDDEN
 62
     7
370
     0
100
AcDbLine
 10
177.0416467002
 20
123.7613700001
 30
0.0
 11
170.4686783737
 21
123.7613700001
 31
0.0
  0
LINE
  5
1A3
330
1F
100
AcDbEntity
  8
0
  6
HIDDEN
 62
     7
370
     0
100
AcDbLine
 10
165.6686790771
 20
105.7613707749
 30
0.0
 11
166.668679241
 21
105.7613707749
 31
0.0
  0
LINE
  5
1A4
330
1F
100
AcDbEntity
  8
0
  6
HIDDEN
 62
     7
370
     0
100
AcDbLine
 10
166.668679241
 20
123.7613700001
 30
0.0
 11
165.6686790771
 21
123.7613700001
 31
0.0
  0
LINE
  5
1A5
330
1F
100
AcDbEntity
  8
0
  6
HIDDEN
 62
     7
370
     0
100
AcDbLine
 10
218.1585614121
 20
119.3202064974
 30
0.0
 11
218.9537656045
 21
120.1033295734
 31
0.0
  0
LINE
  5
1A6
330
1F
100
AcDbEntity
  8
0
  6
HIDDEN
 62
     7
370
     0
100
AcDbLine
 10
214.0420485771
 20
125.0908171428
 30
0.0
 11
213.2468443847
 21
124.3076940669
 31
0.0
  0
LINE
  5
1A7
330
1F
100
AcDbEntity
  8
0
  6
HIDDEN
 62
     7
370
     0
100
AcDbLine
 10
177.5416467822
 20
107.6113704262
 30
0.0
 11
178.4416461847
 21
108.5113702944
 31
0.0
  0
LINE
  5
1A8
330
1F
100
AcDbEntity
  8
0
  6
HIDDEN
 62
     7
370
     0
100
AcDbLine
 10
178.4416461847
 20
121.0113704806
 30
0.0
 11
177.5416467822
 21
121.9113703487
 31
0.0
  0
LINE
  5
1A9
330
1F
100
AcDbEntity
  8
0
  6
HIDDEN
 62
     7
370
     0
100
AcDbLine
 10
211.4786483831
 20
131.51650798
 30
0.0
 11
209.877611745
 21
129.9397946937
 31
0.0
  0
LINE
  5
1AA
330
1F
100
AcDbEntity
  8
0
  6
HIDDEN
 62
     7
370
     0
100
AcDbLine
 10
178.4416461847
 20
108.5113702944
 30
0.0
 11
203.5262674576
 21
108.5113702944
 31
0.0
  0
LINE
  5
1AB
330
1F
100
AcDbEntity
  8
0
  6
HIDDEN
 62
     7
370
     0
100
AcDbLine
 10
203.5262674576
 20
121.0113704806
 30
0.0
 11
178.4416461847
 21
121.0113704806
 31
0.0
  0
LINE
  5
1AC
330
1F
100
AcDbEntity
  8
0
  6
HIDDEN
 62
     7
370
     0
100
AcDbLine
 10
203.5262674576
 20
108.5113702944
 30
0.0
 11
207.2816469258
 21
114.7613703875
 31
0.0
  0
LINE
  5
1AD
330
1F
100
AcDbEntity
  8
0
  6
HIDDEN
 62
     7
370
     0
100
AcDbLine
 10
207.2816469258
 20
114.7613703875
 30
0.0
 11
203.5262674576
 21
121.0113704806
 31
0.0
  0
LINE
  5
1AE
330
1F
100
AcDbEntity
  8
0
  6
HIDDEN
 62
     7
370
     0
100
AcDbLine
 10
218.4950855112
 20
121.8750208287
 30
0.0
 11
223.4675918258
 21
128.1399933292
 31
0.0
  0
LINE
  5
1AF
330
1F
100
AcDbEntity
  8
0
  6
HIDDEN
 62
     7
370
     0
100
AcDbLine
 10
214.5822622365
 20
114.8157815774
 30
0.0
 11
218.5766954458
 21
118.7495302079
 31
0.0
  0
LINE
  5
1B0
330
1F
100
AcDbEntity
  8
0
  6
HIDDEN
 62
     7
370
     0
100
AcDbLine
 10
212.6826361305
 20
124.7345154775
 30
0.0
 11
208.9535031951
 21
121.062038154
 31
0.0
  0
LINE
  5
1B1
330
1F
100
AcDbEntity
  8
0
  6
HIDDEN
 62
     7
370
     0
100
AcDbLine
 10
198.4416466689
 20
112.4225574682
 30
0.0
 11
198.4416466689
 21
109.6069125129
 31
0.0
  0
LINE
  5
1B2
330
1F
100
AcDbEntity
  8
0
  6
HIDDEN
 62
     7
370
     0
100
AcDbLine
 10
202.6416469849
 20
109.6069125129
 30
0.0
 11
202.6416469849
 21
112.4229281345
 31
0.0
  0
LINE
  5
1B3
330
1F
100
AcDbEntity
  8
0
  6
HIDDEN
 62
     7
370
     0
100
AcDbLine
 10
221.5173688269
 20
135.575543311
 30
0.0
 11
220.5449376738
 21
134.6178866593
 31
0.0
  0
LINE
  5
1B4
330
1F
100
AcDbEntity
  8
0
  6
HIDDEN
 62
     7
370
     0
100
AcDbLine
 10
225.0356521941
 20
130.057897572
 30
0.0
 11
226.0080796218
 21
131.0155532924
 31
0.0
  0
LINE
  5
1B5
330
1F
100
AcDbEntity
  8
0
  6
HIDDEN
 62
     7
370
     0
100
AcDbLine
 10
220.0278338528
 20
132.6177633969
 30
0.0
 11
216.2423260993
 21
127.848315206
 31
0.0
  0
LINE
  5
1B6
330
1F
100
AcDbEntity
  8
0
  6
HIDDEN
 62
     7
370
     0
100
AcDbLine
 10
198.0416464171
 20
109.5168783
 30
0.0
 11
198.0416464171
 21
107.2692667736
 31
0.0
  0
LINE
  5
1B7
330
1F
100
AcDbEntity
  8
0
  6
HIDDEN
 62
     7
370
     0
100
AcDbLine
 10
203.0416463054
 20
107.2706940254
 30
0.0
 11
203.0416463054
 21
109.5168783
 31
0.0
  0
LINE
  5
1B8
330
1F
100
AcDbEntity
  8
VERMASSUNG
  6
CENTERX2
100
AcDbLine
 10
236.5416463948
 20
141.7613703875
 30
0.0
 11
247.419568203
 21
141.7613703875
 31
0.0
  0
LINE
  5
1B9
330
1F
100
AcDbEntity
  8
VERMASSUNG
  6
CENTERX2
100
AcDbLine
 10
236.5416463948
 20
141.7613703875
 30
0.0
 11
236.5416463948
 21
114.7613703875
 31
0.0
  0
LINE
  5
1BA
330
1F
100
AcDbEntity
  8
VERMASSUNG
  6
CENTERX2
100
AcDbLine
 10
157.8402962566
 20
114.7613703875
 30
0.0
 11
236.5416463948
 21
114.7613703875
 31
0.0
  0
LINE
  5
1BB
330
1F
100
AcDbEntity
  8
VERMASSUNG
100
AcDbLine
 10
236.5416463948
 20
141.7613703875
 30
0.0
 11
236.5416463948
 21
150.1052267868
 31
0.0
  0
DIMENSION
  5
1BC
330
1F
100
AcDbEntity
  8
VERMASSUNG
100
AcDbDimension
  2
_D
 10
236.1168137866
 20
141.7625403773
 30
0.0
 11
227.5362587172
 21
150.329516674
 31
0.0
 70
   162
  1
<>
 71
     1
 42
-1.0
  3
SLDDIMSTYLE0
100
AcDb2LineAngularDimension
 13
236.5416463948
 23
150.1052267868
 33
0.0
 14
236.5416463948
 24
141.7613703875
 34
0.0
 15
221.8595112147
 25
141.0134442567
 35
0.0
 16
227.5362587172
 26
150.329516674
 36
0.0
  0
DIMENSION
  5
1C6
330
1F
100
AcDbEntity
  8
VERMASSUNG
100
AcDbDimension
  2
_D_1
 10
236.5416463948
 20
158.12518709
 30
0.0
 11
211.5416463948
 21
158.12518709
 31
0.0
 70
   160
  1
<>
 71
     2
 42
-1.0
  3
SLDDIMSTYLE1
100
AcDbAlignedDimension
 13
186.5416463948
 23
134.4613703875
 33
0.0
 14
236.5416463948
 24
141.7613703875
 34
0.0
100
AcDbRotatedDimension
  0
DIMENSION
  5
1D3
330
1F
100
AcDbEntity
  8
VERMASSUNG
100
AcDbDimension
  2
_D_2
 10
246.6881833767
 20
114.7613703875
 30
0.0
 11
246.6881833767
 21
128.2613703875
 31
0.0
 70
   160
  1
<>
 71
     2
 42
-1.0
  3
SLDDIMSTYLE1
100
AcDbAlignedDimension
 13
236.5416463948
 23
141.7613703875
 33
0.0
 14
236.5416463948
 24
114.7613703875
 34
0.0
 50
90.0
100
AcDbRotatedDimension
  0
DIMENSION
  5
1DF
330
1F
100
AcDbEntity
  8
VERMASSUNG
100
AcDbDimension
  2
_D_3
 10
162.5416463948
 20
166.3478211725
 30
0.0
 11
199.5416463948
 21
166.3478211725
 31
0.0
 70
   160
  1
<>
 71
     2
 42
-1.0
  3
SLDDIMSTYLE2
100
AcDbAlignedDimension
 13
236.5416463948
 23
141.7613703875
 33
0.0
 14
162.5416463948
 24
127.3928753695
 34
0.0
100
AcDbRotatedDimension
  0
DIMENSION
  5
1EA
330
1F
100
AcDbEntity
  8
VERMASSUNG
100
AcDbDimension
  2
_D_4
 10
154.3259848181
 20
94.7613703875
 30
0.0
 11
154.3259848181
 21
114.7613703875
 31
0.0
 70
   160
  1
PSC%%c<>
 71
     2
 42
-1.0
  3
SLDDIMSTYLE2
100
AcDbAlignedDimension
 13
186.8416463948
 23
134.7613703875
 33
0.0
 14
186.8416463948
 24
94.7613703875
 34
0.0
 50
90.0
100
AcDbRotatedDimension
  0
LINE
  5
1F6
330
1F
100
AcDbEntity
  8
0
  6
Continuous
 62
     7
370
    15
100
AcDbLine
 10
98.1592357114
 20
140.6769819228
 30
0.0
 11
92.0007115549
 21
141.7628965942
 31
0.0
  0
LINE
  5
1F7
330
1F
100
AcDbEntity
  8
0
  6
Continuous
 62
     7
370
    15
100
AcDbLine
 10
89.6450651765
 20
139.6260402767
 30
0.0
 11
89.1953630328
 21
139.0593025504
 31
0.0
  0
SPLINE
  5
1F8
330
1F
100
AcDbEntity
  8
0
  6
Continuous
 62
     7
370
    15
100
AcDbSpline
210
0.0
220
0.0
230
1.0
 70
     8
 71
     3
 72
    10
 73
     6
 74
     0
 42
0.00000001
 43
0.00000001
 12
1.0
 22
0.0
 32
0.0
 13
1.0
 23
0.0
 33
0.0
 40
0.0
 40
0.0
 40
0.0
 40
0.0
 40
0.1726445136260211
 40
0.7177910805304573
 40
1.0
 40
1.0
 40
1.0
 40
1.0
 10
89.72188345643211
 20
139.7171310750741
 30
0.0
 10
89.722249596964
 20
139.7192114062112
 30
0.0
 10
89.72377187185415
 20
139.7278606421667
 30
0.0
 10
89.7176801218453
 20
139.6901376314081
 30
0.0
 10
89.67294172695114
 20
139.636270677472
 30
0.0
 10
89.65768157059777
 20
139.6178967921037
 30
0.0
  0
LINE
  5
1F9
330
1F
100
AcDbEntity
  8
0
  6
Continuous
 62
     7
370
    15
100
AcDbLine
 10
86.9446762793
 20
130.3904235033
 30
0.0
 11
87.1917044699
 21
129.6491996987
 31
0.0
  0
SPLINE
  5
1FA
330
1F
100
AcDbEntity
  8
0
  6
Continuous
 62
     7
370
    15
100
AcDbSpline
210
0.0
220
0.0
230
1.0
 70
     8
 71
     3
 72
    12
 73
     8
 74
     0
 42
0.00000001
 43
0.00000001
 12
1.0
 22
0.0
 32
0.0
 13
1.0
 23
0.0
 33
0.0
 40
0.0
 40
0.0
 40
0.0
 40
0.0
 40
0.0655433276788907
 40
0.3550037780277475
 40
0.6491192055402224
 40
0.9780529275203944
 40
1.0
 40
1.0
 40
1.0
 40
1.0
 10
87.20001792090464
 20
129.6531028715868
 30
0.0
 10
87.20538533381745
 20
129.641251294758
 30
0.0
 10
87.23445697130914
 20
129.5770593365709
 30
0.0
 10
87.23470170156884
 20
129.4777000099726
 30
0.0
 10
87.2313815601642
 20
129.3998155377197
 30
0.0
 10
87.22233731684555
 20
129.3745101130157
 30
0.0
 10
87.22496131877107
 20
129.3819250276682
 30
0.0
 10
87.2251254461937
 20
129.3823888195653
 30
0.0
  0
LINE
  5
1FB
330
1F
100
AcDbEntity
  8
0
  6
Continuous
 62
     7
370
    15
100
AcDbLine
 10
85.7463770502
 20
128.0876539318
 30
0.0
 11
86.0498690002
 21
128.0341401366
 31
0.0
  0
LINE
  5
1FC
330
1F
100
AcDbEntity
  8
0
  6
Continuous
 62
     7
370
    15
100
AcDbLine
 10
100.7482412227
 20
140.125573766
 30
0.0
 11
98.1869504743
 21
140.5771981595
 31
0.0
  0
LINE
  5
1FD
330
1F
100
AcDbEntity
  8
0
  6
Continuous
 62
     7
370
    15
100
AcDbLine
 10
101.0063041888
 20
139.7643044261
 30
0.0
 11
100.7756742604
 21
140.1048257617
 31
0.0
  0
LINE
  5
1FE
330
1F
100
AcDbEntity
  8
0
  6
Continuous
 62
     7
370
    15
100
AcDbLine
 10
97.3491615571
 20
127.2518012343
 30
0.0
 11
97.6823477961
 21
127.492906679
 31
0.0
  0
LINE
  5
1FF
330
1F
100
AcDbEntity
  8
0
  6
Continuous
 62
     7
370
    15
100
AcDbLine
 10
89.5011255473
 20
136.5636672495
 30
0.0
 11
89.412989137
 21
136.5753087817
 31
0.0
  0
LINE
  5
200
330
1F
100
AcDbEntity
  8
0
  6
Continuous
 62
     7
370
    15
100
AcDbLine
 10
85.7522853606
 20
128.0880087657
 30
0.0
 11
88.4370997504
 21
128.8371050401
 31
0.0
  0
ARC
  5
201
330
1F
100
AcDbEntity
  8
0
  6
Continuous
 62
     7
370
    15
100
AcDbCircle
 10
86.6057575585
 20
128.3346198693
 30
0.0
 40
0.8883872066799576
100
AcDbArc
 50
156.3903640831
 51
196.1166692151
  0
LINE
  5
202
330
1F
100
AcDbEntity
  8
0
  6
Continuous
 62
     7
370
    15
100
AcDbLine
 10
89.2223334361
 20
140.8287223099
 30
0.0
 11
85.7917324595
 21
128.6904217346
 31
0.0
  0
ARC
  5
203
330
1F
100
AcDbEntity
  8
0
  6
Continuous
 62
     7
370
    15
100
AcDbCircle
 10
89.5566150257
 20
140.7832553924
 30
0.0
 40
0.3373594844639015
100
AcDbArc
 50
136.9743232295
 51
172.2545117441
  0
LINE
  5
204
330
1F
100
AcDbEntity
  8
0
  6
Continuous
 62
     7
370
    15
100
AcDbLine
 10
91.9948037029
 20
141.762540829
 30
0.0
 11
89.3099890512
 21
141.0134445546
 31
0.0
  0
ARC
  5
205
330
1F
100
AcDbEntity
  8
0
  6
Continuous
 62
     7
370
    15
100
AcDbCircle
 10
91.1413272937
 20
141.5159300405
 30
0.0
 40
0.8883911649777125
100
AcDbArc
 50
336.3904534881
 51
16.1165742975
  0
LINE
  5
206
330
1F
100
AcDbEntity
  8
0
  6
Continuous
 62
     7
370
    15
100
AcDbLine
 10
88.5247555983
 20
129.0218272848
 30
0.0
 11
91.9553565748
 21
141.1601278601
 31
0.0
  0
ARC
  5
207
330
1F
100
AcDbEntity
  8
0
  6
Continuous
 62
     7
370
    15
100
AcDbCircle
 10
88.1904604296
 20
129.0673009568
 30
0.0
 40
0.3373738499361437
100
AcDbArc
 50
316.9750311775
 51
352.2536859066
  0
ARC
  5
208
330
1F
100
AcDbEntity
  8
0
  6
Continuous
 62
     7
370
    15
100
AcDbCircle
 10
91.1808236804
 20
141.5085818212
 30
0.0
 40
0.8439714509432299
100
AcDbArc
 50
336.3904561991
 51
16.1165711856
  0
LINE
  5
209
330
1F
100
AcDbEntity
  8
0
  6
Continuous
 62
     7
370
    15
100
AcDbLine
 10
91.9916261321
 20
141.742861983
 30
0.0
 11
89.3068113785
 21
140.9937657086
 31
0.0
  0
ARC
  5
20A
330
1F
100
AcDbEntity
  8
0
  6
Continuous
 62
     7
370
    15
100
AcDbCircle
 10
89.541113348
 20
140.7750824022
 30
0.0
 40
0.3204993001672098
100
AcDbArc
 50
136.9747421214
 51
172.2539168258
  0
LINE
  5
20B
330
1F
100
AcDbEntity
  8
0
  6
Continuous
 62
     7
370
    15
100
AcDbLine
 10
89.2235385675
 20
140.8182803212
 30
0.0
 11
85.792937591
 21
128.6799797459
 31
0.0
  0
ARC
  5
20C
330
1F
100
AcDbEntity
  8
0
  6
Continuous
 62
     7
370
    15
100
AcDbCircle
 10
86.5662629753
 20
128.3419675534
 30
0.0
 40
0.843969426189875
100
AcDbArc
 50
156.3903798108
 51
196.11659535
  0
LINE
  5
20D
330
1F
100
AcDbEntity
  8
0
  6
Continuous
 62
     7
370
    15
100
AcDbLine
 10
85.7554625675
 20
128.1076876117
 30
0.0
 11
88.440277423
 21
128.8567838861
 31
0.0
  0
ARC
  5
20E
330
1F
100
AcDbEntity
  8
0
  6
Continuous
 62
     7
370
    15
100
AcDbCircle
 10
88.2059802788
 20
129.0754646735
 30
0.0
 40
0.3204940538846395
100
AcDbArc
 50
316.9744827416
 51
352.2544117502
  0
LINE
  5
20F
330
1F
100
AcDbEntity
  8
0
  6
Continuous
 62
     7
370
    15
100
AcDbLine
 10
88.523550234
 20
129.0322702048
 30
0.0
 11
91.9541513707
 21
141.1705698488
 31
0.0
  0
ARC
  5
210
330
1F
100
AcDbEntity
  8
0
  6
Continuous
 62
     7
370
    15
100
AcDbCircle
 10
97.2131322322
 20
140.4450801487
 30
0.0
 40
0.9741099662194463
100
AcDbArc
 50
337.6214691737
 51
13.772380449
  0
LINE
  5
211
330
1F
100
AcDbEntity
  8
0
  6
Continuous
 62
     7
370
    15
100
AcDbLine
 10
94.6832795583
 20
127.9359135447
 30
0.0
 11
98.1138807677
 21
140.0742131887
 31
0.0
  0
LINE
  5
212
330
1F
100
AcDbEntity
  8
0
  6
Continuous
 62
     7
370
    15
100
AcDbLine
 10
89.6741073068
 20
140.1260971693
 30
0.0
 11
89.459215333
 21
140.5823576866
 31
0.0
  0
ARC
  5
213
330
1F
100
AcDbEntity
  8
0
  6
Continuous
 62
     7
370
    15
100
AcDbCircle
 10
88.6100269922
 20
138.8989716434
 30
0.0
 40
2.220971553349192
100
AcDbArc
 50
336.3904134004
 51
16.1166018368
  0
LINE
  5
214
330
1F
100
AcDbEntity
  8
0
  6
Continuous
 62
     7
370
    15
100
AcDbLine
 10
88.7251103252
 20
131.2160987077
 30
0.0
 11
90.6450937458
 21
138.0094673155
 31
0.0
  0
LINE
  5
215
330
1F
100
AcDbEntity
  8
0
  6
Continuous
 62
     7
370
    15
100
AcDbLine
 10
87.0033770755
 20
130.3350507883
 30
0.0
 11
88.5059710548
 21
130.7542930959
 31
0.0
  0
ARC
  5
216
330
1F
100
AcDbEntity
  8
0
  6
Continuous
 62
     7
370
    15
100
AcDbCircle
 10
89.1370700405
 20
130.9515771015
 30
0.0
 40
2.220979595541835
100
AcDbArc
 50
156.3904539383
 51
196.1165440797
  0
LINE
  5
217
330
1F
100
AcDbEntity
  8
0
  6
Continuous
 62
     7
370
    15
100
AcDbLine
 10
89.0219784763
 20
138.6344499556
 30
0.0
 11
87.1019952886
 21
131.8410832105
 31
0.0
  0
ARC
  5
218
330
1F
100
AcDbEntity
  8
0
  6
Continuous
 62
     7
370
    15
100
AcDbCircle
 10
89.8577087118
 20
138.5207722103
 30
0.0
 40
0.8434261416218964
100
AcDbArc
 50
136.9749181659
 51
172.254048665
  0
LINE
  5
219
330
1F
100
AcDbEntity
  8
0
  6
Continuous
 62
     7
370
    15
100
AcDbLine
 10
90.7437116096
 20
139.515497875
 30
0.0
 11
89.2411177468
 21
139.0962574301
 31
0.0
  0
ARC
  5
21A
330
1F
100
AcDbEntity
  8
0
  6
Continuous
 62
     7
370
    15
100
AcDbCircle
 10
87.889384722
 20
131.329776576
 30
0.0
 40
0.8434215681908799
100
AcDbArc
 50
316.9747898465
 51
352.2539979714
  0
LWPOLYLINE
  5
21B
330
1F
100
AcDbEntity
  8
0
  6
Continuous
 62
     7
370
    15
100
AcDbPolyline
 90
       32
 70
   128
 43
0.0
 10
89.0290171795
 20
133.5782233296
 10
89.1484790903
 20
134.0397420941
 10
89.2566852693
 20
134.5375172464
 10
89.349205415
 20
135.0511658607
 10
89.4222520713
 20
135.5596605359
 10
89.4728345286
 20
136.0421843497
 10
89.4988819912
 20
136.4789802251
 10
89.4993280947
 20
136.8521686314
 10
89.4741546784
 20
137.1464684276
 10
89.4243920177
 20
137.3498338876
 10
89.3520776138
 20
137.4539352624
 10
89.2601719082
 20
137.454514545
 10
89.1524379097
 20
137.3515475212
 10
89.0332856637
 20
137.1492474942
 10
88.9075939033
 20
136.855897647
 10
88.7805079531
 20
136.4835064528
 10
88.6572308794
 20
136.0473233877
 10
88.542809752
 20
135.5652019052
 10
88.4419291236
 20
135.0568823187
 10
88.3587187112
 20
134.5431759624
 10
88.2965852928
 20
134.0451121001
 10
88.258072776
 20
133.5830811081
 10
88.2447576571
 20
133.1760000108
 10
88.2571849928
 20
132.8405357568
 10
88.2948465135
 20
132.5904197661
 10
88.3561997164
 20
132.4358928619
 10
88.4387330573
 20
132.3832824497
 10
88.5390676979
 20
132.4347398845
 10
88.65309604
 20
132.5881622402
 10
88.7761493635
 20
132.8372649519
 10
88.9031901445
 20
133.1718500374
 10
89.0290171795
 20
133.5782233296
  0
ARC
  5
21C
330
1F
100
AcDbEntity
  8
0
  6
Continuous
 62
     7
370
    15
100
AcDbCircle
 10
94.348995098
 20
127.9813818244
 30
0.0
 40
0.3373625125249075
100
AcDbArc
 50
316.9744867614
 51
352.2543482122
  0
LINE
  5
21D
330
1F
100
AcDbEntity
  8
0
  6
Continuous
 62
     7
370
    15
100
AcDbLine
 10
87.108512684
 20
129.4338518424
 30
0.0
 11
86.0286143564
 21
128.4440580426
 31
0.0
  0
LINE
  5
21E
330
1F
100
AcDbEntity
  8
0
  6
Continuous
 62
     7
370
    15
100
AcDbLine
 10
87.108512684
 20
129.4338518424
 30
0.0
 11
87.2333033897
 21
129.4686702682
 31
0.0
  0
LINE
  5
21F
330
1F
100
AcDbEntity
  8
0
  6
Continuous
 62
     7
370
    15
100
AcDbLine
 10
94.5587773297
 20
127.7409104301
 30
0.0
 11
94.5956239432
 21
127.7511913
 31
0.0
  0
SPLINE
  5
220
330
1F
100
AcDbEntity
  8
0
  6
Continuous
 62
     7
370
    15
100
AcDbSpline
210
0.0
220
0.0
230
1.0
 70
     8
 71
     3
 72
    10
 73
     6
 74
     0
 42
0.00000001
 43
0.00000001
 12
1.0
 22
0.0
 32
0.0
 13
1.0
 23
0.0
 33
0.0
 40
0.0
 40
0.0
 40
0.0
 40
0.0
 40
0.4961666160833064
 40
0.991747162113061
 40
1.0
 40
1.0
 40
1.0
 40
1.0
 10
89.67410730684627
 20
140.1260971693296
 30
0.0
 10
89.69662652910642
 20
140.0587026320634
 30
0.0
 10
89.74163837401007
 20
139.923993163693
 30
0.0
 10
89.7399587344393
 20
139.7788918759465
 30
0.0
 10
89.70852512794036
 20
139.7197611218227
 30
0.0
 10
89.70801024253
 20
139.7187925545473
 30
0.0
  0
LINE
  5
221
330
1F
100
AcDbEntity
  8
0
  6
Continuous
 62
     7
370
    15
100
AcDbLine
 10
87.1796219565
 20
129.6854532925
 30
0.0
 11
87.108512684
 21
129.4338518424
 31
0.0
  0
LINE
  5
222
330
1F
100
AcDbEntity
  8
0
  6
Continuous
 62
     7
370
    15
100
AcDbLine
 10
94.7570386764
 20
128.1968915505
 30
0.0
 11
97.841696623
 21
139.111160454
 31
0.0
  0
LINE
  5
223
330
1F
100
AcDbEntity
  8
0
  6
Continuous
 62
     7
370
    15
100
AcDbLine
 10
97.5501959168
 20
127.704382096
 30
0.0
 11
100.6348545619
 21
138.6186528621
 31
0.0
  0
LINE
  5
224
330
1F
100
AcDbEntity
  8
0
  6
Continuous
 62
     7
370
    15
100
AcDbLine
 10
100.9077302136
 20
138.7239835827
 30
0.0
 11
97.8230715685
 21
127.8097128166
 31
0.0
  0
ARC
  5
225
330
1F
100
AcDbEntity
  8
0
  6
Continuous
 62
     7
370
    15
100
AcDbCircle
 10
98.3830024064
 20
139.545817364
 30
0.0
 40
2.435256073483364
100
AcDbArc
 50
337.6213603878
 51
13.7725367528
  0
ARC
  5
226
330
1F
100
AcDbEntity
  8
0
  6
Continuous
 62
     7
370
    15
100
AcDbCircle
 10
99.0078083103
 20
139.4288382458
 30
0.0
 40
2.026455855570657
100
AcDbArc
 50
339.6455799559
 51
9.5287970488
  0
ARC
  5
227
330
1F
100
AcDbEntity
  8
0
  6
Continuous
 62
     7
370
    15
100
AcDbCircle
 10
96.5694382107
 20
127.869090502
 30
0.0
 40
0.9944920999735377
100
AcDbArc
 50
321.6321403647
 51
350.4667101122
  0
ARC
  5
228
330
1F
100
AcDbEntity
  8
0
  6
Continuous
 62
     7
370
    15
100
AcDbCircle
 10
96.2954577283
 20
128.2203384018
 30
0.0
 40
1.581839883144368
100
AcDbArc
 50
336.6694485395
 51
344.9544230615
  0
LWPOLYLINE
  5
229
330
1F
100
AcDbEntity
  8
0
  6
Continuous
 62
     7
370
    15
100
AcDbPolyline
 90
       38
 70
   128
 43
0.0
 10
85.4858386286
 20
125.2611895693
 10
85.6286848851
 20
125.5929089753
 10
85.7655948915
 20
125.8384437902
 10
85.8926305503
 20
125.990729001
 10
86.0061368861
 20
126.0453864602
 10
86.1028486818
 20
126.0008413015
 10
86.1799831458
 20
125.8583759559
 10
86.2353223332
 20
125.6220891742
 10
86.2672732167
 20
125.2987777485
 10
86.2749170467
 20
124.8977437286
 10
86.2580340311
 20
124.4305234073
 10
86.2171098545
 20
123.9105585633
 10
86.1533212431
 20
123.3528062372
 10
86.0685042992
 20
122.7733131168
 10
85.9650981568
 20
122.1887503421
 10
85.8460783914
 20
121.6159338733
 10
85.7148680791
 20
121.0713434635
 10
85.5752428018
 20
120.5706448896
 10
85.4312188879
 20
120.1282433836
 10
85.286939326
 20
119.7568654684
 10
85.1465554863
 20
119.4671952767
 10
85.0141055838
 20
119.2675658172
 10
84.8933996588
 20
119.1637205562
 10
84.7879106134
 20
119.1586462451
 10
84.7006731622
 20
119.2524895674
 10
84.6341967538
 20
119.4425501531
 10
84.5903943248
 20
119.7233606731
 10
84.5705250234
 20
120.0868428355
 10
84.5751616128
 20
120.5225397503
 10
84.604169517
 20
121.0179172127
 10
84.6567152024
 20
121.5587236589
 10
84.7312866666
 20
122.1294022767
 10
84.8257381425
 20
122.7135343147
 10
84.9373534277
 20
123.2943163855
 10
85.0629208565
 20
123.8550396306
 10
85.1988282942
 20
124.3795744745
 10
85.3411655829
 20
124.8528288348
 10
85.4858386286
 20
125.2611895693
  0
LWPOLYLINE
  5
22A
330
1F
100
AcDbEntity
  8
0
  6
Continuous
 62
     7
370
    15
100
AcDbPolyline
 90
       29
 70
   128
 43
0.0
 10
85.4586267799
 20
124.1194253458
 10
85.5658806816
 20
124.3596721111
 10
85.6659368567
 20
124.5115345014
 10
85.7537787363
 20
124.5673980234
 10
85.8250006989
 20
124.5244612588
 10
85.8760320537
 20
124.3848764939
 10
85.9043135263
 20
124.1556444807
 10
85.9084267125
 20
123.8482596023
 10
85.8881662555
 20
123.478134316
 10
85.8445472971
 20
123.0638289494
 10
85.7797575139
 20
122.6261185152
 10
85.697045359
 20
122.1869519582
 10
85.6005584777
 20
121.7683504006
 10
85.4951350905
 20
121.3913049219
 10
85.3860623159
 20
121.0747213704
 10
85.2788084142
 20
120.8344746051
 10
85.1787517734
 20
120.6826122148
 10
85.0909103595
 20
120.6267491585
 10
85.0196883969
 20
120.6696859231
 10
84.9686570421
 20
120.8092702223
 10
84.9403755695
 20
121.0385022355
 10
84.9362619177
 20
121.3458875796
 10
84.9565228403
 20
121.7160128659
 10
85.0001417987
 20
122.1303177668
 10
85.0649315819
 20
122.568028201
 10
85.1476437368
 20
123.0071952237
 10
85.2441306181
 20
123.42579585
 10
85.3495535396
 20
123.8028417943
 10
85.4586267799
 20
124.1194253458
  0
SPLINE
  5
22B
330
1F
100
AcDbEntity
  8
0
  6
Continuous
 62
     7
370
    15
100
AcDbSpline
210
0.0
220
0.0
230
1.0
 70
     8
 71
     3
 72
     9
 73
     5
 74
     0
 42
0.00000001
 43
0.00000001
 12
1.0
 22
0.0
 32
0.0
 13
1.0
 23
0.0
 33
0.0
 40
0.0
 40
0.0
 40
0.0
 40
0.0
 40
0.7499560818351839
 40
1.0
 40
1.0
 40
1.0
 40
1.0
 10
85.8888898931675
 20
123.5810789881248
 30
0.0
 10
85.81178168323422
 20
123.4647540389326
 30
0.0
 10
85.70896471594648
 20
123.309645023872
 30
0.0
 10
85.54095569610642
 20
123.1829225507386
 30
0.0
 10
85.49894606249858
 20
123.1512363670368
 30
0.0
  0
SPLINE
  5
22C
330
1F
100
AcDbEntity
  8
0
  6
Continuous
 62
     7
370
    15
100
AcDbSpline
210
0.0
220
0.0
230
1.0
 70
     8
 71
     3
 72
    11
 73
     7
 74
     0
 42
0.00000001
 43
0.00000001
 12
1.0
 22
0.0
 32
0.0
 13
1.0
 23
0.0
 33
0.0
 40
0.0
 40
0.0
 40
0.0
 40
0.0
 40
0.2164502047420483
 40
0.4402999182890491
 40
0.7518917121094614
 40
1.0
 40
1.0
 40
1.0
 40
1.0
 10
85.49894606249858
 20
123.1512363670368
 30
0.0
 10
85.5353538064952
 20
123.0266241410382
 30
0.0
 10
85.60941391988663
 20
122.7731397288135
 30
0.0
 10
85.63729223314617
 20
122.3220537250098
 30
0.0
 10
85.51750287918173
 20
121.8645667956528
 30
0.0
 10
85.33995791808158
 20
121.5895877994678
 30
0.0
 10
85.2612543806665
 20
121.4676929308075
 30
0.0
  0
SPLINE
  5
22D
330
1F
100
AcDbEntity
  8
0
  6
Continuous
 62
     7
370
    15
100
AcDbSpline
210
0.0
220
0.0
230
1.0
 70
     8
 71
     3
 72
     9
 73
     5
 74
     0
 42
0.00000001
 43
0.00000001
 12
1.0
 22
0.0
 32
0.0
 13
1.0
 23
0.0
 33
0.0
 40
0.0
 40
0.0
 40
0.0
 40
0.0
 40
0.8999276080520248
 40
1.0
 40
1.0
 40
1.0
 40
1.0
 10
85.2612543806665
 20
121.4676929308075
 30
0.0
 10
85.33254147790998
 20
121.4167749524082
 30
0.0
 10
85.41175573537431
 20
121.3601948698062
 30
0.0
 10
85.45287126060458
 20
121.3062974151144
 30
0.0
 10
85.45698578956056
 20
121.3009037679035
 30
0.0
  0
LINE
  5
22E
330
1F
100
AcDbEntity
  8
0
  6
Continuous
 62
     7
370
    15
100
AcDbLine
 10
85.5053475082
 20
121.4246527893
 30
0.0
 11
85.2612543807
 21
121.4676929308
 31
0.0
  0
LINE
  5
22F
330
1F
100
AcDbEntity
  8
0
  6
Continuous
 62
     7
370
    15
100
AcDbLine
 10
85.8478087887
 20
123.089722511
 30
0.0
 11
85.4989460625
 21
123.151236367
 31
0.0
  0
ELLIPSE
  5
230
330
1F
100
AcDbEntity
  8
0
  6
Continuous
 62
     7
370
    15
100
AcDbEllipse
 10
89.007050848
 20
134.2585165607
 30
0.0
 11
0.4089826913515395
 21
2.316322506802862
 31
0.0
210
0.0
220
0.0
230
1.0
 40
0.1735685188
 41
6.045086366099474
 42
7.385751394917051
  0
SPLINE
  5
231
330
1F
100
AcDbEntity
  8
0
  6
Continuous
 62
     7
370
    15
100
AcDbSpline
210
0.0
220
0.0
230
1.0
 70
     8
 71
     3
 72
    24
 73
    20
 74
     0
 42
0.00000001
 43
0.00000001
 12
1.0
 22
0.0
 32
0.0
 13
1.0
 23
0.0
 33
0.0
 40
0.0
 40
0.0
 40
0.0
 40
0.0
 40
0.0231178347940464
 40
0.0463925506430569
 40
0.0698260997300712
 40
0.0934203948126048
 40
0.1171773098212885
 40
0.1763148816774539
 40
0.2365741604172117
 40
0.2968006953896302
 40
0.3582739743217839
 40
0.4822714475898228
 40
0.6085513708089832
 40
0.6719563062880619
 40
0.7370428199722951
 40
0.8013807246526597
 40
0.8675860346283648
 40
0.9327384786275916
 40
1.0
 40
1.0
 40
1.0
 40
1.0
 10
101.0464838428696
 20
139.6493768570692
 30
0.0
 10
101.1650630286579
 20
139.5914885392572
 30
0.0
 10
101.4030260961727
 20
139.4753190649247
 30
0.0
 10
101.7563918794461
 20
139.2936661528897
 30
0.0
 10
102.1085258255255
 20
139.1058607680859
 30
0.0
 10
102.4589779406802
 20
138.9113935796098
 30
0.0
 10
102.9800374843439
 20
138.6110799417217
 30
0.0
 10
103.6658239430983
 20
138.1893511378468
 30
0.0
 10
104.4989415867605
 20
137.6295609480497
 30
0.0
 10
105.3143464133615
 20
137.0329721285194
 30
0.0
 10
106.3757651049513
 20
136.1895936311149
 30
0.0
 10
107.6453996058022
 20
135.0505323817506
 30
0.0
 10
108.8160010939102
 20
133.8228262465589
 30
0.0
 10
109.7004876174889
 20
132.7822576920023
 30
0.0
 10
110.3360798094856
 20
131.9737364205419
 30
0.0
 10
110.9465127040031
 20
131.1337694739946
 30
0.0
 10
111.5217063110628
 20
130.274679203688
 30
0.0
 10
112.0726047607734
 20
129.3863438985669
 30
0.0
 10
112.4097271448959
 20
128.7805237512
 30
0.0
 10
112.5809731640082
 20
128.4727889539254
 30
0.0
  0
SPLINE
  5
232
330
1F
100
AcDbEntity
  8
0
  6
Continuous
 62
     7
370
    15
100
AcDbSpline
210
0.0
220
0.0
230
1.0
 70
    24
 71
     3
 72
     9
 73
     5
 74
     0
 42
0.00000001
 43
0.00000001
 12
1.0
 22
0.0
 32
0.0
 13
1.0
 23
0.0
 33
0.0
 40
0.0
 40
0.0
 40
0.0
 40
0.0
 40
0.4999999838847328
 40
1.0
 40
1.0
 40
1.0
 40
1.0
 10
112.5809733636909
 20
128.4727877443527
 30
0.0
 10
112.5809733636909
 20
128.3383982442534
 30
0.0
 10
112.5809733636908
 20
128.0696192353917
 30
0.0
 10
112.5809733636909
 20
127.8009975014051
 30
0.0
 10
112.5809733636909
 20
127.6666866300829
 30
0.0
  0
SPLINE
  5
233
330
1F
100
AcDbEntity
  8
0
  6
Continuous
 62
     7
370
    15
100
AcDbSpline
210
0.0
220
0.0
230
1.0
 70
     8
 71
     3
 72
    24
 73
    20
 74
     0
 42
0.00000001
 43
0.00000001
 12
1.0
 22
0.0
 32
0.0
 13
1.0
 23
0.0
 33
0.0
 40
0.0
 40
0.0
 40
0.0
 40
0.0
 40
0.0333454966135393
 40
0.0665643023467994
 40
0.0996659215084083
 40
0.132659959677934
 40
0.1982782834428778
 40
0.2634124950857697
 40
0.3279993181623881
 40
0.3920583009821021
 40
0.5184166994394789
 40
0.6424013148285218
 40
0.7034789066049245
 40
0.763986330578518
 40
0.8238526138705881
 40
0.883159025272728
 40
0.9223438935295019
 40
0.9612798226830966
 40
1.0
 40
1.0
 40
1.0
 40
1.0
 10
112.5809720046565
 20
127.6666865629839
 30
0.0
 10
112.4987749147145
 20
127.8235874568056
 30
0.0
 10
112.3346930295252
 20
128.1367931246015
 30
0.0
 10
112.0771541004706
 20
128.6008188833391
 30
0.0
 10
111.811865395807
 20
129.0594029780495
 30
0.0
 10
111.4474619264405
 20
129.6618749023014
 30
0.0
 10
110.9715549785299
 20
130.4000945427361
 30
0.0
 10
110.3673497593804
 20
131.2620586482768
 30
0.0
 10
109.7320411041575
 20
132.0973376731764
 30
0.0
 10
108.8489726343228
 20
133.1684618950029
 30
0.0
 10
107.6739733612472
 20
134.4344402656384
 30
0.0
 10
106.3982521807567
 20
135.6055913174892
 30
0.0
 10
105.3282670016756
 20
136.4733719530153
 30
0.0
 10
104.5067032618542
 20
137.085797625811
 30
0.0
 10
103.663339503296
 20
137.6621158093953
 30
0.0
 10
102.8945620844639
 20
138.1421845428928
 30
0.0
 10
102.2093747615645
 20
138.5371423816775
 30
0.0
 10
101.6157909233576
 20
138.8591059402304
 30
0.0
 10
101.2117134475835
 20
139.0600283046049
 30
0.0
 10
101.0102360335996
 20
139.1602103756499
 30
0.0
  0
LINE
  5
234
330
1F
100
AcDbEntity
  8
0
  6
Continuous
 62
     7
370
    15
100
AcDbLine
 10
101.0102371641
 20
139.1602094887
 30
0.0
 11
101.0464833074
 21
139.6493754951
 31
0.0
  0
LINE
  5
235
330
1F
100
AcDbEntity
  8
0
  6
Continuous
 62
     7
370
    15
100
AcDbLine
 10
100.9868488603
 20
139.0774577526
 30
0.0
 11
101.0102371641
 21
139.1602094887
 31
0.0
  0
LINE
  5
236
330
1F
100
AcDbEntity
  8
0
  6
Continuous
 62
     7
370
    15
100
AcDbLine
 10
112.5809739299
 20
127.6666868148
 30
0.0
 11
112.5809739299
 21
125.9108261807
 31
0.0
  0
ARC
  5
237
330
1F
100
AcDbEntity
  8
0
  6
Continuous
 62
     7
370
    15
100
AcDbCircle
 10
167.0912932494
 20
109.0187379976
 30
0.0
 40
71.78811661561208
100
AcDbArc
 50
165.0041277457
 51
165.3317197077
  0
ELLIPSE
  5
238
330
1F
100
AcDbEntity
  8
0
  6
Continuous
 62
     7
370
    15
100
AcDbEllipse
 10
91.0809733637
 20
112.9444179465
 30
0.0
 11
21.34433516642887
 21
24.7574529864233
 31
0.0
210
0.0
220
0.0
230
1.0
 40
0.5257454837
 41
0.6131782568422864
 42
0.6137461297539059
  0
ARC
  5
239
330
1F
100
AcDbEntity
  8
0
  6
Continuous
 62
     7
370
    15
100
AcDbCircle
 10
175.7488130332
 20
106.2136728947
 30
0.0
 40
89.92384566216215
100
AcDbArc
 50
165.4703787998
 51
170.085544279
  0
LINE
  5
23A
330
1F
100
AcDbEntity
  8
0
  6
Continuous
 62
     7
370
    15
100
AcDbLine
 10
88.7009057172
 20
128.7738114266
 30
0.0
 11
97.64288859
 21
127.1970981402
 31
0.0
  0
LINE
  5
23B
330
1F
100
AcDbEntity
  8
0
  6
Continuous
 62
     7
370
    15
100
AcDbLine
 10
112.5809739299
 20
125.9108261807
 30
0.0
 11
112.5809739299
 21
117.2155373866
 31
0.0
  0
LINE
  5
23C
330
1F
100
AcDbEntity
  8
0
  6
Continuous
 62
     7
370
    15
100
AcDbLine
 10
86.7790731557
 20
132.1838751106
 30
0.0
 11
86.4300423257
 21
132.0864904342
 31
0.0
  0
LWPOLYLINE
  5
23D
330
1F
100
AcDbEntity
  8
0
  6
Continuous
 62
     7
370
    15
100
AcDbPolyline
 90
       15
 70
   128
 43
0.0
 10
86.4300423257
 20
132.0864904342
 10
86.335315644
 20
132.010589507
 10
86.228607963
 20
131.8348861901
 10
86.115271128
 20
131.5681889323
 10
86.0009876035
 20
131.2238715259
 10
85.8914887488
 20
130.8192006914
 10
85.7922642447
 20
130.374468085
 10
85.7082906135
 20
129.9119742257
 10
85.6437783644
 20
129.4549099771
 10
85.6019624464
 20
129.0261942564
 10
85.5849392668
 20
128.6473257137
 10
85.5935628481
 20
128.3373014672
 10
85.6274005912
 20
128.1116680844
 10
85.684756092
 20
127.981739272
 10
85.762752495
 20
127.9540305627
  0
LINE
  5
23E
330
1F
100
AcDbEntity
  8
0
  6
Continuous
 62
     7
370
    15
100
AcDbLine
 10
87.1678975366
 20
121.6965482241
 30
0.0
 11
85.9579032243
 21
114.8343283499
 31
0.0
  0
LINE
  5
23F
330
1F
100
AcDbEntity
  8
0
  6
Continuous
 62
     7
370
    15
100
AcDbLine
 10
85.9579032243
 20
114.8343283499
 30
0.0
 11
80.7371952527
 21
97.6859882144
 31
0.0
  0
ARC
  5
240
330
1F
100
AcDbEntity
  8
0
  6
Continuous
 62
     7
370
    15
100
AcDbCircle
 10
92.0809733637
 20
114.7613703875
 30
0.0
 40
20.49999999999999
100
AcDbArc
 50
233.5616855813
 51
236.4025128777
  0
SPLINE
  5
241
330
1F
100
AcDbEntity
  8
0
  6
Continuous
 62
     7
370
    15
100
AcDbSpline
210
0.0
220
0.0
230
1.0
 70
     8
 71
     3
 72
    14
 73
    10
 74
     0
 42
0.00000001
 43
0.00000001
 12
1.0
 22
0.0
 32
0.0
 13
1.0
 23
0.0
 33
0.0
 40
0.0
 40
0.0
 40
0.0
 40
0.0
 40
0.25
 40
0.25
 40
0.5
 40
0.5
 40
0.75
 40
0.75
 40
1.0
 40
1.0
 40
1.0
 40
1.0
 10
79.90485493273381
 20
98.26918617934197
 30
0.0
 10
79.91224244909176
 20
98.35335085940872
 30
0.0
 10
79.91730328058554
 20
98.43443604489417
 30
0.0
 10
79.92203608022665
 20
98.58093922182974
 30
0.0
 10
79.92183825596592
 20
98.64738431838511
 30
0.0
 10
79.91563798170594
 20
98.76486667782301
 30
0.0
 10
79.90977377598527
 20
98.81321143968935
 30
0.0
 10
79.89218569674858
 20
98.88775439180542
 30
0.0
 10
79.88026929713763
 20
98.91387313937201
 30
0.0
 10
79.86548249643232
 20
98.92527923872287
 30
0.0
  0
ARC
  5
242
330
1F
100
AcDbEntity
  8
0
  6
Continuous
 62
     7
370
    15
100
AcDbCircle
 10
92.0809733637
 20
114.7613703875
 30
0.0
 40
19.99999999999998
100
AcDbArc
 50
231.3629782361
 51
232.3544714134
  0
ARC
  5
243
330
1F
100
AcDbEntity
  8
0
  6
Continuous
 62
     7
370
    15
100
AcDbCircle
 10
92.0809733637
 20
114.7613703875
 30
0.0
 40
20.00000000000006
100
AcDbArc
 50
107.6455285866
 51
108.6370217639
  0
SPLINE
  5
244
330
1F
100
AcDbEntity
  8
0
  6
Continuous
 62
     7
370
    15
100
AcDbSpline
210
0.0
220
0.0
230
1.0
 70
     8
 71
     3
 72
    10
 73
     6
 74
     0
 42
0.00000001
 43
0.00000001
 12
1.0
 22
0.0
 32
0.0
 13
1.0
 23
0.0
 33
0.0
 40
0.0
 40
0.0
 40
0.0
 40
0.0
 40
0.5
 40
0.5
 40
1.0
 40
1.0
 40
1.0
 40
1.0
 10
86.01842890086833
 20
133.820372319283
 30
0.0
 10
86.06324189567708
 20
133.8346270412518
 30
0.0
 10
86.12091221190973
 20
133.9401544242301
 30
0.0
 10
86.2376069723762
 20
134.2581941231407
 30
0.0
 10
86.29524713387853
 20
134.4653950558838
 30
0.0
 10
86.34537398298279
 20
134.6937432303706
 30
0.0
  0
SPLINE
  5
245
330
1F
100
AcDbEntity
  8
0
  6
Continuous
 62
     7
370
    15
100
AcDbSpline
210
0.0
220
0.0
230
1.0
 70
     8
 71
     3
 72
     8
 73
     4
 74
     0
 42
0.00000001
 43
0.00000001
 12
1.0
 22
0.0
 32
0.0
 13
1.0
 23
0.0
 33
0.0
 40
0.0
 40
0.0
 40
0.0
 40
0.0
 40
1.0
 40
1.0
 40
1.0
 40
1.0
 10
86.34537398298279
 20
134.6937432303706
 30
0.0
 10
86.6306324258668
 20
135.9932113967021
 30
0.0
 10
86.91680849474265
 20
137.2907258520678
 30
0.0
 10
87.20355115979685
 20
138.5870339715441
 30
0.0
  0
LWPOLYLINE
  5
246
330
1F
100
AcDbEntity
  8
0
  6
Continuous
 62
     7
370
    15
100
AcDbPolyline
 90
       38
 70
   128
 43
0.0
 10
86.0391997688
 20
122.5970733581
 10
85.9307574995
 20
122.0142838215
 10
85.8076888092
 20
121.448259954
 10
85.6735345863
 20
120.9152854649
 10
85.5321542315
 20
120.430692718
 10
85.3876143649
 20
120.0084231464
 10
85.2440742731
 20
119.6606239906
 10
85.1056620434
 20
119.3973013801
 10
84.9763609424
 20
119.2260302274
 10
84.8598892756
 20
119.1517381599
 10
84.7595988728
 20
119.1765616318
 10
84.6783740401
 20
119.29978725
 10
84.6185523972
 20
119.517869935
 10
84.5818540968
 20
119.8245353667
 10
84.5693352588
 20
120.2109620577
 10
84.5813558392
 20
120.6660328103
 10
84.6175698519
 20
121.1766555576
 10
84.6769360781
 20
121.7281414798
 10
84.7577464722
 20
122.3046250312
 10
84.8576759875
 20
122.8895216851
 10
84.9738500968
 20
123.4660057021
 10
85.102926749
 20
124.0174911587
 10
85.2411918298
 20
124.5281139059
 10
85.3846690573
 20
124.9831851242
 10
85.529229413
 20
125.3696113495
 10
85.6707154729
 20
125.6762772469
 10
85.8050559603
 20
125.8943594662
 10
85.9283868179
 20
126.0175846187
 10
86.0371597067
 20
126.042409022
 10
86.1282453828
 20
125.9681164889
 10
86.1990235701
 20
125.7968453361
 10
86.2474583976
 20
125.53352226
 10
86.2721556753
 20
125.1857235698
 10
86.2724057354
 20
124.7634535326
 10
86.2482011274
 20
124.2788612513
 10
86.2002380148
 20
123.7458867623
 10
86.1298966177
 20
123.1798633603
 10
86.0391997688
 20
122.5970733581
  0
LINE
  5
247
330
1F
100
AcDbEntity
  8
0
  6
Continuous
 62
     7
370
    15
100
AcDbLine
 10
85.762752495
 20
127.9540305627
 30
0.0
 11
88.7009057172
 21
128.7738114266
 31
0.0
  0
ELLIPSE
  5
248
330
1F
100
AcDbEntity
  8
0
  6
Continuous
 62
     7
370
    15
100
AcDbEllipse
 10
91.0809733637
 20
118.7604949677
 30
0.0
 11
21.34433516642886
 21
24.75745298642329
 31
0.0
210
0.0
220
0.0
230
1.0
 40
0.5257454837
 41
1.108807831272436
 42
1.178915884234284
  0
LINE
  5
249
330
1F
100
AcDbEntity
  8
0
  6
Continuous
 62
     7
370
    15
100
AcDbLine
 10
112.5809739299
 20
117.2155373866
 30
0.0
 11
112.5809739299
 21
114.7613703875
 31
0.0
  0
ARC
  5
24A
330
1F
100
AcDbEntity
  8
0
  6
Continuous
 62
     7
370
    15
100
AcDbCircle
 10
92.0809733637
 20
114.7613703875
 30
0.0
 40
20.50000000000001
100
AcDbArc
 50
347.2280097688
 51
0.0
  0
LINE
  5
24B
330
1F
100
AcDbEntity
  8
0
  6
Continuous
 62
     7
370
    15
100
AcDbLine
 10
112.0737533041
 20
110.2293992085
 30
0.0
 11
85.9579032243
 21
114.8343283499
 31
0.0
  0
ARC
  5
24C
330
1F
100
AcDbEntity
  8
0
  6
Continuous
 62
     7
370
    15
100
AcDbCircle
 10
92.0809733637
 20
114.7613703875
 30
0.0
 40
20.50000000000001
100
AcDbArc
 50
236.4025128777
 51
347.2280097688
  0
SPLINE
  5
24D
330
1F
100
AcDbEntity
  8
0
  6
Continuous
 62
     7
370
    15
100
AcDbSpline
210
0.0
220
0.0
230
1.0
 70
     8
 71
     3
 72
    12
 73
     8
 74
     0
 42
0.00000001
 43
0.00000001
 12
1.0
 22
0.0
 32
0.0
 13
1.0
 23
0.0
 33
0.0
 40
0.0
 40
0.0
 40
0.0
 40
0.0
 40
0.2500000000000007
 40
0.2500000000000007
 40
0.5000000000000013
 40
0.5000000000000013
 40
1.0
 40
1.0
 40
1.0
 40
1.0
 10
85.06029482310099
 20
133.488625200449
 30
0.0
 10
85.13485590603565
 20
133.5165774764313
 30
0.0
 10
85.20619048559865
 20
133.5428125138918
 30
0.0
 10
85.3419063727988
 20
133.5919355425925
 30
0.0
 10
85.40619848586533
 20
133.6147763206096
 30
0.0
 10
85.5745145805498
 20
133.6738037025989
 30
0.0
 10
85.65891495333923
 20
133.7022840501708
 30
0.0
 10
85.68954046736609
 20
133.7126127090785
 30
0.0
  0
SPLINE
  5
24E
330
1F
100
AcDbEntity
  8
0
  6
Continuous
 62
     7
370
    15
100
AcDbSpline
210
0.0
220
0.0
230
1.0
 70
     8
 71
     3
 72
    10
 73
     6
 74
     0
 42
0.00000001
 43
0.00000001
 12
1.0
 22
0.0
 32
0.0
 13
1.0
 23
0.0
 33
0.0
 40
0.0
 40
0.0
 40
0.0
 40
0.0
 40
0.5
 40
0.5
 40
1.0
 40
1.0
 40
1.0
 40
1.0
 10
79.59328441973508
 20
99.13902661841436
 30
0.0
 10
79.5681022935281
 20
99.159155900145
 30
0.0
 10
79.5002417144682
 20
99.21339183944221
 30
0.0
 10
79.31428516489665
 20
99.36571781297813
 30
0.0
 10
79.19942872230888
 20
99.46133453455005
 30
0.0
 10
79.07859517096219
 20
99.56472071286036
 30
0.0
  0
ELLIPSE
  5
24F
330
1F
100
AcDbEntity
  8
0
  6
Continuous
 62
     7
370
    15
100
AcDbEllipse
 10
80.1861654968
 20
123.4503945974
 30
0.0
 11
1.795482621286552
 21
2.111692994981865
 31
0.0
210
0.0
220
0.0
230
1.0
 40
0.7389313757
 41
0.0
 42
6.283185307179586
  0
ARC
  5
250
330
1F
100
AcDbEntity
  8
0
  6
Continuous
 62
     7
370
    15
100
AcDbCircle
 10
92.0809733637
 20
114.7613703875
 30
0.0
 40
20.0
100
AcDbArc
 50
110.5505677501
 51
229.4494322499
  0
SPLINE
  5
251
330
1F
100
AcDbEntity
  8
0
  6
Continuous
 62
     7
370
    15
100
AcDbSpline
210
0.0
220
0.0
230
1.0
 70
     8
 71
     3
 72
    15
 73
    11
 74
     0
 42
0.00000001
 43
0.00000001
 12
1.0
 22
0.0
 32
0.0
 13
1.0
 23
0.0
 33
0.0
 40
0.0
 40
0.0
 40
0.0
 40
0.0
 40
0.0330056709272122
 40
0.1899202388194006
 40
0.262261454385945
 40
0.3351017131644588
 40
0.4750953380961321
 40
0.6613611333845802
 40
0.8528540510223536
 40
1.0
 40
1.0
 40
1.0
 40
1.0
 10
79.83060301768113
 20
121.0243894388873
 30
0.0
 10
79.82117777065662
 20
121.0522432833966
 30
0.0
 10
79.76694329774517
 20
121.2125190376117
 30
0.0
 10
79.69174610152285
 20
121.4122971345513
 30
0.0
 10
79.69690334247365
 20
121.6113575161043
 30
0.0
 10
79.81328006410226
 20
121.7268766185864
 30
0.0
 10
80.07447645664517
 20
121.7674028336034
 30
0.0
 10
80.40507084039125
 20
121.7319229817224
 30
0.0
 10
80.72611965103206
 20
121.6402249099944
 30
0.0
 10
80.85930249801288
 20
121.5022761493543
 30
0.0
 10
80.91717334019471
 20
121.4423344140846
 30
0.0
  0
ARC
  5
252
330
1F
100
AcDbEntity
  8
0
  6
Continuous
 62
     7
370
    15
100
AcDbCircle
 10
78.0481817811
 20
119.0647564125
 30
0.0
 40
2.507721388234625
100
AcDbArc
 50
49.2627023484
 51
87.196844337
  0
INSERT
  5
25E
330
1F
100
AcDbEntity
  8
VERMASSUNG
100
AcDbBlockReference
  2
SW_CENTERMARKSYMBOL_0
 10
92.0809733637
 20
114.7613703875
 30
0.0
  0
OLE2FRAME
  5
25F
330
1F
100
AcDbEntity
  8
0
100
AcDbOle2Frame
 70
     2
  3
Paintbrush-Bild
 10
13.8511154363
 20
38.264191557
 30
0.0
 11
51.6290888628
 21
31.9806341108
 31
0.0
 71
     2
 72
     0
 73
     1
 90
    12928
310
80552BED0767C5B32B40DDAF6807D121434000000000000000006FFBDDFB85D0
310
4940DDAF6807D121434000000000000000006FFBDDFB85D04940416F4BD60AFB
310
3F4000000000000000002BED0767C5B32B40416F4BD60AFB3F40000000000000
310
0000000000000100000000010000010000000100000000000100000000320000
310
D0CF11E0A1B11AE1000000000000000000000000000000003E000300FEFF0900
310
0600000000000000000000000100000001000000000000000010000002000000
310
01000000FEFFFFFF0000000000000000FFFFFFFFFFFFFFFFFFFFFFFFFFFFFFFF
310
FFFFFFFFFFFFFFFFFFFFFFFFFFFFFFFFFFFFFFFFFFFFFFFFFFFFFFFFFFFFFFFF
310
FFFFFFFFFFFFFFFFFFFFFFFFFFFFFFFFFFFFFFFFFFFFFFFFFFFFFFFFFFFFFFFF
310
FFFFFFFFFFFFFFFFFFFFFFFFFFFFFFFFFFFFFFFFFFFFFFFFFFFFFFFFFFFFFFFF
310
FFFFFFFFFFFFFFFFFFFFFFFFFFFFFFFFFFFFFFFFFFFFFFFFFFFFFFFFFFFFFFFF
310
FFFFFFFFFFFFFFFFFFFFFFFFFFFFFFFFFFFFFFFFFFFFFFFFFFFFFFFFFFFFFFFF
310
FFFFFFFFFFFFFFFFFFFFFFFFFFFFFFFFFFFFFFFFFFFFFFFFFFFFFFFFFFFFFFFF
310
FFFFFFFFFFFFFFFFFFFFFFFFFFFFFFFFFFFFFFFFFFFFFFFFFFFFFFFFFFFFFFFF
310
FFFFFFFFFFFFFFFFFFFFFFFFFFFFFFFFFFFFFFFFFFFFFFFFFFFFFFFFFFFFFFFF
310
FFFFFFFFFFFFFFFFFFFFFFFFFFFFFFFFFFFFFFFFFFFFFFFFFFFFFFFFFFFFFFFF
310
FFFFFFFFFFFFFFFFFFFFFFFFFFFFFFFFFFFFFFFFFFFFFFFFFFFFFFFFFFFFFFFF
310
FFFFFFFFFFFFFFFFFFFFFFFFFFFFFFFFFFFFFFFFFFFFFFFFFFFFFFFFFFFFFFFF
310
FFFFFFFFFFFFFFFFFFFFFFFFFFFFFFFFFFFFFFFFFFFFFFFFFFFFFFFFFFFFFFFF
310
FFFFFFFFFFFFFFFFFFFFFFFFFFFFFFFFFFFFFFFFFFFFFFFFFFFFFFFFFFFFFFFF
310
FDFFFFFFFEFFFFFFFEFFFFFFFEFFFFFF05000000060000000700000008000000
310
090000000A0000000B0000000C0000000D0000000E0000000F00000010000000
310
11000000120000001300000014000000150000001600000017000000FEFFFFFF
310
FFFFFFFFFFFFFFFFFFFFFFFFFFFFFFFFFFFFFFFFFFFFFFFFFFFFFFFFFFFFFFFF
310
FFFFFFFFFFFFFFFFFFFFFFFFFFFFFFFFFFFFFFFFFFFFFFFFFFFFFFFFFFFFFFFF
310
FFFFFFFFFFFFFFFFFFFFFFFFFFFFFFFFFFFFFFFFFFFFFFFFFFFFFFFFFFFFFFFF
310
FFFFFFFFFFFFFFFFFFFFFFFFFFFFFFFFFFFFFFFFFFFFFFFFFFFFFFFFFFFFFFFF
310
FFFFFFFFFFFFFFFFFFFFFFFFFFFFFFFFFFFFFFFFFFFFFFFFFFFFFFFFFFFFFFFF
310
FFFFFFFFFFFFFFFFFFFFFFFFFFFFFFFFFFFFFFFFFFFFFFFFFFFFFFFFFFFFFFFF
310
FFFFFFFFFFFFFFFFFFFFFFFFFFFFFFFFFFFFFFFFFFFFFFFFFFFFFFFFFFFFFFFF
310
FFFFFFFFFFFFFFFFFFFFFFFFFFFFFFFFFFFFFFFFFFFFFFFFFFFFFFFFFFFFFFFF
310
FFFFFFFFFFFFFFFFFFFFFFFFFFFFFFFFFFFFFFFFFFFFFFFFFFFFFFFFFFFFFFFF
310
FFFFFFFFFFFFFFFFFFFFFFFFFFFFFFFFFFFFFFFFFFFFFFFFFFFFFFFFFFFFFFFF
310
FFFFFFFFFFFFFFFFFFFFFFFFFFFFFFFFFFFFFFFFFFFFFFFFFFFFFFFFFFFFFFFF
310
FFFFFFFFFFFFFFFFFFFFFFFFFFFFFFFFFFFFFFFFFFFFFFFFFFFFFFFFFFFFFFFF
310
FFFFFFFFFFFFFFFFFFFFFFFFFFFFFFFFFFFFFFFFFFFFFFFFFFFFFFFFFFFFFFFF
310
52006F006F007400200045006E00740072007900000000000000000000000000
310
0000000000000000000000000000000000000000000000000000000000000000
310
16000500FFFFFFFFFFFFFFFF020000000A00030000000000C000000000000046
310
00000000000000000000000070B54CB3B438CD0103000000C000000000000000
310
01004F006C006500000000000000000000000000000000000000000000000000
310
0000000000000000000000000000000000000000000000000000000000000000
310
0A000200FFFFFFFFFFFFFFFFFFFFFFFF00000000000000000000000000000000
310
0000000000000000000000000000000000000000000000001400000000000000
310
010043006F006D0070004F0062006A0000000000000000000000000000000000
310
0000000000000000000000000000000000000000000000000000000000000000
310
120002010100000003000000FFFFFFFF00000000000000000000000000000000
310
0000000000000000000000000000000000000000010000004D00000000000000
310
01004F006C006500310030004E00610074006900760065000000000000000000
310
0000000000000000000000000000000000000000000000000000000000000000
310
1A000200FFFFFFFFFFFFFFFFFFFFFFFF00000000000000000000000000000000
310
0000000000000000000000000000000000000000040000002426000000000000
310
FEFFFFFF02000000FEFFFFFFFFFFFFFFFFFFFFFFFFFFFFFFFFFFFFFFFFFFFFFF
310
FFFFFFFFFFFFFFFFFFFFFFFFFFFFFFFFFFFFFFFFFFFFFFFFFFFFFFFFFFFFFFFF
310
FFFFFFFFFFFFFFFFFFFFFFFFFFFFFFFFFFFFFFFFFFFFFFFFFFFFFFFFFFFFFFFF
310
FFFFFFFFFFFFFFFFFFFFFFFFFFFFFFFFFFFFFFFFFFFFFFFFFFFFFFFFFFFFFFFF
310
FFFFFFFFFFFFFFFFFFFFFFFFFFFFFFFFFFFFFFFFFFFFFFFFFFFFFFFFFFFFFFFF
310
FFFFFFFFFFFFFFFFFFFFFFFFFFFFFFFFFFFFFFFFFFFFFFFFFFFFFFFFFFFFFFFF
310
FFFFFFFFFFFFFFFFFFFFFFFFFFFFFFFFFFFFFFFFFFFFFFFFFFFFFFFFFFFFFFFF
310
FFFFFFFFFFFFFFFFFFFFFFFFFFFFFFFFFFFFFFFFFFFFFFFFFFFFFFFFFFFFFFFF
310
FFFFFFFFFFFFFFFFFFFFFFFFFFFFFFFFFFFFFFFFFFFFFFFFFFFFFFFFFFFFFFFF
310
FFFFFFFFFFFFFFFFFFFFFFFFFFFFFFFFFFFFFFFFFFFFFFFFFFFFFFFFFFFFFFFF
310
FFFFFFFFFFFFFFFFFFFFFFFFFFFFFFFFFFFFFFFFFFFFFFFFFFFFFFFFFFFFFFFF
310
FFFFFFFFFFFFFFFFFFFFFFFFFFFFFFFFFFFFFFFFFFFFFFFFFFFFFFFFFFFFFFFF
310
FFFFFFFFFFFFFFFFFFFFFFFFFFFFFFFFFFFFFFFFFFFFFFFFFFFFFFFFFFFFFFFF
310
FFFFFFFFFFFFFFFFFFFFFFFFFFFFFFFFFFFFFFFFFFFFFFFFFFFFFFFFFFFFFFFF
310
FFFFFFFFFFFFFFFFFFFFFFFFFFFFFFFFFFFFFFFFFFFFFFFFFFFFFFFFFFFFFFFF
310
FFFFFFFFFFFFFFFFFFFFFFFFFFFFFFFFFFFFFFFFFFFFFFFFFFFFFFFFFFFFFFFF
310
0100000200000000000000000000000000000000000000000000000000000000
310
0000000000000000000000000000000000000000000000000000000000000000
310
0100FEFF030A0000FFFFFFFF0A00030000000000C00000000000004607000000
310
5042727573680007000000504272757368000700000050427275736800F439B2
310
7100000000000000000000000000000000000000000000000000000000000000
310
0000000000000000000000000000000000000000000000000000000000000000
310
0000000000000000000000000000000000000000000000000000000000000000
310
0000000000000000000000000000000000000000000000000000000000000000
310
0000000000000000000000000000000000000000000000000000000000000000
310
0000000000000000000000000000000000000000000000000000000000000000
310
0000000000000000000000000000000000000000000000000000000000000000
310
0000000000000000000000000000000000000000000000000000000000000000
310
0000000000000000000000000000000000000000000000000000000000000000
310
0000000000000000000000000000000000000000000000000000000000000000
310
0000000000000000000000000000000000000000000000000000000000000000
310
0000000000000000000000000000000000000000000000000000000000000000
310
20260000424D0E260000000000003E00000028000000B40200006E0000000100
310
01000000000000000000130B0000130B00000200000002000000000000FFFFFF
310
FFFFFFFFFFFFFFFFFFFFFFFFFFFFFFFFFFFFFFFFFFFFFFFFFFFFFFFFFFFFFFFF
310
FFFFFFFFFFFFFFFFFFFFFFFFFFFFFFFFFFFFFFFFFFFFFFFFFFFFFFFFFFFFFFFF
310
FFFFFFFFFFFFFFFFFFFFFFFFFFFFFFFFFFFFFFFFFFFFFFFFF000FFFFFFFFFFFF
310
FFFFFFFFFFFFFFFFFFFFFFFFFFFFFFFFFFFFFFFFFFFFFFFFFFFFFFFFFFFFFFFF
310
FFFFFFFFFFFFFFFFFFFFFFFFFFFFFFFFFFFFFFFFFFFFFFFFFFFFFFFFFFFFFFFF
310
FFFFFFFFFFFFFFFFFFFFFFFFFFFFFFFFF000FFFFFFFFFFFFFFFFFFFFFFFFFFFF
310
FFFFFFFFFFFFFFFFFFFFFFFFFFFFFFFFFFFFFFFFFFFFFFFFFFFFFFFFFFFFFFFF
310
FFFFFFFFFFFFFFFFFFFFFFFFFFFFFFFFFFFFFFFFFFFFFFFFFFFFFFFFFFFFFFFF
310
FFFFFFFFFFFFFFFFF000FFFFFFFFFFFFFFFFFFFFFFFFFFFFFFFFFFFFFFFFFFFF
310
FFFFFFFFFFFFFFFFFFFFFFFFFFFFFFFFFFFFFFFFFFFFFFFFFFFFFFFFFFFFFFFF
310
FFFFFFFFFFFFFFFFFFFFFFFFFFFFFFFFFFFFFFFFFFFFFFFFFFFFFFFFFFFFFFFF
310
F000FFFFFFFFFFFFFFFFFFFFFFFFFFFFFFFFFFFFFFFFFFFFFFFFFFFFFFFFFFFF
310
FFFFFFFFFFFFFFFFFFFFFFFFFFFFFFFFFFFFFFFFFFFFFFFFFFFFFFFFFFFFFFFF
310
FFFFFFFFFFFFFFFFFFFFFFFFFFFFFFFFFFFFFFFFFFFFFFFFF000FFFFFFFFFFFF
310
FFFFFFFFFFFFFFFFFFFFFFFFFFFFFFFFFFFFFFFFFFFFFFFFFFFFFFFFFFFFFFFF
310
FFFFFFFFFFFFFFFFFFFFFFFFFFFFFFFFFFFFFFFFFFFFFFFFFFFFFFFFFFFFFFFF
310
FFFFFFFFFFFFFFFFFFFFFFFFFFFFFFFFF000FFFFFFFFFFFFFFFFFFFFFFFFFFFF
310
FFFFFFFFFFFFFFFFFFFFFFFFFFFFFFFFFFFFFFFFFFFFFFFFFFFFFFFFFFFFFFFF
310
FFFFFFFFFFFFFFFFFFFFFFFFFFFFFFFFFFFFFFFFFFFFFFFFFFFFFFFFFFFFFFFF
310
FFFFFFFFFFFFFFFFF000FFFFFFFFFFFFFFFFFFFFFFFFFFFFFFFFFFFFFFFFFFFF
310
FFFFFFFFFFFFFFFFFFFFFFFFFFFFFFFFFFFFFFFFFFFFFFFFFFFFFFFFFFFFFFFF
310
FFFFFFFFFFFFFFFFFFFFFFFFFFFFFFFFFFFFFFFFFFFFFFFFFFFFFFFFFFFFFFFF
310
F000FFFFFFFFFFFFFFFFFFFFFFFFFFFFFFFFFFFFFFFFFFFFFFFFFFFFFFFFFFFF
310
FFFFFFFFFFFFFFFFFFFFFFFFFFFFFFFFFFFFFFFFFFFFFFFFFFFFFFFFFFFFFFFF
310
FFFFFFFFFFFFFFFFFFFFFFFFFFFFFFFFFFFFFFFFFFFFFFFFF000FFFFFFFFFFFF
310
FFFFFFFFFFFFFFFFFFFFFFFFFFFFFFFFFFFFFFFFFFFFFFFFFFFFFFFFFFFFFFFF
310
FFFFFFFFFFFFFFFFFFFFFFFFFFFFFFFFFFFFFFFFFFFFFFFFFFFFFFFFFFFFFFFF
310
FFFFFFFFFFFFFFFFFFFFFFFFFFFFFFFFF000FFFFFFFFFFFFFFFFFFFFFFFFFFFF
310
FFFFFFFFFFFFFFFFFFFFFFFFFFFFFFFFFFFFFFFFFFFFFFFFFFFFFFFFFFFFFFFF
310
FFFFFFFFFFFFFFFFFFFFFFFFFFFFFFFFFFFFFFFFFFFFFFFFFFFFFFFFFFFFFFFF
310
FFFFFFFFFFFFFFFFF000FFFFFFFFFFFFFFFFFFFFFFFFFFFFFFFFFFFFFFFFFFFF
310
FFFFFFFFFFFFFFFFFFFFFFFFFFFFFFFFFFFFFFFFFFFFFFFFFFFFFFFFFFFFFFFF
310
FFFFFFFFFFFFFFFFFFFFFFFFFFFFFFFFFFFFFFFFFFFFFFFFFFFFFFFFFFFFFFFF
310
F000FFFFFFFFFFFFFFFFFFFFFFFFFFFFFFFFFFFFFFFFFFFFFFFFFFFFFFFFFFFF
310
FFFFFFFFFFFFFFFFFFFFFFFFFFFFFFFFFFFFFFFFFFFFFFFFFFFFFFFFFFFFFFFF
310
FFFFFFFFFFFFFFFFFFFFFFFFFFFFFFFFFFFFFFFFFFFFFFFFF000FFFFFFFFFFFF
310
FFFFFFFFFFFFFFFFFFFFFFFFFFFFFFFFFFFFFFFFFFFFFFFFFFFFFFFFFFFFFFFF
310
FFFFFFFFFFFFFFFFFFFFFFFFFFFFFFFFFFFFFFFFFFFFFFFFFFFFFFFFFFFFFFFF
310
FFFFFFFFFFFFFFFFFFFFFFFFFFFFFFFFF000FFFFFFFFFFFFFFFFFFFFFFFFFFFF
310
FFFFFFFFFFFFFFFFFFFFFFFFFFFFFFFFFFFFFFFFFFFFFFFFFFFFFFFFFFFFFFFF
310
FFFFFFFFFFFFFFFFFFFFFFFFFFFFFFFFFFFFFFFFFFFFFFFFFFFFFFFFFFFFFFFF
310
FFFFFFFFFFFFFFFFF000FFFFFFFFFFFFFFFFFFFFFFFFFFFFFFFFFFFFFFFFFFFF
310
FFFFFFFFFFFFFFFFFFFFFFFFFFFFFFFFFFFFFFFFFFFFFFFFFFFFFFFFFFFFFFFF
310
FFFFFFFFFFFFFFFFFFFFFFFFFFFFFFFFFFFFFFFFFFFFFFFFFFFFFFFFFFFFFFFF
310
F000FFFFFFFFFFFFFFFFFFFFFFFFFFFFFFFFFFFFFFFFFFFFFFFFFFFFFFFFFFFF
310
FFFFFFFFFFFFFFFFFFFFFFFFFFFFFFFFFFFFFFFFFFFFFFFFFFFFFFFFFFFFFFFF
310
FFFFFFFFFFFFFFFFFFFFFFFFFFFFFFFFFFFFFFFFFFFFFFFFF000FFFFFFFFFFFF
310
FFFFFFFFFFFFFFFFFFFFFFFFFFFFFFFFFFFFFFFFFFFFFFFFFFFFFFFFFFFFFFFF
310
FFFFFFFFFFFFFFFFFFFFFFFFFFFFFFFFFFFFFFFFFFFFFFFFFFFFFFFFFFFFFFFF
310
FFFFFFFFFFFFFFFFFFFFFFFFFFFFFFFFF000FFFFFFFFFFFFFFFFFFFFFFFFFFFF
310
FFFFFFFFFFFFFFFFFFFFFFFFFFFFFFFFFFFFFFFFFFFFFFFFFFFFFFFFFFFFFFFF
310
FFFFFFFFFFFFFFFFFFFFFFFFFFFFFFFFFFFFFFFFFFFFFFFFFFFFFFFFFFFFFFFF
310
FFFFFFFFFFFFFFFFF000FFFFF80003FFFFFFFFFFFFFFFFFFFFFFFFFFFFFFFFFF
310
FFFFF00007FFFFFFFFFF00007FFFFFF800000000000000007FFFFFFFFFFFFFFF
310
FFFFFFFC001FFFFFFFFFFFFFFC001FFFFFFFFFFFFFFFFFFFFFFFFFFE0007FFFF
310
F000FFFF8000007FFFFFFFF8000FFFFFC0007FFFFF80007FFFFF0000007FFFFF
310
FFF8000007FFFFF800000000000000007FFFFFF0001FFFFFFFFFFFC00001FFFF
310
FFFFFFFFC00001FFFFFFFF000000000003FFFFE000007FFFF000FFFE0000000F
310
FFFFFFF0000FFFFF80007FFFFF80007FFFFC0000001FFFFFFFC0000001FFFFF8
310
00000000000000007FFFFFF0001FFFFFFFFFFE0000003FFFFFFFFFFE0000003F
310
FFFFFF000000000003FFFF0000000FFFF000FFF800000003FFFFFFF00007FFFF
310
80007FFFFF80007FFFF000000007FFFFFF000000003FFFF80000000000000000
310
7FFFFFF0001FFFFFFFFFF80000000FFFFFFFFFF80000000FFFFFFF0000000000
310
03FFFC00000003FFF000FFE000000000FFFFFFF00007FFFF80003FFFFF80007F
310
FFC000000001FFFFFC000000001FFFF800000000000000007FFFFFF0001FFFFF
310
FFFFE000000003FFFFFFFFE000000003FFFFFF000000000003FFF000000000FF
310
F000FF80000000007FFFFFF00007FFFF80003FFFFF80007FFF8000000000FFFF
310
F80000000007FFF800000000000000007FFFFFF0001FFFFFFFFFC000000001FF
310
FFFFFFC000000001FFFFFF000000000003FFC0000000007FF000FF0000000000
310
3FFFFFE00007FFFF00003FFFFF80007FFE00000000003FFFF00000000003FFF8
310
00000000000000007FFFFFF0001FFFFFFFFF8000000000FFFFFFFF8000000000
310
FFFFFF000000000003FF80000000003FF000FE00000000001FFFFFE00003FFFF
310
00003FFFFF80007FFC00000000001FFFE00000000001FFF8000001FFFE000000
310
7FFFFFF0001FFFFFFFFE00000000003FFFFFFE00000000003FFFFF0000000000
310
03FF00000000001FF000FC00000000000FFFFFE00003FFFF00001FFFFF80007F
310
F800000000001FFFC00000000000FFF8000001FFFE0000007FFFFFF0001FFFFF
310
FFFC00000000001FFFFFFC00000000001FFFFF000000000003FE00000000000F
310
F000F8000000000007FFFFE00003FFFF00001FFFFF80007FF800000000000FFF
310
800000000000FFF8000001FFFE0000007FFFFFF0001FFFFFFFF800000000000F
310
FFFFF800000000000FFFFF000000000003FC000000000007F000F80000000000
310
03FFFFC00003FFFE00001FFFFF80007FF0000000000007FF0000000000007FF8
310
000001FFFE0000007FFFFFF0001FFFFFFFF0000000000007FFFFF00000000000
310
07FFFF000000000003F8000000000003F000F0000000000003FFFFC00001FFFE
310
00001FFFFF80007FE0000000000007FE0000000000003FF8000001FFFE000000
310
7FFFFFF0001FFFFFFFF0000000000007FFFFF0000000000007FFFF0000000000
310
03F800001F800003F000E00001FFF00001FFFFC00001FFFE00000FFFFF80007F
310
E00001FFE00003FE00001FFF00003FF8000001FFFE0000007FFFFFF0001FFFFF
310
FFE000003E000003FFFFE000003E000003FFFF000000000003F00001FFF80001
310
F000E00007FFFC0001FFFFC00001FFFE00000FFFFF80007FC0000FFFFC0003FC
310
0000FFFFC0001FF8000001FFFE0000007FFFFFF0001FFFFFFFC00003FFE00001
310
FFFFC00003FFE00001FFFF0001FFFFFFFFF00007FFFE0001F000E0000FFFFF00
310
00FFFF800001FFFC00000FFFFF80007FC0001FFFFE0001FC0001FFFFE0001FF8
310
000001FFFE0000007FFFFFF0001FFFFFFF80000FFFF80000FFFF80000FFFF800
310
00FFFF0003FFFFFFFFE0000FFFFF8000F000C0003FFFFF8000FFFF800000FFFC
310
000007FFFF80007F80003FFFFF0001FC0003FFFFF0001FF8000001FFFE000000
310
7FFFFFF0001FFFFFFF80003FFFFE0000FFFF80003FFFFE0000FFFF0003FFFFFF
310
FFE0003FFFFF8000F000C0003FFFFF8000FFFF800000FFFC000007FFFF80007F
310
80007FFFFF8001F80007FFFFF8000FF8000001FFFE0000007FFFFFF0001FFFFF
310
FF00007FFFFF00007FFF00007FFFFF00007FFF0003FFFFFFFFE0003FFFFFC000
310
F000C0007FFFFFC000FFFF000000FFFC000007FFFF80007F8000FFFFFF8000F8
310
000FFFFFF8000FF8000001FFFE0000007FFFFFF0001FFFFFFF0000FFFFFF8000
310
7FFF0000FFFFFF80007FFF0003FFFFFFFFC0007FFFFFC00070008000FFFFFFC0
310
00FFFF000000FFF8000007FFFF80007F8000FFFFFF8000F8000FFFFFF8000FF8
310
000001FFFE0000007FFFFFF0001FFFFFFE0001FFFFFFC0003FFE0001FFFFFFC0
310
003FFF0003FFFFFFFFC0007FFFFFE00070008000FFFFFFC0007FFF0000007FF8
310
000003FFFF80007F0001FFFFFF8000F8000FFFFFF8000FF8000001FFFE000000
310
7FFFFFF0001FFFFFFE0001FFFFFFC0003FFE0001FFFFFFC0003FFF0003FFFFFF
310
FFC000FFFFFFE00070008000FFFFFFC0007FFF0000007FF8000003FFFF80007F
310
0001FFFFFF8000F8001FFFFFF8000FF8000001FFFE0000007FFFFFF0001FFFFF
310
FE0003FFFFFFE0003FFE0003FFFFFFE0003FFF0003FFFFFFFFC000FFFFFFE000
310
70008000FFFFFFC0007FFE0000007FF8000003FFFF80007F0001FFFFFF8000F0
310
001FFFFFF8000FF8000001FFFE0000007FFFFFF0001FFFFFFC0003FFFFFFE000
310
1FFC0003FFFFFFE0001FFF0003FFFFFFFFC000FFFFFFC00070008000FFFFFF80
310
007FFE0000007FF0000003FFFF80007F0001FFFFFF0000F0001FFFFFF8000FF8
310
000001FFFE0000007FFFFFF0001FFFFFFC0007FFFFFFF0001FFC0007FFFFFFF0
310
001FFF0003FFFFFFFFC000FFFFFFC00070008001FFFFFF0000FFFE0000003FF0
310
000001FFFF80007F0001FFFFFF0000F8001FFFFFF0000FF8000001FFFE000000
310
7FFFFFF0001FFFFFFC0007FFFFFFF0001FFC0007FFFFFFF0001FFF0003FFFFFF
310
FFC001FFFFFF80007000FFFFFFFFFE0000FFFE0008003FF0008001FFFF80007F
310
FFFFFFFFFC0000FFFFFFFFFFE0000FF8000001FFFE0000007FFFFFF0001FFFFF
310
F8000FFFFFFFF8000FF8000FFFFFFFF8000FFF0003FFFFFFFFFFFFFFFFFF0000
310
7000FFFFFFFFFC0000FFFC0008003FF0008001FFFF80007FFFFFFFFFF80001FF
310
FFFFFFFF80000FF8000001FFFE0000007FFFFFF0001FFFFFF8000FFFFFFFF800
310
0FF8000FFFFFFFF8000FFF0003FFFFFFFFFFFFFFFFFE0000F000FFFFFFFFE000
310
00FFFC000C003FE000C001FFFF80007FFFFFFFFFC00001FFFFFFFFFE00001FF8
310
000001FFFE0000007FFFFFF0001FFFFFF8000FFFFFFFF8000FF8000FFFFFFFF8
310
000FFF0003FFFFFFFFFFFFFFFFF00000F000FFFFFFFE000001FFFC000C001FE0
310
00C000FFFF80007FFFFFFFFE000001FFFFFFFFE000001FF80FFFFFFFFFFFFFC0
310
7FFFFFF0001FFFFFF8000FFFFFFFF8000FF8000FFFFFFFF8000FFF0003FFFFFF
310
FFFFFFFFFF800000F000FFFFFFC0000001FFFC001C001FE001C000FFFF80007F
310
FFFFFF80000003FFFFFFF80000001FF80FFFFFFFFFFFFFC07FFFFFF0001FFFFF
310
F8001FFFFFFFFC000FF8001FFFFFFFFC000FFF0003FFFFFFFFFFFFFFF0000001
310
F000FFFFF800000001FFF8001C001FE001C000FFFF80007FFFFFF800000003FF
310
FFFF800000003FF80FFFFFFFFFFFFFC07FFFFFF0001FFFFFF8001FFFFFFFFC00
310
0FF8001FFFFFFFFC000FFF0003FFFFFFFFFFFFFE00000001F000FFFFC0000000
310
03FFF8001E001FC001E000FFFF80007FFFFF8000000007FFFFFC000000003FF8
310
0FFFFFFFFFFFFFC07FFFFFF0001FFFFFF8001FFFFFFFFC000FF8001FFFFFFFFC
310
000FFF0003FFFFFFFFFFFFE000000003F000FFFE0000000007FFF8001E000FC0
310
01E0007FFF80007FFFFE0000000007FFFFE0000000007FF80FFFFFFFFFFFFFC0
310
7FFFFFF0001FFFFFF0001FFFFFFFFC0007F0001FFFFFFFFC0007FF0003FFFFFF
310
FFFFFF0000000003F000FFF80000000007FFF8001E000FC003E0007FFF80007F
310
FFF0000000000FFFFF8000000000FFF80FFFFFFFFFFFFFC07FFFFFF0001FFFFF
310
F0001FFFFFFFFC0007F0001FFFFFFFFC0007FF0003FFFFFFFFFFFC0000000007
310
F000FFE0000000000FFFF0003E000FC003E0007FFF80007FFFC0000000001FFF
310
FE0000000001FFF80FFFFFFFFFFFFFC07FFFFFF0001FFFFFF0001FFFFFFFFC00
310
07F0001FFFFFFFFC0007FF0003FFFFFFFFFFF0000000000FF000FFC000000000
310
1FFFF0003F000F8003F0003FFF80007FFF80000000003FFFF80000000003FFF8
310
0FFFFFFFFFFFFFC07FFFFFF0001FFFFFF0001FFFFFFFFC0007F0001FFFFFFFFC
310
0007FF0003FFFFFFFFFFE0000000001FF000FF00000000007FFFF0003F000780
310
03F0003FFF80007FFF00000000007FFFF00000000007FFF80FFFFFFFFFFFFFC0
310
7FFFFFF0001FFFFFF0001FFFFFFFFC0007F0001FFFFFFFFC0007FF0003FFFFFF
310
FFFF80000000007FF000FE0000000000FFFFE0003F00078007F0003FFF80007F
310
FE0000000001FFFFE0000000001FFFF80FFFFFFFFFFFFFC07FFFFFF0001FFFFF
310
F0001FFFFFFFFC0007F0001FFFFFFFFC0007FF0003FFFFFFFFFF0000000000FF
310
F000FC0000000003FFFFE0007F00078007F0003FFF80007FFC0000000007FFFF
310
C0000000007FFFF80FFFFFFFFFFFFFC07FFFFFF0001FFFFFF8001FFFFFFFFC00
310
0FF8001FFFFFFFFC000FFF0003FFFFFFFFFE0000000003FFF000FC000000000F
310
FFFFE0007F80070007F8001FFF80007FF8000000001FFFFF8000000001FFFFF8
310
0FFFFFFFFFFFFFC07FFFFFF0001FFFFFF8001FFFFFFFFC000FF8001FFFFFFFFC
310
000FFF0003FFFFFFFFFC000000000FFFF000F8000000007FFFFFE0007F800700
310
07F8001FFF80007FF000000000FFFFFF800000000FFFFFF80FFFFFFFFFFFFFC0
310
7FFFFFF0001FFFFFF8000FFFFFFFF8000FF8000FFFFFFFF8000FFF0003FFFFFF
310
FFFC000000007FFFF000F800000007FFFFFFC0007F8003000FF8001FFF80007F
310
F000000007FFFFFF000000007FFFFFF80FFFFFFFFFFFFFC07FFFFFF0001FFFFF
310
F8000FFFFFFFF8000FF8000FFFFFFFF8000FFF0003FFFFFFFFF80000000FFFFF
310
F000F0000000FFFFFFFFC000FF8003000FF8001FFF80007FE0000000FFFFFFFF
310
0000000FFFFFFFF8000001FFFE0000007FFFFFF0001FFFFFF8000FFFFFFFF800
310
0FF8000FFFFFFFF8000FFF0003FFFFFFFFF8000000FFFFFFF000F000000FFFFF
310
FFFFC000FFC002000FF8000FFF80007FE000001FFFFFFFFE000001FFFFFFFFF8
310
000001FFFE0000007FFFFFF0001FFFFFF8000FFFFFFFF8000FF8000FFFFFFFF8
310
000FFF0003FFFFFFFFF000001FFFFFFFF000E00000FFFFFFFFFFC000FFC00200
310
0FFC000FFF80007FE00001FFFFFFFFFE00001FFFFFFFFFF8000001FFFE000000
310
7FFFFFF0001FFFFFFC000FFFFFFFF8001FFC000FFFFFFFF8001FFF0003FFFFFF
310
FFF00001FFFFFFFFF000E00007FFFFFFFFFF8000FFC000001FFC000FFF80007F
310
C0000FFFFFFFFFFE0000FFFFFFFFFFF8000001FFFE0000007FFFFFF0001FFFFF
310
FC0007FFFFFFF0001FFC0007FFFFFFF0001FFF0003FFFFFFFFF00007FFFFFFFF
310
F000E0001FFFFFFFFFFF8000FFC000001FFC000FFF80007FC0003FFFFFFFFFFE
310
0001FFFFFFFFFFF8000001FFFE0000007FFFFFF0001FFFFFFC0007FFFFFFF000
310
1FFC0007FFFFFFF0001FFF0003FFFFFFFFF0001FFFFFFFFFF000E0003FFFFF00
310
03FF8001FFE000001FFC0007FF80007FC0007FFFFF0007FC0003FFFFF0003FF8
310
000001FFFE0000007FFFFFF0001FFFFFFC0003FFFFFFE0001FFC0003FFFFFFE0
310
001FFF0003FFFFFFFFF0003FFFFFFFFFF000E0003FFFFF0001FF8001FFE00000
310
1FFE0007FF80007FC0007FFFFE0003FC0007FFFFE0003FF8000001FFFE000000
310
7FFFFFF0001FFFFFFE0003FFFFFFE0003FFE0003FFFFFFE0003FFF0003FFFFFF
310
FFF0003FFFFF8001F000E0003FFFFF0001FF0001FFE000001FFE0007FF80007F
310
C0007FFFFE0003FC0007FFFFE0003FF8000001FFFE0000007FFFFFF0001FFFFF
310
FE0001FFFFFFC0003FFE0001FFFFFFC0003FFF0003FFFFFFFFF0003FFFFF0001
310
F000E0003FFFFF0003FF0001FFE000003FFE0007FF80007FC0007FFFFE0003FC
310
0007FFFFE0003FF8000001FFFE0000007FFFFFF0001FFFFFFF0001FFFFFFC000
310
7FFF0001FFFFFFC0007FFF0003FFFFFFFFF0003FFFFF0001F000E0003FFFFE00
310
03FF0003FFF000003FFE0003FF80007FC0007FFFFC0003FE0007FFFFE0003FF8
310
000001FFFE0000007FFFFFF0001FFFFFFF0000FFFFFF80007FFF0000FFFFFF80
310
007FFF0003FFFFFFFFF0003FFFFF0001F000E0003FFFFE0003FF0003FFF00000
310
3FFF0003FF80007FC0007FFFFC0007FE0007FFFFC0003FF8000001FFFE000000
310
7FFFFFF0001FFFFFFF80007FFFFF0000FFFF80007FFFFF0000FFFF0003FFFFFF
310
FFF0003FFFFF0003F000E0003FFFFC0003FE0003FFF000003FFF0003FF80007F
310
E0003FFFF80007FE0003FFFFC0007FF8000001FFFE0000007FFFFFF0001FFFFF
310
FF80003FFFFE0000FFFF80003FFFFE0000FFFF0003FFFFFFFFF0001FFFFE0003
310
F000F0001FFFF80003FE0003FFF000007FFF0001FF80007FE0003FFFF00007FE
310
0001FFFF80007FF8000001FFFE0000007FFFFFF0001FFFFFFFC0000FFFF80001
310
FFFFC0000FFFF80001FFFF0003FFFFFFFFF0001FFFFC0003F000F0000FFFF000
310
07FE0007FFF800007FFF0001FF80007FE0001FFFE00007FF0000FFFE00007FF8
310
000001FFFE0000007FFFFFF0001FFFFFFFC00003FFE00001FFFFC00003FFE000
310
01FFFF0003FFFFFFFFF8000FFFF80003F000F00003FFC00007FC0007FFF80000
310
7FFF8001FF80007FF00007FF80000FFF00007FF80000FFF8000001FFFE000000
310
7F80000000000001FFE000003E000003FFFFE000003E000003FFFF0003FFFFFF
310
FFF80003FFE00007F000F800000000000FFC0007FFF800007FFF8001FF80007F
310
F000000000000FFF000000000000FFF8000001FFFE0000007F80000000000001
310
FFF0000000000007FFFFF0000000000007FFFF0003FFFFFFFFFC00007E000007
310
F000F800000000000FFC0007FFF80000FFFF8000FF80007FF800000000001FFF
310
800000000001FFF8000001FFFE0000007F80000000000001FFF800000000000F
310
FFFFF800000000000FFFFF0003FFFFFFFFFC00000000000FF000FC0000000000
310
1FFC0007FFFC0000FFFF8000FF80007FF800000000003FFFC00000000001FFF8
310
000001FFFE0000007F80000000000001FFF800000000000FFFFFF80000000000
310
0FFFFF0003FFFFFFFFFE00000000001FF000FE00000000003FF8000FFFFC0000
310
FFFF8000FF80007FFC00000000003FFFC00000000003FFF8000001FFFE000000
310
7F80000000000001FFFC00000000001FFFFFFC00000000001FFFFF0003FFFFFF
310
FFFF00000000001FF000FF00000000003FF8000FFFFC0000FFFFC000FF80007F
310
FE00000000007FFFE00000000007FFF8000001FFFE0000007F80000000000001
310
FFFE00000000003FFFFFFE00000000003FFFFF0003FFFFFFFFFF80000000003F
310
F000FF80000000007FF8000FFFFC0001FFFFC0007F80007FFF0000000000FFFF
310
F0000000000FFFF800000000000000007F80000000000001FFFF8000000000FF
310
FFFFFF8000000000FFFFFF0003FFFFFFFFFFC0000000007FF000FFC000000000
310
FFF8000FFFFE0001FFFFC0007F80007FFF8000000001FFFFF8000000001FFFF8
310
00000000000000007F80000000000001FFFFC000000001FFFFFFFFC000000001
310
FFFFFF0003FFFFFFFFFFE000000000FFF000FFE000000003FFF0001FFFFE0001
310
FFFFC0007F80007FFFC000000007FFFFFE000000003FFFF80000000000000000
310
7F80000000000001FFFFE000000003FFFFFFFFE000000003FFFFFF0003FFFFFF
310
FFFFF000000003FFF000FFF80000000FFFF0001FFFFE0001FFFFE0007F80007F
310
FFF00000000FFFFFFF00000000FFFFF800000000000000007F80000000000001
310
FFFFF80000000FFFFFFFFFF80000000FFFFFFF0003FFFFFFFFFFFC0000000FFF
310
F000FFFE0000003FFFF0001FFFFE0003FFFFE0003F80007FFFFC0000003FFFFF
310
FFC0000003FFFFF800000000000000007F80000000000001FFFFFE0000003FFF
310
FFFFFFFE0000003FFFFFFF0003FFFFFFFFFFFF0000003FFFF000FFFF800000FF
310
FFF0001FFFFF0003FFFFE0003F80007FFFFF000001FFFFFFFFF800001FFFFFF8
310
00000000000000007F80000000000001FFFFFFC00001FFFFFFFFFFFFC00001FF
310
FFFFFF0003FFFFFFFFFFFFC00000FFFFF000FFFFF8000FFFFFFFFFFFFFFFFFFF
310
FFFFFFFFFFFFFFFFFFFFF0001FFFFFFFFFFF0000FFFFFFF80000000000000000
310
7FFFFFFFFFFFFFFFFFFFFFFC001FFFFFFFFFFFFFFC001FFFFFFFFFFFFFFFFFFF
310
FFFFFFFC001FFFFFF000FFFFFFFFFFFFFFFFFFFFFFFFFFFFFFFFFFFFFFFFFFFF
310
FFFFFFFFFFFFFFFFFFFFFFFFFFFFFFFFFFFFFFFFFFFFFFFFFFFFFFFFFFFFFFFF
310
FFFFFFFFFFFFFFFFFFFFFFFFFFFFFFFFFFFFFFFFFFFFFFFFFFFFFFFFFFFFFFFF
310
F000FFFFFFFFFFFFFFFFFFFFFFFFFFFFFFFFFFFFFFFFFFFFFFFFFFFFFFFFFFFF
310
FFFFFFFFFFFFFFFFFFFFFFFFFFFFFFFFFFFFFFFFFFFFFFFFFFFFFFFFFFFFFFFF
310
FFFFFFFFFFFFFFFFFFFFFFFFFFFFFFFFFFFFFFFFFFFFFFFFF000FFFFFFFFFFFF
310
FFFFFFFFFFFFFFFFFFFFFFFFFFFFFFFFFFFFFFFFFFFFFFFFFFFFFFFFFFFFFFFF
310
FFFFFFFFFFFFFFFFFFFFFFFFFFFFFFFFFFFFFFFFFFFFFFFFFFFFFFFFFFFFFFFF
310
FFFFFFFFFFFFFFFFFFFFFFFFFFFFFFFFF000FFFFFFFFFFFFFFFFFFFFFFFFFFFF
310
FFFFFFFFFFFFFFFFFFFFFFFFFFFFFFFFFFFFFFFFFFFFFFFFFFFFFFFFFFFFFFFF
310
FFFFFFFFFFFFFFFFFFFFFFFFFFFFFFFFFFFFFFFFFFFFFFFFFFFFFFFFFFFFFFFF
310
FFFFFFFFFFFFFFFFF000FFFFFFFFFFFFFFFFFFFFFFFFFFFFFFFFFFFFFFFFFFFF
310
FFFFFFFFFFFFFFFFFFFFFFFFFFFFFFFFFFFFFFFFFFFFFFFFFFFFFFFFFFFFFFFF
310
FFFFFFFFFFFFFFFFFFFFFFFFFFFFFFFFFFFFFFFFFFFFFFFFFFFFFFFFFFFFFFFF
310
F000FFFFFFFFFFFFFFFFFFFFFFFFFFFFFFFFFFFFFFFFFFFFFFFFFFFFFFFFFFFF
310
FFFFFFFFFFFFFFFFFFFFFFFFFFFFFFFFFFFFFFFFFFFFFFFFFFFFFFFFFFFFFFFF
310
FFFFFFFFFFFFFFFFFFFFFFFFFFFFFFFFFFFFFFFFFFFFFFFFF000FFFFFFFFFFFF
310
FFFFFFFFFFFFFFFFFFFFFFFFFFFFFFFFFFFFFFFFFFFFFFFFFFFFFFFFFFFFFFFF
310
FFFFFFFFFFFFFFFFFFFFFFFFFFFFFFFFFFFFFFFFFFFFFFFFFFFFFFFFFFFFFFFF
310
FFFFFFFFFFFFFFFFFFFFFFFFFFFFFFFFF000FFFFFFFFFFFFFFFFFFFFFFFFFFFF
310
FFFFFFFFFFFFFFFFFFFFFFFFFFFFFFFFFFFFFFFFFFFFFFFFFFFFFFFFFFFFFFFF
310
FFFFFFFFFFFFFFFFFFFFFFFFFFFFFFFFFFFFFFFFFFFFFFFFFFFFFFFFFFFFFFFF
310
FFFFFFFFFFFFFFFFF000FFFFFFFFFFFFFFFFFFFFFFFFFFFFFFFFFFFFFFFFFFFF
310
FFFFFFFFFFFFFFFFFFFFFFFFFFFFFFFFFFFFFFFFFFFFFFFFFFFFFFFFFFFFFFFF
310
FFFFFFFFFFFFFFFFFFFFFFFFFFFFFFFFFFFFFFFFFFFFFFFFFFFFFFFFFFFFFFFF
310
F000FFFFFFFFFFFFFFFFFFFFFFFFFFFFFFFFFFFFFFFFFFFFFFFFFFFFFFFFFFFF
310
FFFFFFFFFFFFFFFFFFFFFFFFFFFFFFFFFFFFFFFFFFFFFFFFFFFFFFFFFFFFFFFF
310
FFFFFFFFFFFFFFFFFFFFFFFFFFFFFFFFFFFFFFFFFFFFFFFFF000FFFFFFFFFFFF
310
FFFFFFFFFFFFFFFFFFFFFFFFFFFFFFFFFFFFFFFFFFFFFFFFFFFFFFFFFFFFFFFF
310
FFFFFFFFFFFFFFFFFFFFFFFFFFFFFFFFFFFFFFFFFFFFFFFFFFFFFFFFFFFFFFFF
310
FFFFFFFFFFFFFFFFFFFFFFFFFFFFFFFFF000FFFFFFFFFFFFFFFFFFFFFFFFFFFF
310
FFFFFFFFFFFFFFFFFFFFFFFFFFFFFFFFFFFFFFFFFFFFFFFFFFFFFFFFFFFFFFFF
310
FFFFFFFFFFFFFFFFFFFFFFFFFFFFFFFFFFFFFFFFFFFFFFFFFFFFFFFFFFFFFFFF
310
FFFFFFFFFFFFFFFFF000FFFFFFFFFFFFFFFFFFFFFFFFFFFFFFFFFFFFFFFFFFFF
310
FFFFFFFFFFFFFFFFFFFFFFFFFFFFFFFFFFFFFFFFFFFFFFFFFFFFFFFFFFFFFFFF
310
FFFFFFFFFFFFFFFFFFFFFFFFFFFFFFFFFFFFFFFFFFFFFFFFFFFFFFFFFFFFFFFF
310
F000FFFFFFFFFFFFFFFFFFFFFFFFFFFFFFFFFFFFFFFFFFFFFFFFFFFFFFFFFFFF
310
FFFFFFFFFFFFFFFFFFFFFFFFFFFFFFFFFFFFFFFFFFFFFFFFFFFFFFFFFFFFFFFF
310
FFFFFFFFFFFFFFFFFFFFFFFFFFFFFFFFFFFFFFFFFFFFFFFFF000FFFFFFFFFFFF
310
FFFFFFFFFFFFFFFFFFFFFFFFFFFFFFFFFFFFFFFFFFFFFFFFFFFFFFFFFFFFFFFF
310
FFFFFFFFFFFFFFFFFFFFFFFFFFFFFFFFFFFFFFFFFFFFFFFFFFFFFFFFFFFFFFFF
310
FFFFFFFFFFFFFFFFFFFFFFFFFFFFFFFFF000FFFFFFFFFFFFFFFFFFFFFFFFFFFF
310
FFFFFFFFFFFFFFFFFFFFFFFFFFFFFFFFFFFFFFFFFFFFFFFFFFFFFFFFFFFFFFFF
310
FFFFFFFFFFFFFFFFFFFFFFFFFFFFFFFFFFFFFFFFFFFFFFFFFFFFFFFFFFFFFFFF
310
FFFFFFFFFFFFFFFFF000FFFFFFFFFFFFFFFFFFFFFFFFFFFFFFFFFFFFFFFFFFFF
310
FFFFFFFFFFFFFFFFFFFFFFFFFFFFFFFFFFFFFFFFFFFFFFFFFFFFFFFFFFFFFFFF
310
FFFFFFFFFFFFFFFFFFFFFFFFFFFFFFFFFFFFFFFFFFFFFFFFFFFFFFFFFFFFFFFF
310
F000FFFFFFFFFFFFFFFFFFFFFFFFFFFFFFFFFFFFFFFFFFFFFFFFFFFFFFFFFFFF
310
FFFFFFFFFFFFFFFFFFFFFFFFFFFFFFFFFFFFFFFFFFFFFFFFFFFFFFFFFFFFFFFF
310
FFFFFFFFFFFFFFFFFFFFFFFFFFFFFFFFFFFFFFFFFFFFFFFFF000FFFFFFFFFFFF
310
FFFFFFFFFFFFFFFFFFFFFFFFFFFFFFFFFFFFFFFFFFFFFFFFFFFFFFFFFFFFFFFF
310
FFFFFFFFFFFFFFFFFFFFFFFFFFFFFFFFFFFFFFFFFFFFFFFFFFFFFFFFFFFFFFFF
310
FFFFFFFFFFFFFFFFFFFFFFFFFFFFFFFFF000FFFFFFFFFFFFFFFFFFFFFFFFFFFF
310
FFFFFFFFFFFFFFFFFFFFFFFFFFFFFFFFFFFFFFFFFFFFFFFFFFFFFFFFFFFFFFFF
310
FFFFFFFFFFFFFFFFFFFFFFFFFFFFFFFFFFFFFFFFFFFFFFFFFFFFFFFFFFFFFFFF
310
FFFFFFFFFFFFFFFFF000FFFFFFFFFFFFFFFFFFFFFFFFFFFFFFFFFFFFFFFFFFFF
310
FFFFFFFFFFFFFFFFFFFFFFFFFFFFFFFFFFFFFFFFFFFFFFFFFFFFFFFFFFFFFFFF
310
FFFFFFFFFFFFFFFFFFFFFFFFFFFFFFFFFFFFFFFFFFFFFFFFFFFFFFFFFFFFFFFF
310
F000FFFFFFFFFFFFFFFFFFFFFFFFFFFFFFFFFFFFFFFFFFFFFFFFFFFFFFFFFFFF
310
FFFFFFFFFFFFFFFFFFFFFFFFFFFFFFFFFFFFFFFFFFFFFFFFFFFFFFFFFFFFFFFF
310
FFFFFFFFFFFFFFFFFFFFFFFFFFFFFFFFFFFFFFFFFFFFFFFFF000FFFFFFFFFFFF
310
FFFFFFFFFFFFFFFFFFFFFFFFFFFFFFFFFFFFFFFFFFFFFFFFFFFFFFFFFFFFFFFF
310
FFFFFFFFFFFFFFFFFFFFFFFFFFFFFFFFFFFFFFFFFFFFFFFFFFFFFFFFFFFFFFFF
310
FFFFFFFFFFFFFFFFFFFFFFFFFFFFFFFFF0000000000000000000000000000000
310
0000000000000000000000000000000000000000000000000000000000000000
310
0000000000000000000000000000000000000000000000000000000000000000
310
0000000000000000000000000000000000000000000000000000000000000000
310
0000000000000000000000000000000000000000000000000000000000000000
310
0000000000000000000000000000000000000000000000000000000000000000
310
0000000000000000000000000000000000000000000000000000000000000000
310
0000000000000000000000000000000000000000000000000000000000000000
310
0000000000000000000000000000000000000000000000000000000000000000
310
0000000000000000000000000000000000000000000000000000000000000000
310
0000000000000000000000000000000000000000000000000000000000000000
310
0000000000000000000000000000000000000000000000000000000000000000
310
0000000000000000000000000000000000000000000000000000000000000000
310
0000000000000000000000000000000000000000000000000000000000000000
310
0000000000000000000000000000000000000000000000000000000000000000
310
0000000000000000000000000000000000000000000000000000000000000000
  1
OLE
  0
ENDSEC
  0
SECTION
  2
OBJECTS
  0
DICTIONARY
  5
C
330
0
100
AcDbDictionary
281
     1
  3
ACAD_GROUP
350
D
  3
ACAD_LAYOUT
350
1A
  3
ACAD_MLINESTYLE
350
17
  3
ACAD_PLOTSETTINGS
350
19
  3
ACAD_PLOTSTYLENAME
350
E
  0
DICTIONARY
  5
D
102
{ACAD_REACTORS
330
C
102
}
330
C
100
AcDbDictionary
281
     1
  0
DICTIONARY
  5
1A
102
{ACAD_REACTORS
330
C
102
}
330
C
100
AcDbDictionary
281
     1
  3
Layout1
350
1E
  3
Layout2
350
26
  3
Model
350
22
  0
DICTIONARY
  5
17
102
{ACAD_REACTORS
330
C
102
}
330
C
100
AcDbDictionary
281
     1
  3
Standard
350
18
  0
DICTIONARY
  5
19
102
{ACAD_REACTORS
330
C
102
}
330
C
100
AcDbDictionary
281
     1
  0
ACDBDICTIONARYWDFLT
  5
E
102
{ACAD_REACTORS
330
C
102
}
330
C
100
AcDbDictionary
281
     1
  3
Normal
350
F
100
AcDbDictionaryWithDefault
340
F
  0
LAYOUT
  5
1E
102
{ACAD_REACTORS
330
1A
102
}
330
1A
100
AcDbPlotSettings
  1

  2
none_device
  4

  6

 40
0.0
 41
0.0
 42
0.0
 43
0.0
 44
0.0
 45
0.0
 46
0.0
 47
0.0
 48
0.0
 49
0.0
140
0.0
141
0.0
142
1.0
143
1.0
 70
   688
 72
     0
 73
     0
 74
     5
  7

 75
    16
147
1.0
148
0.0
149
0.0
100
AcDbLayout
  1
Layout1
 70
     1
 71
     1
 10
0.0
 20
0.0
 11
420.0
 21
297.0
 12
0.0
 22
0.0
 32
0.0
 14
1.0000000000E+20
 24
1.0000000000E+20
 34
1.0000000000E+20
 15
-1.0000000000E+20
 25
-1.0000000000E+20
 35
-1.0000000000E+20
146
0.0
 13
0.0
 23
0.0
 33
0.0
 16
1.0
 26
0.0
 36
0.0
 17
0.0
 27
1.0
 37
0.0
 76
     0
330
1B
  0
LAYOUT
  5
26
102
{ACAD_REACTORS
330
1A
102
}
330
1A
100
AcDbPlotSettings
  1

  2
none_device
  4

  6

 40
0.0
 41
0.0
 42
0.0
 43
0.0
 44
0.0
 45
0.0
 46
0.0
 47
0.0
 48
0.0
 49
0.0
140
0.0
141
0.0
142
1.0
143
1.0
 70
   688
 72
     0
 73
     0
 74
     5
  7

 75
    16
147
1.0
148
0.0
149
0.0
100
AcDbLayout
  1
Layout2
 70
     1
 71
     2
 10
0.0
 20
0.0
 11
0.0
 21
0.0
 12
0.0
 22
0.0
 32
0.0
 14
0.0
 24
0.0
 34
0.0
 15
0.0
 25
0.0
 35
0.0
146
0.0
 13
0.0
 23
0.0
 33
0.0
 16
1.0
 26
0.0
 36
0.0
 17
0.0
 27
1.0
 37
0.0
 76
     0
330
23
  0
LAYOUT
  5
22
102
{ACAD_REACTORS
330
1A
102
}
330
1A
100
AcDbPlotSettings
  1

  2
none_device
  4

  6

 40
0.0
 41
0.0
 42
0.0
 43
0.0
 44
0.0
 45
0.0
 46
0.0
 47
0.0
 48
0.0
 49
0.0
140
0.0
141
0.0
142
1.0
143
1.0
 70
  1712
 72
     0
 73
     0
 74
     0
  7

 75
     0
147
1.0
148
0.0
149
0.0
100
AcDbLayout
  1
Model
 70
     1
 71
     0
 10
0.0
 20
0.0
 11
297.0
 21
210.0
 12
0.0
 22
0.0
 32
0.0
 14
0.0
 24
0.0
 34
0.0
 15
297.0
 25
210.0
 35
0.0
146
0.0
 13
0.0
 23
0.0
 33
0.0
 16
1.0
 26
0.0
 36
0.0
 17
0.0
 27
1.0
 37
0.0
 76
     0
330
1F
331
29
  0
MLINESTYLE
  5
18
102
{ACAD_REACTORS
330
17
102
}
330
17
100
AcDbMlineStyle
  2
Standard
 70
     0
  3

 62
   256
 51
90.0
 52
90.0
 71
     2
 49
0.5
 62
   256
  6
BYLAYER
 49
-0.5
 62
   256
  6
BYLAYER
  0
ACDBPLACEHOLDER
  5
F
102
{ACAD_REACTORS
330
E
102
}
330
E
  0
ENDSEC
  0
EOF
