  0
SECTION
  2
HEADER
  9
$ACADVER
  1
AC1015
  9
$ACADMAINTVER
 70
     6
  9
$DWGCODEPAGE
  3
ANSI_1252
  9
$INSBASE
 10
0.0
 20
0.0
 30
0.0
  9
$EXTMIN
 10
0.0
 20
0.0
 30
0.0
  9
$EXTMAX
 10
297.0
 20
210.0
 30
0.0
  9
$LIMMIN
 10
0.0
 20
0.0
  9
$LIMMAX
 10
297.0
 20
210.0
  9
$ORTHOMODE
 70
     0
  9
$REGENMODE
 70
     1
  9
$FILLMODE
 70
     1
  9
$QTEXTMODE
 70
     0
  9
$MIRRTEXT
 70
     1
  9
$LTSCALE
 40
1.0
  9
$ATTMODE
 70
     1
  9
$TEXTSIZE
 40
2.0
  9
$TRACEWID
 40
1.0
  9
$TEXTSTYLE
  7
Standard
  9
$CLAYER
  8
0
  9
$CELTYPE
  6
ByLayer
  9
$CECOLOR
 62
   256
  9
$CELTSCALE
 40
1.0
  9
$DISPSILH
 70
     0
  9
$DIMSCALE
 40
1.0
  9
$DIMASZ
 40
3.0
  9
$DIMEXO
 40
0.0
  9
$DIMDLI
 40
3.75
  9
$DIMRND
 40
0.0
  9
$DIMDLE
 40
0.0
  9
$DIMEXE
 40
1.0
  9
$DIMTP
 40
0.0
  9
$DIMTM
 40
0.0
  9
$DIMTXT
 40
2.0
  9
$DIMCEN
 40
2.5
  9
$DIMTSZ
 40
0.0
  9
$DIMTOL
 70
     0
  9
$DIMLIM
 70
     0
  9
$DIMTIH
 70
     1
  9
$DIMTOH
 70
     1
  9
$DIMSE1
 70
     0
  9
$DIMSE2
 70
     0
  9
$DIMTAD
 70
     1
  9
$DIMZIN
 70
     0
  9
$DIMBLK
  1

  9
$DIMASO
 70
     1
  9
$DIMSHO
 70
     1
  9
$DIMPOST
  1

  9
$DIMAPOST
  1

  9
$DIMALT
 70
     0
  9
$DIMALTD
 70
     3
  9
$DIMALTF
 40
0.0393700787
  9
$DIMLFAC
 40
1.0
  9
$DIMTOFL
 70
     1
  9
$DIMTVP
 40
0.0
  9
$DIMTIX
 70
     0
  9
$DIMSOXD
 70
     0
  9
$DIMSAH
 70
     0
  9
$DIMBLK1
  1

  9
$DIMBLK2
  1

  9
$DIMSTYLE
  2
ISO-25
  9
$DIMCLRD
 70
     0
  9
$DIMCLRE
 70
     0
  9
$DIMCLRT
 70
     0
  9
$DIMTFAC
 40
1.0
  9
$DIMGAP
 40
1.524
  9
$DIMJUST
 70
     0
  9
$DIMSD1
 70
     0
  9
$DIMSD2
 70
     0
  9
$DIMTOLJ
 70
     0
  9
$DIMTZIN
 70
     0
  9
$DIMALTZ
 70
     0
  9
$DIMALTTZ
 70
     0
  9
$DIMUPT
 70
     0
  9
$DIMDEC
 70
     2
  9
$DIMTDEC
 70
     3
  9
$DIMALTU
 70
     2
  9
$DIMALTTD
 70
     3
  9
$DIMTXSTY
  7
Standard
  9
$DIMAUNIT
 70
     0
  9
$DIMADEC
 70
     2
  9
$DIMALTRND
 40
0.0
  9
$DIMAZIN
 70
     0
  9
$DIMDSEP
 70
    44
  9
$DIMATFIT
 70
     3
  9
$DIMFRAC
 70
     0
  9
$DIMLDRBLK
  1

  9
$DIMLUNIT
 70
     2
  9
$DIMLWD
 70
    -2
  9
$DIMLWE
 70
    -2
  9
$DIMTMOVE
 70
     0
  9
$LUNITS
 70
     2
  9
$LUPREC
 70
     2
  9
$SKETCHINC
 40
1.0
  9
$FILLETRAD
 40
10.0
  9
$AUNITS
 70
     0
  9
$AUPREC
 70
     2
  9
$MENU
  1
.
  9
$ELEVATION
 40
0.0
  9
$PELEVATION
 40
0.0
  9
$THICKNESS
 40
0.0
  9
$LIMCHECK
 70
     0
  9
$CHAMFERA
 40
10.0
  9
$CHAMFERB
 40
10.0
  9
$CHAMFERC
 40
20.0
  9
$CHAMFERD
 40
0.0
  9
$SKPOLY
 70
     0
  9
$TDCREATE
 40
2456045.647185336
  9
$TDUCREATE
 40
2456045.563852002
  9
$TDUPDATE
 40
2456045.647186956
  9
$TDUUPDATE
 40
2456045.563853623
  9
$TDINDWG
 40
0.0000000116
  9
$TDUSRTIMER
 40
0.0000000116
  9
$USRTIMER
 70
     1
  9
$ANGBASE
 50
0.0
  9
$ANGDIR
 70
     0
  9
$PDMODE
 70
     0
  9
$PDSIZE
 40
-1.0
  9
$PLINEWID
 40
0.0
  9
$SPLFRAME
 70
     0
  9
$SPLINETYPE
 70
     6
  9
$SPLINESEGS
 70
     8
  9
$HANDSEED
  5
24B
  9
$SURFTAB1
 70
     6
  9
$SURFTAB2
 70
     6
  9
$SURFTYPE
 70
     6
  9
$SURFU
 70
     6
  9
$SURFV
 70
     6
  9
$UCSBASE
  2

  9
$UCSNAME
  2

  9
$UCSORG
 10
0.0
 20
0.0
 30
0.0
  9
$UCSXDIR
 10
1.0
 20
0.0
 30
0.0
  9
$UCSYDIR
 10
0.0
 20
1.0
 30
0.0
  9
$UCSORTHOREF
  2

  9
$UCSORTHOVIEW
 70
     0
  9
$UCSORGTOP
 10
0.0
 20
0.0
 30
0.0
  9
$UCSORGBOTTOM
 10
0.0
 20
0.0
 30
0.0
  9
$UCSORGLEFT
 10
0.0
 20
0.0
 30
0.0
  9
$UCSORGRIGHT
 10
0.0
 20
0.0
 30
0.0
  9
$UCSORGFRONT
 10
0.0
 20
0.0
 30
0.0
  9
$UCSORGBACK
 10
0.0
 20
0.0
 30
0.0
  9
$PUCSBASE
  2

  9
$PUCSNAME
  2

  9
$PUCSORG
 10
0.0
 20
0.0
 30
0.0
  9
$PUCSXDIR
 10
1.0
 20
0.0
 30
0.0
  9
$PUCSYDIR
 10
0.0
 20
1.0
 30
0.0
  9
$PUCSORTHOREF
  2

  9
$PUCSORTHOVIEW
 70
     0
  9
$PUCSORGTOP
 10
0.0
 20
0.0
 30
0.0
  9
$PUCSORGBOTTOM
 10
0.0
 20
0.0
 30
0.0
  9
$PUCSORGLEFT
 10
0.0
 20
0.0
 30
0.0
  9
$PUCSORGRIGHT
 10
0.0
 20
0.0
 30
0.0
  9
$PUCSORGFRONT
 10
0.0
 20
0.0
 30
0.0
  9
$PUCSORGBACK
 10
0.0
 20
0.0
 30
0.0
  9
$USERI1
 70
     0
  9
$USERI2
 70
     0
  9
$USERI3
 70
     0
  9
$USERI4
 70
     0
  9
$USERI5
 70
     0
  9
$USERR1
 40
0.0
  9
$USERR2
 40
0.0
  9
$USERR3
 40
0.0
  9
$USERR4
 40
0.0
  9
$USERR5
 40
0.0
  9
$WORLDVIEW
 70
     1
  9
$SHADEDGE
 70
     3
  9
$SHADEDIF
 70
    70
  9
$TILEMODE
 70
     1
  9
$MAXACTVP
 70
    64
  9
$PINSBASE
 10
0.0
 20
0.0
 30
0.0
  9
$PLIMCHECK
 70
     0
  9
$PEXTMIN
 10
1.0000000000E+20
 20
1.0000000000E+20
 30
1.0000000000E+20
  9
$PEXTMAX
 10
-1.0000000000E+20
 20
-1.0000000000E+20
 30
-1.0000000000E+20
  9
$PLIMMIN
 10
0.0
 20
0.0
  9
$PLIMMAX
 10
420.0
 20
297.0
  9
$UNITMODE
 70
     0
  9
$VISRETAIN
 70
     1
  9
$PLINEGEN
 70
     0
  9
$PSLTSCALE
 70
     1
  9
$TREEDEPTH
 70
  3020
  9
$CMLSTYLE
  2
Standard
  9
$CMLJUST
 70
     0
  9
$CMLSCALE
 40
20.0
  9
$PROXYGRAPHICS
 70
     1
  9
$MEASUREMENT
 70
     1
  9
$CELWEIGHT
370
    -1
  9
$ENDCAPS
280
     0
  9
$JOINSTYLE
280
     0
  9
$LWDISPLAY
290
     1
  9
$INSUNITS
 70
     4
  9
$HYPERLINKBASE
  1

  9
$STYLESHEET
  1

  9
$XEDIT
290
     1
  9
$CEPSNTYPE
380
     0
  9
$PSTYLEMODE
290
     1
  9
$FINGERPRINTGUID
  2
{FA3140A0-488E-470A-ACB2-D9405AA2A5A9}
  9
$VERSIONGUID
  2
{FAEB1C32-E019-11D5-929B-00C0DF256EC4}
  9
$EXTNAMES
290
     1
  9
$PSVPSCALE
 40
0.0
  9
$OLESTARTUP
290
     0
  0
ENDSEC
  0
SECTION
  2
CLASSES
  0
CLASS
  1
ACDBDICTIONARYWDFLT
  2
AcDbDictionaryWithDefault
  3
ObjectDBX Classes
 90
        0
280
     0
281
     0
  0
CLASS
  1
VISUALSTYLE
  2
AcDbVisualStyle
  3
ObjectDBX Classes
 90
     4095
280
     0
281
     0
  0
CLASS
  1
MATERIAL
  2
AcDbMaterial
  3
ObjectDBX Classes
 90
     1153
280
     0
281
     0
  0
CLASS
  1
ACDBPLACEHOLDER
  2
AcDbPlaceHolder
  3
ObjectDBX Classes
 90
        0
280
     0
281
     0
  0
CLASS
  1
LAYOUT
  2
AcDbLayout
  3
ObjectDBX Classes
 90
        0
280
     0
281
     0
  0
ENDSEC
  0
SECTION
  2
TABLES
  0
TABLE
  2
VPORT
  5
8
330
0
100
AcDbSymbolTable
 70
     1
  0
VPORT
  5
29
330
8
100
AcDbSymbolTableRecord
100
AcDbViewportTableRecord
  2
*Active
 70
     0
 10
0.0
 20
0.0
 11
1.0
 21
1.0
 12
148.5
 22
105.0
 13
0.0
 23
0.0
 14
10.0
 24
10.0
 15
10.0
 25
10.0
 16
0.0
 26
0.0
 36
1.0
 17
0.0
 27
0.0
 37
0.0
 40
210.0
 41
1.4142857143
 42
50.0
 43
0.0
 44
0.0
 50
0.0
 51
0.0
 71
     0
 72
  2000
 73
     1
 74
     3
 75
     0
 76
     0
 77
     0
 78
     0
281
     0
 65
     1
110
0.0
120
0.0
130
0.0
111
1.0
121
0.0
131
0.0
112
0.0
122
1.0
132
0.0
 79
     0
146
0.0
  0
ENDTAB
  0
TABLE
  2
LTYPE
  5
5
330
0
100
AcDbSymbolTable
 70
     6
  0
LTYPE
  5
14
330
5
100
AcDbSymbolTableRecord
100
AcDbLinetypeTableRecord
  2
ByBlock
 70
     0
  3

 72
    65
 73
     0
 40
0.0
  0
LTYPE
  5
15
330
5
100
AcDbSymbolTableRecord
100
AcDbLinetypeTableRecord
  2
ByLayer
 70
     0
  3

 72
    65
 73
     0
 40
0.0
  0
LTYPE
  5
16
330
5
100
AcDbSymbolTableRecord
100
AcDbLinetypeTableRecord
  2
Continuous
 70
     0
  3
Solid line
 72
    65
 73
     0
 40
0.0
  0
LTYPE
  5
3F
330
5
100
AcDbSymbolTableRecord
100
AcDbLinetypeTableRecord
  2
HIDDEN
 70
     0
  3
Hidden __ __ __ __ __ __ __ __ __ __ __ __ __ __
 72
    65
 73
     2
 40
1.905
 49
1.27
 74
     0
 49
-0.635
 74
     0
  0
LTYPE
  5
40
330
5
100
AcDbSymbolTableRecord
100
AcDbLinetypeTableRecord
  2
PHANTOM
 70
     0
  3
Phantom ______  __  __  ______  __  __  ______
 72
    65
 73
     6
 40
12.7
 49
6.35
 74
     0
 49
-1.27
 74
     0
 49
1.27
 74
     0
 49
-1.27
 74
     0
 49
1.27
 74
     0
 49
-1.27
 74
     0
  0
LTYPE
  5
41
330
5
100
AcDbSymbolTableRecord
100
AcDbLinetypeTableRecord
  2
CENTER
 70
     0
  3
Center ____ _ ____ _ ____ _ ____ _ ____ _ ____
 72
    65
 73
     4
 40
10.16
 49
6.35
 74
     0
 49
-1.27
 74
     0
 49
1.27
 74
     0
 49
-1.27
 74
     0
  0
LTYPE
  5
42
330
5
100
AcDbSymbolTableRecord
100
AcDbLinetypeTableRecord
  2
CENTERX2
 70
     0
  3
Center (2x) ________  __  ________  __  _____
 72
    65
 73
     4
 40
20.32
 49
12.7
 74
     0
 49
-2.54
 74
     0
 49
2.54
 74
     0
 49
-2.54
 74
     0
  0
LTYPE
  5
43
330
5
100
AcDbSymbolTableRecord
100
AcDbLinetypeTableRecord
  2
DOT2
 70
     0
  3
Dot (.5x) ........................................
 72
    65
 73
     2
 40
0.635
 49
0.0
 74
     0
 49
-0.635
 74
     0
  0
ENDTAB
  0
TABLE
  2
LAYER
  5
2
330
0
100
AcDbSymbolTable
 70
     5
  0
LAYER
  5
10
330
2
100
AcDbSymbolTableRecord
100
AcDbLayerTableRecord
  2
0
 70
     0
 62
     7
  6
Continuous
370
    -3
390
F
  0
LAYER
  5
44
330
2
100
AcDbSymbolTableRecord
100
AcDbLayerTableRecord
  2
FORMAT
 70
     0
 62
     7
  6
Continuous
370
    -3
390
F
  0
LAYER
  5
45
330
2
100
AcDbSymbolTableRecord
100
AcDbLayerTableRecord
  2
VERMASSUNG
 70
     0
 62
     7
  6
Continuous
370
    -3
390
F
  0
LAYER
  5
46
330
2
100
AcDbSymbolTableRecord
100
AcDbLayerTableRecord
  2
KOPF_DÜNN
 70
     0
 62
     7
  6
Continuous
370
    -3
390
F
  0
LAYER
  5
47
330
2
100
AcDbSymbolTableRecord
100
AcDbLayerTableRecord
  2
KOPF_DICK
 70
     0
 62
     7
  6
Continuous
370
    15
390
F
  0
ENDTAB
  0
TABLE
  2
STYLE
  5
3
330
0
100
AcDbSymbolTable
 70
     2
  0
STYLE
  5
11
330
3
100
AcDbSymbolTableRecord
100
AcDbTextStyleTableRecord
  2
Standard
 70
     0
 40
0.0
 41
1.0
 50
0.0
 71
     0
 42
2.0
  3
txt
  4

  0
STYLE
  5
48
330
3
100
AcDbSymbolTableRecord
100
AcDbTextStyleTableRecord
  2
SLDTEXTSTYLE0
 70
     0
 40
0.0
 41
0.7
 50
0.0
 71
     0
 42
0.2
  3
TXT
  4

  0
ENDTAB
  0
TABLE
  2
VIEW
  5
6
330
0
100
AcDbSymbolTable
 70
     0
  0
ENDTAB
  0
TABLE
  2
UCS
  5
7
330
0
100
AcDbSymbolTable
 70
     0
  0
ENDTAB
  0
TABLE
  2
APPID
  5
9
330
0
100
AcDbSymbolTable
 70
     1
  0
APPID
  5
12
330
9
100
AcDbSymbolTableRecord
100
AcDbRegAppTableRecord
  2
ACAD
 70
     0
  0
ENDTAB
  0
TABLE
  2
DIMSTYLE
  5
A
330
0
100
AcDbSymbolTable
 70
     5
100
AcDbDimStyleTable
  0
DIMSTYLE
105
27
330
A
100
AcDbSymbolTableRecord
100
AcDbDimStyleTableRecord
  2
ISO-25
 70
     0
 41
2.5
 42
0.625
 43
3.75
 44
1.25
 73
     0
 74
     0
 77
     1
 78
     8
140
2.5
141
2.5
143
0.0393700787
147
0.625
171
     3
172
     1
178
     0
271
     2
272
     2
274
     3
278
    44
283
     0
284
     8
340
11
  0
DIMSTYLE
105
1B4
102
{ACAD_REACTORS
330
1B3
330
1CB
102
}
330
A
100
AcDbSymbolTableRecord
100
AcDbDimStyleTableRecord
  2
SLDDIMSTYLE0
 70
     0
 41
3.0
 44
0.0
 45
0.000000001
 47
0.1
 48
0.1
 71
     1
 73
     0
 74
     0
 77
     1
 78
    12
 79
     3
140
2.0
147
0.5
173
     1
178
     0
271
     2
272
     1
276
     2
284
     8
340
48
  0
DIMSTYLE
105
1C1
102
{ACAD_REACTORS
330
1C0
330
1E0
102
}
330
A
100
AcDbSymbolTableRecord
100
AcDbDimStyleTableRecord
  2
SLDDIMSTYLE1
 70
     0
 41
3.0
 44
0.0
 45
0.000000001
 73
     0
 74
     0
 77
     1
 78
    12
 79
     3
140
2.0
147
0.5
173
     1
178
     0
271
     2
272
     3
276
     2
284
    12
340
48
  0
DIMSTYLE
105
1D8
102
{ACAD_REACTORS
330
1D7
102
}
330
A
100
AcDbSymbolTableRecord
100
AcDbDimStyleTableRecord
  2
SLDDIMSTYLE2
 70
     0
 41
3.0
 44
0.0
 73
     0
 74
     0
 77
     1
 78
    12
 79
     3
140
2.0
147
0.5
173
     1
178
     0
179
     1
272
     3
276
     2
284
    12
340
48
  0
DIMSTYLE
105
23C
102
{ACAD_REACTORS
330
23B
102
}
330
A
100
AcDbSymbolTableRecord
100
AcDbDimStyleTableRecord
  2
SLDDIMSTYLE3
 70
     0
 41
3.0
 44
0.0
 45
0.000000001
 73
     0
 74
     0
 77
     1
 78
    12
 79
     3
140
2.0
147
0.5
172
     1
173
     1
178
     0
271
     2
272
     3
276
     2
284
    12
289
     0
340
48
  0
ENDTAB
  0
TABLE
  2
BLOCK_RECORD
  5
1
330
0
100
AcDbSymbolTable
 70
     7
  0
BLOCK_RECORD
  5
1F
330
1
100
AcDbSymbolTableRecord
100
AcDbBlockTableRecord
  2
*Model_Space
340
22
  0
BLOCK_RECORD
  5
1B
330
1
100
AcDbSymbolTableRecord
100
AcDbBlockTableRecord
  2
*Paper_Space
340
1E
  0
BLOCK_RECORD
  5
23
330
1
100
AcDbSymbolTableRecord
100
AcDbBlockTableRecord
  2
*Paper_Space0
340
26
  0
BLOCK_RECORD
  5
1B5
330
1
100
AcDbSymbolTableRecord
100
AcDbBlockTableRecord
  2
_D
340
0
  0
BLOCK_RECORD
  5
1C2
330
1
100
AcDbSymbolTableRecord
100
AcDbBlockTableRecord
  2
_D_1
340
0
  0
BLOCK_RECORD
  5
1CC
330
1
100
AcDbSymbolTableRecord
100
AcDbBlockTableRecord
  2
_D_2
340
0
  0
BLOCK_RECORD
  5
1D9
330
1
100
AcDbSymbolTableRecord
100
AcDbBlockTableRecord
  2
_D_3
340
0
  0
BLOCK_RECORD
  5
1E1
330
1
100
AcDbSymbolTableRecord
100
AcDbBlockTableRecord
  2
_D_4
340
0
  0
BLOCK_RECORD
  5
23D
330
1
100
AcDbSymbolTableRecord
100
AcDbBlockTableRecord
  2
_D_5
340
0
  0
ENDTAB
  0
ENDSEC
  0
SECTION
  2
BLOCKS
  0
BLOCK
  5
20
330
1F
100
AcDbEntity
  8
0
100
AcDbBlockBegin
  2
*Model_Space
 70
     0
 10
0.0
 20
0.0
 30
0.0
  3
*Model_Space
  1

  0
ENDBLK
  5
21
330
1F
100
AcDbEntity
  8
0
100
AcDbBlockEnd
  0
BLOCK
  5
1C
330
1B
100
AcDbEntity
 67
     1
  8
0
100
AcDbBlockBegin
  2
*Paper_Space
 70
     0
 10
0.0
 20
0.0
 30
0.0
  3
*Paper_Space
  1

  0
ENDBLK
  5
1D
330
1B
100
AcDbEntity
 67
     1
  8
0
100
AcDbBlockEnd
  0
BLOCK
  5
24
330
23
100
AcDbEntity
  8
0
100
AcDbBlockBegin
  2
*Paper_Space0
 70
     0
 10
0.0
 20
0.0
 30
0.0
  3
*Paper_Space0
  1

  0
ENDBLK
  5
25
330
23
100
AcDbEntity
  8
0
100
AcDbBlockEnd
  0
BLOCK
  5
1B6
330
1B5
100
AcDbEntity
  8
0
100
AcDbBlockBegin
  2
_D
 70
     0
 10
0.0
 20
0.0
 30
0.0
  3
_D
  1

  0
SOLID
  5
1B8
330
1B5
100
AcDbEntity
  8
VERMASSUNG
100
AcDbTrace
 10
247.1178601614
 20
99.3082491159
 30
0.0
 11
247.5678601614
 21
102.3082491159
 31
0.0
 12
246.6678601614
 22
102.3082491159
 32
0.0
 13
246.6678601614
 23
102.3082491159
 33
0.0
  0
SOLID
  5
1B9
330
1B5
100
AcDbEntity
  8
VERMASSUNG
100
AcDbTrace
 10
247.1178601614
 20
126.3082491159
 30
0.0
 11
246.6678601614
 21
123.3082491159
 31
0.0
 12
247.5678601614
 22
123.3082491159
 32
0.0
 13
247.5678601614
 23
123.3082491159
 33
0.0
  0
LINE
  5
1BA
330
1B5
100
AcDbEntity
  8
VERMASSUNG
100
AcDbLine
 10
232.5450661248
 20
99.3082491159
 30
0.0
 11
248.1178601614
 21
99.3082491159
 31
0.0
  0
LINE
  5
1BB
330
1B5
100
AcDbEntity
  8
VERMASSUNG
100
AcDbLine
 10
232.5450661248
 20
126.3082491159
 30
0.0
 11
248.1178601614
 21
126.3082491159
 31
0.0
  0
LINE
  5
1BC
330
1B5
100
AcDbEntity
  8
VERMASSUNG
100
AcDbLine
 10
247.1178601614
 20
99.3082491159
 30
0.0
 11
247.1178601614
 21
126.3082491159
 31
0.0
  0
MTEXT
  5
1BD
330
1B5
100
AcDbEntity
  8
VERMASSUNG
100
AcDbMText
 10
244.5397247983
 20
108.2582489289
 30
0.1
 40
2.0
 41
0.0
 71
     1
 72
     1
  1
27
  7
SLDTEXTSTYLE0
 11
6.123233995736766E-17
 21
1.0
 31
0.0
 73
     1
 44
1.0
  0
MTEXT
  5
1BE
330
1B5
100
AcDbEntity
  8
VERMASSUNG
100
AcDbMText
 10
244.5397247983
 20
114.0457490309
 30
0.1
 40
2.0
 41
0.0
 71
     1
 72
     1
  1

  7
SLDTEXTSTYLE0
 11
6.123233995736766E-17
 21
1.0
 31
0.0
 73
     1
 44
1.0
  0
MTEXT
  5
1BF
330
1B5
100
AcDbEntity
  8
VERMASSUNG
100
AcDbMText
 10
245.034258661
 20
114.0582493208
 30
0.1
 40
1.5
 41
0.0
 71
     1
 72
     1
  1
±0.1
  7
SLDTEXTSTYLE0
 11
6.123233995736766E-17
 21
1.0
 31
0.0
 73
     1
 44
1.0
  0
ENDBLK
  5
1B7
330
1B5
100
AcDbEntity
  8
0
100
AcDbBlockEnd
  0
BLOCK
  5
1C3
330
1C2
100
AcDbEntity
  8
0
100
AcDbBlockBegin
  2
_D_1
 70
     0
 10
0.0
 20
0.0
 30
0.0
  3
_D_1
  1

  0
SOLID
  5
1C5
330
1C2
100
AcDbEntity
  8
VERMASSUNG
100
AcDbTrace
 10
158.5450661248
 20
83.1600087409
 30
0.0
 11
161.5450661248
 21
82.7100087409
 31
0.0
 12
161.5450661248
 22
83.6100087409
 32
0.0
 13
161.5450661248
 23
83.6100087409
 33
0.0
  0
SOLID
  5
1C6
330
1C2
100
AcDbEntity
  8
VERMASSUNG
100
AcDbTrace
 10
232.5450661248
 20
83.1600087409
 30
0.0
 11
229.5450661248
 21
83.6100087409
 31
0.0
 12
229.5450661248
 22
82.7100087409
 32
0.0
 13
229.5450661248
 23
82.7100087409
 33
0.0
  0
LINE
  5
1C7
330
1C2
100
AcDbEntity
  8
VERMASSUNG
100
AcDbLine
 10
158.5450661248
 20
113.6767441338
 30
0.0
 11
158.5450661248
 21
82.1600087409
 31
0.0
  0
LINE
  5
1C8
330
1C2
100
AcDbEntity
  8
VERMASSUNG
100
AcDbLine
 10
232.5450661248
 20
99.3082491159
 30
0.0
 11
232.5450661248
 21
82.1600087409
 31
0.0
  0
LINE
  5
1C9
330
1C2
100
AcDbEntity
  8
VERMASSUNG
100
AcDbLine
 10
158.5450661248
 20
83.1600087409
 30
0.0
 11
232.5450661248
 21
83.1600087409
 31
0.0
  0
MTEXT
  5
1CA
330
1C2
100
AcDbEntity
  8
VERMASSUNG
100
AcDbMText
 10
193.1450660108
 20
85.7381441041
 30
0.1
 40
2.0
 41
0.0
 71
     1
 72
     1
  1
74
  7
SLDTEXTSTYLE0
 73
     1
 44
1.0
  0
ENDBLK
  5
1C4
330
1C2
100
AcDbEntity
  8
0
100
AcDbBlockEnd
  0
BLOCK
  5
1CD
330
1CC
100
AcDbEntity
  8
0
100
AcDbBlockBegin
  2
_D_2
 70
     0
 10
0.0
 20
0.0
 30
0.0
  3
_D_2
  1

  0
SOLID
  5
1CF
330
1CC
100
AcDbEntity
  8
VERMASSUNG
100
AcDbTrace
 10
182.5450661248
 20
91.5371986483
 30
0.0
 11
185.5450661248
 21
91.0871986483
 31
0.0
 12
185.5450661248
 22
91.9871986483
 32
0.0
 13
185.5450661248
 23
91.9871986483
 33
0.0
  0
SOLID
  5
1D0
330
1CC
100
AcDbEntity
  8
VERMASSUNG
100
AcDbTrace
 10
232.5450661248
 20
91.5371986483
 30
0.0
 11
229.5450661248
 21
91.9871986483
 31
0.0
 12
229.5450661248
 22
91.0871986483
 32
0.0
 13
229.5450661248
 23
91.0871986483
 33
0.0
  0
LINE
  5
1D1
330
1CC
100
AcDbEntity
  8
VERMASSUNG
100
AcDbLine
 10
182.5450661248
 20
106.6082491159
 30
0.0
 11
182.5450661248
 21
90.5371986483
 31
0.0
  0
LINE
  5
1D2
330
1CC
100
AcDbEntity
  8
VERMASSUNG
100
AcDbLine
 10
232.5450661248
 20
99.3082491159
 30
0.0
 11
232.5450661248
 21
90.5371986483
 31
0.0
  0
LINE
  5
1D3
330
1CC
100
AcDbEntity
  8
VERMASSUNG
100
AcDbLine
 10
182.5450661248
 20
91.5371986483
 30
0.0
 11
232.5450661248
 21
91.5371986483
 31
0.0
  0
MTEXT
  5
1D4
330
1CC
100
AcDbEntity
  8
VERMASSUNG
100
AcDbMText
 10
202.9950659378
 20
94.1153340114
 30
0.1
 40
2.0
 41
0.0
 71
     1
 72
     1
  1
50
  7
SLDTEXTSTYLE0
 73
     1
 44
1.0
  0
MTEXT
  5
1D5
330
1CC
100
AcDbEntity
  8
VERMASSUNG
100
AcDbMText
 10
208.7825660399
 20
94.1153340114
 30
0.1
 40
2.0
 41
0.0
 71
     1
 72
     1
  1

  7
SLDTEXTSTYLE0
 73
     1
 44
1.0
  0
MTEXT
  5
1D6
330
1CC
100
AcDbEntity
  8
VERMASSUNG
100
AcDbMText
 10
208.7950663297
 20
93.6208001486
 30
0.1
 40
1.5
 41
0.0
 71
     1
 72
     1
  1
±0.1
  7
SLDTEXTSTYLE0
 73
     1
 44
1.0
  0
ENDBLK
  5
1CE
330
1CC
100
AcDbEntity
  8
0
100
AcDbBlockEnd
  0
BLOCK
  5
1DA
330
1D9
100
AcDbEntity
  8
0
100
AcDbBlockBegin
  2
_D_3
 70
     0
 10
0.0
 20
0.0
 30
0.0
  3
_D_3
  1

  0
ARC
  5
1DC
330
1D9
100
AcDbEntity
  8
VERMASSUNG
100
AcDbCircle
 10
232.5678229863
 20
99.3082491159
 30
0.0
 40
9.065284662355623
100
AcDbArc
 50
0.0
 51
93.0324608485
  0
SOLID
  5
1DD
330
1D9
100
AcDbEntity
  8
VERMASSUNG
100
AcDbTrace
 10
241.6331076486
 20
99.3082491159
 30
0.0
 11
241.6000293979
 21
102.3416310287
 31
0.0
 12
240.7114953611
 22
102.198427448
 32
0.0
 13
240.7114953611
 23
102.198427448
 33
0.0
  0
SOLID
  5
1DE
330
1D9
100
AcDbEntity
  8
VERMASSUNG
100
AcDbTrace
 10
232.0882538348
 20
108.3608398742
 30
0.0
 11
235.0231399937
 21
107.5934135037
 31
0.0
 12
235.119138071
 22
108.488279063
 32
0.0
 13
235.119138071
 23
108.488279063
 33
0.0
  0
MTEXT
  5
1DF
330
1D9
100
AcDbEntity
  8
VERMASSUNG
100
AcDbMText
 10
238.4760804127
 20
109.7519900744
 30
0.1
 40
2.0
 41
0.0
 71
     1
 72
     1
  1
93°
  7
SLDTEXTSTYLE0
 11
0.7255693350955876
 21
-0.6881490681305519
 31
0.0
 73
     1
 44
1.0
  0
ENDBLK
  5
1DB
330
1D9
100
AcDbEntity
  8
0
100
AcDbBlockEnd
  0
BLOCK
  5
1E2
330
1E1
100
AcDbEntity
  8
0
100
AcDbBlockBegin
  2
_D_4
 70
     0
 10
0.0
 20
0.0
 30
0.0
  3
_D_4
  1

  0
SOLID
  5
1E4
330
1E1
100
AcDbEntity
  8
VERMASSUNG
100
AcDbTrace
 10
148.5450661248
 20
146.3082491159
 30
0.0
 11
148.0950661248
 21
143.3082491159
 31
0.0
 12
148.9950661248
 22
143.3082491159
 32
0.0
 13
148.9950661248
 23
143.3082491159
 33
0.0
  0
SOLID
  5
1E5
330
1E1
100
AcDbEntity
  8
VERMASSUNG
100
AcDbTrace
 10
148.5450661248
 20
106.3082491159
 30
0.0
 11
148.9950661248
 21
109.3082491159
 31
0.0
 12
148.0950661248
 22
109.3082491159
 32
0.0
 13
148.0950661248
 23
109.3082491159
 33
0.0
  0
LINE
  5
1E6
330
1E1
100
AcDbEntity
  8
VERMASSUNG
100
AcDbLine
 10
182.8450661248
 20
146.3082491159
 30
0.0
 11
147.5450661248
 21
146.3082491159
 31
0.0
  0
LINE
  5
1E7
330
1E1
100
AcDbEntity
  8
VERMASSUNG
100
AcDbLine
 10
182.8450661248
 20
106.3082491159
 30
0.0
 11
147.5450661248
 21
106.3082491159
 31
0.0
  0
LINE
  5
1E8
330
1E1
100
AcDbEntity
  8
VERMASSUNG
100
AcDbLine
 10
148.5450661248
 20
146.3082491159
 30
0.0
 11
148.5450661248
 21
106.3082491159
 31
0.0
  0
MTEXT
  5
1E9
330
1E1
100
AcDbEntity
  8
VERMASSUNG
100
AcDbMText
 10
145.7669306358
 20
119.8032491765
 30
0.35
 40
2.0
 41
0.0
 71
     1
 72
     1
  1
PSC
  7
SLDTEXTSTYLE0
 11
-7.044195017643634E-15
 21
1.0
 31
0.0
 73
     1
 44
1.0
  0
MTEXT
  5
1EA
330
1E1
100
AcDbEntity
  8
VERMASSUNG
100
AcDbMText
 10
145.9669306453
 20
124.4032492786
 30
0.35
 40
2.0
 41
0.0
 71
     1
 72
     1
  1
%%c
  7
SLDTEXTSTYLE0
 11
-7.044195017643634E-15
 21
1.0
 31
0.0
 73
     1
 44
1.0
  0
MTEXT
  5
1EB
330
1E1
100
AcDbEntity
  8
VERMASSUNG
100
AcDbMText
 10
145.7669306358
 20
128.0132497586
 30
0.35
 40
2.0
 41
0.0
 71
     1
 72
     1
  1
40
  7
SLDTEXTSTYLE0
 11
-7.044195017643634E-15
 21
1.0
 31
0.0
 73
     1
 44
1.0
  0
ENDBLK
  5
1E3
330
1E1
100
AcDbEntity
  8
0
100
AcDbBlockEnd
  0
BLOCK
  5
23E
330
23D
100
AcDbEntity
  8
0
100
AcDbBlockBegin
  2
_D_5
 70
     0
 10
0.0
 20
0.0
 30
0.0
  3
_D_5
  1

  0
SOLID
  5
240
330
23D
100
AcDbEntity
  8
VERMASSUNG
100
AcDbTrace
 10
69.0435542744
 20
106.9200244299
 30
0.0
 11
66.6040358793
 21
105.1169021378
 31
0.0
 12
67.2404319824
 22
104.4805060348
 32
0.0
 13
67.2404319824
 23
104.4805060348
 33
0.0
  0
SOLID
  5
241
330
23D
100
AcDbEntity
  8
VERMASSUNG
100
AcDbTrace
 10
104.3988933338
 20
142.2753634892
 30
0.0
 11
106.8384117289
 21
144.0784857812
 31
0.0
 12
106.2020156258
 22
144.7148818843
 32
0.0
 13
106.2020156258
 23
144.7148818843
 33
0.0
  0
LINE
  5
242
330
23D
100
AcDbEntity
  8
VERMASSUNG
100
AcDbLine
 10
69.0435542744
 20
106.9200244299
 30
0.0
 11
69.7506610556
 21
106.2129176487
 31
0.0
  0
LINE
  5
243
330
23D
100
AcDbEntity
  8
VERMASSUNG
100
AcDbLine
 10
104.3988933338
 20
142.2753634892
 30
0.0
 11
105.106000115
 21
141.568256708
 31
0.0
  0
LINE
  5
244
330
23D
100
AcDbEntity
  8
VERMASSUNG
100
AcDbLine
 10
69.0435542744
 20
106.9200244299
 30
0.0
 11
64.8009135873
 21
102.6773837427
 31
0.0
  0
LINE
  5
245
330
23D
100
AcDbEntity
  8
VERMASSUNG
100
AcDbLine
 10
69.0435542744
 20
106.9200244299
 30
0.0
 11
104.3988933338
 21
142.2753634892
 31
0.0
  0
LINE
  5
246
330
23D
100
AcDbEntity
  8
VERMASSUNG
100
AcDbLine
 10
104.3988933338
 20
142.2753634892
 30
0.0
 11
116.595134421
 21
154.4716045764
 31
0.0
  0
MTEXT
  5
247
330
23D
100
AcDbEntity
  8
VERMASSUNG
100
AcDbMText
 10
105.0069730806
 20
146.5294773968
 30
0.1
 40
2.0
 41
0.0
 71
     1
 72
     1
  1
%%c
  7
SLDTEXTSTYLE0
 11
0.7071067811865464
 21
0.7071067811865487
 31
0.0
 73
     1
 44
1.0
  0
MTEXT
  5
248
330
23D
100
AcDbEntity
  8
VERMASSUNG
100
AcDbMText
 10
107.4182072078
 20
149.2235542499
 30
0.1
 40
2.0
 41
0.0
 71
     1
 72
     1
  1
50
  7
SLDTEXTSTYLE0
 11
0.7071067811865464
 21
0.7071067811865487
 31
0.0
 73
     1
 44
1.0
  0
MTEXT
  5
249
330
23D
100
AcDbEntity
  8
VERMASSUNG
100
AcDbMText
 10
111.5105881054
 20
153.3159351475
 30
0.1
 40
2.0
 41
0.0
 71
     1
 72
     1
  1
min.
  7
SLDTEXTSTYLE0
 11
0.7071067811865464
 21
0.7071067811865487
 31
0.0
 73
     1
 44
1.0
  0
ENDBLK
  5
23F
330
23D
100
AcDbEntity
  8
0
100
AcDbBlockEnd
  0
ENDSEC
  0
SECTION
  2
ENTITIES
  0
MTEXT
  5
49
330
1F
100
AcDbEntity
  8
KOPF_DÜNN
100
AcDbMText
 10
13.8892156294
 20
23.8442973028
 30
0.0
 40
3.0
 41
0.0
 71
     1
 72
     1
  1
PS4.PDF.LUA.050
  7
SLDTEXTSTYLE0
 73
     1
 44
1.0
  0
MTEXT
  5
4A
330
1F
100
AcDbEntity
  8
VERMASSUNG
100
AcDbMText
 10
13.9329988022
 20
28.8834360957
 30
0.0
 40
3.0
 41
0.0
 71
     1
 72
     1
  1
Klemmhalter links_Turning tool left 93° /55°
  7
SLDTEXTSTYLE0
 73
     1
 44
1.0
  0
MTEXT
  5
4B
330
1F
100
AcDbEntity
  8
VERMASSUNG
100
AcDbMText
 10
98.8601118557
 20
13.8365368179
 30
0.0
 40
2.0
 41
0.0
 71
     1
 72
     1
  1
Datum: 27.04.2012
  7
SLDTEXTSTYLE0
 73
     1
 44
1.0
  0
MTEXT
  5
4C
330
1F
100
AcDbEntity
  8
VERMASSUNG
100
AcDbMText
 10
13.933048693
 20
18.0482802738
 30
0.0
 40
2.0
 41
0.0
 71
     1
 72
     1
  1
PSC ø40 / DN..15 06..
  7
SLDTEXTSTYLE0
 73
     1
 44
1.0
  0
MTEXT
  5
4D
330
1F
100
AcDbEntity
  8
VERMASSUNG
100
AcDbMText
 10
13.9808475933
 20
13.9090973692
 30
0.0
 40
2.0
 41
0.0
 71
     1
 72
     1
  1
Gewicht: 420g
  7
SLDTEXTSTYLE0
 73
     1
 44
1.0
  0
LINE
  5
4E
330
1F
100
AcDbEntity
  8
0
  6
Continuous
 62
     7
370
    15
100
AcDbLine
 10
223.0786609119
 20
110.5158122181
 30
0.0
 11
223.6743162042
 21
109.7704673111
 31
0.0
  0
LINE
  5
4F
330
1F
100
AcDbEntity
  8
0
  6
Continuous
 62
     7
370
    15
100
AcDbLine
 10
219.4714697665
 20
106.9871129393
 30
0.0
 11
219.5538135833
 21
106.8510690629
 31
0.0
  0
LINE
  5
50
330
1F
100
AcDbEntity
  8
0
  6
Continuous
 62
     7
370
    15
100
AcDbLine
 10
231.7343691951
 20
114.1807453632
 30
0.0
 11
231.314920134
 21
114.8737424909
 31
0.0
  0
LINE
  5
51
330
1F
100
AcDbEntity
  8
0
  6
Continuous
 62
     7
370
    15
100
AcDbLine
 10
204.7777383244
 20
146.3082486688
 30
0.0
 11
182.8450661391
 21
146.3082486688
 31
0.0
  0
LINE
  5
52
330
1F
100
AcDbEntity
  8
0
  6
Continuous
 62
     7
370
    15
100
AcDbLine
 10
182.8450661391
 20
106.3082495629
 30
0.0
 11
204.7777383244
 21
106.3082495629
 31
0.0
  0
ARC
  5
53
330
1F
100
AcDbEntity
  8
0
  6
Continuous
 62
     7
370
    15
100
AcDbCircle
 10
182.8450661248
 20
106.6082491159
 30
0.0
 40
0.3000000000000114
100
AcDbArc
 50
180.0
 51
270.0
  0
ARC
  5
54
330
1F
100
AcDbEntity
  8
0
  6
Continuous
 62
     7
370
    15
100
AcDbCircle
 10
182.8450661248
 20
146.0082491159
 30
0.0
 40
0.2999999999999829
100
AcDbArc
 50
90.0
 51
180.0
  0
LWPOLYLINE
  5
55
330
1F
100
AcDbEntity
  8
0
  6
Continuous
 62
     7
370
    15
100
AcDbPolyline
 90
        3
 70
   128
 43
0.0
 10
182.3450661299
 20
112.2184291407
 10
182.470521065
 20
112.1501268744
 10
182.5450661248
 20
112.0973888709
  0
LWPOLYLINE
  5
56
330
1F
100
AcDbEntity
  8
0
  6
Continuous
 62
     7
370
    15
100
AcDbPolyline
 90
        3
 70
   128
 43
0.0
 10
182.5450661248
 20
140.5191093608
 10
182.470521065
 20
140.4663713574
 10
182.3450661299
 20
140.3980690911
  0
ARC
  5
57
330
1F
100
AcDbEntity
  8
0
  6
Continuous
 62
     7
370
    15
100
AcDbCircle
 10
204.7777391368
 20
147.3082491159
 30
0.0
 40
1.000000000000008
100
AcDbArc
 50
270.0
 51
330.0
  0
ARC
  5
58
330
1F
100
AcDbEntity
  8
0
  6
Continuous
 62
     7
370
    15
100
AcDbCircle
 10
204.7777391368
 20
105.3082491159
 30
0.0
 40
1.0
100
AcDbArc
 50
15.0
 51
90.0
  0
LINE
  5
59
330
1F
100
AcDbEntity
  8
0
  6
Continuous
 62
     7
370
    15
100
AcDbLine
 10
218.4569763607
 20
146.8082496821
 30
0.0
 11
205.6437640107
 21
146.8082496821
 31
0.0
  0
LINE
  5
5A
330
1F
100
AcDbEntity
  8
0
  6
Continuous
 62
     7
370
    15
100
AcDbLine
 10
205.7436651206
 20
105.5670676678
 30
0.0
 11
205.7644354767
 21
105.4895536899
 31
0.0
  0
LINE
  5
5B
330
1F
100
AcDbEntity
  8
0
  6
Continuous
 62
     7
370
    15
100
AcDbLine
 10
218.1388551956
 20
121.2676323875
 30
0.0
 11
218.3057370251
 21
118.1174449547
 31
0.0
  0
ARC
  5
5C
330
1F
100
AcDbEntity
  8
0
  6
Continuous
 62
     7
370
    15
100
AcDbCircle
 10
218.8305210661
 20
121.8146953487
 30
0.0
 40
0.9939534500883253
100
AcDbArc
 50
142.6205158579
 51
182.8658986348
  0
LINE
  5
5D
330
1F
100
AcDbEntity
  8
0
  6
Continuous
 62
     7
370
    15
100
AcDbLine
 10
217.8378107613
 20
121.7649991549
 30
0.0
 11
218.0046963161
 21
118.6148117221
 31
0.0
  0
CIRCLE
  5
5E
330
1F
100
AcDbEntity
  8
0
  6
Continuous
 62
     7
370
    15
100
AcDbCircle
 10
223.3833974389
 20
125.7626138972
 30
0.0
 40
3.466177140212015
  0
CIRCLE
  5
5F
330
1F
100
AcDbEntity
  8
0
  6
Continuous
 62
     7
370
    15
100
AcDbCircle
 10
223.4134997356
 20
125.7563587605
 30
0.0
 40
1.98265144068558
  0
SPLINE
  5
60
330
1F
100
AcDbEntity
  8
0
  6
Continuous
 62
     7
370
    15
100
AcDbSpline
210
0.0
220
0.0
230
1.0
 70
     8
 71
     3
 72
    11
 73
     7
 74
     0
 42
0.00000001
 43
0.00000001
 12
1.0
 22
0.0
 32
0.0
 13
1.0
 23
0.0
 33
0.0
 40
0.0
 40
0.0
 40
0.0
 40
0.0
 40
0.1081089208305518
 40
0.4711578895190998
 40
0.813580713398338
 40
1.0
 40
1.0
 40
1.0
 40
1.0
 10
224.7675398951829
 20
126.8823803210878
 30
0.0
 10
224.7103390358577
 20
126.9071025077643
 30
0.0
 10
224.4610475254877
 20
127.0148461907958
 30
0.0
 10
223.9973718934444
 20
127.2019125374282
 30
0.0
 10
223.5043760145248
 20
127.3696200978825
 30
0.0
 10
223.2511672376221
 20
127.4444378124114
 30
0.0
 10
223.1619099742234
 20
127.4708114023567
 30
0.0
  0
SPLINE
  5
61
330
1F
100
AcDbEntity
  8
0
  6
Continuous
 62
     7
370
    15
100
AcDbSpline
210
0.0
220
0.0
230
1.0
 70
     8
 71
     3
 72
    11
 73
     7
 74
     0
 42
0.00000001
 43
0.00000001
 12
1.0
 22
0.0
 32
0.0
 13
1.0
 23
0.0
 33
0.0
 40
0.0
 40
0.0
 40
0.0
 40
0.0
 40
0.2164500377243955
 40
0.4402996232547348
 40
0.7518916170856552
 40
1.0
 40
1.0
 40
1.0
 40
1.0
 10
223.1619099742234
 20
127.4708114023567
 30
0.0
 10
223.0642317070165
 20
127.4053526396937
 30
0.0
 10
222.8655359493092
 20
127.2721973450942
 30
0.0
 10
222.5086143968458
 20
127.005583903778
 30
0.0
 10
222.1418750642171
 20
126.6929324494896
 30
0.0
 10
221.9180551600912
 20
126.4748865206238
 30
0.0
 10
221.8188385134996
 20
126.3782294071759
 30
0.0
  0
SPLINE
  5
62
330
1F
100
AcDbEntity
  8
0
  6
Continuous
 62
     7
370
    15
100
AcDbSpline
210
0.0
220
0.0
230
1.0
 70
     8
 71
     3
 72
    11
 73
     7
 74
     0
 42
0.00000001
 43
0.00000001
 12
1.0
 22
0.0
 32
0.0
 13
1.0
 23
0.0
 33
0.0
 40
0.0
 40
0.0
 40
0.0
 40
0.0
 40
0.2164499478628013
 40
0.4403000022296356
 40
0.7518914411241973
 40
1.0
 40
1.0
 40
1.0
 40
1.0
 10
221.8188385134996
 20
126.3782294071759
 30
0.0
 10
221.8311448211075
 20
126.2724635014286
 30
0.0
 10
221.8561781709453
 20
126.0573157086195
 30
0.0
 10
221.9144490165743
 20
125.6385465728972
 30
0.0
 10
221.9930792239265
 20
125.1626734182874
 30
0.0
 10
222.0542764148379
 20
124.8401759066186
 30
0.0
 10
222.0814044243158
 20
124.6972164762453
 30
0.0
  0
SPLINE
  5
63
330
1F
100
AcDbEntity
  8
0
  6
Continuous
 62
     7
370
    15
100
AcDbSpline
210
0.0
220
0.0
230
1.0
 70
     8
 71
     3
 72
    11
 73
     7
 74
     0
 42
0.00000001
 43
0.00000001
 12
1.0
 22
0.0
 32
0.0
 13
1.0
 23
0.0
 33
0.0
 40
0.0
 40
0.0
 40
0.0
 40
0.0
 40
0.1864189554309231
 40
0.5288411610685471
 40
0.891889520679834
 40
1.0
 40
1.0
 40
1.0
 40
1.0
 10
222.0814044243158
 20
124.6972164762453
 30
0.0
 10
222.1706616751347
 20
124.670842867631
 30
0.0
 10
222.4238704115948
 20
124.5960251015463
 30
0.0
 10
222.916866755638
 20
124.4283182078251
 30
0.0
 10
223.3805419703866
 20
124.241249461004
 30
0.0
 10
223.6298359380581
 20
124.1335074470421
 30
0.0
 10
223.6870380705655
 20
124.1087853367687
 30
0.0
  0
SPLINE
  5
64
330
1F
100
AcDbEntity
  8
0
  6
Continuous
 62
     7
370
    15
100
AcDbSpline
210
0.0
220
0.0
230
1.0
 70
     8
 71
     3
 72
    11
 73
     7
 74
     0
 42
0.00000001
 43
0.00000001
 12
1.0
 22
0.0
 32
0.0
 13
1.0
 23
0.0
 33
0.0
 40
0.0
 40
0.0
 40
0.0
 40
0.0
 40
0.2164506155570112
 40
0.4403006183659272
 40
0.7518909190376665
 40
1.0
 40
1.0
 40
1.0
 40
1.0
 10
223.6870380705655
 20
124.1087853367687
 30
0.0
 10
223.7733589049575
 20
124.1930086157472
 30
0.0
 10
223.9489514606211
 20
124.3643343554299
 30
0.0
 10
224.2866149395356
 20
124.662763258824
 30
0.0
 10
224.6649594031278
 20
124.9562374539506
 30
0.0
 10
224.9179552868749
 20
125.1260785185512
 30
0.0
 10
225.0301058059991
 20
125.2013673465014
 30
0.0
  0
SPLINE
  5
65
330
1F
100
AcDbEntity
  8
0
  6
Continuous
 62
     7
370
    15
100
AcDbSpline
210
0.0
220
0.0
230
1.0
 70
     8
 71
     3
 72
    11
 73
     7
 74
     0
 42
0.00000001
 43
0.00000001
 12
1.0
 22
0.0
 32
0.0
 13
1.0
 23
0.0
 33
0.0
 40
0.0
 40
0.0
 40
0.0
 40
0.0
 40
0.2164499509769264
 40
0.4402996312596555
 40
0.7518914773846849
 40
1.0
 40
1.0
 40
1.0
 40
1.0
 10
225.0301058059991
 20
125.2013673465014
 30
0.0
 10
225.0064416543864
 20
125.3258976806502
 30
0.0
 10
224.9583043497479
 20
125.5792156414946
 30
0.0
 10
224.8807839649415
 20
126.0298031452071
 30
0.0
 10
224.81375279848
 20
126.4864942708374
 30
0.0
 10
224.7817336175911
 20
126.7607888108893
 30
0.0
 10
224.7675398951829
 20
126.8823803210878
 30
0.0
  0
LINE
  5
66
330
1F
100
AcDbEntity
  8
0
  6
Continuous
 62
     7
370
    15
100
AcDbLine
 10
224.6400008565
 20
125.8458810434
 30
0.0
 11
225.030105806
 21
125.2013673465
 31
0.0
  0
LINE
  5
67
330
1F
100
AcDbEntity
  8
0
  6
Continuous
 62
     7
370
    15
100
AcDbLine
 10
224.6400008565
 20
125.8458810434
 30
0.0
 11
224.5087179011
 21
126.6863875307
 31
0.0
  0
LINE
  5
68
330
1F
100
AcDbEntity
  8
0
  6
Continuous
 62
     7
370
    15
100
AcDbLine
 10
224.5087179011
 20
126.6863875307
 30
0.0
 11
224.4579645461
 21
127.0113179734
 31
0.0
  0
LINE
  5
69
330
1F
100
AcDbEntity
  8
0
  6
Continuous
 62
     7
370
    15
100
AcDbLine
 10
221.9836863345
 20
125.2345766797
 30
0.0
 11
222.4941144353
 21
125.0475146034
 31
0.0
  0
LINE
  5
6A
330
1F
100
AcDbEntity
  8
0
  6
Continuous
 62
     7
370
    15
100
AcDbLine
 10
222.4941144353
 20
125.0475146034
 30
0.0
 11
223.2969331211
 21
124.7532990919
 31
0.0
  0
LINE
  5
6B
330
1F
100
AcDbEntity
  8
0
  6
Continuous
 62
     7
370
    15
100
AcDbLine
 10
223.2969331211
 20
124.7532990919
 30
0.0
 11
223.6870380706
 21
124.1087853368
 31
0.0
  0
LINE
  5
6C
330
1F
100
AcDbEntity
  8
0
  6
Continuous
 62
     7
370
    15
100
AcDbLine
 10
223.2969331211
 20
124.7532990919
 30
0.0
 11
223.9684651262
 21
125.2995900967
 31
0.0
  0
LINE
  5
6D
330
1F
100
AcDbEntity
  8
0
  6
Continuous
 62
     7
370
    15
100
AcDbLine
 10
223.9684651262
 20
125.2995900967
 30
0.0
 11
224.6400008565
 21
125.8458810434
 31
0.0
  0
LWPOLYLINE
  5
6E
330
1F
100
AcDbEntity
  8
0
  6
Continuous
 62
     7
370
    15
100
AcDbPolyline
 90
        3
 70
   128
 43
0.0
 10
224.4100871152
 20
127.0306870965
 10
224.4664246804
 20
126.874250981
 10
224.5087179011
 20
126.6863875307
  0
ARC
  5
6F
330
1F
100
AcDbEntity
  8
0
  6
Continuous
 62
     7
370
    15
100
AcDbCircle
 10
223.03062046
 20
126.4635764409
 30
0.0
 40
1.494796583863031
100
AcDbArc
 50
308.8590159454
 51
8.5723286321
  0
ARC
  5
70
330
1F
100
AcDbEntity
  8
0
  6
Continuous
 62
     7
370
    15
100
AcDbCircle
 10
223.0092397708
 20
126.4722886182
 30
0.0
 40
1.515036337670437
100
AcDbArc
 50
250.1226039251
 51
309.2819357091
  0
ARC
  5
71
330
1F
100
AcDbEntity
  8
0
  6
Continuous
 62
     7
370
    15
100
AcDbCircle
 10
222.9935123142
 20
126.4144615673
 30
0.0
 40
1.455315169824549
100
AcDbArc
 50
223.850080347
 51
249.930822728
  0
ELLIPSE
  5
72
330
1F
100
AcDbEntity
  8
0
  6
Continuous
 62
     7
370
    15
100
AcDbEllipse
 10
225.5160826099
 20
111.2300856984
 30
0.0
 11
1.980360473108334
 21
1.266117462755034
 31
0.0
210
0.0
220
0.0
230
1.0
 40
0.9803342941
 41
4.292337748685598
 42
6.068274464541433
  0
ELLIPSE
  5
73
330
1F
100
AcDbEntity
  8
0
  6
Continuous
 62
     7
370
    15
100
AcDbEllipse
 10
225.5160826099
 20
111.2300856984
 30
0.0
 11
1.980360473108334
 21
1.266117462755034
 31
0.0
210
0.0
220
0.0
230
1.0
 40
0.9803342941
 41
2.587145033629445
 42
4.29233774868561
  0
SPLINE
  5
74
330
1F
100
AcDbEntity
  8
0
  6
Continuous
 62
     7
370
    15
100
AcDbSpline
210
0.0
220
0.0
230
1.0
 70
     8
 71
     3
 72
     9
 73
     5
 74
     0
 42
0.00000001
 43
0.00000001
 12
1.0
 22
0.0
 32
0.0
 13
1.0
 23
0.0
 33
0.0
 40
0.0
 40
0.0
 40
0.0
 40
0.0
 40
0.7698889093326199
 40
1.0
 40
1.0
 40
1.0
 40
1.0
 10
223.1462712055505
 20
110.1754231303245
 30
0.0
 10
223.2578238877545
 20
110.0476175031833
 30
0.0
 10
223.4027184054592
 20
109.8816122190546
 30
0.0
 10
223.6160809737883
 20
109.8005559083527
 30
0.0
 10
223.6651780670942
 20
109.7819039522917
 30
0.0
  0
LWPOLYLINE
  5
75
330
1F
100
AcDbEntity
  8
0
  6
Continuous
 62
     7
370
    15
100
AcDbPolyline
 90
        3
 70
   128
 43
0.0
 10
223.4708035952
 20
109.8302135169
 10
223.2355477876
 20
109.8935713916
 10
223.1377738184
 20
109.925946027
  0
LINE
  5
76
330
1F
100
AcDbEntity
  8
0
  6
Continuous
 62
     7
370
    15
100
AcDbLine
 10
218.7426167196
 20
121.3034352212
 30
0.0
 11
219.4987500674
 21
107.0303263068
 31
0.0
  0
ARC
  5
77
330
1F
100
AcDbEntity
  8
0
  6
Continuous
 62
     7
370
    15
100
AcDbCircle
 10
219.1457546702
 20
121.3215783349
 30
0.0
 40
0.4035460070117657
100
AcDbArc
 50
59.4804459384
 51
182.57684216
  0
LINE
  5
78
330
1F
100
AcDbEntity
  8
0
  6
Continuous
 62
     7
370
    15
100
AcDbLine
 10
231.6029782063
 20
114.3115347176
 30
0.0
 11
219.3506884044
 21
121.6692154221
 31
0.0
  0
ARC
  5
79
330
1F
100
AcDbEntity
  8
0
  6
Continuous
 62
     7
370
    15
100
AcDbCircle
 10
231.4051906122
 20
113.9814974709
 30
0.0
 40
0.3847655345738469
100
AcDbArc
 50
2.9783050715
 51
59.0662192108
  0
LINE
  5
7A
330
1F
100
AcDbEntity
  8
0
  6
Continuous
 62
     7
370
    15
100
AcDbLine
 10
232.5455660588
 20
99.7283792048
 30
0.0
 11
231.7894364363
 21
114.0014890506
 31
0.0
  0
ARC
  5
7B
330
1F
100
AcDbEntity
  8
0
  6
Continuous
 62
     7
370
    15
100
AcDbCircle
 10
232.142427976
 20
99.7102358683
 30
0.0
 40
0.4035461490840307
100
AcDbArc
 50
239.4804796162
 51
2.5768729196
  0
LINE
  5
7C
330
1F
100
AcDbEntity
  8
0
  6
Continuous
 62
     7
370
    15
100
AcDbLine
 10
219.6852045721
 20
106.7202797084
 30
0.0
 11
231.9374943739
 21
99.3625985383
 31
0.0
  0
ARC
  5
7D
330
1F
100
AcDbEntity
  8
0
  6
Continuous
 62
     7
370
    15
100
AcDbCircle
 10
219.8829786285
 20
107.0503041371
 30
0.0
 40
0.3847475807678041
100
AcDbArc
 50
182.9763938798
 51
239.0669672255
  0
ARC
  5
7E
330
1F
100
AcDbEntity
  8
0
  6
Continuous
 62
     7
370
    15
100
AcDbCircle
 10
232.1427234986
 20
99.7097481918
 30
0.0
 40
0.3833670484607289
100
AcDbArc
 50
239.4803856258
 51
2.5771220623
  0
LINE
  5
7F
330
1F
100
AcDbEntity
  8
0
  6
Continuous
 62
     7
370
    15
100
AcDbLine
 10
232.5257028109
 20
99.7269859462
 30
0.0
 11
231.7695731884
 21
114.000095792
 31
0.0
  0
ARC
  5
80
330
1F
100
AcDbEntity
  8
0
  6
Continuous
 62
     7
370
    15
100
AcDbCircle
 10
231.4045506347
 20
113.9811117907
 30
0.0
 40
0.3655158779448165
100
AcDbArc
 50
2.9771422532
 51
59.06688427
  0
LINE
  5
81
330
1F
100
AcDbEntity
  8
0
  6
Continuous
 62
     7
370
    15
100
AcDbLine
 10
231.59243936
 20
114.2946395948
 30
0.0
 11
219.3401495582
 21
121.6523193679
 31
0.0
  0
ARC
  5
82
330
1F
100
AcDbEntity
  8
0
  6
Continuous
 62
     7
370
    15
100
AcDbCircle
 10
219.1454626469
 20
121.3220622814
 30
0.0
 40
0.3833702344296616
100
AcDbArc
 50
59.4806041763
 51
182.5765092677
  0
LINE
  5
83
330
1F
100
AcDbEntity
  8
0
  6
Continuous
 62
     7
370
    15
100
AcDbLine
 10
218.7624799675
 20
121.3048284798
 30
0.0
 11
219.5186133152
 21
107.0317195653
 31
0.0
  0
ARC
  5
84
330
1F
100
AcDbEntity
  8
0
  6
Continuous
 62
     7
370
    15
100
AcDbCircle
 10
219.8836417463
 20
107.0507051185
 30
0.0
 40
0.3655218279235493
100
AcDbArc
 50
182.977337323
 51
239.0663691538
  0
LINE
  5
85
330
1F
100
AcDbEntity
  8
0
  6
Continuous
 62
     7
370
    15
100
AcDbLine
 10
219.6957471436
 20
106.7371738999
 30
0.0
 11
231.9480369455
 21
99.3794945925
 31
0.0
  0
LINE
  5
86
330
1F
100
AcDbEntity
  8
0
  6
Continuous
 62
     7
370
    15
100
AcDbLine
 10
220.155570901
 20
119.6414928808
 30
0.0
 11
219.11694879
 21
121.369190786
 31
0.0
  0
LINE
  5
87
330
1F
100
AcDbEntity
  8
0
  6
Continuous
 62
     7
370
    15
100
AcDbLine
 10
220.155570901
 20
119.6414928808
 30
0.0
 11
220.1907152897
 21
118.9780764207
 31
0.0
  0
LINE
  5
88
330
1F
100
AcDbEntity
  8
0
  6
Continuous
 62
     7
370
    15
100
AcDbLine
 10
220.2644797629
 20
107.3902992456
 30
0.0
 11
219.8730784124
 21
107.0960814058
 31
0.0
  0
LINE
  5
89
330
1F
100
AcDbEntity
  8
0
  6
Continuous
 62
     7
370
    15
100
AcDbLine
 10
218.0788631207
 20
122.4000605679
 30
0.0
 11
218.3057370251
 21
118.1174449547
 31
0.0
  0
LINE
  5
8A
330
1F
100
AcDbEntity
  8
0
  6
Continuous
 62
     7
370
    15
100
AcDbLine
 10
230.9256794518
 20
113.8034665882
 30
0.0
 11
231.3692385918
 21
114.0115100815
 31
0.0
  0
LINE
  5
8B
330
1F
100
AcDbEntity
  8
0
  6
Continuous
 62
     7
370
    15
100
AcDbLine
 10
220.7250597543
 20
119.2995065748
 30
0.0
 11
220.155570901
 21
119.6414928808
 31
0.0
  0
ARC
  5
8C
330
1F
100
AcDbEntity
  8
0
  6
Continuous
 62
     7
370
    15
100
AcDbCircle
 10
222.0186028412
 20
116.5445883537
 30
0.0
 40
1.008859776419887
100
AcDbArc
 50
59.4804004876
 51
182.5771485745
  0
LWPOLYLINE
  5
8D
330
1F
100
AcDbEntity
  8
0
  6
Continuous
 62
     7
370
    15
100
AcDbPolyline
 90
        9
 70
   128
 43
0.0
 10
220.7171211606
 20
118.7099807821
 10
220.7168715662
 20
118.7098308391
 10
220.716625697
 20
118.7096813618
 10
220.7163761026
 20
118.7095318846
 10
220.7161265081
 20
118.7093819416
 10
220.7158769137
 20
118.7092324644
 10
220.7156273192
 20
118.7090829871
 10
220.7153814501
 20
118.7089330442
 10
220.7151318556
 20
118.7087831012
  0
SPLINE
  5
8E
330
1F
100
AcDbEntity
  8
0
  6
Continuous
 62
     7
370
    15
100
AcDbSpline
210
0.0
220
0.0
230
1.0
 70
     8
 71
     3
 72
    14
 73
    10
 74
     0
 42
0.00000001
 43
0.00000001
 12
1.0
 22
0.0
 32
0.0
 13
1.0
 23
0.0
 33
0.0
 40
0.0
 40
0.0
 40
0.0
 40
0.0
 40
0.2210605391670432
 40
0.3460809269158023
 40
0.4396026502586487
 40
0.5338906805440355
 40
0.6146568451605966
 40
0.75172775107971
 40
1.0
 40
1.0
 40
1.0
 40
1.0
 10
220.7171211606324
 20
118.7099807820529
 30
0.0
 10
220.7668127144073
 20
118.7420266695892
 30
0.0
 10
220.8446072364649
 20
118.7921960508102
 30
0.0
 10
220.9235928682574
 20
118.8802562944765
 30
0.0
 10
220.9596354293604
 20
118.9563424398422
 30
0.0
 10
220.9634934542577
 20
119.0288317859376
 30
0.0
 10
220.9378650374038
 20
119.1072890869859
 30
0.0
 10
220.8641347719481
 20
119.2069868023727
 30
0.0
 10
220.7795541166202
 20
119.2632541544302
 30
0.0
 10
220.7250597542585
 20
119.2995065748007
 30
0.0
  0
SPLINE
  5
8F
330
1F
100
AcDbEntity
  8
0
  6
Continuous
 62
     7
370
    15
100
AcDbSpline
210
0.0
220
0.0
230
1.0
 70
     8
 71
     3
 72
    14
 73
    10
 74
     0
 42
0.00000001
 43
0.00000001
 12
1.0
 22
0.0
 32
0.0
 13
1.0
 23
0.0
 33
0.0
 40
0.0
 40
0.0
 40
0.0
 40
0.0
 40
0.2234969780691909
 40
0.3567619048256909
 40
0.4531223703155179
 40
0.5344626130533082
 40
0.615731408826955
 40
0.739618005838455
 40
0.9999999999999999
 40
0.9999999999999999
 40
0.9999999999999999
 40
0.9999999999999999
 10
220.190715289718
 20
118.9780764206559
 30
0.0
 10
220.1963821045917
 20
118.919532290671
 30
0.0
 10
220.2054278808975
 20
118.8260799518062
 30
0.0
 10
220.2513190254183
 20
118.7153460168976
 30
0.0
 10
220.3038049593913
 20
118.6517313810779
 30
0.0
 10
220.3638580444314
 20
118.6171247670774
 30
0.0
 10
220.4396035051674
 20
118.6041075279133
 30
0.0
 10
220.5639343327103
 20
118.6244606025591
 30
0.0
 10
220.6540613882601
 20
118.674724246931
 30
0.0
 10
220.7151318556131
 20
118.708783101222
 30
0.0
  0
LINE
  5
90
330
1F
100
AcDbEntity
  8
0
  6
Continuous
 62
     7
370
    15
100
AcDbLine
 10
221.0107634431
 20
116.4992254152
 30
0.0
 11
221.4339415199
 21
108.5110826343
 31
0.0
  0
LINE
  5
91
330
1F
100
AcDbEntity
  8
0
  6
Continuous
 62
     7
370
    15
100
AcDbLine
 10
229.3880994088
 20
113.2958482876
 30
0.0
 11
222.5309352046
 21
117.4136761501
 31
0.0
  0
ARC
  5
92
330
1F
100
AcDbEntity
  8
0
  6
Continuous
 62
     7
370
    15
100
AcDbCircle
 10
228.8936480491
 20
112.4707659207
 30
0.0
 40
0.9618955552258612
100
AcDbArc
 50
2.9775816615
 51
59.0667905974
  0
LINE
  5
93
330
1F
100
AcDbEntity
  8
0
  6
Continuous
 62
     7
370
    15
100
AcDbLine
 10
230.2774230605
 20
104.5325880795
 30
0.0
 11
229.8542449838
 21
112.5207317918
 31
0.0
  0
ARC
  5
94
330
1F
100
AcDbEntity
  8
0
  6
Continuous
 62
     7
370
    15
100
AcDbCircle
 10
229.2695824651
 20
104.4872268147
 30
0.0
 40
1.008860897352582
100
AcDbArc
 50
239.4802713613
 51
2.5770505625
  0
LINE
  5
95
330
1F
100
AcDbEntity
  8
0
  6
Continuous
 62
     7
370
    15
100
AcDbLine
 10
221.9000833696
 20
107.7359652072
 30
0.0
 11
228.7572475737
 21
103.6181392073
 31
0.0
  0
ARC
  5
96
330
1F
100
AcDbEntity
  8
0
  6
Continuous
 62
     7
370
    15
100
AcDbCircle
 10
222.3945390575
 20
108.5610455002
 30
0.0
 40
0.961896001259226
100
AcDbArc
 50
182.9774010346
 51
239.0665059553
  0
LWPOLYLINE
  5
97
330
1F
100
AcDbEntity
  8
0
  6
Continuous
 62
     7
370
    15
100
AcDbPolyline
 90
       32
 70
   128
 43
0.0
 10
224.2843883699
 20
108.3363665193
 10
224.7502433723
 20
108.1179434358
 10
225.2526919013
 20
107.9976947903
 10
225.7711666292
 20
107.9805398285
 10
226.2844371265
 20
108.0671844929
 10
226.7714890307
 20
108.2540804445
 10
227.2123883134
 20
108.5335740744
 10
227.5890822178
 20
108.8942250162
 10
227.8861443168
 20
109.3212699442
 10
228.0914189881
 20
109.7972204834
 10
228.1964982516
 20
110.3025970905
 10
228.1970831221
 20
110.8167048469
 10
228.0931512481
 20
111.3184977248
 10
227.8889494604
 20
111.7874335422
 10
227.592844761
 20
112.2043121531
 10
227.2169592446
 20
112.5520670711
 10
226.7766783601
 20
112.8164620995
 10
226.2900287873
 20
112.9866715445
 10
225.7769371039
 20
113.0557281821
 10
225.2584064967
 20
113.0208035856
 10
224.7556636697
 20
112.8833291977
 10
224.2892945772
 20
112.6489311381
 10
223.878391332
 20
112.3272076174
 10
223.5397736198
 20
111.931328468
 10
223.2873106963
 20
111.4775024279
 10
223.1313327915
 20
110.9843084513
 10
223.0782287782
 20
110.4719376116
 10
223.1301705009
 20
109.9613679498
 10
223.2850308186
 20
109.473500207
 10
223.5364730126
 20
109.0283093899
 10
223.8742003805
 20
108.6440196186
 10
224.2843883699
 20
108.3363665193
  0
LWPOLYLINE
  5
98
330
1F
100
AcDbEntity
  8
0
  6
Continuous
 62
     7
370
    15
100
AcDbPolyline
 90
        3
 70
   128
 43
0.0
 10
223.620634771
 20
109.4329932629
 10
224.0864897734
 20
109.2145701795
 10
224.5598959392
 20
109.0983970016
  0
LWPOLYLINE
  5
99
330
1F
100
AcDbEntity
  8
0
  6
Continuous
 62
     7
370
    15
100
AcDbPolyline
 90
        3
 70
   128
 43
0.0
 10
223.1772134668
 20
109.7719648778
 10
223.2104467815
 20
109.7406463622
 10
223.620634771
 20
109.4329932629
  0
SPLINE
  5
9A
330
1F
100
AcDbEntity
  8
0
  6
Continuous
 62
     7
370
    15
100
AcDbSpline
210
0.0
220
0.0
230
1.0
 70
     8
 71
     3
 72
    11
 73
     7
 74
     0
 42
0.00000001
 43
0.00000001
 12
1.0
 22
0.0
 32
0.0
 13
1.0
 23
0.0
 33
0.0
 40
0.0
 40
0.0
 40
0.0
 40
0.0
 40
0.3280473525088609
 40
0.6557052263356179
 40
0.990697588763006
 40
1.0
 40
1.0
 40
1.0
 40
1.0
 10
220.2644797629178
 20
107.3902992456467
 30
0.0
 10
220.3252190907502
 20
107.4336861367307
 30
0.0
 10
220.4466256328215
 20
107.5204084072221
 30
0.0
 10
220.6579468475027
 20
107.6445720939537
 30
0.0
 10
220.7962944305204
 20
107.7144326642223
 30
0.0
 10
220.8623403631672
 20
107.7444379261799
 30
0.0
 10
220.8641248411001
 20
107.7452486305744
 30
0.0
  0
LINE
  5
9B
330
1F
100
AcDbEntity
  8
0
  6
Continuous
 62
     7
370
    15
100
AcDbLine
 10
230.9653686947
 20
101.6666365712
 30
0.0
 11
232.1253682143
 21
99.7384002357
 31
0.0
  0
LINE
  5
9C
330
1F
100
AcDbEntity
  8
0
  6
Continuous
 62
     7
370
    15
100
AcDbLine
 10
230.3958798415
 20
102.0086219459
 30
0.0
 11
230.9653686947
 21
101.6666365712
 31
0.0
  0
SPLINE
  5
9D
330
1F
100
AcDbEntity
  8
0
  6
Continuous
 62
     7
370
    15
100
AcDbSpline
210
0.0
220
0.0
230
1.0
 70
     8
 71
     3
 72
    11
 73
     7
 74
     0
 42
0.00000001
 43
0.00000001
 12
1.0
 22
0.0
 32
0.0
 13
1.0
 23
0.0
 33
0.0
 40
0.0
 40
0.0
 40
0.0
 40
0.0
 40
0.3280459039801329
 40
0.6557044087966201
 40
0.9906963903826553
 40
0.9999999999999999
 40
0.9999999999999999
 40
0.9999999999999999
 40
0.9999999999999999
 10
230.9256794518293
 20
113.8034665881903
 30
0.0
 10
230.8588619029989
 20
113.7701226222677
 30
0.0
 10
230.7253057121686
 20
113.7034740673037
 30
0.0
 10
230.5166044842902
 20
113.5749778797207
 30
0.0
 10
230.390122182729
 20
113.4855235662344
 30
0.0
 10
230.3327008456293
 20
113.4412615072183
 30
0.0
 10
230.3311491972268
 20
113.4400654508979
 30
0.0
  0
LINE
  5
9E
330
1F
100
AcDbEntity
  8
0
  6
Continuous
 62
     7
370
    15
100
AcDbLine
 10
230.9653686947
 20
101.6666365712
 30
0.0
 11
230.930224306
 21
102.3300530314
 31
0.0
  0
ARC
  5
9F
330
1F
100
AcDbEntity
  8
0
  6
Continuous
 62
     7
370
    15
100
AcDbCircle
 10
230.0474496422
 20
103.192315876
 30
0.0
 40
0.6928440169372805
100
AcDbArc
 50
300.9544492799
 51
301.1464722568
  0
SPLINE
  5
A0
330
1F
100
AcDbEntity
  8
0
  6
Continuous
 62
     7
370
    15
100
AcDbSpline
210
0.0
220
0.0
230
1.0
 70
     8
 71
     3
 72
    14
 73
    10
 74
     0
 42
0.00000001
 43
0.00000001
 12
1.0
 22
0.0
 32
0.0
 13
1.0
 23
0.0
 33
0.0
 40
0.0
 40
0.0
 40
0.0
 40
0.0
 40
0.223496253249112
 40
0.3567638935067258
 40
0.4531223819655115
 40
0.5344625412062713
 40
0.6157313186675892
 40
0.739618174766282
 40
0.9999999999999999
 40
0.9999999999999999
 40
0.9999999999999999
 40
0.9999999999999999
 10
230.9302243059934
 20
102.3300530313761
 30
0.0
 10
230.9245584018074
 20
102.3885973709787
 30
0.0
 10
230.9155139994595
 20
102.4820508684571
 30
0.0
 10
230.8696154060239
 20
102.5927804708547
 30
0.0
 10
230.8171351726882
 20
102.6563995863923
 30
0.0
 10
230.7570812945135
 20
102.6910046777863
 30
0.0
 10
230.6813360721638
 20
102.7040206251354
 30
0.0
 10
230.5570054858138
 20
102.6836680738812
 30
0.0
 10
230.4668782652893
 20
102.6334051514711
 30
0.0
 10
230.4058077400983
 20
102.5993468164713
 30
0.0
  0
SPLINE
  5
A1
330
1F
100
AcDbEntity
  8
0
  6
Continuous
 62
     7
370
    15
100
AcDbSpline
210
0.0
220
0.0
230
1.0
 70
     8
 71
     3
 72
    14
 73
    10
 74
     0
 42
0.00000001
 43
0.00000001
 12
1.0
 22
0.0
 32
0.0
 13
1.0
 23
0.0
 33
0.0
 40
0.0
 40
0.0
 40
0.0
 40
0.0
 40
0.22106041375222
 40
0.34608053784877
 40
0.4396025862639187
 40
0.5338898677503368
 40
0.6146563382400823
 40
0.751723966662914
 40
1.0
 40
1.0
 40
1.0
 40
1.0
 10
230.4038184350789
 20
102.5981491356403
 30
0.0
 10
230.3541269162199
 20
102.5661030560908
 30
0.0
 10
230.2763324921466
 20
102.515933402202
 30
0.0
 10
230.1973465593253
 20
102.4278730967444
 30
0.0
 10
230.1613043164045
 20
102.3517867786248
 30
0.0
 10
230.1574461005108
 20
102.2792974014437
 30
0.0
 10
230.183074608177
 20
102.2008409362393
 30
0.0
 10
230.2568005984824
 20
102.1011401304487
 30
0.0
 10
230.3413833618905
 20
102.0448740511493
 30
0.0
 10
230.3958798414529
 20
102.0086219459087
 30
0.0
  0
SPLINE
  5
A2
330
1F
100
AcDbEntity
  8
0
  6
Continuous
 62
     7
370
    15
100
AcDbSpline
210
0.0
220
0.0
230
1.0
 70
     8
 71
     3
 72
    12
 73
     8
 74
     0
 42
0.00000001
 43
0.00000001
 12
1.0
 22
0.0
 32
0.0
 13
1.0
 23
0.0
 33
0.0
 40
0.0
 40
0.0
 40
0.0
 40
0.0
 40
0.5000000000000006
 40
0.5000000000000006
 40
0.7500000000000002
 40
0.7500000000000002
 40
1.0
 40
1.0
 40
1.0
 40
1.0
 10
189.2171605056668
 20
132.4464942429343
 30
0.0
 10
189.2358537387972
 20
132.378911606494
 30
0.0
 10
189.261509036209
 20
132.3124290370165
 30
0.0
 10
189.3216696588954
 20
132.223433954119
 30
0.0
 10
189.3457419706498
 20
132.1954320571199
 30
0.0
 10
189.4041234910003
 20
132.1523556564547
 30
0.0
 10
189.4395923186534
 20
132.1374621115269
 30
0.0
 10
189.4769681268021
 20
132.1374621115269
 30
0.0
  0
LINE
  5
A3
330
1F
100
AcDbEntity
  8
0
  6
Continuous
 62
     7
370
    15
100
AcDbLine
 10
189.4769680342
 20
132.137462303
 30
0.0
 11
191.613164044
 21
132.137462303
 31
0.0
  0
SPLINE
  5
A4
330
1F
100
AcDbEntity
  8
0
  6
Continuous
 62
     7
370
    15
100
AcDbSpline
210
0.0
220
0.0
230
1.0
 70
     8
 71
     3
 72
    12
 73
     8
 74
     0
 42
0.00000001
 43
0.00000001
 12
1.0
 22
0.0
 32
0.0
 13
1.0
 23
0.0
 33
0.0
 40
0.0
 40
0.0
 40
0.0
 40
0.0
 40
0.25
 40
0.25
 40
0.5
 40
0.5
 40
1.0
 40
1.0
 40
1.0
 40
1.0
 10
191.6131641228037
 20
132.1374621115269
 30
0.0
 10
191.6506760088484
 20
132.1374621115269
 30
0.0
 10
191.6859633565531
 20
132.1522669258138
 30
0.0
 10
191.7448932047915
 20
132.1958587989396
 30
0.0
 10
191.7684189312606
 20
132.2233722250256
 30
0.0
 10
191.8286777190287
 20
132.3125039571392
 30
0.0
 10
191.854272481318
 20
132.378889807757
 30
0.0
 10
191.872971743939
 20
132.4464942429343
 30
0.0
  0
ELLIPSE
  5
A5
330
1F
100
AcDbEntity
  8
0
  6
Continuous
 62
     7
370
    15
100
AcDbEllipse
 10
181.5961369524
 20
126.3082491159
 30
0.0
 11
9.367417879781694
 21
19.74174915274993
 31
0.0
210
0.0
220
0.0
230
1.0
 40
0.3419987131
 41
5.185211263708393
 42
6.132113578252549
  0
SPLINE
  5
A6
330
1F
100
AcDbEntity
  8
0
  6
Continuous
 62
     7
370
    15
100
AcDbSpline
210
0.0
220
0.0
230
1.0
 70
     8
 71
     3
 72
    12
 73
     8
 74
     0
 42
0.00000001
 43
0.00000001
 12
1.0
 22
0.0
 32
0.0
 13
1.0
 23
0.0
 33
0.0
 40
0.0
 40
0.0
 40
0.0
 40
0.0
 40
0.5000000000000038
 40
0.5000000000000038
 40
0.7500000000000019
 40
0.7500000000000019
 40
1.0
 40
1.0
 40
1.0
 40
1.0
 10
191.872971743939
 20
145.3430053990573
 30
0.0
 10
191.8542785108086
 20
145.3647991526852
 30
0.0
 10
191.8286232133968
 20
145.3858193143949
 30
0.0
 10
191.7684625907104
 20
145.4135246603586
 30
0.0
 10
191.744390278956
 20
145.422159876552
 30
0.0
 10
191.6860087586055
 20
145.4353745217786
 30
0.0
 10
191.6505399309524
 20
145.4399054961087
 30
0.0
 10
191.6131641228037
 20
145.4399054961087
 30
0.0
  0
LINE
  5
A7
330
1F
100
AcDbEntity
  8
0
  6
Continuous
 62
     7
370
    15
100
AcDbLine
 10
191.613164044
 20
145.439905852
 30
0.0
 11
189.4769680342
 21
145.439905852
 31
0.0
  0
SPLINE
  5
A8
330
1F
100
AcDbEntity
  8
0
  6
Continuous
 62
     7
370
    15
100
AcDbSpline
210
0.0
220
0.0
230
1.0
 70
     8
 71
     3
 72
    12
 73
     8
 74
     0
 42
0.00000001
 43
0.00000001
 12
1.0
 22
0.0
 32
0.0
 13
1.0
 23
0.0
 33
0.0
 40
0.0
 40
0.0
 40
0.0
 40
0.0
 40
0.2500000000000003
 40
0.2500000000000003
 40
0.5000000000000006
 40
0.5000000000000006
 40
1.0
 40
1.0
 40
1.0
 40
1.0
 10
189.4769681268021
 20
145.4399054961087
 30
0.0
 10
189.4394562407574
 20
145.4399054961087
 30
0.0
 10
189.4041688930527
 20
145.4354019518462
 30
0.0
 10
189.3452390448143
 20
145.4220287523929
 30
0.0
 10
189.3217133183452
 20
145.4135438498218
 30
0.0
 10
189.2614545305771
 20
145.3857960459872
 30
0.0
 10
189.2358597682878
 20
145.3648061822468
 30
0.0
 10
189.2171605056668
 20
145.3430053990573
 30
0.0
  0
ELLIPSE
  5
A9
330
1F
100
AcDbEntity
  8
0
  6
Continuous
 62
     7
370
    15
100
AcDbEllipse
 10
199.4939952972
 20
126.3082491159
 30
0.0
 11
-9.367417879781584
 21
19.74174915274993
 31
0.0
210
0.0
220
0.0
230
1.0
 40
0.3419987131
 41
0.1510717289270749
 42
1.097974043471208
  0
SPLINE
  5
AA
330
1F
100
AcDbEntity
  8
0
  6
Continuous
 62
     7
370
    15
100
AcDbSpline
210
0.0
220
0.0
230
1.0
 70
     8
 71
     3
 72
    12
 73
     8
 74
     0
 42
0.00000001
 43
0.00000001
 12
1.0
 22
0.0
 32
0.0
 13
1.0
 23
0.0
 33
0.0
 40
0.0
 40
0.0
 40
0.0
 40
0.0
 40
0.5
 40
0.5
 40
0.75
 40
0.75
 40
1.0
 40
1.0
 40
1.0
 40
1.0
 10
189.2171605056668
 20
107.2734928326935
 30
0.0
 10
189.2359637385184
 20
107.2515708344324
 30
0.0
 10
189.2615003975376
 20
107.2306770264225
 30
0.0
 10
189.3217265714861
 20
107.2029503003047
 30
0.0
 10
189.3456526488861
 20
107.1943771669292
 30
0.0
 10
189.4037135690674
 20
107.1811980611217
 30
0.0
 10
189.4395152676933
 20
107.176592735642
 30
0.0
 10
189.4769681268021
 20
107.176592735642
 30
0.0
  0
LINE
  5
AB
330
1F
100
AcDbEntity
  8
0
  6
Continuous
 62
     7
370
    15
100
AcDbLine
 10
189.4769680342
 20
107.1765923797
 30
0.0
 11
191.613164044
 21
107.1765923797
 31
0.0
  0
SPLINE
  5
AC
330
1F
100
AcDbEntity
  8
0
  6
Continuous
 62
     7
370
    15
100
AcDbSpline
210
0.0
220
0.0
230
1.0
 70
     8
 71
     3
 72
    12
 73
     8
 74
     0
 42
0.00000001
 43
0.00000001
 12
1.0
 22
0.0
 32
0.0
 13
1.0
 23
0.0
 33
0.0
 40
0.0
 40
0.0
 40
0.0
 40
0.0
 40
0.25
 40
0.25
 40
0.5
 40
0.5
 40
1.0
 40
1.0
 40
1.0
 40
1.0
 10
191.6131641228037
 20
107.176592735642
 30
0.0
 10
191.6506649456815
 20
107.176592735642
 30
0.0
 10
191.6859433497174
 20
107.1810937035052
 30
0.0
 10
191.7448610697698
 20
107.1944602247225
 30
0.0
 10
191.7683844511682
 20
107.2029414849673
 30
0.0
 10
191.8286400356342
 20
107.2306788806452
 30
0.0
 10
191.8541616880453
 20
107.2515628796983
 30
0.0
 10
191.872971743939
 20
107.2734928326935
 30
0.0
  0
ELLIPSE
  5
AD
330
1F
100
AcDbEntity
  8
0
  6
Continuous
 62
     7
370
    15
100
AcDbEllipse
 10
181.5961369524
 20
126.3082491159
 30
0.0
 11
-9.367417879781783
 21
19.74174915274993
 31
0.0
210
0.0
220
0.0
230
1.0
 40
0.3419987131
 41
3.292664382516893
 42
4.239566697060997
  0
SPLINE
  5
AE
330
1F
100
AcDbEntity
  8
0
  6
Continuous
 62
     7
370
    15
100
AcDbSpline
210
0.0
220
0.0
230
1.0
 70
     8
 71
     3
 72
    12
 73
     8
 74
     0
 42
0.00000001
 43
0.00000001
 12
1.0
 22
0.0
 32
0.0
 13
1.0
 23
0.0
 33
0.0
 40
0.0
 40
0.0
 40
0.0
 40
0.0
 40
0.5000000000000056
 40
0.5000000000000056
 40
0.7500000000000028
 40
0.7500000000000028
 40
1.0
 40
1.0
 40
1.0
 40
1.0
 10
191.872971743939
 20
120.1700039888162
 30
0.0
 10
191.8541685110874
 20
120.2379843130787
 30
0.0
 10
191.8286318520681
 20
120.3040747008755
 30
0.0
 10
191.7684056781197
 20
120.3931393133226
 30
0.0
 10
191.7444796007197
 20
120.4209404003426
 30
0.0
 10
191.6864186805384
 20
120.4638994735674
 30
0.0
 10
191.6506169819125
 20
120.4790361202237
 30
0.0
 10
191.6131641228037
 20
120.4790361202237
 30
0.0
  0
LINE
  5
AF
330
1F
100
AcDbEntity
  8
0
  6
Continuous
 62
     7
370
    15
100
AcDbLine
 10
191.613164044
 20
120.4790359288
 30
0.0
 11
189.4769680342
 21
120.4790359288
 31
0.0
  0
SPLINE
  5
B0
330
1F
100
AcDbEntity
  8
0
  6
Continuous
 62
     7
370
    15
100
AcDbSpline
210
0.0
220
0.0
230
1.0
 70
     8
 71
     3
 72
    12
 73
     8
 74
     0
 42
0.00000001
 43
0.00000001
 12
1.0
 22
0.0
 32
0.0
 13
1.0
 23
0.0
 33
0.0
 40
0.0
 40
0.0
 40
0.0
 40
0.0
 40
0.2500000000000008
 40
0.2500000000000008
 40
0.5000000000000016
 40
0.5000000000000016
 40
1.0
 40
1.0
 40
1.0
 40
1.0
 10
189.4769681268021
 20
120.4790361202237
 30
0.0
 10
189.4394673039243
 20
120.4790361202237
 30
0.0
 10
189.4041888998884
 20
120.4642397824706
 30
0.0
 10
189.345271179836
 20
120.4206695213115
 30
0.0
 10
189.3217477984376
 20
120.3931677228099
 30
0.0
 10
189.2614922139716
 20
120.3040685595668
 30
0.0
 10
189.2359705615605
 20
120.2380089807845
 30
0.0
 10
189.2171605056667
 20
120.1700039888162
 30
0.0
  0
ELLIPSE
  5
B1
330
1F
100
AcDbEntity
  8
0
  6
Continuous
 62
     7
370
    15
100
AcDbEllipse
 10
199.4939952972
 20
126.3082491159
 30
0.0
 11
9.367417879781669
 21
19.74174915274996
 31
0.0
210
0.0
220
0.0
230
1.0
 40
0.3419987131
 41
2.043618610118597
 42
2.99052092466273
  0
SPLINE
  5
B2
330
1F
100
AcDbEntity
  8
0
  6
Continuous
 62
     7
370
    15
100
AcDbSpline
210
0.0
220
0.0
230
1.0
 70
     8
 71
     3
 72
    10
 73
     6
 74
     0
 42
0.00000001
 43
0.00000001
 12
1.0
 22
0.0
 32
0.0
 13
1.0
 23
0.0
 33
0.0
 40
0.0
 40
0.0
 40
0.0
 40
0.0
 40
0.5
 40
0.5
 40
1.0
 40
1.0
 40
1.0
 40
1.0
 10
204.402761003665
 20
143.0542372982529
 30
0.0
 10
204.4294225741264
 20
143.1134011652891
 30
0.0
 10
204.4748671725108
 20
143.1681611831763
 30
0.0
 10
204.6023868538786
 20
143.2649886103492
 30
0.0
 10
204.682723286627
 20
143.3056845793049
 30
0.0
 10
204.7777391368239
 20
143.3364079122358
 30
0.0
  0
ELLIPSE
  5
B3
330
1F
100
AcDbEntity
  8
0
  6
Continuous
 62
     7
370
    15
100
AcDbEllipse
 10
206.5090712465
 20
126.3082491159
 30
0.0
 11
0.9999649288125453
 21
19.99826732264189
 31
0.0
210
0.0
220
0.0
230
1.0
 40
0.263265937
 41
0.5916345652338041
 42
2.925350369403696
  0
SPLINE
  5
B4
330
1F
100
AcDbEntity
  8
0
  6
Continuous
 62
     7
370
    15
100
AcDbSpline
210
0.0
220
0.0
230
1.0
 70
     8
 71
     3
 72
     8
 73
     4
 74
     0
 42
0.00000001
 43
0.00000001
 12
1.0
 22
0.0
 32
0.0
 13
1.0
 23
0.0
 33
0.0
 40
0.0
 40
0.0
 40
0.0
 40
0.0
 40
1.0
 40
1.0
 40
1.0
 40
1.0
 10
204.7777391368239
 20
106.7191948017334
 30
0.0
 10
204.5879317502146
 20
106.7427934048236
 30
0.0
 10
204.4560313112444
 20
106.7830486271709
 30
0.0
 10
204.4027610036649
 20
106.8322140021781
 30
0.0
  0
LINE
  5
B5
330
1F
100
AcDbEntity
  8
0
  6
Continuous
 62
     7
370
    15
100
AcDbLine
 10
182.5450661248
 20
106.6082490533
 30
0.0
 11
182.5450661248
 21
146.0082491785
 31
0.0
  0
ELLIPSE
  5
B6
330
1F
100
AcDbEntity
  8
0
  6
Continuous
 62
     7
370
    15
100
AcDbEllipse
 10
203.3124329977
 20
116.976143229
 30
0.0
 11
-0.07015558194842697
 21
2.493831804543646
 31
0.0
210
0.0
220
0.0
230
1.0
 40
0.2406917832
 41
0.0
 42
6.283185307179586
  0
SPLINE
  5
B7
330
1F
100
AcDbEntity
  8
0
  6
Continuous
 62
     7
370
    15
100
AcDbSpline
210
0.0
220
0.0
230
1.0
 70
     8
 71
     3
 72
    18
 73
    14
 74
     0
 42
0.00000001
 43
0.00000001
 12
1.0
 22
0.0
 32
0.0
 13
1.0
 23
0.0
 33
0.0
 40
0.0
 40
0.0
 40
0.0
 40
0.0
 40
0.25
 40
0.25
 40
0.5
 40
0.5
 40
0.625
 40
0.625
 40
0.75
 40
0.75
 40
0.875
 40
0.875
 40
1.0
 40
1.0
 40
1.0
 40
1.0
 10
181.2889818072389
 20
112.4770607331965
 30
0.0
 10
181.3232786266907
 20
112.4761990777147
 30
0.0
 10
181.3610899066678
 20
112.4764506808096
 30
0.0
 10
181.4476622738478
 20
112.4788491934215
 30
0.0
 10
181.4960014039307
 20
112.4810201781534
 30
0.0
 10
181.5852737612532
 20
112.4851150564486
 30
0.0
 10
181.6178152270291
 20
112.4866196743983
 30
0.0
 10
181.6939914268826
 20
112.4895827323664
 30
0.0
 10
181.7372074868771
 20
112.4910700706222
 30
0.0
 10
181.8428967888431
 20
112.4926954819458
 30
0.0
 10
181.9078678475576
 20
112.4926532408719
 30
0.0
 10
182.0415282359155
 20
112.4886310675509
 30
0.0
 10
182.1008346892517
 20
112.4850898407274
 30
0.0
 10
182.1500892359276
 20
112.4815231332913
 30
0.0
  0
SPLINE
  5
B8
330
1F
100
AcDbEntity
  8
0
  6
Continuous
 62
     7
370
    15
100
AcDbSpline
210
0.0
220
0.0
230
1.0
 70
     8
 71
     3
 72
    14
 73
    10
 74
     0
 42
0.00000001
 43
0.00000001
 12
1.0
 22
0.0
 32
0.0
 13
1.0
 23
0.0
 33
0.0
 40
0.0
 40
0.0
 40
0.0
 40
0.0
 40
0.1250000000000019
 40
0.1250000000000019
 40
0.2500000000000038
 40
0.2500000000000038
 40
0.5000000000000024
 40
0.5000000000000024
 40
1.0
 40
1.0
 40
1.0
 40
1.0
 10
182.1500892358968
 20
112.4815231333103
 30
0.0
 10
182.1616160136142
 20
112.4806884358763
 30
0.0
 10
182.1749688212666
 20
112.4789480215961
 30
0.0
 10
182.2051113938668
 20
112.4717004315958
 30
0.0
 10
182.2201719194813
 20
112.4663533973679
 30
0.0
 10
182.2555182734096
 20
112.4506061271394
 30
0.0
 10
182.2692503731386
 20
112.4407678529781
 30
0.0
 10
182.3026216188296
 20
112.4145638670277
 30
0.0
 10
182.3135619866836
 20
112.4004759656271
 30
0.0
 10
182.3222151116969
 20
112.3877023421387
 30
0.0
  0
LINE
  5
B9
330
1F
100
AcDbEntity
  8
0
  6
Continuous
 62
     7
370
    15
100
AcDbLine
 10
182.3450661299
 20
120.8028041682
 30
0.0
 11
182.3450661299
 21
112.2184291407
 31
0.0
  0
SPLINE
  5
BA
330
1F
100
AcDbEntity
  8
0
  6
Continuous
 62
     7
370
    15
100
AcDbSpline
210
0.0
220
0.0
230
1.0
 70
     8
 71
     3
 72
    16
 73
    12
 74
     0
 42
0.00000001
 43
0.00000001
 12
1.0
 22
0.0
 32
0.0
 13
1.0
 23
0.0
 33
0.0
 40
0.0
 40
0.0
 40
0.0
 40
0.0
 40
0.5000000000000006
 40
0.5000000000000006
 40
0.7499999999999991
 40
0.7499999999999991
 40
0.8750000000000008
 40
0.8750000000000008
 40
0.9375000000000003
 40
0.9375000000000003
 40
1.0
 40
1.0
 40
1.0
 40
1.0
 10
182.3450661248029
 20
120.8028043489125
 30
0.0
 10
182.3450661248029
 20
120.920379729932
 30
0.0
 10
182.341182699644
 20
121.0390754830332
 30
0.0
 10
182.3163673743693
 20
121.2198329610257
 30
0.0
 10
182.3055279266568
 20
121.2814770377987
 30
0.0
 10
182.272312144608
 20
121.3708140121399
 30
0.0
 10
182.2589304009792
 20
121.4010735435651
 30
0.0
 10
182.223420751117
 20
121.4345897875525
 30
0.0
 10
182.2080037846162
 20
121.4427281333586
 30
0.0
 10
182.1763027624676
 20
121.4427127239272
 30
0.0
 10
182.1621564775168
 20
121.4356704865714
 30
0.0
 10
182.1500892359271
 20
121.4265294229617
 30
0.0
  0
SPLINE
  5
BB
330
1F
100
AcDbEntity
  8
0
  6
Continuous
 62
     7
370
    15
100
AcDbSpline
210
0.0
220
0.0
230
1.0
 70
     8
 71
     3
 72
    18
 73
    14
 74
     0
 42
0.00000001
 43
0.00000001
 12
1.0
 22
0.0
 32
0.0
 13
1.0
 23
0.0
 33
0.0
 40
0.0
 40
0.0
 40
0.0
 40
0.0
 40
0.1250000000000001
 40
0.1250000000000001
 40
0.2500000000000002
 40
0.2500000000000002
 40
0.3750000000000003
 40
0.3750000000000003
 40
0.5000000000000004
 40
0.5000000000000004
 40
0.7500000000000002
 40
0.7500000000000002
 40
1.0
 40
1.0
 40
1.0
 40
1.0
 10
182.1500892359333
 20
121.4265294229545
 30
0.0
 10
182.1013846522453
 20
121.389635183764
 30
0.0
 10
182.0428761694698
 20
121.360103879338
 30
0.0
 10
181.9111493542
 20
121.3508679060592
 30
0.0
 10
181.8463912827025
 20
121.3739310806161
 30
0.0
 10
181.7411806805518
 20
121.4414492022636
 30
0.0
 10
181.6979645320316
 20
121.4844602989141
 30
0.0
 10
181.6217862159478
 20
121.5747023209102
 30
0.0
 10
181.5889313836565
 20
121.6223332023855
 30
0.0
 10
181.4985634776955
 20
121.769397501735
 30
0.0
 10
181.449140819856
 20
121.8733108270396
 30
0.0
 10
181.3614896942643
 20
122.08444479068
 30
0.0
 10
181.3234281468738
 20
122.1921675354388
 30
0.0
 10
181.2889818072399
 20
122.3015006513482
 30
0.0
  0
SPLINE
  5
BC
330
1F
100
AcDbEntity
  8
0
  6
Continuous
 62
     7
370
    15
100
AcDbSpline
210
0.0
220
0.0
230
1.0
 70
     8
 71
     3
 72
     8
 73
     4
 74
     0
 42
0.00000001
 43
0.00000001
 12
1.0
 22
0.0
 32
0.0
 13
1.0
 23
0.0
 33
0.0
 40
0.0
 40
0.0
 40
0.0
 40
0.0
 40
1.0
 40
1.0
 40
1.0
 40
1.0
 10
181.2237457812432
 20
122.536704425477
 30
0.0
 10
181.2431719865421
 20
122.4571121539042
 30
0.0
 10
181.2646688109706
 20
122.3786704077715
 30
0.0
 10
181.2889818072399
 20
122.3015006513481
 30
0.0
  0
SPLINE
  5
BD
330
1F
100
AcDbEntity
  8
0
  6
Continuous
 62
     7
370
    15
100
AcDbSpline
210
0.0
220
0.0
230
1.0
 70
     8
 71
     3
 72
     8
 73
     4
 74
     0
 42
0.00000001
 43
0.00000001
 12
1.0
 22
0.0
 32
0.0
 13
1.0
 23
0.0
 33
0.0
 40
0.0
 40
0.0
 40
0.0
 40
0.0
 40
1.0
 40
1.0
 40
1.0
 40
1.0
 10
181.2889818072399
 20
130.3149975804027
 30
0.0
 10
181.2646688109705
 20
130.2378278239794
 30
0.0
 10
181.2431719865421
 20
130.1593860778466
 30
0.0
 10
181.2237457812432
 20
130.0797938062739
 30
0.0
  0
SPLINE
  5
BE
330
1F
100
AcDbEntity
  8
0
  6
Continuous
 62
     7
370
    15
100
AcDbSpline
210
0.0
220
0.0
230
1.0
 70
     8
 71
     3
 72
    18
 73
    14
 74
     0
 42
0.00000001
 43
0.00000001
 12
1.0
 22
0.0
 32
0.0
 13
1.0
 23
0.0
 33
0.0
 40
0.0
 40
0.0
 40
0.0
 40
0.0
 40
0.25
 40
0.25
 40
0.5
 40
0.5
 40
0.625
 40
0.625
 40
0.75
 40
0.75
 40
0.875
 40
0.875
 40
1.0
 40
1.0
 40
1.0
 40
1.0
 10
181.2889818072399
 20
130.3149975804027
 30
0.0
 10
181.3232801262526
 20
130.4238608769957
 30
0.0
 10
181.3610945235645
 20
130.530868300232
 30
0.0
 10
181.4476825846381
 20
130.7399031243704
 30
0.0
 10
181.4960326903168
 20
130.8420732183599
 30
0.0
 10
181.5853492791166
 20
130.9887539899246
 30
0.0
 10
181.6179096346049
 20
131.0365556884602
 30
0.0
 10
181.6941552683338
 20
131.1281112264855
 30
0.0
 10
181.7373146381138
 20
131.1717906184775
 30
0.0
 10
181.8430434621319
 20
131.2411448358041
 30
0.0
 10
181.9080406391865
 20
131.26526114947
 30
0.0
 10
182.0415251291407
 20
131.2570569274318
 30
0.0
 10
182.1008525225862
 20
131.2272661418398
 30
0.0
 10
182.1500892359276
 20
131.1899688087888
 30
0.0
  0
SPLINE
  5
BF
330
1F
100
AcDbEntity
  8
0
  6
Continuous
 62
     7
370
    15
100
AcDbSpline
210
0.0
220
0.0
230
1.0
 70
     8
 71
     3
 72
    16
 73
    12
 74
     0
 42
0.00000001
 43
0.00000001
 12
1.0
 22
0.0
 32
0.0
 13
1.0
 23
0.0
 33
0.0
 40
0.0
 40
0.0
 40
0.0
 40
0.0
 40
0.0625
 40
0.0625
 40
0.1250000000000001
 40
0.1250000000000001
 40
0.2500000000000003
 40
0.2500000000000003
 40
0.4999999999999992
 40
0.4999999999999992
 40
1.0
 40
1.0
 40
1.0
 40
1.0
 10
182.1500892358968
 20
131.1899688087404
 30
0.0
 10
182.1621590691726
 20
131.1808257818946
 30
0.0
 10
182.176434724106
 20
131.1737813342033
 30
0.0
 10
182.2078991362304
 20
131.1737742623048
 30
0.0
 10
182.2233996610408
 20
131.1819022311017
 30
0.0
 10
182.2588385576477
 20
131.2153106921089
 30
0.0
 10
182.272431173751
 20
131.2459778585711
 30
0.0
 10
182.3054254921439
 20
131.3347988526529
 30
0.0
 10
182.3162128854626
 20
131.3957014982007
 30
0.0
 10
182.3412661327418
 20
131.5777095755791
 30
0.0
 10
182.345066124803
 20
131.6963982906177
 30
0.0
 10
182.3450661248031
 20
131.8136938828383
 30
0.0
  0
LINE
  5
C0
330
1F
100
AcDbEntity
  8
0
  6
Continuous
 62
     7
370
    15
100
AcDbLine
 10
182.3450661299
 20
140.3980690911
 30
0.0
 11
182.3450661299
 21
131.8136940635
 31
0.0
  0
SPLINE
  5
C1
330
1F
100
AcDbEntity
  8
0
  6
Continuous
 62
     7
370
    15
100
AcDbSpline
210
0.0
220
0.0
230
1.0
 70
     8
 71
     3
 72
    12
 73
     8
 74
     0
 42
0.00000001
 43
0.00000001
 12
1.0
 22
0.0
 32
0.0
 13
1.0
 23
0.0
 33
0.0
 40
0.0
 40
0.0
 40
0.0
 40
0.0
 40
0.4999999999999951
 40
0.4999999999999951
 40
0.7499999999999976
 40
0.7499999999999976
 40
1.0
 40
1.0
 40
1.0
 40
1.0
 10
182.3047267949352
 20
140.2068566187461
 30
0.0
 10
182.2946039428542
 20
140.1959228741084
 30
0.0
 10
182.282241158508
 20
140.1838575872859
 30
0.0
 10
182.2474065553348
 20
140.1625082469417
 30
0.0
 10
182.2320493340917
 20
140.1542885707127
 30
0.0
 10
182.1893802919519
 20
140.1399492710831
 30
0.0
 10
182.1669560775922
 20
140.1361964900598
 30
0.0
 10
182.1500892359271
 20
140.1349750984595
 30
0.0
  0
SPLINE
  5
C2
330
1F
100
AcDbEntity
  8
0
  6
Continuous
 62
     7
370
    15
100
AcDbSpline
210
0.0
220
0.0
230
1.0
 70
     8
 71
     3
 72
    18
 73
    14
 74
     0
 42
0.00000001
 43
0.00000001
 12
1.0
 22
0.0
 32
0.0
 13
1.0
 23
0.0
 33
0.0
 40
0.0
 40
0.0
 40
0.0
 40
0.0
 40
0.1249999999999999
 40
0.1249999999999999
 40
0.2499999999999998
 40
0.2499999999999998
 40
0.3749999999999997
 40
0.3749999999999997
 40
0.4999999999999996
 40
0.4999999999999996
 40
0.7499999999999998
 40
0.7499999999999998
 40
1.0
 40
1.0
 40
1.0
 40
1.0
 10
182.1500892359333
 20
140.1349750984593
 30
0.0
 10
182.1013851069165
 20
140.1314482488412
 30
0.0
 10
182.042877437712
 20
140.1279479756435
 30
0.0
 10
181.9111517750811
 20
140.1239049917556
 30
0.0
 10
181.8463941364608
 20
140.123793417125
 30
0.0
 10
181.7411837198417
 20
140.1253256018864
 30
0.0
 10
181.6979676849015
 20
140.1267807541015
 30
0.0
 10
181.6217894634206
 20
140.1297060156313
 30
0.0
 10
181.5889346957365
 20
140.1312163461395
 30
0.0
 10
181.4985669768946
 20
140.1353583388278
 30
0.0
 10
181.4491446077052
 20
140.1375964238144
 30
0.0
 10
181.3614921456172
 20
140.1400477068608
 30
0.0
 10
181.3234294093828
 20
140.1403029422219
 30
0.0
 10
181.2889818072394
 20
140.139437498554
 30
0.0
  0
SPLINE
  5
C3
330
1F
100
AcDbEntity
  8
0
  6
Continuous
 62
     7
370
    15
100
AcDbSpline
210
0.0
220
0.0
230
1.0
 70
     8
 71
     3
 72
     8
 73
     4
 74
     0
 42
0.00000001
 43
0.00000001
 12
1.0
 22
0.0
 32
0.0
 13
1.0
 23
0.0
 33
0.0
 40
0.0
 40
0.0
 40
0.0
 40
0.0
 40
1.0
 40
1.0
 40
1.0
 40
1.0
 10
181.0500261468636
 20
123.3617583115116
 30
0.0
 10
181.100753229586
 20
123.0784071901924
 30
0.0
 10
181.1586405425731
 20
122.8034510060526
 30
0.0
 10
181.2237457812433
 20
122.536704425477
 30
0.0
  0
SPLINE
  5
C4
330
1F
100
AcDbEntity
  8
0
  6
Continuous
 62
     7
370
    15
100
AcDbSpline
210
0.0
220
0.0
230
1.0
 70
     8
 71
     3
 72
    24
 73
    20
 74
     0
 42
0.00000001
 43
0.00000001
 12
1.0
 22
0.0
 32
0.0
 13
1.0
 23
0.0
 33
0.0
 40
0.0
 40
0.0
 40
0.0
 40
0.0
 40
0.2500000000000054
 40
0.2500000000000054
 40
0.3750000000000077
 40
0.3750000000000077
 40
0.4375000000000085
 40
0.4375000000000085
 40
0.4687500000000092
 40
0.4687500000000092
 40
0.50000000000001
 40
0.50000000000001
 40
0.5625000000000085
 40
0.5625000000000085
 40
0.6250000000000071
 40
0.6250000000000071
 40
0.7500000000000053
 40
0.7500000000000053
 40
1.0
 40
1.0
 40
1.0
 40
1.0
 10
180.8450661247946
 20
123.3620507198048
 30
0.0
 10
180.8454691541685
 20
123.4553190124344
 30
0.0
 10
180.8474988938836
 20
123.5490765712834
 30
0.0
 10
180.8568076053034
 20
123.690666456923
 30
0.0
 10
180.860733598418
 20
123.7378468755322
 30
0.0
 10
180.871662958334
 20
123.8084429222176
 30
0.0
 10
180.8757845864284
 20
123.8322228359824
 30
0.0
 10
180.8876791076107
 20
123.8656739830296
 30
0.0
 10
180.8929659195645
 20
123.8778289350992
 30
0.0
 10
180.9095338510794
 20
123.8857115740673
 30
0.0
 10
180.9174605598468
 20
123.8781479749653
 30
0.0
 10
180.934452898072
 20
123.8543555437385
 30
0.0
 10
180.9418505988629
 20
123.834167065894
 30
0.0
 10
180.9559529892047
 20
123.7937174412742
 30
0.0
 10
180.962106146497
 20
123.7728617668767
 30
0.0
 10
180.9794198799581
 20
123.7097367315757
 30
0.0
 10
180.9894249208466
 20
123.6667576196741
 30
0.0
 10
181.0177813770774
 20
123.5370319753853
 30
0.0
 10
181.0343299164236
 20
123.4494342482493
 30
0.0
 10
181.0500261468636
 20
123.3617583115116
 30
0.0
  0
SPLINE
  5
C5
330
1F
100
AcDbEntity
  8
0
  6
Continuous
 62
     7
370
    15
100
AcDbSpline
210
0.0
220
0.0
230
1.0
 70
     8
 71
     3
 72
    16
 73
    12
 74
     0
 42
0.00000001
 43
0.00000001
 12
1.0
 22
0.0
 32
0.0
 13
1.0
 23
0.0
 33
0.0
 40
0.0
 40
0.0
 40
0.0
 40
0.0
 40
0.2500000000000002
 40
0.2500000000000002
 40
0.3750000000000002
 40
0.3750000000000002
 40
0.5000000000000002
 40
0.5000000000000002
 40
0.7500000000000001
 40
0.7500000000000001
 40
1.0
 40
1.0
 40
1.0
 40
1.0
 10
180.8450661248029
 20
129.2544475119447
 30
0.0
 10
180.7645293154074
 20
128.7853746850816
 30
0.0
 10
180.7044919066052
 20
128.3050110349017
 30
0.0
 10
180.643753959358
 20
127.5678267557607
 30
0.0
 10
180.628431478315
 20
127.3193083525337
 30
0.0
 10
180.6078485265371
 20
126.81652490732
 30
0.0
 10
180.6026489795006
 20
126.5616663542953
 30
0.0
 10
180.6025952689604
 20
125.8053890145746
 30
0.0
 10
180.6227926062295
 20
125.3067308152647
 30
0.0
 10
180.7034709133025
 20
124.3203078445205
 30
0.0
 10
180.7645172616437
 20
123.8311937517475
 30
0.0
 10
180.8450661248029
 20
123.3620507198061
 30
0.0
  0
SPLINE
  5
C6
330
1F
100
AcDbEntity
  8
0
  6
Continuous
 62
     7
370
    15
100
AcDbSpline
210
0.0
220
0.0
230
1.0
 70
     8
 71
     3
 72
    24
 73
    20
 74
     0
 42
0.00000001
 43
0.00000001
 12
1.0
 22
0.0
 32
0.0
 13
1.0
 23
0.0
 33
0.0
 40
0.0
 40
0.0
 40
0.0
 40
0.0
 40
0.2500000000000015
 40
0.2500000000000015
 40
0.3750000000000017
 40
0.3750000000000017
 40
0.4375000000000014
 40
0.4375000000000014
 40
0.500000000000001
 40
0.500000000000001
 40
0.5312500000000014
 40
0.5312500000000014
 40
0.5625000000000017
 40
0.5625000000000017
 40
0.6250000000000014
 40
0.6250000000000014
 40
0.7500000000000009
 40
0.7500000000000009
 40
1.0
 40
1.0
 40
1.0
 40
1.0
 10
181.0500261468587
 20
129.2547399202111
 30
0.0
 10
181.0342571019492
 20
129.1666572567226
 30
0.0
 10
181.0176429373888
 20
129.0787124402155
 30
0.0
 10
180.9891108098954
 20
128.9483650729562
 30
0.0
 10
180.9790231763416
 20
128.9051038951553
 30
0.0
 10
180.9615353534924
 20
128.841668119322
 30
0.0
 10
180.955325545566
 20
128.8207539957789
 30
0.0
 10
180.941047685983
 20
128.7802792040957
 30
0.0
 10
180.9334765236312
 20
128.7598015606368
 30
0.0
 10
180.9160566984538
 20
128.7369551811053
 30
0.0
 10
180.9075726159957
 20
128.7304033840689
 30
0.0
 10
180.8915365423827
 20
128.7409747593097
 30
0.0
 10
180.886716170107
 20
128.7530657995929
 30
0.0
 10
180.8753092695041
 20
128.7867090428126
 30
0.0
 10
180.8712883077949
 20
128.8101167221088
 30
0.0
 10
180.8605342960169
 20
128.8807053251682
 30
0.0
 10
180.8566624103944
 20
128.9276703526893
 30
0.0
 10
180.8474944455942
 20
129.0682472172916
 30
0.0
 10
180.8454661110811
 20
129.1618834469086
 30
0.0
 10
180.8450661248029
 20
129.2544475119447
 30
0.0
  0
SPLINE
  5
C7
330
1F
100
AcDbEntity
  8
0
  6
Continuous
 62
     7
370
    15
100
AcDbSpline
210
0.0
220
0.0
230
1.0
 70
     8
 71
     3
 72
     8
 73
     4
 74
     0
 42
0.00000001
 43
0.00000001
 12
1.0
 22
0.0
 32
0.0
 13
1.0
 23
0.0
 33
0.0
 40
0.0
 40
0.0
 40
0.0
 40
0.0
 40
1.0
 40
1.0
 40
1.0
 40
1.0
 10
181.2237457812433
 20
130.0797938062738
 30
0.0
 10
181.1586405425709
 20
129.8130472256894
 30
0.0
 10
181.1007532295822
 20
129.5380910415403
 30
0.0
 10
181.0500261468586
 20
129.2547399202112
 30
0.0
  0
LINE
  5
C8
330
1F
100
AcDbEntity
  8
0
  6
Continuous
 62
     7
370
    15
100
AcDbLine
 10
180.8450661023
 20
123.3620506636
 30
0.0
 11
180.8450661023
 21
122.2070453613
 31
0.0
  0
LINE
  5
C9
330
1F
100
AcDbEntity
  8
0
  6
Continuous
 62
     7
370
    15
100
AcDbLine
 10
160.0450652307
 20
130.1481686923
 30
0.0
 11
160.0450652307
 21
122.4683295395
 31
0.0
  0
LINE
  5
CA
330
1F
100
AcDbEntity
  8
0
  6
Continuous
 62
     7
370
    15
100
AcDbLine
 10
180.8450661023
 20
130.4094528704
 30
0.0
 11
180.8450661023
 21
129.2544475681
 31
0.0
  0
LINE
  5
CB
330
1F
100
AcDbEntity
  8
0
  6
Continuous
 62
     7
370
    15
100
AcDbLine
 10
158.5450659162
 20
129.7151558492
 30
0.0
 11
158.5450659162
 21
122.9013423826
 31
0.0
  0
LINE
  5
CC
330
1F
100
AcDbEntity
  8
0
  6
Continuous
 62
     7
370
    15
100
AcDbLine
 10
181.050026103
 20
140.1334337815
 30
0.0
 11
181.2889818224
 21
140.1394370868
 31
0.0
  0
LINE
  5
CD
330
1F
100
AcDbEntity
  8
0
  6
Continuous
 62
     7
370
    15
100
AcDbLine
 10
160.0450652307
 20
112.8107186332
 30
0.0
 11
160.0450652307
 21
122.4683295395
 31
0.0
  0
LINE
  5
CE
330
1F
100
AcDbEntity
  8
0
  6
Continuous
 62
     7
370
    15
100
AcDbLine
 10
180.8450661023
 20
112.2881507426
 30
0.0
 11
180.8450661023
 21
122.2070453613
 31
0.0
  0
LINE
  5
CF
330
1F
100
AcDbEntity
  8
0
  6
Continuous
 62
     7
370
    15
100
AcDbLine
 10
160.0450652307
 20
112.8107186332
 30
0.0
 11
180.8450661023
 21
112.2881507426
 31
0.0
  0
ARC
  5
D0
330
1F
100
AcDbEntity
  8
0
  6
Continuous
 62
     7
370
    15
100
AcDbCircle
 10
181.0450030357
 20
112.2831272202
 30
0.0
 40
0.2000000000000059
100
AcDbArc
 50
88.5608333333
 51
178.5608333333
  0
LINE
  5
D1
330
1F
100
AcDbEntity
  8
0
  6
Continuous
 62
     7
370
    15
100
AcDbLine
 10
180.8450661023
 20
130.4094528704
 30
0.0
 11
180.8450661023
 21
140.3283474892
 31
0.0
  0
ARC
  5
D2
330
1F
100
AcDbEntity
  8
0
  6
Continuous
 62
     7
370
    15
100
AcDbCircle
 10
181.0450030357
 20
140.3333710116
 30
0.0
 40
0.2000000000000066
100
AcDbArc
 50
181.4391666667
 51
271.4391666667
  0
LINE
  5
D3
330
1F
100
AcDbEntity
  8
0
  6
Continuous
 62
     7
370
    15
100
AcDbLine
 10
160.0450652307
 20
130.1481686923
 30
0.0
 11
160.0450652307
 21
139.8057795986
 31
0.0
  0
LINE
  5
D4
330
1F
100
AcDbEntity
  8
0
  6
Continuous
 62
     7
370
    15
100
AcDbLine
 10
160.0450652307
 20
139.8057795986
 30
0.0
 11
180.8450661023
 21
140.3283474892
 31
0.0
  0
LINE
  5
D5
330
1F
100
AcDbEntity
  8
0
  6
Continuous
 62
     7
370
    15
100
AcDbLine
 10
181.050026103
 20
112.4830644503
 30
0.0
 11
181.2889818224
 21
112.4770611449
 31
0.0
  0
LINE
  5
D6
330
1F
100
AcDbEntity
  8
0
  6
Continuous
 62
     7
370
    15
100
AcDbLine
 10
158.5450659162
 20
138.9397539123
 30
0.0
 11
160.0450652307
 21
139.8057795986
 31
0.0
  0
LINE
  5
D7
330
1F
100
AcDbEntity
  8
0
  6
Continuous
 62
     7
370
    15
100
AcDbLine
 10
158.5450659162
 20
129.7151558492
 30
0.0
 11
158.5450659162
 21
138.9397539123
 31
0.0
  0
LINE
  5
D8
330
1F
100
AcDbEntity
  8
0
  6
Continuous
 62
     7
370
    15
100
AcDbLine
 10
158.5450659162
 20
113.6767443194
 30
0.0
 11
160.0450652307
 21
112.8107186332
 31
0.0
  0
LINE
  5
D9
330
1F
100
AcDbEntity
  8
0
  6
Continuous
 62
     7
370
    15
100
AcDbLine
 10
158.5450659162
 20
113.6767443194
 30
0.0
 11
158.5450659162
 21
122.9013423826
 31
0.0
  0
SPLINE
  5
DA
330
1F
100
AcDbEntity
  8
0
  6
Continuous
 62
     7
370
    15
100
AcDbSpline
210
0.0
220
0.0
230
1.0
 70
     8
 71
     3
 72
     8
 73
     4
 74
     0
 42
0.00000001
 43
0.00000001
 12
1.0
 22
0.0
 32
0.0
 13
1.0
 23
0.0
 33
0.0
 40
0.0
 40
0.0
 40
0.0
 40
0.0
 40
1.0
 40
1.0
 40
1.0
 40
1.0
 10
204.7777391368239
 20
143.3364079122358
 30
0.0
 10
204.8766761196874
 20
143.3683991416718
 30
0.0
 10
204.9843034514799
 20
143.4029641438832
 30
0.0
 10
205.0918788940821
 20
143.4468775020201
 30
0.0
  0
SPLINE
  5
DB
330
1F
100
AcDbEntity
  8
0
  6
Continuous
 62
     7
370
    15
100
AcDbSpline
210
0.0
220
0.0
230
1.0
 70
     8
 71
     3
 72
     8
 73
     4
 74
     0
 42
0.00000001
 43
0.00000001
 12
1.0
 22
0.0
 32
0.0
 13
1.0
 23
0.0
 33
0.0
 40
0.0
 40
0.0
 40
0.0
 40
0.0
 40
1.0
 40
1.0
 40
1.0
 40
1.0
 10
205.0918788940821
 20
106.6439793332157
 30
0.0
 10
204.9843135881733
 20
106.6839621704696
 30
0.0
 10
204.8766954342136
 20
106.7068916431099
 30
0.0
 10
204.7777391368238
 20
106.7191948017335
 30
0.0
  0
LINE
  5
DC
330
1F
100
AcDbEntity
  8
0
  6
Continuous
 62
     7
370
    15
100
AcDbLine
 10
205.6437640107
 20
143.9526265412
 30
0.0
 11
205.6437640107
 21
146.8082496821
 31
0.0
  0
SPLINE
  5
DD
330
1F
100
AcDbEntity
  8
0
  6
Continuous
 62
     7
370
    15
100
AcDbSpline
210
0.0
220
0.0
230
1.0
 70
     8
 71
     3
 72
     8
 73
     4
 74
     0
 42
0.00000001
 43
0.00000001
 12
1.0
 22
0.0
 32
0.0
 13
1.0
 23
0.0
 33
0.0
 40
0.0
 40
0.0
 40
0.0
 40
0.0
 40
1.0
 40
1.0
 40
1.0
 40
1.0
 10
205.0918788940821
 20
143.4468775020201
 30
0.0
 10
205.3287945927303
 20
143.5435888301016
 30
0.0
 10
205.5248201248469
 20
143.729072765691
 30
0.0
 10
205.6437645406084
 20
143.9526257105867
 30
0.0
  0
SPLINE
  5
DE
330
1F
100
AcDbEntity
  8
0
  6
Continuous
 62
     7
370
    15
100
AcDbSpline
210
0.0
220
0.0
230
1.0
 70
     8
 71
     3
 72
    12
 73
     8
 74
     0
 42
0.00000001
 43
0.00000001
 12
1.0
 22
0.0
 32
0.0
 13
1.0
 23
0.0
 33
0.0
 40
0.0
 40
0.0
 40
0.0
 40
0.0
 40
0.2500000000000002
 40
0.2500000000000002
 40
0.5000000000000004
 40
0.5000000000000004
 40
1.0
 40
1.0
 40
1.0
 40
1.0
 10
205.743664963113
 20
105.9028258725276
 30
0.0
 10
205.7224602539727
 20
105.9863602853116
 30
0.0
 10
205.692022543954
 20
106.065973182802
 30
0.0
 10
205.6135297421427
 20
106.2168597409536
 30
0.0
 10
205.5647168172562
 20
106.2888142140341
 30
0.0
 10
205.3974560635954
 20
106.4812861781564
 30
0.0
 10
205.2540046632386
 20
106.5837159593695
 30
0.0
 10
205.0918788940821
 20
106.6439793332157
 30
0.0
  0
LWPOLYLINE
  5
DF
330
1F
100
AcDbEntity
  8
0
  6
Continuous
 62
     7
370
    15
100
AcDbPolyline
 90
       37
 70
   128
 43
0.0
 10
223.4524826175
 20
129.1903516202
 10
224.0569221443
 20
129.1490181274
 10
224.6429959899
 20
129.0042107384
 10
225.1928935415
 20
128.7603287882
 10
225.6899143225
 20
128.4247828107
 10
226.1189485556
 20
128.0077683431
 10
226.4669651753
 20
127.5219557964
 10
226.7233880824
 20
126.9821065752
 10
226.8804276949
 20
126.4046236128
 10
226.9333081907
 20
125.8070535068
 10
226.8804276949
 20
125.2075530746
 10
226.7233880824
 20
124.6243379236
 10
226.4669651753
 20
124.0751287359
 10
226.1189485556
 20
123.5766127165
 10
225.6899143225
 20
123.1439372449
 10
225.1928935415
 20
122.7902491036
 10
224.6429959899
 20
122.5262945908
 10
224.0569221443
 20
122.3600942566
 10
223.4524826175
 20
122.2966972663
 10
222.8480430907
 20
122.3380307592
 10
222.2619692451
 20
122.4828381482
 10
221.7120679683
 20
122.7267198655
 10
221.2150509125
 20
123.0622658431
 10
220.7860129541
 20
123.479280427
 10
220.4379963344
 20
123.9650929737
 10
220.1815734273
 20
124.5049422532
 10
220.0245375401
 20
125.0824252301
 10
219.971653319
 20
125.6799952634
 10
220.0245375401
 20
126.2794956755
 10
220.1815734273
 20
126.8627108465
 10
220.4379963344
 20
127.4119201507
 10
220.7860129541
 20
127.9104360537
 10
221.2150509125
 20
128.3431114088
 10
221.7120679683
 20
128.696799783
 10
222.2619692451
 20
128.9607542957
 10
222.8480430907
 20
129.1269548628
 10
223.4524826175
 20
129.1903516202
  0
SPLINE
  5
E0
330
1F
100
AcDbEntity
  8
0
  6
Continuous
 62
     7
370
    15
100
AcDbSpline
210
0.0
220
0.0
230
1.0
 70
     8
 71
     3
 72
     8
 73
     4
 74
     0
 42
0.00000001
 43
0.00000001
 12
1.0
 22
0.0
 32
0.0
 13
1.0
 23
0.0
 33
0.0
 40
0.0
 40
0.0
 40
0.0
 40
0.0
 40
1.0
 40
1.0
 40
1.0
 40
1.0
 10
206.0058762560692
 20
104.8735509919728
 30
0.0
 10
205.918193665009
 20
105.2165671932137
 30
0.0
 10
205.8307767612413
 20
105.5596552657041
 30
0.0
 10
205.743664963113
 20
105.9028258725276
 30
0.0
  0
ELLIPSE
  5
E1
330
1F
100
AcDbEntity
  8
0
  6
Continuous
 62
     7
370
    15
100
AcDbEllipse
 10
274.2831397814
 20
126.3082491159
 30
0.0
 11
195.0441159362921
 21
3.598319842585212
 31
0.0
210
0.0
220
0.0
230
1.0
 40
0.1034726254
 41
1.852051634017109
 42
1.92850522171807
  0
LINE
  5
E2
330
1F
100
AcDbEntity
  8
0
  6
Continuous
 62
     7
370
    15
100
AcDbLine
 10
219.7886372572
 20
144.6982340812
 30
0.0
 11
230.5292228824
 21
129.7049418017
 31
0.0
  0
LINE
  5
E3
330
1F
100
AcDbEntity
  8
0
  6
Continuous
 62
     7
370
    15
100
AcDbLine
 10
230.5292228824
 20
129.7049418017
 30
0.0
 11
231.3343512482
 21
114.5069261938
 31
0.0
  0
LINE
  5
E4
330
1F
100
AcDbEntity
  8
0
  6
Continuous
 62
     7
370
    15
100
AcDbLine
 10
231.3343512482
 20
114.5069261938
 30
0.0
 11
218.5000518924
 21
122.2141117714
 31
0.0
  0
ARC
  5
E5
330
1F
100
AcDbEntity
  8
0
  6
Continuous
 62
     7
370
    15
100
AcDbCircle
 10
217.4092989396
 20
120.430098129
 30
0.0
 40
2.091039617113715
100
AcDbArc
 50
58.5582205877
 51
237.5260133686
  0
LINE
  5
E6
330
1F
100
AcDbEntity
  8
0
  6
Continuous
 62
     7
370
    15
100
AcDbLine
 10
216.2865849799
 20
118.6660232879
 30
0.0
 11
218.9370880491
 21
117.0743552893
 31
0.0
  0
LINE
  5
E7
330
1F
100
AcDbEntity
  8
0
  6
Continuous
 62
     7
370
    15
100
AcDbLine
 10
218.9370880491
 20
117.0743552893
 30
0.0
 11
219.5731478399
 21
105.0677837729
 31
0.0
  0
ARC
  5
E8
330
1F
100
AcDbEntity
  8
0
  6
Continuous
 62
     7
370
    15
100
AcDbCircle
 10
218.5356084076
 20
88.0563941543
 30
0.0
 40
17.0430004644093
100
AcDbArc
 50
86.5098040549
 51
91.0474455287
  0
LINE
  5
E9
330
1F
100
AcDbEntity
  8
0
  6
Continuous
 62
     7
370
    15
100
AcDbLine
 10
218.2240563101
 20
105.0965467393
 30
0.0
 11
206.0058771288
 21
104.873550862
 31
0.0
  0
ELLIPSE
  5
EA
330
1F
100
AcDbEntity
  8
0
  6
Continuous
 62
     7
370
    15
100
AcDbEllipse
 10
233.0451723449
 20
126.3082491159
 30
0.0
 11
-14.59102914265191
 21
20.49919546684681
 31
0.0
210
0.0
220
0.0
230
1.0
 40
0.0124472587
 41
5.087391225498872
 42
6.732022931843237
  0
LINE
  5
EB
330
1F
100
AcDbEntity
  8
0
  6
Continuous
 62
     7
370
    15
100
AcDbLine
 10
227.9382760292
 20
133.9855811483
 30
0.0
 11
230.5292228824
 21
129.7049418017
 31
0.0
  0
LINE
  5
EC
330
1F
100
AcDbEntity
  8
0
  6
Continuous
 62
     7
370
    15
100
AcDbLine
 10
217.9733368224
 20
118.6666207313
 30
0.0
 11
215.3228300279
 21
120.2582887299
 31
0.0
  0
LINE
  5
ED
330
1F
100
AcDbEntity
  8
0
  6
Continuous
 62
     7
370
    15
100
AcDbLine
 10
217.9733368224
 20
118.6666207313
 30
0.0
 11
218.9370880491
 21
117.0743552893
 31
0.0
  0
LINE
  5
EE
330
1F
100
AcDbEntity
  8
0
  6
Continuous
 62
     7
370
    15
100
AcDbLine
 10
206.0058771288
 20
104.873550862
 30
0.0
 11
205.7736965483
 21
105.4920347332
 31
0.0
  0
LWPOLYLINE
  5
EF
330
1F
100
AcDbEntity
  8
0
  6
Continuous
 62
     7
370
    15
100
AcDbPolyline
 90
        3
 70
   128
 43
0.0
 10
220.0300919479
 20
106.5131703316
 10
219.614662475
 20
106.5686603933
 10
219.4928827351
 20
106.5829506069
  0
SPLINE
  5
F0
330
1F
100
AcDbEntity
  8
0
  6
HIDDEN
 62
     7
370
     0
100
AcDbSpline
210
0.0
220
0.0
230
1.0
 70
     8
 71
     3
 72
    68
 73
    64
 74
     0
 42
0.00000001
 43
0.00000001
 12
1.0
 22
0.0
 32
0.0
 13
1.0
 23
0.0
 33
0.0
 40
-0.0624999999999998
 40
-0.0624999999999998
 40
0.0
 40
0.0
 40
0.03125
 40
0.03125
 40
0.0625
 40
0.0625
 40
0.09375
 40
0.09375
 40
0.125
 40
0.125
 40
0.15625
 40
0.15625
 40
0.1875000000000001
 40
0.1875000000000001
 40
0.2187500000000001
 40
0.2187500000000001
 40
0.2500000000000001
 40
0.2500000000000001
 40
0.2812500000000001
 40
0.2812500000000001
 40
0.3125000000000001
 40
0.3125000000000001
 40
0.3437500000000001
 40
0.3437500000000001
 40
0.3750000000000001
 40
0.3750000000000001
 40
0.4062500000000001
 40
0.4062500000000001
 40
0.4375000000000001
 40
0.4375000000000001
 40
0.4687500000000001
 40
0.4687500000000001
 40
0.5000000000000001
 40
0.5000000000000001
 40
0.5312500000000001
 40
0.5312500000000001
 40
0.5625000000000001
 40
0.5625000000000001
 40
0.5937500000000001
 40
0.5937500000000001
 40
0.6250000000000001
 40
0.6250000000000001
 40
0.6562500000000001
 40
0.6562500000000001
 40
0.6875000000000001
 40
0.6875000000000001
 40
0.7187500000000001
 40
0.7187500000000001
 40
0.7500000000000002
 40
0.7500000000000002
 40
0.7812500000000002
 40
0.7812500000000002
 40
0.8125000000000002
 40
0.8125000000000002
 40
0.8437500000000002
 40
0.8437500000000002
 40
0.8750000000000002
 40
0.8750000000000002
 40
0.9062500000000002
 40
0.9062500000000002
 40
0.9375000000000002
 40
0.9375000000000002
 40
1.0
 40
1.0
 40
1.03125
 40
1.03125
 10
196.8757366374798
 20
136.0595778947691
 30
0.0
 10
196.3797308684649
 20
136.0595778947691
 30
0.0
 10
196.2171911260422
 20
136.0452943793345
 30
0.0
 10
195.8974639163448
 20
135.9892690844378
 30
0.0
 10
195.7386073397595
 20
135.9468355171759
 30
0.0
 10
195.4359354415306
 20
135.835905510673
 30
0.0
 10
195.2924076259345
 20
135.767936352701
 30
0.0
 10
195.0207758469872
 20
135.6068355740306
 30
0.0
 10
194.8922912146641
 20
135.5129208547791
 30
0.0
 10
194.6619344587037
 20
135.3069508368729
 30
0.0
 10
194.5585069587408
 20
135.1941642814177
 30
0.0
 10
194.3757418821855
 20
134.947973902698
 30
0.0
 10
194.2981755064641
 20
134.8165381495789
 30
0.0
 10
194.1734403134679
 20
134.5430929142539
 30
0.0
 10
194.1253599701251
 20
134.3990562247049
 30
0.0
 10
194.0610764613138
 20
134.1027361175839
 30
0.0
 10
194.0451571337573
 20
133.952994841548
 30
0.0
 10
194.0449758865711
 20
133.6503411275124
 30
0.0
 10
194.0612399158517
 20
133.4958362959436
 30
0.0
 10
194.1250801336508
 20
133.1955091122168
 30
0.0
 10
194.1723136782379
 20
133.0487983758667
 30
0.0
 10
194.2976188444662
 20
132.7625517299593
 30
0.0
 10
194.3758266220914
 20
132.6237367305523
 30
0.0
 10
194.5566785045896
 20
132.3656680375506
 30
0.0
 10
194.6600506682494
 20
132.2447058069963
 30
0.0
 10
194.8931872041265
 20
132.0206262812986
 30
0.0
 10
195.0192772411109
 20
131.9210063024707
 30
0.0
 10
195.289819377434
 20
131.7460361363303
 30
0.0
 10
195.4360143380211
 20
131.6700699738965
 30
0.0
 10
195.7386396869709
 20
131.5482340727632
 30
0.0
 10
195.8944621855199
 20
131.5021517564814
 30
0.0
 10
196.2150953577984
 20
131.4397281290266
 30
0.0
 10
196.3809005384064
 20
131.4237185104902
 30
0.0
 10
196.7073543545163
 20
131.4235990767972
 30
0.0
 10
196.8696939568048
 20
131.4389728454963
 30
0.0
 10
197.1925559444594
 20
131.5012679158202
 30
0.0
 10
197.3502966548847
 20
131.5479032030622
 30
0.0
 10
197.6512489875571
 20
131.6687663773955
 30
0.0
 10
197.7967684654969
 20
131.743946332016
 30
0.0
 10
198.0699717213876
 20
131.9202358008855
 30
0.0
 10
198.1958023693188
 20
132.0198227253071
 30
0.0
 10
198.4264821928947
 20
132.2409575215553
 30
0.0
 10
198.5320996708337
 20
132.3639362534468
 30
0.0
 10
198.7136440581576
 20
132.6225944829086
 30
0.0
 10
198.7905625151512
 20
132.7588076498458
 30
0.0
 10
198.9163903102757
 20
133.044842057187
 30
0.0
 10
198.9646505795615
 20
133.194232325205
 30
0.0
 10
199.0285253483597
 20
133.4935050178918
 30
0.0
 10
199.0449155088254
 20
133.6449959039416
 30
0.0
 10
199.0452146937859
 20
133.9515710434264
 30
0.0
 10
199.029125324871
 20
134.1015284756651
 30
0.0
 10
198.9658099179565
 20
134.3951449179618
 30
0.0
 10
198.9177962504658
 20
134.5403208518784
 30
0.0
 10
198.7925407114558
 20
134.8156044519127
 30
0.0
 10
198.7158702638075
 20
134.9455358191196
 30
0.0
 10
198.5346604795926
 20
135.1905094729379
 30
0.0
 10
198.4292974335054
 20
135.3058259094202
 30
0.0
 10
198.1991158151911
 20
135.5119212741756
 30
0.0
 10
198.0734504753153
 20
135.6041173450931
 30
0.0
 10
197.80032224087
 20
135.7666788221069
 30
0.0
 10
197.6552025061501
 20
135.8353984077751
 30
0.0
 10
197.2042522558971
 20
136.0010855571207
 30
0.0
 10
196.8757366374798
 20
136.0595778947691
 30
0.0
 10
196.3797308684649
 20
136.0595778947691
 30
0.0
  0
SPLINE
  5
F1
330
1F
100
AcDbEntity
  8
0
  6
HIDDEN
 62
     7
370
     0
100
AcDbSpline
210
0.0
220
0.0
230
1.0
 70
     8
 71
     3
 72
    58
 73
    54
 74
     0
 42
0.00000001
 43
0.00000001
 12
1.0
 22
0.0
 32
0.0
 13
1.0
 23
0.0
 33
0.0
 40
-0.0624999999999996
 40
-0.0624999999999996
 40
0.0
 40
0.0
 40
0.0312500000000001
 40
0.0312500000000001
 40
0.0625000000000002
 40
0.0625000000000002
 40
0.0937500000000003
 40
0.0937500000000003
 40
0.1250000000000004
 40
0.1250000000000004
 40
0.1875000000000006
 40
0.1875000000000006
 40
0.2500000000000008
 40
0.2500000000000008
 40
0.2812500000000009
 40
0.2812500000000009
 40
0.312500000000001
 40
0.312500000000001
 40
0.3437500000000011
 40
0.3437500000000011
 40
0.3750000000000012
 40
0.3750000000000012
 40
0.4062500000000013
 40
0.4062500000000013
 40
0.4375000000000013
 40
0.4375000000000013
 40
0.4687500000000014
 40
0.4687500000000014
 40
0.5000000000000016
 40
0.5000000000000016
 40
0.5625000000000018
 40
0.5625000000000018
 40
0.625000000000002
 40
0.625000000000002
 40
0.6562500000000018
 40
0.6562500000000018
 40
0.6875000000000017
 40
0.6875000000000017
 40
0.7187500000000016
 40
0.7187500000000016
 40
0.7500000000000014
 40
0.7500000000000014
 40
0.7812500000000013
 40
0.7812500000000013
 40
0.8125000000000012
 40
0.8125000000000012
 40
0.8437500000000011
 40
0.8437500000000011
 40
0.8750000000000009
 40
0.8750000000000009
 40
0.9375000000000004
 40
0.9375000000000004
 40
1.0
 40
1.0
 40
1.03125
 40
1.03125
 10
196.5450661248029
 20
126.0438130014274
 30
0.0
 10
196.5450661248029
 20
126.4404671730994
 30
0.0
 10
196.5320840871307
 20
126.5704593339399
 30
0.0
 10
196.4812332848724
 20
126.8261789463922
 30
0.0
 10
196.4427413808195
 20
126.9532376302533
 30
0.0
 10
196.342326095093
 20
127.1954008279122
 30
0.0
 10
196.28088995582
 20
127.3102426122969
 30
0.0
 10
196.1357564795092
 20
127.5275848098671
 30
0.0
 10
196.051334790658
 20
127.6304264577148
 30
0.0
 10
195.7747346164932
 20
127.9069699384664
 30
0.0
 10
195.5517357052261
 20
128.0559525745985
 30
0.0
 10
195.0705011876404
 20
128.2554956381533
 30
0.0
 10
194.8072017721314
 20
128.3081061111847
 30
0.0
 10
194.4156383320912
 20
128.3083201699372
 30
0.0
 10
194.2830507214865
 20
128.2953213205316
 30
0.0
 10
194.0264850158872
 20
128.2442712365053
 30
0.0
 10
193.9017752497067
 20
128.206499997693
 30
0.0
 10
193.6595360646797
 20
128.1063080895806
 30
0.0
 10
193.542519410906
 20
128.043722695756
 30
0.0
 10
193.3258762060597
 20
127.8990176100455
 30
0.0
 10
193.2248694496012
 20
127.8163982686653
 30
0.0
 10
193.0380633539446
 20
127.6297542338753
 30
0.0
 10
192.9553498184127
 20
127.5288083859154
 30
0.0
 10
192.8104796890374
 20
127.3123271822337
 30
0.0
 10
192.7478093929408
 20
127.1954100172252
 30
0.0
 10
192.6473814549045
 20
126.9532135480267
 30
0.0
 10
192.6095102759748
 20
126.8285525571233
 30
0.0
 10
192.5582478781991
 20
126.5721532080553
 30
0.0
 10
192.5451142375584
 20
126.4395422827574
 30
0.0
 10
192.5449703044196
 20
126.0478676704223
 30
0.0
 10
192.5973355616844
 20
125.7845836507617
 30
0.0
 10
192.796496225035
 20
125.3030709369019
 30
0.0
 10
192.945293898397
 20
125.079949849857
 30
0.0
 10
193.2215945569831
 20
124.8031177013494
 30
0.0
 10
193.3243596040429
 20
124.7186104870651
 30
0.0
 10
193.5415768778373
 20
124.5732895453793
 30
0.0
 10
193.6563465712751
 20
124.5117673221172
 30
0.0
 10
193.8983331084197
 20
124.4111709188452
 30
0.0
 10
194.0254156813111
 20
124.3725430307565
 30
0.0
 10
194.2810903813143
 20
124.3214649206904
 30
0.0
 10
194.4110308986585
 20
124.3083757809232
 30
0.0
 10
194.6752942664198
 20
124.3081242625646
 30
0.0
 10
194.8055051600668
 20
124.320998732621
 30
0.0
 10
195.0612551055004
 20
124.3716176297531
 30
0.0
 10
195.1882724898678
 20
124.4099654485488
 30
0.0
 10
195.4306242176195
 20
124.5101995687422
 30
0.0
 10
195.5455269969058
 20
124.5715437557322
 30
0.0
 10
195.7629491620548
 20
124.7164487602614
 30
0.0
 10
195.8658855594995
 20
124.8007876523833
 30
0.0
 10
196.1427227166564
 20
125.0771887654251
 30
0.0
 10
196.2918779577205
 20
125.3000323984676
 30
0.0
 10
196.4918485429558
 20
125.7810956797181
 30
0.0
 10
196.5450661248029
 20
126.0438130014274
 30
0.0
 10
196.5450661248029
 20
126.4404671730994
 30
0.0
  0
SPLINE
  5
F2
330
1F
100
AcDbEntity
  8
0
  6
HIDDEN
 62
     7
370
     0
100
AcDbSpline
210
0.0
220
0.0
230
1.0
 70
     8
 71
     3
 72
    12
 73
     8
 74
     0
 42
0.00000001
 43
0.00000001
 12
1.0
 22
0.0
 32
0.0
 13
1.0
 23
0.0
 33
0.0
 40
0.0
 40
0.0
 40
0.0
 40
0.0
 40
0.5000000000000037
 40
0.5000000000000037
 40
0.7500000000000018
 40
0.7500000000000018
 40
1.0
 40
1.0
 40
1.0
 40
1.0
 10
189.2171605056668
 20
120.1700039888164
 30
0.0
 10
189.2358537387972
 20
120.2375866252567
 30
0.0
 10
189.261509036209
 20
120.3040691947342
 30
0.0
 10
189.3216696588954
 20
120.3930642776317
 30
0.0
 10
189.3457419706498
 20
120.4210661746309
 30
0.0
 10
189.4041234910003
 20
120.464142575296
 30
0.0
 10
189.4395923186534
 20
120.4790361202238
 30
0.0
 10
189.4769681268021
 20
120.4790361202238
 30
0.0
  0
LINE
  5
F3
330
1F
100
AcDbEntity
  8
0
  6
HIDDEN
 62
     7
370
     0
100
AcDbLine
 10
189.4769680342
 20
120.4790359288
 30
0.0
 11
191.613164044
 21
120.4790359288
 31
0.0
  0
SPLINE
  5
F4
330
1F
100
AcDbEntity
  8
0
  6
HIDDEN
 62
     7
370
     0
100
AcDbSpline
210
0.0
220
0.0
230
1.0
 70
     8
 71
     3
 72
    12
 73
     8
 74
     0
 42
0.00000001
 43
0.00000001
 12
1.0
 22
0.0
 32
0.0
 13
1.0
 23
0.0
 33
0.0
 40
0.0
 40
0.0
 40
0.0
 40
0.0
 40
0.2499999999999981
 40
0.2499999999999981
 40
0.4999999999999962
 40
0.4999999999999962
 40
1.0
 40
1.0
 40
1.0
 40
1.0
 10
191.6131641228037
 20
120.4790361202238
 30
0.0
 10
191.6506760088484
 20
120.4790361202238
 30
0.0
 10
191.6859633565531
 20
120.464231305937
 30
0.0
 10
191.7448932047915
 20
120.4206394328112
 30
0.0
 10
191.7684189312606
 20
120.3931260067252
 30
0.0
 10
191.8286777190287
 20
120.3039942746116
 30
0.0
 10
191.854272481318
 20
120.2376084239938
 30
0.0
 10
191.872971743939
 20
120.1700039888164
 30
0.0
  0
ELLIPSE
  5
F5
330
1F
100
AcDbEntity
  8
0
  6
HIDDEN
 62
     7
370
     0
100
AcDbEllipse
 10
181.5961369524
 20
126.3082491159
 30
0.0
 11
-9.367417879781726
 21
19.74174915274994
 31
0.0
210
0.0
220
0.0
230
1.0
 40
0.3419987131
 41
3.292664382516902
 42
4.239566697061004
  0
SPLINE
  5
F6
330
1F
100
AcDbEntity
  8
0
  6
HIDDEN
 62
     7
370
     0
100
AcDbSpline
210
0.0
220
0.0
230
1.0
 70
     8
 71
     3
 72
    12
 73
     8
 74
     0
 42
0.00000001
 43
0.00000001
 12
1.0
 22
0.0
 32
0.0
 13
1.0
 23
0.0
 33
0.0
 40
0.0
 40
0.0
 40
0.0
 40
0.0
 40
0.4999999999999994
 40
0.4999999999999994
 40
0.7499999999999997
 40
0.7499999999999997
 40
1.0
 40
1.0
 40
1.0
 40
1.0
 10
191.872971743939
 20
107.2734928326935
 30
0.0
 10
191.8542785108086
 20
107.2516990790655
 30
0.0
 10
191.8286232133968
 20
107.2306789173559
 30
0.0
 10
191.7684625907104
 20
107.2029735713922
 30
0.0
 10
191.744390278956
 20
107.1943383551988
 30
0.0
 10
191.6860087586055
 20
107.1811237099722
 30
0.0
 10
191.6505399309524
 20
107.1765927356421
 30
0.0
 10
191.6131641228037
 20
107.1765927356421
 30
0.0
  0
LINE
  5
F7
330
1F
100
AcDbEntity
  8
0
  6
HIDDEN
 62
     7
370
     0
100
AcDbLine
 10
191.613164044
 20
107.1765923797
 30
0.0
 11
189.4769680342
 21
107.1765923797
 31
0.0
  0
SPLINE
  5
F8
330
1F
100
AcDbEntity
  8
0
  6
HIDDEN
 62
     7
370
     0
100
AcDbSpline
210
0.0
220
0.0
230
1.0
 70
     8
 71
     3
 72
    12
 73
     8
 74
     0
 42
0.00000001
 43
0.00000001
 12
1.0
 22
0.0
 32
0.0
 13
1.0
 23
0.0
 33
0.0
 40
0.0
 40
0.0
 40
0.0
 40
0.0
 40
0.2499999999999996
 40
0.2499999999999996
 40
0.4999999999999992
 40
0.4999999999999992
 40
1.0
 40
1.0
 40
1.0
 40
1.0
 10
189.4769681268021
 20
107.1765927356421
 30
0.0
 10
189.4394562407574
 20
107.1765927356421
 30
0.0
 10
189.4041688930527
 20
107.1810962799046
 30
0.0
 10
189.3452390448143
 20
107.1944694793579
 30
0.0
 10
189.3217133183452
 20
107.202954381929
 30
0.0
 10
189.2614545305771
 20
107.2307021857636
 30
0.0
 10
189.2358597682878
 20
107.251692049504
 30
0.0
 10
189.2171605056668
 20
107.2734928326935
 30
0.0
  0
ELLIPSE
  5
F9
330
1F
100
AcDbEntity
  8
0
  6
HIDDEN
 62
     7
370
     0
100
AcDbEllipse
 10
199.4939952972
 20
126.3082491159
 30
0.0
 11
9.367417879781613
 21
19.74174915274993
 31
0.0
210
0.0
220
0.0
230
1.0
 40
0.3419987131
 41
2.043618610118592
 42
2.990520924662724
  0
SPLINE
  5
FA
330
1F
100
AcDbEntity
  8
0
  6
HIDDEN
 62
     7
370
     0
100
AcDbSpline
210
0.0
220
0.0
230
1.0
 70
     8
 71
     3
 72
    12
 73
     8
 74
     0
 42
0.00000001
 43
0.00000001
 12
1.0
 22
0.0
 32
0.0
 13
1.0
 23
0.0
 33
0.0
 40
0.0
 40
0.0
 40
0.0
 40
0.0
 40
0.5000000000000046
 40
0.5000000000000046
 40
0.7500000000000022
 40
0.7500000000000022
 40
1.0
 40
1.0
 40
1.0
 40
1.0
 10
189.2171605056668
 20
145.3430053990574
 30
0.0
 10
189.2358537387972
 20
145.3647991526854
 30
0.0
 10
189.261509036209
 20
145.385819314395
 30
0.0
 10
189.3216696588954
 20
145.4135246603587
 30
0.0
 10
189.3457419706498
 20
145.4221598765521
 30
0.0
 10
189.4041234910003
 20
145.4353745217787
 30
0.0
 10
189.4395923186534
 20
145.4399054961088
 30
0.0
 10
189.4769681268021
 20
145.4399054961088
 30
0.0
  0
LINE
  5
FB
330
1F
100
AcDbEntity
  8
0
  6
HIDDEN
 62
     7
370
     0
100
AcDbLine
 10
189.4769680342
 20
145.439905852
 30
0.0
 11
191.613164044
 21
145.439905852
 31
0.0
  0
SPLINE
  5
FC
330
1F
100
AcDbEntity
  8
0
  6
HIDDEN
 62
     7
370
     0
100
AcDbSpline
210
0.0
220
0.0
230
1.0
 70
     8
 71
     3
 72
    12
 73
     8
 74
     0
 42
0.00000001
 43
0.00000001
 12
1.0
 22
0.0
 32
0.0
 13
1.0
 23
0.0
 33
0.0
 40
0.0
 40
0.0
 40
0.0
 40
0.0
 40
0.2499999999999972
 40
0.2499999999999972
 40
0.4999999999999944
 40
0.4999999999999944
 40
1.0
 40
1.0
 40
1.0
 40
1.0
 10
191.6131641228037
 20
145.4399054961088
 30
0.0
 10
191.6506760088484
 20
145.4399054961088
 30
0.0
 10
191.6859633565531
 20
145.4354019518463
 30
0.0
 10
191.7448932047915
 20
145.422028752393
 30
0.0
 10
191.7684189312606
 20
145.4135438498219
 30
0.0
 10
191.8286777190287
 20
145.3857960459873
 30
0.0
 10
191.854272481318
 20
145.364806182247
 30
0.0
 10
191.872971743939
 20
145.3430053990574
 30
0.0
  0
ELLIPSE
  5
FD
330
1F
100
AcDbEntity
  8
0
  6
HIDDEN
 62
     7
370
     0
100
AcDbEllipse
 10
181.5961369524
 20
126.3082491159
 30
0.0
 11
9.36741787978184
 21
19.74174915274993
 31
0.0
210
0.0
220
0.0
230
1.0
 40
0.3419987131
 41
5.185211263708414
 42
6.132113578252572
  0
SPLINE
  5
FE
330
1F
100
AcDbEntity
  8
0
  6
HIDDEN
 62
     7
370
     0
100
AcDbSpline
210
0.0
220
0.0
230
1.0
 70
     8
 71
     3
 72
    12
 73
     8
 74
     0
 42
0.00000001
 43
0.00000001
 12
1.0
 22
0.0
 32
0.0
 13
1.0
 23
0.0
 33
0.0
 40
0.0
 40
0.0
 40
0.0
 40
0.0
 40
0.5000000000000026
 40
0.5000000000000026
 40
0.7500000000000012
 40
0.7500000000000012
 40
1.0
 40
1.0
 40
1.0
 40
1.0
 10
191.872971743939
 20
132.4464942429347
 30
0.0
 10
191.8542785108086
 20
132.3789116064944
 30
0.0
 10
191.8286232133968
 20
132.3124290370169
 30
0.0
 10
191.7684625907104
 20
132.2234339541194
 30
0.0
 10
191.744390278956
 20
132.1954320571203
 30
0.0
 10
191.6860087586055
 20
132.1523556564551
 30
0.0
 10
191.6505399309524
 20
132.1374621115273
 30
0.0
 10
191.6131641228037
 20
132.1374621115273
 30
0.0
  0
LINE
  5
FF
330
1F
100
AcDbEntity
  8
0
  6
HIDDEN
 62
     7
370
     0
100
AcDbLine
 10
191.613164044
 20
132.137462303
 30
0.0
 11
189.4769680342
 21
132.137462303
 31
0.0
  0
SPLINE
  5
100
330
1F
100
AcDbEntity
  8
0
  6
HIDDEN
 62
     7
370
     0
100
AcDbSpline
210
0.0
220
0.0
230
1.0
 70
     8
 71
     3
 72
    12
 73
     8
 74
     0
 42
0.00000001
 43
0.00000001
 12
1.0
 22
0.0
 32
0.0
 13
1.0
 23
0.0
 33
0.0
 40
0.0
 40
0.0
 40
0.0
 40
0.0
 40
0.2500000000000026
 40
0.2500000000000026
 40
0.5000000000000052
 40
0.5000000000000052
 40
1.0
 40
1.0
 40
1.0
 40
1.0
 10
189.4769681268021
 20
132.1374621115274
 30
0.0
 10
189.4394562407574
 20
132.1374621115274
 30
0.0
 10
189.4041688930527
 20
132.1522669258141
 30
0.0
 10
189.3452390448143
 20
132.19585879894
 30
0.0
 10
189.3217133183452
 20
132.2233722250259
 30
0.0
 10
189.2614545305771
 20
132.3125039571396
 30
0.0
 10
189.2358597682878
 20
132.3788898077574
 30
0.0
 10
189.2171605056668
 20
132.4464942429348
 30
0.0
  0
ELLIPSE
  5
101
330
1F
100
AcDbEntity
  8
0
  6
HIDDEN
 62
     7
370
     0
100
AcDbEllipse
 10
199.4939952972
 20
126.3082491159
 30
0.0
 11
-9.367417879781698
 21
19.74174915274996
 31
0.0
210
0.0
220
0.0
230
1.0
 40
0.3419987131
 41
0.151071728927058
 42
1.097974043471188
  0
LINE
  5
102
330
1F
100
AcDbEntity
  8
0
  6
HIDDEN
 62
     7
370
     0
100
AcDbLine
 10
182.5450661248
 20
146.0082491785
 30
0.0
 11
182.5450661248
 21
106.6082490533
 31
0.0
  0
LINE
  5
103
330
1F
100
AcDbEntity
  8
0
  6
HIDDEN
 62
     7
370
     0
100
AcDbLine
 10
182.5450661248
 20
110.5082498788
 30
0.0
 11
182.5450661248
 21
142.1082483529
 31
0.0
  0
SPLINE
  5
104
330
1F
100
AcDbEntity
  8
0
  6
HIDDEN
 62
     7
370
     0
100
AcDbSpline
210
0.0
220
0.0
230
1.0
 70
     8
 71
     3
 72
    18
 73
    14
 74
     0
 42
0.00000001
 43
0.00000001
 12
1.0
 22
0.0
 32
0.0
 13
1.0
 23
0.0
 33
0.0
 40
0.0
 40
0.0
 40
0.0
 40
0.0
 40
0.2499999999999991
 40
0.2499999999999991
 40
0.4999999999999982
 40
0.4999999999999982
 40
0.6249999999999987
 40
0.6249999999999987
 40
0.7499999999999991
 40
0.7499999999999991
 40
0.8749999999999996
 40
0.8749999999999996
 40
1.0
 40
1.0
 40
1.0
 40
1.0
 10
181.2889818072399
 20
136.1326890340267
 30
0.0
 10
181.3232828517727
 20
136.0246788482291
 30
0.0
 10
181.3611031230694
 20
135.9174017602012
 30
0.0
 10
181.4477214435303
 20
135.7059050628845
 30
0.0
 10
181.4960927782737
 20
135.6015187127149
 30
0.0
 10
181.5854957603922
 20
135.4506437900706
 30
0.0
 10
181.6180930442695
 20
135.401298787035
 30
0.0
 10
181.6944749482143
 20
135.3066931485648
 30
0.0
 10
181.7375133855551
 20
135.2616972138102
 30
0.0
 10
181.843326418387
 20
135.1907694411523
 30
0.0
 10
181.9083648431181
 20
135.1668228972457
 30
0.0
 10
182.0415169149207
 20
135.1791035613165
 30
0.0
 10
182.1008860953839
 20
135.2124205193215
 30
0.0
 10
182.1500892359276
 20
135.2532554055461
 30
0.0
  0
SPLINE
  5
105
330
1F
100
AcDbEntity
  8
0
  6
HIDDEN
 62
     7
370
     0
100
AcDbSpline
210
0.0
220
0.0
230
1.0
 70
     8
 71
     3
 72
    16
 73
    12
 74
     0
 42
0.00000001
 43
0.00000001
 12
1.0
 22
0.0
 32
0.0
 13
1.0
 23
0.0
 33
0.0
 40
0.0
 40
0.0
 40
0.0
 40
0.0
 40
0.0625000000000002
 40
0.0625000000000002
 40
0.1250000000000005
 40
0.1250000000000005
 40
0.2500000000000009
 40
0.2500000000000009
 40
0.5000000000000021
 40
0.5000000000000021
 40
1.0
 40
1.0
 40
1.0
 40
1.0
 10
182.1500892358968
 20
135.2532554055756
 30
0.0
 10
182.1621590691726
 20
135.2632724545559
 30
0.0
 10
182.176434724106
 20
135.2722315616116
 30
0.0
 10
182.2078991362304
 20
135.2801019570057
 30
0.0
 10
182.2233996610408
 20
135.2777444663634
 30
0.0
 10
182.2588385576477
 20
135.2607687741854
 30
0.0
 10
182.272431173751
 20
135.2402202830178
 30
0.0
 10
182.3054254921439
 20
135.1782779560041
 30
0.0
 10
182.3162128854626
 20
135.131882405799
 30
0.0
 10
182.3412661327418
 20
134.9889463771045
 30
0.0
 10
182.345066124803
 20
134.889383660219
 30
0.0
 10
182.3450661248031
 20
134.7876162555725
 30
0.0
  0
LINE
  5
106
330
1F
100
AcDbEntity
  8
0
  6
HIDDEN
 62
     7
370
     0
100
AcDbLine
 10
182.3450661299
 20
117.8288821056
 30
0.0
 11
182.3450661299
 21
134.7876161262
 31
0.0
  0
SPLINE
  5
107
330
1F
100
AcDbEntity
  8
0
  6
HIDDEN
 62
     7
370
     0
100
AcDbSpline
210
0.0
220
0.0
230
1.0
 70
     8
 71
     3
 72
    16
 73
    12
 74
     0
 42
0.00000001
 43
0.00000001
 12
1.0
 22
0.0
 32
0.0
 13
1.0
 23
0.0
 33
0.0
 40
0.0
 40
0.0
 40
0.0
 40
0.0
 40
0.5000000000000066
 40
0.5000000000000066
 40
0.7500000000000073
 40
0.7500000000000073
 40
0.8750000000000057
 40
0.8750000000000057
 40
0.9375000000000029
 40
0.9375000000000029
 40
1.0
 40
1.0
 40
1.0
 40
1.0
 10
182.3450661248029
 20
117.8288819761783
 30
0.0
 10
182.3450661248029
 20
117.7268718225982
 30
0.0
 10
182.341182699644
 20
117.6273474473449
 30
0.0
 10
182.3163673743693
 20
117.4853623513343
 30
0.0
 10
182.3055279266568
 20
117.4383690507638
 30
0.0
 10
182.272312144608
 20
117.3760763204022
 30
0.0
 10
182.2589304009792
 20
117.3557948881171
 30
0.0
 10
182.223420751117
 20
117.3387531799167
 30
0.0
 10
182.2080037846162
 20
117.3363669249005
 30
0.0
 10
182.1763027624676
 20
117.3443028547585
 30
0.0
 10
182.1621564775168
 20
117.3532279281332
 30
0.0
 10
182.1500892359271
 20
117.3632428262051
 30
0.0
  0
SPLINE
  5
108
330
1F
100
AcDbEntity
  8
0
  6
HIDDEN
 62
     7
370
     0
100
AcDbSpline
210
0.0
220
0.0
230
1.0
 70
     8
 71
     3
 72
    18
 73
    14
 74
     0
 42
0.00000001
 43
0.00000001
 12
1.0
 22
0.0
 32
0.0
 13
1.0
 23
0.0
 33
0.0
 40
0.0
 40
0.0
 40
0.0
 40
0.0
 40
0.125
 40
0.125
 40
0.25
 40
0.25
 40
0.375
 40
0.375
 40
0.5
 40
0.5
 40
0.75
 40
0.75
 40
1.0
 40
1.0
 40
1.0
 40
1.0
 10
182.1500892359333
 20
117.3632428262124
 30
0.0
 10
182.1013837437912
 20
117.4036647018939
 30
0.0
 10
182.0428736354643
 20
117.4366968233616
 30
0.0
 10
181.9111445171722
 20
117.4499739753145
 30
0.0
 10
181.8463855808317
 20
117.4270203883343
 30
0.0
 10
181.7411746079721
 20
117.3579671914147
 30
0.0
 10
181.6979582325322
 20
117.3134995395738
 30
0.0
 10
181.6217797274202
 20
117.2203298802038
 30
0.0
 10
181.5889247660403
 20
117.171187510643
 30
0.0
 10
181.4985564862066
 20
117.0199777757031
 30
0.0
 10
181.4491332518365
 20
116.9138230061749
 30
0.0
 10
181.3614847967883
 20
116.7002413905134
 30
0.0
 10
181.3234256245855
 20
116.5922689592781
 30
0.0
 10
181.2889818072399
 20
116.4838091977242
 30
0.0
  0
SPLINE
  5
109
330
1F
100
AcDbEntity
  8
0
  6
HIDDEN
 62
     7
370
     0
100
AcDbSpline
210
0.0
220
0.0
230
1.0
 70
     8
 71
     3
 72
     8
 73
     4
 74
     0
 42
0.00000001
 43
0.00000001
 12
1.0
 22
0.0
 32
0.0
 13
1.0
 23
0.0
 33
0.0
 40
0.0
 40
0.0
 40
0.0
 40
0.0
 40
1.0
 40
1.0
 40
1.0
 40
1.0
 10
181.2889818072393
 20
116.4838091977236
 30
0.0
 10
181.2646681033492
 20
116.4072480401736
 30
0.0
 10
181.2431714613931
 20
116.3308226690404
 30
0.0
 10
181.2237457812432
 20
116.2547297982687
 30
0.0
  0
SPLINE
  5
10A
330
1F
100
AcDbEntity
  8
0
  6
HIDDEN
 62
     7
370
     0
100
AcDbSpline
210
0.0
220
0.0
230
1.0
 70
     8
 71
     3
 72
     8
 73
     4
 74
     0
 42
0.00000001
 43
0.00000001
 12
1.0
 22
0.0
 32
0.0
 13
1.0
 23
0.0
 33
0.0
 40
0.0
 40
0.0
 40
0.0
 40
0.0
 40
1.0
 40
1.0
 40
1.0
 40
1.0
 10
181.2237457812432
 20
112.4831851078702
 30
0.0
 10
181.2431712081365
 20
112.4796879042829
 30
0.0
 10
181.2646677621055
 20
112.4776715866407
 30
0.0
 10
181.2889818072399
 20
112.4770607331968
 30
0.0
  0
SPLINE
  5
10B
330
1F
100
AcDbEntity
  8
0
  6
HIDDEN
 62
     7
370
     0
100
AcDbSpline
210
0.0
220
0.0
230
1.0
 70
     8
 71
     3
 72
     8
 73
     4
 74
     0
 42
0.00000001
 43
0.00000001
 12
1.0
 22
0.0
 32
0.0
 13
1.0
 23
0.0
 33
0.0
 40
0.0
 40
0.0
 40
0.0
 40
0.0
 40
1.0
 40
1.0
 40
1.0
 40
1.0
 10
182.3222151116969
 20
112.3877023421387
 30
0.0
 10
182.3411520438627
 20
112.3597479047372
 30
0.0
 10
182.345066124803
 20
112.3396640533809
 30
0.0
 10
182.3450661248031
 20
112.3234372092155
 30
0.0
  0
LINE
  5
10C
330
1F
100
AcDbEntity
  8
0
  6
HIDDEN
 62
     7
370
     0
100
AcDbLine
 10
182.3450661299
 20
112.2184291407
 30
0.0
 11
182.3450661299
 21
112.3234376236
 31
0.0
  0
LINE
  5
10D
330
1F
100
AcDbEntity
  8
0
  6
HIDDEN
 62
     7
370
     0
100
AcDbLine
 10
182.3450661299
 20
140.2930606081
 30
0.0
 11
182.3450661299
 21
140.3980690911
 31
0.0
  0
SPLINE
  5
10E
330
1F
100
AcDbEntity
  8
0
  6
HIDDEN
 62
     7
370
     0
100
AcDbSpline
210
0.0
220
0.0
230
1.0
 70
     8
 71
     3
 72
    10
 73
     6
 74
     0
 42
0.00000001
 43
0.00000001
 12
1.0
 22
0.0
 32
0.0
 13
1.0
 23
0.0
 33
0.0
 40
0.0
 40
0.0
 40
0.0
 40
0.0
 40
0.5000000000000007
 40
0.5000000000000007
 40
1.0
 40
1.0
 40
1.0
 40
1.0
 10
182.3450661248029
 20
140.2930610225355
 30
0.0
 10
182.3450661248029
 20
140.2829348224154
 30
0.0
 10
182.3430575457574
 20
140.2711742298617
 30
0.0
 10
182.3318743178519
 20
140.2431930151114
 30
0.0
 10
182.3235731841774
 20
140.2272127007737
 30
0.0
 10
182.3047267949352
 20
140.2068566187461
 30
0.0
  0
SPLINE
  5
10F
330
1F
100
AcDbEntity
  8
0
  6
HIDDEN
 62
     7
370
     0
100
AcDbSpline
210
0.0
220
0.0
230
1.0
 70
     8
 71
     3
 72
     8
 73
     4
 74
     0
 42
0.00000001
 43
0.00000001
 12
1.0
 22
0.0
 32
0.0
 13
1.0
 23
0.0
 33
0.0
 40
0.0
 40
0.0
 40
0.0
 40
0.0
 40
1.0
 40
1.0
 40
1.0
 40
1.0
 10
181.2889818072395
 20
140.139437498554
 30
0.0
 10
181.2646677621053
 20
140.1388266451101
 30
0.0
 10
181.2431712081364
 20
140.1368103274679
 30
0.0
 10
181.2237457812432
 20
140.1333131238806
 30
0.0
  0
SPLINE
  5
110
330
1F
100
AcDbEntity
  8
0
  6
HIDDEN
 62
     7
370
     0
100
AcDbSpline
210
0.0
220
0.0
230
1.0
 70
     8
 71
     3
 72
     8
 73
     4
 74
     0
 42
0.00000001
 43
0.00000001
 12
1.0
 22
0.0
 32
0.0
 13
1.0
 23
0.0
 33
0.0
 40
0.0
 40
0.0
 40
0.0
 40
0.0
 40
1.0
 40
1.0
 40
1.0
 40
1.0
 10
181.2237457812432
 20
136.3617684334822
 30
0.0
 10
181.2431714613931
 20
136.2856755627105
 30
0.0
 10
181.2646681033492
 20
136.2092501915773
 30
0.0
 10
181.2889818072393
 20
136.1326890340272
 30
0.0
  0
SPLINE
  5
111
330
1F
100
AcDbEntity
  8
0
  6
HIDDEN
 62
     7
370
     0
100
AcDbSpline
210
0.0
220
0.0
230
1.0
 70
     8
 71
     3
 72
    62
 73
    58
 74
     0
 42
0.00000001
 43
0.00000001
 12
1.0
 22
0.0
 32
0.0
 13
1.0
 23
0.0
 33
0.0
 40
-0.0312499999999999
 40
-0.0312499999999999
 40
0.0
 40
0.0
 40
0.03125
 40
0.03125
 40
0.0625
 40
0.0625
 40
0.09375
 40
0.09375
 40
0.125
 40
0.125
 40
0.1875000000000001
 40
0.1875000000000001
 40
0.2187500000000002
 40
0.2187500000000002
 40
0.2500000000000003
 40
0.2500000000000003
 40
0.2812500000000004
 40
0.2812500000000004
 40
0.3125000000000006
 40
0.3125000000000006
 40
0.3437500000000007
 40
0.3437500000000007
 40
0.3750000000000008
 40
0.3750000000000008
 40
0.4062500000000009
 40
0.4062500000000009
 40
0.437500000000001
 40
0.437500000000001
 40
0.4687500000000011
 40
0.4687500000000011
 40
0.5000000000000011
 40
0.5000000000000011
 40
0.5625000000000009
 40
0.5625000000000009
 40
0.5937500000000008
 40
0.5937500000000008
 40
0.6250000000000007
 40
0.6250000000000007
 40
0.6875000000000007
 40
0.6875000000000007
 40
0.7187500000000006
 40
0.7187500000000006
 40
0.7500000000000006
 40
0.7500000000000006
 40
0.7812500000000004
 40
0.7812500000000004
 40
0.8125000000000003
 40
0.8125000000000003
 40
0.8750000000000004
 40
0.8750000000000004
 40
0.9062500000000003
 40
0.9062500000000003
 40
0.9375000000000002
 40
0.9375000000000002
 40
0.9687500000000001
 40
0.9687500000000001
 40
1.0
 40
1.0
 40
1.03125
 40
1.03125
 10
196.4052245790011
 20
126.0501620235295
 30
0.0
 10
196.6849076706045
 20
126.0501620235295
 30
0.0
 10
196.8221916275621
 20
126.0354752241621
 30
0.0
 10
197.0919273824135
 20
125.9783827577812
 30
0.0
 10
197.225809401509
 20
125.9352279697818
 30
0.0
 10
197.479555959907
 20
125.8242896611334
 30
0.0
 10
197.5997416216497
 20
125.7568440267592
 30
0.0
 10
197.8272042131635
 20
125.5990374106992
 30
0.0
 10
197.9340194186251
 20
125.5085860925805
 30
0.0
 10
198.2222640159497
 20
125.2148781149835
 30
0.0
 10
198.378384714851
 20
124.9817583664886
 30
0.0
 10
198.5361001756932
 20
124.6123233298859
 30
0.0
 10
198.5770094048008
 20
124.4835857107576
 30
0.0
 10
198.6313863098231
 20
124.2250516659305
 30
0.0
 10
198.6449737777126
 20
124.0963370354227
 30
0.0
 10
198.6451575427003
 20
123.8401692451669
 30
0.0
 10
198.6312715064941
 20
123.7118674768142
 30
0.0
 10
198.5771844219434
 20
123.4679962143354
 30
0.0
 10
198.5371756658984
 20
123.3510011902563
 30
0.0
 10
198.4308293913161
 20
123.1264255096434
 30
0.0
 10
198.3656301163986
 20
123.0215229937537
 30
0.0
 10
198.2139227123604
 20
122.8276948032633
 30
0.0
 10
198.1261220377205
 20
122.7374625181993
 30
0.0
 10
197.9327841283571
 20
122.576041054404
 30
0.0
 10
197.8278357423455
 20
122.5049160531447
 30
0.0
 10
197.6011077323995
 20
122.3805292458291
 30
0.0
 10
197.4783359814174
 20
122.3271766151881
 30
0.0
 10
197.2256575091921
 20
122.242523152651
 30
0.0
 10
197.0946765376914
 20
122.210459589947
 30
0.0
 10
196.8228881664426
 20
122.1669595922072
 30
0.0
 10
196.6836545561084
 20
122.1560347587765
 30
0.0
 10
196.27047077331
 20
122.1559004052047
 30
0.0
 10
195.9923950285953
 20
122.1997782325154
 30
0.0
 10
195.612326200564
 20
122.3269436138562
 30
0.0
 10
195.4895579586219
 20
122.3802813231621
 30
0.0
 10
195.2628717927356
 20
122.5045559278319
 30
0.0
 10
195.1577036841902
 20
122.5757436903066
 30
0.0
 10
194.86661718846
 20
122.8187787845624
 30
0.0
 10
194.7126866662319
 20
123.0139142280377
 30
0.0
 10
194.5532550634822
 20
123.3502605787025
 30
0.0
 10
194.5132538659267
 20
123.4670429993553
 30
0.0
 10
194.4590946449973
 20
123.7103904150058
 30
0.0
 10
194.4450717384479
 20
123.8385688410117
 30
0.0
 10
194.4450605146112
 20
124.0951890563986
 30
0.0
 10
194.4586014678102
 20
124.2240074148516
 30
0.0
 10
194.51281955442
 20
124.4824981483602
 30
0.0
 10
194.5536995090264
 20
124.6114417740586
 30
0.0
 10
194.7116675862021
 20
124.9817754720441
 30
0.0
 10
194.8676955435571
 20
125.2147429708844
 30
0.0
 10
195.1564426628823
 20
125.5089017406977
 30
0.0
 10
195.2636574976112
 20
125.5995833866116
 30
0.0
 10
195.4905109045611
 20
125.7568874232864
 30
0.0
 10
195.610528416801
 20
125.8242677780879
 30
0.0
 10
195.8643466242552
 20
125.9352393176127
 30
0.0
 10
195.9982136683066
 20
125.9783827963465
 30
0.0
 10
196.2678809102008
 20
126.0354644094506
 30
0.0
 10
196.4052245790011
 20
126.0501620235295
 30
0.0
 10
196.6849076706045
 20
126.0501620235295
 30
0.0
  0
LINE
  5
112
330
1F
100
AcDbEntity
  8
0
  6
HIDDEN
 62
     7
370
     0
100
AcDbLine
 10
195.3720462164
 20
119.5784847177
 30
0.0
 11
195.3640275291
 21
119.6740891709
 31
0.0
  0
SPLINE
  5
113
330
1F
100
AcDbEntity
  8
0
  6
HIDDEN
 62
     7
370
     0
100
AcDbSpline
210
0.0
220
0.0
230
1.0
 70
     8
 71
     3
 72
    16
 73
    12
 74
     0
 42
0.00000001
 43
0.00000001
 12
1.0
 22
0.0
 32
0.0
 13
1.0
 23
0.0
 33
0.0
 40
0.0
 40
0.0
 40
0.0
 40
0.0
 40
0.5000000000000002
 40
0.5000000000000002
 40
0.7500000000000012
 40
0.7500000000000012
 40
0.8750000000000016
 40
0.8750000000000016
 40
0.9375000000000008
 40
0.9375000000000008
 40
1.0
 40
1.0
 40
1.0
 40
1.0
 10
196.9670273869607
 20
118.781775340461
 30
0.0
 10
196.6714575771254
 20
118.7999458249199
 30
0.0
 10
196.3935409415833
 20
118.8881504721597
 30
0.0
 10
195.9946138797156
 20
119.0960903679822
 30
0.0
 10
195.8672868999078
 20
119.1773498529296
 30
0.0
 10
195.6825678442386
 20
119.3158610352123
 30
0.0
 10
195.6222238438278
 20
119.3647649110978
 30
0.0
 10
195.5320257829204
 20
119.4420804140302
 30
0.0
 10
195.5019706329367
 20
119.4685893559285
 30
0.0
 10
195.4402277761527
 20
119.522906905457
 30
0.0
 10
195.4086221991517
 20
119.5514745994358
 30
0.0
 10
195.3720462516042
 20
119.5784846078906
 30
0.0
  0
SPLINE
  5
114
330
1F
100
AcDbEntity
  8
0
  6
HIDDEN
 62
     7
370
     0
100
AcDbSpline
210
0.0
220
0.0
230
1.0
 70
     8
 71
     3
 72
    54
 73
    50
 74
     0
 42
0.00000001
 43
0.00000001
 12
1.0
 22
0.0
 32
0.0
 13
1.0
 23
0.0
 33
0.0
 40
0.0
 40
0.0
 40
0.0
 40
0.0
 40
0.0078125000000002
 40
0.0078125000000002
 40
0.0156250000000005
 40
0.0156250000000005
 40
0.0312500000000009
 40
0.0312500000000009
 40
0.062500000000001
 40
0.062500000000001
 40
0.1250000000000009
 40
0.1250000000000009
 40
0.2500000000000003
 40
0.2500000000000003
 40
0.3125
 40
0.3125
 40
0.3749999999999996
 40
0.3749999999999996
 40
0.4062499999999998
 40
0.4062499999999998
 40
0.4375000000000001
 40
0.4375000000000001
 40
0.5000000000000006
 40
0.5000000000000006
 40
0.562500000000001
 40
0.562500000000001
 40
0.6250000000000016
 40
0.6250000000000016
 40
0.687500000000002
 40
0.687500000000002
 40
0.7500000000000026
 40
0.7500000000000026
 40
0.7656250000000023
 40
0.7656250000000023
 40
0.7734375000000021
 40
0.7734375000000021
 40
0.7812500000000019
 40
0.7812500000000019
 40
0.7890625000000017
 40
0.7890625000000017
 40
0.7968750000000014
 40
0.7968750000000014
 40
0.8125000000000014
 40
0.8125000000000014
 40
0.8750000000000009
 40
0.8750000000000009
 40
0.9375000000000003
 40
0.9375000000000003
 40
1.0
 40
1.0
 40
1.0
 40
1.0
 10
195.3640275014838
 20
119.6740890760802
 30
0.0
 10
195.3858037949553
 20
119.6629008137739
 30
0.0
 10
195.4049374880879
 20
119.6563663729171
 30
0.0
 10
195.4421574765979
 20
119.6457596354519
 30
0.0
 10
195.4599881472575
 20
119.6419687645787
 30
0.0
 10
195.512389384416
 20
119.6325568444092
 30
0.0
 10
195.5462752527289
 20
119.6288405166183
 30
0.0
 10
195.6486358987317
 20
119.620899829913
 30
0.0
 10
195.7176524324074
 20
119.6202732679704
 30
0.0
 10
195.9283643242692
 20
119.6280720973731
 30
0.0
 10
196.0737778593179
 20
119.6464987301935
 30
0.0
 10
196.5295718240939
 20
119.7414661147566
 30
0.0
 10
196.8641842679672
 20
119.8589667635092
 30
0.0
 10
197.3789823085452
 20
120.1434668273089
 30
0.0
 10
197.5505442895122
 20
120.2554738183617
 30
0.0
 10
197.8813616748864
 20
120.517358849058
 30
0.0
 10
198.0379152516533
 20
120.6657581566709
 30
0.0
 10
198.240061955121
 20
120.9047172348492
 30
0.0
 10
198.3004129319049
 20
120.9850482582196
 30
0.0
 10
198.4075228741158
 20
121.1470164086004
 30
0.0
 10
198.4545749076878
 20
121.2294715217371
 30
0.0
 10
198.5703530289559
 20
121.4687558418918
 30
0.0
 10
198.6160850357262
 20
121.621998087508
 30
0.0
 10
198.6533650493258
 20
121.8970753204289
 30
0.0
 10
198.6458535000481
 20
122.0226323384811
 30
0.0
 10
198.5921523902149
 20
122.2427706064388
 30
0.0
 10
198.5464812472637
 20
122.3383378155874
 30
0.0
 10
198.4248612064686
 20
122.5058338118149
 30
0.0
 10
198.3495061069089
 20
122.5763627645755
 30
0.0
 10
198.1781791037536
 20
122.6918828863042
 30
0.0
 10
198.0806371843454
 20
122.7385716151138
 30
0.0
 10
197.9517992904165
 20
122.7761101366717
 30
0.0
 10
197.925617527369
 20
122.7825960770449
 30
0.0
 10
197.8882758201529
 20
122.7881748830303
 30
0.0
 10
197.8761744947624
 20
122.7893582952284
 30
0.0
 10
197.8549204137782
 20
122.7881133483847
 30
0.0
 10
197.8456133408116
 20
122.7856944056452
 30
0.0
 10
197.8395463456378
 20
122.7704624550957
 30
0.0
 10
197.8443215981209
 20
122.75679151035
 30
0.0
 10
197.8619362361286
 20
122.7257822793752
 30
0.0
 10
197.8736821410219
 20
122.7088745933484
 30
0.0
 10
197.9108317779257
 20
122.6566426220903
 30
0.0
 10
197.9379935934579
 20
122.62025264339
 30
0.0
 10
198.0716884841911
 20
122.4348422414614
 30
0.0
 10
198.1749336226418
 20
122.2728783733749
 30
0.0
 10
198.3521448348293
 20
121.9330954167659
 30
0.0
 10
198.4283411163199
 20
121.754288255773
 30
0.0
 10
198.5510865221442
 20
121.3761675388398
 30
0.0
 10
198.5976614655688
 20
121.1757892067607
 30
0.0
 10
198.6231481227876
 20
120.9697289938392
 30
0.0
  0
LWPOLYLINE
  5
115
330
1F
100
AcDbEntity
  8
0
  6
HIDDEN
 62
     7
370
     0
100
AcDbPolyline
 90
       22
 70
   128
 43
0.0
 10
196.9670273951
 20
118.781775508
 10
196.4929152867
 20
118.7426646165
 10
196.0214825934
 20
118.8035535551
 10
195.57694929
 20
118.9613140113
 10
195.1821514061
 20
119.2078411504
 10
194.8573731473
 20
119.530469451
 10
194.6192991576
 20
119.912624631
 10
194.4801604962
 20
120.3346734791
 10
194.4471050641
 20
120.7749334089
 10
194.5218315935
 20
121.2107863202
 10
194.7005002415
 20
121.6198399588
 10
194.9739328241
 20
121.9810804277
 10
195.3280812717
 20
122.2759483307
 10
195.7447521976
 20
122.4892954733
 10
196.2025382212
 20
122.61016112
 10
196.6779215849
 20
122.6323359105
 10
197.1464792854
 20
122.5546806044
 10
197.5841403595
 20
122.381184522
 10
197.9684189549
 20
122.1207611188
 10
198.2795747584
 20
121.7867893092
 10
198.501618824
 20
121.3964273147
 10
198.6231489694
 20
120.9697288386
  0
SPLINE
  5
116
330
1F
100
AcDbEntity
  8
0
  6
HIDDEN
 62
     7
370
     0
100
AcDbSpline
210
0.0
220
0.0
230
1.0
 70
     8
 71
     3
 72
    24
 73
    20
 74
     0
 42
0.00000001
 43
0.00000001
 12
1.0
 22
0.0
 32
0.0
 13
1.0
 23
0.0
 33
0.0
 40
0.0
 40
0.0
 40
0.0
 40
0.0
 40
0.1249999999999992
 40
0.1249999999999992
 40
0.2499999999999997
 40
0.2499999999999997
 40
0.3750000000000001
 40
0.3750000000000001
 40
0.5000000000000006
 40
0.5000000000000006
 40
0.625000000000001
 40
0.625000000000001
 40
0.7500000000000014
 40
0.7500000000000014
 40
0.8125000000000009
 40
0.8125000000000009
 40
0.8750000000000004
 40
0.8750000000000004
 40
1.0
 40
1.0
 40
1.0
 40
1.0
 10
198.6231481227877
 20
120.9697289938392
 30
0.0
 10
198.500252650923
 20
120.9386450172911
 30
0.0
 10
198.3798556023866
 20
120.8944497667461
 30
0.0
 10
198.1478589347632
 20
120.758216681607
 30
0.0
 10
198.042595198233
 20
120.6667703536806
 30
0.0
 10
197.8571359985193
 20
120.4508231493158
 30
0.0
 10
197.7784873242498
 20
120.3323093336681
 30
0.0
 10
197.6204273164639
 20
120.095575710862
 30
0.0
 10
197.542740124782
 20
119.9807305610538
 30
0.0
 10
197.3800604527039
 20
119.7660082418363
 30
0.0
 10
197.2940363363497
 20
119.6649724120885
 30
0.0
 10
197.1299643076709
 20
119.4768423391074
 30
0.0
 10
197.0516938958038
 20
119.3887795958253
 30
0.0
 10
196.9666162816199
 20
119.2553523083852
 30
0.0
 10
196.9443672068163
 20
119.2114472926073
 30
0.0
 10
196.9141623337356
 20
119.1231586518057
 30
0.0
 10
196.9062826662304
 20
119.0783753377269
 30
0.0
 10
196.9034702659462
 20
118.9475189389705
 30
0.0
 10
196.9281057508527
 20
118.8628294812733
 30
0.0
 10
196.9670273869607
 20
118.781775340461
 30
0.0
  0
LINE
  5
117
330
1F
100
AcDbEntity
  8
0
  6
HIDDEN
 62
     7
370
     0
100
AcDbLine
 10
182.3450661299
 20
112.3234376236
 30
0.0
 11
182.3450661299
 21
120.8028041682
 31
0.0
  0
LINE
  5
118
330
1F
100
AcDbEntity
  8
0
  6
HIDDEN
 62
     7
370
     0
100
AcDbLine
 10
182.3450661299
 20
131.8136940635
 30
0.0
 11
182.3450661299
 21
140.2930606081
 31
0.0
  0
CIRCLE
  5
119
330
1F
100
AcDbEntity
  8
0
  6
HIDDEN
 62
     7
370
     0
100
AcDbCircle
 10
171.0450661248
 20
126.3082491159
 30
0.0
 40
2.299999999999997
  0
SPLINE
  5
11A
330
1F
100
AcDbEntity
  8
0
  6
HIDDEN
 62
     7
370
     0
100
AcDbSpline
210
0.0
220
0.0
230
1.0
 70
     8
 71
     3
 72
    10
 73
     6
 74
     0
 42
0.00000001
 43
0.00000001
 12
1.0
 22
0.0
 32
0.0
 13
1.0
 23
0.0
 33
0.0
 40
0.0
 40
0.0
 40
0.0
 40
0.0
 40
0.5
 40
0.5
 40
1.0
 40
1.0
 40
1.0
 40
1.0
 10
205.743664963113
 20
123.1544280360103
 30
0.0
 10
205.7222542560256
 20
123.6799307780175
 30
0.0
 10
205.6957527392195
 20
124.2052901145863
 30
0.0
 10
205.6563072702426
 20
125.2563906972056
 30
0.0
 10
205.6437645406086
 20
125.7821432454844
 30
0.0
 10
205.6437645406086
 20
126.3082491158754
 30
0.0
  0
LINE
  5
11B
330
1F
100
AcDbEntity
  8
0
  6
HIDDEN
 62
     7
370
     0
100
AcDbLine
 10
205.6437640107
 20
146.8082496821
 30
0.0
 11
205.6437640107
 21
126.3082491159
 31
0.0
  0
SPLINE
  5
11C
330
1F
100
AcDbEntity
  8
0
  6
HIDDEN
 62
     7
370
     0
100
AcDbSpline
210
0.0
220
0.0
230
1.0
 70
     8
 71
     3
 72
    14
 73
    10
 74
     0
 42
0.00000001
 43
0.00000001
 12
1.0
 22
0.0
 32
0.0
 13
1.0
 23
0.0
 33
0.0
 40
0.0
 40
0.0
 40
0.0
 40
0.0
 40
0.2500000000000002
 40
0.2500000000000002
 40
0.5000000000000003
 40
0.5000000000000003
 40
0.7500000000000002
 40
0.7500000000000002
 40
1.0
 40
1.0
 40
1.0
 40
1.0
 10
205.743664963113
 20
105.572034895919
 30
0.0
 10
205.7222462190583
 20
105.6633217430421
 30
0.0
 10
205.6957360476117
 20
105.7545725075578
 30
0.0
 10
205.6562844066592
 20
105.9371626042184
 30
0.0
 10
205.643750072326
 20
106.028541254184
 30
0.0
 10
205.6437790358171
 20
106.2111786871786
 30
0.0
 10
205.6563254826144
 20
106.3024438163997
 30
0.0
 10
205.6957664894308
 20
106.48491272163
 30
0.0
 10
205.7222602022512
 20
106.5761182116808
 30
0.0
 10
205.743664963113
 20
106.6673454623313
 30
0.0
  0
ELLIPSE
  5
11D
330
1F
100
AcDbEntity
  8
0
  6
HIDDEN
 62
     7
370
     0
100
AcDbEllipse
 10
230.2703634709
 20
126.3082491159
 30
0.0
 11
-1.450835801924029
 21
20.49954741249586
 31
0.0
210
0.0
220
0.0
230
1.0
 40
0.0938906935
 41
1.18028960984486
 42
1.564151400841478
  0
SPLINE
  5
11E
330
1F
100
AcDbEntity
  8
0
  6
HIDDEN
 62
     7
370
     0
100
AcDbSpline
210
0.0
220
0.0
230
1.0
 70
     8
 71
     3
 72
    66
 73
    62
 74
     0
 42
0.00000001
 43
0.00000001
 12
1.0
 22
0.0
 32
0.0
 13
1.0
 23
0.0
 33
0.0
 40
0.0
 40
0.0
 40
0.0
 40
0.0
 40
0.0625
 40
0.0625
 40
0.09375
 40
0.09375
 40
0.125
 40
0.125
 40
0.15625
 40
0.15625
 40
0.1875000000000001
 40
0.1875000000000001
 40
0.2187500000000001
 40
0.2187500000000001
 40
0.2500000000000001
 40
0.2500000000000001
 40
0.2812500000000002
 40
0.2812500000000002
 40
0.3125000000000003
 40
0.3125000000000003
 40
0.3437500000000003
 40
0.3437500000000003
 40
0.3750000000000004
 40
0.3750000000000004
 40
0.4062500000000004
 40
0.4062500000000004
 40
0.4375000000000006
 40
0.4375000000000006
 40
0.4687500000000006
 40
0.4687500000000006
 40
0.5000000000000007
 40
0.5000000000000007
 40
0.5312500000000007
 40
0.5312500000000007
 40
0.5625000000000007
 40
0.5625000000000007
 40
0.5937500000000007
 40
0.5937500000000007
 40
0.6250000000000008
 40
0.6250000000000008
 40
0.6562500000000008
 40
0.6562500000000008
 40
0.6875000000000008
 40
0.6875000000000008
 40
0.7187500000000008
 40
0.7187500000000008
 40
0.7500000000000008
 40
0.7500000000000008
 40
0.7812500000000007
 40
0.7812500000000007
 40
0.8125000000000007
 40
0.8125000000000007
 40
0.8750000000000009
 40
0.8750000000000009
 40
0.9062500000000007
 40
0.9062500000000007
 40
0.9375000000000004
 40
0.9375000000000004
 40
0.9687500000000002
 40
0.9687500000000002
 40
1.0
 40
1.0
 40
1.0
 40
1.0
 10
222.2631159098079
 20
126.3082491158754
 30
0.0
 10
222.7239678089054
 20
126.4855173546081
 30
0.0
 10
223.1420364605302
 20
126.7389639821012
 30
0.0
 10
223.6979367884066
 20
127.2253934296647
 30
0.0
 10
223.8665711982583
 20
127.4014178039206
 30
0.0
 10
224.1719351079691
 20
127.7799025705838
 30
0.0
 10
224.3095095848017
 20
127.983943601836
 30
0.0
 10
224.547221748551
 20
128.412346454341
 30
0.0
 10
224.6461134731883
 20
128.6337738265115
 30
0.0
 10
224.8052381559642
 20
129.0904214496297
 30
0.0
 10
224.8657737304409
 20
129.327842132329
 30
0.0
 10
224.9441880648689
 20
129.8061107185093
 30
0.0
 10
224.9622195458549
 20
130.0451709200876
 30
0.0
 10
224.9568995131172
 20
130.5230834227433
 30
0.0
 10
224.9329996460694
 20
130.7642715675321
 30
0.0
 10
224.8437812227858
 20
131.2333081857522
 30
0.0
 10
224.7790696815532
 20
131.4607885884232
 30
0.0
 10
224.6099600220296
 20
131.9021425311346
 30
0.0
 10
224.5041992770679
 20
132.1179380320226
 30
0.0
 10
224.2583253358124
 20
132.5223450374245
 30
0.0
 10
224.1184112174535
 20
132.7117604479938
 30
0.0
 10
223.8045902525124
 20
133.0656537403012
 30
0.0
 10
223.6288119124605
 20
133.2313022247961
 30
0.0
 10
223.2543098396821
 20
133.525895555015
 30
0.0
 10
223.0549363006685
 20
133.6561387821008
 30
0.0
 10
222.6316922420519
 20
133.8829383963383
 30
0.0
 10
222.405924581501
 20
133.9797907203361
 30
0.0
 10
221.9462999794386
 20
134.1320475688264
 30
0.0
 10
221.7108321847991
 20
134.1886452116945
 30
0.0
 10
221.2285205299475
 20
134.2629850020757
 30
0.0
 10
220.980672094777
 20
134.2802917760888
 30
0.0
 10
220.4928892361651
 20
134.2744607649432
 30
0.0
 10
220.2505724560475
 20
134.2518739510544
 30
0.0
 10
219.7690823630415
 20
134.1672534602911
 30
0.0
 10
219.5306459092212
 20
134.1048803541139
 30
0.0
 10
219.0746506064826
 20
133.9452303808114
 30
0.0
 10
218.8547467244901
 20
133.8476259155091
 30
0.0
 10
218.4312352449641
 20
133.6159682398453
 30
0.0
 10
218.2296389303904
 20
133.4826046613316
 30
0.0
 10
217.8568505152405
 20
133.1882561761819
 30
0.0
 10
217.6839310194393
 20
133.026374415375
 30
0.0
 10
217.3658603706453
 20
132.6715595492503
 30
0.0
 10
217.2227066950853
 20
132.4803046810387
 30
0.0
 10
216.9750109749932
 20
132.0797499480858
 30
0.0
 10
216.8691925267678
 20
131.8690871204326
 30
0.0
 10
216.6953263082364
 20
131.4255287828566
 30
0.0
 10
216.6286573192304
 20
131.1949948126294
 30
0.0
 10
216.5390597892376
 20
130.7293249923777
 30
0.0
 10
216.5153463674958
 20
130.4923092970253
 30
0.0
 10
216.5119122059759
 20
130.009470481791
 30
0.0
 10
216.5325342009201
 20
129.7678040327283
 30
0.0
 10
216.6579260634649
 20
129.0572702562844
 30
0.0
 10
216.8303696615739
 20
128.5902719742647
 30
0.0
 10
217.197031824213
 20
127.9605679701223
 30
0.0
 10
217.3385988393285
 20
127.7592519996338
 30
0.0
 10
217.6545426681936
 20
127.3832592282315
 30
0.0
 10
217.8266915511074
 20
127.2107417001759
 30
0.0
 10
218.1984257861977
 20
126.8957555038816
 30
0.0
 10
218.3995654402842
 20
126.7524256655354
 30
0.0
 10
218.8230646677244
 20
126.5022893794877
 30
0.0
 10
219.0442267055541
 20
126.3957871530181
 30
0.0
 10
219.2749984640445
 20
126.3082491158754
 30
0.0
  0
LINE
  5
11F
330
1F
100
AcDbEntity
  8
0
  6
HIDDEN
 62
     7
370
     0
100
AcDbLine
 10
159.5720986492
 20
135.8709426522
 30
0.0
 11
159.5720986492
 21
116.7455555796
 31
0.0
  0
LINE
  5
120
330
1F
100
AcDbEntity
  8
0
  6
HIDDEN
 62
     7
370
     0
100
AcDbLine
 10
158.5450659162
 20
116.1525983288
 30
0.0
 11
158.5450659162
 21
136.4638999029
 31
0.0
  0
LINE
  5
121
330
1F
100
AcDbEntity
  8
0
  6
HIDDEN
 62
     7
370
     0
100
AcDbLine
 10
163.0720982915
 20
135.5391887873
 30
0.0
 11
163.0720982915
 21
117.0773094445
 31
0.0
  0
LINE
  5
122
330
1F
100
AcDbEntity
  8
0
  6
HIDDEN
 62
     7
370
     0
100
AcDbLine
 10
166.4720981038
 20
135.3082487284
 30
0.0
 11
166.4720981038
 21
117.3082495033
 31
0.0
  0
LINE
  5
123
330
1F
100
AcDbEntity
  8
0
  6
HIDDEN
 62
     7
370
     0
100
AcDbLine
 10
161.6720988071
 20
135.3082487284
 30
0.0
 11
161.6720988071
 21
117.3082495033
 31
0.0
  0
LINE
  5
124
330
1F
100
AcDbEntity
  8
0
  6
HIDDEN
 62
     7
370
     0
100
AcDbLine
 10
162.672098971
 20
135.3082487284
 30
0.0
 11
162.672098971
 21
117.3082495033
 31
0.0
  0
SPLINE
  5
125
330
1F
100
AcDbEntity
  8
0
  6
HIDDEN
 62
     7
370
     0
100
AcDbSpline
210
0.0
220
0.0
230
1.0
 70
     8
 71
     3
 72
    14
 73
    10
 74
     0
 42
0.00000001
 43
0.00000001
 12
1.0
 22
0.0
 32
0.0
 13
1.0
 23
0.0
 33
0.0
 40
0.0
 40
0.0
 40
0.0
 40
0.0
 40
0.2499999999999999
 40
0.2499999999999999
 40
0.4999999999999999
 40
0.4999999999999999
 40
0.7499999999999999
 40
0.7499999999999999
 40
1.0
 40
1.0
 40
1.0
 40
1.0
 10
173.0450661248029
 20
127.4440307850355
 30
0.0
 10
173.1432904713058
 20
127.271067355232
 30
0.0
 10
173.2186053092899
 20
127.0860348008076
 30
0.0
 10
173.3195720194843
 20
126.7030225866731
 30
0.0
 10
173.3449476057744
 20
126.5083040332075
 30
0.0
 10
173.3451838310407
 20
126.1109287319419
 30
0.0
 10
173.3194807617052
 20
125.9134363974665
 30
0.0
 10
173.2191606481888
 20
125.5322645628355
 30
0.0
 10
173.1432688201011
 20
125.3453927508629
 30
0.0
 10
173.0450661248075
 20
125.172467446713
 30
0.0
  0
LINE
  5
126
330
1F
100
AcDbEntity
  8
0
  6
HIDDEN
 62
     7
370
     0
100
AcDbLine
 10
173.5450665122
 20
134.8082486465
 30
0.0
 11
173.5450665122
 21
117.8082486539
 31
0.0
  0
SPLINE
  5
127
330
1F
100
AcDbEntity
  8
0
  6
HIDDEN
 62
     7
370
     0
100
AcDbSpline
210
0.0
220
0.0
230
1.0
 70
     8
 71
     3
 72
    14
 73
    10
 74
     0
 42
0.00000001
 43
0.00000001
 12
1.0
 22
0.0
 32
0.0
 13
1.0
 23
0.0
 33
0.0
 40
0.0
 40
0.0
 40
0.0
 40
0.0
 40
0.2499999999999999
 40
0.2499999999999999
 40
0.4999999999999999
 40
0.4999999999999999
 40
0.7499999999999999
 40
0.7499999999999999
 40
1.0
 40
1.0
 40
1.0
 40
1.0
 10
173.0450661248029
 20
125.1724674467154
 30
0.0
 10
173.1432904713058
 20
125.3454308765189
 30
0.0
 10
173.2186053092899
 20
125.5304634309433
 30
0.0
 10
173.3195720194843
 20
125.9134756450778
 30
0.0
 10
173.3449476057744
 20
126.1081941985434
 30
0.0
 10
173.3451838310407
 20
126.505569499809
 30
0.0
 10
173.3194807617052
 20
126.7030618342844
 30
0.0
 10
173.2191606481888
 20
127.0842336689154
 30
0.0
 10
173.1432688201011
 20
127.271105480888
 30
0.0
 10
173.0450661248074
 20
127.4440307850379
 30
0.0
  0
SPLINE
  5
128
330
1F
100
AcDbEntity
  8
0
  6
HIDDEN
 62
     7
370
     0
100
AcDbSpline
210
0.0
220
0.0
230
1.0
 70
     8
 71
     3
 72
    60
 73
    56
 74
     0
 42
0.00000001
 43
0.00000001
 12
1.0
 22
0.0
 32
0.0
 13
1.0
 23
0.0
 33
0.0
 40
0.0
 40
0.0
 40
0.0
 40
0.0
 40
0.0624999999999997
 40
0.0624999999999997
 40
0.1249999999999993
 40
0.1249999999999993
 40
0.187499999999999
 40
0.187499999999999
 40
0.2187499999999988
 40
0.2187499999999988
 40
0.2499999999999987
 40
0.2499999999999987
 40
0.3124999999999988
 40
0.3124999999999988
 40
0.3749999999999989
 40
0.3749999999999989
 40
0.4062499999999989
 40
0.4062499999999989
 40
0.437499999999999
 40
0.437499999999999
 40
0.4687499999999991
 40
0.4687499999999991
 40
0.4999999999999991
 40
0.4999999999999991
 40
0.5312499999999991
 40
0.5312499999999991
 40
0.5624999999999992
 40
0.5624999999999992
 40
0.5937499999999992
 40
0.5937499999999992
 40
0.6249999999999993
 40
0.6249999999999993
 40
0.6562499999999993
 40
0.6562499999999993
 40
0.6874999999999994
 40
0.6874999999999994
 40
0.7187499999999994
 40
0.7187499999999994
 40
0.7499999999999996
 40
0.7499999999999996
 40
0.7812499999999996
 40
0.7812499999999996
 40
0.8124999999999997
 40
0.8124999999999997
 40
0.8437499999999997
 40
0.8437499999999997
 40
0.8749999999999998
 40
0.8749999999999998
 40
0.9062499999999998
 40
0.9062499999999998
 40
0.9374999999999999
 40
0.9374999999999999
 40
0.9687499999999999
 40
0.9687499999999999
 40
1.0
 40
1.0
 40
1.0
 40
1.0
 10
173.0450661248029
 20
125.1724674467154
 30
0.0
 10
172.9198762232242
 20
124.9520203220998
 30
0.0
 10
172.763008904656
 20
124.7582865932795
 30
0.0
 10
172.3859713848372
 20
124.422596894517
 30
0.0
 10
172.1742580784162
 20
124.2886195362043
 30
0.0
 10
171.7083680964675
 20
124.0914927915191
 30
0.0
 10
171.4625288654159
 20
124.0322753792973
 30
0.0
 10
171.0830478123213
 20
124.0050686434066
 30
0.0
 10
170.9553020836273
 20
124.0065619085485
 30
0.0
 10
170.7048358369592
 20
124.0300777143574
 30
0.0
 10
170.581006454151
 20
124.0519969331617
 30
0.0
 10
170.2137867800524
 20
124.1488334980065
 30
0.0
 10
169.9830177619667
 20
124.2526346194583
 30
0.0
 10
169.5631288005471
 20
124.5313531003864
 30
0.0
 10
169.3788704256596
 20
124.7029153918901
 30
0.0
 10
169.1481220381762
 20
125.0015627531569
 30
0.0
 10
169.0790751883872
 20
125.1080302936592
 30
0.0
 10
168.9605105245817
 20
125.3283136420521
 30
0.0
 10
168.9103021558321
 20
125.4429751584535
 30
0.0
 10
168.8284703034743
 20
125.6816557952303
 30
0.0
 10
168.7971194045916
 20
125.8057014221084
 30
0.0
 10
168.7557250265531
 20
126.0538164582168
 30
0.0
 10
168.7452192514888
 20
126.1790541607052
 30
0.0
 10
168.744916299153
 20
126.4319332162962
 30
0.0
 10
168.7554008287696
 20
126.5598129025329
 30
0.0
 10
168.796540906231
 20
126.8082349637383
 30
0.0
 10
168.8271190267796
 20
126.9300338905067
 30
0.0
 10
168.9084017351309
 20
127.168813419981
 30
0.0
 10
168.9594026216928
 20
127.2858549822877
 30
0.0
 10
169.0779696700558
 20
127.5066801802136
 30
0.0
 10
169.1458584233276
 20
127.6116185437764
 30
0.0
 10
169.2990088610653
 20
127.8105958770058
 30
0.0
 10
169.3845650326378
 20
127.9046040021999
 30
0.0
 10
169.567276403597
 20
128.0750966871367
 30
0.0
 10
169.6650837032788
 20
128.152534882186
 30
0.0
 10
169.8738868151958
 20
128.2917007780743
 30
0.0
 10
169.9854689904837
 20
128.3534825870813
 30
0.0
 10
170.2141147899827
 20
128.4565614576821
 30
0.0
 10
170.3320696009539
 20
128.4985654928777
 30
0.0
 10
170.5753980459426
 20
128.5633016141745
 30
0.0
 10
170.7017419212856
 20
128.5859748767372
 30
0.0
 10
170.9528479023035
 20
128.6098576729183
 30
0.0
 10
171.0785298960264
 20
128.611460974185
 30
0.0
 10
171.3301519658182
 20
128.5939942354141
 30
0.0
 10
171.457049586104
 20
128.5745583447742
 30
0.0
 10
171.7022401523652
 20
128.5159651734505
 30
0.0
 10
171.8214293093987
 20
128.4769023222939
 30
0.0
 10
172.0531143337535
 20
128.3793926001701
 30
0.0
 10
172.166289138104
 20
128.3203572458815
 30
0.0
 10
172.3783675550397
 20
128.186553529042
 30
0.0
 10
172.4781563337405
 20
128.1115583128972
 30
0.0
 10
172.6654145207295
 20
127.9453632483764
 30
0.0
 10
172.7533095576728
 20
127.8534690496349
 30
0.0
 10
172.9115306333047
 20
127.6581048519206
 30
0.0
 10
172.9824685895964
 20
127.5542588982481
 30
0.0
 10
173.0450661248029
 20
127.4440307850355
 30
0.0
  0
SPLINE
  5
129
330
1F
100
AcDbEntity
  8
0
  6
HIDDEN
 62
     7
370
     0
100
AcDbSpline
210
0.0
220
0.0
230
1.0
 70
     8
 71
     3
 72
    60
 73
    56
 74
     0
 42
0.00000001
 43
0.00000001
 12
1.0
 22
0.0
 32
0.0
 13
1.0
 23
0.0
 33
0.0
 40
0.0
 40
0.0
 40
0.0
 40
0.0
 40
0.0624999999999997
 40
0.0624999999999997
 40
0.1249999999999993
 40
0.1249999999999993
 40
0.187499999999999
 40
0.187499999999999
 40
0.2187499999999988
 40
0.2187499999999988
 40
0.2499999999999987
 40
0.2499999999999987
 40
0.3124999999999988
 40
0.3124999999999988
 40
0.3749999999999989
 40
0.3749999999999989
 40
0.4062499999999989
 40
0.4062499999999989
 40
0.437499999999999
 40
0.437499999999999
 40
0.4687499999999991
 40
0.4687499999999991
 40
0.4999999999999991
 40
0.4999999999999991
 40
0.5312499999999991
 40
0.5312499999999991
 40
0.5624999999999992
 40
0.5624999999999992
 40
0.5937499999999992
 40
0.5937499999999992
 40
0.6249999999999993
 40
0.6249999999999993
 40
0.6562499999999993
 40
0.6562499999999993
 40
0.6874999999999994
 40
0.6874999999999994
 40
0.7187499999999994
 40
0.7187499999999994
 40
0.7499999999999996
 40
0.7499999999999996
 40
0.7812499999999996
 40
0.7812499999999996
 40
0.8124999999999997
 40
0.8124999999999997
 40
0.8437499999999997
 40
0.8437499999999997
 40
0.8749999999999998
 40
0.8749999999999998
 40
0.9062499999999998
 40
0.9062499999999998
 40
0.9374999999999999
 40
0.9374999999999999
 40
0.9687499999999999
 40
0.9687499999999999
 40
1.0
 40
1.0
 40
1.0
 40
1.0
 10
173.0450661248029
 20
127.4440307850355
 30
0.0
 10
172.9198762232242
 20
127.6644779096511
 30
0.0
 10
172.763008904656
 20
127.8582116384714
 30
0.0
 10
172.3859713848372
 20
128.1939013372339
 30
0.0
 10
172.1742580784162
 20
128.3278786955466
 30
0.0
 10
171.7083680964675
 20
128.5250054402317
 30
0.0
 10
171.4625288654159
 20
128.5842228524536
 30
0.0
 10
171.0830478123213
 20
128.6114295883442
 30
0.0
 10
170.9553020836273
 20
128.6099363232024
 30
0.0
 10
170.7048358369592
 20
128.5864205173934
 30
0.0
 10
170.581006454151
 20
128.5645012985892
 30
0.0
 10
170.2137867800524
 20
128.4676647337443
 30
0.0
 10
169.9830177619667
 20
128.3638636122925
 30
0.0
 10
169.5631288005471
 20
128.0851451313645
 30
0.0
 10
169.3788704256596
 20
127.9135828398608
 30
0.0
 10
169.1481220381762
 20
127.614935478594
 30
0.0
 10
169.0790751883872
 20
127.5084679380917
 30
0.0
 10
168.9605105245817
 20
127.2881845896987
 30
0.0
 10
168.9103021558321
 20
127.1735230732973
 30
0.0
 10
168.8284703034743
 20
126.9348424365206
 30
0.0
 10
168.7971194045916
 20
126.8107968096425
 30
0.0
 10
168.7557250265531
 20
126.5626817735341
 30
0.0
 10
168.7452192514888
 20
126.4374440710456
 30
0.0
 10
168.744916299153
 20
126.1845650154546
 30
0.0
 10
168.7554008287696
 20
126.056685329218
 30
0.0
 10
168.796540906231
 20
125.8082632680125
 30
0.0
 10
168.8271190267796
 20
125.6864643412442
 30
0.0
 10
168.9084017351309
 20
125.4476848117698
 30
0.0
 10
168.9594026216928
 20
125.3306432494632
 30
0.0
 10
169.0779696700558
 20
125.1098180515373
 30
0.0
 10
169.1458584233276
 20
125.0048796879745
 30
0.0
 10
169.2990088610653
 20
124.8059023547451
 30
0.0
 10
169.3845650326378
 20
124.7118942295509
 30
0.0
 10
169.567276403597
 20
124.5414015446142
 30
0.0
 10
169.6650837032788
 20
124.4639633495649
 30
0.0
 10
169.8738868151958
 20
124.3247974536766
 30
0.0
 10
169.9854689904837
 20
124.2630156446696
 30
0.0
 10
170.2141147899827
 20
124.1599367740688
 30
0.0
 10
170.3320696009539
 20
124.1179327388731
 30
0.0
 10
170.5753980459426
 20
124.0531966175763
 30
0.0
 10
170.7017419212856
 20
124.0305233550137
 30
0.0
 10
170.9528479023035
 20
124.0066405588325
 30
0.0
 10
171.0785298960264
 20
124.0050372575658
 30
0.0
 10
171.3301519658182
 20
124.0225039963367
 30
0.0
 10
171.457049586104
 20
124.0419398869767
 30
0.0
 10
171.7022401523652
 20
124.1005330583003
 30
0.0
 10
171.8214293093987
 20
124.139595909457
 30
0.0
 10
172.0531143337535
 20
124.2371056315807
 30
0.0
 10
172.166289138104
 20
124.2961409858694
 30
0.0
 10
172.3783675550397
 20
124.4299447027088
 30
0.0
 10
172.4781563337405
 20
124.5049399188536
 30
0.0
 10
172.6654145207295
 20
124.6711349833744
 30
0.0
 10
172.7533095576728
 20
124.7630291821159
 30
0.0
 10
172.9115306333047
 20
124.9583933798303
 30
0.0
 10
172.9824685895964
 20
125.0622393335027
 30
0.0
 10
173.0450661248029
 20
125.1724674467154
 30
0.0
  0
LINE
  5
12A
330
1F
100
AcDbEntity
  8
0
  6
HIDDEN
 62
     7
370
     0
100
AcDbLine
 10
174.4450659147
 20
132.558249209
 30
0.0
 11
174.4450659147
 21
120.0582490227
 31
0.0
  0
LINE
  5
12B
330
1F
100
AcDbEntity
  8
0
  6
HIDDEN
 62
     7
370
     0
100
AcDbLine
 10
173.5450665122
 20
119.1582491546
 30
0.0
 11
173.5450665122
 21
133.4582490771
 31
0.0
  0
LINE
  5
12C
330
1F
100
AcDbEntity
  8
0
  6
HIDDEN
 62
     7
370
     0
100
AcDbLine
 10
199.5296871877
 20
120.0582490227
 30
0.0
 11
199.5296871877
 21
132.558249209
 31
0.0
  0
SPLINE
  5
12D
330
1F
100
AcDbEntity
  8
0
  6
HIDDEN
 62
     7
370
     0
100
AcDbSpline
210
0.0
220
0.0
230
1.0
 70
     8
 71
     3
 72
    62
 73
    58
 74
     0
 42
0.00000001
 43
0.00000001
 12
1.0
 22
0.0
 32
0.0
 13
1.0
 23
0.0
 33
0.0
 40
-0.03125
 40
-0.03125
 40
0.0
 40
0.0
 40
0.0312500000000002
 40
0.0312500000000002
 40
0.0625000000000004
 40
0.0625000000000004
 40
0.0937500000000006
 40
0.0937500000000006
 40
0.1250000000000008
 40
0.1250000000000008
 40
0.1875000000000012
 40
0.1875000000000012
 40
0.2187500000000013
 40
0.2187500000000013
 40
0.2500000000000014
 40
0.2500000000000014
 40
0.2812500000000015
 40
0.2812500000000015
 40
0.3125000000000016
 40
0.3125000000000016
 40
0.3437500000000017
 40
0.3437500000000017
 40
0.3750000000000018
 40
0.3750000000000018
 40
0.4062500000000018
 40
0.4062500000000018
 40
0.4375000000000019
 40
0.4375000000000019
 40
0.468750000000002
 40
0.468750000000002
 40
0.5000000000000021
 40
0.5000000000000021
 40
0.5625000000000018
 40
0.5625000000000018
 40
0.5937500000000019
 40
0.5937500000000019
 40
0.625000000000002
 40
0.625000000000002
 40
0.6875000000000018
 40
0.6875000000000018
 40
0.7187500000000016
 40
0.7187500000000016
 40
0.7500000000000013
 40
0.7500000000000013
 40
0.7812500000000011
 40
0.7812500000000011
 40
0.8125000000000008
 40
0.8125000000000008
 40
0.8750000000000001
 40
0.8750000000000001
 40
0.9062500000000001
 40
0.9062500000000001
 40
0.9375
 40
0.9375
 40
0.96875
 40
0.96875
 40
1.0
 40
1.0
 40
1.03125
 40
1.03125
 10
196.6849076706047
 20
130.4605083974018
 30
0.0
 10
196.4052245790012
 20
130.4605083974018
 30
0.0
 10
196.2679406220437
 20
130.4495553599548
 30
0.0
 10
195.9982048671923
 20
130.4065722052044
 30
0.0
 10
195.8643228480968
 20
130.3739675277899
 30
0.0
 10
195.6105762896988
 20
130.2888693227185
 30
0.0
 10
195.4903906279562
 20
130.2366374508399
 30
0.0
 10
195.2629280364423
 20
130.1120089441623
 30
0.0
 10
195.1561128309807
 20
130.039499651003
 30
0.0
 10
194.8678682336561
 20
129.7986165334616
 30
0.0
 10
194.7117475347548
 20
129.6004363811566
 30
0.0
 10
194.5540320739126
 20
129.267959824773
 30
0.0
 10
194.513122844805
 20
129.149243376171
 30
0.0
 10
194.4587459397827
 20
128.9041608391488
 30
0.0
 10
194.4451584718932
 20
128.778896206073
 30
0.0
 10
194.4449747069055
 20
128.5227746760032
 30
0.0
 10
194.4588607431117
 20
128.3909483377138
 30
0.0
 10
194.5129478276624
 20
128.1336970875799
 30
0.0
 10
194.5529565837073
 20
128.0068924736512
 30
0.0
 10
194.6593028582897
 20
127.757390485851
 30
0.0
 10
194.7245021332071
 20
127.6376530225667
 30
0.0
 10
194.8762095372454
 20
127.4115261414335
 30
0.0
 10
194.9640102118853
 20
127.3035743301265
 30
0.0
 10
195.1573481212486
 20
127.10673551961
 30
0.0
 10
195.2622965072603
 20
127.0179933615431
 30
0.0
 10
195.4890245172063
 20
126.8605083942057
 30
0.0
 10
195.6117962681883
 20
126.7916213446204
 30
0.0
 10
195.8644747404137
 20
126.6812579975388
 30
0.0
 10
195.9954557119144
 20
126.6388226068141
 30
0.0
 10
196.2672440831632
 20
126.5810467705979
 30
0.0
 10
196.4064776934974
 20
126.5663962636431
 30
0.0
 10
196.8196614762957
 20
126.5662166584511
 30
0.0
 10
197.0977372210105
 20
126.6255249195611
 30
0.0
 10
197.4778060490418
 20
126.7913206671502
 30
0.0
 10
197.6005742909839
 20
126.8601901634142
 30
0.0
 10
197.8272604568702
 20
127.0175417273301
 30
0.0
 10
197.9324285654156
 20
127.1063729717797
 30
0.0
 10
198.2235150611458
 20
127.4027320083067
 30
0.0
 10
198.3774455833739
 20
127.6323697963921
 30
0.0
 10
198.5368771861236
 20
128.0060803456782
 30
0.0
 10
198.5768783836791
 20
128.13266895172
 30
0.0
 10
198.6310376046085
 20
128.3894126349442
 30
0.0
 10
198.6450605111579
 20
128.521149845556
 30
0.0
 10
198.6450717349946
 20
128.7777728863825
 30
0.0
 10
198.6315307817956
 20
128.9031529791903
 30
0.0
 10
198.5773126951858
 20
129.1482301934037
 30
0.0
 10
198.5364327405794
 20
129.2671576306193
 30
0.0
 10
198.3784646634036
 20
129.6004693724604
 30
0.0
 10
198.2224367060487
 20
129.7985094133342
 30
0.0
 10
197.9336895867235
 20
130.0397566670509
 30
0.0
 10
197.8264747519946
 20
130.1124427421468
 30
0.0
 10
197.5996213450447
 20
130.2366691026711
 30
0.0
 10
197.4796038328048
 20
130.2888525040244
 30
0.0
 10
197.2257856253506
 20
130.3739762651621
 30
0.0
 10
197.0919185812992
 20
130.4065722170857
 30
0.0
 10
196.8222513394049
 20
130.4495472350425
 30
0.0
 10
196.6849076706047
 20
130.4605083974018
 30
0.0
 10
196.4052245790012
 20
130.4605083974018
 30
0.0
  0
LWPOLYLINE
  5
12E
330
1F
100
AcDbEntity
  8
0
  6
HIDDEN
 62
     7
370
     0
100
AcDbPolyline
 90
       37
 70
   128
 43
0.0
 10
222.9738051659
 20
129.9811993185
 10
223.5782446927
 20
129.9398660585
 10
224.1643185383
 20
129.7950584366
 10
224.7142160899
 20
129.5511767193
 10
225.2112368709
 20
129.2156307417
 10
225.640271104
 20
128.7986161578
 10
225.9882877237
 20
128.3128036111
 10
226.2447106308
 20
127.7729543316
 10
226.4017502433
 20
127.1954714711
 10
226.4546307391
 20
126.5979013505
 10
226.4017502433
 20
125.9984009475
 10
226.2447106308
 20
125.4151857383
 10
225.9882877237
 20
124.8659764341
 10
225.640271104
 20
124.3674605311
 10
225.2112368709
 20
123.934785176
 10
224.7142160899
 20
123.5810970347
 10
224.1643185383
 20
123.3171425219
 10
223.5782446927
 20
123.1509419549
 10
222.9738051659
 20
123.0875451974
 10
222.3693656391
 20
123.1288784574
 10
221.7832917935
 20
123.2736858464
 10
221.2333905166
 20
123.5175677966
 10
220.7363734609
 20
123.8531137741
 10
220.3073355025
 20
124.2701283581
 10
219.9593188828
 20
124.7559407884
 10
219.7028959757
 20
125.2957900678
 10
219.5458600885
 20
125.8732730157
 10
219.4929758674
 20
126.4708431071
 10
219.5458600885
 20
127.0703435102
 10
219.7028959757
 20
127.6535586612
 10
219.9593188828
 20
128.2027679653
 10
220.3073355025
 20
128.7012838683
 10
220.7363734609
 20
129.1339593399
 10
221.2333905166
 20
129.4876474812
 10
221.7832917935
 20
129.751601994
 10
222.3693656391
 20
129.917802561
 10
222.9738051659
 20
129.9811993185
  0
ARC
  5
12F
330
1F
100
AcDbEntity
  8
0
  6
HIDDEN
 62
     7
370
     0
100
AcDbCircle
 10
216.4455466437
 20
122.0223630592
 30
0.0
 40
2.091040611468109
100
AcDbArc
 50
58.5582029064
 51
237.525944442
  0
LINE
  5
130
330
1F
100
AcDbEntity
  8
0
  6
HIDDEN
 62
     7
370
     0
100
AcDbLine
 10
230.3706000215
 20
116.0991916358
 30
0.0
 11
231.3343512482
 21
114.5069261938
 31
0.0
  0
LINE
  5
131
330
1F
100
AcDbEntity
  8
0
  6
HIDDEN
 62
     7
370
     0
100
AcDbLine
 10
205.7736965483
 20
105.4920347332
 30
0.0
 11
205.7436651206
 21
105.5720353424
 31
0.0
  0
SPLINE
  5
132
330
1F
100
AcDbEntity
  8
0
  6
HIDDEN
 62
     7
370
     0
100
AcDbSpline
210
0.0
220
0.0
230
1.0
 70
     8
 71
     3
 72
    36
 73
    32
 74
     0
 42
0.00000001
 43
0.00000001
 12
1.0
 22
0.0
 32
0.0
 13
1.0
 23
0.0
 33
0.0
 40
0.0
 40
0.0
 40
0.0
 40
0.0
 40
0.1250000000000004
 40
0.1250000000000004
 40
0.2500000000000008
 40
0.2500000000000008
 40
0.3125000000000011
 40
0.3125000000000011
 40
0.3750000000000013
 40
0.3750000000000013
 40
0.4375000000000016
 40
0.4375000000000016
 40
0.4687500000000017
 40
0.4687500000000017
 40
0.5000000000000018
 40
0.5000000000000018
 40
0.5312500000000019
 40
0.5312500000000019
 40
0.562500000000002
 40
0.562500000000002
 40
0.5937500000000021
 40
0.5937500000000021
 40
0.6250000000000022
 40
0.6250000000000022
 40
0.6875000000000018
 40
0.6875000000000018
 40
0.7500000000000014
 40
0.7500000000000014
 40
0.8750000000000007
 40
0.8750000000000007
 40
1.0
 40
1.0
 40
1.0
 40
1.0
 10
220.2672732446694
 20
124.0396070004168
 30
0.0
 10
220.3256174289254
 20
123.9432135368433
 30
0.0
 10
220.4424128336364
 20
123.8165692606417
 30
0.0
 10
220.75034844232
 20
123.5381198436257
 30
0.0
 10
220.9438268537956
 20
123.3849300238488
 30
0.0
 10
221.2942703611869
 20
123.1584886531477
 30
0.0
 10
221.4215448188285
 20
123.0833185233647
 30
0.0
 10
221.7047592442587
 20
122.9375300582716
 30
0.0
 10
221.8618769584049
 20
122.8661898573349
 30
0.0
 10
222.2144770448901
 20
122.739316546921
 30
0.0
 10
222.4090195610843
 20
122.6824247962601
 30
0.0
 10
222.7608467678011
 20
122.6275791933691
 30
0.0
 10
222.8868241574746
 20
122.615128548457
 30
0.0
 10
223.1545873718831
 20
122.6106000080489
 30
0.0
 10
223.2954292881178
 20
122.6189812803776
 30
0.0
 10
223.5741784083246
 20
122.6623624756696
 30
0.0
 10
223.7075976330028
 20
122.6968787788012
 30
0.0
 10
223.9441776595235
 20
122.779900857908
 30
0.0
 10
224.0498162653842
 20
122.8287370024115
 30
0.0
 10
224.2345358736467
 20
122.9300943358578
 30
0.0
 10
224.316250336608
 20
122.9839290562437
 30
0.0
 10
224.4612351140839
 20
123.0921301723137
 30
0.0
 10
224.5249030956603
 20
123.1466957619635
 30
0.0
 10
224.697917997808
 20
123.3108159006112
 30
0.0
 10
224.7899646652334
 20
123.4213899852403
 30
0.0
 10
224.9427878295575
 20
123.636481468952
 30
0.0
 10
225.0036819819347
 20
123.7413853080067
 30
0.0
 10
225.1538950148621
 20
124.0465032711299
 30
0.0
 10
225.2118418259782
 20
124.2383530190834
 30
0.0
 10
225.2593936877686
 20
124.5748648281597
 30
0.0
 10
225.2496975835777
 20
124.7186050071227
 30
0.0
 10
225.1914896279071
 20
124.8147734003598
 30
0.0
  0
ELLIPSE
  5
133
330
1F
100
AcDbEntity
  8
0
  6
HIDDEN
 62
     7
370
     0
100
AcDbEllipse
 10
223.8840556519
 20
119.5912035471
 30
0.0
 11
3.105839292631288
 21
-2.305055007060076
 31
0.0
210
0.0
220
0.0
230
1.0
 40
0.0904236958
 41
3.35929827111869
 42
6.500890924708398
  0
LINE
  5
134
330
1F
100
AcDbEntity
  8
0
  6
HIDDEN
 62
     7
370
     0
100
AcDbLine
 10
219.5731478399
 20
105.0677837729
 30
0.0
 11
218.6093966132
 21
106.6600492149
 31
0.0
  0
ELLIPSE
  5
135
330
1F
100
AcDbEntity
  8
0
  6
HIDDEN
 62
     7
370
     0
100
AcDbEllipse
 10
220.6962536294
 20
130.2972318334
 30
0.0
 11
-2.220506159018016
 21
3.668613800738058
 31
0.0
210
0.0
220
0.0
230
1.0
 40
0.9794128731
 41
2.244867505055453
 42
2.968085325582884
  0
LINE
  5
136
330
1F
100
AcDbEntity
  8
0
  6
HIDDEN
 62
     7
370
     0
100
AcDbLine
 10
225.191489107
 20
124.8147733667
 30
0.0
 11
224.7533241874
 21
125.5386903458
 31
0.0
  0
ELLIPSE
  5
137
330
1F
100
AcDbEntity
  8
0
  6
HIDDEN
 62
     7
370
     0
100
AcDbEllipse
 10
222.062041101
 20
128.0407432635
 30
0.0
 11
3.953222233227706
 21
1.478682026362605
 31
0.0
210
0.0
220
0.0
230
1.0
 40
0.8454008504
 41
3.837400258827514
 42
5.112524100065912
  0
LINE
  5
138
330
1F
100
AcDbEntity
  8
0
  6
HIDDEN
 62
     7
370
     0
100
AcDbLine
 10
219.829108811
 20
124.763523966
 30
0.0
 11
220.2672737306
 21
124.0396069288
 31
0.0
  0
LWPOLYLINE
  5
139
330
1F
100
AcDbEntity
  8
0
  6
HIDDEN
 62
     7
370
     0
100
AcDbPolyline
 90
       41
 70
   128
 43
0.0
 10
222.9298392898
 20
130.7432016283
 10
223.583266384
 20
130.7042038924
 10
224.2206002241
 20
130.5643197074
 10
224.8261536127
 20
130.3269935697
 10
225.3850142127
 20
129.9980688299
 10
225.8834170765
 20
129.5856449678
 10
226.309094823
 20
129.0998773574
 10
226.6515644854
 20
128.5527269746
 10
226.9023957318
 20
127.9576664482
 10
227.0554045802
 20
127.3293483927
 10
227.1068322128
 20
126.6832439095
 10
227.0554045802
 20
126.0352622584
 10
226.9023957318
 20
125.4013589159
 10
226.6515644854
 20
124.7971426155
 10
226.309094823
 20
124.2374913226
 10
225.8834170765
 20
123.7361852936
 10
225.3850142127
 20
123.3055687434
 10
224.8261536127
 20
122.956244314
 10
224.2206002241
 20
122.6968139335
 10
223.583266384
 20
122.5336655434
 10
222.9298392898
 20
122.4708164036
 10
222.2764121956
 20
122.5098141394
 10
221.6390783554
 20
122.6496980916
 10
221.0335249668
 20
122.8870244622
 10
220.4746643668
 20
123.2159492019
 10
219.9762615031
 20
123.6283728312
 10
219.5505800313
 20
124.1141406744
 10
219.2081103689
 20
124.6612910572
 10
218.9572828478
 20
125.2563514672
 10
218.8042739993
 20
125.8846695227
 10
218.7528463668
 20
126.5307740204
 10
218.8042739993
 20
127.1787556861
 10
218.9572828478
 20
127.8126590577
 10
219.2081103689
 20
128.4168751835
 10
219.5505800313
 20
128.9765264764
 10
219.9762615031
 20
129.4778325054
 10
220.4746643668
 20
129.9084492884
 10
221.0335249668
 20
130.257773485
 10
221.6390783554
 20
130.5172040983
 10
222.2764121956
 20
130.6803522556
 10
222.9298392898
 20
130.7432016283
  0
LINE
  5
13A
330
1F
100
AcDbEntity
  8
0
  6
HIDDEN
 62
     7
370
     0
100
AcDbLine
 10
226.2530627316
 20
118.5718335136
 30
0.0
 11
226.8335672683
 21
114.4922532066
 31
0.0
  0
LINE
  5
13B
330
1F
100
AcDbEntity
  8
0
  6
HIDDEN
 62
     7
370
     0
100
AcDbLine
 10
226.509720332
 20
115.0273008197
 30
0.0
 11
226.8335672683
 21
114.4922532066
 31
0.0
  0
LINE
  5
13C
330
1F
100
AcDbEntity
  8
0
  6
HIDDEN
 62
     7
370
     0
100
AcDbLine
 10
225.1280287868
 20
120.814080622
 30
0.0
 11
224.7533241874
 21
125.5386903458
 31
0.0
  0
LINE
  5
13D
330
1F
100
AcDbEntity
  8
0
  6
HIDDEN
 62
     7
370
     0
100
AcDbLine
 10
226.2530627316
 20
118.5718335136
 30
0.0
 11
226.9616017705
 21
117.4012169167
 31
0.0
  0
LINE
  5
13E
330
1F
100
AcDbEntity
  8
0
  6
HIDDEN
 62
     7
370
     0
100
AcDbLine
 10
180.8450661023
 20
112.388012737
 30
0.0
 11
180.8450661023
 21
112.2881507426
 31
0.0
  0
SPLINE
  5
13F
330
1F
100
AcDbEntity
  8
0
  6
HIDDEN
 62
     7
370
     0
100
AcDbSpline
210
0.0
220
0.0
230
1.0
 70
     8
 71
     3
 72
    24
 73
    20
 74
     0
 42
0.00000001
 43
0.00000001
 12
1.0
 22
0.0
 32
0.0
 13
1.0
 23
0.0
 33
0.0
 40
0.0
 40
0.0
 40
0.0
 40
0.0
 40
0.2500000000000078
 40
0.2500000000000078
 40
0.3750000000000118
 40
0.3750000000000118
 40
0.4375000000000136
 40
0.4375000000000136
 40
0.4687500000000124
 40
0.4687500000000124
 40
0.5000000000000112
 40
0.5000000000000112
 40
0.5625000000000089
 40
0.5625000000000089
 40
0.6250000000000064
 40
0.6250000000000064
 40
0.7500000000000041
 40
0.7500000000000041
 40
1.0
 40
1.0
 40
1.0
 40
1.0
 10
180.8450661248028
 20
112.3880127275603
 30
0.0
 10
180.8454690354382
 20
112.4184369643985
 30
0.0
 10
180.8475130147785
 20
112.4512950649529
 30
0.0
 10
180.8567502576039
 20
112.5073204321068
 30
0.0
 10
180.8606373205843
 20
112.5269314852923
 30
0.0
 10
180.8715412119899
 20
112.5612057687214
 30
0.0
 10
180.8756832577402
 20
112.5732681941936
 30
0.0
 10
180.8875783314904
 20
112.5955873588915
 30
0.0
 10
180.8928253957974
 20
112.6045538712504
 30
0.0
 10
180.9096924621728
 20
112.6222034357785
 30
0.0
 10
180.9175148697021
 20
112.6263477199234
 30
0.0
 10
180.9344636703266
 20
112.6328352611009
 30
0.0
 10
180.9419200215448
 20
112.6322383797292
 30
0.0
 10
180.955979924738
 20
112.6304921157578
 30
0.0
 10
180.9621123098743
 20
112.6286614278594
 30
0.0
 10
180.9794070723981
 20
112.6220950182867
 30
0.0
 10
180.9894243908074
 20
112.616229803128
 30
0.0
 10
181.017795725051
 20
112.5974851190973
 30
0.0
 10
181.0343311626957
 20
112.5833209710104
 30
0.0
 10
181.0500261468605
 20
112.5691645847179
 30
0.0
  0
SPLINE
  5
140
330
1F
100
AcDbEntity
  8
0
  6
HIDDEN
 62
     7
370
     0
100
AcDbSpline
210
0.0
220
0.0
230
1.0
 70
     8
 71
     3
 72
     8
 73
     4
 74
     0
 42
0.00000001
 43
0.00000001
 12
1.0
 22
0.0
 32
0.0
 13
1.0
 23
0.0
 33
0.0
 40
0.0
 40
0.0
 40
0.0
 40
0.0
 40
1.0
 40
1.0
 40
1.0
 40
1.0
 10
181.0500261468605
 20
112.5691645847178
 30
0.0
 10
181.1007532900672
 20
112.5234102833926
 30
0.0
 10
181.158640619628
 20
112.4949061375291
 30
0.0
 10
181.2237457812433
 20
112.4831851078703
 30
0.0
  0
SPLINE
  5
141
330
1F
100
AcDbEntity
  8
0
  6
HIDDEN
 62
     7
370
     0
100
AcDbSpline
210
0.0
220
0.0
230
1.0
 70
     8
 71
     3
 72
     8
 73
     4
 74
     0
 42
0.00000001
 43
0.00000001
 12
1.0
 22
0.0
 32
0.0
 13
1.0
 23
0.0
 33
0.0
 40
0.0
 40
0.0
 40
0.0
 40
0.0
 40
1.0
 40
1.0
 40
1.0
 40
1.0
 10
181.2237457812433
 20
140.1333131238806
 30
0.0
 10
181.1586406196292
 20
140.121592094222
 30
0.0
 10
181.1007532900692
 20
140.0930879483593
 30
0.0
 10
181.0500261468632
 20
140.0473336470355
 30
0.0
  0
LINE
  5
142
330
1F
100
AcDbEntity
  8
0
  6
HIDDEN
 62
     7
370
     0
100
AcDbLine
 10
160.0450652307
 20
116.6506379768
 30
0.0
 11
160.0450652307
 21
112.8107186332
 31
0.0
  0
LINE
  5
143
330
1F
100
AcDbEntity
  8
0
  6
HIDDEN
 62
     7
370
     0
100
AcDbLine
 10
158.5450659162
 20
117.0836508199
 30
0.0
 11
158.5450659162
 21
113.6767443194
 31
0.0
  0
LINE
  5
144
330
1F
100
AcDbEntity
  8
0
  6
HIDDEN
 62
     7
370
     0
100
AcDbLine
 10
180.8450661023
 20
116.3893535658
 30
0.0
 11
180.8450661023
 21
115.3342107236
 31
0.0
  0
SPLINE
  5
145
330
1F
100
AcDbEntity
  8
0
  6
HIDDEN
 62
     7
370
     0
100
AcDbSpline
210
0.0
220
0.0
230
1.0
 70
     8
 71
     3
 72
    16
 73
    12
 74
     0
 42
0.00000001
 43
0.00000001
 12
1.0
 22
0.0
 32
0.0
 13
1.0
 23
0.0
 33
0.0
 40
0.0
 40
0.0
 40
0.0
 40
0.0
 40
0.2499999999999997
 40
0.2499999999999997
 40
0.3749999999999998
 40
0.3749999999999998
 40
0.5
 40
0.5
 40
0.75
 40
0.75
 40
1.0
 40
1.0
 40
1.0
 40
1.0
 10
180.8450661248027
 20
115.334211123629
 30
0.0
 10
180.7645287929033
 20
114.9452039396834
 30
0.0
 10
180.7044914488758
 20
114.5887034980578
 30
0.0
 10
180.6437537417222
 20
114.1022011128689
 30
0.0
 10
180.6284313666093
 20
113.948122172015
 30
0.0
 10
180.6078485573052
 20
113.6566526135216
 30
0.0
 10
180.6026489602796
 20
113.5190827296225
 30
0.0
 10
180.6025953070998
 20
113.1408378944328
 30
0.0
 10
180.6227928505778
 20
112.9309568258807
 30
0.0
 10
180.7034709389364
 20
112.5943775269695
 30
0.0
 10
180.7645171035443
 20
112.4680930350517
 30
0.0
 10
180.8450661248029
 20
112.3880127275604
 30
0.0
  0
LINE
  5
146
330
1F
100
AcDbEntity
  8
0
  6
HIDDEN
 62
     7
370
     0
100
AcDbLine
 10
180.8450661023
 20
140.3283474892
 30
0.0
 11
180.8450661023
 21
140.2284854948
 31
0.0
  0
SPLINE
  5
147
330
1F
100
AcDbEntity
  8
0
  6
HIDDEN
 62
     7
370
     0
100
AcDbSpline
210
0.0
220
0.0
230
1.0
 70
     8
 71
     3
 72
    24
 73
    20
 74
     0
 42
0.00000001
 43
0.00000001
 12
1.0
 22
0.0
 32
0.0
 13
1.0
 23
0.0
 33
0.0
 40
0.0
 40
0.0
 40
0.0
 40
0.0
 40
0.249999999999992
 40
0.249999999999992
 40
0.3749999999999881
 40
0.3749999999999881
 40
0.4374999999999862
 40
0.4374999999999862
 40
0.4999999999999843
 40
0.4999999999999843
 40
0.5312499999999848
 40
0.5312499999999848
 40
0.5624999999999852
 40
0.5624999999999852
 40
0.6249999999999862
 40
0.6249999999999862
 40
0.7499999999999902
 40
0.7499999999999902
 40
1.0
 40
1.0
 40
1.0
 40
1.0
 10
181.0500261468633
 20
140.0473336470354
 30
0.0
 10
181.0342595585649
 20
140.0331126760472
 30
0.0
 10
181.0176480256103
 20
140.0188823857123
 30
0.0
 10
180.9891216776523
 20
140.0000853304909
 30
0.0
 10
180.9790362438623
 20
139.9941969101496
 30
0.0
 10
180.9615534733274
 20
139.9876595153472
 30
0.0
 10
180.9553458168818
 20
139.9858483013461
 30
0.0
 10
180.9410743166367
 20
139.9842424988396
 30
0.0
 10
180.9335042461336
 20
139.9836897214535
 30
0.0
 10
180.9161079166983
 20
139.9908884661663
 30
0.0
 10
180.9076486437383
 20
139.9959802149139
 30
0.0
 10
180.8915876791907
 20
140.0137951473931
 30
0.0
 10
180.8867544433444
 20
140.0223175622554
 30
0.0
 10
180.8753285236092
 20
140.0442139989042
 30
0.0
 10
180.8713071677267
 20
140.0559545217101
 30
0.0
 10
180.8605466726956
 20
140.0900047856635
 30
0.0
 10
180.8566723636347
 20
140.1095797746922
 30
0.0
 10
180.8474994915075
 20
140.1654280833734
 30
0.0
 10
180.8454671207928
 20
140.1982058444022
 30
0.0
 10
180.8450661248029
 20
140.2284855041902
 30
0.0
  0
LINE
  5
148
330
1F
100
AcDbEntity
  8
0
  6
HIDDEN
 62
     7
370
     0
100
AcDbLine
 10
160.0450652307
 20
139.8057795986
 30
0.0
 11
160.0450652307
 21
135.965860255
 31
0.0
  0
LINE
  5
149
330
1F
100
AcDbEntity
  8
0
  6
HIDDEN
 62
     7
370
     0
100
AcDbLine
 10
180.8450661023
 20
137.2822875082
 30
0.0
 11
180.8450661023
 21
136.2271446659
 31
0.0
  0
SPLINE
  5
14A
330
1F
100
AcDbEntity
  8
0
  6
HIDDEN
 62
     7
370
     0
100
AcDbSpline
210
0.0
220
0.0
230
1.0
 70
     8
 71
     3
 72
    16
 73
    12
 74
     0
 42
0.00000001
 43
0.00000001
 12
1.0
 22
0.0
 32
0.0
 13
1.0
 23
0.0
 33
0.0
 40
0.0
 40
0.0
 40
0.0
 40
0.0
 40
0.2499999999999998
 40
0.2499999999999998
 40
0.3749999999999997
 40
0.3749999999999997
 40
0.4999999999999996
 40
0.4999999999999996
 40
0.7499999999999998
 40
0.7499999999999998
 40
1.0
 40
1.0
 40
1.0
 40
1.0
 10
180.8450661248027
 20
140.2284855041903
 30
0.0
 10
180.7645287929033
 20
140.1484168180378
 30
0.0
 10
180.7044914488759
 20
140.0245523265471
 30
0.0
 10
180.6437537417222
 20
139.7738715026142
 30
0.0
 10
180.6284313666093
 20
139.6794328983044
 30
0.0
 10
180.6078485573052
 20
139.4681218306849
 30
0.0
 10
180.6026489602796
 20
139.3508323759309
 30
0.0
 10
180.6025953070998
 20
138.9727967041744
 30
0.0
 10
180.6227928505778
 20
138.6840195504293
 30
0.0
 10
180.7034709389364
 20
138.0341796872881
 30
0.0
 10
180.7645171035443
 20
137.6713507533941
 30
0.0
 10
180.8450661248029
 20
137.2822871081212
 30
0.0
  0
LINE
  5
14B
330
1F
100
AcDbEntity
  8
0
  6
HIDDEN
 62
     7
370
     0
100
AcDbLine
 10
158.5450659162
 20
138.9397539123
 30
0.0
 11
158.5450659162
 21
135.5328474119
 31
0.0
  0
LINE
  5
14C
330
1F
100
AcDbEntity
  8
0
  6
HIDDEN
 62
     7
370
     0
100
AcDbLine
 10
230.2266920573
 20
101.9020637422
 30
0.0
 11
226.2195798224
 21
104.3083907961
 31
0.0
  0
LINE
  5
14D
330
1F
100
AcDbEntity
  8
0
  6
HIDDEN
 62
     7
370
     0
100
AcDbLine
 10
221.9093518919
 20
113.7170873507
 30
0.0
 11
220.7481453782
 21
121.8776174746
 31
0.0
  0
ARC
  5
14E
330
1F
100
AcDbEntity
  8
0
  6
HIDDEN
 62
     7
370
     0
100
AcDbCircle
 10
224.676677298
 20
112.1657848541
 30
0.0
 40
3.172479998247865
100
AcDbArc
 50
150.7259571382
 51
47.166120887
  0
ELLIPSE
  5
14F
330
1F
100
AcDbEntity
  8
0
  6
HIDDEN
 62
     7
370
     0
100
AcDbEllipse
 10
174.2294518342
 20
124.8082491159
 30
0.0
 11
237.8586779710877
 21
4.388194929981978
 31
0.0
210
0.0
220
0.0
230
1.0
 40
0.1034726254
 41
4.948132671435025
 42
4.952001506761609
  0
ARC
  5
150
330
1F
100
AcDbEntity
  8
0
  6
HIDDEN
 62
     7
370
     0
100
AcDbCircle
 10
217.6203473779
 20
89.9580043011
 30
0.0
 40
16.72962615221585
100
AcDbArc
 50
59.068546109
 51
81.7182764198
  0
LINE
  5
151
330
1F
100
AcDbEntity
  8
0
  6
HIDDEN
 62
     7
370
     0
100
AcDbLine
 10
219.4928827351
 20
106.5829506069
 30
0.0
 11
218.6093966132
 21
106.6600492149
 31
0.0
  0
LINE
  5
152
330
1F
100
AcDbEntity
  8
0
  6
HIDDEN
 62
     7
370
     0
100
AcDbLine
 10
217.9733368224
 20
118.6666207313
 30
0.0
 11
218.6093966132
 21
106.6600492149
 31
0.0
  0
LINE
  5
153
330
1F
100
AcDbEntity
  8
0
  6
HIDDEN
 62
     7
370
     0
100
AcDbLine
 10
220.7481453782
 20
121.8776174746
 30
0.0
 11
217.5363006657
 21
123.8063772134
 31
0.0
  0
LINE
  5
154
330
1F
100
AcDbEntity
  8
0
  6
HIDDEN
 62
     7
370
     0
100
AcDbLine
 10
230.3706000215
 20
116.0991916358
 30
0.0
 11
226.2530627316
 21
118.5718335136
 31
0.0
  0
LINE
  5
155
330
1F
100
AcDbEntity
  8
0
  6
HIDDEN
 62
     7
370
     0
100
AcDbLine
 10
230.3706000215
 20
116.0991916358
 30
0.0
 11
231.1206425196
 21
101.94098185
 31
0.0
  0
LINE
  5
156
330
1F
100
AcDbEntity
  8
0
  6
HIDDEN
 62
     7
370
     0
100
AcDbLine
 10
220.8065095013
 20
121.7811901978
 30
0.0
 11
220.7481453782
 21
121.8776174746
 31
0.0
  0
LWPOLYLINE
  5
157
330
1F
100
AcDbEntity
  8
0
  6
HIDDEN
 62
     7
370
     0
100
AcDbPolyline
 90
       29
 70
   128
 43
0.0
 10
196.5450665569
 20
133.4097928292
 10
197.0123604527
 20
133.3609756938
 10
197.4562222725
 20
133.2169708721
 10
197.8543943381
 20
132.9850003048
 10
198.1869118875
 20
132.6766952797
 10
198.4371005213
 20
132.3075157515
 10
198.5924153245
 20
131.8959740847
 10
198.6450667149
 20
131.4627069905
 10
198.5924153245
 20
131.0294394306
 10
198.4371005213
 20
130.6178977638
 10
198.1869118875
 20
130.2487187012
 10
197.8543943381
 20
129.9404136761
 10
197.4562222725
 20
129.708442876
 10
197.0123604527
 20
129.5644382871
 10
196.5450665569
 20
129.515620686
 10
196.0777717298
 20
129.5644382871
 10
195.63390991
 20
129.708442876
 10
195.2357378444
 20
129.9404136761
 10
194.903220295
 20
130.2487187012
 10
194.6530316612
 20
130.6178977638
 10
194.4977177894
 20
131.0294394306
 10
194.445066399
 20
131.4627069905
 10
194.4977177894
 20
131.8959740847
 10
194.6530316612
 20
132.3075157515
 10
194.903220295
 20
132.6766952797
 10
195.2357378444
 20
132.9850003048
 10
195.63390991
 20
133.2169708721
 10
196.0777717298
 20
133.3609756938
 10
196.5450665569
 20
133.4097928292
  0
SPLINE
  5
158
330
1F
100
AcDbEntity
  8
0
  6
HIDDEN
 62
     7
370
     0
100
AcDbSpline
210
0.0
220
0.0
230
1.0
 70
     8
 71
     3
 72
    10
 73
     6
 74
     0
 42
0.00000001
 43
0.00000001
 12
1.0
 22
0.0
 32
0.0
 13
1.0
 23
0.0
 33
0.0
 40
0.0
 40
0.0
 40
0.0
 40
0.0
 40
0.5
 40
0.5
 40
1.0
 40
1.0
 40
1.0
 40
1.0
 10
221.5555842113782
 20
115.0242915709738
 30
0.0
 10
221.5272448692152
 20
114.8623027727484
 30
0.0
 10
221.5151531620275
 20
114.7101788240876
 30
0.0
 10
221.5224321543
 20
114.442809526387
 30
0.0
 10
221.5407987317506
 20
114.3259941884971
 30
0.0
 10
221.5855036927404
 20
114.2521347955912
 30
0.0
  0
ARC
  5
159
330
1F
100
AcDbEntity
  8
0
  6
HIDDEN
 62
     7
370
     0
100
AcDbCircle
 10
224.0971174714
 20
113.1245779598
 30
0.0
 40
3.173059670310679
100
AcDbArc
 50
143.2230852694
 51
54.6689915556
  0
SPLINE
  5
15A
330
1F
100
AcDbEntity
  8
0
  6
HIDDEN
 62
     7
370
     0
100
AcDbSpline
210
0.0
220
0.0
230
1.0
 70
     8
 71
     3
 72
    10
 73
     6
 74
     0
 42
0.00000001
 43
0.00000001
 12
1.0
 22
0.0
 32
0.0
 13
1.0
 23
0.0
 33
0.0
 40
0.0
 40
0.0
 40
0.0
 40
0.0
 40
0.5
 40
0.5
 40
1.0
 40
1.0
 40
1.0
 40
1.0
 10
226.5097200759786
 20
115.027301195535
 30
0.0
 10
226.4650675681038
 20
115.1010739279195
 30
0.0
 10
226.3842420490338
 20
115.2081757871912
 30
0.0
 10
226.1865991320364
 20
115.4455846542224
 30
0.0
 10
226.0682533050996
 20
115.5771660166239
 30
0.0
 10
225.9320970602134
 20
115.713238896864
 30
0.0
  0
LINE
  5
15B
330
1F
100
AcDbEntity
  8
0
  6
HIDDEN
 62
     7
370
     0
100
AcDbLine
 10
221.9093518919
 20
113.7170873507
 30
0.0
 11
221.5855049557
 21
114.2521349638
 31
0.0
  0
SPLINE
  5
15C
330
1F
100
AcDbEntity
  8
0
  6
HIDDEN
 62
     7
370
     0
100
AcDbSpline
210
0.0
220
0.0
230
1.0
 70
     8
 71
     3
 72
    10
 73
     6
 74
     0
 42
0.00000001
 43
0.00000001
 12
1.0
 22
0.0
 32
0.0
 13
1.0
 23
0.0
 33
0.0
 40
0.0
 40
0.0
 40
0.0
 40
0.0
 40
0.5
 40
0.5
 40
1.0
 40
1.0
 40
1.0
 40
1.0
 10
205.743664963113
 20
106.6673454623313
 30
0.0
 10
205.8224826809297
 20
107.0032671643011
 30
0.0
 10
205.973428895173
 20
107.3403925136844
 30
0.0
 10
206.3906482998722
 20
108.0147934390916
 30
0.0
 10
206.6547722930972
 20
108.350243780517
 30
0.0
 10
206.9562943260727
 20
108.6845151263341
 30
0.0
  0
ELLIPSE
  5
15D
330
1F
100
AcDbEntity
  8
0
  6
HIDDEN
 62
     7
370
     0
100
AcDbEllipse
 10
191.7472453855
 20
124.8082491159
 30
0.0
 11
40.29597927889515
 21
-24.92197537396964
 31
0.0
210
0.0
220
0.0
230
1.0
 40
0.0489778835
 41
0.3331588523260905
 42
0.6086922060300162
  0
SPLINE
  5
15E
330
1F
100
AcDbEntity
  8
0
  6
HIDDEN
 62
     7
370
     0
100
AcDbSpline
210
0.0
220
0.0
230
1.0
 70
     8
 71
     3
 72
     8
 73
     4
 74
     0
 42
0.00000001
 43
0.00000001
 12
1.0
 22
0.0
 32
0.0
 13
1.0
 23
0.0
 33
0.0
 40
0.0
 40
0.0
 40
0.0
 40
0.0
 40
1.0
 40
1.0
 40
1.0
 40
1.0
 10
206.9562943260727
 20
108.6845151263341
 30
0.0
 10
206.9301666807677
 20
109.7356387626878
 30
0.0
 10
206.9037033990688
 20
110.8571101217851
 30
0.0
 10
206.8768871021397
 20
112.0508982937024
 30
0.0
  0
SPLINE
  5
15F
330
1F
100
AcDbEntity
  8
0
  6
HIDDEN
 62
     7
370
     0
100
AcDbSpline
210
0.0
220
0.0
230
1.0
 70
     8
 71
     3
 72
    18
 73
    14
 74
     0
 42
0.00000001
 43
0.00000001
 12
1.0
 22
0.0
 32
0.0
 13
1.0
 23
0.0
 33
0.0
 40
0.0
 40
0.0
 40
0.0
 40
0.0
 40
0.2500000000000009
 40
0.2500000000000009
 40
0.3750000000000016
 40
0.3750000000000016
 40
0.5000000000000022
 40
0.5000000000000022
 40
0.7500000000000017
 40
0.7500000000000017
 40
0.8750000000000008
 40
0.8750000000000008
 40
1.0
 40
1.0
 40
1.0
 40
1.0
 10
216.052362536992
 20
108.6845151263341
 30
0.0
 10
216.962264842922
 20
108.6845151263341
 30
0.0
 10
217.8515308929411
 20
108.5991894967451
 30
0.0
 10
219.1576682175043
 20
108.360282161666
 30
0.0
 10
219.58836448371
 20
108.2620045026451
 30
0.0
 10
220.4403718180787
 20
108.0296445183737
 30
0.0
 10
220.8562787341629
 20
107.8969322784505
 30
0.0
 10
222.0638840516057
 20
107.4592793943699
 30
0.0
 10
222.8210621462898
 20
107.1135023473717
 30
0.0
 10
223.8905623520558
 20
106.535066469936
 30
0.0
 10
224.2340951459944
 20
106.3331670705506
 30
0.0
 10
224.8901147248729
 20
105.919421449951
 30
0.0
 10
225.2037253394622
 20
105.7069675711084
 30
0.0
 10
225.50387379286
 20
105.4908489403761
 30
0.0
  0
LINE
  5
160
330
1F
100
AcDbEntity
  8
0
  6
HIDDEN
 62
     7
370
     0
100
AcDbLine
 10
206.9562936789
 20
108.6845153868
 30
0.0
 11
216.0523610777
 21
108.6845153868
 31
0.0
  0
ELLIPSE
  5
161
330
1F
100
AcDbEntity
  8
0
  6
HIDDEN
 62
     7
370
     0
100
AcDbEllipse
 10
230.4699408491
 20
124.8082491159
 30
0.0
 11
-1.769311953565847
 21
24.99944806401932
 31
0.0
210
0.0
220
0.0
230
1.0
 40
0.0938906935
 41
2.099678055155876
 42
2.718893337935702
  0
LWPOLYLINE
  5
162
330
1F
100
AcDbEntity
  8
0
  6
HIDDEN
 62
     7
370
     0
100
AcDbPolyline
 90
       16
 70
   128
 43
0.0
 10
225.1280287868
 20
120.814080622
 10
225.1034865743
 20
120.4366551637
 10
224.9724122351
 20
120.0587854645
 10
224.7405315405
 20
119.6969871334
 10
224.4179810053
 20
119.3670712336
 10
224.018857128
 20
119.0834578983
 10
223.5606054431
 20
118.8585416339
 10
223.063249386
 20
118.7021525502
 10
222.5485297507
 20
118.6211256235
 10
222.0389398402
 20
118.619002208
 10
221.5567494398
 20
118.6958745047
 10
221.1230399674
 20
118.8483836985
 10
220.7567582494
 20
119.069864314
 10
220.4739155835
 20
119.3506357185
 10
220.2868762082
 20
119.6784277371
 10
220.2038096851
 20
120.0389143004
  0
ELLIPSE
  5
163
330
1F
100
AcDbEntity
  8
0
  6
HIDDEN
 62
     7
370
     0
100
AcDbEllipse
 10
223.5525341951
 20
116.713193843
 30
0.0
 11
-0.3124824774540969
 21
2.947022789647605
 31
0.0
210
0.0
220
0.0
230
1.0
 40
0.8407155321
 41
2.089396643204794
 42
4.278721013747943
  0
LINE
  5
164
330
1F
100
AcDbEntity
  8
0
  6
HIDDEN
 62
     7
370
     0
100
AcDbLine
 10
158.5450659162
 20
135.5328474119
 30
0.0
 11
158.5450659162
 21
128.1584629714
 31
0.0
  0
LINE
  5
165
330
1F
100
AcDbEntity
  8
0
  6
HIDDEN
 62
     7
370
     0
100
AcDbLine
 10
158.5450659162
 20
124.4580352604
 30
0.0
 11
158.5450659162
 21
117.0836508199
 31
0.0
  0
SPLINE
  5
166
330
1F
100
AcDbEntity
  8
0
  6
HIDDEN
 62
     7
370
     0
100
AcDbSpline
210
0.0
220
0.0
230
1.0
 70
     8
 71
     3
 72
    24
 73
    20
 74
     0
 42
0.00000001
 43
0.00000001
 12
1.0
 22
0.0
 32
0.0
 13
1.0
 23
0.0
 33
0.0
 40
0.0
 40
0.0
 40
0.0
 40
0.0
 40
0.2500000000000013
 40
0.2500000000000013
 40
0.3750000000000033
 40
0.3750000000000033
 40
0.4375000000000042
 40
0.4375000000000042
 40
0.5000000000000052
 40
0.5000000000000052
 40
0.5312500000000044
 40
0.5312500000000044
 40
0.5625000000000038
 40
0.5625000000000038
 40
0.6250000000000023
 40
0.6250000000000023
 40
0.7500000000000018
 40
0.7500000000000018
 40
1.0
 40
1.0
 40
1.0
 40
1.0
 10
181.0500261468633
 20
115.5156553890772
 30
0.0
 10
181.0342572695059
 20
115.4417966971476
 30
0.0
 10
181.0176432876559
 20
115.3680853084118
 30
0.0
 10
180.9891116216507
 20
115.2565384847897
 30
0.0
 10
180.979024206832
 20
115.2191669116612
 30
0.0
 10
180.9615366463777
 20
115.1622674140235
 30
0.0
 10
180.9553270845944
 20
115.1431643138782
 30
0.0
 10
180.9410495309418
 20
115.1042907996427
 30
0.0
 10
180.9334779831464
 20
115.0843661402093
 30
0.0
 10
180.9160603994681
 20
115.0542939221819
 30
0.0
 10
180.907577902823
 20
115.0426125433789
 30
0.0
 10
180.8915395909513
 20
115.0353510326303
 30
0.0
 10
180.8867190427478
 20
115.0389292796401
 30
0.0
 10
180.8753098181998
 20
115.0506901348718
 30
0.0
 10
180.8712893377423
 20
115.0623557849223
 30
0.0
 10
180.860535482922
 20
115.0988911150359
 30
0.0
 10
180.8566628016399
 20
115.1262868483594
 30
0.0
 10
180.8474946518022
 20
115.2110128401154
 30
0.0
 10
180.8454661464331
 20
115.2718449622875
 30
0.0
 10
180.8450661248029
 20
115.3342111236291
 30
0.0
  0
SPLINE
  5
167
330
1F
100
AcDbEntity
  8
0
  6
HIDDEN
 62
     7
370
     0
100
AcDbSpline
210
0.0
220
0.0
230
1.0
 70
     8
 71
     3
 72
    24
 73
    20
 74
     0
 42
0.00000001
 43
0.00000001
 12
1.0
 22
0.0
 32
0.0
 13
1.0
 23
0.0
 33
0.0
 40
0.0
 40
0.0
 40
0.0
 40
0.0
 40
0.2500000000000082
 40
0.2500000000000082
 40
0.3750000000000105
 40
0.3750000000000105
 40
0.4375000000000105
 40
0.4375000000000105
 40
0.4687500000000099
 40
0.4687500000000099
 40
0.5000000000000092
 40
0.5000000000000092
 40
0.5625000000000077
 40
0.5625000000000077
 40
0.6250000000000061
 40
0.6250000000000061
 40
0.7500000000000029
 40
0.7500000000000029
 40
1.0
 40
1.0
 40
1.0
 40
1.0
 10
180.8450661247992
 20
137.282287108124
 30
0.0
 10
180.8454707943749
 20
137.3453779166175
 30
0.0
 10
180.8475142411891
 20
137.4065636391209
 30
0.0
 10
180.856913806443
 20
137.492063371624
 30
0.0
 10
180.8608646999716
 20
137.5196437550656
 30
0.0
 10
180.8720170082679
 20
137.5560978371782
 30
0.0
 10
180.8762385491943
 20
137.5679562588729
 30
0.0
 10
180.8884462707565
 20
137.5785763102503
 30
0.0
 10
180.8942370410067
 20
137.5814096774747
 30
0.0
 10
180.9111585541164
 20
137.5700950904823
 30
0.0
 10
180.9185646700678
 20
137.5583142047281
 30
0.0
 10
180.9350219233125
 20
137.5282733634979
 30
0.0
 10
180.9424784412236
 20
137.5085604098845
 30
0.0
 10
180.9563863704987
 20
137.4701583438239
 30
0.0
 10
180.9624783163938
 20
137.4512766939121
 30
0.0
 10
180.9796726087453
 20
137.3949757833799
 30
0.0
 10
180.989657558949
 20
137.3578997055698
 30
0.0
 10
181.0179036040483
 20
137.2472410346785
 30
0.0
 10
181.0343831410096
 20
137.1741119742692
 30
0.0
 10
181.0500261468695
 20
137.1008428426444
 30
0.0
  0
SPLINE
  5
168
330
1F
100
AcDbEntity
  8
0
  6
HIDDEN
 62
     7
370
     0
100
AcDbSpline
210
0.0
220
0.0
230
1.0
 70
     8
 71
     3
 72
     8
 73
     4
 74
     0
 42
0.00000001
 43
0.00000001
 12
1.0
 22
0.0
 32
0.0
 13
1.0
 23
0.0
 33
0.0
 40
0.0
 40
0.0
 40
0.0
 40
0.0
 40
1.0
 40
1.0
 40
1.0
 40
1.0
 10
181.2237457812433
 20
116.2547297982687
 30
0.0
 10
181.1586406196292
 20
115.999704563063
 30
0.0
 10
181.1007532900692
 20
115.7532525469217
 30
0.0
 10
181.0500261468632
 20
115.5156553890772
 30
0.0
  0
SPLINE
  5
169
330
1F
100
AcDbEntity
  8
0
  6
HIDDEN
 62
     7
370
     0
100
AcDbSpline
210
0.0
220
0.0
230
1.0
 70
     8
 71
     3
 72
     8
 73
     4
 74
     0
 42
0.00000001
 43
0.00000001
 12
1.0
 22
0.0
 32
0.0
 13
1.0
 23
0.0
 33
0.0
 40
0.0
 40
0.0
 40
0.0
 40
0.0
 40
1.0
 40
1.0
 40
1.0
 40
1.0
 10
181.0500261468695
 20
137.1008428426445
 30
0.0
 10
181.100753290074
 20
136.8632456848089
 30
0.0
 10
181.1586406196319
 20
136.6167936686774
 30
0.0
 10
181.2237457812433
 20
136.3617684334822
 30
0.0
  0
LINE
  5
16A
330
1F
100
AcDbEntity
  8
0
  6
HIDDEN
 62
     7
370
     0
100
AcDbLine
 10
160.0450652307
 20
123.7532208133
 30
0.0
 11
160.0450652307
 21
116.6506379768
 31
0.0
  0
LINE
  5
16B
330
1F
100
AcDbEntity
  8
0
  6
HIDDEN
 62
     7
370
     0
100
AcDbLine
 10
160.0450652307
 20
135.965860255
 30
0.0
 11
160.0450652307
 21
128.8632774185
 31
0.0
  0
LINE
  5
16C
330
1F
100
AcDbEntity
  8
0
  6
HIDDEN
 62
     7
370
     0
100
AcDbLine
 10
180.8450661023
 20
136.2271446659
 30
0.0
 11
180.8450661023
 21
116.3893535658
 31
0.0
  0
LINE
  5
16D
330
1F
100
AcDbEntity
  8
0
  6
HIDDEN
 62
     7
370
     0
100
AcDbLine
 10
219.829108811
 20
124.763523966
 30
0.0
 11
220.2038096851
 21
120.0389143004
 31
0.0
  0
LINE
  5
16E
330
1F
100
AcDbEntity
  8
0
  6
HIDDEN
 62
     7
370
     0
100
AcDbLine
 10
182.3450661299
 20
134.7876161262
 30
0.0
 11
182.3450661299
 21
117.8288821056
 31
0.0
  0
SPLINE
  5
16F
330
1F
100
AcDbEntity
  8
0
  6
HIDDEN
 62
     7
370
     0
100
AcDbSpline
210
0.0
220
0.0
230
1.0
 70
     8
 71
     3
 72
    22
 73
    18
 74
     0
 42
0.00000001
 43
0.00000001
 12
1.0
 22
0.0
 32
0.0
 13
1.0
 23
0.0
 33
0.0
 40
0.0
 40
0.0
 40
0.0
 40
0.0
 40
0.1249999999999999
 40
0.1249999999999999
 40
0.2499999999999999
 40
0.2499999999999999
 40
0.3749999999999998
 40
0.3749999999999998
 40
0.4999999999999998
 40
0.4999999999999998
 40
0.6249999999999998
 40
0.6249999999999998
 40
0.7499999999999999
 40
0.7499999999999999
 40
0.8749999999999999
 40
0.8749999999999999
 40
1.0
 40
1.0
 40
1.0
 40
1.0
 10
162.7450661248029
 20
123.7153044360475
 30
0.0
 10
162.9260024828791
 20
123.906924295354
 30
0.0
 10
163.105097931656
 20
124.1005661597412
 30
0.0
 10
163.455937920168
 20
124.4952214131254
 30
0.0
 10
163.6281310280726
 20
124.696232943793
 30
0.0
 10
163.9538625336918
 20
125.1124440590267
 30
0.0
 10
164.1099387688602
 20
125.3284598993135
 30
0.0
 10
164.3613179827493
 20
125.7937826624782
 30
0.0
 10
164.4551831130681
 20
126.049321855501
 30
0.0
 10
164.451455196206
 20
126.5836524906017
 30
0.0
 10
164.3540825537186
 20
126.8390733566024
 30
0.0
 10
164.1022617447247
 20
127.2991020725501
 30
0.0
 10
163.9472924892521
 20
127.5129390734786
 30
0.0
 10
163.6224797315268
 20
127.9269776561724
 30
0.0
 10
163.4515866673989
 20
128.1262701282082
 30
0.0
 10
163.1029524278713
 20
128.5182450206424
 30
0.0
 10
162.9249445773428
 20
128.7106943066318
 30
0.0
 10
162.7450661248029
 20
128.9011937957034
 30
0.0
  0
LINE
  5
170
330
1F
100
AcDbEntity
  8
0
  6
HIDDEN
 62
     7
370
     0
100
AcDbLine
 10
162.7450662321
 20
123.715304343
 30
0.0
 11
162.7450662321
 21
128.9011938888
 31
0.0
  0
SPLINE
  5
171
330
1F
100
AcDbEntity
  8
0
  6
HIDDEN
 62
     7
370
     0
100
AcDbSpline
210
0.0
220
0.0
230
1.0
 70
     8
 71
     3
 72
     8
 73
     4
 74
     0
 42
0.00000001
 43
0.00000001
 12
1.0
 22
0.0
 32
0.0
 13
1.0
 23
0.0
 33
0.0
 40
0.0000137051794234
 40
0.0000137051794234
 40
0.0000137051794234
 40
0.0000137051794234
 40
0.0027147144718019
 40
0.0027147144718019
 40
0.0027147144718019
 40
0.0027147144718019
 10
160.0450661248029
 20
123.7532208788137
 30
0.0
 10
160.9450622602976
 20
123.7402493116153
 30
0.0
 10
161.8450624388931
 20
123.7276144543032
 30
0.0
 10
162.7450661248029
 20
123.7153044360475
 30
0.0
  0
SPLINE
  5
172
330
1F
100
AcDbEntity
  8
0
  6
HIDDEN
 62
     7
370
     0
100
AcDbSpline
210
0.0
220
0.0
230
1.0
 70
     8
 71
     3
 72
     8
 73
     4
 74
     0
 42
0.00000001
 43
0.00000001
 12
1.0
 22
0.0
 32
0.0
 13
1.0
 23
0.0
 33
0.0
 40
0.0000137050638847
 40
0.0000137050638847
 40
0.0000137050638847
 40
0.0000137050638847
 40
0.0027147143562631
 40
0.0027147143562631
 40
0.0027147143562631
 40
0.0027147143562631
 10
162.7450661248029
 20
128.9011937957034
 30
0.0
 10
161.8450624388931
 20
128.8888837774476
 30
0.0
 10
160.9450622602977
 20
128.8762489201355
 30
0.0
 10
160.0450661248029
 20
128.8632773529372
 30
0.0
  0
SPLINE
  5
173
330
1F
100
AcDbEntity
  8
0
  6
HIDDEN
 62
     7
370
     0
100
AcDbSpline
210
0.0
220
0.0
230
1.0
 70
     8
 71
     3
 72
    10
 73
     6
 74
     0
 42
0.00000001
 43
0.00000001
 12
1.0
 22
0.0
 32
0.0
 13
1.0
 23
0.0
 33
0.0
 40
0.0
 40
0.0
 40
0.0
 40
0.0
 40
0.5
 40
0.5
 40
1.0
 40
1.0
 40
1.0
 40
1.0
 10
158.5450661248029
 20
124.4580353022247
 30
0.0
 10
158.7822080855186
 20
124.302420487696
 30
0.0
 10
159.0275508442819
 20
124.1705114582768
 30
0.0
 10
159.5288144330147
 20
123.9388545816395
 30
0.0
 10
159.7848490022648
 20
123.8394089655167
 30
0.0
 10
160.0450661248029
 20
123.7532208788137
 30
0.0
  0
SPLINE
  5
174
330
1F
100
AcDbEntity
  8
0
  6
HIDDEN
 62
     7
370
     0
100
AcDbSpline
210
0.0
220
0.0
230
1.0
 70
     8
 71
     3
 72
    10
 73
     6
 74
     0
 42
0.00000001
 43
0.00000001
 12
1.0
 22
0.0
 32
0.0
 13
1.0
 23
0.0
 33
0.0
 40
0.0
 40
0.0
 40
0.0
 40
0.0
 40
0.5
 40
0.5
 40
1.0
 40
1.0
 40
1.0
 40
1.0
 10
160.0450661248029
 20
128.8632773529372
 30
0.0
 10
159.7848490022648
 20
128.7770892662341
 30
0.0
 10
159.5288144330147
 20
128.6776436501113
 30
0.0
 10
159.0275508442819
 20
128.445986773474
 30
0.0
 10
158.7822080855186
 20
128.3140777440549
 30
0.0
 10
158.5450661248029
 20
128.1584629295261
 30
0.0
  0
LINE
  5
175
330
1F
100
AcDbEntity
  8
0
  6
HIDDEN
 62
     7
370
     0
100
AcDbLine
 10
158.5450659162
 20
124.4580352604
 30
0.0
 11
158.5450659162
 21
128.1584629714
 31
0.0
  0
LWPOLYLINE
  5
176
330
1F
100
AcDbEntity
  8
0
  6
HIDDEN
 62
     7
370
     0
100
AcDbPolyline
 90
       32
 70
   128
 43
0.0
 10
196.5450665569
 20
133.8707011118
 10
197.0483122981
 20
133.8232520893
 10
197.5309553212
 20
133.6828486919
 10
197.9732366866
 20
133.4552381112
 10
198.3570477581
 20
133.1497391611
 10
198.6666771239
 20
132.7788585722
 10
198.8894457585
 20
132.3577810935
 10
199.0162360138
 20
131.9037450402
 10
199.0418566978
 20
131.4353386796
 10
198.9652591413
 20
130.9717388748
 10
198.7895781761
 20
130.5319255143
 10
198.5220054752
 20
130.1339045557
 10
198.1734971172
 20
129.7939706519
 10
197.758320964
 20
129.5260412543
 10
197.2934736526
 20
129.3410852476
 10
196.7979867598
 20
129.2466745171
 10
196.2921454227
 20
129.2466745171
 10
195.7966585299
 20
129.3410852476
 10
195.3318112186
 20
129.5260412543
 10
194.9166350654
 20
129.7939706519
 10
194.5681267074
 20
130.1339045557
 10
194.3005549377
 20
130.5319255143
 10
194.1248730412
 20
130.9717388748
 10
194.0482745534
 20
131.4353386796
 10
194.0738952375
 20
131.9037450402
 10
194.2006854928
 20
132.3577810935
 10
194.4234550586
 20
132.7788585722
 10
194.7330844244
 20
133.1497391611
 10
195.116895496
 20
133.4552381112
 10
195.5591768614
 20
133.6828486919
 10
196.0418198845
 20
133.8232520893
 10
196.5450665569
 20
133.8707011118
  0
SPLINE
  5
177
330
1F
100
AcDbEntity
  8
0
  6
HIDDEN
 62
     7
370
     0
100
AcDbSpline
210
0.0
220
0.0
230
1.0
 70
     8
 71
     3
 72
    62
 73
    58
 74
     0
 42
0.00000001
 43
0.00000001
 12
1.0
 22
0.0
 32
0.0
 13
1.0
 23
0.0
 33
0.0
 40
-0.0312500000000002
 40
-0.0312500000000002
 40
0.0
 40
0.0
 40
0.0312499999999998
 40
0.0312499999999998
 40
0.0624999999999996
 40
0.0624999999999996
 40
0.0937499999999994
 40
0.0937499999999994
 40
0.1249999999999992
 40
0.1249999999999992
 40
0.1874999999999991
 40
0.1874999999999991
 40
0.2499999999999989
 40
0.2499999999999989
 40
0.2812499999999988
 40
0.2812499999999988
 40
0.3124999999999987
 40
0.3124999999999987
 40
0.3437499999999987
 40
0.3437499999999987
 40
0.3749999999999986
 40
0.3749999999999986
 40
0.4374999999999983
 40
0.4374999999999983
 40
0.4687499999999983
 40
0.4687499999999983
 40
0.4999999999999981
 40
0.4999999999999981
 40
0.5624999999999981
 40
0.5624999999999981
 40
0.5937499999999982
 40
0.5937499999999982
 40
0.6249999999999983
 40
0.6249999999999983
 40
0.6562499999999986
 40
0.6562499999999986
 40
0.6874999999999987
 40
0.6874999999999987
 40
0.7187499999999988
 40
0.7187499999999988
 40
0.7499999999999989
 40
0.7499999999999989
 40
0.781249999999999
 40
0.781249999999999
 40
0.8124999999999991
 40
0.8124999999999991
 40
0.8437499999999992
 40
0.8437499999999992
 40
0.8749999999999993
 40
0.8749999999999993
 40
0.9062499999999996
 40
0.9062499999999996
 40
0.9374999999999997
 40
0.9374999999999997
 40
0.9687499999999998
 40
0.9687499999999998
 40
1.0
 40
1.0
 40
1.03125
 40
1.03125
 10
168.9988382527312
 20
127.7962281545318
 30
0.0
 10
169.2263385993194
 20
128.0455746963924
 30
0.0
 10
169.3508011282369
 20
128.1571723738493
 30
0.0
 10
169.6198953943887
 20
128.3558231696677
 30
0.0
 10
169.765708485978
 20
128.4431634144564
 30
0.0
 10
170.0668753642673
 20
128.5873591670987
 30
0.0
 10
170.2232110913317
 20
128.6451788376129
 30
0.0
 10
170.5473343906661
 20
128.7324324496639
 30
0.0
 10
170.7139996023766
 20
128.7612344991457
 30
0.0
 10
171.2120158690085
 20
128.8020138044136
 30
0.0
 10
171.5526868178015
 20
128.7685705442723
 30
0.0
 10
172.191697733223
 20
128.5861178998135
 30
0.0
 10
172.4981523402868
 20
128.4346933395008
 30
0.0
 10
172.8947082495492
 20
128.1341954339164
 30
0.0
 10
173.0190574403987
 20
128.0199342487211
 30
0.0
 10
173.2415215344479
 20
127.7702743781485
 30
0.0
 10
173.3390868729252
 20
127.6361077701494
 30
0.0
 10
173.5063424765639
 20
127.3486386756507
 30
0.0
 10
173.576428132083
 20
127.1933718257508
 30
0.0
 10
173.6804834928046
 20
126.8763924056638
 30
0.0
 10
173.715459255472
 20
126.7137396541594
 30
0.0
 10
173.7673237749961
 20
126.2128026339568
 30
0.0
 10
173.7280176672247
 20
125.8726480326465
 30
0.0
 10
173.5652978747638
 20
125.3961534005493
 30
0.0
 10
173.4950173768775
 20
125.2450860407219
 30
0.0
 10
173.3236842317475
 20
124.957791470281
 30
0.0
 10
173.2222919905658
 20
124.8219336919836
 30
0.0
 10
172.8856924033426
 20
124.4531252969854
 30
0.0
 10
172.610459637178
 20
124.2507001876543
 30
0.0
 10
172.1606764098321
 20
124.0336234610456
 30
0.0
 10
172.0018766113284
 20
123.9743211889713
 30
0.0
 10
171.6793148904488
 20
123.8863486711708
 30
0.0
 10
171.5154557784815
 20
123.8572289073245
 30
0.0
 10
171.1826230051277
 20
123.8283722922143
 30
0.0
 10
171.0125707136868
 20
123.8289958154283
 30
0.0
 10
170.6802950496671
 20
123.8602522592327
 30
0.0
 10
170.5165804379184
 20
123.8905709542846
 30
0.0
 10
170.194114952344
 20
123.9812879932876
 30
0.0
 10
170.0356038538175
 20
124.0420569019894
 30
0.0
 10
169.7370501476196
 20
124.1895675767864
 30
0.0
 10
169.5952240184176
 20
124.2767026046503
 30
0.0
 10
169.3273022798593
 20
124.4792880712223
 30
0.0
 10
169.2032088494667
 20
124.5936262378644
 30
0.0
 10
168.9820746615485
 20
124.8418126758172
 30
0.0
 10
168.8836176594499
 20
124.976845292671
 30
0.0
 10
168.7142591457149
 20
125.2688496907258
 30
0.0
 10
168.6460923080089
 20
125.4209854371613
 30
0.0
 10
168.5423583416825
 20
125.7373943856014
 30
0.0
 10
168.5066897798133
 20
125.9038908549556
 30
0.0
 10
168.4724760151608
 20
126.2371527310661
 30
0.0
 10
168.4733344179899
 20
126.403815184888
 30
0.0
 10
168.5111311979395
 20
126.7372033841055
 30
0.0
 10
168.5484739533936
 20
126.902958956585
 30
0.0
 10
168.655723536462
 20
127.2188502730477
 30
0.0
 10
168.7264847530011
 20
127.3721296061199
 30
0.0
 10
168.8986079031018
 20
127.6615066486063
 30
0.0
 10
168.9988382527312
 20
127.7962281545318
 30
0.0
 10
169.2263385993194
 20
128.0455746963924
 30
0.0
  0
CIRCLE
  5
178
330
1F
100
AcDbEntity
  8
0
  6
HIDDEN
 62
     7
370
     0
100
AcDbCircle
 10
171.0450661248
 20
126.3082491159
 30
0.0
 40
2.299999999999997
  0
CIRCLE
  5
179
330
1F
100
AcDbEntity
  8
0
  6
HIDDEN
 62
     7
370
     0
100
AcDbCircle
 10
194.5450661248
 20
126.3082491159
 30
0.0
 40
2.0
  0
LINE
  5
17A
330
1F
100
AcDbEntity
  8
0
  6
HIDDEN
 62
     7
370
     0
100
AcDbLine
 10
229.3361576861
 20
112.0508981793
 30
0.0
 11
206.8768872535
 21
112.0508981793
 31
0.0
  0
SPLINE
  5
17B
330
1F
100
AcDbEntity
  8
0
  6
HIDDEN
 62
     7
370
     0
100
AcDbSpline
210
0.0
220
0.0
230
1.0
 70
     8
 71
     3
 72
     8
 73
     4
 74
     0
 42
0.00000001
 43
0.00000001
 12
1.0
 22
0.0
 32
0.0
 13
1.0
 23
0.0
 33
0.0
 40
0.0
 40
0.0
 40
0.0
 40
0.0
 40
1.0
 40
1.0
 40
1.0
 40
1.0
 10
206.8768871021397
 20
112.0508982937023
 30
0.0
 10
206.3143842405274
 20
115.7276081265409
 30
0.0
 10
205.8956809121589
 20
119.4233603171298
 30
0.0
 10
205.743664963113
 20
123.1544280360103
 30
0.0
  0
LINE
  5
17C
330
1F
100
AcDbEntity
  8
0
  6
HIDDEN
 62
     7
370
     0
100
AcDbLine
 10
229.3361576861
 20
112.0508981793
 30
0.0
 11
228.3360476261
 21
126.3082491159
 31
0.0
  0
LINE
  5
17D
330
1F
100
AcDbEntity
  8
0
  6
HIDDEN
 62
     7
370
     0
100
AcDbLine
 10
182.5450661248
 20
110.5082498788
 30
0.0
 11
182.6379593452
 21
110.6011418551
 31
0.0
  0
LINE
  5
17E
330
1F
100
AcDbEntity
  8
0
  6
HIDDEN
 62
     7
370
     0
100
AcDbLine
 10
182.6379593452
 20
142.0153563767
 30
0.0
 11
182.5450661248
 21
142.1082483529
 31
0.0
  0
ARC
  5
17F
330
1F
100
AcDbEntity
  8
0
  6
HIDDEN
 62
     7
370
     0
100
AcDbCircle
 10
181.9308525624
 20
111.3082491159
 30
0.0
 40
1.000000000000008
100
AcDbArc
 50
315.0
 51
0.0
  0
ARC
  5
180
330
1F
100
AcDbEntity
  8
0
  6
HIDDEN
 62
     7
370
     0
100
AcDbCircle
 10
181.9308525624
 20
111.3082491159
 30
0.0
 40
1.00000000000001
100
AcDbArc
 50
0.0
 51
52.1052014664
  0
ARC
  5
181
330
1F
100
AcDbEntity
  8
0
  6
HIDDEN
 62
     7
370
     0
100
AcDbCircle
 10
181.9308525624
 20
141.3082491159
 30
0.0
 40
1.000000000000028
100
AcDbArc
 50
351.8087250651
 51
45.0
  0
ARC
  5
182
330
1F
100
AcDbEntity
  8
0
  6
HIDDEN
 62
     7
370
     0
100
AcDbCircle
 10
181.9308525624
 20
141.3082491159
 30
0.0
 40
1.000000000000002
100
AcDbArc
 50
307.8947985336
 51
351.8087250651
  0
LINE
  5
183
330
1F
100
AcDbEntity
  8
0
  6
HIDDEN
 62
     7
370
     0
100
AcDbLine
 10
182.9308525606
 20
111.3082494512
 30
0.0
 11
182.9308525606
 21
141.3082487806
 31
0.0
  0
LINE
  5
184
330
1F
100
AcDbEntity
  8
0
  6
HIDDEN
 62
     7
370
     0
100
AcDbLine
 10
182.9308525606
 20
111.3082494512
 30
0.0
 11
182.9308525606
 21
141.3082487806
 31
0.0
  0
LINE
  5
185
330
1F
100
AcDbEntity
  8
0
  6
HIDDEN
 62
     7
370
     0
100
AcDbLine
 10
194.445066399
 20
123.9694361965
 30
0.0
 11
194.445066399
 21
120.6891502179
 31
0.0
  0
LINE
  5
186
330
1F
100
AcDbEntity
  8
0
  6
HIDDEN
 62
     7
370
     0
100
AcDbLine
 10
198.6450667149
 20
121.9040013775
 30
0.0
 11
198.6450667149
 21
123.9698068629
 31
0.0
  0
LINE
  5
187
330
1F
100
AcDbEntity
  8
0
  6
HIDDEN
 62
     7
370
     0
100
AcDbLine
 10
203.3386400557
 20
119.4409153349
 30
0.0
 11
198.2367562717
 21
122.6517470013
 31
0.0
  0
LINE
  5
188
330
1F
100
AcDbEntity
  8
0
  6
HIDDEN
 62
     7
370
     0
100
AcDbLine
 10
195.9373105905
 20
119.1363546922
 30
0.0
 11
203.2862270838
 21
114.5113704651
 31
0.0
  0
LINE
  5
189
330
1F
100
AcDbEntity
  8
0
  6
HIDDEN
 62
     7
370
     0
100
AcDbLine
 10
158.5450659162
 20
116.1525983288
 30
0.0
 11
159.5720986492
 21
116.7455555796
 31
0.0
  0
LINE
  5
18A
330
1F
100
AcDbEntity
  8
0
  6
HIDDEN
 62
     7
370
     0
100
AcDbLine
 10
159.5720986492
 20
135.8709426522
 30
0.0
 11
158.5450659162
 21
136.4638999029
 31
0.0
  0
LINE
  5
18B
330
1F
100
AcDbEntity
  8
0
  6
HIDDEN
 62
     7
370
     0
100
AcDbLine
 10
164.0450658864
 20
116.3082493394
 30
0.0
 11
165.0578847742
 21
116.3082493394
 31
0.0
  0
LINE
  5
18C
330
1F
100
AcDbEntity
  8
0
  6
HIDDEN
 62
     7
370
     0
100
AcDbLine
 10
165.0578847742
 20
136.3082488924
 30
0.0
 11
164.0450658864
 21
136.3082488924
 31
0.0
  0
ARC
  5
18D
330
1F
100
AcDbEntity
  8
0
  6
HIDDEN
 62
     7
370
     0
100
AcDbCircle
 10
164.0450661248
 20
117.3082491159
 30
0.0
 40
1.000000000000008
100
AcDbArc
 50
193.3524261238
 51
270.0
  0
ARC
  5
18E
330
1F
100
AcDbEntity
  8
0
  6
HIDDEN
 62
     7
370
     0
100
AcDbCircle
 10
164.0450661248
 20
135.3082491159
 30
0.0
 40
1.000000000000004
100
AcDbArc
 50
90.0
 51
166.6475738762
  0
ARC
  5
18F
330
1F
100
AcDbEntity
  8
0
  6
HIDDEN
 62
     7
370
     0
100
AcDbCircle
 10
165.0578845945
 20
117.3082491159
 30
0.0
 40
1.000000000000008
100
AcDbArc
 50
270.0
 51
315.0
  0
ARC
  5
190
330
1F
100
AcDbEntity
  8
0
  6
HIDDEN
 62
     7
370
     0
100
AcDbCircle
 10
165.0578845945
 20
135.3082491159
 30
0.0
 40
1.000000000000008
100
AcDbArc
 50
45.0
 51
90.0
  0
LINE
  5
191
330
1F
100
AcDbEntity
  8
0
  6
HIDDEN
 62
     7
370
     0
100
AcDbLine
 10
165.764991439
 20
116.6011419072
 30
0.0
 11
166.4720981038
 21
117.3082495033
 31
0.0
  0
LINE
  5
192
330
1F
100
AcDbEntity
  8
0
  6
HIDDEN
 62
     7
370
     0
100
AcDbLine
 10
166.4720981038
 20
135.3082487284
 30
0.0
 11
165.764991439
 21
136.0153563245
 31
0.0
  0
LINE
  5
193
330
1F
100
AcDbEntity
  8
0
  6
HIDDEN
 62
     7
370
     0
100
AcDbLine
 10
159.5720986492
 20
116.7455555796
 30
0.0
 11
161.6720988071
 21
117.3082495033
 31
0.0
  0
LINE
  5
194
330
1F
100
AcDbEntity
  8
0
  6
HIDDEN
 62
     7
370
     0
100
AcDbLine
 10
161.6720988071
 20
135.3082487284
 30
0.0
 11
159.5720986492
 21
135.8709426522
 31
0.0
  0
LINE
  5
195
330
1F
100
AcDbEntity
  8
0
  6
HIDDEN
 62
     7
370
     0
100
AcDbLine
 10
163.0720982915
 20
135.5391887873
 30
0.0
 11
162.672098971
 21
135.3082487284
 31
0.0
  0
LINE
  5
196
330
1F
100
AcDbEntity
  8
0
  6
HIDDEN
 62
     7
370
     0
100
AcDbLine
 10
162.672098971
 20
117.3082495033
 30
0.0
 11
163.0720982915
 21
117.0773094445
 31
0.0
  0
ARC
  5
197
330
1F
100
AcDbEntity
  8
0
  6
HIDDEN
 62
     7
370
     0
100
AcDbCircle
 10
173.0450661248
 20
117.8082491159
 30
0.0
 40
0.5
100
AcDbArc
 50
270.0
 51
0.0
  0
ARC
  5
198
330
1F
100
AcDbEntity
  8
0
  6
HIDDEN
 62
     7
370
     0
100
AcDbCircle
 10
173.0450661248
 20
134.8082491159
 30
0.0
 40
0.5
100
AcDbArc
 50
0.0
 51
90.0
  0
LINE
  5
199
330
1F
100
AcDbEntity
  8
0
  6
HIDDEN
 62
     7
370
     0
100
AcDbLine
 10
166.4720981038
 20
117.3082495033
 30
0.0
 11
173.0450664303
 21
117.3082495033
 31
0.0
  0
LINE
  5
19A
330
1F
100
AcDbEntity
  8
0
  6
HIDDEN
 62
     7
370
     0
100
AcDbLine
 10
173.0450664303
 20
135.3082487284
 30
0.0
 11
166.4720981038
 21
135.3082487284
 31
0.0
  0
LINE
  5
19B
330
1F
100
AcDbEntity
  8
0
  6
HIDDEN
 62
     7
370
     0
100
AcDbLine
 10
161.6720988071
 20
117.3082495033
 30
0.0
 11
162.672098971
 21
117.3082495033
 31
0.0
  0
LINE
  5
19C
330
1F
100
AcDbEntity
  8
0
  6
HIDDEN
 62
     7
370
     0
100
AcDbLine
 10
162.672098971
 20
135.3082487284
 30
0.0
 11
161.6720988071
 21
135.3082487284
 31
0.0
  0
LINE
  5
19D
330
1F
100
AcDbEntity
  8
0
  6
HIDDEN
 62
     7
370
     0
100
AcDbLine
 10
173.5450665122
 20
119.1582491546
 30
0.0
 11
174.4450659147
 21
120.0582490227
 31
0.0
  0
LINE
  5
19E
330
1F
100
AcDbEntity
  8
0
  6
HIDDEN
 62
     7
370
     0
100
AcDbLine
 10
174.4450659147
 20
132.558249209
 30
0.0
 11
173.5450665122
 21
133.4582490771
 31
0.0
  0
LINE
  5
19F
330
1F
100
AcDbEntity
  8
0
  6
HIDDEN
 62
     7
370
     0
100
AcDbLine
 10
174.4450659147
 20
120.0582490227
 30
0.0
 11
199.5296871877
 21
120.0582490227
 31
0.0
  0
LINE
  5
1A0
330
1F
100
AcDbEntity
  8
0
  6
HIDDEN
 62
     7
370
     0
100
AcDbLine
 10
199.5296871877
 20
132.558249209
 30
0.0
 11
174.4450659147
 21
132.558249209
 31
0.0
  0
LINE
  5
1A1
330
1F
100
AcDbEntity
  8
0
  6
HIDDEN
 62
     7
370
     0
100
AcDbLine
 10
199.5296871877
 20
120.0582490227
 30
0.0
 11
203.2850666559
 21
126.3082491159
 31
0.0
  0
LINE
  5
1A2
330
1F
100
AcDbEntity
  8
0
  6
HIDDEN
 62
     7
370
     0
100
AcDbLine
 10
203.2850666559
 20
126.3082491159
 30
0.0
 11
199.5296871877
 21
132.558249209
 31
0.0
  0
LINE
  5
1A3
330
1F
100
AcDbEntity
  8
0
  6
HIDDEN
 62
     7
370
     0
100
AcDbLine
 10
219.9795658356
 20
124.7220453033
 30
0.0
 11
220.4582432872
 21
123.9311974886
 31
0.0
  0
LINE
  5
1A4
330
1F
100
AcDbEntity
  8
0
  6
HIDDEN
 62
     7
370
     0
100
AcDbLine
 10
226.4467219478
 20
127.5558512816
 30
0.0
 11
225.9680444962
 21
128.3466990962
 31
0.0
  0
LINE
  5
1A5
330
1F
100
AcDbEntity
  8
0
  6
HIDDEN
 62
     7
370
     0
100
AcDbLine
 10
214.6330217487
 20
120.9449370316
 30
0.0
 11
215.5967729753
 21
119.352671124
 31
0.0
  0
LINE
  5
1A6
330
1F
100
AcDbEntity
  8
0
  6
HIDDEN
 62
     7
370
     0
100
AcDbLine
 10
226.994343347
 20
117.3295283615
 30
0.0
 11
225.2335066563
 21
124.7042415588
 31
0.0
  0
LINE
  5
1A7
330
1F
100
AcDbEntity
  8
0
  6
HIDDEN
 62
     7
370
     0
100
AcDbLine
 10
217.1117926604
 20
128.1081880833
 30
0.0
 11
219.3367520934
 21
124.4322166703
 31
0.0
  0
LINE
  5
1A8
330
1F
100
AcDbEntity
  8
0
  6
HIDDEN
 62
     7
370
     0
100
AcDbLine
 10
226.5229264861
 20
128.7818013615
 30
0.0
 11
224.38531766
 21
132.3134589865
 31
0.0
  0
LINE
  5
1A9
330
1F
100
AcDbEntity
  8
0
  6
HIDDEN
 62
     7
370
     0
100
AcDbLine
 10
194.445066399
 20
131.4627069905
 30
0.0
 11
194.445066399
 21
128.6466913688
 31
0.0
  0
LINE
  5
1AA
330
1F
100
AcDbEntity
  8
0
  6
HIDDEN
 62
     7
370
     0
100
AcDbLine
 10
198.6450667149
 20
128.6470620352
 30
0.0
 11
198.6450667149
 21
131.4627069905
 31
0.0
  0
LINE
  5
1AB
330
1F
100
AcDbEntity
  8
0
  6
HIDDEN
 62
     7
370
     0
100
AcDbLine
 10
227.3855249053
 20
113.8186937123
 30
0.0
 11
226.8001663154
 21
114.7857958376
 31
0.0
  0
LINE
  5
1AC
330
1F
100
AcDbEntity
  8
0
  6
HIDDEN
 62
     7
370
     0
100
AcDbLine
 10
221.3249842292
 20
111.4718269482
 30
0.0
 11
221.9103465444
 21
110.5047238915
 31
0.0
  0
LINE
  5
1AD
330
1F
100
AcDbEntity
  8
0
  6
HIDDEN
 62
     7
370
     0
100
AcDbLine
 10
220.2342713839
 20
119.8459000252
 30
0.0
 11
221.5376722282
 21
114.3870230689
 31
0.0
  0
LINE
  5
1AE
330
1F
100
AcDbEntity
  8
0
  6
HIDDEN
 62
     7
370
     0
100
AcDbLine
 10
194.0450661472
 20
133.7989254779
 30
0.0
 11
194.0450661472
 21
131.5527412034
 31
0.0
  0
LINE
  5
1AF
330
1F
100
AcDbEntity
  8
0
  6
HIDDEN
 62
     7
370
     0
100
AcDbLine
 10
199.0450660354
 20
131.5527412034
 30
0.0
 11
199.0450660354
 21
133.8003527298
 31
0.0
  0
LINE
  5
1B0
330
1F
100
AcDbEntity
  8
VERMASSUNG
  6
CENTERX2
100
AcDbLine
 10
154.9515675341
 20
126.3082491159
 30
0.0
 11
232.5450661248
 21
126.3082491159
 31
0.0
  0
LINE
  5
1B1
330
1F
100
AcDbEntity
  8
VERMASSUNG
  6
CENTERX2
100
AcDbLine
 10
232.5450661248
 20
99.3082491159
 30
0.0
 11
241.8077293628
 21
99.3082491159
 31
0.0
  0
LINE
  5
1B2
330
1F
100
AcDbEntity
  8
VERMASSUNG
  6
CENTERX2
100
AcDbLine
 10
232.5450661248
 20
99.3082491159
 30
0.0
 11
232.5450661248
 21
126.3082491159
 31
0.0
  0
DIMENSION
  5
1B3
330
1F
100
AcDbEntity
  8
VERMASSUNG
100
AcDbDimension
  2
_D
 10
247.1178601614
 20
126.3082491159
 30
0.0
 11
247.1178601614
 21
112.8082491159
 31
0.0
 70
   160
  1
<>
 71
     2
 42
-1.0
  3
SLDDIMSTYLE0
100
AcDbAlignedDimension
 13
232.5450661248
 23
99.3082491159
 33
0.0
 14
232.5450661248
 24
126.3082491159
 34
0.0
 50
90.0
100
AcDbRotatedDimension
  0
DIMENSION
  5
1C0
330
1F
100
AcDbEntity
  8
VERMASSUNG
100
AcDbDimension
  2
_D_1
 10
232.5450661248
 20
83.1600087409
 30
0.0
 11
195.5450661248
 21
83.1600087409
 31
0.0
 70
   160
  1
<>
 71
     2
 42
-1.0
  3
SLDDIMSTYLE1
100
AcDbAlignedDimension
 13
158.5450661248
 23
113.6767441338
 33
0.0
 14
232.5450661248
 24
99.3082491159
 34
0.0
100
AcDbRotatedDimension
  0
DIMENSION
  5
1CB
330
1F
100
AcDbEntity
  8
VERMASSUNG
100
AcDbDimension
  2
_D_2
 10
232.5450661248
 20
91.5371986483
 30
0.0
 11
207.5450661248
 21
91.5371986483
 31
0.0
 70
   160
  1
<>
 71
     2
 42
-1.0
  3
SLDDIMSTYLE0
100
AcDbAlignedDimension
 13
182.5450661248
 23
106.6082491159
 33
0.0
 14
232.5450661248
 24
99.3082491159
 34
0.0
100
AcDbRotatedDimension
  0
DIMENSION
  5
1D7
330
1F
100
AcDbEntity
  8
VERMASSUNG
100
AcDbDimension
  2
_D_3
 10
231.7894353815
 20
114.0014886951
 30
0.0
 11
238.806090179
 21
105.8857416808
 31
0.0
 70
   162
  1
<>
 71
     1
 42
-1.0
  3
SLDDIMSTYLE2
100
AcDb2LineAngularDimension
 13
241.8077293628
 23
99.3082491159
 33
0.0
 14
232.5450661248
 24
99.3082491159
 34
0.0
 15
232.5455662263
 25
99.7283790147
 35
0.0
 16
238.806090179
 26
105.8857416808
 36
0.0
  0
DIMENSION
  5
1E0
330
1F
100
AcDbEntity
  8
VERMASSUNG
100
AcDbDimension
  2
_D_4
 10
148.5450661248
 20
106.3082491159
 30
0.0
 11
148.5450661248
 21
126.3082491159
 31
0.0
 70
   160
  1
PSC%%c<>
 71
     2
 42
-1.0
  3
SLDDIMSTYLE1
100
AcDbAlignedDimension
 13
182.8450661248
 23
146.3082491159
 33
0.0
 14
182.8450661248
 24
106.3082491159
 34
0.0
 50
90.0
100
AcDbRotatedDimension
  0
LINE
  5
1EC
330
1F
100
AcDbEntity
  8
0
  6
Continuous
 62
     7
370
    15
100
AcDbLine
 10
92.8385914554
 20
100.922085151
 30
0.0
 11
95.5508239818
 21
101.400324881
 31
0.0
  0
LINE
  5
1ED
330
1F
100
AcDbEntity
  8
0
  6
Continuous
 62
     7
370
    15
100
AcDbLine
 10
95.5606820313
 20
101.4076879173
 30
0.0
 11
95.7994535816
 21
101.7527298927
 31
0.0
  0
LINE
  5
1EE
330
1F
100
AcDbEntity
  8
0
  6
Continuous
 62
     7
370
    15
100
AcDbLine
 10
86.6689614846
 20
99.3065887987
 30
0.0
 11
92.8882332769
 21
100.4032136797
 31
0.0
  0
LINE
  5
1EF
330
1F
100
AcDbEntity
  8
0
  6
Continuous
 62
     7
370
    15
100
AcDbLine
 10
85.6061012269
 20
103.491265133
 30
0.0
 11
86.0477654747
 21
102.9545066803
 31
0.0
  0
LINE
  5
1F0
330
1F
100
AcDbEntity
  8
0
  6
Continuous
 62
     7
370
    15
100
AcDbLine
 10
82.5861711306
 20
118.1942725479
 30
0.0
 11
82.3529996229
 21
117.5339396968
 31
0.0
  0
LINE
  5
1F1
330
1F
100
AcDbEntity
  8
0
  6
Continuous
 62
     7
370
    15
100
AcDbLine
 10
81.6430440423
 20
121.7808432802
 30
0.0
 11
81.3276190561
 21
121.7252251617
 31
0.0
  0
LINE
  5
1F2
330
1F
100
AcDbEntity
  8
0
  6
Continuous
 62
     7
370
    15
100
AcDbLine
 10
92.6501783793
 20
101.9574327319
 30
0.0
 11
90.3146714223
 21
114.7912375554
 31
0.0
  0
ARC
  5
1F3
330
1F
100
AcDbEntity
  8
0
  6
Continuous
 62
     7
370
    15
100
AcDbCircle
 10
92.9491616318
 20
101.7333686673
 30
0.0
 40
2.622892515288718
100
AcDbArc
 50
352.705131874
 51
15.9651009039
  0
LINE
  5
1F4
330
1F
100
AcDbEntity
  8
0
  6
Continuous
 62
     7
370
    15
100
AcDbLine
 10
95.4708876339
 20
102.454799965
 30
0.0
 11
93.1353802112
 21
115.2886047884
 31
0.0
  0
ARC
  5
1F5
330
1F
100
AcDbEntity
  8
0
  6
Continuous
 62
     7
370
    15
100
AcDbCircle
 10
93.6757091451
 20
101.9397947092
 30
0.0
 40
2.131967091040899
100
AcDbArc
 50
354.9662332725
 51
14.8364735967
  0
LINE
  5
1F6
330
1F
100
AcDbEntity
  8
0
  6
Continuous
 62
     7
370
    15
100
AcDbLine
 10
93.4010907327
 20
115.319513522
 30
0.0
 11
95.7365976897
 21
102.4857086986
 31
0.0
  0
ARC
  5
1F7
330
1F
100
AcDbEntity
  8
0
  6
Continuous
 62
     7
370
    15
100
AcDbCircle
 10
87.4210488083
 20
114.3283716147
 30
0.0
 40
5.794448302538799
100
AcDbArc
 50
9.5388346784
 51
17.257236972
  0
ARC
  5
1F8
330
1F
100
AcDbEntity
  8
0
  6
Continuous
 62
     7
370
    15
100
AcDbCircle
 10
89.4939426329
 20
114.6667899998
 30
0.0
 40
3.96129451948414
100
AcDbArc
 50
9.4841818723
 51
17.5624995348
  0
LINE
  5
1F9
330
1F
100
AcDbEntity
  8
0
  6
Continuous
 62
     7
370
    15
100
AcDbLine
 10
93.1902881962
 20
116.0889163538
 30
0.0
 11
93.2705947449
 21
115.8620946034
 31
0.0
  0
LWPOLYLINE
  5
1FA
330
1F
100
AcDbEntity
  8
0
  6
Continuous
 62
     7
370
    15
100
AcDbPolyline
 90
       37
 70
   128
 43
0.0
 10
81.8318980997
 20
122.5076637156
 10
81.7287359637
 20
122.7633012849
 10
81.6154596647
 20
123.109491581
 10
81.4955113706
 20
123.5357157811
 10
81.3725353469
 20
124.0290229134
 10
81.2502680597
 20
124.5744243887
 10
81.1324245547
 20
125.1553482534
 10
81.0225857673
 20
125.7541436743
 10
80.9240886261
 20
126.3526164284
 10
80.839926402
 20
126.9325822167
 10
80.7726560411
 20
127.4764191284
 10
80.7243217965
 20
127.9676028452
 10
80.6963918981
 20
128.3912090975
 10
80.6897152466
 20
128.7343667745
 10
80.7044944045
 20
128.9866492543
 10
80.7402809401
 20
129.1403908207
 10
80.7959866029
 20
129.1909206583
 10
80.8699196455
 20
129.1367027833
 10
80.9598332522
 20
128.979385171
 10
81.0629953881
 20
128.7237473688
 10
81.1762712215
 20
128.3775570727
 10
81.2962199812
 20
127.9513331055
 10
81.4191960049
 20
127.4580258568
 10
81.5414632921
 20
126.9126244396
 10
81.6593067971
 20
126.3317004931
 10
81.7691455846
 20
125.7329050958
 10
81.8676427257
 20
125.1344323782
 10
81.9518044842
 20
124.5544666116
 10
82.0190748451
 20
124.0106297582
 10
82.0674095554
 20
123.5194460414
 10
82.0953394537
 20
123.0958397891
 10
82.1020161052
 20
122.7526821121
 10
82.0872364817
 20
122.5003996323
 10
82.0514504117
 20
122.3466580658
 10
81.9957447489
 20
122.2961282282
 10
81.9218117063
 20
122.3503461032
 10
81.8318980997
 20
122.5076637156
  0
LWPOLYLINE
  5
1FB
330
1F
100
AcDbEntity
  8
0
  6
Continuous
 62
     7
370
    15
100
AcDbPolyline
 90
       28
 70
   128
 43
0.0
 10
81.6450268281
 20
123.894461004
 10
81.5650490363
 20
124.1009973846
 10
81.4759503369
 20
124.3960828678
 10
81.3825340261
 20
124.7638093
 10
81.2898362306
 20
125.1843523159
 10
81.2028548931
 20
125.6350404391
 10
81.126278757
 20
126.0915769917
 10
81.0642359098
 20
126.5293499263
 10
81.020071662
 20
126.9247588161
 10
80.9961664741
 20
127.2564870696
 10
80.993808831
 20
127.5066510233
 10
81.0131263239
 20
127.661764428
 10
81.053077734
 20
127.7134650545
 10
81.1115084467
 20
127.6589656872
 10
81.1852691946
 20
127.5012042997
 10
81.2703832303
 20
127.2486859625
 10
81.3622619276
 20
126.9150239922
 10
81.455952513
 20
126.5182061424
 10
81.5464034927
 20
126.0796250235
 10
81.6287389276
 20
125.6229246309
 10
81.6985201341
 20
125.1727258013
 10
81.7519850348
 20
124.753298859
 10
81.786251652
 20
124.3872552104
 10
81.7994727073
 20
124.0943284164
 10
81.7909348076
 20
123.8903103321
 10
81.7610984919
 20
123.7861991785
 10
81.71157262
 20
123.7876082695
 10
81.6450268281
 20
123.894461004
  0
LINE
  5
1FC
330
1F
100
AcDbEntity
  8
0
  6
Continuous
 62
     7
370
    15
100
AcDbLine
 10
81.4543622797
 20
126.5156772378
 30
0.0
 11
81.3831798983
 21
126.3782294072
 31
0.0
  0
LINE
  5
1FD
330
1F
100
AcDbEntity
  8
0
  6
Continuous
 62
     7
370
    15
100
AcDbLine
 10
81.3831798983
 20
126.3782294072
 30
0.0
 11
81.5267218528
 21
126.1603766715
 31
0.0
  0
LINE
  5
1FE
330
1F
100
AcDbEntity
  8
0
  6
Continuous
 62
     7
370
    15
100
AcDbLine
 10
81.7389693362
 20
124.8573653092
 30
0.0
 11
81.7076103081
 21
124.6972164762
 31
0.0
  0
LINE
  5
1FF
330
1F
100
AcDbEntity
  8
0
  6
Continuous
 62
     7
370
    15
100
AcDbLine
 10
81.7571766925
 20
124.7059563565
 30
0.0
 11
81.7076103081
 21
124.6972164762
 31
0.0
  0
LINE
  5
200
330
1F
100
AcDbEntity
  8
0
  6
Continuous
 62
     7
370
    15
100
AcDbLine
 10
81.482435136
 20
126.3957307773
 30
0.0
 11
81.3831798983
 21
126.3782294072
 31
0.0
  0
ELLIPSE
  5
201
330
1F
100
AcDbEntity
  8
0
  6
Continuous
 62
     7
370
    15
100
AcDbEllipse
 10
84.1956359654
 20
111.2300856984
 30
0.0
 11
-0.408714849887545
 21
2.3173964597989
 31
0.0
210
0.0
220
0.0
230
1.0
 40
0.1043907487
 41
1.495770736006443
 42
2.730573435703418
  0
LINE
  5
202
330
1F
100
AcDbEntity
  8
0
  6
Continuous
 62
     7
370
    15
100
AcDbLine
 10
81.3595936884
 20
121.3034352212
 30
0.0
 11
83.9570267377
 21
107.0303263068
 31
0.0
  0
LWPOLYLINE
  5
203
330
1F
100
AcDbEntity
  8
0
  6
Continuous
 62
     7
370
    15
100
AcDbPolyline
 90
        9
 70
   128
 43
0.0
 10
81.3599936915
 20
121.6692154221
 10
81.3420452428
 20
121.7112935073
 10
81.3281638799
 20
121.725286629
 10
81.3193763857
 20
121.7101600877
 10
81.3163318922
 20
121.6670328676
 10
81.3192548481
 20
121.5990914888
 10
81.3279301179
 20
121.5113581083
 10
81.3417160203
 20
121.4103165939
 10
81.3595936884
 20
121.3034352212
  0
LINE
  5
204
330
1F
100
AcDbEntity
  8
0
  6
Continuous
 62
     7
370
    15
100
AcDbLine
 10
83.9649846562
 20
114.3115347176
 30
0.0
 11
81.3599936915
 21
121.6692154221
 31
0.0
  0
ARC
  5
205
330
1F
100
AcDbEntity
  8
0
  6
Continuous
 62
     7
370
    15
100
AcDbCircle
 10
81.8068814727
 20
113.628498804
 30
0.0
 40
2.263613794342448
100
AcDbArc
 50
9.4842482809
 51
17.5624890259
  0
LINE
  5
206
330
1F
100
AcDbEntity
  8
0
  6
Continuous
 62
     7
370
    15
100
AcDbLine
 10
86.6369867395
 20
99.7283792048
 30
0.0
 11
84.0395537921
 21
114.0014890506
 31
0.0
  0
LWPOLYLINE
  5
207
330
1F
100
AcDbEntity
  8
0
  6
Continuous
 62
     7
370
    15
100
AcDbPolyline
 90
        9
 70
   128
 43
0.0
 10
86.6365869693
 20
99.3625985383
 10
86.6545355125
 20
99.3205213844
 10
86.6684165554
 20
99.3065273314
 10
86.6772041623
 20
99.3216538727
 10
86.6802488377
 20
99.3647815584
 10
86.6773255507
 20
99.4327234029
 10
86.6686503646
 20
99.5204558521
 10
86.6548644586
 20
99.6214969008
 10
86.6369867395
 20
99.7283792048
  0
LINE
  5
208
330
1F
100
AcDbEntity
  8
0
  6
Continuous
 62
     7
370
    15
100
AcDbLine
 10
84.0315958736
 20
106.7202797084
 30
0.0
 11
86.6365869693
 21
99.3625985383
 31
0.0
  0
ARC
  5
209
330
1F
100
AcDbEntity
  8
0
  6
Continuous
 62
     7
370
    15
100
AcDbCircle
 10
86.1896629215
 20
107.4033058107
 30
0.0
 40
2.263576382612408
100
AcDbArc
 50
189.4841307944
 51
197.562528253
  0
LWPOLYLINE
  5
20A
330
1F
100
AcDbEntity
  8
0
  6
Continuous
 62
     7
370
    15
100
AcDbPolyline
 90
        9
 70
   128
 43
0.0
 10
86.6347327279
 20
99.3794945925
 10
86.6517838472
 20
99.3395203649
 10
86.6649708365
 20
99.3262266665
 10
86.6733190629
 20
99.3405969738
 10
86.676211507
 20
99.3815677165
 10
86.6734343832
 20
99.4461120962
 10
86.6651929569
 20
99.5294598787
 10
86.6520963423
 20
99.6254475712
 10
86.6351125183
 20
99.7269859462
  0
LINE
  5
20B
330
1F
100
AcDbEntity
  8
0
  6
Continuous
 62
     7
370
    15
100
AcDbLine
 10
86.6351125183
 20
99.7269859462
 30
0.0
 11
84.0376797383
 21
114.000095792
 31
0.0
  0
ARC
  5
20C
330
1F
100
AcDbEntity
  8
0
  6
Continuous
 62
     7
370
    15
100
AcDbCircle
 10
81.9166074978
 20
113.6457469427
 30
0.0
 40
2.150467520398525
100
AcDbArc
 50
9.4843143052
 51
17.5624373087
  0
LINE
  5
20D
330
1F
100
AcDbEntity
  8
0
  6
Continuous
 62
     7
370
    15
100
AcDbLine
 10
83.9668389195
 20
114.2946395948
 30
0.0
 11
81.3618479547
 21
121.6523193679
 31
0.0
  0
LWPOLYLINE
  5
20E
330
1F
100
AcDbEntity
  8
0
  6
Continuous
 62
     7
370
    15
100
AcDbPolyline
 90
        9
 70
   128
 43
0.0
 10
81.3618479547
 20
121.6523193679
 10
81.3447968354
 20
121.6922935955
 10
81.3316097734
 20
121.7055872939
 10
81.3232613978
 20
121.6912174522
 10
81.3203691756
 20
121.6502462439
 10
81.3231459138
 20
121.5857018641
 10
81.3313876529
 20
121.502355013
 10
81.3444843767
 20
121.4063659235
 10
81.3614679751
 20
121.3048284798
  0
LINE
  5
20F
330
1F
100
AcDbEntity
  8
0
  6
Continuous
 62
     7
370
    15
100
AcDbLine
 10
81.3614679751
 20
121.3048284798
 30
0.0
 11
83.9589007915
 21
107.0317195653
 31
0.0
  0
ARC
  5
210
330
1F
100
AcDbEntity
  8
0
  6
Continuous
 62
     7
370
    15
100
AcDbCircle
 10
86.080082335
 20
107.3860905996
 30
0.0
 40
2.150578984882629
100
AcDbArc
 50
189.4844174346
 51
197.5621694231
  0
LINE
  5
211
330
1F
100
AcDbEntity
  8
0
  6
Continuous
 62
     7
370
    15
100
AcDbLine
 10
84.0297416103
 20
106.7371738999
 30
0.0
 11
86.6347327279
 21
99.3794945925
 31
0.0
  0
LINE
  5
212
330
1F
100
AcDbEntity
  8
0
  6
Continuous
 62
     7
370
    15
100
AcDbLine
 10
92.8562586447
 20
100.8250040858
 30
0.0
 11
90.2588255954
 21
115.0981139316
 31
0.0
  0
LINE
  5
213
330
1F
100
AcDbEntity
  8
0
  6
Continuous
 62
     7
370
    15
100
AcDbLine
 10
85.5478059053
 20
104.5325880795
 30
0.0
 11
84.0941164893
 21
112.5207317918
 31
0.0
  0
LINE
  5
214
330
1F
100
AcDbEntity
  8
0
  6
Continuous
 62
     7
370
    15
100
AcDbLine
 10
82.4487745081
 20
116.4992254152
 30
0.0
 11
83.9024640405
 21
108.5110826343
 31
0.0
  0
LWPOLYLINE
  5
215
330
1F
100
AcDbEntity
  8
0
  6
Continuous
 62
     7
370
    15
100
AcDbPolyline
 90
        9
 70
   128
 43
0.0
 10
82.4497738173
 20
117.4136761501
 10
82.4049026956
 20
117.5188708975
 10
82.3702002195
 20
117.5538541674
 10
82.3482312513
 20
117.5160387456
 10
82.3406195519
 20
117.4082195311
 10
82.3479276401
 20
117.2383658513
 10
82.3696153489
 20
117.0190328657
 10
82.4040803378
 20
116.7664293125
 10
82.4487745081
 20
116.4992254152
  0
LINE
  5
216
330
1F
100
AcDbEntity
  8
0
  6
Continuous
 62
     7
370
    15
100
AcDbLine
 10
83.9076934167
 20
113.2958482876
 30
0.0
 11
82.4497738173
 21
117.4136761501
 31
0.0
  0
ARC
  5
217
330
1F
100
AcDbEntity
  8
0
  6
Continuous
 62
     7
370
    15
100
AcDbCircle
 10
78.5124961736
 20
111.5882742306
 30
0.0
 40
5.658971854731776
100
AcDbArc
 50
9.4841688783
 51
17.562522708
  0
LWPOLYLINE
  5
218
330
1F
100
AcDbEntity
  8
0
  6
Continuous
 62
     7
370
    15
100
AcDbPolyline
 90
        9
 70
   128
 43
0.0
 10
85.5468064797
 20
103.6181392073
 10
85.5916778342
 20
103.5129425972
 10
85.6263804267
 20
103.4779602587
 10
85.6483495114
 20
103.5157756805
 10
85.6559612108
 20
103.6235948949
 10
85.6486528897
 20
103.7934476434
 10
85.6269649481
 20
104.0127815604
 10
85.592500192
 20
104.2653860449
 10
85.5478059053
 20
104.5325880795
  0
LINE
  5
219
330
1F
100
AcDbEntity
  8
0
  6
Continuous
 62
     7
370
    15
100
AcDbLine
 10
84.0888871131
 20
107.7359652072
 30
0.0
 11
85.5468064797
 21
103.6181392073
 31
0.0
  0
ARC
  5
21A
330
1F
100
AcDbEntity
  8
0
  6
Continuous
 62
     7
370
    15
100
AcDbCircle
 10
89.4842299088
 20
109.4435731505
 30
0.0
 40
5.659120847966473
100
AcDbArc
 50
189.4842551511
 51
197.5624051315
  0
LWPOLYLINE
  5
21B
330
1F
100
AcDbEntity
  8
0
  6
Continuous
 62
     7
370
    15
100
AcDbPolyline
 90
       32
 70
   128
 43
0.0
 10
84.2374868476
 20
108.3363665193
 10
84.325719417
 20
108.1179434358
 10
84.4005467621
 20
107.9976947903
 10
84.4589057629
 20
107.9805398285
 10
84.4984071114
 20
108.0671844929
 10
84.5174337988
 20
108.2540804445
 10
84.5152065409
 20
108.5335740744
 10
84.4918166072
 20
108.8942250162
 10
84.4482216303
 20
109.3212699442
 10
84.3862064899
 20
109.7972204834
 10
84.3083099713
 20
110.3025970905
 10
84.2177213886
 20
110.8167048469
 10
84.1181490355
 20
111.3184977248
 10
84.0136697767
 20
111.7874335422
 10
83.9085607109
 20
112.2043121531
 10
83.8071254798
 20
112.5520670711
 10
83.7135163852
 20
112.8164620995
 10
83.6315658194
 20
112.9866715445
 10
83.5646291049
 20
113.0557281821
 10
83.5154466582
 20
113.0208035856
 10
83.486031766
 20
112.8833291977
 10
83.4775888612
 20
112.6489311381
 10
83.4904634645
 20
112.3272076174
 10
83.52412868
 20
111.931328468
 10
83.5772059177
 20
111.4775024279
 10
83.6475226348
 20
110.9843084513
 10
83.7321996474
 20
110.4719376116
 10
83.827770573
 20
109.9613679498
 10
83.9303224598
 20
109.473500207
 10
84.0356569057
 20
109.0283093899
 10
84.1394616542
 20
108.6440196186
 10
84.2374868476
 20
108.3363665193
  0
LINE
  5
21C
330
1F
100
AcDbEntity
  8
0
  6
Continuous
 62
     7
370
    15
100
AcDbLine
 10
84.2837672931
 20
107.1855349391
 30
0.0
 11
84.2093876814
 21
107.0960814058
 31
0.0
  0
ARC
  5
21D
330
1F
100
AcDbEntity
  8
0
  6
Continuous
 62
     7
370
    15
100
AcDbCircle
 10
91.8475801313
 20
100.5364321205
 30
0.0
 40
1.049145424868902
100
AcDbArc
 50
352.7049999133
 51
15.9652503936
  0
ARC
  5
21E
330
1F
100
AcDbEntity
  8
0
  6
Continuous
 62
     7
370
    15
100
AcDbCircle
 10
88.0261674115
 20
114.7251275158
 30
0.0
 40
2.26359922089391
100
AcDbArc
 50
9.4842115979
 51
17.5625287969
  0
LINE
  5
21F
330
1F
100
AcDbEntity
  8
0
  6
Continuous
 62
     7
370
    15
100
AcDbLine
 10
90.1842562267
 20
115.40816053
 30
0.0
 11
90.1340323285
 21
115.5500158592
 31
0.0
  0
LINE
  5
220
330
1F
100
AcDbEntity
  8
0
  6
Continuous
 62
     7
370
    15
100
AcDbLine
 10
93.2485652407
 20
116.0991916358
 30
0.0
 11
84.2183786695
 21
114.5069261938
 31
0.0
  0
LINE
  5
221
330
1F
100
AcDbEntity
  8
0
  6
Continuous
 62
     7
370
    15
100
AcDbLine
 10
81.4526304853
 20
129.7049418017
 30
0.0
 11
84.2183786695
 21
114.5069261938
 31
0.0
  0
LINE
  5
222
330
1F
100
AcDbEntity
  8
0
  6
Continuous
 62
     7
370
    15
100
AcDbLine
 10
105.7293424634
 20
133.9855811483
 30
0.0
 11
81.4526304853
 21
129.7049418017
 31
0.0
  0
ARC
  5
223
330
1F
100
AcDbEntity
  8
0
  6
Continuous
 62
     7
370
    15
100
AcDbCircle
 10
86.7212238041
 20
126.3082491159
 30
0.0
 40
20.50000000000003
100
AcDbArc
 50
0.0
 51
21.9936605404
  0
LINE
  5
224
330
1F
100
AcDbEntity
  8
0
  6
Continuous
 62
     7
370
    15
100
AcDbLine
 10
107.2212243703
 20
112.0508981793
 30
0.0
 11
107.2212243703
 21
126.3082491159
 31
0.0
  0
ARC
  5
225
330
1F
100
AcDbEntity
  8
0
  6
Continuous
 62
     7
370
    15
100
AcDbCircle
 10
85.7212238041
 20
124.8082491159
 30
0.0
 40
25.0
100
AcDbArc
 50
293.8381605777
 51
329.316582891
  0
LINE
  5
226
330
1F
100
AcDbEntity
  8
0
  6
Continuous
 62
     7
370
    15
100
AcDbLine
 10
93.2485652407
 20
116.0991916358
 30
0.0
 11
93.3272531507
 21
115.6667953282
 31
0.0
  0
LINE
  5
227
330
1F
100
AcDbEntity
  8
0
  6
Continuous
 62
     7
370
    15
100
AcDbLine
 10
95.7916928706
 20
102.1244933754
 30
0.0
 11
95.8250882355
 21
101.94098185
 31
0.0
  0
LWPOLYLINE
  5
228
330
1F
100
AcDbEntity
  8
0
  6
Continuous
 62
     7
370
    15
100
AcDbPolyline
 90
       37
 70
   128
 43
0.0
 10
80.7880969038
 20
129.1903516202
 10
80.8598944237
 20
129.1490181274
 10
80.9479770501
 20
129.0042107384
 10
81.0496681621
 20
128.7603287882
 10
81.1618785625
 20
128.4247828107
 10
81.2811986794
 20
128.0077683431
 10
81.4040028741
 20
127.5219557964
 10
81.5265598026
 20
126.9821065752
 10
81.6451455717
 20
126.4046236128
 10
81.75615736
 20
125.8070535068
 10
81.8562214514
 20
125.2075530746
 10
81.942298009
 20
124.6243379236
 10
82.0117714134
 20
124.0751287359
 10
82.0625312877
 20
123.5766127165
 10
82.0930344303
 20
123.1439372449
 10
82.102354641
 20
122.7902491036
 10
82.090208332
 20
122.5262945908
 10
82.0569647727
 20
122.3600942566
 10
82.0036344481
 20
122.2966972663
 10
81.9318369282
 20
122.3380307592
 10
81.8437543017
 20
122.4828381482
 10
81.7420627241
 20
122.7267198655
 10
81.6298523237
 20
123.0622658431
 10
81.5105322068
 20
123.479280427
 10
81.3877284778
 20
123.9650929737
 10
81.2651715492
 20
124.5049422532
 10
81.1465857801
 20
125.0824252301
 10
81.0355739919
 20
125.6799952634
 10
80.9355099005
 20
126.2794956755
 10
80.8494333429
 20
126.8627108465
 10
80.7799594728
 20
127.4119201507
 10
80.7292000641
 20
127.9104360537
 10
80.6986969215
 20
128.3431114088
 10
80.6893767108
 20
128.696799783
 10
80.7015230199
 20
128.9607542957
 10
80.7347665792
 20
129.1269548628
 10
80.7880969038
 20
129.1903516202
  0
SPLINE
  5
229
330
1F
100
AcDbEntity
  8
0
  6
Continuous
 62
     7
370
    15
100
AcDbSpline
210
0.0
220
0.0
230
1.0
 70
     8
 71
     3
 72
     8
 73
     4
 74
     0
 42
0.00000001
 43
0.00000001
 12
1.0
 22
0.0
 32
0.0
 13
1.0
 23
0.0
 33
0.0
 40
0.0
 40
0.0
 40
0.0
 40
0.0
 40
1.0
 40
1.0
 40
1.0
 40
1.0
 10
83.21380492946159
 20
104.8735509919729
 30
0.0
 10
83.14396393793322
 20
105.2165671932138
 30
0.0
 10
83.0741386292101
 20
105.5596552657041
 30
0.0
 10
83.00433133005107
 20
105.9028258725276
 30
0.0
  0
SPLINE
  5
22A
330
1F
100
AcDbEntity
  8
0
  6
Continuous
 62
     7
370
    15
100
AcDbSpline
210
0.0
220
0.0
230
1.0
 70
     8
 71
     3
 72
    12
 73
     8
 74
     0
 42
0.00000001
 43
0.00000001
 12
1.0
 22
0.0
 32
0.0
 13
1.0
 23
0.0
 33
0.0
 40
0.0
 40
0.0
 40
0.0
 40
0.0
 40
0.2500000000000002
 40
0.2500000000000002
 40
0.5000000000000004
 40
0.5000000000000004
 40
1.0
 40
1.0
 40
1.0
 40
1.0
 10
83.00433133005107
 20
105.9028258725276
 30
0.0
 10
82.9873388731584
 20
105.9863602853116
 30
0.0
 10
82.97005248731233
 20
106.065973182802
 30
0.0
 10
82.93506992177068
 20
106.2168597409536
 30
0.0
 10
82.91717281625662
 20
106.2888142140341
 30
0.0
 10
82.86538380538695
 20
106.4812861781565
 30
0.0
 10
82.83201272917614
 20
106.5837159593695
 30
0.0
 10
82.8040836943484
 20
106.6439793332157
 30
0.0
  0
SPLINE
  5
22B
330
1F
100
AcDbEntity
  8
0
  6
Continuous
 62
     7
370
    15
100
AcDbSpline
210
0.0
220
0.0
230
1.0
 70
     8
 71
     3
 72
     8
 73
     4
 74
     0
 42
0.00000001
 43
0.00000001
 12
1.0
 22
0.0
 32
0.0
 13
1.0
 23
0.0
 33
0.0
 40
0.0
 40
0.0
 40
0.0
 40
0.0
 40
1.0
 40
1.0
 40
1.0
 40
1.0
 10
76.31473977892202
 20
143.4468775020202
 30
0.0
 10
76.32297194141564
 20
143.5435888301016
 30
0.0
 10
76.31118706896672
 20
143.729072765691
 30
0.0
 10
76.28446307176527
 20
143.9526257105867
 30
0.0
  0
ARC
  5
22C
330
1F
100
AcDbEntity
  8
0
  6
Continuous
 62
     7
370
    15
100
AcDbCircle
 10
86.7212238041
 20
126.3082491159
 30
0.0
 40
20.50000000000002
100
AcDbArc
 50
116.2241161674
 51
120.6045840713
  0
LINE
  5
22D
330
1F
100
AcDbEntity
  8
0
  6
Continuous
 62
     7
370
    15
100
AcDbLine
 10
77.6626123366
 20
144.6982340812
 30
0.0
 11
81.4526304853
 21
129.7049418017
 31
0.0
  0
LWPOLYLINE
  5
22E
330
1F
100
AcDbEntity
  8
0
  6
Continuous
 62
     7
370
    15
100
AcDbPolyline
 90
       14
 70
   128
 43
0.0
 10
81.4896449697
 20
122.2141117714
 10
81.4107321454
 20
122.4063057843
 10
81.3455395651
 20
122.4999041687
 10
81.29733524
 20
122.4902139901
 10
81.268537349
 20
122.3777209333
 10
81.2605894421
 20
122.1680657863
 10
81.2738901255
 20
121.8717613182
 10
81.3077721064
 20
121.5036658495
 10
81.3605375839
 20
121.0822372622
 10
81.4295392734
 20
120.6286077312
 10
81.5113177774
 20
120.1655238792
 10
81.6017724824
 20
119.7162068374
 10
81.696367382
 20
119.303186696
 10
81.7849128758
 20
118.9662723727
  0
ARC
  5
22F
330
1F
100
AcDbEntity
  8
0
  6
Continuous
 62
     7
370
    15
100
AcDbCircle
 10
84.5112028944
 20
104.8704617609
 30
0.0
 40
0.2284411372510828
100
AcDbArc
 50
63.155156712
 51
98.2361974243
  0
LINE
  5
230
330
1F
100
AcDbEntity
  8
0
  6
Continuous
 62
     7
370
    15
100
AcDbLine
 10
84.4784777397
 20
105.0965467393
 30
0.0
 11
83.2138050133
 21
104.873550862
 31
0.0
  0
LINE
  5
231
330
1F
100
AcDbEntity
  8
0
  6
Continuous
 62
     7
370
    15
100
AcDbLine
 10
84.2183786695
 20
114.5069261938
 30
0.0
 11
81.4896449697
 21
122.2141117714
 31
0.0
  0
LINE
  5
232
330
1F
100
AcDbEntity
  8
0
  6
Continuous
 62
     7
370
    15
100
AcDbLine
 10
95.8094918667
 20
101.9340967273
 30
0.0
 11
95.8250886868
 21
101.9409818014
 31
0.0
  0
ARC
  5
233
330
1F
100
AcDbEntity
  8
0
  6
Continuous
 62
     7
370
    15
100
AcDbCircle
 10
86.7212238041
 20
126.3082491159
 30
0.0
 40
20.50000000000004
100
AcDbArc
 50
21.9936605404
 51
116.2241161674
  0
SPLINE
  5
234
330
1F
100
AcDbEntity
  8
0
  6
Continuous
 62
     7
370
    15
100
AcDbSpline
210
0.0
220
0.0
230
1.0
 70
     8
 71
     3
 72
     8
 73
     4
 74
     0
 42
0.00000001
 43
0.00000001
 12
1.0
 22
0.0
 32
0.0
 13
1.0
 23
0.0
 33
0.0
 40
0.0
 40
0.0
 40
0.0
 40
0.0
 40
1.0
 40
1.0
 40
1.0
 40
1.0
 10
76.23114239326556
 20
143.3364079122358
 30
0.0
 10
76.28307256554845
 20
143.3683991416718
 30
0.0
 10
76.31100183108305
 20
143.4029641438832
 30
0.0
 10
76.31473977892222
 20
143.4468775020201
 30
0.0
  0
SPLINE
  5
235
330
1F
100
AcDbEntity
  8
0
  6
Continuous
 62
     7
370
    15
100
AcDbSpline
210
0.0
220
0.0
230
1.0
 70
     8
 71
     3
 72
     8
 73
     4
 74
     0
 42
0.00000001
 43
0.00000001
 12
1.0
 22
0.0
 32
0.0
 13
1.0
 23
0.0
 33
0.0
 40
0.0
 40
0.0
 40
0.0
 40
0.0
 40
1.0
 40
1.0
 40
1.0
 40
1.0
 10
82.80408369434842
 20
106.6439793332157
 30
0.0
 10
82.78555366552811
 20
106.6839621704697
 30
0.0
 10
82.74749673004703
 20
106.70689164311
 30
0.0
 10
82.68774502299905
 20
106.7191948017335
 30
0.0
  0
SPLINE
  5
236
330
1F
100
AcDbEntity
  8
0
  6
Continuous
 62
     7
370
    15
100
AcDbSpline
210
0.0
220
0.0
230
1.0
 70
     8
 71
     3
 72
     8
 73
     4
 74
     0
 42
0.00000001
 43
0.00000001
 12
1.0
 22
0.0
 32
0.0
 13
1.0
 23
0.0
 33
0.0
 40
0.0
 40
0.0
 40
0.0
 40
0.0
 40
1.0
 40
1.0
 40
1.0
 40
1.0
 10
82.68774502299887
 20
106.7191948017334
 30
0.0
 10
82.57313568878386
 20
106.7427934048236
 30
0.0
 10
82.38379464403371
 20
106.783048627171
 30
0.0
 10
82.17325104142559
 20
106.8322140021781
 30
0.0
  0
SPLINE
  5
237
330
1F
100
AcDbEntity
  8
0
  6
Continuous
 62
     7
370
    15
100
AcDbSpline
210
0.0
220
0.0
230
1.0
 70
     8
 71
     3
 72
    10
 73
     6
 74
     0
 42
0.00000001
 43
0.00000001
 12
1.0
 22
0.0
 32
0.0
 13
1.0
 23
0.0
 33
0.0
 40
0.0
 40
0.0
 40
0.0
 40
0.0
 40
0.5
 40
0.5
 40
1.0
 40
1.0
 40
1.0
 40
1.0
 10
75.78633103847703
 20
143.0542372982529
 30
0.0
 10
75.87693617191981
 20
143.1134011652891
 30
0.0
 10
75.96243291344751
 20
143.1681611831763
 30
0.0
 10
76.1156968458362
 20
143.2649886103492
 30
0.0
 10
76.18127035019815
 20
143.3056845793049
 30
0.0
 10
76.23114239326556
 20
143.3364079122358
 30
0.0
  0
ELLIPSE
  5
238
330
1F
100
AcDbEntity
  8
0
  6
Continuous
 62
     7
370
    15
100
AcDbEllipse
 10
76.2526697686
 20
116.976143229
 30
0.0
 11
-1.795482621286553
 21
2.111692994981851
 31
0.0
210
0.0
220
0.0
230
1.0
 40
0.7389313757
 41
0.0
 42
6.283185307179586
  0
ARC
  5
239
330
1F
100
AcDbEntity
  8
0
  6
Continuous
 62
     7
370
    15
100
AcDbCircle
 10
86.7212238041
 20
126.3082491159
 30
0.0
 40
20.00000000000002
100
AcDbArc
 50
123.143966919
 51
256.856033081
  0
CIRCLE
  5
23A
330
1F
100
AcDbEntity
  8
VERMASSUNG
  6
CENTERX2
100
AcDbCircle
 10
86.7212238041
 20
124.5976939595
 30
0.0
 40
25.00000000000001
  0
DIMENSION
  5
23B
330
1F
100
AcDbEntity
  8
VERMASSUNG
100
AcDbDimension
  2
_D_5
 10
104.3988933338
 20
142.2753634892
 30
0.0
 11
111.712562291
 21
149.5890324464
 31
0.0
 70
   160
  1
%%c<> min. 
 71
     2
 42
-1.0
  3
SLDDIMSTYLE3
100
AcDbAlignedDimension
 13
69.0435542744
 23
106.9200244299
 33
0.0
 14
104.3988933338
 24
142.2753634892
 34
0.0
 50
45.0
100
AcDbRotatedDimension
  0
OLE2FRAME
  5
24A
330
1F
100
AcDbEntity
  8
0
100
AcDbOle2Frame
 70
     2
  3
Paintbrush-Bild
 10
13.8511154363
 20
38.264191557
 30
0.0
 11
51.6290888628
 21
31.9806341108
 31
0.0
 71
     2
 72
     0
 73
     1
 90
    12928
310
80552BED0767C5B32B40DDAF6807D121434000000000000000006FFBDDFB85D0
310
4940DDAF6807D121434000000000000000006FFBDDFB85D04940416F4BD60AFB
310
3F4000000000000000002BED0767C5B32B40416F4BD60AFB3F40000000000000
310
0000000000000100000000010000010000000100000000000100000000320000
310
D0CF11E0A1B11AE1000000000000000000000000000000003E000300FEFF0900
310
0600000000000000000000000100000001000000000000000010000002000000
310
01000000FEFFFFFF0000000000000000FFFFFFFFFFFFFFFFFFFFFFFFFFFFFFFF
310
FFFFFFFFFFFFFFFFFFFFFFFFFFFFFFFFFFFFFFFFFFFFFFFFFFFFFFFFFFFFFFFF
310
FFFFFFFFFFFFFFFFFFFFFFFFFFFFFFFFFFFFFFFFFFFFFFFFFFFFFFFFFFFFFFFF
310
FFFFFFFFFFFFFFFFFFFFFFFFFFFFFFFFFFFFFFFFFFFFFFFFFFFFFFFFFFFFFFFF
310
FFFFFFFFFFFFFFFFFFFFFFFFFFFFFFFFFFFFFFFFFFFFFFFFFFFFFFFFFFFFFFFF
310
FFFFFFFFFFFFFFFFFFFFFFFFFFFFFFFFFFFFFFFFFFFFFFFFFFFFFFFFFFFFFFFF
310
FFFFFFFFFFFFFFFFFFFFFFFFFFFFFFFFFFFFFFFFFFFFFFFFFFFFFFFFFFFFFFFF
310
FFFFFFFFFFFFFFFFFFFFFFFFFFFFFFFFFFFFFFFFFFFFFFFFFFFFFFFFFFFFFFFF
310
FFFFFFFFFFFFFFFFFFFFFFFFFFFFFFFFFFFFFFFFFFFFFFFFFFFFFFFFFFFFFFFF
310
FFFFFFFFFFFFFFFFFFFFFFFFFFFFFFFFFFFFFFFFFFFFFFFFFFFFFFFFFFFFFFFF
310
FFFFFFFFFFFFFFFFFFFFFFFFFFFFFFFFFFFFFFFFFFFFFFFFFFFFFFFFFFFFFFFF
310
FFFFFFFFFFFFFFFFFFFFFFFFFFFFFFFFFFFFFFFFFFFFFFFFFFFFFFFFFFFFFFFF
310
FFFFFFFFFFFFFFFFFFFFFFFFFFFFFFFFFFFFFFFFFFFFFFFFFFFFFFFFFFFFFFFF
310
FFFFFFFFFFFFFFFFFFFFFFFFFFFFFFFFFFFFFFFFFFFFFFFFFFFFFFFFFFFFFFFF
310
FDFFFFFFFEFFFFFFFEFFFFFFFEFFFFFF05000000060000000700000008000000
310
090000000A0000000B0000000C0000000D0000000E0000000F00000010000000
310
11000000120000001300000014000000150000001600000017000000FEFFFFFF
310
FFFFFFFFFFFFFFFFFFFFFFFFFFFFFFFFFFFFFFFFFFFFFFFFFFFFFFFFFFFFFFFF
310
FFFFFFFFFFFFFFFFFFFFFFFFFFFFFFFFFFFFFFFFFFFFFFFFFFFFFFFFFFFFFFFF
310
FFFFFFFFFFFFFFFFFFFFFFFFFFFFFFFFFFFFFFFFFFFFFFFFFFFFFFFFFFFFFFFF
310
FFFFFFFFFFFFFFFFFFFFFFFFFFFFFFFFFFFFFFFFFFFFFFFFFFFFFFFFFFFFFFFF
310
FFFFFFFFFFFFFFFFFFFFFFFFFFFFFFFFFFFFFFFFFFFFFFFFFFFFFFFFFFFFFFFF
310
FFFFFFFFFFFFFFFFFFFFFFFFFFFFFFFFFFFFFFFFFFFFFFFFFFFFFFFFFFFFFFFF
310
FFFFFFFFFFFFFFFFFFFFFFFFFFFFFFFFFFFFFFFFFFFFFFFFFFFFFFFFFFFFFFFF
310
FFFFFFFFFFFFFFFFFFFFFFFFFFFFFFFFFFFFFFFFFFFFFFFFFFFFFFFFFFFFFFFF
310
FFFFFFFFFFFFFFFFFFFFFFFFFFFFFFFFFFFFFFFFFFFFFFFFFFFFFFFFFFFFFFFF
310
FFFFFFFFFFFFFFFFFFFFFFFFFFFFFFFFFFFFFFFFFFFFFFFFFFFFFFFFFFFFFFFF
310
FFFFFFFFFFFFFFFFFFFFFFFFFFFFFFFFFFFFFFFFFFFFFFFFFFFFFFFFFFFFFFFF
310
FFFFFFFFFFFFFFFFFFFFFFFFFFFFFFFFFFFFFFFFFFFFFFFFFFFFFFFFFFFFFFFF
310
FFFFFFFFFFFFFFFFFFFFFFFFFFFFFFFFFFFFFFFFFFFFFFFFFFFFFFFFFFFFFFFF
310
52006F006F007400200045006E00740072007900000000000000000000000000
310
0000000000000000000000000000000000000000000000000000000000000000
310
16000500FFFFFFFFFFFFFFFF020000000A00030000000000C000000000000046
310
00000000000000000000000090E7DE1D7A24CD0103000000C000000000000000
310
01004F006C006500000000000000000000000000000000000000000000000000
310
0000000000000000000000000000000000000000000000000000000000000000
310
0A000200FFFFFFFFFFFFFFFFFFFFFFFF00000000000000000000000000000000
310
0000000000000000000000000000000000000000000000001400000000000000
310
010043006F006D0070004F0062006A0000000000000000000000000000000000
310
0000000000000000000000000000000000000000000000000000000000000000
310
120002010100000003000000FFFFFFFF00000000000000000000000000000000
310
0000000000000000000000000000000000000000010000004D00000000000000
310
01004F006C006500310030004E00610074006900760065000000000000000000
310
0000000000000000000000000000000000000000000000000000000000000000
310
1A000200FFFFFFFFFFFFFFFFFFFFFFFF00000000000000000000000000000000
310
0000000000000000000000000000000000000000040000002426000000000000
310
FEFFFFFF02000000FEFFFFFFFFFFFFFFFFFFFFFFFFFFFFFFFFFFFFFFFFFFFFFF
310
FFFFFFFFFFFFFFFFFFFFFFFFFFFFFFFFFFFFFFFFFFFFFFFFFFFFFFFFFFFFFFFF
310
FFFFFFFFFFFFFFFFFFFFFFFFFFFFFFFFFFFFFFFFFFFFFFFFFFFFFFFFFFFFFFFF
310
FFFFFFFFFFFFFFFFFFFFFFFFFFFFFFFFFFFFFFFFFFFFFFFFFFFFFFFFFFFFFFFF
310
FFFFFFFFFFFFFFFFFFFFFFFFFFFFFFFFFFFFFFFFFFFFFFFFFFFFFFFFFFFFFFFF
310
FFFFFFFFFFFFFFFFFFFFFFFFFFFFFFFFFFFFFFFFFFFFFFFFFFFFFFFFFFFFFFFF
310
FFFFFFFFFFFFFFFFFFFFFFFFFFFFFFFFFFFFFFFFFFFFFFFFFFFFFFFFFFFFFFFF
310
FFFFFFFFFFFFFFFFFFFFFFFFFFFFFFFFFFFFFFFFFFFFFFFFFFFFFFFFFFFFFFFF
310
FFFFFFFFFFFFFFFFFFFFFFFFFFFFFFFFFFFFFFFFFFFFFFFFFFFFFFFFFFFFFFFF
310
FFFFFFFFFFFFFFFFFFFFFFFFFFFFFFFFFFFFFFFFFFFFFFFFFFFFFFFFFFFFFFFF
310
FFFFFFFFFFFFFFFFFFFFFFFFFFFFFFFFFFFFFFFFFFFFFFFFFFFFFFFFFFFFFFFF
310
FFFFFFFFFFFFFFFFFFFFFFFFFFFFFFFFFFFFFFFFFFFFFFFFFFFFFFFFFFFFFFFF
310
FFFFFFFFFFFFFFFFFFFFFFFFFFFFFFFFFFFFFFFFFFFFFFFFFFFFFFFFFFFFFFFF
310
FFFFFFFFFFFFFFFFFFFFFFFFFFFFFFFFFFFFFFFFFFFFFFFFFFFFFFFFFFFFFFFF
310
FFFFFFFFFFFFFFFFFFFFFFFFFFFFFFFFFFFFFFFFFFFFFFFFFFFFFFFFFFFFFFFF
310
FFFFFFFFFFFFFFFFFFFFFFFFFFFFFFFFFFFFFFFFFFFFFFFFFFFFFFFFFFFFFFFF
310
0100000200000000000000000000000000000000000000000000000000000000
310
0000000000000000000000000000000000000000000000000000000000000000
310
0100FEFF030A0000FFFFFFFF0A00030000000000C00000000000004607000000
310
5042727573680007000000504272757368000700000050427275736800F439B2
310
7100000000000000000000000000000000000000000000000000000000000000
310
0000000000000000000000000000000000000000000000000000000000000000
310
0000000000000000000000000000000000000000000000000000000000000000
310
0000000000000000000000000000000000000000000000000000000000000000
310
0000000000000000000000000000000000000000000000000000000000000000
310
0000000000000000000000000000000000000000000000000000000000000000
310
0000000000000000000000000000000000000000000000000000000000000000
310
0000000000000000000000000000000000000000000000000000000000000000
310
0000000000000000000000000000000000000000000000000000000000000000
310
0000000000000000000000000000000000000000000000000000000000000000
310
0000000000000000000000000000000000000000000000000000000000000000
310
0000000000000000000000000000000000000000000000000000000000000000
310
20260000424D0E260000000000003E00000028000000B40200006E0000000100
310
01000000000000000000130B0000130B00000200000002000000000000FFFFFF
310
FFFFFFFFFFFFFFFFFFFFFFFFFFFFFFFFFFFFFFFFFFFFFFFFFFFFFFFFFFFFFFFF
310
FFFFFFFFFFFFFFFFFFFFFFFFFFFFFFFFFFFFFFFFFFFFFFFFFFFFFFFFFFFFFFFF
310
FFFFFFFFFFFFFFFFFFFFFFFFFFFFFFFFFFFFFFFFFFFFFFFFF000FFFFFFFFFFFF
310
FFFFFFFFFFFFFFFFFFFFFFFFFFFFFFFFFFFFFFFFFFFFFFFFFFFFFFFFFFFFFFFF
310
FFFFFFFFFFFFFFFFFFFFFFFFFFFFFFFFFFFFFFFFFFFFFFFFFFFFFFFFFFFFFFFF
310
FFFFFFFFFFFFFFFFFFFFFFFFFFFFFFFFF000FFFFFFFFFFFFFFFFFFFFFFFFFFFF
310
FFFFFFFFFFFFFFFFFFFFFFFFFFFFFFFFFFFFFFFFFFFFFFFFFFFFFFFFFFFFFFFF
310
FFFFFFFFFFFFFFFFFFFFFFFFFFFFFFFFFFFFFFFFFFFFFFFFFFFFFFFFFFFFFFFF
310
FFFFFFFFFFFFFFFFF000FFFFFFFFFFFFFFFFFFFFFFFFFFFFFFFFFFFFFFFFFFFF
310
FFFFFFFFFFFFFFFFFFFFFFFFFFFFFFFFFFFFFFFFFFFFFFFFFFFFFFFFFFFFFFFF
310
FFFFFFFFFFFFFFFFFFFFFFFFFFFFFFFFFFFFFFFFFFFFFFFFFFFFFFFFFFFFFFFF
310
F000FFFFFFFFFFFFFFFFFFFFFFFFFFFFFFFFFFFFFFFFFFFFFFFFFFFFFFFFFFFF
310
FFFFFFFFFFFFFFFFFFFFFFFFFFFFFFFFFFFFFFFFFFFFFFFFFFFFFFFFFFFFFFFF
310
FFFFFFFFFFFFFFFFFFFFFFFFFFFFFFFFFFFFFFFFFFFFFFFFF000FFFFFFFFFFFF
310
FFFFFFFFFFFFFFFFFFFFFFFFFFFFFFFFFFFFFFFFFFFFFFFFFFFFFFFFFFFFFFFF
310
FFFFFFFFFFFFFFFFFFFFFFFFFFFFFFFFFFFFFFFFFFFFFFFFFFFFFFFFFFFFFFFF
310
FFFFFFFFFFFFFFFFFFFFFFFFFFFFFFFFF000FFFFFFFFFFFFFFFFFFFFFFFFFFFF
310
FFFFFFFFFFFFFFFFFFFFFFFFFFFFFFFFFFFFFFFFFFFFFFFFFFFFFFFFFFFFFFFF
310
FFFFFFFFFFFFFFFFFFFFFFFFFFFFFFFFFFFFFFFFFFFFFFFFFFFFFFFFFFFFFFFF
310
FFFFFFFFFFFFFFFFF000FFFFFFFFFFFFFFFFFFFFFFFFFFFFFFFFFFFFFFFFFFFF
310
FFFFFFFFFFFFFFFFFFFFFFFFFFFFFFFFFFFFFFFFFFFFFFFFFFFFFFFFFFFFFFFF
310
FFFFFFFFFFFFFFFFFFFFFFFFFFFFFFFFFFFFFFFFFFFFFFFFFFFFFFFFFFFFFFFF
310
F000FFFFFFFFFFFFFFFFFFFFFFFFFFFFFFFFFFFFFFFFFFFFFFFFFFFFFFFFFFFF
310
FFFFFFFFFFFFFFFFFFFFFFFFFFFFFFFFFFFFFFFFFFFFFFFFFFFFFFFFFFFFFFFF
310
FFFFFFFFFFFFFFFFFFFFFFFFFFFFFFFFFFFFFFFFFFFFFFFFF000FFFFFFFFFFFF
310
FFFFFFFFFFFFFFFFFFFFFFFFFFFFFFFFFFFFFFFFFFFFFFFFFFFFFFFFFFFFFFFF
310
FFFFFFFFFFFFFFFFFFFFFFFFFFFFFFFFFFFFFFFFFFFFFFFFFFFFFFFFFFFFFFFF
310
FFFFFFFFFFFFFFFFFFFFFFFFFFFFFFFFF000FFFFFFFFFFFFFFFFFFFFFFFFFFFF
310
FFFFFFFFFFFFFFFFFFFFFFFFFFFFFFFFFFFFFFFFFFFFFFFFFFFFFFFFFFFFFFFF
310
FFFFFFFFFFFFFFFFFFFFFFFFFFFFFFFFFFFFFFFFFFFFFFFFFFFFFFFFFFFFFFFF
310
FFFFFFFFFFFFFFFFF000FFFFFFFFFFFFFFFFFFFFFFFFFFFFFFFFFFFFFFFFFFFF
310
FFFFFFFFFFFFFFFFFFFFFFFFFFFFFFFFFFFFFFFFFFFFFFFFFFFFFFFFFFFFFFFF
310
FFFFFFFFFFFFFFFFFFFFFFFFFFFFFFFFFFFFFFFFFFFFFFFFFFFFFFFFFFFFFFFF
310
F000FFFFFFFFFFFFFFFFFFFFFFFFFFFFFFFFFFFFFFFFFFFFFFFFFFFFFFFFFFFF
310
FFFFFFFFFFFFFFFFFFFFFFFFFFFFFFFFFFFFFFFFFFFFFFFFFFFFFFFFFFFFFFFF
310
FFFFFFFFFFFFFFFFFFFFFFFFFFFFFFFFFFFFFFFFFFFFFFFFF000FFFFFFFFFFFF
310
FFFFFFFFFFFFFFFFFFFFFFFFFFFFFFFFFFFFFFFFFFFFFFFFFFFFFFFFFFFFFFFF
310
FFFFFFFFFFFFFFFFFFFFFFFFFFFFFFFFFFFFFFFFFFFFFFFFFFFFFFFFFFFFFFFF
310
FFFFFFFFFFFFFFFFFFFFFFFFFFFFFFFFF000FFFFFFFFFFFFFFFFFFFFFFFFFFFF
310
FFFFFFFFFFFFFFFFFFFFFFFFFFFFFFFFFFFFFFFFFFFFFFFFFFFFFFFFFFFFFFFF
310
FFFFFFFFFFFFFFFFFFFFFFFFFFFFFFFFFFFFFFFFFFFFFFFFFFFFFFFFFFFFFFFF
310
FFFFFFFFFFFFFFFFF000FFFFFFFFFFFFFFFFFFFFFFFFFFFFFFFFFFFFFFFFFFFF
310
FFFFFFFFFFFFFFFFFFFFFFFFFFFFFFFFFFFFFFFFFFFFFFFFFFFFFFFFFFFFFFFF
310
FFFFFFFFFFFFFFFFFFFFFFFFFFFFFFFFFFFFFFFFFFFFFFFFFFFFFFFFFFFFFFFF
310
F000FFFFFFFFFFFFFFFFFFFFFFFFFFFFFFFFFFFFFFFFFFFFFFFFFFFFFFFFFFFF
310
FFFFFFFFFFFFFFFFFFFFFFFFFFFFFFFFFFFFFFFFFFFFFFFFFFFFFFFFFFFFFFFF
310
FFFFFFFFFFFFFFFFFFFFFFFFFFFFFFFFFFFFFFFFFFFFFFFFF000FFFFFFFFFFFF
310
FFFFFFFFFFFFFFFFFFFFFFFFFFFFFFFFFFFFFFFFFFFFFFFFFFFFFFFFFFFFFFFF
310
FFFFFFFFFFFFFFFFFFFFFFFFFFFFFFFFFFFFFFFFFFFFFFFFFFFFFFFFFFFFFFFF
310
FFFFFFFFFFFFFFFFFFFFFFFFFFFFFFFFF000FFFFFFFFFFFFFFFFFFFFFFFFFFFF
310
FFFFFFFFFFFFFFFFFFFFFFFFFFFFFFFFFFFFFFFFFFFFFFFFFFFFFFFFFFFFFFFF
310
FFFFFFFFFFFFFFFFFFFFFFFFFFFFFFFFFFFFFFFFFFFFFFFFFFFFFFFFFFFFFFFF
310
FFFFFFFFFFFFFFFFF000FFFFF80003FFFFFFFFFFFFFFFFFFFFFFFFFFFFFFFFFF
310
FFFFF00007FFFFFFFFFF00007FFFFFF800000000000000007FFFFFFFFFFFFFFF
310
FFFFFFFC001FFFFFFFFFFFFFFC001FFFFFFFFFFFFFFFFFFFFFFFFFFE0007FFFF
310
F000FFFF8000007FFFFFFFF8000FFFFFC0007FFFFF80007FFFFF0000007FFFFF
310
FFF8000007FFFFF800000000000000007FFFFFF0001FFFFFFFFFFFC00001FFFF
310
FFFFFFFFC00001FFFFFFFF000000000003FFFFE000007FFFF000FFFE0000000F
310
FFFFFFF0000FFFFF80007FFFFF80007FFFFC0000001FFFFFFFC0000001FFFFF8
310
00000000000000007FFFFFF0001FFFFFFFFFFE0000003FFFFFFFFFFE0000003F
310
FFFFFF000000000003FFFF0000000FFFF000FFF800000003FFFFFFF00007FFFF
310
80007FFFFF80007FFFF000000007FFFFFF000000003FFFF80000000000000000
310
7FFFFFF0001FFFFFFFFFF80000000FFFFFFFFFF80000000FFFFFFF0000000000
310
03FFFC00000003FFF000FFE000000000FFFFFFF00007FFFF80003FFFFF80007F
310
FFC000000001FFFFFC000000001FFFF800000000000000007FFFFFF0001FFFFF
310
FFFFE000000003FFFFFFFFE000000003FFFFFF000000000003FFF000000000FF
310
F000FF80000000007FFFFFF00007FFFF80003FFFFF80007FFF8000000000FFFF
310
F80000000007FFF800000000000000007FFFFFF0001FFFFFFFFFC000000001FF
310
FFFFFFC000000001FFFFFF000000000003FFC0000000007FF000FF0000000000
310
3FFFFFE00007FFFF00003FFFFF80007FFE00000000003FFFF00000000003FFF8
310
00000000000000007FFFFFF0001FFFFFFFFF8000000000FFFFFFFF8000000000
310
FFFFFF000000000003FF80000000003FF000FE00000000001FFFFFE00003FFFF
310
00003FFFFF80007FFC00000000001FFFE00000000001FFF8000001FFFE000000
310
7FFFFFF0001FFFFFFFFE00000000003FFFFFFE00000000003FFFFF0000000000
310
03FF00000000001FF000FC00000000000FFFFFE00003FFFF00001FFFFF80007F
310
F800000000001FFFC00000000000FFF8000001FFFE0000007FFFFFF0001FFFFF
310
FFFC00000000001FFFFFFC00000000001FFFFF000000000003FE00000000000F
310
F000F8000000000007FFFFE00003FFFF00001FFFFF80007FF800000000000FFF
310
800000000000FFF8000001FFFE0000007FFFFFF0001FFFFFFFF800000000000F
310
FFFFF800000000000FFFFF000000000003FC000000000007F000F80000000000
310
03FFFFC00003FFFE00001FFFFF80007FF0000000000007FF0000000000007FF8
310
000001FFFE0000007FFFFFF0001FFFFFFFF0000000000007FFFFF00000000000
310
07FFFF000000000003F8000000000003F000F0000000000003FFFFC00001FFFE
310
00001FFFFF80007FE0000000000007FE0000000000003FF8000001FFFE000000
310
7FFFFFF0001FFFFFFFF0000000000007FFFFF0000000000007FFFF0000000000
310
03F800001F800003F000E00001FFF00001FFFFC00001FFFE00000FFFFF80007F
310
E00001FFE00003FE00001FFF00003FF8000001FFFE0000007FFFFFF0001FFFFF
310
FFE000003E000003FFFFE000003E000003FFFF000000000003F00001FFF80001
310
F000E00007FFFC0001FFFFC00001FFFE00000FFFFF80007FC0000FFFFC0003FC
310
0000FFFFC0001FF8000001FFFE0000007FFFFFF0001FFFFFFFC00003FFE00001
310
FFFFC00003FFE00001FFFF0001FFFFFFFFF00007FFFE0001F000E0000FFFFF00
310
00FFFF800001FFFC00000FFFFF80007FC0001FFFFE0001FC0001FFFFE0001FF8
310
000001FFFE0000007FFFFFF0001FFFFFFF80000FFFF80000FFFF80000FFFF800
310
00FFFF0003FFFFFFFFE0000FFFFF8000F000C0003FFFFF8000FFFF800000FFFC
310
000007FFFF80007F80003FFFFF0001FC0003FFFFF0001FF8000001FFFE000000
310
7FFFFFF0001FFFFFFF80003FFFFE0000FFFF80003FFFFE0000FFFF0003FFFFFF
310
FFE0003FFFFF8000F000C0003FFFFF8000FFFF800000FFFC000007FFFF80007F
310
80007FFFFF8001F80007FFFFF8000FF8000001FFFE0000007FFFFFF0001FFFFF
310
FF00007FFFFF00007FFF00007FFFFF00007FFF0003FFFFFFFFE0003FFFFFC000
310
F000C0007FFFFFC000FFFF000000FFFC000007FFFF80007F8000FFFFFF8000F8
310
000FFFFFF8000FF8000001FFFE0000007FFFFFF0001FFFFFFF0000FFFFFF8000
310
7FFF0000FFFFFF80007FFF0003FFFFFFFFC0007FFFFFC00070008000FFFFFFC0
310
00FFFF000000FFF8000007FFFF80007F8000FFFFFF8000F8000FFFFFF8000FF8
310
000001FFFE0000007FFFFFF0001FFFFFFE0001FFFFFFC0003FFE0001FFFFFFC0
310
003FFF0003FFFFFFFFC0007FFFFFE00070008000FFFFFFC0007FFF0000007FF8
310
000003FFFF80007F0001FFFFFF8000F8000FFFFFF8000FF8000001FFFE000000
310
7FFFFFF0001FFFFFFE0001FFFFFFC0003FFE0001FFFFFFC0003FFF0003FFFFFF
310
FFC000FFFFFFE00070008000FFFFFFC0007FFF0000007FF8000003FFFF80007F
310
0001FFFFFF8000F8001FFFFFF8000FF8000001FFFE0000007FFFFFF0001FFFFF
310
FE0003FFFFFFE0003FFE0003FFFFFFE0003FFF0003FFFFFFFFC000FFFFFFE000
310
70008000FFFFFFC0007FFE0000007FF8000003FFFF80007F0001FFFFFF8000F0
310
001FFFFFF8000FF8000001FFFE0000007FFFFFF0001FFFFFFC0003FFFFFFE000
310
1FFC0003FFFFFFE0001FFF0003FFFFFFFFC000FFFFFFC00070008000FFFFFF80
310
007FFE0000007FF0000003FFFF80007F0001FFFFFF0000F0001FFFFFF8000FF8
310
000001FFFE0000007FFFFFF0001FFFFFFC0007FFFFFFF0001FFC0007FFFFFFF0
310
001FFF0003FFFFFFFFC000FFFFFFC00070008001FFFFFF0000FFFE0000003FF0
310
000001FFFF80007F0001FFFFFF0000F8001FFFFFF0000FF8000001FFFE000000
310
7FFFFFF0001FFFFFFC0007FFFFFFF0001FFC0007FFFFFFF0001FFF0003FFFFFF
310
FFC001FFFFFF80007000FFFFFFFFFE0000FFFE0008003FF0008001FFFF80007F
310
FFFFFFFFFC0000FFFFFFFFFFE0000FF8000001FFFE0000007FFFFFF0001FFFFF
310
F8000FFFFFFFF8000FF8000FFFFFFFF8000FFF0003FFFFFFFFFFFFFFFFFF0000
310
7000FFFFFFFFFC0000FFFC0008003FF0008001FFFF80007FFFFFFFFFF80001FF
310
FFFFFFFF80000FF8000001FFFE0000007FFFFFF0001FFFFFF8000FFFFFFFF800
310
0FF8000FFFFFFFF8000FFF0003FFFFFFFFFFFFFFFFFE0000F000FFFFFFFFE000
310
00FFFC000C003FE000C001FFFF80007FFFFFFFFFC00001FFFFFFFFFE00001FF8
310
000001FFFE0000007FFFFFF0001FFFFFF8000FFFFFFFF8000FF8000FFFFFFFF8
310
000FFF0003FFFFFFFFFFFFFFFFF00000F000FFFFFFFE000001FFFC000C001FE0
310
00C000FFFF80007FFFFFFFFE000001FFFFFFFFE000001FF80FFFFFFFFFFFFFC0
310
7FFFFFF0001FFFFFF8000FFFFFFFF8000FF8000FFFFFFFF8000FFF0003FFFFFF
310
FFFFFFFFFF800000F000FFFFFFC0000001FFFC001C001FE001C000FFFF80007F
310
FFFFFF80000003FFFFFFF80000001FF80FFFFFFFFFFFFFC07FFFFFF0001FFFFF
310
F8001FFFFFFFFC000FF8001FFFFFFFFC000FFF0003FFFFFFFFFFFFFFF0000001
310
F000FFFFF800000001FFF8001C001FE001C000FFFF80007FFFFFF800000003FF
310
FFFF800000003FF80FFFFFFFFFFFFFC07FFFFFF0001FFFFFF8001FFFFFFFFC00
310
0FF8001FFFFFFFFC000FFF0003FFFFFFFFFFFFFE00000001F000FFFFC0000000
310
03FFF8001E001FC001E000FFFF80007FFFFF8000000007FFFFFC000000003FF8
310
0FFFFFFFFFFFFFC07FFFFFF0001FFFFFF8001FFFFFFFFC000FF8001FFFFFFFFC
310
000FFF0003FFFFFFFFFFFFE000000003F000FFFE0000000007FFF8001E000FC0
310
01E0007FFF80007FFFFE0000000007FFFFE0000000007FF80FFFFFFFFFFFFFC0
310
7FFFFFF0001FFFFFF0001FFFFFFFFC0007F0001FFFFFFFFC0007FF0003FFFFFF
310
FFFFFF0000000003F000FFF80000000007FFF8001E000FC003E0007FFF80007F
310
FFF0000000000FFFFF8000000000FFF80FFFFFFFFFFFFFC07FFFFFF0001FFFFF
310
F0001FFFFFFFFC0007F0001FFFFFFFFC0007FF0003FFFFFFFFFFFC0000000007
310
F000FFE0000000000FFFF0003E000FC003E0007FFF80007FFFC0000000001FFF
310
FE0000000001FFF80FFFFFFFFFFFFFC07FFFFFF0001FFFFFF0001FFFFFFFFC00
310
07F0001FFFFFFFFC0007FF0003FFFFFFFFFFF0000000000FF000FFC000000000
310
1FFFF0003F000F8003F0003FFF80007FFF80000000003FFFF80000000003FFF8
310
0FFFFFFFFFFFFFC07FFFFFF0001FFFFFF0001FFFFFFFFC0007F0001FFFFFFFFC
310
0007FF0003FFFFFFFFFFE0000000001FF000FF00000000007FFFF0003F000780
310
03F0003FFF80007FFF00000000007FFFF00000000007FFF80FFFFFFFFFFFFFC0
310
7FFFFFF0001FFFFFF0001FFFFFFFFC0007F0001FFFFFFFFC0007FF0003FFFFFF
310
FFFF80000000007FF000FE0000000000FFFFE0003F00078007F0003FFF80007F
310
FE0000000001FFFFE0000000001FFFF80FFFFFFFFFFFFFC07FFFFFF0001FFFFF
310
F0001FFFFFFFFC0007F0001FFFFFFFFC0007FF0003FFFFFFFFFF0000000000FF
310
F000FC0000000003FFFFE0007F00078007F0003FFF80007FFC0000000007FFFF
310
C0000000007FFFF80FFFFFFFFFFFFFC07FFFFFF0001FFFFFF8001FFFFFFFFC00
310
0FF8001FFFFFFFFC000FFF0003FFFFFFFFFE0000000003FFF000FC000000000F
310
FFFFE0007F80070007F8001FFF80007FF8000000001FFFFF8000000001FFFFF8
310
0FFFFFFFFFFFFFC07FFFFFF0001FFFFFF8001FFFFFFFFC000FF8001FFFFFFFFC
310
000FFF0003FFFFFFFFFC000000000FFFF000F8000000007FFFFFE0007F800700
310
07F8001FFF80007FF000000000FFFFFF800000000FFFFFF80FFFFFFFFFFFFFC0
310
7FFFFFF0001FFFFFF8000FFFFFFFF8000FF8000FFFFFFFF8000FFF0003FFFFFF
310
FFFC000000007FFFF000F800000007FFFFFFC0007F8003000FF8001FFF80007F
310
F000000007FFFFFF000000007FFFFFF80FFFFFFFFFFFFFC07FFFFFF0001FFFFF
310
F8000FFFFFFFF8000FF8000FFFFFFFF8000FFF0003FFFFFFFFF80000000FFFFF
310
F000F0000000FFFFFFFFC000FF8003000FF8001FFF80007FE0000000FFFFFFFF
310
0000000FFFFFFFF8000001FFFE0000007FFFFFF0001FFFFFF8000FFFFFFFF800
310
0FF8000FFFFFFFF8000FFF0003FFFFFFFFF8000000FFFFFFF000F000000FFFFF
310
FFFFC000FFC002000FF8000FFF80007FE000001FFFFFFFFE000001FFFFFFFFF8
310
000001FFFE0000007FFFFFF0001FFFFFF8000FFFFFFFF8000FF8000FFFFFFFF8
310
000FFF0003FFFFFFFFF000001FFFFFFFF000E00000FFFFFFFFFFC000FFC00200
310
0FFC000FFF80007FE00001FFFFFFFFFE00001FFFFFFFFFF8000001FFFE000000
310
7FFFFFF0001FFFFFFC000FFFFFFFF8001FFC000FFFFFFFF8001FFF0003FFFFFF
310
FFF00001FFFFFFFFF000E00007FFFFFFFFFF8000FFC000001FFC000FFF80007F
310
C0000FFFFFFFFFFE0000FFFFFFFFFFF8000001FFFE0000007FFFFFF0001FFFFF
310
FC0007FFFFFFF0001FFC0007FFFFFFF0001FFF0003FFFFFFFFF00007FFFFFFFF
310
F000E0001FFFFFFFFFFF8000FFC000001FFC000FFF80007FC0003FFFFFFFFFFE
310
0001FFFFFFFFFFF8000001FFFE0000007FFFFFF0001FFFFFFC0007FFFFFFF000
310
1FFC0007FFFFFFF0001FFF0003FFFFFFFFF0001FFFFFFFFFF000E0003FFFFF00
310
03FF8001FFE000001FFC0007FF80007FC0007FFFFF0007FC0003FFFFF0003FF8
310
000001FFFE0000007FFFFFF0001FFFFFFC0003FFFFFFE0001FFC0003FFFFFFE0
310
001FFF0003FFFFFFFFF0003FFFFFFFFFF000E0003FFFFF0001FF8001FFE00000
310
1FFE0007FF80007FC0007FFFFE0003FC0007FFFFE0003FF8000001FFFE000000
310
7FFFFFF0001FFFFFFE0003FFFFFFE0003FFE0003FFFFFFE0003FFF0003FFFFFF
310
FFF0003FFFFF8001F000E0003FFFFF0001FF0001FFE000001FFE0007FF80007F
310
C0007FFFFE0003FC0007FFFFE0003FF8000001FFFE0000007FFFFFF0001FFFFF
310
FE0001FFFFFFC0003FFE0001FFFFFFC0003FFF0003FFFFFFFFF0003FFFFF0001
310
F000E0003FFFFF0003FF0001FFE000003FFE0007FF80007FC0007FFFFE0003FC
310
0007FFFFE0003FF8000001FFFE0000007FFFFFF0001FFFFFFF0001FFFFFFC000
310
7FFF0001FFFFFFC0007FFF0003FFFFFFFFF0003FFFFF0001F000E0003FFFFE00
310
03FF0003FFF000003FFE0003FF80007FC0007FFFFC0003FE0007FFFFE0003FF8
310
000001FFFE0000007FFFFFF0001FFFFFFF0000FFFFFF80007FFF0000FFFFFF80
310
007FFF0003FFFFFFFFF0003FFFFF0001F000E0003FFFFE0003FF0003FFF00000
310
3FFF0003FF80007FC0007FFFFC0007FE0007FFFFC0003FF8000001FFFE000000
310
7FFFFFF0001FFFFFFF80007FFFFF0000FFFF80007FFFFF0000FFFF0003FFFFFF
310
FFF0003FFFFF0003F000E0003FFFFC0003FE0003FFF000003FFF0003FF80007F
310
E0003FFFF80007FE0003FFFFC0007FF8000001FFFE0000007FFFFFF0001FFFFF
310
FF80003FFFFE0000FFFF80003FFFFE0000FFFF0003FFFFFFFFF0001FFFFE0003
310
F000F0001FFFF80003FE0003FFF000007FFF0001FF80007FE0003FFFF00007FE
310
0001FFFF80007FF8000001FFFE0000007FFFFFF0001FFFFFFFC0000FFFF80001
310
FFFFC0000FFFF80001FFFF0003FFFFFFFFF0001FFFFC0003F000F0000FFFF000
310
07FE0007FFF800007FFF0001FF80007FE0001FFFE00007FF0000FFFE00007FF8
310
000001FFFE0000007FFFFFF0001FFFFFFFC00003FFE00001FFFFC00003FFE000
310
01FFFF0003FFFFFFFFF8000FFFF80003F000F00003FFC00007FC0007FFF80000
310
7FFF8001FF80007FF00007FF80000FFF00007FF80000FFF8000001FFFE000000
310
7F80000000000001FFE000003E000003FFFFE000003E000003FFFF0003FFFFFF
310
FFF80003FFE00007F000F800000000000FFC0007FFF800007FFF8001FF80007F
310
F000000000000FFF000000000000FFF8000001FFFE0000007F80000000000001
310
FFF0000000000007FFFFF0000000000007FFFF0003FFFFFFFFFC00007E000007
310
F000F800000000000FFC0007FFF80000FFFF8000FF80007FF800000000001FFF
310
800000000001FFF8000001FFFE0000007F80000000000001FFF800000000000F
310
FFFFF800000000000FFFFF0003FFFFFFFFFC00000000000FF000FC0000000000
310
1FFC0007FFFC0000FFFF8000FF80007FF800000000003FFFC00000000001FFF8
310
000001FFFE0000007F80000000000001FFF800000000000FFFFFF80000000000
310
0FFFFF0003FFFFFFFFFE00000000001FF000FE00000000003FF8000FFFFC0000
310
FFFF8000FF80007FFC00000000003FFFC00000000003FFF8000001FFFE000000
310
7F80000000000001FFFC00000000001FFFFFFC00000000001FFFFF0003FFFFFF
310
FFFF00000000001FF000FF00000000003FF8000FFFFC0000FFFFC000FF80007F
310
FE00000000007FFFE00000000007FFF8000001FFFE0000007F80000000000001
310
FFFE00000000003FFFFFFE00000000003FFFFF0003FFFFFFFFFF80000000003F
310
F000FF80000000007FF8000FFFFC0001FFFFC0007F80007FFF0000000000FFFF
310
F0000000000FFFF800000000000000007F80000000000001FFFF8000000000FF
310
FFFFFF8000000000FFFFFF0003FFFFFFFFFFC0000000007FF000FFC000000000
310
FFF8000FFFFE0001FFFFC0007F80007FFF8000000001FFFFF8000000001FFFF8
310
00000000000000007F80000000000001FFFFC000000001FFFFFFFFC000000001
310
FFFFFF0003FFFFFFFFFFE000000000FFF000FFE000000003FFF0001FFFFE0001
310
FFFFC0007F80007FFFC000000007FFFFFE000000003FFFF80000000000000000
310
7F80000000000001FFFFE000000003FFFFFFFFE000000003FFFFFF0003FFFFFF
310
FFFFF000000003FFF000FFF80000000FFFF0001FFFFE0001FFFFE0007F80007F
310
FFF00000000FFFFFFF00000000FFFFF800000000000000007F80000000000001
310
FFFFF80000000FFFFFFFFFF80000000FFFFFFF0003FFFFFFFFFFFC0000000FFF
310
F000FFFE0000003FFFF0001FFFFE0003FFFFE0003F80007FFFFC0000003FFFFF
310
FFC0000003FFFFF800000000000000007F80000000000001FFFFFE0000003FFF
310
FFFFFFFE0000003FFFFFFF0003FFFFFFFFFFFF0000003FFFF000FFFF800000FF
310
FFF0001FFFFF0003FFFFE0003F80007FFFFF000001FFFFFFFFF800001FFFFFF8
310
00000000000000007F80000000000001FFFFFFC00001FFFFFFFFFFFFC00001FF
310
FFFFFF0003FFFFFFFFFFFFC00000FFFFF000FFFFF8000FFFFFFFFFFFFFFFFFFF
310
FFFFFFFFFFFFFFFFFFFFF0001FFFFFFFFFFF0000FFFFFFF80000000000000000
310
7FFFFFFFFFFFFFFFFFFFFFFC001FFFFFFFFFFFFFFC001FFFFFFFFFFFFFFFFFFF
310
FFFFFFFC001FFFFFF000FFFFFFFFFFFFFFFFFFFFFFFFFFFFFFFFFFFFFFFFFFFF
310
FFFFFFFFFFFFFFFFFFFFFFFFFFFFFFFFFFFFFFFFFFFFFFFFFFFFFFFFFFFFFFFF
310
FFFFFFFFFFFFFFFFFFFFFFFFFFFFFFFFFFFFFFFFFFFFFFFFFFFFFFFFFFFFFFFF
310
F000FFFFFFFFFFFFFFFFFFFFFFFFFFFFFFFFFFFFFFFFFFFFFFFFFFFFFFFFFFFF
310
FFFFFFFFFFFFFFFFFFFFFFFFFFFFFFFFFFFFFFFFFFFFFFFFFFFFFFFFFFFFFFFF
310
FFFFFFFFFFFFFFFFFFFFFFFFFFFFFFFFFFFFFFFFFFFFFFFFF000FFFFFFFFFFFF
310
FFFFFFFFFFFFFFFFFFFFFFFFFFFFFFFFFFFFFFFFFFFFFFFFFFFFFFFFFFFFFFFF
310
FFFFFFFFFFFFFFFFFFFFFFFFFFFFFFFFFFFFFFFFFFFFFFFFFFFFFFFFFFFFFFFF
310
FFFFFFFFFFFFFFFFFFFFFFFFFFFFFFFFF000FFFFFFFFFFFFFFFFFFFFFFFFFFFF
310
FFFFFFFFFFFFFFFFFFFFFFFFFFFFFFFFFFFFFFFFFFFFFFFFFFFFFFFFFFFFFFFF
310
FFFFFFFFFFFFFFFFFFFFFFFFFFFFFFFFFFFFFFFFFFFFFFFFFFFFFFFFFFFFFFFF
310
FFFFFFFFFFFFFFFFF000FFFFFFFFFFFFFFFFFFFFFFFFFFFFFFFFFFFFFFFFFFFF
310
FFFFFFFFFFFFFFFFFFFFFFFFFFFFFFFFFFFFFFFFFFFFFFFFFFFFFFFFFFFFFFFF
310
FFFFFFFFFFFFFFFFFFFFFFFFFFFFFFFFFFFFFFFFFFFFFFFFFFFFFFFFFFFFFFFF
310
F000FFFFFFFFFFFFFFFFFFFFFFFFFFFFFFFFFFFFFFFFFFFFFFFFFFFFFFFFFFFF
310
FFFFFFFFFFFFFFFFFFFFFFFFFFFFFFFFFFFFFFFFFFFFFFFFFFFFFFFFFFFFFFFF
310
FFFFFFFFFFFFFFFFFFFFFFFFFFFFFFFFFFFFFFFFFFFFFFFFF000FFFFFFFFFFFF
310
FFFFFFFFFFFFFFFFFFFFFFFFFFFFFFFFFFFFFFFFFFFFFFFFFFFFFFFFFFFFFFFF
310
FFFFFFFFFFFFFFFFFFFFFFFFFFFFFFFFFFFFFFFFFFFFFFFFFFFFFFFFFFFFFFFF
310
FFFFFFFFFFFFFFFFFFFFFFFFFFFFFFFFF000FFFFFFFFFFFFFFFFFFFFFFFFFFFF
310
FFFFFFFFFFFFFFFFFFFFFFFFFFFFFFFFFFFFFFFFFFFFFFFFFFFFFFFFFFFFFFFF
310
FFFFFFFFFFFFFFFFFFFFFFFFFFFFFFFFFFFFFFFFFFFFFFFFFFFFFFFFFFFFFFFF
310
FFFFFFFFFFFFFFFFF000FFFFFFFFFFFFFFFFFFFFFFFFFFFFFFFFFFFFFFFFFFFF
310
FFFFFFFFFFFFFFFFFFFFFFFFFFFFFFFFFFFFFFFFFFFFFFFFFFFFFFFFFFFFFFFF
310
FFFFFFFFFFFFFFFFFFFFFFFFFFFFFFFFFFFFFFFFFFFFFFFFFFFFFFFFFFFFFFFF
310
F000FFFFFFFFFFFFFFFFFFFFFFFFFFFFFFFFFFFFFFFFFFFFFFFFFFFFFFFFFFFF
310
FFFFFFFFFFFFFFFFFFFFFFFFFFFFFFFFFFFFFFFFFFFFFFFFFFFFFFFFFFFFFFFF
310
FFFFFFFFFFFFFFFFFFFFFFFFFFFFFFFFFFFFFFFFFFFFFFFFF000FFFFFFFFFFFF
310
FFFFFFFFFFFFFFFFFFFFFFFFFFFFFFFFFFFFFFFFFFFFFFFFFFFFFFFFFFFFFFFF
310
FFFFFFFFFFFFFFFFFFFFFFFFFFFFFFFFFFFFFFFFFFFFFFFFFFFFFFFFFFFFFFFF
310
FFFFFFFFFFFFFFFFFFFFFFFFFFFFFFFFF000FFFFFFFFFFFFFFFFFFFFFFFFFFFF
310
FFFFFFFFFFFFFFFFFFFFFFFFFFFFFFFFFFFFFFFFFFFFFFFFFFFFFFFFFFFFFFFF
310
FFFFFFFFFFFFFFFFFFFFFFFFFFFFFFFFFFFFFFFFFFFFFFFFFFFFFFFFFFFFFFFF
310
FFFFFFFFFFFFFFFFF000FFFFFFFFFFFFFFFFFFFFFFFFFFFFFFFFFFFFFFFFFFFF
310
FFFFFFFFFFFFFFFFFFFFFFFFFFFFFFFFFFFFFFFFFFFFFFFFFFFFFFFFFFFFFFFF
310
FFFFFFFFFFFFFFFFFFFFFFFFFFFFFFFFFFFFFFFFFFFFFFFFFFFFFFFFFFFFFFFF
310
F000FFFFFFFFFFFFFFFFFFFFFFFFFFFFFFFFFFFFFFFFFFFFFFFFFFFFFFFFFFFF
310
FFFFFFFFFFFFFFFFFFFFFFFFFFFFFFFFFFFFFFFFFFFFFFFFFFFFFFFFFFFFFFFF
310
FFFFFFFFFFFFFFFFFFFFFFFFFFFFFFFFFFFFFFFFFFFFFFFFF000FFFFFFFFFFFF
310
FFFFFFFFFFFFFFFFFFFFFFFFFFFFFFFFFFFFFFFFFFFFFFFFFFFFFFFFFFFFFFFF
310
FFFFFFFFFFFFFFFFFFFFFFFFFFFFFFFFFFFFFFFFFFFFFFFFFFFFFFFFFFFFFFFF
310
FFFFFFFFFFFFFFFFFFFFFFFFFFFFFFFFF000FFFFFFFFFFFFFFFFFFFFFFFFFFFF
310
FFFFFFFFFFFFFFFFFFFFFFFFFFFFFFFFFFFFFFFFFFFFFFFFFFFFFFFFFFFFFFFF
310
FFFFFFFFFFFFFFFFFFFFFFFFFFFFFFFFFFFFFFFFFFFFFFFFFFFFFFFFFFFFFFFF
310
FFFFFFFFFFFFFFFFF000FFFFFFFFFFFFFFFFFFFFFFFFFFFFFFFFFFFFFFFFFFFF
310
FFFFFFFFFFFFFFFFFFFFFFFFFFFFFFFFFFFFFFFFFFFFFFFFFFFFFFFFFFFFFFFF
310
FFFFFFFFFFFFFFFFFFFFFFFFFFFFFFFFFFFFFFFFFFFFFFFFFFFFFFFFFFFFFFFF
310
F000FFFFFFFFFFFFFFFFFFFFFFFFFFFFFFFFFFFFFFFFFFFFFFFFFFFFFFFFFFFF
310
FFFFFFFFFFFFFFFFFFFFFFFFFFFFFFFFFFFFFFFFFFFFFFFFFFFFFFFFFFFFFFFF
310
FFFFFFFFFFFFFFFFFFFFFFFFFFFFFFFFFFFFFFFFFFFFFFFFF000FFFFFFFFFFFF
310
FFFFFFFFFFFFFFFFFFFFFFFFFFFFFFFFFFFFFFFFFFFFFFFFFFFFFFFFFFFFFFFF
310
FFFFFFFFFFFFFFFFFFFFFFFFFFFFFFFFFFFFFFFFFFFFFFFFFFFFFFFFFFFFFFFF
310
FFFFFFFFFFFFFFFFFFFFFFFFFFFFFFFFF000FFFFFFFFFFFFFFFFFFFFFFFFFFFF
310
FFFFFFFFFFFFFFFFFFFFFFFFFFFFFFFFFFFFFFFFFFFFFFFFFFFFFFFFFFFFFFFF
310
FFFFFFFFFFFFFFFFFFFFFFFFFFFFFFFFFFFFFFFFFFFFFFFFFFFFFFFFFFFFFFFF
310
FFFFFFFFFFFFFFFFF000FFFFFFFFFFFFFFFFFFFFFFFFFFFFFFFFFFFFFFFFFFFF
310
FFFFFFFFFFFFFFFFFFFFFFFFFFFFFFFFFFFFFFFFFFFFFFFFFFFFFFFFFFFFFFFF
310
FFFFFFFFFFFFFFFFFFFFFFFFFFFFFFFFFFFFFFFFFFFFFFFFFFFFFFFFFFFFFFFF
310
F000FFFFFFFFFFFFFFFFFFFFFFFFFFFFFFFFFFFFFFFFFFFFFFFFFFFFFFFFFFFF
310
FFFFFFFFFFFFFFFFFFFFFFFFFFFFFFFFFFFFFFFFFFFFFFFFFFFFFFFFFFFFFFFF
310
FFFFFFFFFFFFFFFFFFFFFFFFFFFFFFFFFFFFFFFFFFFFFFFFF000FFFFFFFFFFFF
310
FFFFFFFFFFFFFFFFFFFFFFFFFFFFFFFFFFFFFFFFFFFFFFFFFFFFFFFFFFFFFFFF
310
FFFFFFFFFFFFFFFFFFFFFFFFFFFFFFFFFFFFFFFFFFFFFFFFFFFFFFFFFFFFFFFF
310
FFFFFFFFFFFFFFFFFFFFFFFFFFFFFFFFF0000000000000000000000000000000
310
0000000000000000000000000000000000000000000000000000000000000000
310
0000000000000000000000000000000000000000000000000000000000000000
310
0000000000000000000000000000000000000000000000000000000000000000
310
0000000000000000000000000000000000000000000000000000000000000000
310
0000000000000000000000000000000000000000000000000000000000000000
310
0000000000000000000000000000000000000000000000000000000000000000
310
0000000000000000000000000000000000000000000000000000000000000000
310
0000000000000000000000000000000000000000000000000000000000000000
310
0000000000000000000000000000000000000000000000000000000000000000
310
0000000000000000000000000000000000000000000000000000000000000000
310
0000000000000000000000000000000000000000000000000000000000000000
310
0000000000000000000000000000000000000000000000000000000000000000
310
0000000000000000000000000000000000000000000000000000000000000000
310
0000000000000000000000000000000000000000000000000000000000000000
310
0000000000000000000000000000000000000000000000000000000000000000
  1
OLE
  0
ENDSEC
  0
SECTION
  2
OBJECTS
  0
DICTIONARY
  5
C
330
0
100
AcDbDictionary
281
     1
  3
ACAD_GROUP
350
D
  3
ACAD_LAYOUT
350
1A
  3
ACAD_MLINESTYLE
350
17
  3
ACAD_PLOTSETTINGS
350
19
  3
ACAD_PLOTSTYLENAME
350
E
  0
DICTIONARY
  5
D
102
{ACAD_REACTORS
330
C
102
}
330
C
100
AcDbDictionary
281
     1
  0
DICTIONARY
  5
1A
102
{ACAD_REACTORS
330
C
102
}
330
C
100
AcDbDictionary
281
     1
  3
Layout1
350
1E
  3
Layout2
350
26
  3
Model
350
22
  0
DICTIONARY
  5
17
102
{ACAD_REACTORS
330
C
102
}
330
C
100
AcDbDictionary
281
     1
  3
Standard
350
18
  0
DICTIONARY
  5
19
102
{ACAD_REACTORS
330
C
102
}
330
C
100
AcDbDictionary
281
     1
  0
ACDBDICTIONARYWDFLT
  5
E
102
{ACAD_REACTORS
330
C
102
}
330
C
100
AcDbDictionary
281
     1
  3
Normal
350
F
100
AcDbDictionaryWithDefault
340
F
  0
LAYOUT
  5
1E
102
{ACAD_REACTORS
330
1A
102
}
330
1A
100
AcDbPlotSettings
  1

  2
none_device
  4

  6

 40
0.0
 41
0.0
 42
0.0
 43
0.0
 44
0.0
 45
0.0
 46
0.0
 47
0.0
 48
0.0
 49
0.0
140
0.0
141
0.0
142
1.0
143
1.0
 70
   688
 72
     0
 73
     0
 74
     5
  7

 75
    16
147
1.0
148
0.0
149
0.0
100
AcDbLayout
  1
Layout1
 70
     1
 71
     1
 10
0.0
 20
0.0
 11
420.0
 21
297.0
 12
0.0
 22
0.0
 32
0.0
 14
1.0000000000E+20
 24
1.0000000000E+20
 34
1.0000000000E+20
 15
-1.0000000000E+20
 25
-1.0000000000E+20
 35
-1.0000000000E+20
146
0.0
 13
0.0
 23
0.0
 33
0.0
 16
1.0
 26
0.0
 36
0.0
 17
0.0
 27
1.0
 37
0.0
 76
     0
330
1B
  0
LAYOUT
  5
26
102
{ACAD_REACTORS
330
1A
102
}
330
1A
100
AcDbPlotSettings
  1

  2
none_device
  4

  6

 40
0.0
 41
0.0
 42
0.0
 43
0.0
 44
0.0
 45
0.0
 46
0.0
 47
0.0
 48
0.0
 49
0.0
140
0.0
141
0.0
142
1.0
143
1.0
 70
   688
 72
     0
 73
     0
 74
     5
  7

 75
    16
147
1.0
148
0.0
149
0.0
100
AcDbLayout
  1
Layout2
 70
     1
 71
     2
 10
0.0
 20
0.0
 11
0.0
 21
0.0
 12
0.0
 22
0.0
 32
0.0
 14
0.0
 24
0.0
 34
0.0
 15
0.0
 25
0.0
 35
0.0
146
0.0
 13
0.0
 23
0.0
 33
0.0
 16
1.0
 26
0.0
 36
0.0
 17
0.0
 27
1.0
 37
0.0
 76
     0
330
23
  0
LAYOUT
  5
22
102
{ACAD_REACTORS
330
1A
102
}
330
1A
100
AcDbPlotSettings
  1

  2
none_device
  4

  6

 40
0.0
 41
0.0
 42
0.0
 43
0.0
 44
0.0
 45
0.0
 46
0.0
 47
0.0
 48
0.0
 49
0.0
140
0.0
141
0.0
142
1.0
143
1.0
 70
  1712
 72
     0
 73
     0
 74
     0
  7

 75
     0
147
1.0
148
0.0
149
0.0
100
AcDbLayout
  1
Model
 70
     1
 71
     0
 10
0.0
 20
0.0
 11
297.0
 21
210.0
 12
0.0
 22
0.0
 32
0.0
 14
0.0
 24
0.0
 34
0.0
 15
297.0
 25
210.0
 35
0.0
146
0.0
 13
0.0
 23
0.0
 33
0.0
 16
1.0
 26
0.0
 36
0.0
 17
0.0
 27
1.0
 37
0.0
 76
     0
330
1F
331
29
  0
MLINESTYLE
  5
18
102
{ACAD_REACTORS
330
17
102
}
330
17
100
AcDbMlineStyle
  2
Standard
 70
     0
  3

 62
   256
 51
90.0
 52
90.0
 71
     2
 49
0.5
 62
   256
  6
BYLAYER
 49
-0.5
 62
   256
  6
BYLAYER
  0
ACDBPLACEHOLDER
  5
F
102
{ACAD_REACTORS
330
E
102
}
330
E
  0
ENDSEC
  0
EOF
