  0
SECTION
  2
HEADER
  9
$ACADVER
  1
AC1015
  9
$ACADMAINTVER
 70
     6
  9
$DWGCODEPAGE
  3
ANSI_1252
  9
$INSBASE
 10
0.0
 20
0.0
 30
0.0
  9
$EXTMIN
 10
0.0
 20
0.0
 30
0.0
  9
$EXTMAX
 10
297.0
 20
210.0
 30
0.0
  9
$LIMMIN
 10
0.0
 20
0.0
  9
$LIMMAX
 10
297.0
 20
210.0
  9
$ORTHOMODE
 70
     0
  9
$REGENMODE
 70
     1
  9
$FILLMODE
 70
     1
  9
$QTEXTMODE
 70
     0
  9
$MIRRTEXT
 70
     1
  9
$LTSCALE
 40
1.0
  9
$ATTMODE
 70
     1
  9
$TEXTSIZE
 40
2.0
  9
$TRACEWID
 40
1.0
  9
$TEXTSTYLE
  7
Standard
  9
$CLAYER
  8
0
  9
$CELTYPE
  6
ByLayer
  9
$CECOLOR
 62
   256
  9
$CELTSCALE
 40
1.0
  9
$DISPSILH
 70
     0
  9
$DIMSCALE
 40
1.0
  9
$DIMASZ
 40
3.0
  9
$DIMEXO
 40
0.0
  9
$DIMDLI
 40
3.75
  9
$DIMRND
 40
0.0
  9
$DIMDLE
 40
0.0
  9
$DIMEXE
 40
1.0
  9
$DIMTP
 40
0.0
  9
$DIMTM
 40
0.0
  9
$DIMTXT
 40
2.0
  9
$DIMCEN
 40
2.5
  9
$DIMTSZ
 40
0.0
  9
$DIMTOL
 70
     0
  9
$DIMLIM
 70
     0
  9
$DIMTIH
 70
     1
  9
$DIMTOH
 70
     1
  9
$DIMSE1
 70
     0
  9
$DIMSE2
 70
     0
  9
$DIMTAD
 70
     1
  9
$DIMZIN
 70
     0
  9
$DIMBLK
  1

  9
$DIMASO
 70
     1
  9
$DIMSHO
 70
     1
  9
$DIMPOST
  1

  9
$DIMAPOST
  1

  9
$DIMALT
 70
     0
  9
$DIMALTD
 70
     3
  9
$DIMALTF
 40
0.0393700787
  9
$DIMLFAC
 40
1.0
  9
$DIMTOFL
 70
     1
  9
$DIMTVP
 40
0.0
  9
$DIMTIX
 70
     0
  9
$DIMSOXD
 70
     0
  9
$DIMSAH
 70
     0
  9
$DIMBLK1
  1

  9
$DIMBLK2
  1

  9
$DIMSTYLE
  2
ISO-25
  9
$DIMCLRD
 70
     0
  9
$DIMCLRE
 70
     0
  9
$DIMCLRT
 70
     0
  9
$DIMTFAC
 40
1.0
  9
$DIMGAP
 40
1.524
  9
$DIMJUST
 70
     0
  9
$DIMSD1
 70
     0
  9
$DIMSD2
 70
     0
  9
$DIMTOLJ
 70
     0
  9
$DIMTZIN
 70
     0
  9
$DIMALTZ
 70
     0
  9
$DIMALTTZ
 70
     0
  9
$DIMUPT
 70
     0
  9
$DIMDEC
 70
     2
  9
$DIMTDEC
 70
     3
  9
$DIMALTU
 70
     2
  9
$DIMALTTD
 70
     3
  9
$DIMTXSTY
  7
Standard
  9
$DIMAUNIT
 70
     0
  9
$DIMADEC
 70
     2
  9
$DIMALTRND
 40
0.0
  9
$DIMAZIN
 70
     0
  9
$DIMDSEP
 70
    44
  9
$DIMATFIT
 70
     3
  9
$DIMFRAC
 70
     0
  9
$DIMLDRBLK
  1

  9
$DIMLUNIT
 70
     2
  9
$DIMLWD
 70
    -2
  9
$DIMLWE
 70
    -2
  9
$DIMTMOVE
 70
     0
  9
$LUNITS
 70
     2
  9
$LUPREC
 70
     2
  9
$SKETCHINC
 40
1.0
  9
$FILLETRAD
 40
10.0
  9
$AUNITS
 70
     0
  9
$AUPREC
 70
     2
  9
$MENU
  1
.
  9
$ELEVATION
 40
0.0
  9
$PELEVATION
 40
0.0
  9
$THICKNESS
 40
0.0
  9
$LIMCHECK
 70
     0
  9
$CHAMFERA
 40
10.0
  9
$CHAMFERB
 40
10.0
  9
$CHAMFERC
 40
20.0
  9
$CHAMFERD
 40
0.0
  9
$SKPOLY
 70
     0
  9
$TDCREATE
 40
2456087.498387708
  9
$TDUCREATE
 40
2456087.415054375
  9
$TDUPDATE
 40
2456087.498389155
  9
$TDUUPDATE
 40
2456087.415055822
  9
$TDINDWG
 40
0.0000000116
  9
$TDUSRTIMER
 40
0.0000000116
  9
$USRTIMER
 70
     1
  9
$ANGBASE
 50
0.0
  9
$ANGDIR
 70
     0
  9
$PDMODE
 70
     0
  9
$PDSIZE
 40
-1.0
  9
$PLINEWID
 40
0.0
  9
$SPLFRAME
 70
     0
  9
$SPLINETYPE
 70
     6
  9
$SPLINESEGS
 70
     8
  9
$HANDSEED
  5
27D
  9
$SURFTAB1
 70
     6
  9
$SURFTAB2
 70
     6
  9
$SURFTYPE
 70
     6
  9
$SURFU
 70
     6
  9
$SURFV
 70
     6
  9
$UCSBASE
  2

  9
$UCSNAME
  2

  9
$UCSORG
 10
0.0
 20
0.0
 30
0.0
  9
$UCSXDIR
 10
1.0
 20
0.0
 30
0.0
  9
$UCSYDIR
 10
0.0
 20
1.0
 30
0.0
  9
$UCSORTHOREF
  2

  9
$UCSORTHOVIEW
 70
     0
  9
$UCSORGTOP
 10
0.0
 20
0.0
 30
0.0
  9
$UCSORGBOTTOM
 10
0.0
 20
0.0
 30
0.0
  9
$UCSORGLEFT
 10
0.0
 20
0.0
 30
0.0
  9
$UCSORGRIGHT
 10
0.0
 20
0.0
 30
0.0
  9
$UCSORGFRONT
 10
0.0
 20
0.0
 30
0.0
  9
$UCSORGBACK
 10
0.0
 20
0.0
 30
0.0
  9
$PUCSBASE
  2

  9
$PUCSNAME
  2

  9
$PUCSORG
 10
0.0
 20
0.0
 30
0.0
  9
$PUCSXDIR
 10
1.0
 20
0.0
 30
0.0
  9
$PUCSYDIR
 10
0.0
 20
1.0
 30
0.0
  9
$PUCSORTHOREF
  2

  9
$PUCSORTHOVIEW
 70
     0
  9
$PUCSORGTOP
 10
0.0
 20
0.0
 30
0.0
  9
$PUCSORGBOTTOM
 10
0.0
 20
0.0
 30
0.0
  9
$PUCSORGLEFT
 10
0.0
 20
0.0
 30
0.0
  9
$PUCSORGRIGHT
 10
0.0
 20
0.0
 30
0.0
  9
$PUCSORGFRONT
 10
0.0
 20
0.0
 30
0.0
  9
$PUCSORGBACK
 10
0.0
 20
0.0
 30
0.0
  9
$USERI1
 70
     0
  9
$USERI2
 70
     0
  9
$USERI3
 70
     0
  9
$USERI4
 70
     0
  9
$USERI5
 70
     0
  9
$USERR1
 40
0.0
  9
$USERR2
 40
0.0
  9
$USERR3
 40
0.0
  9
$USERR4
 40
0.0
  9
$USERR5
 40
0.0
  9
$WORLDVIEW
 70
     1
  9
$SHADEDGE
 70
     3
  9
$SHADEDIF
 70
    70
  9
$TILEMODE
 70
     1
  9
$MAXACTVP
 70
    64
  9
$PINSBASE
 10
0.0
 20
0.0
 30
0.0
  9
$PLIMCHECK
 70
     0
  9
$PEXTMIN
 10
1.0000000000E+20
 20
1.0000000000E+20
 30
1.0000000000E+20
  9
$PEXTMAX
 10
-1.0000000000E+20
 20
-1.0000000000E+20
 30
-1.0000000000E+20
  9
$PLIMMIN
 10
0.0
 20
0.0
  9
$PLIMMAX
 10
420.0
 20
297.0
  9
$UNITMODE
 70
     0
  9
$VISRETAIN
 70
     1
  9
$PLINEGEN
 70
     0
  9
$PSLTSCALE
 70
     1
  9
$TREEDEPTH
 70
  3020
  9
$CMLSTYLE
  2
Standard
  9
$CMLJUST
 70
     0
  9
$CMLSCALE
 40
20.0
  9
$PROXYGRAPHICS
 70
     1
  9
$MEASUREMENT
 70
     1
  9
$CELWEIGHT
370
    -1
  9
$ENDCAPS
280
     0
  9
$JOINSTYLE
280
     0
  9
$LWDISPLAY
290
     1
  9
$INSUNITS
 70
     4
  9
$HYPERLINKBASE
  1

  9
$STYLESHEET
  1

  9
$XEDIT
290
     1
  9
$CEPSNTYPE
380
     0
  9
$PSTYLEMODE
290
     1
  9
$FINGERPRINTGUID
  2
{69BEB428-F672-4DDA-949C-2607238C0D8C}
  9
$VERSIONGUID
  2
{FAEB1C32-E019-11D5-929B-00C0DF256EC4}
  9
$EXTNAMES
290
     1
  9
$PSVPSCALE
 40
0.0
  9
$OLESTARTUP
290
     0
  0
ENDSEC
  0
SECTION
  2
CLASSES
  0
CLASS
  1
ACDBDICTIONARYWDFLT
  2
AcDbDictionaryWithDefault
  3
ObjectDBX Classes
 90
        0
280
     0
281
     0
  0
CLASS
  1
VISUALSTYLE
  2
AcDbVisualStyle
  3
ObjectDBX Classes
 90
     4095
280
     0
281
     0
  0
CLASS
  1
MATERIAL
  2
AcDbMaterial
  3
ObjectDBX Classes
 90
     1153
280
     0
281
     0
  0
CLASS
  1
ACDBPLACEHOLDER
  2
AcDbPlaceHolder
  3
ObjectDBX Classes
 90
        0
280
     0
281
     0
  0
CLASS
  1
LAYOUT
  2
AcDbLayout
  3
ObjectDBX Classes
 90
        0
280
     0
281
     0
  0
ENDSEC
  0
SECTION
  2
TABLES
  0
TABLE
  2
VPORT
  5
8
330
0
100
AcDbSymbolTable
 70
     1
  0
VPORT
  5
29
330
8
100
AcDbSymbolTableRecord
100
AcDbViewportTableRecord
  2
*Active
 70
     0
 10
0.0
 20
0.0
 11
1.0
 21
1.0
 12
148.5
 22
105.0
 13
0.0
 23
0.0
 14
10.0
 24
10.0
 15
10.0
 25
10.0
 16
0.0
 26
0.0
 36
1.0
 17
0.0
 27
0.0
 37
0.0
 40
210.0
 41
1.4142857143
 42
50.0
 43
0.0
 44
0.0
 50
0.0
 51
0.0
 71
     0
 72
  2000
 73
     1
 74
     3
 75
     0
 76
     0
 77
     0
 78
     0
281
     0
 65
     1
110
0.0
120
0.0
130
0.0
111
1.0
121
0.0
131
0.0
112
0.0
122
1.0
132
0.0
 79
     0
146
0.0
  0
ENDTAB
  0
TABLE
  2
LTYPE
  5
5
330
0
100
AcDbSymbolTable
 70
     6
  0
LTYPE
  5
14
330
5
100
AcDbSymbolTableRecord
100
AcDbLinetypeTableRecord
  2
ByBlock
 70
     0
  3

 72
    65
 73
     0
 40
0.0
  0
LTYPE
  5
15
330
5
100
AcDbSymbolTableRecord
100
AcDbLinetypeTableRecord
  2
ByLayer
 70
     0
  3

 72
    65
 73
     0
 40
0.0
  0
LTYPE
  5
16
330
5
100
AcDbSymbolTableRecord
100
AcDbLinetypeTableRecord
  2
Continuous
 70
     0
  3
Solid line
 72
    65
 73
     0
 40
0.0
  0
LTYPE
  5
3F
330
5
100
AcDbSymbolTableRecord
100
AcDbLinetypeTableRecord
  2
HIDDEN
 70
     0
  3
Hidden __ __ __ __ __ __ __ __ __ __ __ __ __ __
 72
    65
 73
     2
 40
1.905
 49
1.27
 74
     0
 49
-0.635
 74
     0
  0
LTYPE
  5
40
330
5
100
AcDbSymbolTableRecord
100
AcDbLinetypeTableRecord
  2
PHANTOM
 70
     0
  3
Phantom ______  __  __  ______  __  __  ______
 72
    65
 73
     6
 40
12.7
 49
6.35
 74
     0
 49
-1.27
 74
     0
 49
1.27
 74
     0
 49
-1.27
 74
     0
 49
1.27
 74
     0
 49
-1.27
 74
     0
  0
LTYPE
  5
41
330
5
100
AcDbSymbolTableRecord
100
AcDbLinetypeTableRecord
  2
CENTER
 70
     0
  3
Center ____ _ ____ _ ____ _ ____ _ ____ _ ____
 72
    65
 73
     4
 40
10.16
 49
6.35
 74
     0
 49
-1.27
 74
     0
 49
1.27
 74
     0
 49
-1.27
 74
     0
  0
LTYPE
  5
42
330
5
100
AcDbSymbolTableRecord
100
AcDbLinetypeTableRecord
  2
CENTERX2
 70
     0
  3
Center (2x) ________  __  ________  __  _____
 72
    65
 73
     4
 40
20.32
 49
12.7
 74
     0
 49
-2.54
 74
     0
 49
2.54
 74
     0
 49
-2.54
 74
     0
  0
LTYPE
  5
43
330
5
100
AcDbSymbolTableRecord
100
AcDbLinetypeTableRecord
  2
DOT2
 70
     0
  3
Dot (.5x) ........................................
 72
    65
 73
     2
 40
0.635
 49
0.0
 74
     0
 49
-0.635
 74
     0
  0
ENDTAB
  0
TABLE
  2
LAYER
  5
2
330
0
100
AcDbSymbolTable
 70
     5
  0
LAYER
  5
10
330
2
100
AcDbSymbolTableRecord
100
AcDbLayerTableRecord
  2
0
 70
     0
 62
     7
  6
Continuous
370
    -3
390
F
  0
LAYER
  5
44
330
2
100
AcDbSymbolTableRecord
100
AcDbLayerTableRecord
  2
FORMAT
 70
     0
 62
     7
  6
Continuous
370
    -3
390
F
  0
LAYER
  5
45
330
2
100
AcDbSymbolTableRecord
100
AcDbLayerTableRecord
  2
VERMASSUNG
 70
     0
 62
     7
  6
Continuous
370
    -3
390
F
  0
LAYER
  5
46
330
2
100
AcDbSymbolTableRecord
100
AcDbLayerTableRecord
  2
KOPF_DÜNN
 70
     0
 62
     7
  6
Continuous
370
    -3
390
F
  0
LAYER
  5
47
330
2
100
AcDbSymbolTableRecord
100
AcDbLayerTableRecord
  2
KOPF_DICK
 70
     0
 62
     7
  6
Continuous
370
    15
390
F
  0
ENDTAB
  0
TABLE
  2
STYLE
  5
3
330
0
100
AcDbSymbolTable
 70
     2
  0
STYLE
  5
11
330
3
100
AcDbSymbolTableRecord
100
AcDbTextStyleTableRecord
  2
Standard
 70
     0
 40
0.0
 41
1.0
 50
0.0
 71
     0
 42
2.0
  3
txt
  4

  0
STYLE
  5
48
330
3
100
AcDbSymbolTableRecord
100
AcDbTextStyleTableRecord
  2
SLDTEXTSTYLE0
 70
     0
 40
0.0
 41
0.7
 50
0.0
 71
     0
 42
0.2
  3
TXT
  4

  0
ENDTAB
  0
TABLE
  2
VIEW
  5
6
330
0
100
AcDbSymbolTable
 70
     0
  0
ENDTAB
  0
TABLE
  2
UCS
  5
7
330
0
100
AcDbSymbolTable
 70
     0
  0
ENDTAB
  0
TABLE
  2
APPID
  5
9
330
0
100
AcDbSymbolTable
 70
     1
  0
APPID
  5
12
330
9
100
AcDbSymbolTableRecord
100
AcDbRegAppTableRecord
  2
ACAD
 70
     0
  0
ENDTAB
  0
TABLE
  2
DIMSTYLE
  5
A
330
0
100
AcDbSymbolTable
 70
     5
100
AcDbDimStyleTable
  0
DIMSTYLE
105
27
330
A
100
AcDbSymbolTableRecord
100
AcDbDimStyleTableRecord
  2
ISO-25
 70
     0
 41
2.5
 42
0.625
 43
3.75
 44
1.25
 73
     0
 74
     0
 77
     1
 78
     8
140
2.5
141
2.5
143
0.0393700787
147
0.625
171
     3
172
     1
178
     0
271
     2
272
     2
274
     3
278
    44
283
     0
284
     8
340
11
  0
DIMSTYLE
105
1C4
102
{ACAD_REACTORS
330
1C3
330
1D7
330
1E1
330
1EB
330
1F7
102
}
330
A
100
AcDbSymbolTableRecord
100
AcDbDimStyleTableRecord
  2
SLDDIMSTYLE0
 70
     0
 41
3.0
 44
0.0
 45
0.000000001
 73
     0
 74
     0
 77
     1
 78
    12
 79
     3
140
2.0
147
0.5
173
     1
178
     0
271
     2
272
     3
276
     2
284
    12
340
48
  0
DIMSTYLE
105
1CF
102
{ACAD_REACTORS
330
1CE
102
}
330
A
100
AcDbSymbolTableRecord
100
AcDbDimStyleTableRecord
  2
SLDDIMSTYLE1
 70
     0
 41
3.0
 44
0.0
 73
     0
 74
     0
 77
     1
 78
    12
 79
     3
140
2.0
147
0.5
173
     1
178
     0
179
     1
272
     3
276
     2
284
    12
340
48
  0
DIMSTYLE
105
257
102
{ACAD_REACTORS
330
256
102
}
330
A
100
AcDbSymbolTableRecord
100
AcDbDimStyleTableRecord
  2
SLDDIMSTYLE2
 70
     0
 41
3.0
 44
0.0
 73
     0
 74
     0
 77
     1
 78
    12
 79
     3
140
2.0
147
0.5
173
     1
178
     0
179
     2
272
     3
276
     2
284
    12
340
48
  0
DIMSTYLE
105
262
102
{ACAD_REACTORS
330
261
102
}
330
A
100
AcDbSymbolTableRecord
100
AcDbDimStyleTableRecord
  2
SLDDIMSTYLE3
 70
     0
 41
3.0
 44
0.0
 45
0.000000001
 73
     0
 74
     0
 77
     1
 78
    12
 79
     3
140
2.0
147
0.5
172
     1
173
     1
178
     0
271
     2
272
     3
276
     2
284
    12
289
     0
340
48
  0
ENDTAB
  0
TABLE
  2
BLOCK_RECORD
  5
1
330
0
100
AcDbSymbolTable
 70
    10
  0
BLOCK_RECORD
  5
1F
330
1
100
AcDbSymbolTableRecord
100
AcDbBlockTableRecord
  2
*Model_Space
340
22
  0
BLOCK_RECORD
  5
1B
330
1
100
AcDbSymbolTableRecord
100
AcDbBlockTableRecord
  2
*Paper_Space
340
1E
  0
BLOCK_RECORD
  5
23
330
1
100
AcDbSymbolTableRecord
100
AcDbBlockTableRecord
  2
*Paper_Space0
340
26
  0
BLOCK_RECORD
  5
1C5
330
1
100
AcDbSymbolTableRecord
100
AcDbBlockTableRecord
  2
_D
340
0
  0
BLOCK_RECORD
  5
1D0
330
1
100
AcDbSymbolTableRecord
100
AcDbBlockTableRecord
  2
_D_1
340
0
  0
BLOCK_RECORD
  5
1D8
330
1
100
AcDbSymbolTableRecord
100
AcDbBlockTableRecord
  2
_D_2
340
0
  0
BLOCK_RECORD
  5
1E2
330
1
100
AcDbSymbolTableRecord
100
AcDbBlockTableRecord
  2
_D_3
340
0
  0
BLOCK_RECORD
  5
1EC
330
1
100
AcDbSymbolTableRecord
100
AcDbBlockTableRecord
  2
_D_4
340
0
  0
BLOCK_RECORD
  5
1F8
330
1
100
AcDbSymbolTableRecord
100
AcDbBlockTableRecord
  2
_D_5
340
0
  0
BLOCK_RECORD
  5
258
330
1
100
AcDbSymbolTableRecord
100
AcDbBlockTableRecord
  2
_D_6
340
0
  0
BLOCK_RECORD
  5
263
330
1
100
AcDbSymbolTableRecord
100
AcDbBlockTableRecord
  2
_D_7
340
0
  0
BLOCK_RECORD
  5
270
330
1
100
AcDbSymbolTableRecord
100
AcDbBlockTableRecord
  2
SW_CENTERMARKSYMBOL_0
340
0
102
{BLKREFS
331
27B
102
}
  0
ENDTAB
  0
ENDSEC
  0
SECTION
  2
BLOCKS
  0
BLOCK
  5
20
330
1F
100
AcDbEntity
  8
0
100
AcDbBlockBegin
  2
*Model_Space
 70
     0
 10
0.0
 20
0.0
 30
0.0
  3
*Model_Space
  1

  0
ENDBLK
  5
21
330
1F
100
AcDbEntity
  8
0
100
AcDbBlockEnd
  0
BLOCK
  5
1C
330
1B
100
AcDbEntity
 67
     1
  8
0
100
AcDbBlockBegin
  2
*Paper_Space
 70
     0
 10
0.0
 20
0.0
 30
0.0
  3
*Paper_Space
  1

  0
ENDBLK
  5
1D
330
1B
100
AcDbEntity
 67
     1
  8
0
100
AcDbBlockEnd
  0
BLOCK
  5
24
330
23
100
AcDbEntity
  8
0
100
AcDbBlockBegin
  2
*Paper_Space0
 70
     0
 10
0.0
 20
0.0
 30
0.0
  3
*Paper_Space0
  1

  0
ENDBLK
  5
25
330
23
100
AcDbEntity
  8
0
100
AcDbBlockEnd
  0
BLOCK
  5
1C6
330
1C5
100
AcDbEntity
  8
0
100
AcDbBlockBegin
  2
_D
 70
     0
 10
0.0
 20
0.0
 30
0.0
  3
_D
  1

  0
SOLID
  5
1C8
330
1C5
100
AcDbEntity
  8
VERMASSUNG
100
AcDbTrace
 10
278.5174053787
 20
113.4065328501
 30
0.0
 11
278.0674053787
 21
110.4065328501
 31
0.0
 12
278.9674053787
 22
110.4065328501
 32
0.0
 13
278.9674053787
 23
110.4065328501
 33
0.0
  0
SOLID
  5
1C9
330
1C5
100
AcDbEntity
  8
VERMASSUNG
100
AcDbTrace
 10
278.5174053787
 20
91.4065328501
 30
0.0
 11
278.9674053787
 21
94.4065328501
 31
0.0
 12
278.0674053787
 22
94.4065328501
 32
0.0
 13
278.0674053787
 23
94.4065328501
 33
0.0
  0
LINE
  5
1CA
330
1C5
100
AcDbEntity
  8
VERMASSUNG
100
AcDbLine
 10
262.4430591619
 20
113.4065328501
 30
0.0
 11
279.5174053787
 21
113.4065328501
 31
0.0
  0
LINE
  5
1CB
330
1C5
100
AcDbEntity
  8
VERMASSUNG
100
AcDbLine
 10
262.4430591619
 20
91.4065328501
 30
0.0
 11
279.5174053787
 21
91.4065328501
 31
0.0
  0
LINE
  5
1CC
330
1C5
100
AcDbEntity
  8
VERMASSUNG
100
AcDbLine
 10
278.5174053787
 20
113.4065328501
 30
0.0
 11
278.5174053787
 21
91.4065328501
 31
0.0
  0
MTEXT
  5
1CD
330
1C5
100
AcDbEntity
  8
VERMASSUNG
100
AcDbMText
 10
275.9392700156
 20
100.1065327991
 30
0.1
 40
2.0
 41
0.0
 71
     1
 72
     1
  1
22
  7
SLDTEXTSTYLE0
 11
-7.044195017643634E-15
 21
1.0
 31
0.0
 73
     1
 44
1.0
  0
ENDBLK
  5
1C7
330
1C5
100
AcDbEntity
  8
0
100
AcDbBlockEnd
  0
BLOCK
  5
1D1
330
1D0
100
AcDbEntity
  8
0
100
AcDbBlockBegin
  2
_D_1
 70
     0
 10
0.0
 20
0.0
 30
0.0
  3
_D_1
  1

  0
ARC
  5
1D3
330
1D0
100
AcDbEntity
  8
VERMASSUNG
100
AcDbCircle
 10
262.5882463011
 20
91.4065328501
 30
0.0
 40
10.26747157847205
100
AcDbArc
 50
0.0
 51
107.5093669553
  0
SOLID
  5
1D4
330
1D0
100
AcDbEntity
  8
VERMASSUNG
100
AcDbTrace
 10
272.8557178796
 20
91.4065328501
 30
0.0
 11
272.8762068019
 21
94.4400259198
 31
0.0
 12
271.9852826724
 22
94.3125339771
 32
0.0
 13
271.9852826724
 23
94.3125339771
 33
0.0
  0
SOLID
  5
1D5
330
1D0
100
AcDbEntity
  8
VERMASSUNG
100
AcDbTrace
 10
259.4991572123
 20
101.1982896494
 30
0.0
 11
262.5323974757
 21
101.2424881175
 31
0.0
 12
262.3859374734
 22
102.1304911961
 32
0.0
 13
262.3859374734
 23
102.1304911961
 33
0.0
  0
MTEXT
  5
1D6
330
1D0
100
AcDbEntity
  8
VERMASSUNG
100
AcDbMText
 10
266.6345619096
 20
104.3678964931
 30
0.1
 40
2.0
 41
0.0
 71
     1
 72
     1
  1
107.5°
  7
SLDTEXTSTYLE0
 11
0.8064929364690366
 21
-0.5912437259079799
 31
0.0
 73
     1
 44
1.0
  0
ENDBLK
  5
1D2
330
1D0
100
AcDbEntity
  8
0
100
AcDbBlockEnd
  0
BLOCK
  5
1D9
330
1D8
100
AcDbEntity
  8
0
100
AcDbBlockBegin
  2
_D_2
 70
     0
 10
0.0
 20
0.0
 30
0.0
  3
_D_2
  1

  0
SOLID
  5
1DB
330
1D8
100
AcDbEntity
  8
VERMASSUNG
100
AcDbTrace
 10
152.4430591619
 20
79.451908018
 30
0.0
 11
155.4430591619
 21
79.001908018
 31
0.0
 12
155.4430591619
 22
79.901908018
 32
0.0
 13
155.4430591619
 23
79.901908018
 33
0.0
  0
SOLID
  5
1DC
330
1D8
100
AcDbEntity
  8
VERMASSUNG
100
AcDbTrace
 10
262.4430591619
 20
79.451908018
 30
0.0
 11
259.4430591619
 21
79.901908018
 31
0.0
 12
259.4430591619
 22
79.001908018
 32
0.0
 13
259.4430591619
 23
79.001908018
 33
0.0
  0
LINE
  5
1DD
330
1D8
100
AcDbEntity
  8
VERMASSUNG
100
AcDbLine
 10
152.4430591619
 20
93.7065328501
 30
0.0
 11
152.4430591619
 21
78.451908018
 31
0.0
  0
LINE
  5
1DE
330
1D8
100
AcDbEntity
  8
VERMASSUNG
100
AcDbLine
 10
262.4430591619
 20
91.4065328501
 30
0.0
 11
262.4430591619
 21
78.451908018
 31
0.0
  0
LINE
  5
1DF
330
1D8
100
AcDbEntity
  8
VERMASSUNG
100
AcDbLine
 10
152.4430591619
 20
79.451908018
 30
0.0
 11
262.4430591619
 21
79.451908018
 31
0.0
  0
MTEXT
  5
1E0
330
1D8
100
AcDbEntity
  8
VERMASSUNG
100
AcDbMText
 10
204.843058922
 20
82.0300433811
 30
0.1
 40
2.0
 41
0.0
 71
     1
 72
     1
  1
110
  7
SLDTEXTSTYLE0
 73
     1
 44
1.0
  0
ENDBLK
  5
1DA
330
1D8
100
AcDbEntity
  8
0
100
AcDbBlockEnd
  0
BLOCK
  5
1E3
330
1E2
100
AcDbEntity
  8
0
100
AcDbBlockBegin
  2
_D_3
 70
     0
 10
0.0
 20
0.0
 30
0.0
  3
_D_3
  1

  0
SOLID
  5
1E5
330
1E2
100
AcDbEntity
  8
VERMASSUNG
100
AcDbTrace
 10
262.4430591619
 20
71.446547644
 30
0.0
 11
259.4430591619
 21
71.896547644
 31
0.0
 12
259.4430591619
 22
70.996547644
 32
0.0
 13
259.4430591619
 23
70.996547644
 33
0.0
  0
SOLID
  5
1E6
330
1E2
100
AcDbEntity
  8
VERMASSUNG
100
AcDbTrace
 10
128.4430591619
 20
71.446547644
 30
0.0
 11
131.4430591619
 21
70.996547644
 31
0.0
 12
131.4430591619
 22
71.896547644
 32
0.0
 13
131.4430591619
 23
71.896547644
 33
0.0
  0
LINE
  5
1E7
330
1E2
100
AcDbEntity
  8
VERMASSUNG
100
AcDbLine
 10
262.4430591619
 20
91.4065328501
 30
0.0
 11
262.4430591619
 21
70.446547644
 31
0.0
  0
LINE
  5
1E8
330
1E2
100
AcDbEntity
  8
VERMASSUNG
100
AcDbLine
 10
128.4430591619
 20
100.775027868
 30
0.0
 11
128.4430591619
 21
70.446547644
 31
0.0
  0
LINE
  5
1E9
330
1E2
100
AcDbEntity
  8
VERMASSUNG
100
AcDbLine
 10
262.4430591619
 20
71.446547644
 30
0.0
 11
128.4430591619
 21
71.446547644
 31
0.0
  0
MTEXT
  5
1EA
330
1E2
100
AcDbEntity
  8
VERMASSUNG
100
AcDbMText
 10
192.543058966
 20
74.0246830071
 30
0.1
 40
2.0
 41
0.0
 71
     1
 72
     1
  1
134
  7
SLDTEXTSTYLE0
 73
     1
 44
1.0
  0
ENDBLK
  5
1E4
330
1E2
100
AcDbEntity
  8
0
100
AcDbBlockEnd
  0
BLOCK
  5
1ED
330
1EC
100
AcDbEntity
  8
0
100
AcDbBlockBegin
  2
_D_4
 70
     0
 10
0.0
 20
0.0
 30
0.0
  3
_D_4
  1

  0
SOLID
  5
1EF
330
1EC
100
AcDbEntity
  8
VERMASSUNG
100
AcDbTrace
 10
121.5771054959
 20
133.4065328501
 30
0.0
 11
121.1271054959
 21
130.4065328501
 31
0.0
 12
122.0271054959
 22
130.4065328501
 32
0.0
 13
122.0271054959
 23
130.4065328501
 33
0.0
  0
SOLID
  5
1F0
330
1EC
100
AcDbEntity
  8
VERMASSUNG
100
AcDbTrace
 10
121.5771054959
 20
93.4065328501
 30
0.0
 11
122.0271054959
 21
96.4065328501
 31
0.0
 12
121.1271054959
 22
96.4065328501
 32
0.0
 13
121.1271054959
 23
96.4065328501
 33
0.0
  0
LINE
  5
1F1
330
1EC
100
AcDbEntity
  8
VERMASSUNG
100
AcDbLine
 10
152.7430591619
 20
133.4065328501
 30
0.0
 11
120.5771054959
 21
133.4065328501
 31
0.0
  0
LINE
  5
1F2
330
1EC
100
AcDbEntity
  8
VERMASSUNG
100
AcDbLine
 10
152.7430591619
 20
93.4065328501
 30
0.0
 11
120.5771054959
 21
93.4065328501
 31
0.0
  0
LINE
  5
1F3
330
1EC
100
AcDbEntity
  8
VERMASSUNG
100
AcDbLine
 10
121.5771054959
 20
133.4065328501
 30
0.0
 11
121.5771054959
 21
93.4065328501
 31
0.0
  0
MTEXT
  5
1F4
330
1EC
100
AcDbEntity
  8
VERMASSUNG
100
AcDbMText
 10
118.7989700068
 20
106.9015329107
 30
0.1
 40
2.0
 41
0.0
 71
     1
 72
     1
  1
PSC
  7
SLDTEXTSTYLE0
 11
-7.044195017643634E-15
 21
1.0
 31
0.0
 73
     1
 44
1.0
  0
MTEXT
  5
1F5
330
1EC
100
AcDbEntity
  8
VERMASSUNG
100
AcDbMText
 10
118.9989700163
 20
111.5015330128
 30
0.1
 40
2.0
 41
0.0
 71
     1
 72
     1
  1
%%c
  7
SLDTEXTSTYLE0
 11
-7.044195017643634E-15
 21
1.0
 31
0.0
 73
     1
 44
1.0
  0
MTEXT
  5
1F6
330
1EC
100
AcDbEntity
  8
VERMASSUNG
100
AcDbMText
 10
118.7989700068
 20
115.1115334928
 30
0.1
 40
2.0
 41
0.0
 71
     1
 72
     1
  1
40
  7
SLDTEXTSTYLE0
 11
-7.044195017643634E-15
 21
1.0
 31
0.0
 73
     1
 44
1.0
  0
ENDBLK
  5
1EE
330
1EC
100
AcDbEntity
  8
0
100
AcDbBlockEnd
  0
BLOCK
  5
1F9
330
1F8
100
AcDbEntity
  8
0
100
AcDbBlockBegin
  2
_D_5
 70
     0
 10
0.0
 20
0.0
 30
0.0
  3
_D_5
  1

  0
SOLID
  5
1FB
330
1F8
100
AcDbEntity
  8
VERMASSUNG
100
AcDbTrace
 10
189.0569643957
 20
97.4065328501
 30
0.0
 11
189.5069643957
 21
100.4065328501
 31
0.0
 12
188.6069643957
 22
100.4065328501
 32
0.0
 13
188.6069643957
 23
100.4065328501
 33
0.0
  0
SOLID
  5
1FC
330
1F8
100
AcDbEntity
  8
VERMASSUNG
100
AcDbTrace
 10
189.0569643957
 20
129.4065328501
 30
0.0
 11
188.6069643957
 21
126.4065328501
 31
0.0
 12
189.5069643957
 22
126.4065328501
 32
0.0
 13
189.5069643957
 23
126.4065328501
 33
0.0
  0
LINE
  5
1FD
330
1F8
100
AcDbEntity
  8
VERMASSUNG
100
AcDbLine
 10
189.0569643957
 20
97.4065328501
 30
0.0
 11
189.0569643957
 21
129.4065328501
 31
0.0
  0
MTEXT
  5
1FE
330
1F8
100
AcDbEntity
  8
VERMASSUNG
100
AcDbMText
 10
186.4788289162
 20
100.5936674235
 30
0.1
 40
2.0
 41
0.0
 71
     1
 72
     1
  1
%%c
  7
SLDTEXTSTYLE0
 11
6.123233995736766E-17
 21
1.0
 31
0.0
 73
     1
 44
1.0
  0
MTEXT
  5
1FF
330
1F8
100
AcDbEntity
  8
VERMASSUNG
100
AcDbMText
 10
186.2788289067
 20
104.2036674378
 30
0.1
 40
2.0
 41
0.0
 71
     1
 72
     1
  1
32
  7
SLDTEXTSTYLE0
 11
6.123233995736766E-17
 21
1.0
 31
0.0
 73
     1
 44
1.0
  0
ENDBLK
  5
1FA
330
1F8
100
AcDbEntity
  8
0
100
AcDbBlockEnd
  0
BLOCK
  5
259
330
258
100
AcDbEntity
  8
0
100
AcDbBlockBegin
  2
_D_6
 70
     0
 10
0.0
 20
0.0
 30
0.0
  3
_D_6
  1

  0
ARC
  5
25B
330
258
100
AcDbEntity
  8
VERMASSUNG
100
AcDbCircle
 10
72.0784997583
 20
91.5622914043
 30
0.0
 40
47.37162542029172
100
AcDbArc
 50
90.0
 51
102.0
  0
SOLID
  5
25C
330
258
100
AcDbEntity
  8
VERMASSUNG
100
AcDbTrace
 10
72.0784997583
 20
138.9339168246
 30
0.0
 11
69.0657719263
 21
139.2888407742
 31
0.0
 12
69.0942272491
 22
138.389290723
 32
0.0
 13
69.0942272491
 23
138.389290723
 33
0.0
  0
SOLID
  5
25D
330
258
100
AcDbEntity
  8
VERMASSUNG
100
AcDbTrace
 10
62.2293850204
 20
137.898733152
 30
0.0
 11
65.2616781489
 21
137.9864735807
 31
0.0
 12
65.1024846825
 22
138.8722824993
 32
0.0
 13
65.1024846825
 23
138.8722824993
 33
0.0
  0
LINE
  5
25E
330
258
100
AcDbEntity
  8
VERMASSUNG
100
AcDbLine
 10
72.0784997583
 20
135.9065328501
 30
0.0
 11
72.0784997583
 21
139.9339168246
 31
0.0
  0
LINE
  5
25F
330
258
100
AcDbEntity
  8
VERMASSUNG
100
AcDbLine
 10
62.2975927863
 20
137.5778408432
 30
0.0
 11
62.0214733296
 21
138.8768807528
 31
0.0
  0
MTEXT
  5
260
330
258
100
AcDbEntity
  8
VERMASSUNG
100
AcDbMText
 10
64.1721188359
 20
140.9561953137
 30
0.1
 40
2.0
 41
0.0
 71
     1
 72
     1
  1
12°
  7
SLDTEXTSTYLE0
 11
0.9945218953682723
 21
0.1045284632676638
 31
0.0
 73
     1
 44
1.0
  0
ENDBLK
  5
25A
330
258
100
AcDbEntity
  8
0
100
AcDbBlockEnd
  0
BLOCK
  5
264
330
263
100
AcDbEntity
  8
0
100
AcDbBlockBegin
  2
_D_7
 70
     0
 10
0.0
 20
0.0
 30
0.0
  3
_D_7
  1

  0
SOLID
  5
266
330
263
100
AcDbEntity
  8
VERMASSUNG
100
AcDbTrace
 10
84.4102653613
 20
127.3080069204
 30
0.0
 11
86.6143088009
 21
129.3923995217
 31
0.0
 12
85.9057516027
 22
129.9473289739
 32
0.0
 13
85.9057516027
 23
129.9473289739
 33
0.0
  0
SOLID
  5
267
330
263
100
AcDbEntity
  8
VERMASSUNG
100
AcDbTrace
 10
59.7467341554
 20
95.8165758883
 30
0.0
 11
57.5426907158
 21
93.7321832869
 31
0.0
 12
58.251247914
 22
93.1772538348
 32
0.0
 13
58.251247914
 23
93.1772538348
 33
0.0
  0
LINE
  5
268
330
263
100
AcDbEntity
  8
VERMASSUNG
100
AcDbLine
 10
84.4102653613
 20
127.3080069204
 30
0.0
 11
83.6229795855
 21
127.9245952006
 31
0.0
  0
LINE
  5
269
330
263
100
AcDbEntity
  8
VERMASSUNG
100
AcDbLine
 10
59.7467341554
 20
95.8165758883
 30
0.0
 11
58.9594483796
 21
96.4331641684
 31
0.0
  0
LINE
  5
26A
330
263
100
AcDbEntity
  8
VERMASSUNG
100
AcDbLine
 10
84.4102653613
 20
127.3080069204
 30
0.0
 11
88.1097950422
 21
132.0317215752
 31
0.0
  0
LINE
  5
26B
330
263
100
AcDbEntity
  8
VERMASSUNG
100
AcDbLine
 10
84.4102653613
 20
127.3080069204
 30
0.0
 11
59.7467341554
 21
95.8165758883
 31
0.0
  0
LINE
  5
26C
330
263
100
AcDbEntity
  8
VERMASSUNG
100
AcDbLine
 10
59.7467341554
 20
95.8165758883
 30
0.0
 11
47.7036169974
 21
80.4394188127
 31
0.0
  0
MTEXT
  5
26D
330
263
100
AcDbEntity
  8
VERMASSUNG
100
AcDbMText
 10
45.6738876062
 20
82.029066934
 30
0.1
 40
2.0
 41
0.0
 71
     1
 72
     1
  1
%%c
  7
SLDTEXTSTYLE0
 11
0.6165882801492147
 21
0.7872857758035728
 31
0.0
 73
     1
 44
1.0
  0
MTEXT
  5
26E
330
263
100
AcDbEntity
  8
VERMASSUNG
100
AcDbMText
 10
47.7423141438
 20
84.9944862578
 30
0.1
 40
2.0
 41
0.0
 71
     1
 72
     1
  1
40
  7
SLDTEXTSTYLE0
 11
0.6165882801492147
 21
0.7872857758035728
 31
0.0
 73
     1
 44
1.0
  0
MTEXT
  5
26F
330
263
100
AcDbEntity
  8
VERMASSUNG
100
AcDbMText
 10
51.4341366117
 20
89.7083600199
 30
0.1
 40
2.0
 41
0.0
 71
     1
 72
     1
  1
min.
  7
SLDTEXTSTYLE0
 11
0.6165882801492147
 21
0.7872857758035728
 31
0.0
 73
     1
 44
1.0
  0
ENDBLK
  5
265
330
263
100
AcDbEntity
  8
0
100
AcDbBlockEnd
  0
BLOCK
  5
271
330
270
100
AcDbEntity
  8
0
100
AcDbBlockBegin
  2
SW_CENTERMARKSYMBOL_0
 70
     0
 10
0.0
 20
0.0
 30
0.0
  3
SW_CENTERMARKSYMBOL_0
  1

  0
LINE
  5
273
330
270
100
AcDbEntity
  8
VERMASSUNG
 62
     0
100
AcDbLine
 10
0.0
 20
0.0
 30
0.0
 11
0.0
 21
2.5
 31
0.0
  0
LINE
  5
274
330
270
100
AcDbEntity
  8
VERMASSUNG
 62
     0
100
AcDbLine
 10
0.0
 20
0.0
 30
0.0
 11
-2.5
 21
0.0
 31
0.0
  0
LINE
  5
275
330
270
100
AcDbEntity
  8
VERMASSUNG
 62
     0
100
AcDbLine
 10
0.0
 20
0.0
 30
0.0
 11
0.0
 21
-2.5
 31
0.0
  0
LINE
  5
276
330
270
100
AcDbEntity
  8
VERMASSUNG
 62
     0
100
AcDbLine
 10
0.0
 20
0.0
 30
0.0
 11
2.5
 21
0.0
 31
0.0
  0
LINE
  5
277
330
270
100
AcDbEntity
  8
VERMASSUNG
 62
     0
100
AcDbLine
 10
0.0
 20
5.0
 30
0.0
 11
0.0
 21
22.5
 31
0.0
  0
LINE
  5
278
330
270
100
AcDbEntity
  8
VERMASSUNG
 62
     0
100
AcDbLine
 10
-5.0
 20
0.0
 30
0.0
 11
-22.5
 21
0.0
 31
0.0
  0
LINE
  5
279
330
270
100
AcDbEntity
  8
VERMASSUNG
 62
     0
100
AcDbLine
 10
0.0
 20
-5.0
 30
0.0
 11
0.0
 21
-22.5
 31
0.0
  0
LINE
  5
27A
330
270
100
AcDbEntity
  8
VERMASSUNG
 62
     0
100
AcDbLine
 10
5.0
 20
0.0
 30
0.0
 11
22.5
 21
0.0
 31
0.0
  0
ENDBLK
  5
272
330
270
100
AcDbEntity
  8
0
100
AcDbBlockEnd
  0
ENDSEC
  0
SECTION
  2
ENTITIES
  0
MTEXT
  5
49
330
1F
100
AcDbEntity
  8
KOPF_DÜNN
100
AcDbMText
 10
13.8892156294
 20
23.8442973028
 30
0.0
 40
3.0
 41
0.0
 71
     1
 72
     1
  1
PS4.PDF.LQB.110
  7
SLDTEXTSTYLE0
 73
     1
 44
1.0
  0
MTEXT
  5
4A
330
1F
100
AcDbEntity
  8
VERMASSUNG
100
AcDbMText
 10
13.9329988022
 20
28.8834360957
 30
0.0
 40
3.0
 41
0.0
 71
     1
 72
     1
  1
Bohrstange links_Boring bar left
  7
SLDTEXTSTYLE0
 73
     1
 44
1.0
  0
MTEXT
  5
4B
330
1F
100
AcDbEntity
  8
VERMASSUNG
100
AcDbMText
 10
98.8601118557
 20
13.8365368179
 30
0.0
 40
2.0
 41
0.0
 71
     1
 72
     1
  1
Datum: 08.06.2012
  7
SLDTEXTSTYLE0
 73
     1
 44
1.0
  0
MTEXT
  5
4C
330
1F
100
AcDbEntity
  8
VERMASSUNG
100
AcDbMText
 10
13.933048693
 20
18.0482802738
 30
0.0
 40
2.0
 41
0.0
 71
     1
 72
     1
  1
PSC ø40 / Wp.: DN..15 06..
  7
SLDTEXTSTYLE0
 73
     1
 44
1.0
  0
MTEXT
  5
4D
330
1F
100
AcDbEntity
  8
VERMASSUNG
100
AcDbMText
 10
13.9808475933
 20
13.9090973692
 30
0.0
 40
2.0
 41
0.0
 71
     1
 72
     1
  1
Gewicht: 699g
  7
SLDTEXTSTYLE0
 73
     1
 44
1.0
  0
LINE
  5
4E
330
1F
100
AcDbEntity
  8
0
  6
Continuous
 62
     7
370
    15
100
AcDbLine
 10
152.7430591762
 20
93.4065332971
 30
0.0
 11
171.8430597341
 21
93.4065332971
 31
0.0
  0
LINE
  5
4F
330
1F
100
AcDbEntity
  8
0
  6
Continuous
 62
     7
370
    15
100
AcDbLine
 10
171.8430597341
 20
133.4065324031
 30
0.0
 11
152.7430591762
 21
133.4065324031
 31
0.0
  0
ARC
  5
50
330
1F
100
AcDbEntity
  8
0
  6
Continuous
 62
     7
370
    15
100
AcDbCircle
 10
171.8430591619
 20
94.0065328501
 30
0.0
 40
0.5999999999999943
100
AcDbArc
 50
270.0
 51
0.0
  0
ARC
  5
51
330
1F
100
AcDbEntity
  8
0
  6
Continuous
 62
     7
370
    15
100
AcDbCircle
 10
171.8430591619
 20
132.8065328501
 30
0.0
 40
0.5999999999999943
100
AcDbArc
 50
0.0
 51
90.0
  0
ARC
  5
52
330
1F
100
AcDbEntity
  8
0
  6
Continuous
 62
     7
370
    15
100
AcDbCircle
 10
152.7430591619
 20
93.7065328501
 30
0.0
 40
0.2999999999999972
100
AcDbArc
 50
180.0
 51
270.0
  0
ARC
  5
53
330
1F
100
AcDbEntity
  8
0
  6
Continuous
 62
     7
370
    15
100
AcDbCircle
 10
152.7430591619
 20
133.1065328501
 30
0.0
 40
0.2999999999999829
100
AcDbArc
 50
90.0
 51
180.0
  0
ARC
  5
54
330
1F
100
AcDbEntity
  8
0
  6
Continuous
 62
     7
370
    15
100
AcDbCircle
 10
174.4430591619
 20
95.4065328501
 30
0.0
 40
2.0
100
AcDbArc
 50
90.0
 51
180.0
  0
ARC
  5
55
330
1F
100
AcDbEntity
  8
0
  6
Continuous
 62
     7
370
    15
100
AcDbCircle
 10
174.4430591619
 20
131.4065328501
 30
0.0
 40
2.0
100
AcDbArc
 50
180.0
 51
270.0
  0
LINE
  5
56
330
1F
100
AcDbEntity
  8
0
  6
Continuous
 62
     7
370
    15
100
AcDbLine
 10
174.4430590427
 20
97.4065320901
 30
0.0
 11
236.0288430011
 21
97.4065320901
 31
0.0
  0
LINE
  5
57
330
1F
100
AcDbEntity
  8
0
  6
Continuous
 62
     7
370
    15
100
AcDbLine
 10
236.0288430011
 20
129.4065336101
 30
0.0
 11
174.4430590427
 21
129.4065336101
 31
0.0
  0
LWPOLYLINE
  5
58
330
1F
100
AcDbEntity
  8
0
  6
Continuous
 62
     7
370
    15
100
AcDbPolyline
 90
        3
 70
   128
 43
0.0
 10
152.243059167
 20
99.3167128749
 10
152.3685141022
 20
99.2484106086
 10
152.4430591619
 20
99.1956726052
  0
LWPOLYLINE
  5
59
330
1F
100
AcDbEntity
  8
0
  6
Continuous
 62
     7
370
    15
100
AcDbPolyline
 90
        3
 70
   128
 43
0.0
 10
152.4430591619
 20
127.617393095
 10
152.3685141022
 20
127.5646550916
 10
152.243059167
 20
127.4963528253
  0
ARC
  5
5A
330
1F
100
AcDbEntity
  8
0
  6
Continuous
 62
     7
370
    15
100
AcDbCircle
 10
236.0288455995
 20
96.4065328501
 30
0.0
 40
1.0
100
AcDbArc
 50
45.0
 51
90.0
  0
ARC
  5
5B
330
1F
100
AcDbEntity
  8
0
  6
Continuous
 62
     7
370
    15
100
AcDbCircle
 10
236.0288455995
 20
130.4065328501
 30
0.0
 40
1.0
100
AcDbArc
 50
270.0
 51
315.0
  0
LINE
  5
5C
330
1F
100
AcDbEntity
  8
0
  6
Continuous
 62
     7
370
    15
100
AcDbLine
 10
249.657445029
 20
129.9065327607
 30
0.0
 11
236.9430590427
 21
129.9065327607
 31
0.0
  0
LINE
  5
5D
330
1F
100
AcDbEntity
  8
0
  6
Continuous
 62
     7
370
    15
100
AcDbLine
 10
236.9430590427
 20
129.9065327607
 30
0.0
 11
236.7359552539
 21
129.6994252465
 31
0.0
  0
LINE
  5
5E
330
1F
100
AcDbEntity
  8
0
  6
Continuous
 62
     7
370
    15
100
AcDbLine
 10
236.7359552539
 20
97.1136404536
 30
0.0
 11
237.3243425048
 21
96.5252494775
 31
0.0
  0
LINE
  5
5F
330
1F
100
AcDbEntity
  8
0
  6
Continuous
 62
     7
370
    15
100
AcDbLine
 10
257.3695261038
 20
106.9114799015
 30
0.0
 11
257.2404298937
 21
107.1668527424
 31
0.0
  0
LINE
  5
60
330
1F
100
AcDbEntity
  8
0
  6
Continuous
 62
     7
370
    15
100
AcDbLine
 10
258.1485290086
 20
105.4629128761
 30
0.0
 11
257.484779135
 21
106.7759193815
 31
0.0
  0
LINE
  5
61
330
1F
100
AcDbEntity
  8
0
  6
Continuous
 62
     7
370
    15
100
AcDbLine
 10
247.8926111019
 20
95.7675366066
 30
0.0
 11
247.9389239109
 21
95.6759261302
 31
0.0
  0
LINE
  5
62
330
1F
100
AcDbEntity
  8
0
  6
Continuous
 62
     7
370
    15
100
AcDbLine
 10
250.4780072725
 20
100.54017644
 30
0.0
 11
250.668436662
 21
100.181912478
 31
0.0
  0
LINE
  5
63
330
1F
100
AcDbEntity
  8
0
  6
Continuous
 62
     7
370
    15
100
AcDbLine
 10
254.8204664147
 20
102.384348806
 30
0.0
 11
254.7750327742
 21
102.4698097594
 31
0.0
  0
SPLINE
  5
64
330
1F
100
AcDbEntity
  8
0
  6
Continuous
 62
     7
370
    15
100
AcDbSpline
210
0.0
220
0.0
230
1.0
 70
     8
 71
     3
 72
    12
 73
     8
 74
     0
 42
0.00000001
 43
0.00000001
 12
1.0
 22
0.0
 32
0.0
 13
1.0
 23
0.0
 33
0.0
 40
0.0
 40
0.0
 40
0.0
 40
0.0
 40
0.25
 40
0.25
 40
0.5
 40
0.5
 40
1.0
 40
1.0
 40
1.0
 40
1.0
 10
159.3749611639184
 20
119.2357458457455
 30
0.0
 10
159.3374492778738
 20
119.2357458457455
 30
0.0
 10
159.3021619301691
 20
119.2505506600322
 30
0.0
 10
159.2432320819306
 20
119.2941425331581
 30
0.0
 10
159.2197063554616
 20
119.3216559592441
 30
0.0
 10
159.1594475676935
 20
119.4107876913577
 30
0.0
 10
159.1338528054042
 20
119.4771735419755
 30
0.0
 10
159.1151535427831
 20
119.5447779771528
 30
0.0
  0
LINE
  5
65
330
1F
100
AcDbEntity
  8
0
  6
Continuous
 62
     7
370
    15
100
AcDbLine
 10
161.5111570811
 20
119.2357460372
 30
0.0
 11
159.3749610713
 21
119.2357460372
 31
0.0
  0
SPLINE
  5
66
330
1F
100
AcDbEntity
  8
0
  6
Continuous
 62
     7
370
    15
100
AcDbSpline
210
0.0
220
0.0
230
1.0
 70
     8
 71
     3
 72
    12
 73
     8
 74
     0
 42
0.00000001
 43
0.00000001
 12
1.0
 22
0.0
 32
0.0
 13
1.0
 23
0.0
 33
0.0
 40
0.0
 40
0.0
 40
0.0
 40
0.0
 40
0.5000000000000006
 40
0.5000000000000006
 40
0.7500000000000002
 40
0.7500000000000002
 40
1.0
 40
1.0
 40
1.0
 40
1.0
 10
161.7709647810554
 20
119.5447779771529
 30
0.0
 10
161.7522715479249
 20
119.4771953407125
 30
0.0
 10
161.7266162505132
 20
119.4107127712351
 30
0.0
 10
161.6664556278267
 20
119.3217176883375
 30
0.0
 10
161.6423833160724
 20
119.2937157913384
 30
0.0
 10
161.5840017957218
 20
119.2506393906732
 30
0.0
 10
161.5485329680688
 20
119.2357458457455
 30
0.0
 10
161.51115715992
 20
119.2357458457455
 30
0.0
  0
ELLIPSE
  5
67
330
1F
100
AcDbEntity
  8
0
  6
Continuous
 62
     7
370
    15
100
AcDbEllipse
 10
151.4941299895
 20
113.4065328501
 30
0.0
 11
9.367417879781694
 21
19.74174915274993
 31
0.0
210
0.0
220
0.0
230
1.0
 40
0.3419987131
 41
5.185211263708394
 42
6.132113578252555
  0
SPLINE
  5
68
330
1F
100
AcDbEntity
  8
0
  6
Continuous
 62
     7
370
    15
100
AcDbSpline
210
0.0
220
0.0
230
1.0
 70
     8
 71
     3
 72
    12
 73
     8
 74
     0
 42
0.00000001
 43
0.00000001
 12
1.0
 22
0.0
 32
0.0
 13
1.0
 23
0.0
 33
0.0
 40
0.0
 40
0.0
 40
0.0
 40
0.0
 40
0.249999999999997
 40
0.249999999999997
 40
0.499999999999994
 40
0.499999999999994
 40
1.0
 40
1.0
 40
1.0
 40
1.0
 10
161.51115715992
 20
132.5381892303272
 30
0.0
 10
161.5486690459647
 20
132.5381892303272
 30
0.0
 10
161.5839563936695
 20
132.5336856860648
 30
0.0
 10
161.6428862419079
 20
132.5203124866114
 30
0.0
 10
161.6664119683769
 20
132.5118275840403
 30
0.0
 10
161.726670756145
 20
132.4840797802057
 30
0.0
 10
161.7522655184343
 20
132.4630899164653
 30
0.0
 10
161.7709647810554
 20
132.4412891332758
 30
0.0
  0
LINE
  5
69
330
1F
100
AcDbEntity
  8
0
  6
Continuous
 62
     7
370
    15
100
AcDbLine
 10
159.3749610713
 20
132.5381895862
 30
0.0
 11
161.5111570811
 21
132.5381895862
 31
0.0
  0
SPLINE
  5
6A
330
1F
100
AcDbEntity
  8
0
  6
Continuous
 62
     7
370
    15
100
AcDbSpline
210
0.0
220
0.0
230
1.0
 70
     8
 71
     3
 72
    12
 73
     8
 74
     0
 42
0.00000001
 43
0.00000001
 12
1.0
 22
0.0
 32
0.0
 13
1.0
 23
0.0
 33
0.0
 40
0.0
 40
0.0
 40
0.0
 40
0.0
 40
0.4999999999999971
 40
0.4999999999999971
 40
0.7499999999999986
 40
0.7499999999999986
 40
1.0
 40
1.0
 40
1.0
 40
1.0
 10
159.1151535427831
 20
132.4412891332758
 30
0.0
 10
159.1338467759135
 20
132.4630828869038
 30
0.0
 10
159.1595020733253
 20
132.4841030486134
 30
0.0
 10
159.2196626960118
 20
132.5118083945771
 30
0.0
 10
159.2437350077661
 20
132.5204436107705
 30
0.0
 10
159.3021165281166
 20
132.5336582559971
 30
0.0
 10
159.3375853557697
 20
132.5381892303272
 30
0.0
 10
159.3749611639184
 20
132.5381892303272
 30
0.0
  0
ELLIPSE
  5
6B
330
1F
100
AcDbEntity
  8
0
  6
Continuous
 62
     7
370
    15
100
AcDbEllipse
 10
169.3919883344
 20
113.4065328501
 30
0.0
 11
-9.367417879781557
 21
19.74174915274996
 31
0.0
210
0.0
220
0.0
230
1.0
 40
0.3419987131
 41
0.1510717289270748
 42
1.097974043471208
  0
SPLINE
  5
6C
330
1F
100
AcDbEntity
  8
0
  6
Continuous
 62
     7
370
    15
100
AcDbSpline
210
0.0
220
0.0
230
1.0
 70
     8
 71
     3
 72
    12
 73
     8
 74
     0
 42
0.00000001
 43
0.00000001
 12
1.0
 22
0.0
 32
0.0
 13
1.0
 23
0.0
 33
0.0
 40
0.0
 40
0.0
 40
0.0
 40
0.0
 40
0.25
 40
0.25
 40
0.5
 40
0.5
 40
1.0
 40
1.0
 40
1.0
 40
1.0
 10
159.3749611639184
 20
94.27487646986054
 30
0.0
 10
159.3374603410407
 20
94.27487646986054
 30
0.0
 10
159.3021819370047
 20
94.2793774377237
 30
0.0
 10
159.2432642169523
 20
94.29274395894102
 30
0.0
 10
159.2197408355539
 20
94.30122521918587
 30
0.0
 10
159.159485251088
 20
94.32896261486377
 30
0.0
 10
159.1339635986769
 20
94.34984661391682
 30
0.0
 10
159.1151535427831
 20
94.37177656691199
 30
0.0
  0
LINE
  5
6D
330
1F
100
AcDbEntity
  8
0
  6
Continuous
 62
     7
370
    15
100
AcDbLine
 10
161.5111570811
 20
94.274876114
 30
0.0
 11
159.3749610713
 21
94.274876114
 31
0.0
  0
SPLINE
  5
6E
330
1F
100
AcDbEntity
  8
0
  6
Continuous
 62
     7
370
    15
100
AcDbSpline
210
0.0
220
0.0
230
1.0
 70
     8
 71
     3
 72
    12
 73
     8
 74
     0
 42
0.00000001
 43
0.00000001
 12
1.0
 22
0.0
 32
0.0
 13
1.0
 23
0.0
 33
0.0
 40
0.0
 40
0.0
 40
0.0
 40
0.0
 40
0.4999999999999969
 40
0.4999999999999969
 40
0.7499999999999984
 40
0.7499999999999984
 40
1.0
 40
1.0
 40
1.0
 40
1.0
 10
161.7709647810554
 20
94.37177656691199
 30
0.0
 10
161.7521615482037
 20
94.34985456865093
 30
0.0
 10
161.7266248891845
 20
94.32896076064098
 30
0.0
 10
161.666398715236
 20
94.30123403452323
 30
0.0
 10
161.6424726378361
 20
94.29266090114777
 30
0.0
 10
161.5844117176547
 20
94.27948179534022
 30
0.0
 10
161.5486100190288
 20
94.27487646986054
 30
0.0
 10
161.51115715992
 20
94.27487646986054
 30
0.0
  0
ELLIPSE
  5
6F
330
1F
100
AcDbEntity
  8
0
  6
Continuous
 62
     7
370
    15
100
AcDbEllipse
 10
151.4941299895
 20
113.4065328501
 30
0.0
 11
-9.367417879781783
 21
19.74174915274993
 31
0.0
210
0.0
220
0.0
230
1.0
 40
0.3419987131
 41
3.292664382516894
 42
4.239566697060996
  0
SPLINE
  5
70
330
1F
100
AcDbEntity
  8
0
  6
Continuous
 62
     7
370
    15
100
AcDbSpline
210
0.0
220
0.0
230
1.0
 70
     8
 71
     3
 72
    12
 73
     8
 74
     0
 42
0.00000001
 43
0.00000001
 12
1.0
 22
0.0
 32
0.0
 13
1.0
 23
0.0
 33
0.0
 40
0.0
 40
0.0
 40
0.0
 40
0.0
 40
0.2500000000000004
 40
0.2500000000000004
 40
0.5000000000000009
 40
0.5000000000000009
 40
1.0
 40
1.0
 40
1.0
 40
1.0
 10
161.51115715992
 20
107.5773198544422
 30
0.0
 10
161.5486579827978
 20
107.5773198544422
 30
0.0
 10
161.5839363868338
 20
107.5625235166891
 30
0.0
 10
161.6428541068862
 20
107.51895325553
 30
0.0
 10
161.6663774882846
 20
107.4914514570284
 30
0.0
 10
161.7266330727505
 20
107.4023522937854
 30
0.0
 10
161.7521547251616
 20
107.336292715003
 30
0.0
 10
161.7709647810554
 20
107.2682877230348
 30
0.0
  0
LINE
  5
71
330
1F
100
AcDbEntity
  8
0
  6
Continuous
 62
     7
370
    15
100
AcDbLine
 10
159.3749610713
 20
107.577319663
 30
0.0
 11
161.5111570811
 21
107.577319663
 31
0.0
  0
SPLINE
  5
72
330
1F
100
AcDbEntity
  8
0
  6
Continuous
 62
     7
370
    15
100
AcDbSpline
210
0.0
220
0.0
230
1.0
 70
     8
 71
     3
 72
    12
 73
     8
 74
     0
 42
0.00000001
 43
0.00000001
 12
1.0
 22
0.0
 32
0.0
 13
1.0
 23
0.0
 33
0.0
 40
0.0
 40
0.0
 40
0.0
 40
0.0
 40
0.5000000000000023
 40
0.5000000000000023
 40
0.7500000000000011
 40
0.7500000000000011
 40
1.0
 40
1.0
 40
1.0
 40
1.0
 10
159.1151535427831
 20
107.2682877230348
 30
0.0
 10
159.1339567756348
 20
107.3362680472972
 30
0.0
 10
159.159493434654
 20
107.402358435094
 30
0.0
 10
159.2197196086024
 20
107.4914230475411
 30
0.0
 10
159.2436456860024
 20
107.5192241345611
 30
0.0
 10
159.3017066061837
 20
107.562183207786
 30
0.0
 10
159.3375083048097
 20
107.5773198544422
 30
0.0
 10
159.3749611639184
 20
107.5773198544422
 30
0.0
  0
ELLIPSE
  5
73
330
1F
100
AcDbEntity
  8
0
  6
Continuous
 62
     7
370
    15
100
AcDbEllipse
 10
169.3919883344
 20
113.4065328501
 30
0.0
 11
9.367417879781669
 21
19.74174915274996
 31
0.0
210
0.0
220
0.0
230
1.0
 40
0.3419987131
 41
2.043618610118597
 42
2.990520924662733
  0
LINE
  5
74
330
1F
100
AcDbEntity
  8
0
  6
Continuous
 62
     7
370
    15
100
AcDbLine
 10
172.4430587149
 20
132.8065334223
 30
0.0
 11
172.4430587149
 21
94.0065322779
 31
0.0
  0
LINE
  5
75
330
1F
100
AcDbEntity
  8
0
  6
Continuous
 62
     7
370
    15
100
AcDbLine
 10
152.4430591619
 20
93.7065327875
 30
0.0
 11
152.4430591619
 21
133.1065329127
 31
0.0
  0
ELLIPSE
  5
76
330
1F
100
AcDbEntity
  8
0
  6
Continuous
 62
     7
370
    15
100
AcDbEllipse
 10
234.4327244036
 20
113.4065328501
 30
0.0
 11
0.9567516492558923
 21
15.99804791108561
 31
0.0
210
0.0
220
0.0
230
1.0
 40
0.2612235458
 41
0.8543493255849736
 42
2.737364376346245
  0
SPLINE
  5
77
330
1F
100
AcDbEntity
  8
0
  6
Continuous
 62
     7
370
    15
100
AcDbSpline
210
0.0
220
0.0
230
1.0
 70
     8
 71
     3
 72
    14
 73
    10
 74
     0
 42
0.00000001
 43
0.00000001
 12
1.0
 22
0.0
 32
0.0
 13
1.0
 23
0.0
 33
0.0
 40
0.0
 40
0.0
 40
0.0
 40
0.0
 40
0.25
 40
0.25
 40
0.5
 40
0.5
 40
0.75
 40
0.75
 40
1.0
 40
1.0
 40
1.0
 40
1.0
 10
234.4936070467162
 20
97.93620595816424
 30
0.0
 10
234.1669741835471
 20
97.9460189816212
 30
0.0
 10
233.8560771421904
 20
97.97045317850613
 30
0.0
 10
233.2727208616014
 20
98.05220335384263
 30
0.0
 10
233.0127085346809
 20
98.10811256848393
 30
0.0
 10
232.5614446536862
 20
98.25383345226831
 30
0.0
 10
232.3764984890223
 20
98.34173338027794
 30
0.0
 10
232.0834343403296
 20
98.54905956324882
 30
0.0
 10
231.9788156512453
 20
98.66553408569057
 30
0.0
 10
231.909414957652
 20
98.79612672143327
 30
0.0
  0
ELLIPSE
  5
78
330
1F
100
AcDbEntity
  8
0
  6
Continuous
 62
     7
370
    15
100
AcDbEllipse
 10
303.092274708
 20
113.4065328501
 30
0.0
 11
152.2294392357668
 21
3.362096597003855
 31
0.0
210
0.0
220
0.0
230
1.0
 40
0.1027578619
 41
4.242653439382561
 42
4.253918677003043
  0
ELLIPSE
  5
79
330
1F
100
AcDbEntity
  8
0
  6
Continuous
 62
     7
370
    15
100
AcDbEllipse
 10
303.092274708
 20
113.4065328501
 30
0.0
 11
152.2294392357668
 21
3.362096597003855
 31
0.0
210
0.0
220
0.0
230
1.0
 40
0.1027578619
 41
2.024727675470492
 42
2.035992913090974
  0
SPLINE
  5
7A
330
1F
100
AcDbEntity
  8
0
  6
Continuous
 62
     7
370
    15
100
AcDbSpline
210
0.0
220
0.0
230
1.0
 70
     8
 71
     3
 72
    18
 73
    14
 74
     0
 42
0.00000001
 43
0.00000001
 12
1.0
 22
0.0
 32
0.0
 13
1.0
 23
0.0
 33
0.0
 40
0.0
 40
0.0
 40
0.0
 40
0.0
 40
0.249999999999992
 40
0.249999999999992
 40
0.3749999999999895
 40
0.3749999999999895
 40
0.499999999999987
 40
0.499999999999987
 40
0.7499999999999887
 40
0.7499999999999887
 40
0.8749999999999943
 40
0.8749999999999943
 40
1.0
 40
1.0
 40
1.0
 40
1.0
 10
231.909414957652
 20
124.1010806877986
 30
0.0
 10
231.978914028653
 20
124.3397122426475
 30
0.0
 10
232.0835765858348
 20
124.5615187634279
 30
0.0
 10
232.3022502646016
 20
124.8691472674953
 30
0.0
 10
232.3863334325234
 20
124.968074904226
 30
0.0
 10
232.5718333093595
 20
125.1510351120853
 30
0.0
 10
232.6735726903934
 20
125.2357979938962
 30
0.0
 10
233.0071300244734
 20
125.4703933081436
 30
0.0
 10
233.2731001984952
 20
125.6021035888391
 30
0.0
 10
233.7047700679893
 20
125.7448112121911
 30
0.0
 10
233.8547842963629
 20
125.783957518787
 30
0.0
 10
234.1678415427942
 20
125.8450750462015
 30
0.0
 10
234.3298302046139
 20
125.8666906145776
 30
0.0
 10
234.4936070467162
 20
125.8787687922968
 30
0.0
  0
ELLIPSE
  5
7B
330
1F
100
AcDbEntity
  8
0
  6
Continuous
 62
     7
370
    15
100
AcDbEllipse
 10
231.6394278301
 20
105.3522697994
 30
0.0
 11
0.01037355945928198
 21
2.312655903003304
 31
0.0
210
0.0
220
0.0
230
1.0
 40
0.2522252297
 41
5.819838401878425
 42
9.923689019261634
  0
SPLINE
  5
7C
330
1F
100
AcDbEntity
  8
0
  6
Continuous
 62
     7
370
    15
100
AcDbSpline
210
0.0
220
0.0
230
1.0
 70
     8
 71
     3
 72
    18
 73
    14
 74
     0
 42
0.00000001
 43
0.00000001
 12
1.0
 22
0.0
 32
0.0
 13
1.0
 23
0.0
 33
0.0
 40
0.0
 40
0.0
 40
0.0
 40
0.0
 40
0.2499999999999997
 40
0.2499999999999997
 40
0.4999999999999993
 40
0.4999999999999993
 40
0.6249999999999994
 40
0.6249999999999994
 40
0.7499999999999997
 40
0.7499999999999997
 40
0.8749999999999998
 40
0.8749999999999998
 40
1.0
 40
1.0
 40
1.0
 40
1.0
 10
151.1869748443552
 20
99.57534446741506
 30
0.0
 10
151.221271663807
 20
99.57448281193324
 30
0.0
 10
151.2590829437842
 20
99.57473441502817
 30
0.0
 10
151.3456553109642
 20
99.57713292764004
 30
0.0
 10
151.3939944410471
 20
99.57930391237194
 30
0.0
 10
151.4832667983695
 20
99.58339879066716
 30
0.0
 10
151.5158082641454
 20
99.58490340861678
 30
0.0
 10
151.5919844639989
 20
99.5878664665849
 30
0.0
 10
151.6352005239935
 20
99.58935380484068
 30
0.0
 10
151.7408898259594
 20
99.59097921616436
 30
0.0
 10
151.805860884674
 20
99.59093697509046
 30
0.0
 10
151.9395212730318
 20
99.58691480176944
 30
0.0
 10
151.998827726368
 20
99.58337357494595
 30
0.0
 10
152.0480822730439
 20
99.57980686750986
 30
0.0
  0
SPLINE
  5
7D
330
1F
100
AcDbEntity
  8
0
  6
Continuous
 62
     7
370
    15
100
AcDbSpline
210
0.0
220
0.0
230
1.0
 70
     8
 71
     3
 72
    14
 73
    10
 74
     0
 42
0.00000001
 43
0.00000001
 12
1.0
 22
0.0
 32
0.0
 13
1.0
 23
0.0
 33
0.0
 40
0.0
 40
0.0
 40
0.0
 40
0.0
 40
0.1249999999999984
 40
0.1249999999999984
 40
0.2499999999999969
 40
0.2499999999999969
 40
0.4999999999999966
 40
0.4999999999999966
 40
1.0
 40
1.0
 40
1.0
 40
1.0
 10
152.0480822730131
 20
99.57980686752882
 30
0.0
 10
152.0596090507305
 20
99.57897217009479
 30
0.0
 10
152.0729618583829
 20
99.57723175581464
 30
0.0
 10
152.1031044309832
 20
99.56998416581432
 30
0.0
 10
152.1181649565976
 20
99.56463713158638
 30
0.0
 10
152.1535113105259
 20
99.54888986135795
 30
0.0
 10
152.1672434102549
 20
99.53905158719667
 30
0.0
 10
152.200614655946
 20
99.5128476012462
 30
0.0
 10
152.2115550238
 20
99.4987596998456
 30
0.0
 10
152.2202081488133
 20
99.48598607635724
 30
0.0
  0
LINE
  5
7E
330
1F
100
AcDbEntity
  8
0
  6
Continuous
 62
     7
370
    15
100
AcDbLine
 10
152.243059167
 20
107.9010879025
 30
0.0
 11
152.243059167
 21
99.3167128749
 31
0.0
  0
SPLINE
  5
7F
330
1F
100
AcDbEntity
  8
0
  6
Continuous
 62
     7
370
    15
100
AcDbSpline
210
0.0
220
0.0
230
1.0
 70
     8
 71
     3
 72
    16
 73
    12
 74
     0
 42
0.00000001
 43
0.00000001
 12
1.0
 22
0.0
 32
0.0
 13
1.0
 23
0.0
 33
0.0
 40
0.0
 40
0.0
 40
0.0
 40
0.0
 40
0.5000000000000011
 40
0.5000000000000011
 40
0.7500000000000022
 40
0.7500000000000022
 40
0.8750000000000011
 40
0.8750000000000011
 40
0.9375000000000007
 40
0.9375000000000007
 40
1.0
 40
1.0
 40
1.0
 40
1.0
 10
152.2430591619192
 20
107.9010880831311
 30
0.0
 10
152.2430591619192
 20
108.0186634641506
 30
0.0
 10
152.2391757367603
 20
108.1373592172518
 30
0.0
 10
152.2143604114856
 20
108.3181166952443
 30
0.0
 10
152.2035209637731
 20
108.3797607720173
 30
0.0
 10
152.1703051817243
 20
108.4690977463586
 30
0.0
 10
152.1569234380955
 20
108.4993572777837
 30
0.0
 10
152.1214137882333
 20
108.5328735217711
 30
0.0
 10
152.1059968217325
 20
108.5410118675772
 30
0.0
 10
152.0742957995839
 20
108.5409964581458
 30
0.0
 10
152.0601495146331
 20
108.5339542207899
 30
0.0
 10
152.0480822730435
 20
108.5248131571803
 30
0.0
  0
SPLINE
  5
80
330
1F
100
AcDbEntity
  8
0
  6
Continuous
 62
     7
370
    15
100
AcDbSpline
210
0.0
220
0.0
230
1.0
 70
     8
 71
     3
 72
    18
 73
    14
 74
     0
 42
0.00000001
 43
0.00000001
 12
1.0
 22
0.0
 32
0.0
 13
1.0
 23
0.0
 33
0.0
 40
0.0
 40
0.0
 40
0.0
 40
0.0
 40
0.1249999999999997
 40
0.1249999999999997
 40
0.2499999999999993
 40
0.2499999999999993
 40
0.374999999999999
 40
0.374999999999999
 40
0.4999999999999987
 40
0.4999999999999987
 40
0.7499999999999993
 40
0.7499999999999993
 40
1.0
 40
1.0
 40
1.0
 40
1.0
 10
152.0480822730497
 20
108.5248131571731
 30
0.0
 10
151.9993776893617
 20
108.4879189179825
 30
0.0
 10
151.9408692065862
 20
108.4583876135565
 30
0.0
 10
151.8091423913164
 20
108.4491516402777
 30
0.0
 10
151.7443843198188
 20
108.4722148148347
 30
0.0
 10
151.6391737176681
 20
108.5397329364821
 30
0.0
 10
151.5959575691479
 20
108.5827440331326
 30
0.0
 10
151.5197792530641
 20
108.6729860551288
 30
0.0
 10
151.4869244207729
 20
108.720616936604
 30
0.0
 10
151.3965565148119
 20
108.8676812359536
 30
0.0
 10
151.3471338569723
 20
108.9715945612582
 30
0.0
 10
151.2594827313807
 20
109.1827285248985
 30
0.0
 10
151.2214211839901
 20
109.2904512696573
 30
0.0
 10
151.1869748443562
 20
109.3997843855667
 30
0.0
  0
SPLINE
  5
81
330
1F
100
AcDbEntity
  8
0
  6
Continuous
 62
     7
370
    15
100
AcDbSpline
210
0.0
220
0.0
230
1.0
 70
     8
 71
     3
 72
     8
 73
     4
 74
     0
 42
0.00000001
 43
0.00000001
 12
1.0
 22
0.0
 32
0.0
 13
1.0
 23
0.0
 33
0.0
 40
0.0
 40
0.0
 40
0.0
 40
0.0
 40
1.0
 40
1.0
 40
1.0
 40
1.0
 10
151.1217388183595
 20
109.6349881596955
 30
0.0
 10
151.1411650236584
 20
109.5553958881228
 30
0.0
 10
151.1626618480869
 20
109.47695414199
 30
0.0
 10
151.1869748443562
 20
109.3997843855667
 30
0.0
  0
SPLINE
  5
82
330
1F
100
AcDbEntity
  8
0
  6
Continuous
 62
     7
370
    15
100
AcDbSpline
210
0.0
220
0.0
230
1.0
 70
     8
 71
     3
 72
     8
 73
     4
 74
     0
 42
0.00000001
 43
0.00000001
 12
1.0
 22
0.0
 32
0.0
 13
1.0
 23
0.0
 33
0.0
 40
0.0
 40
0.0
 40
0.0
 40
0.0
 40
1.0
 40
1.0
 40
1.0
 40
1.0
 10
151.1869748443562
 20
117.4132813146212
 30
0.0
 10
151.1626618480869
 20
117.3361115581979
 30
0.0
 10
151.1411650236584
 20
117.2576698120651
 30
0.0
 10
151.1217388183595
 20
117.1780775404924
 30
0.0
  0
SPLINE
  5
83
330
1F
100
AcDbEntity
  8
0
  6
Continuous
 62
     7
370
    15
100
AcDbSpline
210
0.0
220
0.0
230
1.0
 70
     8
 71
     3
 72
    18
 73
    14
 74
     0
 42
0.00000001
 43
0.00000001
 12
1.0
 22
0.0
 32
0.0
 13
1.0
 23
0.0
 33
0.0
 40
0.0
 40
0.0
 40
0.0
 40
0.0
 40
0.2500000000000008
 40
0.2500000000000008
 40
0.5000000000000016
 40
0.5000000000000016
 40
0.6250000000000011
 40
0.6250000000000011
 40
0.7500000000000008
 40
0.7500000000000008
 40
0.8750000000000003
 40
0.8750000000000003
 40
1.0
 40
1.0
 40
1.0
 40
1.0
 10
151.1869748443562
 20
117.4132813146212
 30
0.0
 10
151.2212731633689
 20
117.5221446112142
 30
0.0
 10
151.2590875606809
 20
117.6291520344505
 30
0.0
 10
151.3456756217545
 20
117.8381868585889
 30
0.0
 10
151.3940257274331
 20
117.9403569525784
 30
0.0
 10
151.4833423162329
 20
118.0870377241431
 30
0.0
 10
151.5159026717212
 20
118.1348394226787
 30
0.0
 10
151.5921483054501
 20
118.226394960704
 30
0.0
 10
151.6353076752301
 20
118.270074352696
 30
0.0
 10
151.7410364992482
 20
118.3394285700226
 30
0.0
 10
151.8060336763029
 20
118.3635448836885
 30
0.0
 10
151.9395181662571
 20
118.3553406616502
 30
0.0
 10
151.9988455597026
 20
118.3255498760583
 30
0.0
 10
152.0480822730439
 20
118.2882525430072
 30
0.0
  0
SPLINE
  5
84
330
1F
100
AcDbEntity
  8
0
  6
Continuous
 62
     7
370
    15
100
AcDbSpline
210
0.0
220
0.0
230
1.0
 70
     8
 71
     3
 72
    16
 73
    12
 74
     0
 42
0.00000001
 43
0.00000001
 12
1.0
 22
0.0
 32
0.0
 13
1.0
 23
0.0
 33
0.0
 40
0.0
 40
0.0
 40
0.0
 40
0.0
 40
0.0625000000000012
 40
0.0625000000000012
 40
0.1250000000000024
 40
0.1250000000000024
 40
0.2500000000000026
 40
0.2500000000000026
 40
0.5000000000000018
 40
0.5000000000000018
 40
1.0
 40
1.0
 40
1.0
 40
1.0
 10
152.0480822730131
 20
118.2882525429589
 30
0.0
 10
152.060152106289
 20
118.2791095161131
 30
0.0
 10
152.0744277612223
 20
118.2720650684218
 30
0.0
 10
152.1058921733467
 20
118.2720579965232
 30
0.0
 10
152.1213926981571
 20
118.2801859653202
 30
0.0
 10
152.156831594764
 20
118.3135944263274
 30
0.0
 10
152.1704242108674
 20
118.3442615927895
 30
0.0
 10
152.2034185292602
 20
118.4330825868714
 30
0.0
 10
152.214205922579
 20
118.4939852324192
 30
0.0
 10
152.2392591698581
 20
118.6759933097975
 30
0.0
 10
152.2430591619193
 20
118.7946820248362
 30
0.0
 10
152.2430591619194
 20
118.9119776170567
 30
0.0
  0
LINE
  5
85
330
1F
100
AcDbEntity
  8
0
  6
Continuous
 62
     7
370
    15
100
AcDbLine
 10
152.243059167
 20
127.4963528253
 30
0.0
 11
152.243059167
 21
118.9119777977
 31
0.0
  0
SPLINE
  5
86
330
1F
100
AcDbEntity
  8
0
  6
Continuous
 62
     7
370
    15
100
AcDbSpline
210
0.0
220
0.0
230
1.0
 70
     8
 71
     3
 72
    12
 73
     8
 74
     0
 42
0.00000001
 43
0.00000001
 12
1.0
 22
0.0
 32
0.0
 13
1.0
 23
0.0
 33
0.0
 40
0.0
 40
0.0
 40
0.0
 40
0.0
 40
0.4999999999999998
 40
0.4999999999999998
 40
0.7499999999999999
 40
0.7499999999999999
 40
1.0
 40
1.0
 40
1.0
 40
1.0
 10
152.2027198320516
 20
127.3051403529646
 30
0.0
 10
152.1925969799705
 20
127.294206608327
 30
0.0
 10
152.1802341956244
 20
127.2821413215045
 30
0.0
 10
152.1453995924511
 20
127.2607919811603
 30
0.0
 10
152.1300423712081
 20
127.2525723049312
 30
0.0
 10
152.0873733290683
 20
127.2382330053017
 30
0.0
 10
152.0649491147085
 20
127.2344802242784
 30
0.0
 10
152.0480822730435
 20
127.233258832678
 30
0.0
  0
SPLINE
  5
87
330
1F
100
AcDbEntity
  8
0
  6
Continuous
 62
     7
370
    15
100
AcDbSpline
210
0.0
220
0.0
230
1.0
 70
     8
 71
     3
 72
    18
 73
    14
 74
     0
 42
0.00000001
 43
0.00000001
 12
1.0
 22
0.0
 32
0.0
 13
1.0
 23
0.0
 33
0.0
 40
0.0
 40
0.0
 40
0.0
 40
0.0
 40
0.125
 40
0.125
 40
0.25
 40
0.25
 40
0.375
 40
0.375
 40
0.5
 40
0.5
 40
0.75
 40
0.75
 40
1.0
 40
1.0
 40
1.0
 40
1.0
 10
152.0480822730497
 20
127.2332588326778
 30
0.0
 10
151.9993781440329
 20
127.2297319830597
 30
0.0
 10
151.9408704748284
 20
127.226231709862
 30
0.0
 10
151.8091448121975
 20
127.2221887259741
 30
0.0
 10
151.7443871735772
 20
127.2220771513435
 30
0.0
 10
151.6391767569581
 20
127.2236093361049
 30
0.0
 10
151.5959607220179
 20
127.22506448832
 30
0.0
 10
151.5197825005369
 20
127.2279897498498
 30
0.0
 10
151.4869277328528
 20
127.229500080358
 30
0.0
 10
151.396560014011
 20
127.2336420730464
 30
0.0
 10
151.3471376448215
 20
127.2358801580329
 30
0.0
 10
151.2594851827335
 20
127.2383314410794
 30
0.0
 10
151.2214224464991
 20
127.2385866764404
 30
0.0
 10
151.1869748443557
 20
127.2377212327725
 30
0.0
  0
SPLINE
  5
88
330
1F
100
AcDbEntity
  8
0
  6
Continuous
 62
     7
370
    15
100
AcDbSpline
210
0.0
220
0.0
230
1.0
 70
     8
 71
     3
 72
    16
 73
    12
 74
     0
 42
0.00000001
 43
0.00000001
 12
1.0
 22
0.0
 32
0.0
 13
1.0
 23
0.0
 33
0.0
 40
0.0
 40
0.0
 40
0.0
 40
0.0
 40
0.2499999999999998
 40
0.2499999999999998
 40
0.3749999999999998
 40
0.3749999999999998
 40
0.4999999999999999
 40
0.4999999999999999
 40
0.7499999999999999
 40
0.7499999999999999
 40
1.0
 40
1.0
 40
1.0
 40
1.0
 10
150.7430591619192
 20
116.3527312461633
 30
0.0
 10
150.6625223525238
 20
115.8836584193002
 30
0.0
 10
150.6024849437215
 20
115.4032947691202
 30
0.0
 10
150.5417469964743
 20
114.6661104899793
 30
0.0
 10
150.5264245154314
 20
114.4175920867522
 30
0.0
 10
150.5058415636535
 20
113.9148086415385
 30
0.0
 10
150.5006420166169
 20
113.6599500885138
 30
0.0
 10
150.5005883060767
 20
112.9036727487931
 30
0.0
 10
150.5207856433458
 20
112.4050145494833
 30
0.0
 10
150.6014639504188
 20
111.418591578739
 30
0.0
 10
150.6625102987601
 20
110.929477485966
 30
0.0
 10
150.7430591619192
 20
110.4603344540246
 30
0.0
  0
LINE
  5
89
330
1F
100
AcDbEntity
  8
0
  6
Continuous
 62
     7
370
    15
100
AcDbLine
 10
150.7430591394
 20
110.4603343978
 30
0.0
 11
150.7430591394
 21
109.3053290955
 31
0.0
  0
LINE
  5
8A
330
1F
100
AcDbEntity
  8
0
  6
Continuous
 62
     7
370
    15
100
AcDbLine
 10
129.9430582678
 20
117.2464524265
 30
0.0
 11
129.9430582678
 21
109.5666132737
 31
0.0
  0
LINE
  5
8B
330
1F
100
AcDbEntity
  8
0
  6
Continuous
 62
     7
370
    15
100
AcDbLine
 10
150.7430591394
 20
117.5077366046
 30
0.0
 11
150.7430591394
 21
116.3527313024
 31
0.0
  0
SPLINE
  5
8C
330
1F
100
AcDbEntity
  8
0
  6
Continuous
 62
     7
370
    15
100
AcDbSpline
210
0.0
220
0.0
230
1.0
 70
     8
 71
     3
 72
     8
 73
     4
 74
     0
 42
0.00000001
 43
0.00000001
 12
1.0
 22
0.0
 32
0.0
 13
1.0
 23
0.0
 33
0.0
 40
0.0
 40
0.0
 40
0.0
 40
0.0
 40
1.0
 40
1.0
 40
1.0
 40
1.0
 10
150.9480191839799
 20
110.4600420457301
 30
0.0
 10
150.9987462667023
 20
110.1766909244109
 30
0.0
 10
151.0566335796894
 20
109.9017347402712
 30
0.0
 10
151.1217388183596
 20
109.6349881596956
 30
0.0
  0
SPLINE
  5
8D
330
1F
100
AcDbEntity
  8
0
  6
Continuous
 62
     7
370
    15
100
AcDbSpline
210
0.0
220
0.0
230
1.0
 70
     8
 71
     3
 72
    24
 73
    20
 74
     0
 42
0.00000001
 43
0.00000001
 12
1.0
 22
0.0
 32
0.0
 13
1.0
 23
0.0
 33
0.0
 40
0.0
 40
0.0
 40
0.0
 40
0.0
 40
0.2500000000000059
 40
0.2500000000000059
 40
0.3750000000000094
 40
0.3750000000000094
 40
0.4375000000000112
 40
0.4375000000000112
 40
0.4687500000000116
 40
0.4687500000000116
 40
0.500000000000012
 40
0.500000000000012
 40
0.5625000000000098
 40
0.5625000000000098
 40
0.6250000000000075
 40
0.6250000000000075
 40
0.7500000000000051
 40
0.7500000000000051
 40
1.0
 40
1.0
 40
1.0
 40
1.0
 10
150.743059161911
 20
110.4603344540233
 30
0.0
 10
150.7434621912849
 20
110.5536027466529
 30
0.0
 10
150.7454919309999
 20
110.6473603055019
 30
0.0
 10
150.7548006424198
 20
110.7889501911414
 30
0.0
 10
150.7587266355343
 20
110.8361306097507
 30
0.0
 10
150.7696559954503
 20
110.906726656436
 30
0.0
 10
150.7737776235447
 20
110.9305065702008
 30
0.0
 10
150.785672144727
 20
110.963957717248
 30
0.0
 10
150.7909589566808
 20
110.9761126693176
 30
0.0
 10
150.8075268881957
 20
110.9839953082857
 30
0.0
 10
150.8154535969631
 20
110.9764317091837
 30
0.0
 10
150.8324459351883
 20
110.952639277957
 30
0.0
 10
150.8398436359792
 20
110.9324508001125
 30
0.0
 10
150.8539460263211
 20
110.8920011754927
 30
0.0
 10
150.8600991836133
 20
110.8711455010952
 30
0.0
 10
150.8774129170744
 20
110.8080204657942
 30
0.0
 10
150.887417957963
 20
110.7650413538926
 30
0.0
 10
150.9157744141937
 20
110.6353157096038
 30
0.0
 10
150.9323229535399
 20
110.5477179824678
 30
0.0
 10
150.94801918398
 20
110.4600420457301
 30
0.0
  0
SPLINE
  5
8E
330
1F
100
AcDbEntity
  8
0
  6
Continuous
 62
     7
370
    15
100
AcDbSpline
210
0.0
220
0.0
230
1.0
 70
     8
 71
     3
 72
    24
 73
    20
 74
     0
 42
0.00000001
 43
0.00000001
 12
1.0
 22
0.0
 32
0.0
 13
1.0
 23
0.0
 33
0.0
 40
0.0
 40
0.0
 40
0.0
 40
0.0
 40
0.2500000000000029
 40
0.2500000000000029
 40
0.3750000000000039
 40
0.3750000000000039
 40
0.4375000000000034
 40
0.4375000000000034
 40
0.5000000000000029
 40
0.5000000000000029
 40
0.5312500000000028
 40
0.5312500000000028
 40
0.5625000000000027
 40
0.5625000000000027
 40
0.6250000000000029
 40
0.6250000000000029
 40
0.7500000000000018
 40
0.7500000000000018
 40
1.0
 40
1.0
 40
1.0
 40
1.0
 10
150.9480191839801
 20
116.3530236544578
 30
0.0
 10
150.9322501390703
 20
116.2649409909669
 30
0.0
 10
150.9156359745097
 20
116.1769961744574
 30
0.0
 10
150.8871038470163
 20
116.0466488071944
 30
0.0
 10
150.8770162134624
 20
116.0033876293923
 30
0.0
 10
150.8595283906135
 20
115.9399518535568
 30
0.0
 10
150.8533185826872
 20
115.9190377300131
 30
0.0
 10
150.8390407231048
 20
115.878562938328
 30
0.0
 10
150.831469560753
 20
115.8580852948688
 30
0.0
 10
150.8140497355786
 20
115.8352389153319
 30
0.0
 10
150.805565653124
 20
115.8286871182882
 30
0.0
 10
150.7895295795066
 20
115.8392584935148
 30
0.0
 10
150.7847092072287
 20
115.8513495337987
 30
0.0
 10
150.7733023066228
 20
115.8849927770186
 30
0.0
 10
150.7692813449134
 20
115.9084004563154
 30
0.0
 10
150.7585273331341
 20
115.9789890593765
 30
0.0
 10
150.7546554475115
 20
116.025954086899
 30
0.0
 10
150.7454874827106
 20
116.1665309515051
 30
0.0
 10
150.7434591481974
 20
116.2601671811247
 30
0.0
 10
150.7430591619192
 20
116.3527312461633
 30
0.0
  0
SPLINE
  5
8F
330
1F
100
AcDbEntity
  8
0
  6
Continuous
 62
     7
370
    15
100
AcDbSpline
210
0.0
220
0.0
230
1.0
 70
     8
 71
     3
 72
     8
 73
     4
 74
     0
 42
0.00000001
 43
0.00000001
 12
1.0
 22
0.0
 32
0.0
 13
1.0
 23
0.0
 33
0.0
 40
0.0
 40
0.0
 40
0.0
 40
0.0
 40
1.0
 40
1.0
 40
1.0
 40
1.0
 10
151.1217388183596
 20
117.1780775404923
 30
0.0
 10
151.0566335796894
 20
116.9113309599167
 30
0.0
 10
150.9987462667023
 20
116.636374775777
 30
0.0
 10
150.9480191839799
 20
116.3530236544578
 30
0.0
  0
LINE
  5
90
330
1F
100
AcDbEntity
  8
0
  6
Continuous
 62
     7
370
    15
100
AcDbLine
 10
128.4430589533
 20
116.8134395834
 30
0.0
 11
128.4430589533
 21
109.9996261168
 31
0.0
  0
LINE
  5
91
330
1F
100
AcDbEntity
  8
0
  6
Continuous
 62
     7
370
    15
100
AcDbLine
 10
150.9480191401
 20
127.2317175157
 30
0.0
 11
151.1869748595
 21
127.237720821
 31
0.0
  0
LINE
  5
92
330
1F
100
AcDbEntity
  8
0
  6
Continuous
 62
     7
370
    15
100
AcDbLine
 10
129.9430582678
 20
117.2464524265
 30
0.0
 11
129.9430582678
 21
126.9040633328
 31
0.0
  0
LINE
  5
93
330
1F
100
AcDbEntity
  8
0
  6
Continuous
 62
     7
370
    15
100
AcDbLine
 10
129.9430582678
 20
126.9040633328
 30
0.0
 11
150.7430591394
 21
127.4266312234
 31
0.0
  0
LINE
  5
94
330
1F
100
AcDbEntity
  8
0
  6
Continuous
 62
     7
370
    15
100
AcDbLine
 10
150.7430591394
 20
117.5077366046
 30
0.0
 11
150.7430591394
 21
127.4266312234
 31
0.0
  0
ARC
  5
95
330
1F
100
AcDbEntity
  8
0
  6
Continuous
 62
     7
370
    15
100
AcDbCircle
 10
150.9429960729
 20
127.4316547458
 30
0.0
 40
0.2000000000000066
100
AcDbArc
 50
181.4391666667
 51
271.4391666667
  0
LINE
  5
96
330
1F
100
AcDbEntity
  8
0
  6
Continuous
 62
     7
370
    15
100
AcDbLine
 10
129.9430582678
 20
99.9090023674
 30
0.0
 11
129.9430582678
 21
109.5666132737
 31
0.0
  0
LINE
  5
97
330
1F
100
AcDbEntity
  8
0
  6
Continuous
 62
     7
370
    15
100
AcDbLine
 10
150.7430591394
 20
99.3864344768
 30
0.0
 11
150.7430591394
 21
109.3053290955
 31
0.0
  0
LINE
  5
98
330
1F
100
AcDbEntity
  8
0
  6
Continuous
 62
     7
370
    15
100
AcDbLine
 10
129.9430582678
 20
99.9090023674
 30
0.0
 11
150.7430591394
 21
99.3864344768
 31
0.0
  0
ARC
  5
99
330
1F
100
AcDbEntity
  8
0
  6
Continuous
 62
     7
370
    15
100
AcDbCircle
 10
150.9429960729
 20
99.3814109544
 30
0.0
 40
0.2000000000000066
100
AcDbArc
 50
88.5608333333
 51
178.5608333333
  0
LINE
  5
9A
330
1F
100
AcDbEntity
  8
0
  6
Continuous
 62
     7
370
    15
100
AcDbLine
 10
150.9480191401
 20
99.5813481845
 30
0.0
 11
151.1869748595
 21
99.5753448792
 31
0.0
  0
LINE
  5
9B
330
1F
100
AcDbEntity
  8
0
  6
Continuous
 62
     7
370
    15
100
AcDbLine
 10
128.4430589533
 20
126.0380376465
 30
0.0
 11
129.9430582678
 21
126.9040633328
 31
0.0
  0
LINE
  5
9C
330
1F
100
AcDbEntity
  8
0
  6
Continuous
 62
     7
370
    15
100
AcDbLine
 10
128.4430589533
 20
116.8134395834
 30
0.0
 11
128.4430589533
 21
126.0380376465
 31
0.0
  0
LINE
  5
9D
330
1F
100
AcDbEntity
  8
0
  6
Continuous
 62
     7
370
    15
100
AcDbLine
 10
128.4430589533
 20
100.7750280536
 30
0.0
 11
129.9430582678
 21
99.9090023674
 31
0.0
  0
LINE
  5
9E
330
1F
100
AcDbEntity
  8
0
  6
Continuous
 62
     7
370
    15
100
AcDbLine
 10
128.4430589533
 20
100.7750280536
 30
0.0
 11
128.4430589533
 21
109.9996261168
 31
0.0
  0
SPLINE
  5
9F
330
1F
100
AcDbEntity
  8
0
  6
Continuous
 62
     7
370
    15
100
AcDbSpline
210
0.0
220
0.0
230
1.0
 70
     8
 71
     3
 72
    26
 73
    22
 74
     0
 42
0.00000001
 43
0.00000001
 12
1.0
 22
0.0
 32
0.0
 13
1.0
 23
0.0
 33
0.0
 40
0.0
 40
0.0
 40
0.0
 40
0.0
 40
0.1249999999999997
 40
0.1249999999999997
 40
0.2499999999999997
 40
0.2499999999999997
 40
0.3749999999999997
 40
0.3749999999999997
 40
0.4999999999999998
 40
0.4999999999999998
 40
0.6249999999999998
 40
0.6249999999999998
 40
0.6874999999999999
 40
0.6874999999999999
 40
0.7499999999999999
 40
0.7499999999999999
 40
0.8125
 40
0.8125
 40
0.8750000000000001
 40
0.8750000000000001
 40
1.0
 40
1.0
 40
1.0
 40
1.0
 10
231.909414957652
 20
107.4199136134339
 30
0.0
 10
231.9557708932063
 20
107.3270557528733
 30
0.0
 10
232.0113530965411
 20
107.2104829981283
 30
0.0
 10
232.1295720538724
 20
106.9450334623404
 30
0.0
 10
232.1930629767369
 20
106.7941834670017
 30
0.0
 10
232.3148692218231
 20
106.4715703235553
 30
0.0
 10
232.3735069549047
 20
106.2997681526265
 30
0.0
 10
232.4744840947915
 20
105.932168192518
 30
0.0
 10
232.5173482625753
 20
105.7336587625917
 30
0.0
 10
232.5619191973489
 20
105.3193611672822
 30
0.0
 10
232.5623800106271
 20
105.0985950815499
 30
0.0
 10
232.5168357274169
 20
104.7747199631098
 30
0.0
 10
232.4940449740246
 20
104.6663411988809
 30
0.0
 10
232.4355678113163
 20
104.4543061469171
 30
0.0
 10
232.4007406862953
 20
104.3530090915475
 30
0.0
 10
232.3242858107288
 20
104.1580975934097
 30
0.0
 10
232.2824109374597
 20
104.0640460531183
 30
0.0
 10
232.1989274067276
 20
103.8881902388413
 30
0.0
 10
232.1570051022905
 20
103.8055238259899
 30
0.0
 10
232.0356043740226
 20
103.5704001101185
 30
0.0
 10
231.9635488702833
 20
103.4358494272638
 30
0.0
 10
231.909414957652
 20
103.3202652479606
 30
0.0
  0
SPLINE
  5
A0
330
1F
100
AcDbEntity
  8
0
  6
Continuous
 62
     7
370
    15
100
AcDbSpline
210
0.0
220
0.0
230
1.0
 70
     8
 71
     3
 72
    10
 73
     6
 74
     0
 42
0.00000001
 43
0.00000001
 12
1.0
 22
0.0
 32
0.0
 13
1.0
 23
0.0
 33
0.0
 40
0.0
 40
0.0
 40
0.0
 40
0.0
 40
0.5
 40
0.5
 40
1.0
 40
1.0
 40
1.0
 40
1.0
 10
236.7359523807327
 20
97.5535482843624
 30
0.0
 10
236.6461302989587
 20
97.65317557667757
 30
0.0
 10
236.5393318332489
 20
97.73522078915116
 30
0.0
 10
236.2978782241236
 20
97.8530245386187
 30
0.0
 10
236.1658609995515
 20
97.8872768663258
 30
0.0
 10
236.0288455995461
 20
97.89119521628453
 30
0.0
  0
SPLINE
  5
A1
330
1F
100
AcDbEntity
  8
0
  6
Continuous
 62
     7
370
    15
100
AcDbSpline
210
0.0
220
0.0
230
1.0
 70
     8
 71
     3
 72
     8
 73
     4
 74
     0
 42
0.00000001
 43
0.00000001
 12
1.0
 22
0.0
 32
0.0
 13
1.0
 23
0.0
 33
0.0
 40
0.0
 40
0.0
 40
0.0
 40
0.0
 40
1.0
 40
1.0
 40
1.0
 40
1.0
 10
236.0288455995461
 20
125.9908768258272
 30
0.0
 10
236.302459997673
 20
126.0106598796793
 30
0.0
 10
236.5564961562184
 20
126.1525384893363
 30
0.0
 10
236.7359523807334
 20
126.3594277171611
 30
0.0
  0
SPLINE
  5
A2
330
1F
100
AcDbEntity
  8
0
  6
Continuous
 62
     7
370
    15
100
AcDbSpline
210
0.0
220
0.0
230
1.0
 70
     8
 71
     3
 72
     8
 73
     4
 74
     0
 42
0.00000001
 43
0.00000001
 12
1.0
 22
0.0
 32
0.0
 13
1.0
 23
0.0
 33
0.0
 40
0.0
 40
0.0
 40
0.0
 40
0.0
 40
1.0
 40
1.0
 40
1.0
 40
1.0
 10
236.7359523807327
 20
126.3594277171619
 30
0.0
 10
236.8049075577923
 20
126.4389238916464
 30
0.0
 10
236.8739442524952
 20
126.5183491811281
 30
0.0
 10
236.9430591619193
 20
126.5977064577172
 30
0.0
  0
ELLIPSE
  5
A3
330
1F
100
AcDbEntity
  8
0
  6
Continuous
 62
     7
370
    15
100
AcDbEllipse
 10
303.092274708
 20
113.4065328501
 30
0.0
 11
156.9866092118844
 21
3.467162115660215
 31
0.0
210
0.0
220
0.0
230
1.0
 40
0.1027578619
 41
1.90827464006069
 42
2.003479473614872
  0
LINE
  5
A4
330
1F
100
AcDbEntity
  8
0
  6
Continuous
 62
     7
370
    15
100
AcDbLine
 10
257.6161328709
 20
105.7998830788
 30
0.0
 11
250.7764626301
 21
127.4801915847
 31
0.0
  0
LINE
  5
A5
330
1F
100
AcDbEntity
  8
0
  6
Continuous
 62
     7
370
    15
100
AcDbLine
 10
243.2125661528
 20
110.0533345584
 30
0.0
 11
257.6161328709
 21
105.7998830788
 31
0.0
  0
ARC
  5
A6
330
1F
100
AcDbEntity
  8
0
  6
Continuous
 62
     7
370
    15
100
AcDbCircle
 10
242.576185922
 20
108.0828547546
 30
0.0
 40
2.070693230546263
100
AcDbArc
 50
72.1017747869
 51
251.8346747535
  0
LINE
  5
A7
330
1F
100
AcDbEntity
  8
0
  6
Continuous
 62
     7
370
    15
100
AcDbLine
 10
244.9052114046
 20
105.2369516678
 30
0.0
 11
241.9306267059
 21
106.115363013
 31
0.0
  0
LINE
  5
A8
330
1F
100
AcDbEntity
  8
0
  6
Continuous
 62
     7
370
    15
100
AcDbLine
 10
247.9053068912
 20
95.7272848449
 30
0.0
 11
244.9052114046
 21
105.2369516678
 31
0.0
  0
ARC
  5
A9
330
1F
100
AcDbEntity
  8
0
  6
Continuous
 62
     7
370
    15
100
AcDbCircle
 10
244.3048992316
 20
69.8136518917
 30
0.0
 40
26.1625554591375
100
AcDbArc
 50
82.0900347911
 51
91.2605587725
  0
LINE
  5
AA
330
1F
100
AcDbEntity
  8
0
  6
Continuous
 62
     7
370
    15
100
AcDbLine
 10
238.2934022701
 20
95.8510874174
 30
0.0
 11
243.7293458736
 21
95.9698757492
 31
0.0
  0
SPLINE
  5
AB
330
1F
100
AcDbEntity
  8
0
  6
Continuous
 62
     7
370
    15
100
AcDbSpline
210
0.0
220
0.0
230
1.0
 70
     8
 71
     3
 72
     8
 73
     4
 74
     0
 42
0.00000001
 43
0.00000001
 12
1.0
 22
0.0
 32
0.0
 13
1.0
 23
0.0
 33
0.0
 40
0.0
 40
0.0
 40
0.0
 40
0.0
 40
1.0
 40
1.0
 40
1.0
 40
1.0
 10
238.293402613228
 20
95.85108661297198
 30
0.0
 10
237.7705187643402
 20
96.41516389093371
 30
0.0
 10
237.250981375145
 20
96.9822973941168
 30
0.0
 10
236.7359523807327
 20
97.55354828436239
 30
0.0
  0
LWPOLYLINE
  5
AC
330
1F
100
AcDbEntity
  8
0
  6
Continuous
 62
     7
370
    15
100
AcDbPolyline
 90
       33
 70
   128
 43
0.0
 10
247.1675504005
 20
118.5536770485
 10
247.9436401284
 20
118.4954572804
 10
248.6898977316
 20
118.2891157791
 10
249.3776608265
 20
117.9425827563
 10
249.9804873026
 20
117.4691751934
 10
250.4752133048
 20
116.8870857786
 10
250.8428249514
 20
116.2186837159
 10
251.0692033923
 20
115.4896555803
 10
251.1456388986
 20
114.7280175341
 10
251.0692033923
 20
113.9630386592
 10
250.8428249514
 20
113.2241167783
 10
250.4752133048
 20
112.5396482516
 10
249.9804873026
 20
111.9359369026
 10
249.3776608265
 20
111.4361828062
 10
248.6898977316
 20
111.0595915802
 10
247.9436401284
 20
110.8206349294
 10
247.1675504005
 20
110.7284963932
 10
246.3914681232
 20
110.7867163941
 10
245.6452030695
 20
110.9930576626
 10
244.9574474251
 20
111.3395906854
 10
244.354620949
 20
111.8129982482
 10
243.8598949468
 20
112.3950876631
 10
243.4922758496
 20
113.0634896676
 10
243.2659048593
 20
113.7925178322
 10
243.1894619024
 20
114.554156024
 10
243.2659048593
 20
115.3191348407
 10
243.4922758496
 20
116.0580566488
 10
243.8598949468
 20
116.7425251901
 10
244.354620949
 20
117.3462364226
 10
244.9574474251
 20
117.8459906354
 10
245.6452030695
 20
118.2225820943
 10
246.3914681232
 20
118.4615385122
 10
247.1675504005
 20
118.5536770485
  0
ELLIPSE
  5
AD
330
1F
100
AcDbEntity
  8
0
  6
Continuous
 62
     7
370
    15
100
AcDbEllipse
 10
255.0189338905
 20
113.4065328501
 30
0.0
 11
-5.368298186719868
 21
16.49894757830354
 31
0.0
210
0.0
220
0.0
230
1.0
 40
0.0347142918
 41
5.72270342256079
 42
6.271890723419028
  0
LINE
  5
AE
330
1F
100
AcDbEntity
  8
0
  6
Continuous
 62
     7
370
    15
100
AcDbLine
 10
236.9430590427
 20
129.9065327607
 30
0.0
 11
236.9430590427
 21
126.5977066345
 31
0.0
  0
SPLINE
  5
AF
330
1F
100
AcDbEntity
  8
0
  6
Continuous
 62
     7
370
    15
100
AcDbSpline
210
0.0
220
0.0
230
1.0
 70
     8
 71
     3
 72
    10
 73
     6
 74
     0
 42
0.00000001
 43
0.00000001
 12
1.0
 22
0.0
 32
0.0
 13
1.0
 23
0.0
 33
0.0
 40
0.0
 40
0.0
 40
0.0
 40
0.0
 40
0.0969429163548796
 40
0.9802034981709076
 40
0.9999999999999999
 40
0.9999999999999999
 40
0.9999999999999999
 40
0.9999999999999999
 10
237.336829677838
 20
96.53773292524347
 30
0.0
 10
237.351591867261
 20
96.51480202654949
 30
0.0
 10
237.5008544462833
 20
96.28294447613534
 30
0.0
 10
237.9173108502349
 20
96.05685569803566
 30
0.0
 10
238.2853345824389
 20
95.85550143522045
 30
0.0
 10
238.2934022700964
 20
95.85108741743097
 30
0.0
  0
LINE
  5
B0
330
1F
100
AcDbEntity
  8
0
  6
Continuous
 62
     7
370
    15
100
AcDbLine
 10
240.4921505606
 20
108.2299639806
 30
0.0
 11
240.9668717539
 21
108.0218077972
 31
0.0
  0
LINE
  5
B1
330
1F
100
AcDbEntity
  8
0
  6
Continuous
 62
     7
370
    15
100
AcDbLine
 10
240.9668717539
 20
108.0218077972
 30
0.0
 11
243.9414564526
 21
107.1433959864
 31
0.0
  0
LINE
  5
B2
330
1F
100
AcDbEntity
  8
0
  6
Continuous
 62
     7
370
    15
100
AcDbLine
 10
243.9414564526
 20
107.1433959864
 30
0.0
 11
244.9052114046
 21
105.2369516678
 31
0.0
  0
LWPOLYLINE
  5
B3
330
1F
100
AcDbEntity
  8
0
  6
Continuous
 62
     7
370
    15
100
AcDbPolyline
 90
       31
 70
   128
 43
0.0
 10
247.7780658758
 20
118.024874419
 10
248.4772134578
 20
117.8416567258
 10
249.1191182292
 20
117.5185590386
 10
249.6757287538
 20
117.0697016045
 10
250.1227263367
 20
116.5147020351
 10
250.440568105
 20
115.8778168596
 10
250.6153587258
 20
115.186880283
 10
250.639461354
 20
114.4720900906
 10
250.5118329084
 20
113.7646858101
 10
250.2380389726
 20
113.0955844696
 10
249.8300526297
 20
112.4940289869
 10
249.3056956685
 20
111.986310278
 10
248.687900976
 20
111.5946180057
 10
248.0036545551
 20
111.3360709846
 10
247.2828630364
 20
111.221969068
 10
246.5570349252
 20
111.2572990227
 10
245.8578947938
 20
111.4405167158
 10
245.2159825719
 20
111.7636146359
 10
244.6593720472
 20
112.2124719536
 10
244.2123819149
 20
112.7674713484
 10
243.8945401466
 20
113.4043567519
 10
243.7197495258
 20
114.0952931586
 10
243.695639447
 20
114.8100834675
 10
243.8232753432
 20
115.5174876898
 10
244.097069279
 20
116.186588943
 10
244.5050556219
 20
116.7881443966
 10
245.0294051325
 20
117.2958632801
 10
245.6472072756
 20
117.687555436
 10
246.3314536965
 20
117.9461026899
 10
247.0522377646
 20
118.0602046065
 10
247.7780658758
 20
118.024874419
  0
LWPOLYLINE
  5
B4
330
1F
100
AcDbEntity
  8
0
  6
Continuous
 62
     7
370
    15
100
AcDbPolyline
 90
       23
 70
   128
 43
0.0
 10
247.5164163864
 20
116.5746796746
 10
248.0539757765
 20
116.4117429275
 10
248.5197264707
 20
116.1053578239
 10
248.8759238279
 20
115.6803464386
 10
249.0937266505
 20
115.1711403494
 10
249.1554770625
 20
114.6189923733
 10
249.0561831749
 20
114.0686344574
 10
248.8038767135
 20
113.5646531752
 10
248.4190095222
 20
113.1478781448
 10
247.9327548301
 20
112.8520740298
 10
247.3845113075
 20
112.7012050696
 10
246.8186844146
 20
112.7074937671
 10
246.2811250246
 20
112.8704306888
 10
245.8153817809
 20
113.1768156178
 10
245.4591769731
 20
113.6018270904
 10
245.2413741505
 20
114.1110332086
 10
245.1796237385
 20
114.6631810684
 10
245.2789250767
 20
115.2135390425
 10
245.5312240875
 20
115.717520412
 10
245.9160912788
 20
116.1342954132
 10
246.4023459709
 20
116.4300995283
 10
246.9505969441
 20
116.5809684302
 10
247.5164163864
 20
116.5746796746
  0
SPLINE
  5
B5
330
1F
100
AcDbEntity
  8
0
  6
Continuous
 62
     7
370
    15
100
AcDbSpline
210
0.0
220
0.0
230
1.0
 70
     8
 71
     3
 72
    11
 73
     7
 74
     0
 42
0.00000001
 43
0.00000001
 12
1.0
 22
0.0
 32
0.0
 13
1.0
 23
0.0
 33
0.0
 40
0.0
 40
0.0
 40
0.0
 40
0.0
 40
0.1081079368311805
 40
0.4711591504062226
 40
0.8135801405982647
 40
1.0
 40
1.0
 40
1.0
 40
1.0
 10
246.0299659526526
 20
113.3763434103814
 30
0.0
 10
246.0843688827822
 20
113.3733343619691
 30
0.0
 10
246.3214693130636
 20
113.3602202397778
 30
0.0
 10
246.7837878546296
 20
113.3136452657517
 30
0.0
 10
247.325223908919
 20
113.2122003522496
 30
0.0
 10
247.6214136005365
 20
113.1412575594318
 30
0.0
 10
247.7258224046408
 20
113.1162497608231
 30
0.0
  0
SPLINE
  5
B6
330
1F
100
AcDbEntity
  8
0
  6
Continuous
 62
     7
370
    15
100
AcDbSpline
210
0.0
220
0.0
230
1.0
 70
     8
 71
     3
 72
    10
 73
     6
 74
     0
 42
0.00000001
 43
0.00000001
 12
1.0
 22
0.0
 32
0.0
 13
1.0
 23
0.0
 33
0.0
 40
0.0
 40
0.0
 40
0.0
 40
0.0
 40
0.4391170122550627
 40
0.7513672575687453
 40
1.0
 40
1.0
 40
1.0
 40
1.0
 10
247.7258224046408
 20
113.1162497608231
 30
0.0
 10
247.8739300940245
 20
113.3264817268676
 30
0.0
 10
248.1273551841288
 20
113.6862068374228
 30
0.0
 10
248.5306299612018
 20
114.1401368348418
 30
0.0
 10
248.7417988981291
 20
114.3454048644086
 30
0.0
 10
248.8354075706183
 20
114.4363977350069
 30
0.0
  0
SPLINE
  5
B7
330
1F
100
AcDbEntity
  8
0
  6
Continuous
 62
     7
370
    15
100
AcDbSpline
210
0.0
220
0.0
230
1.0
 70
     8
 71
     3
 72
    10
 73
     6
 74
     0
 42
0.00000001
 43
0.00000001
 12
1.0
 22
0.0
 32
0.0
 13
1.0
 23
0.0
 33
0.0
 40
0.0
 40
0.0
 40
0.0
 40
0.0
 40
0.4391166951770225
 40
0.7513674695279869
 40
0.9999999999999999
 40
0.9999999999999999
 40
0.9999999999999999
 40
0.9999999999999999
 10
248.8354075706183
 20
114.4363977350069
 30
0.0
 10
248.740737381166
 20
114.6838642437681
 30
0.0
 10
248.5787483211512
 20
115.1073013085006
 30
0.0
 10
248.3781440540344
 20
115.6538456613922
 30
0.0
 10
248.2887490617176
 20
115.9052118568729
 30
0.0
 10
248.2491213834464
 20
116.0166393369211
 30
0.0
  0
SPLINE
  5
B8
330
1F
100
AcDbEntity
  8
0
  6
Continuous
 62
     7
370
    15
100
AcDbSpline
210
0.0
220
0.0
230
1.0
 70
     8
 71
     3
 72
    11
 73
     7
 74
     0
 42
0.00000001
 43
0.00000001
 12
1.0
 22
0.0
 32
0.0
 13
1.0
 23
0.0
 33
0.0
 40
0.0
 40
0.0
 40
0.0
 40
0.0
 40
0.1864198845003379
 40
0.5288408326621841
 40
0.8918920783468474
 40
0.9999999999999999
 40
0.9999999999999999
 40
0.9999999999999999
 40
0.9999999999999999
 10
248.2491213834464
 20
116.0166393369211
 30
0.0
 10
248.1447125865963
 20
116.0416470829529
 30
0.0
 10
247.8485229649183
 20
116.1125897147967
 30
0.0
 10
247.307086720631
 20
116.2140349285966
 30
0.0
 10
246.844768347124
 20
116.2606095996587
 30
0.0
 10
246.6076678640972
 20
116.2737237620311
 30
0.0
 10
246.5532649314581
 20
116.2767328191323
 30
0.0
  0
SPLINE
  5
B9
330
1F
100
AcDbEntity
  8
0
  6
Continuous
 62
     7
370
    15
100
AcDbSpline
210
0.0
220
0.0
230
1.0
 70
     8
 71
     3
 72
    10
 73
     6
 74
     0
 42
0.00000001
 43
0.00000001
 12
1.0
 22
0.0
 32
0.0
 13
1.0
 23
0.0
 33
0.0
 40
0.0
 40
0.0
 40
0.0
 40
0.0
 40
0.4391166431626407
 40
0.7513669009829567
 40
1.0
 40
1.0
 40
1.0
 40
1.0
 10
246.5532649314581
 20
116.2767328191323
 30
0.0
 10
246.3836814039059
 20
116.1089863136476
 30
0.0
 10
246.0935091876197
 20
115.8219574024477
 30
0.0
 10
245.70657199051
 20
115.3357143052394
 30
0.0
 10
245.5244290659432
 20
115.0730298917794
 30
0.0
 10
245.4436872160612
 20
114.95658493226
 30
0.0
  0
SPLINE
  5
BA
330
1F
100
AcDbEntity
  8
0
  6
Continuous
 62
     7
370
    15
100
AcDbSpline
210
0.0
220
0.0
230
1.0
 70
     8
 71
     3
 72
    10
 73
     6
 74
     0
 42
0.00000001
 43
0.00000001
 12
1.0
 22
0.0
 32
0.0
 13
1.0
 23
0.0
 33
0.0
 40
0.0
 40
0.0
 40
0.0
 40
0.0
 40
0.4391155092702824
 40
0.7513670604664421
 40
0.9999999999999999
 40
0.9999999999999999
 40
0.9999999999999999
 40
0.9999999999999999
 10
245.4436872160612
 20
114.95658493226
 30
0.0
 10
245.5168752638868
 20
114.7516033064914
 30
0.0
 10
245.6421067512633
 20
114.4008608745983
 30
0.0
 10
245.8590509631396
 20
113.82200632672
 30
0.0
 10
245.9774715965531
 20
113.5132230831196
 30
0.0
 10
246.0299659526526
 20
113.3763434103814
 30
0.0
  0
LINE
  5
BB
330
1F
100
AcDbEntity
  8
0
  6
Continuous
 62
     7
370
    15
100
AcDbLine
 10
248.4452951706
 20
115.2080840533
 30
0.0
 11
248.8354075706
 21
114.436397735
 31
0.0
  0
LINE
  5
BC
330
1F
100
AcDbEntity
  8
0
  6
Continuous
 62
     7
370
    15
100
AcDbLine
 10
248.4452951706
 20
115.2080840533
 30
0.0
 11
248.1521595276
 21
115.9982047379
 31
0.0
  0
LINE
  5
BD
330
1F
100
AcDbEntity
  8
0
  6
Continuous
 62
     7
370
    15
100
AcDbLine
 10
247.3357174552
 20
113.8879361083
 30
0.0
 11
247.7258224046
 21
113.1162497608
 31
0.0
  0
LINE
  5
BE
330
1F
100
AcDbEntity
  8
0
  6
Continuous
 62
     7
370
    15
100
AcDbLine
 10
247.3357174552
 20
113.8879361083
 30
0.0
 11
247.8905100382
 21
114.5480101099
 31
0.0
  0
LINE
  5
BF
330
1F
100
AcDbEntity
  8
0
  6
Continuous
 62
     7
370
    15
100
AcDbLine
 10
247.8905100382
 20
114.5480101099
 30
0.0
 11
248.4452951706
 21
115.2080840533
 31
0.0
  0
LINE
  5
C0
330
1F
100
AcDbEntity
  8
0
  6
Continuous
 62
     7
370
    15
100
AcDbLine
 10
245.7438338554
 20
114.1320833107
 30
0.0
 11
246.4877892292
 21
114.0179829076
 31
0.0
  0
LINE
  5
C1
330
1F
100
AcDbEntity
  8
0
  6
Continuous
 62
     7
370
    15
100
AcDbLine
 10
246.4877892292
 20
114.0179829076
 30
0.0
 11
247.3357174552
 21
113.8879361083
 31
0.0
  0
ARC
  5
C2
330
1F
100
AcDbEntity
  8
0
  6
Continuous
 62
     7
370
    15
100
AcDbCircle
 10
246.7766427391
 20
115.4976793754
 30
0.0
 40
1.463752736545198
100
AcDbArc
 50
319.5495069355
 51
19.995519703
  0
ARC
  5
C3
330
1F
100
AcDbEntity
  8
0
  6
Continuous
 62
     7
370
    15
100
AcDbCircle
 10
246.7160098187
 20
115.5351644373
 30
0.0
 40
1.534250446174301
100
AcDbArc
 50
261.4454742592
 51
319.9533231955
  0
ARC
  5
C4
330
1F
100
AcDbEntity
  8
0
  6
Continuous
 62
     7
370
    15
100
AcDbCircle
 10
246.703241685
 20
115.4576712086
 30
0.0
 40
1.455720496842415
100
AcDbArc
 50
219.4248719828
 51
261.4887269142
  0
LINE
  5
C5
330
1F
100
AcDbEntity
  8
0
  6
Continuous
 62
     7
370
    15
100
AcDbLine
 10
243.3348078287
 20
109.4624641686
 30
0.0
 11
244.273864106
 21
106.4858585
 31
0.0
  0
LINE
  5
C6
330
1F
100
AcDbEntity
  8
0
  6
Continuous
 62
     7
370
    15
100
AcDbLine
 10
243.0215481675
 20
110.1000531912
 30
0.0
 11
243.0337596691
 21
110.057969518
 31
0.0
  0
LINE
  5
C7
330
1F
100
AcDbEntity
  8
0
  6
Continuous
 62
     7
370
    15
100
AcDbLine
 10
243.0337596691
 20
110.057969518
 30
0.0
 11
243.9728159464
 21
107.081364315
 31
0.0
  0
ARC
  5
C8
330
1F
100
AcDbEntity
  8
0
  6
Continuous
 62
     7
370
    15
100
AcDbCircle
 10
256.3969411592
 20
106.7406609581
 30
0.0
 40
0.9450463916675758
100
AcDbArc
 50
26.8062213716
 51
38.9479972507
  0
LINE
  5
C9
330
1F
100
AcDbEntity
  8
0
  6
Continuous
 62
     7
370
    15
100
AcDbLine
 10
243.6609867966
 20
109.2194862999
 30
0.0
 11
247.9157302535
 21
95.7328560166
 31
0.0
  0
ARC
  5
CA
330
1F
100
AcDbEntity
  8
0
  6
Continuous
 62
     7
370
    15
100
AcDbCircle
 10
244.0475397035
 20
109.3323504776
 30
0.0
 40
0.4026927766946658
100
AcDbArc
 50
73.3018380046
 51
196.2765381744
  0
LINE
  5
CB
330
1F
100
AcDbEntity
  8
0
  6
Continuous
 62
     7
370
    15
100
AcDbLine
 10
257.9136420047
 20
105.65749643
 30
0.0
 11
244.1632453358
 21
109.7180623896
 31
0.0
  0
ARC
  5
CC
330
1F
100
AcDbEntity
  8
0
  6
Continuous
 62
     7
370
    15
100
AcDbCircle
 10
257.8069049003
 20
105.2898059336
 30
0.0
 40
0.3828695738153798
100
AcDbArc
 50
17.6641958103
 51
73.812482294
  0
LINE
  5
CD
330
1F
100
AcDbEntity
  8
0
  6
Continuous
 62
     7
370
    15
100
AcDbLine
 10
262.4264661229
 20
91.9193508439
 30
0.0
 11
258.171722666
 21
105.4059829898
 31
0.0
  0
ARC
  5
CE
330
1F
100
AcDbEntity
  8
0
  6
Continuous
 62
     7
370
    15
100
AcDbCircle
 10
262.0399113531
 20
91.8064899838
 30
0.0
 40
0.4026936351314648
100
AcDbArc
 50
253.3021513767
 51
16.2760107546
  0
LINE
  5
CF
330
1F
100
AcDbEntity
  8
0
  6
Continuous
 62
     7
370
    15
100
AcDbLine
 10
248.1738109148
 20
95.4813411794
 30
0.0
 11
261.9242075837
 21
91.4207766168
 31
0.0
  0
ARC
  5
D0
330
1F
100
AcDbEntity
  8
0
  6
Continuous
 62
     7
370
    15
100
AcDbCircle
 10
248.2805502371
 20
95.8490333063
 30
0.0
 40
0.3828717580119294
100
AcDbArc
 50
197.6641283993
 51
253.8122315729
  0
ARC
  5
D1
330
1F
100
AcDbEntity
  8
0
  6
Continuous
 62
     7
370
    15
100
AcDbCircle
 10
262.0402321936
 20
91.8059494313
 30
0.0
 40
0.3825542294729269
100
AcDbArc
 50
253.3013131347
 51
16.277319512
  0
LINE
  5
D2
330
1F
100
AcDbEntity
  8
0
  6
Continuous
 62
     7
370
    15
100
AcDbLine
 10
262.4074522412
 20
91.9131743125
 30
0.0
 11
258.1527087844
 21
105.3998064585
 31
0.0
  0
ARC
  5
D3
330
1F
100
AcDbEntity
  8
0
  6
Continuous
 62
     7
370
    15
100
AcDbCircle
 10
257.8061516193
 20
105.2894618356
 30
0.0
 40
0.363700157363469
100
AcDbArc
 50
17.6615984768
 51
73.8132464265
  0
LINE
  5
D4
330
1F
100
AcDbEntity
  8
0
  6
Continuous
 62
     7
370
    15
100
AcDbLine
 10
257.9075399792
 20
105.6387442499
 30
0.0
 11
244.1571433103
 21
109.6993102096
 31
0.0
  0
ARC
  5
D5
330
1F
100
AcDbEntity
  8
0
  6
Continuous
 62
     7
370
    15
100
AcDbCircle
 10
244.0472198572
 20
109.3328893079
 30
0.0
 40
0.3825538428643386
100
AcDbArc
 50
73.3011599389
 51
196.2775853643
  0
LINE
  5
D6
330
1F
100
AcDbEntity
  8
0
  6
Continuous
 62
     7
370
    15
100
AcDbLine
 10
243.6800006783
 20
109.2256628312
 30
0.0
 11
247.9347441352
 21
95.7390325479
 31
0.0
  0
ARC
  5
D7
330
1F
100
AcDbEntity
  8
0
  6
Continuous
 62
     7
370
    15
100
AcDbCircle
 10
248.2812961426
 20
95.8493711979
 30
0.0
 40
0.3636934307096127
100
AcDbArc
 50
197.6609483905
 51
253.8137848872
  0
LINE
  5
D8
330
1F
100
AcDbEntity
  8
0
  6
Continuous
 62
     7
370
    15
100
AcDbLine
 10
248.1799129403
 20
95.5000942908
 30
0.0
 11
261.9303096092
 21
91.4395278655
 31
0.0
  0
LINE
  5
D9
330
1F
100
AcDbEntity
  8
0
  6
Continuous
 62
     7
370
    15
100
AcDbLine
 10
257.2498846805
 20
106.970503401
 30
0.0
 11
257.2465095675
 21
106.9714994505
 31
0.0
  0
LINE
  5
DA
330
1F
100
AcDbEntity
  8
0
  6
Continuous
 62
     7
370
    15
100
AcDbLine
 10
245.4791072762
 20
108.0255638212
 30
0.0
 11
244.0182272351
 21
109.3883821144
 31
0.0
  0
LINE
  5
DB
330
1F
100
AcDbEntity
  8
0
  6
Continuous
 62
     7
370
    15
100
AcDbLine
 10
257.3977116502
 20
105.0371019505
 30
0.0
 11
257.768623904
 21
105.3278161548
 31
0.0
  0
LINE
  5
DC
330
1F
100
AcDbEntity
  8
0
  6
Continuous
 62
     7
370
    15
100
AcDbLine
 10
246.1182255304
 20
107.8368280418
 30
0.0
 11
245.4791072762
 21
108.0255638212
 31
0.0
  0
LINE
  5
DD
330
1F
100
AcDbEntity
  8
0
  6
Continuous
 62
     7
370
    15
100
AcDbLine
 10
245.4791072762
 20
108.0255638212
 30
0.0
 11
245.676868037
 21
107.3987027034
 31
0.0
  0
LINE
  5
DE
330
1F
100
AcDbEntity
  8
0
  6
Continuous
 62
     7
370
    15
100
AcDbLine
 10
248.591721431
 20
96.2956449352
 30
0.0
 11
248.2729632414
 21
95.9017513655
 31
0.0
  0
LINE
  5
DF
330
1F
100
AcDbEntity
  8
0
  6
Continuous
 62
     7
370
    15
100
AcDbLine
 10
243.1422699249
 20
110.0727577563
 30
0.0
 11
244.273864106
 21
106.4858585
 31
0.0
  0
SPLINE
  5
E0
330
1F
100
AcDbEntity
  8
0
  6
Continuous
 62
     7
370
    15
100
AcDbSpline
210
0.0
220
0.0
230
1.0
 70
     8
 71
     3
 72
    14
 73
    10
 74
     0
 42
0.00000001
 43
0.00000001
 12
1.0
 22
0.0
 32
0.0
 13
1.0
 23
0.0
 33
0.0
 40
0.0
 40
0.0
 40
0.0
 40
0.0
 40
0.2210578386331806
 40
0.3460810252538872
 40
0.4396023371632375
 40
0.5338902458850335
 40
0.6146554406979826
 40
0.7517215788520419
 40
1.0
 40
1.0
 40
1.0
 40
1.0
 10
246.2558005011259
 20
107.2702383957578
 30
0.0
 10
246.296311384644
 20
107.3130463508837
 30
0.0
 10
246.3597339178079
 20
107.3800651052993
 30
0.0
 10
246.4149918823986
 20
107.4836596788473
 30
0.0
 10
246.4313474069781
 20
107.5653241818919
 30
0.0
 10
246.4172391667881
 20
107.6356952917557
 30
0.0
 10
246.3729305527374
 20
107.7045928378054
 30
0.0
 10
246.2765315899034
 20
107.7821189364305
 30
0.0
 10
246.1802560749443
 20
107.8153908611374
 30
0.0
 10
246.1182255304037
 20
107.8368280417992
 30
0.0
  0
ARC
  5
E1
330
1F
100
AcDbEntity
  8
0
  6
Continuous
 62
     7
370
    15
100
AcDbCircle
 10
248.0212729218
 20
105.453022941
 30
0.0
 40
1.006726635369648
100
AcDbArc
 50
73.3017761329
 51
196.2769186069
  0
LINE
  5
E2
330
1F
100
AcDbEntity
  8
0
  6
Continuous
 62
     7
370
    15
100
AcDbLine
 10
246.2558005011
 20
107.2702383958
 30
0.0
 11
246.2541613734
 21
107.2686062529
 31
0.0
  0
SPLINE
  5
E3
330
1F
100
AcDbEntity
  8
0
  6
Continuous
 62
     7
370
    15
100
AcDbSpline
210
0.0
220
0.0
230
1.0
 70
     8
 71
     3
 72
    14
 73
    10
 74
     0
 42
0.00000001
 43
0.00000001
 12
1.0
 22
0.0
 32
0.0
 13
1.0
 23
0.0
 33
0.0
 40
0.0
 40
0.0
 40
0.0
 40
0.0
 40
0.2234956187942464
 40
0.3567581249530086
 40
0.4531226756738867
 40
0.5344588364484981
 40
0.615731620533643
 40
0.7396158494547875
 40
1.0
 40
1.0
 40
1.0
 40
1.0
 10
245.6768680370032
 20
107.3987027033938
 30
0.0
 10
245.6968196820796
 20
107.3440105207829
 30
0.0
 10
245.7286677850786
 20
107.2567073305768
 30
0.0
 10
245.8006673526386
 20
107.1618282397759
 30
0.0
 10
245.8674843738239
 20
107.1136953681646
 30
0.0
 10
245.9345210127692
 20
107.0951846269891
 30
0.0
 10
246.0115250011833
 20
107.1011821784741
 30
0.0
 10
246.1276386459727
 20
107.1509847959346
 30
0.0
 10
246.2030570786456
 20
107.221097305499
 30
0.0
 10
246.2541613733946
 20
107.2686062529458
 30
0.0
  0
LINE
  5
E4
330
1F
100
AcDbEntity
  8
0
  6
Continuous
 62
     7
370
    15
100
AcDbLine
 10
247.0548976219
 20
105.1708575673
 30
0.0
 11
249.4361180818
 21
97.6228783242
 31
0.0
  0
LINE
  5
E5
330
1F
100
AcDbEntity
  8
0
  6
Continuous
 62
     7
370
    15
100
AcDbLine
 10
256.0061369097
 20
104.1447449811
 30
0.0
 11
248.3105365193
 21
106.417297326
 31
0.0
  0
ARC
  5
E6
330
1F
100
AcDbEntity
  8
0
  6
Continuous
 62
     7
370
    15
100
AcDbCircle
 10
255.7392868538
 20
103.2255169809
 30
0.0
 40
0.9571776577930958
100
AcDbArc
 50
17.664191476
 51
73.812092294
  0
LINE
  5
E7
330
1F
100
AcDbEntity
  8
0
  6
Continuous
 62
     7
370
    15
100
AcDbLine
 10
259.0325552976
 20
95.9679814391
 30
0.0
 11
256.6513348377
 21
103.5159606822
 31
0.0
  0
ARC
  5
E8
330
1F
100
AcDbEntity
  8
0
  6
Continuous
 62
     7
370
    15
100
AcDbCircle
 10
258.0661784849
 20
95.6858165086
 30
0.0
 40
1.006727963311288
100
AcDbArc
 50
253.3018886931
 51
16.2768702609
  0
LINE
  5
E9
330
1F
100
AcDbEntity
  8
0
  6
Continuous
 62
     7
370
    15
100
AcDbLine
 10
250.0813160098
 20
96.9940921627
 30
0.0
 11
257.7769164002
 21
94.7215402834
 31
0.0
  0
ARC
  5
EA
330
1F
100
AcDbEntity
  8
0
  6
Continuous
 62
     7
370
    15
100
AcDbCircle
 10
250.3481524277
 20
97.9133053084
 30
0.0
 40
0.9571595902203621
100
AcDbArc
 50
197.6634856901
 51
253.8126284094
  0
LWPOLYLINE
  5
EB
330
1F
100
AcDbEntity
  8
0
  6
Continuous
 62
     7
370
    15
100
AcDbPolyline
 90
       26
 70
   128
 43
0.0
 10
252.2562522447
 20
98.1503794305
 10
252.8882998979
 20
98.0470361523
 10
253.5301152623
 20
98.1021834872
 10
254.141368345
 20
98.312355984
 10
254.6836588538
 20
98.6643484197
 10
255.1229003823
 20
99.1360428147
 10
255.4315034306
 20
99.6978026218
 10
255.5900666869
 20
100.314328853
 10
255.588643626
 20
100.9468831457
 10
255.4273087537
 20
101.5557194464
 10
255.1162023103
 20
102.1025836803
 10
254.6748746193
 20
102.5531137697
 10
254.1310641921
 20
102.8790003024
 10
253.5189244902
 20
103.0597672201
 10
252.8769303119
 20
103.0840570442
 10
252.24541165
 20
102.9503433369
 10
251.6640577471
 20
102.6670266278
 10
251.1693988002
 20
102.2519091479
 10
250.7925037301
 20
101.73107538
 10
250.5570579326
 20
101.1372501366
 10
250.4778657115
 20
100.5077459253
 10
250.5598966038
 20
99.8821178786
 10
250.7979873574
 20
99.2996743284
 10
251.1771921075
 20
98.7970134578
 10
251.6736764467
 20
98.4057201408
 10
252.2562522447
 20
98.1503794305
  0
LWPOLYLINE
  5
EC
330
1F
100
AcDbEntity
  8
0
  6
Continuous
 62
     7
370
    15
100
AcDbPolyline
 90
        3
 70
   128
 43
0.0
 10
254.9390722072
 20
102.1214858033
 10
254.9248863018
 20
102.2598896511
 10
254.9132410443
 20
102.3387773298
  0
LWPOLYLINE
  5
ED
330
1F
100
AcDbEntity
  8
0
  6
Continuous
 62
     7
370
    15
100
AcDbPolyline
 90
        3
 70
   128
 43
0.0
 10
250.5104620016
 20
100.113068182
 10
250.5134347832
 20
100.1100208945
 10
250.9795058525
 20
99.7372497208
  0
LINE
  5
EE
330
1F
100
AcDbEntity
  8
0
  6
Continuous
 62
     7
370
    15
100
AcDbLine
 10
260.4411024606
 20
93.4441103004
 30
0.0
 11
262.0233599103
 21
91.8411849402
 31
0.0
  0
LINE
  5
EF
330
1F
100
AcDbEntity
  8
0
  6
Continuous
 62
     7
370
    15
100
AcDbLine
 10
260.4411024606
 20
93.4441103004
 30
0.0
 11
260.2433416999
 21
94.0709723495
 31
0.0
  0
ARC
  5
F0
330
1F
100
AcDbEntity
  8
0
  6
Continuous
 62
     7
370
    15
100
AcDbCircle
 10
257.1421936142
 20
106.6014329749
 30
0.0
 40
0.3844611100763468
100
AcDbArc
 50
26.9907534832
 51
73.7332820772
  0
SPLINE
  5
F1
330
1F
100
AcDbEntity
  8
0
  6
Continuous
 62
     7
370
    15
100
AcDbSpline
210
0.0
220
0.0
230
1.0
 70
     8
 71
     3
 72
    11
 73
     7
 74
     0
 42
0.00000001
 43
0.00000001
 12
1.0
 22
0.0
 32
0.0
 13
1.0
 23
0.0
 33
0.0
 40
0.0
 40
0.0
 40
0.0
 40
0.0
 40
0.3280465191661063
 40
0.6557054590734976
 40
0.9906985070839375
 40
1.0
 40
1.0
 40
1.0
 40
1.0
 10
257.3977116501509
 20
105.0371019504739
 30
0.0
 10
257.3419908673332
 20
104.9908211182324
 30
0.0
 10
257.2306151344942
 20
104.8983141334659
 30
0.0
 10
257.0584776451701
 20
104.7235108805418
 30
0.0
 10
256.9549853074082
 20
104.6032463912268
 30
0.0
 10
256.9083435453863
 20
104.5440669465024
 30
0.0
 10
256.9070834672629
 20
104.5424681491924
 30
0.0
  0
SPLINE
  5
F2
330
1F
100
AcDbEntity
  8
0
  6
Continuous
 62
     7
370
    15
100
AcDbSpline
210
0.0
220
0.0
230
1.0
 70
     8
 71
     3
 72
    11
 73
     7
 74
     0
 42
0.00000001
 43
0.00000001
 12
1.0
 22
0.0
 32
0.0
 13
1.0
 23
0.0
 33
0.0
 40
0.0
 40
0.0
 40
0.0
 40
0.0
 40
0.3280427619240134
 40
0.6557018748763433
 40
0.9906976344979311
 40
1.0
 40
1.0
 40
1.0
 40
1.0
 10
248.5917214310347
 20
96.29564493519793
 30
0.0
 10
248.6413599142774
 20
96.353951530778
 30
0.0
 10
248.7405788281086
 20
96.47049653184824
 30
0.0
 10
248.9153556296826
 20
96.64009234905272
 30
0.0
 10
249.0306647422014
 20
96.73694196546197
 30
0.0
 10
249.0859665489232
 20
96.77901933064967
 30
0.0
 10
249.0874607122122
 20
96.78015619141588
 30
0.0
  0
LINE
  5
F3
330
1F
100
AcDbEntity
  8
0
  6
Continuous
 62
     7
370
    15
100
AcDbLine
 10
259.8019842065
 20
93.6328465454
 30
0.0
 11
260.4411024606
 21
93.4441103004
 31
0.0
  0
ARC
  5
F4
330
1F
100
AcDbEntity
  8
0
  6
Continuous
 62
     7
370
    15
100
AcDbCircle
 10
259.5127073186
 20
94.3541635733
 30
0.0
 40
0.2166829150933589
100
AcDbArc
 50
314.4330863042
 51
315.0460465602
  0
SPLINE
  5
F5
330
1F
100
AcDbEntity
  8
0
  6
Continuous
 62
     7
370
    15
100
AcDbSpline
210
0.0
220
0.0
230
1.0
 70
     8
 71
     3
 72
    14
 73
    10
 74
     0
 42
0.00000001
 43
0.00000001
 12
1.0
 22
0.0
 32
0.0
 13
1.0
 23
0.0
 33
0.0
 40
0.0
 40
0.0
 40
0.0
 40
0.0
 40
0.2234965574297602
 40
0.3567648419960941
 40
0.4531220046002458
 40
0.534467007286302
 40
0.6157306576815363
 40
0.7396150777151392
 40
1.0
 40
1.0
 40
1.0
 40
1.0
 10
260.2433416998564
 20
94.07097234947214
 30
0.0
 10
260.2233914400977
 20
94.12566584449003
 30
0.0
 10
260.1915450825857
 20
94.21297240675958
 30
0.0
 10
260.1195348210434
 20
94.30784215006202
 30
0.0
 10
260.0527228665007
 20
94.3559839651499
 30
0.0
 10
259.9856853939271
 20
94.3744888596647
 30
0.0
 10
259.9086826906823
 20
94.36849324478551
 30
0.0
 10
259.792570796691
 20
94.31869010312697
 30
0.0
 10
259.7171525533413
 20
94.24857769821838
 30
0.0
 10
259.6660483634649
 20
94.20106879992018
 30
0.0
  0
SPLINE
  5
F6
330
1F
100
AcDbEntity
  8
0
  6
Continuous
 62
     7
370
    15
100
AcDbSpline
210
0.0
220
0.0
230
1.0
 70
     8
 71
     3
 72
    14
 73
    10
 74
     0
 42
0.00000001
 43
0.00000001
 12
1.0
 22
0.0
 32
0.0
 13
1.0
 23
0.0
 33
0.0
 40
0.0
 40
0.0
 40
0.0
 40
0.0
 40
0.221059156237288
 40
0.3460782464998859
 40
0.4395984545622477
 40
0.5338862207198499
 40
0.6146557902262575
 40
0.7517215404425183
 40
1.0
 40
1.0
 40
1.0
 40
1.0
 10
259.664401785153
 20
94.19943712276945
 30
0.0
 10
259.6238895991731
 20
94.15662950158968
 30
0.0
 10
259.5604659141991
 20
94.08961220754539
 30
0.0
 10
259.5052179876087
 20
93.98601262069415
 30
0.0
 10
259.4888652760476
 20
93.90435170508165
 30
0.0
 10
259.5029590881391
 20
93.83397542690986
 30
0.0
 10
259.5472827981827
 20
93.76508445205211
 30
0.0
 10
259.643675674222
 20
93.68755436068535
 30
0.0
 10
259.7399526529458
 20
93.65428323440176
 30
0.0
 10
259.8019842064558
 20
93.63284654540549
 30
0.0
  0
ELLIPSE
  5
F7
330
1F
100
AcDbEntity
  8
0
  6
Continuous
 62
     7
370
    15
100
AcDbEllipse
 10
252.7444514258
 20
101.283130669
 30
0.0
 11
2.09333716601634
 21
1.06795101100549
 31
0.0
210
0.0
220
0.0
230
1.0
 40
0.9741101241
 41
0.0
 42
6.283185307179586
  0
SPLINE
  5
F8
330
1F
100
AcDbEntity
  8
0
  6
HIDDEN
 62
     7
370
     0
100
AcDbSpline
210
0.0
220
0.0
230
1.0
 70
     8
 71
     3
 72
    58
 73
    54
 74
     0
 42
0.00000001
 43
0.00000001
 12
1.0
 22
0.0
 32
0.0
 13
1.0
 23
0.0
 33
0.0
 40
-0.0624999999999997
 40
-0.0624999999999997
 40
0.0
 40
0.0
 40
0.0312500000000002
 40
0.0312500000000002
 40
0.0625000000000004
 40
0.0625000000000004
 40
0.0937500000000006
 40
0.0937500000000006
 40
0.1250000000000008
 40
0.1250000000000008
 40
0.1875000000000009
 40
0.1875000000000009
 40
0.2500000000000011
 40
0.2500000000000011
 40
0.2812500000000011
 40
0.2812500000000011
 40
0.3125000000000012
 40
0.3125000000000012
 40
0.3437500000000013
 40
0.3437500000000013
 40
0.3750000000000014
 40
0.3750000000000014
 40
0.4062500000000014
 40
0.4062500000000014
 40
0.4375000000000016
 40
0.4375000000000016
 40
0.4687500000000016
 40
0.4687500000000016
 40
0.5000000000000016
 40
0.5000000000000016
 40
0.5625000000000017
 40
0.5625000000000017
 40
0.6250000000000018
 40
0.6250000000000018
 40
0.6562500000000017
 40
0.6562500000000017
 40
0.6875000000000014
 40
0.6875000000000014
 40
0.7187500000000013
 40
0.7187500000000013
 40
0.7500000000000012
 40
0.7500000000000012
 40
0.7812500000000011
 40
0.7812500000000011
 40
0.8125000000000009
 40
0.8125000000000009
 40
0.8437500000000008
 40
0.8437500000000008
 40
0.8750000000000007
 40
0.8750000000000007
 40
0.9375000000000003
 40
0.9375000000000003
 40
1.0
 40
1.0
 40
1.03125
 40
1.03125
 10
162.4430591619192
 20
113.1420967356459
 30
0.0
 10
162.4430591619192
 20
113.538750907318
 30
0.0
 10
162.4560411995914
 20
113.6687430681584
 30
0.0
 10
162.5068920018497
 20
113.9244626806107
 30
0.0
 10
162.5453839059027
 20
114.0515213644719
 30
0.0
 10
162.6457991916291
 20
114.2936845621307
 30
0.0
 10
162.7072353309021
 20
114.4085263465154
 30
0.0
 10
162.852368807213
 20
114.6258685440856
 30
0.0
 10
162.9367904960641
 20
114.7287101919333
 30
0.0
 10
163.2133906702289
 20
115.0052536726849
 30
0.0
 10
163.436389581496
 20
115.1542363088171
 30
0.0
 10
163.9176240990817
 20
115.3537793723718
 30
0.0
 10
164.1809235145907
 20
115.4063898454032
 30
0.0
 10
164.572486954631
 20
115.4066039041557
 30
0.0
 10
164.7050745652356
 20
115.3936050547501
 30
0.0
 10
164.9616402708349
 20
115.3425549707238
 30
0.0
 10
165.0863500370154
 20
115.3047837319116
 30
0.0
 10
165.3285892220425
 20
115.2045918237991
 30
0.0
 10
165.4456058758162
 20
115.1420064299745
 30
0.0
 10
165.6622490806624
 20
114.997301344264
 30
0.0
 10
165.7632558371209
 20
114.9146820028838
 30
0.0
 10
165.9500619327775
 20
114.7280379680938
 30
0.0
 10
166.0327754683094
 20
114.6270921201339
 30
0.0
 10
166.1776455976847
 20
114.4106109164522
 30
0.0
 10
166.2403158937814
 20
114.2936937514437
 30
0.0
 10
166.3407438318176
 20
114.0514972822453
 30
0.0
 10
166.3786150107474
 20
113.9268362913418
 30
0.0
 10
166.429877408523
 20
113.6704369422738
 30
0.0
 10
166.4430110491637
 20
113.5378260169759
 30
0.0
 10
166.4431549823025
 20
113.1461514046408
 30
0.0
 10
166.3907897250378
 20
112.8828673849802
 30
0.0
 10
166.1916290616871
 20
112.4013546711204
 30
0.0
 10
166.0428313883251
 20
112.1782335840755
 30
0.0
 10
165.7665307297389
 20
111.9014014355679
 30
0.0
 10
165.6637656826792
 20
111.8168942212837
 30
0.0
 10
165.4465484088848
 20
111.6715732795978
 30
0.0
 10
165.3317787154471
 20
111.6100510563357
 30
0.0
 10
165.0897921783024
 20
111.5094546530637
 30
0.0
 10
164.962709605411
 20
111.4708267649751
 30
0.0
 10
164.7070349054078
 20
111.4197486549089
 30
0.0
 10
164.5770943880636
 20
111.4066595151417
 30
0.0
 10
164.3128310203023
 20
111.4064079967832
 30
0.0
 10
164.1826201266554
 20
111.4192824668395
 30
0.0
 10
163.9268701812217
 20
111.4699013639716
 30
0.0
 10
163.7998527968544
 20
111.5082491827674
 30
0.0
 10
163.5575010691027
 20
111.6084833029607
 30
0.0
 10
163.4425982898163
 20
111.6698274899508
 30
0.0
 10
163.2251761246673
 20
111.8147324944799
 30
0.0
 10
163.1222397272226
 20
111.8990713866019
 30
0.0
 10
162.8454025700657
 20
112.1754724996437
 30
0.0
 10
162.6962473290016
 20
112.3983161326861
 30
0.0
 10
162.4962767437663
 20
112.8793794139367
 30
0.0
 10
162.4430591619192
 20
113.1420967356459
 30
0.0
 10
162.4430591619192
 20
113.538750907318
 30
0.0
  0
SPLINE
  5
F9
330
1F
100
AcDbEntity
  8
0
  6
HIDDEN
 62
     7
370
     0
100
AcDbSpline
210
0.0
220
0.0
230
1.0
 70
     8
 71
     3
 72
    12
 73
     8
 74
     0
 42
0.00000001
 43
0.00000001
 12
1.0
 22
0.0
 32
0.0
 13
1.0
 23
0.0
 33
0.0
 40
0.0
 40
0.0
 40
0.0
 40
0.0
 40
0.2500000000000004
 40
0.2500000000000004
 40
0.5000000000000008
 40
0.5000000000000008
 40
1.0
 40
1.0
 40
1.0
 40
1.0
 10
159.3749611639184
 20
107.5773198544423
 30
0.0
 10
159.3374492778738
 20
107.5773198544423
 30
0.0
 10
159.302161930169
 20
107.5625150401555
 30
0.0
 10
159.2432320819306
 20
107.5189231670297
 30
0.0
 10
159.2197063554615
 20
107.4914097409437
 30
0.0
 10
159.1594475676935
 20
107.4022780088301
 30
0.0
 10
159.1338528054042
 20
107.3358921582123
 30
0.0
 10
159.1151535427831
 20
107.2682877230349
 30
0.0
  0
LINE
  5
FA
330
1F
100
AcDbEntity
  8
0
  6
HIDDEN
 62
     7
370
     0
100
AcDbLine
 10
161.5111570811
 20
107.577319663
 30
0.0
 11
159.3749610713
 21
107.577319663
 31
0.0
  0
SPLINE
  5
FB
330
1F
100
AcDbEntity
  8
0
  6
HIDDEN
 62
     7
370
     0
100
AcDbSpline
210
0.0
220
0.0
230
1.0
 70
     8
 71
     3
 72
    12
 73
     8
 74
     0
 42
0.00000001
 43
0.00000001
 12
1.0
 22
0.0
 32
0.0
 13
1.0
 23
0.0
 33
0.0
 40
0.0
 40
0.0
 40
0.0
 40
0.0
 40
0.4999999999999916
 40
0.4999999999999916
 40
0.7499999999999958
 40
0.7499999999999958
 40
1.0
 40
1.0
 40
1.0
 40
1.0
 10
161.7709647810554
 20
107.2682877230349
 30
0.0
 10
161.7522715479249
 20
107.3358703594753
 30
0.0
 10
161.7266162505132
 20
107.4023529289527
 30
0.0
 10
161.6664556278267
 20
107.4913480118502
 30
0.0
 10
161.6423833160724
 20
107.5193499088494
 30
0.0
 10
161.5840017957218
 20
107.5624263095145
 30
0.0
 10
161.5485329680688
 20
107.5773198544423
 30
0.0
 10
161.51115715992
 20
107.5773198544423
 30
0.0
  0
ELLIPSE
  5
FC
330
1F
100
AcDbEntity
  8
0
  6
HIDDEN
 62
     7
370
     0
100
AcDbEllipse
 10
151.4941299895
 20
113.4065328501
 30
0.0
 11
-9.367417879781726
 21
19.74174915274994
 31
0.0
210
0.0
220
0.0
230
1.0
 40
0.3419987131
 41
3.292664382516902
 42
4.239566697061004
  0
SPLINE
  5
FD
330
1F
100
AcDbEntity
  8
0
  6
HIDDEN
 62
     7
370
     0
100
AcDbSpline
210
0.0
220
0.0
230
1.0
 70
     8
 71
     3
 72
    12
 73
     8
 74
     0
 42
0.00000001
 43
0.00000001
 12
1.0
 22
0.0
 32
0.0
 13
1.0
 23
0.0
 33
0.0
 40
0.0
 40
0.0
 40
0.0
 40
0.0
 40
0.249999999999997
 40
0.249999999999997
 40
0.499999999999994
 40
0.499999999999994
 40
1.0
 40
1.0
 40
1.0
 40
1.0
 10
161.51115715992
 20
94.2748764698606
 30
0.0
 10
161.5486690459647
 20
94.2748764698606
 30
0.0
 10
161.5839563936695
 20
94.27938001412313
 30
0.0
 10
161.6428862419079
 20
94.29275321357643
 30
0.0
 10
161.6664119683769
 20
94.30123811614754
 30
0.0
 10
161.726670756145
 20
94.32898591998213
 30
0.0
 10
161.7522655184343
 20
94.3499757837225
 30
0.0
 10
161.7709647810554
 20
94.37177656691203
 30
0.0
  0
LINE
  5
FE
330
1F
100
AcDbEntity
  8
0
  6
HIDDEN
 62
     7
370
     0
100
AcDbLine
 10
159.3749610713
 20
94.274876114
 30
0.0
 11
161.5111570811
 21
94.274876114
 31
0.0
  0
SPLINE
  5
FF
330
1F
100
AcDbEntity
  8
0
  6
HIDDEN
 62
     7
370
     0
100
AcDbSpline
210
0.0
220
0.0
230
1.0
 70
     8
 71
     3
 72
    12
 73
     8
 74
     0
 42
0.00000001
 43
0.00000001
 12
1.0
 22
0.0
 32
0.0
 13
1.0
 23
0.0
 33
0.0
 40
0.0
 40
0.0
 40
0.0
 40
0.0
 40
0.4999999999999978
 40
0.4999999999999978
 40
0.7499999999999989
 40
0.7499999999999989
 40
1.0
 40
1.0
 40
1.0
 40
1.0
 10
159.1151535427831
 20
94.37177656691203
 30
0.0
 10
159.1338467759135
 20
94.34998281328407
 30
0.0
 10
159.1595020733253
 20
94.32896265157444
 30
0.0
 10
159.2196626960118
 20
94.30125730561073
 30
0.0
 10
159.2437350077661
 20
94.29262208941735
 30
0.0
 10
159.3021165281166
 20
94.27940744419077
 30
0.0
 10
159.3375853557697
 20
94.27487646986059
 30
0.0
 10
159.3749611639184
 20
94.2748764698606
 30
0.0
  0
ELLIPSE
  5
100
330
1F
100
AcDbEntity
  8
0
  6
HIDDEN
 62
     7
370
     0
100
AcDbEllipse
 10
169.3919883344
 20
113.4065328501
 30
0.0
 11
9.367417879781643
 21
19.74174915274997
 31
0.0
210
0.0
220
0.0
230
1.0
 40
0.3419987131
 41
2.043618610118591
 42
2.990520924662727
  0
SPLINE
  5
101
330
1F
100
AcDbEntity
  8
0
  6
HIDDEN
 62
     7
370
     0
100
AcDbSpline
210
0.0
220
0.0
230
1.0
 70
     8
 71
     3
 72
    12
 73
     8
 74
     0
 42
0.00000001
 43
0.00000001
 12
1.0
 22
0.0
 32
0.0
 13
1.0
 23
0.0
 33
0.0
 40
0.0
 40
0.0
 40
0.0
 40
0.0
 40
0.2500000000000008
 40
0.2500000000000008
 40
0.5000000000000016
 40
0.5000000000000016
 40
1.0
 40
1.0
 40
1.0
 40
1.0
 10
159.3749611639184
 20
132.5381892303274
 30
0.0
 10
159.3374492778738
 20
132.5381892303274
 30
0.0
 10
159.3021619301691
 20
132.5336856860648
 30
0.0
 10
159.2432320819306
 20
132.5203124866115
 30
0.0
 10
159.2197063554615
 20
132.5118275840404
 30
0.0
 10
159.1594475676935
 20
132.4840797802059
 30
0.0
 10
159.1338528054042
 20
132.4630899164655
 30
0.0
 10
159.1151535427831
 20
132.4412891332759
 30
0.0
  0
LINE
  5
102
330
1F
100
AcDbEntity
  8
0
  6
HIDDEN
 62
     7
370
     0
100
AcDbLine
 10
161.5111570811
 20
132.5381895862
 30
0.0
 11
159.3749610713
 21
132.5381895862
 31
0.0
  0
SPLINE
  5
103
330
1F
100
AcDbEntity
  8
0
  6
HIDDEN
 62
     7
370
     0
100
AcDbSpline
210
0.0
220
0.0
230
1.0
 70
     8
 71
     3
 72
    12
 73
     8
 74
     0
 42
0.00000001
 43
0.00000001
 12
1.0
 22
0.0
 32
0.0
 13
1.0
 23
0.0
 33
0.0
 40
0.0
 40
0.0
 40
0.0
 40
0.0
 40
0.4999999999999947
 40
0.4999999999999947
 40
0.7499999999999973
 40
0.7499999999999973
 40
1.0
 40
1.0
 40
1.0
 40
1.0
 10
161.7709647810554
 20
132.4412891332759
 30
0.0
 10
161.7522715479249
 20
132.4630828869039
 30
0.0
 10
161.7266162505132
 20
132.4841030486135
 30
0.0
 10
161.6664556278267
 20
132.5118083945772
 30
0.0
 10
161.6423833160724
 20
132.5204436107707
 30
0.0
 10
161.5840017957218
 20
132.5336582559972
 30
0.0
 10
161.5485329680688
 20
132.5381892303274
 30
0.0
 10
161.51115715992
 20
132.5381892303274
 30
0.0
  0
ELLIPSE
  5
104
330
1F
100
AcDbEntity
  8
0
  6
HIDDEN
 62
     7
370
     0
100
AcDbEllipse
 10
151.4941299895
 20
113.4065328501
 30
0.0
 11
9.367417879781812
 21
19.74174915274993
 31
0.0
210
0.0
220
0.0
230
1.0
 40
0.3419987131
 41
5.185211263708414
 42
6.132113578252572
  0
SPLINE
  5
105
330
1F
100
AcDbEntity
  8
0
  6
HIDDEN
 62
     7
370
     0
100
AcDbSpline
210
0.0
220
0.0
230
1.0
 70
     8
 71
     3
 72
    12
 73
     8
 74
     0
 42
0.00000001
 43
0.00000001
 12
1.0
 22
0.0
 32
0.0
 13
1.0
 23
0.0
 33
0.0
 40
0.0
 40
0.0
 40
0.0
 40
0.0
 40
0.2500000000000042
 40
0.2500000000000042
 40
0.5000000000000084
 40
0.5000000000000084
 40
1.0
 40
1.0
 40
1.0
 40
1.0
 10
161.51115715992
 20
119.2357458457459
 30
0.0
 10
161.5486690459647
 20
119.2357458457459
 30
0.0
 10
161.5839563936694
 20
119.2505506600326
 30
0.0
 10
161.6428862419079
 20
119.2941425331585
 30
0.0
 10
161.6664119683769
 20
119.3216559592445
 30
0.0
 10
161.726670756145
 20
119.4107876913581
 30
0.0
 10
161.7522655184343
 20
119.4771735419759
 30
0.0
 10
161.7709647810554
 20
119.5447779771533
 30
0.0
  0
LINE
  5
106
330
1F
100
AcDbEntity
  8
0
  6
HIDDEN
 62
     7
370
     0
100
AcDbLine
 10
159.3749610713
 20
119.2357460372
 30
0.0
 11
161.5111570811
 21
119.2357460372
 31
0.0
  0
SPLINE
  5
107
330
1F
100
AcDbEntity
  8
0
  6
HIDDEN
 62
     7
370
     0
100
AcDbSpline
210
0.0
220
0.0
230
1.0
 70
     8
 71
     3
 72
    12
 73
     8
 74
     0
 42
0.00000001
 43
0.00000001
 12
1.0
 22
0.0
 32
0.0
 13
1.0
 23
0.0
 33
0.0
 40
0.0
 40
0.0
 40
0.0
 40
0.0
 40
0.500000000000001
 40
0.500000000000001
 40
0.7500000000000004
 40
0.7500000000000004
 40
1.0
 40
1.0
 40
1.0
 40
1.0
 10
159.1151535427831
 20
119.5447779771533
 30
0.0
 10
159.1338467759135
 20
119.4771953407129
 30
0.0
 10
159.1595020733253
 20
119.4107127712355
 30
0.0
 10
159.2196626960118
 20
119.321717688338
 30
0.0
 10
159.2437350077661
 20
119.2937157913388
 30
0.0
 10
159.3021165281166
 20
119.2506393906736
 30
0.0
 10
159.3375853557697
 20
119.2357458457459
 30
0.0
 10
159.3749611639184
 20
119.2357458457459
 30
0.0
  0
ELLIPSE
  5
108
330
1F
100
AcDbEntity
  8
0
  6
HIDDEN
 62
     7
370
     0
100
AcDbEllipse
 10
169.3919883344
 20
113.4065328501
 30
0.0
 11
-9.367417879781698
 21
19.74174915274996
 31
0.0
210
0.0
220
0.0
230
1.0
 40
0.3419987131
 41
0.1510717289270554
 42
1.09797404347119
  0
LINE
  5
109
330
1F
100
AcDbEntity
  8
0
  6
HIDDEN
 62
     7
370
     0
100
AcDbLine
 10
172.4430587149
 20
94.0065322779
 30
0.0
 11
172.4430587149
 21
132.8065334223
 31
0.0
  0
LINE
  5
10A
330
1F
100
AcDbEntity
  8
0
  6
HIDDEN
 62
     7
370
     0
100
AcDbLine
 10
152.4430591619
 20
133.1065329127
 30
0.0
 11
152.4430591619
 21
93.7065327875
 31
0.0
  0
LINE
  5
10B
330
1F
100
AcDbEntity
  8
0
  6
HIDDEN
 62
     7
370
     0
100
AcDbLine
 10
172.4430587149
 20
95.406533625
 30
0.0
 11
172.4430587149
 21
131.4065320752
 31
0.0
  0
SPLINE
  5
10C
330
1F
100
AcDbEntity
  8
0
  6
HIDDEN
 62
     7
370
     0
100
AcDbSpline
210
0.0
220
0.0
230
1.0
 70
     8
 71
     3
 72
    66
 73
    62
 74
     0
 42
0.00000001
 43
0.00000001
 12
1.0
 22
0.0
 32
0.0
 13
1.0
 23
0.0
 33
0.0
 40
-0.0312499999999993
 40
-0.0312499999999993
 40
0.0
 40
0.0
 40
0.0312499999999995
 40
0.0312499999999995
 40
0.0624999999999989
 40
0.0624999999999989
 40
0.0937499999999984
 40
0.0937499999999984
 40
0.1249999999999978
 40
0.1249999999999978
 40
0.1562499999999973
 40
0.1562499999999973
 40
0.1874999999999968
 40
0.1874999999999968
 40
0.2187499999999962
 40
0.2187499999999962
 40
0.2499999999999957
 40
0.2499999999999957
 40
0.2812499999999951
 40
0.2812499999999951
 40
0.3124999999999946
 40
0.3124999999999946
 40
0.3437499999999941
 40
0.3437499999999941
 40
0.3749999999999935
 40
0.3749999999999935
 40
0.406249999999993
 40
0.406249999999993
 40
0.4374999999999925
 40
0.4374999999999925
 40
0.4687499999999919
 40
0.4687499999999919
 40
0.4999999999999913
 40
0.4999999999999913
 40
0.5624999999999929
 40
0.5624999999999929
 40
0.5937499999999937
 40
0.5937499999999937
 40
0.6249999999999944
 40
0.6249999999999944
 40
0.6562499999999953
 40
0.6562499999999953
 40
0.6874999999999961
 40
0.6874999999999961
 40
0.7187499999999968
 40
0.7187499999999968
 40
0.7499999999999974
 40
0.7499999999999974
 40
0.7812499999999981
 40
0.7812499999999981
 40
0.8124999999999988
 40
0.8124999999999988
 40
0.8437499999999994
 40
0.8437499999999994
 40
0.8750000000000001
 40
0.8750000000000001
 40
0.9375000000000013
 40
0.9375000000000013
 40
0.9687500000000007
 40
0.9687500000000007
 40
1.0
 40
1.0
 40
1.03125
 40
1.03125
 10
222.6084929096405
 20
120.6677182255542
 30
0.0
 10
222.2776254141979
 20
120.6677182255542
 30
0.0
 10
222.1150076664705
 20
120.6530576392676
 30
0.0
 10
221.7951578077354
 20
120.5955675864374
 30
0.0
 10
221.6362493158788
 20
120.5520222203162
 30
0.0
 10
221.3336262665533
 20
120.4382596166977
 30
0.0
 10
221.1901362130274
 20
120.3685652831676
 30
0.0
 10
220.9185762376773
 20
120.2033812621844
 30
0.0
 10
220.7901986811175
 20
120.1071401561635
 30
0.0
 10
220.5599915646196
 20
119.8960603404119
 30
0.0
 10
220.4565969207076
 20
119.7804547629167
 30
0.0
 10
220.273826953592
 20
119.5280052234929
 30
0.0
 10
220.1963187294165
 20
119.3933411097467
 30
0.0
 10
220.0715511556157
 20
119.1129279962472
 30
0.0
 10
220.0234153758877
 20
118.9650977433397
 30
0.0
 10
219.9590937409955
 20
118.661126362811
 30
0.0
 10
219.9431524601564
 20
118.507476775229
 30
0.0
 10
219.9429666724956
 20
118.1968374769834
 30
0.0
 10
219.9592546842826
 20
118.0382387729851
 30
0.0
 10
220.0231385787118
 20
117.7300941379402
 30
0.0
 10
220.0704030114798
 20
117.5795494116363
 30
0.0
 10
220.1958111223048
 20
117.2857849707366
 30
0.0
 10
220.2739779250645
 20
117.1435194517454
 30
0.0
 10
220.4547855585805
 20
116.8788780136188
 30
0.0
 10
220.5583220359064
 20
116.7546225851915
 30
0.0
 10
220.7911552423463
 20
116.5250454928964
 30
0.0
 10
220.9171255771389
 20
116.4229019834219
 30
0.0
 10
221.1875807925818
 20
116.2433890297966
 30
0.0
 10
221.3338420449666
 20
116.1653885526267
 30
0.0
 10
221.6362841357644
 20
116.0404013643803
 30
0.0
 10
221.7921036163879
 20
115.9930736573126
 30
0.0
 10
222.1129543775883
 20
115.9289371470731
 30
0.0
 10
222.2788151331831
 20
115.9124990929012
 30
0.0
 10
222.768641166623
 20
115.9123093094089
 30
0.0
 10
223.0980834226496
 20
115.9779919794519
 30
0.0
 10
223.5495413361863
 20
116.1641082557345
 30
0.0
 10
223.6952607145255
 20
116.2414101506685
 30
0.0
 10
223.9680837494076
 20
116.4221055412912
 30
0.0
 10
224.0938289709528
 20
116.5242098023556
 30
0.0
 10
224.3244949196811
 20
116.7510902108882
 30
0.0
 10
224.4300656265838
 20
116.8772226249193
 30
0.0
 10
224.6114510141849
 20
117.1423132888642
 30
0.0
 10
224.688396414034
 20
117.2820160408649
 30
0.0
 10
224.8143561803071
 20
117.5756768167491
 30
0.0
 10
224.8625682970923
 20
117.7287528274679
 30
0.0
 10
224.9264872457515
 20
118.03578781656
 30
0.0
 10
224.9429211331008
 20
118.1916865007703
 30
0.0
 10
224.9431954677078
 20
118.5059751584389
 30
0.0
 10
224.9271118617776
 20
118.6598015521075
 30
0.0
 10
224.8637259754245
 20
118.961159667167
 30
0.0
 10
224.8155999532309
 20
119.1102602151684
 30
0.0
 10
224.6903941882612
 20
119.392346911574
 30
0.0
 10
224.6137334775032
 20
119.5255783306117
 30
0.0
 10
224.4323870788166
 20
119.7769213655062
 30
0.0
 10
224.3271500511756
 20
119.8949820190402
 30
0.0
 10
223.982205495413
 20
120.2116841181236
 30
0.0
 10
223.703809968154
 20
120.381093660679
 30
0.0
 10
223.2528936242781
 20
120.5510249114
 30
0.0
 10
223.0949454429785
 20
120.5947008489714
 30
0.0
 10
222.7719448627614
 20
120.6530559539482
 30
0.0
 10
222.6084929096405
 20
120.6677182255542
 30
0.0
 10
222.2776254141979
 20
120.6677182255542
 30
0.0
  0
LINE
  5
10D
330
1F
100
AcDbEntity
  8
0
  6
HIDDEN
 62
     7
370
     0
100
AcDbLine
 10
152.4430591619
 20
97.606533613
 30
0.0
 11
152.4430591619
 21
129.2065320872
 31
0.0
  0
SPLINE
  5
10E
330
1F
100
AcDbEntity
  8
0
  6
HIDDEN
 62
     7
370
     0
100
AcDbSpline
210
0.0
220
0.0
230
1.0
 70
     8
 71
     3
 72
    18
 73
    14
 74
     0
 42
0.00000001
 43
0.00000001
 12
1.0
 22
0.0
 32
0.0
 13
1.0
 23
0.0
 33
0.0
 40
0.0
 40
0.0
 40
0.0
 40
0.0
 40
0.2499999999999993
 40
0.2499999999999993
 40
0.4999999999999987
 40
0.4999999999999987
 40
0.624999999999999
 40
0.624999999999999
 40
0.7499999999999993
 40
0.7499999999999993
 40
0.8749999999999997
 40
0.8749999999999997
 40
1.0
 40
1.0
 40
1.0
 40
1.0
 10
151.1869748443562
 20
123.2309727682453
 30
0.0
 10
151.221275888889
 20
123.1229625824477
 30
0.0
 10
151.2590961601858
 20
123.0156854944197
 30
0.0
 10
151.3457144806466
 20
122.8041887971031
 30
0.0
 10
151.3940858153901
 20
122.6998024469335
 30
0.0
 10
151.4834887975086
 20
122.5489275242892
 30
0.0
 10
151.5160860813858
 20
122.4995825212536
 30
0.0
 10
151.5924679853307
 20
122.4049768827833
 30
0.0
 10
151.6355064226715
 20
122.3599809480287
 30
0.0
 10
151.7413194555033
 20
122.2890531753709
 30
0.0
 10
151.8063578802344
 20
122.2651066314643
 30
0.0
 10
151.939509952037
 20
122.2773872955351
 30
0.0
 10
151.9988791325002
 20
122.31070425354
 30
0.0
 10
152.0480822730439
 20
122.3515391397647
 30
0.0
  0
SPLINE
  5
10F
330
1F
100
AcDbEntity
  8
0
  6
HIDDEN
 62
     7
370
     0
100
AcDbSpline
210
0.0
220
0.0
230
1.0
 70
     8
 71
     3
 72
    16
 73
    12
 74
     0
 42
0.00000001
 43
0.00000001
 12
1.0
 22
0.0
 32
0.0
 13
1.0
 23
0.0
 33
0.0
 40
0.0
 40
0.0
 40
0.0
 40
0.0
 40
0.0625000000000016
 40
0.0625000000000016
 40
0.1250000000000033
 40
0.1250000000000033
 40
0.2500000000000048
 40
0.2500000000000048
 40
0.5000000000000032
 40
0.5000000000000032
 40
1.0
 40
1.0
 40
1.0
 40
1.0
 10
152.0480822730131
 20
122.3515391397942
 30
0.0
 10
152.060152106289
 20
122.3615561887745
 30
0.0
 10
152.0744277612223
 20
122.3705152958301
 30
0.0
 10
152.1058921733467
 20
122.3783856912244
 30
0.0
 10
152.1213926981571
 20
122.3760282005821
 30
0.0
 10
152.156831594764
 20
122.3590525084041
 30
0.0
 10
152.1704242108674
 20
122.3385040172365
 30
0.0
 10
152.2034185292602
 20
122.2765616902228
 30
0.0
 10
152.214205922579
 20
122.2301661400177
 30
0.0
 10
152.2392591698581
 20
122.0872301113232
 30
0.0
 10
152.2430591619193
 20
121.9876673944377
 30
0.0
 10
152.2430591619194
 20
121.8858999897911
 30
0.0
  0
LINE
  5
110
330
1F
100
AcDbEntity
  8
0
  6
HIDDEN
 62
     7
370
     0
100
AcDbLine
 10
152.243059167
 20
104.9271658398
 30
0.0
 11
152.243059167
 21
121.8858998604
 31
0.0
  0
SPLINE
  5
111
330
1F
100
AcDbEntity
  8
0
  6
HIDDEN
 62
     7
370
     0
100
AcDbSpline
210
0.0
220
0.0
230
1.0
 70
     8
 71
     3
 72
    16
 73
    12
 74
     0
 42
0.00000001
 43
0.00000001
 12
1.0
 22
0.0
 32
0.0
 13
1.0
 23
0.0
 33
0.0
 40
0.0
 40
0.0
 40
0.0
 40
0.0
 40
0.5000000000000014
 40
0.5000000000000014
 40
0.7499999999999997
 40
0.7499999999999997
 40
0.8749999999999989
 40
0.8749999999999989
 40
0.9374999999999994
 40
0.9374999999999994
 40
1.0
 40
1.0
 40
1.0
 40
1.0
 10
152.2430591619192
 20
104.9271657103967
 30
0.0
 10
152.2430591619192
 20
104.8251555568166
 30
0.0
 10
152.2391757367603
 20
104.7256311815633
 30
0.0
 10
152.2143604114856
 20
104.5836460855527
 30
0.0
 10
152.2035209637731
 20
104.5366527849822
 30
0.0
 10
152.1703051817243
 20
104.4743600546206
 30
0.0
 10
152.1569234380955
 20
104.4540786223355
 30
0.0
 10
152.1214137882333
 20
104.4370369141351
 30
0.0
 10
152.1059968217325
 20
104.434650659119
 30
0.0
 10
152.0742957995839
 20
104.442586588977
 30
0.0
 10
152.0601495146331
 20
104.4515116623516
 30
0.0
 10
152.0480822730435
 20
104.4615265604235
 30
0.0
  0
SPLINE
  5
112
330
1F
100
AcDbEntity
  8
0
  6
HIDDEN
 62
     7
370
     0
100
AcDbSpline
210
0.0
220
0.0
230
1.0
 70
     8
 71
     3
 72
    18
 73
    14
 74
     0
 42
0.00000001
 43
0.00000001
 12
1.0
 22
0.0
 32
0.0
 13
1.0
 23
0.0
 33
0.0
 40
0.0
 40
0.0
 40
0.0
 40
0.0
 40
0.1249999999999996
 40
0.1249999999999996
 40
0.2499999999999993
 40
0.2499999999999993
 40
0.3749999999999989
 40
0.3749999999999989
 40
0.4999999999999986
 40
0.4999999999999986
 40
0.7499999999999992
 40
0.7499999999999992
 40
1.0
 40
1.0
 40
1.0
 40
1.0
 10
152.0480822730497
 20
104.4615265604309
 30
0.0
 10
151.9993767809075
 20
104.5019484361123
 30
0.0
 10
151.9408666725807
 20
104.5349805575801
 30
0.0
 10
151.8091375542886
 20
104.5482577095329
 30
0.0
 10
151.744378617948
 20
104.5253041225528
 30
0.0
 10
151.6391676450884
 20
104.4562509256332
 30
0.0
 10
151.5959512696485
 20
104.4117832737923
 30
0.0
 10
151.5197727645366
 20
104.3186136144223
 30
0.0
 10
151.4869178031567
 20
104.2694712448615
 30
0.0
 10
151.3965495233229
 20
104.1182615099216
 30
0.0
 10
151.3471262889528
 20
104.0121067403934
 30
0.0
 10
151.2594778339046
 20
103.7985251247319
 30
0.0
 10
151.2214186617018
 20
103.6905526934966
 30
0.0
 10
151.1869748443563
 20
103.5820929319427
 30
0.0
  0
SPLINE
  5
113
330
1F
100
AcDbEntity
  8
0
  6
HIDDEN
 62
     7
370
     0
100
AcDbSpline
210
0.0
220
0.0
230
1.0
 70
     8
 71
     3
 72
     8
 73
     4
 74
     0
 42
0.00000001
 43
0.00000001
 12
1.0
 22
0.0
 32
0.0
 13
1.0
 23
0.0
 33
0.0
 40
0.0
 40
0.0
 40
0.0
 40
0.0
 40
1.0
 40
1.0
 40
1.0
 40
1.0
 10
151.1869748443557
 20
103.5820929319421
 30
0.0
 10
151.1626611404655
 20
103.5055317743921
 30
0.0
 10
151.1411644985095
 20
103.4291064032589
 30
0.0
 10
151.1217388183595
 20
103.3530135324871
 30
0.0
  0
SPLINE
  5
114
330
1F
100
AcDbEntity
  8
0
  6
HIDDEN
 62
     7
370
     0
100
AcDbSpline
210
0.0
220
0.0
230
1.0
 70
     8
 71
     3
 72
     8
 73
     4
 74
     0
 42
0.00000001
 43
0.00000001
 12
1.0
 22
0.0
 32
0.0
 13
1.0
 23
0.0
 33
0.0
 40
0.0
 40
0.0
 40
0.0
 40
0.0
 40
1.0
 40
1.0
 40
1.0
 40
1.0
 10
151.1217388183595
 20
99.58146884208875
 30
0.0
 10
151.1411642452528
 20
99.57797163850147
 30
0.0
 10
151.1626607992219
 20
99.57595532085924
 30
0.0
 10
151.1869748443562
 20
99.57534446741536
 30
0.0
  0
SPLINE
  5
115
330
1F
100
AcDbEntity
  8
0
  6
HIDDEN
 62
     7
370
     0
100
AcDbSpline
210
0.0
220
0.0
230
1.0
 70
     8
 71
     3
 72
     8
 73
     4
 74
     0
 42
0.00000001
 43
0.00000001
 12
1.0
 22
0.0
 32
0.0
 13
1.0
 23
0.0
 33
0.0
 40
0.0
 40
0.0
 40
0.0
 40
0.0
 40
1.0
 40
1.0
 40
1.0
 40
1.0
 10
152.2202081488133
 20
99.48598607635724
 30
0.0
 10
152.2391450809791
 20
99.45803163895576
 30
0.0
 10
152.2430591619193
 20
99.43794778759943
 30
0.0
 10
152.2430591619194
 20
99.42172094343401
 30
0.0
  0
LINE
  5
116
330
1F
100
AcDbEntity
  8
0
  6
HIDDEN
 62
     7
370
     0
100
AcDbLine
 10
152.243059167
 20
99.3167128749
 30
0.0
 11
152.243059167
 21
99.4217213578
 31
0.0
  0
LINE
  5
117
330
1F
100
AcDbEntity
  8
0
  6
HIDDEN
 62
     7
370
     0
100
AcDbLine
 10
152.243059167
 20
127.3913443424
 30
0.0
 11
152.243059167
 21
127.4963528253
 31
0.0
  0
SPLINE
  5
118
330
1F
100
AcDbEntity
  8
0
  6
HIDDEN
 62
     7
370
     0
100
AcDbSpline
210
0.0
220
0.0
230
1.0
 70
     8
 71
     3
 72
    10
 73
     6
 74
     0
 42
0.00000001
 43
0.00000001
 12
1.0
 22
0.0
 32
0.0
 13
1.0
 23
0.0
 33
0.0
 40
0.0
 40
0.0
 40
0.0
 40
0.0
 40
0.5000000000000007
 40
0.5000000000000007
 40
1.0
 40
1.0
 40
1.0
 40
1.0
 10
152.2430591619192
 20
127.3913447567541
 30
0.0
 10
152.2430591619192
 20
127.381218556634
 30
0.0
 10
152.2410505828737
 20
127.3694579640802
 30
0.0
 10
152.2298673549683
 20
127.3414767493299
 30
0.0
 10
152.2215662212938
 20
127.3254964349922
 30
0.0
 10
152.2027198320516
 20
127.3051403529646
 30
0.0
  0
SPLINE
  5
119
330
1F
100
AcDbEntity
  8
0
  6
HIDDEN
 62
     7
370
     0
100
AcDbSpline
210
0.0
220
0.0
230
1.0
 70
     8
 71
     3
 72
     8
 73
     4
 74
     0
 42
0.00000001
 43
0.00000001
 12
1.0
 22
0.0
 32
0.0
 13
1.0
 23
0.0
 33
0.0
 40
0.0
 40
0.0
 40
0.0
 40
0.0
 40
1.0
 40
1.0
 40
1.0
 40
1.0
 10
151.1869748443559
 20
127.2377212327725
 30
0.0
 10
151.1626607992216
 20
127.2371103793286
 30
0.0
 10
151.1411642452528
 20
127.2350940616864
 30
0.0
 10
151.1217388183595
 20
127.2315968580992
 30
0.0
  0
SPLINE
  5
11A
330
1F
100
AcDbEntity
  8
0
  6
HIDDEN
 62
     7
370
     0
100
AcDbSpline
210
0.0
220
0.0
230
1.0
 70
     8
 71
     3
 72
     8
 73
     4
 74
     0
 42
0.00000001
 43
0.00000001
 12
1.0
 22
0.0
 32
0.0
 13
1.0
 23
0.0
 33
0.0
 40
0.0
 40
0.0
 40
0.0
 40
0.0
 40
1.0
 40
1.0
 40
1.0
 40
1.0
 10
151.1217388183595
 20
123.4600521677008
 30
0.0
 10
151.1411644985095
 20
123.383959296929
 30
0.0
 10
151.1626611404655
 20
123.3075339257959
 30
0.0
 10
151.1869748443556
 20
123.2309727682458
 30
0.0
  0
LINE
  5
11B
330
1F
100
AcDbEntity
  8
0
  6
HIDDEN
 62
     7
370
     0
100
AcDbLine
 10
152.243059167
 20
99.4217213578
 30
0.0
 11
152.243059167
 21
107.9010879025
 31
0.0
  0
LINE
  5
11C
330
1F
100
AcDbEntity
  8
0
  6
HIDDEN
 62
     7
370
     0
100
AcDbLine
 10
152.243059167
 20
118.9119777977
 30
0.0
 11
152.243059167
 21
127.3913443424
 31
0.0
  0
SPLINE
  5
11D
330
1F
100
AcDbEntity
  8
0
  6
HIDDEN
 62
     7
370
     0
100
AcDbSpline
210
0.0
220
0.0
230
1.0
 70
     8
 71
     3
 72
    54
 73
    50
 74
     0
 42
0.00000001
 43
0.00000001
 12
1.0
 22
0.0
 32
0.0
 13
1.0
 23
0.0
 33
0.0
 40
0.0
 40
0.0
 40
0.0
 40
0.0
 40
0.0624999999999942
 40
0.0624999999999942
 40
0.1249999999999883
 40
0.1249999999999883
 40
0.1562499999999856
 40
0.1562499999999856
 40
0.1874999999999828
 40
0.1874999999999828
 40
0.2031249999999825
 40
0.2031249999999825
 40
0.2187499999999822
 40
0.2187499999999822
 40
0.2343749999999819
 40
0.2343749999999819
 40
0.2499999999999816
 40
0.2499999999999816
 40
0.2812499999999822
 40
0.2812499999999822
 40
0.3124999999999828
 40
0.3124999999999828
 40
0.3749999999999841
 40
0.3749999999999841
 40
0.4374999999999854
 40
0.4374999999999854
 40
0.4999999999999867
 40
0.4999999999999867
 40
0.5624999999999879
 40
0.5624999999999879
 40
0.6249999999999892
 40
0.6249999999999892
 40
0.6562499999999887
 40
0.6562499999999887
 40
0.687499999999988
 40
0.687499999999988
 40
0.7499999999999899
 40
0.7499999999999899
 40
0.8124999999999917
 40
0.8124999999999917
 40
0.8749999999999936
 40
0.8749999999999936
 40
0.9374999999999953
 40
0.9374999999999953
 40
0.9687499999999961
 40
0.9687499999999961
 40
0.9843749999999981
 40
0.9843749999999981
 40
1.0
 40
1.0
 40
1.0
 40
1.0
 10
224.4909692273611
 20
109.8313888996078
 30
0.0
 10
224.4517381055818
 20
110.03108942212
 30
0.0
 10
224.3937304614039
 20
110.2180103561736
 30
0.0
 10
224.2504229871468
 20
110.5721313097741
 30
0.0
 10
224.1639822933098
 20
110.7403171869424
 30
0.0
 10
224.0219214617791
 20
110.973796354753
 30
0.0
 10
223.9724257103683
 20
111.048588907416
 30
0.0
 10
223.8735106221956
 20
111.1904884680184
 30
0.0
 10
223.8231169570887
 20
111.2580602712184
 30
0.0
 10
223.760188667461
 20
111.3492591371394
 30
0.0
 10
223.7415717330776
 20
111.3778870526778
 30
0.0
 10
223.7185424906518
 20
111.4260564475896
 30
0.0
 10
223.7152241722292
 20
111.4450023757254
 30
0.0
 10
223.7275212083944
 20
111.4679914283203
 30
0.0
 10
223.7422741498464
 20
111.4726899541802
 30
0.0
 10
223.7778411818
 20
111.4743514714409
 30
0.0
 10
223.7988048238935
 20
111.4715236590093
 30
0.0
 10
223.8650055265368
 20
111.4568898500632
 30
0.0
 10
223.9128284054894
 20
111.4391726616807
 30
0.0
 10
224.0058272296563
 20
111.3955290047651
 30
0.0
 10
224.0515905941443
 20
111.3692259381397
 30
0.0
 10
224.1832289453295
 20
111.2790332265051
 30
0.0
 10
224.2641885927713
 20
111.2032126994142
 30
0.0
 10
224.3997292667413
 20
111.0230629494374
 30
0.0
 10
224.4541281885981
 20
110.9197602114379
 30
0.0
 10
224.5283341851351
 20
110.6815841477014
 30
0.0
 10
224.5480126817481
 20
110.5441590494663
 30
0.0
 10
224.5359156869781
 20
110.2433729724108
 30
0.0
 10
224.5033521516846
 20
110.0757798530359
 30
0.0
 10
224.3784586451698
 20
109.7334660211558
 30
0.0
 10
224.2834014144728
 20
109.5531965073516
 30
0.0
 10
224.1062799386281
 20
109.3007832238791
 30
0.0
 10
224.0404673716308
 20
109.2178398010086
 30
0.0
 10
223.9019432062271
 20
109.0615424832276
 30
0.0
 10
223.8291618978324
 20
108.9878347734123
 30
0.0
 10
223.6013822848223
 20
108.7785903280684
 30
0.0
 10
223.4420538428589
 20
108.6594711846886
 30
0.0
 10
223.1196072412039
 20
108.4572230017015
 30
0.0
 10
222.9561569395021
 20
108.3741534000334
 30
0.0
 10
222.6374277103447
 20
108.2427146863027
 30
0.0
 10
222.4796565758032
 20
108.1929457103811
 30
0.0
 10
222.1670377463909
 20
108.1244682752335
 30
0.0
 10
222.0153331450653
 20
108.1048869044439
 30
0.0
 10
221.7799968341355
 20
108.1091456959177
 30
0.0
 10
221.7000682354261
 20
108.1158574628561
 30
0.0
 10
221.5714715834121
 20
108.1475793156936
 30
0.0
 10
221.5258744225284
 20
108.1624918010799
 30
0.0
 10
221.4331451326663
 20
108.204577061097
 30
0.0
 10
221.3868811434991
 20
108.2315801691347
 30
0.0
 10
221.3436775521084
 20
108.2616755640551
 30
0.0
  0
SPLINE
  5
11E
330
1F
100
AcDbEntity
  8
0
  6
HIDDEN
 62
     7
370
     0
100
AcDbSpline
210
0.0
220
0.0
230
1.0
 70
     8
 71
     3
 72
    16
 73
    12
 74
     0
 42
0.00000001
 43
0.00000001
 12
1.0
 22
0.0
 32
0.0
 13
1.0
 23
0.0
 33
0.0
 40
0.0
 40
0.0
 40
0.0
 40
0.0
 40
0.06250000000001
 40
0.06250000000001
 40
0.1250000000000201
 40
0.1250000000000201
 40
0.2500000000000235
 40
0.2500000000000235
 40
0.5000000000000155
 40
0.5000000000000155
 40
1.0
 40
1.0
 40
1.0
 40
1.0
 10
221.3745500237155
 20
108.0176252522641
 30
0.0
 10
221.4126619478183
 20
108.0005914999939
 30
0.0
 10
221.4527837404644
 20
107.9817438510272
 30
0.0
 10
221.5354316610945
 20
107.9403514463791
 30
0.0
 10
221.5762748998277
 20
107.9187194877234
 30
0.0
 10
221.6949809156444
 20
107.8549131054367
 30
0.0
 10
221.7675571502672
 20
107.8151928165599
 30
0.0
 10
221.9846786114243
 20
107.7048326941115
 30
0.0
 10
222.1233279843193
 20
107.6450492290699
 30
0.0
 10
222.5472187401293
 20
107.5060291261017
 30
0.0
 10
222.8409127192604
 20
107.4659868928914
 30
0.0
 10
223.1353501292485
 20
107.5037399689973
 30
0.0
  0
ARC
  5
11F
330
1F
100
AcDbEntity
  8
0
  6
HIDDEN
 62
     7
370
     0
100
AcDbCircle
 10
221.7456507822
 20
108.1885520651
 30
0.0
 40
0.408573445798251
100
AcDbArc
 50
169.690078005
 51
204.7304809233
  0
SPLINE
  5
120
330
1F
100
AcDbEntity
  8
0
  6
HIDDEN
 62
     7
370
     0
100
AcDbSpline
210
0.0
220
0.0
230
1.0
 70
     8
 71
     3
 72
    38
 73
    34
 74
     0
 42
0.00000001
 43
0.00000001
 12
1.0
 22
0.0
 32
0.0
 13
1.0
 23
0.0
 33
0.0
 40
0.0
 40
0.0
 40
0.0
 40
0.0
 40
0.1249999999999979
 40
0.1249999999999979
 40
0.2499999999999958
 40
0.2499999999999958
 40
0.3124999999999947
 40
0.3124999999999947
 40
0.3437499999999944
 40
0.3437499999999944
 40
0.3749999999999941
 40
0.3749999999999941
 40
0.4062499999999938
 40
0.4062499999999938
 40
0.4374999999999935
 40
0.4374999999999935
 40
0.4999999999999929
 40
0.4999999999999929
 40
0.5624999999999922
 40
0.5624999999999922
 40
0.6249999999999917
 40
0.6249999999999917
 40
0.6562499999999928
 40
0.6562499999999928
 40
0.6874999999999941
 40
0.6874999999999941
 40
0.7499999999999971
 40
0.7499999999999971
 40
0.8125
 40
0.8125
 40
0.875000000000003
 40
0.875000000000003
 40
1.0
 40
1.0
 40
1.0
 40
1.0
 10
223.1353501292486
 20
107.5037399689973
 30
0.0
 10
223.0161040672932
 20
107.6052257552183
 30
0.0
 10
222.9009134429965
 20
107.7104381884512
 30
0.0
 10
222.6831772232198
 20
107.9319988721845
 30
0.0
 10
222.5792460697952
 20
108.0481289821293
 30
0.0
 10
222.4490011374909
 20
108.2362952742387
 30
0.0
 10
222.4086636297361
 20
108.3005642255324
 30
0.0
 10
222.3743508295227
 20
108.4055209703605
 30
0.0
 10
222.3677708506417
 20
108.4431317545916
 30
0.0
 10
222.3861719738615
 20
108.5152456319128
 30
0.0
 10
222.4119918260546
 20
108.5465308834756
 30
0.0
 10
222.4729020211645
 20
108.6009634645946
 30
0.0
 10
222.5076095982035
 20
108.6256704827344
 30
0.0
 10
222.5766172645204
 20
108.6766104559331
 30
0.0
 10
222.6111579254115
 20
108.7026246407753
 30
0.0
 10
222.710898280141
 20
108.7855700051093
 30
0.0
 10
222.7721691787423
 20
108.8474299960692
 30
0.0
 10
222.877906701384
 20
108.9903059221184
 30
0.0
 10
222.9216546026547
 20
109.0713802874879
 30
0.0
 10
222.9914908980607
 20
109.2391816042309
 30
0.0
 10
223.0176212480476
 20
109.3276413106914
 30
0.0
 10
223.0679142811636
 20
109.4576028971521
 30
0.0
 10
223.0867810337856
 20
109.49971245685
 30
0.0
 10
223.1361973587304
 20
109.5772842219754
 30
0.0
 10
223.1678908980128
 20
109.6129074954484
 30
0.0
 10
223.2750069683279
 20
109.6984196710145
 30
0.0
 10
223.3616615414118
 20
109.7319836967406
 30
0.0
 10
223.5339173431336
 20
109.7808745953857
 30
0.0
 10
223.6221637222195
 20
109.796371709017
 30
0.0
 10
223.7967288478965
 20
109.8191165137282
 30
0.0
 10
223.8838546406987
 20
109.8261980881302
 30
0.0
 10
224.1447756551227
 20
109.8396932417149
 30
0.0
 10
224.3181190404925
 20
109.8384214267797
 30
0.0
 10
224.4909692273613
 20
109.8313888996073
 30
0.0
  0
SPLINE
  5
121
330
1F
100
AcDbEntity
  8
0
  6
HIDDEN
 62
     7
370
     0
100
AcDbSpline
210
0.0
220
0.0
230
1.0
 70
     8
 71
     3
 72
    62
 73
    58
 74
     0
 42
0.00000001
 43
0.00000001
 12
1.0
 22
0.0
 32
0.0
 13
1.0
 23
0.0
 33
0.0
 40
-0.0312500000000004
 40
-0.0312500000000004
 40
0.0
 40
0.0
 40
0.0312500000000007
 40
0.0312500000000007
 40
0.0625000000000014
 40
0.0625000000000014
 40
0.125
 40
0.125
 40
0.1874999999999986
 40
0.1874999999999986
 40
0.2187499999999985
 40
0.2187499999999985
 40
0.2499999999999984
 40
0.2499999999999984
 40
0.2812499999999984
 40
0.2812499999999984
 40
0.3124999999999983
 40
0.3124999999999983
 40
0.3437499999999982
 40
0.3437499999999982
 40
0.3749999999999981
 40
0.3749999999999981
 40
0.4374999999999979
 40
0.4374999999999979
 40
0.4687499999999978
 40
0.4687499999999978
 40
0.4999999999999978
 40
0.4999999999999978
 40
0.5312499999999977
 40
0.5312499999999977
 40
0.5624999999999977
 40
0.5624999999999977
 40
0.5937499999999976
 40
0.5937499999999976
 40
0.6249999999999974
 40
0.6249999999999974
 40
0.6562499999999974
 40
0.6562499999999974
 40
0.6874999999999973
 40
0.6874999999999973
 40
0.7187499999999973
 40
0.7187499999999973
 40
0.7499999999999972
 40
0.7499999999999972
 40
0.7812499999999971
 40
0.7812499999999971
 40
0.8124999999999971
 40
0.8124999999999971
 40
0.874999999999998
 40
0.874999999999998
 40
0.9062499999999986
 40
0.9062499999999986
 40
0.937499999999999
 40
0.937499999999999
 40
0.9687499999999996
 40
0.9687499999999996
 40
1.0
 40
1.0
 40
1.031250000000001
 40
1.031250000000001
 10
222.5842573858991
 20
114.2619556934789
 30
0.0
 10
222.3018609379394
 20
114.2619556934789
 30
0.0
 10
222.1635830609256
 20
114.2460516314611
 30
0.0
 10
221.8924169897177
 20
114.1846997732641
 30
0.0
 10
221.7582136622582
 20
114.1384359604322
 30
0.0
 10
221.379150482468
 20
113.9623382929728
 30
0.0
 10
221.1501435607743
 20
113.7925804399679
 30
0.0
 10
220.7691129417715
 20
113.3870580425025
 30
0.0
 10
220.6134898648499
 20
113.1470682504921
 30
0.0
 10
220.4544193882813
 20
112.7647316784544
 30
0.0
 10
220.4126922431379
 20
112.6305988909998
 30
0.0
 10
220.3574215419958
 20
112.3634120204099
 30
0.0
 10
220.3433416105061
 20
112.2301110739904
 30
0.0
 10
220.3427850441848
 20
111.964267367244
 30
0.0
 10
220.3567743216054
 20
111.8320522175322
 30
0.0
 10
220.4112558408411
 20
111.5817442432566
 30
0.0
 10
220.452106298996
 20
111.4609223311842
 30
0.0
 10
220.5587202658554
 20
111.233562471656
 30
0.0
 10
220.6234724081284
 20
111.1285468237201
 30
0.0
 10
220.775030950081
 20
110.9337219987411
 30
0.0
 10
220.8623690732541
 20
110.8438370447994
 30
0.0
 10
221.1481454942156
 20
110.6048017928163
 30
0.0
 10
221.3776818426814
 20
110.4801618913029
 30
0.0
 10
221.7539999786757
 20
110.3545922190074
 30
0.0
 10
221.8863328870364
 20
110.3222730277406
 30
0.0
 10
222.1603655460272
 20
110.2786698425159
 30
0.0
 10
222.2983907056494
 20
110.2678133654102
 30
0.0
 10
222.5764620868681
 20
110.2672350003197
 30
0.0
 10
222.7181750255384
 20
110.2779334554021
 30
0.0
 10
222.9905972812187
 20
110.3203697161904
 30
0.0
 10
223.1224254257158
 20
110.3518453422085
 30
0.0
 10
223.3778243213204
 20
110.4361194260795
 30
0.0
 10
223.4979903245097
 20
110.4878516159537
 30
0.0
 10
223.7231617370661
 20
110.6101233497426
 30
0.0
 10
223.8293127984003
 20
110.6816099469695
 30
0.0
 10
224.0207600871026
 20
110.8409436336895
 30
0.0
 10
224.1066941010221
 20
110.9288612413763
 30
0.0
 10
224.2591064190622
 20
111.1232502059723
 30
0.0
 10
224.3252899093496
 20
111.230045813311
 30
0.0
 10
224.4314716079007
 20
111.4545677666511
 30
0.0
 10
224.4724516711165
 20
111.5733610264882
 30
0.0
 10
224.5285318119138
 20
111.8257796275863
 30
0.0
 10
224.5427559873551
 20
111.9567139287884
 30
0.0
 10
224.5433526712266
 20
112.2211393555184
 30
0.0
 10
224.5295841037282
 20
112.357321306109
 30
0.0
 10
224.4747340367861
 20
112.6260070775076
 30
0.0
 10
224.4342375235097
 20
112.7575956355492
 30
0.0
 10
224.2747750523335
 20
113.1439090276889
 30
0.0
 10
224.1201066280193
 20
113.3833910970239
 30
0.0
 10
223.8317985966747
 20
113.6907784391945
 30
0.0
 10
223.7277737813269
 20
113.7832411613726
 30
0.0
 10
223.5033545231481
 20
113.9478601374953
 30
0.0
 10
223.3814237352876
 20
114.0205833795368
 30
0.0
 10
223.1289665838616
 20
114.1380197682426
 30
0.0
 10
222.9980800539444
 20
114.1833989893274
 30
0.0
 10
222.7261391362316
 20
114.2455373686079
 30
0.0
 10
222.5842573858991
 20
114.2619556934789
 30
0.0
 10
222.3018609379394
 20
114.2619556934789
 30
0.0
  0
SPLINE
  5
122
330
1F
100
AcDbEntity
  8
0
  6
HIDDEN
 62
     7
370
     0
100
AcDbSpline
210
0.0
220
0.0
230
1.0
 70
     8
 71
     3
 72
     8
 73
     4
 74
     0
 42
0.00000001
 43
0.00000001
 12
1.0
 22
0.0
 32
0.0
 13
1.0
 23
0.0
 33
0.0
 40
0.0
 40
0.0
 40
0.0
 40
0.0
 40
1.0
 40
1.0
 40
1.0
 40
1.0
 10
221.3436775520981
 20
108.2616755640555
 30
0.0
 10
221.3404073588124
 20
108.1883054234174
 30
0.0
 10
221.35050774968
 20
108.1067624583023
 30
0.0
 10
221.3745500237205
 20
108.0176252522616
 30
0.0
  0
LWPOLYLINE
  5
123
330
1F
100
AcDbEntity
  8
0
  6
HIDDEN
 62
     7
370
     0
100
AcDbPolyline
 90
       18
 70
   128
 43
0.0
 10
223.1353525078
 20
107.5037400573
 10
222.5524488843
 20
107.3948046528
 10
221.9607982791
 20
107.4454723261
 10
221.4077342308
 20
107.6516876332
 10
220.9375206387
 20
107.9969498664
 10
220.5877754843
 20
108.4536304101
 10
220.3864980495
 20
108.9851850979
 10
220.3497890389
 20
109.5490785651
 10
220.4805839813
 20
110.1001873016
 10
220.7684222615
 20
110.5944110881
 10
221.1902592337
 20
110.9922013115
 10
221.7123512185
 20
111.2617267631
 10
222.2929153598
 20
111.381419409
 10
222.8854972875
 20
111.341701528
 10
223.4426666057
 20
111.1457512583
 10
223.9198539412
 20
110.8092488125
 10
224.2788601673
 20
110.35912152
 10
224.4909707463
 20
109.8313889801
  0
CIRCLE
  5
124
330
1F
100
AcDbEntity
  8
0
  6
HIDDEN
 62
     7
370
     0
100
AcDbCircle
 10
140.9430591619
 20
113.4065328501
 30
0.0
 40
2.299999999999997
  0
LINE
  5
125
330
1F
100
AcDbEntity
  8
0
  6
HIDDEN
 62
     7
370
     0
100
AcDbLine
 10
129.4700916863
 20
122.9692263864
 30
0.0
 11
129.4700916863
 21
103.8438393138
 31
0.0
  0
LINE
  5
126
330
1F
100
AcDbEntity
  8
0
  6
HIDDEN
 62
     7
370
     0
100
AcDbLine
 10
128.4430589533
 20
103.250882063
 30
0.0
 11
128.4430589533
 21
123.5429210923
 31
0.0
  0
LINE
  5
127
330
1F
100
AcDbEntity
  8
0
  6
HIDDEN
 62
     7
370
     0
100
AcDbLine
 10
132.9700913286
 20
122.6374725215
 30
0.0
 11
132.9700913286
 21
104.1755931787
 31
0.0
  0
SPLINE
  5
128
330
1F
100
AcDbEntity
  8
0
  6
HIDDEN
 62
     7
370
     0
100
AcDbSpline
210
0.0
220
0.0
230
1.0
 70
     8
 71
     3
 72
    72
 73
    68
 74
     0
 42
0.00000001
 43
0.00000001
 12
1.0
 22
0.0
 32
0.0
 13
1.0
 23
0.0
 33
0.0
 40
-0.0312499999999999
 40
-0.0312499999999999
 40
0.0
 40
0.0
 40
0.0312500000000001
 40
0.0312500000000001
 40
0.0625000000000003
 40
0.0625000000000003
 40
0.0937500000000004
 40
0.0937500000000004
 40
0.1250000000000005
 40
0.1250000000000005
 40
0.1562500000000007
 40
0.1562500000000007
 40
0.1875000000000008
 40
0.1875000000000008
 40
0.2187500000000009
 40
0.2187500000000009
 40
0.2500000000000011
 40
0.2500000000000011
 40
0.2656250000000012
 40
0.2656250000000012
 40
0.2812500000000013
 40
0.2812500000000013
 40
0.3125000000000012
 40
0.3125000000000012
 40
0.3437500000000011
 40
0.3437500000000011
 40
0.3750000000000011
 40
0.3750000000000011
 40
0.4062500000000011
 40
0.4062500000000011
 40
0.437500000000001
 40
0.437500000000001
 40
0.468750000000001
 40
0.468750000000001
 40
0.5000000000000009
 40
0.5000000000000009
 40
0.5312500000000009
 40
0.5312500000000009
 40
0.5625000000000008
 40
0.5625000000000008
 40
0.5937500000000008
 40
0.5937500000000008
 40
0.6250000000000007
 40
0.6250000000000007
 40
0.6562500000000006
 40
0.6562500000000006
 40
0.6875000000000004
 40
0.6875000000000004
 40
0.7187500000000003
 40
0.7187500000000003
 40
0.7500000000000002
 40
0.7500000000000002
 40
0.7812500000000002
 40
0.7812500000000002
 40
0.8125000000000001
 40
0.8125000000000001
 40
0.84375
 40
0.84375
 40
0.875
 40
0.875
 40
0.90625
 40
0.90625
 40
0.9375000000000001
 40
0.9375000000000001
 40
0.9687500000000001
 40
0.9687500000000001
 40
1.0
 40
1.0
 40
1.03125
 40
1.03125
 10
245.2468922983419
 20
123.1053185287723
 30
0.0
 10
244.6840799066821
 20
123.1053185287723
 30
0.0
 10
244.4080576828452
 20
123.0808289462385
 30
0.0
 10
243.8658757472932
 20
122.986460829297
 30
0.0
 10
243.5969388957696
 20
122.9153886240649
 30
0.0
 10
243.0859140194544
 20
122.7320767131801
 30
0.0
 10
242.8434693224429
 20
122.620442337895
 30
0.0
 10
242.3832945231863
 20
122.3574543448021
 30
0.0
 10
242.1659970261819
 20
122.2056535121525
 30
0.0
 10
241.7718850288335
 20
121.8724744720136
 30
0.0
 10
241.5927018171678
 20
121.6898973490188
 30
0.0
 10
241.2709322271706
 20
121.2900671723787
 30
0.0
 10
241.1315730943331
 20
121.076325938963
 30
0.0
 10
240.9002312263125
 20
120.6276473798635
 30
0.0
 10
240.8072210655297
 20
120.3912696502946
 30
0.0
 10
240.6713410848803
 20
119.8934533905419
 30
0.0
 10
240.6306804247471
 20
119.640254277348
 30
0.0
 10
240.6103212158361
 20
119.2538865100526
 30
0.0
 10
240.6103534268559
 20
119.1239990331372
 30
0.0
 10
240.6245967210779
 20
118.8619610647313
 30
0.0
 10
240.6389833287629
 20
118.7290614090268
 30
0.0
 10
240.703088507372
 20
118.3359455215857
 30
0.0
 10
240.7733364008513
 20
118.0793074944882
 30
0.0
 10
240.968512284863
 20
117.5774747449986
 30
0.0
 10
241.0949185326901
 20
117.3311258206225
 30
0.0
 10
241.391853068422
 20
116.8733282212257
 30
0.0
 10
241.563172378478
 20
116.6588980909902
 30
0.0
 10
241.9523644095077
 20
116.2603852398232
 30
0.0
 10
242.1645769172444
 20
116.0822243204108
 30
0.0
 10
242.6203704680174
 20
115.7686617569139
 30
0.0
 10
242.8672141853999
 20
115.6318393503328
 30
0.0
 10
243.3781558642104
 20
115.4105540385204
 30
0.0
 10
243.6418982530578
 20
115.3254172184416
 30
0.0
 10
244.1859537644258
 20
115.2065368279416
 30
0.0
 10
244.4671647064049
 20
115.173470395147
 30
0.0
 10
245.0220266604468
 20
115.1630173433885
 30
0.0
 10
245.2987092994097
 20
115.1847246052213
 30
0.0
 10
245.850523010383
 20
115.283907664085
 30
0.0
 10
246.1195670231717
 20
115.3606217695403
 30
0.0
 10
246.6349776550663
 20
115.5635578667692
 30
0.0
 10
246.8851374972029
 20
115.6915528779827
 30
0.0
 10
247.353985444182
 20
115.992987026168
 30
0.0
 10
247.5704236666953
 20
116.1642836133003
 30
0.0
 10
247.9682107933914
 20
116.5463416714486
 30
0.0
 10
248.1505947477097
 20
116.7593339774163
 30
0.0
 10
248.464652206293
 20
117.2070427394864
 30
0.0
 10
248.5984095799031
 20
117.4431783841879
 30
0.0
 10
248.8190446932732
 20
117.9393526538319
 30
0.0
 10
248.9041872657348
 20
118.1968669861802
 30
0.0
 10
249.0206043364869
 20
118.7131063101536
 30
0.0
 10
249.0530173672633
 20
118.9757804410152
 30
0.0
 10
249.0641381109102
 20
119.500143439667
 30
0.0
 10
249.0430743875518
 20
119.7565399601138
 30
0.0
 10
248.9498260327142
 20
120.2583814697656
 30
0.0
 10
248.8763812228564
 20
120.506161835647
 30
0.0
 10
248.6823479634841
 20
120.9736474765639
 30
0.0
 10
248.5620963626039
 20
121.1946977318329
 30
0.0
 10
248.2742931691241
 20
121.6124591885274
 30
0.0
 10
248.1061770487088
 20
121.8086595047798
 30
0.0
 10
247.7350695925369
 20
122.1606348578183
 30
0.0
 10
247.5306296709508
 20
122.318836920301
 30
0.0
 10
247.0807721726845
 20
122.5990755360311
 30
0.0
 10
246.8406299890042
 20
122.7174508919135
 30
0.0
 10
246.3380833259716
 20
122.9084665847741
 30
0.0
 10
246.0717684565727
 20
122.9823303599407
 30
0.0
 10
245.5245761833699
 20
123.0807867607208
 30
0.0
 10
245.2468922983419
 20
123.1053185287723
 30
0.0
 10
244.6840799066821
 20
123.1053185287723
 30
0.0
  0
ELLIPSE
  5
129
330
1F
100
AcDbEntity
  8
0
  6
HIDDEN
 62
     7
370
     0
100
AcDbEllipse
 10
255.0189338905
 20
113.4065328501
 30
0.0
 11
-5.368298186719868
 21
16.49894757830354
 31
0.0
210
0.0
220
0.0
230
1.0
 40
0.0347142918
 41
6.271890723419028
 42
7.842687050213508
  0
LINE
  5
12A
330
1F
100
AcDbEntity
  8
0
  6
HIDDEN
 62
     7
370
     0
100
AcDbLine
 10
236.9430590427
 20
113.4065328501
 30
0.0
 11
236.9430590427
 21
129.9065327607
 31
0.0
  0
SPLINE
  5
12B
330
1F
100
AcDbEntity
  8
0
  6
HIDDEN
 62
     7
370
     0
100
AcDbSpline
210
0.0
220
0.0
230
1.0
 70
     8
 71
     3
 72
    12
 73
     8
 74
     0
 42
0.00000001
 43
0.00000001
 12
1.0
 22
0.0
 32
0.0
 13
1.0
 23
0.0
 33
0.0
 40
0.0
 40
0.0
 40
0.0
 40
0.0
 40
0.2500000000000001
 40
0.2500000000000001
 40
0.5000000000000001
 40
0.5000000000000001
 40
1.0
 40
1.0
 40
1.0
 40
1.0
 10
236.9430591619193
 20
113.4065328500939
 30
0.0
 10
236.9430591619192
 20
112.9205260908544
 30
0.0
 10
236.9648724122637
 20
112.4306391493262
 30
0.0
 10
237.0500930540129
 20
111.4634347750888
 30
0.0
 10
237.1133344508839
 20
110.9843698172213
 30
0.0
 10
237.3597205365039
 20
109.5596361457151
 30
0.0
 10
237.5995003140527
 20
108.6264227388958
 30
0.0
 10
237.8998629930906
 20
107.706532850094
 30
0.0
  0
SPLINE
  5
12C
330
1F
100
AcDbEntity
  8
0
  6
HIDDEN
 62
     7
370
     0
100
AcDbSpline
210
0.0
220
0.0
230
1.0
 70
     8
 71
     3
 72
    12
 73
     8
 74
     0
 42
0.00000001
 43
0.00000001
 12
1.0
 22
0.0
 32
0.0
 13
1.0
 23
0.0
 33
0.0
 40
0.0
 40
0.0
 40
0.0
 40
0.0
 40
0.219179630801393
 40
0.4408851155317024
 40
0.632593478101954
 40
0.8297302071590014
 40
1.0
 40
1.0
 40
1.0
 40
1.0
 10
240.4207069432913
 20
99.60881847513447
 30
0.0
 10
239.8878605357525
 20
99.40186396348275
 30
0.0
 10
238.8160271309354
 20
98.98556997007763
 30
0.0
 10
237.661431359429
 20
98.3492773685813
 30
0.0
 10
236.9967033072722
 20
97.70881688974612
 30
0.0
 10
236.8520228726257
 20
97.10571768891467
 30
0.0
 10
237.1833024495994
 20
96.71760071074203
 30
0.0
 10
237.336829677838
 20
96.53773292524347
 30
0.0
  0
SPLINE
  5
12D
330
1F
100
AcDbEntity
  8
0
  6
HIDDEN
 62
     7
370
     0
100
AcDbSpline
210
0.0
220
0.0
230
1.0
 70
     8
 71
     3
 72
    12
 73
     8
 74
     0
 42
0.00000001
 43
0.00000001
 12
1.0
 22
0.0
 32
0.0
 13
1.0
 23
0.0
 33
0.0
 40
0.0
 40
0.0
 40
0.0
 40
0.0
 40
0.2499999999999999
 40
0.2499999999999999
 40
0.4999999999999998
 40
0.4999999999999998
 40
1.0
 40
1.0
 40
1.0
 40
1.0
 10
240.4207082950843
 20
99.60881877249146
 30
0.0
 10
240.2346683468583
 20
100.2312807220988
 30
0.0
 10
240.0411766149836
 20
100.8742146963786
 30
0.0
 10
239.6378113904391
 20
102.2014822647605
 30
0.0
 10
239.4308758570643
 20
102.8760852335708
 30
0.0
 10
238.7986674240207
 20
104.913712868977
 30
0.0
 10
238.3598810292429
 20
106.297682917478
 30
0.0
 10
237.8998629930906
 20
107.706532850094
 30
0.0
  0
LINE
  5
12E
330
1F
100
AcDbEntity
  8
0
  6
HIDDEN
 62
     7
370
     0
100
AcDbLine
 10
136.3700911409
 20
122.4065324627
 30
0.0
 11
136.3700911409
 21
104.4065332375
 31
0.0
  0
LINE
  5
12F
330
1F
100
AcDbEntity
  8
0
  6
HIDDEN
 62
     7
370
     0
100
AcDbLine
 10
131.5700918442
 20
122.4065324627
 30
0.0
 11
131.5700918442
 21
104.4065332375
 31
0.0
  0
LINE
  5
130
330
1F
100
AcDbEntity
  8
0
  6
HIDDEN
 62
     7
370
     0
100
AcDbLine
 10
132.5700920081
 20
122.4065324627
 30
0.0
 11
132.5700920081
 21
104.4065332375
 31
0.0
  0
SPLINE
  5
131
330
1F
100
AcDbEntity
  8
0
  6
HIDDEN
 62
     7
370
     0
100
AcDbSpline
210
0.0
220
0.0
230
1.0
 70
     8
 71
     3
 72
    14
 73
    10
 74
     0
 42
0.00000001
 43
0.00000001
 12
1.0
 22
0.0
 32
0.0
 13
1.0
 23
0.0
 33
0.0
 40
0.0
 40
0.0
 40
0.0
 40
0.0
 40
0.25
 40
0.25
 40
0.5
 40
0.5
 40
0.75
 40
0.75
 40
1.0
 40
1.0
 40
1.0
 40
1.0
 10
142.9430591619193
 20
114.542314519254
 30
0.0
 10
143.0412835084222
 20
114.3693510894505
 30
0.0
 10
143.1165983464063
 20
114.1843185350261
 30
0.0
 10
143.2175650566006
 20
113.8013063208916
 30
0.0
 10
143.2429406428908
 20
113.606587767426
 30
0.0
 10
143.2431768681571
 20
113.2092124661604
 30
0.0
 10
143.2174737988215
 20
113.011720131685
 30
0.0
 10
143.1171536853051
 20
112.630548297054
 30
0.0
 10
143.0412618572175
 20
112.4436764850814
 30
0.0
 10
142.9430591619238
 20
112.2707511809315
 30
0.0
  0
LINE
  5
132
330
1F
100
AcDbEntity
  8
0
  6
HIDDEN
 62
     7
370
     0
100
AcDbLine
 10
143.4430595493
 20
121.9065323807
 30
0.0
 11
143.4430595493
 21
104.9065323882
 31
0.0
  0
SPLINE
  5
133
330
1F
100
AcDbEntity
  8
0
  6
HIDDEN
 62
     7
370
     0
100
AcDbSpline
210
0.0
220
0.0
230
1.0
 70
     8
 71
     3
 72
    14
 73
    10
 74
     0
 42
0.00000001
 43
0.00000001
 12
1.0
 22
0.0
 32
0.0
 13
1.0
 23
0.0
 33
0.0
 40
0.0
 40
0.0
 40
0.0
 40
0.0
 40
0.25
 40
0.25
 40
0.5
 40
0.5
 40
0.75
 40
0.75
 40
1.0
 40
1.0
 40
1.0
 40
1.0
 10
142.9430591619193
 20
112.2707511809339
 30
0.0
 10
143.0412835084222
 20
112.4437146107374
 30
0.0
 10
143.1165983464063
 20
112.6287471651618
 30
0.0
 10
143.2175650566006
 20
113.0117593792963
 30
0.0
 10
143.2429406428908
 20
113.2064779327619
 30
0.0
 10
143.2431768681571
 20
113.6038532340275
 30
0.0
 10
143.2174737988215
 20
113.8013455685029
 30
0.0
 10
143.1171536853051
 20
114.1825174031339
 30
0.0
 10
143.0412618572175
 20
114.3693892151065
 30
0.0
 10
142.9430591619238
 20
114.5423145192564
 30
0.0
  0
SPLINE
  5
134
330
1F
100
AcDbEntity
  8
0
  6
HIDDEN
 62
     7
370
     0
100
AcDbSpline
210
0.0
220
0.0
230
1.0
 70
     8
 71
     3
 72
    60
 73
    56
 74
     0
 42
0.00000001
 43
0.00000001
 12
1.0
 22
0.0
 32
0.0
 13
1.0
 23
0.0
 33
0.0
 40
0.0
 40
0.0
 40
0.0
 40
0.0
 40
0.0624999999999998
 40
0.0624999999999998
 40
0.1249999999999995
 40
0.1249999999999995
 40
0.1874999999999993
 40
0.1874999999999993
 40
0.2187499999999991
 40
0.2187499999999991
 40
0.2499999999999989
 40
0.2499999999999989
 40
0.3124999999999991
 40
0.3124999999999991
 40
0.3749999999999992
 40
0.3749999999999992
 40
0.4062499999999993
 40
0.4062499999999993
 40
0.4374999999999993
 40
0.4374999999999993
 40
0.4687499999999994
 40
0.4687499999999994
 40
0.4999999999999994
 40
0.4999999999999994
 40
0.5312499999999996
 40
0.5312499999999996
 40
0.5624999999999997
 40
0.5624999999999997
 40
0.5937499999999998
 40
0.5937499999999998
 40
0.6249999999999999
 40
0.6249999999999999
 40
0.65625
 40
0.65625
 40
0.6875000000000001
 40
0.6875000000000001
 40
0.7187500000000001
 40
0.7187500000000001
 40
0.75
 40
0.75
 40
0.78125
 40
0.78125
 40
0.8125
 40
0.8125
 40
0.84375
 40
0.84375
 40
0.875
 40
0.875
 40
0.90625
 40
0.90625
 40
0.9375
 40
0.9375
 40
0.96875
 40
0.96875
 40
1.0
 40
1.0
 40
1.0
 40
1.0
 10
142.9430591619193
 20
112.2707511809339
 30
0.0
 10
142.8178692603405
 20
112.0503040563183
 30
0.0
 10
142.6610019417724
 20
111.856570327498
 30
0.0
 10
142.2839644219536
 20
111.5208806287356
 30
0.0
 10
142.0722511155326
 20
111.3869032704228
 30
0.0
 10
141.6063611335838
 20
111.1897765257377
 30
0.0
 10
141.3605219025322
 20
111.1305591135158
 30
0.0
 10
140.9810408494376
 20
111.1033523776251
 30
0.0
 10
140.8532951207437
 20
111.104845642767
 30
0.0
 10
140.6028288740756
 20
111.1283614485759
 30
0.0
 10
140.4789994912674
 20
111.1502806673802
 30
0.0
 10
140.1117798171687
 20
111.2471172322251
 30
0.0
 10
139.881010799083
 20
111.3509183536769
 30
0.0
 10
139.4611218376635
 20
111.6296368346049
 30
0.0
 10
139.2768634627759
 20
111.8011991261086
 30
0.0
 10
139.0461150752926
 20
112.0998464873754
 30
0.0
 10
138.9770682255036
 20
112.2063140278777
 30
0.0
 10
138.8585035616981
 20
112.4265973762706
 30
0.0
 10
138.8082951929485
 20
112.541258892672
 30
0.0
 10
138.7264633405907
 20
112.7799395294488
 30
0.0
 10
138.695112441708
 20
112.9039851563269
 30
0.0
 10
138.6537180636694
 20
113.1521001924353
 30
0.0
 10
138.6432122886051
 20
113.2773378949237
 30
0.0
 10
138.6429093362693
 20
113.5302169505148
 30
0.0
 10
138.6533938658859
 20
113.6580966367514
 30
0.0
 10
138.6945339433474
 20
113.9065186979568
 30
0.0
 10
138.7251120638959
 20
114.0283176247252
 30
0.0
 10
138.8063947722472
 20
114.2670971541995
 30
0.0
 10
138.8573956588092
 20
114.3841387165062
 30
0.0
 10
138.9759627071722
 20
114.6049639144321
 30
0.0
 10
139.043851460444
 20
114.7099022779949
 30
0.0
 10
139.1970018981816
 20
114.9088796112243
 30
0.0
 10
139.2825580697541
 20
115.0028877364184
 30
0.0
 10
139.4652694407133
 20
115.1733804213552
 30
0.0
 10
139.5630767403952
 20
115.2508186164045
 30
0.0
 10
139.7718798523122
 20
115.3899845122928
 30
0.0
 10
139.8834620276
 20
115.4517663212998
 30
0.0
 10
140.1121078270991
 20
115.5548451919006
 30
0.0
 10
140.2300626380702
 20
115.5968492270962
 30
0.0
 10
140.4733910830589
 20
115.661585348393
 30
0.0
 10
140.599734958402
 20
115.6842586109557
 30
0.0
 10
140.8508409394198
 20
115.7081414071368
 30
0.0
 10
140.9765229331428
 20
115.7097447084035
 30
0.0
 10
141.2281450029346
 20
115.6922779696326
 30
0.0
 10
141.3550426232204
 20
115.6728420789927
 30
0.0
 10
141.6002331894815
 20
115.614248907669
 30
0.0
 10
141.719422346515
 20
115.5751860565124
 30
0.0
 10
141.9511073708698
 20
115.4776763343886
 30
0.0
 10
142.0642821752203
 20
115.4186409801
 30
0.0
 10
142.276360592156
 20
115.2848372632605
 30
0.0
 10
142.3761493708569
 20
115.2098420471157
 30
0.0
 10
142.5634075578458
 20
115.043646982595
 30
0.0
 10
142.6513025947892
 20
114.9517527838534
 30
0.0
 10
142.8095236704211
 20
114.7563885861391
 30
0.0
 10
142.8804616267128
 20
114.6525426324666
 30
0.0
 10
142.9430591619193
 20
114.542314519254
 30
0.0
  0
SPLINE
  5
135
330
1F
100
AcDbEntity
  8
0
  6
HIDDEN
 62
     7
370
     0
100
AcDbSpline
210
0.0
220
0.0
230
1.0
 70
     8
 71
     3
 72
    60
 73
    56
 74
     0
 42
0.00000001
 43
0.00000001
 12
1.0
 22
0.0
 32
0.0
 13
1.0
 23
0.0
 33
0.0
 40
0.0
 40
0.0
 40
0.0
 40
0.0
 40
0.0624999999999998
 40
0.0624999999999998
 40
0.1249999999999995
 40
0.1249999999999995
 40
0.1874999999999993
 40
0.1874999999999993
 40
0.2187499999999991
 40
0.2187499999999991
 40
0.2499999999999989
 40
0.2499999999999989
 40
0.3124999999999991
 40
0.3124999999999991
 40
0.3749999999999992
 40
0.3749999999999992
 40
0.4062499999999993
 40
0.4062499999999993
 40
0.4374999999999993
 40
0.4374999999999993
 40
0.4687499999999994
 40
0.4687499999999994
 40
0.4999999999999994
 40
0.4999999999999994
 40
0.5312499999999996
 40
0.5312499999999996
 40
0.5624999999999997
 40
0.5624999999999997
 40
0.5937499999999998
 40
0.5937499999999998
 40
0.6249999999999999
 40
0.6249999999999999
 40
0.65625
 40
0.65625
 40
0.6875000000000001
 40
0.6875000000000001
 40
0.7187500000000001
 40
0.7187500000000001
 40
0.75
 40
0.75
 40
0.78125
 40
0.78125
 40
0.8125
 40
0.8125
 40
0.84375
 40
0.84375
 40
0.875
 40
0.875
 40
0.90625
 40
0.90625
 40
0.9375
 40
0.9375
 40
0.96875
 40
0.96875
 40
1.0
 40
1.0
 40
1.0
 40
1.0
 10
142.9430591619193
 20
114.542314519254
 30
0.0
 10
142.8178692603405
 20
114.7627616438696
 30
0.0
 10
142.6610019417724
 20
114.9564953726899
 30
0.0
 10
142.2839644219536
 20
115.2921850714524
 30
0.0
 10
142.0722511155326
 20
115.4261624297651
 30
0.0
 10
141.6063611335838
 20
115.6232891744502
 30
0.0
 10
141.3605219025322
 20
115.6825065866721
 30
0.0
 10
140.9810408494376
 20
115.7097133225628
 30
0.0
 10
140.8532951207437
 20
115.7082200574209
 30
0.0
 10
140.6028288740756
 20
115.6847042516119
 30
0.0
 10
140.4789994912674
 20
115.6627850328077
 30
0.0
 10
140.1117798171687
 20
115.5659484679628
 30
0.0
 10
139.881010799083
 20
115.462147346511
 30
0.0
 10
139.4611218376635
 20
115.183428865583
 30
0.0
 10
139.2768634627759
 20
115.0118665740793
 30
0.0
 10
139.0461150752926
 20
114.7132192128125
 30
0.0
 10
138.9770682255036
 20
114.6067516723102
 30
0.0
 10
138.8585035616981
 20
114.3864683239172
 30
0.0
 10
138.8082951929485
 20
114.2718068075158
 30
0.0
 10
138.7264633405907
 20
114.0331261707391
 30
0.0
 10
138.695112441708
 20
113.909080543861
 30
0.0
 10
138.6537180636694
 20
113.6609655077526
 30
0.0
 10
138.6432122886051
 20
113.5357278052642
 30
0.0
 10
138.6429093362693
 20
113.2828487496731
 30
0.0
 10
138.6533938658859
 20
113.1549690634365
 30
0.0
 10
138.6945339433474
 20
112.9065470022311
 30
0.0
 10
138.7251120638959
 20
112.7847480754627
 30
0.0
 10
138.8063947722472
 20
112.5459685459883
 30
0.0
 10
138.8573956588092
 20
112.4289269836817
 30
0.0
 10
138.9759627071722
 20
112.2081017857558
 30
0.0
 10
139.043851460444
 20
112.103163422193
 30
0.0
 10
139.1970018981816
 20
111.9041860889636
 30
0.0
 10
139.2825580697541
 20
111.8101779637694
 30
0.0
 10
139.4652694407133
 20
111.6396852788327
 30
0.0
 10
139.5630767403952
 20
111.5622470837834
 30
0.0
 10
139.7718798523122
 20
111.4230811878951
 30
0.0
 10
139.8834620276
 20
111.3612993788881
 30
0.0
 10
140.1121078270991
 20
111.2582205082873
 30
0.0
 10
140.2300626380702
 20
111.2162164730916
 30
0.0
 10
140.4733910830589
 20
111.1514803517949
 30
0.0
 10
140.599734958402
 20
111.1288070892322
 30
0.0
 10
140.8508409394198
 20
111.104924293051
 30
0.0
 10
140.9765229331428
 20
111.1033209917844
 30
0.0
 10
141.2281450029346
 20
111.1207877305553
 30
0.0
 10
141.3550426232204
 20
111.1402236211952
 30
0.0
 10
141.6002331894815
 20
111.1988167925189
 30
0.0
 10
141.719422346515
 20
111.2378796436755
 30
0.0
 10
141.9511073708698
 20
111.3353893657993
 30
0.0
 10
142.0642821752203
 20
111.3944247200879
 30
0.0
 10
142.276360592156
 20
111.5282284369274
 30
0.0
 10
142.3761493708569
 20
111.6032236530721
 30
0.0
 10
142.5634075578458
 20
111.769418717593
 30
0.0
 10
142.6513025947892
 20
111.8613129163345
 30
0.0
 10
142.8095236704211
 20
112.0566771140488
 30
0.0
 10
142.8804616267128
 20
112.1605230677213
 30
0.0
 10
142.9430591619193
 20
112.2707511809339
 30
0.0
  0
LWPOLYLINE
  5
136
330
1F
100
AcDbEntity
  8
0
  6
HIDDEN
 62
     7
370
     0
100
AcDbPolyline
 90
       31
 70
   128
 43
0.0
 10
247.1152845776
 20
118.1679898277
 10
247.8389892733
 20
118.1089924052
 10
248.5310662544
 20
117.9029493928
 10
249.1612661636
 20
117.5588657483
 10
249.7020442045
 20
117.0917797703
 10
250.129774586
 20
116.5221051182
 10
250.4257489002
 20
115.874739537
 10
250.5770478404
 20
115.1779757915
 10
250.5770478404
 20
114.462265918
 10
250.4257489002
 20
113.7588898695
 10
250.129774586
 20
113.0985885379
 10
249.7020442045
 20
112.5102202627
 10
249.1612661636
 20
112.0194995878
 10
248.5310662544
 20
111.6478732424
 10
247.8389892733
 20
111.4115833174
 10
247.1152845776
 20
111.3209565505
 10
246.3915798819
 20
111.379953973
 10
245.6995103514
 20
111.585996869
 10
245.0693104422
 20
111.9300805134
 10
244.5285324013
 20
112.3971664915
 10
244.1008020199
 20
112.9668411144
 10
243.8048277056
 20
113.6142067539
 10
243.6535287655
 20
114.3109704703
 10
243.6535287655
 20
115.0266803438
 10
243.8048277056
 20
115.7300564796
 10
244.1008020199
 20
116.3903576657
 10
244.5285324013
 20
116.9787260573
 10
245.0693104422
 20
117.469446674
 10
245.6995103514
 20
117.8410727866
 10
246.3915798819
 20
118.0773628279
 10
247.1152845776
 20
118.1679898277
  0
LINE
  5
137
330
1F
100
AcDbEntity
  8
0
  6
HIDDEN
 62
     7
370
     0
100
AcDbLine
 10
144.3430589518
 20
119.6565329432
 30
0.0
 11
144.3430589518
 21
107.156532757
 31
0.0
  0
LINE
  5
138
330
1F
100
AcDbEntity
  8
0
  6
HIDDEN
 62
     7
370
     0
100
AcDbLine
 10
143.4430595493
 20
106.2565328888
 30
0.0
 11
143.4430595493
 21
120.5374588594
 31
0.0
  0
LWPOLYLINE
  5
139
330
1F
100
AcDbEntity
  8
0
  6
HIDDEN
 62
     7
370
     0
100
AcDbPolyline
 90
       31
 70
   128
 43
0.0
 10
246.6888729489
 20
119.0114979967
 10
247.4125776446
 20
118.9525005743
 10
248.1046546257
 20
118.7464575618
 10
248.7348545349
 20
118.4023739174
 10
249.2756325758
 20
117.9352877065
 10
249.7033555067
 20
117.3656135201
 10
249.9993372715
 20
116.718247706
 10
250.1506362117
 20
116.0214838441
 10
250.1506362117
 20
115.3057740871
 10
249.9993372715
 20
114.6023980677
 10
249.7033555067
 20
113.9420967069
 10
249.2756325758
 20
113.3537284172
 10
248.7348545349
 20
112.8630076987
 10
248.1046546257
 20
112.4913814114
 10
247.4125776446
 20
112.2550913701
 10
246.6888729489
 20
112.1644647196
 10
245.9651682532
 20
112.2234620256
 10
245.2730987227
 20
112.4295050381
 10
244.6428988135
 20
112.7735886243
 10
244.102113322
 20
113.2406746751
 10
243.6743903911
 20
113.8103492544
 10
243.3784086263
 20
114.4577148938
 10
243.2271171367
 20
115.1544786393
 10
243.2271171367
 20
115.8701883964
 10
243.3784086263
 20
116.5735646486
 10
243.6743903911
 20
117.2338658348
 10
244.102113322
 20
117.8222339935
 10
244.6428988135
 20
118.312954843
 10
245.2730987227
 20
118.6845809556
 10
245.9651682532
 20
118.920870997
 10
246.6888729489
 20
119.0114979967
  0
LINE
  5
13A
330
1F
100
AcDbEntity
  8
0
  6
HIDDEN
 62
     7
370
     0
100
AcDbLine
 10
163.4430591023
 20
119.6565329432
 30
0.0
 11
163.4430591023
 21
107.156532757
 31
0.0
  0
LINE
  5
13B
330
1F
100
AcDbEntity
  8
0
  6
HIDDEN
 62
     7
370
     0
100
AcDbLine
 10
164.6447800106
 20
117.6565330811
 30
0.0
 11
164.6447800106
 21
109.1565326191
 31
0.0
  0
ARC
  5
13C
330
1F
100
AcDbEntity
  8
0
  6
HIDDEN
 62
     7
370
     0
100
AcDbCircle
 10
241.604462715
 20
109.9846712633
 30
0.0
 40
2.077555288461697
100
AcDbArc
 50
71.9318829488
 51
237.6293149577
  0
LINE
  5
13D
330
1F
100
AcDbEntity
  8
0
  6
HIDDEN
 62
     7
370
     0
100
AcDbLine
 10
256.652377919
 20
107.706327863
 30
0.0
 11
257.6161328709
 21
105.7998830788
 31
0.0
  0
LINE
  5
13E
330
1F
100
AcDbEntity
  8
0
  6
HIDDEN
 62
     7
370
     0
100
AcDbLine
 10
227.4430621422
 20
117.6565330811
 30
0.0
 11
227.4430621422
 21
109.1565326191
 31
0.0
  0
SPLINE
  5
13F
330
1F
100
AcDbEntity
  8
0
  6
HIDDEN
 62
     7
370
     0
100
AcDbSpline
210
0.0
220
0.0
230
1.0
 70
     8
 71
     3
 72
    62
 73
    58
 74
     0
 42
0.00000001
 43
0.00000001
 12
1.0
 22
0.0
 32
0.0
 13
1.0
 23
0.0
 33
0.0
 40
-0.0312500000000004
 40
-0.0312500000000004
 40
0.0
 40
0.0
 40
0.0312500000000007
 40
0.0312500000000007
 40
0.0625000000000014
 40
0.0625000000000014
 40
0.125
 40
0.125
 40
0.1874999999999986
 40
0.1874999999999986
 40
0.2187499999999984
 40
0.2187499999999984
 40
0.2499999999999984
 40
0.2499999999999984
 40
0.2812499999999983
 40
0.2812499999999983
 40
0.3124999999999982
 40
0.3124999999999982
 40
0.3437499999999981
 40
0.3437499999999981
 40
0.3749999999999981
 40
0.3749999999999981
 40
0.4374999999999979
 40
0.4374999999999979
 40
0.4687499999999978
 40
0.4687499999999978
 40
0.4999999999999978
 40
0.4999999999999978
 40
0.5312499999999977
 40
0.5312499999999977
 40
0.5624999999999976
 40
0.5624999999999976
 40
0.5937499999999976
 40
0.5937499999999976
 40
0.6249999999999974
 40
0.6249999999999974
 40
0.6562499999999973
 40
0.6562499999999973
 40
0.6874999999999972
 40
0.6874999999999972
 40
0.7187499999999972
 40
0.7187499999999972
 40
0.7499999999999971
 40
0.7499999999999971
 40
0.781249999999997
 40
0.781249999999997
 40
0.812499999999997
 40
0.812499999999997
 40
0.8749999999999981
 40
0.8749999999999981
 40
0.9062499999999986
 40
0.9062499999999986
 40
0.937499999999999
 40
0.937499999999999
 40
0.9687499999999996
 40
0.9687499999999996
 40
1.0
 40
1.0
 40
1.031250000000001
 40
1.031250000000001
 10
222.3018609379394
 20
116.5455473751487
 30
0.0
 10
222.5842573858991
 20
116.5455473751487
 30
0.0
 10
222.7225352629129
 20
116.5346518706272
 30
0.0
 10
222.9937013341207
 20
116.4920080686084
 30
0.0
 10
223.1279046615803
 20
116.4596684552735
 30
0.0
 10
223.5069678413705
 20
116.3338077945422
 30
0.0
 10
223.7359747630643
 20
116.209470523406
 30
0.0
 10
224.117005382067
 20
115.8916851519331
 30
0.0
 10
224.2726284589887
 20
115.6946130095147
 30
0.0
 10
224.4316989355573
 20
115.3578966901903
 30
0.0
 10
224.4734260807006
 20
115.2362046025913
 30
0.0
 10
224.5286967818427
 20
114.9856393702993
 30
0.0
 10
224.5427767133325
 20
114.8566692717325
 30
0.0
 10
224.5433332796537
 20
114.5909955297895
 30
0.0
 10
224.5293440022331
 20
114.4544774320525
 30
0.0
 10
224.4748624829974
 20
114.1877788221321
 30
0.0
 10
224.4340120248425
 20
114.0547635336795
 30
0.0
 10
224.3273980579831
 20
113.796802417464
 30
0.0
 10
224.26264591571
 20
113.6736689834638
 30
0.0
 10
224.1110873737574
 20
113.4388663137835
 30
0.0
 10
224.0237492505844
 20
113.327016505963
 30
0.0
 10
223.7379728296228
 20
113.0221012927203
 30
0.0
 10
223.5084364811571
 20
112.8519558284929
 30
0.0
 10
223.1321183451628
 20
112.6763195235903
 30
0.0
 10
222.9997854368021
 20
112.6301074268887
 30
0.0
 10
222.7257527778113
 20
112.5673892571151
 30
0.0
 10
222.5877276181891
 20
112.5515386952879
 30
0.0
 10
222.3096562369704
 20
112.5506983407853
 30
0.0
 10
222.1679432983001
 20
112.566317480734
 30
0.0
 10
221.8955210426198
 20
112.6273815421468
 30
0.0
 10
221.7636928981227
 20
112.6724353231395
 30
0.0
 10
221.5082940025181
 20
112.7903926362383
 30
0.0
 10
221.3881279993288
 20
112.8617663366328
 30
0.0
 10
221.1629565867725
 20
113.025967359024
 30
0.0
 10
221.0568055254381
 20
113.1200110164012
 30
0.0
 10
220.8653582367359
 20
113.3233906070398
 30
0.0
 10
220.7794242228164
 20
113.4328850967428
 30
0.0
 10
220.6270119047764
 20
113.6674022805403
 30
0.0
 10
220.5608284144889
 20
113.7926953163296
 30
0.0
 10
220.4546467159378
 20
114.0476657685212
 30
0.0
 10
220.413666652722
 20
114.178675502318
 30
0.0
 10
220.3575865119247
 20
114.4479556021788
 30
0.0
 10
220.3433623364834
 20
114.5832657972318
 30
0.0
 10
220.3427656526119
 20
114.8478734398608
 30
0.0
 10
220.3565342201103
 20
114.9798189254633
 30
0.0
 10
220.4113842870524
 20
115.2320028431236
 30
0.0
 10
220.4518808003288
 20
115.3515039071481
 30
0.0
 10
220.611343271505
 20
115.6920400021967
 30
0.0
 10
220.7660116958191
 20
115.8887686911392
 30
0.0
 10
221.0543197271638
 20
116.1297151563009
 30
0.0
 10
221.1583445425117
 20
116.2000269046814
 30
0.0
 10
221.3827638006904
 20
116.3226944123992
 30
0.0
 10
221.5046945885509
 20
116.3754330830203
 30
0.0
 10
221.7571517399769
 20
116.4593746515856
 30
0.0
 10
221.8880382698941
 20
116.4910997520525
 30
0.0
 10
222.1599791876069
 20
116.5342984832368
 30
0.0
 10
222.3018609379394
 20
116.5455473751487
 30
0.0
 10
222.5842573858991
 20
116.5455473751487
 30
0.0
  0
SPLINE
  5
140
330
1F
100
AcDbEntity
  8
0
  6
HIDDEN
 62
     7
370
     0
100
AcDbSpline
210
0.0
220
0.0
230
1.0
 70
     8
 71
     3
 72
    34
 73
    30
 74
     0
 42
0.00000001
 43
0.00000001
 12
1.0
 22
0.0
 32
0.0
 13
1.0
 23
0.0
 33
0.0
 40
0.0
 40
0.0
 40
0.0
 40
0.0
 40
0.1249999999999955
 40
0.1249999999999955
 40
0.2499999999999911
 40
0.2499999999999911
 40
0.3124999999999889
 40
0.3124999999999889
 40
0.3749999999999867
 40
0.3749999999999867
 40
0.4374999999999845
 40
0.4374999999999845
 40
0.4687499999999847
 40
0.4687499999999847
 40
0.4999999999999849
 40
0.4999999999999849
 40
0.5312499999999851
 40
0.5312499999999851
 40
0.5624999999999853
 40
0.5624999999999853
 40
0.6249999999999873
 40
0.6249999999999873
 40
0.6874999999999895
 40
0.6874999999999895
 40
0.7499999999999916
 40
0.7499999999999916
 40
0.8749999999999957
 40
0.8749999999999957
 40
1.0
 40
1.0
 40
1.0
 40
1.0
 10
244.9383832897034
 20
112.9937109470875
 30
0.0
 10
244.9971641622561
 20
112.8774337050783
 30
0.0
 10
245.1214521901479
 20
112.7471138015774
 30
0.0
 10
245.4490647925786
 20
112.4816959364529
 30
0.0
 10
245.6551079579955
 20
112.3455406040355
 30
0.0
 10
246.0246460058295
 20
112.1612867891267
 30
0.0
 10
246.1582755664237
 20
112.103067457025
 30
0.0
 10
246.4534482722887
 20
111.9990563519713
 30
0.0
 10
246.6152484573064
 20
111.9529254770128
 30
0.0
 10
246.9771441344839
 20
111.8876931373597
 30
0.0
 10
247.1761101636585
 20
111.8673537889924
 30
0.0
 10
247.5235881056859
 20
111.8861588485869
 30
0.0
 10
247.6461899285769
 20
111.9009795742344
 30
0.0
 10
247.9065585488188
 20
111.9583451585732
 30
0.0
 10
248.0391892845016
 20
112.000274004697
 30
0.0
 10
248.2976196049919
 20
112.1128702159667
 30
0.0
 10
248.4182246694854
 20
112.1815949773431
 30
0.0
 10
248.6290172574797
 20
112.3274834251924
 30
0.0
 10
248.7208471167008
 20
112.4051219329534
 30
0.0
 10
248.9599261173829
 20
112.6366969878122
 30
0.0
 10
249.0754835681346
 20
112.7911995289675
 30
0.0
 10
249.2615772229645
 20
113.0870080212891
 30
0.0
 10
249.3314438507389
 20
113.228777971597
 30
0.0
 10
249.4451733478666
 20
113.5029440405096
 30
0.0
 10
249.4885524510191
 20
113.6352936868285
 30
0.0
 10
249.5900934382577
 20
114.0177794343509
 30
0.0
 10
249.6192849816263
 20
114.2482330305358
 30
0.0
 10
249.6256291600127
 20
114.649117856263
 30
0.0
 10
249.6032993226581
 20
114.8207365717554
 30
0.0
 10
249.5447596987775
 20
114.9365365882826
 30
0.0
  0
ELLIPSE
  5
141
330
1F
100
AcDbEntity
  8
0
  6
HIDDEN
 62
     7
370
     0
100
AcDbEllipse
 10
249.325831855
 20
109.224606803
 30
0.0
 11
3.434281587992643
 21
-1.718550178042093
 31
0.0
210
0.0
220
0.0
230
1.0
 40
0.1647216549
 41
3.35986897305439
 42
6.501461626644123
  0
LINE
  5
142
330
1F
100
AcDbEntity
  8
0
  6
HIDDEN
 62
     7
370
     0
100
AcDbLine
 10
247.9053068912
 20
95.7272848449
 30
0.0
 11
246.9415593898
 21
97.6337300949
 31
0.0
  0
ELLIPSE
  5
143
330
1F
100
AcDbEntity
  8
0
  6
HIDDEN
 62
     7
370
     0
100
AcDbEllipse
 10
245.7771118962
 20
117.3915829893
 30
0.0
 11
3.809839114181642
 21
1.769635718921251
 31
0.0
210
0.0
220
0.0
230
1.0
 40
0.816602865
 41
4.031108285919458
 42
5.306232127157856
  0
LINE
  5
144
330
1F
100
AcDbEntity
  8
0
  6
HIDDEN
 62
     7
370
     0
100
AcDbLine
 10
244.5002201951
 20
113.8604680586
 30
0.0
 11
244.9383813894
 21
112.9937109349
 31
0.0
  0
LINE
  5
145
330
1F
100
AcDbEntity
  8
0
  6
HIDDEN
 62
     7
370
     0
100
AcDbLine
 10
249.5447624481
 20
114.936536584
 30
0.0
 11
249.1065938032
 21
115.8032935913
 31
0.0
  0
LWPOLYLINE
  5
146
330
1F
100
AcDbEntity
  8
0
  6
HIDDEN
 62
     7
370
     0
100
AcDbPolyline
 90
       34
 70
   128
 43
0.0
 10
246.6449070728
 20
119.7831704616
 10
247.4354136741
 20
119.726203788
 10
248.1973398483
 20
119.5228145793
 10
248.9031631506
 20
119.1803532988
 10
249.5273653424
 20
118.7111976892
 10
250.0473860657
 20
118.1323038749
 10
250.4444349563
 20
117.4645954147
 10
250.7041621959
 20
116.7322042733
 10
250.8171726024
 20
115.9616011996
 10
250.7793832576
 20
115.1806379771
 10
250.592172519
 20
114.4175404319
 10
250.2622906125
 20
113.6998888964
 10
249.8016733682
 20
113.0536212572
 10
249.2269579327
 20
112.5020952881
 10
248.5589165247
 20
112.0652445229
 10
247.8217039263
 20
111.7588580223
 10
247.0419559634
 20
111.5940092699
 10
246.2478581822
 20
111.5766564021
 10
245.4681176698
 20
111.7074264316
 10
244.7309050715
 20
111.9815932456
 10
244.0628636635
 20
112.389247572
 10
243.4881482279
 20
112.915655713
 10
243.0275309837
 20
113.5417919708
 10
242.6976490772
 20
114.2450261381
 10
242.510430888
 20
114.9999414906
 10
242.4726489937
 20
115.7792533617
 10
242.5856594002
 20
116.5547957048
 10
242.8453866399
 20
117.2985378057
 10
243.2424355304
 20
117.9835995994
 10
243.7624562538
 20
118.5852204785
 10
244.3866584456
 20
119.0816568546
 10
245.0924817479
 20
119.4549658671
 10
245.854407922
 20
119.6916549802
 10
246.6449070728
 20
119.7831704616
  0
LINE
  5
147
330
1F
100
AcDbEntity
  8
0
  6
HIDDEN
 62
     7
370
     0
100
AcDbLine
 10
252.0313862717
 20
109.070932433
 30
0.0
 11
253.6024976528
 21
105.3049717434
 31
0.0
  0
LINE
  5
148
330
1F
100
AcDbEntity
  8
0
  6
HIDDEN
 62
     7
370
     0
100
AcDbLine
 10
253.6024976528
 20
105.3049717434
 30
0.0
 11
253.278643266
 21
105.9455926865
 31
0.0
  0
LINE
  5
149
330
1F
100
AcDbEntity
  8
0
  6
HIDDEN
 62
     7
370
     0
100
AcDbLine
 10
249.1065938032
 20
115.8032935913
 30
0.0
 11
250.7846061146
 21
111.6181323873
 31
0.0
  0
LINE
  5
14A
330
1F
100
AcDbEntity
  8
0
  6
HIDDEN
 62
     7
370
     0
100
AcDbLine
 10
252.7399290359
 20
107.669334799
 30
0.0
 11
252.0313862717
 21
109.070932433
 31
0.0
  0
LWPOLYLINE
  5
14B
330
1F
100
AcDbEntity
  8
0
  6
HIDDEN
 62
     7
370
     0
100
AcDbPolyline
 90
       24
 70
   128
 43
0.0
 10
222.4430594599
 20
118.4939215295
 10
223.0096314109
 20
118.4198590331
 10
223.5341820872
 20
118.2031654157
 10
223.9778120077
 20
117.8599106483
 10
224.3076194084
 20
117.4155533649
 10
224.4991365826
 20
116.9030488804
 10
224.5381627238
 20
116.3604077287
 10
224.4218070066
 20
115.8278749194
 10
224.1586972034
 20
115.3449460966
 10
223.7683463848
 20
114.9474377148
 10
223.2797000563
 20
114.6648312555
 10
222.7290127433
 20
114.5180863663
 10
222.1571061766
 20
114.5180863663
 10
221.6064188636
 20
114.6648312555
 10
221.1177725351
 20
114.9474377148
 10
220.7274217165
 20
115.3449460966
 10
220.4643119133
 20
115.8278749194
 10
220.3479561961
 20
116.3604077287
 10
220.3869823373
 20
116.9030488804
 10
220.5784995115
 20
117.4155533649
 10
220.9083069122
 20
117.8599106483
 10
221.3519293821
 20
118.2031654157
 10
221.876487509
 20
118.4198590331
 10
222.4430594599
 20
118.4939215295
  0
LINE
  5
14C
330
1F
100
AcDbEntity
  8
0
  6
HIDDEN
 62
     7
370
     0
100
AcDbLine
 10
248.9961165941
 20
103.3621462397
 30
0.0
 11
245.8533722913
 21
110.8953328207
 31
0.0
  0
ARC
  5
14D
330
1F
100
AcDbEntity
  8
0
  6
HIDDEN
 62
     7
370
     0
100
AcDbCircle
 10
252.0546241882
 20
102.5427248616
 30
0.0
 40
3.166373335232465
100
AcDbArc
 50
165.0018048617
 51
60.7351454476
  0
LINE
  5
14E
330
1F
100
AcDbEntity
  8
0
  6
HIDDEN
 62
     7
370
     0
100
AcDbLine
 10
260.1036135113
 20
94.045878794
 30
0.0
 11
260.7572603977
 21
94.694734957
 31
0.0
  0
LINE
  5
14F
330
1F
100
AcDbEntity
  8
0
  6
HIDDEN
 62
     7
370
     0
100
AcDbLine
 10
250.7014054811
 20
96.8224009834
 30
0.0
 11
260.1036135113
 21
94.045878794
 31
0.0
  0
ARC
  5
150
330
1F
100
AcDbEntity
  8
0
  6
HIDDEN
 62
     7
370
     0
100
AcDbCircle
 10
243.3837294014
 20
72.0285328194
 30
0.0
 40
25.85119497709253
100
AcDbArc
 50
73.5565324259
 51
82.0894289042
  0
LINE
  5
151
330
1F
100
AcDbEntity
  8
0
  6
HIDDEN
 62
     7
370
     0
100
AcDbLine
 10
243.9414564526
 20
107.1433959864
 30
0.0
 11
246.9415593898
 21
97.6337300949
 31
0.0
  0
LINE
  5
152
330
1F
100
AcDbEntity
  8
0
  6
HIDDEN
 62
     7
370
     0
100
AcDbLine
 10
245.8533722913
 20
110.8953328207
 30
0.0
 11
242.2488112009
 21
111.9597791098
 31
0.0
  0
LINE
  5
153
330
1F
100
AcDbEntity
  8
0
  6
HIDDEN
 62
     7
370
     0
100
AcDbLine
 10
256.652377919
 20
107.706327863
 30
0.0
 11
252.0313862717
 21
109.070932433
 31
0.0
  0
LINE
  5
154
330
1F
100
AcDbEntity
  8
0
  6
HIDDEN
 62
     7
370
     0
100
AcDbLine
 10
260.7572603977
 20
94.694734957
 30
0.0
 11
256.652377919
 21
107.706327863
 31
0.0
  0
LINE
  5
155
330
1F
100
AcDbEntity
  8
0
  6
HIDDEN
 62
     7
370
     0
100
AcDbLine
 10
245.8533722913
 20
110.8953328207
 30
0.0
 11
245.9117401397
 21
110.7798786238
 31
0.0
  0
LINE
  5
156
330
1F
100
AcDbEntity
  8
0
  6
HIDDEN
 62
     7
370
     0
100
AcDbLine
 10
150.7430591394
 20
99.4862964712
 30
0.0
 11
150.7430591394
 21
99.3864344768
 31
0.0
  0
SPLINE
  5
157
330
1F
100
AcDbEntity
  8
0
  6
HIDDEN
 62
     7
370
     0
100
AcDbSpline
210
0.0
220
0.0
230
1.0
 70
     8
 71
     3
 72
    24
 73
    20
 74
     0
 42
0.00000001
 43
0.00000001
 12
1.0
 22
0.0
 32
0.0
 13
1.0
 23
0.0
 33
0.0
 40
0.0
 40
0.0
 40
0.0
 40
0.0
 40
0.2500000000000043
 40
0.2500000000000043
 40
0.3750000000000063
 40
0.3750000000000063
 40
0.4375000000000053
 40
0.4375000000000053
 40
0.4687500000000047
 40
0.4687500000000047
 40
0.5000000000000041
 40
0.5000000000000041
 40
0.5625000000000032
 40
0.5625000000000032
 40
0.6250000000000022
 40
0.6250000000000022
 40
0.7500000000000004
 40
0.7500000000000004
 40
1.0
 40
1.0
 40
1.0
 40
1.0
 10
150.7430591619192
 20
99.48629646178652
 30
0.0
 10
150.743462072555
 20
99.51672069862452
 30
0.0
 10
150.7455060518956
 20
99.54957879917868
 30
0.0
 10
150.7547432947217
 20
99.60560416633227
 30
0.0
 10
150.7586303577022
 20
99.62521521951768
 30
0.0
 10
150.7695342491088
 20
99.65948950294721
 30
0.0
 10
150.7736762948593
 20
99.67155192841942
 30
0.0
 10
150.785571368612
 20
99.69387109311891
 30
0.0
 10
150.7908184329208
 20
99.70283760547922
 30
0.0
 10
150.8076854993
 20
99.72048717000554
 30
0.0
 10
150.8155079068251
 20
99.72463145414528
 30
0.0
 10
150.8324567074467
 20
99.7311189953193
 30
0.0
 10
150.8399130586646
 20
99.73052211394766
 30
0.0
 10
150.853972961857
 20
99.72877584997563
 30
0.0
 10
150.860105346993
 20
99.72694516207716
 30
0.0
 10
150.8774001095162
 20
99.72037875250432
 30
0.0
 10
150.8874174279252
 20
99.71451353734562
 30
0.0
 10
150.915788762168
 20
99.69576885331527
 30
0.0
 10
150.9323241998124
 20
99.68160470522864
 30
0.0
 10
150.9480191839769
 20
99.66744831893638
 30
0.0
  0
LINE
  5
158
330
1F
100
AcDbEntity
  8
0
  6
HIDDEN
 62
     7
370
     0
100
AcDbLine
 10
150.7430591394
 20
103.4876373
 30
0.0
 11
150.7430591394
 21
102.4324944578
 31
0.0
  0
LINE
  5
159
330
1F
100
AcDbEntity
  8
0
  6
HIDDEN
 62
     7
370
     0
100
AcDbLine
 10
129.9430582678
 20
103.748921711
 30
0.0
 11
129.9430582678
 21
99.9090023674
 31
0.0
  0
SPLINE
  5
15A
330
1F
100
AcDbEntity
  8
0
  6
HIDDEN
 62
     7
370
     0
100
AcDbSpline
210
0.0
220
0.0
230
1.0
 70
     8
 71
     3
 72
    16
 73
    12
 74
     0
 42
0.00000001
 43
0.00000001
 12
1.0
 22
0.0
 32
0.0
 13
1.0
 23
0.0
 33
0.0
 40
0.0
 40
0.0
 40
0.0
 40
0.0
 40
0.2500000000000007
 40
0.2500000000000007
 40
0.3750000000000004
 40
0.3750000000000004
 40
0.5000000000000002
 40
0.5000000000000002
 40
0.7500000000000001
 40
0.7500000000000001
 40
1.0
 40
1.0
 40
1.0
 40
1.0
 10
150.7430591619191
 20
102.4324948578475
 30
0.0
 10
150.6625218300199
 20
102.0434876739035
 30
0.0
 10
150.6024844859927
 20
101.6869872322792
 30
0.0
 10
150.541746778839
 20
101.2004848470918
 30
0.0
 10
150.5264244037261
 20
101.0464059062384
 30
0.0
 10
150.5058415944218
 20
100.7549363477458
 30
0.0
 10
150.5006419973961
 20
100.6173664638469
 30
0.0
 10
150.5005883442158
 20
100.2391216286576
 30
0.0
 10
150.5207858876933
 20
100.0292405601055
 30
0.0
 10
150.6014639760507
 20
99.69266126119372
 30
0.0
 10
150.6625101406577
 20
99.56637676927518
 30
0.0
 10
150.7430591619154
 20
99.48629646178271
 30
0.0
  0
LINE
  5
15B
330
1F
100
AcDbEntity
  8
0
  6
HIDDEN
 62
     7
370
     0
100
AcDbLine
 10
128.4430589533
 20
104.1819345541
 30
0.0
 11
128.4430589533
 21
100.7750280536
 31
0.0
  0
SPLINE
  5
15C
330
1F
100
AcDbEntity
  8
0
  6
HIDDEN
 62
     7
370
     0
100
AcDbSpline
210
0.0
220
0.0
230
1.0
 70
     8
 71
     3
 72
     8
 73
     4
 74
     0
 42
0.00000001
 43
0.00000001
 12
1.0
 22
0.0
 32
0.0
 13
1.0
 23
0.0
 33
0.0
 40
0.0
 40
0.0
 40
0.0
 40
0.0
 40
1.0
 40
1.0
 40
1.0
 40
1.0
 10
150.9480191839769
 20
99.66744831893635
 30
0.0
 10
150.9987463271835
 20
99.62169401761115
 30
0.0
 10
151.0566336567444
 20
99.59318987174761
 30
0.0
 10
151.1217388183596
 20
99.5814688420888
 30
0.0
  0
LINE
  5
15D
330
1F
100
AcDbEntity
  8
0
  6
HIDDEN
 62
     7
370
     0
100
AcDbLine
 10
150.7430591394
 20
127.4266312234
 30
0.0
 11
150.7430591394
 21
127.326769229
 31
0.0
  0
SPLINE
  5
15E
330
1F
100
AcDbEntity
  8
0
  6
HIDDEN
 62
     7
370
     0
100
AcDbSpline
210
0.0
220
0.0
230
1.0
 70
     8
 71
     3
 72
    24
 73
    20
 74
     0
 42
0.00000001
 43
0.00000001
 12
1.0
 22
0.0
 32
0.0
 13
1.0
 23
0.0
 33
0.0
 40
0.0
 40
0.0
 40
0.0
 40
0.0
 40
0.2500000000000049
 40
0.2500000000000049
 40
0.3750000000000074
 40
0.3750000000000074
 40
0.4375000000000084
 40
0.4375000000000084
 40
0.5000000000000093
 40
0.5000000000000093
 40
0.5312500000000084
 40
0.5312500000000084
 40
0.5625000000000075
 40
0.5625000000000075
 40
0.6250000000000073
 40
0.6250000000000073
 40
0.750000000000005
 40
0.750000000000005
 40
1.0
 40
1.0
 40
1.0
 40
1.0
 10
150.9480191839796
 20
127.1456173812539
 30
0.0
 10
150.9322525956813
 20
127.1313964102657
 30
0.0
 10
150.9156410627266
 20
127.1171661199308
 30
0.0
 10
150.8871147147686
 20
127.0983690647094
 30
0.0
 10
150.8770292809786
 20
127.0924806443681
 30
0.0
 10
150.8595465104437
 20
127.0859432495657
 30
0.0
 10
150.8533388539982
 20
127.0841320355646
 30
0.0
 10
150.839067353753
 20
127.0825262330581
 30
0.0
 10
150.83149728325
 20
127.081973455672
 30
0.0
 10
150.8141009538147
 20
127.0891722003848
 30
0.0
 10
150.8056416808546
 20
127.0942639491325
 30
0.0
 10
150.789580716307
 20
127.1120788816116
 30
0.0
 10
150.7847474804607
 20
127.120601296474
 30
0.0
 10
150.7733215607255
 20
127.1424977331228
 30
0.0
 10
150.769300204843
 20
127.1542382559287
 30
0.0
 10
150.7585397098119
 20
127.188288519882
 30
0.0
 10
150.754665400751
 20
127.2078635089107
 30
0.0
 10
150.7454925286239
 20
127.2637118175919
 30
0.0
 10
150.7434601579091
 20
127.2964895786208
 30
0.0
 10
150.7430591619192
 20
127.3267692384087
 30
0.0
  0
LINE
  5
15F
330
1F
100
AcDbEntity
  8
0
  6
HIDDEN
 62
     7
370
     0
100
AcDbLine
 10
129.9430582678
 20
126.9040633328
 30
0.0
 11
129.9430582678
 21
123.0641439892
 31
0.0
  0
LINE
  5
160
330
1F
100
AcDbEntity
  8
0
  6
HIDDEN
 62
     7
370
     0
100
AcDbLine
 10
150.7430591394
 20
124.3805712424
 30
0.0
 11
150.7430591394
 21
123.3254284002
 31
0.0
  0
SPLINE
  5
161
330
1F
100
AcDbEntity
  8
0
  6
HIDDEN
 62
     7
370
     0
100
AcDbSpline
210
0.0
220
0.0
230
1.0
 70
     8
 71
     3
 72
    16
 73
    12
 74
     0
 42
0.00000001
 43
0.00000001
 12
1.0
 22
0.0
 32
0.0
 13
1.0
 23
0.0
 33
0.0
 40
0.0
 40
0.0
 40
0.0
 40
0.0
 40
0.2500000000000003
 40
0.2500000000000003
 40
0.3750000000000002
 40
0.3750000000000002
 40
0.5000000000000002
 40
0.5000000000000002
 40
0.7500000000000001
 40
0.7500000000000001
 40
1.0
 40
1.0
 40
1.0
 40
1.0
 10
150.7430591619191
 20
127.3267692384089
 30
0.0
 10
150.6625218300196
 20
127.2467005522563
 30
0.0
 10
150.6024844859922
 20
127.1228360607656
 30
0.0
 10
150.5417467788386
 20
126.8721552368327
 30
0.0
 10
150.5264244037257
 20
126.7777166325229
 30
0.0
 10
150.5058415944216
 20
126.5664055649035
 30
0.0
 10
150.500641997396
 20
126.4491161101494
 30
0.0
 10
150.5005883442161
 20
126.0710804383929
 30
0.0
 10
150.5207858876941
 20
125.7823032846478
 30
0.0
 10
150.6014639760528
 20
125.1324634215066
 30
0.0
 10
150.6625101406606
 20
124.7696344876126
 30
0.0
 10
150.7430591619192
 20
124.3805708423397
 30
0.0
  0
LINE
  5
162
330
1F
100
AcDbEntity
  8
0
  6
HIDDEN
 62
     7
370
     0
100
AcDbLine
 10
128.4430589533
 20
126.0380376465
 30
0.0
 11
128.4430589533
 21
122.6311311461
 31
0.0
  0
SPLINE
  5
163
330
1F
100
AcDbEntity
  8
0
  6
HIDDEN
 62
     7
370
     0
100
AcDbSpline
210
0.0
220
0.0
230
1.0
 70
     8
 71
     3
 72
     8
 73
     4
 74
     0
 42
0.00000001
 43
0.00000001
 12
1.0
 22
0.0
 32
0.0
 13
1.0
 23
0.0
 33
0.0
 40
0.0
 40
0.0
 40
0.0
 40
0.0
 40
1.0
 40
1.0
 40
1.0
 40
1.0
 10
151.1217388183596
 20
127.2315968580991
 30
0.0
 10
151.0566336567455
 20
127.2198758284405
 30
0.0
 10
150.9987463271856
 20
127.1913716825778
 30
0.0
 10
150.9480191839796
 20
127.145617381254
 30
0.0
  0
SPLINE
  5
164
330
1F
100
AcDbEntity
  8
0
  6
HIDDEN
 62
     7
370
     0
100
AcDbSpline
210
0.0
220
0.0
230
1.0
 70
     8
 71
     3
 72
    12
 73
     8
 74
     0
 42
0.00000001
 43
0.00000001
 12
1.0
 22
0.0
 32
0.0
 13
1.0
 23
0.0
 33
0.0
 40
0.0
 40
0.0
 40
0.0
 40
0.0
 40
0.4999999999999996
 40
0.4999999999999996
 40
0.7499999999999998
 40
0.7499999999999998
 40
1.0
 40
1.0
 40
1.0
 40
1.0
 10
248.5738656149523
 20
105.2408945990356
 30
0.0
 10
248.5463314273448
 20
104.9789243036234
 30
0.0
 10
248.5459238309513
 20
104.7357911502816
 30
0.0
 10
248.5719213524947
 20
104.4142148323336
 30
0.0
 10
248.5851807691454
 20
104.3144020723571
 30
0.0
 10
248.6209547840763
 20
104.1374943696753
 30
0.0
 10
248.6432984302257
 20
104.0600748202631
 30
0.0
 10
248.6722688460973
 20
104.0027670616144
 30
0.0
  0
ARC
  5
165
330
1F
100
AcDbEntity
  8
0
  6
HIDDEN
 62
     7
370
     0
100
AcDbCircle
 10
251.4069202588
 20
103.824120696
 30
0.0
 40
3.167564679927013
100
AcDbArc
 50
153.4309809001
 51
72.3059725328
  0
SPLINE
  5
166
330
1F
100
AcDbEntity
  8
0
  6
HIDDEN
 62
     7
370
     0
100
AcDbSpline
210
0.0
220
0.0
230
1.0
 70
     8
 71
     3
 72
    12
 73
     8
 74
     0
 42
0.00000001
 43
0.00000001
 12
1.0
 22
0.0
 32
0.0
 13
1.0
 23
0.0
 33
0.0
 40
0.0
 40
0.0
 40
0.0
 40
0.0
 40
0.2500000000000004
 40
0.2500000000000004
 40
0.5000000000000009
 40
0.5000000000000009
 40
1.0
 40
1.0
 40
1.0
 40
1.0
 10
253.2786452551721
 20
105.9455927028077
 30
0.0
 10
253.2496748393006
 20
106.0029004614564
 30
0.0
 10
253.2019260604992
 20
106.0696049197101
 30
0.0
 10
253.084676336875
 20
106.2121487142078
 30
0.0
 10
253.0148276074984
 20
106.2880938702333
 30
0.0
 10
252.7800805771319
 20
106.5216261678256
 30
0.0
 10
252.5909656279151
 20
106.6848246331401
 30
0.0
 10
252.3696503460054
 20
106.8418379977157
 30
0.0
  0
LINE
  5
167
330
1F
100
AcDbEntity
  8
0
  6
HIDDEN
 62
     7
370
     0
100
AcDbLine
 10
248.6722696579
 20
104.0027667172
 30
0.0
 11
248.9961165941
 21
103.3621462397
 31
0.0
  0
LWPOLYLINE
  5
168
330
1F
100
AcDbEntity
  8
0
  6
HIDDEN
 62
     7
370
     0
100
AcDbPolyline
 90
       13
 70
   128
 43
0.0
 10
250.7846061146
 20
111.6181323873
 10
250.8692521608
 20
111.1781787462
 10
250.7911700761
 20
110.7020072508
 10
250.5556795752
 20
110.2220678571
 10
250.1788366592
 20
109.7710676826
 10
249.6863160289
 20
109.3797417693
 10
249.1116825497
 20
109.0747583061
 10
248.4940964735
 20
108.8769016191
 10
247.8756461299
 20
108.7996549308
 10
247.2984794533
 20
108.8482825421
 10
246.8019280589
 20
109.0194708071
 10
246.4198324835
 20
109.3015535138
 10
246.178225056
 20
109.6753067672
  0
ELLIPSE
  5
169
330
1F
100
AcDbEntity
  8
0
  6
HIDDEN
 62
     7
370
     0
100
AcDbEllipse
 10
249.83177049
 20
107.5754218599
 30
0.0
 11
-1.101654435681468
 21
2.719284888726065
 31
0.0
210
0.0
220
0.0
230
1.0
 40
0.8519509261
 41
2.185216307006936
 42
4.122186332629209
  0
LWPOLYLINE
  5
16A
330
1F
100
AcDbEntity
  8
0
  6
HIDDEN
 62
     7
370
     0
100
AcDbPolyline
 90
       26
 70
   128
 43
0.0
 10
222.4430594599
 20
118.9193333834
 10
223.0647806084
 20
118.8446352593
 10
223.6474458134
 20
118.6252347529
 10
224.1544280207
 20
118.2749177664
 10
224.5538759983
 20
117.8156961091
 10
224.8207036412
 20
117.2764235511
 10
224.9381247914
 20
116.6909853332
 10
224.8987782753
 20
116.0961663686
 10
224.705130235
 20
115.5293415636
 10
224.3693400181
 20
115.0261264397
 10
223.9125225699
 20
114.6181397475
 10
223.3633700764
 20
114.3310170141
 10
222.7563936269
 20
114.1827991218
 10
222.1297252929
 20
114.1827991218
 10
221.5227488434
 20
114.3310170141
 10
220.97359635
 20
114.6181397475
 10
220.5167789018
 20
115.0261264397
 10
220.1809886849
 20
115.5293415636
 10
219.9873406446
 20
116.0961663686
 10
219.9479941285
 20
116.6909853332
 10
220.0654152787
 20
117.2764235511
 10
220.3322429216
 20
117.8156961091
 10
220.7316908992
 20
118.2749177664
 10
221.2386731064
 20
118.6252347529
 10
221.8213308609
 20
118.8446352593
 10
222.4430594599
 20
118.9193333834
  0
LINE
  5
16B
330
1F
100
AcDbEntity
  8
0
  6
HIDDEN
 62
     7
370
     0
100
AcDbLine
 10
260.0072029984
 20
94.2365950309
 30
0.0
 11
260.1036135113
 21
94.045878794
 31
0.0
  0
LINE
  5
16C
330
1F
100
AcDbEntity
  8
0
  6
HIDDEN
 62
     7
370
     0
100
AcDbLine
 10
260.7572603977
 20
94.694734957
 30
0.0
 11
260.5394426739
 21
95.125602033
 31
0.0
  0
LINE
  5
16D
330
1F
100
AcDbEntity
  8
0
  6
HIDDEN
 62
     7
370
     0
100
AcDbLine
 10
128.4430589533
 20
122.6311311461
 30
0.0
 11
128.4430589533
 21
115.2567467056
 31
0.0
  0
LINE
  5
16E
330
1F
100
AcDbEntity
  8
0
  6
HIDDEN
 62
     7
370
     0
100
AcDbLine
 10
128.4430589533
 20
111.5563189946
 30
0.0
 11
128.4430589533
 21
104.1819345541
 31
0.0
  0
SPLINE
  5
16F
330
1F
100
AcDbEntity
  8
0
  6
HIDDEN
 62
     7
370
     0
100
AcDbSpline
210
0.0
220
0.0
230
1.0
 70
     8
 71
     3
 72
    24
 73
    20
 74
     0
 42
0.00000001
 43
0.00000001
 12
1.0
 22
0.0
 32
0.0
 13
1.0
 23
0.0
 33
0.0
 40
0.0
 40
0.0
 40
0.0
 40
0.0
 40
0.2500000000000124
 40
0.2500000000000124
 40
0.3750000000000182
 40
0.3750000000000182
 40
0.4375000000000211
 40
0.4375000000000211
 40
0.500000000000024
 40
0.500000000000024
 40
0.531250000000023
 40
0.531250000000023
 40
0.562500000000022
 40
0.562500000000022
 40
0.6250000000000184
 40
0.6250000000000184
 40
0.7500000000000114
 40
0.7500000000000114
 40
1.0
 40
1.0
 40
1.0
 40
1.0
 10
150.9480191839796
 20
102.6139391232957
 30
0.0
 10
150.9322503066222
 20
102.5400804313661
 30
0.0
 10
150.9156363247722
 20
102.4663690426304
 30
0.0
 10
150.8871046587671
 20
102.3548222190083
 30
0.0
 10
150.8770172439484
 20
102.3174506458798
 30
0.0
 10
150.8595296834941
 20
102.2605511482421
 30
0.0
 10
150.8533201217108
 20
102.2414480480969
 30
0.0
 10
150.8390425680582
 20
102.2025745338613
 30
0.0
 10
150.8314710202628
 20
102.1826498744279
 30
0.0
 10
150.8140534365845
 20
102.1525776564005
 30
0.0
 10
150.8055709399395
 20
102.1408962775974
 30
0.0
 10
150.7895326280677
 20
102.1336347668488
 30
0.0
 10
150.7847120798641
 20
102.1372130138586
 30
0.0
 10
150.7733028553162
 20
102.1489738690902
 30
0.0
 10
150.7692823748586
 20
102.1606395191408
 30
0.0
 10
150.7585285200383
 20
102.1971748492544
 30
0.0
 10
150.7546558387562
 20
102.2245705825779
 30
0.0
 10
150.7454876889186
 20
102.3092965743339
 30
0.0
 10
150.7434591835495
 20
102.370128696506
 30
0.0
 10
150.7430591619192
 20
102.4324948578476
 30
0.0
  0
SPLINE
  5
170
330
1F
100
AcDbEntity
  8
0
  6
HIDDEN
 62
     7
370
     0
100
AcDbSpline
210
0.0
220
0.0
230
1.0
 70
     8
 71
     3
 72
    24
 73
    20
 74
     0
 42
0.00000001
 43
0.00000001
 12
1.0
 22
0.0
 32
0.0
 13
1.0
 23
0.0
 33
0.0
 40
0.0
 40
0.0
 40
0.0
 40
0.0
 40
0.2500000000000164
 40
0.2500000000000164
 40
0.3750000000000215
 40
0.3750000000000215
 40
0.437500000000022
 40
0.437500000000022
 40
0.4687500000000223
 40
0.4687500000000223
 40
0.5000000000000225
 40
0.5000000000000225
 40
0.5625000000000193
 40
0.5625000000000193
 40
0.6250000000000161
 40
0.6250000000000161
 40
0.7500000000000095
 40
0.7500000000000095
 40
1.0
 40
1.0
 40
1.0
 40
1.0
 10
150.7430591619155
 20
124.3805708423425
 30
0.0
 10
150.7434638314912
 20
124.4436616508361
 30
0.0
 10
150.7455072783054
 20
124.5048473733395
 30
0.0
 10
150.7549068435594
 20
124.5903471058427
 30
0.0
 10
150.758857737088
 20
124.6179274892843
 30
0.0
 10
150.7700100453843
 20
124.6543815713969
 30
0.0
 10
150.7742315863107
 20
124.6662399930916
 30
0.0
 10
150.786439307873
 20
124.676860044469
 30
0.0
 10
150.7922300781234
 20
124.6796934116932
 30
0.0
 10
150.8091515912331
 20
124.6683788247004
 30
0.0
 10
150.8165577071844
 20
124.6565979389462
 30
0.0
 10
150.833014960429
 20
124.6265570977161
 30
0.0
 10
150.8404714783401
 20
124.6068441441027
 30
0.0
 10
150.8543794076151
 20
124.5684420780421
 30
0.0
 10
150.8604713535102
 20
124.5495604281304
 30
0.0
 10
150.8776656458617
 20
124.4932595175982
 30
0.0
 10
150.8876505960654
 20
124.4561834397881
 30
0.0
 10
150.9158966411647
 20
124.3455247688969
 30
0.0
 10
150.932376178126
 20
124.2723957084877
 30
0.0
 10
150.9480191839858
 20
124.1991265768629
 30
0.0
  0
LINE
  5
171
330
1F
100
AcDbEntity
  8
0
  6
HIDDEN
 62
     7
370
     0
100
AcDbLine
 10
246.178225056
 20
109.6753067672
 30
0.0
 11
244.5002201951
 21
113.8604680586
 31
0.0
  0
SPLINE
  5
172
330
1F
100
AcDbEntity
  8
0
  6
HIDDEN
 62
     7
370
     0
100
AcDbSpline
210
0.0
220
0.0
230
1.0
 70
     8
 71
     3
 72
     8
 73
     4
 74
     0
 42
0.00000001
 43
0.00000001
 12
1.0
 22
0.0
 32
0.0
 13
1.0
 23
0.0
 33
0.0
 40
0.0
 40
0.0
 40
0.0
 40
0.0
 40
1.0
 40
1.0
 40
1.0
 40
1.0
 10
151.1217388183596
 20
103.3530135324871
 30
0.0
 10
151.0566336567455
 20
103.0979882972815
 30
0.0
 10
150.9987463271856
 20
102.8515362811402
 30
0.0
 10
150.9480191839796
 20
102.6139391232957
 30
0.0
  0
SPLINE
  5
173
330
1F
100
AcDbEntity
  8
0
  6
HIDDEN
 62
     7
370
     0
100
AcDbSpline
210
0.0
220
0.0
230
1.0
 70
     8
 71
     3
 72
     8
 73
     4
 74
     0
 42
0.00000001
 43
0.00000001
 12
1.0
 22
0.0
 32
0.0
 13
1.0
 23
0.0
 33
0.0
 40
0.0
 40
0.0
 40
0.0
 40
0.0
 40
1.0
 40
1.0
 40
1.0
 40
1.0
 10
150.9480191839858
 20
124.199126576863
 30
0.0
 10
150.9987463271903
 20
123.9615294190274
 30
0.0
 10
151.0566336567482
 20
123.715077402896
 30
0.0
 10
151.1217388183596
 20
123.4600521677008
 30
0.0
  0
ELLIPSE
  5
174
330
1F
100
AcDbEntity
  8
0
  6
HIDDEN
 62
     7
370
     0
100
AcDbEllipse
 10
276.3973381481
 20
107.7065328501
 30
0.0
 11
17.20799578203827
 21
16.78295253849008
 31
0.0
210
0.0
220
0.0
230
1.0
 40
0.1573605504
 41
2.563915324726775
 42
2.645413844321025
  0
ELLIPSE
  5
175
330
1F
100
AcDbEntity
  8
0
  6
HIDDEN
 62
     7
370
     0
100
AcDbEllipse
 10
212.9716430594
 20
107.7065328501
 30
0.0
 11
53.03216677918567
 21
-16.78388808837917
 31
0.0
210
0.0
220
0.0
230
1.0
 40
0.0509512444
 41
0.4965246742047169
 42
0.8131374946876346
  0
SPLINE
  5
176
330
1F
100
AcDbEntity
  8
0
  6
HIDDEN
 62
     7
370
     0
100
AcDbSpline
210
0.0
220
0.0
230
1.0
 70
     8
 71
     3
 72
    12
 73
     8
 74
     0
 42
0.00000001
 43
0.00000001
 12
1.0
 22
0.0
 32
0.0
 13
1.0
 23
0.0
 33
0.0
 40
0.0
 40
0.0
 40
0.0
 40
0.0
 40
0.5
 40
0.5
 40
0.75
 40
0.75
 40
1.0
 40
1.0
 40
1.0
 40
1.0
 10
250.0377746997172
 20
98.13516511878026
 30
0.0
 10
248.7510494349835
 20
98.61168389221523
 30
0.0
 10
247.4258403359135
 20
98.9779017351878
 30
0.0
 10
245.3850967205787
 20
99.35192150550489
 30
0.0
 10
244.6959350698098
 20
99.447287588881
 30
0.0
 10
243.2993926388702
 20
99.57595226126264
 30
0.0
 10
242.594272140923
 20
99.60881877249147
 30
0.0
 10
241.8897757148394
 20
99.60881877249147
 30
0.0
  0
LINE
  5
177
330
1F
100
AcDbEntity
  8
0
  6
HIDDEN
 62
     7
370
     0
100
AcDbLine
 10
241.8897751725
 20
99.6088184751
 30
0.0
 11
240.4207069433
 21
99.6088184751
 31
0.0
  0
ELLIPSE
  5
178
330
1F
100
AcDbEntity
  8
0
  6
HIDDEN
 62
     7
370
     0
100
AcDbEllipse
 10
256.8902761757
 20
107.7065328501
 30
0.0
 11
-5.530973889347706
 21
16.99891568673698
 31
0.0
210
0.0
220
0.0
230
1.0
 40
0.0347142918
 41
1.559501743033907
 42
2.392653501931407
  0
LINE
  5
179
330
1F
100
AcDbEntity
  8
0
  6
HIDDEN
 62
     7
370
     0
100
AcDbLine
 10
129.9430582678
 20
110.8515045475
 30
0.0
 11
129.9430582678
 21
103.748921711
 31
0.0
  0
LINE
  5
17A
330
1F
100
AcDbEntity
  8
0
  6
HIDDEN
 62
     7
370
     0
100
AcDbLine
 10
129.9430582678
 20
123.0641439892
 30
0.0
 11
129.9430582678
 21
115.9615611527
 31
0.0
  0
LINE
  5
17B
330
1F
100
AcDbEntity
  8
0
  6
HIDDEN
 62
     7
370
     0
100
AcDbLine
 10
150.7430591394
 20
123.3254284002
 30
0.0
 11
150.7430591394
 21
103.4876373
 31
0.0
  0
LINE
  5
17C
330
1F
100
AcDbEntity
  8
0
  6
HIDDEN
 62
     7
370
     0
100
AcDbLine
 10
152.243059167
 20
121.8858998604
 30
0.0
 11
152.243059167
 21
104.9271658398
 31
0.0
  0
SPLINE
  5
17D
330
1F
100
AcDbEntity
  8
0
  6
HIDDEN
 62
     7
370
     0
100
AcDbSpline
210
0.0
220
0.0
230
1.0
 70
     8
 71
     3
 72
    22
 73
    18
 74
     0
 42
0.00000001
 43
0.00000001
 12
1.0
 22
0.0
 32
0.0
 13
1.0
 23
0.0
 33
0.0
 40
0.0
 40
0.0
 40
0.0
 40
0.0
 40
0.1249999999999999
 40
0.1249999999999999
 40
0.2499999999999999
 40
0.2499999999999999
 40
0.3749999999999999
 40
0.3749999999999999
 40
0.4999999999999999
 40
0.4999999999999999
 40
0.6249999999999999
 40
0.6249999999999999
 40
0.7499999999999999
 40
0.7499999999999999
 40
0.8749999999999999
 40
0.8749999999999999
 40
1.0
 40
1.0
 40
1.0
 40
1.0
 10
132.6430591619192
 20
110.813588170266
 30
0.0
 10
132.8239955199954
 20
111.0052080295725
 30
0.0
 10
133.0030909687723
 20
111.1988498939597
 30
0.0
 10
133.3539309572843
 20
111.5935051473439
 30
0.0
 10
133.5261240651889
 20
111.7945166780115
 30
0.0
 10
133.8518555708082
 20
112.2107277932453
 30
0.0
 10
134.0079318059765
 20
112.426743633532
 30
0.0
 10
134.2593110198656
 20
112.8920663966968
 30
0.0
 10
134.3531761501844
 20
113.1476055897196
 30
0.0
 10
134.3494482333222
 20
113.6819362248202
 30
0.0
 10
134.2520755908349
 20
113.9373570908209
 30
0.0
 10
134.000254781841
 20
114.3973858067686
 30
0.0
 10
133.8452855263684
 20
114.6112228076972
 30
0.0
 10
133.5204727686431
 20
115.0252613903909
 30
0.0
 10
133.3495797045153
 20
115.2245538624267
 30
0.0
 10
133.0009454649877
 20
115.6165287548609
 30
0.0
 10
132.8229376144592
 20
115.8089780408503
 30
0.0
 10
132.6430591619192
 20
115.9994775299219
 30
0.0
  0
LINE
  5
17E
330
1F
100
AcDbEntity
  8
0
  6
HIDDEN
 62
     7
370
     0
100
AcDbLine
 10
132.6430592692
 20
110.8135880772
 30
0.0
 11
132.6430592692
 21
115.999477623
 31
0.0
  0
SPLINE
  5
17F
330
1F
100
AcDbEntity
  8
0
  6
HIDDEN
 62
     7
370
     0
100
AcDbSpline
210
0.0
220
0.0
230
1.0
 70
     8
 71
     3
 72
     8
 73
     4
 74
     0
 42
0.00000001
 43
0.00000001
 12
1.0
 22
0.0
 32
0.0
 13
1.0
 23
0.0
 33
0.0
 40
0.0000137051794235
 40
0.0000137051794235
 40
0.0000137051794235
 40
0.0000137051794235
 40
0.0027147144718019
 40
0.0027147144718019
 40
0.0027147144718019
 40
0.0027147144718019
 10
129.9430591619192
 20
110.8515046130322
 30
0.0
 10
130.843055297414
 20
110.8385330458338
 30
0.0
 10
131.7430554760094
 20
110.8258981885218
 30
0.0
 10
132.6430591619192
 20
110.813588170266
 30
0.0
  0
SPLINE
  5
180
330
1F
100
AcDbEntity
  8
0
  6
HIDDEN
 62
     7
370
     0
100
AcDbSpline
210
0.0
220
0.0
230
1.0
 70
     8
 71
     3
 72
     8
 73
     4
 74
     0
 42
0.00000001
 43
0.00000001
 12
1.0
 22
0.0
 32
0.0
 13
1.0
 23
0.0
 33
0.0
 40
0.0000137050638847
 40
0.0000137050638847
 40
0.0000137050638847
 40
0.0000137050638847
 40
0.0027147143562631
 40
0.0027147143562631
 40
0.0027147143562631
 40
0.0027147143562631
 10
132.6430591619192
 20
115.9994775299219
 30
0.0
 10
131.7430554760094
 20
115.9871675116661
 30
0.0
 10
130.843055297414
 20
115.9745326543541
 30
0.0
 10
129.9430591619192
 20
115.9615610871557
 30
0.0
  0
SPLINE
  5
181
330
1F
100
AcDbEntity
  8
0
  6
HIDDEN
 62
     7
370
     0
100
AcDbSpline
210
0.0
220
0.0
230
1.0
 70
     8
 71
     3
 72
    10
 73
     6
 74
     0
 42
0.00000001
 43
0.00000001
 12
1.0
 22
0.0
 32
0.0
 13
1.0
 23
0.0
 33
0.0
 40
0.0
 40
0.0
 40
0.0
 40
0.0
 40
0.5
 40
0.5
 40
1.0
 40
1.0
 40
1.0
 40
1.0
 10
128.4430591619183
 20
111.5563190364438
 30
0.0
 10
128.6802011226342
 20
111.400704221915
 30
0.0
 10
128.9255438813977
 20
111.2687951924957
 30
0.0
 10
129.4268074701307
 20
111.0371383158581
 30
0.0
 10
129.6828420393811
 20
110.9376926997353
 30
0.0
 10
129.9430591619192
 20
110.8515046130322
 30
0.0
  0
SPLINE
  5
182
330
1F
100
AcDbEntity
  8
0
  6
HIDDEN
 62
     7
370
     0
100
AcDbSpline
210
0.0
220
0.0
230
1.0
 70
     8
 71
     3
 72
    10
 73
     6
 74
     0
 42
0.00000001
 43
0.00000001
 12
1.0
 22
0.0
 32
0.0
 13
1.0
 23
0.0
 33
0.0
 40
0.0
 40
0.0
 40
0.0
 40
0.0
 40
0.5
 40
0.5
 40
1.0
 40
1.0
 40
1.0
 40
1.0
 10
129.9430591619192
 20
115.9615610871557
 30
0.0
 10
129.6828420393812
 20
115.8753730004526
 30
0.0
 10
129.426807470131
 20
115.7759273843299
 30
0.0
 10
128.9255438813983
 20
115.5442705076925
 30
0.0
 10
128.680201122635
 20
115.4123614782734
 30
0.0
 10
128.4430591619192
 20
115.2567466637446
 30
0.0
  0
LINE
  5
183
330
1F
100
AcDbEntity
  8
0
  6
HIDDEN
 62
     7
370
     0
100
AcDbLine
 10
128.4430589533
 20
111.5563189946
 30
0.0
 11
128.4430589533
 21
115.2567467056
 31
0.0
  0
SPLINE
  5
184
330
1F
100
AcDbEntity
  8
0
  6
HIDDEN
 62
     7
370
     0
100
AcDbSpline
210
0.0
220
0.0
230
1.0
 70
     8
 71
     3
 72
    62
 73
    58
 74
     0
 42
0.00000001
 43
0.00000001
 12
1.0
 22
0.0
 32
0.0
 13
1.0
 23
0.0
 33
0.0
 40
-0.0312499999999998
 40
-0.0312499999999998
 40
0.0
 40
0.0
 40
0.0312500000000003
 40
0.0312500000000003
 40
0.0625000000000007
 40
0.0625000000000007
 40
0.093750000000001
 40
0.093750000000001
 40
0.1250000000000013
 40
0.1250000000000013
 40
0.1875000000000017
 40
0.1875000000000017
 40
0.250000000000002
 40
0.250000000000002
 40
0.281250000000002
 40
0.281250000000002
 40
0.312500000000002
 40
0.312500000000002
 40
0.343750000000002
 40
0.343750000000002
 40
0.375000000000002
 40
0.375000000000002
 40
0.4375000000000021
 40
0.4375000000000021
 40
0.468750000000002
 40
0.468750000000002
 40
0.5000000000000019
 40
0.5000000000000019
 40
0.5625000000000017
 40
0.5625000000000017
 40
0.5937500000000016
 40
0.5937500000000016
 40
0.6250000000000014
 40
0.6250000000000014
 40
0.6562500000000013
 40
0.6562500000000013
 40
0.6875000000000012
 40
0.6875000000000012
 40
0.7187500000000011
 40
0.7187500000000011
 40
0.750000000000001
 40
0.750000000000001
 40
0.7812500000000009
 40
0.7812500000000009
 40
0.8125000000000008
 40
0.8125000000000008
 40
0.8437500000000007
 40
0.8437500000000007
 40
0.8750000000000006
 40
0.8750000000000006
 40
0.9062500000000004
 40
0.9062500000000004
 40
0.9375000000000003
 40
0.9375000000000003
 40
0.9687500000000002
 40
0.9687500000000002
 40
1.0
 40
1.0
 40
1.03125
 40
1.03125
 10
138.8968312898475
 20
114.8945118887503
 30
0.0
 10
139.1243316364358
 20
115.1438584306109
 30
0.0
 10
139.2487941653532
 20
115.2554561080678
 30
0.0
 10
139.517888431505
 20
115.4541069038862
 30
0.0
 10
139.6637015230943
 20
115.5414471486749
 30
0.0
 10
139.9648684013837
 20
115.6856429013172
 30
0.0
 10
140.1212041284481
 20
115.7434625718314
 30
0.0
 10
140.4453274277825
 20
115.8307161838824
 30
0.0
 10
140.6119926394929
 20
115.8595182333642
 30
0.0
 10
141.1100089061248
 20
115.9002975386321
 30
0.0
 10
141.4506798549178
 20
115.8668542784908
 30
0.0
 10
142.0896907703393
 20
115.684401634032
 30
0.0
 10
142.3961453774031
 20
115.5329770737193
 30
0.0
 10
142.7927012866655
 20
115.2324791681349
 30
0.0
 10
142.9170504775151
 20
115.1182179829396
 30
0.0
 10
143.1395145715642
 20
114.868558112367
 30
0.0
 10
143.2370799100415
 20
114.7343915043679
 30
0.0
 10
143.4043355136803
 20
114.4469224098692
 30
0.0
 10
143.4744211691994
 20
114.2916555599694
 30
0.0
 10
143.5784765299209
 20
113.9746761398823
 30
0.0
 10
143.6134522925883
 20
113.8120233883779
 30
0.0
 10
143.6653168121124
 20
113.3110863681753
 30
0.0
 10
143.626010704341
 20
112.970931766865
 30
0.0
 10
143.4632909118801
 20
112.4944371347678
 30
0.0
 10
143.3930104139939
 20
112.3433697749404
 30
0.0
 10
143.2216772688638
 20
112.0560752044995
 30
0.0
 10
143.1202850276821
 20
111.9202174262021
 30
0.0
 10
142.783685440459
 20
111.5514090312039
 30
0.0
 10
142.5084526742943
 20
111.3489839218729
 30
0.0
 10
142.0586694469484
 20
111.1319071952641
 30
0.0
 10
141.8998696484448
 20
111.0726049231899
 30
0.0
 10
141.5773079275651
 20
110.9846324053893
 30
0.0
 10
141.4134488155979
 20
110.9555126415431
 30
0.0
 10
141.080616042244
 20
110.9266560264329
 30
0.0
 10
140.9105637508031
 20
110.9272795496469
 30
0.0
 10
140.5782880867835
 20
110.9585359934513
 30
0.0
 10
140.4145734750347
 20
110.9888546885031
 30
0.0
 10
140.0921079894604
 20
111.0795717275061
 30
0.0
 10
139.9335968909338
 20
111.1403406362079
 30
0.0
 10
139.635043184736
 20
111.2878513110049
 30
0.0
 10
139.4932170555339
 20
111.3749863388688
 30
0.0
 10
139.2252953169756
 20
111.5775718054408
 30
0.0
 10
139.1012018865831
 20
111.691909972083
 30
0.0
 10
138.8800676986649
 20
111.9400964100357
 30
0.0
 10
138.7816106965662
 20
112.0751290268896
 30
0.0
 10
138.6122521828312
 20
112.3671334249443
 30
0.0
 10
138.5440853451253
 20
112.5192691713798
 30
0.0
 10
138.4403513787989
 20
112.8356781198199
 30
0.0
 10
138.4046828169297
 20
113.0021745891741
 30
0.0
 10
138.3704690522772
 20
113.3354364652846
 30
0.0
 10
138.3713274551063
 20
113.5020989191065
 30
0.0
 10
138.4091242350559
 20
113.835487118324
 30
0.0
 10
138.4464669905099
 20
114.0012426908036
 30
0.0
 10
138.5537165735784
 20
114.3171340072662
 30
0.0
 10
138.6244777901175
 20
114.4704133403384
 30
0.0
 10
138.7966009402182
 20
114.7597903828249
 30
0.0
 10
138.8968312898475
 20
114.8945118887503
 30
0.0
 10
139.1243316364358
 20
115.1438584306109
 30
0.0
  0
SPLINE
  5
185
330
1F
100
AcDbEntity
  8
0
  6
HIDDEN
 62
     7
370
     0
100
AcDbSpline
210
0.0
220
0.0
230
1.0
 70
     8
 71
     3
 72
    62
 73
    58
 74
     0
 42
0.00000001
 43
0.00000001
 12
1.0
 22
0.0
 32
0.0
 13
1.0
 23
0.0
 33
0.0
 40
-0.0312499999999998
 40
-0.0312499999999998
 40
0.0
 40
0.0
 40
0.0312500000000003
 40
0.0312500000000003
 40
0.0625000000000007
 40
0.0625000000000007
 40
0.093750000000001
 40
0.093750000000001
 40
0.1250000000000013
 40
0.1250000000000013
 40
0.1875000000000017
 40
0.1875000000000017
 40
0.250000000000002
 40
0.250000000000002
 40
0.281250000000002
 40
0.281250000000002
 40
0.312500000000002
 40
0.312500000000002
 40
0.343750000000002
 40
0.343750000000002
 40
0.375000000000002
 40
0.375000000000002
 40
0.4375000000000021
 40
0.4375000000000021
 40
0.468750000000002
 40
0.468750000000002
 40
0.5000000000000019
 40
0.5000000000000019
 40
0.5625000000000017
 40
0.5625000000000017
 40
0.5937500000000016
 40
0.5937500000000016
 40
0.6250000000000014
 40
0.6250000000000014
 40
0.6562500000000013
 40
0.6562500000000013
 40
0.6875000000000012
 40
0.6875000000000012
 40
0.7187500000000011
 40
0.7187500000000011
 40
0.750000000000001
 40
0.750000000000001
 40
0.7812500000000009
 40
0.7812500000000009
 40
0.8125000000000008
 40
0.8125000000000008
 40
0.8437500000000007
 40
0.8437500000000007
 40
0.8750000000000006
 40
0.8750000000000006
 40
0.9062500000000004
 40
0.9062500000000004
 40
0.9375000000000003
 40
0.9375000000000003
 40
0.9687500000000002
 40
0.9687500000000002
 40
1.0
 40
1.0
 40
1.03125
 40
1.03125
 10
138.8968312898475
 20
114.8945118887503
 30
0.0
 10
139.1243316364358
 20
115.1438584306109
 30
0.0
 10
139.2487941653532
 20
115.2554561080678
 30
0.0
 10
139.517888431505
 20
115.4541069038862
 30
0.0
 10
139.6637015230943
 20
115.5414471486749
 30
0.0
 10
139.9648684013837
 20
115.6856429013172
 30
0.0
 10
140.1212041284481
 20
115.7434625718314
 30
0.0
 10
140.4453274277825
 20
115.8307161838824
 30
0.0
 10
140.6119926394929
 20
115.8595182333642
 30
0.0
 10
141.1100089061248
 20
115.9002975386321
 30
0.0
 10
141.4506798549178
 20
115.8668542784908
 30
0.0
 10
142.0896907703393
 20
115.684401634032
 30
0.0
 10
142.3961453774031
 20
115.5329770737193
 30
0.0
 10
142.7927012866655
 20
115.2324791681349
 30
0.0
 10
142.9170504775151
 20
115.1182179829396
 30
0.0
 10
143.1395145715642
 20
114.868558112367
 30
0.0
 10
143.2370799100415
 20
114.7343915043679
 30
0.0
 10
143.4043355136803
 20
114.4469224098692
 30
0.0
 10
143.4744211691994
 20
114.2916555599694
 30
0.0
 10
143.5784765299209
 20
113.9746761398823
 30
0.0
 10
143.6134522925883
 20
113.8120233883779
 30
0.0
 10
143.6653168121124
 20
113.3110863681753
 30
0.0
 10
143.626010704341
 20
112.970931766865
 30
0.0
 10
143.4632909118801
 20
112.4944371347678
 30
0.0
 10
143.3930104139939
 20
112.3433697749404
 30
0.0
 10
143.2216772688638
 20
112.0560752044995
 30
0.0
 10
143.1202850276821
 20
111.9202174262021
 30
0.0
 10
142.783685440459
 20
111.5514090312039
 30
0.0
 10
142.5084526742943
 20
111.3489839218729
 30
0.0
 10
142.0586694469484
 20
111.1319071952641
 30
0.0
 10
141.8998696484448
 20
111.0726049231899
 30
0.0
 10
141.5773079275651
 20
110.9846324053893
 30
0.0
 10
141.4134488155979
 20
110.9555126415431
 30
0.0
 10
141.080616042244
 20
110.9266560264329
 30
0.0
 10
140.9105637508031
 20
110.9272795496469
 30
0.0
 10
140.5782880867835
 20
110.9585359934513
 30
0.0
 10
140.4145734750347
 20
110.9888546885031
 30
0.0
 10
140.0921079894604
 20
111.0795717275061
 30
0.0
 10
139.9335968909338
 20
111.1403406362079
 30
0.0
 10
139.635043184736
 20
111.2878513110049
 30
0.0
 10
139.4932170555339
 20
111.3749863388688
 30
0.0
 10
139.2252953169756
 20
111.5775718054408
 30
0.0
 10
139.1012018865831
 20
111.691909972083
 30
0.0
 10
138.8800676986649
 20
111.9400964100357
 30
0.0
 10
138.7816106965662
 20
112.0751290268896
 30
0.0
 10
138.6122521828312
 20
112.3671334249443
 30
0.0
 10
138.5440853451253
 20
112.5192691713798
 30
0.0
 10
138.4403513787989
 20
112.8356781198199
 30
0.0
 10
138.4046828169297
 20
113.0021745891741
 30
0.0
 10
138.3704690522772
 20
113.3354364652846
 30
0.0
 10
138.3713274551063
 20
113.5020989191065
 30
0.0
 10
138.4091242350559
 20
113.835487118324
 30
0.0
 10
138.4464669905099
 20
114.0012426908036
 30
0.0
 10
138.5537165735784
 20
114.3171340072662
 30
0.0
 10
138.6244777901175
 20
114.4704133403384
 30
0.0
 10
138.7966009402182
 20
114.7597903828249
 30
0.0
 10
138.8968312898475
 20
114.8945118887503
 30
0.0
 10
139.1243316364358
 20
115.1438584306109
 30
0.0
  0
CIRCLE
  5
186
330
1F
100
AcDbEntity
  8
0
  6
HIDDEN
 62
     7
370
     0
100
AcDbCircle
 10
140.9430591619
 20
113.4065328501
 30
0.0
 40
2.299999999999997
  0
LINE
  5
187
330
1F
100
AcDbEntity
  8
0
  6
HIDDEN
 62
     7
370
     0
100
AcDbLine
 10
254.3855909264
 20
113.4065328501
 30
0.0
 11
256.2377382076
 21
107.706532754
 31
0.0
  0
CIRCLE
  5
188
330
1F
100
AcDbEntity
  8
0
  6
HIDDEN
 62
     7
370
     0
100
AcDbCircle
 10
164.4430591619
 20
113.4065328501
 30
0.0
 40
2.0
  0
LINE
  5
189
330
1F
100
AcDbEntity
  8
0
  6
HIDDEN
 62
     7
370
     0
100
AcDbLine
 10
152.4430591619
 20
97.606533613
 30
0.0
 11
152.5359523823
 21
97.6994255893
 31
0.0
  0
LINE
  5
18A
330
1F
100
AcDbEntity
  8
0
  6
HIDDEN
 62
     7
370
     0
100
AcDbLine
 10
152.5359523823
 20
129.1136401109
 30
0.0
 11
152.4430591619
 21
129.2065320872
 31
0.0
  0
ARC
  5
18B
330
1F
100
AcDbEntity
  8
0
  6
HIDDEN
 62
     7
370
     0
100
AcDbCircle
 10
151.8288455995
 20
98.4065328501
 30
0.0
 40
1.000000000000008
100
AcDbArc
 50
315.0
 51
0.0
  0
ARC
  5
18C
330
1F
100
AcDbEntity
  8
0
  6
HIDDEN
 62
     7
370
     0
100
AcDbCircle
 10
151.8288455995
 20
98.4065328501
 30
0.0
 40
1.000000000000016
100
AcDbArc
 50
0.0
 51
52.1052014664
  0
ARC
  5
18D
330
1F
100
AcDbEntity
  8
0
  6
HIDDEN
 62
     7
370
     0
100
AcDbCircle
 10
151.8288455995
 20
128.4065328501
 30
0.0
 40
1.000000000000028
100
AcDbArc
 50
351.8087250651
 51
45.0
  0
ARC
  5
18E
330
1F
100
AcDbEntity
  8
0
  6
HIDDEN
 62
     7
370
     0
100
AcDbCircle
 10
151.8288455995
 20
128.4065328501
 30
0.0
 40
1.000000000000016
100
AcDbArc
 50
307.8947985336
 51
351.8087250651
  0
LINE
  5
18F
330
1F
100
AcDbEntity
  8
0
  6
HIDDEN
 62
     7
370
     0
100
AcDbLine
 10
152.8288455977
 20
98.4065331854
 30
0.0
 11
152.8288455977
 21
128.4065325148
 31
0.0
  0
LINE
  5
190
330
1F
100
AcDbEntity
  8
0
  6
HIDDEN
 62
     7
370
     0
100
AcDbLine
 10
152.8288455977
 20
98.4065331854
 30
0.0
 11
152.8288455977
 21
128.4065325148
 31
0.0
  0
LINE
  5
191
330
1F
100
AcDbEntity
  8
0
  6
HIDDEN
 62
     7
370
     0
100
AcDbLine
 10
231.7198667681
 20
107.6478319578
 30
0.0
 11
223.9773500717
 21
111.4086880684
 31
0.0
  0
LINE
  5
192
330
1F
100
AcDbEntity
  8
0
  6
HIDDEN
 62
     7
370
     0
100
AcDbLine
 10
221.8956280506
 20
107.7505987473
 30
0.0
 11
231.5589938319
 21
103.0567078255
 31
0.0
  0
LINE
  5
193
330
1F
100
AcDbEntity
  8
0
  6
HIDDEN
 62
     7
370
     0
100
AcDbLine
 10
220.3430611646
 20
112.0958013329
 30
0.0
 11
220.3430611646
 21
109.38931204
 31
0.0
  0
LINE
  5
194
330
1F
100
AcDbEntity
  8
0
  6
HIDDEN
 62
     7
370
     0
100
AcDbLine
 10
224.5430577552
 20
110.4431310072
 30
0.0
 11
224.5430577552
 21
112.0973526835
 31
0.0
  0
LINE
  5
195
330
1F
100
AcDbEntity
  8
0
  6
HIDDEN
 62
     7
370
     0
100
AcDbLine
 10
128.4430589533
 20
103.250882063
 30
0.0
 11
129.4700916863
 21
103.8438393138
 31
0.0
  0
LINE
  5
196
330
1F
100
AcDbEntity
  8
0
  6
HIDDEN
 62
     7
370
     0
100
AcDbLine
 10
129.4700916863
 20
122.9692263864
 30
0.0
 11
128.4430589533
 21
123.5621836371
 31
0.0
  0
LINE
  5
197
330
1F
100
AcDbEntity
  8
0
  6
HIDDEN
 62
     7
370
     0
100
AcDbLine
 10
133.9430589235
 20
103.4065330736
 30
0.0
 11
134.9558778113
 21
103.4065330736
 31
0.0
  0
LINE
  5
198
330
1F
100
AcDbEntity
  8
0
  6
HIDDEN
 62
     7
370
     0
100
AcDbLine
 10
134.9558778113
 20
123.4065326266
 30
0.0
 11
133.9430589235
 21
123.4065326266
 31
0.0
  0
ARC
  5
199
330
1F
100
AcDbEntity
  8
0
  6
HIDDEN
 62
     7
370
     0
100
AcDbCircle
 10
134.9558776316
 20
104.4065328501
 30
0.0
 40
1.000000000000028
100
AcDbArc
 50
270.0
 51
315.0
  0
ARC
  5
19A
330
1F
100
AcDbEntity
  8
0
  6
HIDDEN
 62
     7
370
     0
100
AcDbCircle
 10
134.9558776316
 20
122.4065328501
 30
0.0
 40
1.000000000000008
100
AcDbArc
 50
45.0
 51
90.0
  0
ARC
  5
19B
330
1F
100
AcDbEntity
  8
0
  6
HIDDEN
 62
     7
370
     0
100
AcDbCircle
 10
133.9430591619
 20
104.4065328501
 30
0.0
 40
1.000000000000008
100
AcDbArc
 50
193.3524261238
 51
270.0
  0
ARC
  5
19C
330
1F
100
AcDbEntity
  8
0
  6
HIDDEN
 62
     7
370
     0
100
AcDbCircle
 10
133.9430591619
 20
122.4065328501
 30
0.0
 40
1.000000000000001
100
AcDbArc
 50
90.0
 51
166.6475738762
  0
LINE
  5
19D
330
1F
100
AcDbEntity
  8
0
  6
HIDDEN
 62
     7
370
     0
100
AcDbLine
 10
135.6629844761
 20
103.6994256414
 30
0.0
 11
136.3700911409
 21
104.4065332375
 31
0.0
  0
LINE
  5
19E
330
1F
100
AcDbEntity
  8
0
  6
HIDDEN
 62
     7
370
     0
100
AcDbLine
 10
136.3700911409
 20
122.4065324627
 30
0.0
 11
135.6629844761
 21
123.1136400588
 31
0.0
  0
LINE
  5
19F
330
1F
100
AcDbEntity
  8
0
  6
HIDDEN
 62
     7
370
     0
100
AcDbLine
 10
129.4700916863
 20
103.8438393138
 30
0.0
 11
131.5700918442
 21
104.4065332375
 31
0.0
  0
LINE
  5
1A0
330
1F
100
AcDbEntity
  8
0
  6
HIDDEN
 62
     7
370
     0
100
AcDbLine
 10
131.5700918442
 20
122.4065324627
 30
0.0
 11
129.4700916863
 21
122.9692263864
 31
0.0
  0
LINE
  5
1A1
330
1F
100
AcDbEntity
  8
0
  6
HIDDEN
 62
     7
370
     0
100
AcDbLine
 10
132.9700913286
 20
122.6374725215
 30
0.0
 11
132.5700920081
 21
122.4065324627
 31
0.0
  0
LINE
  5
1A2
330
1F
100
AcDbEntity
  8
0
  6
HIDDEN
 62
     7
370
     0
100
AcDbLine
 10
132.5700920081
 20
104.4065332375
 30
0.0
 11
132.9700913286
 21
104.1755931787
 31
0.0
  0
ARC
  5
1A3
330
1F
100
AcDbEntity
  8
0
  6
HIDDEN
 62
     7
370
     0
100
AcDbCircle
 10
142.9430591619
 20
104.9065328501
 30
0.0
 40
0.5
100
AcDbArc
 50
270.0
 51
0.0
  0
ARC
  5
1A4
330
1F
100
AcDbEntity
  8
0
  6
HIDDEN
 62
     7
370
     0
100
AcDbCircle
 10
142.9430591619
 20
121.9065328501
 30
0.0
 40
0.5
100
AcDbArc
 50
0.0
 51
90.0
  0
LINE
  5
1A5
330
1F
100
AcDbEntity
  8
0
  6
HIDDEN
 62
     7
370
     0
100
AcDbLine
 10
131.5700918442
 20
104.4065332375
 30
0.0
 11
132.5700920081
 21
104.4065332375
 31
0.0
  0
LINE
  5
1A6
330
1F
100
AcDbEntity
  8
0
  6
HIDDEN
 62
     7
370
     0
100
AcDbLine
 10
132.5700920081
 20
122.4065324627
 30
0.0
 11
131.5700918442
 21
122.4065324627
 31
0.0
  0
LINE
  5
1A7
330
1F
100
AcDbEntity
  8
0
  6
HIDDEN
 62
     7
370
     0
100
AcDbLine
 10
136.3700911409
 20
104.4065332375
 30
0.0
 11
142.9430594674
 21
104.4065332375
 31
0.0
  0
LINE
  5
1A8
330
1F
100
AcDbEntity
  8
0
  6
HIDDEN
 62
     7
370
     0
100
AcDbLine
 10
142.9430594674
 20
122.4065324627
 30
0.0
 11
136.3700911409
 21
122.4065324627
 31
0.0
  0
LINE
  5
1A9
330
1F
100
AcDbEntity
  8
0
  6
HIDDEN
 62
     7
370
     0
100
AcDbLine
 10
143.4430595493
 20
106.2565328888
 30
0.0
 11
144.3430589518
 21
107.156532757
 31
0.0
  0
LINE
  5
1AA
330
1F
100
AcDbEntity
  8
0
  6
HIDDEN
 62
     7
370
     0
100
AcDbLine
 10
144.3430589518
 20
119.6565329432
 30
0.0
 11
143.4430595493
 21
120.5565328114
 31
0.0
  0
LINE
  5
1AB
330
1F
100
AcDbEntity
  8
0
  6
HIDDEN
 62
     7
370
     0
100
AcDbLine
 10
243.5653138912
 20
114.0089466339
 30
0.0
 11
243.9917255199
 21
113.1654384648
 31
0.0
  0
LINE
  5
1AC
330
1F
100
AcDbEntity
  8
0
  6
HIDDEN
 62
     7
370
     0
100
AcDbLine
 10
250.2388510859
 20
116.323507797
 30
0.0
 11
249.8124394572
 21
117.167015966
 31
0.0
  0
LINE
  5
1AD
330
1F
100
AcDbEntity
  8
0
  6
HIDDEN
 62
     7
370
     0
100
AcDbLine
 10
163.4430591023
 20
107.156532757
 30
0.0
 11
164.6447800106
 21
109.1565326191
 31
0.0
  0
LINE
  5
1AE
330
1F
100
AcDbEntity
  8
0
  6
HIDDEN
 62
     7
370
     0
100
AcDbLine
 10
164.6447800106
 20
117.6565330811
 30
0.0
 11
163.4430591023
 21
119.6565329432
 31
0.0
  0
LINE
  5
1AF
330
1F
100
AcDbEntity
  8
0
  6
HIDDEN
 62
     7
370
     0
100
AcDbLine
 10
144.3430589518
 20
107.156532757
 30
0.0
 11
163.4430591023
 21
107.156532757
 31
0.0
  0
LINE
  5
1B0
330
1F
100
AcDbEntity
  8
0
  6
HIDDEN
 62
     7
370
     0
100
AcDbLine
 10
163.4430591023
 20
119.6565329432
 30
0.0
 11
144.3430589518
 21
119.6565329432
 31
0.0
  0
LINE
  5
1B1
330
1F
100
AcDbEntity
  8
0
  6
HIDDEN
 62
     7
370
     0
100
AcDbLine
 10
239.7337038076
 20
109.0433727354
 30
0.0
 11
240.6974587596
 21
107.1369279511
 31
0.0
  0
LINE
  5
1B2
330
1F
100
AcDbEntity
  8
0
  6
HIDDEN
 62
     7
370
     0
100
AcDbLine
 10
164.6447800106
 20
109.1565326191
 30
0.0
 11
227.4430621422
 21
109.1565326191
 31
0.0
  0
LINE
  5
1B3
330
1F
100
AcDbEntity
  8
0
  6
HIDDEN
 62
     7
370
     0
100
AcDbLine
 10
227.4430621422
 20
117.6565330811
 30
0.0
 11
164.6447800106
 21
117.6565330811
 31
0.0
  0
LINE
  5
1B4
330
1F
100
AcDbEntity
  8
0
  6
HIDDEN
 62
     7
370
     0
100
AcDbLine
 10
227.4430621422
 20
109.1565326191
 30
0.0
 11
229.9967188394
 21
113.4065328501
 31
0.0
  0
LINE
  5
1B5
330
1F
100
AcDbEntity
  8
0
  6
HIDDEN
 62
     7
370
     0
100
AcDbLine
 10
229.9967188394
 20
113.4065328501
 30
0.0
 11
227.4430621422
 21
117.6565330811
 31
0.0
  0
LINE
  5
1B6
330
1F
100
AcDbEntity
  8
0
  6
HIDDEN
 62
     7
370
     0
100
AcDbLine
 10
252.7494955814
 20
107.6491148546
 30
0.0
 11
249.5574805892
 21
114.9091550018
 31
0.0
  0
LINE
  5
1B7
330
1F
100
AcDbEntity
  8
0
  6
HIDDEN
 62
     7
370
     0
100
AcDbLine
 10
241.0273928201
 20
117.4777373075
 30
0.0
 11
242.8966317332
 21
113.780108832
 31
0.0
  0
LINE
  5
1B8
330
1F
100
AcDbEntity
  8
0
  6
HIDDEN
 62
     7
370
     0
100
AcDbLine
 10
250.393189863
 20
117.5697920248
 30
0.0
 11
248.6670318997
 21
120.9843810051
 31
0.0
  0
LINE
  5
1B9
330
1F
100
AcDbEntity
  8
0
  6
HIDDEN
 62
     7
370
     0
100
AcDbLine
 10
220.3430611646
 20
116.4967028294
 30
0.0
 11
220.3430611646
 21
114.7157130167
 31
0.0
  0
LINE
  5
1BA
330
1F
100
AcDbEntity
  8
0
  6
HIDDEN
 62
     7
370
     0
100
AcDbLine
 10
224.5430577552
 20
114.7172643672
 30
0.0
 11
224.5430577552
 21
116.4967028294
 31
0.0
  0
LINE
  5
1BB
330
1F
100
AcDbEntity
  8
0
  6
HIDDEN
 62
     7
370
     0
100
AcDbLine
 10
254.9033988273
 20
103.9836522527
 30
0.0
 11
254.2448718107
 21
105.2863201462
 31
0.0
  0
LINE
  5
1BC
330
1F
100
AcDbEntity
  8
0
  6
HIDDEN
 62
     7
370
     0
100
AcDbLine
 10
248.5332120216
 20
102.3989426307
 30
0.0
 11
249.1917390382
 21
101.0962747372
 31
0.0
  0
LINE
  5
1BD
330
1F
100
AcDbEntity
  8
0
  6
HIDDEN
 62
     7
370
     0
100
AcDbLine
 10
246.1928505457
 20
109.6405069679
 30
0.0
 11
248.671591655
 21
104.0027667172
 31
0.0
  0
LINE
  5
1BE
330
1F
100
AcDbEntity
  8
0
  6
HIDDEN
 62
     7
370
     0
100
AcDbLine
 10
219.9430618441
 20
118.3493206613
 30
0.0
 11
219.9430618441
 21
116.5416919961
 31
0.0
  0
LINE
  5
1BF
330
1F
100
AcDbEntity
  8
0
  6
HIDDEN
 62
     7
370
     0
100
AcDbLine
 10
224.9430570758
 20
116.5416919961
 30
0.0
 11
224.9430570758
 21
118.3506463989
 31
0.0
  0
LINE
  5
1C0
330
1F
100
AcDbEntity
  8
VERMASSUNG
  6
CENTERX2
100
AcDbLine
 10
124.307726166
 20
113.4065328501
 30
0.0
 11
262.4430591619
 21
113.4065328501
 31
0.0
  0
LINE
  5
1C1
330
1F
100
AcDbEntity
  8
VERMASSUNG
  6
CENTERX2
100
AcDbLine
 10
262.4430591619
 20
113.4065328501
 30
0.0
 11
262.4430591619
 21
91.4065328501
 31
0.0
  0
LINE
  5
1C2
330
1F
100
AcDbEntity
  8
VERMASSUNG
  6
CENTERX2
100
AcDbLine
 10
262.4430591619
 20
91.4065328501
 30
0.0
 11
282.2087618977
 21
91.4065328501
 31
0.0
  0
DIMENSION
  5
1C3
330
1F
100
AcDbEntity
  8
VERMASSUNG
100
AcDbDimension
  2
_D
 10
278.5174053787
 20
91.4065328501
 30
0.0
 11
278.5174053787
 21
102.4065328501
 31
0.0
 70
   160
  1
<>
 71
     2
 42
-1.0
  3
SLDDIMSTYLE0
100
AcDbAlignedDimension
 13
262.4430591619
 23
113.4065328501
 33
0.0
 14
262.4430591619
 24
91.4065328501
 34
0.0
 50
90.0
100
AcDbRotatedDimension
  0
DIMENSION
  5
1CE
330
1F
100
AcDbEntity
  8
VERMASSUNG
100
AcDbDimension
  2
_D_1
 10
258.1717203967
 20
105.4059826265
 30
0.0
 11
268.6588244528
 21
99.6871761535
 31
0.0
 70
   162
  1
<>
 71
     1
 42
-1.0
  3
SLDDIMSTYLE1
100
AcDb2LineAngularDimension
 13
262.4430591619
 23
91.4065328501
 33
0.0
 14
282.2087618977
 24
91.4065328501
 34
0.0
 15
262.4264629484
 25
91.919351742
 35
0.0
 16
268.6588244528
 26
99.6871761535
 36
0.0
  0
DIMENSION
  5
1D7
330
1F
100
AcDbEntity
  8
VERMASSUNG
100
AcDbDimension
  2
_D_2
 10
262.4430591619
 20
79.451908018
 30
0.0
 11
207.4430591619
 21
79.451908018
 31
0.0
 70
   160
  1
<>
 71
     2
 42
-1.0
  3
SLDDIMSTYLE0
100
AcDbAlignedDimension
 13
152.4430591619
 23
93.7065328501
 33
0.0
 14
262.4430591619
 24
91.4065328501
 34
0.0
100
AcDbRotatedDimension
  0
DIMENSION
  5
1E1
330
1F
100
AcDbEntity
  8
VERMASSUNG
100
AcDbDimension
  2
_D_3
 10
128.4430591619
 20
71.446547644
 30
0.0
 11
195.4430591619
 21
71.446547644
 31
0.0
 70
   160
  1
<>
 71
     2
 42
-1.0
  3
SLDDIMSTYLE0
100
AcDbAlignedDimension
 13
262.4430591619
 23
91.4065328501
 33
0.0
 14
128.4430591619
 24
100.775027868
 34
0.0
100
AcDbRotatedDimension
  0
DIMENSION
  5
1EB
330
1F
100
AcDbEntity
  8
VERMASSUNG
100
AcDbDimension
  2
_D_4
 10
121.5771054959
 20
93.4065328501
 30
0.0
 11
121.5771054959
 21
113.4065328501
 31
0.0
 70
   160
  1
PSC%%c<>
 71
     2
 42
-1.0
  3
SLDDIMSTYLE0
100
AcDbAlignedDimension
 13
152.7430591619
 23
133.4065328501
 33
0.0
 14
152.7430591619
 24
93.4065328501
 34
0.0
 50
90.0
100
AcDbRotatedDimension
  0
DIMENSION
  5
1F7
330
1F
100
AcDbEntity
  8
VERMASSUNG
100
AcDbDimension
  2
_D_5
 10
189.0569643957
 20
129.4065328501
 30
0.0
 11
189.0569643957
 21
104.6986672489
 31
0.0
 70
   160
  1
%%c<>
 71
     2
 42
-1.0
  3
SLDDIMSTYLE0
100
AcDbAlignedDimension
 13
174.4430591619
 23
97.4065328501
 33
0.0
 14
174.4430591619
 24
129.4065328501
 34
0.0
 50
90.0
100
AcDbRotatedDimension
  0
LINE
  5
200
330
1F
100
AcDbEntity
  8
0
  6
Continuous
 62
     7
370
    15
100
AcDbLine
 10
65.2001549506
 20
118.2785843834
 30
0.0
 11
65.0455730983
 21
118.0376465767
 31
0.0
  0
LINE
  5
201
330
1F
100
AcDbEntity
  8
0
  6
Continuous
 62
     7
370
    15
100
AcDbLine
 10
66.4928940141
 20
111.2285376861
 30
0.0
 11
66.7321093396
 21
111.0713038929
 31
0.0
  0
LINE
  5
202
330
1F
100
AcDbEntity
  8
0
  6
Continuous
 62
     7
370
    15
100
AcDbLine
 10
78.1758598068
 20
93.0437887423
 30
0.0
 11
80.8439942093
 21
93.6109176241
 31
0.0
  0
LINE
  5
203
330
1F
100
AcDbEntity
  8
0
  6
Continuous
 62
     7
370
    15
100
AcDbLine
 10
80.8535886944
 20
93.6186196618
 30
0.0
 11
81.0801738889
 21
93.9717846326
 31
0.0
  0
LINE
  5
204
330
1F
100
AcDbEntity
  8
0
  6
Continuous
 62
     7
370
    15
100
AcDbLine
 10
72.0260058669
 20
91.4045622907
 30
0.0
 11
78.2032174074
 21
92.7175687961
 31
0.0
  0
LINE
  5
205
330
1F
100
AcDbEntity
  8
0
  6
Continuous
 62
     7
370
    15
100
AcDbLine
 10
70.8815310399
 20
94.6933938525
 30
0.0
 11
71.3685116397
 21
94.141968932
 31
0.0
  0
LINE
  5
206
330
1F
100
AcDbEntity
  8
0
  6
Continuous
 62
     7
370
    15
100
AcDbLine
 10
67.5650018283
 20
107.2728139683
 30
0.0
 11
67.3024592006
 21
106.4375317059
 31
0.0
  0
LINE
  5
207
330
1F
100
AcDbEntity
  8
0
  6
Continuous
 62
     7
370
    15
100
AcDbLine
 10
66.5032065489
 20
109.7997431047
 30
0.0
 11
66.1952107229
 21
109.7342764828
 31
0.0
  0
LINE
  5
208
330
1F
100
AcDbEntity
  8
0
  6
Continuous
 62
     7
370
    15
100
AcDbLine
 10
69.5006861833
 20
98.9815950729
 30
0.0
 11
69.6554510404
 21
99.0066923536
 31
0.0
  0
LINE
  5
209
330
1F
100
AcDbEntity
  8
0
  6
Continuous
 62
     7
370
    15
100
AcDbLine
 10
77.7779424579
 20
107.706327863
 30
0.0
 11
68.8088257347
 21
105.7998830788
 31
0.0
  0
LINE
  5
20A
330
1F
100
AcDbEntity
  8
0
  6
Continuous
 62
     7
370
    15
100
AcDbLine
 10
68.8088257347
 20
105.7998830788
 30
0.0
 11
63.4655950607
 21
127.4801915847
 31
0.0
  0
ARC
  5
20B
330
1F
100
AcDbEntity
  8
0
  6
Continuous
 62
     7
370
    15
100
AcDbCircle
 10
72.0784997583
 20
113.4065328501
 30
0.0
 40
16.50000000000001
100
AcDbArc
 50
0.0
 51
121.4661145014
  0
LINE
  5
20C
330
1F
100
AcDbEntity
  8
0
  6
Continuous
 62
     7
370
    15
100
AcDbLine
 10
88.5784996689
 20
113.4065328501
 30
0.0
 11
88.5784996689
 21
107.706532754
 31
0.0
  0
ARC
  5
20D
330
1F
100
AcDbEntity
  8
0
  6
Continuous
 62
     7
370
    15
100
AcDbCircle
 10
71.5784997583
 20
107.7065328501
 30
0.0
 40
17.0
100
AcDbArc
 50
312.2639205213
 51
0.0
  0
LINE
  5
20E
330
1F
100
AcDbEntity
  8
0
  6
Continuous
 62
     7
370
    15
100
AcDbLine
 10
80.9930011646
 20
94.6964951567
 30
0.0
 11
83.011792788
 21
95.125602033
 31
0.0
  0
LINE
  5
20F
330
1F
100
AcDbEntity
  8
0
  6
Continuous
 62
     7
370
    15
100
AcDbLine
 10
77.878636589
 20
107.2977571152
 30
0.0
 11
77.7779424579
 21
107.706327863
 31
0.0
  0
ARC
  5
210
330
1F
100
AcDbEntity
  8
0
  6
Continuous
 62
     7
370
    15
100
AcDbCircle
 10
71.5784997583
 20
107.7065328501
 30
0.0
 40
17.00000000000001
100
AcDbArc
 50
307.594399312
 51
312.2639205213
  0
LINE
  5
211
330
1F
100
AcDbEntity
  8
0
  6
Continuous
 62
     7
370
    15
100
AcDbLine
 10
81.9496510566
 20
94.2365950309
 30
0.0
 11
81.0900188998
 21
94.0538751296
 31
0.0
  0
SPLINE
  5
212
330
1F
100
AcDbEntity
  8
0
  6
Continuous
 62
     7
370
    15
100
AcDbSpline
210
0.0
220
0.0
230
1.0
 70
     8
 71
     3
 72
    10
 73
     6
 74
     0
 42
0.00000001
 43
0.00000001
 12
1.0
 22
0.0
 32
0.0
 13
1.0
 23
0.0
 33
0.0
 40
0.0
 40
0.0
 40
0.0
 40
0.0
 40
0.5
 40
0.5
 40
1.0
 40
1.0
 40
1.0
 40
1.0
 10
68.31801444414613
 20
97.5535482843624
 30
0.0
 10
68.28718641779403
 20
97.65317557667757
 30
0.0
 10
68.25827142593224
 20
97.73522078915116
 30
0.0
 10
68.20728671397433
 20
97.8530245386187
 30
0.0
 10
68.18582059906198
 20
97.8872768663258
 30
0.0
 10
68.17026510458355
 20
97.89119521628453
 30
0.0
  0
ARC
  5
213
330
1F
100
AcDbEntity
  8
0
  6
Continuous
 62
     7
370
    15
100
AcDbCircle
 10
72.0784997583
 20
113.4065328501
 30
0.0
 40
16.0
100
AcDbArc
 50
255.2161674873
 51
255.8616180582
  0
ARC
  5
214
330
1F
100
AcDbEntity
  8
0
  6
Continuous
 62
     7
370
    15
100
AcDbCircle
 10
72.0784997583
 20
113.4065328501
 30
0.0
 40
16.00000000000001
100
AcDbArc
 50
128.1383819418
 51
128.7838325127
  0
SPLINE
  5
215
330
1F
100
AcDbEntity
  8
0
  6
Continuous
 62
     7
370
    15
100
AcDbSpline
210
0.0
220
0.0
230
1.0
 70
     8
 71
     3
 72
     8
 73
     4
 74
     0
 42
0.00000001
 43
0.00000001
 12
1.0
 22
0.0
 32
0.0
 13
1.0
 23
0.0
 33
0.0
 40
0.0
 40
0.0
 40
0.0
 40
0.0
 40
1.0
 40
1.0
 40
1.0
 40
1.0
 10
62.1974933976372
 20
125.9908768258272
 30
0.0
 10
62.22268888334752
 20
126.0106598796793
 30
0.0
 10
62.21982843013084
 20
126.1525384893363
 30
0.0
 10
62.19513575602971
 20
126.3594277171611
 30
0.0
  0
SPLINE
  5
216
330
1F
100
AcDbEntity
  8
0
  6
Continuous
 62
     7
370
    15
100
AcDbSpline
210
0.0
220
0.0
230
1.0
 70
     8
 71
     3
 72
     8
 73
     4
 74
     0
 42
0.00000001
 43
0.00000001
 12
1.0
 22
0.0
 32
0.0
 13
1.0
 23
0.0
 33
0.0
 40
0.0
 40
0.0
 40
0.0
 40
0.0
 40
1.0
 40
1.0
 40
1.0
 40
1.0
 10
62.19513575602948
 20
126.3594277171619
 30
0.0
 10
62.18564771670781
 20
126.4389238916464
 30
0.0
 10
62.17618350371902
 20
126.5183491811281
 30
0.0
 10
62.1667421516706
 20
126.5977064577172
 30
0.0
  0
ARC
  5
217
330
1F
100
AcDbEntity
  8
0
  6
Continuous
 62
     7
370
    15
100
AcDbCircle
 10
72.0784997583
 20
113.4065328501
 30
0.0
 40
16.50000000000001
100
AcDbArc
 50
121.4661145014
 51
126.9209496533
  0
ARC
  5
218
330
1F
100
AcDbEntity
  8
0
  6
Continuous
 62
     7
370
    15
100
AcDbCircle
 10
80.7043692553
 20
111.0997332933
 30
0.0
 40
14.5437861446148
100
AcDbArc
 50
188.1093908009
 51
199.5805009284
  0
LWPOLYLINE
  5
219
330
1F
100
AcDbEntity
  8
0
  6
Continuous
 62
     7
370
    15
100
AcDbPolyline
 90
        5
 70
   128
 43
0.0
 10
66.2258693964
 20
109.7407931797
 10
66.2219988198
 20
109.8173702471
 10
66.2296091222
 20
110.0581103805
 10
66.2758688458
 20
110.1389482487
 10
66.3570298829
 20
110.0533345584
  0
ARC
  5
21A
330
1F
100
AcDbEntity
  8
0
  6
Continuous
 62
     7
370
    15
100
AcDbCircle
 10
69.4677884668
 20
95.6639662002
 30
0.0
 40
0.3120692604314239
100
AcDbArc
 50
78.6492686177
 51
101.4027412243
  0
LINE
  5
21B
330
1F
100
AcDbEntity
  8
0
  6
Continuous
 62
     7
370
    15
100
AcDbLine
 10
68.8472355732
 20
95.8510874174
 30
0.0
 11
69.4060910509
 21
95.9698757492
 31
0.0
  0
SPLINE
  5
21C
330
1F
100
AcDbEntity
  8
0
  6
Continuous
 62
     7
370
    15
100
AcDbSpline
210
0.0
220
0.0
230
1.0
 70
     8
 71
     3
 72
     8
 73
     4
 74
     0
 42
0.00000001
 43
0.00000001
 12
1.0
 22
0.0
 32
0.0
 13
1.0
 23
0.0
 33
0.0
 40
0.0
 40
0.0
 40
0.0
 40
0.0
 40
1.0
 40
1.0
 40
1.0
 40
1.0
 10
68.84723549413246
 20
95.85108661297198
 30
0.0
 10
68.67115208141048
 20
96.41516389093371
 30
0.0
 10
68.49477863284295
 20
96.9822973941168
 30
0.0
 10
68.31801444414613
 20
97.55354828436239
 30
0.0
  0
LWPOLYLINE
  5
21D
330
1F
100
AcDbEntity
  8
0
  6
Continuous
 62
     7
370
    15
100
AcDbPolyline
 90
       33
 70
   128
 43
0.0
 10
64.975199105
 20
118.5536770485
 10
65.070966074
 20
118.4954572804
 10
65.1950131186
 20
118.2891157791
 10
65.342572333
 20
117.9425827563
 10
65.507972894
 20
117.4691751934
 10
65.6848594562
 20
116.8870857786
 10
65.8664338307
 20
116.2186837159
 10
66.0457180829
 20
115.4896555803
 10
66.2158227542
 20
114.7280175341
 10
66.3702104257
 20
113.9630386592
 10
66.5029485726
 20
113.2241167783
 10
66.6089358756
 20
112.5396482516
 10
66.6840991953
 20
111.9359369026
 10
66.7255500347
 20
111.4361828062
 10
66.7316958324
 20
111.0595915802
 10
66.7023000323
 20
110.8206349294
 10
66.6384923288
 20
110.7284963932
 10
66.5427253598
 20
110.7867163941
 10
66.4186783151
 20
110.9930576626
 10
66.2711191007
 20
111.3395906854
 10
66.1057180741
 20
111.8129982482
 10
65.9288319775
 20
112.3950876631
 10
65.7472576031
 20
113.0634896676
 10
65.5679733508
 20
113.7925178322
 10
65.3978686796
 20
114.554156024
 10
65.2434810081
 20
115.3191348407
 10
65.1107428611
 20
116.0580566488
 10
65.0047555582
 20
116.7425251901
 10
64.9295922385
 20
117.3462364226
 10
64.888141399
 20
117.8459906354
 10
64.8819956013
 20
118.2225820943
 10
64.9113914014
 20
118.4615385122
 10
64.975199105
 20
118.5536770485
  0
LINE
  5
21E
330
1F
100
AcDbEntity
  8
0
  6
Continuous
 62
     7
370
    15
100
AcDbLine
 10
66.3570298829
 20
110.0533345584
 30
0.0
 11
68.8088257347
 21
105.7998830788
 31
0.0
  0
SPLINE
  5
21F
330
1F
100
AcDbEntity
  8
0
  6
Continuous
 62
     7
370
    15
100
AcDbSpline
210
0.0
220
0.0
230
1.0
 70
     8
 71
     3
 72
    26
 73
    22
 74
     0
 42
0.00000001
 43
0.00000001
 12
1.0
 22
0.0
 32
0.0
 13
1.0
 23
0.0
 33
0.0
 40
0.0
 40
0.0
 40
0.0
 40
0.0
 40
0.1249999999999997
 40
0.1249999999999997
 40
0.2499999999999997
 40
0.2499999999999997
 40
0.3749999999999997
 40
0.3749999999999997
 40
0.4999999999999998
 40
0.4999999999999998
 40
0.6249999999999998
 40
0.6249999999999998
 40
0.6874999999999999
 40
0.6874999999999999
 40
0.7499999999999999
 40
0.7499999999999999
 40
0.8125
 40
0.8125
 40
0.8750000000000001
 40
0.8750000000000001
 40
1.0
 40
1.0
 40
1.0
 40
1.0
 10
63.72349186212276
 20
107.4199136134339
 30
0.0
 10
63.92009709979027
 20
107.3270557528733
 30
0.0
 10
64.09603497167156
 20
107.2104829981283
 30
0.0
 10
64.42160012710744
 20
106.9450334623404
 30
0.0
 10
64.57208369625711
 20
106.7941834670017
 30
0.0
 10
64.84251153794942
 20
106.4715703235553
 30
0.0
 10
64.96317219672781
 20
106.2997681526265
 30
0.0
 10
65.17632396744902
 20
105.932168192518
 30
0.0
 10
65.2699173334031
 20
105.7336587625917
 30
0.0
 10
65.41058252325728
 20
105.3193611672822
 30
0.0
 10
65.45829897099642
 20
105.0985950815499
 30
0.0
 10
65.4729644461503
 20
104.7747199631098
 30
0.0
 10
65.4685687481464
 20
104.6663411988809
 30
0.0
 10
65.43892672927035
 20
104.4543061469171
 30
0.0
 10
65.41420528116838
 20
104.3530090915475
 30
0.0
 10
65.34574338694789
 20
104.1580975934097
 30
0.0
 10
65.30158081131772
 20
104.0640460531183
 30
0.0
 10
65.19794466511455
 20
103.8881902388413
 30
0.0
 10
65.1382826106122
 20
103.8055238259899
 30
0.0
 10
64.93656642503129
 20
103.5704001101185
 30
0.0
 10
64.77687484118718
 20
103.4358494272638
 30
0.0
 10
64.59489902274385
 20
103.3202652479606
 30
0.0
  0
SPLINE
  5
220
330
1F
100
AcDbEntity
  8
0
  6
Continuous
 62
     7
370
    15
100
AcDbSpline
210
0.0
220
0.0
230
1.0
 70
     8
 71
     3
 72
    14
 73
    10
 74
     0
 42
0.00000001
 43
0.00000001
 12
1.0
 22
0.0
 32
0.0
 13
1.0
 23
0.0
 33
0.0
 40
0.0
 40
0.0
 40
0.0
 40
0.0
 40
0.25
 40
0.25
 40
0.5
 40
0.5
 40
0.75
 40
0.75
 40
1.0
 40
1.0
 40
1.0
 40
1.0
 10
67.99573282196418
 20
97.93620595816424
 30
0.0
 10
67.95854953841095
 20
97.9460189816212
 30
0.0
 10
67.8654283788541
 20
97.97045317850613
 30
0.0
 10
67.57660107036499
 20
98.05220335384263
 30
0.0
 10
67.38653476663949
 20
98.10811256848393
 30
0.0
 10
66.93535873798622
 20
98.25383345226831
 30
0.0
 10
66.68059777457171
 20
98.34173338027794
 30
0.0
 10
66.13366869069719
 20
98.54905956324882
 30
0.0
 10
65.84908595721083
 20
98.66553408569057
 30
0.0
 10
65.55653435246131
 20
98.79612672143327
 30
0.0
  0
SPLINE
  5
221
330
1F
100
AcDbEntity
  8
0
  6
Continuous
 62
     7
370
    15
100
AcDbSpline
210
0.0
220
0.0
230
1.0
 70
     8
 71
     3
 72
    18
 73
    14
 74
     0
 42
0.00000001
 43
0.00000001
 12
1.0
 22
0.0
 32
0.0
 13
1.0
 23
0.0
 33
0.0
 40
0.0
 40
0.0
 40
0.0
 40
0.0
 40
0.249999999999992
 40
0.249999999999992
 40
0.3749999999999895
 40
0.3749999999999895
 40
0.499999999999987
 40
0.499999999999987
 40
0.7499999999999887
 40
0.7499999999999887
 40
0.8749999999999943
 40
0.8749999999999943
 40
1.0
 40
1.0
 40
1.0
 40
1.0
 10
60.17780034415286
 20
124.1010806877986
 30
0.0
 10
60.39224627628629
 20
124.3397122426475
 30
0.0
 10
60.60456816919199
 20
124.5615187634279
 30
0.0
 10
60.91473359599061
 20
124.8691472674953
 30
0.0
 10
61.01737108133559
 20
124.968074904226
 30
0.0
 10
61.21183104631987
 20
125.1510351120853
 30
0.0
 10
61.30435512634428
 20
125.2357979938962
 30
0.0
 10
61.56574101367942
 20
125.4703933081436
 30
0.0
 10
61.72040460182532
 20
125.6021035888391
 30
0.0
 10
61.89162549348048
 20
125.7448112121911
 30
0.0
 10
61.93938237280997
 20
125.783957518787
 30
0.0
 10
62.01445430820499
 20
125.8450750462015
 30
0.0
 10
62.04132683492499
 20
125.8666906145776
 30
0.0
 10
62.05635774169281
 20
125.8787687922968
 30
0.0
  0
ELLIPSE
  5
222
330
1F
100
AcDbEntity
  8
0
  6
Continuous
 62
     7
370
    15
100
AcDbEllipse
 10
63.1328669345
 20
105.3522697994
 30
0.0
 11
-1.695031979916721
 21
1.853747149386394
 31
0.0
210
0.0
220
0.0
230
1.0
 40
0.8157680509
 41
5.177820208365442
 42
9.281670825748598
  0
ARC
  5
223
330
1F
100
AcDbEntity
  8
0
  6
Continuous
 62
     7
370
    15
100
AcDbCircle
 10
72.0784997583
 20
113.4065328501
 30
0.0
 40
16.00000000000001
100
AcDbArc
 50
138.0555924159
 51
245.9444075841
  0
ARC
  5
224
330
1F
100
AcDbEntity
  8
0
  6
Continuous
 62
     7
370
    15
100
AcDbCircle
 10
72.0784997583
 20
113.4065328501
 30
0.0
 40
20.0
100
AcDbArc
 50
316.0821789091
 51
266.4576507365
  0
LWPOLYLINE
  5
225
330
1F
100
AcDbEntity
  8
0
  6
Continuous
 62
     7
370
    15
100
AcDbPolyline
 90
       31
 70
   128
 43
0.0
 10
65.1532004603
 20
118.024874419
 10
65.2672693149
 20
117.8416567258
 10
65.4049206541
 20
117.5185590386
 10
65.5601372027
 20
117.0697016045
 10
65.7261366041
 20
116.5147020351
 10
65.8956633897
 20
115.8778168596
 10
66.0613084228
 20
115.186880283
 10
66.2158320674
 20
114.4720900906
 10
66.3524808378
 20
113.7646858101
 10
66.4652830937
 20
113.0955844696
 10
66.5493084134
 20
112.4940289869
 10
66.6008845919
 20
111.986310278
 10
66.617757363
 20
111.5946180057
 10
66.5991891191
 20
111.3360709846
 10
66.5459919737
 20
111.221969068
 10
66.4604905077
 20
111.2572990227
 10
66.3464216531
 20
111.4405167158
 10
66.2087707796
 20
111.7636146359
 10
66.0535537654
 20
112.2124719536
 10
65.8875548297
 20
112.7674713484
 10
65.7180280441
 20
113.4043567519
 10
65.5523830109
 20
114.0952931586
 10
65.3978593663
 20
114.8100834675
 10
65.2612101303
 20
115.5174876898
 10
65.14840834
 20
116.186588943
 10
65.0643830204
 20
116.7881443966
 10
65.0128068418
 20
117.2958632801
 10
64.9959340708
 20
117.687555436
 10
65.0145018489
 20
117.9461026899
 10
65.06769946
 20
118.0602046065
 10
65.1532004603
 20
118.024874419
  0
LWPOLYLINE
  5
226
330
1F
100
AcDbEntity
  8
0
  6
Continuous
 62
     7
370
    15
100
AcDbPolyline
 90
       23
 70
   128
 43
0.0
 10
65.4333343745
 20
116.5746796746
 10
65.5257294902
 20
116.4117429275
 10
65.6408991681
 20
116.1053578239
 10
65.769512953
 20
115.6803464386
 10
65.9011512079
 20
115.1711403494
 10
66.0251493582
 20
114.6189923733
 10
66.1314616927
 20
114.0686344574
 10
66.211475806
 20
113.5646531752
 10
66.2587092274
 20
113.1478781448
 10
66.2693351523
 20
112.8520740298
 10
66.2424930387
 20
112.7012050696
 10
66.1803570592
 20
112.7074937671
 10
66.0879619436
 20
112.8704306888
 10
65.9727918
 20
113.1768156178
 10
65.8441784808
 20
113.6018270904
 10
65.7125402258
 20
114.1110332086
 10
65.5885420756
 20
114.6631810684
 10
65.482229741
 20
115.2135390425
 10
65.4022156277
 20
115.717520412
 10
65.3549822063
 20
116.1342954132
 10
65.3443562814
 20
116.4300995283
 10
65.371198395
 20
116.5809684302
 10
65.4333343745
 20
116.5746796746
  0
LINE
  5
227
330
1F
100
AcDbEntity
  8
0
  6
Continuous
 62
     7
370
    15
100
AcDbLine
 10
65.9014008024
 20
115.1610280489
 30
0.0
 11
65.8299949036
 21
114.9565849323
 31
0.0
  0
LINE
  5
228
330
1F
100
AcDbEntity
  8
0
  6
Continuous
 62
     7
370
    15
100
AcDbLine
 10
65.8299949036
 20
114.9565849323
 30
0.0
 11
66.0120950096
 21
114.6608000258
 31
0.0
  0
LINE
  5
229
330
1F
100
AcDbEntity
  8
0
  6
Continuous
 62
     7
370
    15
100
AcDbLine
 10
66.2354857677
 20
113.3777468953
 30
0.0
 11
66.2288831563
 21
113.3763434104
 31
0.0
  0
LINE
  5
22A
330
1F
100
AcDbEntity
  8
0
  6
Continuous
 62
     7
370
    15
100
AcDbLine
 10
65.9457997435
 20
114.9812000207
 30
0.0
 11
65.8299949036
 21
114.9565849323
 31
0.0
  0
LINE
  5
22B
330
1F
100
AcDbEntity
  8
0
  6
Continuous
 62
     7
370
    15
100
AcDbLine
 10
77.870930826
 20
94.3023873828
 30
0.0
 11
74.8822552168
 21
106.4290222116
 31
0.0
  0
ARC
  5
22C
330
1F
100
AcDbEntity
  8
0
  6
Continuous
 62
     7
370
    15
100
AcDbCircle
 10
77.0808251024
 20
93.7645539239
 30
0.0
 40
3.766304002528779
100
AcDbArc
 50
357.6621232149
 51
17.5126062428
  0
LINE
  5
22D
330
1F
100
AcDbEntity
  8
0
  6
Continuous
 62
     7
370
    15
100
AcDbLine
 10
80.6725638003
 20
94.8978936635
 30
0.0
 11
77.6838881911
 21
107.0245275609
 31
0.0
  0
ARC
  5
22E
330
1F
100
AcDbEntity
  8
0
  6
Continuous
 62
     7
370
    15
100
AcDbCircle
 10
78.7533264163
 20
94.0992337273
 30
0.0
 40
2.330335261829034
100
AcDbArc
 50
356.864854332
 51
19.2435909829
  0
LINE
  5
22F
330
1F
100
AcDbEntity
  8
0
  6
Continuous
 62
     7
370
    15
100
AcDbLine
 10
77.9647806675
 20
106.9939112626
 30
0.0
 11
80.9534562768
 21
94.8672773652
 31
0.0
  0
ARC
  5
230
330
1F
100
AcDbEntity
  8
0
  6
Continuous
 62
     7
370
    15
100
AcDbCircle
 10
74.5037935623
 20
106.3502983345
 30
0.0
 40
3.250782505468442
100
AcDbArc
 50
11.970334078
 51
23.4561456882
  0
ARC
  5
231
330
1F
100
AcDbEntity
  8
0
  6
Continuous
 62
     7
370
    15
100
AcDbCircle
 10
75.8206301102
 20
106.5447598135
 30
0.0
 40
2.190689078059618
100
AcDbArc
 50
11.8311073826
 51
23.9503957152
  0
LINE
  5
232
330
1F
100
AcDbEntity
  8
0
  6
Continuous
 62
     7
370
    15
100
AcDbLine
 10
77.6779985071
 20
107.6850839294
 30
0.0
 11
77.8226948359
 21
107.4340603649
 31
0.0
  0
LINE
  5
233
330
1F
100
AcDbEntity
  8
0
  6
Continuous
 62
     7
370
    15
100
AcDbLine
 10
66.2637826071
 20
109.2194862999
 30
0.0
 11
69.5876367872
 21
95.7328560166
 31
0.0
  0
LWPOLYLINE
  5
234
330
1F
100
AcDbEntity
  8
0
  6
Continuous
 62
     7
370
    15
100
AcDbPolyline
 90
        9
 70
   128
 43
0.0
 10
66.2117756919
 20
109.7180623896
 10
66.1968787217
 20
109.7343165297
 10
66.1880050802
 20
109.7216496113
 10
66.1858104185
 20
109.6809983123
 10
66.1904572525
 20
109.6153668463
 10
66.2016023898
 20
109.5296062398
 10
66.2184216098
 20
109.4300546087
 10
66.2396720627
 20
109.3240705654
 10
66.2637826071
 20
109.2194862999
  0
LINE
  5
235
330
1F
100
AcDbEntity
  8
0
  6
Continuous
 62
     7
370
    15
100
AcDbLine
 10
68.5523879265
 20
105.65749643
 30
0.0
 11
66.2117756919
 21
109.7180623896
 31
0.0
  0
ARC
  5
236
330
1F
100
AcDbEntity
  8
0
  6
Continuous
 62
     7
370
    15
100
AcDbCircle
 10
67.4083342724
 20
105.1493184802
 30
0.0
 40
1.251840082463775
100
AcDbArc
 50
11.8312429518
 51
23.9503456212
  0
LINE
  5
237
330
1F
100
AcDbEntity
  8
0
  6
Continuous
 62
     7
370
    15
100
AcDbLine
 10
71.9574337172
 20
91.9193508439
 30
0.0
 11
68.63357993
 21
105.4059829898
 31
0.0
  0
LWPOLYLINE
  5
238
330
1F
100
AcDbEntity
  8
0
  6
Continuous
 62
     7
370
    15
100
AcDbPolyline
 90
        9
 70
   128
 43
0.0
 10
72.0094406542
 20
91.4207766168
 10
72.0243378064
 20
91.4045213125
 10
72.0332115679
 20
91.4171891622
 10
72.0354060804
 20
91.4578395299
 10
72.0307591482
 20
91.5234716944
 10
72.0196142219
 20
91.6092316024
 10
72.0027950201
 20
91.7087843977
 10
71.9815446473
 20
91.814767044
 10
71.9574337172
 20
91.9193508439
  0
LINE
  5
239
330
1F
100
AcDbEntity
  8
0
  6
Continuous
 62
     7
370
    15
100
AcDbLine
 10
69.6688287907
 20
95.4813411794
 30
0.0
 11
72.0094406542
 21
91.4207766168
 31
0.0
  0
ARC
  5
23A
330
1F
100
AcDbEntity
  8
0
  6
Continuous
 62
     7
370
    15
100
AcDbCircle
 10
70.8128748441
 20
95.9895152501
 30
0.0
 40
1.251831561443709
100
AcDbArc
 50
191.8310779201
 51
203.9503245807
  0
LWPOLYLINE
  5
23B
330
1F
100
AcDbEntity
  8
0
  6
Continuous
 62
     7
370
    15
100
AcDbPolyline
 90
        9
 70
   128
 43
0.0
 10
72.0061106812
 20
91.4395278655
 10
72.0202629754
 20
91.4240865372
 10
72.0286930491
 20
91.4361210875
 10
72.0307778365
 20
91.4747393094
 10
72.0263632474
 20
91.5370894931
 10
72.0157755686
 20
91.6185615919
 10
71.9997973328
 20
91.7131355367
 10
71.9796094754
 20
91.8138208203
 10
71.9567040914
 20
91.9131743125
  0
LINE
  5
23C
330
1F
100
AcDbEntity
  8
0
  6
Continuous
 62
     7
370
    15
100
AcDbLine
 10
71.9567040914
 20
91.9131743125
 30
0.0
 11
68.6328502388
 21
105.3998064585
 31
0.0
  0
ARC
  5
23D
330
1F
100
AcDbEntity
  8
0
  6
Continuous
 62
     7
370
    15
100
AcDbCircle
 10
67.4688777762
 20
105.1559789028
 30
0.0
 40
1.189236633578264
100
AcDbArc
 50
11.8311749252
 51
23.9503952147
  0
LINE
  5
23E
330
1F
100
AcDbEntity
  8
0
  6
Continuous
 62
     7
370
    15
100
AcDbLine
 10
68.5557178703
 20
105.6387442499
 30
0.0
 11
66.2151056358
 21
109.6993102096
 31
0.0
  0
LWPOLYLINE
  5
23F
330
1F
100
AcDbEntity
  8
0
  6
Continuous
 62
     7
370
    15
100
AcDbPolyline
 90
        9
 70
   128
 43
0.0
 10
66.2151056358
 20
109.6993102096
 10
66.2009537236
 20
109.7147515379
 10
66.1925233917
 20
109.7027181517
 10
66.1904386261
 20
109.6640992313
 10
66.1948530951
 20
109.6017492804
 10
66.2054408358
 20
109.520276716
 10
66.2214190715
 20
109.425703004
 10
66.2416068853
 20
109.3250177204
 10
66.2645122984
 20
109.2256628312
  0
LINE
  5
240
330
1F
100
AcDbEntity
  8
0
  6
Continuous
 62
     7
370
    15
100
AcDbLine
 10
66.2645122984
 20
109.2256628312
 30
0.0
 11
69.5883662456
 21
95.7390325479
 31
0.0
  0
ARC
  5
241
330
1F
100
AcDbEntity
  8
0
  6
Continuous
 62
     7
370
    15
100
AcDbCircle
 10
70.7522655043
 20
95.9828355316
 30
0.0
 40
1.189159946896174
100
AcDbArc
 50
191.8307393086
 51
203.9507655426
  0
LINE
  5
242
330
1F
100
AcDbEntity
  8
0
  6
Continuous
 62
     7
370
    15
100
AcDbLine
 10
69.665498614
 20
95.5000942908
 30
0.0
 11
72.0061106812
 21
91.4395278655
 31
0.0
  0
LINE
  5
243
330
1F
100
AcDbEntity
  8
0
  6
Continuous
 62
     7
370
    15
100
AcDbLine
 10
78.1346450576
 20
93.2323592119
 30
0.0
 11
74.8107913432
 21
106.7189894952
 31
0.0
  0
ARC
  5
244
330
1F
100
AcDbEntity
  8
0
  6
Continuous
 62
     7
370
    15
100
AcDbCircle
 10
76.6979708329
 20
92.7790256026
 30
0.0
 40
1.506500643615008
100
AcDbArc
 50
357.6620036387
 51
17.5127665583
  0
LINE
  5
245
330
1F
100
AcDbEntity
  8
0
  6
Continuous
 62
     7
370
    15
100
AcDbLine
 10
69.9903199465
 20
96.2341143153
 30
0.0
 11
69.8156524931
 21
95.9017513655
 31
0.0
  0
LINE
  5
246
330
1F
100
AcDbEntity
  8
0
  6
Continuous
 62
     7
370
    15
100
AcDbLine
 10
70.7321879936
 20
95.9679814391
 30
0.0
 11
68.8719470536
 21
103.5159606822
 31
0.0
  0
LINE
  5
247
330
1F
100
AcDbEntity
  8
0
  6
Continuous
 62
     7
370
    15
100
AcDbLine
 10
67.4890287236
 20
105.1708575673
 30
0.0
 11
69.3492694308
 21
97.6228783242
 31
0.0
  0
LWPOLYLINE
  5
248
330
1F
100
AcDbEntity
  8
0
  6
Continuous
 62
     7
370
    15
100
AcDbPolyline
 90
        9
 70
   128
 43
0.0
 10
67.35901097
 20
106.417297326
 10
67.3217683115
 20
106.4579323269
 10
67.2995837421
 20
106.4262654967
 10
67.2940977865
 20
106.3246372491
 10
67.3057151043
 20
106.1605587005
 10
67.3335774818
 20
105.9461566023
 10
67.375625299
 20
105.6972783394
 10
67.4287511983
 20
105.4323170669
 10
67.4890287236
 20
105.1708575673
  0
LINE
  5
249
330
1F
100
AcDbEntity
  8
0
  6
Continuous
 62
     7
370
    15
100
AcDbLine
 10
68.6689671611
 20
104.1447449811
 30
0.0
 11
67.35901097
 21
106.417297326
 31
0.0
  0
ARC
  5
24A
330
1F
100
AcDbEntity
  8
0
  6
Continuous
 62
     7
370
    15
100
AcDbCircle
 10
65.8088943828
 20
102.8743211933
 30
0.0
 40
3.129535572151082
100
AcDbArc
 50
11.8310833318
 51
23.9504488129
  0
LWPOLYLINE
  5
24B
330
1F
100
AcDbEntity
  8
0
  6
Continuous
 62
     7
370
    15
100
AcDbPolyline
 90
        9
 70
   128
 43
0.0
 10
70.862205398
 20
94.7215402834
 10
70.8994482893
 20
94.6809066795
 10
70.9216326258
 20
94.7125735096
 10
70.9271189307
 20
94.8142012916
 10
70.9155016129
 20
94.9782798402
 10
70.8876392354
 20
95.1926814727
 10
70.8455913018
 20
95.441560667
 10
70.7924654025
 20
95.7065200768
 10
70.7321879936
 20
95.9679814391
  0
LINE
  5
24C
330
1F
100
AcDbEntity
  8
0
  6
Continuous
 62
     7
370
    15
100
AcDbLine
 10
69.5522493233
 20
96.9940921627
 30
0.0
 11
70.862205398
 21
94.7215402834
 31
0.0
  0
ARC
  5
24D
330
1F
100
AcDbEntity
  8
0
  6
Continuous
 62
     7
370
    15
100
AcDbCircle
 10
72.4123628835
 20
98.2645272146
 30
0.0
 40
3.129577415313634
100
AcDbArc
 50
191.8310987181
 51
203.9503341881
  0
LWPOLYLINE
  5
24E
330
1F
100
AcDbEntity
  8
0
  6
Continuous
 62
     7
370
    15
100
AcDbPolyline
 90
       26
 70
   128
 43
0.0
 10
69.5401747261
 20
98.1503794305
 10
69.630056435
 20
98.0470361523
 10
69.6872992457
 20
98.1021834872
 10
69.7083063905
 20
98.312355984
 10
69.6917579525
 20
98.6643484197
 10
69.6386937534
 20
99.1360428147
 10
69.5524479278
 20
99.6978026218
 10
69.438439842
 20
100.314328853
 10
69.3038327635
 20
100.9468831457
 10
69.1570847311
 20
101.5557194464
 10
69.0074165368
 20
102.1025836803
 10
68.8642319773
 20
102.5531137697
 10
68.7365283274
 20
102.8790003024
 10
68.6323296295
 20
103.0597672201
 10
68.5581826155
 20
103.0840570442
 10
68.5187469253
 20
102.9503433369
 10
68.5164996439
 20
102.6670266278
 10
68.5515825653
 20
102.2519091479
 10
68.6217912489
 20
101.73107538
 10
68.7227140197
 20
101.1372501366
 10
68.8480095022
 20
100.5077459253
 10
68.9898052269
 20
99.8821178786
 10
69.1391912305
 20
99.2996743284
 10
69.2867814114
 20
98.7970134578
 10
69.4233018921
 20
98.4057201408
 10
69.5401747261
 20
98.1503794305
  0
LWPOLYLINE
  5
24F
330
1F
100
AcDbEntity
  8
0
  6
Continuous
 62
     7
370
    15
100
AcDbPolyline
 90
        3
 70
   128
 43
0.0
 10
71.4105085835
 20
94.085756164
 10
71.3885645864
 20
94.1210663281
 10
71.335495556
 20
94.1896899007
  0
ARC
  5
250
330
1F
100
AcDbEntity
  8
0
  6
Continuous
 62
     7
370
    15
100
AcDbCircle
 10
73.5855463327
 20
106.4623261353
 30
0.0
 40
1.251839213364344
100
AcDbArc
 50
11.8311975188
 51
23.9503290299
  0
LINE
  5
251
330
1F
100
AcDbEntity
  8
0
  6
Continuous
 62
     7
370
    15
100
AcDbLine
 10
74.7295993396
 20
106.970503401
 30
0.0
 11
74.6844725699
 21
107.0487903766
 31
0.0
  0
ELLIPSE
  5
252
330
1F
100
AcDbEntity
  8
0
  6
Continuous
 62
     7
370
    15
100
AcDbEllipse
 10
69.0125171295
 20
101.283130669
 30
0.0
 11
-0.4894004466115689
 21
2.301304685160517
 31
0.0
210
0.0
220
0.0
230
1.0
 40
0.10442579
 41
3.527296312073355
 42
4.189612260047864
  0
ELLIPSE
  5
253
330
1F
100
AcDbEntity
  8
0
  6
Continuous
 62
     7
370
    15
100
AcDbEllipse
 10
69.0125171295
 20
101.283130669
 30
0.0
 11
-0.4894004466115689
 21
2.301304685160517
 31
0.0
210
0.0
220
0.0
230
1.0
 40
0.10442579
 41
1.810254043209341
 42
3.52729631207337
  0
LINE
  5
254
330
1F
100
AcDbEntity
  8
VERMASSUNG
100
AcDbLine
 10
72.0784997583
 20
91.5622914043
 30
0.0
 11
62.2975927863
 21
137.5778408432
 31
0.0
  0
CIRCLE
  5
255
330
1F
100
AcDbEntity
  8
VERMASSUNG
  6
CENTERX2
100
AcDbCircle
 10
72.0784997583
 20
111.5622914043
 30
0.0
 40
19.99999999999999
  0
DIMENSION
  5
256
330
1F
100
AcDbEntity
  8
VERMASSUNG
100
AcDbDimension
  2
_D_6
 10
62.2975927863
 20
137.5778408432
 30
0.0
 11
67.1268165507
 21
138.674410104
 31
0.0
 70
   162
  1
<>
 71
     1
 42
-1.0
  3
SLDDIMSTYLE2
100
AcDb2LineAngularDimension
 13
72.0784997583
 23
135.9065328501
 33
0.0
 14
72.0784997583
 24
90.9065328501
 34
0.0
 15
72.0784997583
 25
91.5622914043
 35
0.0
 16
67.1268165507
 26
138.674410104
 36
0.0
  0
DIMENSION
  5
261
330
1F
100
AcDbEntity
  8
VERMASSUNG
100
AcDbDimension
  2
_D_7
 10
59.7467341554
 20
95.8165758883
 30
0.0
 11
52.022817913
 21
85.954355689
 31
0.0
 70
   160
  1
%%c<> min. 
 71
     2
 42
-1.0
  3
SLDDIMSTYLE3
100
AcDbAlignedDimension
 13
84.4102653613
 23
127.3080069204
 33
0.0
 14
59.7467341554
 24
95.8165758883
 34
0.0
 50
51.9325815836
100
AcDbRotatedDimension
  0
INSERT
  5
27B
330
1F
100
AcDbEntity
  8
VERMASSUNG
100
AcDbBlockReference
  2
SW_CENTERMARKSYMBOL_0
 10
72.0784997583
 20
113.4065328501
 30
0.0
  0
OLE2FRAME
  5
27C
330
1F
100
AcDbEntity
  8
0
100
AcDbOle2Frame
 70
     2
  3
Paintbrush-Bild
 10
13.8511154363
 20
38.264191557
 30
0.0
 11
51.6290888628
 21
31.9806341108
 31
0.0
 71
     2
 72
     0
 73
     1
 90
    12928
310
80552BED0767C5B32B40DDAF6807D121434000000000000000006FFBDDFB85D0
310
4940DDAF6807D121434000000000000000006FFBDDFB85D04940416F4BD60AFB
310
3F4000000000000000002BED0767C5B32B40416F4BD60AFB3F40000000000000
310
0000000000000100000000010000010000000100000000000100000000320000
310
D0CF11E0A1B11AE1000000000000000000000000000000003E000300FEFF0900
310
0600000000000000000000000100000001000000000000000010000002000000
310
01000000FEFFFFFF0000000000000000FFFFFFFFFFFFFFFFFFFFFFFFFFFFFFFF
310
FFFFFFFFFFFFFFFFFFFFFFFFFFFFFFFFFFFFFFFFFFFFFFFFFFFFFFFFFFFFFFFF
310
FFFFFFFFFFFFFFFFFFFFFFFFFFFFFFFFFFFFFFFFFFFFFFFFFFFFFFFFFFFFFFFF
310
FFFFFFFFFFFFFFFFFFFFFFFFFFFFFFFFFFFFFFFFFFFFFFFFFFFFFFFFFFFFFFFF
310
FFFFFFFFFFFFFFFFFFFFFFFFFFFFFFFFFFFFFFFFFFFFFFFFFFFFFFFFFFFFFFFF
310
FFFFFFFFFFFFFFFFFFFFFFFFFFFFFFFFFFFFFFFFFFFFFFFFFFFFFFFFFFFFFFFF
310
FFFFFFFFFFFFFFFFFFFFFFFFFFFFFFFFFFFFFFFFFFFFFFFFFFFFFFFFFFFFFFFF
310
FFFFFFFFFFFFFFFFFFFFFFFFFFFFFFFFFFFFFFFFFFFFFFFFFFFFFFFFFFFFFFFF
310
FFFFFFFFFFFFFFFFFFFFFFFFFFFFFFFFFFFFFFFFFFFFFFFFFFFFFFFFFFFFFFFF
310
FFFFFFFFFFFFFFFFFFFFFFFFFFFFFFFFFFFFFFFFFFFFFFFFFFFFFFFFFFFFFFFF
310
FFFFFFFFFFFFFFFFFFFFFFFFFFFFFFFFFFFFFFFFFFFFFFFFFFFFFFFFFFFFFFFF
310
FFFFFFFFFFFFFFFFFFFFFFFFFFFFFFFFFFFFFFFFFFFFFFFFFFFFFFFFFFFFFFFF
310
FFFFFFFFFFFFFFFFFFFFFFFFFFFFFFFFFFFFFFFFFFFFFFFFFFFFFFFFFFFFFFFF
310
FFFFFFFFFFFFFFFFFFFFFFFFFFFFFFFFFFFFFFFFFFFFFFFFFFFFFFFFFFFFFFFF
310
FDFFFFFFFEFFFFFFFEFFFFFFFEFFFFFF05000000060000000700000008000000
310
090000000A0000000B0000000C0000000D0000000E0000000F00000010000000
310
11000000120000001300000014000000150000001600000017000000FEFFFFFF
310
FFFFFFFFFFFFFFFFFFFFFFFFFFFFFFFFFFFFFFFFFFFFFFFFFFFFFFFFFFFFFFFF
310
FFFFFFFFFFFFFFFFFFFFFFFFFFFFFFFFFFFFFFFFFFFFFFFFFFFFFFFFFFFFFFFF
310
FFFFFFFFFFFFFFFFFFFFFFFFFFFFFFFFFFFFFFFFFFFFFFFFFFFFFFFFFFFFFFFF
310
FFFFFFFFFFFFFFFFFFFFFFFFFFFFFFFFFFFFFFFFFFFFFFFFFFFFFFFFFFFFFFFF
310
FFFFFFFFFFFFFFFFFFFFFFFFFFFFFFFFFFFFFFFFFFFFFFFFFFFFFFFFFFFFFFFF
310
FFFFFFFFFFFFFFFFFFFFFFFFFFFFFFFFFFFFFFFFFFFFFFFFFFFFFFFFFFFFFFFF
310
FFFFFFFFFFFFFFFFFFFFFFFFFFFFFFFFFFFFFFFFFFFFFFFFFFFFFFFFFFFFFFFF
310
FFFFFFFFFFFFFFFFFFFFFFFFFFFFFFFFFFFFFFFFFFFFFFFFFFFFFFFFFFFFFFFF
310
FFFFFFFFFFFFFFFFFFFFFFFFFFFFFFFFFFFFFFFFFFFFFFFFFFFFFFFFFFFFFFFF
310
FFFFFFFFFFFFFFFFFFFFFFFFFFFFFFFFFFFFFFFFFFFFFFFFFFFFFFFFFFFFFFFF
310
FFFFFFFFFFFFFFFFFFFFFFFFFFFFFFFFFFFFFFFFFFFFFFFFFFFFFFFFFFFFFFFF
310
FFFFFFFFFFFFFFFFFFFFFFFFFFFFFFFFFFFFFFFFFFFFFFFFFFFFFFFFFFFFFFFF
310
FFFFFFFFFFFFFFFFFFFFFFFFFFFFFFFFFFFFFFFFFFFFFFFFFFFFFFFFFFFFFFFF
310
52006F006F007400200045006E00740072007900000000000000000000000000
310
0000000000000000000000000000000000000000000000000000000000000000
310
16000500FFFFFFFFFFFFFFFF020000000A00030000000000C000000000000046
310
000000000000000000000000701661245D45CD0103000000C000000000000000
310
01004F006C006500000000000000000000000000000000000000000000000000
310
0000000000000000000000000000000000000000000000000000000000000000
310
0A000200FFFFFFFFFFFFFFFFFFFFFFFF00000000000000000000000000000000
310
0000000000000000000000000000000000000000000000001400000000000000
310
010043006F006D0070004F0062006A0000000000000000000000000000000000
310
0000000000000000000000000000000000000000000000000000000000000000
310
120002010100000003000000FFFFFFFF00000000000000000000000000000000
310
0000000000000000000000000000000000000000010000004D00000000000000
310
01004F006C006500310030004E00610074006900760065000000000000000000
310
0000000000000000000000000000000000000000000000000000000000000000
310
1A000200FFFFFFFFFFFFFFFFFFFFFFFF00000000000000000000000000000000
310
0000000000000000000000000000000000000000040000002426000000000000
310
FEFFFFFF02000000FEFFFFFFFFFFFFFFFFFFFFFFFFFFFFFFFFFFFFFFFFFFFFFF
310
FFFFFFFFFFFFFFFFFFFFFFFFFFFFFFFFFFFFFFFFFFFFFFFFFFFFFFFFFFFFFFFF
310
FFFFFFFFFFFFFFFFFFFFFFFFFFFFFFFFFFFFFFFFFFFFFFFFFFFFFFFFFFFFFFFF
310
FFFFFFFFFFFFFFFFFFFFFFFFFFFFFFFFFFFFFFFFFFFFFFFFFFFFFFFFFFFFFFFF
310
FFFFFFFFFFFFFFFFFFFFFFFFFFFFFFFFFFFFFFFFFFFFFFFFFFFFFFFFFFFFFFFF
310
FFFFFFFFFFFFFFFFFFFFFFFFFFFFFFFFFFFFFFFFFFFFFFFFFFFFFFFFFFFFFFFF
310
FFFFFFFFFFFFFFFFFFFFFFFFFFFFFFFFFFFFFFFFFFFFFFFFFFFFFFFFFFFFFFFF
310
FFFFFFFFFFFFFFFFFFFFFFFFFFFFFFFFFFFFFFFFFFFFFFFFFFFFFFFFFFFFFFFF
310
FFFFFFFFFFFFFFFFFFFFFFFFFFFFFFFFFFFFFFFFFFFFFFFFFFFFFFFFFFFFFFFF
310
FFFFFFFFFFFFFFFFFFFFFFFFFFFFFFFFFFFFFFFFFFFFFFFFFFFFFFFFFFFFFFFF
310
FFFFFFFFFFFFFFFFFFFFFFFFFFFFFFFFFFFFFFFFFFFFFFFFFFFFFFFFFFFFFFFF
310
FFFFFFFFFFFFFFFFFFFFFFFFFFFFFFFFFFFFFFFFFFFFFFFFFFFFFFFFFFFFFFFF
310
FFFFFFFFFFFFFFFFFFFFFFFFFFFFFFFFFFFFFFFFFFFFFFFFFFFFFFFFFFFFFFFF
310
FFFFFFFFFFFFFFFFFFFFFFFFFFFFFFFFFFFFFFFFFFFFFFFFFFFFFFFFFFFFFFFF
310
FFFFFFFFFFFFFFFFFFFFFFFFFFFFFFFFFFFFFFFFFFFFFFFFFFFFFFFFFFFFFFFF
310
FFFFFFFFFFFFFFFFFFFFFFFFFFFFFFFFFFFFFFFFFFFFFFFFFFFFFFFFFFFFFFFF
310
0100000200000000000000000000000000000000000000000000000000000000
310
0000000000000000000000000000000000000000000000000000000000000000
310
0100FEFF030A0000FFFFFFFF0A00030000000000C00000000000004607000000
310
5042727573680007000000504272757368000700000050427275736800F439B2
310
7100000000000000000000000000000000000000000000000000000000000000
310
0000000000000000000000000000000000000000000000000000000000000000
310
0000000000000000000000000000000000000000000000000000000000000000
310
0000000000000000000000000000000000000000000000000000000000000000
310
0000000000000000000000000000000000000000000000000000000000000000
310
0000000000000000000000000000000000000000000000000000000000000000
310
0000000000000000000000000000000000000000000000000000000000000000
310
0000000000000000000000000000000000000000000000000000000000000000
310
0000000000000000000000000000000000000000000000000000000000000000
310
0000000000000000000000000000000000000000000000000000000000000000
310
0000000000000000000000000000000000000000000000000000000000000000
310
0000000000000000000000000000000000000000000000000000000000000000
310
20260000424D0E260000000000003E00000028000000B40200006E0000000100
310
01000000000000000000130B0000130B00000200000002000000000000FFFFFF
310
FFFFFFFFFFFFFFFFFFFFFFFFFFFFFFFFFFFFFFFFFFFFFFFFFFFFFFFFFFFFFFFF
310
FFFFFFFFFFFFFFFFFFFFFFFFFFFFFFFFFFFFFFFFFFFFFFFFFFFFFFFFFFFFFFFF
310
FFFFFFFFFFFFFFFFFFFFFFFFFFFFFFFFFFFFFFFFFFFFFFFFF000FFFFFFFFFFFF
310
FFFFFFFFFFFFFFFFFFFFFFFFFFFFFFFFFFFFFFFFFFFFFFFFFFFFFFFFFFFFFFFF
310
FFFFFFFFFFFFFFFFFFFFFFFFFFFFFFFFFFFFFFFFFFFFFFFFFFFFFFFFFFFFFFFF
310
FFFFFFFFFFFFFFFFFFFFFFFFFFFFFFFFF000FFFFFFFFFFFFFFFFFFFFFFFFFFFF
310
FFFFFFFFFFFFFFFFFFFFFFFFFFFFFFFFFFFFFFFFFFFFFFFFFFFFFFFFFFFFFFFF
310
FFFFFFFFFFFFFFFFFFFFFFFFFFFFFFFFFFFFFFFFFFFFFFFFFFFFFFFFFFFFFFFF
310
FFFFFFFFFFFFFFFFF000FFFFFFFFFFFFFFFFFFFFFFFFFFFFFFFFFFFFFFFFFFFF
310
FFFFFFFFFFFFFFFFFFFFFFFFFFFFFFFFFFFFFFFFFFFFFFFFFFFFFFFFFFFFFFFF
310
FFFFFFFFFFFFFFFFFFFFFFFFFFFFFFFFFFFFFFFFFFFFFFFFFFFFFFFFFFFFFFFF
310
F000FFFFFFFFFFFFFFFFFFFFFFFFFFFFFFFFFFFFFFFFFFFFFFFFFFFFFFFFFFFF
310
FFFFFFFFFFFFFFFFFFFFFFFFFFFFFFFFFFFFFFFFFFFFFFFFFFFFFFFFFFFFFFFF
310
FFFFFFFFFFFFFFFFFFFFFFFFFFFFFFFFFFFFFFFFFFFFFFFFF000FFFFFFFFFFFF
310
FFFFFFFFFFFFFFFFFFFFFFFFFFFFFFFFFFFFFFFFFFFFFFFFFFFFFFFFFFFFFFFF
310
FFFFFFFFFFFFFFFFFFFFFFFFFFFFFFFFFFFFFFFFFFFFFFFFFFFFFFFFFFFFFFFF
310
FFFFFFFFFFFFFFFFFFFFFFFFFFFFFFFFF000FFFFFFFFFFFFFFFFFFFFFFFFFFFF
310
FFFFFFFFFFFFFFFFFFFFFFFFFFFFFFFFFFFFFFFFFFFFFFFFFFFFFFFFFFFFFFFF
310
FFFFFFFFFFFFFFFFFFFFFFFFFFFFFFFFFFFFFFFFFFFFFFFFFFFFFFFFFFFFFFFF
310
FFFFFFFFFFFFFFFFF000FFFFFFFFFFFFFFFFFFFFFFFFFFFFFFFFFFFFFFFFFFFF
310
FFFFFFFFFFFFFFFFFFFFFFFFFFFFFFFFFFFFFFFFFFFFFFFFFFFFFFFFFFFFFFFF
310
FFFFFFFFFFFFFFFFFFFFFFFFFFFFFFFFFFFFFFFFFFFFFFFFFFFFFFFFFFFFFFFF
310
F000FFFFFFFFFFFFFFFFFFFFFFFFFFFFFFFFFFFFFFFFFFFFFFFFFFFFFFFFFFFF
310
FFFFFFFFFFFFFFFFFFFFFFFFFFFFFFFFFFFFFFFFFFFFFFFFFFFFFFFFFFFFFFFF
310
FFFFFFFFFFFFFFFFFFFFFFFFFFFFFFFFFFFFFFFFFFFFFFFFF000FFFFFFFFFFFF
310
FFFFFFFFFFFFFFFFFFFFFFFFFFFFFFFFFFFFFFFFFFFFFFFFFFFFFFFFFFFFFFFF
310
FFFFFFFFFFFFFFFFFFFFFFFFFFFFFFFFFFFFFFFFFFFFFFFFFFFFFFFFFFFFFFFF
310
FFFFFFFFFFFFFFFFFFFFFFFFFFFFFFFFF000FFFFFFFFFFFFFFFFFFFFFFFFFFFF
310
FFFFFFFFFFFFFFFFFFFFFFFFFFFFFFFFFFFFFFFFFFFFFFFFFFFFFFFFFFFFFFFF
310
FFFFFFFFFFFFFFFFFFFFFFFFFFFFFFFFFFFFFFFFFFFFFFFFFFFFFFFFFFFFFFFF
310
FFFFFFFFFFFFFFFFF000FFFFFFFFFFFFFFFFFFFFFFFFFFFFFFFFFFFFFFFFFFFF
310
FFFFFFFFFFFFFFFFFFFFFFFFFFFFFFFFFFFFFFFFFFFFFFFFFFFFFFFFFFFFFFFF
310
FFFFFFFFFFFFFFFFFFFFFFFFFFFFFFFFFFFFFFFFFFFFFFFFFFFFFFFFFFFFFFFF
310
F000FFFFFFFFFFFFFFFFFFFFFFFFFFFFFFFFFFFFFFFFFFFFFFFFFFFFFFFFFFFF
310
FFFFFFFFFFFFFFFFFFFFFFFFFFFFFFFFFFFFFFFFFFFFFFFFFFFFFFFFFFFFFFFF
310
FFFFFFFFFFFFFFFFFFFFFFFFFFFFFFFFFFFFFFFFFFFFFFFFF000FFFFFFFFFFFF
310
FFFFFFFFFFFFFFFFFFFFFFFFFFFFFFFFFFFFFFFFFFFFFFFFFFFFFFFFFFFFFFFF
310
FFFFFFFFFFFFFFFFFFFFFFFFFFFFFFFFFFFFFFFFFFFFFFFFFFFFFFFFFFFFFFFF
310
FFFFFFFFFFFFFFFFFFFFFFFFFFFFFFFFF000FFFFFFFFFFFFFFFFFFFFFFFFFFFF
310
FFFFFFFFFFFFFFFFFFFFFFFFFFFFFFFFFFFFFFFFFFFFFFFFFFFFFFFFFFFFFFFF
310
FFFFFFFFFFFFFFFFFFFFFFFFFFFFFFFFFFFFFFFFFFFFFFFFFFFFFFFFFFFFFFFF
310
FFFFFFFFFFFFFFFFF000FFFFFFFFFFFFFFFFFFFFFFFFFFFFFFFFFFFFFFFFFFFF
310
FFFFFFFFFFFFFFFFFFFFFFFFFFFFFFFFFFFFFFFFFFFFFFFFFFFFFFFFFFFFFFFF
310
FFFFFFFFFFFFFFFFFFFFFFFFFFFFFFFFFFFFFFFFFFFFFFFFFFFFFFFFFFFFFFFF
310
F000FFFFFFFFFFFFFFFFFFFFFFFFFFFFFFFFFFFFFFFFFFFFFFFFFFFFFFFFFFFF
310
FFFFFFFFFFFFFFFFFFFFFFFFFFFFFFFFFFFFFFFFFFFFFFFFFFFFFFFFFFFFFFFF
310
FFFFFFFFFFFFFFFFFFFFFFFFFFFFFFFFFFFFFFFFFFFFFFFFF000FFFFFFFFFFFF
310
FFFFFFFFFFFFFFFFFFFFFFFFFFFFFFFFFFFFFFFFFFFFFFFFFFFFFFFFFFFFFFFF
310
FFFFFFFFFFFFFFFFFFFFFFFFFFFFFFFFFFFFFFFFFFFFFFFFFFFFFFFFFFFFFFFF
310
FFFFFFFFFFFFFFFFFFFFFFFFFFFFFFFFF000FFFFFFFFFFFFFFFFFFFFFFFFFFFF
310
FFFFFFFFFFFFFFFFFFFFFFFFFFFFFFFFFFFFFFFFFFFFFFFFFFFFFFFFFFFFFFFF
310
FFFFFFFFFFFFFFFFFFFFFFFFFFFFFFFFFFFFFFFFFFFFFFFFFFFFFFFFFFFFFFFF
310
FFFFFFFFFFFFFFFFF000FFFFF80003FFFFFFFFFFFFFFFFFFFFFFFFFFFFFFFFFF
310
FFFFF00007FFFFFFFFFF00007FFFFFF800000000000000007FFFFFFFFFFFFFFF
310
FFFFFFFC001FFFFFFFFFFFFFFC001FFFFFFFFFFFFFFFFFFFFFFFFFFE0007FFFF
310
F000FFFF8000007FFFFFFFF8000FFFFFC0007FFFFF80007FFFFF0000007FFFFF
310
FFF8000007FFFFF800000000000000007FFFFFF0001FFFFFFFFFFFC00001FFFF
310
FFFFFFFFC00001FFFFFFFF000000000003FFFFE000007FFFF000FFFE0000000F
310
FFFFFFF0000FFFFF80007FFFFF80007FFFFC0000001FFFFFFFC0000001FFFFF8
310
00000000000000007FFFFFF0001FFFFFFFFFFE0000003FFFFFFFFFFE0000003F
310
FFFFFF000000000003FFFF0000000FFFF000FFF800000003FFFFFFF00007FFFF
310
80007FFFFF80007FFFF000000007FFFFFF000000003FFFF80000000000000000
310
7FFFFFF0001FFFFFFFFFF80000000FFFFFFFFFF80000000FFFFFFF0000000000
310
03FFFC00000003FFF000FFE000000000FFFFFFF00007FFFF80003FFFFF80007F
310
FFC000000001FFFFFC000000001FFFF800000000000000007FFFFFF0001FFFFF
310
FFFFE000000003FFFFFFFFE000000003FFFFFF000000000003FFF000000000FF
310
F000FF80000000007FFFFFF00007FFFF80003FFFFF80007FFF8000000000FFFF
310
F80000000007FFF800000000000000007FFFFFF0001FFFFFFFFFC000000001FF
310
FFFFFFC000000001FFFFFF000000000003FFC0000000007FF000FF0000000000
310
3FFFFFE00007FFFF00003FFFFF80007FFE00000000003FFFF00000000003FFF8
310
00000000000000007FFFFFF0001FFFFFFFFF8000000000FFFFFFFF8000000000
310
FFFFFF000000000003FF80000000003FF000FE00000000001FFFFFE00003FFFF
310
00003FFFFF80007FFC00000000001FFFE00000000001FFF8000001FFFE000000
310
7FFFFFF0001FFFFFFFFE00000000003FFFFFFE00000000003FFFFF0000000000
310
03FF00000000001FF000FC00000000000FFFFFE00003FFFF00001FFFFF80007F
310
F800000000001FFFC00000000000FFF8000001FFFE0000007FFFFFF0001FFFFF
310
FFFC00000000001FFFFFFC00000000001FFFFF000000000003FE00000000000F
310
F000F8000000000007FFFFE00003FFFF00001FFFFF80007FF800000000000FFF
310
800000000000FFF8000001FFFE0000007FFFFFF0001FFFFFFFF800000000000F
310
FFFFF800000000000FFFFF000000000003FC000000000007F000F80000000000
310
03FFFFC00003FFFE00001FFFFF80007FF0000000000007FF0000000000007FF8
310
000001FFFE0000007FFFFFF0001FFFFFFFF0000000000007FFFFF00000000000
310
07FFFF000000000003F8000000000003F000F0000000000003FFFFC00001FFFE
310
00001FFFFF80007FE0000000000007FE0000000000003FF8000001FFFE000000
310
7FFFFFF0001FFFFFFFF0000000000007FFFFF0000000000007FFFF0000000000
310
03F800001F800003F000E00001FFF00001FFFFC00001FFFE00000FFFFF80007F
310
E00001FFE00003FE00001FFF00003FF8000001FFFE0000007FFFFFF0001FFFFF
310
FFE000003E000003FFFFE000003E000003FFFF000000000003F00001FFF80001
310
F000E00007FFFC0001FFFFC00001FFFE00000FFFFF80007FC0000FFFFC0003FC
310
0000FFFFC0001FF8000001FFFE0000007FFFFFF0001FFFFFFFC00003FFE00001
310
FFFFC00003FFE00001FFFF0001FFFFFFFFF00007FFFE0001F000E0000FFFFF00
310
00FFFF800001FFFC00000FFFFF80007FC0001FFFFE0001FC0001FFFFE0001FF8
310
000001FFFE0000007FFFFFF0001FFFFFFF80000FFFF80000FFFF80000FFFF800
310
00FFFF0003FFFFFFFFE0000FFFFF8000F000C0003FFFFF8000FFFF800000FFFC
310
000007FFFF80007F80003FFFFF0001FC0003FFFFF0001FF8000001FFFE000000
310
7FFFFFF0001FFFFFFF80003FFFFE0000FFFF80003FFFFE0000FFFF0003FFFFFF
310
FFE0003FFFFF8000F000C0003FFFFF8000FFFF800000FFFC000007FFFF80007F
310
80007FFFFF8001F80007FFFFF8000FF8000001FFFE0000007FFFFFF0001FFFFF
310
FF00007FFFFF00007FFF00007FFFFF00007FFF0003FFFFFFFFE0003FFFFFC000
310
F000C0007FFFFFC000FFFF000000FFFC000007FFFF80007F8000FFFFFF8000F8
310
000FFFFFF8000FF8000001FFFE0000007FFFFFF0001FFFFFFF0000FFFFFF8000
310
7FFF0000FFFFFF80007FFF0003FFFFFFFFC0007FFFFFC00070008000FFFFFFC0
310
00FFFF000000FFF8000007FFFF80007F8000FFFFFF8000F8000FFFFFF8000FF8
310
000001FFFE0000007FFFFFF0001FFFFFFE0001FFFFFFC0003FFE0001FFFFFFC0
310
003FFF0003FFFFFFFFC0007FFFFFE00070008000FFFFFFC0007FFF0000007FF8
310
000003FFFF80007F0001FFFFFF8000F8000FFFFFF8000FF8000001FFFE000000
310
7FFFFFF0001FFFFFFE0001FFFFFFC0003FFE0001FFFFFFC0003FFF0003FFFFFF
310
FFC000FFFFFFE00070008000FFFFFFC0007FFF0000007FF8000003FFFF80007F
310
0001FFFFFF8000F8001FFFFFF8000FF8000001FFFE0000007FFFFFF0001FFFFF
310
FE0003FFFFFFE0003FFE0003FFFFFFE0003FFF0003FFFFFFFFC000FFFFFFE000
310
70008000FFFFFFC0007FFE0000007FF8000003FFFF80007F0001FFFFFF8000F0
310
001FFFFFF8000FF8000001FFFE0000007FFFFFF0001FFFFFFC0003FFFFFFE000
310
1FFC0003FFFFFFE0001FFF0003FFFFFFFFC000FFFFFFC00070008000FFFFFF80
310
007FFE0000007FF0000003FFFF80007F0001FFFFFF0000F0001FFFFFF8000FF8
310
000001FFFE0000007FFFFFF0001FFFFFFC0007FFFFFFF0001FFC0007FFFFFFF0
310
001FFF0003FFFFFFFFC000FFFFFFC00070008001FFFFFF0000FFFE0000003FF0
310
000001FFFF80007F0001FFFFFF0000F8001FFFFFF0000FF8000001FFFE000000
310
7FFFFFF0001FFFFFFC0007FFFFFFF0001FFC0007FFFFFFF0001FFF0003FFFFFF
310
FFC001FFFFFF80007000FFFFFFFFFE0000FFFE0008003FF0008001FFFF80007F
310
FFFFFFFFFC0000FFFFFFFFFFE0000FF8000001FFFE0000007FFFFFF0001FFFFF
310
F8000FFFFFFFF8000FF8000FFFFFFFF8000FFF0003FFFFFFFFFFFFFFFFFF0000
310
7000FFFFFFFFFC0000FFFC0008003FF0008001FFFF80007FFFFFFFFFF80001FF
310
FFFFFFFF80000FF8000001FFFE0000007FFFFFF0001FFFFFF8000FFFFFFFF800
310
0FF8000FFFFFFFF8000FFF0003FFFFFFFFFFFFFFFFFE0000F000FFFFFFFFE000
310
00FFFC000C003FE000C001FFFF80007FFFFFFFFFC00001FFFFFFFFFE00001FF8
310
000001FFFE0000007FFFFFF0001FFFFFF8000FFFFFFFF8000FF8000FFFFFFFF8
310
000FFF0003FFFFFFFFFFFFFFFFF00000F000FFFFFFFE000001FFFC000C001FE0
310
00C000FFFF80007FFFFFFFFE000001FFFFFFFFE000001FF80FFFFFFFFFFFFFC0
310
7FFFFFF0001FFFFFF8000FFFFFFFF8000FF8000FFFFFFFF8000FFF0003FFFFFF
310
FFFFFFFFFF800000F000FFFFFFC0000001FFFC001C001FE001C000FFFF80007F
310
FFFFFF80000003FFFFFFF80000001FF80FFFFFFFFFFFFFC07FFFFFF0001FFFFF
310
F8001FFFFFFFFC000FF8001FFFFFFFFC000FFF0003FFFFFFFFFFFFFFF0000001
310
F000FFFFF800000001FFF8001C001FE001C000FFFF80007FFFFFF800000003FF
310
FFFF800000003FF80FFFFFFFFFFFFFC07FFFFFF0001FFFFFF8001FFFFFFFFC00
310
0FF8001FFFFFFFFC000FFF0003FFFFFFFFFFFFFE00000001F000FFFFC0000000
310
03FFF8001E001FC001E000FFFF80007FFFFF8000000007FFFFFC000000003FF8
310
0FFFFFFFFFFFFFC07FFFFFF0001FFFFFF8001FFFFFFFFC000FF8001FFFFFFFFC
310
000FFF0003FFFFFFFFFFFFE000000003F000FFFE0000000007FFF8001E000FC0
310
01E0007FFF80007FFFFE0000000007FFFFE0000000007FF80FFFFFFFFFFFFFC0
310
7FFFFFF0001FFFFFF0001FFFFFFFFC0007F0001FFFFFFFFC0007FF0003FFFFFF
310
FFFFFF0000000003F000FFF80000000007FFF8001E000FC003E0007FFF80007F
310
FFF0000000000FFFFF8000000000FFF80FFFFFFFFFFFFFC07FFFFFF0001FFFFF
310
F0001FFFFFFFFC0007F0001FFFFFFFFC0007FF0003FFFFFFFFFFFC0000000007
310
F000FFE0000000000FFFF0003E000FC003E0007FFF80007FFFC0000000001FFF
310
FE0000000001FFF80FFFFFFFFFFFFFC07FFFFFF0001FFFFFF0001FFFFFFFFC00
310
07F0001FFFFFFFFC0007FF0003FFFFFFFFFFF0000000000FF000FFC000000000
310
1FFFF0003F000F8003F0003FFF80007FFF80000000003FFFF80000000003FFF8
310
0FFFFFFFFFFFFFC07FFFFFF0001FFFFFF0001FFFFFFFFC0007F0001FFFFFFFFC
310
0007FF0003FFFFFFFFFFE0000000001FF000FF00000000007FFFF0003F000780
310
03F0003FFF80007FFF00000000007FFFF00000000007FFF80FFFFFFFFFFFFFC0
310
7FFFFFF0001FFFFFF0001FFFFFFFFC0007F0001FFFFFFFFC0007FF0003FFFFFF
310
FFFF80000000007FF000FE0000000000FFFFE0003F00078007F0003FFF80007F
310
FE0000000001FFFFE0000000001FFFF80FFFFFFFFFFFFFC07FFFFFF0001FFFFF
310
F0001FFFFFFFFC0007F0001FFFFFFFFC0007FF0003FFFFFFFFFF0000000000FF
310
F000FC0000000003FFFFE0007F00078007F0003FFF80007FFC0000000007FFFF
310
C0000000007FFFF80FFFFFFFFFFFFFC07FFFFFF0001FFFFFF8001FFFFFFFFC00
310
0FF8001FFFFFFFFC000FFF0003FFFFFFFFFE0000000003FFF000FC000000000F
310
FFFFE0007F80070007F8001FFF80007FF8000000001FFFFF8000000001FFFFF8
310
0FFFFFFFFFFFFFC07FFFFFF0001FFFFFF8001FFFFFFFFC000FF8001FFFFFFFFC
310
000FFF0003FFFFFFFFFC000000000FFFF000F8000000007FFFFFE0007F800700
310
07F8001FFF80007FF000000000FFFFFF800000000FFFFFF80FFFFFFFFFFFFFC0
310
7FFFFFF0001FFFFFF8000FFFFFFFF8000FF8000FFFFFFFF8000FFF0003FFFFFF
310
FFFC000000007FFFF000F800000007FFFFFFC0007F8003000FF8001FFF80007F
310
F000000007FFFFFF000000007FFFFFF80FFFFFFFFFFFFFC07FFFFFF0001FFFFF
310
F8000FFFFFFFF8000FF8000FFFFFFFF8000FFF0003FFFFFFFFF80000000FFFFF
310
F000F0000000FFFFFFFFC000FF8003000FF8001FFF80007FE0000000FFFFFFFF
310
0000000FFFFFFFF8000001FFFE0000007FFFFFF0001FFFFFF8000FFFFFFFF800
310
0FF8000FFFFFFFF8000FFF0003FFFFFFFFF8000000FFFFFFF000F000000FFFFF
310
FFFFC000FFC002000FF8000FFF80007FE000001FFFFFFFFE000001FFFFFFFFF8
310
000001FFFE0000007FFFFFF0001FFFFFF8000FFFFFFFF8000FF8000FFFFFFFF8
310
000FFF0003FFFFFFFFF000001FFFFFFFF000E00000FFFFFFFFFFC000FFC00200
310
0FFC000FFF80007FE00001FFFFFFFFFE00001FFFFFFFFFF8000001FFFE000000
310
7FFFFFF0001FFFFFFC000FFFFFFFF8001FFC000FFFFFFFF8001FFF0003FFFFFF
310
FFF00001FFFFFFFFF000E00007FFFFFFFFFF8000FFC000001FFC000FFF80007F
310
C0000FFFFFFFFFFE0000FFFFFFFFFFF8000001FFFE0000007FFFFFF0001FFFFF
310
FC0007FFFFFFF0001FFC0007FFFFFFF0001FFF0003FFFFFFFFF00007FFFFFFFF
310
F000E0001FFFFFFFFFFF8000FFC000001FFC000FFF80007FC0003FFFFFFFFFFE
310
0001FFFFFFFFFFF8000001FFFE0000007FFFFFF0001FFFFFFC0007FFFFFFF000
310
1FFC0007FFFFFFF0001FFF0003FFFFFFFFF0001FFFFFFFFFF000E0003FFFFF00
310
03FF8001FFE000001FFC0007FF80007FC0007FFFFF0007FC0003FFFFF0003FF8
310
000001FFFE0000007FFFFFF0001FFFFFFC0003FFFFFFE0001FFC0003FFFFFFE0
310
001FFF0003FFFFFFFFF0003FFFFFFFFFF000E0003FFFFF0001FF8001FFE00000
310
1FFE0007FF80007FC0007FFFFE0003FC0007FFFFE0003FF8000001FFFE000000
310
7FFFFFF0001FFFFFFE0003FFFFFFE0003FFE0003FFFFFFE0003FFF0003FFFFFF
310
FFF0003FFFFF8001F000E0003FFFFF0001FF0001FFE000001FFE0007FF80007F
310
C0007FFFFE0003FC0007FFFFE0003FF8000001FFFE0000007FFFFFF0001FFFFF
310
FE0001FFFFFFC0003FFE0001FFFFFFC0003FFF0003FFFFFFFFF0003FFFFF0001
310
F000E0003FFFFF0003FF0001FFE000003FFE0007FF80007FC0007FFFFE0003FC
310
0007FFFFE0003FF8000001FFFE0000007FFFFFF0001FFFFFFF0001FFFFFFC000
310
7FFF0001FFFFFFC0007FFF0003FFFFFFFFF0003FFFFF0001F000E0003FFFFE00
310
03FF0003FFF000003FFE0003FF80007FC0007FFFFC0003FE0007FFFFE0003FF8
310
000001FFFE0000007FFFFFF0001FFFFFFF0000FFFFFF80007FFF0000FFFFFF80
310
007FFF0003FFFFFFFFF0003FFFFF0001F000E0003FFFFE0003FF0003FFF00000
310
3FFF0003FF80007FC0007FFFFC0007FE0007FFFFC0003FF8000001FFFE000000
310
7FFFFFF0001FFFFFFF80007FFFFF0000FFFF80007FFFFF0000FFFF0003FFFFFF
310
FFF0003FFFFF0003F000E0003FFFFC0003FE0003FFF000003FFF0003FF80007F
310
E0003FFFF80007FE0003FFFFC0007FF8000001FFFE0000007FFFFFF0001FFFFF
310
FF80003FFFFE0000FFFF80003FFFFE0000FFFF0003FFFFFFFFF0001FFFFE0003
310
F000F0001FFFF80003FE0003FFF000007FFF0001FF80007FE0003FFFF00007FE
310
0001FFFF80007FF8000001FFFE0000007FFFFFF0001FFFFFFFC0000FFFF80001
310
FFFFC0000FFFF80001FFFF0003FFFFFFFFF0001FFFFC0003F000F0000FFFF000
310
07FE0007FFF800007FFF0001FF80007FE0001FFFE00007FF0000FFFE00007FF8
310
000001FFFE0000007FFFFFF0001FFFFFFFC00003FFE00001FFFFC00003FFE000
310
01FFFF0003FFFFFFFFF8000FFFF80003F000F00003FFC00007FC0007FFF80000
310
7FFF8001FF80007FF00007FF80000FFF00007FF80000FFF8000001FFFE000000
310
7F80000000000001FFE000003E000003FFFFE000003E000003FFFF0003FFFFFF
310
FFF80003FFE00007F000F800000000000FFC0007FFF800007FFF8001FF80007F
310
F000000000000FFF000000000000FFF8000001FFFE0000007F80000000000001
310
FFF0000000000007FFFFF0000000000007FFFF0003FFFFFFFFFC00007E000007
310
F000F800000000000FFC0007FFF80000FFFF8000FF80007FF800000000001FFF
310
800000000001FFF8000001FFFE0000007F80000000000001FFF800000000000F
310
FFFFF800000000000FFFFF0003FFFFFFFFFC00000000000FF000FC0000000000
310
1FFC0007FFFC0000FFFF8000FF80007FF800000000003FFFC00000000001FFF8
310
000001FFFE0000007F80000000000001FFF800000000000FFFFFF80000000000
310
0FFFFF0003FFFFFFFFFE00000000001FF000FE00000000003FF8000FFFFC0000
310
FFFF8000FF80007FFC00000000003FFFC00000000003FFF8000001FFFE000000
310
7F80000000000001FFFC00000000001FFFFFFC00000000001FFFFF0003FFFFFF
310
FFFF00000000001FF000FF00000000003FF8000FFFFC0000FFFFC000FF80007F
310
FE00000000007FFFE00000000007FFF8000001FFFE0000007F80000000000001
310
FFFE00000000003FFFFFFE00000000003FFFFF0003FFFFFFFFFF80000000003F
310
F000FF80000000007FF8000FFFFC0001FFFFC0007F80007FFF0000000000FFFF
310
F0000000000FFFF800000000000000007F80000000000001FFFF8000000000FF
310
FFFFFF8000000000FFFFFF0003FFFFFFFFFFC0000000007FF000FFC000000000
310
FFF8000FFFFE0001FFFFC0007F80007FFF8000000001FFFFF8000000001FFFF8
310
00000000000000007F80000000000001FFFFC000000001FFFFFFFFC000000001
310
FFFFFF0003FFFFFFFFFFE000000000FFF000FFE000000003FFF0001FFFFE0001
310
FFFFC0007F80007FFFC000000007FFFFFE000000003FFFF80000000000000000
310
7F80000000000001FFFFE000000003FFFFFFFFE000000003FFFFFF0003FFFFFF
310
FFFFF000000003FFF000FFF80000000FFFF0001FFFFE0001FFFFE0007F80007F
310
FFF00000000FFFFFFF00000000FFFFF800000000000000007F80000000000001
310
FFFFF80000000FFFFFFFFFF80000000FFFFFFF0003FFFFFFFFFFFC0000000FFF
310
F000FFFE0000003FFFF0001FFFFE0003FFFFE0003F80007FFFFC0000003FFFFF
310
FFC0000003FFFFF800000000000000007F80000000000001FFFFFE0000003FFF
310
FFFFFFFE0000003FFFFFFF0003FFFFFFFFFFFF0000003FFFF000FFFF800000FF
310
FFF0001FFFFF0003FFFFE0003F80007FFFFF000001FFFFFFFFF800001FFFFFF8
310
00000000000000007F80000000000001FFFFFFC00001FFFFFFFFFFFFC00001FF
310
FFFFFF0003FFFFFFFFFFFFC00000FFFFF000FFFFF8000FFFFFFFFFFFFFFFFFFF
310
FFFFFFFFFFFFFFFFFFFFF0001FFFFFFFFFFF0000FFFFFFF80000000000000000
310
7FFFFFFFFFFFFFFFFFFFFFFC001FFFFFFFFFFFFFFC001FFFFFFFFFFFFFFFFFFF
310
FFFFFFFC001FFFFFF000FFFFFFFFFFFFFFFFFFFFFFFFFFFFFFFFFFFFFFFFFFFF
310
FFFFFFFFFFFFFFFFFFFFFFFFFFFFFFFFFFFFFFFFFFFFFFFFFFFFFFFFFFFFFFFF
310
FFFFFFFFFFFFFFFFFFFFFFFFFFFFFFFFFFFFFFFFFFFFFFFFFFFFFFFFFFFFFFFF
310
F000FFFFFFFFFFFFFFFFFFFFFFFFFFFFFFFFFFFFFFFFFFFFFFFFFFFFFFFFFFFF
310
FFFFFFFFFFFFFFFFFFFFFFFFFFFFFFFFFFFFFFFFFFFFFFFFFFFFFFFFFFFFFFFF
310
FFFFFFFFFFFFFFFFFFFFFFFFFFFFFFFFFFFFFFFFFFFFFFFFF000FFFFFFFFFFFF
310
FFFFFFFFFFFFFFFFFFFFFFFFFFFFFFFFFFFFFFFFFFFFFFFFFFFFFFFFFFFFFFFF
310
FFFFFFFFFFFFFFFFFFFFFFFFFFFFFFFFFFFFFFFFFFFFFFFFFFFFFFFFFFFFFFFF
310
FFFFFFFFFFFFFFFFFFFFFFFFFFFFFFFFF000FFFFFFFFFFFFFFFFFFFFFFFFFFFF
310
FFFFFFFFFFFFFFFFFFFFFFFFFFFFFFFFFFFFFFFFFFFFFFFFFFFFFFFFFFFFFFFF
310
FFFFFFFFFFFFFFFFFFFFFFFFFFFFFFFFFFFFFFFFFFFFFFFFFFFFFFFFFFFFFFFF
310
FFFFFFFFFFFFFFFFF000FFFFFFFFFFFFFFFFFFFFFFFFFFFFFFFFFFFFFFFFFFFF
310
FFFFFFFFFFFFFFFFFFFFFFFFFFFFFFFFFFFFFFFFFFFFFFFFFFFFFFFFFFFFFFFF
310
FFFFFFFFFFFFFFFFFFFFFFFFFFFFFFFFFFFFFFFFFFFFFFFFFFFFFFFFFFFFFFFF
310
F000FFFFFFFFFFFFFFFFFFFFFFFFFFFFFFFFFFFFFFFFFFFFFFFFFFFFFFFFFFFF
310
FFFFFFFFFFFFFFFFFFFFFFFFFFFFFFFFFFFFFFFFFFFFFFFFFFFFFFFFFFFFFFFF
310
FFFFFFFFFFFFFFFFFFFFFFFFFFFFFFFFFFFFFFFFFFFFFFFFF000FFFFFFFFFFFF
310
FFFFFFFFFFFFFFFFFFFFFFFFFFFFFFFFFFFFFFFFFFFFFFFFFFFFFFFFFFFFFFFF
310
FFFFFFFFFFFFFFFFFFFFFFFFFFFFFFFFFFFFFFFFFFFFFFFFFFFFFFFFFFFFFFFF
310
FFFFFFFFFFFFFFFFFFFFFFFFFFFFFFFFF000FFFFFFFFFFFFFFFFFFFFFFFFFFFF
310
FFFFFFFFFFFFFFFFFFFFFFFFFFFFFFFFFFFFFFFFFFFFFFFFFFFFFFFFFFFFFFFF
310
FFFFFFFFFFFFFFFFFFFFFFFFFFFFFFFFFFFFFFFFFFFFFFFFFFFFFFFFFFFFFFFF
310
FFFFFFFFFFFFFFFFF000FFFFFFFFFFFFFFFFFFFFFFFFFFFFFFFFFFFFFFFFFFFF
310
FFFFFFFFFFFFFFFFFFFFFFFFFFFFFFFFFFFFFFFFFFFFFFFFFFFFFFFFFFFFFFFF
310
FFFFFFFFFFFFFFFFFFFFFFFFFFFFFFFFFFFFFFFFFFFFFFFFFFFFFFFFFFFFFFFF
310
F000FFFFFFFFFFFFFFFFFFFFFFFFFFFFFFFFFFFFFFFFFFFFFFFFFFFFFFFFFFFF
310
FFFFFFFFFFFFFFFFFFFFFFFFFFFFFFFFFFFFFFFFFFFFFFFFFFFFFFFFFFFFFFFF
310
FFFFFFFFFFFFFFFFFFFFFFFFFFFFFFFFFFFFFFFFFFFFFFFFF000FFFFFFFFFFFF
310
FFFFFFFFFFFFFFFFFFFFFFFFFFFFFFFFFFFFFFFFFFFFFFFFFFFFFFFFFFFFFFFF
310
FFFFFFFFFFFFFFFFFFFFFFFFFFFFFFFFFFFFFFFFFFFFFFFFFFFFFFFFFFFFFFFF
310
FFFFFFFFFFFFFFFFFFFFFFFFFFFFFFFFF000FFFFFFFFFFFFFFFFFFFFFFFFFFFF
310
FFFFFFFFFFFFFFFFFFFFFFFFFFFFFFFFFFFFFFFFFFFFFFFFFFFFFFFFFFFFFFFF
310
FFFFFFFFFFFFFFFFFFFFFFFFFFFFFFFFFFFFFFFFFFFFFFFFFFFFFFFFFFFFFFFF
310
FFFFFFFFFFFFFFFFF000FFFFFFFFFFFFFFFFFFFFFFFFFFFFFFFFFFFFFFFFFFFF
310
FFFFFFFFFFFFFFFFFFFFFFFFFFFFFFFFFFFFFFFFFFFFFFFFFFFFFFFFFFFFFFFF
310
FFFFFFFFFFFFFFFFFFFFFFFFFFFFFFFFFFFFFFFFFFFFFFFFFFFFFFFFFFFFFFFF
310
F000FFFFFFFFFFFFFFFFFFFFFFFFFFFFFFFFFFFFFFFFFFFFFFFFFFFFFFFFFFFF
310
FFFFFFFFFFFFFFFFFFFFFFFFFFFFFFFFFFFFFFFFFFFFFFFFFFFFFFFFFFFFFFFF
310
FFFFFFFFFFFFFFFFFFFFFFFFFFFFFFFFFFFFFFFFFFFFFFFFF000FFFFFFFFFFFF
310
FFFFFFFFFFFFFFFFFFFFFFFFFFFFFFFFFFFFFFFFFFFFFFFFFFFFFFFFFFFFFFFF
310
FFFFFFFFFFFFFFFFFFFFFFFFFFFFFFFFFFFFFFFFFFFFFFFFFFFFFFFFFFFFFFFF
310
FFFFFFFFFFFFFFFFFFFFFFFFFFFFFFFFF000FFFFFFFFFFFFFFFFFFFFFFFFFFFF
310
FFFFFFFFFFFFFFFFFFFFFFFFFFFFFFFFFFFFFFFFFFFFFFFFFFFFFFFFFFFFFFFF
310
FFFFFFFFFFFFFFFFFFFFFFFFFFFFFFFFFFFFFFFFFFFFFFFFFFFFFFFFFFFFFFFF
310
FFFFFFFFFFFFFFFFF000FFFFFFFFFFFFFFFFFFFFFFFFFFFFFFFFFFFFFFFFFFFF
310
FFFFFFFFFFFFFFFFFFFFFFFFFFFFFFFFFFFFFFFFFFFFFFFFFFFFFFFFFFFFFFFF
310
FFFFFFFFFFFFFFFFFFFFFFFFFFFFFFFFFFFFFFFFFFFFFFFFFFFFFFFFFFFFFFFF
310
F000FFFFFFFFFFFFFFFFFFFFFFFFFFFFFFFFFFFFFFFFFFFFFFFFFFFFFFFFFFFF
310
FFFFFFFFFFFFFFFFFFFFFFFFFFFFFFFFFFFFFFFFFFFFFFFFFFFFFFFFFFFFFFFF
310
FFFFFFFFFFFFFFFFFFFFFFFFFFFFFFFFFFFFFFFFFFFFFFFFF000FFFFFFFFFFFF
310
FFFFFFFFFFFFFFFFFFFFFFFFFFFFFFFFFFFFFFFFFFFFFFFFFFFFFFFFFFFFFFFF
310
FFFFFFFFFFFFFFFFFFFFFFFFFFFFFFFFFFFFFFFFFFFFFFFFFFFFFFFFFFFFFFFF
310
FFFFFFFFFFFFFFFFFFFFFFFFFFFFFFFFF000FFFFFFFFFFFFFFFFFFFFFFFFFFFF
310
FFFFFFFFFFFFFFFFFFFFFFFFFFFFFFFFFFFFFFFFFFFFFFFFFFFFFFFFFFFFFFFF
310
FFFFFFFFFFFFFFFFFFFFFFFFFFFFFFFFFFFFFFFFFFFFFFFFFFFFFFFFFFFFFFFF
310
FFFFFFFFFFFFFFFFF000FFFFFFFFFFFFFFFFFFFFFFFFFFFFFFFFFFFFFFFFFFFF
310
FFFFFFFFFFFFFFFFFFFFFFFFFFFFFFFFFFFFFFFFFFFFFFFFFFFFFFFFFFFFFFFF
310
FFFFFFFFFFFFFFFFFFFFFFFFFFFFFFFFFFFFFFFFFFFFFFFFFFFFFFFFFFFFFFFF
310
F000FFFFFFFFFFFFFFFFFFFFFFFFFFFFFFFFFFFFFFFFFFFFFFFFFFFFFFFFFFFF
310
FFFFFFFFFFFFFFFFFFFFFFFFFFFFFFFFFFFFFFFFFFFFFFFFFFFFFFFFFFFFFFFF
310
FFFFFFFFFFFFFFFFFFFFFFFFFFFFFFFFFFFFFFFFFFFFFFFFF000FFFFFFFFFFFF
310
FFFFFFFFFFFFFFFFFFFFFFFFFFFFFFFFFFFFFFFFFFFFFFFFFFFFFFFFFFFFFFFF
310
FFFFFFFFFFFFFFFFFFFFFFFFFFFFFFFFFFFFFFFFFFFFFFFFFFFFFFFFFFFFFFFF
310
FFFFFFFFFFFFFFFFFFFFFFFFFFFFFFFFF0000000000000000000000000000000
310
0000000000000000000000000000000000000000000000000000000000000000
310
0000000000000000000000000000000000000000000000000000000000000000
310
0000000000000000000000000000000000000000000000000000000000000000
310
0000000000000000000000000000000000000000000000000000000000000000
310
0000000000000000000000000000000000000000000000000000000000000000
310
0000000000000000000000000000000000000000000000000000000000000000
310
0000000000000000000000000000000000000000000000000000000000000000
310
0000000000000000000000000000000000000000000000000000000000000000
310
0000000000000000000000000000000000000000000000000000000000000000
310
0000000000000000000000000000000000000000000000000000000000000000
310
0000000000000000000000000000000000000000000000000000000000000000
310
0000000000000000000000000000000000000000000000000000000000000000
310
0000000000000000000000000000000000000000000000000000000000000000
310
0000000000000000000000000000000000000000000000000000000000000000
310
0000000000000000000000000000000000000000000000000000000000000000
  1
OLE
  0
ENDSEC
  0
SECTION
  2
OBJECTS
  0
DICTIONARY
  5
C
330
0
100
AcDbDictionary
281
     1
  3
ACAD_GROUP
350
D
  3
ACAD_LAYOUT
350
1A
  3
ACAD_MLINESTYLE
350
17
  3
ACAD_PLOTSETTINGS
350
19
  3
ACAD_PLOTSTYLENAME
350
E
  0
DICTIONARY
  5
D
102
{ACAD_REACTORS
330
C
102
}
330
C
100
AcDbDictionary
281
     1
  0
DICTIONARY
  5
1A
102
{ACAD_REACTORS
330
C
102
}
330
C
100
AcDbDictionary
281
     1
  3
Layout1
350
1E
  3
Layout2
350
26
  3
Model
350
22
  0
DICTIONARY
  5
17
102
{ACAD_REACTORS
330
C
102
}
330
C
100
AcDbDictionary
281
     1
  3
Standard
350
18
  0
DICTIONARY
  5
19
102
{ACAD_REACTORS
330
C
102
}
330
C
100
AcDbDictionary
281
     1
  0
ACDBDICTIONARYWDFLT
  5
E
102
{ACAD_REACTORS
330
C
102
}
330
C
100
AcDbDictionary
281
     1
  3
Normal
350
F
100
AcDbDictionaryWithDefault
340
F
  0
LAYOUT
  5
1E
102
{ACAD_REACTORS
330
1A
102
}
330
1A
100
AcDbPlotSettings
  1

  2
none_device
  4

  6

 40
0.0
 41
0.0
 42
0.0
 43
0.0
 44
0.0
 45
0.0
 46
0.0
 47
0.0
 48
0.0
 49
0.0
140
0.0
141
0.0
142
1.0
143
1.0
 70
   688
 72
     0
 73
     0
 74
     5
  7

 75
    16
147
1.0
148
0.0
149
0.0
100
AcDbLayout
  1
Layout1
 70
     1
 71
     1
 10
0.0
 20
0.0
 11
420.0
 21
297.0
 12
0.0
 22
0.0
 32
0.0
 14
1.0000000000E+20
 24
1.0000000000E+20
 34
1.0000000000E+20
 15
-1.0000000000E+20
 25
-1.0000000000E+20
 35
-1.0000000000E+20
146
0.0
 13
0.0
 23
0.0
 33
0.0
 16
1.0
 26
0.0
 36
0.0
 17
0.0
 27
1.0
 37
0.0
 76
     0
330
1B
  0
LAYOUT
  5
26
102
{ACAD_REACTORS
330
1A
102
}
330
1A
100
AcDbPlotSettings
  1

  2
none_device
  4

  6

 40
0.0
 41
0.0
 42
0.0
 43
0.0
 44
0.0
 45
0.0
 46
0.0
 47
0.0
 48
0.0
 49
0.0
140
0.0
141
0.0
142
1.0
143
1.0
 70
   688
 72
     0
 73
     0
 74
     5
  7

 75
    16
147
1.0
148
0.0
149
0.0
100
AcDbLayout
  1
Layout2
 70
     1
 71
     2
 10
0.0
 20
0.0
 11
0.0
 21
0.0
 12
0.0
 22
0.0
 32
0.0
 14
0.0
 24
0.0
 34
0.0
 15
0.0
 25
0.0
 35
0.0
146
0.0
 13
0.0
 23
0.0
 33
0.0
 16
1.0
 26
0.0
 36
0.0
 17
0.0
 27
1.0
 37
0.0
 76
     0
330
23
  0
LAYOUT
  5
22
102
{ACAD_REACTORS
330
1A
102
}
330
1A
100
AcDbPlotSettings
  1

  2
none_device
  4

  6

 40
0.0
 41
0.0
 42
0.0
 43
0.0
 44
0.0
 45
0.0
 46
0.0
 47
0.0
 48
0.0
 49
0.0
140
0.0
141
0.0
142
1.0
143
1.0
 70
  1712
 72
     0
 73
     0
 74
     0
  7

 75
     0
147
1.0
148
0.0
149
0.0
100
AcDbLayout
  1
Model
 70
     1
 71
     0
 10
0.0
 20
0.0
 11
297.0
 21
210.0
 12
0.0
 22
0.0
 32
0.0
 14
0.0
 24
0.0
 34
0.0
 15
297.0
 25
210.0
 35
0.0
146
0.0
 13
0.0
 23
0.0
 33
0.0
 16
1.0
 26
0.0
 36
0.0
 17
0.0
 27
1.0
 37
0.0
 76
     0
330
1F
331
29
  0
MLINESTYLE
  5
18
102
{ACAD_REACTORS
330
17
102
}
330
17
100
AcDbMlineStyle
  2
Standard
 70
     0
  3

 62
   256
 51
90.0
 52
90.0
 71
     2
 49
0.5
 62
   256
  6
BYLAYER
 49
-0.5
 62
   256
  6
BYLAYER
  0
ACDBPLACEHOLDER
  5
F
102
{ACAD_REACTORS
330
E
102
}
330
E
  0
ENDSEC
  0
EOF
