  0
SECTION
  2
HEADER
  9
$ACADVER
  1
AC1015
  9
$ACADMAINTVER
 70
     6
  9
$DWGCODEPAGE
  3
ANSI_1252
  9
$INSBASE
 10
0.0
 20
0.0
 30
0.0
  9
$EXTMIN
 10
0.0
 20
0.0
 30
0.0
  9
$EXTMAX
 10
297.0
 20
210.0
 30
0.0
  9
$LIMMIN
 10
0.0
 20
0.0
  9
$LIMMAX
 10
297.0
 20
210.0
  9
$ORTHOMODE
 70
     0
  9
$REGENMODE
 70
     1
  9
$FILLMODE
 70
     1
  9
$QTEXTMODE
 70
     0
  9
$MIRRTEXT
 70
     1
  9
$LTSCALE
 40
1.0
  9
$ATTMODE
 70
     1
  9
$TEXTSIZE
 40
2.0
  9
$TRACEWID
 40
1.0
  9
$TEXTSTYLE
  7
Standard
  9
$CLAYER
  8
0
  9
$CELTYPE
  6
ByLayer
  9
$CECOLOR
 62
   256
  9
$CELTSCALE
 40
1.0
  9
$DISPSILH
 70
     0
  9
$DIMSCALE
 40
1.0
  9
$DIMASZ
 40
3.0
  9
$DIMEXO
 40
0.0
  9
$DIMDLI
 40
3.75
  9
$DIMRND
 40
0.0
  9
$DIMDLE
 40
0.0
  9
$DIMEXE
 40
1.0
  9
$DIMTP
 40
0.0
  9
$DIMTM
 40
0.0
  9
$DIMTXT
 40
2.0
  9
$DIMCEN
 40
2.5
  9
$DIMTSZ
 40
0.0
  9
$DIMTOL
 70
     0
  9
$DIMLIM
 70
     0
  9
$DIMTIH
 70
     1
  9
$DIMTOH
 70
     1
  9
$DIMSE1
 70
     0
  9
$DIMSE2
 70
     0
  9
$DIMTAD
 70
     1
  9
$DIMZIN
 70
     0
  9
$DIMBLK
  1

  9
$DIMASO
 70
     1
  9
$DIMSHO
 70
     1
  9
$DIMPOST
  1

  9
$DIMAPOST
  1

  9
$DIMALT
 70
     0
  9
$DIMALTD
 70
     3
  9
$DIMALTF
 40
0.0393700787
  9
$DIMLFAC
 40
1.0
  9
$DIMTOFL
 70
     1
  9
$DIMTVP
 40
0.0
  9
$DIMTIX
 70
     0
  9
$DIMSOXD
 70
     0
  9
$DIMSAH
 70
     0
  9
$DIMBLK1
  1

  9
$DIMBLK2
  1

  9
$DIMSTYLE
  2
ISO-25
  9
$DIMCLRD
 70
     0
  9
$DIMCLRE
 70
     0
  9
$DIMCLRT
 70
     0
  9
$DIMTFAC
 40
1.0
  9
$DIMGAP
 40
1.524
  9
$DIMJUST
 70
     0
  9
$DIMSD1
 70
     0
  9
$DIMSD2
 70
     0
  9
$DIMTOLJ
 70
     0
  9
$DIMTZIN
 70
     0
  9
$DIMALTZ
 70
     0
  9
$DIMALTTZ
 70
     0
  9
$DIMUPT
 70
     0
  9
$DIMDEC
 70
     2
  9
$DIMTDEC
 70
     3
  9
$DIMALTU
 70
     2
  9
$DIMALTTD
 70
     3
  9
$DIMTXSTY
  7
Standard
  9
$DIMAUNIT
 70
     0
  9
$DIMADEC
 70
     2
  9
$DIMALTRND
 40
0.0
  9
$DIMAZIN
 70
     0
  9
$DIMDSEP
 70
    44
  9
$DIMATFIT
 70
     3
  9
$DIMFRAC
 70
     0
  9
$DIMLDRBLK
  1

  9
$DIMLUNIT
 70
     2
  9
$DIMLWD
 70
    -2
  9
$DIMLWE
 70
    -2
  9
$DIMTMOVE
 70
     0
  9
$LUNITS
 70
     2
  9
$LUPREC
 70
     2
  9
$SKETCHINC
 40
1.0
  9
$FILLETRAD
 40
10.0
  9
$AUNITS
 70
     0
  9
$AUPREC
 70
     2
  9
$MENU
  1
.
  9
$ELEVATION
 40
0.0
  9
$PELEVATION
 40
0.0
  9
$THICKNESS
 40
0.0
  9
$LIMCHECK
 70
     0
  9
$CHAMFERA
 40
10.0
  9
$CHAMFERB
 40
10.0
  9
$CHAMFERC
 40
20.0
  9
$CHAMFERD
 40
0.0
  9
$SKPOLY
 70
     0
  9
$TDCREATE
 40
2456071.395934965
  9
$TDUCREATE
 40
2456071.312601632
  9
$TDUPDATE
 40
2456071.395936412
  9
$TDUUPDATE
 40
2456071.312603079
  9
$TDINDWG
 40
0.0000000116
  9
$TDUSRTIMER
 40
0.0000000116
  9
$USRTIMER
 70
     1
  9
$ANGBASE
 50
0.0
  9
$ANGDIR
 70
     0
  9
$PDMODE
 70
     0
  9
$PDSIZE
 40
-1.0
  9
$PLINEWID
 40
0.0
  9
$SPLFRAME
 70
     0
  9
$SPLINETYPE
 70
     6
  9
$SPLINESEGS
 70
     8
  9
$HANDSEED
  5
261
  9
$SURFTAB1
 70
     6
  9
$SURFTAB2
 70
     6
  9
$SURFTYPE
 70
     6
  9
$SURFU
 70
     6
  9
$SURFV
 70
     6
  9
$UCSBASE
  2

  9
$UCSNAME
  2

  9
$UCSORG
 10
0.0
 20
0.0
 30
0.0
  9
$UCSXDIR
 10
1.0
 20
0.0
 30
0.0
  9
$UCSYDIR
 10
0.0
 20
1.0
 30
0.0
  9
$UCSORTHOREF
  2

  9
$UCSORTHOVIEW
 70
     0
  9
$UCSORGTOP
 10
0.0
 20
0.0
 30
0.0
  9
$UCSORGBOTTOM
 10
0.0
 20
0.0
 30
0.0
  9
$UCSORGLEFT
 10
0.0
 20
0.0
 30
0.0
  9
$UCSORGRIGHT
 10
0.0
 20
0.0
 30
0.0
  9
$UCSORGFRONT
 10
0.0
 20
0.0
 30
0.0
  9
$UCSORGBACK
 10
0.0
 20
0.0
 30
0.0
  9
$PUCSBASE
  2

  9
$PUCSNAME
  2

  9
$PUCSORG
 10
0.0
 20
0.0
 30
0.0
  9
$PUCSXDIR
 10
1.0
 20
0.0
 30
0.0
  9
$PUCSYDIR
 10
0.0
 20
1.0
 30
0.0
  9
$PUCSORTHOREF
  2

  9
$PUCSORTHOVIEW
 70
     0
  9
$PUCSORGTOP
 10
0.0
 20
0.0
 30
0.0
  9
$PUCSORGBOTTOM
 10
0.0
 20
0.0
 30
0.0
  9
$PUCSORGLEFT
 10
0.0
 20
0.0
 30
0.0
  9
$PUCSORGRIGHT
 10
0.0
 20
0.0
 30
0.0
  9
$PUCSORGFRONT
 10
0.0
 20
0.0
 30
0.0
  9
$PUCSORGBACK
 10
0.0
 20
0.0
 30
0.0
  9
$USERI1
 70
     0
  9
$USERI2
 70
     0
  9
$USERI3
 70
     0
  9
$USERI4
 70
     0
  9
$USERI5
 70
     0
  9
$USERR1
 40
0.0
  9
$USERR2
 40
0.0
  9
$USERR3
 40
0.0
  9
$USERR4
 40
0.0
  9
$USERR5
 40
0.0
  9
$WORLDVIEW
 70
     1
  9
$SHADEDGE
 70
     3
  9
$SHADEDIF
 70
    70
  9
$TILEMODE
 70
     1
  9
$MAXACTVP
 70
    64
  9
$PINSBASE
 10
0.0
 20
0.0
 30
0.0
  9
$PLIMCHECK
 70
     0
  9
$PEXTMIN
 10
1.0000000000E+20
 20
1.0000000000E+20
 30
1.0000000000E+20
  9
$PEXTMAX
 10
-1.0000000000E+20
 20
-1.0000000000E+20
 30
-1.0000000000E+20
  9
$PLIMMIN
 10
0.0
 20
0.0
  9
$PLIMMAX
 10
420.0
 20
297.0
  9
$UNITMODE
 70
     0
  9
$VISRETAIN
 70
     1
  9
$PLINEGEN
 70
     0
  9
$PSLTSCALE
 70
     1
  9
$TREEDEPTH
 70
  3020
  9
$CMLSTYLE
  2
Standard
  9
$CMLJUST
 70
     0
  9
$CMLSCALE
 40
20.0
  9
$PROXYGRAPHICS
 70
     1
  9
$MEASUREMENT
 70
     1
  9
$CELWEIGHT
370
    -1
  9
$ENDCAPS
280
     0
  9
$JOINSTYLE
280
     0
  9
$LWDISPLAY
290
     1
  9
$INSUNITS
 70
     4
  9
$HYPERLINKBASE
  1

  9
$STYLESHEET
  1

  9
$XEDIT
290
     1
  9
$CEPSNTYPE
380
     0
  9
$PSTYLEMODE
290
     1
  9
$FINGERPRINTGUID
  2
{C583A574-F448-4F67-A300-F2E2A2322D02}
  9
$VERSIONGUID
  2
{FAEB1C32-E019-11D5-929B-00C0DF256EC4}
  9
$EXTNAMES
290
     1
  9
$PSVPSCALE
 40
0.0
  9
$OLESTARTUP
290
     0
  0
ENDSEC
  0
SECTION
  2
CLASSES
  0
CLASS
  1
ACDBDICTIONARYWDFLT
  2
AcDbDictionaryWithDefault
  3
ObjectDBX Classes
 90
        0
280
     0
281
     0
  0
CLASS
  1
VISUALSTYLE
  2
AcDbVisualStyle
  3
ObjectDBX Classes
 90
     4095
280
     0
281
     0
  0
CLASS
  1
MATERIAL
  2
AcDbMaterial
  3
ObjectDBX Classes
 90
     1153
280
     0
281
     0
  0
CLASS
  1
ACDBPLACEHOLDER
  2
AcDbPlaceHolder
  3
ObjectDBX Classes
 90
        0
280
     0
281
     0
  0
CLASS
  1
LAYOUT
  2
AcDbLayout
  3
ObjectDBX Classes
 90
        0
280
     0
281
     0
  0
ENDSEC
  0
SECTION
  2
TABLES
  0
TABLE
  2
VPORT
  5
8
330
0
100
AcDbSymbolTable
 70
     1
  0
VPORT
  5
29
330
8
100
AcDbSymbolTableRecord
100
AcDbViewportTableRecord
  2
*Active
 70
     0
 10
0.0
 20
0.0
 11
1.0
 21
1.0
 12
148.5
 22
105.0
 13
0.0
 23
0.0
 14
10.0
 24
10.0
 15
10.0
 25
10.0
 16
0.0
 26
0.0
 36
1.0
 17
0.0
 27
0.0
 37
0.0
 40
210.0
 41
1.4142857143
 42
50.0
 43
0.0
 44
0.0
 50
0.0
 51
0.0
 71
     0
 72
  2000
 73
     1
 74
     3
 75
     0
 76
     0
 77
     0
 78
     0
281
     0
 65
     1
110
0.0
120
0.0
130
0.0
111
1.0
121
0.0
131
0.0
112
0.0
122
1.0
132
0.0
 79
     0
146
0.0
  0
ENDTAB
  0
TABLE
  2
LTYPE
  5
5
330
0
100
AcDbSymbolTable
 70
     6
  0
LTYPE
  5
14
330
5
100
AcDbSymbolTableRecord
100
AcDbLinetypeTableRecord
  2
ByBlock
 70
     0
  3

 72
    65
 73
     0
 40
0.0
  0
LTYPE
  5
15
330
5
100
AcDbSymbolTableRecord
100
AcDbLinetypeTableRecord
  2
ByLayer
 70
     0
  3

 72
    65
 73
     0
 40
0.0
  0
LTYPE
  5
16
330
5
100
AcDbSymbolTableRecord
100
AcDbLinetypeTableRecord
  2
Continuous
 70
     0
  3
Solid line
 72
    65
 73
     0
 40
0.0
  0
LTYPE
  5
3F
330
5
100
AcDbSymbolTableRecord
100
AcDbLinetypeTableRecord
  2
HIDDEN
 70
     0
  3
Hidden __ __ __ __ __ __ __ __ __ __ __ __ __ __
 72
    65
 73
     2
 40
1.905
 49
1.27
 74
     0
 49
-0.635
 74
     0
  0
LTYPE
  5
40
330
5
100
AcDbSymbolTableRecord
100
AcDbLinetypeTableRecord
  2
PHANTOM
 70
     0
  3
Phantom ______  __  __  ______  __  __  ______
 72
    65
 73
     6
 40
12.7
 49
6.35
 74
     0
 49
-1.27
 74
     0
 49
1.27
 74
     0
 49
-1.27
 74
     0
 49
1.27
 74
     0
 49
-1.27
 74
     0
  0
LTYPE
  5
41
330
5
100
AcDbSymbolTableRecord
100
AcDbLinetypeTableRecord
  2
CENTER
 70
     0
  3
Center ____ _ ____ _ ____ _ ____ _ ____ _ ____
 72
    65
 73
     4
 40
10.16
 49
6.35
 74
     0
 49
-1.27
 74
     0
 49
1.27
 74
     0
 49
-1.27
 74
     0
  0
LTYPE
  5
42
330
5
100
AcDbSymbolTableRecord
100
AcDbLinetypeTableRecord
  2
CENTERX2
 70
     0
  3
Center (2x) ________  __  ________  __  _____
 72
    65
 73
     4
 40
20.32
 49
12.7
 74
     0
 49
-2.54
 74
     0
 49
2.54
 74
     0
 49
-2.54
 74
     0
  0
LTYPE
  5
43
330
5
100
AcDbSymbolTableRecord
100
AcDbLinetypeTableRecord
  2
DOT2
 70
     0
  3
Dot (.5x) ........................................
 72
    65
 73
     2
 40
0.635
 49
0.0
 74
     0
 49
-0.635
 74
     0
  0
ENDTAB
  0
TABLE
  2
LAYER
  5
2
330
0
100
AcDbSymbolTable
 70
     5
  0
LAYER
  5
10
330
2
100
AcDbSymbolTableRecord
100
AcDbLayerTableRecord
  2
0
 70
     0
 62
     7
  6
Continuous
370
    -3
390
F
  0
LAYER
  5
44
330
2
100
AcDbSymbolTableRecord
100
AcDbLayerTableRecord
  2
FORMAT
 70
     0
 62
     7
  6
Continuous
370
    -3
390
F
  0
LAYER
  5
45
330
2
100
AcDbSymbolTableRecord
100
AcDbLayerTableRecord
  2
VERMASSUNG
 70
     0
 62
     7
  6
Continuous
370
    -3
390
F
  0
LAYER
  5
46
330
2
100
AcDbSymbolTableRecord
100
AcDbLayerTableRecord
  2
KOPF_DÜNN
 70
     0
 62
     7
  6
Continuous
370
    -3
390
F
  0
LAYER
  5
47
330
2
100
AcDbSymbolTableRecord
100
AcDbLayerTableRecord
  2
KOPF_DICK
 70
     0
 62
     7
  6
Continuous
370
    15
390
F
  0
ENDTAB
  0
TABLE
  2
STYLE
  5
3
330
0
100
AcDbSymbolTable
 70
     2
  0
STYLE
  5
11
330
3
100
AcDbSymbolTableRecord
100
AcDbTextStyleTableRecord
  2
Standard
 70
     0
 40
0.0
 41
1.0
 50
0.0
 71
     0
 42
2.0
  3
txt
  4

  0
STYLE
  5
48
330
3
100
AcDbSymbolTableRecord
100
AcDbTextStyleTableRecord
  2
SLDTEXTSTYLE0
 70
     0
 40
0.0
 41
0.7
 50
0.0
 71
     0
 42
0.2
  3
TXT
  4

  0
ENDTAB
  0
TABLE
  2
VIEW
  5
6
330
0
100
AcDbSymbolTable
 70
     0
  0
ENDTAB
  0
TABLE
  2
UCS
  5
7
330
0
100
AcDbSymbolTable
 70
     0
  0
ENDTAB
  0
TABLE
  2
APPID
  5
9
330
0
100
AcDbSymbolTable
 70
     1
  0
APPID
  5
12
330
9
100
AcDbSymbolTableRecord
100
AcDbRegAppTableRecord
  2
ACAD
 70
     0
  0
ENDTAB
  0
TABLE
  2
DIMSTYLE
  5
A
330
0
100
AcDbSymbolTable
 70
     4
100
AcDbDimStyleTable
  0
DIMSTYLE
105
27
330
A
100
AcDbSymbolTableRecord
100
AcDbDimStyleTableRecord
  2
ISO-25
 70
     0
 41
2.5
 42
0.625
 43
3.75
 44
1.25
 73
     0
 74
     0
 77
     1
 78
     8
140
2.5
141
2.5
143
0.0393700787
147
0.625
171
     3
172
     1
178
     0
271
     2
272
     2
274
     3
278
    44
283
     0
284
     8
340
11
  0
DIMSTYLE
105
1BE
102
{ACAD_REACTORS
330
1BD
102
}
330
A
100
AcDbSymbolTableRecord
100
AcDbDimStyleTableRecord
  2
SLDDIMSTYLE0
 70
     0
 41
3.0
 44
0.0
 73
     0
 74
     0
 77
     1
 78
    12
 79
     3
140
2.0
147
0.5
173
     1
178
     0
179
     1
272
     3
276
     2
284
    12
340
48
  0
DIMSTYLE
105
1C8
102
{ACAD_REACTORS
330
1C7
330
1D4
102
}
330
A
100
AcDbSymbolTableRecord
100
AcDbDimStyleTableRecord
  2
SLDDIMSTYLE1
 70
     0
 41
3.0
 44
0.0
 45
0.000000001
 47
0.1
 48
0.1
 71
     1
 73
     0
 74
     0
 77
     1
 78
    12
 79
     3
140
2.0
147
0.5
173
     1
178
     0
271
     2
272
     1
276
     2
284
     8
340
48
  0
DIMSTYLE
105
1E1
102
{ACAD_REACTORS
330
1E0
330
1EB
102
}
330
A
100
AcDbSymbolTableRecord
100
AcDbDimStyleTableRecord
  2
SLDDIMSTYLE2
 70
     0
 41
3.0
 44
0.0
 45
0.000000001
 73
     0
 74
     0
 77
     1
 78
    12
 79
     3
140
2.0
147
0.5
173
     1
178
     0
271
     2
272
     3
276
     2
284
    12
340
48
  0
ENDTAB
  0
TABLE
  2
BLOCK_RECORD
  5
1
330
0
100
AcDbSymbolTable
 70
     7
  0
BLOCK_RECORD
  5
1F
330
1
100
AcDbSymbolTableRecord
100
AcDbBlockTableRecord
  2
*Model_Space
340
22
  0
BLOCK_RECORD
  5
1B
330
1
100
AcDbSymbolTableRecord
100
AcDbBlockTableRecord
  2
*Paper_Space
340
1E
  0
BLOCK_RECORD
  5
23
330
1
100
AcDbSymbolTableRecord
100
AcDbBlockTableRecord
  2
*Paper_Space0
340
26
  0
BLOCK_RECORD
  5
1BF
330
1
100
AcDbSymbolTableRecord
100
AcDbBlockTableRecord
  2
_D
340
0
  0
BLOCK_RECORD
  5
1C9
330
1
100
AcDbSymbolTableRecord
100
AcDbBlockTableRecord
  2
_D_1
340
0
  0
BLOCK_RECORD
  5
1D5
330
1
100
AcDbSymbolTableRecord
100
AcDbBlockTableRecord
  2
_D_2
340
0
  0
BLOCK_RECORD
  5
1E2
330
1
100
AcDbSymbolTableRecord
100
AcDbBlockTableRecord
  2
_D_3
340
0
  0
BLOCK_RECORD
  5
1EC
330
1
100
AcDbSymbolTableRecord
100
AcDbBlockTableRecord
  2
_D_4
340
0
  0
BLOCK_RECORD
  5
254
330
1
100
AcDbSymbolTableRecord
100
AcDbBlockTableRecord
  2
SW_CENTERMARKSYMBOL_0
340
0
102
{BLKREFS
331
25F
102
}
  0
ENDTAB
  0
ENDSEC
  0
SECTION
  2
BLOCKS
  0
BLOCK
  5
20
330
1F
100
AcDbEntity
  8
0
100
AcDbBlockBegin
  2
*Model_Space
 70
     0
 10
0.0
 20
0.0
 30
0.0
  3
*Model_Space
  1

  0
ENDBLK
  5
21
330
1F
100
AcDbEntity
  8
0
100
AcDbBlockEnd
  0
BLOCK
  5
1C
330
1B
100
AcDbEntity
 67
     1
  8
0
100
AcDbBlockBegin
  2
*Paper_Space
 70
     0
 10
0.0
 20
0.0
 30
0.0
  3
*Paper_Space
  1

  0
ENDBLK
  5
1D
330
1B
100
AcDbEntity
 67
     1
  8
0
100
AcDbBlockEnd
  0
BLOCK
  5
24
330
23
100
AcDbEntity
  8
0
100
AcDbBlockBegin
  2
*Paper_Space0
 70
     0
 10
0.0
 20
0.0
 30
0.0
  3
*Paper_Space0
  1

  0
ENDBLK
  5
25
330
23
100
AcDbEntity
  8
0
100
AcDbBlockEnd
  0
BLOCK
  5
1C0
330
1BF
100
AcDbEntity
  8
0
100
AcDbBlockBegin
  2
_D
 70
     0
 10
0.0
 20
0.0
 30
0.0
  3
_D
  1

  0
ARC
  5
1C2
330
1BF
100
AcDbEntity
  8
VERMASSUNG
100
AcDbCircle
 10
236.947644771
 20
92.8688899551
 30
0.0
 40
13.93752702293568
100
AcDbArc
 50
176.9923752066
 51
270.0
  0
SOLID
  5
1C3
330
1BF
100
AcDbEntity
  8
VERMASSUNG
100
AcDbTrace
 10
223.0293158391
 20
93.6001759859
 30
0.0
 11
222.7404217579
 21
90.5804011251
 31
0.0
 12
223.639133437
 22
90.6285396526
 32
0.0
 13
223.639133437
 23
90.6285396526
 33
0.0
  0
SOLID
  5
1C4
330
1BF
100
AcDbEntity
  8
VERMASSUNG
100
AcDbTrace
 10
236.947644771
 20
78.9313629322
 30
0.0
 11
234.0120981138
 21
79.6962588881
 31
0.0
 12
233.9168715249
 22
78.8013109026
 32
0.0
 13
233.9168715249
 23
78.8013109026
 33
0.0
  0
LINE
  5
1C5
330
1BF
100
AcDbEntity
  8
VERMASSUNG
100
AcDbLine
 10
236.947644771
 20
87.1667914346
 30
0.0
 11
236.947644771
 21
77.9313629322
 31
0.0
  0
MTEXT
  5
1C6
330
1BF
100
AcDbEntity
  8
VERMASSUNG
100
AcDbMText
 10
226.7112244925
 20
87.1538676543
 30
0.1
 40
2.0
 41
0.0
 71
     1
 72
     1
  1
93°
  7
SLDTEXTSTYLE0
 11
0.6883063085752935
 21
-0.7254201717456255
 31
0.0
 73
     1
 44
1.0
  0
ENDBLK
  5
1C1
330
1BF
100
AcDbEntity
  8
0
100
AcDbBlockEnd
  0
BLOCK
  5
1CA
330
1C9
100
AcDbEntity
  8
0
100
AcDbBlockBegin
  2
_D_1
 70
     0
 10
0.0
 20
0.0
 30
0.0
  3
_D_1
  1

  0
SOLID
  5
1CC
330
1C9
100
AcDbEntity
  8
VERMASSUNG
100
AcDbTrace
 10
250.9728914158
 20
92.8923811699
 30
0.0
 11
251.4228914158
 21
95.8923811699
 31
0.0
 12
250.5228914158
 22
95.8923811699
 32
0.0
 13
250.5228914158
 23
95.8923811699
 33
0.0
  0
SOLID
  5
1CD
330
1C9
100
AcDbEntity
  8
VERMASSUNG
100
AcDbTrace
 10
250.9728914158
 20
119.8923811699
 30
0.0
 11
250.5228914158
 21
116.8923811699
 31
0.0
 12
251.4228914158
 22
116.8923811699
 32
0.0
 13
251.4228914158
 23
116.8923811699
 33
0.0
  0
LINE
  5
1CE
330
1C9
100
AcDbEntity
  8
VERMASSUNG
100
AcDbLine
 10
236.947644771
 20
92.8923811699
 30
0.0
 11
251.9728914158
 21
92.8923811699
 31
0.0
  0
LINE
  5
1CF
330
1C9
100
AcDbEntity
  8
VERMASSUNG
100
AcDbLine
 10
236.947644771
 20
119.8923811699
 30
0.0
 11
251.9728914158
 21
119.8923811699
 31
0.0
  0
LINE
  5
1D0
330
1C9
100
AcDbEntity
  8
VERMASSUNG
100
AcDbLine
 10
250.9728914158
 20
92.8923811699
 30
0.0
 11
250.9728914158
 21
119.8923811699
 31
0.0
  0
MTEXT
  5
1D1
330
1C9
100
AcDbEntity
  8
VERMASSUNG
100
AcDbMText
 10
248.3947560527
 20
101.8423809829
 30
0.1
 40
2.0
 41
0.0
 71
     1
 72
     1
  1
27
  7
SLDTEXTSTYLE0
 11
6.123233995736766E-17
 21
1.0
 31
0.0
 73
     1
 44
1.0
  0
MTEXT
  5
1D2
330
1C9
100
AcDbEntity
  8
VERMASSUNG
100
AcDbMText
 10
248.3947560527
 20
107.629881085
 30
0.1
 40
2.0
 41
0.0
 71
     1
 72
     1
  1

  7
SLDTEXTSTYLE0
 11
6.123233995736766E-17
 21
1.0
 31
0.0
 73
     1
 44
1.0
  0
MTEXT
  5
1D3
330
1C9
100
AcDbEntity
  8
VERMASSUNG
100
AcDbMText
 10
248.8892899155
 20
107.6423813748
 30
0.1
 40
1.5
 41
0.0
 71
     1
 72
     1
  1
±0.1
  7
SLDTEXTSTYLE0
 11
6.123233995736766E-17
 21
1.0
 31
0.0
 73
     1
 44
1.0
  0
ENDBLK
  5
1CB
330
1C9
100
AcDbEntity
  8
0
100
AcDbBlockEnd
  0
BLOCK
  5
1D6
330
1D5
100
AcDbEntity
  8
0
100
AcDbBlockBegin
  2
_D_2
 70
     0
 10
0.0
 20
0.0
 30
0.0
  3
_D_2
  1

  0
SOLID
  5
1D8
330
1D5
100
AcDbEntity
  8
VERMASSUNG
100
AcDbTrace
 10
186.947644771
 20
72.0761975628
 30
0.0
 11
189.947644771
 21
71.6261975628
 31
0.0
 12
189.947644771
 22
72.5261975628
 32
0.0
 13
189.947644771
 23
72.5261975628
 33
0.0
  0
SOLID
  5
1D9
330
1D5
100
AcDbEntity
  8
VERMASSUNG
100
AcDbTrace
 10
236.947644771
 20
72.0761975628
 30
0.0
 11
233.947644771
 21
72.5261975628
 31
0.0
 12
233.947644771
 22
71.6261975628
 32
0.0
 13
233.947644771
 23
71.6261975628
 33
0.0
  0
LINE
  5
1DA
330
1D5
100
AcDbEntity
  8
VERMASSUNG
100
AcDbLine
 10
186.947644771
 20
100.1923811699
 30
0.0
 11
186.947644771
 21
71.0761975628
 31
0.0
  0
LINE
  5
1DB
330
1D5
100
AcDbEntity
  8
VERMASSUNG
100
AcDbLine
 10
236.947644771
 20
92.8923811699
 30
0.0
 11
236.947644771
 21
71.0761975628
 31
0.0
  0
LINE
  5
1DC
330
1D5
100
AcDbEntity
  8
VERMASSUNG
100
AcDbLine
 10
186.947644771
 20
72.0761975628
 30
0.0
 11
236.947644771
 21
72.0761975628
 31
0.0
  0
MTEXT
  5
1DD
330
1D5
100
AcDbEntity
  8
VERMASSUNG
100
AcDbMText
 10
207.397644584
 20
74.6543329259
 30
0.1
 40
2.0
 41
0.0
 71
     1
 72
     1
  1
50
  7
SLDTEXTSTYLE0
 73
     1
 44
1.0
  0
MTEXT
  5
1DE
330
1D5
100
AcDbEntity
  8
VERMASSUNG
100
AcDbMText
 10
213.1851446861
 20
74.6543329259
 30
0.1
 40
2.0
 41
0.0
 71
     1
 72
     1
  1

  7
SLDTEXTSTYLE0
 73
     1
 44
1.0
  0
MTEXT
  5
1DF
330
1D5
100
AcDbEntity
  8
VERMASSUNG
100
AcDbMText
 10
213.1976449759
 20
74.1597990632
 30
0.1
 40
1.5
 41
0.0
 71
     1
 72
     1
  1
±0.1
  7
SLDTEXTSTYLE0
 73
     1
 44
1.0
  0
ENDBLK
  5
1D7
330
1D5
100
AcDbEntity
  8
0
100
AcDbBlockEnd
  0
BLOCK
  5
1E3
330
1E2
100
AcDbEntity
  8
0
100
AcDbBlockBegin
  2
_D_3
 70
     0
 10
0.0
 20
0.0
 30
0.0
  3
_D_3
  1

  0
SOLID
  5
1E5
330
1E2
100
AcDbEntity
  8
VERMASSUNG
100
AcDbTrace
 10
162.947644771
 20
66.0761975628
 30
0.0
 11
165.947644771
 21
65.6261975628
 31
0.0
 12
165.947644771
 22
66.5261975628
 32
0.0
 13
165.947644771
 23
66.5261975628
 33
0.0
  0
SOLID
  5
1E6
330
1E2
100
AcDbEntity
  8
VERMASSUNG
100
AcDbTrace
 10
236.947644771
 20
66.0761975628
 30
0.0
 11
233.947644771
 21
66.5261975628
 31
0.0
 12
233.947644771
 22
65.6261975628
 32
0.0
 13
233.947644771
 23
65.6261975628
 33
0.0
  0
LINE
  5
1E7
330
1E2
100
AcDbEntity
  8
VERMASSUNG
100
AcDbLine
 10
162.947644771
 20
107.2608761879
 30
0.0
 11
162.947644771
 21
65.0761975628
 31
0.0
  0
LINE
  5
1E8
330
1E2
100
AcDbEntity
  8
VERMASSUNG
100
AcDbLine
 10
236.947644771
 20
92.8923811699
 30
0.0
 11
236.947644771
 21
65.0761975628
 31
0.0
  0
LINE
  5
1E9
330
1E2
100
AcDbEntity
  8
VERMASSUNG
100
AcDbLine
 10
162.947644771
 20
66.0761975628
 30
0.0
 11
236.947644771
 21
66.0761975628
 31
0.0
  0
MTEXT
  5
1EA
330
1E2
100
AcDbEntity
  8
VERMASSUNG
100
AcDbMText
 10
197.547644657
 20
68.6543329259
 30
0.1
 40
2.0
 41
0.0
 71
     1
 72
     1
  1
74
  7
SLDTEXTSTYLE0
 73
     1
 44
1.0
  0
ENDBLK
  5
1E4
330
1E2
100
AcDbEntity
  8
0
100
AcDbBlockEnd
  0
BLOCK
  5
1ED
330
1EC
100
AcDbEntity
  8
0
100
AcDbBlockBegin
  2
_D_4
 70
     0
 10
0.0
 20
0.0
 30
0.0
  3
_D_4
  1

  0
SOLID
  5
1EF
330
1EC
100
AcDbEntity
  8
VERMASSUNG
100
AcDbTrace
 10
154.739987802
 20
99.8923811699
 30
0.0
 11
155.189987802
 21
102.8923811699
 31
0.0
 12
154.289987802
 22
102.8923811699
 32
0.0
 13
154.289987802
 23
102.8923811699
 33
0.0
  0
SOLID
  5
1F0
330
1EC
100
AcDbEntity
  8
VERMASSUNG
100
AcDbTrace
 10
154.739987802
 20
139.8923811699
 30
0.0
 11
154.289987802
 21
136.8923811699
 31
0.0
 12
155.189987802
 22
136.8923811699
 32
0.0
 13
155.189987802
 23
136.8923811699
 33
0.0
  0
LINE
  5
1F1
330
1EC
100
AcDbEntity
  8
VERMASSUNG
100
AcDbLine
 10
187.247644771
 20
99.8923811699
 30
0.0
 11
153.739987802
 21
99.8923811699
 31
0.0
  0
LINE
  5
1F2
330
1EC
100
AcDbEntity
  8
VERMASSUNG
100
AcDbLine
 10
187.247644771
 20
139.8923811699
 30
0.0
 11
153.739987802
 21
139.8923811699
 31
0.0
  0
LINE
  5
1F3
330
1EC
100
AcDbEntity
  8
VERMASSUNG
100
AcDbLine
 10
154.739987802
 20
99.8923811699
 30
0.0
 11
154.739987802
 21
139.8923811699
 31
0.0
  0
MTEXT
  5
1F4
330
1EC
100
AcDbEntity
  8
VERMASSUNG
100
AcDbMText
 10
151.961852313
 20
113.3873812306
 30
0.3810906167
 40
2.0
 41
0.0
 71
     1
 72
     1
  1
PSC
  7
SLDTEXTSTYLE0
 11
6.123233995736766E-17
 21
1.0
 31
0.0
 73
     1
 44
1.0
  0
MTEXT
  5
1F5
330
1EC
100
AcDbEntity
  8
VERMASSUNG
100
AcDbMText
 10
152.1618523225
 20
117.9873813326
 30
0.3810906167
 40
2.0
 41
0.0
 71
     1
 72
     1
  1
%%c
  7
SLDTEXTSTYLE0
 11
6.123233995736766E-17
 21
1.0
 31
0.0
 73
     1
 44
1.0
  0
MTEXT
  5
1F6
330
1EC
100
AcDbEntity
  8
VERMASSUNG
100
AcDbMText
 10
151.961852313
 20
121.5973818126
 30
0.3810906167
 40
2.0
 41
0.0
 71
     1
 72
     1
  1
40
  7
SLDTEXTSTYLE0
 11
6.123233995736766E-17
 21
1.0
 31
0.0
 73
     1
 44
1.0
  0
ENDBLK
  5
1EE
330
1EC
100
AcDbEntity
  8
0
100
AcDbBlockEnd
  0
BLOCK
  5
255
330
254
100
AcDbEntity
  8
0
100
AcDbBlockBegin
  2
SW_CENTERMARKSYMBOL_0
 70
     0
 10
0.0
 20
0.0
 30
0.0
  3
SW_CENTERMARKSYMBOL_0
  1

  0
LINE
  5
257
330
254
100
AcDbEntity
  8
VERMASSUNG
 62
     0
100
AcDbLine
 10
0.0
 20
0.0
 30
0.0
 11
0.0
 21
2.5
 31
0.0
  0
LINE
  5
258
330
254
100
AcDbEntity
  8
VERMASSUNG
 62
     0
100
AcDbLine
 10
0.0
 20
0.0
 30
0.0
 11
-2.5
 21
0.0
 31
0.0
  0
LINE
  5
259
330
254
100
AcDbEntity
  8
VERMASSUNG
 62
     0
100
AcDbLine
 10
0.0
 20
0.0
 30
0.0
 11
0.0
 21
-2.5
 31
0.0
  0
LINE
  5
25A
330
254
100
AcDbEntity
  8
VERMASSUNG
 62
     0
100
AcDbLine
 10
0.0
 20
0.0
 30
0.0
 11
2.5
 21
0.0
 31
0.0
  0
LINE
  5
25B
330
254
100
AcDbEntity
  8
VERMASSUNG
 62
     0
100
AcDbLine
 10
0.0
 20
5.0
 30
0.0
 11
0.0
 21
22.5
 31
0.0
  0
LINE
  5
25C
330
254
100
AcDbEntity
  8
VERMASSUNG
 62
     0
100
AcDbLine
 10
-5.0
 20
0.0
 30
0.0
 11
-22.5
 21
0.0
 31
0.0
  0
LINE
  5
25D
330
254
100
AcDbEntity
  8
VERMASSUNG
 62
     0
100
AcDbLine
 10
0.0
 20
-5.0
 30
0.0
 11
0.0
 21
-22.5
 31
0.0
  0
LINE
  5
25E
330
254
100
AcDbEntity
  8
VERMASSUNG
 62
     0
100
AcDbLine
 10
5.0
 20
0.0
 30
0.0
 11
22.5
 21
0.0
 31
0.0
  0
ENDBLK
  5
256
330
254
100
AcDbEntity
  8
0
100
AcDbBlockEnd
  0
ENDSEC
  0
SECTION
  2
ENTITIES
  0
MTEXT
  5
49
330
1F
100
AcDbEntity
  8
KOPF_DÜNN
100
AcDbMText
 10
13.8892156294
 20
23.8442973028
 30
0.0
 40
3.0
 41
0.0
 71
     1
 72
     1
  1
PS4.PDF.LJA.050
  7
SLDTEXTSTYLE0
 73
     1
 44
1.0
  0
MTEXT
  5
4A
330
1F
100
AcDbEntity
  8
VERMASSUNG
100
AcDbMText
 10
13.9329988022
 20
28.8834360957
 30
0.0
 40
3.0
 41
0.0
 71
     1
 72
     1
  1
Klemmhalter links_Turning tool left 55°/93°
  7
SLDTEXTSTYLE0
 73
     1
 44
1.0
  0
MTEXT
  5
4B
330
1F
100
AcDbEntity
  8
VERMASSUNG
100
AcDbMText
 10
98.8601118557
 20
13.8365368179
 30
0.0
 40
2.0
 41
0.0
 71
     1
 72
     1
  1
Datum: 23.05.2012
  7
SLDTEXTSTYLE0
 73
     1
 44
1.0
  0
MTEXT
  5
4C
330
1F
100
AcDbEntity
  8
VERMASSUNG
100
AcDbMText
 10
13.933048693
 20
18.0482802738
 30
0.0
 40
2.0
 41
0.0
 71
     1
 72
     1
  1
PSC ø40 / DN..15 06 ..
  7
SLDTEXTSTYLE0
 73
     1
 44
1.0
  0
MTEXT
  5
4D
330
1F
100
AcDbEntity
  8
VERMASSUNG
100
AcDbMText
 10
13.9808475933
 20
13.9090973692
 30
0.0
 40
2.0
 41
0.0
 71
     1
 72
     1
  1
Gewicht: 367g
  7
SLDTEXTSTYLE0
 73
     1
 44
1.0
  0
LINE
  5
4E
330
1F
100
AcDbEntity
  8
0
  6
Continuous
 62
     7
370
    15
100
AcDbLine
 10
229.6296927044
 20
105.7080785195
 30
0.0
 11
228.8714806446
 21
106.454772913
 31
0.0
  0
LINE
  5
4F
330
1F
100
AcDbEntity
  8
0
  6
Continuous
 62
     7
370
    15
100
AcDbLine
 10
221.2365540573
 20
94.5179444189
 30
0.0
 11
222.0174866626
 21
93.7488750006
 31
0.0
  0
LINE
  5
50
330
1F
100
AcDbEntity
  8
0
  6
Continuous
 62
     7
370
    15
100
AcDbLine
 10
223.3696478316
 20
98.9946592982
 30
0.0
 11
223.7478244015
 21
98.653527015
 31
0.0
  0
LINE
  5
51
330
1F
100
AcDbEntity
  8
0
  6
Continuous
 62
     7
370
    15
100
AcDbLine
 10
209.1803169706
 20
139.8923807229
 30
0.0
 11
187.2476447853
 21
139.8923807229
 31
0.0
  0
LINE
  5
52
330
1F
100
AcDbEntity
  8
0
  6
Continuous
 62
     7
370
    15
100
AcDbLine
 10
187.2476447853
 20
99.8923816169
 30
0.0
 11
209.1803169706
 21
99.8923816169
 31
0.0
  0
ARC
  5
53
330
1F
100
AcDbEntity
  8
0
  6
Continuous
 62
     7
370
    15
100
AcDbCircle
 10
187.247644771
 20
100.1923811699
 30
0.0
 40
0.2999999999999972
100
AcDbArc
 50
180.0
 51
270.0
  0
ARC
  5
54
330
1F
100
AcDbEntity
  8
0
  6
Continuous
 62
     7
370
    15
100
AcDbCircle
 10
187.247644771
 20
139.5923811699
 30
0.0
 40
0.2999999999999829
100
AcDbArc
 50
90.0
 51
180.0
  0
LWPOLYLINE
  5
55
330
1F
100
AcDbEntity
  8
0
  6
Continuous
 62
     7
370
    15
100
AcDbPolyline
 90
        3
 70
   128
 43
0.0
 10
186.7476447761
 20
105.8025611947
 10
186.8730997113
 20
105.7342589284
 10
186.947644771
 20
105.681520925
  0
LWPOLYLINE
  5
56
330
1F
100
AcDbEntity
  8
0
  6
Continuous
 62
     7
370
    15
100
AcDbPolyline
 90
        3
 70
   128
 43
0.0
 10
186.947644771
 20
134.1032414148
 10
186.8730997113
 20
134.0505034114
 10
186.7476447761
 20
133.9822011451
  0
ARC
  5
57
330
1F
100
AcDbEntity
  8
0
  6
Continuous
 62
     7
370
    15
100
AcDbCircle
 10
209.1803177831
 20
140.8923811699
 30
0.0
 40
1.000000000000008
100
AcDbArc
 50
270.0
 51
330.0
  0
LINE
  5
58
330
1F
100
AcDbEntity
  8
0
  6
Continuous
 62
     7
370
    15
100
AcDbLine
 10
212.1889284709
 20
140.3923817362
 30
0.0
 11
210.0463426569
 21
140.3923817362
 31
0.0
  0
ARC
  5
59
330
1F
100
AcDbEntity
  8
0
  6
Continuous
 62
     7
370
    15
100
AcDbCircle
 10
209.1803177831
 20
98.8923811699
 30
0.0
 40
1.0
100
AcDbArc
 50
15.0
 51
90.0
  0
LINE
  5
5A
330
1F
100
AcDbEntity
  8
0
  6
Continuous
 62
     7
370
    15
100
AcDbLine
 10
210.1462437668
 20
99.1511997218
 30
0.0
 11
211.0430124113
 21
95.8044138188
 31
0.0
  0
LINE
  5
5B
330
1F
100
AcDbEntity
  8
0
  6
Continuous
 62
     7
370
    15
100
AcDbLine
 10
211.0564383575
 20
95.7679059739
 30
0.0
 11
221.4143509874
 21
94.4961142178
 31
0.0
  0
LINE
  5
5C
330
1F
100
AcDbEntity
  8
0
  6
Continuous
 62
     7
370
    15
100
AcDbLine
 10
214.7514234194
 20
105.9633298228
 30
0.0
 11
221.9578559407
 21
93.8250292475
 31
0.0
  0
ARC
  5
5D
330
1F
100
AcDbEntity
  8
0
  6
Continuous
 62
     7
370
    15
100
AcDbCircle
 10
215.1031819433
 20
106.1622101422
 30
0.0
 40
0.404088406869802
100
AcDbArc
 50
86.9946723447
 51
209.4833303085
  0
LINE
  5
5E
330
1F
100
AcDbEntity
  8
0
  6
Continuous
 62
     7
370
    15
100
AcDbLine
 10
229.3816703269
 20
105.8166465173
 30
0.0
 11
215.1243678191
 21
106.5657427917
 31
0.0
  0
ARC
  5
5F
330
1F
100
AcDbEntity
  8
0
  6
Continuous
 62
     7
370
    15
100
AcDbCircle
 10
229.3633692075
 20
105.4376150123
 30
0.0
 40
0.3794730725350758
100
AcDbArc
 50
30.8004888609
 51
87.2356831457
  0
LINE
  5
60
330
1F
100
AcDbEntity
  8
0
  6
Continuous
 62
     7
370
    15
100
AcDbLine
 10
236.8957559475
 20
93.4936236973
 30
0.0
 11
229.6893197009
 21
105.6319242726
 31
0.0
  0
ARC
  5
61
330
1F
100
AcDbEntity
  8
0
  6
Continuous
 62
     7
370
    15
100
AcDbCircle
 10
236.5439972768
 20
93.2947435343
 30
0.0
 40
0.4040884576929204
100
AcDbArc
 50
266.9949580354
 51
29.4833007614
  0
LINE
  5
62
330
1F
100
AcDbEntity
  8
0
  6
Continuous
 62
     7
370
    15
100
AcDbLine
 10
222.26550904
 20
93.6403070028
 30
0.0
 11
236.5228134105
 21
92.8912107284
 31
0.0
  0
ARC
  5
63
330
1F
100
AcDbEntity
  8
0
  6
Continuous
 62
     7
370
    15
100
AcDbCircle
 10
222.2838116279
 20
94.0193475271
 30
0.0
 40
0.3794821521389771
100
AcDbArc
 50
210.8012570177
 51
267.235527356
  0
ARC
  5
64
330
1F
100
AcDbEntity
  8
0
  6
Continuous
 62
     7
370
    15
100
AcDbCircle
 10
236.5445686826
 20
93.2942475423
 30
0.0
 40
0.3838857781208806
100
AcDbArc
 50
266.9951328168
 51
29.4828127007
  0
LINE
  5
65
330
1F
100
AcDbEntity
  8
0
  6
Continuous
 62
     7
370
    15
100
AcDbLine
 10
236.8787425467
 20
93.4831817086
 30
0.0
 11
229.6723063001
 21
105.6214813526
 31
0.0
  0
ARC
  5
66
330
1F
100
AcDbEntity
  8
0
  6
Continuous
 62
     7
370
    15
100
AcDbCircle
 10
229.3626578863
 20
105.4368954498
 30
0.0
 40
0.3604914640247576
100
AcDbArc
 50
30.7997817947
 51
87.236465454
  0
LINE
  5
67
330
1F
100
AcDbEntity
  8
0
  6
Continuous
 62
     7
370
    15
100
AcDbLine
 10
229.3800386497
 20
105.7969676713
 30
0.0
 11
215.1227342793
 21
106.5460639457
 31
0.0
  0
ARC
  5
68
330
1F
100
AcDbEntity
  8
0
  6
Continuous
 62
     7
370
    15
100
AcDbCircle
 10
215.1026074615
 20
106.1627090606
 30
0.0
 40
0.3838828685056118
100
AcDbArc
 50
86.9946283454
 51
209.4835867969
  0
LINE
  5
69
330
1F
100
AcDbEntity
  8
0
  6
Continuous
 62
     7
370
    15
100
AcDbLine
 10
214.7684386828
 20
105.9737718115
 30
0.0
 11
221.9748730668
 21
93.8354712362
 31
0.0
  0
ARC
  5
6A
330
1F
100
AcDbEntity
  8
0
  6
Continuous
 62
     7
370
    15
100
AcDbCircle
 10
222.2845239273
 20
94.0200631248
 30
0.0
 40
0.3604966306784869
100
AcDbArc
 50
210.8003998695
 51
267.2361157707
  0
LINE
  5
6B
330
1F
100
AcDbEntity
  8
0
  6
Continuous
 62
     7
370
    15
100
AcDbLine
 10
222.2671407172
 20
93.6599858488
 30
0.0
 11
236.5244450876
 21
92.9108895744
 31
0.0
  0
LINE
  5
6C
330
1F
100
AcDbEntity
  8
0
  6
Continuous
 62
     7
370
    15
100
AcDbLine
 10
216.7666508713
 20
105.219899715
 30
0.0
 11
215.0536245564
 21
106.2096935148
 31
0.0
  0
LINE
  5
6D
330
1F
100
AcDbEntity
  8
0
  6
Continuous
 62
     7
370
    15
100
AcDbLine
 10
229.0115515599
 20
105.0896691541
 30
0.0
 11
229.3109270641
 21
105.4605972404
 31
0.0
  0
LINE
  5
6E
330
1F
100
AcDbEntity
  8
0
  6
Continuous
 62
     7
370
    15
100
AcDbLine
 10
217.4293334493
 20
105.1850812892
 30
0.0
 11
216.7666508713
 21
105.219899715
 31
0.0
  0
LINE
  5
6F
330
1F
100
AcDbEntity
  8
0
  6
Continuous
 62
     7
370
    15
100
AcDbLine
 10
216.7666508713
 20
105.219899715
 30
0.0
 11
217.1016084859
 21
104.6557091559
 31
0.0
  0
LINE
  5
70
330
1F
100
AcDbEntity
  8
0
  6
Continuous
 62
     7
370
    15
100
AcDbLine
 10
222.4727841923
 20
94.5276543881
 30
0.0
 11
222.2600589403
 21
94.0713938708
 31
0.0
  0
LINE
  5
71
330
1F
100
AcDbEntity
  8
0
  6
Continuous
 62
     7
370
    15
100
AcDbLine
 10
213.8667861828
 20
106.6820025827
 30
0.0
 11
215.8110319534
 21
103.4071725244
 31
0.0
  0
SPLINE
  5
72
330
1F
100
AcDbEntity
  8
0
  6
Continuous
 62
     7
370
    15
100
AcDbSpline
210
0.0
220
0.0
230
1.0
 70
     8
 71
     3
 72
    14
 73
    10
 74
     0
 42
0.00000001
 43
0.00000001
 12
1.0
 22
0.0
 32
0.0
 13
1.0
 23
0.0
 33
0.0
 40
0.0
 40
0.0
 40
0.0
 40
0.0
 40
0.2210591005303507
 40
0.3460796587488917
 40
0.4396019234990217
 40
0.533889657502837
 40
0.6146549305491495
 40
0.7517249967061541
 40
1.0
 40
1.0
 40
1.0
 40
1.0
 10
217.692175031592
 20
104.6655439222996
 30
0.0
 10
217.7216655143635
 20
104.7166580746304
 30
0.0
 10
217.7678344175638
 20
104.7966799708268
 30
0.0
 10
217.7977125984104
 20
104.910410845864
 30
0.0
 10
217.7949124047181
 20
104.993724062574
 30
0.0
 10
217.7651550910926
 20
105.0589464465893
 30
0.0
 10
217.7064583382045
 20
105.1156966759848
 30
0.0
 10
217.595291504903
 20
105.1687032997104
 30
0.0
 10
217.4943617502826
 20
105.1786638072431
 30
0.0
 10
217.4293334492937
 20
105.1850812892262
 30
0.0
  0
ARC
  5
73
330
1F
100
AcDbEntity
  8
0
  6
Continuous
 62
     7
370
    15
100
AcDbCircle
 10
219.8460037297
 20
103.3098672423
 30
0.0
 40
1.010222802363385
100
AcDbArc
 50
86.9948023414
 51
209.4831490832
  0
ARC
  5
74
330
1F
100
AcDbEntity
  8
0
  6
Continuous
 62
     7
370
    15
100
AcDbCircle
 10
216.914762811
 20
105.1459767617
 30
0.0
 40
0.9138848253260203
100
AcDbArc
 50
328.1389336617
 51
328.2843567819
  0
SPLINE
  5
75
330
1F
100
AcDbEntity
  8
0
  6
Continuous
 62
     7
370
    15
100
AcDbSpline
210
0.0
220
0.0
230
1.0
 70
     8
 71
     3
 72
    14
 73
    10
 74
     0
 42
0.00000001
 43
0.00000001
 12
1.0
 22
0.0
 32
0.0
 13
1.0
 23
0.0
 33
0.0
 40
0.0
 40
0.0
 40
0.0
 40
0.0
 40
0.2234962702616021
 40
0.3567615167926555
 40
0.4531223641086241
 40
0.5344609649079394
 40
0.615731337844783
 40
0.7396165439595779
 40
1.0
 40
1.0
 40
1.0
 40
1.0
 10
217.1016084858671
 20
104.6557091559116
 30
0.0
 10
217.1334471053652
 20
104.6071128098799
 30
0.0
 10
217.1842702988414
 20
104.5295396758829
 30
0.0
 10
217.2757503518519
 20
104.4539535665506
 30
0.0
 10
217.3515188225125
 20
104.4226589996866
 30
0.0
 10
217.4207325204707
 20
104.4202614428627
 30
0.0
 10
217.4940078065292
 20
104.4440423591803
 30
0.0
 10
217.5951865208555
 20
104.5195804632216
 30
0.0
 10
217.6522717427694
 20
104.605412113637
 30
0.0
 10
217.6909531363741
 20
104.6635723124091
 30
0.0
  0
LINE
  5
76
330
1F
100
AcDbEntity
  8
0
  6
Continuous
 62
     7
370
    15
100
AcDbLine
 10
218.9666042933
 20
102.8126683469
 30
0.0
 11
222.9997861096
 21
96.0193016018
 31
0.0
  0
LINE
  5
77
330
1F
100
AcDbEntity
  8
0
  6
Continuous
 62
     7
370
    15
100
AcDbLine
 10
227.8782623717
 20
103.8994584615
 30
0.0
 11
219.8989662239
 21
104.3187007691
 31
0.0
  0
ARC
  5
78
330
1F
100
AcDbEntity
  8
0
  6
Continuous
 62
     7
370
    15
100
AcDbCircle
 10
227.8325162625
 20
102.9518776929
 30
0.0
 40
0.9486843624974449
100
AcDbArc
 50
30.8005693852
 51
87.2360925161
  0
LINE
  5
79
330
1F
100
AcDbEntity
  8
0
  6
Continuous
 62
     7
370
    15
100
AcDbLine
 10
232.6805750736
 20
96.6442842419
 30
0.0
 11
228.6473932573
 21
103.4376528497
 31
0.0
  0
ARC
  5
7A
330
1F
100
AcDbEntity
  8
0
  6
Continuous
 62
     7
370
    15
100
AcDbCircle
 10
231.8011768411
 20
96.1470858489
 30
0.0
 40
1.010221507121855
100
AcDbArc
 50
266.9947301121
 51
29.4831578827
  0
LINE
  5
7B
330
1F
100
AcDbEntity
  8
0
  6
Continuous
 62
     7
370
    15
100
AcDbLine
 10
223.7689169952
 20
95.5574941273
 30
0.0
 11
231.748213143
 21
95.1382536824
 31
0.0
  0
ARC
  5
7C
330
1F
100
AcDbEntity
  8
0
  6
Continuous
 62
     7
370
    15
100
AcDbCircle
 10
223.8146648895
 20
96.5050759097
 30
0.0
 40
0.948685461158959
100
AcDbArc
 50
210.8004701427
 51
267.235987782
  0
LWPOLYLINE
  5
7D
330
1F
100
AcDbEntity
  8
0
  6
Continuous
 62
     7
370
    15
100
AcDbPolyline
 90
       32
 70
   128
 43
0.0
 10
225.6130213746
 20
97.1899666275
 10
226.1270332047
 20
97.2151495899
 10
226.6286211917
 20
97.3432287956
 10
227.0972515353
 20
97.568959036
 10
227.5137389907
 20
97.883101591
 10
227.8610291788
 20
98.2727948959
 10
228.1249063918
 20
98.7220816697
 10
228.2945672879
 20
99.2125720168
 10
228.3630679259
 20
99.7241828973
 10
228.3276031622
 20
100.2359707291
 10
228.1896184096
 20
100.7269807543
 10
227.9547723839
 20
101.1771113063
 10
227.6326763341
 20
101.5679352368
 10
227.2365140626
 20
101.8834524239
 10
226.7825054833
 20
102.1107435609
 10
226.2892397949
 20
102.2405047352
 10
225.776911796
 20
102.2674236829
 10
225.2664911458
 20
102.1903958554
 10
224.778880448
 20
102.0125784362
 10
224.3340435335
 20
101.7412506427
 10
223.9501858958
 20
101.387517565
 10
223.6430245349
 20
100.9658649946
 10
223.4251360306
 20
100.4935522015
 10
223.3054424533
 20
99.9899171675
 10
223.2888388345
 20
99.4755793745
 10
223.3760106274
 20
98.9715941633
 10
223.5633852789
 20
98.4985977794
 10
223.8432961413
 20
98.0759524192
 10
224.2042767712
 20
97.7209601934
 10
224.6315526673
 20
97.4481571848
 10
225.1076335916
 20
97.2687099512
 10
225.6130213746
 20
97.1899666275
  0
LWPOLYLINE
  5
7E
330
1F
100
AcDbEntity
  8
0
  6
Continuous
 62
     7
370
    15
100
AcDbPolyline
 90
        3
 70
   128
 43
0.0
 10
223.5506783137
 20
98.5232964541
 10
224.0049662897
 20
98.3546227599
 10
224.277329714
 20
98.2990265275
  0
LINE
  5
7F
330
1F
100
AcDbEntity
  8
0
  6
Continuous
 62
     7
370
    15
100
AcDbLine
 10
234.6026907572
 20
94.5106707896
 30
0.0
 11
236.5173595855
 21
93.3222975964
 31
0.0
  0
LINE
  5
80
330
1F
100
AcDbEntity
  8
0
  6
Continuous
 62
     7
370
    15
100
AcDbLine
 10
234.6026907572
 20
94.5106707896
 30
0.0
 11
234.2677350053
 21
95.0748604174
 31
0.0
  0
SPLINE
  5
81
330
1F
100
AcDbEntity
  8
0
  6
Continuous
 62
     7
370
    15
100
AcDbSpline
210
0.0
220
0.0
230
1.0
 70
     8
 71
     3
 72
    11
 73
     7
 74
     0
 42
0.00000001
 43
0.00000001
 12
1.0
 22
0.0
 32
0.0
 13
1.0
 23
0.0
 33
0.0
 40
0.0
 40
0.0
 40
0.0
 40
0.0
 40
0.3280462410465604
 40
0.6557013819751681
 40
0.9906969180031968
 40
0.9999999999999999
 40
0.9999999999999999
 40
0.9999999999999999
 40
0.9999999999999999
 10
229.0115515598551
 20
105.089669154102
 30
0.0
 10
228.9673848466355
 20
105.0314568650186
 30
0.0
 10
228.8791040762082
 20
104.9151016881444
 30
0.0
 10
228.7524836907759
 20
104.7048950081788
 30
0.0
 10
228.6811124737657
 20
104.5640142100746
 30
0.0
 10
228.6504204879291
 20
104.4957929650331
 30
0.0
 10
228.6495911785856
 20
104.4939496005718
 30
0.0
  0
SPLINE
  5
82
330
1F
100
AcDbEntity
  8
0
  6
Continuous
 62
     7
370
    15
100
AcDbSpline
210
0.0
220
0.0
230
1.0
 70
     8
 71
     3
 72
    11
 73
     7
 74
     0
 42
0.00000001
 43
0.00000001
 12
1.0
 22
0.0
 32
0.0
 13
1.0
 23
0.0
 33
0.0
 40
0.0
 40
0.0
 40
0.0
 40
0.0
 40
0.328044869383278
 40
0.6557022534583253
 40
0.9906981158562391
 40
0.9999999999999999
 40
0.9999999999999999
 40
0.9999999999999999
 40
0.9999999999999999
 10
222.4727841922537
 20
94.52765438806458
 30
0.0
 10
222.5068511404812
 20
94.59581214701255
 30
0.0
 10
222.574944797191
 20
94.73204715723202
 30
0.0
 10
222.7059292279446
 20
94.9379543531783
 30
0.0
 10
222.7969970451449
 20
95.05944957170026
 30
0.0
 10
222.8420254298796
 20
95.11354271250032
 30
0.0
 10
222.8432419606939
 20
95.11500414561672
 30
0.0
  0
LINE
  5
83
330
1F
100
AcDbEntity
  8
0
  6
Continuous
 62
     7
370
    15
100
AcDbLine
 10
233.9400100419
 20
94.5454873527
 30
0.0
 11
234.6026907572
 21
94.5106707896
 31
0.0
  0
ARC
  5
84
330
1F
100
AcDbEntity
  8
0
  6
Continuous
 62
     7
370
    15
100
AcDbCircle
 10
233.2702901382
 20
95.317661368
 30
0.0
 40
0.478930865457014
100
AcDbArc
 50
328.1633492879
 51
328.440702806
  0
SPLINE
  5
85
330
1F
100
AcDbEntity
  8
0
  6
Continuous
 62
     7
370
    15
100
AcDbSpline
210
0.0
220
0.0
230
1.0
 70
     8
 71
     3
 72
    14
 73
    10
 74
     0
 42
0.00000001
 43
0.00000001
 12
1.0
 22
0.0
 32
0.0
 13
1.0
 23
0.0
 33
0.0
 40
0.0
 40
0.0
 40
0.0
 40
0.0
 40
0.2234982060774592
 40
0.3567642620033535
 40
0.4531228098500845
 40
0.5344612834464086
 40
0.6157337726942133
 40
0.7396149800506124
 40
1.0
 40
1.0
 40
1.0
 40
1.0
 10
234.2677350053087
 20
95.0748604173605
 30
0.0
 10
234.2358960291053
 20
95.1234574474866
 30
0.0
 10
234.1850723153606
 20
95.20103159849563
 30
0.0
 10
234.0935897026889
 20
95.27661490884537
 30
0.0
 10
234.0178223449828
 20
95.3079109945754
 30
0.0
 10
233.9486086099907
 20
95.31030773710478
 30
0.0
 10
233.8753330409847
 20
95.28652860112796
 30
0.0
 10
233.7741572663351
 20
95.2109861843347
 30
0.0
 10
233.7170699319731
 20
95.12515726093454
 30
0.0
 10
233.6783866295114
 20
95.0669981921856
 30
0.0
  0
SPLINE
  5
86
330
1F
100
AcDbEntity
  8
0
  6
Continuous
 62
     7
370
    15
100
AcDbSpline
210
0.0
220
0.0
230
1.0
 70
     8
 71
     3
 72
    14
 73
    10
 74
     0
 42
0.00000001
 43
0.00000001
 12
1.0
 22
0.0
 32
0.0
 13
1.0
 23
0.0
 33
0.0
 40
0.0
 40
0.0
 40
0.0
 40
0.0
 40
0.2210590997237807
 40
0.3460795428398153
 40
0.4396013730371964
 40
0.5338877212007722
 40
0.6146565730717607
 40
0.7517260445506952
 40
0.9999999999999999
 40
0.9999999999999999
 40
0.9999999999999999
 40
0.9999999999999999
 10
233.6771684595838
 20
95.06502565097256
 30
0.0
 10
233.6476776358138
 20
95.01391149456508
 30
0.0
 10
233.6015082140571
 20
94.93388961849556
 30
0.0
 10
233.5716267688054
 20
94.82015891942633
 30
0.0
 10
233.5744274528999
 20
94.73684575474914
 30
0.0
 10
233.6041848153443
 20
94.67162259039311
 30
0.0
 10
233.6628852722538
 20
94.6148741777303
 30
0.0
 10
233.7740513711668
 20
94.56186590038784
 30
0.0
 10
233.8749814982127
 20
94.55190505357288
 30
0.0
 10
233.9400100418821
 20
94.5454873527233
 30
0.0
  0
LINE
  5
87
330
1F
100
AcDbEntity
  8
0
  6
Continuous
 62
     7
370
    15
100
AcDbLine
 10
214.2205155352
 20
106.0861908282
 30
0.0
 11
215.8110319534
 21
103.4071725244
 31
0.0
  0
LINE
  5
88
330
1F
100
AcDbEntity
  8
0
  6
Continuous
 62
     7
370
    15
100
AcDbLine
 10
213.6627278188
 20
106.6927239681
 30
0.0
 11
213.7204083511
 21
106.5787002827
 31
0.0
  0
LINE
  5
89
330
1F
100
AcDbEntity
  8
0
  6
Continuous
 62
     7
370
    15
100
AcDbLine
 10
213.7204083511
 20
106.5787002827
 30
0.0
 11
215.3109247693
 21
103.8996819789
 31
0.0
  0
LWPOLYLINE
  5
8A
330
1F
100
AcDbEntity
  8
0
  6
Continuous
 62
     7
370
    15
100
AcDbPolyline
 90
       38
 70
   128
 43
0.0
 10
214.7978759268
 20
114.7207944105
 10
215.2893050471
 20
115.0525138165
 10
215.8271829495
 20
115.2980481657
 10
216.3960366407
 20
115.4503343078
 10
216.9795009205
 20
115.5049908358
 10
217.5607896307
 20
115.460445677
 10
218.1231818059
 20
115.3179807971
 10
218.6504985103
 20
115.0816940154
 10
219.1275666365
 20
114.7583825896
 10
219.5406640777
 20
114.3573485697
 10
219.8779071578
 20
113.8901282484
 10
220.129595221
 20
113.3701629388
 10
220.2884863028
 20
112.8124110783
 10
220.3500057468
 20
112.232917958
 10
220.3123914906
 20
111.6483547176
 10
220.176716418
 20
111.0755391802
 10
219.9468920836
 20
110.5309483046
 10
219.6295271525
 20
110.0302497308
 10
219.2337485859
 20
109.5878482248
 10
218.7709445962
 20
109.2164703096
 10
218.254429371
 20
108.9268001179
 10
217.699064956
 20
108.7271701927
 10
217.1208216706
 20
108.6233249317
 10
216.5363403866
 20
108.6182510863
 10
215.9624314764
 20
108.7120939429
 10
215.415609152
 20
108.9021545286
 10
214.911601589
 20
109.1829650487
 10
214.4649076173
 20
109.546447211
 10
214.0883813509
 20
109.9821441258
 10
213.7928503463
 20
110.4775220538
 10
213.586819441
 20
111.0183289657
 10
213.476215572
 20
111.5890071179
 10
213.4642201373
 20
112.1731391559
 10
213.5511777261
 20
112.7539212267
 10
213.734586806
 20
113.3146449375
 10
214.009172366
 20
113.83917885
 10
214.3670349279
 20
114.3124336759
 10
214.7978759268
 20
114.7207944105
  0
LWPOLYLINE
  5
8B
330
1F
100
AcDbEntity
  8
0
  6
Continuous
 62
     7
370
    15
100
AcDbPolyline
 90
       29
 70
   128
 43
0.0
 10
215.7004597494
 20
113.5790301869
 10
216.0775876501
 20
113.8192769523
 10
216.4961500922
 20
113.9711393426
 10
216.93515879
 20
114.0270023989
 10
217.3726010033
 20
113.9840656343
 10
217.7865403601
 20
113.8444813351
 10
218.1562214056
 20
113.6152493219
 10
218.4631052324
 20
113.3078639778
 10
218.6918045291
 20
112.9377386915
 10
218.8308509895
 20
112.5234337906
 10
218.8732708701
 20
112.0857233564
 10
218.8169407555
 20
111.6465563337
 10
218.6646844157
 20
111.2279557074
 10
218.4241312453
 20
110.8509097631
 10
218.1073493221
 20
110.5343262116
 10
217.7302214214
 20
110.2940794463
 10
217.3116589793
 20
110.142217056
 10
216.8726502815
 20
110.086353534
 10
216.4352080682
 20
110.1292902986
 10
216.0212687114
 20
110.2688750635
 10
215.6515895286
 20
110.4981070767
 10
215.3447038391
 20
110.8054919551
 10
215.1160045424
 20
111.1756172414
 10
214.976958082
 20
111.589922608
 10
214.9345382014
 20
112.0276330422
 10
214.990868316
 20
112.4667995992
 10
215.1431265184
 20
112.8854011568
 10
215.3836778262
 20
113.2624466355
 10
215.7004597494
 20
113.5790301869
  0
SPLINE
  5
8C
330
1F
100
AcDbEntity
  8
0
  6
Continuous
 62
     7
370
    15
100
AcDbSpline
210
0.0
220
0.0
230
1.0
 70
     8
 71
     3
 72
    11
 73
     7
 74
     0
 42
0.00000001
 43
0.00000001
 12
1.0
 22
0.0
 32
0.0
 13
1.0
 23
0.0
 33
0.0
 40
0.0
 40
0.0
 40
0.0
 40
0.0
 40
0.108109972072263
 40
0.4711582065144064
 40
0.8135812532547241
 40
1.0
 40
1.0
 40
1.0
 40
1.0
 10
217.0848055639759
 20
110.4189567650501
 30
0.0
 10
217.1255955093286
 20
110.4603693178379
 30
0.0
 10
217.303363731148
 20
110.6408509489464
 30
0.0
 10
217.6599448628283
 20
110.9665769157825
 30
0.0
 10
218.0997819005066
 20
111.2895806331798
 30
0.0
 10
218.3477157682566
 20
111.4470179399778
 30
0.0
 10
218.4351134011045
 20
111.5025151903574
 30
0.0
  0
SPLINE
  5
8D
330
1F
100
AcDbEntity
  8
0
  6
Continuous
 62
     7
370
    15
100
AcDbSpline
210
0.0
220
0.0
230
1.0
 70
     8
 71
     3
 72
    11
 73
     7
 74
     0
 42
0.00000001
 43
0.00000001
 12
1.0
 22
0.0
 32
0.0
 13
1.0
 23
0.0
 33
0.0
 40
0.0
 40
0.0
 40
0.0
 40
0.0
 40
0.2164503190503018
 40
0.4403000969777529
 40
0.7518916465136252
 40
1.0
 40
1.0
 40
1.0
 40
1.0
 10
218.4351134011045
 20
111.5025151903574
 30
0.0
 10
218.4101006969344
 20
111.6271274179853
 30
0.0
 10
218.3592202172007
 20
111.880611802531
 30
0.0
 10
218.2844123449827
 20
112.331697497653
 30
0.0
 10
218.2309753116255
 20
112.7891850800846
 30
0.0
 10
218.2148379362188
 20
113.0641638064093
 30
0.0
 10
218.2076844283834
 20
113.1860586265866
 30
0.0
  0
SPLINE
  5
8E
330
1F
100
AcDbEntity
  8
0
  6
Continuous
 62
     7
370
    15
100
AcDbSpline
210
0.0
220
0.0
230
1.0
 70
     8
 71
     3
 72
    11
 73
     7
 74
     0
 42
0.00000001
 43
0.00000001
 12
1.0
 22
0.0
 32
0.0
 13
1.0
 23
0.0
 33
0.0
 40
0.0
 40
0.0
 40
0.0
 40
0.0
 40
0.2164506247217372
 40
0.4402998824695343
 40
0.7518913484743266
 40
1.0
 40
1.0
 40
1.0
 40
1.0
 10
218.2076844283834
 20
113.1860586265866
 30
0.0
 10
218.0901761744536
 20
113.2364476554405
 30
0.0
 10
217.8511430440987
 20
113.3389480917901
 30
0.0
 10
217.4271737176733
 20
113.5098471587087
 30
0.0
 10
216.999181493707
 20
113.6667748028914
 30
0.0
 10
216.7433520279104
 20
113.7494116636313
 30
0.0
 10
216.6299457558885
 20
113.7860436375086
 30
0.0
  0
SPLINE
  5
8F
330
1F
100
AcDbEntity
  8
0
  6
Continuous
 62
     7
370
    15
100
AcDbSpline
210
0.0
220
0.0
230
1.0
 70
     8
 71
     3
 72
    11
 73
     7
 74
     0
 42
0.00000001
 43
0.00000001
 12
1.0
 22
0.0
 32
0.0
 13
1.0
 23
0.0
 33
0.0
 40
0.0
 40
0.0
 40
0.0
 40
0.0
 40
0.1864191246617042
 40
0.5288424235913829
 40
0.8918900494846371
 40
0.9999999999999999
 40
0.9999999999999999
 40
0.9999999999999999
 40
0.9999999999999999
 10
216.6299457558885
 20
113.7860436375086
 30
0.0
 10
216.5425481567799
 20
113.7305462132962
 30
0.0
 10
216.2946145919562
 20
113.573108544941
 30
0.0
 10
215.8547772410884
 20
113.250105448759
 30
0.0
 10
215.4981978393936
 20
112.9243791660546
 30
0.0
 10
215.320429744135
 20
112.7438977603863
 30
0.0
 10
215.2796397814051
 20
112.7024852122013
 30
0.0
  0
SPLINE
  5
90
330
1F
100
AcDbEntity
  8
0
  6
Continuous
 62
     7
370
    15
100
AcDbSpline
210
0.0
220
0.0
230
1.0
 70
     8
 71
     3
 72
    11
 73
     7
 74
     0
 42
0.00000001
 43
0.00000001
 12
1.0
 22
0.0
 32
0.0
 13
1.0
 23
0.0
 33
0.0
 40
0.0
 40
0.0
 40
0.0
 40
0.0
 40
0.2164501494155108
 40
0.4402998837530736
 40
0.7518914388137827
 40
1.0
 40
1.0
 40
1.0
 40
1.0
 10
215.2796397814051
 20
112.7024852122013
 30
0.0
 10
215.2857846560808
 20
112.5964543078444
 30
0.0
 10
215.2982844746891
 20
112.3807677167812
 30
0.0
 10
215.34109702485
 20
111.9611879776687
 30
0.0
 10
215.4138244254852
 20
111.484707532356
 30
0.0
 10
215.4784298983374
 20
111.1619960348511
 30
0.0
 10
215.5070687541262
 20
111.0189417759721
 30
0.0
  0
SPLINE
  5
91
330
1F
100
AcDbEntity
  8
0
  6
Continuous
 62
     7
370
    15
100
AcDbSpline
210
0.0
220
0.0
230
1.0
 70
     8
 71
     3
 72
    11
 73
     7
 74
     0
 42
0.00000001
 43
0.00000001
 12
1.0
 22
0.0
 32
0.0
 13
1.0
 23
0.0
 33
0.0
 40
0.0
 40
0.0
 40
0.0
 40
0.0
 40
0.2164498462791425
 40
0.4403003692880745
 40
0.7518914252689157
 40
1.0
 40
1.0
 40
1.0
 40
1.0
 10
215.5070687541262
 20
111.0189417759721
 30
0.0
 10
215.6057082803534
 20
110.9871336969531
 30
0.0
 10
215.8063599350939
 20
110.9224299830021
 30
0.0
 10
216.1983383459529
 20
110.7830397833798
 30
0.0
 10
216.6456154747188
 20
110.6071162083786
 30
0.0
 10
216.9499136102332
 20
110.4767476750605
 30
0.0
 10
217.0848055639759
 20
110.4189567650501
 30
0.0
  0
LINE
  5
92
330
1F
100
AcDbEntity
  8
0
  6
Continuous
 62
     7
370
    15
100
AcDbLine
 10
215.4255389133
 20
111.44171659
 30
0.0
 11
215.6478735515
 21
111.3571674014
 31
0.0
  0
LINE
  5
93
330
1F
100
AcDbEntity
  8
0
  6
Continuous
 62
     7
370
    15
100
AcDbLine
 10
215.6478735515
 20
111.3571674014
 30
0.0
 11
216.4367428878
 21
111.0571744303
 31
0.0
  0
LINE
  5
94
330
1F
100
AcDbEntity
  8
0
  6
Continuous
 62
     7
370
    15
100
AcDbLine
 10
216.4367428878
 20
111.0571744303
 30
0.0
 11
217.084805564
 21
110.4189567651
 31
0.0
  0
LINE
  5
95
330
1F
100
AcDbEntity
  8
0
  6
Continuous
 62
     7
370
    15
100
AcDbLine
 10
217.7870488623
 20
112.1407333213
 30
0.0
 11
218.4351134011
 21
111.5025151904
 31
0.0
  0
LINE
  5
96
330
1F
100
AcDbEntity
  8
0
  6
Continuous
 62
     7
370
    15
100
AcDbLine
 10
217.7870488623
 20
112.1407333213
 30
0.0
 11
217.6733343759
 21
112.982505505
 31
0.0
  0
LINE
  5
97
330
1F
100
AcDbEntity
  8
0
  6
Continuous
 62
     7
370
    15
100
AcDbLine
 10
217.6733343759
 20
112.982505505
 30
0.0
 11
217.6124221542
 21
113.4334104518
 31
0.0
  0
LINE
  5
98
330
1F
100
AcDbEntity
  8
0
  6
Continuous
 62
     7
370
    15
100
AcDbLine
 10
216.4367428878
 20
111.0571744303
 30
0.0
 11
217.111895875
 21
111.5989545743
 31
0.0
  0
LINE
  5
99
330
1F
100
AcDbEntity
  8
0
  6
Continuous
 62
     7
370
    15
100
AcDbLine
 10
217.111895875
 20
111.5989545743
 30
0.0
 11
217.7870488623
 21
112.1407333213
 31
0.0
  0
ARC
  5
9A
330
1F
100
AcDbEntity
  8
0
  6
Continuous
 62
     7
370
    15
100
AcDbCircle
 10
216.2490039999
 20
112.791503576
 30
0.0
 40
1.437079941045245
100
AcDbArc
 50
7.6377679101
 51
29.6687505883
  0
ARC
  5
9B
330
1F
100
AcDbEntity
  8
0
  6
Continuous
 62
     7
370
    15
100
AcDbCircle
 10
216.1652068973
 20
112.7888065617
 30
0.0
 40
1.52051562717013
100
AcDbArc
 50
308.5070178003
 51
7.3188136868
  0
ARC
  5
9C
330
1F
100
AcDbEntity
  8
0
  6
Continuous
 62
     7
370
    15
100
AcDbCircle
 10
216.1683742344
 20
112.7587578051
 30
0.0
 40
1.495117594215843
100
AcDbArc
 50
249.6267993234
 51
309.1289997375
  0
LWPOLYLINE
  5
9D
330
1F
100
AcDbEntity
  8
0
  6
Continuous
 62
     7
370
    15
100
AcDbPolyline
 90
        3
 70
   128
 43
0.0
 10
215.6478735515
 20
111.3571674014
 10
215.474330903
 20
111.4368252839
 10
215.3990763137
 20
111.4807287614
  0
ELLIPSE
  5
9E
330
1F
100
AcDbEntity
  8
0
  6
Continuous
 62
     7
370
    15
100
AcDbEllipse
 10
225.3254736262
 20
100.3952349967
 30
0.0
 11
1.63644140715067
 21
1.686705215780748
 31
0.0
210
0.0
220
0.0
230
1.0
 40
0.9711043057
 41
4.542334012156827
 42
6.227598874008667
  0
ELLIPSE
  5
9F
330
1F
100
AcDbEntity
  8
0
  6
Continuous
 62
     7
370
    15
100
AcDbEllipse
 10
225.3254736262
 20
100.3952349967
 30
0.0
 11
1.63644140715067
 21
1.686705215780748
 31
0.0
210
0.0
220
0.0
230
1.0
 40
0.9711043057
 41
2.888309246875238
 42
4.542334012156844
  0
ELLIPSE
  5
A0
330
1F
100
AcDbEntity
  8
0
  6
Continuous
 62
     7
370
    15
100
AcDbEllipse
 10
209.5397001137
 20
119.8923811699
 30
0.0
 11
0.9999649288125453
 21
19.99826732264188
 31
0.0
210
0.0
220
0.0
230
1.0
 40
0.263265937
 41
0.7209041361165256
 42
2.796080798520974
  0
ELLIPSE
  5
A1
330
1F
100
AcDbEntity
  8
0
  6
Continuous
 62
     7
370
    15
100
AcDbEllipse
 10
205.9966261017
 20
111.20335696
 30
0.0
 11
-0.07015558194842697
 21
2.493831804543632
 31
0.0
210
0.0
220
0.0
230
1.0
 40
0.2406917832
 41
0.0
 42
6.283185307179586
  0
ELLIPSE
  5
A2
330
1F
100
AcDbEntity
  8
0
  6
Continuous
 62
     7
370
    15
100
AcDbEllipse
 10
261.8098229574
 20
119.8923811699
 30
0.0
 11
113.4239353356013
 21
3.580780956114709
 31
0.0
210
0.0
220
0.0
230
1.0
 40
0.1734804855
 41
2.047825119310966
 42
2.065129939766492
  0
SPLINE
  5
A3
330
1F
100
AcDbEntity
  8
0
  6
Continuous
 62
     7
370
    15
100
AcDbSpline
210
0.0
220
0.0
230
1.0
 70
     8
 71
     3
 72
    10
 73
     6
 74
     0
 42
0.00000001
 43
0.00000001
 12
1.0
 22
0.0
 32
0.0
 13
1.0
 23
0.0
 33
0.0
 40
0.0
 40
0.0
 40
0.0
 40
0.0
 40
0.5
 40
0.5
 40
1.0
 40
1.0
 40
1.0
 40
1.0
 10
207.4495581566744
 20
135.5147249389798
 30
0.0
 10
207.2890894291855
 20
135.4945956572491
 30
0.0
 10
207.14562878728
 20
135.4403597179519
 30
0.0
 10
206.9262029684732
 20
135.288033744416
 30
0.0
 10
206.8524318510736
 20
135.1924170228441
 30
0.0
 10
206.8157360377766
 20
135.0890308445338
 30
0.0
  0
SPLINE
  5
A4
330
1F
100
AcDbEntity
  8
0
  6
Continuous
 62
     7
370
    15
100
AcDbSpline
210
0.0
220
0.0
230
1.0
 70
     8
 71
     3
 72
    12
 73
     8
 74
     0
 42
0.00000001
 43
0.00000001
 12
1.0
 22
0.0
 32
0.0
 13
1.0
 23
0.0
 33
0.0
 40
0.0
 40
0.0
 40
0.0
 40
0.0
 40
0.2500000000000007
 40
0.2500000000000007
 40
0.5000000000000014
 40
0.5000000000000014
 40
1.0
 40
1.0
 40
1.0
 40
1.0
 10
206.8157360377767
 20
101.1651263569452
 30
0.0
 10
206.8341105118386
 20
101.1371740809629
 30
0.0
 10
206.8613245955222
 20
101.1109390435023
 30
0.0
 10
206.9345054780769
 20
101.0618160148017
 30
0.0
 10
206.9808993773091
 20
101.0389752367846
 30
0.0
 10
207.1431952849506
 20
100.9799478547952
 30
0.0
 10
207.2886826585369
 20
100.9514675072234
 30
0.0
 10
207.4495581566744
 20
100.9411388483156
 30
0.0
  0
ELLIPSE
  5
A5
330
1F
100
AcDbEntity
  8
0
  6
Continuous
 62
     7
370
    15
100
AcDbEllipse
 10
261.8098229574
 20
119.8923811699
 30
0.0
 11
113.4239353356013
 21
3.580780956114709
 31
0.0
210
0.0
220
0.0
230
1.0
 40
0.1734804855
 41
4.207101957865952
 42
4.224406778321474
  0
SPLINE
  5
A6
330
1F
100
AcDbEntity
  8
0
  6
Continuous
 62
     7
370
    15
100
AcDbSpline
210
0.0
220
0.0
230
1.0
 70
     8
 71
     3
 72
    12
 73
     8
 74
     0
 42
0.00000001
 43
0.00000001
 12
1.0
 22
0.0
 32
0.0
 13
1.0
 23
0.0
 33
0.0
 40
0.0
 40
0.0
 40
0.0
 40
0.0
 40
0.4999999999999987
 40
0.4999999999999987
 40
0.7499999999999993
 40
0.7499999999999993
 40
1.0
 40
1.0
 40
1.0
 40
1.0
 10
193.6197391518929
 20
100.8576248867277
 30
0.0
 10
193.6385423847446
 20
100.8357028884666
 30
0.0
 10
193.6640790437638
 20
100.8148090804567
 30
0.0
 10
193.7243052177122
 20
100.7870823543389
 30
0.0
 10
193.7482312951122
 20
100.7785092209635
 30
0.0
 10
193.8062922152935
 20
100.7653301151559
 30
0.0
 10
193.8420939139195
 20
100.7607247896763
 30
0.0
 10
193.8795467730282
 20
100.7607247896763
 30
0.0
  0
LINE
  5
A7
330
1F
100
AcDbEntity
  8
0
  6
Continuous
 62
     7
370
    15
100
AcDbLine
 10
193.8795466804
 20
100.7607244338
 30
0.0
 11
196.0157426903
 21
100.7607244338
 31
0.0
  0
SPLINE
  5
A8
330
1F
100
AcDbEntity
  8
0
  6
Continuous
 62
     7
370
    15
100
AcDbSpline
210
0.0
220
0.0
230
1.0
 70
     8
 71
     3
 72
    12
 73
     8
 74
     0
 42
0.00000001
 43
0.00000001
 12
1.0
 22
0.0
 32
0.0
 13
1.0
 23
0.0
 33
0.0
 40
0.0
 40
0.0
 40
0.0
 40
0.0
 40
0.2500000000000012
 40
0.2500000000000012
 40
0.5000000000000023
 40
0.5000000000000023
 40
1.0
 40
1.0
 40
1.0
 40
1.0
 10
196.0157427690298
 20
100.7607247896763
 30
0.0
 10
196.0532435919076
 20
100.7607247896763
 30
0.0
 10
196.0885219959436
 20
100.7652257575394
 30
0.0
 10
196.147439715996
 20
100.7785922787567
 30
0.0
 10
196.1709630973944
 20
100.7870735390016
 30
0.0
 10
196.2312186818604
 20
100.8148109346795
 30
0.0
 10
196.2567403342714
 20
100.8356949337326
 30
0.0
 10
196.2755503901652
 20
100.8576248867277
 30
0.0
  0
ELLIPSE
  5
A9
330
1F
100
AcDbEntity
  8
0
  6
Continuous
 62
     7
370
    15
100
AcDbEllipse
 10
185.9987155986
 20
119.8923811699
 30
0.0
 11
-9.367417879781781
 21
19.74174915274992
 31
0.0
210
0.0
220
0.0
230
1.0
 40
0.3419987131
 41
3.292664382516891
 42
4.239566697060996
  0
SPLINE
  5
AA
330
1F
100
AcDbEntity
  8
0
  6
Continuous
 62
     7
370
    15
100
AcDbSpline
210
0.0
220
0.0
230
1.0
 70
     8
 71
     3
 72
    12
 73
     8
 74
     0
 42
0.00000001
 43
0.00000001
 12
1.0
 22
0.0
 32
0.0
 13
1.0
 23
0.0
 33
0.0
 40
0.0
 40
0.0
 40
0.0
 40
0.0
 40
0.5
 40
0.5
 40
0.75
 40
0.75
 40
1.0
 40
1.0
 40
1.0
 40
1.0
 10
196.2755503901652
 20
113.7541360428504
 30
0.0
 10
196.2567471573135
 20
113.8221163671129
 30
0.0
 10
196.2312104982943
 20
113.8882067549097
 30
0.0
 10
196.1709843243459
 20
113.9772713673569
 30
0.0
 10
196.1470582469459
 20
114.0050724543768
 30
0.0
 10
196.0889973267646
 20
114.0480315276017
 30
0.0
 10
196.0531956281386
 20
114.0631681742579
 30
0.0
 10
196.0157427690299
 20
114.0631681742579
 30
0.0
  0
LINE
  5
AB
330
1F
100
AcDbEntity
  8
0
  6
Continuous
 62
     7
370
    15
100
AcDbLine
 10
196.0157426903
 20
114.0631679828
 30
0.0
 11
193.8795466804
 21
114.0631679828
 31
0.0
  0
SPLINE
  5
AC
330
1F
100
AcDbEntity
  8
0
  6
Continuous
 62
     7
370
    15
100
AcDbSpline
210
0.0
220
0.0
230
1.0
 70
     8
 71
     3
 72
    12
 73
     8
 74
     0
 42
0.00000001
 43
0.00000001
 12
1.0
 22
0.0
 32
0.0
 13
1.0
 23
0.0
 33
0.0
 40
0.0
 40
0.0
 40
0.0
 40
0.0
 40
0.2499999999999992
 40
0.2499999999999992
 40
0.4999999999999984
 40
0.4999999999999984
 40
1.0
 40
1.0
 40
1.0
 40
1.0
 10
193.8795467730282
 20
114.0631681742579
 30
0.0
 10
193.8420459501505
 20
114.0631681742579
 30
0.0
 10
193.8067675461145
 20
114.0483718365048
 30
0.0
 10
193.7478498260622
 20
114.0048015753457
 30
0.0
 10
193.7243264446637
 20
113.9772997768441
 30
0.0
 10
193.6640708601978
 20
113.8882006136011
 30
0.0
 10
193.6385492077867
 20
113.8221410348187
 30
0.0
 10
193.6197391518929
 20
113.7541360428505
 30
0.0
  0
ELLIPSE
  5
AD
330
1F
100
AcDbEntity
  8
0
  6
Continuous
 62
     7
370
    15
100
AcDbEllipse
 10
203.8965739435
 20
119.8923811699
 30
0.0
 11
9.367417879781669
 21
19.74174915274995
 31
0.0
210
0.0
220
0.0
230
1.0
 40
0.3419987131
 41
2.043618610118599
 42
2.990520924662729
  0
SPLINE
  5
AE
330
1F
100
AcDbEntity
  8
0
  6
Continuous
 62
     7
370
    15
100
AcDbSpline
210
0.0
220
0.0
230
1.0
 70
     8
 71
     3
 72
    12
 73
     8
 74
     0
 42
0.00000001
 43
0.00000001
 12
1.0
 22
0.0
 32
0.0
 13
1.0
 23
0.0
 33
0.0
 40
0.0
 40
0.0
 40
0.0
 40
0.0
 40
0.4999999999999971
 40
0.4999999999999971
 40
0.7499999999999986
 40
0.7499999999999986
 40
1.0
 40
1.0
 40
1.0
 40
1.0
 10
193.6197391518929
 20
126.0306262969685
 30
0.0
 10
193.6384323850233
 20
125.9630436605282
 30
0.0
 10
193.6640876824351
 20
125.8965610910507
 30
0.0
 10
193.7242483051216
 20
125.8075660081532
 30
0.0
 10
193.7483206168759
 20
125.7795641111541
 30
0.0
 10
193.8067021372264
 20
125.7364877104889
 30
0.0
 10
193.8421709648795
 20
125.7215941655612
 30
0.0
 10
193.8795467730282
 20
125.7215941655611
 30
0.0
  0
LINE
  5
AF
330
1F
100
AcDbEntity
  8
0
  6
Continuous
 62
     7
370
    15
100
AcDbLine
 10
193.8795466804
 20
125.721594357
 30
0.0
 11
196.0157426903
 21
125.721594357
 31
0.0
  0
SPLINE
  5
B0
330
1F
100
AcDbEntity
  8
0
  6
Continuous
 62
     7
370
    15
100
AcDbSpline
210
0.0
220
0.0
230
1.0
 70
     8
 71
     3
 72
    12
 73
     8
 74
     0
 42
0.00000001
 43
0.00000001
 12
1.0
 22
0.0
 32
0.0
 13
1.0
 23
0.0
 33
0.0
 40
0.0
 40
0.0
 40
0.0
 40
0.0
 40
0.2500000000000027
 40
0.2500000000000027
 40
0.5000000000000053
 40
0.5000000000000053
 40
1.0
 40
1.0
 40
1.0
 40
1.0
 10
196.0157427690298
 20
125.7215941655611
 30
0.0
 10
196.0532546550745
 20
125.7215941655611
 30
0.0
 10
196.0885420027793
 20
125.7363989798479
 30
0.0
 10
196.1474718510177
 20
125.7799908529738
 30
0.0
 10
196.1709975774868
 20
125.8075042790598
 30
0.0
 10
196.2312563652548
 20
125.8966360111733
 30
0.0
 10
196.2568511275441
 20
125.9630218617912
 30
0.0
 10
196.2755503901652
 20
126.0306262969685
 30
0.0
  0
ELLIPSE
  5
B1
330
1F
100
AcDbEntity
  8
0
  6
Continuous
 62
     7
370
    15
100
AcDbEllipse
 10
185.9987155986
 20
119.8923811699
 30
0.0
 11
9.367417879781698
 21
19.74174915274992
 31
0.0
210
0.0
220
0.0
230
1.0
 40
0.3419987131
 41
5.185211263708392
 42
6.132113578252552
  0
SPLINE
  5
B2
330
1F
100
AcDbEntity
  8
0
  6
Continuous
 62
     7
370
    15
100
AcDbSpline
210
0.0
220
0.0
230
1.0
 70
     8
 71
     3
 72
    12
 73
     8
 74
     0
 42
0.00000001
 43
0.00000001
 12
1.0
 22
0.0
 32
0.0
 13
1.0
 23
0.0
 33
0.0
 40
0.0
 40
0.0
 40
0.0
 40
0.0
 40
0.4999999999999944
 40
0.4999999999999944
 40
0.7499999999999972
 40
0.7499999999999972
 40
1.0
 40
1.0
 40
1.0
 40
1.0
 10
196.2755503901652
 20
138.9271374530915
 30
0.0
 10
196.2568571570348
 20
138.9489312067195
 30
0.0
 10
196.231201859623
 20
138.9699513684291
 30
0.0
 10
196.1710412369365
 20
138.9976567143928
 30
0.0
 10
196.1469689251822
 20
139.0062919305862
 30
0.0
 10
196.0885874048317
 20
139.0195065758128
 30
0.0
 10
196.0531185771786
 20
139.0240375501429
 30
0.0
 10
196.0157427690299
 20
139.0240375501429
 30
0.0
  0
LINE
  5
B3
330
1F
100
AcDbEntity
  8
0
  6
Continuous
 62
     7
370
    15
100
AcDbLine
 10
196.0157426903
 20
139.024037906
 30
0.0
 11
193.8795466804
 21
139.024037906
 31
0.0
  0
SPLINE
  5
B4
330
1F
100
AcDbEntity
  8
0
  6
Continuous
 62
     7
370
    15
100
AcDbSpline
210
0.0
220
0.0
230
1.0
 70
     8
 71
     3
 72
    12
 73
     8
 74
     0
 42
0.00000001
 43
0.00000001
 12
1.0
 22
0.0
 32
0.0
 13
1.0
 23
0.0
 33
0.0
 40
0.0
 40
0.0
 40
0.0
 40
0.0
 40
0.249999999999998
 40
0.249999999999998
 40
0.499999999999996
 40
0.499999999999996
 40
1.0
 40
1.0
 40
1.0
 40
1.0
 10
193.8795467730282
 20
139.0240375501429
 30
0.0
 10
193.8420348869836
 20
139.0240375501429
 30
0.0
 10
193.8067475392788
 20
139.0195340058804
 30
0.0
 10
193.7478176910404
 20
139.0061608064271
 30
0.0
 10
193.7242919645713
 20
138.997675903856
 30
0.0
 10
193.6640331768033
 20
138.9699281000214
 30
0.0
 10
193.638438414514
 20
138.948938236281
 30
0.0
 10
193.6197391518929
 20
138.9271374530915
 30
0.0
  0
ELLIPSE
  5
B5
330
1F
100
AcDbEntity
  8
0
  6
Continuous
 62
     7
370
    15
100
AcDbEllipse
 10
203.8965739435
 20
119.8923811699
 30
0.0
 11
-9.367417879781556
 21
19.74174915274995
 31
0.0
210
0.0
220
0.0
230
1.0
 40
0.3419987131
 41
0.1510717289270799
 42
1.09797404347121
  0
LINE
  5
B6
330
1F
100
AcDbEntity
  8
0
  6
Continuous
 62
     7
370
    15
100
AcDbLine
 10
186.947644771
 20
100.1923811073
 30
0.0
 11
186.947644771
 21
139.5923812325
 31
0.0
  0
SPLINE
  5
B7
330
1F
100
AcDbEntity
  8
0
  6
Continuous
 62
     7
370
    15
100
AcDbSpline
210
0.0
220
0.0
230
1.0
 70
     8
 71
     3
 72
    18
 73
    14
 74
     0
 42
0.00000001
 43
0.00000001
 12
1.0
 22
0.0
 32
0.0
 13
1.0
 23
0.0
 33
0.0
 40
0.0
 40
0.0
 40
0.0
 40
0.0
 40
0.2500000000000003
 40
0.2500000000000003
 40
0.5000000000000007
 40
0.5000000000000007
 40
0.6250000000000004
 40
0.6250000000000004
 40
0.7500000000000003
 40
0.7500000000000003
 40
0.8750000000000001
 40
0.8750000000000001
 40
1.0
 40
1.0
 40
1.0
 40
1.0
 10
185.6915604534651
 20
106.0611927872308
 30
0.0
 10
185.7258572729168
 20
106.0603311317489
 30
0.0
 10
185.763668552894
 20
106.0605827348439
 30
0.0
 10
185.850240920074
 20
106.0629812474557
 30
0.0
 10
185.8985800501569
 20
106.0651522321876
 30
0.0
 10
185.9878524074793
 20
106.0692471104829
 30
0.0
 10
186.0203938732553
 20
106.0707517284325
 30
0.0
 10
186.0965700731087
 20
106.0737147864006
 30
0.0
 10
186.1397861331033
 20
106.0752021246564
 30
0.0
 10
186.2454754350692
 20
106.0768275359801
 30
0.0
 10
186.3104464937838
 20
106.0767852949062
 30
0.0
 10
186.4441068821416
 20
106.0727631215852
 30
0.0
 10
186.5034133354779
 20
106.0692218947617
 30
0.0
 10
186.5526678821538
 20
106.0656551873256
 30
0.0
  0
SPLINE
  5
B8
330
1F
100
AcDbEntity
  8
0
  6
Continuous
 62
     7
370
    15
100
AcDbSpline
210
0.0
220
0.0
230
1.0
 70
     8
 71
     3
 72
    14
 73
    10
 74
     0
 42
0.00000001
 43
0.00000001
 12
1.0
 22
0.0
 32
0.0
 13
1.0
 23
0.0
 33
0.0
 40
0.0
 40
0.0
 40
0.0
 40
0.0
 40
0.1249999999999999
 40
0.1249999999999999
 40
0.2499999999999998
 40
0.2499999999999998
 40
0.4999999999999976
 40
0.4999999999999976
 40
1.0
 40
1.0
 40
1.0
 40
1.0
 10
186.552667882123
 20
106.0656551873445
 30
0.0
 10
186.5641946598404
 20
106.0648204899105
 30
0.0
 10
186.5775474674927
 20
106.0630800756303
 30
0.0
 10
186.607690040093
 20
106.05583248563
 30
0.0
 10
186.6227505657074
 20
106.0504854514021
 30
0.0
 10
186.6580969196357
 20
106.0347381811737
 30
0.0
 10
186.6718290193647
 20
106.0248999070124
 30
0.0
 10
186.7052002650558
 20
105.9986959210619
 30
0.0
 10
186.7161406329097
 20
105.9846080196614
 30
0.0
 10
186.7247937579231
 20
105.971834396173
 30
0.0
  0
LINE
  5
B9
330
1F
100
AcDbEntity
  8
0
  6
Continuous
 62
     7
370
    15
100
AcDbLine
 10
186.7476447761
 20
114.3869362223
 30
0.0
 11
186.7476447761
 21
105.8025611947
 31
0.0
  0
SPLINE
  5
BA
330
1F
100
AcDbEntity
  8
0
  6
Continuous
 62
     7
370
    15
100
AcDbSpline
210
0.0
220
0.0
230
1.0
 70
     8
 71
     3
 72
    16
 73
    12
 74
     0
 42
0.00000001
 43
0.00000001
 12
1.0
 22
0.0
 32
0.0
 13
1.0
 23
0.0
 33
0.0
 40
0.0
 40
0.0
 40
0.0
 40
0.0
 40
0.4999999999999973
 40
0.4999999999999973
 40
0.749999999999996
 40
0.749999999999996
 40
0.8749999999999969
 40
0.8749999999999969
 40
0.9374999999999984
 40
0.9374999999999984
 40
1.0
 40
1.0
 40
1.0
 40
1.0
 10
186.7476447710291
 20
114.3869364029467
 30
0.0
 10
186.7476447710291
 20
114.5045117839662
 30
0.0
 10
186.7437613458701
 20
114.6232075370674
 30
0.0
 10
186.7189460205955
 20
114.8039650150599
 30
0.0
 10
186.708106572883
 20
114.8656090918329
 30
0.0
 10
186.6748907908342
 20
114.9549460661741
 30
0.0
 10
186.6615090472054
 20
114.9852055975993
 30
0.0
 10
186.6259993973431
 20
115.0187218415867
 30
0.0
 10
186.6105824308424
 20
115.0268601873927
 30
0.0
 10
186.5788814086938
 20
115.0268447779614
 30
0.0
 10
186.564735123743
 20
115.0198025406056
 30
0.0
 10
186.5526678821533
 20
115.0106614769959
 30
0.0
  0
SPLINE
  5
BB
330
1F
100
AcDbEntity
  8
0
  6
Continuous
 62
     7
370
    15
100
AcDbSpline
210
0.0
220
0.0
230
1.0
 70
     8
 71
     3
 72
    18
 73
    14
 74
     0
 42
0.00000001
 43
0.00000001
 12
1.0
 22
0.0
 32
0.0
 13
1.0
 23
0.0
 33
0.0
 40
0.0
 40
0.0
 40
0.0
 40
0.0
 40
0.1249999999999997
 40
0.1249999999999997
 40
0.2499999999999994
 40
0.2499999999999994
 40
0.3749999999999991
 40
0.3749999999999991
 40
0.4999999999999988
 40
0.4999999999999988
 40
0.7499999999999993
 40
0.7499999999999993
 40
1.0
 40
1.0
 40
1.0
 40
1.0
 10
186.5526678821595
 20
115.0106614769888
 30
0.0
 10
186.5039632984715
 20
114.9737672377982
 30
0.0
 10
186.445454815696
 20
114.9442359333722
 30
0.0
 10
186.3137280004262
 20
114.9349999600934
 30
0.0
 10
186.2489699289287
 20
114.9580631346503
 30
0.0
 10
186.143759326778
 20
115.0255812562978
 30
0.0
 10
186.1005431782578
 20
115.0685923529483
 30
0.0
 10
186.0243648621739
 20
115.1588343749444
 30
0.0
 10
185.9915100298827
 20
115.2064652564197
 30
0.0
 10
185.9011421239217
 20
115.3535295557693
 30
0.0
 10
185.8517194660821
 20
115.4574428810738
 30
0.0
 10
185.7640683404905
 20
115.6685768447142
 30
0.0
 10
185.7260067930999
 20
115.776299589473
 30
0.0
 10
185.6915604534661
 20
115.8856327053824
 30
0.0
  0
SPLINE
  5
BC
330
1F
100
AcDbEntity
  8
0
  6
Continuous
 62
     7
370
    15
100
AcDbSpline
210
0.0
220
0.0
230
1.0
 70
     8
 71
     3
 72
     8
 73
     4
 74
     0
 42
0.00000001
 43
0.00000001
 12
1.0
 22
0.0
 32
0.0
 13
1.0
 23
0.0
 33
0.0
 40
0.0
 40
0.0
 40
0.0
 40
0.0
 40
1.0
 40
1.0
 40
1.0
 40
1.0
 10
185.6263244274693
 20
116.1208364795112
 30
0.0
 10
185.6457506327683
 20
116.0412442079384
 30
0.0
 10
185.6672474571967
 20
115.9628024618057
 30
0.0
 10
185.6915604534661
 20
115.8856327053824
 30
0.0
  0
SPLINE
  5
BD
330
1F
100
AcDbEntity
  8
0
  6
Continuous
 62
     7
370
    15
100
AcDbSpline
210
0.0
220
0.0
230
1.0
 70
     8
 71
     3
 72
     8
 73
     4
 74
     0
 42
0.00000001
 43
0.00000001
 12
1.0
 22
0.0
 32
0.0
 13
1.0
 23
0.0
 33
0.0
 40
0.0
 40
0.0
 40
0.0
 40
0.0
 40
1.0
 40
1.0
 40
1.0
 40
1.0
 10
185.6915604534661
 20
123.8991296344369
 30
0.0
 10
185.6672474571967
 20
123.8219598780136
 30
0.0
 10
185.6457506327683
 20
123.7435181318808
 30
0.0
 10
185.6263244274693
 20
123.6639258603081
 30
0.0
  0
SPLINE
  5
BE
330
1F
100
AcDbEntity
  8
0
  6
Continuous
 62
     7
370
    15
100
AcDbSpline
210
0.0
220
0.0
230
1.0
 70
     8
 71
     3
 72
    18
 73
    14
 74
     0
 42
0.00000001
 43
0.00000001
 12
1.0
 22
0.0
 32
0.0
 13
1.0
 23
0.0
 33
0.0
 40
0.0
 40
0.0
 40
0.0
 40
0.0
 40
0.25
 40
0.25
 40
0.5
 40
0.5
 40
0.625
 40
0.625
 40
0.75
 40
0.75
 40
0.875
 40
0.875
 40
1.0
 40
1.0
 40
1.0
 40
1.0
 10
185.6915604534661
 20
123.8991296344369
 30
0.0
 10
185.7258587724787
 20
124.0079929310299
 30
0.0
 10
185.7636731697907
 20
124.1150003542663
 30
0.0
 10
185.8502612308642
 20
124.3240351784046
 30
0.0
 10
185.8986113365429
 20
124.4262052723941
 30
0.0
 10
185.9879279253427
 20
124.5728860439588
 30
0.0
 10
186.020488280831
 20
124.6206877424944
 30
0.0
 10
186.0967339145599
 20
124.7122432805198
 30
0.0
 10
186.1398932843399
 20
124.7559226725117
 30
0.0
 10
186.245622108358
 20
124.8252768898383
 30
0.0
 10
186.3106192854127
 20
124.8493932035042
 30
0.0
 10
186.4441037753669
 20
124.841188981466
 30
0.0
 10
186.5034311688124
 20
124.811398195874
 30
0.0
 10
186.5526678821538
 20
124.774100862823
 30
0.0
  0
SPLINE
  5
BF
330
1F
100
AcDbEntity
  8
0
  6
Continuous
 62
     7
370
    15
100
AcDbSpline
210
0.0
220
0.0
230
1.0
 70
     8
 71
     3
 72
    16
 73
    12
 74
     0
 42
0.00000001
 43
0.00000001
 12
1.0
 22
0.0
 32
0.0
 13
1.0
 23
0.0
 33
0.0
 40
0.0
 40
0.0
 40
0.0
 40
0.0
 40
0.0624999999999993
 40
0.0624999999999993
 40
0.1249999999999985
 40
0.1249999999999985
 40
0.2499999999999993
 40
0.2499999999999993
 40
0.4999999999999996
 40
0.4999999999999996
 40
1.0
 40
1.0
 40
1.0
 40
1.0
 10
186.552667882123
 20
124.7741008627746
 30
0.0
 10
186.5647377153988
 20
124.7649578359288
 30
0.0
 10
186.5790133703321
 20
124.7579133882376
 30
0.0
 10
186.6104777824565
 20
124.757906316339
 30
0.0
 10
186.6259783072669
 20
124.7660342851359
 30
0.0
 10
186.6614172038739
 20
124.7994427461431
 30
0.0
 10
186.6750098199772
 20
124.8301099126052
 30
0.0
 10
186.70800413837
 20
124.9189309066871
 30
0.0
 10
186.7187915316888
 20
124.9798335522349
 30
0.0
 10
186.7438447789679
 20
125.1618416296133
 30
0.0
 10
186.7476447710292
 20
125.2805303446519
 30
0.0
 10
186.7476447710292
 20
125.3978259368725
 30
0.0
  0
LINE
  5
C0
330
1F
100
AcDbEntity
  8
0
  6
Continuous
 62
     7
370
    15
100
AcDbLine
 10
186.7476447761
 20
133.9822011451
 30
0.0
 11
186.7476447761
 21
125.3978261175
 31
0.0
  0
SPLINE
  5
C1
330
1F
100
AcDbEntity
  8
0
  6
Continuous
 62
     7
370
    15
100
AcDbSpline
210
0.0
220
0.0
230
1.0
 70
     8
 71
     3
 72
    12
 73
     8
 74
     0
 42
0.00000001
 43
0.00000001
 12
1.0
 22
0.0
 32
0.0
 13
1.0
 23
0.0
 33
0.0
 40
0.0
 40
0.0
 40
0.0
 40
0.0
 40
0.5000000000000031
 40
0.5000000000000031
 40
0.7500000000000016
 40
0.7500000000000016
 40
1.0
 40
1.0
 40
1.0
 40
1.0
 10
186.7073054411614
 20
133.7909886727803
 30
0.0
 10
186.6971825890803
 20
133.7800549281426
 30
0.0
 10
186.6848198047342
 20
133.7679896413202
 30
0.0
 10
186.649985201561
 20
133.746640300976
 30
0.0
 10
186.6346279803179
 20
133.7384206247469
 30
0.0
 10
186.5919589381781
 20
133.7240813251174
 30
0.0
 10
186.5695347238183
 20
133.7203285440941
 30
0.0
 10
186.5526678821533
 20
133.7191071524937
 30
0.0
  0
SPLINE
  5
C2
330
1F
100
AcDbEntity
  8
0
  6
Continuous
 62
     7
370
    15
100
AcDbSpline
210
0.0
220
0.0
230
1.0
 70
     8
 71
     3
 72
    18
 73
    14
 74
     0
 42
0.00000001
 43
0.00000001
 12
1.0
 22
0.0
 32
0.0
 13
1.0
 23
0.0
 33
0.0
 40
0.0
 40
0.0
 40
0.0
 40
0.0
 40
0.1250000000000002
 40
0.1250000000000002
 40
0.2500000000000003
 40
0.2500000000000003
 40
0.3750000000000005
 40
0.3750000000000005
 40
0.5000000000000007
 40
0.5000000000000007
 40
0.7500000000000003
 40
0.7500000000000003
 40
1.0
 40
1.0
 40
1.0
 40
1.0
 10
186.5526678821595
 20
133.7191071524935
 30
0.0
 10
186.5039637531427
 20
133.7155803028754
 30
0.0
 10
186.4454560839382
 20
133.7120800296777
 30
0.0
 10
186.3137304213073
 20
133.7080370457898
 30
0.0
 10
186.248972782687
 20
133.7079254711592
 30
0.0
 10
186.1437623660679
 20
133.7094576559207
 30
0.0
 10
186.1005463311277
 20
133.7109128081358
 30
0.0
 10
186.0243681096468
 20
133.7138380696655
 30
0.0
 10
185.9915133419626
 20
133.7153484001738
 30
0.0
 10
185.9011456231208
 20
133.7194903928621
 30
0.0
 10
185.8517232539314
 20
133.7217284778486
 30
0.0
 10
185.7640707918434
 20
133.7241797608951
 30
0.0
 10
185.726008055609
 20
133.7244349962562
 30
0.0
 10
185.6915604534656
 20
133.7235695525882
 30
0.0
  0
SPLINE
  5
C3
330
1F
100
AcDbEntity
  8
0
  6
Continuous
 62
     7
370
    15
100
AcDbSpline
210
0.0
220
0.0
230
1.0
 70
     8
 71
     3
 72
    16
 73
    12
 74
     0
 42
0.00000001
 43
0.00000001
 12
1.0
 22
0.0
 32
0.0
 13
1.0
 23
0.0
 33
0.0
 40
0.0
 40
0.0
 40
0.0
 40
0.0
 40
0.2500000000000001
 40
0.2500000000000001
 40
0.375
 40
0.375
 40
0.5
 40
0.5
 40
0.7500000000000002
 40
0.7500000000000002
 40
1.0
 40
1.0
 40
1.0
 40
1.0
 10
185.2476447710291
 20
122.838579565979
 30
0.0
 10
185.1671079616336
 20
122.3695067391159
 30
0.0
 10
185.1070705528314
 20
121.8891430889359
 30
0.0
 10
185.0463326055841
 20
121.151958809795
 30
0.0
 10
185.0310101245412
 20
120.9034404065679
 30
0.0
 10
185.0104271727633
 20
120.4006569613542
 30
0.0
 10
185.0052276257267
 20
120.1457984083295
 30
0.0
 10
185.0051739151865
 20
119.3895210686088
 30
0.0
 10
185.0253712524556
 20
118.890862869299
 30
0.0
 10
185.1060495595286
 20
117.9044398985547
 30
0.0
 10
185.1670959078699
 20
117.4153258057817
 30
0.0
 10
185.2476447710291
 20
116.9461827738403
 30
0.0
  0
LINE
  5
C4
330
1F
100
AcDbEntity
  8
0
  6
Continuous
 62
     7
370
    15
100
AcDbLine
 10
185.2476447485
 20
116.9461827176
 30
0.0
 11
185.2476447485
 21
115.7911774154
 31
0.0
  0
LINE
  5
C5
330
1F
100
AcDbEntity
  8
0
  6
Continuous
 62
     7
370
    15
100
AcDbLine
 10
164.447643877
 20
123.7323007463
 30
0.0
 11
164.447643877
 21
116.0524615935
 31
0.0
  0
LINE
  5
C6
330
1F
100
AcDbEntity
  8
0
  6
Continuous
 62
     7
370
    15
100
AcDbLine
 10
185.2476447485
 20
123.9935849245
 30
0.0
 11
185.2476447485
 21
122.8385796222
 31
0.0
  0
SPLINE
  5
C7
330
1F
100
AcDbEntity
  8
0
  6
Continuous
 62
     7
370
    15
100
AcDbSpline
210
0.0
220
0.0
230
1.0
 70
     8
 71
     3
 72
     8
 73
     4
 74
     0
 42
0.00000001
 43
0.00000001
 12
1.0
 22
0.0
 32
0.0
 13
1.0
 23
0.0
 33
0.0
 40
0.0
 40
0.0
 40
0.0
 40
0.0
 40
1.0
 40
1.0
 40
1.0
 40
1.0
 10
185.4526047930898
 20
116.9458903655458
 30
0.0
 10
185.5033318758122
 20
116.6625392442266
 30
0.0
 10
185.5612191887992
 20
116.3875830600868
 30
0.0
 10
185.6263244274695
 20
116.1208364795113
 30
0.0
  0
SPLINE
  5
C8
330
1F
100
AcDbEntity
  8
0
  6
Continuous
 62
     7
370
    15
100
AcDbSpline
210
0.0
220
0.0
230
1.0
 70
     8
 71
     3
 72
    24
 73
    20
 74
     0
 42
0.00000001
 43
0.00000001
 12
1.0
 22
0.0
 32
0.0
 13
1.0
 23
0.0
 33
0.0
 40
0.0
 40
0.0
 40
0.0
 40
0.0
 40
0.2500000000000068
 40
0.2500000000000068
 40
0.3750000000000094
 40
0.3750000000000094
 40
0.4375000000000107
 40
0.4375000000000107
 40
0.4687500000000116
 40
0.4687500000000116
 40
0.5000000000000124
 40
0.5000000000000124
 40
0.5625000000000109
 40
0.5625000000000109
 40
0.6250000000000094
 40
0.6250000000000094
 40
0.7500000000000062
 40
0.7500000000000062
 40
1.0
 40
1.0
 40
1.0
 40
1.0
 10
185.2476447710208
 20
116.946182773839
 30
0.0
 10
185.2480478003947
 20
117.0394510664687
 30
0.0
 10
185.2500775401098
 20
117.1332086253176
 30
0.0
 10
185.2593862515296
 20
117.2747985109572
 30
0.0
 10
185.2633122446442
 20
117.3219789295665
 30
0.0
 10
185.2742416045602
 20
117.3925749762519
 30
0.0
 10
185.2783632326546
 20
117.4163548900166
 30
0.0
 10
185.290257753837
 20
117.4498060370638
 30
0.0
 10
185.2955445657907
 20
117.4619609891334
 30
0.0
 10
185.3121124973057
 20
117.4698436281014
 30
0.0
 10
185.320039206073
 20
117.4622800289993
 30
0.0
 10
185.3370315442982
 20
117.4384875977725
 30
0.0
 10
185.3444292450891
 20
117.418299119928
 30
0.0
 10
185.3585316354309
 20
117.3778494953082
 30
0.0
 10
185.3646847927232
 20
117.3569938209108
 30
0.0
 10
185.3819985261842
 20
117.2938687856098
 30
0.0
 10
185.3920035670728
 20
117.2508896737083
 30
0.0
 10
185.4203600233035
 20
117.1211640294194
 30
0.0
 10
185.4369085626498
 20
117.0335663022835
 30
0.0
 10
185.4526047930898
 20
116.9458903655458
 30
0.0
  0
SPLINE
  5
C9
330
1F
100
AcDbEntity
  8
0
  6
Continuous
 62
     7
370
    15
100
AcDbSpline
210
0.0
220
0.0
230
1.0
 70
     8
 71
     3
 72
    24
 73
    20
 74
     0
 42
0.00000001
 43
0.00000001
 12
1.0
 22
0.0
 32
0.0
 13
1.0
 23
0.0
 33
0.0
 40
0.0
 40
0.0
 40
0.0
 40
0.0
 40
0.2500000000000042
 40
0.2500000000000042
 40
0.3750000000000057
 40
0.3750000000000057
 40
0.4375000000000065
 40
0.4375000000000065
 40
0.5000000000000073
 40
0.5000000000000073
 40
0.5312500000000069
 40
0.5312500000000069
 40
0.5625000000000063
 40
0.5625000000000063
 40
0.625000000000006
 40
0.625000000000006
 40
0.7500000000000041
 40
0.7500000000000041
 40
1.0
 40
1.0
 40
1.0
 40
1.0
 10
185.4526047930899
 20
122.8388719742735
 30
0.0
 10
185.4368357481802
 20
122.7507893107826
 30
0.0
 10
185.4202215836196
 20
122.6628444942732
 30
0.0
 10
185.3916894561262
 20
122.5324971270102
 30
0.0
 10
185.3816018225723
 20
122.4892359492082
 30
0.0
 10
185.3641139997234
 20
122.4258001733727
 30
0.0
 10
185.3579041917971
 20
122.404886049829
 30
0.0
 10
185.3436263322147
 20
122.364411258144
 30
0.0
 10
185.3360551698629
 20
122.3439336146847
 30
0.0
 10
185.3186353446887
 20
122.3210872351478
 30
0.0
 10
185.3101512622341
 20
122.3145354381039
 30
0.0
 10
185.2941151886165
 20
122.3251068133302
 30
0.0
 10
185.2892948163386
 20
122.3371978536142
 30
0.0
 10
185.2778879157327
 20
122.3708410968341
 30
0.0
 10
185.2738669540233
 20
122.3942487761309
 30
0.0
 10
185.263112942244
 20
122.464837379192
 30
0.0
 10
185.2592410566213
 20
122.5118024067146
 30
0.0
 10
185.2500730918204
 20
122.6523792713208
 30
0.0
 10
185.2480447573073
 20
122.7460155009403
 30
0.0
 10
185.2476447710291
 20
122.838579565979
 30
0.0
  0
SPLINE
  5
CA
330
1F
100
AcDbEntity
  8
0
  6
Continuous
 62
     7
370
    15
100
AcDbSpline
210
0.0
220
0.0
230
1.0
 70
     8
 71
     3
 72
     8
 73
     4
 74
     0
 42
0.00000001
 43
0.00000001
 12
1.0
 22
0.0
 32
0.0
 13
1.0
 23
0.0
 33
0.0
 40
0.0
 40
0.0
 40
0.0
 40
0.0
 40
1.0
 40
1.0
 40
1.0
 40
1.0
 10
185.6263244274695
 20
123.663925860308
 30
0.0
 10
185.5612191887992
 20
123.3971792797324
 30
0.0
 10
185.5033318758122
 20
123.1222230955927
 30
0.0
 10
185.4526047930898
 20
122.8388719742735
 30
0.0
  0
LINE
  5
CB
330
1F
100
AcDbEntity
  8
0
  6
Continuous
 62
     7
370
    15
100
AcDbLine
 10
162.9476445624
 20
123.2992879032
 30
0.0
 11
162.9476445624
 21
116.4854744366
 31
0.0
  0
LINE
  5
CC
330
1F
100
AcDbEntity
  8
0
  6
Continuous
 62
     7
370
    15
100
AcDbLine
 10
185.4526047492
 20
133.7175658355
 30
0.0
 11
185.6915604686
 21
133.7235691408
 31
0.0
  0
LINE
  5
CD
330
1F
100
AcDbEntity
  8
0
  6
Continuous
 62
     7
370
    15
100
AcDbLine
 10
185.2476447485
 20
105.8722827966
 30
0.0
 11
185.2476447485
 21
115.7911774154
 31
0.0
  0
ARC
  5
CE
330
1F
100
AcDbEntity
  8
0
  6
Continuous
 62
     7
370
    15
100
AcDbCircle
 10
185.447581682
 20
105.8672592742
 30
0.0
 40
0.2000000000000066
100
AcDbArc
 50
88.5608333333
 51
178.5608333333
  0
LINE
  5
CF
330
1F
100
AcDbEntity
  8
0
  6
Continuous
 62
     7
370
    15
100
AcDbLine
 10
164.447643877
 20
106.3948506872
 30
0.0
 11
164.447643877
 21
116.0524615935
 31
0.0
  0
LINE
  5
D0
330
1F
100
AcDbEntity
  8
0
  6
Continuous
 62
     7
370
    15
100
AcDbLine
 10
164.447643877
 20
106.3948506872
 30
0.0
 11
185.2476447485
 21
105.8722827966
 31
0.0
  0
LINE
  5
D1
330
1F
100
AcDbEntity
  8
0
  6
Continuous
 62
     7
370
    15
100
AcDbLine
 10
164.447643877
 20
123.7323007463
 30
0.0
 11
164.447643877
 21
133.3899116526
 31
0.0
  0
LINE
  5
D2
330
1F
100
AcDbEntity
  8
0
  6
Continuous
 62
     7
370
    15
100
AcDbLine
 10
164.447643877
 20
133.3899116526
 30
0.0
 11
185.2476447485
 21
133.9124795432
 31
0.0
  0
LINE
  5
D3
330
1F
100
AcDbEntity
  8
0
  6
Continuous
 62
     7
370
    15
100
AcDbLine
 10
185.2476447485
 20
123.9935849245
 30
0.0
 11
185.2476447485
 21
133.9124795432
 31
0.0
  0
ARC
  5
D4
330
1F
100
AcDbEntity
  8
0
  6
Continuous
 62
     7
370
    15
100
AcDbCircle
 10
185.447581682
 20
133.9175030656
 30
0.0
 40
0.200000000000035
100
AcDbArc
 50
181.4391666667
 51
271.4391666667
  0
LINE
  5
D5
330
1F
100
AcDbEntity
  8
0
  6
Continuous
 62
     7
370
    15
100
AcDbLine
 10
185.4526047492
 20
106.0671965043
 30
0.0
 11
185.6915604686
 21
106.061193199
 31
0.0
  0
LINE
  5
D6
330
1F
100
AcDbEntity
  8
0
  6
Continuous
 62
     7
370
    15
100
AcDbLine
 10
162.9476445624
 20
107.2608763735
 30
0.0
 11
164.447643877
 21
106.3948506872
 31
0.0
  0
LINE
  5
D7
330
1F
100
AcDbEntity
  8
0
  6
Continuous
 62
     7
370
    15
100
AcDbLine
 10
162.9476445624
 20
107.2608763735
 30
0.0
 11
162.9476445624
 21
116.4854744366
 31
0.0
  0
LINE
  5
D8
330
1F
100
AcDbEntity
  8
0
  6
Continuous
 62
     7
370
    15
100
AcDbLine
 10
162.9476445624
 20
132.5238859664
 30
0.0
 11
164.447643877
 21
133.3899116526
 31
0.0
  0
LINE
  5
D9
330
1F
100
AcDbEntity
  8
0
  6
Continuous
 62
     7
370
    15
100
AcDbLine
 10
162.9476445624
 20
123.2992879032
 30
0.0
 11
162.9476445624
 21
132.5238859664
 31
0.0
  0
SPLINE
  5
DA
330
1F
100
AcDbEntity
  8
0
  6
Continuous
 62
     7
370
    15
100
AcDbSpline
210
0.0
220
0.0
230
1.0
 70
     8
 71
     3
 72
     8
 73
     4
 74
     0
 42
0.00000001
 43
0.00000001
 12
1.0
 22
0.0
 32
0.0
 13
1.0
 23
0.0
 33
0.0
 40
0.0
 40
0.0
 40
0.0
 40
0.0
 40
1.0
 40
1.0
 40
1.0
 40
1.0
 10
210.1462436093391
 20
99.96000832702357
 30
0.0
 10
210.4597205765203
 20
98.66054016069201
 30
0.0
 10
210.7802466268029
 20
97.36302570532635
 30
0.0
 10
211.1051251949759
 20
96.06671758585
 30
0.0
  0
SPLINE
  5
DB
330
1F
100
AcDbEntity
  8
0
  6
Continuous
 62
     7
370
    15
100
AcDbSpline
210
0.0
220
0.0
230
1.0
 70
     8
 71
     3
 72
    10
 73
     6
 74
     0
 42
0.00000001
 43
0.00000001
 12
1.0
 22
0.0
 32
0.0
 13
1.0
 23
0.0
 33
0.0
 40
0.0
 40
0.0
 40
0.0
 40
0.0
 40
0.5
 40
0.5
 40
1.0
 40
1.0
 40
1.0
 40
1.0
 10
209.18031778305
 20
100.8333792381112
 30
0.0
 10
209.4165656792197
 20
100.8191245161424
 30
0.0
 10
209.6347372638624
 20
100.7135971331641
 30
0.0
 10
209.9732838122232
 20
100.3955574342534
 30
0.0
 10
210.0911580789244
 20
100.1883565015103
 30
0.0
 10
210.1462436093391
 20
99.96000832702359
 30
0.0
  0
SPLINE
  5
DC
330
1F
100
AcDbEntity
  8
0
  6
Continuous
 62
     7
370
    15
100
AcDbSpline
210
0.0
220
0.0
230
1.0
 70
     8
 71
     3
 72
    14
 73
    10
 74
     0
 42
0.00000001
 43
0.00000001
 12
1.0
 22
0.0
 32
0.0
 13
1.0
 23
0.0
 33
0.0
 40
0.0
 40
0.0
 40
0.0
 40
0.0
 40
0.25
 40
0.25
 40
0.5
 40
0.5
 40
0.75
 40
0.75
 40
1.0
 40
1.0
 40
1.0
 40
1.0
 10
210.0463431868345
 20
136.3845653780521
 30
0.0
 10
210.0047173397679
 20
136.3004006979854
 30
0.0
 10
209.9531293833076
 20
136.2193155124999
 30
0.0
 10
209.8352851836633
 20
136.0728123355644
 30
0.0
 10
209.7687446647348
 20
136.006367239009
 30
0.0
 10
209.6184178362486
 20
135.8888848795711
 30
0.0
 10
209.5380552337707
 20
135.8405401177048
 30
0.0
 10
209.3664131829391
 20
135.7659971655887
 30
0.0
 10
209.2741366885684
 20
135.7398784180221
 30
0.0
 10
209.1803177830502
 20
135.7284723186713
 30
0.0
  0
ELLIPSE
  5
DD
330
1F
100
AcDbEntity
  8
0
  6
Continuous
 62
     7
370
    15
100
AcDbEllipse
 10
261.8098229574
 20
119.8923811699
 30
0.0
 11
116.2595337189914
 21
3.670300480017574
 31
0.0
210
0.0
220
0.0
230
1.0
 40
0.1734804855
 41
1.977246202951197
 42
2.026755257304451
  0
LINE
  5
DE
330
1F
100
AcDbEntity
  8
0
  6
Continuous
 62
     7
370
    15
100
AcDbLine
 10
227.5398756274
 20
119.8077685058
 30
0.0
 11
215.2616559425
 21
136.9669381912
 31
0.0
  0
LINE
  5
DF
330
1F
100
AcDbEntity
  8
0
  6
Continuous
 62
     7
370
    15
100
AcDbLine
 10
227.5398756274
 20
112.9572033333
 30
0.0
 11
227.5398756274
 21
119.8077685058
 31
0.0
  0
ARC
  5
E0
330
1F
100
AcDbEntity
  8
0
  6
Continuous
 62
     7
370
    15
100
AcDbCircle
 10
243.9625088975
 20
112.9343306416
 30
0.0
 40
16.42264919805925
100
AcDbArc
 50
179.920201113
 51
205.4391659207
  0
LINE
  5
E1
330
1F
100
AcDbEntity
  8
0
  6
Continuous
 62
     7
370
    15
100
AcDbLine
 10
213.5295524159
 20
106.6997209946
 30
0.0
 11
229.1321690091
 21
105.8799401308
 31
0.0
  0
ARC
  5
E2
330
1F
100
AcDbEntity
  8
0
  6
Continuous
 62
     7
370
    15
100
AcDbCircle
 10
213.3652732018
 20
104.6329011205
 30
0.0
 40
2.07333838349771
100
AcDbArc
 50
85.4554537119
 51
265.0610246956
  0
LINE
  5
E3
330
1F
100
AcDbEntity
  8
0
  6
Continuous
 62
     7
370
    15
100
AcDbLine
 10
216.8598669478
 20
102.3742724593
 30
0.0
 11
213.1867698291
 21
102.5672611232
 31
0.0
  0
LINE
  5
E4
330
1F
100
AcDbEntity
  8
0
  6
Continuous
 62
     7
370
    15
100
AcDbLine
 10
221.5073081562
 20
94.5462622131
 30
0.0
 11
216.8598669478
 21
102.3742724593
 31
0.0
  0
ELLIPSE
  5
E5
330
1F
100
AcDbEntity
  8
0
  6
Continuous
 62
     7
370
    15
100
AcDbEllipse
 10
252.2863317601
 20
115.8932565897
 30
0.0
 11
126.4960526088442
 21
-11.5677290886925
 31
0.0
210
0.0
220
0.0
230
1.0
 40
0.1944540569
 41
4.398626998017244
 42
4.484421778851785
  0
LWPOLYLINE
  5
E6
330
1F
100
AcDbEntity
  8
0
  6
Continuous
 62
     7
370
    15
100
AcDbPolyline
 90
       38
 70
   128
 43
0.0
 10
220.3491191277
 20
112.0566781993
 10
220.2817323515
 20
111.4738881971
 10
220.1171751031
 20
110.9078647951
 10
219.8601785013
 20
110.3748903061
 10
219.518133522
 20
109.8902980248
 10
219.1008823821
 20
109.4680279876
 10
218.620427967
 20
109.1202292974
 10
218.0905929664
 20
108.8569062213
 10
217.5266194054
 20
108.6856350685
 10
216.9447309235
 20
108.6113425354
 10
216.3616671124
 20
108.6361669387
 10
215.7942029545
 20
108.7593920911
 10
215.2586645344
 20
108.9774743105
 10
214.7704540649
 20
109.2841402079
 10
214.3436214784
 20
109.6705664332
 10
213.9904416063
 20
110.1256376515
 10
213.7210789034
 20
110.6362603987
 10
213.543278248
 20
111.1877458553
 10
213.4621581891
 20
111.7642298723
 10
213.4800507584
 20
112.3491265262
 10
213.5964400032
 20
112.9256100776
 10
213.8079806128
 20
113.4770959998
 10
214.1085836002
 20
113.9877187471
 10
214.4896044293
 20
114.4427894997
 10
214.9400795707
 20
114.8292161907
 10
215.4470506021
 20
115.1358816224
 10
215.9959330121
 20
115.3539643074
 10
216.5709352949
 20
115.4771899256
 10
217.1555171618
 20
115.5020133975
 10
217.7328607896
 20
115.42772133
 10
218.2863551089
 20
115.2564501772
 10
218.8000800916
 20
114.9931275668
 10
219.2592556485
 20
114.645328411
 10
219.6506719002
 20
114.2230588394
 10
219.9630710193
 20
113.7384660925
 10
220.1874601552
 20
113.2054916034
 10
220.3173871049
 20
112.6394677359
 10
220.3491191277
 20
112.0566781993
  0
LINE
  5
E7
330
1F
100
AcDbEntity
  8
0
  6
Continuous
 62
     7
370
    15
100
AcDbLine
 10
210.0463426569
 20
136.3845654215
 30
0.0
 11
210.0463426569
 21
140.3923817362
 31
0.0
  0
ELLIPSE
  5
E8
330
1F
100
AcDbEntity
  8
0
  6
Continuous
 62
     7
370
    15
100
AcDbEllipse
 10
227.1708704426
 20
119.8923811699
 30
0.0
 11
-15.00226541746031
 21
20.49413197769056
 31
0.0
210
0.0
220
0.0
230
1.0
 40
0.0326926316
 41
5.672798467401745
 42
6.259257973531176
  0
LINE
  5
E9
330
1F
100
AcDbEntity
  8
0
  6
Continuous
 62
     7
370
    15
100
AcDbLine
 10
211.3286229679
 20
104.1738670702
 30
0.0
 11
211.5857331911
 21
104.1439734782
 31
0.0
  0
SPLINE
  5
EA
330
1F
100
AcDbEntity
  8
0
  6
Continuous
 62
     7
370
    15
100
AcDbSpline
210
0.0
220
0.0
230
1.0
 70
     8
 71
     3
 72
    10
 73
     6
 74
     0
 42
0.00000001
 43
0.00000001
 12
1.0
 22
0.0
 32
0.0
 13
1.0
 23
0.0
 33
0.0
 40
0.0
 40
0.0
 40
0.0
 40
0.0
 40
0.1001414940231332
 40
0.5482997367947003
 40
0.9999999999999999
 40
0.9999999999999999
 40
0.9999999999999999
 40
0.9999999999999999
 10
211.0472089508072
 20
95.80553699385567
 30
0.0
 10
211.0489920207618
 20
95.79382171309535
 30
0.0
 10
211.0587547749162
 20
95.72967761958049
 30
0.0
 10
211.078002831646
 20
95.79037944862074
 30
0.0
 10
211.0960612760681
 20
95.97436314862587
 30
0.0
 10
211.1051260390774
 20
96.06671709668083
 30
0.0
  0
LINE
  5
EB
330
1F
100
AcDbEntity
  8
0
  6
Continuous
 62
     7
370
    15
100
AcDbLine
 10
211.5857331911
 20
104.1439734782
 30
0.0
 11
215.2588303098
 21
103.9509848143
 31
0.0
  0
LINE
  5
EC
330
1F
100
AcDbEntity
  8
0
  6
Continuous
 62
     7
370
    15
100
AcDbLine
 10
215.2588303098
 20
103.9509848143
 30
0.0
 11
216.8598669478
 21
102.3742724593
 31
0.0
  0
ELLIPSE
  5
ED
330
1F
100
AcDbEntity
  8
0
  6
Continuous
 62
     7
370
    15
100
AcDbEllipse
 10
204.6965391733
 20
121.7365483759
 30
0.0
 11
-16.77809014457085
 21
27.22995866704608
 31
0.0
210
0.0
220
0.0
230
1.0
 40
0.0471546166
 41
3.103913752744644
 42
3.17384449943439
  0
SPLINE
  5
EE
330
1F
100
AcDbEntity
  8
0
  6
HIDDEN
 62
     7
370
     0
100
AcDbSpline
210
0.0
220
0.0
230
1.0
 70
     8
 71
     3
 72
    68
 73
    64
 74
     0
 42
0.00000001
 43
0.00000001
 12
1.0
 22
0.0
 32
0.0
 13
1.0
 23
0.0
 33
0.0
 40
-0.0624999999999996
 40
-0.0624999999999996
 40
0.0
 40
0.0
 40
0.03125
 40
0.03125
 40
0.0625
 40
0.0625
 40
0.09375
 40
0.09375
 40
0.1250000000000001
 40
0.1250000000000001
 40
0.1562500000000001
 40
0.1562500000000001
 40
0.1875000000000001
 40
0.1875000000000001
 40
0.2187500000000001
 40
0.2187500000000001
 40
0.2500000000000001
 40
0.2500000000000001
 40
0.2812500000000001
 40
0.2812500000000001
 40
0.3125000000000001
 40
0.3125000000000001
 40
0.3437500000000002
 40
0.3437500000000002
 40
0.3750000000000002
 40
0.3750000000000002
 40
0.4062500000000002
 40
0.4062500000000002
 40
0.4375000000000002
 40
0.4375000000000002
 40
0.4687500000000002
 40
0.4687500000000002
 40
0.5000000000000002
 40
0.5000000000000002
 40
0.5312500000000002
 40
0.5312500000000002
 40
0.5625000000000002
 40
0.5625000000000002
 40
0.5937500000000002
 40
0.5937500000000002
 40
0.6250000000000002
 40
0.6250000000000002
 40
0.6562500000000003
 40
0.6562500000000003
 40
0.6875000000000003
 40
0.6875000000000003
 40
0.7187500000000003
 40
0.7187500000000003
 40
0.7500000000000003
 40
0.7500000000000003
 40
0.7812500000000003
 40
0.7812500000000003
 40
0.8125000000000003
 40
0.8125000000000003
 40
0.8437500000000003
 40
0.8437500000000003
 40
0.8750000000000004
 40
0.8750000000000004
 40
0.9062500000000004
 40
0.9062500000000004
 40
0.9375000000000004
 40
0.9375000000000004
 40
1.0
 40
1.0
 40
1.03125
 40
1.03125
 10
200.6169742583524
 20
125.0077906759696
 30
0.0
 10
201.1129800273673
 20
125.0077906759696
 30
0.0
 10
201.27551976979
 20
125.0236214046454
 30
0.0
 10
201.5952469794874
 20
125.0855328411336
 30
0.0
 10
201.7541035560727
 20
125.1323750309804
 30
0.0
 10
202.0567754543017
 20
125.2542379115855
 30
0.0
 10
202.2003032698977
 20
125.3286800150963
 30
0.0
 10
202.471935048845
 20
125.5039861780961
 30
0.0
 10
202.6004196811681
 20
125.6056804259034
 30
0.0
 10
202.8307764371285
 20
125.8269666047414
 30
0.0
 10
202.9342039370914
 20
125.947365413963
 30
0.0
 10
203.1169690136467
 20
126.2078169062327
 30
0.0
 10
203.1945353893681
 20
126.3457627936636
 30
0.0
 10
203.3192705823643
 20
126.6300108076236
 30
0.0
 10
203.3673509257071
 20
126.7784180068748
 30
0.0
 10
203.4316344345185
 20
127.0806441759592
 30
0.0
 10
203.4475537620749
 20
127.2318906577361
 30
0.0
 10
203.4477350092611
 20
127.5345613458668
 30
0.0
 10
203.4314709799805
 20
127.687529048795
 30
0.0
 10
203.3676307621814
 20
127.9819907609092
 30
0.0
 10
203.3203972175943
 20
128.1244048833331
 30
0.0
 10
203.195092051366
 20
128.3997954853062
 30
0.0
 10
203.1168842737409
 20
128.5320504086303
 30
0.0
 10
202.9360323912427
 20
128.7760014174022
 30
0.0
 10
202.8326602275829
 20
128.8893390384121
 30
0.0
 10
202.5995236917057
 20
129.0979132824654
 30
0.0
 10
202.4734336547213
 20
129.1899042600225
 30
0.0
 10
202.2028915183982
 20
129.3507053056803
 30
0.0
 10
202.0566965578111
 20
129.4200702819189
 30
0.0
 10
201.7540712088614
 20
129.5309756236958
 30
0.0
 10
201.5982487103123
 20
129.5727209667789
 30
0.0
 10
201.2776155380338
 20
129.6292109466928
 30
0.0
 10
201.1118103574258
 20
129.6436558618868
 30
0.0
 10
200.785356541316
 20
129.6437637255714
 30
0.0
 10
200.6230169390274
 20
129.6298934409353
 30
0.0
 10
200.3001549513728
 20
129.5735217647037
 30
0.0
 10
200.1424142409475
 20
129.5312748829979
 30
0.0
 10
199.8414619082751
 20
129.4212588261179
 30
0.0
 10
199.6959424303353
 20
129.3526209051724
 30
0.0
 10
199.4227391744447
 20
129.1906172582394
 30
0.0
 10
199.2969085265134
 20
129.0986511509107
 30
0.0
 10
199.0662287029376
 20
128.8928378392417
 30
0.0
 10
198.9606112249985
 20
128.7776309164548
 30
0.0
 10
198.7790668376746
 20
128.5331376336125
 30
0.0
 10
198.7021483806811
 20
128.4033745325753
 30
0.0
 10
198.5763205855565
 20
128.1282335815069
 30
0.0
 10
198.5280603162708
 20
127.983231111487
 30
0.0
 10
198.4641855474726
 20
127.6898261589661
 30
0.0
 10
198.4477953870068
 20
127.5398840130508
 30
0.0
 10
198.4474962020464
 20
127.2333368927194
 30
0.0
 10
198.4635855709612
 20
127.081858859049
 30
0.0
 10
198.5269009778757
 20
126.7824240057171
 30
0.0
 10
198.5749146453665
 20
126.6328804792853
 30
0.0
 10
198.7001701843764
 20
126.3467451233095
 30
0.0
 10
198.7768406320248
 20
126.2103781579022
 30
0.0
 10
198.9580504162396
 20
125.951249554625
 30
0.0
 10
199.0634134623269
 20
125.8281697705994
 30
0.0
 10
199.2935950806411
 20
125.6067596933888
 30
0.0
 10
199.4192604205169
 20
125.5069358480846
 30
0.0
 10
199.6923886549623
 20
125.3300564760126
 30
0.0
 10
199.8375083896821
 20
125.2547928707767
 30
0.0
 10
200.2884586399351
 20
125.0727824979824
 30
0.0
 10
200.6169742583524
 20
125.0077906759696
 30
0.0
 10
201.1129800273673
 20
125.0077906759696
 30
0.0
  0
SPLINE
  5
EF
330
1F
100
AcDbEntity
  8
0
  6
HIDDEN
 62
     7
370
     0
100
AcDbSpline
210
0.0
220
0.0
230
1.0
 70
     8
 71
     3
 72
    18
 73
    14
 74
     0
 42
0.00000001
 43
0.00000001
 12
1.0
 22
0.0
 32
0.0
 13
1.0
 23
0.0
 33
0.0
 40
0.0
 40
0.0
 40
0.0
 40
0.0
 40
0.2500000000000002
 40
0.2500000000000002
 40
0.5000000000000004
 40
0.5000000000000004
 40
0.6250000000000003
 40
0.6250000000000003
 40
0.7500000000000002
 40
0.7500000000000002
 40
0.8750000000000001
 40
0.8750000000000001
 40
1.0
 40
1.0
 40
1.0
 40
1.0
 10
209.1803177830501
 20
113.7781985550025
 30
0.0
 10
208.7988555968072
 20
114.1960923912677
 30
0.0
 10
208.4955763859405
 20
114.6638204867727
 30
0.0
 10
208.0518185583047
 20
115.7086155509699
 30
0.0
 10
207.9241873496323
 20
116.2560844616947
 30
0.0
 10
207.8972093290492
 20
117.1179368908003
 30
0.0
 10
207.9168825244803
 20
117.4035373285623
 30
0.0
 10
208.0142242976118
 20
117.9641504701825
 30
0.0
 10
208.0927028940722
 20
118.2424761065496
 30
0.0
 10
208.3106750563896
 20
118.7798927801608
 30
0.0
 10
208.447063409388
 20
119.0326705583571
 30
0.0
 10
208.7739525481337
 20
119.5066112264591
 30
0.0
 10
208.9661220858412
 20
119.7287734945432
 30
0.0
 10
209.1803177830502
 20
119.9269465709762
 30
0.0
  0
SPLINE
  5
F0
330
1F
100
AcDbEntity
  8
0
  6
HIDDEN
 62
     7
370
     0
100
AcDbSpline
210
0.0
220
0.0
230
1.0
 70
     8
 71
     3
 72
    12
 73
     8
 74
     0
 42
0.00000001
 43
0.00000001
 12
1.0
 22
0.0
 32
0.0
 13
1.0
 23
0.0
 33
0.0
 40
0.0
 40
0.0
 40
0.0
 40
0.0
 40
0.4999999999999987
 40
0.4999999999999987
 40
0.7499999999999993
 40
0.7499999999999993
 40
1.0
 40
1.0
 40
1.0
 40
1.0
 10
193.6197391518929
 20
138.9271374530916
 30
0.0
 10
193.6384323850233
 20
138.9489312067196
 30
0.0
 10
193.6640876824351
 20
138.9699513684292
 30
0.0
 10
193.7242483051216
 20
138.9976567143929
 30
0.0
 10
193.7483206168759
 20
139.0062919305863
 30
0.0
 10
193.8067021372264
 20
139.0195065758129
 30
0.0
 10
193.8421709648795
 20
139.024037550143
 30
0.0
 10
193.8795467730282
 20
139.024037550143
 30
0.0
  0
LINE
  5
F1
330
1F
100
AcDbEntity
  8
0
  6
HIDDEN
 62
     7
370
     0
100
AcDbLine
 10
193.8795466804
 20
139.024037906
 30
0.0
 11
196.0157426903
 21
139.024037906
 31
0.0
  0
SPLINE
  5
F2
330
1F
100
AcDbEntity
  8
0
  6
HIDDEN
 62
     7
370
     0
100
AcDbSpline
210
0.0
220
0.0
230
1.0
 70
     8
 71
     3
 72
    12
 73
     8
 74
     0
 42
0.00000001
 43
0.00000001
 12
1.0
 22
0.0
 32
0.0
 13
1.0
 23
0.0
 33
0.0
 40
0.0
 40
0.0
 40
0.0
 40
0.0
 40
0.25
 40
0.25
 40
0.5
 40
0.5
 40
1.0
 40
1.0
 40
1.0
 40
1.0
 10
196.0157427690299
 20
139.024037550143
 30
0.0
 10
196.0532546550745
 20
139.024037550143
 30
0.0
 10
196.0885420027793
 20
139.0195340058806
 30
0.0
 10
196.1474718510177
 20
139.0061608064273
 30
0.0
 10
196.1709975774868
 20
138.9976759038561
 30
0.0
 10
196.2312563652548
 20
138.9699281000215
 30
0.0
 10
196.2568511275441
 20
138.9489382362812
 30
0.0
 10
196.2755503901652
 20
138.9271374530917
 30
0.0
  0
ELLIPSE
  5
F3
330
1F
100
AcDbEntity
  8
0
  6
HIDDEN
 62
     7
370
     0
100
AcDbEllipse
 10
185.9987155986
 20
119.8923811699
 30
0.0
 11
9.36741787978184
 21
19.74174915274992
 31
0.0
210
0.0
220
0.0
230
1.0
 40
0.3419987131
 41
5.185211263708414
 42
6.132113578252574
  0
SPLINE
  5
F4
330
1F
100
AcDbEntity
  8
0
  6
HIDDEN
 62
     7
370
     0
100
AcDbSpline
210
0.0
220
0.0
230
1.0
 70
     8
 71
     3
 72
    12
 73
     8
 74
     0
 42
0.00000001
 43
0.00000001
 12
1.0
 22
0.0
 32
0.0
 13
1.0
 23
0.0
 33
0.0
 40
0.0
 40
0.0
 40
0.0
 40
0.0
 40
0.4999999999999968
 40
0.4999999999999968
 40
0.7499999999999983
 40
0.7499999999999983
 40
1.0
 40
1.0
 40
1.0
 40
1.0
 10
196.2755503901652
 20
126.030626296969
 30
0.0
 10
196.2568571570348
 20
125.9630436605286
 30
0.0
 10
196.231201859623
 20
125.8965610910512
 30
0.0
 10
196.1710412369365
 20
125.8075660081536
 30
0.0
 10
196.1469689251822
 20
125.7795641111545
 30
0.0
 10
196.0885874048317
 20
125.7364877104893
 30
0.0
 10
196.0531185771786
 20
125.7215941655616
 30
0.0
 10
196.0157427690299
 20
125.7215941655616
 30
0.0
  0
LINE
  5
F5
330
1F
100
AcDbEntity
  8
0
  6
HIDDEN
 62
     7
370
     0
100
AcDbLine
 10
196.0157426903
 20
125.721594357
 30
0.0
 11
193.8795466804
 21
125.721594357
 31
0.0
  0
SPLINE
  5
F6
330
1F
100
AcDbEntity
  8
0
  6
HIDDEN
 62
     7
370
     0
100
AcDbSpline
210
0.0
220
0.0
230
1.0
 70
     8
 71
     3
 72
    12
 73
     8
 74
     0
 42
0.00000001
 43
0.00000001
 12
1.0
 22
0.0
 32
0.0
 13
1.0
 23
0.0
 33
0.0
 40
0.0
 40
0.0
 40
0.0
 40
0.0
 40
0.2499999999999986
 40
0.2499999999999986
 40
0.4999999999999971
 40
0.4999999999999971
 40
1.0
 40
1.0
 40
1.0
 40
1.0
 10
193.8795467730282
 20
125.7215941655616
 30
0.0
 10
193.8420348869836
 20
125.7215941655616
 30
0.0
 10
193.8067475392788
 20
125.7363989798483
 30
0.0
 10
193.7478176910404
 20
125.7799908529742
 30
0.0
 10
193.7242919645714
 20
125.8075042790602
 30
0.0
 10
193.6640331768033
 20
125.8966360111738
 30
0.0
 10
193.638438414514
 20
125.9630218617916
 30
0.0
 10
193.6197391518929
 20
126.030626296969
 30
0.0
  0
ELLIPSE
  5
F7
330
1F
100
AcDbEntity
  8
0
  6
HIDDEN
 62
     7
370
     0
100
AcDbEllipse
 10
203.8965739435
 20
119.8923811699
 30
0.0
 11
-9.367417879781694
 21
19.74174915274993
 31
0.0
210
0.0
220
0.0
230
1.0
 40
0.3419987131
 41
0.1510717289270583
 42
1.097974043471189
  0
SPLINE
  5
F8
330
1F
100
AcDbEntity
  8
0
  6
HIDDEN
 62
     7
370
     0
100
AcDbSpline
210
0.0
220
0.0
230
1.0
 70
     8
 71
     3
 72
    12
 73
     8
 74
     0
 42
0.00000001
 43
0.00000001
 12
1.0
 22
0.0
 32
0.0
 13
1.0
 23
0.0
 33
0.0
 40
0.0
 40
0.0
 40
0.0
 40
0.0
 40
0.4999999999999977
 40
0.4999999999999977
 40
0.7499999999999988
 40
0.7499999999999988
 40
1.0
 40
1.0
 40
1.0
 40
1.0
 10
193.6197391518929
 20
113.7541360428506
 30
0.0
 10
193.6384323850233
 20
113.821718679291
 30
0.0
 10
193.6640876824351
 20
113.8882012487684
 30
0.0
 10
193.7242483051215
 20
113.9771963316659
 30
0.0
 10
193.7483206168758
 20
114.0051982286651
 30
0.0
 10
193.8067021372264
 20
114.0482746293303
 30
0.0
 10
193.8421709648795
 20
114.063168174258
 30
0.0
 10
193.8795467730282
 20
114.063168174258
 30
0.0
  0
LINE
  5
F9
330
1F
100
AcDbEntity
  8
0
  6
HIDDEN
 62
     7
370
     0
100
AcDbLine
 10
193.8795466804
 20
114.0631679828
 30
0.0
 11
196.0157426903
 21
114.0631679828
 31
0.0
  0
SPLINE
  5
FA
330
1F
100
AcDbEntity
  8
0
  6
HIDDEN
 62
     7
370
     0
100
AcDbSpline
210
0.0
220
0.0
230
1.0
 70
     8
 71
     3
 72
    12
 73
     8
 74
     0
 42
0.00000001
 43
0.00000001
 12
1.0
 22
0.0
 32
0.0
 13
1.0
 23
0.0
 33
0.0
 40
0.0
 40
0.0
 40
0.0
 40
0.0
 40
0.2499999999999972
 40
0.2499999999999972
 40
0.4999999999999944
 40
0.4999999999999944
 40
1.0
 40
1.0
 40
1.0
 40
1.0
 10
196.0157427690299
 20
114.063168174258
 30
0.0
 10
196.0532546550745
 20
114.063168174258
 30
0.0
 10
196.0885420027793
 20
114.0483633599712
 30
0.0
 10
196.1474718510177
 20
114.0047714868454
 30
0.0
 10
196.1709975774868
 20
113.9772580607594
 30
0.0
 10
196.2312563652548
 20
113.8881263286458
 30
0.0
 10
196.2568511275441
 20
113.821740478028
 30
0.0
 10
196.2755503901652
 20
113.7541360428506
 30
0.0
  0
ELLIPSE
  5
FB
330
1F
100
AcDbEntity
  8
0
  6
HIDDEN
 62
     7
370
     0
100
AcDbEllipse
 10
185.9987155986
 20
119.8923811699
 30
0.0
 11
-9.367417879781728
 21
19.74174915274992
 31
0.0
210
0.0
220
0.0
230
1.0
 40
0.3419987131
 41
3.2926643825169
 42
4.239566697061003
  0
SPLINE
  5
FC
330
1F
100
AcDbEntity
  8
0
  6
HIDDEN
 62
     7
370
     0
100
AcDbSpline
210
0.0
220
0.0
230
1.0
 70
     8
 71
     3
 72
    12
 73
     8
 74
     0
 42
0.00000001
 43
0.00000001
 12
1.0
 22
0.0
 32
0.0
 13
1.0
 23
0.0
 33
0.0
 40
0.0
 40
0.0
 40
0.0
 40
0.0
 40
0.5000000000000009
 40
0.5000000000000009
 40
0.7500000000000004
 40
0.7500000000000004
 40
1.0
 40
1.0
 40
1.0
 40
1.0
 10
196.2755503901652
 20
100.8576248867277
 30
0.0
 10
196.2568571570348
 20
100.8358311330998
 30
0.0
 10
196.231201859623
 20
100.8148109713901
 30
0.0
 10
196.1710412369365
 20
100.7871056254264
 30
0.0
 10
196.1469689251822
 20
100.778470409233
 30
0.0
 10
196.0885874048317
 20
100.7652557640064
 30
0.0
 10
196.0531185771786
 20
100.7607247896763
 30
0.0
 10
196.0157427690299
 20
100.7607247896763
 30
0.0
  0
LINE
  5
FD
330
1F
100
AcDbEntity
  8
0
  6
HIDDEN
 62
     7
370
     0
100
AcDbLine
 10
196.0157426903
 20
100.7607244338
 30
0.0
 11
193.8795466804
 21
100.7607244338
 31
0.0
  0
SPLINE
  5
FE
330
1F
100
AcDbEntity
  8
0
  6
HIDDEN
 62
     7
370
     0
100
AcDbSpline
210
0.0
220
0.0
230
1.0
 70
     8
 71
     3
 72
    12
 73
     8
 74
     0
 42
0.00000001
 43
0.00000001
 12
1.0
 22
0.0
 32
0.0
 13
1.0
 23
0.0
 33
0.0
 40
0.0
 40
0.0
 40
0.0
 40
0.0
 40
0.2500000000000023
 40
0.2500000000000023
 40
0.5000000000000046
 40
0.5000000000000046
 40
1.0
 40
1.0
 40
1.0
 40
1.0
 10
193.8795467730282
 20
100.7607247896763
 30
0.0
 10
193.8420348869836
 20
100.7607247896763
 30
0.0
 10
193.8067475392788
 20
100.7652283339388
 30
0.0
 10
193.7478176910404
 20
100.7786015333921
 30
0.0
 10
193.7242919645713
 20
100.7870864359632
 30
0.0
 10
193.6640331768033
 20
100.8148342397978
 30
0.0
 10
193.6384384145139
 20
100.8358241035382
 30
0.0
 10
193.6197391518929
 20
100.8576248867277
 30
0.0
  0
ELLIPSE
  5
FF
330
1F
100
AcDbEntity
  8
0
  6
HIDDEN
 62
     7
370
     0
100
AcDbEllipse
 10
203.8965739435
 20
119.8923811699
 30
0.0
 11
9.367417879781641
 21
19.74174915274995
 31
0.0
210
0.0
220
0.0
230
1.0
 40
0.3419987131
 41
2.043618610118592
 42
2.990520924662729
  0
SPLINE
  5
100
330
1F
100
AcDbEntity
  8
0
  6
HIDDEN
 62
     7
370
     0
100
AcDbSpline
210
0.0
220
0.0
230
1.0
 70
     8
 71
     3
 72
    58
 73
    54
 74
     0
 42
0.00000001
 43
0.00000001
 12
1.0
 22
0.0
 32
0.0
 13
1.0
 23
0.0
 33
0.0
 40
-0.0625000000000002
 40
-0.0625000000000002
 40
0.0
 40
0.0
 40
0.0312499999999998
 40
0.0312499999999998
 40
0.0624999999999997
 40
0.0624999999999997
 40
0.0937499999999995
 40
0.0937499999999995
 40
0.1249999999999994
 40
0.1249999999999994
 40
0.187499999999999
 40
0.187499999999999
 40
0.2499999999999987
 40
0.2499999999999987
 40
0.2812499999999987
 40
0.2812499999999987
 40
0.3124999999999987
 40
0.3124999999999987
 40
0.3437499999999987
 40
0.3437499999999987
 40
0.3749999999999987
 40
0.3749999999999987
 40
0.4062499999999987
 40
0.4062499999999987
 40
0.4374999999999987
 40
0.4374999999999987
 40
0.4687499999999988
 40
0.4687499999999988
 40
0.4999999999999988
 40
0.4999999999999988
 40
0.5624999999999988
 40
0.5624999999999988
 40
0.6249999999999988
 40
0.6249999999999988
 40
0.6562499999999989
 40
0.6562499999999989
 40
0.687499999999999
 40
0.687499999999999
 40
0.718749999999999
 40
0.718749999999999
 40
0.7499999999999991
 40
0.7499999999999991
 40
0.7812499999999992
 40
0.7812499999999992
 40
0.8124999999999992
 40
0.8124999999999992
 40
0.8437499999999993
 40
0.8437499999999993
 40
0.8749999999999993
 40
0.8749999999999993
 40
0.9374999999999998
 40
0.9374999999999998
 40
1.0
 40
1.0
 40
1.03125
 40
1.03125
 10
200.947644771029
 20
119.6279450554616
 30
0.0
 10
200.947644771029
 20
120.0245992271337
 30
0.0
 10
200.9346627333569
 20
120.1545913879742
 30
0.0
 10
200.8838119310986
 20
120.4103110004264
 30
0.0
 10
200.8453200270456
 20
120.5373696842876
 30
0.0
 10
200.7449047413192
 20
120.7795328819464
 30
0.0
 10
200.6834686020461
 20
120.8943746663311
 30
0.0
 10
200.5383351257353
 20
121.1117168639013
 30
0.0
 10
200.4539134368842
 20
121.214558511749
 30
0.0
 10
200.1773132627194
 20
121.4911019925006
 30
0.0
 10
199.9543143514523
 20
121.6400846286328
 30
0.0
 10
199.4730798338666
 20
121.8396276921875
 30
0.0
 10
199.2097804183576
 20
121.8922381652189
 30
0.0
 10
198.8182169783173
 20
121.8924522239714
 30
0.0
 10
198.6856293677127
 20
121.8794533745658
 30
0.0
 10
198.4290636621134
 20
121.8284032905395
 30
0.0
 10
198.3043538959328
 20
121.7906320517273
 30
0.0
 10
198.0621147109059
 20
121.6904401436148
 30
0.0
 10
197.9450980571321
 20
121.6278547497902
 30
0.0
 10
197.7284548522859
 20
121.4831496640797
 30
0.0
 10
197.6274480958274
 20
121.4005303226995
 30
0.0
 10
197.4406420001708
 20
121.2138862879095
 30
0.0
 10
197.3579284646389
 20
121.1129404399496
 30
0.0
 10
197.2130583352636
 20
120.8964592362679
 30
0.0
 10
197.1503880391669
 20
120.7795420712594
 30
0.0
 10
197.0499601011307
 20
120.537345602061
 30
0.0
 10
197.0120889222009
 20
120.4126846111575
 30
0.0
 10
196.9608265244253
 20
120.1562852620895
 30
0.0
 10
196.9476928837846
 20
120.0236743367916
 30
0.0
 10
196.9475489506458
 20
119.6319997244565
 30
0.0
 10
196.9999142079105
 20
119.3687157047959
 30
0.0
 10
197.1990748712612
 20
118.8872029909361
 30
0.0
 10
197.3478725446232
 20
118.6640819038912
 30
0.0
 10
197.6241732032093
 20
118.3872497553836
 30
0.0
 10
197.7269382502691
 20
118.3027425410994
 30
0.0
 10
197.9441555240635
 20
118.1574215994135
 30
0.0
 10
198.0589252175013
 20
118.0958993761514
 30
0.0
 10
198.3009117546459
 20
117.9953029728794
 30
0.0
 10
198.4279943275373
 20
117.9566750847908
 30
0.0
 10
198.6836690275405
 20
117.9055969747246
 30
0.0
 10
198.8136095448847
 20
117.8925078349574
 30
0.0
 10
199.077872912646
 20
117.8922563165989
 30
0.0
 10
199.208083806293
 20
117.9051307866552
 30
0.0
 10
199.4638337517266
 20
117.9557496837873
 30
0.0
 10
199.5908511360939
 20
117.9940975025831
 30
0.0
 10
199.8332028638456
 20
118.0943316227765
 30
0.0
 10
199.948105643132
 20
118.1556758097665
 30
0.0
 10
200.165527808281
 20
118.3005808142956
 30
0.0
 10
200.2684642057257
 20
118.3849197064176
 30
0.0
 10
200.5453013628826
 20
118.6613208194594
 30
0.0
 10
200.6944566039467
 20
118.8841644525018
 30
0.0
 10
200.894427189182
 20
119.3652277337524
 30
0.0
 10
200.947644771029
 20
119.6279450554616
 30
0.0
 10
200.947644771029
 20
120.0245992271337
 30
0.0
  0
LINE
  5
101
330
1F
100
AcDbEntity
  8
0
  6
HIDDEN
 62
     7
370
     0
100
AcDbLine
 10
186.947644771
 20
100.1923811073
 30
0.0
 11
186.947644771
 21
139.5923812325
 31
0.0
  0
LINE
  5
102
330
1F
100
AcDbEntity
  8
0
  6
HIDDEN
 62
     7
370
     0
100
AcDbLine
 10
186.947644771
 20
104.0923819328
 30
0.0
 11
186.947644771
 21
135.692380407
 31
0.0
  0
SPLINE
  5
103
330
1F
100
AcDbEntity
  8
0
  6
HIDDEN
 62
     7
370
     0
100
AcDbSpline
210
0.0
220
0.0
230
1.0
 70
     8
 71
     3
 72
    10
 73
     6
 74
     0
 42
0.00000001
 43
0.00000001
 12
1.0
 22
0.0
 32
0.0
 13
1.0
 23
0.0
 33
0.0
 40
0.0
 40
0.0
 40
0.0
 40
0.0
 40
0.5
 40
0.5
 40
1.0
 40
1.0
 40
1.0
 40
1.0
 10
202.6547026036032
 20
115.4073132401868
 30
0.0
 10
202.467499568239
 20
115.4985783452605
 30
0.0
 10
202.2796966210375
 20
115.6020937315986
 30
0.0
 10
201.9052686088657
 20
115.8500550179597
 30
0.0
 10
201.7226764032427
 20
115.9920512820266
 30
0.0
 10
201.5454535216882
 20
116.1398083116824
 30
0.0
  0
SPLINE
  5
104
330
1F
100
AcDbEntity
  8
0
  6
HIDDEN
 62
     7
370
     0
100
AcDbSpline
210
0.0
220
0.0
230
1.0
 70
     8
 71
     3
 72
    16
 73
    12
 74
     0
 42
0.00000001
 43
0.00000001
 12
1.0
 22
0.0
 32
0.0
 13
1.0
 23
0.0
 33
0.0
 40
0.0
 40
0.0
 40
0.0
 40
0.0
 40
0.2500000000000007
 40
0.2500000000000007
 40
0.375000000000001
 40
0.375000000000001
 40
0.5000000000000013
 40
0.5000000000000013
 40
0.7500000000000007
 40
0.7500000000000007
 40
1.0
 40
1.0
 40
1.0
 40
1.0
 10
201.5454535216913
 20
116.1398083116815
 30
0.0
 10
201.6103114998502
 20
116.1601655031616
 30
0.0
 10
201.6674455110554
 20
116.1816290618429
 30
0.0
 10
201.7052938229018
 20
116.2348734939438
 30
0.0
 10
201.7088508873929
 20
116.2569551712462
 30
0.0
 10
201.6947211787084
 20
116.3069910177517
 30
0.0
 10
201.6773102638803
 20
116.3353998628892
 30
0.0
 10
201.6077134269942
 20
116.4208489740967
 30
0.0
 10
201.539772705218
 20
116.4788866616891
 30
0.0
 10
201.3929555703143
 20
116.5847124462647
 30
0.0
 10
201.3126507904668
 20
116.6332893192357
 30
0.0
 10
201.2282430321839
 20
116.6764977058525
 30
0.0
  0
LWPOLYLINE
  5
105
330
1F
100
AcDbEntity
  8
0
  6
HIDDEN
 62
     7
370
     0
100
AcDbPolyline
 90
       19
 70
   128
 43
0.0
 10
201.2282433817
 20
116.6764977771
 10
201.3224047506
 20
116.6014429564
 10
201.3563998872
 20
116.4379816419
 10
201.3284797677
 20
116.1945162258
 10
201.2400804916
 20
115.8835622865
 10
201.0957469129
 20
115.5211045789
 10
200.9028970161
 20
115.1257753755
 10
200.6714447299
 20
114.717897066
 10
200.4132886314
 20
114.3184365156
 10
200.1417000675
 20
113.9479279901
 10
199.8706377008
 20
113.6254179674
 10
199.6140378424
 20
113.3674849207
 10
199.3850898826
 20
113.1873885552
 10
199.195563876
 20
113.0943866829
 10
199.0552023882
 20
113.0932593169
 10
198.9712194437
 20
113.1840655963
 10
198.9479345167
 20
113.3621368008
 10
198.986542494
 20
113.6183189611
 10
199.0850596586
 20
113.9394436414
  0
SPLINE
  5
106
330
1F
100
AcDbEntity
  8
0
  6
HIDDEN
 62
     7
370
     0
100
AcDbSpline
210
0.0
220
0.0
230
1.0
 70
     8
 71
     3
 72
    48
 73
    44
 74
     0
 42
0.00000001
 43
0.00000001
 12
1.0
 22
0.0
 32
0.0
 13
1.0
 23
0.0
 33
0.0
 40
0.0
 40
0.0
 40
0.0
 40
0.0
 40
0.0624999999999995
 40
0.0624999999999995
 40
0.0937499999999994
 40
0.0937499999999994
 40
0.1249999999999992
 40
0.1249999999999992
 40
0.1562499999999991
 40
0.1562499999999991
 40
0.1874999999999989
 40
0.1874999999999989
 40
0.2499999999999991
 40
0.2499999999999991
 40
0.3124999999999992
 40
0.3124999999999992
 40
0.3749999999999993
 40
0.3749999999999993
 40
0.4374999999999994
 40
0.4374999999999994
 40
0.4999999999999996
 40
0.4999999999999996
 40
0.5312499999999993
 40
0.5312499999999993
 40
0.5624999999999991
 40
0.5624999999999991
 40
0.5937499999999989
 40
0.5937499999999989
 40
0.6249999999999986
 40
0.6249999999999986
 40
0.7499999999999989
 40
0.7499999999999989
 40
0.8124999999999994
 40
0.8124999999999994
 40
0.8749999999999999
 40
0.8749999999999999
 40
0.9062500000000001
 40
0.9062500000000001
 40
0.9375000000000001
 40
0.9375000000000001
 40
0.9687500000000001
 40
0.9687500000000001
 40
1.0
 40
1.0
 40
1.0
 40
1.0
 10
199.0850597547133
 20
113.9394437997902
 30
0.0
 10
199.1567180413944
 20
113.7690171849315
 30
0.0
 10
199.2423737061157
 20
113.6061730515373
 30
0.0
 10
199.398377077847
 20
113.3767672571554
 30
0.0
 10
199.4547281349846
 20
113.3030296092915
 30
0.0
 10
199.5838170221959
 20
113.1626720367235
 30
0.0
 10
199.6572571005971
 20
113.0965044108616
 30
0.0
 10
199.8164018016751
 20
112.9938634890898
 30
0.0
 10
199.8965974957713
 20
112.9608437545857
 30
0.0
 10
200.0492286832806
 20
112.9185628500355
 30
0.0
 10
200.1223368235907
 20
112.9081640303041
 30
0.0
 10
200.3417472843151
 20
112.8929963337215
 30
0.0
 10
200.4848645430658
 20
112.904501533662
 30
0.0
 10
200.776959743684
 20
112.9528357028864
 30
0.0
 10
200.9257288016047
 20
112.9906151865485
 30
0.0
 10
201.2340653263968
 20
113.0949585420543
 30
0.0
 10
201.3894067181436
 20
113.1602437989569
 30
0.0
 10
201.7031371362972
 20
113.3206753165904
 30
0.0
 10
201.8629552744633
 20
113.4170928343451
 30
0.0
 10
202.1687516680344
 20
113.6374830374102
 30
0.0
 10
202.3185098972479
 20
113.7645855416543
 30
0.0
 10
202.5169899128555
 20
113.9681133947292
 30
0.0
 10
202.5800365462757
 20
114.0393230946275
 30
0.0
 10
202.694326062988
 20
114.1827624421353
 30
0.0
 10
202.7454950393274
 20
114.2546866819271
 30
0.0
 10
202.8363785598501
 20
114.3988597643492
 30
0.0
 10
202.8762499330543
 20
114.471632274904
 30
0.0
 10
202.942228395904
 20
114.6120864404452
 30
0.0
 10
202.9687918854108
 20
114.6803675760961
 30
0.0
 10
203.0727891404306
 20
115.0127940795921
 30
0.0
 10
203.0597017663394
 20
115.235313326391
 30
0.0
 10
202.9619987580003
 20
115.4928434002036
 30
0.0
 10
202.9162526006869
 20
115.5668098853529
 30
0.0
 10
202.8055644980059
 20
115.6906199358803
 30
0.0
 10
202.7405559714627
 20
115.7403672161446
 30
0.0
 10
202.6424959056264
 20
115.7852568444779
 30
0.0
 10
202.6096943227307
 20
115.7952324576688
 30
0.0
 10
202.5539609337121
 20
115.795283943897
 30
0.0
 10
202.5311812459396
 20
115.784866232986
 30
0.0
 10
202.5218917543535
 20
115.7225906410526
 30
0.0
 10
202.5374614728771
 20
115.6705509245411
 30
0.0
 10
202.5877267421104
 20
115.5491579915892
 30
0.0
 10
202.621016255193
 20
115.4798064008331
 30
0.0
 10
202.6547026036025
 20
115.407313240188
 30
0.0
  0
SPLINE
  5
107
330
1F
100
AcDbEntity
  8
0
  6
HIDDEN
 62
     7
370
     0
100
AcDbSpline
210
0.0
220
0.0
230
1.0
 70
     8
 71
     3
 72
    12
 73
     8
 74
     0
 42
0.00000001
 43
0.00000001
 12
1.0
 22
0.0
 32
0.0
 13
1.0
 23
0.0
 33
0.0
 40
0.0
 40
0.0
 40
0.0
 40
0.0
 40
0.4999999999999978
 40
0.4999999999999978
 40
0.7499999999999989
 40
0.7499999999999989
 40
1.0
 40
1.0
 40
1.0
 40
1.0
 10
201.2282430321843
 20
116.6764977058531
 30
0.0
 10
201.1655871723675
 20
116.6074405486641
 30
0.0
 10
201.116988076321
 20
116.5329303203474
 30
0.0
 10
201.1011835205633
 20
116.4136330551692
 30
0.0
 10
201.1059364072914
 20
116.3725741019838
 30
0.0
 10
201.134455689725
 20
116.2908031021255
 30
0.0
 10
201.157917924562
 20
116.2496470705857
 30
0.0
 10
201.1875549256081
 20
116.2076204863856
 30
0.0
  0
SPLINE
  5
108
330
1F
100
AcDbEntity
  8
0
  6
HIDDEN
 62
     7
370
     0
100
AcDbSpline
210
0.0
220
0.0
230
1.0
 70
     8
 71
     3
 72
    22
 73
    18
 74
     0
 42
0.00000001
 43
0.00000001
 12
1.0
 22
0.0
 32
0.0
 13
1.0
 23
0.0
 33
0.0
 40
0.0
 40
0.0
 40
0.0
 40
0.0
 40
0.2500000000000009
 40
0.2500000000000009
 40
0.3750000000000013
 40
0.3750000000000013
 40
0.4375000000000016
 40
0.4375000000000016
 40
0.5000000000000018
 40
0.5000000000000018
 40
0.562500000000002
 40
0.562500000000002
 40
0.6250000000000022
 40
0.6250000000000022
 40
0.7500000000000017
 40
0.7500000000000017
 40
1.0
 40
1.0
 40
1.0
 40
1.0
 10
201.187554925608
 20
116.2076204863857
 30
0.0
 10
200.9052057071404
 20
116.0320387158232
 30
0.0
 10
200.6223368958271
 20
115.858399473205
 30
0.0
 10
200.1882953806628
 20
115.6179434178518
 30
0.0
 10
200.0405711401378
 20
115.5414231217505
 30
0.0
 10
199.8225952663971
 20
115.4296675945671
 30
0.0
 10
199.7507157330593
 20
115.3929370761045
 30
0.0
 10
199.6113861462017
 20
115.3142938014272
 30
0.0
 10
199.542998978282
 20
115.2720183461919
 30
0.0
 10
199.4238608212875
 20
115.1681112469184
 30
0.0
 10
199.3740904079424
 20
115.1034316590009
 30
0.0
 10
199.3027450860036
 20
114.9597883186127
 30
0.0
 10
199.2784804827901
 20
114.882102179931
 30
0.0
 10
199.2169106911524
 20
114.647911482297
 30
0.0
 10
199.1895721168147
 20
114.4920845537674
 30
0.0
 10
199.1077063635517
 20
114.0427702322478
 30
0.0
 10
199.0596362583241
 20
113.7632139730371
 30
0.0
 10
199.0187101893937
 20
113.5035457695731
 30
0.0
  0
SPLINE
  5
109
330
1F
100
AcDbEntity
  8
0
  6
HIDDEN
 62
     7
370
     0
100
AcDbSpline
210
0.0
220
0.0
230
1.0
 70
     8
 71
     3
 72
    14
 73
    10
 74
     0
 42
0.00000001
 43
0.00000001
 12
1.0
 22
0.0
 32
0.0
 13
1.0
 23
0.0
 33
0.0
 40
0.0
 40
0.0
 40
0.0
 40
0.0
 40
0.25
 40
0.25
 40
0.5
 40
0.5
 40
0.75
 40
0.75
 40
1.0
 40
1.0
 40
1.0
 40
1.0
 10
199.0187101893937
 20
113.5035457695731
 30
0.0
 10
199.0021364121704
 20
113.5853151013345
 30
0.0
 10
198.9902123728408
 20
113.662205915761
 30
0.0
 10
198.9799784737965
 20
113.7836440903345
 30
0.0
 10
198.9815531293649
 20
113.8278750977687
 30
0.0
 10
198.9964380815308
 20
113.8887474547232
 30
0.0
 10
199.0094738596615
 20
113.9057596150908
 30
0.0
 10
199.0424132049257
 20
113.9286849959448
 30
0.0
 10
199.0624291984876
 20
113.9347506463144
 30
0.0
 10
199.0850597547134
 20
113.9394437997903
 30
0.0
  0
SPLINE
  5
10A
330
1F
100
AcDbEntity
  8
0
  6
HIDDEN
 62
     7
370
     0
100
AcDbSpline
210
0.0
220
0.0
230
1.0
 70
     8
 71
     3
 72
    18
 73
    14
 74
     0
 42
0.00000001
 43
0.00000001
 12
1.0
 22
0.0
 32
0.0
 13
1.0
 23
0.0
 33
0.0
 40
0.0
 40
0.0
 40
0.0
 40
0.0
 40
0.2500000000000006
 40
0.2500000000000006
 40
0.5000000000000011
 40
0.5000000000000011
 40
0.6250000000000008
 40
0.6250000000000008
 40
0.7500000000000006
 40
0.7500000000000006
 40
0.8750000000000002
 40
0.8750000000000002
 40
1.0
 40
1.0
 40
1.0
 40
1.0
 10
185.6915604534661
 20
129.7168210880609
 30
0.0
 10
185.7258614979989
 20
129.6088109022634
 30
0.0
 10
185.7636817692956
 20
129.5015338142354
 30
0.0
 10
185.8503000897564
 20
129.2900371169188
 30
0.0
 10
185.8986714244999
 20
129.1856507667491
 30
0.0
 10
185.9880744066184
 20
129.0347758441049
 30
0.0
 10
186.0206716904956
 20
128.9854308410693
 30
0.0
 10
186.0970535944405
 20
128.890825202599
 30
0.0
 10
186.1400920317813
 20
128.8458292678444
 30
0.0
 10
186.2459050646131
 20
128.7749014951866
 30
0.0
 10
186.3109434893443
 20
128.75095495128
 30
0.0
 10
186.4440955611469
 20
128.7632356153508
 30
0.0
 10
186.50346474161
 20
128.7965525733557
 30
0.0
 10
186.5526678821538
 20
128.8373874595804
 30
0.0
  0
SPLINE
  5
10B
330
1F
100
AcDbEntity
  8
0
  6
HIDDEN
 62
     7
370
     0
100
AcDbSpline
210
0.0
220
0.0
230
1.0
 70
     8
 71
     3
 72
    16
 73
    12
 74
     0
 42
0.00000001
 43
0.00000001
 12
1.0
 22
0.0
 32
0.0
 13
1.0
 23
0.0
 33
0.0
 40
0.0
 40
0.0
 40
0.0
 40
0.0
 40
0.0624999999999982
 40
0.0624999999999982
 40
0.1249999999999965
 40
0.1249999999999965
 40
0.2499999999999971
 40
0.2499999999999971
 40
0.4999999999999979
 40
0.4999999999999979
 40
1.0
 40
1.0
 40
1.0
 40
1.0
 10
186.5526678821229
 20
128.8373874596098
 30
0.0
 10
186.5647377153988
 20
128.8474045085902
 30
0.0
 10
186.5790133703321
 20
128.8563636156458
 30
0.0
 10
186.6104777824565
 20
128.86423401104
 30
0.0
 10
186.625978307267
 20
128.8618765203977
 30
0.0
 10
186.6614172038739
 20
128.8449008282197
 30
0.0
 10
186.6750098199772
 20
128.8243523370521
 30
0.0
 10
186.70800413837
 20
128.7624100100384
 30
0.0
 10
186.7187915316888
 20
128.7160144598333
 30
0.0
 10
186.7438447789679
 20
128.5730784311388
 30
0.0
 10
186.7476447710292
 20
128.4735157142533
 30
0.0
 10
186.7476447710292
 20
128.3717483096067
 30
0.0
  0
LINE
  5
10C
330
1F
100
AcDbEntity
  8
0
  6
HIDDEN
 62
     7
370
     0
100
AcDbLine
 10
186.7476447761
 20
111.4130141596
 30
0.0
 11
186.7476447761
 21
128.3717481802
 31
0.0
  0
SPLINE
  5
10D
330
1F
100
AcDbEntity
  8
0
  6
HIDDEN
 62
     7
370
     0
100
AcDbSpline
210
0.0
220
0.0
230
1.0
 70
     8
 71
     3
 72
    16
 73
    12
 74
     0
 42
0.00000001
 43
0.00000001
 12
1.0
 22
0.0
 32
0.0
 13
1.0
 23
0.0
 33
0.0
 40
0.0
 40
0.0
 40
0.0
 40
0.0
 40
0.4999999999999983
 40
0.4999999999999983
 40
0.7499999999999951
 40
0.7499999999999951
 40
0.8749999999999956
 40
0.8749999999999956
 40
0.9374999999999978
 40
0.9374999999999978
 40
1.0
 40
1.0
 40
1.0
 40
1.0
 10
186.7476447710291
 20
111.4130140302125
 30
0.0
 10
186.7476447710291
 20
111.3110038766324
 30
0.0
 10
186.7437613458701
 20
111.2114795013791
 30
0.0
 10
186.7189460205955
 20
111.0694944053685
 30
0.0
 10
186.708106572883
 20
111.022501104798
 30
0.0
 10
186.6748907908341
 20
110.9602083744364
 30
0.0
 10
186.6615090472054
 20
110.9399269421513
 30
0.0
 10
186.6259993973431
 20
110.9228852339509
 30
0.0
 10
186.6105824308424
 20
110.9204989789348
 30
0.0
 10
186.5788814086937
 20
110.9284349087928
 30
0.0
 10
186.564735123743
 20
110.9373599821674
 30
0.0
 10
186.5526678821533
 20
110.9473748802393
 30
0.0
  0
SPLINE
  5
10E
330
1F
100
AcDbEntity
  8
0
  6
HIDDEN
 62
     7
370
     0
100
AcDbSpline
210
0.0
220
0.0
230
1.0
 70
     8
 71
     3
 72
    18
 73
    14
 74
     0
 42
0.00000001
 43
0.00000001
 12
1.0
 22
0.0
 32
0.0
 13
1.0
 23
0.0
 33
0.0
 40
0.0
 40
0.0
 40
0.0
 40
0.0
 40
0.125
 40
0.125
 40
0.25
 40
0.25
 40
0.375
 40
0.375
 40
0.5
 40
0.5
 40
0.75
 40
0.75
 40
1.0
 40
1.0
 40
1.0
 40
1.0
 10
186.5526678821595
 20
110.9473748802467
 30
0.0
 10
186.5039623900174
 20
110.9877967559281
 30
0.0
 10
186.4454522816905
 20
111.0208288773959
 30
0.0
 10
186.3137231633984
 20
111.0341060293487
 30
0.0
 10
186.2489642270578
 20
111.0111524423686
 30
0.0
 10
186.1437532541982
 20
110.942099245449
 30
0.0
 10
186.1005368787583
 20
110.8976315936081
 30
0.0
 10
186.0243583736464
 20
110.804461934238
 30
0.0
 10
185.9915034122665
 20
110.7553195646772
 30
0.0
 10
185.9011351324327
 20
110.6041098297374
 30
0.0
 10
185.8517118980627
 20
110.4979550602091
 30
0.0
 10
185.7640634430145
 20
110.2843734445476
 30
0.0
 10
185.7260042708116
 20
110.1764010133124
 30
0.0
 10
185.6915604534661
 20
110.0679412517584
 30
0.0
  0
SPLINE
  5
10F
330
1F
100
AcDbEntity
  8
0
  6
HIDDEN
 62
     7
370
     0
100
AcDbSpline
210
0.0
220
0.0
230
1.0
 70
     8
 71
     3
 72
     8
 73
     4
 74
     0
 42
0.00000001
 43
0.00000001
 12
1.0
 22
0.0
 32
0.0
 13
1.0
 23
0.0
 33
0.0
 40
0.0
 40
0.0
 40
0.0
 40
0.0
 40
1.0
 40
1.0
 40
1.0
 40
1.0
 10
185.6915604534655
 20
110.0679412517579
 30
0.0
 10
185.6672467495754
 20
109.9913800942078
 30
0.0
 10
185.6457501076193
 20
109.9149547230746
 30
0.0
 10
185.6263244274693
 20
109.8388618523029
 30
0.0
  0
SPLINE
  5
110
330
1F
100
AcDbEntity
  8
0
  6
HIDDEN
 62
     7
370
     0
100
AcDbSpline
210
0.0
220
0.0
230
1.0
 70
     8
 71
     3
 72
     8
 73
     4
 74
     0
 42
0.00000001
 43
0.00000001
 12
1.0
 22
0.0
 32
0.0
 13
1.0
 23
0.0
 33
0.0
 40
0.0
 40
0.0
 40
0.0
 40
0.0
 40
1.0
 40
1.0
 40
1.0
 40
1.0
 10
185.6263244274693
 20
106.0673171619045
 30
0.0
 10
185.6457498543627
 20
106.0638199583172
 30
0.0
 10
185.6672464083317
 20
106.0618036406749
 30
0.0
 10
185.6915604534661
 20
106.0611927872311
 30
0.0
  0
SPLINE
  5
111
330
1F
100
AcDbEntity
  8
0
  6
HIDDEN
 62
     7
370
     0
100
AcDbSpline
210
0.0
220
0.0
230
1.0
 70
     8
 71
     3
 72
     8
 73
     4
 74
     0
 42
0.00000001
 43
0.00000001
 12
1.0
 22
0.0
 32
0.0
 13
1.0
 23
0.0
 33
0.0
 40
0.0
 40
0.0
 40
0.0
 40
0.0
 40
1.0
 40
1.0
 40
1.0
 40
1.0
 10
186.7247937579231
 20
105.971834396173
 30
0.0
 10
186.7437306900889
 20
105.9438799587715
 30
0.0
 10
186.7476447710292
 20
105.9237961074151
 30
0.0
 10
186.7476447710292
 20
105.9075692632497
 30
0.0
  0
LINE
  5
112
330
1F
100
AcDbEntity
  8
0
  6
HIDDEN
 62
     7
370
     0
100
AcDbLine
 10
186.7476447761
 20
105.8025611947
 30
0.0
 11
186.7476447761
 21
105.9075696776
 31
0.0
  0
LINE
  5
113
330
1F
100
AcDbEntity
  8
0
  6
HIDDEN
 62
     7
370
     0
100
AcDbLine
 10
186.7476447761
 20
133.8771926622
 30
0.0
 11
186.7476447761
 21
133.9822011451
 31
0.0
  0
SPLINE
  5
114
330
1F
100
AcDbEntity
  8
0
  6
HIDDEN
 62
     7
370
     0
100
AcDbSpline
210
0.0
220
0.0
230
1.0
 70
     8
 71
     3
 72
    10
 73
     6
 74
     0
 42
0.00000001
 43
0.00000001
 12
1.0
 22
0.0
 32
0.0
 13
1.0
 23
0.0
 33
0.0
 40
0.0
 40
0.0
 40
0.0
 40
0.0
 40
0.5
 40
0.5
 40
1.0
 40
1.0
 40
1.0
 40
1.0
 10
186.7476447710291
 20
133.8771930765698
 30
0.0
 10
186.7476447710291
 20
133.8670668764497
 30
0.0
 10
186.7456361919835
 20
133.8553062838959
 30
0.0
 10
186.7344529640781
 20
133.8273250691456
 30
0.0
 10
186.7261518304036
 20
133.8113447548079
 30
0.0
 10
186.7073054411614
 20
133.7909886727803
 30
0.0
  0
SPLINE
  5
115
330
1F
100
AcDbEntity
  8
0
  6
HIDDEN
 62
     7
370
     0
100
AcDbSpline
210
0.0
220
0.0
230
1.0
 70
     8
 71
     3
 72
     8
 73
     4
 74
     0
 42
0.00000001
 43
0.00000001
 12
1.0
 22
0.0
 32
0.0
 13
1.0
 23
0.0
 33
0.0
 40
0.0
 40
0.0
 40
0.0
 40
0.0
 40
1.0
 40
1.0
 40
1.0
 40
1.0
 10
185.6915604534657
 20
133.7235695525882
 30
0.0
 10
185.6672464083315
 20
133.7229586991444
 30
0.0
 10
185.6457498543626
 20
133.7209423815021
 30
0.0
 10
185.6263244274693
 20
133.7174451779148
 30
0.0
  0
SPLINE
  5
116
330
1F
100
AcDbEntity
  8
0
  6
HIDDEN
 62
     7
370
     0
100
AcDbSpline
210
0.0
220
0.0
230
1.0
 70
     8
 71
     3
 72
     8
 73
     4
 74
     0
 42
0.00000001
 43
0.00000001
 12
1.0
 22
0.0
 32
0.0
 13
1.0
 23
0.0
 33
0.0
 40
0.0
 40
0.0
 40
0.0
 40
0.0
 40
1.0
 40
1.0
 40
1.0
 40
1.0
 10
185.6263244274693
 20
129.9459004875164
 30
0.0
 10
185.6457501076193
 20
129.8698076167447
 30
0.0
 10
185.6672467495754
 20
129.7933822456115
 30
0.0
 10
185.6915604534655
 20
129.7168210880614
 30
0.0
  0
SPLINE
  5
117
330
1F
100
AcDbEntity
  8
0
  6
HIDDEN
 62
     7
370
     0
100
AcDbSpline
210
0.0
220
0.0
230
1.0
 70
     8
 71
     3
 72
    62
 73
    58
 74
     0
 42
0.00000001
 43
0.00000001
 12
1.0
 22
0.0
 32
0.0
 13
1.0
 23
0.0
 33
0.0
 40
-0.03125
 40
-0.03125
 40
0.0
 40
0.0
 40
0.03125
 40
0.03125
 40
0.0625
 40
0.0625
 40
0.09375
 40
0.09375
 40
0.125
 40
0.125
 40
0.1874999999999999
 40
0.1874999999999999
 40
0.2187499999999998
 40
0.2187499999999998
 40
0.2499999999999997
 40
0.2499999999999997
 40
0.2812499999999996
 40
0.2812499999999996
 40
0.3124999999999995
 40
0.3124999999999995
 40
0.3437499999999994
 40
0.3437499999999994
 40
0.3749999999999993
 40
0.3749999999999993
 40
0.4062499999999992
 40
0.4062499999999992
 40
0.4374999999999991
 40
0.4374999999999991
 40
0.4687499999999989
 40
0.4687499999999989
 40
0.4999999999999988
 40
0.4999999999999988
 40
0.562499999999999
 40
0.562499999999999
 40
0.5937499999999991
 40
0.5937499999999991
 40
0.6249999999999992
 40
0.6249999999999992
 40
0.6874999999999991
 40
0.6874999999999991
 40
0.7187499999999992
 40
0.7187499999999992
 40
0.7499999999999993
 40
0.7499999999999993
 40
0.7812499999999994
 40
0.7812499999999994
 40
0.8124999999999996
 40
0.8124999999999996
 40
0.8749999999999997
 40
0.8749999999999997
 40
0.9062499999999998
 40
0.9062499999999998
 40
0.9374999999999999
 40
0.9374999999999999
 40
0.96875
 40
0.96875
 40
1.0
 40
1.0
 40
1.03125
 40
1.03125
 10
201.0874863168308
 20
115.7401218883832
 30
0.0
 10
200.8078032252273
 20
115.7401218883832
 30
0.0
 10
200.6705192682698
 20
115.7510749258303
 30
0.0
 10
200.4007835134184
 20
115.7940580805806
 30
0.0
 10
200.2669014943228
 20
115.8266627579951
 30
0.0
 10
200.0131549359248
 20
115.9117609630665
 30
0.0
 10
199.8929692741822
 20
115.9639928349451
 30
0.0
 10
199.6655066826684
 20
116.0886213416228
 30
0.0
 10
199.5586914772068
 20
116.161130634782
 30
0.0
 10
199.2704468798821
 20
116.4020137523234
 30
0.0
 10
199.1143261809809
 20
116.6001939046285
 30
0.0
 10
198.9566107201387
 20
116.9326704610121
 30
0.0
 10
198.9157014910311
 20
117.051386909614
 30
0.0
 10
198.8613245860088
 20
117.2964694466362
 30
0.0
 10
198.8477371181192
 20
117.421734079712
 30
0.0
 10
198.8475533531316
 20
117.6778556097818
 30
0.0
 10
198.8614393893378
 20
117.8096819480712
 30
0.0
 10
198.9155264738884
 20
118.0669331982051
 30
0.0
 10
198.9555352299334
 20
118.1937378121338
 30
0.0
 10
199.0618815045157
 20
118.443239799934
 30
0.0
 10
199.1270807794332
 20
118.5629772632183
 30
0.0
 10
199.2787881834714
 20
118.7891041443515
 30
0.0
 10
199.3665888581114
 20
118.8970559556585
 30
0.0
 10
199.5599267674747
 20
119.093894766175
 30
0.0
 10
199.6648751534863
 20
119.1826369242419
 30
0.0
 10
199.8916031634324
 20
119.3401218915793
 30
0.0
 10
200.0143749144144
 20
119.4090089411646
 30
0.0
 10
200.2670533866398
 20
119.5193722882463
 30
0.0
 10
200.3980343581405
 20
119.5618076789709
 30
0.0
 10
200.6698227293893
 20
119.6195835151871
 30
0.0
 10
200.8090563397235
 20
119.6342340221419
 30
0.0
 10
201.2222401225218
 20
119.634413627334
 30
0.0
 10
201.5003158672366
 20
119.5751053662239
 30
0.0
 10
201.8803846952679
 20
119.4093096186348
 30
0.0
 10
202.00315293721
 20
119.3404401223707
 30
0.0
 10
202.2298391030963
 20
119.1830885584549
 30
0.0
 10
202.3350072116417
 20
119.0942573140053
 30
0.0
 10
202.6260937073718
 20
118.7978982774783
 30
0.0
 10
202.7800242295999
 20
118.5682604893929
 30
0.0
 10
202.9394558323497
 20
118.1945499401067
 30
0.0
 10
202.9794570299052
 20
118.067961334065
 30
0.0
 10
203.0336162508346
 20
117.8112176508408
 30
0.0
 10
203.047639157384
 20
117.679480440229
 30
0.0
 10
203.0476503812207
 20
117.4228573994025
 30
0.0
 10
203.0341094280217
 20
117.2974773065946
 30
0.0
 10
202.9798913414118
 20
117.0524000923813
 30
0.0
 10
202.9390113868055
 20
116.9334726551657
 30
0.0
 10
202.7810433096297
 20
116.6001609133246
 30
0.0
 10
202.6250153522748
 20
116.4021208724509
 30
0.0
 10
202.3362682329495
 20
116.1608736187341
 30
0.0
 10
202.2290533982206
 20
116.0881875436382
 30
0.0
 10
202.0021999912707
 20
115.9639611831139
 30
0.0
 10
201.8821824790308
 20
115.9117777817606
 30
0.0
 10
201.6283642715767
 20
115.8266540206229
 30
0.0
 10
201.4944972275252
 20
115.7940580686993
 30
0.0
 10
201.224829985631
 20
115.7510830507425
 30
0.0
 10
201.0874863168308
 20
115.7401218883832
 30
0.0
 10
200.8078032252273
 20
115.7401218883832
 30
0.0
  0
SPLINE
  5
118
330
1F
100
AcDbEntity
  8
0
  6
HIDDEN
 62
     7
370
     0
100
AcDbSpline
210
0.0
220
0.0
230
1.0
 70
     8
 71
     3
 72
    22
 73
    18
 74
     0
 42
0.00000001
 43
0.00000001
 12
1.0
 22
0.0
 32
0.0
 13
1.0
 23
0.0
 33
0.0
 40
-0.125
 40
-0.125
 40
0.0
 40
0.0
 40
0.125
 40
0.125
 40
0.25
 40
0.25
 40
0.375
 40
0.375
 40
0.5
 40
0.5
 40
0.625
 40
0.625
 40
0.75
 40
0.75
 40
0.875
 40
0.875
 40
1.0
 40
1.0
 40
1.125
 40
1.125
 10
199.1149440953875
 20
115.4041876718377
 30
0.0
 10
199.1016835299392
 20
115.3527082122512
 30
0.0
 10
199.104032898866
 20
115.340309506174
 30
0.0
 10
199.1239713603318
 20
115.3470098886511
 30
0.0
 10
199.1411912853797
 20
115.3650399476367
 30
0.0
 10
199.1827028267655
 20
115.4183675091015
 30
0.0
 10
199.2064447806047
 20
115.4527648713747
 30
0.0
 10
199.2489601784485
 20
115.5220625004079
 30
0.0
 10
199.267091708879
 20
115.5564105715841
 30
0.0
 10
199.2834276279222
 20
115.605088926051
 30
0.0
 10
199.281004882457
 20
115.6188493726164
 30
0.0
 10
199.2566582567077
 20
115.615549433597
 30
0.0
 10
199.2357523490685
 20
115.5990171178203
 30
0.0
 10
199.1915617279533
 20
115.5475204921463
 30
0.0
 10
199.1680746824144
 20
115.5122797332426
 30
0.0
 10
199.1299990512739
 20
115.4409692631101
 30
0.0
 10
199.1149440953875
 20
115.4041876718377
 30
0.0
 10
199.1016835299392
 20
115.3527082122512
 30
0.0
  0
ARC
  5
119
330
1F
100
AcDbEntity
  8
0
  6
HIDDEN
 62
     7
370
     0
100
AcDbCircle
 10
201.0008195262
 20
114.1089077256
 30
0.0
 40
2.102661006015996
100
AcDbArc
 50
38.1342284292
 51
74.9879968823
  0
ARC
  5
11A
330
1F
100
AcDbEntity
  8
0
  6
HIDDEN
 62
     7
370
     0
100
AcDbCircle
 10
200.8537836602
 20
114.2535118546
 30
0.0
 40
1.982408484921434
100
AcDbArc
 50
80.3071427733
 51
202.2290812193
  0
LINE
  5
11B
330
1F
100
AcDbEntity
  8
0
  6
HIDDEN
 62
     7
370
     0
100
AcDbLine
 10
186.7476447761
 20
105.9075696776
 30
0.0
 11
186.7476447761
 21
114.3869362223
 31
0.0
  0
LINE
  5
11C
330
1F
100
AcDbEntity
  8
0
  6
HIDDEN
 62
     7
370
     0
100
AcDbLine
 10
186.7476447761
 20
125.3978261175
 30
0.0
 11
186.7476447761
 21
133.8771926622
 31
0.0
  0
SPLINE
  5
11D
330
1F
100
AcDbEntity
  8
0
  6
HIDDEN
 62
     7
370
     0
100
AcDbSpline
210
0.0
220
0.0
230
1.0
 70
     8
 71
     3
 72
    12
 73
     8
 74
     0
 42
0.00000001
 43
0.00000001
 12
1.0
 22
0.0
 32
0.0
 13
1.0
 23
0.0
 33
0.0
 40
0.0
 40
0.0
 40
0.0
 40
0.0
 40
0.2500000000000007
 40
0.2500000000000007
 40
0.5000000000000013
 40
0.5000000000000013
 40
1.0
 40
1.0
 40
1.0
 40
1.0
 10
209.1803177830502
 20
119.9269465709762
 30
0.0
 10
209.2593732375776
 20
120.0000883886534
 30
0.0
 10
209.3388645361959
 20
120.0708519507712
 30
0.0
 10
209.4978185888863
 20
120.2082141961217
 30
0.0
 10
209.5781144812785
 20
120.2754622396012
 30
0.0
 10
209.8072081770304
 20
120.4649153548673
 30
0.0
 10
209.9490446485218
 20
120.5783813176447
 30
0.0
 10
210.0463431868345
 20
120.6707697126036
 30
0.0
  0
LINE
  5
11E
330
1F
100
AcDbEntity
  8
0
  6
HIDDEN
 62
     7
370
     0
100
AcDbLine
 10
210.0463426569
 20
140.3923817362
 30
0.0
 11
210.0463426569
 21
120.6707696929
 31
0.0
  0
ELLIPSE
  5
11F
330
1F
100
AcDbEntity
  8
0
  6
HIDDEN
 62
     7
370
     0
100
AcDbEllipse
 10
226.4743827685
 20
119.8923811699
 30
0.0
 11
-0.6471730019342489
 21
20.49969255924288
 31
0.0
210
0.0
220
0.0
230
1.0
 40
0.1734804855
 41
1.342984301138925
 42
1.565319622021316
  0
ELLIPSE
  5
120
330
1F
100
AcDbEntity
  8
0
  6
HIDDEN
 62
     7
370
     0
100
AcDbEllipse
 10
227.1708704426
 20
119.8923811699
 30
0.0
 11
-15.00226541746031
 21
20.49413197769056
 31
0.0
210
0.0
220
0.0
230
1.0
 40
0.0326926316
 41
6.259257973531176
 42
7.60771897944328
  0
SPLINE
  5
121
330
1F
100
AcDbEntity
  8
0
  6
HIDDEN
 62
     7
370
     0
100
AcDbSpline
210
0.0
220
0.0
230
1.0
 70
     8
 71
     3
 72
    20
 73
    16
 74
     0
 42
0.00000001
 43
0.00000001
 12
1.0
 22
0.0
 32
0.0
 13
1.0
 23
0.0
 33
0.0
 40
0.0
 40
0.0
 40
0.0
 40
0.0
 40
0.2499999999999987
 40
0.2499999999999987
 40
0.3749999999999989
 40
0.3749999999999989
 40
0.4999999999999991
 40
0.4999999999999991
 40
0.6249999999999993
 40
0.6249999999999993
 40
0.7499999999999996
 40
0.7499999999999996
 40
0.8749999999999998
 40
0.8749999999999998
 40
1.0
 40
1.0
 40
1.0
 40
1.0
 10
214.9320335858992
 20
119.8923811699096
 30
0.0
 10
214.6109163655705
 20
120.1977224193653
 30
0.0
 10
214.2532501365174
 20
120.4486637688073
 30
0.0
 10
213.6618691366682
 20
120.7435703165457
 30
0.0
 10
213.4562066693608
 20
120.8273364040247
 30
0.0
 10
213.0398324054532
 20
120.9614746541894
 30
0.0
 10
212.8275242195262
 20
121.01270023168
 30
0.0
 10
212.3945468716164
 20
121.0830432274838
 30
0.0
 10
212.172315979698
 20
121.1019751681219
 30
0.0
 10
211.7335645210998
 20
121.105627115474
 30
0.0
 10
211.5156564889072
 20
121.0907993439767
 30
0.0
 10
211.0827809829188
 20
121.0277656650594
 30
0.0
 10
210.8659734715833
 20
120.9789407579995
 30
0.0
 10
210.4452201280625
 20
120.8484599326023
 30
0.0
 10
210.2421547718084
 20
120.7674486725725
 30
0.0
 10
210.0463431868345
 20
120.6707697126036
 30
0.0
  0
CIRCLE
  5
122
330
1F
100
AcDbEntity
  8
0
  6
HIDDEN
 62
     7
370
     0
100
AcDbCircle
 10
175.447644771
 20
119.8923811699
 30
0.0
 40
2.299999999999983
  0
LINE
  5
123
330
1F
100
AcDbEntity
  8
0
  6
HIDDEN
 62
     7
370
     0
100
AcDbLine
 10
163.9746772954
 20
129.4550747062
 30
0.0
 11
163.9746772954
 21
110.3296876336
 31
0.0
  0
LINE
  5
124
330
1F
100
AcDbEntity
  8
0
  6
HIDDEN
 62
     7
370
     0
100
AcDbLine
 10
162.9476445624
 20
109.7367303829
 30
0.0
 11
162.9476445624
 21
130.0354078795
 31
0.0
  0
LINE
  5
125
330
1F
100
AcDbEntity
  8
0
  6
HIDDEN
 62
     7
370
     0
100
AcDbLine
 10
167.4746769377
 20
129.1233208413
 30
0.0
 11
167.4746769377
 21
110.6614414985
 31
0.0
  0
LINE
  5
126
330
1F
100
AcDbEntity
  8
0
  6
HIDDEN
 62
     7
370
     0
100
AcDbLine
 10
170.87467675
 20
128.8923807825
 30
0.0
 11
170.87467675
 21
110.8923815573
 31
0.0
  0
LINE
  5
127
330
1F
100
AcDbEntity
  8
0
  6
HIDDEN
 62
     7
370
     0
100
AcDbLine
 10
166.0746774533
 20
128.8923807825
 30
0.0
 11
166.0746774533
 21
110.8923815573
 31
0.0
  0
LINE
  5
128
330
1F
100
AcDbEntity
  8
0
  6
HIDDEN
 62
     7
370
     0
100
AcDbLine
 10
167.0746776172
 20
128.8923807825
 30
0.0
 11
167.0746776172
 21
110.8923815573
 31
0.0
  0
SPLINE
  5
129
330
1F
100
AcDbEntity
  8
0
  6
HIDDEN
 62
     7
370
     0
100
AcDbSpline
210
0.0
220
0.0
230
1.0
 70
     8
 71
     3
 72
    14
 73
    10
 74
     0
 42
0.00000001
 43
0.00000001
 12
1.0
 22
0.0
 32
0.0
 13
1.0
 23
0.0
 33
0.0
 40
0.0
 40
0.0
 40
0.0
 40
0.0
 40
0.25
 40
0.25
 40
0.5
 40
0.5
 40
0.75
 40
0.75
 40
1.0
 40
1.0
 40
1.0
 40
1.0
 10
177.4476447710291
 20
121.0281628390697
 30
0.0
 10
177.545869117532
 20
120.8551994092662
 30
0.0
 10
177.6211839555161
 20
120.6701668548418
 30
0.0
 10
177.7221506657104
 20
120.2871546407073
 30
0.0
 10
177.7475262520006
 20
120.0924360872417
 30
0.0
 10
177.7477624772669
 20
119.6950607859761
 30
0.0
 10
177.7220594079314
 20
119.4975684515007
 30
0.0
 10
177.6217392944149
 20
119.1163966168697
 30
0.0
 10
177.5458474663273
 20
118.9295248048971
 30
0.0
 10
177.4476447710336
 20
118.7565995007472
 30
0.0
  0
LINE
  5
12A
330
1F
100
AcDbEntity
  8
0
  6
HIDDEN
 62
     7
370
     0
100
AcDbLine
 10
177.9476451585
 20
128.3923816318
 30
0.0
 11
177.9476451585
 21
111.392380708
 31
0.0
  0
SPLINE
  5
12B
330
1F
100
AcDbEntity
  8
0
  6
HIDDEN
 62
     7
370
     0
100
AcDbSpline
210
0.0
220
0.0
230
1.0
 70
     8
 71
     3
 72
    14
 73
    10
 74
     0
 42
0.00000001
 43
0.00000001
 12
1.0
 22
0.0
 32
0.0
 13
1.0
 23
0.0
 33
0.0
 40
0.0
 40
0.0
 40
0.0
 40
0.0
 40
0.25
 40
0.25
 40
0.5
 40
0.5
 40
0.75
 40
0.75
 40
1.0
 40
1.0
 40
1.0
 40
1.0
 10
177.4476447710291
 20
118.7565995007496
 30
0.0
 10
177.545869117532
 20
118.9295629305531
 30
0.0
 10
177.6211839555161
 20
119.1145954849775
 30
0.0
 10
177.7221506657104
 20
119.497607699112
 30
0.0
 10
177.7475262520006
 20
119.6923262525776
 30
0.0
 10
177.7477624772669
 20
120.0897015538432
 30
0.0
 10
177.7220594079314
 20
120.2871938883186
 30
0.0
 10
177.6217392944149
 20
120.6683657229496
 30
0.0
 10
177.5458474663273
 20
120.8552375349222
 30
0.0
 10
177.4476447710336
 20
121.0281628390721
 30
0.0
  0
SPLINE
  5
12C
330
1F
100
AcDbEntity
  8
0
  6
HIDDEN
 62
     7
370
     0
100
AcDbSpline
210
0.0
220
0.0
230
1.0
 70
     8
 71
     3
 72
    60
 73
    56
 74
     0
 42
0.00000001
 43
0.00000001
 12
1.0
 22
0.0
 32
0.0
 13
1.0
 23
0.0
 33
0.0
 40
0.0
 40
0.0
 40
0.0
 40
0.0
 40
0.0625000000000007
 40
0.0625000000000007
 40
0.1250000000000014
 40
0.1250000000000014
 40
0.1875000000000021
 40
0.1875000000000021
 40
0.2187500000000022
 40
0.2187500000000022
 40
0.2500000000000024
 40
0.2500000000000024
 40
0.3125000000000023
 40
0.3125000000000023
 40
0.3750000000000021
 40
0.3750000000000021
 40
0.406250000000002
 40
0.406250000000002
 40
0.4375000000000018
 40
0.4375000000000018
 40
0.4687500000000017
 40
0.4687500000000017
 40
0.5000000000000016
 40
0.5000000000000016
 40
0.5312500000000014
 40
0.5312500000000014
 40
0.5625000000000013
 40
0.5625000000000013
 40
0.5937500000000013
 40
0.5937500000000013
 40
0.6250000000000012
 40
0.6250000000000012
 40
0.6562500000000011
 40
0.6562500000000011
 40
0.687500000000001
 40
0.687500000000001
 40
0.7187500000000009
 40
0.7187500000000009
 40
0.7500000000000008
 40
0.7500000000000008
 40
0.7812500000000008
 40
0.7812500000000008
 40
0.8125000000000007
 40
0.8125000000000007
 40
0.8437500000000006
 40
0.8437500000000006
 40
0.8750000000000004
 40
0.8750000000000004
 40
0.9062500000000003
 40
0.9062500000000003
 40
0.9375000000000003
 40
0.9375000000000003
 40
0.9687500000000002
 40
0.9687500000000002
 40
1.0
 40
1.0
 40
1.0
 40
1.0
 10
177.4476447710291
 20
118.7565995007496
 30
0.0
 10
177.3224548694503
 20
118.536152376134
 30
0.0
 10
177.1655875508822
 20
118.3424186473137
 30
0.0
 10
176.7885500310634
 20
118.0067289485512
 30
0.0
 10
176.5768367246424
 20
117.8727515902385
 30
0.0
 10
176.1109467426936
 20
117.6756248455534
 30
0.0
 10
175.8651075116421
 20
117.6164074333315
 30
0.0
 10
175.4856264585474
 20
117.5892006974408
 30
0.0
 10
175.3578807298535
 20
117.5906939625827
 30
0.0
 10
175.1074144831854
 20
117.6142097683916
 30
0.0
 10
174.9835851003772
 20
117.6361289871959
 30
0.0
 10
174.6163654262786
 20
117.7329655520408
 30
0.0
 10
174.3855964081928
 20
117.8367666734925
 30
0.0
 10
173.9657074467733
 20
118.1154851544206
 30
0.0
 10
173.7814490718858
 20
118.2870474459243
 30
0.0
 10
173.5507006844024
 20
118.5856948071911
 30
0.0
 10
173.4816538346134
 20
118.6921623476934
 30
0.0
 10
173.3630891708079
 20
118.9124456960863
 30
0.0
 10
173.3128808020583
 20
119.0271072124877
 30
0.0
 10
173.2310489497005
 20
119.2657878492645
 30
0.0
 10
173.1996980508178
 20
119.3898334761426
 30
0.0
 10
173.1583036727792
 20
119.637948512251
 30
0.0
 10
173.147797897715
 20
119.7631862147394
 30
0.0
 10
173.1474949453792
 20
120.0160652703304
 30
0.0
 10
173.1579794749957
 20
120.1439449565671
 30
0.0
 10
173.1991195524572
 20
120.3923670177725
 30
0.0
 10
173.2296976730057
 20
120.5141659445409
 30
0.0
 10
173.3109803813571
 20
120.7529454740152
 30
0.0
 10
173.361981267919
 20
120.8699870363219
 30
0.0
 10
173.480548316282
 20
121.0908122342478
 30
0.0
 10
173.5484370695538
 20
121.1957505978106
 30
0.0
 10
173.7015875072914
 20
121.39472793104
 30
0.0
 10
173.7871436788639
 20
121.4887360562341
 30
0.0
 10
173.9698550498231
 20
121.6592287411709
 30
0.0
 10
174.067662349505
 20
121.7366669362202
 30
0.0
 10
174.276465461422
 20
121.8758328321085
 30
0.0
 10
174.3880476367098
 20
121.9376146411155
 30
0.0
 10
174.6166934362089
 20
122.0406935117163
 30
0.0
 10
174.73464824718
 20
122.0826975469119
 30
0.0
 10
174.9779766921687
 20
122.1474336682087
 30
0.0
 10
175.1043205675118
 20
122.1701069307714
 30
0.0
 10
175.3554265485296
 20
122.1939897269526
 30
0.0
 10
175.4811085422526
 20
122.1955930282192
 30
0.0
 10
175.7327306120444
 20
122.1781262894483
 30
0.0
 10
175.8596282323302
 20
122.1586903988084
 30
0.0
 10
176.1048187985913
 20
122.1000972274847
 30
0.0
 10
176.2240079556248
 20
122.0610343763281
 30
0.0
 10
176.4556929799796
 20
121.9635246542043
 30
0.0
 10
176.5688677843301
 20
121.9044892999157
 30
0.0
 10
176.7809462012658
 20
121.7706855830762
 30
0.0
 10
176.8807349799667
 20
121.6956903669315
 30
0.0
 10
177.0679931669556
 20
121.5294953024107
 30
0.0
 10
177.155888203899
 20
121.4376011036691
 30
0.0
 10
177.3141092795309
 20
121.2422369059548
 30
0.0
 10
177.3850472358226
 20
121.1383909522823
 30
0.0
 10
177.447644771029
 20
121.0281628390697
 30
0.0
  0
SPLINE
  5
12D
330
1F
100
AcDbEntity
  8
0
  6
HIDDEN
 62
     7
370
     0
100
AcDbSpline
210
0.0
220
0.0
230
1.0
 70
     8
 71
     3
 72
    60
 73
    56
 74
     0
 42
0.00000001
 43
0.00000001
 12
1.0
 22
0.0
 32
0.0
 13
1.0
 23
0.0
 33
0.0
 40
0.0
 40
0.0
 40
0.0
 40
0.0
 40
0.0624999999999999
 40
0.0624999999999999
 40
0.1249999999999997
 40
0.1249999999999997
 40
0.1874999999999996
 40
0.1874999999999996
 40
0.2187499999999995
 40
0.2187499999999995
 40
0.2499999999999994
 40
0.2499999999999994
 40
0.3124999999999993
 40
0.3124999999999993
 40
0.3749999999999992
 40
0.3749999999999992
 40
0.4062499999999992
 40
0.4062499999999992
 40
0.4374999999999992
 40
0.4374999999999992
 40
0.4687499999999993
 40
0.4687499999999993
 40
0.4999999999999993
 40
0.4999999999999993
 40
0.5312499999999993
 40
0.5312499999999993
 40
0.5624999999999994
 40
0.5624999999999994
 40
0.5937499999999994
 40
0.5937499999999994
 40
0.6249999999999994
 40
0.6249999999999994
 40
0.6562499999999996
 40
0.6562499999999996
 40
0.6874999999999996
 40
0.6874999999999996
 40
0.7187499999999997
 40
0.7187499999999997
 40
0.7499999999999997
 40
0.7499999999999997
 40
0.7812499999999997
 40
0.7812499999999997
 40
0.8124999999999998
 40
0.8124999999999998
 40
0.8437499999999998
 40
0.8437499999999998
 40
0.8749999999999998
 40
0.8749999999999998
 40
0.9062499999999999
 40
0.9062499999999999
 40
0.9374999999999999
 40
0.9374999999999999
 40
0.96875
 40
0.96875
 40
1.0
 40
1.0
 40
1.0
 40
1.0
 10
177.4476447710291
 20
121.0281628390697
 30
0.0
 10
177.3224548694503
 20
121.2486099636853
 30
0.0
 10
177.1655875508822
 20
121.4423436925056
 30
0.0
 10
176.7885500310634
 20
121.7780333912681
 30
0.0
 10
176.5768367246424
 20
121.9120107495808
 30
0.0
 10
176.1109467426936
 20
122.1091374942659
 30
0.0
 10
175.865107511642
 20
122.1683549064878
 30
0.0
 10
175.4856264585474
 20
122.1955616423785
 30
0.0
 10
175.3578807298535
 20
122.1940683772366
 30
0.0
 10
175.1074144831854
 20
122.1705525714276
 30
0.0
 10
174.9835851003772
 20
122.1486333526234
 30
0.0
 10
174.6163654262785
 20
122.0517967877785
 30
0.0
 10
174.3855964081928
 20
121.9479956663267
 30
0.0
 10
173.9657074467733
 20
121.6692771853987
 30
0.0
 10
173.7814490718857
 20
121.497714893895
 30
0.0
 10
173.5507006844024
 20
121.1990675326282
 30
0.0
 10
173.4816538346134
 20
121.0925999921259
 30
0.0
 10
173.3630891708079
 20
120.8723166437329
 30
0.0
 10
173.3128808020583
 20
120.7576551273315
 30
0.0
 10
173.2310489497005
 20
120.5189744905548
 30
0.0
 10
173.1996980508178
 20
120.3949288636767
 30
0.0
 10
173.1583036727792
 20
120.1468138275683
 30
0.0
 10
173.147797897715
 20
120.0215761250799
 30
0.0
 10
173.1474949453792
 20
119.7686970694888
 30
0.0
 10
173.1579794749957
 20
119.6408173832522
 30
0.0
 10
173.1991195524572
 20
119.3923953220467
 30
0.0
 10
173.2296976730058
 20
119.2705963952784
 30
0.0
 10
173.3109803813571
 20
119.031816865804
 30
0.0
 10
173.361981267919
 20
118.9147753034974
 30
0.0
 10
173.480548316282
 20
118.6939501055715
 30
0.0
 10
173.5484370695538
 20
118.5890117420087
 30
0.0
 10
173.7015875072914
 20
118.3900344087793
 30
0.0
 10
173.7871436788639
 20
118.2960262835851
 30
0.0
 10
173.9698550498231
 20
118.1255335986484
 30
0.0
 10
174.067662349505
 20
118.0480954035991
 30
0.0
 10
174.276465461422
 20
117.9089295077108
 30
0.0
 10
174.3880476367099
 20
117.8471476987038
 30
0.0
 10
174.6166934362089
 20
117.744068828103
 30
0.0
 10
174.73464824718
 20
117.7020647929073
 30
0.0
 10
174.9779766921687
 20
117.6373286716105
 30
0.0
 10
175.1043205675118
 20
117.6146554090479
 30
0.0
 10
175.3554265485297
 20
117.5907726128667
 30
0.0
 10
175.4811085422526
 20
117.5891693116
 30
0.0
 10
175.7327306120444
 20
117.6066360503709
 30
0.0
 10
175.8596282323302
 20
117.6260719410109
 30
0.0
 10
176.1048187985914
 20
117.6846651123346
 30
0.0
 10
176.2240079556248
 20
117.7237279634912
 30
0.0
 10
176.4556929799797
 20
117.821237685615
 30
0.0
 10
176.5688677843302
 20
117.8802730399036
 30
0.0
 10
176.7809462012659
 20
118.0140767567431
 30
0.0
 10
176.8807349799667
 20
118.0890719728878
 30
0.0
 10
177.0679931669557
 20
118.2552670374086
 30
0.0
 10
177.155888203899
 20
118.3471612361502
 30
0.0
 10
177.3141092795309
 20
118.5425254338645
 30
0.0
 10
177.3850472358226
 20
118.646371387537
 30
0.0
 10
177.4476447710291
 20
118.7565995007496
 30
0.0
  0
LWPOLYLINE
  5
12E
330
1F
100
AcDbEntity
  8
0
  6
HIDDEN
 62
     7
370
     0
100
AcDbPolyline
 90
       38
 70
   128
 43
0.0
 10
219.5539149353
 20
112.8398012752
 10
219.4865281591
 20
112.2570117387
 10
219.3219709107
 20
111.6909878711
 10
219.0649743089
 20
111.1580133821
 10
218.7229293296
 20
110.6734211008
 10
218.3056781897
 20
110.2511510636
 10
217.8252237746
 20
109.9033523734
 10
217.295388774
 20
109.6400292973
 10
216.731415213
 20
109.4687581445
 10
216.1495267311
 20
109.3944656114
 10
215.56646292
 20
109.4192900146
 10
214.9990006247
 20
109.5425151671
 10
214.463460342
 20
109.7605973865
 10
213.9752517351
 20
110.0672632838
 10
213.548417286
 20
110.4536895091
 10
213.1952374139
 20
110.9087607275
 10
212.925874711
 20
111.4193834747
 10
212.7480740556
 20
111.9708689312
 10
212.6669539967
 20
112.5473529483
 10
212.684846566
 20
113.1322496022
 10
212.8012358108
 20
113.7087331536
 10
213.0127764204
 20
114.2602190758
 10
213.3133794078
 20
114.7708422887
 10
213.6944002369
 20
115.2259125757
 10
214.1448753783
 20
115.6123392667
 10
214.6518464097
 20
115.9190046984
 10
215.2007288197
 20
116.1370871506
 10
215.7757311025
 20
116.2603127687
 10
216.3603129694
 20
116.2851364734
 10
216.9376565972
 20
116.2108441732
 10
217.4911527792
 20
116.0395732532
 10
218.0048777619
 20
115.7762506428
 10
218.4640514561
 20
115.4284514869
 10
218.8554677078
 20
115.0061819154
 10
219.1678668269
 20
114.5215891684
 10
219.3922559628
 20
113.9886146794
 10
219.5221866378
 20
113.4225908118
 10
219.5539149353
 20
112.8398012752
  0
LINE
  5
12F
330
1F
100
AcDbEntity
  8
0
  6
HIDDEN
 62
     7
370
     0
100
AcDbLine
 10
178.8476445609
 20
126.142381263
 30
0.0
 11
178.8476445609
 21
113.6423810768
 31
0.0
  0
LINE
  5
130
330
1F
100
AcDbEntity
  8
0
  6
HIDDEN
 62
     7
370
     0
100
AcDbLine
 10
177.9476451585
 20
112.7423812087
 30
0.0
 11
177.9476451585
 21
127.0298236432
 31
0.0
  0
ARC
  5
131
330
1F
100
AcDbEntity
  8
0
  6
HIDDEN
 62
     7
370
     0
100
AcDbCircle
 10
211.7677515867
 20
106.2047985314
 30
0.0
 40
2.077863456567044
100
AcDbArc
 50
85.5625422385
 51
257.7993074976
  0
SPLINE
  5
132
330
1F
100
AcDbEntity
  8
0
  6
HIDDEN
 62
     7
370
     0
100
AcDbSpline
210
0.0
220
0.0
230
1.0
 70
     8
 71
     3
 72
    62
 73
    58
 74
     0
 42
0.00000001
 43
0.00000001
 12
1.0
 22
0.0
 32
0.0
 13
1.0
 23
0.0
 33
0.0
 40
-0.0312500000000002
 40
-0.0312500000000002
 40
0.0
 40
0.0
 40
0.0312499999999999
 40
0.0312499999999999
 40
0.0624999999999998
 40
0.0624999999999998
 40
0.0937499999999996
 40
0.0937499999999996
 40
0.1249999999999995
 40
0.1249999999999995
 40
0.1874999999999995
 40
0.1874999999999995
 40
0.2187499999999994
 40
0.2187499999999994
 40
0.2499999999999992
 40
0.2499999999999992
 40
0.2812499999999991
 40
0.2812499999999991
 40
0.3124999999999989
 40
0.3124999999999989
 40
0.3437499999999988
 40
0.3437499999999988
 40
0.3749999999999987
 40
0.3749999999999987
 40
0.4062499999999986
 40
0.4062499999999986
 40
0.4374999999999984
 40
0.4374999999999984
 40
0.4687499999999983
 40
0.4687499999999983
 40
0.4999999999999982
 40
0.4999999999999982
 40
0.562499999999998
 40
0.562499999999998
 40
0.5937499999999981
 40
0.5937499999999981
 40
0.6249999999999981
 40
0.6249999999999981
 40
0.6874999999999983
 40
0.6874999999999983
 40
0.7187499999999986
 40
0.7187499999999986
 40
0.7499999999999988
 40
0.7499999999999988
 40
0.781249999999999
 40
0.781249999999999
 40
0.8124999999999992
 40
0.8124999999999992
 40
0.8749999999999994
 40
0.8749999999999994
 40
0.9062499999999996
 40
0.9062499999999996
 40
0.9374999999999997
 40
0.9374999999999997
 40
0.9687499999999998
 40
0.9687499999999998
 40
1.0
 40
1.0
 40
1.03125
 40
1.03125
 10
200.8078032252273
 20
120.1504682622556
 30
0.0
 10
201.0874863168308
 20
120.1504682622556
 30
0.0
 10
201.2247702737883
 20
120.1651550616231
 30
0.0
 10
201.4945060286397
 20
120.2222475280039
 30
0.0
 10
201.6283880477353
 20
120.2654023160034
 30
0.0
 10
201.8821346061333
 20
120.3763406246518
 30
0.0
 10
202.0023202678759
 20
120.4437862590259
 30
0.0
 10
202.2297828593897
 20
120.601592875086
 30
0.0
 10
202.3365980648513
 20
120.6920441932047
 30
0.0
 10
202.624842662176
 20
120.9857521708016
 30
0.0
 10
202.7809633610772
 20
121.2188719192966
 30
0.0
 10
202.9386788219194
 20
121.5883069558992
 30
0.0
 10
202.979588051027
 20
121.7170445750275
 30
0.0
 10
203.0339649560493
 20
121.9755786198546
 30
0.0
 10
203.0475524239388
 20
122.1042932503625
 30
0.0
 10
203.0477361889265
 20
122.3604610406183
 30
0.0
 10
203.0338501527204
 20
122.4887628089709
 30
0.0
 10
202.9797630681697
 20
122.7326340714498
 30
0.0
 10
202.9397543121247
 20
122.8496290955288
 30
0.0
 10
202.8334080375424
 20
123.0742047761418
 30
0.0
 10
202.7682087626249
 20
123.1791072920314
 30
0.0
 10
202.6165013585867
 20
123.3729354825219
 30
0.0
 10
202.5287006839467
 20
123.4631677675859
 30
0.0
 10
202.3353627745834
 20
123.6245892313811
 30
0.0
 10
202.2304143885718
 20
123.6957142326404
 30
0.0
 10
202.0036863786258
 20
123.8201010399561
 30
0.0
 10
201.8809146276437
 20
123.873453670597
 30
0.0
 10
201.6282361554184
 20
123.9581071331341
 30
0.0
 10
201.4972551839177
 20
123.9901706958381
 30
0.0
 10
201.2254668126689
 20
124.033670693578
 30
0.0
 10
201.0862332023346
 20
124.0445955270087
 30
0.0
 10
200.6730494195363
 20
124.0447298805804
 30
0.0
 10
200.3949736748215
 20
124.0008520532698
 30
0.0
 10
200.0149048467902
 20
123.873686671929
 30
0.0
 10
199.8921366048481
 20
123.8203489626231
 30
0.0
 10
199.6654504389618
 20
123.6960743579533
 30
0.0
 10
199.5602823304164
 20
123.6248865954785
 30
0.0
 10
199.2691958346863
 20
123.3818515012228
 30
0.0
 10
199.1152653124582
 20
123.1867160577474
 30
0.0
 10
198.9558337097084
 20
122.8503697070827
 30
0.0
 10
198.9158325121529
 20
122.7335872864299
 30
0.0
 10
198.8616732912235
 20
122.4902398707793
 30
0.0
 10
198.8476503846741
 20
122.3620614447735
 30
0.0
 10
198.8476391608374
 20
122.1054412293866
 30
0.0
 10
198.8611801140364
 20
121.9766228709336
 30
0.0
 10
198.9153982006463
 20
121.7181321374249
 30
0.0
 10
198.9562781552526
 20
121.5891885117265
 30
0.0
 10
199.1142462324284
 20
121.218854813741
 30
0.0
 10
199.2702741897833
 20
120.9858873149008
 30
0.0
 10
199.5590213091085
 20
120.6917285450874
 30
0.0
 10
199.6662361438375
 20
120.6010468991735
 30
0.0
 10
199.8930895507874
 20
120.4437428624988
 30
0.0
 10
200.0131070630272
 20
120.3763625076973
 30
0.0
 10
200.2669252704814
 20
120.2653909681724
 30
0.0
 10
200.4007923145328
 20
120.2222474894387
 30
0.0
 10
200.6704595564271
 20
120.1651658763345
 30
0.0
 10
200.8078032252273
 20
120.1504682622556
 30
0.0
 10
201.0874863168308
 20
120.1504682622556
 30
0.0
  0
LINE
  5
133
330
1F
100
AcDbEntity
  8
0
  6
HIDDEN
 62
     7
370
     0
100
AcDbLine
 10
203.9322658339
 20
113.6423810768
 30
0.0
 11
203.9322658339
 21
126.142381263
 31
0.0
  0
SPLINE
  5
134
330
1F
100
AcDbEntity
  8
0
  6
HIDDEN
 62
     7
370
     0
100
AcDbSpline
210
0.0
220
0.0
230
1.0
 70
     8
 71
     3
 72
    14
 73
    10
 74
     0
 42
0.00000001
 43
0.00000001
 12
1.0
 22
0.0
 32
0.0
 13
1.0
 23
0.0
 33
0.0
 40
0.0
 40
0.0
 40
0.0
 40
0.0
 40
0.25
 40
0.25
 40
0.5
 40
0.5
 40
0.75
 40
0.75
 40
1.0
 40
1.0
 40
1.0
 40
1.0
 10
210.1462436093391
 20
113.012085478324
 30
0.0
 10
210.114425196762
 20
113.0217770857864
 30
0.0
 10
210.0588412084496
 20
113.0473414422977
 30
0.0
 10
209.9107928876586
 20
113.1350311481668
 30
0.0
 10
209.8182640684896
 20
113.1977943962843
 30
0.0
 10
209.6282845831092
 20
113.3448404088736
 30
0.0
 10
209.5327091387364
 20
113.4271155955434
 30
0.0
 10
209.3495495825752
 20
113.599114644051
 30
0.0
 10
209.2630289640514
 20
113.6875880201228
 30
0.0
 10
209.1803177830483
 20
113.7781985550015
 30
0.0
  0
LINE
  5
135
330
1F
100
AcDbEntity
  8
0
  6
HIDDEN
 62
     7
370
     0
100
AcDbLine
 10
222.8638092884
 20
124.4127964984
 30
0.0
 11
227.5398756274
 21
119.8077685058
 31
0.0
  0
SPLINE
  5
136
330
1F
100
AcDbEntity
  8
0
  6
HIDDEN
 62
     7
370
     0
100
AcDbSpline
210
0.0
220
0.0
230
1.0
 70
     8
 71
     3
 72
     8
 73
     4
 74
     0
 42
0.00000001
 43
0.00000001
 12
1.0
 22
0.0
 32
0.0
 13
1.0
 23
0.0
 33
0.0
 40
0.0
 40
0.0
 40
0.0
 40
0.0
 40
1.0
 40
1.0
 40
1.0
 40
1.0
 10
210.3866049566979
 20
112.9668747620348
 30
0.0
 10
210.3072415122711
 20
112.9729718853016
 30
0.0
 10
210.2272040794055
 20
112.987425634155
 30
0.0
 10
210.1462436093391
 20
113.012085478324
 30
0.0
  0
SPLINE
  5
137
330
1F
100
AcDbEntity
  8
0
  6
HIDDEN
 62
     7
370
     0
100
AcDbSpline
210
0.0
220
0.0
230
1.0
 70
     8
 71
     3
 72
    20
 73
    16
 74
     0
 42
0.00000001
 43
0.00000001
 12
1.0
 22
0.0
 32
0.0
 13
1.0
 23
0.0
 33
0.0
 40
0.0
 40
0.0
 40
0.0
 40
0.0
 40
0.083962392942078
 40
0.1679245370010228
 40
0.2543281778704463
 40
0.3407315341716428
 40
0.424631192235767
 40
0.5085305957150212
 40
0.594898413276479
 40
0.6812658948223052
 40
0.7646381728575048
 40
0.8480101829783615
 40
0.9338306615228439
 40
0.9392227926020024
 40
0.9999999999999999
 40
0.9999999999999999
 40
0.9999999999999999
 40
0.9999999999999999
 10
210.9230711021915
 20
108.1188703338449
 30
0.0
 10
210.9212979579289
 20
107.5259966334923
 30
0.0
 10
210.9177516746598
 20
106.3402509901963
 30
0.0
 10
210.9163848611655
 20
104.669291491839
 30
0.0
 10
210.9179823545026
 20
103.0922897150895
 30
0.0
 10
210.9227670051459
 20
101.6460553276211
 30
0.0
 10
210.9304559423493
 20
100.3509890920775
 30
0.0
 10
210.9408894375514
 20
99.1995607592471
 30
0.0
 10
210.9540981545479
 20
98.19337095654579
 30
0.0
 10
210.9697814579319
 20
97.3555008370882
 30
0.0
 10
210.9874708937177
 20
96.69025608886746
 30
0.0
 10
211.0072619516149
 20
96.21399186719042
 30
0.0
 10
211.0217529042083
 20
95.95455585099009
 30
0.0
 10
211.0356397063031
 20
95.87532552527038
 30
0.0
 10
211.0416700338731
 20
95.83894910458741
 30
0.0
 10
211.0472089508072
 20
95.80553699385567
 30
0.0
  0
SPLINE
  5
138
330
1F
100
AcDbEntity
  8
0
  6
HIDDEN
 62
     7
370
     0
100
AcDbSpline
210
0.0
220
0.0
230
1.0
 70
     8
 71
     3
 72
     8
 73
     4
 74
     0
 42
0.00000001
 43
0.00000001
 12
1.0
 22
0.0
 32
0.0
 13
1.0
 23
0.0
 33
0.0
 40
0.0
 40
0.0
 40
0.0
 40
0.0
 40
1.0
 40
1.0
 40
1.0
 40
1.0
 10
210.9230702855654
 20
108.1188701871638
 30
0.0
 10
210.7080349656257
 20
109.7302763771365
 30
0.0
 10
210.5256256326505
 20
111.3458226573677
 30
0.0
 10
210.3866049566979
 20
112.9668747620348
 30
0.0
  0
LINE
  5
139
330
1F
100
AcDbEntity
  8
0
  6
HIDDEN
 62
     7
370
     0
100
AcDbLine
 10
227.5311360964
 20
107.4566534172
 30
0.0
 11
229.1321690091
 21
105.8799401308
 31
0.0
  0
ELLIPSE
  5
13A
330
1F
100
AcDbEntity
  8
0
  6
HIDDEN
 62
     7
370
     0
100
AcDbEllipse
 10
204.9181856474
 20
121.7093336109
 30
0.0
 11
126.4960526088442
 21
-11.56772908869246
 31
0.0
210
0.0
220
0.0
230
1.0
 40
0.1944540569
 41
4.85066972960392
 42
4.96436462540924
  0
SPLINE
  5
13B
330
1F
100
AcDbEntity
  8
0
  6
HIDDEN
 62
     7
370
     0
100
AcDbSpline
210
0.0
220
0.0
230
1.0
 70
     8
 71
     3
 72
    24
 73
    20
 74
     0
 42
0.00000001
 43
0.00000001
 12
1.0
 22
0.0
 32
0.0
 13
1.0
 23
0.0
 33
0.0
 40
0.0
 40
0.0
 40
0.0
 40
0.0
 40
0.0338948143959809
 40
0.0672623093486649
 40
0.1001032158878153
 40
0.1324183007978061
 40
0.1986207822196274
 40
0.262961242801561
 40
0.3280449712188153
 40
0.3914524235944218
 40
0.5177320830621139
 40
0.6417292973458768
 40
0.7031999365741901
 40
0.7634288570568465
 40
0.8236855468778645
 40
0.8828254582670908
 40
0.9223278889471106
 40
0.961383117344013
 40
1.0
 40
1.0
 40
1.0
 40
1.0
 10
226.7060582312118
 20
106.1809626034688
 30
0.0
 10
226.806107819987
 20
106.0255216286643
 30
0.0
 10
227.0046504734969
 20
105.7170579560029
 30
0.0
 10
227.2978880009936
 20
105.263028810972
 30
0.0
 10
227.5847942939385
 20
104.8199392430943
 30
0.0
 10
227.9647432049467
 20
104.2348057047621
 30
0.0
 10
228.4308435063676
 20
103.52003525931
 30
0.0
 10
228.9819462614907
 20
102.6800266749205
 30
0.0
 10
229.5157415865766
 20
101.8715076928212
 30
0.0
 10
230.2074187331432
 20
100.8309340192435
 30
0.0
 10
231.0323652970387
 20
99.60322005609372
 30
0.0
 10
231.8106011605185
 20
98.46416610957576
 30
0.0
 10
232.3953030716477
 20
97.6207894550197
 30
0.0
 10
232.813446436322
 20
97.02420065199043
 30
0.0
 10
233.2105345973463
 20
96.46442964279093
 30
0.0
 10
233.547181443282
 20
95.99622387552577
 30
0.0
 10
233.8274318865645
 20
95.61141815059307
 30
0.0
 10
234.0585555322798
 20
95.29733185549158
 30
0.0
 10
234.2048143244325
 20
95.10165898943512
 30
0.0
 10
234.277531011766
 20
95.004374700325
 30
0.0
  0
LINE
  5
13C
330
1F
100
AcDbEntity
  8
0
  6
HIDDEN
 62
     7
370
     0
100
AcDbLine
 10
210.9230711022
 20
108.1188703338
 30
0.0
 11
226.7060550758
 21
106.1809631447
 31
0.0
  0
ELLIPSE
  5
13D
330
1F
100
AcDbEntity
  8
0
  6
HIDDEN
 62
     7
370
     0
100
AcDbEllipse
 10
204.6965391733
 20
121.7365483759
 30
0.0
 11
-16.77809014457085
 21
27.22995866704608
 31
0.0
210
0.0
220
0.0
230
1.0
 40
0.0471546166
 41
2.807596548681959
 42
3.103913752744644
  0
SPLINE
  5
13E
330
1F
100
AcDbEntity
  8
0
  6
HIDDEN
 62
     7
370
     0
100
AcDbSpline
210
0.0
220
0.0
230
1.0
 70
     8
 71
     3
 72
    36
 73
    32
 74
     0
 42
0.00000001
 43
0.00000001
 12
1.0
 22
0.0
 32
0.0
 13
1.0
 23
0.0
 33
0.0
 40
0.0
 40
0.0
 40
0.0
 40
0.0
 40
0.1249999999999976
 40
0.1249999999999976
 40
0.2499999999999952
 40
0.2499999999999952
 40
0.3124999999999941
 40
0.3124999999999941
 40
0.374999999999993
 40
0.374999999999993
 40
0.4374999999999919
 40
0.4374999999999919
 40
0.4687499999999913
 40
0.4687499999999913
 40
0.4999999999999907
 40
0.4999999999999907
 40
0.5312499999999912
 40
0.5312499999999912
 40
0.5624999999999919
 40
0.5624999999999919
 40
0.6249999999999931
 40
0.6249999999999931
 40
0.6874999999999943
 40
0.6874999999999943
 40
0.7499999999999956
 40
0.7499999999999956
 40
0.8749999999999979
 40
0.8749999999999979
 40
0.937499999999999
 40
0.937499999999999
 40
1.0
 40
1.0
 40
1.0
 40
1.0
 10
214.8340030369674
 20
109.8659090512278
 30
0.0
 10
214.9303732251261
 20
109.7710029427698
 30
0.0
 10
215.0960243367417
 20
109.6750738921742
 30
0.0
 10
215.4989761613574
 20
109.500456973953
 30
0.0
 10
215.7379665828068
 20
109.4206701430666
 30
0.0
 10
216.1529528325405
 20
109.3318902855136
 30
0.0
 10
216.3009573411454
 20
109.3075166253166
 30
0.0
 10
216.6225592673674
 20
109.2768299093548
 30
0.0
 10
216.7944291596488
 20
109.2704651171839
 30
0.0
 10
217.1674414254682
 20
109.2915089925328
 30
0.0
 10
217.3712170928811
 20
109.3180549227923
 30
0.0
 10
217.7082441765303
 20
109.4149394674706
 30
0.0
 10
217.8252239244931
 20
109.4570037934431
 30
0.0
 10
218.0635684539217
 20
109.5687899860703
 30
0.0
 10
218.1862417678513
 20
109.6399485860112
 30
0.0
 10
218.4140568003452
 20
109.8074351682057
 30
0.0
 10
218.5167558022513
 20
109.9019017334927
 30
0.0
 10
218.68940065849
 20
110.0930638944213
 30
0.0
 10
218.759769177777
 20
110.189021836985
 30
0.0
 10
218.9371559984663
 20
110.471410814465
 30
0.0
 10
219.0100492212989
 20
110.6490640789124
 30
0.0
 10
219.1134939478086
 20
110.9787191004833
 30
0.0
 10
219.1437141195138
 20
111.132816168044
 30
0.0
 10
219.1801724900658
 20
111.4263213615207
 30
0.0
 10
219.1858696808148
 20
111.5656165920156
 30
0.0
 10
219.1780415004591
 20
111.9565040601564
 30
0.0
 10
219.1408420036138
 20
112.1854489373394
 30
0.0
 10
219.056479293019
 20
112.4766382303671
 30
0.0
 10
219.0233158012342
 20
112.5647240317825
 30
0.0
 10
218.9470462442992
 20
112.7178309055187
 30
0.0
 10
218.9038205816004
 20
112.7829392514551
 30
0.0
 10
218.8553653634632
 20
112.8306583259506
 30
0.0
  0
ELLIPSE
  5
13F
330
1F
100
AcDbEntity
  8
0
  6
HIDDEN
 62
     7
370
     0
100
AcDbEllipse
 10
220.0947056577
 20
107.2535075094
 30
0.0
 11
3.820382603358382
 21
-0.8609686982684224
 31
0.0
210
0.0
220
0.0
230
1.0
 40
0.1511474516
 41
3.380155686705635
 42
6.521748340295206
  0
ELLIPSE
  5
140
330
1F
100
AcDbEntity
  8
0
  6
HIDDEN
 62
     7
370
     0
100
AcDbEllipse
 10
212.0412310153
 20
116.8454771491
 30
0.0
 11
-3.08553303694464
 21
3.038656856958597
 31
0.0
210
0.0
220
0.0
230
1.0
 40
0.9698463104
 41
1.935004671761641
 42
4.730457035558218
  0
ELLIPSE
  5
141
330
1F
100
AcDbEntity
  8
0
  6
HIDDEN
 62
     7
370
     0
100
AcDbEllipse
 10
214.5940324022
 20
114.3314585513
 30
0.0
 11
3.169172162258377
 21
2.762630819038748
 31
0.0
210
0.0
220
0.0
230
1.0
 40
0.8059898683
 41
3.97360912122121
 42
5.248732962459619
  0
LINE
  5
142
330
1F
100
AcDbEntity
  8
0
  6
HIDDEN
 62
     7
370
     0
100
AcDbLine
 10
214.1060988316
 20
110.5827549855
 30
0.0
 11
214.8340037921
 21
109.8659094806
 31
0.0
  0
LINE
  5
143
330
1F
100
AcDbEntity
  8
0
  6
HIDDEN
 62
     7
370
     0
100
AcDbLine
 10
218.855367125
 20
112.8306584815
 30
0.0
 11
218.1274603018
 21
113.5475044521
 31
0.0
  0
LWPOLYLINE
  5
144
330
1F
100
AcDbEntity
  8
0
  6
HIDDEN
 62
     7
370
     0
100
AcDbPolyline
 90
       41
 70
   128
 43
0.0
 10
220.1699177632
 20
112.911728249
 10
220.0992154786
 20
112.2643822255
 10
219.9284556219
 20
111.6329757879
 10
219.6618440458
 20
111.0330559696
 10
219.3059409866
 20
110.4793958749
 10
218.8695157775
 20
109.9856282036
 10
218.3633084306
 20
109.5639104406
 10
217.7997874924
 20
109.2246268327
 10
217.1928278068
 20
108.9761322747
 10
216.5573771009
 20
108.8245446245
 10
215.9090778687
 20
108.7735975544
 10
215.2638967046
 20
108.8245446245
 10
214.6377182463
 20
108.9761322747
 10
214.0459633329
 20
109.2246268327
 10
213.5031997123
 20
109.5639104406
 10
213.022793726
 20
109.9856282036
 10
212.616576896
 20
110.4793958749
 10
212.2945460388
 20
111.0330559696
 10
212.0646360227
 20
111.6329757879
 10
211.9325055638
 20
112.2643822255
 10
211.901408703
 20
112.911728249
 10
211.9721109876
 20
113.5590747381
 10
212.1428708443
 20
114.1904811757
 10
212.409484283
 20
114.7904005284
 10
212.7653873423
 20
115.3440606232
 10
213.201814414
 20
115.8378287601
 10
213.7080198982
 20
116.2595467559
 10
214.2715408364
 20
116.598830131
 10
214.8785005221
 20
116.8473249218
 10
215.513951228
 20
116.9989121063
 10
216.1622504601
 20
117.0498594093
 10
216.8074316242
 20
116.9989121063
 10
217.4336100826
 20
116.8473249218
 10
218.0253649959
 20
116.598830131
 10
218.5681286165
 20
116.2595467559
 10
219.0485346028
 20
115.8378287601
 10
219.4547514328
 20
115.3440606232
 10
219.7767804274
 20
114.7904005284
 10
220.0066904434
 20
114.1904811757
 10
220.138822765
 20
113.5590747381
 10
220.1699177632
 20
112.911728249
  0
LINE
  5
145
330
1F
100
AcDbEntity
  8
0
  6
HIDDEN
 62
     7
370
     0
100
AcDbLine
 10
225.0441769966
 20
104.4123508419
 30
0.0
 11
222.6605760762
 21
107.7125585089
 31
0.0
  0
LINE
  5
146
330
1F
100
AcDbEntity
  8
0
  6
HIDDEN
 62
     7
370
     0
100
AcDbLine
 10
224.5061817476
 20
104.942172804
 30
0.0
 11
225.0441769966
 21
104.4123508419
 31
0.0
  0
LINE
  5
147
330
1F
100
AcDbEntity
  8
0
  6
HIDDEN
 62
     7
370
     0
100
AcDbLine
 10
220.6171798417
 20
109.8420136059
 30
0.0
 11
218.1274603018
 21
113.5475044521
 31
0.0
  0
LINE
  5
148
330
1F
100
AcDbEntity
  8
0
  6
HIDDEN
 62
     7
370
     0
100
AcDbLine
 10
222.6605760762
 20
107.7125585089
 30
0.0
 11
223.8376411506
 21
106.5533757592
 31
0.0
  0
LINE
  5
149
330
1F
100
AcDbEntity
  8
0
  6
HIDDEN
 62
     7
370
     0
100
AcDbLine
 10
216.2548127481
 20
108.0491245176
 30
0.0
 11
221.0228155264
 21
101.4476027722
 31
0.0
  0
ARC
  5
14A
330
1F
100
AcDbEntity
  8
0
  6
HIDDEN
 62
     7
370
     0
100
AcDbCircle
 10
224.1852240207
 20
101.3677821362
 30
0.0
 40
3.163415688556496
100
AcDbArc
 50
178.554135325
 51
74.2448436871
  0
LINE
  5
14B
330
1F
100
AcDbEntity
  8
0
  6
HIDDEN
 62
     7
370
     0
100
AcDbLine
 10
234.5568212578
 20
95.4935420687
 30
0.0
 11
228.2179119894
 21
106.170604975
 31
0.0
  0
LINE
  5
14C
330
1F
100
AcDbEntity
  8
0
  6
HIDDEN
 62
     7
370
     0
100
AcDbLine
 10
234.2775325188
 20
95.0043760623
 30
0.0
 11
234.5568212578
 21
95.4935420687
 31
0.0
  0
ARC
  5
14D
330
1F
100
AcDbEntity
  8
0
  6
HIDDEN
 62
     7
370
     0
100
AcDbCircle
 10
242.077507921
 20
114.398310003
 30
0.0
 40
16.11780163093798
100
AcDbArc
 50
205.5108869529
 51
210.6953514071
  0
LINE
  5
14E
330
1F
100
AcDbEntity
  8
0
  6
HIDDEN
 62
     7
370
     0
100
AcDbLine
 10
215.2588303098
 20
103.9509848143
 30
0.0
 11
220.1265404829
 21
95.7519598688
 31
0.0
  0
LINE
  5
14F
330
1F
100
AcDbEntity
  8
0
  6
HIDDEN
 62
     7
370
     0
100
AcDbLine
 10
216.2548127481
 20
108.0491245176
 30
0.0
 11
211.9285176405
 21
108.2764333497
 31
0.0
  0
LINE
  5
150
330
1F
100
AcDbEntity
  8
0
  6
HIDDEN
 62
     7
370
     0
100
AcDbLine
 10
227.5311360964
 20
107.4566534172
 30
0.0
 11
222.6605760762
 21
107.7125585089
 31
0.0
  0
LINE
  5
151
330
1F
100
AcDbEntity
  8
0
  6
HIDDEN
 62
     7
370
     0
100
AcDbLine
 10
216.3517708787
 20
107.9536388079
 30
0.0
 11
216.2548127481
 21
108.0491245176
 31
0.0
  0
LINE
  5
152
330
1F
100
AcDbEntity
  8
0
  6
HIDDEN
 62
     7
370
     0
100
AcDbLine
 10
164.447643877
 20
110.2347700308
 30
0.0
 11
164.447643877
 21
106.3948506872
 31
0.0
  0
LINE
  5
153
330
1F
100
AcDbEntity
  8
0
  6
HIDDEN
 62
     7
370
     0
100
AcDbLine
 10
162.9476445624
 20
110.6677828739
 30
0.0
 11
162.9476445624
 21
107.2608763735
 31
0.0
  0
SPLINE
  5
154
330
1F
100
AcDbEntity
  8
0
  6
HIDDEN
 62
     7
370
     0
100
AcDbSpline
210
0.0
220
0.0
230
1.0
 70
     8
 71
     3
 72
     8
 73
     4
 74
     0
 42
0.00000001
 43
0.00000001
 12
1.0
 22
0.0
 32
0.0
 13
1.0
 23
0.0
 33
0.0
 40
0.0
 40
0.0
 40
0.0
 40
0.0
 40
1.0
 40
1.0
 40
1.0
 40
1.0
 10
185.4526047930867
 20
106.1532966387521
 30
0.0
 10
185.5033319362933
 20
106.1075423374268
 30
0.0
 10
185.5612192658542
 20
106.0790381915633
 30
0.0
 10
185.6263244274695
 20
106.0673171619045
 30
0.0
  0
LINE
  5
155
330
1F
100
AcDbEntity
  8
0
  6
HIDDEN
 62
     7
370
     0
100
AcDbLine
 10
185.2476447485
 20
109.9734856198
 30
0.0
 11
185.2476447485
 21
108.9183427776
 31
0.0
  0
LINE
  5
156
330
1F
100
AcDbEntity
  8
0
  6
HIDDEN
 62
     7
370
     0
100
AcDbLine
 10
185.2476447485
 20
105.972144791
 30
0.0
 11
185.2476447485
 21
105.8722827966
 31
0.0
  0
SPLINE
  5
157
330
1F
100
AcDbEntity
  8
0
  6
HIDDEN
 62
     7
370
     0
100
AcDbSpline
210
0.0
220
0.0
230
1.0
 70
     8
 71
     3
 72
    16
 73
    12
 74
     0
 42
0.00000001
 43
0.00000001
 12
1.0
 22
0.0
 32
0.0
 13
1.0
 23
0.0
 33
0.0
 40
0.0
 40
0.0
 40
0.0
 40
0.0
 40
0.2500000000000001
 40
0.2500000000000001
 40
0.3749999999999998
 40
0.3749999999999998
 40
0.4999999999999996
 40
0.4999999999999996
 40
0.7499999999999998
 40
0.7499999999999998
 40
1.0
 40
1.0
 40
1.0
 40
1.0
 10
185.2476447710289
 20
108.9183431776632
 30
0.0
 10
185.1671074391298
 20
108.5293359937192
 30
0.0
 10
185.1070700951025
 20
108.1728355520949
 30
0.0
 10
185.0463323879489
 20
107.6863331669076
 30
0.0
 10
185.031010012836
 20
107.5322542260541
 30
0.0
 10
185.0104272035317
 20
107.2407846675615
 30
0.0
 10
185.0052276065059
 20
107.1032147836626
 30
0.0
 10
185.0051739533256
 20
106.7249699484733
 30
0.0
 10
185.0253714968031
 20
106.5150888799212
 30
0.0
 10
185.1060495851605
 20
106.1785095810094
 30
0.0
 10
185.1670957497676
 20
106.0522250890909
 30
0.0
 10
185.2476447710252
 20
105.9721447815984
 30
0.0
  0
SPLINE
  5
158
330
1F
100
AcDbEntity
  8
0
  6
HIDDEN
 62
     7
370
     0
100
AcDbSpline
210
0.0
220
0.0
230
1.0
 70
     8
 71
     3
 72
    24
 73
    20
 74
     0
 42
0.00000001
 43
0.00000001
 12
1.0
 22
0.0
 32
0.0
 13
1.0
 23
0.0
 33
0.0
 40
0.0
 40
0.0
 40
0.0
 40
0.0
 40
0.2499999999999998
 40
0.2499999999999998
 40
0.3750000000000006
 40
0.3750000000000006
 40
0.4375000000000011
 40
0.4375000000000011
 40
0.4687499999999998
 40
0.4687499999999998
 40
0.4999999999999986
 40
0.4999999999999986
 40
0.5624999999999992
 40
0.5624999999999992
 40
0.6249999999999997
 40
0.6249999999999997
 40
0.7500000000000002
 40
0.7500000000000002
 40
1.0
 40
1.0
 40
1.0
 40
1.0
 10
185.247644771029
 20
105.9721447816022
 30
0.0
 10
185.2480476816648
 20
106.0025690184402
 30
0.0
 10
185.2500916610054
 20
106.0354271189943
 30
0.0
 10
185.2593289038315
 20
106.0914524861479
 30
0.0
 10
185.263215966812
 20
106.1110635393333
 30
0.0
 10
185.2741198582186
 20
106.1453378227628
 30
0.0
 10
185.278261903969
 20
106.157400248235
 30
0.0
 10
185.2901569777217
 20
106.1797194129344
 30
0.0
 10
185.2954040420305
 20
106.1886859252946
 30
0.0
 10
185.3122711084095
 20
106.206335489821
 30
0.0
 10
185.3200935159347
 20
106.2104797739609
 30
0.0
 10
185.3370423165564
 20
106.216967315135
 30
0.0
 10
185.3444986677744
 20
106.2163704337634
 30
0.0
 10
185.3585585709668
 20
106.2146241697913
 30
0.0
 10
185.3646909561028
 20
106.2127934818929
 30
0.0
 10
185.381985718626
 20
106.20622707232
 30
0.0
 10
185.392003037035
 20
106.2003618571614
 30
0.0
 10
185.4203743712778
 20
106.181617173131
 30
0.0
 10
185.4369098089222
 20
106.1674530250444
 30
0.0
 10
185.4526047930867
 20
106.1532966387521
 30
0.0
  0
LINE
  5
159
330
1F
100
AcDbEntity
  8
0
  6
HIDDEN
 62
     7
370
     0
100
AcDbLine
 10
185.2476447485
 20
133.9124795432
 30
0.0
 11
185.2476447485
 21
133.8126175488
 31
0.0
  0
SPLINE
  5
15A
330
1F
100
AcDbEntity
  8
0
  6
HIDDEN
 62
     7
370
     0
100
AcDbSpline
210
0.0
220
0.0
230
1.0
 70
     8
 71
     3
 72
    24
 73
    20
 74
     0
 42
0.00000001
 43
0.00000001
 12
1.0
 22
0.0
 32
0.0
 13
1.0
 23
0.0
 33
0.0
 40
0.0
 40
0.0
 40
0.0
 40
0.0
 40
0.2499999999999982
 40
0.2499999999999982
 40
0.3749999999999959
 40
0.3749999999999959
 40
0.4374999999999961
 40
0.4374999999999961
 40
0.4999999999999962
 40
0.4999999999999962
 40
0.5312499999999952
 40
0.5312499999999952
 40
0.5624999999999943
 40
0.5624999999999943
 40
0.6249999999999943
 40
0.6249999999999943
 40
0.7499999999999962
 40
0.7499999999999962
 40
1.0
 40
1.0
 40
1.0
 40
1.0
 10
185.4526047930895
 20
133.6314657010696
 30
0.0
 10
185.4368382047911
 20
133.6172447300814
 30
0.0
 10
185.4202266718365
 20
133.6030144397465
 30
0.0
 10
185.3917003238785
 20
133.5842173845251
 30
0.0
 10
185.3816148900885
 20
133.5783289641838
 30
0.0
 10
185.3641321195537
 20
133.5717915693814
 30
0.0
 10
185.3579244631081
 20
133.5699803553803
 30
0.0
 10
185.343652962863
 20
133.5683745528738
 30
0.0
 10
185.3360828923599
 20
133.5678217754877
 30
0.0
 10
185.3186865629247
 20
133.5750205202004
 30
0.0
 10
185.3102272899646
 20
133.5801122689479
 30
0.0
 10
185.294166325417
 20
133.5979272014271
 30
0.0
 10
185.2893330895706
 20
133.6064496162895
 30
0.0
 10
185.2779071698353
 20
133.6283460529383
 30
0.0
 10
185.2738858139529
 20
133.6400865757442
 30
0.0
 10
185.2631253189217
 20
133.6741368396976
 30
0.0
 10
185.2592510098609
 20
133.6937118287264
 30
0.0
 10
185.2500781377337
 20
133.7495601374076
 30
0.0
 10
185.2480457670189
 20
133.7823378984365
 30
0.0
 10
185.2476447710291
 20
133.8126175582244
 30
0.0
  0
LINE
  5
15B
330
1F
100
AcDbEntity
  8
0
  6
HIDDEN
 62
     7
370
     0
100
AcDbLine
 10
164.447643877
 20
133.3899116526
 30
0.0
 11
164.447643877
 21
129.549992309
 31
0.0
  0
LINE
  5
15C
330
1F
100
AcDbEntity
  8
0
  6
HIDDEN
 62
     7
370
     0
100
AcDbLine
 10
162.9476445624
 20
132.5238859664
 30
0.0
 11
162.9476445624
 21
129.1169794659
 31
0.0
  0
SPLINE
  5
15D
330
1F
100
AcDbEntity
  8
0
  6
HIDDEN
 62
     7
370
     0
100
AcDbSpline
210
0.0
220
0.0
230
1.0
 70
     8
 71
     3
 72
     8
 73
     4
 74
     0
 42
0.00000001
 43
0.00000001
 12
1.0
 22
0.0
 32
0.0
 13
1.0
 23
0.0
 33
0.0
 40
0.0
 40
0.0
 40
0.0
 40
0.0
 40
1.0
 40
1.0
 40
1.0
 40
1.0
 10
185.6263244274695
 20
133.7174451779148
 30
0.0
 10
185.5612192658554
 20
133.7057241482562
 30
0.0
 10
185.5033319362954
 20
133.6772200023935
 30
0.0
 10
185.4526047930894
 20
133.6314657010697
 30
0.0
  0
LINE
  5
15E
330
1F
100
AcDbEntity
  8
0
  6
HIDDEN
 62
     7
370
     0
100
AcDbLine
 10
185.2476447485
 20
130.8664195622
 30
0.0
 11
185.2476447485
 21
129.81127672
 31
0.0
  0
SPLINE
  5
15F
330
1F
100
AcDbEntity
  8
0
  6
HIDDEN
 62
     7
370
     0
100
AcDbSpline
210
0.0
220
0.0
230
1.0
 70
     8
 71
     3
 72
    16
 73
    12
 74
     0
 42
0.00000001
 43
0.00000001
 12
1.0
 22
0.0
 32
0.0
 13
1.0
 23
0.0
 33
0.0
 40
0.0
 40
0.0
 40
0.0
 40
0.0
 40
0.2500000000000001
 40
0.2500000000000001
 40
0.3749999999999999
 40
0.3749999999999999
 40
0.4999999999999998
 40
0.4999999999999998
 40
0.7499999999999999
 40
0.7499999999999999
 40
1.0
 40
1.0
 40
1.0
 40
1.0
 10
185.2476447710289
 20
133.8126175582245
 30
0.0
 10
185.1671074391296
 20
133.7325488720722
 30
0.0
 10
185.1070700951023
 20
133.6086843805819
 30
0.0
 10
185.0463323879487
 20
133.3580035566498
 30
0.0
 10
185.0310100128358
 20
133.2635649523403
 30
0.0
 10
185.0104272035315
 20
133.0522538847216
 30
0.0
 10
185.0052276065059
 20
132.934964429968
 30
0.0
 10
185.0051739533258
 20
132.5569287582127
 30
0.0
 10
185.0253714968035
 20
132.2681516044686
 30
0.0
 10
185.1060495851615
 20
131.6183117413298
 30
0.0
 10
185.1670957497689
 20
131.2554828074371
 30
0.0
 10
185.247644771027
 20
130.8664191621654
 30
0.0
  0
LWPOLYLINE
  5
160
330
1F
100
AcDbEntity
  8
0
  6
HIDDEN
 62
     7
370
     0
100
AcDbPolyline
 90
       29
 70
   128
 43
0.0
 10
200.9476452032
 20
123.0997527401
 10
201.4149390989
 20
123.1485703411
 10
201.8588009187
 20
123.2925749301
 10
202.2569729844
 20
123.5245457302
 10
202.5894905338
 20
123.8328507553
 10
202.8396791676
 20
124.2020298178
 10
202.9949939707
 20
124.6135714846
 10
203.0476453611
 20
125.0468390445
 10
202.9949939707
 20
125.4801061387
 10
202.8396791676
 20
125.8916478055
 10
202.5894905338
 20
126.2608273337
 10
202.2569729844
 20
126.5691323588
 10
201.8588009187
 20
126.8011029261
 10
201.4149390989
 20
126.9451077479
 10
200.9476452032
 20
126.9939248833
 10
200.4803503761
 20
126.9451077479
 10
200.0364885563
 20
126.8011029261
 10
199.6383164906
 20
126.5691323588
 10
199.3057989412
 20
126.2608273337
 10
199.0556103074
 20
125.8916478055
 10
198.9002964356
 20
125.4801061387
 10
198.8476450452
 20
125.0468390445
 10
198.9002964356
 20
124.6135714846
 10
199.0556103074
 20
124.2020298178
 10
199.3057989412
 20
123.8328507553
 10
199.6383164906
 20
123.5245457302
 10
200.0364885563
 20
123.2925749301
 10
200.4803503761
 20
123.1485703411
 10
200.9476452032
 20
123.0997527401
  0
SPLINE
  5
161
330
1F
100
AcDbEntity
  8
0
  6
HIDDEN
 62
     7
370
     0
100
AcDbSpline
210
0.0
220
0.0
230
1.0
 70
     8
 71
     3
 72
    10
 73
     6
 74
     0
 42
0.00000001
 43
0.00000001
 12
1.0
 22
0.0
 32
0.0
 13
1.0
 23
0.0
 33
0.0
 40
0.0
 40
0.0
 40
0.0
 40
0.0
 40
0.5
 40
0.5
 40
1.0
 40
1.0
 40
1.0
 40
1.0
 10
220.1005009914383
 20
102.8103916263355
 30
0.0
 10
220.1501669701451
 20
102.6274924295914
 30
0.0
 10
220.2097611997471
 20
102.4605690978374
 30
0.0
 10
220.3400411702531
 20
102.1730397834519
 30
0.0
 10
220.4105540973367
 20
102.0505611926854
 30
0.0
 10
220.484820328427
 20
101.9774232325205
 30
0.0
  0
ARC
  5
162
330
1F
100
AcDbEntity
  8
0
  6
HIDDEN
 62
     7
370
     0
100
AcDbCircle
 10
223.2247057759
 20
102.3141670263
 30
0.0
 40
3.163367944224783
100
AcDbArc
 50
170.9749604396
 51
81.8240099344
  0
SPLINE
  5
163
330
1F
100
AcDbEntity
  8
0
  6
HIDDEN
 62
     7
370
     0
100
AcDbSpline
210
0.0
220
0.0
230
1.0
 70
     8
 71
     3
 72
    10
 73
     6
 74
     0
 42
0.00000001
 43
0.00000001
 12
1.0
 22
0.0
 32
0.0
 13
1.0
 23
0.0
 33
0.0
 40
0.0
 40
0.0
 40
0.0
 40
0.0
 40
0.5
 40
0.5
 40
1.0
 40
1.0
 40
1.0
 40
1.0
 10
224.5061826549232
 20
104.9421725072439
 30
0.0
 10
224.4320035617046
 20
105.015224653357
 30
0.0
 10
224.3104281719164
 20
105.1002420855387
 30
0.0
 10
224.0246844722431
 20
105.2731640253644
 30
0.0
 10
223.858572672804
 20
105.3615439106375
 30
0.0
 10
223.674581113433
 20
105.4453821069665
 30
0.0
  0
LINE
  5
164
330
1F
100
AcDbEntity
  8
0
  6
HIDDEN
 62
     7
370
     0
100
AcDbLine
 10
221.0228155264
 20
101.4476027722
 30
0.0
 11
220.4848202774
 21
101.9774228717
 31
0.0
  0
ELLIPSE
  5
165
330
1F
100
AcDbEntity
  8
0
  6
HIDDEN
 62
     7
370
     0
100
AcDbEllipse
 10
221.1020234945
 20
105.2154725888
 30
0.0
 11
-1.651289096608366
 21
2.417222755668845
 31
0.0
210
0.0
220
0.0
230
1.0
 40
0.8531826433
 41
2.07762634698518
 42
4.266950717528251
  0
LWPOLYLINE
  5
166
330
1F
100
AcDbEntity
  8
0
  6
HIDDEN
 62
     7
370
     0
100
AcDbPolyline
 90
       16
 70
   128
 43
0.0
 10
220.6171798417
 20
109.8420136059
 10
220.7676703939
 20
109.5202500383
 10
220.8237062105
 20
109.1477619867
 10
220.7828435013
 20
108.7408289696
 10
220.6468592295
 20
108.317235523
 10
220.4217026839
 20
107.8954963396
 10
220.117212356
 20
107.4940422932
 10
219.7466987082
 20
107.1304185699
 10
219.3263518521
 20
106.8205181892
 10
218.8745449194
 20
106.5778844441
 10
218.4110219487
 20
106.4131213735
 10
217.9560429314
 20
106.333431826
 10
217.5294916043
 20
106.3422961543
 10
217.1500111827
 20
106.4393287907
 10
216.8341847965
 20
106.6202875609
 10
216.5958183715
 20
106.877264605
  0
SPLINE
  5
167
330
1F
100
AcDbEntity
  8
0
  6
HIDDEN
 62
     7
370
     0
100
AcDbSpline
210
0.0
220
0.0
230
1.0
 70
     8
 71
     3
 72
    25
 73
    21
 74
     0
 42
0.00000001
 43
0.00000001
 12
1.0
 22
0.0
 32
0.0
 13
1.0
 23
0.0
 33
0.0
 40
0.0
 40
0.0
 40
0.0
 40
0.0
 40
0.0231991881822825
 40
0.046475721985828
 40
0.0698368419233445
 40
0.0932897101658275
 40
0.1168414051812684
 40
0.1761177224754093
 40
0.2360118679449699
 40
0.29648980184785
 40
0.3575946085844071
 40
0.3986634186066404
 40
0.4815977694395045
 40
0.6079538012437252
 40
0.6719828873759738
 40
0.7365971977225334
 40
0.8017010308083391
 40
0.8673472842397476
 40
0.9334244108761028
 40
1.0
 40
1.0
 40
1.0
 40
1.0
 10
234.5568206849944
 20
95.49354118174416
 30
0.0
 10
234.5116385363132
 20
95.55320030818756
 30
0.0
 10
234.4211236025865
 20
95.67271746338774
 30
0.0
 10
234.2811076679302
 20
95.85942255643239
 30
0.0
 10
234.1377260647107
 20
96.0519062131713
 30
0.0
 10
233.9906845554413
 20
96.25068943575552
 30
0.0
 10
233.764142973257
 20
96.5589304930135
 30
0.0
 10
233.4495704005714
 20
96.9915240953945
 30
0.0
 10
233.0361912443946
 20
97.56777307713841
 30
0.0
 10
232.602089930645
 20
98.18027103047946
 30
0.0
 10
232.1991179884947
 20
98.75508166034041
 30
0.0
 10
231.7282698783495
 20
99.43229230040123
 30
0.0
 10
231.0722917041436
 20
100.3845177909082
 30
0.0
 10
230.324434812142
 20
101.4851878191984
 30
0.0
 10
229.6045366959532
 20
102.5562864080754
 30
0.0
 10
229.0469923413915
 20
103.3914522502898
 30
0.0
 10
228.4751369155412
 20
104.2534850005392
 30
0.0
 10
227.8899411867114
 20
105.1410540387075
 30
0.0
 10
227.2926959379639
 20
106.0517362521586
 30
0.0
 10
226.887076770457
 20
106.6745086933559
 30
0.0
 10
226.6835050992556
 20
106.9870649944103
 30
0.0
  0
LINE
  5
168
330
1F
100
AcDbEntity
  8
0
  6
HIDDEN
 62
     7
370
     0
100
AcDbLine
 10
214.1060988316
 20
110.5827549855
 30
0.0
 11
216.5958183715
 21
106.877264605
 31
0.0
  0
LINE
  5
169
330
1F
100
AcDbEntity
  8
0
  6
HIDDEN
 62
     7
370
     0
100
AcDbLine
 10
162.9476445624
 20
129.1169794659
 30
0.0
 11
162.9476445624
 21
121.7425950254
 31
0.0
  0
LINE
  5
16A
330
1F
100
AcDbEntity
  8
0
  6
HIDDEN
 62
     7
370
     0
100
AcDbLine
 10
162.9476445624
 20
118.0421673144
 30
0.0
 11
162.9476445624
 21
110.6677828739
 31
0.0
  0
SPLINE
  5
16B
330
1F
100
AcDbEntity
  8
0
  6
HIDDEN
 62
     7
370
     0
100
AcDbSpline
210
0.0
220
0.0
230
1.0
 70
     8
 71
     3
 72
    24
 73
    20
 74
     0
 42
0.00000001
 43
0.00000001
 12
1.0
 22
0.0
 32
0.0
 13
1.0
 23
0.0
 33
0.0
 40
0.0
 40
0.0
 40
0.0
 40
0.0
 40
0.2499999999999954
 40
0.2499999999999954
 40
0.3749999999999901
 40
0.3749999999999901
 40
0.4374999999999892
 40
0.4374999999999892
 40
0.4999999999999883
 40
0.4999999999999883
 40
0.5312499999999881
 40
0.5312499999999881
 40
0.5624999999999878
 40
0.5624999999999878
 40
0.6249999999999911
 40
0.6249999999999911
 40
0.7499999999999941
 40
0.7499999999999941
 40
1.0
 40
1.0
 40
1.0
 40
1.0
 10
185.4526047930894
 20
109.0997874431114
 30
0.0
 10
185.436835915732
 20
109.0259287511818
 30
0.0
 10
185.420221933882
 20
108.952217362446
 30
0.0
 10
185.3916902678769
 20
108.840670538824
 30
0.0
 10
185.3816028530582
 20
108.8032989656955
 30
0.0
 10
185.3641152926039
 20
108.7463994680578
 30
0.0
 10
185.3579057308206
 20
108.7272963679125
 30
0.0
 10
185.343628177168
 20
108.688422853677
 30
0.0
 10
185.3360566293726
 20
108.6684981942436
 30
0.0
 10
185.3186390456943
 20
108.6384259762162
 30
0.0
 10
185.3101565490492
 20
108.6267445974131
 30
0.0
 10
185.2941182371774
 20
108.6194830866645
 30
0.0
 10
185.2892976889739
 20
108.6230613336743
 30
0.0
 10
185.277888464426
 20
108.634822188906
 30
0.0
 10
185.2738679839685
 20
108.6464878389565
 30
0.0
 10
185.2631141291482
 20
108.6830231690701
 30
0.0
 10
185.259241447866
 20
108.7104189023937
 30
0.0
 10
185.2500732980284
 20
108.7951448941497
 30
0.0
 10
185.2480447926593
 20
108.8559770163217
 30
0.0
 10
185.2476447710291
 20
108.9183431776633
 30
0.0
  0
SPLINE
  5
16C
330
1F
100
AcDbEntity
  8
0
  6
HIDDEN
 62
     7
370
     0
100
AcDbSpline
210
0.0
220
0.0
230
1.0
 70
     8
 71
     3
 72
    24
 73
    20
 74
     0
 42
0.00000001
 43
0.00000001
 12
1.0
 22
0.0
 32
0.0
 13
1.0
 23
0.0
 33
0.0
 40
0.0
 40
0.0
 40
0.0
 40
0.0
 40
0.2499999999999919
 40
0.2499999999999919
 40
0.3749999999999847
 40
0.3749999999999847
 40
0.4374999999999831
 40
0.4374999999999831
 40
0.4687499999999829
 40
0.4687499999999829
 40
0.4999999999999828
 40
0.4999999999999828
 40
0.5624999999999866
 40
0.5624999999999866
 40
0.6249999999999902
 40
0.6249999999999902
 40
0.7499999999999943
 40
0.7499999999999943
 40
1.0
 40
1.0
 40
1.0
 40
1.0
 10
185.2476447710254
 20
130.8664191621668
 30
0.0
 10
185.2480494406013
 20
130.9295099706594
 30
0.0
 10
185.2500928874156
 20
130.990695693162
 30
0.0
 10
185.2594924526699
 20
131.0761954256636
 30
0.0
 10
185.2634433461986
 20
131.1037758091048
 30
0.0
 10
185.2745956544956
 20
131.1402298912163
 30
0.0
 10
185.2788171954221
 20
131.1520883129108
 30
0.0
 10
185.2910249169857
 20
131.1627083642861
 30
0.0
 10
185.296815687238
 20
131.1655417315084
 30
0.0
 10
185.3137372003478
 20
131.1542271445102
 30
0.0
 10
185.3211433162977
 20
131.1424462587564
 30
0.0
 10
185.3376005695408
 20
131.1124054175267
 30
0.0
 10
185.3450570874518
 20
131.0926924639136
 30
0.0
 10
185.3589650167264
 20
131.0542903978535
 30
0.0
 10
185.3650569626214
 20
131.0354087479421
 30
0.0
 10
185.3822512549724
 20
130.9791078374105
 30
0.0
 10
185.392236205176
 20
130.9420317596009
 30
0.0
 10
185.4204822502749
 20
130.831373088711
 30
0.0
 10
185.436961787236
 20
130.7582440283026
 30
0.0
 10
185.4526047930957
 20
130.6849748966787
 30
0.0
  0
SPLINE
  5
16D
330
1F
100
AcDbEntity
  8
0
  6
HIDDEN
 62
     7
370
     0
100
AcDbSpline
210
0.0
220
0.0
230
1.0
 70
     8
 71
     3
 72
     8
 73
     4
 74
     0
 42
0.00000001
 43
0.00000001
 12
1.0
 22
0.0
 32
0.0
 13
1.0
 23
0.0
 33
0.0
 40
0.0
 40
0.0
 40
0.0
 40
0.0
 40
1.0
 40
1.0
 40
1.0
 40
1.0
 10
185.6263244274695
 20
109.8388618523029
 30
0.0
 10
185.5612192658554
 20
109.5838366170972
 30
0.0
 10
185.5033319362954
 20
109.337384600956
 30
0.0
 10
185.4526047930894
 20
109.0997874431114
 30
0.0
  0
SPLINE
  5
16E
330
1F
100
AcDbEntity
  8
0
  6
HIDDEN
 62
     7
370
     0
100
AcDbSpline
210
0.0
220
0.0
230
1.0
 70
     8
 71
     3
 72
     8
 73
     4
 74
     0
 42
0.00000001
 43
0.00000001
 12
1.0
 22
0.0
 32
0.0
 13
1.0
 23
0.0
 33
0.0
 40
0.0
 40
0.0
 40
0.0
 40
0.0
 40
1.0
 40
1.0
 40
1.0
 40
1.0
 10
185.4526047930956
 20
130.6849748966787
 30
0.0
 10
185.5033319363001
 20
130.4473777388431
 30
0.0
 10
185.5612192658581
 20
130.2009257227116
 30
0.0
 10
185.6263244274695
 20
129.9459004875164
 30
0.0
  0
LINE
  5
16F
330
1F
100
AcDbEntity
  8
0
  6
HIDDEN
 62
     7
370
     0
100
AcDbLine
 10
164.447643877
 20
117.3373528673
 30
0.0
 11
164.447643877
 21
110.2347700308
 31
0.0
  0
LINE
  5
170
330
1F
100
AcDbEntity
  8
0
  6
HIDDEN
 62
     7
370
     0
100
AcDbLine
 10
164.447643877
 20
129.549992309
 30
0.0
 11
164.447643877
 21
122.4474094725
 31
0.0
  0
LINE
  5
171
330
1F
100
AcDbEntity
  8
0
  6
HIDDEN
 62
     7
370
     0
100
AcDbLine
 10
185.2476447485
 20
129.81127672
 30
0.0
 11
185.2476447485
 21
109.9734856198
 31
0.0
  0
LINE
  5
172
330
1F
100
AcDbEntity
  8
0
  6
HIDDEN
 62
     7
370
     0
100
AcDbLine
 10
186.7476447761
 20
128.3717481802
 30
0.0
 11
186.7476447761
 21
111.4130141596
 31
0.0
  0
SPLINE
  5
173
330
1F
100
AcDbEntity
  8
0
  6
HIDDEN
 62
     7
370
     0
100
AcDbSpline
210
0.0
220
0.0
230
1.0
 70
     8
 71
     3
 72
    22
 73
    18
 74
     0
 42
0.00000001
 43
0.00000001
 12
1.0
 22
0.0
 32
0.0
 13
1.0
 23
0.0
 33
0.0
 40
0.0
 40
0.0
 40
0.0
 40
0.0
 40
0.1249999999999999
 40
0.1249999999999999
 40
0.25
 40
0.25
 40
0.3750000000000001
 40
0.3750000000000001
 40
0.5000000000000001
 40
0.5000000000000001
 40
0.625
 40
0.625
 40
0.75
 40
0.75
 40
0.8749999999999999
 40
0.8749999999999999
 40
1.0
 40
1.0
 40
1.0
 40
1.0
 10
167.1476447710291
 20
117.2994364900817
 30
0.0
 10
167.3285811291053
 20
117.4910563493882
 30
0.0
 10
167.5076765778821
 20
117.6846982137754
 30
0.0
 10
167.8585165663941
 20
118.0793534671596
 30
0.0
 10
168.0307096742988
 20
118.2803649978272
 30
0.0
 10
168.356441179918
 20
118.6965761130609
 30
0.0
 10
168.5125174150864
 20
118.9125919533477
 30
0.0
 10
168.7638966289755
 20
119.3779147165124
 30
0.0
 10
168.8577617592943
 20
119.6334539095352
 30
0.0
 10
168.8540338424321
 20
120.1677845446359
 30
0.0
 10
168.7566611999447
 20
120.4232054106366
 30
0.0
 10
168.5048403909509
 20
120.8832341265843
 30
0.0
 10
168.3498711354783
 20
121.0970711275129
 30
0.0
 10
168.025058377753
 20
121.5111097102066
 30
0.0
 10
167.8541653136251
 20
121.7104021822424
 30
0.0
 10
167.5055310740975
 20
122.1023770746766
 30
0.0
 10
167.327523223569
 20
122.294826360666
 30
0.0
 10
167.1476447710291
 20
122.4853258497376
 30
0.0
  0
LINE
  5
174
330
1F
100
AcDbEntity
  8
0
  6
HIDDEN
 62
     7
370
     0
100
AcDbLine
 10
167.1476448783
 20
117.299436397
 30
0.0
 11
167.1476448783
 21
122.4853259428
 31
0.0
  0
SPLINE
  5
175
330
1F
100
AcDbEntity
  8
0
  6
HIDDEN
 62
     7
370
     0
100
AcDbSpline
210
0.0
220
0.0
230
1.0
 70
     8
 71
     3
 72
     8
 73
     4
 74
     0
 42
0.00000001
 43
0.00000001
 12
1.0
 22
0.0
 32
0.0
 13
1.0
 23
0.0
 33
0.0
 40
0.0000137051794234
 40
0.0000137051794234
 40
0.0000137051794234
 40
0.0000137051794234
 40
0.0027147144718019
 40
0.0027147144718019
 40
0.0027147144718019
 40
0.0027147144718019
 10
164.447644771029
 20
117.3373529328479
 30
0.0
 10
165.3476409065238
 20
117.3243813656495
 30
0.0
 10
166.2476410851192
 20
117.3117465083374
 30
0.0
 10
167.1476447710291
 20
117.2994364900817
 30
0.0
  0
SPLINE
  5
176
330
1F
100
AcDbEntity
  8
0
  6
HIDDEN
 62
     7
370
     0
100
AcDbSpline
210
0.0
220
0.0
230
1.0
 70
     8
 71
     3
 72
     8
 73
     4
 74
     0
 42
0.00000001
 43
0.00000001
 12
1.0
 22
0.0
 32
0.0
 13
1.0
 23
0.0
 33
0.0
 40
0.0000137050638847
 40
0.0000137050638847
 40
0.0000137050638847
 40
0.0000137050638847
 40
0.0027147143562631
 40
0.0027147143562631
 40
0.0027147143562631
 40
0.0027147143562631
 10
167.1476447710291
 20
122.4853258497376
 30
0.0
 10
166.2476410851192
 20
122.4730158314818
 30
0.0
 10
165.3476409065238
 20
122.4603809741698
 30
0.0
 10
164.4476447710291
 20
122.4474094069714
 30
0.0
  0
SPLINE
  5
177
330
1F
100
AcDbEntity
  8
0
  6
HIDDEN
 62
     7
370
     0
100
AcDbSpline
210
0.0
220
0.0
230
1.0
 70
     8
 71
     3
 72
    10
 73
     6
 74
     0
 42
0.00000001
 43
0.00000001
 12
1.0
 22
0.0
 32
0.0
 13
1.0
 23
0.0
 33
0.0
 40
0.0
 40
0.0
 40
0.0
 40
0.0
 40
0.5
 40
0.5
 40
1.0
 40
1.0
 40
1.0
 40
1.0
 10
162.9476447710282
 20
118.0421673562595
 30
0.0
 10
163.1847867317441
 20
117.8865525417307
 30
0.0
 10
163.4301294905075
 20
117.7546435123114
 30
0.0
 10
163.9313930792405
 20
117.5229866356738
 30
0.0
 10
164.1874276484909
 20
117.423541019551
 30
0.0
 10
164.4476447710291
 20
117.3373529328479
 30
0.0
  0
SPLINE
  5
178
330
1F
100
AcDbEntity
  8
0
  6
HIDDEN
 62
     7
370
     0
100
AcDbSpline
210
0.0
220
0.0
230
1.0
 70
     8
 71
     3
 72
    10
 73
     6
 74
     0
 42
0.00000001
 43
0.00000001
 12
1.0
 22
0.0
 32
0.0
 13
1.0
 23
0.0
 33
0.0
 40
0.0
 40
0.0
 40
0.0
 40
0.0
 40
0.5
 40
0.5
 40
1.0
 40
1.0
 40
1.0
 40
1.0
 10
164.4476447710291
 20
122.4474094069714
 30
0.0
 10
164.1874276484911
 20
122.3612213202683
 30
0.0
 10
163.9313930792409
 20
122.2617757041456
 30
0.0
 10
163.4301294905081
 20
122.0301188275082
 30
0.0
 10
163.1847867317448
 20
121.8982097980891
 30
0.0
 10
162.9476447710291
 20
121.7425949835604
 30
0.0
  0
LINE
  5
179
330
1F
100
AcDbEntity
  8
0
  6
HIDDEN
 62
     7
370
     0
100
AcDbLine
 10
162.9476445624
 20
118.0421673144
 30
0.0
 11
162.9476445624
 21
121.7425950254
 31
0.0
  0
LWPOLYLINE
  5
17A
330
1F
100
AcDbEntity
  8
0
  6
HIDDEN
 62
     7
370
     0
100
AcDbPolyline
 90
       32
 70
   128
 43
0.0
 10
200.9476452032
 20
122.8189138147
 10
201.4508909443
 20
122.8663626044
 10
201.9335339674
 20
123.0067664674
 10
202.3758153328
 20
123.2343770481
 10
202.7596264043
 20
123.5398759982
 10
203.0692557701
 20
123.9107563543
 10
203.2920244047
 20
124.331833833
 10
203.41881466
 20
124.7858698862
 10
203.444435344
 20
125.2542762468
 10
203.3678377876
 20
125.7178760516
 10
203.1921568224
 20
126.1576894122
 10
202.9245841214
 20
126.5557106036
 10
202.5760757634
 20
126.8956442746
 10
202.1608996102
 20
127.1635736721
 10
201.6960522988
 20
127.3485296788
 10
201.2005654061
 20
127.4429406422
 10
200.6947240689
 20
127.4429406422
 10
200.1992371762
 20
127.3485296788
 10
199.7343898648
 20
127.1635736721
 10
199.3192137116
 20
126.8956442746
 10
198.9707053536
 20
126.5557106036
 10
198.703133584
 20
126.1576894122
 10
198.5274516874
 20
125.7178760516
 10
198.4508531997
 20
125.2542762468
 10
198.4764738837
 20
124.7858698862
 10
198.603264139
 20
124.331833833
 10
198.8260337049
 20
123.9107563543
 10
199.1356630707
 20
123.5398759982
 10
199.5194741422
 20
123.2343770481
 10
199.9617555076
 20
123.0067664674
 10
200.4443985307
 20
122.8663626044
 10
200.9476452032
 20
122.8189138147
  0
SPLINE
  5
17B
330
1F
100
AcDbEntity
  8
0
  6
HIDDEN
 62
     7
370
     0
100
AcDbSpline
210
0.0
220
0.0
230
1.0
 70
     8
 71
     3
 72
    62
 73
    58
 74
     0
 42
0.00000001
 43
0.00000001
 12
1.0
 22
0.0
 32
0.0
 13
1.0
 23
0.0
 33
0.0
 40
-0.0312499999999999
 40
-0.0312499999999999
 40
0.0
 40
0.0
 40
0.0312500000000001
 40
0.0312500000000001
 40
0.0625000000000002
 40
0.0625000000000002
 40
0.0937500000000004
 40
0.0937500000000004
 40
0.1250000000000005
 40
0.1250000000000005
 40
0.1875000000000004
 40
0.1875000000000004
 40
0.2500000000000003
 40
0.2500000000000003
 40
0.2812500000000002
 40
0.2812500000000002
 40
0.3125000000000002
 40
0.3125000000000002
 40
0.3437500000000001
 40
0.3437500000000001
 40
0.3750000000000001
 40
0.3750000000000001
 40
0.4375000000000001
 40
0.4375000000000001
 40
0.4687500000000001
 40
0.4687500000000001
 40
0.5000000000000001
 40
0.5000000000000001
 40
0.5625
 40
0.5625
 40
0.59375
 40
0.59375
 40
0.625
 40
0.625
 40
0.65625
 40
0.65625
 40
0.6875
 40
0.6875
 40
0.71875
 40
0.71875
 40
0.75
 40
0.75
 40
0.7812500000000001
 40
0.7812500000000001
 40
0.8125000000000001
 40
0.8125000000000001
 40
0.8437500000000001
 40
0.8437500000000001
 40
0.8750000000000001
 40
0.8750000000000001
 40
0.9062500000000001
 40
0.9062500000000001
 40
0.9375000000000001
 40
0.9375000000000001
 40
0.9687500000000001
 40
0.9687500000000001
 40
1.0
 40
1.0
 40
1.03125
 40
1.03125
 10
173.4014168989574
 20
121.380360208566
 30
0.0
 10
173.6289172455456
 20
121.6297067504266
 30
0.0
 10
173.753379774463
 20
121.7413044278836
 30
0.0
 10
174.0224740406148
 20
121.9399552237019
 30
0.0
 10
174.1682871322041
 20
122.0272954684907
 30
0.0
 10
174.4694540104935
 20
122.1714912211329
 30
0.0
 10
174.6257897375579
 20
122.2293108916471
 30
0.0
 10
174.9499130368923
 20
122.3165645036982
 30
0.0
 10
175.1165782486028
 20
122.34536655318
 30
0.0
 10
175.6145945152347
 20
122.3861458584478
 30
0.0
 10
175.9552654640277
 20
122.3527025983066
 30
0.0
 10
176.5942763794491
 20
122.1702499538478
 30
0.0
 10
176.900730986513
 20
122.018825393535
 30
0.0
 10
177.2972868957754
 20
121.7183274879507
 30
0.0
 10
177.4216360866249
 20
121.6040663027553
 30
0.0
 10
177.6441001806741
 20
121.3544064321828
 30
0.0
 10
177.7416655191513
 20
121.2202398241837
 30
0.0
 10
177.9089211227901
 20
120.932770729685
 30
0.0
 10
177.9790067783092
 20
120.7775038797851
 30
0.0
 10
178.0830621390308
 20
120.460524459698
 30
0.0
 10
178.1180379016982
 20
120.2978717081936
 30
0.0
 10
178.1699024212222
 20
119.796934687991
 30
0.0
 10
178.1305963134508
 20
119.4567800866807
 30
0.0
 10
177.96787652099
 20
118.9802854545836
 30
0.0
 10
177.8975960231037
 20
118.8292180947561
 30
0.0
 10
177.7262628779737
 20
118.5419235243152
 30
0.0
 10
177.624870636792
 20
118.4060657460178
 30
0.0
 10
177.2882710495688
 20
118.0372573510196
 30
0.0
 10
177.0130382834041
 20
117.8348322416885
 30
0.0
 10
176.5632550560582
 20
117.6177555150798
 30
0.0
 10
176.4044552575546
 20
117.5584532430056
 30
0.0
 10
176.0818935366749
 20
117.470480725205
 30
0.0
 10
175.9180344247077
 20
117.4413609613588
 30
0.0
 10
175.5852016513538
 20
117.4125043462485
 30
0.0
 10
175.415149359913
 20
117.4131278694626
 30
0.0
 10
175.0828736958933
 20
117.4443843132669
 30
0.0
 10
174.9191590841446
 20
117.4747030083188
 30
0.0
 10
174.5966935985702
 20
117.5654200473218
 30
0.0
 10
174.4381825000437
 20
117.6261889560236
 30
0.0
 10
174.1396287938458
 20
117.7736996308206
 30
0.0
 10
173.9978026646437
 20
117.8608346586845
 30
0.0
 10
173.7298809260854
 20
118.0634201252565
 30
0.0
 10
173.6057874956929
 20
118.1777582918987
 30
0.0
 10
173.3846533077747
 20
118.4259447298514
 30
0.0
 10
173.286196305676
 20
118.5609773467053
 30
0.0
 10
173.116837791941
 20
118.85298174476
 30
0.0
 10
173.0486709542351
 20
119.0051174911955
 30
0.0
 10
172.9449369879087
 20
119.3215264396356
 30
0.0
 10
172.9092684260395
 20
119.4880229089898
 30
0.0
 10
172.875054661387
 20
119.8212847851003
 30
0.0
 10
172.8759130642161
 20
119.9879472389222
 30
0.0
 10
172.9137098441657
 20
120.3213354381398
 30
0.0
 10
172.9510525996197
 20
120.4870910106193
 30
0.0
 10
173.0583021826882
 20
120.802982327082
 30
0.0
 10
173.1290633992272
 20
120.9562616601541
 30
0.0
 10
173.301186549328
 20
121.2456387026406
 30
0.0
 10
173.4014168989574
 20
121.380360208566
 30
0.0
 10
173.6289172455456
 20
121.6297067504266
 30
0.0
  0
CIRCLE
  5
17C
330
1F
100
AcDbEntity
  8
0
  6
HIDDEN
 62
     7
370
     0
100
AcDbCircle
 10
175.447644771
 20
119.8923811699
 30
0.0
 40
2.299999999999983
  0
CIRCLE
  5
17D
330
1F
100
AcDbEntity
  8
0
  6
HIDDEN
 62
     7
370
     0
100
AcDbCircle
 10
198.947644771
 20
119.8923811699
 30
0.0
 40
2.000000000000014
  0
SPLINE
  5
17E
330
1F
100
AcDbEntity
  8
0
  6
HIDDEN
 62
     7
370
     0
100
AcDbSpline
210
0.0
220
0.0
230
1.0
 70
     8
 71
     3
 72
     9
 73
     5
 74
     0
 42
0.00000001
 43
0.00000001
 12
1.0
 22
0.0
 32
0.0
 13
1.0
 23
0.0
 33
0.0
 40
0.0
 40
0.0
 40
0.0
 40
0.0
 40
0.4999997708183302
 40
1.0
 40
1.0
 40
1.0
 40
1.0
 10
226.6835035027211
 20
106.9870649273113
 30
0.0
 10
226.6886676000268
 20
106.8527541218925
 30
0.0
 10
226.6989957993723
 20
106.5841323879286
 30
0.0
 10
226.7037023970088
 20
106.31535337907
 30
0.0
 10
226.7060556969057
 20
106.1809638130415
 30
0.0
  0
LINE
  5
17F
330
1F
100
AcDbEntity
  8
0
  6
HIDDEN
 62
     7
370
     0
100
AcDbLine
 10
226.6835058936
 20
106.9870656739
 30
0.0
 11
225.6059097955
 21
108.7429253767
 31
0.0
  0
ELLIPSE
  5
180
330
1F
100
AcDbEntity
  8
0
  6
HIDDEN
 62
     7
370
     0
100
AcDbEllipse
 10
240.2519913185
 20
117.4382142647
 30
0.0
 11
12.48906229239506
 21
-12.2993253734036
 31
0.0
210
0.0
220
0.0
230
1.0
 40
0.9698463104
 41
3.934644933755898
 42
4.462540998683338
  0
LINE
  5
181
330
1F
100
AcDbEntity
  8
0
  6
HIDDEN
 62
     7
370
     0
100
AcDbLine
 10
222.9897390017
 20
117.4382141708
 30
0.0
 11
222.9145961711
 21
119.8923811699
 31
0.0
  0
LINE
  5
182
330
1F
100
AcDbEntity
  8
0
  6
HIDDEN
 62
     7
370
     0
100
AcDbLine
 10
186.947644771
 20
104.0923819328
 30
0.0
 11
187.0405379915
 21
104.1852739091
 31
0.0
  0
LINE
  5
183
330
1F
100
AcDbEntity
  8
0
  6
HIDDEN
 62
     7
370
     0
100
AcDbLine
 10
187.0405379915
 20
135.5994884307
 30
0.0
 11
186.947644771
 21
135.692380407
 31
0.0
  0
LINE
  5
184
330
1F
100
AcDbEntity
  8
0
  6
HIDDEN
 62
     7
370
     0
100
AcDbLine
 10
201.3708363184
 20
116.595827547
 30
0.0
 11
201.2705068001
 21
116.6589691221
 31
0.0
  0
LINE
  5
185
330
1F
100
AcDbEntity
  8
0
  6
HIDDEN
 62
     7
370
     0
100
AcDbLine
 10
206.0228316942
 20
113.668129352
 30
0.0
 11
202.7347917566
 21
115.7374326522
 31
0.0
  0
LINE
  5
186
330
1F
100
AcDbEntity
  8
0
  6
HIDDEN
 62
     7
370
     0
100
AcDbLine
 10
199.0334224784
 20
113.1043308797
 30
0.0
 11
205.970420585
 21
108.7385844822
 31
0.0
  0
LINE
  5
187
330
1F
100
AcDbEntity
  8
0
  6
HIDDEN
 62
     7
370
     0
100
AcDbLine
 10
198.9816167289
 20
113.7993196408
 30
0.0
 11
198.9501566523
 21
113.4006339508
 31
0.0
  0
ARC
  5
188
330
1F
100
AcDbEntity
  8
0
  6
HIDDEN
 62
     7
370
     0
100
AcDbCircle
 10
186.3334312087
 20
104.8923811699
 30
0.0
 40
1.000000000000008
100
AcDbArc
 50
315.0
 51
0.0
  0
ARC
  5
189
330
1F
100
AcDbEntity
  8
0
  6
HIDDEN
 62
     7
370
     0
100
AcDbCircle
 10
186.3334312087
 20
104.8923811699
 30
0.0
 40
1.0
100
AcDbArc
 50
0.0
 51
52.1052014664
  0
ARC
  5
18A
330
1F
100
AcDbEntity
  8
0
  6
HIDDEN
 62
     7
370
     0
100
AcDbCircle
 10
186.3334312087
 20
134.8923811699
 30
0.0
 40
0.999999999999988
100
AcDbArc
 50
351.8087250651
 51
45.0
  0
ARC
  5
18B
330
1F
100
AcDbEntity
  8
0
  6
HIDDEN
 62
     7
370
     0
100
AcDbCircle
 10
186.3334312087
 20
134.8923811699
 30
0.0
 40
0.9999999999999989
100
AcDbArc
 50
307.8947985336
 51
351.8087250651
  0
LINE
  5
18C
330
1F
100
AcDbEntity
  8
0
  6
HIDDEN
 62
     7
370
     0
100
AcDbLine
 10
187.3334312068
 20
104.8923815052
 30
0.0
 11
187.3334312068
 21
134.8923808346
 31
0.0
  0
LINE
  5
18D
330
1F
100
AcDbEntity
  8
0
  6
HIDDEN
 62
     7
370
     0
100
AcDbLine
 10
187.3334312068
 20
104.8923815052
 30
0.0
 11
187.3334312068
 21
134.8923808346
 31
0.0
  0
LINE
  5
18E
330
1F
100
AcDbEntity
  8
0
  6
HIDDEN
 62
     7
370
     0
100
AcDbLine
 10
203.0476453611
 20
115.0968629318
 30
0.0
 11
203.0476453611
 21
117.5535682506
 31
0.0
  0
LINE
  5
18F
330
1F
100
AcDbEntity
  8
0
  6
HIDDEN
 62
     7
370
     0
100
AcDbLine
 10
198.8476450452
 20
117.553938917
 30
0.0
 11
198.8476450452
 21
114.2732822719
 31
0.0
  0
LINE
  5
190
330
1F
100
AcDbEntity
  8
0
  6
HIDDEN
 62
     7
370
     0
100
AcDbLine
 10
199.2552299881
 20
115.6116314615
 30
0.0
 11
199.118352578
 21
115.5321458737
 31
0.0
  0
LINE
  5
191
330
1F
100
AcDbEntity
  8
0
  6
HIDDEN
 62
     7
370
     0
100
AcDbLine
 10
199.118352578
 20
115.5321458737
 30
0.0
 11
199.1047431612
 21
115.3596793684
 31
0.0
  0
LINE
  5
192
330
1F
100
AcDbEntity
  8
0
  6
HIDDEN
 62
     7
370
     0
100
AcDbLine
 10
162.9476445624
 20
109.7367303829
 30
0.0
 11
163.9746772954
 21
110.3296876336
 31
0.0
  0
LINE
  5
193
330
1F
100
AcDbEntity
  8
0
  6
HIDDEN
 62
     7
370
     0
100
AcDbLine
 10
163.9746772954
 20
129.4550747062
 30
0.0
 11
162.9476445624
 21
130.048031957
 31
0.0
  0
ARC
  5
194
330
1F
100
AcDbEntity
  8
0
  6
HIDDEN
 62
     7
370
     0
100
AcDbCircle
 10
169.4604632407
 20
110.8923811699
 30
0.0
 40
1.0
100
AcDbArc
 50
270.0
 51
315.0
  0
ARC
  5
195
330
1F
100
AcDbEntity
  8
0
  6
HIDDEN
 62
     7
370
     0
100
AcDbCircle
 10
169.4604632407
 20
128.8923811699
 30
0.0
 40
1.000000000000008
100
AcDbArc
 50
45.0
 51
90.0
  0
LINE
  5
196
330
1F
100
AcDbEntity
  8
0
  6
HIDDEN
 62
     7
370
     0
100
AcDbLine
 10
168.4476445326
 20
109.8923813934
 30
0.0
 11
169.4604634204
 21
109.8923813934
 31
0.0
  0
LINE
  5
197
330
1F
100
AcDbEntity
  8
0
  6
HIDDEN
 62
     7
370
     0
100
AcDbLine
 10
169.4604634204
 20
129.8923809464
 30
0.0
 11
168.4476445326
 21
129.8923809464
 31
0.0
  0
ARC
  5
198
330
1F
100
AcDbEntity
  8
0
  6
HIDDEN
 62
     7
370
     0
100
AcDbCircle
 10
168.447644771
 20
110.8923811699
 30
0.0
 40
1.000000000000001
100
AcDbArc
 50
193.3524261238
 51
270.0
  0
ARC
  5
199
330
1F
100
AcDbEntity
  8
0
  6
HIDDEN
 62
     7
370
     0
100
AcDbCircle
 10
168.447644771
 20
128.8923811699
 30
0.0
 40
1.000000000000004
100
AcDbArc
 50
90.0
 51
166.6475738762
  0
LINE
  5
19A
330
1F
100
AcDbEntity
  8
0
  6
HIDDEN
 62
     7
370
     0
100
AcDbLine
 10
170.1675700852
 20
110.1852739612
 30
0.0
 11
170.87467675
 21
110.8923815573
 31
0.0
  0
LINE
  5
19B
330
1F
100
AcDbEntity
  8
0
  6
HIDDEN
 62
     7
370
     0
100
AcDbLine
 10
170.87467675
 20
128.8923807825
 30
0.0
 11
170.1675700852
 21
129.5994883786
 31
0.0
  0
LINE
  5
19C
330
1F
100
AcDbEntity
  8
0
  6
HIDDEN
 62
     7
370
     0
100
AcDbLine
 10
163.9746772954
 20
110.3296876336
 30
0.0
 11
166.0746774533
 21
110.8923815573
 31
0.0
  0
LINE
  5
19D
330
1F
100
AcDbEntity
  8
0
  6
HIDDEN
 62
     7
370
     0
100
AcDbLine
 10
166.0746774533
 20
128.8923807825
 30
0.0
 11
163.9746772954
 21
129.4550747062
 31
0.0
  0
LINE
  5
19E
330
1F
100
AcDbEntity
  8
0
  6
HIDDEN
 62
     7
370
     0
100
AcDbLine
 10
167.4746769377
 20
129.1233208413
 30
0.0
 11
167.0746776172
 21
128.8923807825
 31
0.0
  0
LINE
  5
19F
330
1F
100
AcDbEntity
  8
0
  6
HIDDEN
 62
     7
370
     0
100
AcDbLine
 10
167.0746776172
 20
110.8923815573
 30
0.0
 11
167.4746769377
 21
110.6614414985
 31
0.0
  0
ARC
  5
1A0
330
1F
100
AcDbEntity
  8
0
  6
HIDDEN
 62
     7
370
     0
100
AcDbCircle
 10
177.447644771
 20
111.3923811699
 30
0.0
 40
0.5
100
AcDbArc
 50
270.0
 51
0.0
  0
ARC
  5
1A1
330
1F
100
AcDbEntity
  8
0
  6
HIDDEN
 62
     7
370
     0
100
AcDbCircle
 10
177.447644771
 20
128.3923811699
 30
0.0
 40
0.5
100
AcDbArc
 50
0.0
 51
90.0
  0
LINE
  5
1A2
330
1F
100
AcDbEntity
  8
0
  6
HIDDEN
 62
     7
370
     0
100
AcDbLine
 10
170.87467675
 20
110.8923815573
 30
0.0
 11
177.4476450765
 21
110.8923815573
 31
0.0
  0
LINE
  5
1A3
330
1F
100
AcDbEntity
  8
0
  6
HIDDEN
 62
     7
370
     0
100
AcDbLine
 10
177.4476450765
 20
128.8923807825
 30
0.0
 11
170.87467675
 21
128.8923807825
 31
0.0
  0
LINE
  5
1A4
330
1F
100
AcDbEntity
  8
0
  6
HIDDEN
 62
     7
370
     0
100
AcDbLine
 10
166.0746774533
 20
110.8923815573
 30
0.0
 11
167.0746776172
 21
110.8923815573
 31
0.0
  0
LINE
  5
1A5
330
1F
100
AcDbEntity
  8
0
  6
HIDDEN
 62
     7
370
     0
100
AcDbLine
 10
167.0746776172
 20
128.8923807825
 30
0.0
 11
166.0746774533
 21
128.8923807825
 31
0.0
  0
LINE
  5
1A6
330
1F
100
AcDbEntity
  8
0
  6
HIDDEN
 62
     7
370
     0
100
AcDbLine
 10
213.652842761
 20
110.3460574905
 30
0.0
 11
214.4480469534
 21
109.5629344146
 31
0.0
  0
LINE
  5
1A7
330
1F
100
AcDbEntity
  8
0
  6
HIDDEN
 62
     7
370
     0
100
AcDbLine
 10
219.3597639808
 20
114.550421984
 30
0.0
 11
218.5645597884
 21
115.33354506
 31
0.0
  0
LINE
  5
1A8
330
1F
100
AcDbEntity
  8
0
  6
HIDDEN
 62
     7
370
     0
100
AcDbLine
 10
177.9476451585
 20
112.7423812087
 30
0.0
 11
178.8476445609
 21
113.6423810768
 31
0.0
  0
LINE
  5
1A9
330
1F
100
AcDbEntity
  8
0
  6
HIDDEN
 62
     7
370
     0
100
AcDbLine
 10
178.8476445609
 20
126.142381263
 30
0.0
 11
177.9476451585
 21
127.0423811312
 31
0.0
  0
LINE
  5
1AA
330
1F
100
AcDbEntity
  8
0
  6
HIDDEN
 62
     7
370
     0
100
AcDbLine
 10
210.2836101213
 20
104.7139568637
 30
0.0
 11
211.8846467593
 21
103.1372435774
 31
0.0
  0
LINE
  5
1AB
330
1F
100
AcDbEntity
  8
0
  6
HIDDEN
 62
     7
370
     0
100
AcDbLine
 10
178.8476445609
 20
113.6423810768
 30
0.0
 11
203.9322658339
 21
113.6423810768
 31
0.0
  0
LINE
  5
1AC
330
1F
100
AcDbEntity
  8
0
  6
HIDDEN
 62
     7
370
     0
100
AcDbLine
 10
203.9322658339
 20
126.142381263
 30
0.0
 11
178.8476445609
 21
126.142381263
 31
0.0
  0
LINE
  5
1AD
330
1F
100
AcDbEntity
  8
0
  6
HIDDEN
 62
     7
370
     0
100
AcDbLine
 10
203.9322658339
 20
113.6423810768
 30
0.0
 11
207.6876453021
 21
119.8923811699
 31
0.0
  0
LINE
  5
1AE
330
1F
100
AcDbEntity
  8
0
  6
HIDDEN
 62
     7
370
     0
100
AcDbLine
 10
207.6876453021
 20
119.8923811699
 30
0.0
 11
203.9322658339
 21
126.142381263
 31
0.0
  0
LINE
  5
1AF
330
1F
100
AcDbEntity
  8
0
  6
HIDDEN
 62
     7
370
     0
100
AcDbLine
 10
223.873590202
 20
106.5137582282
 30
0.0
 11
218.8979360172
 21
112.7826967659
 31
0.0
  0
LINE
  5
1B0
330
1F
100
AcDbEntity
  8
0
  6
HIDDEN
 62
     7
370
     0
100
AcDbLine
 10
209.3604757348
 20
113.5907546068
 30
0.0
 11
213.0886345068
 21
109.9192360799
 31
0.0
  0
LINE
  5
1B1
330
1F
100
AcDbEntity
  8
0
  6
HIDDEN
 62
     7
370
     0
100
AcDbLine
 10
218.9826938221
 20
115.9042213495
 30
0.0
 11
214.9882606128
 21
119.83796998
 31
0.0
  0
LINE
  5
1B2
330
1F
100
AcDbEntity
  8
0
  6
HIDDEN
 62
     7
370
     0
100
AcDbLine
 10
203.0476453611
 20
122.2308234229
 30
0.0
 11
203.0476453611
 21
125.0468390445
 31
0.0
  0
LINE
  5
1B3
330
1F
100
AcDbEntity
  8
0
  6
HIDDEN
 62
     7
370
     0
100
AcDbLine
 10
198.8476450452
 20
125.0468390445
 30
0.0
 11
198.8476450452
 21
122.2311940892
 31
0.0
  0
LINE
  5
1B4
330
1F
100
AcDbEntity
  8
0
  6
HIDDEN
 62
     7
370
     0
100
AcDbLine
 10
226.4140779981
 20
103.638198265
 30
0.0
 11
225.4416505703
 21
104.5958539854
 31
0.0
  0
LINE
  5
1B5
330
1F
100
AcDbEntity
  8
0
  6
HIDDEN
 62
     7
370
     0
100
AcDbLine
 10
220.9509360501
 20
100.0358648981
 30
0.0
 11
221.9233672032
 21
99.0782082463
 31
0.0
  0
LINE
  5
1B6
330
1F
100
AcDbEntity
  8
0
  6
HIDDEN
 62
     7
370
     0
100
AcDbLine
 10
216.6483244756
 20
106.8054363514
 30
0.0
 11
220.4326215097
 21
102.0375136669
 31
0.0
  0
LINE
  5
1B7
330
1F
100
AcDbEntity
  8
0
  6
HIDDEN
 62
     7
370
     0
100
AcDbLine
 10
203.4476446816
 20
125.1368732574
 30
0.0
 11
203.4476446816
 21
127.383057532
 31
0.0
  0
LINE
  5
1B8
330
1F
100
AcDbEntity
  8
0
  6
HIDDEN
 62
     7
370
     0
100
AcDbLine
 10
198.4476447934
 20
127.3844847838
 30
0.0
 11
198.4476447934
 21
125.1368732574
 31
0.0
  0
LINE
  5
1B9
330
1F
100
AcDbEntity
  8
VERMASSUNG
  6
CENTERX2
100
AcDbLine
 10
236.947644771
 20
92.8923811699
 30
0.0
 11
245.9421916941
 21
92.8923811699
 31
0.0
  0
LINE
  5
1BA
330
1F
100
AcDbEntity
  8
VERMASSUNG
  6
CENTERX2
100
AcDbLine
 10
159.3486354871
 20
119.8923811699
 30
0.0
 11
236.947644771
 21
119.8923811699
 31
0.0
  0
LINE
  5
1BB
330
1F
100
AcDbEntity
  8
VERMASSUNG
  6
CENTERX2
100
AcDbLine
 10
236.947644771
 20
92.8923811699
 30
0.0
 11
236.947644771
 21
119.8923811699
 31
0.0
  0
LINE
  5
1BC
330
1F
100
AcDbEntity
  8
VERMASSUNG
100
AcDbLine
 10
236.947644771
 20
92.8923811699
 30
0.0
 11
236.947644771
 21
87.1667914346
 31
0.0
  0
DIMENSION
  5
1BD
330
1F
100
AcDbEntity
  8
VERMASSUNG
100
AcDbDimension
  2
_D
 10
236.947644771
 20
87.1667914346
 30
0.0
 11
226.8370815243
 21
83.2756021793
 31
0.0
 70
   162
  1
<>
 71
     1
 42
-1.0
  3
SLDDIMSTYLE0
100
AcDb2LineAngularDimension
 13
222.2655095909
 23
93.6403073007
 33
0.0
 14
236.5228121628
 24
92.8912111801
 34
0.0
 15
236.947644771
 25
92.8923811699
 35
0.0
 16
226.8370815243
 26
83.2756021793
 36
0.0
  0
DIMENSION
  5
1C7
330
1F
100
AcDbEntity
  8
VERMASSUNG
100
AcDbDimension
  2
_D_1
 10
250.9728914158
 20
119.8923811699
 30
0.0
 11
250.9728914158
 21
106.3923811699
 31
0.0
 70
   160
  1
<>
 71
     2
 42
-1.0
  3
SLDDIMSTYLE1
100
AcDbAlignedDimension
 13
236.947644771
 23
92.8923811699
 33
0.0
 14
236.947644771
 24
119.8923811699
 34
0.0
 50
90.0
100
AcDbRotatedDimension
  0
DIMENSION
  5
1D4
330
1F
100
AcDbEntity
  8
VERMASSUNG
100
AcDbDimension
  2
_D_2
 10
236.947644771
 20
72.0761975628
 30
0.0
 11
211.947644771
 21
72.0761975628
 31
0.0
 70
   160
  1
<>
 71
     2
 42
-1.0
  3
SLDDIMSTYLE1
100
AcDbAlignedDimension
 13
186.947644771
 23
100.1923811699
 33
0.0
 14
236.947644771
 24
92.8923811699
 34
0.0
100
AcDbRotatedDimension
  0
DIMENSION
  5
1E0
330
1F
100
AcDbEntity
  8
VERMASSUNG
100
AcDbDimension
  2
_D_3
 10
236.947644771
 20
66.0761975628
 30
0.0
 11
199.947644771
 21
66.0761975628
 31
0.0
 70
   160
  1
<>
 71
     2
 42
-1.0
  3
SLDDIMSTYLE2
100
AcDbAlignedDimension
 13
162.947644771
 23
107.2608761879
 33
0.0
 14
236.947644771
 24
92.8923811699
 34
0.0
100
AcDbRotatedDimension
  0
DIMENSION
  5
1EB
330
1F
100
AcDbEntity
  8
VERMASSUNG
100
AcDbDimension
  2
_D_4
 10
154.739987802
 20
139.8923811699
 30
0.0
 11
154.739987802
 21
119.8923811699
 31
0.0
 70
   160
  1
PSC%%c<>
 71
     2
 42
-1.0
  3
SLDDIMSTYLE2
100
AcDbAlignedDimension
 13
187.247644771
 23
99.8923811699
 33
0.0
 14
187.247644771
 24
139.8923811699
 34
0.0
 50
90.0
100
AcDbRotatedDimension
  0
LINE
  5
1F7
330
1F
100
AcDbEntity
  8
0
  6
Continuous
 62
     7
370
    15
100
AcDbLine
 10
81.9117804587
 20
92.8908549632
 30
0.0
 11
88.0703046152
 21
93.9767696346
 31
0.0
  0
LINE
  5
1F8
330
1F
100
AcDbEntity
  8
0
  6
Continuous
 62
     7
370
    15
100
AcDbLine
 10
79.1064319367
 20
95.594449007
 30
0.0
 11
79.5561340803
 21
95.0277112807
 31
0.0
  0
SPLINE
  5
1F9
330
1F
100
AcDbEntity
  8
0
  6
Continuous
 62
     7
370
    15
100
AcDbSpline
210
0.0
220
0.0
230
1.0
 70
     8
 71
     3
 72
    10
 73
     6
 74
     0
 42
0.00000001
 43
0.00000001
 12
1.0
 22
0.0
 32
0.0
 13
1.0
 23
0.0
 33
0.0
 40
0.0
 40
0.0
 40
0.0
 40
0.0
 40
0.3005438892698104
 40
0.8240397637818374
 40
0.9999999999999999
 40
0.9999999999999999
 40
0.9999999999999999
 40
0.9999999999999999
 10
79.56890856642265
 20
95.03599073838635
 30
0.0
 10
79.58478364821259
 20
95.01651111312357
 30
0.0
 10
79.62831039793284
 20
94.96310132382757
 30
0.0
 10
79.63468866374959
 20
94.92687072634243
 30
0.0
 10
79.63337447061846
 20
94.93417410629307
 30
0.0
 10
79.6330438626929
 20
94.93601139735622
 30
0.0
  0
SPLINE
  5
1FA
330
1F
100
AcDbEntity
  8
0
  6
Continuous
 62
     7
370
    15
100
AcDbSpline
210
0.0
220
0.0
230
1.0
 70
     8
 71
     3
 72
    11
 73
     7
 74
     0
 42
0.00000001
 43
0.00000001
 12
1.0
 22
0.0
 32
0.0
 13
1.0
 23
0.0
 33
0.0
 40
0.0
 40
0.0
 40
0.0
 40
0.0
 40
0.2710020588210421
 40
0.5956307291217381
 40
0.910266949771799
 40
1.0
 40
1.0
 40
1.0
 40
1.0
 10
77.13718853685994
 20
105.2665422121827
 30
0.0
 10
77.13757651588263
 20
105.2664230238192
 30
0.0
 10
77.13842924825364
 20
105.2661610617805
 30
0.0
 10
77.14608693532489
 20
105.1944343897506
 30
0.0
 10
77.14885555567044
 20
105.0902412091132
 30
0.0
 10
77.1169280368989
 20
105.0171305515179
 30
0.0
 10
77.10984304342408
 20
105.0009066621606
 30
0.0
  0
LINE
  5
1FB
330
1F
100
AcDbEntity
  8
0
  6
Continuous
 62
     7
370
    15
100
AcDbLine
 10
77.1027733738
 20
105.0045518587
 30
0.0
 11
76.8557451831
 21
104.2633280541
 31
0.0
  0
LINE
  5
1FC
330
1F
100
AcDbEntity
  8
0
  6
Continuous
 62
     7
370
    15
100
AcDbLine
 10
75.960937904
 20
106.6196114207
 30
0.0
 11
75.657445954
 21
106.5660976256
 31
0.0
  0
LINE
  5
1FD
330
1F
100
AcDbEntity
  8
0
  6
Continuous
 62
     7
370
    15
100
AcDbLine
 10
88.0980193781
 20
94.0765533979
 30
0.0
 11
90.6593101265
 21
94.5281777914
 31
0.0
  0
LINE
  5
1FE
330
1F
100
AcDbEntity
  8
0
  6
Continuous
 62
     7
370
    15
100
AcDbLine
 10
90.6867431642
 20
94.5489257957
 30
0.0
 11
90.9173730927
 21
94.8894471313
 31
0.0
  0
LINE
  5
1FF
330
1F
100
AcDbEntity
  8
0
  6
Continuous
 62
     7
370
    15
100
AcDbLine
 10
87.5934167
 20
107.1608448784
 30
0.0
 11
87.2602304609
 21
107.4019503231
 31
0.0
  0
LINE
  5
200
330
1F
100
AcDbEntity
  8
0
  6
Continuous
 62
     7
370
    15
100
AcDbLine
 10
79.3240580408
 20
98.0784427757
 30
0.0
 11
79.4121944511
 21
98.0900843079
 31
0.0
  0
LINE
  5
201
330
1F
100
AcDbEntity
  8
0
  6
Continuous
 62
     7
370
    15
100
AcDbLine
 10
75.7028013634
 20
105.9633298228
 30
0.0
 11
79.1334023399
 21
93.8250292475
 31
0.0
  0
ARC
  5
202
330
1F
100
AcDbEntity
  8
0
  6
Continuous
 62
     7
370
    15
100
AcDbCircle
 10
76.5168264623
 20
106.3191316881
 30
0.0
 40
0.8883872066799615
100
AcDbArc
 50
163.8833307849
 51
203.6096359169
  0
LINE
  5
203
330
1F
100
AcDbEntity
  8
0
  6
Continuous
 62
     7
370
    15
100
AcDbLine
 10
78.3481686542
 20
105.8166465173
 30
0.0
 11
75.6633542644
 21
106.5657427917
 31
0.0
  0
ARC
  5
204
330
1F
100
AcDbEntity
  8
0
  6
Continuous
 62
     7
370
    15
100
AcDbCircle
 10
78.1015293334
 20
105.5864506006
 30
0.0
 40
0.3373738499361483
100
AcDbArc
 50
7.7463140934
 51
43.0249688225
  0
LINE
  5
205
330
1F
100
AcDbEntity
  8
0
  6
Continuous
 62
     7
370
    15
100
AcDbLine
 10
81.8664254786
 20
93.4936236973
 30
0.0
 11
78.4358245021
 21
105.6319242726
 31
0.0
  0
ARC
  5
206
330
1F
100
AcDbEntity
  8
0
  6
Continuous
 62
     7
370
    15
100
AcDbCircle
 10
81.0523961976
 20
93.1378215169
 30
0.0
 40
0.8883911649777058
100
AcDbArc
 50
343.8834257025
 51
23.6095465119
  0
LINE
  5
207
330
1F
100
AcDbEntity
  8
0
  6
Continuous
 62
     7
370
    15
100
AcDbLine
 10
79.221057955
 20
93.6403070028
 30
0.0
 11
81.9058726067
 21
92.8912107284
 31
0.0
  0
ARC
  5
208
330
1F
100
AcDbEntity
  8
0
  6
Continuous
 62
     7
370
    15
100
AcDbCircle
 10
79.4676839296
 20
93.870496165
 30
0.0
 40
0.3373594844638929
100
AcDbArc
 50
187.7454882559
 51
223.0256767705
  0
ARC
  5
209
330
1F
100
AcDbEntity
  8
0
  6
Continuous
 62
     7
370
    15
100
AcDbCircle
 10
81.0918925842
 20
93.1451697362
 30
0.0
 40
0.8439714509432157
100
AcDbArc
 50
343.8834288144
 51
23.6095438009
  0
LINE
  5
20A
330
1F
100
AcDbEntity
  8
0
  6
Continuous
 62
     7
370
    15
100
AcDbLine
 10
81.8652202745
 20
93.4831817086
 30
0.0
 11
78.4346191378
 21
105.6214813526
 31
0.0
  0
ARC
  5
20B
330
1F
100
AcDbEntity
  8
0
  6
Continuous
 62
     7
370
    15
100
AcDbCircle
 10
78.1170491826
 20
105.5782868839
 30
0.0
 40
0.3204940538846318
100
AcDbArc
 50
7.7455882498
 51
43.0255172584
  0
LINE
  5
20C
330
1F
100
AcDbEntity
  8
0
  6
Continuous
 62
     7
370
    15
100
AcDbLine
 10
78.3513463268
 20
105.7969676713
 30
0.0
 11
75.6665314713
 21
106.5460639457
 31
0.0
  0
ARC
  5
20D
330
1F
100
AcDbEntity
  8
0
  6
Continuous
 62
     7
370
    15
100
AcDbCircle
 10
76.4773318791
 20
106.311784004
 30
0.0
 40
0.8439694261898901
100
AcDbArc
 50
163.88340465
 51
203.6096201892
  0
LINE
  5
20E
330
1F
100
AcDbEntity
  8
0
  6
Continuous
 62
     7
370
    15
100
AcDbLine
 10
75.7040064948
 20
105.9737718115
 30
0.0
 11
79.1346074713
 21
93.8354712362
 31
0.0
  0
ARC
  5
20F
330
1F
100
AcDbEntity
  8
0
  6
Continuous
 62
     7
370
    15
100
AcDbCircle
 10
79.4521822518
 20
93.8786691552
 30
0.0
 40
0.3204993001672137
100
AcDbArc
 50
187.7460831742
 51
223.0252578786
  0
LINE
  5
210
330
1F
100
AcDbEntity
  8
0
  6
Continuous
 62
     7
370
    15
100
AcDbLine
 10
79.2178802824
 20
93.6599858488
 30
0.0
 11
81.902695036
 21
92.9108895744
 31
0.0
  0
LINE
  5
211
330
1F
100
AcDbEntity
  8
0
  6
Continuous
 62
     7
370
    15
100
AcDbLine
 10
88.0249496715
 20
94.5795383687
 30
0.0
 11
84.5943484621
 21
106.7178380127
 31
0.0
  0
ARC
  5
212
330
1F
100
AcDbEntity
  8
0
  6
Continuous
 62
     7
370
    15
100
AcDbCircle
 10
87.124201136
 20
94.2086714087
 30
0.0
 40
0.9741099662194291
100
AcDbArc
 50
346.227619551
 51
22.3785308263
  0
LINE
  5
213
330
1F
100
AcDbEntity
  8
0
  6
Continuous
 62
     7
370
    15
100
AcDbLine
 10
79.5851762107
 20
94.5276543881
 30
0.0
 11
79.3702842368
 21
94.0713938708
 31
0.0
  0
ARC
  5
214
330
1F
100
AcDbEntity
  8
0
  6
Continuous
 62
     7
370
    15
100
AcDbCircle
 10
78.521095896
 20
95.754779914
 30
0.0
 40
2.220971553349173
100
AcDbArc
 50
343.8833981632
 51
23.6095865996
  0
LINE
  5
215
330
1F
100
AcDbEntity
  8
0
  6
Continuous
 62
     7
370
    15
100
AcDbLine
 10
80.5561626496
 20
96.6442842419
 30
0.0
 11
78.6361792291
 21
103.4376528497
 31
0.0
  0
LINE
  5
216
330
1F
100
AcDbEntity
  8
0
  6
Continuous
 62
     7
370
    15
100
AcDbLine
 10
77.0130641924
 20
102.8126683469
 30
0.0
 11
78.9330473801
 21
96.0193016018
 31
0.0
  0
ARC
  5
217
330
1F
100
AcDbEntity
  8
0
  6
Continuous
 62
     7
370
    15
100
AcDbCircle
 10
79.0481389443
 20
103.7021744559
 30
0.0
 40
2.220979595541818
100
AcDbArc
 50
163.8834559203
 51
203.6095460617
  0
LINE
  5
218
330
1F
100
AcDbEntity
  8
0
  6
Continuous
 62
     7
370
    15
100
AcDbLine
 10
78.4170399586
 20
103.8994584615
 30
0.0
 11
76.9144459793
 21
104.3187007691
 31
0.0
  0
ARC
  5
219
330
1F
100
AcDbEntity
  8
0
  6
Continuous
 62
     7
370
    15
100
AcDbCircle
 10
77.8004536258
 20
103.3239749814
 30
0.0
 40
0.8434215681908731
100
AcDbArc
 50
7.7460020286
 51
43.0252101535
  0
LINE
  5
21A
330
1F
100
AcDbEntity
  8
0
  6
Continuous
 62
     7
370
    15
100
AcDbLine
 10
79.1521866506
 20
95.5574941273
 30
0.0
 11
80.6547805134
 21
95.1382536824
 31
0.0
  0
ARC
  5
21B
330
1F
100
AcDbEntity
  8
0
  6
Continuous
 62
     7
370
    15
100
AcDbCircle
 10
79.7687776157
 20
96.132979347
 30
0.0
 40
0.8434261416219084
100
AcDbArc
 50
187.745951335
 51
223.0250818341
  0
LWPOLYLINE
  5
21C
330
1F
100
AcDbEntity
  8
0
  6
Continuous
 62
     7
370
    15
100
AcDbPolyline
 90
       32
 70
   128
 43
0.0
 10
79.1945199182
 20
97.1899666275
 10
79.2821117377
 20
97.2151495899
 10
79.3493357653
 20
97.3432287956
 10
79.3934399428
 20
97.568959036
 10
79.4126189014
 20
97.883101591
 10
79.4060870705
 20
98.2727948959
 10
79.3741119726
 20
98.7220816697
 10
79.3180028142
 20
99.2125720168
 10
79.2400567027
 20
99.7241828973
 10
79.1434645819
 20
100.2359707291
 10
79.0321810802
 20
100.7269807543
 10
78.9107622279
 20
101.1771113063
 10
78.7841787262
 20
101.5679352368
 10
78.6576129196
 20
101.8834524239
 10
78.536246687
 20
102.1107435609
 10
78.4250486342
 20
102.2405047352
 10
78.3285710661
 20
102.2674236829
 10
78.2507639544
 20
102.1903958554
 10
78.1948126553
 20
102.0125784362
 10
78.1630079893
 20
101.7412506427
 10
78.1566519456
 20
101.387517565
 10
78.1760045959
 20
100.9658649946
 10
78.2202736175
 20
100.4935522015
 10
78.2876471223
 20
99.9899171675
 10
78.3753663002
 20
99.4755793745
 10
78.4798399711
 20
98.9715941633
 10
78.5967912691
 20
98.4985977794
 10
78.7214320319
 20
98.0759524192
 10
78.8486593103
 20
97.7209601934
 10
78.9732646829
 20
97.4481571848
 10
79.0901465973
 20
97.2687099512
 10
79.1945199182
 20
97.1899666275
  0
ARC
  5
21D
330
1F
100
AcDbEntity
  8
0
  6
Continuous
 62
     7
370
    15
100
AcDbCircle
 10
84.2600640018
 20
106.672369733
 30
0.0
 40
0.3373625125249019
100
AcDbArc
 50
7.7456517878
 51
43.0255132386
  0
LINE
  5
21E
330
1F
100
AcDbEntity
  8
0
  6
Continuous
 62
     7
370
    15
100
AcDbLine
 10
84.5066928471
 20
106.9025602574
 30
0.0
 11
84.4698462335
 21
106.9128411273
 31
0.0
  0
LINE
  5
21F
330
1F
100
AcDbEntity
  8
0
  6
Continuous
 62
     7
370
    15
100
AcDbLine
 10
77.0195815878
 20
105.219899715
 30
0.0
 11
75.9396832602
 21
106.2096935148
 31
0.0
  0
LINE
  5
220
330
1F
100
AcDbEntity
  8
0
  6
Continuous
 62
     7
370
    15
100
AcDbLine
 10
77.1443722935
 20
105.1850812892
 30
0.0
 11
77.0195815878
 21
105.219899715
 31
0.0
  0
SPLINE
  5
221
330
1F
100
AcDbEntity
  8
0
  6
Continuous
 62
     7
370
    15
100
AcDbSpline
210
0.0
220
0.0
230
1.0
 70
     8
 71
     3
 72
    10
 73
     6
 74
     0
 42
0.00000001
 43
0.00000001
 12
1.0
 22
0.0
 32
0.0
 13
1.0
 23
0.0
 33
0.0
 40
0.0
 40
0.0
 40
0.0
 40
0.0
 40
0.3743766071064447
 40
0.748311002038464
 40
1.0
 40
1.0
 40
1.0
 40
1.0
 10
79.5851762106641
 20
94.52765438806458
 30
0.0
 10
79.60874252837775
 20
94.59552601977589
 30
0.0
 10
79.65584732736332
 20
94.7311891134944
 30
0.0
 10
79.63964666802924
 20
94.91712656794495
 30
0.0
 10
79.58178293961261
 20
95.01159993293133
 30
0.0
 10
79.55850429628033
 20
95.04960667442722
 30
0.0
  0
LINE
  5
222
330
1F
100
AcDbEntity
  8
0
  6
Continuous
 62
     7
370
    15
100
AcDbLine
 10
77.0195815878
 20
105.219899715
 30
0.0
 11
77.0906908603
 21
104.9682982649
 31
0.0
  0
ARC
  5
223
330
1F
100
AcDbEntity
  8
0
  6
Continuous
 62
     7
370
    15
100
AcDbCircle
 10
88.2940713103
 20
95.1079341934
 30
0.0
 40
2.435256073483362
100
AcDbArc
 50
346.2274632472
 51
22.3786396122
  0
LINE
  5
224
330
1F
100
AcDbEntity
  8
0
  6
Continuous
 62
     7
370
    15
100
AcDbLine
 10
87.7527655268
 20
95.5425911034
 30
0.0
 11
84.6681075802
 21
106.4568600069
 31
0.0
  0
LINE
  5
225
330
1F
100
AcDbEntity
  8
0
  6
Continuous
 62
     7
370
    15
100
AcDbLine
 10
90.5459234657
 20
96.0350986953
 30
0.0
 11
87.4612648206
 21
106.9493694614
 31
0.0
  0
ARC
  5
226
330
1F
100
AcDbEntity
  8
0
  6
Continuous
 62
     7
370
    15
100
AcDbCircle
 10
88.9188772141
 20
95.2249133116
 30
0.0
 40
2.026455855570648
100
AcDbArc
 50
350.4712029512
 51
20.3544200441
  0
LINE
  5
227
330
1F
100
AcDbEntity
  8
0
  6
Continuous
 62
     7
370
    15
100
AcDbLine
 10
87.7341404723
 20
106.8440387408
 30
0.0
 11
90.8187991174
 21
95.9297679747
 31
0.0
  0
ARC
  5
228
330
1F
100
AcDbEntity
  8
0
  6
Continuous
 62
     7
370
    15
100
AcDbCircle
 10
86.4805071146
 20
106.7846610554
 30
0.0
 40
0.9944920999735261
100
AcDbArc
 50
9.5332898878
 51
38.3678596353
  0
ARC
  5
229
330
1F
100
AcDbEntity
  8
0
  6
Continuous
 62
     7
370
    15
100
AcDbCircle
 10
86.2065266321
 20
106.4334131556
 30
0.0
 40
1.581839883144391
100
AcDbArc
 50
15.0455769385
 51
23.3305514605
  0
LWPOLYLINE
  5
22A
330
1F
100
AcDbEntity
  8
0
  6
Continuous
 62
     7
370
    15
100
AcDbPolyline
 90
       38
 70
   128
 43
0.0
 10
74.4865792969
 20
114.7207944105
 10
74.5160775425
 20
115.0525138165
 10
74.5690884234
 20
115.2980481657
 10
74.6440878304
 20
115.4503343078
 10
74.7389178889
 20
115.5049908358
 10
74.8508507552
 20
115.460445677
 10
74.9766659157
 20
115.3179807971
 10
75.1127437854
 20
115.0816940154
 10
75.2551700154
 20
114.7583825896
 10
75.3998472521
 20
114.3573485697
 10
75.5426134149
 20
113.8901282484
 10
75.6793609055
 20
113.3701629388
 10
75.8061562831
 20
112.8124110783
 10
75.9193520227
 20
112.232917958
 10
76.0156912895
 20
111.6483547176
 10
76.0924024673
 20
111.0755391802
 10
76.1472787874
 20
110.5309483046
 10
76.1787416579
 20
110.0302497308
 10
76.1858862991
 20
109.5878482248
 10
76.1685068885
 20
109.2164703096
 10
76.1271030808
 20
108.9268001179
 10
76.0628665032
 20
108.7271701927
 10
75.977644434
 20
108.6233249317
 10
75.8738895113
 20
108.6182510863
 10
75.7545856925
 20
108.7120939429
 10
75.6231658326
 20
108.9021545286
 10
75.4834101701
 20
109.1829650487
 10
75.3393392244
 20
109.546447211
 10
75.1950983124
 20
109.9821441258
 10
75.0548360104
 20
110.4775220538
 10
74.9225877391
 20
111.0183289657
 10
74.802158417
 20
111.5890071179
 10
74.697012564
 20
112.1731391559
 10
74.6101746501
 20
112.7539212267
 10
74.5441429483
 20
113.3146449375
 10
74.5008168908
 20
113.83917885
 10
74.4814435186
 20
114.3124336759
 10
74.4865792969
 20
114.7207944105
  0
LWPOLYLINE
  5
22B
330
1F
100
AcDbEntity
  8
0
  6
Continuous
 62
     7
370
    15
100
AcDbPolyline
 90
       29
 70
   128
 43
0.0
 10
74.8495082537
 20
113.5790301869
 10
74.8746697957
 20
113.8192769523
 10
74.9228350053
 20
113.9711393426
 10
74.9915880317
 20
114.0270023989
 10
75.0774815844
 20
113.9840656343
 10
75.1762087623
 20
113.8444813351
 10
75.2828186544
 20
113.6152493219
 10
75.3919659348
 20
113.3078639778
 10
75.4981767552
 20
112.9377386915
 10
75.596125813
 20
112.5234337906
 10
75.680901313
 20
112.0857233564
 10
75.748252699
 20
111.6465563337
 10
75.7948015982
 20
111.2279557074
 10
75.8182150478
 20
110.8509097631
 10
75.8173186498
 20
110.5343262116
 10
75.7921566421
 20
110.2940794463
 10
75.7439918982
 20
110.142217056
 10
75.6752388718
 20
110.086353534
 10
75.5893448533
 20
110.1292902986
 10
75.4906181412
 20
110.2688750635
 10
75.3840077834
 20
110.4981070767
 10
75.2748609686
 20
110.8054919551
 10
75.1686496826
 20
111.1756172414
 10
75.0707006248
 20
111.589922608
 10
74.9859251248
 20
112.0276330422
 10
74.9185742045
 20
112.4667995992
 10
74.8720248396
 20
112.8854011568
 10
74.84861139
 20
113.2624466355
 10
74.8495082537
 20
113.5790301869
  0
SPLINE
  5
22C
330
1F
100
AcDbEntity
  8
0
  6
Continuous
 62
     7
370
    15
100
AcDbSpline
210
0.0
220
0.0
230
1.0
 70
     8
 71
     3
 72
     9
 73
     5
 74
     0
 42
0.00000001
 43
0.00000001
 12
1.0
 22
0.0
 32
0.0
 13
1.0
 23
0.0
 33
0.0
 40
0.0
 40
0.0
 40
0.0
 40
0.0
 40
0.7383201398099843
 40
1.0
 40
1.0
 40
1.0
 40
1.0
 10
75.42681462857861
 20
113.1834527860228
 30
0.0
 10
75.39317000833648
 20
113.064125020616
 30
0.0
 10
75.34760085963252
 20
112.9025043916061
 30
0.0
 10
75.2345763673398
 20
112.7439703722276
 30
0.0
 10
75.20500013399858
 20
112.7024852122013
 30
0.0
  0
SPLINE
  5
22D
330
1F
100
AcDbEntity
  8
0
  6
Continuous
 62
     7
370
    15
100
AcDbSpline
210
0.0
220
0.0
230
1.0
 70
     8
 71
     3
 72
    11
 73
     7
 74
     0
 42
0.00000001
 43
0.00000001
 12
1.0
 22
0.0
 32
0.0
 13
1.0
 23
0.0
 33
0.0
 40
0.0
 40
0.0
 40
0.0
 40
0.0
 40
0.2164501494155108
 40
0.4402998837530736
 40
0.7518914388137827
 40
1.0
 40
1.0
 40
1.0
 40
1.0
 10
75.20500013399858
 20
112.7024852122013
 30
0.0
 10
75.280813420597
 20
112.5964543078444
 30
0.0
 10
75.4350317538546
 20
112.3807677167812
 30
0.0
 10
75.61166246091858
 20
111.9611879776687
 30
0.0
 10
75.65144187910789
 20
111.484707532356
 30
0.0
 10
75.5760119683651
 20
111.1619960348511
 30
0.0
 10
75.5425747649743
 20
111.0189417759721
 30
0.0
  0
SPLINE
  5
22E
330
1F
100
AcDbEntity
  8
0
  6
Continuous
 62
     7
370
    15
100
AcDbSpline
210
0.0
220
0.0
230
1.0
 70
     8
 71
     3
 72
     9
 73
     5
 74
     0
 42
0.00000001
 43
0.00000001
 12
1.0
 22
0.0
 32
0.0
 13
1.0
 23
0.0
 33
0.0
 40
0.0
 40
0.0
 40
0.0
 40
0.0
 40
0.7920485096373214
 40
1.0
 40
1.0
 40
1.0
 40
1.0
 10
75.5425747649743
 20
111.0189417759721
 30
0.0
 10
75.62652561053191
 20
110.9884345579407
 30
0.0
 10
75.7325176609381
 20
110.9499177023943
 30
0.0
 10
75.79687815745677
 20
110.8986613197546
 30
0.0
 10
75.81026201862831
 20
110.888002478594
 30
0.0
  0
LINE
  5
22F
330
1F
100
AcDbEntity
  8
0
  6
Continuous
 62
     7
370
    15
100
AcDbLine
 10
75.8073982017
 20
111.0656373585
 30
0.0
 11
75.542574765
 21
111.018941776
 31
0.0
  0
LINE
  5
230
330
1F
100
AcDbEntity
  8
0
  6
Continuous
 62
     7
370
    15
100
AcDbLine
 10
75.5420639345
 20
112.7619184936
 30
0.0
 11
75.205000134
 21
112.7024852122
 31
0.0
  0
ELLIPSE
  5
231
330
1F
100
AcDbEntity
  8
0
  6
Continuous
 62
     7
370
    15
100
AcDbEllipse
 10
78.9181197518
 20
100.3952349967
 30
0.0
 11
-0.4089826913515253
 21
2.316322506802891
 31
0.0
210
0.0
220
0.0
230
1.0
 40
0.1735685188
 41
2.039026565851856
 42
3.379691594672979
  0
LINE
  5
232
330
1F
100
AcDbEntity
  8
0
  6
Continuous
 62
     7
370
    15
100
AcDbLine
 10
90.9575522112
 20
95.0043760623
 30
0.0
 11
90.9213060679
 21
95.4935420687
 31
0.0
  0
SPLINE
  5
233
330
1F
100
AcDbEntity
  8
0
  6
Continuous
 62
     7
370
    15
100
AcDbSpline
210
0.0
220
0.0
230
1.0
 70
     8
 71
     3
 72
    25
 73
    21
 74
     0
 42
0.00000001
 43
0.00000001
 12
1.0
 22
0.0
 32
0.0
 13
1.0
 23
0.0
 33
0.0
 40
0.0
 40
0.0
 40
0.0
 40
0.0
 40
0.0231991881822825
 40
0.046475721985828
 40
0.0698368419233445
 40
0.0932897101658275
 40
0.1168414051812684
 40
0.1761177224754093
 40
0.2360118679449699
 40
0.29648980184785
 40
0.3575946085844071
 40
0.3986634186066404
 40
0.4815977694395045
 40
0.6079538012437252
 40
0.6719828873759738
 40
0.7365971977225334
 40
0.8017010308083391
 40
0.8673472842397476
 40
0.9334244108761028
 40
1.0
 40
1.0
 40
1.0
 40
1.0
 10
90.92130493741749
 20
95.49354118174416
 30
0.0
 10
91.04227353040166
 20
95.55320030818756
 30
0.0
 10
91.28461402319712
 20
95.67271746338774
 30
0.0
 10
91.64366409820958
 20
95.85942255643239
 30
0.0
 10
92.00016293211162
 20
96.0519062131713
 30
0.0
 10
92.35375040457438
 20
96.25068943575552
 30
0.0
 10
92.88132987642139
 20
96.5589304930135
 30
0.0
 10
93.57428724848347
 20
96.9915240953945
 30
0.0
 10
94.41750511732235
 20
97.56777307713841
 30
0.0
 10
95.2392031578745
 20
98.18027103047946
 30
0.0
 10
95.9479570239704
 20
98.75508166034041
 30
0.0
 10
96.727750408335
 20
99.43229230040123
 30
0.0
 10
97.73836637214619
 20
100.3845177909082
 30
0.0
 10
98.75994270987881
 20
101.4851878191984
 30
0.0
 10
99.64301855364144
 20
102.5562864080754
 30
0.0
 10
100.278204924937
 20
103.3914522502898
 30
0.0
 10
100.8826498996132
 20
104.2534850005392
 30
0.0
 10
101.4541772401575
 20
105.1410540387075
 30
0.0
 10
101.9955584400226
 20
106.0517362521586
 30
0.0
 10
102.3261326915366
 20
106.6745086933559
 30
0.0
 10
102.4920409084744
 20
106.9870649944103
 30
0.0
  0
SPLINE
  5
234
330
1F
100
AcDbEntity
  8
0
  6
Continuous
 62
     7
370
    15
100
AcDbSpline
210
0.0
220
0.0
230
1.0
 70
    24
 71
     3
 72
     9
 73
     5
 74
     0
 42
0.00000001
 43
0.00000001
 12
1.0
 22
0.0
 32
0.0
 13
1.0
 23
0.0
 33
0.0
 40
0.0
 40
0.0
 40
0.0
 40
0.0
 40
0.4999997708183302
 40
1.0
 40
1.0
 40
1.0
 40
1.0
 10
102.4920422675087
 20
106.9870649273113
 30
0.0
 10
102.4920422675087
 20
106.8527541218925
 30
0.0
 10
102.4920422675087
 20
106.5841323879286
 30
0.0
 10
102.4920422675087
 20
106.31535337907
 30
0.0
 10
102.4920422675087
 20
106.1809638130415
 30
0.0
  0
SPLINE
  5
235
330
1F
100
AcDbEntity
  8
0
  6
Continuous
 62
     7
370
    15
100
AcDbSpline
210
0.0
220
0.0
230
1.0
 70
     8
 71
     3
 72
    24
 73
    20
 74
     0
 42
0.00000001
 43
0.00000001
 12
1.0
 22
0.0
 32
0.0
 13
1.0
 23
0.0
 33
0.0
 40
0.0
 40
0.0
 40
0.0
 40
0.0
 40
0.0338948143959809
 40
0.0672623093486649
 40
0.1001032158878153
 40
0.1324183007978061
 40
0.1986207822196274
 40
0.262961242801561
 40
0.3280449712188153
 40
0.3914524235944218
 40
0.5177320830621139
 40
0.6417292973458768
 40
0.7031999365741901
 40
0.7634288570568465
 40
0.8236855468778645
 40
0.8828254582670908
 40
0.9223278889471106
 40
0.961383117344013
 40
1.0
 40
1.0
 40
1.0
 40
1.0
 10
102.4920420678261
 20
106.1809626034688
 30
0.0
 10
102.4066274719629
 20
106.0255216286643
 30
0.0
 10
102.2371271199999
 20
105.7170579560029
 30
0.0
 10
101.9733217148426
 20
105.263028810972
 30
0.0
 10
101.7054944198532
 20
104.8199392430943
 30
0.0
 10
101.33659160188
 20
104.2348057047621
 30
0.0
 10
100.8574820713603
 20
103.52003525931
 30
0.0
 10
100.2471947029619
 20
102.6800266749205
 30
0.0
 10
99.61155809798764
 20
101.8715076928212
 30
0.0
 10
98.72708412101325
 20
100.8309340192435
 30
0.0
 10
97.5564667985684
 20
99.60322005609372
 30
0.0
 10
96.2868451980237
 20
98.46416610957576
 30
0.0
 10
95.2254249970887
 20
97.6207894550197
 30
0.0
 10
94.4100381916683
 20
97.02420065199043
 30
0.0
 10
93.57688586453129
 20
96.46442964279093
 30
0.0
 10
92.81574674464518
 20
95.99622387552577
 30
0.0
 10
92.1390991927269
 20
95.61141815059307
 30
0.0
 10
91.55285014095911
 20
95.29733185549158
 30
0.0
 10
91.15523722986009
 20
95.10165898943512
 30
0.0
 10
90.95755274668747
 20
95.004374700325
 30
0.0
  0
LINE
  5
236
330
1F
100
AcDbEntity
  8
0
  6
Continuous
 62
     7
370
    15
100
AcDbLine
 10
102.4920428338
 20
106.9870656739
 30
0.0
 11
102.4920428338
 21
108.7429253767
 31
0.0
  0
LINE
  5
237
330
1F
100
AcDbEntity
  8
0
  6
Continuous
 62
     7
370
    15
100
AcDbLine
 10
90.9213060679
 20
95.4935420687
 30
0.0
 11
90.8979177641
 21
95.5762938048
 31
0.0
  0
ARC
  5
238
330
1F
100
AcDbEntity
  8
0
  6
Continuous
 62
     7
370
    15
100
AcDbCircle
 10
157.0023621532
 20
125.6350135598
 30
0.0
 40
71.78811661561208
100
AcDbArc
 50
194.6682802923
 51
194.9958722543
  0
ELLIPSE
  5
239
330
1F
100
AcDbEntity
  8
0
  6
Continuous
 62
     7
370
    15
100
AcDbEllipse
 10
80.9920422675
 20
121.7093336109
 30
0.0
 11
-21.34433516642882
 21
24.75745298642332
 31
0.0
210
0.0
220
0.0
230
1.0
 40
0.5257454837
 41
2.527846523836113
 42
2.528414396747508
  0
LINE
  5
23A
330
1F
100
AcDbEntity
  8
0
  6
Continuous
 62
     7
370
    15
100
AcDbLine
 10
87.5539574938
 20
107.4566534172
 30
0.0
 11
78.611974621
 21
105.8799401308
 31
0.0
  0
ARC
  5
23B
330
1F
100
AcDbEntity
  8
0
  6
Continuous
 62
     7
370
    15
100
AcDbCircle
 10
165.659881937
 20
128.4400786627
 30
0.0
 40
89.92384566215931
100
AcDbArc
 50
189.914455721
 51
194.5296212002
  0
LINE
  5
23C
330
1F
100
AcDbEntity
  8
0
  6
Continuous
 62
     7
370
    15
100
AcDbLine
 10
102.4920428338
 20
108.7429253767
 30
0.0
 11
102.4920428338
 21
117.4382141708
 31
0.0
  0
SPLINE
  5
23D
330
1F
100
AcDbEntity
  8
0
  6
Continuous
 62
     7
370
    15
100
AcDbSpline
210
0.0
220
0.0
230
1.0
 70
     8
 71
     3
 72
     8
 73
     4
 74
     0
 42
0.00000001
 43
0.00000001
 12
1.0
 22
0.0
 32
0.0
 13
1.0
 23
0.0
 33
0.0
 40
0.0
 40
0.0
 40
0.0
 40
0.0
 40
1.0
 40
1.0
 40
1.0
 40
1.0
 10
76.25644288680058
 20
99.96000832702357
 30
0.0
 10
76.54170132968461
 20
98.66054016069201
 30
0.0
 10
76.82787739856045
 20
97.36302570532635
 30
0.0
 10
77.11462006361464
 20
96.06671758585
 30
0.0
  0
SPLINE
  5
23E
330
1F
100
AcDbEntity
  8
0
  6
Continuous
 62
     7
370
    15
100
AcDbSpline
210
0.0
220
0.0
230
1.0
 70
     8
 71
     3
 72
    10
 73
     6
 74
     0
 42
0.00000001
 43
0.00000001
 12
1.0
 22
0.0
 32
0.0
 13
1.0
 23
0.0
 33
0.0
 40
0.0
 40
0.0
 40
0.0
 40
0.0
 40
0.5
 40
0.5
 40
1.0
 40
1.0
 40
1.0
 40
1.0
 10
75.92949780468612
 20
100.8333792381112
 30
0.0
 10
75.97431079949487
 20
100.8191245161424
 30
0.0
 10
76.0319811157275
 20
100.7135971331641
 30
0.0
 10
76.14867587619399
 20
100.3955574342534
 30
0.0
 10
76.20631603769634
 20
100.1883565015103
 30
0.0
 10
76.2564428868006
 20
99.96000832702359
 30
0.0
  0
ARC
  5
23F
330
1F
100
AcDbEntity
  8
0
  6
Continuous
 62
     7
370
    15
100
AcDbCircle
 10
81.9920422675
 20
119.8923811699
 30
0.0
 40
19.99999999999997
100
AcDbArc
 50
251.3629782361
 51
252.3544714134
  0
ARC
  5
240
330
1F
100
AcDbEntity
  8
0
  6
Continuous
 62
     7
370
    15
100
AcDbCircle
 10
81.9920422675
 20
119.8923811699
 30
0.0
 40
19.99999999999999
100
AcDbArc
 50
127.6455285866
 51
128.6370217639
  0
SPLINE
  5
241
330
1F
100
AcDbEntity
  8
0
  6
Continuous
 62
     7
370
    15
100
AcDbSpline
210
0.0
220
0.0
230
1.0
 70
     8
 71
     3
 72
    14
 73
    10
 74
     0
 42
0.00000001
 43
0.00000001
 12
1.0
 22
0.0
 32
0.0
 13
1.0
 23
0.0
 33
0.0
 40
0.0
 40
0.0
 40
0.0
 40
0.0
 40
0.25
 40
0.25
 40
0.5
 40
0.5
 40
0.75
 40
0.75
 40
1.0
 40
1.0
 40
1.0
 40
1.0
 10
69.81592383655163
 20
136.3845653780521
 30
0.0
 10
69.82331135290958
 20
136.3004006979854
 30
0.0
 10
69.82837218440338
 20
136.2193155124999
 30
0.0
 10
69.83310498404447
 20
136.0728123355644
 30
0.0
 10
69.83290715978374
 20
136.006367239009
 30
0.0
 10
69.82670688552375
 20
135.8888848795711
 30
0.0
 10
69.82084267980308
 20
135.8405401177048
 30
0.0
 10
69.80325460056639
 20
135.7659971655887
 30
0.0
 10
69.79133820095544
 20
135.7398784180221
 30
0.0
 10
69.77655140025013
 20
135.7284723186713
 30
0.0
  0
ARC
  5
242
330
1F
100
AcDbEntity
  8
0
  6
Continuous
 62
     7
370
    15
100
AcDbCircle
 10
81.9920422675
 20
119.8923811699
 30
0.0
 40
20.49999999999997
100
AcDbArc
 50
123.6016545565
 51
126.4383144187
  0
LINE
  5
243
330
1F
100
AcDbEntity
  8
0
  6
Continuous
 62
     7
370
    15
100
AcDbLine
 10
75.8710270913
 20
119.8077685058
 30
0.0
 11
70.6470227035
 21
136.9669381912
 31
0.0
  0
LINE
  5
244
330
1F
100
AcDbEntity
  8
0
  6
Continuous
 62
     7
370
    15
100
AcDbLine
 10
77.0789664404
 20
112.9572033333
 30
0.0
 11
75.8710270913
 21
119.8077685058
 31
0.0
  0
LWPOLYLINE
  5
245
330
1F
100
AcDbEntity
  8
0
  6
Continuous
 62
     7
370
    15
100
AcDbPolyline
 90
       15
 70
   128
 43
0.0
 10
76.3411112295
 20
102.5672611232
 10
76.2463845478
 20
102.6431620504
 10
76.1396768669
 20
102.8188653673
 10
76.0263400318
 20
103.085562625
 10
75.9120565074
 20
103.4298800315
 10
75.8025576526
 20
103.834550866
 10
75.7033331485
 20
104.2792834724
 10
75.6193595173
 20
104.7417773316
 10
75.5548472682
 20
105.1988415803
 10
75.5130313503
 20
105.627557301
 10
75.4960081706
 20
106.0064258437
 10
75.504631752
 20
106.3164500902
 10
75.5384694951
 20
106.542083473
 10
75.5958249958
 20
106.6720122854
 10
75.6738213988
 20
106.6997209946
  0
LINE
  5
246
330
1F
100
AcDbEntity
  8
0
  6
Continuous
 62
     7
370
    15
100
AcDbLine
 10
76.6901420595
 20
102.4698764468
 30
0.0
 11
76.3411112295
 21
102.5672611232
 31
0.0
  0
LWPOLYLINE
  5
247
330
1F
100
AcDbEntity
  8
0
  6
Continuous
 62
     7
370
    15
100
AcDbPolyline
 90
       38
 70
   128
 43
0.0
 10
75.9502686726
 20
112.0566781993
 10
76.0409655215
 20
111.4738881971
 10
76.1113069186
 20
110.9078647951
 10
76.1592700312
 20
110.3748903061
 10
76.1834746392
 20
109.8902980248
 10
76.1832245791
 20
109.4680279876
 10
76.1585273014
 20
109.1202292974
 10
76.110092474
 20
108.8569062213
 10
76.0393142866
 20
108.6856350685
 10
75.9482286105
 20
108.6113425354
 10
75.8394557217
 20
108.6361669387
 10
75.7161248641
 20
108.7593920911
 10
75.5817843767
 20
108.9774743105
 10
75.4402983168
 20
109.2841402079
 10
75.2957379611
 20
109.6705664332
 10
75.1522607336
 20
110.1256376515
 10
75.0139956528
 20
110.6362603987
 10
74.8849190006
 20
111.1877458553
 10
74.7687448913
 20
111.7642298723
 10
74.6688153761
 20
112.3491265262
 10
74.5880049819
 20
112.9256100776
 10
74.5286387557
 20
113.4770959998
 10
74.4924247431
 20
113.9877187471
 10
74.4804041626
 20
114.4427894997
 10
74.4929230006
 20
114.8292161907
 10
74.529621301
 20
115.1358816224
 10
74.589442944
 20
115.3539643074
 10
74.6706677767
 20
115.4771899256
 10
74.7709581794
 20
115.5020133975
 10
74.8874298463
 20
115.42772133
 10
75.0167309472
 20
115.2564501772
 10
75.155143177
 20
114.9931275668
 10
75.2986832688
 20
114.645328411
 10
75.4432231354
 20
114.2230588394
 10
75.5846034901
 20
113.7384660925
 10
75.718757713
 20
113.2054916034
 10
75.8418264033
 20
112.6394677359
 10
75.9502686726
 20
112.0566781993
  0
LINE
  5
248
330
1F
100
AcDbEntity
  8
0
  6
Continuous
 62
     7
370
    15
100
AcDbLine
 10
75.6738213988
 20
106.6997209946
 30
0.0
 11
78.611974621
 21
105.8799401308
 31
0.0
  0
ELLIPSE
  5
249
330
1F
100
AcDbEntity
  8
0
  6
Continuous
 62
     7
370
    15
100
AcDbEllipse
 10
80.9920422675
 20
115.8932565897
 30
0.0
 11
-21.34433516642886
 21
24.75745298642335
 31
0.0
210
0.0
220
0.0
230
1.0
 40
0.5257454837
 41
1.962676769355508
 42
2.032784822317354
  0
LINE
  5
24A
330
1F
100
AcDbEntity
  8
0
  6
Continuous
 62
     7
370
    15
100
AcDbLine
 10
101.9874373617
 20
124.4127964984
 30
0.0
 11
75.8710270913
 21
119.8077685058
 31
0.0
  0
ARC
  5
24B
330
1F
100
AcDbEntity
  8
0
  6
Continuous
 62
     7
370
    15
100
AcDbCircle
 10
81.9920422675
 20
119.8923811699
 30
0.0
 40
20.5
100
AcDbArc
 50
12.7388755232
 51
123.6016545565
  0
LINE
  5
24C
330
1F
100
AcDbEntity
  8
0
  6
Continuous
 62
     7
370
    15
100
AcDbLine
 10
102.4920428338
 20
117.4382141708
 30
0.0
 11
102.4920428338
 21
119.8923811699
 31
0.0
  0
ARC
  5
24D
330
1F
100
AcDbEntity
  8
0
  6
Continuous
 62
     7
370
    15
100
AcDbCircle
 10
81.9920422675
 20
119.8923811699
 30
0.0
 40
20.5
100
AcDbArc
 50
0.0
 51
12.7388755232
  0
SPLINE
  5
24E
330
1F
100
AcDbEntity
  8
0
  6
Continuous
 62
     7
370
    15
100
AcDbSpline
210
0.0
220
0.0
230
1.0
 70
     8
 71
     3
 72
    10
 73
     6
 74
     0
 42
0.00000001
 43
0.00000001
 12
1.0
 22
0.0
 32
0.0
 13
1.0
 23
0.0
 33
0.0
 40
0.0
 40
0.0
 40
0.0
 40
0.0
 40
0.5
 40
0.5
 40
1.0
 40
1.0
 40
1.0
 40
1.0
 10
69.50435332355292
 20
135.5147249389798
 30
0.0
 10
69.47917119734592
 20
135.4945956572491
 30
0.0
 10
69.41131061828605
 20
135.4403597179519
 30
0.0
 10
69.2253540687145
 20
135.288033744416
 30
0.0
 10
69.11049762612672
 20
135.1924170228441
 30
0.0
 10
68.98966407478002
 20
135.0890308445338
 30
0.0
  0
SPLINE
  5
24F
330
1F
100
AcDbEntity
  8
0
  6
Continuous
 62
     7
370
    15
100
AcDbSpline
210
0.0
220
0.0
230
1.0
 70
     8
 71
     3
 72
    12
 73
     8
 74
     0
 42
0.00000001
 43
0.00000001
 12
1.0
 22
0.0
 32
0.0
 13
1.0
 23
0.0
 33
0.0
 40
0.0
 40
0.0
 40
0.0
 40
0.0
 40
0.2500000000000007
 40
0.2500000000000007
 40
0.5000000000000014
 40
0.5000000000000014
 40
1.0
 40
1.0
 40
1.0
 40
1.0
 10
74.97136372691881
 20
101.1651263569452
 30
0.0
 10
75.04592480985349
 20
101.1371740809629
 30
0.0
 10
75.1172593894165
 20
101.1109390435023
 30
0.0
 10
75.25297527661664
 20
101.0618160148017
 30
0.0
 10
75.31726738968318
 20
101.0389752367846
 30
0.0
 10
75.48558348436764
 20
100.9799478547952
 30
0.0
 10
75.56998385715707
 20
100.9514675072234
 30
0.0
 10
75.60060937118394
 20
100.9411388483156
 30
0.0
  0
ELLIPSE
  5
250
330
1F
100
AcDbEntity
  8
0
  6
Continuous
 62
     7
370
    15
100
AcDbEllipse
 10
70.0972344006
 20
111.20335696
 30
0.0
 11
-1.795482621286524
 21
2.111692994981851
 31
0.0
210
0.0
220
0.0
230
1.0
 40
0.7389313757
 41
0.0
 42
6.283185307179586
  0
ARC
  5
251
330
1F
100
AcDbEntity
  8
0
  6
Continuous
 62
     7
370
    15
100
AcDbCircle
 10
81.9920422675
 20
119.8923811699
 30
0.0
 40
19.99999999999998
100
AcDbArc
 50
130.5505677501
 51
249.4494322499
  0
ARC
  5
252
330
1F
100
AcDbEntity
  8
0
  6
Continuous
 62
     7
370
    15
100
AcDbCircle
 10
67.959250685
 20
115.5889951449
 30
0.0
 40
2.507721388234626
100
AcDbArc
 50
272.803155663
 51
310.7372976516
  0
SPLINE
  5
253
330
1F
100
AcDbEntity
  8
0
  6
Continuous
 62
     7
370
    15
100
AcDbSpline
210
0.0
220
0.0
230
1.0
 70
     8
 71
     3
 72
    15
 73
    11
 74
     0
 42
0.00000001
 43
0.00000001
 12
1.0
 22
0.0
 32
0.0
 13
1.0
 23
0.0
 33
0.0
 40
0.0
 40
0.0
 40
0.0
 40
0.0
 40
0.0353249618700098
 40
0.1922006065286207
 40
0.2645238775915502
 40
0.3373460680769516
 40
0.4773049670769554
 40
0.6635245584523131
 40
0.8549699755701424
 40
0.9999999999999999
 40
0.9999999999999999
 40
0.9999999999999999
 40
0.9999999999999999
 10
69.74366681445379
 20
113.6352229314689
 30
0.0
 10
69.7335768926717
 20
113.6053950901003
 30
0.0
 10
69.67867834547782
 20
113.443103925468
 30
0.0
 10
69.60281513361213
 20
113.2414374673
 30
0.0
 10
69.60797237742537
 20
113.0423968806122
 30
0.0
 10
69.72434806434592
 20
112.9268742600452
 30
0.0
 10
69.98555357384743
 20
112.8863407251904
 30
0.0
 10
70.316098102771
 20
112.9218727079355
 30
0.0
 10
70.63605859022297
 20
113.0130118389483
 30
0.0
 10
70.76850344895738
 20
113.1500279318706
 30
0.0
 10
70.82559076864261
 20
113.209085577244
 30
0.0
  0
INSERT
  5
25F
330
1F
100
AcDbEntity
  8
VERMASSUNG
100
AcDbBlockReference
  2
SW_CENTERMARKSYMBOL_0
 10
81.9920422675
 20
119.8923811699
 30
0.0
  0
OLE2FRAME
  5
260
330
1F
100
AcDbEntity
  8
0
100
AcDbOle2Frame
 70
     2
  3
Paintbrush-Bild
 10
13.8511154363
 20
38.264191557
 30
0.0
 11
51.6290888628
 21
31.9806341108
 31
0.0
 71
     2
 72
     0
 73
     1
 90
    12928
310
80552BED0767C5B32B40DDAF6807D121434000000000000000006FFBDDFB85D0
310
4940DDAF6807D121434000000000000000006FFBDDFB85D04940416F4BD60AFB
310
3F4000000000000000002BED0767C5B32B40416F4BD60AFB3F40000000000000
310
0000000000000100000000010000010000000100000000000100000000320000
310
D0CF11E0A1B11AE1000000000000000000000000000000003E000300FEFF0900
310
0600000000000000000000000100000001000000000000000010000002000000
310
01000000FEFFFFFF0000000000000000FFFFFFFFFFFFFFFFFFFFFFFFFFFFFFFF
310
FFFFFFFFFFFFFFFFFFFFFFFFFFFFFFFFFFFFFFFFFFFFFFFFFFFFFFFFFFFFFFFF
310
FFFFFFFFFFFFFFFFFFFFFFFFFFFFFFFFFFFFFFFFFFFFFFFFFFFFFFFFFFFFFFFF
310
FFFFFFFFFFFFFFFFFFFFFFFFFFFFFFFFFFFFFFFFFFFFFFFFFFFFFFFFFFFFFFFF
310
FFFFFFFFFFFFFFFFFFFFFFFFFFFFFFFFFFFFFFFFFFFFFFFFFFFFFFFFFFFFFFFF
310
FFFFFFFFFFFFFFFFFFFFFFFFFFFFFFFFFFFFFFFFFFFFFFFFFFFFFFFFFFFFFFFF
310
FFFFFFFFFFFFFFFFFFFFFFFFFFFFFFFFFFFFFFFFFFFFFFFFFFFFFFFFFFFFFFFF
310
FFFFFFFFFFFFFFFFFFFFFFFFFFFFFFFFFFFFFFFFFFFFFFFFFFFFFFFFFFFFFFFF
310
FFFFFFFFFFFFFFFFFFFFFFFFFFFFFFFFFFFFFFFFFFFFFFFFFFFFFFFFFFFFFFFF
310
FFFFFFFFFFFFFFFFFFFFFFFFFFFFFFFFFFFFFFFFFFFFFFFFFFFFFFFFFFFFFFFF
310
FFFFFFFFFFFFFFFFFFFFFFFFFFFFFFFFFFFFFFFFFFFFFFFFFFFFFFFFFFFFFFFF
310
FFFFFFFFFFFFFFFFFFFFFFFFFFFFFFFFFFFFFFFFFFFFFFFFFFFFFFFFFFFFFFFF
310
FFFFFFFFFFFFFFFFFFFFFFFFFFFFFFFFFFFFFFFFFFFFFFFFFFFFFFFFFFFFFFFF
310
FFFFFFFFFFFFFFFFFFFFFFFFFFFFFFFFFFFFFFFFFFFFFFFFFFFFFFFFFFFFFFFF
310
FDFFFFFFFEFFFFFFFEFFFFFFFEFFFFFF05000000060000000700000008000000
310
090000000A0000000B0000000C0000000D0000000E0000000F00000010000000
310
11000000120000001300000014000000150000001600000017000000FEFFFFFF
310
FFFFFFFFFFFFFFFFFFFFFFFFFFFFFFFFFFFFFFFFFFFFFFFFFFFFFFFFFFFFFFFF
310
FFFFFFFFFFFFFFFFFFFFFFFFFFFFFFFFFFFFFFFFFFFFFFFFFFFFFFFFFFFFFFFF
310
FFFFFFFFFFFFFFFFFFFFFFFFFFFFFFFFFFFFFFFFFFFFFFFFFFFFFFFFFFFFFFFF
310
FFFFFFFFFFFFFFFFFFFFFFFFFFFFFFFFFFFFFFFFFFFFFFFFFFFFFFFFFFFFFFFF
310
FFFFFFFFFFFFFFFFFFFFFFFFFFFFFFFFFFFFFFFFFFFFFFFFFFFFFFFFFFFFFFFF
310
FFFFFFFFFFFFFFFFFFFFFFFFFFFFFFFFFFFFFFFFFFFFFFFFFFFFFFFFFFFFFFFF
310
FFFFFFFFFFFFFFFFFFFFFFFFFFFFFFFFFFFFFFFFFFFFFFFFFFFFFFFFFFFFFFFF
310
FFFFFFFFFFFFFFFFFFFFFFFFFFFFFFFFFFFFFFFFFFFFFFFFFFFFFFFFFFFFFFFF
310
FFFFFFFFFFFFFFFFFFFFFFFFFFFFFFFFFFFFFFFFFFFFFFFFFFFFFFFFFFFFFFFF
310
FFFFFFFFFFFFFFFFFFFFFFFFFFFFFFFFFFFFFFFFFFFFFFFFFFFFFFFFFFFFFFFF
310
FFFFFFFFFFFFFFFFFFFFFFFFFFFFFFFFFFFFFFFFFFFFFFFFFFFFFFFFFFFFFFFF
310
FFFFFFFFFFFFFFFFFFFFFFFFFFFFFFFFFFFFFFFFFFFFFFFFFFFFFFFFFFFFFFFF
310
FFFFFFFFFFFFFFFFFFFFFFFFFFFFFFFFFFFFFFFFFFFFFFFFFFFFFFFFFFFFFFFF
310
52006F006F007400200045006E00740072007900000000000000000000000000
310
0000000000000000000000000000000000000000000000000000000000000000
310
16000500FFFFFFFFFFFFFFFF020000000A00030000000000C000000000000046
310
000000000000000000000000A0BE9DE1B538CD0103000000C000000000000000
310
01004F006C006500000000000000000000000000000000000000000000000000
310
0000000000000000000000000000000000000000000000000000000000000000
310
0A000200FFFFFFFFFFFFFFFFFFFFFFFF00000000000000000000000000000000
310
0000000000000000000000000000000000000000000000001400000000000000
310
010043006F006D0070004F0062006A0000000000000000000000000000000000
310
0000000000000000000000000000000000000000000000000000000000000000
310
120002010100000003000000FFFFFFFF00000000000000000000000000000000
310
0000000000000000000000000000000000000000010000004D00000000000000
310
01004F006C006500310030004E00610074006900760065000000000000000000
310
0000000000000000000000000000000000000000000000000000000000000000
310
1A000200FFFFFFFFFFFFFFFFFFFFFFFF00000000000000000000000000000000
310
0000000000000000000000000000000000000000040000002426000000000000
310
FEFFFFFF02000000FEFFFFFFFFFFFFFFFFFFFFFFFFFFFFFFFFFFFFFFFFFFFFFF
310
FFFFFFFFFFFFFFFFFFFFFFFFFFFFFFFFFFFFFFFFFFFFFFFFFFFFFFFFFFFFFFFF
310
FFFFFFFFFFFFFFFFFFFFFFFFFFFFFFFFFFFFFFFFFFFFFFFFFFFFFFFFFFFFFFFF
310
FFFFFFFFFFFFFFFFFFFFFFFFFFFFFFFFFFFFFFFFFFFFFFFFFFFFFFFFFFFFFFFF
310
FFFFFFFFFFFFFFFFFFFFFFFFFFFFFFFFFFFFFFFFFFFFFFFFFFFFFFFFFFFFFFFF
310
FFFFFFFFFFFFFFFFFFFFFFFFFFFFFFFFFFFFFFFFFFFFFFFFFFFFFFFFFFFFFFFF
310
FFFFFFFFFFFFFFFFFFFFFFFFFFFFFFFFFFFFFFFFFFFFFFFFFFFFFFFFFFFFFFFF
310
FFFFFFFFFFFFFFFFFFFFFFFFFFFFFFFFFFFFFFFFFFFFFFFFFFFFFFFFFFFFFFFF
310
FFFFFFFFFFFFFFFFFFFFFFFFFFFFFFFFFFFFFFFFFFFFFFFFFFFFFFFFFFFFFFFF
310
FFFFFFFFFFFFFFFFFFFFFFFFFFFFFFFFFFFFFFFFFFFFFFFFFFFFFFFFFFFFFFFF
310
FFFFFFFFFFFFFFFFFFFFFFFFFFFFFFFFFFFFFFFFFFFFFFFFFFFFFFFFFFFFFFFF
310
FFFFFFFFFFFFFFFFFFFFFFFFFFFFFFFFFFFFFFFFFFFFFFFFFFFFFFFFFFFFFFFF
310
FFFFFFFFFFFFFFFFFFFFFFFFFFFFFFFFFFFFFFFFFFFFFFFFFFFFFFFFFFFFFFFF
310
FFFFFFFFFFFFFFFFFFFFFFFFFFFFFFFFFFFFFFFFFFFFFFFFFFFFFFFFFFFFFFFF
310
FFFFFFFFFFFFFFFFFFFFFFFFFFFFFFFFFFFFFFFFFFFFFFFFFFFFFFFFFFFFFFFF
310
FFFFFFFFFFFFFFFFFFFFFFFFFFFFFFFFFFFFFFFFFFFFFFFFFFFFFFFFFFFFFFFF
310
0100000200000000000000000000000000000000000000000000000000000000
310
0000000000000000000000000000000000000000000000000000000000000000
310
0100FEFF030A0000FFFFFFFF0A00030000000000C00000000000004607000000
310
5042727573680007000000504272757368000700000050427275736800F439B2
310
7100000000000000000000000000000000000000000000000000000000000000
310
0000000000000000000000000000000000000000000000000000000000000000
310
0000000000000000000000000000000000000000000000000000000000000000
310
0000000000000000000000000000000000000000000000000000000000000000
310
0000000000000000000000000000000000000000000000000000000000000000
310
0000000000000000000000000000000000000000000000000000000000000000
310
0000000000000000000000000000000000000000000000000000000000000000
310
0000000000000000000000000000000000000000000000000000000000000000
310
0000000000000000000000000000000000000000000000000000000000000000
310
0000000000000000000000000000000000000000000000000000000000000000
310
0000000000000000000000000000000000000000000000000000000000000000
310
0000000000000000000000000000000000000000000000000000000000000000
310
20260000424D0E260000000000003E00000028000000B40200006E0000000100
310
01000000000000000000130B0000130B00000200000002000000000000FFFFFF
310
FFFFFFFFFFFFFFFFFFFFFFFFFFFFFFFFFFFFFFFFFFFFFFFFFFFFFFFFFFFFFFFF
310
FFFFFFFFFFFFFFFFFFFFFFFFFFFFFFFFFFFFFFFFFFFFFFFFFFFFFFFFFFFFFFFF
310
FFFFFFFFFFFFFFFFFFFFFFFFFFFFFFFFFFFFFFFFFFFFFFFFF000FFFFFFFFFFFF
310
FFFFFFFFFFFFFFFFFFFFFFFFFFFFFFFFFFFFFFFFFFFFFFFFFFFFFFFFFFFFFFFF
310
FFFFFFFFFFFFFFFFFFFFFFFFFFFFFFFFFFFFFFFFFFFFFFFFFFFFFFFFFFFFFFFF
310
FFFFFFFFFFFFFFFFFFFFFFFFFFFFFFFFF000FFFFFFFFFFFFFFFFFFFFFFFFFFFF
310
FFFFFFFFFFFFFFFFFFFFFFFFFFFFFFFFFFFFFFFFFFFFFFFFFFFFFFFFFFFFFFFF
310
FFFFFFFFFFFFFFFFFFFFFFFFFFFFFFFFFFFFFFFFFFFFFFFFFFFFFFFFFFFFFFFF
310
FFFFFFFFFFFFFFFFF000FFFFFFFFFFFFFFFFFFFFFFFFFFFFFFFFFFFFFFFFFFFF
310
FFFFFFFFFFFFFFFFFFFFFFFFFFFFFFFFFFFFFFFFFFFFFFFFFFFFFFFFFFFFFFFF
310
FFFFFFFFFFFFFFFFFFFFFFFFFFFFFFFFFFFFFFFFFFFFFFFFFFFFFFFFFFFFFFFF
310
F000FFFFFFFFFFFFFFFFFFFFFFFFFFFFFFFFFFFFFFFFFFFFFFFFFFFFFFFFFFFF
310
FFFFFFFFFFFFFFFFFFFFFFFFFFFFFFFFFFFFFFFFFFFFFFFFFFFFFFFFFFFFFFFF
310
FFFFFFFFFFFFFFFFFFFFFFFFFFFFFFFFFFFFFFFFFFFFFFFFF000FFFFFFFFFFFF
310
FFFFFFFFFFFFFFFFFFFFFFFFFFFFFFFFFFFFFFFFFFFFFFFFFFFFFFFFFFFFFFFF
310
FFFFFFFFFFFFFFFFFFFFFFFFFFFFFFFFFFFFFFFFFFFFFFFFFFFFFFFFFFFFFFFF
310
FFFFFFFFFFFFFFFFFFFFFFFFFFFFFFFFF000FFFFFFFFFFFFFFFFFFFFFFFFFFFF
310
FFFFFFFFFFFFFFFFFFFFFFFFFFFFFFFFFFFFFFFFFFFFFFFFFFFFFFFFFFFFFFFF
310
FFFFFFFFFFFFFFFFFFFFFFFFFFFFFFFFFFFFFFFFFFFFFFFFFFFFFFFFFFFFFFFF
310
FFFFFFFFFFFFFFFFF000FFFFFFFFFFFFFFFFFFFFFFFFFFFFFFFFFFFFFFFFFFFF
310
FFFFFFFFFFFFFFFFFFFFFFFFFFFFFFFFFFFFFFFFFFFFFFFFFFFFFFFFFFFFFFFF
310
FFFFFFFFFFFFFFFFFFFFFFFFFFFFFFFFFFFFFFFFFFFFFFFFFFFFFFFFFFFFFFFF
310
F000FFFFFFFFFFFFFFFFFFFFFFFFFFFFFFFFFFFFFFFFFFFFFFFFFFFFFFFFFFFF
310
FFFFFFFFFFFFFFFFFFFFFFFFFFFFFFFFFFFFFFFFFFFFFFFFFFFFFFFFFFFFFFFF
310
FFFFFFFFFFFFFFFFFFFFFFFFFFFFFFFFFFFFFFFFFFFFFFFFF000FFFFFFFFFFFF
310
FFFFFFFFFFFFFFFFFFFFFFFFFFFFFFFFFFFFFFFFFFFFFFFFFFFFFFFFFFFFFFFF
310
FFFFFFFFFFFFFFFFFFFFFFFFFFFFFFFFFFFFFFFFFFFFFFFFFFFFFFFFFFFFFFFF
310
FFFFFFFFFFFFFFFFFFFFFFFFFFFFFFFFF000FFFFFFFFFFFFFFFFFFFFFFFFFFFF
310
FFFFFFFFFFFFFFFFFFFFFFFFFFFFFFFFFFFFFFFFFFFFFFFFFFFFFFFFFFFFFFFF
310
FFFFFFFFFFFFFFFFFFFFFFFFFFFFFFFFFFFFFFFFFFFFFFFFFFFFFFFFFFFFFFFF
310
FFFFFFFFFFFFFFFFF000FFFFFFFFFFFFFFFFFFFFFFFFFFFFFFFFFFFFFFFFFFFF
310
FFFFFFFFFFFFFFFFFFFFFFFFFFFFFFFFFFFFFFFFFFFFFFFFFFFFFFFFFFFFFFFF
310
FFFFFFFFFFFFFFFFFFFFFFFFFFFFFFFFFFFFFFFFFFFFFFFFFFFFFFFFFFFFFFFF
310
F000FFFFFFFFFFFFFFFFFFFFFFFFFFFFFFFFFFFFFFFFFFFFFFFFFFFFFFFFFFFF
310
FFFFFFFFFFFFFFFFFFFFFFFFFFFFFFFFFFFFFFFFFFFFFFFFFFFFFFFFFFFFFFFF
310
FFFFFFFFFFFFFFFFFFFFFFFFFFFFFFFFFFFFFFFFFFFFFFFFF000FFFFFFFFFFFF
310
FFFFFFFFFFFFFFFFFFFFFFFFFFFFFFFFFFFFFFFFFFFFFFFFFFFFFFFFFFFFFFFF
310
FFFFFFFFFFFFFFFFFFFFFFFFFFFFFFFFFFFFFFFFFFFFFFFFFFFFFFFFFFFFFFFF
310
FFFFFFFFFFFFFFFFFFFFFFFFFFFFFFFFF000FFFFFFFFFFFFFFFFFFFFFFFFFFFF
310
FFFFFFFFFFFFFFFFFFFFFFFFFFFFFFFFFFFFFFFFFFFFFFFFFFFFFFFFFFFFFFFF
310
FFFFFFFFFFFFFFFFFFFFFFFFFFFFFFFFFFFFFFFFFFFFFFFFFFFFFFFFFFFFFFFF
310
FFFFFFFFFFFFFFFFF000FFFFFFFFFFFFFFFFFFFFFFFFFFFFFFFFFFFFFFFFFFFF
310
FFFFFFFFFFFFFFFFFFFFFFFFFFFFFFFFFFFFFFFFFFFFFFFFFFFFFFFFFFFFFFFF
310
FFFFFFFFFFFFFFFFFFFFFFFFFFFFFFFFFFFFFFFFFFFFFFFFFFFFFFFFFFFFFFFF
310
F000FFFFFFFFFFFFFFFFFFFFFFFFFFFFFFFFFFFFFFFFFFFFFFFFFFFFFFFFFFFF
310
FFFFFFFFFFFFFFFFFFFFFFFFFFFFFFFFFFFFFFFFFFFFFFFFFFFFFFFFFFFFFFFF
310
FFFFFFFFFFFFFFFFFFFFFFFFFFFFFFFFFFFFFFFFFFFFFFFFF000FFFFFFFFFFFF
310
FFFFFFFFFFFFFFFFFFFFFFFFFFFFFFFFFFFFFFFFFFFFFFFFFFFFFFFFFFFFFFFF
310
FFFFFFFFFFFFFFFFFFFFFFFFFFFFFFFFFFFFFFFFFFFFFFFFFFFFFFFFFFFFFFFF
310
FFFFFFFFFFFFFFFFFFFFFFFFFFFFFFFFF000FFFFFFFFFFFFFFFFFFFFFFFFFFFF
310
FFFFFFFFFFFFFFFFFFFFFFFFFFFFFFFFFFFFFFFFFFFFFFFFFFFFFFFFFFFFFFFF
310
FFFFFFFFFFFFFFFFFFFFFFFFFFFFFFFFFFFFFFFFFFFFFFFFFFFFFFFFFFFFFFFF
310
FFFFFFFFFFFFFFFFF000FFFFF80003FFFFFFFFFFFFFFFFFFFFFFFFFFFFFFFFFF
310
FFFFF00007FFFFFFFFFF00007FFFFFF800000000000000007FFFFFFFFFFFFFFF
310
FFFFFFFC001FFFFFFFFFFFFFFC001FFFFFFFFFFFFFFFFFFFFFFFFFFE0007FFFF
310
F000FFFF8000007FFFFFFFF8000FFFFFC0007FFFFF80007FFFFF0000007FFFFF
310
FFF8000007FFFFF800000000000000007FFFFFF0001FFFFFFFFFFFC00001FFFF
310
FFFFFFFFC00001FFFFFFFF000000000003FFFFE000007FFFF000FFFE0000000F
310
FFFFFFF0000FFFFF80007FFFFF80007FFFFC0000001FFFFFFFC0000001FFFFF8
310
00000000000000007FFFFFF0001FFFFFFFFFFE0000003FFFFFFFFFFE0000003F
310
FFFFFF000000000003FFFF0000000FFFF000FFF800000003FFFFFFF00007FFFF
310
80007FFFFF80007FFFF000000007FFFFFF000000003FFFF80000000000000000
310
7FFFFFF0001FFFFFFFFFF80000000FFFFFFFFFF80000000FFFFFFF0000000000
310
03FFFC00000003FFF000FFE000000000FFFFFFF00007FFFF80003FFFFF80007F
310
FFC000000001FFFFFC000000001FFFF800000000000000007FFFFFF0001FFFFF
310
FFFFE000000003FFFFFFFFE000000003FFFFFF000000000003FFF000000000FF
310
F000FF80000000007FFFFFF00007FFFF80003FFFFF80007FFF8000000000FFFF
310
F80000000007FFF800000000000000007FFFFFF0001FFFFFFFFFC000000001FF
310
FFFFFFC000000001FFFFFF000000000003FFC0000000007FF000FF0000000000
310
3FFFFFE00007FFFF00003FFFFF80007FFE00000000003FFFF00000000003FFF8
310
00000000000000007FFFFFF0001FFFFFFFFF8000000000FFFFFFFF8000000000
310
FFFFFF000000000003FF80000000003FF000FE00000000001FFFFFE00003FFFF
310
00003FFFFF80007FFC00000000001FFFE00000000001FFF8000001FFFE000000
310
7FFFFFF0001FFFFFFFFE00000000003FFFFFFE00000000003FFFFF0000000000
310
03FF00000000001FF000FC00000000000FFFFFE00003FFFF00001FFFFF80007F
310
F800000000001FFFC00000000000FFF8000001FFFE0000007FFFFFF0001FFFFF
310
FFFC00000000001FFFFFFC00000000001FFFFF000000000003FE00000000000F
310
F000F8000000000007FFFFE00003FFFF00001FFFFF80007FF800000000000FFF
310
800000000000FFF8000001FFFE0000007FFFFFF0001FFFFFFFF800000000000F
310
FFFFF800000000000FFFFF000000000003FC000000000007F000F80000000000
310
03FFFFC00003FFFE00001FFFFF80007FF0000000000007FF0000000000007FF8
310
000001FFFE0000007FFFFFF0001FFFFFFFF0000000000007FFFFF00000000000
310
07FFFF000000000003F8000000000003F000F0000000000003FFFFC00001FFFE
310
00001FFFFF80007FE0000000000007FE0000000000003FF8000001FFFE000000
310
7FFFFFF0001FFFFFFFF0000000000007FFFFF0000000000007FFFF0000000000
310
03F800001F800003F000E00001FFF00001FFFFC00001FFFE00000FFFFF80007F
310
E00001FFE00003FE00001FFF00003FF8000001FFFE0000007FFFFFF0001FFFFF
310
FFE000003E000003FFFFE000003E000003FFFF000000000003F00001FFF80001
310
F000E00007FFFC0001FFFFC00001FFFE00000FFFFF80007FC0000FFFFC0003FC
310
0000FFFFC0001FF8000001FFFE0000007FFFFFF0001FFFFFFFC00003FFE00001
310
FFFFC00003FFE00001FFFF0001FFFFFFFFF00007FFFE0001F000E0000FFFFF00
310
00FFFF800001FFFC00000FFFFF80007FC0001FFFFE0001FC0001FFFFE0001FF8
310
000001FFFE0000007FFFFFF0001FFFFFFF80000FFFF80000FFFF80000FFFF800
310
00FFFF0003FFFFFFFFE0000FFFFF8000F000C0003FFFFF8000FFFF800000FFFC
310
000007FFFF80007F80003FFFFF0001FC0003FFFFF0001FF8000001FFFE000000
310
7FFFFFF0001FFFFFFF80003FFFFE0000FFFF80003FFFFE0000FFFF0003FFFFFF
310
FFE0003FFFFF8000F000C0003FFFFF8000FFFF800000FFFC000007FFFF80007F
310
80007FFFFF8001F80007FFFFF8000FF8000001FFFE0000007FFFFFF0001FFFFF
310
FF00007FFFFF00007FFF00007FFFFF00007FFF0003FFFFFFFFE0003FFFFFC000
310
F000C0007FFFFFC000FFFF000000FFFC000007FFFF80007F8000FFFFFF8000F8
310
000FFFFFF8000FF8000001FFFE0000007FFFFFF0001FFFFFFF0000FFFFFF8000
310
7FFF0000FFFFFF80007FFF0003FFFFFFFFC0007FFFFFC00070008000FFFFFFC0
310
00FFFF000000FFF8000007FFFF80007F8000FFFFFF8000F8000FFFFFF8000FF8
310
000001FFFE0000007FFFFFF0001FFFFFFE0001FFFFFFC0003FFE0001FFFFFFC0
310
003FFF0003FFFFFFFFC0007FFFFFE00070008000FFFFFFC0007FFF0000007FF8
310
000003FFFF80007F0001FFFFFF8000F8000FFFFFF8000FF8000001FFFE000000
310
7FFFFFF0001FFFFFFE0001FFFFFFC0003FFE0001FFFFFFC0003FFF0003FFFFFF
310
FFC000FFFFFFE00070008000FFFFFFC0007FFF0000007FF8000003FFFF80007F
310
0001FFFFFF8000F8001FFFFFF8000FF8000001FFFE0000007FFFFFF0001FFFFF
310
FE0003FFFFFFE0003FFE0003FFFFFFE0003FFF0003FFFFFFFFC000FFFFFFE000
310
70008000FFFFFFC0007FFE0000007FF8000003FFFF80007F0001FFFFFF8000F0
310
001FFFFFF8000FF8000001FFFE0000007FFFFFF0001FFFFFFC0003FFFFFFE000
310
1FFC0003FFFFFFE0001FFF0003FFFFFFFFC000FFFFFFC00070008000FFFFFF80
310
007FFE0000007FF0000003FFFF80007F0001FFFFFF0000F0001FFFFFF8000FF8
310
000001FFFE0000007FFFFFF0001FFFFFFC0007FFFFFFF0001FFC0007FFFFFFF0
310
001FFF0003FFFFFFFFC000FFFFFFC00070008001FFFFFF0000FFFE0000003FF0
310
000001FFFF80007F0001FFFFFF0000F8001FFFFFF0000FF8000001FFFE000000
310
7FFFFFF0001FFFFFFC0007FFFFFFF0001FFC0007FFFFFFF0001FFF0003FFFFFF
310
FFC001FFFFFF80007000FFFFFFFFFE0000FFFE0008003FF0008001FFFF80007F
310
FFFFFFFFFC0000FFFFFFFFFFE0000FF8000001FFFE0000007FFFFFF0001FFFFF
310
F8000FFFFFFFF8000FF8000FFFFFFFF8000FFF0003FFFFFFFFFFFFFFFFFF0000
310
7000FFFFFFFFFC0000FFFC0008003FF0008001FFFF80007FFFFFFFFFF80001FF
310
FFFFFFFF80000FF8000001FFFE0000007FFFFFF0001FFFFFF8000FFFFFFFF800
310
0FF8000FFFFFFFF8000FFF0003FFFFFFFFFFFFFFFFFE0000F000FFFFFFFFE000
310
00FFFC000C003FE000C001FFFF80007FFFFFFFFFC00001FFFFFFFFFE00001FF8
310
000001FFFE0000007FFFFFF0001FFFFFF8000FFFFFFFF8000FF8000FFFFFFFF8
310
000FFF0003FFFFFFFFFFFFFFFFF00000F000FFFFFFFE000001FFFC000C001FE0
310
00C000FFFF80007FFFFFFFFE000001FFFFFFFFE000001FF80FFFFFFFFFFFFFC0
310
7FFFFFF0001FFFFFF8000FFFFFFFF8000FF8000FFFFFFFF8000FFF0003FFFFFF
310
FFFFFFFFFF800000F000FFFFFFC0000001FFFC001C001FE001C000FFFF80007F
310
FFFFFF80000003FFFFFFF80000001FF80FFFFFFFFFFFFFC07FFFFFF0001FFFFF
310
F8001FFFFFFFFC000FF8001FFFFFFFFC000FFF0003FFFFFFFFFFFFFFF0000001
310
F000FFFFF800000001FFF8001C001FE001C000FFFF80007FFFFFF800000003FF
310
FFFF800000003FF80FFFFFFFFFFFFFC07FFFFFF0001FFFFFF8001FFFFFFFFC00
310
0FF8001FFFFFFFFC000FFF0003FFFFFFFFFFFFFE00000001F000FFFFC0000000
310
03FFF8001E001FC001E000FFFF80007FFFFF8000000007FFFFFC000000003FF8
310
0FFFFFFFFFFFFFC07FFFFFF0001FFFFFF8001FFFFFFFFC000FF8001FFFFFFFFC
310
000FFF0003FFFFFFFFFFFFE000000003F000FFFE0000000007FFF8001E000FC0
310
01E0007FFF80007FFFFE0000000007FFFFE0000000007FF80FFFFFFFFFFFFFC0
310
7FFFFFF0001FFFFFF0001FFFFFFFFC0007F0001FFFFFFFFC0007FF0003FFFFFF
310
FFFFFF0000000003F000FFF80000000007FFF8001E000FC003E0007FFF80007F
310
FFF0000000000FFFFF8000000000FFF80FFFFFFFFFFFFFC07FFFFFF0001FFFFF
310
F0001FFFFFFFFC0007F0001FFFFFFFFC0007FF0003FFFFFFFFFFFC0000000007
310
F000FFE0000000000FFFF0003E000FC003E0007FFF80007FFFC0000000001FFF
310
FE0000000001FFF80FFFFFFFFFFFFFC07FFFFFF0001FFFFFF0001FFFFFFFFC00
310
07F0001FFFFFFFFC0007FF0003FFFFFFFFFFF0000000000FF000FFC000000000
310
1FFFF0003F000F8003F0003FFF80007FFF80000000003FFFF80000000003FFF8
310
0FFFFFFFFFFFFFC07FFFFFF0001FFFFFF0001FFFFFFFFC0007F0001FFFFFFFFC
310
0007FF0003FFFFFFFFFFE0000000001FF000FF00000000007FFFF0003F000780
310
03F0003FFF80007FFF00000000007FFFF00000000007FFF80FFFFFFFFFFFFFC0
310
7FFFFFF0001FFFFFF0001FFFFFFFFC0007F0001FFFFFFFFC0007FF0003FFFFFF
310
FFFF80000000007FF000FE0000000000FFFFE0003F00078007F0003FFF80007F
310
FE0000000001FFFFE0000000001FFFF80FFFFFFFFFFFFFC07FFFFFF0001FFFFF
310
F0001FFFFFFFFC0007F0001FFFFFFFFC0007FF0003FFFFFFFFFF0000000000FF
310
F000FC0000000003FFFFE0007F00078007F0003FFF80007FFC0000000007FFFF
310
C0000000007FFFF80FFFFFFFFFFFFFC07FFFFFF0001FFFFFF8001FFFFFFFFC00
310
0FF8001FFFFFFFFC000FFF0003FFFFFFFFFE0000000003FFF000FC000000000F
310
FFFFE0007F80070007F8001FFF80007FF8000000001FFFFF8000000001FFFFF8
310
0FFFFFFFFFFFFFC07FFFFFF0001FFFFFF8001FFFFFFFFC000FF8001FFFFFFFFC
310
000FFF0003FFFFFFFFFC000000000FFFF000F8000000007FFFFFE0007F800700
310
07F8001FFF80007FF000000000FFFFFF800000000FFFFFF80FFFFFFFFFFFFFC0
310
7FFFFFF0001FFFFFF8000FFFFFFFF8000FF8000FFFFFFFF8000FFF0003FFFFFF
310
FFFC000000007FFFF000F800000007FFFFFFC0007F8003000FF8001FFF80007F
310
F000000007FFFFFF000000007FFFFFF80FFFFFFFFFFFFFC07FFFFFF0001FFFFF
310
F8000FFFFFFFF8000FF8000FFFFFFFF8000FFF0003FFFFFFFFF80000000FFFFF
310
F000F0000000FFFFFFFFC000FF8003000FF8001FFF80007FE0000000FFFFFFFF
310
0000000FFFFFFFF8000001FFFE0000007FFFFFF0001FFFFFF8000FFFFFFFF800
310
0FF8000FFFFFFFF8000FFF0003FFFFFFFFF8000000FFFFFFF000F000000FFFFF
310
FFFFC000FFC002000FF8000FFF80007FE000001FFFFFFFFE000001FFFFFFFFF8
310
000001FFFE0000007FFFFFF0001FFFFFF8000FFFFFFFF8000FF8000FFFFFFFF8
310
000FFF0003FFFFFFFFF000001FFFFFFFF000E00000FFFFFFFFFFC000FFC00200
310
0FFC000FFF80007FE00001FFFFFFFFFE00001FFFFFFFFFF8000001FFFE000000
310
7FFFFFF0001FFFFFFC000FFFFFFFF8001FFC000FFFFFFFF8001FFF0003FFFFFF
310
FFF00001FFFFFFFFF000E00007FFFFFFFFFF8000FFC000001FFC000FFF80007F
310
C0000FFFFFFFFFFE0000FFFFFFFFFFF8000001FFFE0000007FFFFFF0001FFFFF
310
FC0007FFFFFFF0001FFC0007FFFFFFF0001FFF0003FFFFFFFFF00007FFFFFFFF
310
F000E0001FFFFFFFFFFF8000FFC000001FFC000FFF80007FC0003FFFFFFFFFFE
310
0001FFFFFFFFFFF8000001FFFE0000007FFFFFF0001FFFFFFC0007FFFFFFF000
310
1FFC0007FFFFFFF0001FFF0003FFFFFFFFF0001FFFFFFFFFF000E0003FFFFF00
310
03FF8001FFE000001FFC0007FF80007FC0007FFFFF0007FC0003FFFFF0003FF8
310
000001FFFE0000007FFFFFF0001FFFFFFC0003FFFFFFE0001FFC0003FFFFFFE0
310
001FFF0003FFFFFFFFF0003FFFFFFFFFF000E0003FFFFF0001FF8001FFE00000
310
1FFE0007FF80007FC0007FFFFE0003FC0007FFFFE0003FF8000001FFFE000000
310
7FFFFFF0001FFFFFFE0003FFFFFFE0003FFE0003FFFFFFE0003FFF0003FFFFFF
310
FFF0003FFFFF8001F000E0003FFFFF0001FF0001FFE000001FFE0007FF80007F
310
C0007FFFFE0003FC0007FFFFE0003FF8000001FFFE0000007FFFFFF0001FFFFF
310
FE0001FFFFFFC0003FFE0001FFFFFFC0003FFF0003FFFFFFFFF0003FFFFF0001
310
F000E0003FFFFF0003FF0001FFE000003FFE0007FF80007FC0007FFFFE0003FC
310
0007FFFFE0003FF8000001FFFE0000007FFFFFF0001FFFFFFF0001FFFFFFC000
310
7FFF0001FFFFFFC0007FFF0003FFFFFFFFF0003FFFFF0001F000E0003FFFFE00
310
03FF0003FFF000003FFE0003FF80007FC0007FFFFC0003FE0007FFFFE0003FF8
310
000001FFFE0000007FFFFFF0001FFFFFFF0000FFFFFF80007FFF0000FFFFFF80
310
007FFF0003FFFFFFFFF0003FFFFF0001F000E0003FFFFE0003FF0003FFF00000
310
3FFF0003FF80007FC0007FFFFC0007FE0007FFFFC0003FF8000001FFFE000000
310
7FFFFFF0001FFFFFFF80007FFFFF0000FFFF80007FFFFF0000FFFF0003FFFFFF
310
FFF0003FFFFF0003F000E0003FFFFC0003FE0003FFF000003FFF0003FF80007F
310
E0003FFFF80007FE0003FFFFC0007FF8000001FFFE0000007FFFFFF0001FFFFF
310
FF80003FFFFE0000FFFF80003FFFFE0000FFFF0003FFFFFFFFF0001FFFFE0003
310
F000F0001FFFF80003FE0003FFF000007FFF0001FF80007FE0003FFFF00007FE
310
0001FFFF80007FF8000001FFFE0000007FFFFFF0001FFFFFFFC0000FFFF80001
310
FFFFC0000FFFF80001FFFF0003FFFFFFFFF0001FFFFC0003F000F0000FFFF000
310
07FE0007FFF800007FFF0001FF80007FE0001FFFE00007FF0000FFFE00007FF8
310
000001FFFE0000007FFFFFF0001FFFFFFFC00003FFE00001FFFFC00003FFE000
310
01FFFF0003FFFFFFFFF8000FFFF80003F000F00003FFC00007FC0007FFF80000
310
7FFF8001FF80007FF00007FF80000FFF00007FF80000FFF8000001FFFE000000
310
7F80000000000001FFE000003E000003FFFFE000003E000003FFFF0003FFFFFF
310
FFF80003FFE00007F000F800000000000FFC0007FFF800007FFF8001FF80007F
310
F000000000000FFF000000000000FFF8000001FFFE0000007F80000000000001
310
FFF0000000000007FFFFF0000000000007FFFF0003FFFFFFFFFC00007E000007
310
F000F800000000000FFC0007FFF80000FFFF8000FF80007FF800000000001FFF
310
800000000001FFF8000001FFFE0000007F80000000000001FFF800000000000F
310
FFFFF800000000000FFFFF0003FFFFFFFFFC00000000000FF000FC0000000000
310
1FFC0007FFFC0000FFFF8000FF80007FF800000000003FFFC00000000001FFF8
310
000001FFFE0000007F80000000000001FFF800000000000FFFFFF80000000000
310
0FFFFF0003FFFFFFFFFE00000000001FF000FE00000000003FF8000FFFFC0000
310
FFFF8000FF80007FFC00000000003FFFC00000000003FFF8000001FFFE000000
310
7F80000000000001FFFC00000000001FFFFFFC00000000001FFFFF0003FFFFFF
310
FFFF00000000001FF000FF00000000003FF8000FFFFC0000FFFFC000FF80007F
310
FE00000000007FFFE00000000007FFF8000001FFFE0000007F80000000000001
310
FFFE00000000003FFFFFFE00000000003FFFFF0003FFFFFFFFFF80000000003F
310
F000FF80000000007FF8000FFFFC0001FFFFC0007F80007FFF0000000000FFFF
310
F0000000000FFFF800000000000000007F80000000000001FFFF8000000000FF
310
FFFFFF8000000000FFFFFF0003FFFFFFFFFFC0000000007FF000FFC000000000
310
FFF8000FFFFE0001FFFFC0007F80007FFF8000000001FFFFF8000000001FFFF8
310
00000000000000007F80000000000001FFFFC000000001FFFFFFFFC000000001
310
FFFFFF0003FFFFFFFFFFE000000000FFF000FFE000000003FFF0001FFFFE0001
310
FFFFC0007F80007FFFC000000007FFFFFE000000003FFFF80000000000000000
310
7F80000000000001FFFFE000000003FFFFFFFFE000000003FFFFFF0003FFFFFF
310
FFFFF000000003FFF000FFF80000000FFFF0001FFFFE0001FFFFE0007F80007F
310
FFF00000000FFFFFFF00000000FFFFF800000000000000007F80000000000001
310
FFFFF80000000FFFFFFFFFF80000000FFFFFFF0003FFFFFFFFFFFC0000000FFF
310
F000FFFE0000003FFFF0001FFFFE0003FFFFE0003F80007FFFFC0000003FFFFF
310
FFC0000003FFFFF800000000000000007F80000000000001FFFFFE0000003FFF
310
FFFFFFFE0000003FFFFFFF0003FFFFFFFFFFFF0000003FFFF000FFFF800000FF
310
FFF0001FFFFF0003FFFFE0003F80007FFFFF000001FFFFFFFFF800001FFFFFF8
310
00000000000000007F80000000000001FFFFFFC00001FFFFFFFFFFFFC00001FF
310
FFFFFF0003FFFFFFFFFFFFC00000FFFFF000FFFFF8000FFFFFFFFFFFFFFFFFFF
310
FFFFFFFFFFFFFFFFFFFFF0001FFFFFFFFFFF0000FFFFFFF80000000000000000
310
7FFFFFFFFFFFFFFFFFFFFFFC001FFFFFFFFFFFFFFC001FFFFFFFFFFFFFFFFFFF
310
FFFFFFFC001FFFFFF000FFFFFFFFFFFFFFFFFFFFFFFFFFFFFFFFFFFFFFFFFFFF
310
FFFFFFFFFFFFFFFFFFFFFFFFFFFFFFFFFFFFFFFFFFFFFFFFFFFFFFFFFFFFFFFF
310
FFFFFFFFFFFFFFFFFFFFFFFFFFFFFFFFFFFFFFFFFFFFFFFFFFFFFFFFFFFFFFFF
310
F000FFFFFFFFFFFFFFFFFFFFFFFFFFFFFFFFFFFFFFFFFFFFFFFFFFFFFFFFFFFF
310
FFFFFFFFFFFFFFFFFFFFFFFFFFFFFFFFFFFFFFFFFFFFFFFFFFFFFFFFFFFFFFFF
310
FFFFFFFFFFFFFFFFFFFFFFFFFFFFFFFFFFFFFFFFFFFFFFFFF000FFFFFFFFFFFF
310
FFFFFFFFFFFFFFFFFFFFFFFFFFFFFFFFFFFFFFFFFFFFFFFFFFFFFFFFFFFFFFFF
310
FFFFFFFFFFFFFFFFFFFFFFFFFFFFFFFFFFFFFFFFFFFFFFFFFFFFFFFFFFFFFFFF
310
FFFFFFFFFFFFFFFFFFFFFFFFFFFFFFFFF000FFFFFFFFFFFFFFFFFFFFFFFFFFFF
310
FFFFFFFFFFFFFFFFFFFFFFFFFFFFFFFFFFFFFFFFFFFFFFFFFFFFFFFFFFFFFFFF
310
FFFFFFFFFFFFFFFFFFFFFFFFFFFFFFFFFFFFFFFFFFFFFFFFFFFFFFFFFFFFFFFF
310
FFFFFFFFFFFFFFFFF000FFFFFFFFFFFFFFFFFFFFFFFFFFFFFFFFFFFFFFFFFFFF
310
FFFFFFFFFFFFFFFFFFFFFFFFFFFFFFFFFFFFFFFFFFFFFFFFFFFFFFFFFFFFFFFF
310
FFFFFFFFFFFFFFFFFFFFFFFFFFFFFFFFFFFFFFFFFFFFFFFFFFFFFFFFFFFFFFFF
310
F000FFFFFFFFFFFFFFFFFFFFFFFFFFFFFFFFFFFFFFFFFFFFFFFFFFFFFFFFFFFF
310
FFFFFFFFFFFFFFFFFFFFFFFFFFFFFFFFFFFFFFFFFFFFFFFFFFFFFFFFFFFFFFFF
310
FFFFFFFFFFFFFFFFFFFFFFFFFFFFFFFFFFFFFFFFFFFFFFFFF000FFFFFFFFFFFF
310
FFFFFFFFFFFFFFFFFFFFFFFFFFFFFFFFFFFFFFFFFFFFFFFFFFFFFFFFFFFFFFFF
310
FFFFFFFFFFFFFFFFFFFFFFFFFFFFFFFFFFFFFFFFFFFFFFFFFFFFFFFFFFFFFFFF
310
FFFFFFFFFFFFFFFFFFFFFFFFFFFFFFFFF000FFFFFFFFFFFFFFFFFFFFFFFFFFFF
310
FFFFFFFFFFFFFFFFFFFFFFFFFFFFFFFFFFFFFFFFFFFFFFFFFFFFFFFFFFFFFFFF
310
FFFFFFFFFFFFFFFFFFFFFFFFFFFFFFFFFFFFFFFFFFFFFFFFFFFFFFFFFFFFFFFF
310
FFFFFFFFFFFFFFFFF000FFFFFFFFFFFFFFFFFFFFFFFFFFFFFFFFFFFFFFFFFFFF
310
FFFFFFFFFFFFFFFFFFFFFFFFFFFFFFFFFFFFFFFFFFFFFFFFFFFFFFFFFFFFFFFF
310
FFFFFFFFFFFFFFFFFFFFFFFFFFFFFFFFFFFFFFFFFFFFFFFFFFFFFFFFFFFFFFFF
310
F000FFFFFFFFFFFFFFFFFFFFFFFFFFFFFFFFFFFFFFFFFFFFFFFFFFFFFFFFFFFF
310
FFFFFFFFFFFFFFFFFFFFFFFFFFFFFFFFFFFFFFFFFFFFFFFFFFFFFFFFFFFFFFFF
310
FFFFFFFFFFFFFFFFFFFFFFFFFFFFFFFFFFFFFFFFFFFFFFFFF000FFFFFFFFFFFF
310
FFFFFFFFFFFFFFFFFFFFFFFFFFFFFFFFFFFFFFFFFFFFFFFFFFFFFFFFFFFFFFFF
310
FFFFFFFFFFFFFFFFFFFFFFFFFFFFFFFFFFFFFFFFFFFFFFFFFFFFFFFFFFFFFFFF
310
FFFFFFFFFFFFFFFFFFFFFFFFFFFFFFFFF000FFFFFFFFFFFFFFFFFFFFFFFFFFFF
310
FFFFFFFFFFFFFFFFFFFFFFFFFFFFFFFFFFFFFFFFFFFFFFFFFFFFFFFFFFFFFFFF
310
FFFFFFFFFFFFFFFFFFFFFFFFFFFFFFFFFFFFFFFFFFFFFFFFFFFFFFFFFFFFFFFF
310
FFFFFFFFFFFFFFFFF000FFFFFFFFFFFFFFFFFFFFFFFFFFFFFFFFFFFFFFFFFFFF
310
FFFFFFFFFFFFFFFFFFFFFFFFFFFFFFFFFFFFFFFFFFFFFFFFFFFFFFFFFFFFFFFF
310
FFFFFFFFFFFFFFFFFFFFFFFFFFFFFFFFFFFFFFFFFFFFFFFFFFFFFFFFFFFFFFFF
310
F000FFFFFFFFFFFFFFFFFFFFFFFFFFFFFFFFFFFFFFFFFFFFFFFFFFFFFFFFFFFF
310
FFFFFFFFFFFFFFFFFFFFFFFFFFFFFFFFFFFFFFFFFFFFFFFFFFFFFFFFFFFFFFFF
310
FFFFFFFFFFFFFFFFFFFFFFFFFFFFFFFFFFFFFFFFFFFFFFFFF000FFFFFFFFFFFF
310
FFFFFFFFFFFFFFFFFFFFFFFFFFFFFFFFFFFFFFFFFFFFFFFFFFFFFFFFFFFFFFFF
310
FFFFFFFFFFFFFFFFFFFFFFFFFFFFFFFFFFFFFFFFFFFFFFFFFFFFFFFFFFFFFFFF
310
FFFFFFFFFFFFFFFFFFFFFFFFFFFFFFFFF000FFFFFFFFFFFFFFFFFFFFFFFFFFFF
310
FFFFFFFFFFFFFFFFFFFFFFFFFFFFFFFFFFFFFFFFFFFFFFFFFFFFFFFFFFFFFFFF
310
FFFFFFFFFFFFFFFFFFFFFFFFFFFFFFFFFFFFFFFFFFFFFFFFFFFFFFFFFFFFFFFF
310
FFFFFFFFFFFFFFFFF000FFFFFFFFFFFFFFFFFFFFFFFFFFFFFFFFFFFFFFFFFFFF
310
FFFFFFFFFFFFFFFFFFFFFFFFFFFFFFFFFFFFFFFFFFFFFFFFFFFFFFFFFFFFFFFF
310
FFFFFFFFFFFFFFFFFFFFFFFFFFFFFFFFFFFFFFFFFFFFFFFFFFFFFFFFFFFFFFFF
310
F000FFFFFFFFFFFFFFFFFFFFFFFFFFFFFFFFFFFFFFFFFFFFFFFFFFFFFFFFFFFF
310
FFFFFFFFFFFFFFFFFFFFFFFFFFFFFFFFFFFFFFFFFFFFFFFFFFFFFFFFFFFFFFFF
310
FFFFFFFFFFFFFFFFFFFFFFFFFFFFFFFFFFFFFFFFFFFFFFFFF000FFFFFFFFFFFF
310
FFFFFFFFFFFFFFFFFFFFFFFFFFFFFFFFFFFFFFFFFFFFFFFFFFFFFFFFFFFFFFFF
310
FFFFFFFFFFFFFFFFFFFFFFFFFFFFFFFFFFFFFFFFFFFFFFFFFFFFFFFFFFFFFFFF
310
FFFFFFFFFFFFFFFFFFFFFFFFFFFFFFFFF000FFFFFFFFFFFFFFFFFFFFFFFFFFFF
310
FFFFFFFFFFFFFFFFFFFFFFFFFFFFFFFFFFFFFFFFFFFFFFFFFFFFFFFFFFFFFFFF
310
FFFFFFFFFFFFFFFFFFFFFFFFFFFFFFFFFFFFFFFFFFFFFFFFFFFFFFFFFFFFFFFF
310
FFFFFFFFFFFFFFFFF000FFFFFFFFFFFFFFFFFFFFFFFFFFFFFFFFFFFFFFFFFFFF
310
FFFFFFFFFFFFFFFFFFFFFFFFFFFFFFFFFFFFFFFFFFFFFFFFFFFFFFFFFFFFFFFF
310
FFFFFFFFFFFFFFFFFFFFFFFFFFFFFFFFFFFFFFFFFFFFFFFFFFFFFFFFFFFFFFFF
310
F000FFFFFFFFFFFFFFFFFFFFFFFFFFFFFFFFFFFFFFFFFFFFFFFFFFFFFFFFFFFF
310
FFFFFFFFFFFFFFFFFFFFFFFFFFFFFFFFFFFFFFFFFFFFFFFFFFFFFFFFFFFFFFFF
310
FFFFFFFFFFFFFFFFFFFFFFFFFFFFFFFFFFFFFFFFFFFFFFFFF000FFFFFFFFFFFF
310
FFFFFFFFFFFFFFFFFFFFFFFFFFFFFFFFFFFFFFFFFFFFFFFFFFFFFFFFFFFFFFFF
310
FFFFFFFFFFFFFFFFFFFFFFFFFFFFFFFFFFFFFFFFFFFFFFFFFFFFFFFFFFFFFFFF
310
FFFFFFFFFFFFFFFFFFFFFFFFFFFFFFFFF0000000000000000000000000000000
310
0000000000000000000000000000000000000000000000000000000000000000
310
0000000000000000000000000000000000000000000000000000000000000000
310
0000000000000000000000000000000000000000000000000000000000000000
310
0000000000000000000000000000000000000000000000000000000000000000
310
0000000000000000000000000000000000000000000000000000000000000000
310
0000000000000000000000000000000000000000000000000000000000000000
310
0000000000000000000000000000000000000000000000000000000000000000
310
0000000000000000000000000000000000000000000000000000000000000000
310
0000000000000000000000000000000000000000000000000000000000000000
310
0000000000000000000000000000000000000000000000000000000000000000
310
0000000000000000000000000000000000000000000000000000000000000000
310
0000000000000000000000000000000000000000000000000000000000000000
310
0000000000000000000000000000000000000000000000000000000000000000
310
0000000000000000000000000000000000000000000000000000000000000000
310
0000000000000000000000000000000000000000000000000000000000000000
  1
OLE
  0
ENDSEC
  0
SECTION
  2
OBJECTS
  0
DICTIONARY
  5
C
330
0
100
AcDbDictionary
281
     1
  3
ACAD_GROUP
350
D
  3
ACAD_LAYOUT
350
1A
  3
ACAD_MLINESTYLE
350
17
  3
ACAD_PLOTSETTINGS
350
19
  3
ACAD_PLOTSTYLENAME
350
E
  0
DICTIONARY
  5
D
102
{ACAD_REACTORS
330
C
102
}
330
C
100
AcDbDictionary
281
     1
  0
DICTIONARY
  5
1A
102
{ACAD_REACTORS
330
C
102
}
330
C
100
AcDbDictionary
281
     1
  3
Layout1
350
1E
  3
Layout2
350
26
  3
Model
350
22
  0
DICTIONARY
  5
17
102
{ACAD_REACTORS
330
C
102
}
330
C
100
AcDbDictionary
281
     1
  3
Standard
350
18
  0
DICTIONARY
  5
19
102
{ACAD_REACTORS
330
C
102
}
330
C
100
AcDbDictionary
281
     1
  0
ACDBDICTIONARYWDFLT
  5
E
102
{ACAD_REACTORS
330
C
102
}
330
C
100
AcDbDictionary
281
     1
  3
Normal
350
F
100
AcDbDictionaryWithDefault
340
F
  0
LAYOUT
  5
1E
102
{ACAD_REACTORS
330
1A
102
}
330
1A
100
AcDbPlotSettings
  1

  2
none_device
  4

  6

 40
0.0
 41
0.0
 42
0.0
 43
0.0
 44
0.0
 45
0.0
 46
0.0
 47
0.0
 48
0.0
 49
0.0
140
0.0
141
0.0
142
1.0
143
1.0
 70
   688
 72
     0
 73
     0
 74
     5
  7

 75
    16
147
1.0
148
0.0
149
0.0
100
AcDbLayout
  1
Layout1
 70
     1
 71
     1
 10
0.0
 20
0.0
 11
420.0
 21
297.0
 12
0.0
 22
0.0
 32
0.0
 14
1.0000000000E+20
 24
1.0000000000E+20
 34
1.0000000000E+20
 15
-1.0000000000E+20
 25
-1.0000000000E+20
 35
-1.0000000000E+20
146
0.0
 13
0.0
 23
0.0
 33
0.0
 16
1.0
 26
0.0
 36
0.0
 17
0.0
 27
1.0
 37
0.0
 76
     0
330
1B
  0
LAYOUT
  5
26
102
{ACAD_REACTORS
330
1A
102
}
330
1A
100
AcDbPlotSettings
  1

  2
none_device
  4

  6

 40
0.0
 41
0.0
 42
0.0
 43
0.0
 44
0.0
 45
0.0
 46
0.0
 47
0.0
 48
0.0
 49
0.0
140
0.0
141
0.0
142
1.0
143
1.0
 70
   688
 72
     0
 73
     0
 74
     5
  7

 75
    16
147
1.0
148
0.0
149
0.0
100
AcDbLayout
  1
Layout2
 70
     1
 71
     2
 10
0.0
 20
0.0
 11
0.0
 21
0.0
 12
0.0
 22
0.0
 32
0.0
 14
0.0
 24
0.0
 34
0.0
 15
0.0
 25
0.0
 35
0.0
146
0.0
 13
0.0
 23
0.0
 33
0.0
 16
1.0
 26
0.0
 36
0.0
 17
0.0
 27
1.0
 37
0.0
 76
     0
330
23
  0
LAYOUT
  5
22
102
{ACAD_REACTORS
330
1A
102
}
330
1A
100
AcDbPlotSettings
  1

  2
none_device
  4

  6

 40
0.0
 41
0.0
 42
0.0
 43
0.0
 44
0.0
 45
0.0
 46
0.0
 47
0.0
 48
0.0
 49
0.0
140
0.0
141
0.0
142
1.0
143
1.0
 70
  1712
 72
     0
 73
     0
 74
     0
  7

 75
     0
147
1.0
148
0.0
149
0.0
100
AcDbLayout
  1
Model
 70
     1
 71
     0
 10
0.0
 20
0.0
 11
297.0
 21
210.0
 12
0.0
 22
0.0
 32
0.0
 14
0.0
 24
0.0
 34
0.0
 15
297.0
 25
210.0
 35
0.0
146
0.0
 13
0.0
 23
0.0
 33
0.0
 16
1.0
 26
0.0
 36
0.0
 17
0.0
 27
1.0
 37
0.0
 76
     0
330
1F
331
29
  0
MLINESTYLE
  5
18
102
{ACAD_REACTORS
330
17
102
}
330
17
100
AcDbMlineStyle
  2
Standard
 70
     0
  3

 62
   256
 51
90.0
 52
90.0
 71
     2
 49
0.5
 62
   256
  6
BYLAYER
 49
-0.5
 62
   256
  6
BYLAYER
  0
ACDBPLACEHOLDER
  5
F
102
{ACAD_REACTORS
330
E
102
}
330
E
  0
ENDSEC
  0
EOF
