  0
SECTION
  2
HEADER
  9
$ACADVER
  1
AC1015
  9
$ACADMAINTVER
 70
     6
  9
$DWGCODEPAGE
  3
ANSI_1252
  9
$INSBASE
 10
0.0
 20
0.0
 30
0.0
  9
$EXTMIN
 10
0.0
 20
0.0
 30
0.0
  9
$EXTMAX
 10
297.0
 20
210.0
 30
0.0
  9
$LIMMIN
 10
0.0
 20
0.0
  9
$LIMMAX
 10
297.0
 20
210.0
  9
$ORTHOMODE
 70
     0
  9
$REGENMODE
 70
     1
  9
$FILLMODE
 70
     1
  9
$QTEXTMODE
 70
     0
  9
$MIRRTEXT
 70
     1
  9
$LTSCALE
 40
1.0
  9
$ATTMODE
 70
     1
  9
$TEXTSIZE
 40
2.0
  9
$TRACEWID
 40
1.0
  9
$TEXTSTYLE
  7
Standard
  9
$CLAYER
  8
0
  9
$CELTYPE
  6
ByLayer
  9
$CECOLOR
 62
   256
  9
$CELTSCALE
 40
1.0
  9
$DISPSILH
 70
     0
  9
$DIMSCALE
 40
1.0
  9
$DIMASZ
 40
3.0
  9
$DIMEXO
 40
0.0
  9
$DIMDLI
 40
3.75
  9
$DIMRND
 40
0.0
  9
$DIMDLE
 40
0.0
  9
$DIMEXE
 40
1.0
  9
$DIMTP
 40
0.0
  9
$DIMTM
 40
0.0
  9
$DIMTXT
 40
2.0
  9
$DIMCEN
 40
2.5
  9
$DIMTSZ
 40
0.0
  9
$DIMTOL
 70
     0
  9
$DIMLIM
 70
     0
  9
$DIMTIH
 70
     1
  9
$DIMTOH
 70
     1
  9
$DIMSE1
 70
     0
  9
$DIMSE2
 70
     0
  9
$DIMTAD
 70
     1
  9
$DIMZIN
 70
     0
  9
$DIMBLK
  1

  9
$DIMASO
 70
     1
  9
$DIMSHO
 70
     1
  9
$DIMPOST
  1

  9
$DIMAPOST
  1

  9
$DIMALT
 70
     0
  9
$DIMALTD
 70
     3
  9
$DIMALTF
 40
0.0393700787
  9
$DIMLFAC
 40
1.0
  9
$DIMTOFL
 70
     1
  9
$DIMTVP
 40
0.0
  9
$DIMTIX
 70
     0
  9
$DIMSOXD
 70
     0
  9
$DIMSAH
 70
     0
  9
$DIMBLK1
  1

  9
$DIMBLK2
  1

  9
$DIMSTYLE
  2
ISO-25
  9
$DIMCLRD
 70
     0
  9
$DIMCLRE
 70
     0
  9
$DIMCLRT
 70
     0
  9
$DIMTFAC
 40
1.0
  9
$DIMGAP
 40
1.524
  9
$DIMJUST
 70
     0
  9
$DIMSD1
 70
     0
  9
$DIMSD2
 70
     0
  9
$DIMTOLJ
 70
     0
  9
$DIMTZIN
 70
     0
  9
$DIMALTZ
 70
     0
  9
$DIMALTTZ
 70
     0
  9
$DIMUPT
 70
     0
  9
$DIMDEC
 70
     2
  9
$DIMTDEC
 70
     3
  9
$DIMALTU
 70
     2
  9
$DIMALTTD
 70
     3
  9
$DIMTXSTY
  7
Standard
  9
$DIMAUNIT
 70
     0
  9
$DIMADEC
 70
     2
  9
$DIMALTRND
 40
0.0
  9
$DIMAZIN
 70
     0
  9
$DIMDSEP
 70
    44
  9
$DIMATFIT
 70
     3
  9
$DIMFRAC
 70
     0
  9
$DIMLDRBLK
  1

  9
$DIMLUNIT
 70
     2
  9
$DIMLWD
 70
    -2
  9
$DIMLWE
 70
    -2
  9
$DIMTMOVE
 70
     0
  9
$LUNITS
 70
     2
  9
$LUPREC
 70
     2
  9
$SKETCHINC
 40
1.0
  9
$FILLETRAD
 40
10.0
  9
$AUNITS
 70
     0
  9
$AUPREC
 70
     2
  9
$MENU
  1
.
  9
$ELEVATION
 40
0.0
  9
$PELEVATION
 40
0.0
  9
$THICKNESS
 40
0.0
  9
$LIMCHECK
 70
     0
  9
$CHAMFERA
 40
10.0
  9
$CHAMFERB
 40
10.0
  9
$CHAMFERC
 40
20.0
  9
$CHAMFERD
 40
0.0
  9
$SKPOLY
 70
     0
  9
$TDCREATE
 40
2456084.57009441
  9
$TDUCREATE
 40
2456084.486761076
  9
$TDUPDATE
 40
2456084.570097662
  9
$TDUUPDATE
 40
2456084.486764329
  9
$TDINDWG
 40
0.0000000116
  9
$TDUSRTIMER
 40
0.0000000116
  9
$USRTIMER
 70
     1
  9
$ANGBASE
 50
0.0
  9
$ANGDIR
 70
     0
  9
$PDMODE
 70
     0
  9
$PDSIZE
 40
-1.0
  9
$PLINEWID
 40
0.0
  9
$SPLFRAME
 70
     0
  9
$SPLINETYPE
 70
     6
  9
$SPLINESEGS
 70
     8
  9
$HANDSEED
  5
2A6
  9
$SURFTAB1
 70
     6
  9
$SURFTAB2
 70
     6
  9
$SURFTYPE
 70
     6
  9
$SURFU
 70
     6
  9
$SURFV
 70
     6
  9
$UCSBASE
  2

  9
$UCSNAME
  2

  9
$UCSORG
 10
0.0
 20
0.0
 30
0.0
  9
$UCSXDIR
 10
1.0
 20
0.0
 30
0.0
  9
$UCSYDIR
 10
0.0
 20
1.0
 30
0.0
  9
$UCSORTHOREF
  2

  9
$UCSORTHOVIEW
 70
     0
  9
$UCSORGTOP
 10
0.0
 20
0.0
 30
0.0
  9
$UCSORGBOTTOM
 10
0.0
 20
0.0
 30
0.0
  9
$UCSORGLEFT
 10
0.0
 20
0.0
 30
0.0
  9
$UCSORGRIGHT
 10
0.0
 20
0.0
 30
0.0
  9
$UCSORGFRONT
 10
0.0
 20
0.0
 30
0.0
  9
$UCSORGBACK
 10
0.0
 20
0.0
 30
0.0
  9
$PUCSBASE
  2

  9
$PUCSNAME
  2

  9
$PUCSORG
 10
0.0
 20
0.0
 30
0.0
  9
$PUCSXDIR
 10
1.0
 20
0.0
 30
0.0
  9
$PUCSYDIR
 10
0.0
 20
1.0
 30
0.0
  9
$PUCSORTHOREF
  2

  9
$PUCSORTHOVIEW
 70
     0
  9
$PUCSORGTOP
 10
0.0
 20
0.0
 30
0.0
  9
$PUCSORGBOTTOM
 10
0.0
 20
0.0
 30
0.0
  9
$PUCSORGLEFT
 10
0.0
 20
0.0
 30
0.0
  9
$PUCSORGRIGHT
 10
0.0
 20
0.0
 30
0.0
  9
$PUCSORGFRONT
 10
0.0
 20
0.0
 30
0.0
  9
$PUCSORGBACK
 10
0.0
 20
0.0
 30
0.0
  9
$USERI1
 70
     0
  9
$USERI2
 70
     0
  9
$USERI3
 70
     0
  9
$USERI4
 70
     0
  9
$USERI5
 70
     0
  9
$USERR1
 40
0.0
  9
$USERR2
 40
0.0
  9
$USERR3
 40
0.0
  9
$USERR4
 40
0.0
  9
$USERR5
 40
0.0
  9
$WORLDVIEW
 70
     1
  9
$SHADEDGE
 70
     3
  9
$SHADEDIF
 70
    70
  9
$TILEMODE
 70
     1
  9
$MAXACTVP
 70
    64
  9
$PINSBASE
 10
0.0
 20
0.0
 30
0.0
  9
$PLIMCHECK
 70
     0
  9
$PEXTMIN
 10
1.0000000000E+20
 20
1.0000000000E+20
 30
1.0000000000E+20
  9
$PEXTMAX
 10
-1.0000000000E+20
 20
-1.0000000000E+20
 30
-1.0000000000E+20
  9
$PLIMMIN
 10
0.0
 20
0.0
  9
$PLIMMAX
 10
420.0
 20
297.0
  9
$UNITMODE
 70
     0
  9
$VISRETAIN
 70
     1
  9
$PLINEGEN
 70
     0
  9
$PSLTSCALE
 70
     1
  9
$TREEDEPTH
 70
  3020
  9
$CMLSTYLE
  2
Standard
  9
$CMLJUST
 70
     0
  9
$CMLSCALE
 40
20.0
  9
$PROXYGRAPHICS
 70
     1
  9
$MEASUREMENT
 70
     1
  9
$CELWEIGHT
370
    -1
  9
$ENDCAPS
280
     0
  9
$JOINSTYLE
280
     0
  9
$LWDISPLAY
290
     1
  9
$INSUNITS
 70
     4
  9
$HYPERLINKBASE
  1

  9
$STYLESHEET
  1

  9
$XEDIT
290
     1
  9
$CEPSNTYPE
380
     0
  9
$PSTYLEMODE
290
     1
  9
$FINGERPRINTGUID
  2
{5521E6BE-FFA3-4E44-BBE2-082E47D2813B}
  9
$VERSIONGUID
  2
{FAEB1C32-E019-11D5-929B-00C0DF256EC4}
  9
$EXTNAMES
290
     1
  9
$PSVPSCALE
 40
0.0
  9
$OLESTARTUP
290
     0
  0
ENDSEC
  0
SECTION
  2
CLASSES
  0
CLASS
  1
ACDBDICTIONARYWDFLT
  2
AcDbDictionaryWithDefault
  3
ObjectDBX Classes
 90
        0
280
     0
281
     0
  0
CLASS
  1
VISUALSTYLE
  2
AcDbVisualStyle
  3
ObjectDBX Classes
 90
     4095
280
     0
281
     0
  0
CLASS
  1
MATERIAL
  2
AcDbMaterial
  3
ObjectDBX Classes
 90
     1153
280
     0
281
     0
  0
CLASS
  1
ACDBPLACEHOLDER
  2
AcDbPlaceHolder
  3
ObjectDBX Classes
 90
        0
280
     0
281
     0
  0
CLASS
  1
LAYOUT
  2
AcDbLayout
  3
ObjectDBX Classes
 90
        0
280
     0
281
     0
  0
ENDSEC
  0
SECTION
  2
TABLES
  0
TABLE
  2
VPORT
  5
8
330
0
100
AcDbSymbolTable
 70
     1
  0
VPORT
  5
29
330
8
100
AcDbSymbolTableRecord
100
AcDbViewportTableRecord
  2
*Active
 70
     0
 10
0.0
 20
0.0
 11
1.0
 21
1.0
 12
148.5
 22
105.0
 13
0.0
 23
0.0
 14
10.0
 24
10.0
 15
10.0
 25
10.0
 16
0.0
 26
0.0
 36
1.0
 17
0.0
 27
0.0
 37
0.0
 40
210.0
 41
1.4142857143
 42
50.0
 43
0.0
 44
0.0
 50
0.0
 51
0.0
 71
     0
 72
  2000
 73
     1
 74
     3
 75
     0
 76
     0
 77
     0
 78
     0
281
     0
 65
     1
110
0.0
120
0.0
130
0.0
111
1.0
121
0.0
131
0.0
112
0.0
122
1.0
132
0.0
 79
     0
146
0.0
  0
ENDTAB
  0
TABLE
  2
LTYPE
  5
5
330
0
100
AcDbSymbolTable
 70
     6
  0
LTYPE
  5
14
330
5
100
AcDbSymbolTableRecord
100
AcDbLinetypeTableRecord
  2
ByBlock
 70
     0
  3

 72
    65
 73
     0
 40
0.0
  0
LTYPE
  5
15
330
5
100
AcDbSymbolTableRecord
100
AcDbLinetypeTableRecord
  2
ByLayer
 70
     0
  3

 72
    65
 73
     0
 40
0.0
  0
LTYPE
  5
16
330
5
100
AcDbSymbolTableRecord
100
AcDbLinetypeTableRecord
  2
Continuous
 70
     0
  3
Solid line
 72
    65
 73
     0
 40
0.0
  0
LTYPE
  5
3F
330
5
100
AcDbSymbolTableRecord
100
AcDbLinetypeTableRecord
  2
HIDDEN
 70
     0
  3
Hidden __ __ __ __ __ __ __ __ __ __ __ __ __ __
 72
    65
 73
     2
 40
1.905
 49
1.27
 74
     0
 49
-0.635
 74
     0
  0
LTYPE
  5
40
330
5
100
AcDbSymbolTableRecord
100
AcDbLinetypeTableRecord
  2
PHANTOM
 70
     0
  3
Phantom ______  __  __  ______  __  __  ______
 72
    65
 73
     6
 40
12.7
 49
6.35
 74
     0
 49
-1.27
 74
     0
 49
1.27
 74
     0
 49
-1.27
 74
     0
 49
1.27
 74
     0
 49
-1.27
 74
     0
  0
LTYPE
  5
41
330
5
100
AcDbSymbolTableRecord
100
AcDbLinetypeTableRecord
  2
CENTER
 70
     0
  3
Center ____ _ ____ _ ____ _ ____ _ ____ _ ____
 72
    65
 73
     4
 40
10.16
 49
6.35
 74
     0
 49
-1.27
 74
     0
 49
1.27
 74
     0
 49
-1.27
 74
     0
  0
LTYPE
  5
42
330
5
100
AcDbSymbolTableRecord
100
AcDbLinetypeTableRecord
  2
CENTERX2
 70
     0
  3
Center (2x) ________  __  ________  __  _____
 72
    65
 73
     4
 40
20.32
 49
12.7
 74
     0
 49
-2.54
 74
     0
 49
2.54
 74
     0
 49
-2.54
 74
     0
  0
LTYPE
  5
43
330
5
100
AcDbSymbolTableRecord
100
AcDbLinetypeTableRecord
  2
DOT2
 70
     0
  3
Dot (.5x) ........................................
 72
    65
 73
     2
 40
0.635
 49
0.0
 74
     0
 49
-0.635
 74
     0
  0
ENDTAB
  0
TABLE
  2
LAYER
  5
2
330
0
100
AcDbSymbolTable
 70
     5
  0
LAYER
  5
10
330
2
100
AcDbSymbolTableRecord
100
AcDbLayerTableRecord
  2
0
 70
     0
 62
     7
  6
Continuous
370
    -3
390
F
  0
LAYER
  5
44
330
2
100
AcDbSymbolTableRecord
100
AcDbLayerTableRecord
  2
FORMAT
 70
     0
 62
     7
  6
Continuous
370
    -3
390
F
  0
LAYER
  5
45
330
2
100
AcDbSymbolTableRecord
100
AcDbLayerTableRecord
  2
VERMASSUNG
 70
     0
 62
     7
  6
Continuous
370
    -3
390
F
  0
LAYER
  5
46
330
2
100
AcDbSymbolTableRecord
100
AcDbLayerTableRecord
  2
KOPF_DÜNN
 70
     0
 62
     7
  6
Continuous
370
    -3
390
F
  0
LAYER
  5
47
330
2
100
AcDbSymbolTableRecord
100
AcDbLayerTableRecord
  2
KOPF_DICK
 70
     0
 62
     7
  6
Continuous
370
    15
390
F
  0
ENDTAB
  0
TABLE
  2
STYLE
  5
3
330
0
100
AcDbSymbolTable
 70
     2
  0
STYLE
  5
11
330
3
100
AcDbSymbolTableRecord
100
AcDbTextStyleTableRecord
  2
Standard
 70
     0
 40
0.0
 41
1.0
 50
0.0
 71
     0
 42
2.0
  3
txt
  4

  0
STYLE
  5
48
330
3
100
AcDbSymbolTableRecord
100
AcDbTextStyleTableRecord
  2
SLDTEXTSTYLE0
 70
     0
 40
0.0
 41
0.7
 50
0.0
 71
     0
 42
0.2
  3
TXT
  4

  0
ENDTAB
  0
TABLE
  2
VIEW
  5
6
330
0
100
AcDbSymbolTable
 70
     0
  0
ENDTAB
  0
TABLE
  2
UCS
  5
7
330
0
100
AcDbSymbolTable
 70
     0
  0
ENDTAB
  0
TABLE
  2
APPID
  5
9
330
0
100
AcDbSymbolTable
 70
     1
  0
APPID
  5
12
330
9
100
AcDbSymbolTableRecord
100
AcDbRegAppTableRecord
  2
ACAD
 70
     0
  0
ENDTAB
  0
TABLE
  2
DIMSTYLE
  5
A
330
0
100
AcDbSymbolTable
 70
     5
100
AcDbDimStyleTable
  0
DIMSTYLE
105
27
330
A
100
AcDbSymbolTableRecord
100
AcDbDimStyleTableRecord
  2
ISO-25
 70
     0
 41
2.5
 42
0.625
 43
3.75
 44
1.25
 73
     0
 74
     0
 77
     1
 78
     8
140
2.5
141
2.5
143
0.0393700787
147
0.625
171
     3
172
     1
178
     0
271
     2
272
     2
274
     3
278
    44
283
     0
284
     8
340
11
  0
DIMSTYLE
105
1DC
102
{ACAD_REACTORS
330
1DB
330
1E6
330
1F0
330
204
330
210
102
}
330
A
100
AcDbSymbolTableRecord
100
AcDbDimStyleTableRecord
  2
SLDDIMSTYLE0
 70
     0
 41
3.0
 44
0.0
 45
0.000000001
 73
     0
 74
     0
 77
     1
 78
    12
 79
     3
140
2.0
147
0.5
173
     1
178
     0
271
     2
272
     3
276
     2
284
    12
340
48
  0
DIMSTYLE
105
1FB
102
{ACAD_REACTORS
330
1FA
102
}
330
A
100
AcDbSymbolTableRecord
100
AcDbDimStyleTableRecord
  2
SLDDIMSTYLE1
 70
     0
 41
3.0
 44
0.0
 73
     0
 74
     0
 77
     1
 78
    12
 79
     3
140
2.0
147
0.5
173
     1
178
     0
179
     1
272
     3
276
     2
284
    12
340
48
  0
DIMSTYLE
105
27E
102
{ACAD_REACTORS
330
27D
102
}
330
A
100
AcDbSymbolTableRecord
100
AcDbDimStyleTableRecord
  2
SLDDIMSTYLE2
 70
     0
 41
3.0
 44
0.0
 45
0.000000001
 73
     0
 74
     0
 77
     1
 78
    12
 79
     3
140
2.0
147
0.5
172
     1
173
     1
178
     0
271
     2
272
     3
276
     2
284
    12
289
     0
340
48
  0
DIMSTYLE
105
28D
102
{ACAD_REACTORS
330
28C
102
}
330
A
100
AcDbSymbolTableRecord
100
AcDbDimStyleTableRecord
  2
SLDDIMSTYLE3
 70
     0
 41
3.0
 44
0.0
 73
     0
 74
     0
 77
     1
 78
    12
 79
     3
140
2.0
147
0.5
173
     1
178
     0
179
     2
272
     3
276
     2
284
    12
340
48
  0
ENDTAB
  0
TABLE
  2
BLOCK_RECORD
  5
1
330
0
100
AcDbSymbolTable
 70
    10
  0
BLOCK_RECORD
  5
1F
330
1
100
AcDbSymbolTableRecord
100
AcDbBlockTableRecord
  2
*Model_Space
340
22
  0
BLOCK_RECORD
  5
1B
330
1
100
AcDbSymbolTableRecord
100
AcDbBlockTableRecord
  2
*Paper_Space
340
1E
  0
BLOCK_RECORD
  5
23
330
1
100
AcDbSymbolTableRecord
100
AcDbBlockTableRecord
  2
*Paper_Space0
340
26
  0
BLOCK_RECORD
  5
1DD
330
1
100
AcDbSymbolTableRecord
100
AcDbBlockTableRecord
  2
_D
340
0
  0
BLOCK_RECORD
  5
1E7
330
1
100
AcDbSymbolTableRecord
100
AcDbBlockTableRecord
  2
_D_1
340
0
  0
BLOCK_RECORD
  5
1F1
330
1
100
AcDbSymbolTableRecord
100
AcDbBlockTableRecord
  2
_D_2
340
0
  0
BLOCK_RECORD
  5
1FC
330
1
100
AcDbSymbolTableRecord
100
AcDbBlockTableRecord
  2
_D_3
340
0
  0
BLOCK_RECORD
  5
205
330
1
100
AcDbSymbolTableRecord
100
AcDbBlockTableRecord
  2
_D_4
340
0
  0
BLOCK_RECORD
  5
211
330
1
100
AcDbSymbolTableRecord
100
AcDbBlockTableRecord
  2
_D_5
340
0
  0
BLOCK_RECORD
  5
27F
330
1
100
AcDbSymbolTableRecord
100
AcDbBlockTableRecord
  2
_D_6
340
0
  0
BLOCK_RECORD
  5
28E
330
1
100
AcDbSymbolTableRecord
100
AcDbBlockTableRecord
  2
_D_7
340
0
  0
BLOCK_RECORD
  5
299
330
1
100
AcDbSymbolTableRecord
100
AcDbBlockTableRecord
  2
SW_CENTERMARKSYMBOL_0
340
0
102
{BLKREFS
331
2A4
102
}
  0
ENDTAB
  0
ENDSEC
  0
SECTION
  2
BLOCKS
  0
BLOCK
  5
20
330
1F
100
AcDbEntity
  8
0
100
AcDbBlockBegin
  2
*Model_Space
 70
     0
 10
0.0
 20
0.0
 30
0.0
  3
*Model_Space
  1

  0
ENDBLK
  5
21
330
1F
100
AcDbEntity
  8
0
100
AcDbBlockEnd
  0
BLOCK
  5
1C
330
1B
100
AcDbEntity
 67
     1
  8
0
100
AcDbBlockBegin
  2
*Paper_Space
 70
     0
 10
0.0
 20
0.0
 30
0.0
  3
*Paper_Space
  1

  0
ENDBLK
  5
1D
330
1B
100
AcDbEntity
 67
     1
  8
0
100
AcDbBlockEnd
  0
BLOCK
  5
24
330
23
100
AcDbEntity
  8
0
100
AcDbBlockBegin
  2
*Paper_Space0
 70
     0
 10
0.0
 20
0.0
 30
0.0
  3
*Paper_Space0
  1

  0
ENDBLK
  5
25
330
23
100
AcDbEntity
  8
0
100
AcDbBlockEnd
  0
BLOCK
  5
1DE
330
1DD
100
AcDbEntity
  8
0
100
AcDbBlockBegin
  2
_D
 70
     0
 10
0.0
 20
0.0
 30
0.0
  3
_D
  1

  0
SOLID
  5
1E0
330
1DD
100
AcDbEntity
  8
VERMASSUNG
100
AcDbTrace
 10
141.9077985498
 20
140.0650190547
 30
0.0
 11
144.9077985498
 21
139.6150190547
 31
0.0
 12
144.9077985498
 22
140.5150190547
 32
0.0
 13
144.9077985498
 23
140.5150190547
 33
0.0
  0
SOLID
  5
1E1
330
1DD
100
AcDbEntity
  8
VERMASSUNG
100
AcDbTrace
 10
251.9077985498
 20
140.0650190547
 30
0.0
 11
248.9077985498
 21
140.5150190547
 31
0.0
 12
248.9077985498
 22
139.6150190547
 32
0.0
 13
248.9077985498
 23
139.6150190547
 33
0.0
  0
LINE
  5
1E2
330
1DD
100
AcDbEntity
  8
VERMASSUNG
100
AcDbLine
 10
141.9077985498
 20
130.6399531561
 30
0.0
 11
141.9077985498
 21
141.0650190547
 31
0.0
  0
LINE
  5
1E3
330
1DD
100
AcDbEntity
  8
VERMASSUNG
100
AcDbLine
 10
251.9077985498
 20
132.9399531561
 30
0.0
 11
251.9077985498
 21
141.0650190547
 31
0.0
  0
LINE
  5
1E4
330
1DD
100
AcDbEntity
  8
VERMASSUNG
100
AcDbLine
 10
141.9077985498
 20
140.0650190547
 30
0.0
 11
251.9077985498
 21
140.0650190547
 31
0.0
  0
MTEXT
  5
1E5
330
1DD
100
AcDbEntity
  8
VERMASSUNG
100
AcDbMText
 10
194.3077983099
 20
142.6431544178
 30
0.1
 40
2.0
 41
0.0
 71
     1
 72
     1
  1
110
  7
SLDTEXTSTYLE0
 73
     1
 44
1.0
  0
ENDBLK
  5
1DF
330
1DD
100
AcDbEntity
  8
0
100
AcDbBlockEnd
  0
BLOCK
  5
1E8
330
1E7
100
AcDbEntity
  8
0
100
AcDbBlockBegin
  2
_D_1
 70
     0
 10
0.0
 20
0.0
 30
0.0
  3
_D_1
  1

  0
SOLID
  5
1EA
330
1E7
100
AcDbEntity
  8
VERMASSUNG
100
AcDbTrace
 10
251.9077985498
 20
145.5137791446
 30
0.0
 11
248.9077985498
 21
145.9637791446
 31
0.0
 12
248.9077985498
 22
145.0637791446
 32
0.0
 13
248.9077985498
 23
145.0637791446
 33
0.0
  0
SOLID
  5
1EB
330
1E7
100
AcDbEntity
  8
VERMASSUNG
100
AcDbTrace
 10
117.9077985498
 20
145.5137791446
 30
0.0
 11
120.9077985498
 21
145.0637791446
 31
0.0
 12
120.9077985498
 22
145.9637791446
 32
0.0
 13
120.9077985498
 23
145.9637791446
 33
0.0
  0
LINE
  5
1EC
330
1E7
100
AcDbEntity
  8
VERMASSUNG
100
AcDbLine
 10
251.9077985498
 20
132.9399531561
 30
0.0
 11
251.9077985498
 21
146.5137791446
 31
0.0
  0
LINE
  5
1ED
330
1E7
100
AcDbEntity
  8
VERMASSUNG
100
AcDbLine
 10
117.9077985498
 20
123.5714581381
 30
0.0
 11
117.9077985498
 21
146.5137791446
 31
0.0
  0
LINE
  5
1EE
330
1E7
100
AcDbEntity
  8
VERMASSUNG
100
AcDbLine
 10
251.9077985498
 20
145.5137791446
 30
0.0
 11
117.9077985498
 21
145.5137791446
 31
0.0
  0
MTEXT
  5
1EF
330
1E7
100
AcDbEntity
  8
VERMASSUNG
100
AcDbMText
 10
182.0077983538
 20
148.0919145078
 30
0.1
 40
2.0
 41
0.0
 71
     1
 72
     1
  1
134
  7
SLDTEXTSTYLE0
 73
     1
 44
1.0
  0
ENDBLK
  5
1E9
330
1E7
100
AcDbEntity
  8
0
100
AcDbBlockEnd
  0
BLOCK
  5
1F2
330
1F1
100
AcDbEntity
  8
0
100
AcDbBlockBegin
  2
_D_2
 70
     0
 10
0.0
 20
0.0
 30
0.0
  3
_D_2
  1

  0
SOLID
  5
1F4
330
1F1
100
AcDbEntity
  8
VERMASSUNG
100
AcDbTrace
 10
268.0575364075
 20
110.9399531561
 30
0.0
 11
268.5075364075
 21
113.9399531561
 31
0.0
 12
267.6075364075
 22
113.9399531561
 32
0.0
 13
267.6075364075
 23
113.9399531561
 33
0.0
  0
SOLID
  5
1F5
330
1F1
100
AcDbEntity
  8
VERMASSUNG
100
AcDbTrace
 10
268.0575364075
 20
132.9399531561
 30
0.0
 11
267.6075364075
 21
129.9399531561
 31
0.0
 12
268.5075364075
 22
129.9399531561
 32
0.0
 13
268.5075364075
 23
129.9399531561
 33
0.0
  0
LINE
  5
1F6
330
1F1
100
AcDbEntity
  8
VERMASSUNG
100
AcDbLine
 10
251.9077985498
 20
110.9399531561
 30
0.0
 11
269.0575364075
 21
110.9399531561
 31
0.0
  0
LINE
  5
1F7
330
1F1
100
AcDbEntity
  8
VERMASSUNG
100
AcDbLine
 10
251.9077985498
 20
132.9399531561
 30
0.0
 11
269.0575364075
 21
132.9399531561
 31
0.0
  0
LINE
  5
1F8
330
1F1
100
AcDbEntity
  8
VERMASSUNG
100
AcDbLine
 10
268.0575364075
 20
110.9399531561
 30
0.0
 11
268.0575364075
 21
132.9399531561
 31
0.0
  0
MTEXT
  5
1F9
330
1F1
100
AcDbEntity
  8
VERMASSUNG
100
AcDbMText
 10
265.4794010444
 20
119.639953105
 30
0.1
 40
2.0
 41
0.0
 71
     1
 72
     1
  1
22
  7
SLDTEXTSTYLE0
 11
2.503722994132712E-15
 21
1.0
 31
0.0
 73
     1
 44
1.0
  0
ENDBLK
  5
1F3
330
1F1
100
AcDbEntity
  8
0
100
AcDbBlockEnd
  0
BLOCK
  5
1FD
330
1FC
100
AcDbEntity
  8
0
100
AcDbBlockBegin
  2
_D_3
 70
     0
 10
0.0
 20
0.0
 30
0.0
  3
_D_3
  1

  0
ARC
  5
1FF
330
1FC
100
AcDbEntity
  8
VERMASSUNG
100
AcDbCircle
 10
251.9446843193
 20
132.9399531561
 30
0.0
 40
9.930332421761591
100
AcDbArc
 50
264.9722024819
 51
0.0
  0
SOLID
  5
200
330
1FC
100
AcDbEntity
  8
VERMASSUNG
100
AcDbTrace
 10
251.0743994742
 20
123.0478297088
 30
0.0
 11
254.0956981985
 21
122.7753338038
 31
0.0
 12
254.0426814053
 22
123.6737709021
 32
0.0
 13
254.0426814053
 23
123.6737709021
 33
0.0
  0
SOLID
  5
201
330
1FC
100
AcDbEntity
  8
VERMASSUNG
100
AcDbTrace
 10
261.8750167411
 20
132.9399531561
 30
0.0
 11
260.9913465916
 21
130.0379491817
 31
0.0
 12
261.8816804293
 22
129.9063982125
 32
0.0
 13
261.8816804293
 23
129.9063982125
 33
0.0
  0
LINE
  5
202
330
1FC
100
AcDbEntity
  8
VERMASSUNG
100
AcDbLine
 10
261.2623275337
 20
132.9399531561
 30
0.0
 11
262.8750167411
 21
132.9399531561
 31
0.0
  0
MTEXT
  5
203
330
1FC
100
AcDbEntity
  8
VERMASSUNG
100
AcDbMText
 10
254.771861962
 20
125.5594471231
 30
0.1
 40
2.0
 41
0.0
 71
     1
 72
     1
  1
95°
  7
SLDTEXTSTYLE0
 11
0.7374411991856016
 21
0.6754113396617663
 31
0.0
 73
     1
 44
1.0
  0
ENDBLK
  5
1FE
330
1FC
100
AcDbEntity
  8
0
100
AcDbBlockEnd
  0
BLOCK
  5
206
330
205
100
AcDbEntity
  8
0
100
AcDbBlockBegin
  2
_D_4
 70
     0
 10
0.0
 20
0.0
 30
0.0
  3
_D_4
  1

  0
SOLID
  5
208
330
205
100
AcDbEntity
  8
VERMASSUNG
100
AcDbTrace
 10
107.9077985498
 20
130.9399531561
 30
0.0
 11
107.4577985498
 21
127.9399531561
 31
0.0
 12
108.3577985498
 22
127.9399531561
 32
0.0
 13
108.3577985498
 23
127.9399531561
 33
0.0
  0
SOLID
  5
209
330
205
100
AcDbEntity
  8
VERMASSUNG
100
AcDbTrace
 10
107.9077985498
 20
90.9399531561
 30
0.0
 11
108.3577985498
 21
93.9399531561
 31
0.0
 12
107.4577985498
 22
93.9399531561
 32
0.0
 13
107.4577985498
 23
93.9399531561
 33
0.0
  0
LINE
  5
20A
330
205
100
AcDbEntity
  8
VERMASSUNG
100
AcDbLine
 10
142.2077985498
 20
130.9399531561
 30
0.0
 11
106.9077985498
 21
130.9399531561
 31
0.0
  0
LINE
  5
20B
330
205
100
AcDbEntity
  8
VERMASSUNG
100
AcDbLine
 10
142.2077985498
 20
90.9399531561
 30
0.0
 11
106.9077985498
 21
90.9399531561
 31
0.0
  0
LINE
  5
20C
330
205
100
AcDbEntity
  8
VERMASSUNG
100
AcDbLine
 10
107.9077985498
 20
130.9399531561
 30
0.0
 11
107.9077985498
 21
90.9399531561
 31
0.0
  0
MTEXT
  5
20D
330
205
100
AcDbEntity
  8
VERMASSUNG
100
AcDbMText
 10
105.1296630607
 20
104.4349532167
 30
0.1
 40
2.0
 41
0.0
 71
     1
 72
     1
  1
PSC
  7
SLDTEXTSTYLE0
 11
-7.044195017643634E-15
 21
1.0
 31
0.0
 73
     1
 44
1.0
  0
MTEXT
  5
20E
330
205
100
AcDbEntity
  8
VERMASSUNG
100
AcDbMText
 10
105.3296630702
 20
109.0349533188
 30
0.1
 40
2.0
 41
0.0
 71
     1
 72
     1
  1
%%c
  7
SLDTEXTSTYLE0
 11
-7.044195017643634E-15
 21
1.0
 31
0.0
 73
     1
 44
1.0
  0
MTEXT
  5
20F
330
205
100
AcDbEntity
  8
VERMASSUNG
100
AcDbMText
 10
105.1296630607
 20
112.6449537987
 30
0.1
 40
2.0
 41
0.0
 71
     1
 72
     1
  1
40
  7
SLDTEXTSTYLE0
 11
-7.044195017643634E-15
 21
1.0
 31
0.0
 73
     1
 44
1.0
  0
ENDBLK
  5
207
330
205
100
AcDbEntity
  8
0
100
AcDbBlockEnd
  0
BLOCK
  5
212
330
211
100
AcDbEntity
  8
0
100
AcDbBlockBegin
  2
_D_5
 70
     0
 10
0.0
 20
0.0
 30
0.0
  3
_D_5
  1

  0
SOLID
  5
214
330
211
100
AcDbEntity
  8
VERMASSUNG
100
AcDbTrace
 10
181.5469778233
 20
126.9399531561
 30
0.0
 11
181.0969778233
 21
123.9399531561
 31
0.0
 12
181.9969778233
 22
123.9399531561
 32
0.0
 13
181.9969778233
 23
123.9399531561
 33
0.0
  0
SOLID
  5
215
330
211
100
AcDbEntity
  8
VERMASSUNG
100
AcDbTrace
 10
181.5469778233
 20
94.9399531561
 30
0.0
 11
181.9969778233
 21
97.9399531561
 31
0.0
 12
181.0969778233
 22
97.9399531561
 32
0.0
 13
181.0969778233
 23
97.9399531561
 33
0.0
  0
LINE
  5
216
330
211
100
AcDbEntity
  8
VERMASSUNG
100
AcDbLine
 10
181.5469778233
 20
126.9399531561
 30
0.0
 11
181.5469778233
 21
94.9399531561
 31
0.0
  0
MTEXT
  5
217
330
211
100
AcDbEntity
  8
VERMASSUNG
100
AcDbMText
 10
178.9688423437
 20
98.5653030216
 30
0.1
 40
2.0
 41
0.0
 71
     1
 72
     1
  1
%%c
  7
SLDTEXTSTYLE0
 11
-7.044195017643634E-15
 21
1.0
 31
0.0
 73
     1
 44
1.0
  0
MTEXT
  5
218
330
211
100
AcDbEntity
  8
VERMASSUNG
100
AcDbMText
 10
178.7688423342
 20
102.1753030359
 30
0.1
 40
2.0
 41
0.0
 71
     1
 72
     1
  1
32
  7
SLDTEXTSTYLE0
 11
-7.044195017643634E-15
 21
1.0
 31
0.0
 73
     1
 44
1.0
  0
ENDBLK
  5
213
330
211
100
AcDbEntity
  8
0
100
AcDbBlockEnd
  0
BLOCK
  5
280
330
27F
100
AcDbEntity
  8
0
100
AcDbBlockBegin
  2
_D_6
 70
     0
 10
0.0
 20
0.0
 30
0.0
  3
_D_6
  1

  0
SOLID
  5
282
330
27F
100
AcDbEntity
  8
VERMASSUNG
100
AcDbTrace
 10
75.5931667904
 20
96.8049358258
 30
0.0
 11
77.0122885286
 21
94.1237805726
 31
0.0
 12
77.7364803113
 22
94.6581458614
 32
0.0
 13
77.7364803113
 23
94.6581458614
 33
0.0
  0
SOLID
  5
283
330
27F
100
AcDbEntity
  8
VERMASSUNG
100
AcDbTrace
 10
51.843598397
 20
128.9912372773
 30
0.0
 11
50.4244766588
 21
131.6723925306
 31
0.0
 12
49.7002848761
 22
131.1380272417
 32
0.0
 13
49.7002848761
 23
131.1380272417
 33
0.0
  0
LINE
  5
284
330
27F
100
AcDbEntity
  8
VERMASSUNG
100
AcDbLine
 10
75.5931667904
 20
96.8049358258
 30
0.0
 11
74.7885092542
 21
96.211196616
 31
0.0
  0
LINE
  5
285
330
27F
100
AcDbEntity
  8
VERMASSUNG
100
AcDbLine
 10
51.843598397
 20
128.9912372773
 30
0.0
 11
51.0389408607
 21
128.3974980674
 31
0.0
  0
LINE
  5
286
330
27F
100
AcDbEntity
  8
VERMASSUNG
100
AcDbLine
 10
75.5931667904
 20
96.8049358258
 30
0.0
 11
79.1556020495
 21
91.9769906081
 31
0.0
  0
LINE
  5
287
330
27F
100
AcDbEntity
  8
VERMASSUNG
100
AcDbLine
 10
75.5931667904
 20
96.8049358258
 30
0.0
 11
51.843598397
 21
128.9912372773
 31
0.0
  0
LINE
  5
288
330
27F
100
AcDbEntity
  8
VERMASSUNG
100
AcDbLine
 10
51.843598397
 20
128.9912372773
 30
0.0
 11
41.6432352333
 21
142.8151501274
 31
0.0
  0
MTEXT
  5
289
330
27F
100
AcDbEntity
  8
VERMASSUNG
100
AcDbMText
 10
43.7177513765
 20
144.3458902499
 30
0.1
 40
2.0
 41
0.0
 71
     1
 72
     1
  1
%%c
  7
SLDTEXTSTYLE0
 11
0.5937392098371884
 21
-0.8046575362860346
 31
0.0
 73
     1
 44
1.0
  0
MTEXT
  5
28A
330
27F
100
AcDbEntity
  8
VERMASSUNG
100
AcDbMText
 10
46.0220814474
 20
141.55982438
 30
0.1
 40
2.0
 41
0.0
 71
     1
 72
     1
  1
40
  7
SLDTEXTSTYLE0
 11
0.5937392098371884
 21
-0.8046575362860346
 31
0.0
 73
     1
 44
1.0
  0
MTEXT
  5
28B
330
27F
100
AcDbEntity
  8
VERMASSUNG
100
AcDbMText
 10
49.5770951016
 20
136.741937198
 30
0.1
 40
2.0
 41
0.0
 71
     1
 72
     1
  1
min.
  7
SLDTEXTSTYLE0
 11
0.5937392098371884
 21
-0.8046575362860346
 31
0.0
 73
     1
 44
1.0
  0
ENDBLK
  5
281
330
27F
100
AcDbEntity
  8
0
100
AcDbBlockEnd
  0
BLOCK
  5
28F
330
28E
100
AcDbEntity
  8
0
100
AcDbBlockBegin
  2
_D_7
 70
     0
 10
0.0
 20
0.0
 30
0.0
  3
_D_7
  1

  0
ARC
  5
291
330
28E
100
AcDbEntity
  8
VERMASSUNG
100
AcDbCircle
 10
63.7183825937
 20
132.8980865516
 30
0.0
 40
50.58087642102411
100
AcDbArc
 50
262.0
 51
270.0
  0
ARC
  5
292
330
28E
100
AcDbEntity
  8
VERMASSUNG
100
AcDbCircle
 10
63.7183825937
 20
132.8980865516
 30
0.0
 40
50.58087642102411
100
AcDbArc
 50
255.2143995669
 51
262.0
  0
ARC
  5
293
330
28E
100
AcDbEntity
  8
VERMASSUNG
100
AcDbCircle
 10
63.7183825937
 20
132.8980865516
 30
0.0
 40
50.58087642102409
100
AcDbArc
 50
270.0
 51
276.7856004331
  0
SOLID
  5
294
330
28E
100
AcDbEntity
  8
VERMASSUNG
100
AcDbTrace
 10
56.6788851729
 20
82.8094597429
 30
0.0
 11
53.7975477079
 21
83.7583508918
 31
0.0
 12
53.6459514646
 22
82.8712102158
 32
0.0
 13
53.6459514646
 23
82.8712102158
 33
0.0
  0
SOLID
  5
295
330
28E
100
AcDbEntity
  8
VERMASSUNG
100
AcDbTrace
 10
63.7183825937
 20
82.3172101305
 30
0.0
 11
66.7303940045
 21
81.9562568629
 31
0.0
 12
66.7037392043
 22
82.8558620661
 32
0.0
 13
66.7037392043
 23
82.8558620661
 33
0.0
  0
LINE
  5
296
330
28E
100
AcDbEntity
  8
VERMASSUNG
100
AcDbLine
 10
57.4316979469
 20
88.1660009612
 30
0.0
 11
56.539712072
 21
81.8191916741
 31
0.0
  0
LINE
  5
297
330
28E
100
AcDbEntity
  8
VERMASSUNG
100
AcDbLine
 10
63.7183825937
 20
88.4399531561
 30
0.0
 11
63.7183825937
 21
81.3172101305
 31
0.0
  0
MTEXT
  5
298
330
28E
100
AcDbEntity
  8
VERMASSUNG
100
AcDbMText
 10
58.1752395165
 20
85.1657420159
 30
0.1
 40
2.0
 41
0.0
 71
     1
 72
     1
  1
8°
  7
SLDTEXTSTYLE0
 11
0.9975640502598254
 21
-0.06975647374410793
 31
0.0
 73
     1
 44
1.0
  0
ENDBLK
  5
290
330
28E
100
AcDbEntity
  8
0
100
AcDbBlockEnd
  0
BLOCK
  5
29A
330
299
100
AcDbEntity
  8
0
100
AcDbBlockBegin
  2
SW_CENTERMARKSYMBOL_0
 70
     0
 10
0.0
 20
0.0
 30
0.0
  3
SW_CENTERMARKSYMBOL_0
  1

  0
LINE
  5
29C
330
299
100
AcDbEntity
  8
VERMASSUNG
 62
     0
100
AcDbLine
 10
0.0
 20
0.0
 30
0.0
 11
0.0
 21
2.5
 31
0.0
  0
LINE
  5
29D
330
299
100
AcDbEntity
  8
VERMASSUNG
 62
     0
100
AcDbLine
 10
0.0
 20
0.0
 30
0.0
 11
-2.5
 21
0.0
 31
0.0
  0
LINE
  5
29E
330
299
100
AcDbEntity
  8
VERMASSUNG
 62
     0
100
AcDbLine
 10
0.0
 20
0.0
 30
0.0
 11
0.0
 21
-2.5
 31
0.0
  0
LINE
  5
29F
330
299
100
AcDbEntity
  8
VERMASSUNG
 62
     0
100
AcDbLine
 10
0.0
 20
0.0
 30
0.0
 11
2.5
 21
0.0
 31
0.0
  0
LINE
  5
2A0
330
299
100
AcDbEntity
  8
VERMASSUNG
 62
     0
100
AcDbLine
 10
0.0
 20
5.0
 30
0.0
 11
0.0
 21
22.5
 31
0.0
  0
LINE
  5
2A1
330
299
100
AcDbEntity
  8
VERMASSUNG
 62
     0
100
AcDbLine
 10
-5.0
 20
0.0
 30
0.0
 11
-22.5
 21
0.0
 31
0.0
  0
LINE
  5
2A2
330
299
100
AcDbEntity
  8
VERMASSUNG
 62
     0
100
AcDbLine
 10
0.0
 20
-5.0
 30
0.0
 11
0.0
 21
-22.5
 31
0.0
  0
LINE
  5
2A3
330
299
100
AcDbEntity
  8
VERMASSUNG
 62
     0
100
AcDbLine
 10
5.0
 20
0.0
 30
0.0
 11
22.5
 21
0.0
 31
0.0
  0
ENDBLK
  5
29B
330
299
100
AcDbEntity
  8
0
100
AcDbBlockEnd
  0
ENDSEC
  0
SECTION
  2
ENTITIES
  0
MTEXT
  5
49
330
1F
100
AcDbEntity
  8
KOPF_DÜNN
100
AcDbMText
 10
13.8892156294
 20
23.8442973028
 30
0.0
 40
3.0
 41
0.0
 71
     1
 72
     1
  1
PS4.PCD.RLB.110
  7
SLDTEXTSTYLE0
 73
     1
 44
1.0
  0
MTEXT
  5
4A
330
1F
100
AcDbEntity
  8
VERMASSUNG
100
AcDbMText
 10
13.9329988022
 20
28.8834360957
 30
0.0
 40
3.0
 41
0.0
 71
     1
 72
     1
  1
Bohrstange_Boring bar
  7
SLDTEXTSTYLE0
 73
     1
 44
1.0
  0
MTEXT
  5
4B
330
1F
100
AcDbEntity
  8
VERMASSUNG
100
AcDbMText
 10
98.8601118557
 20
13.8365368179
 30
0.0
 40
2.0
 41
0.0
 71
     1
 72
     1
  1
Datum: 05.06.2012
  7
SLDTEXTSTYLE0
 73
     1
 44
1.0
  0
MTEXT
  5
4C
330
1F
100
AcDbEntity
  8
VERMASSUNG
100
AcDbMText
 10
13.933048693
 20
18.0482802738
 30
0.0
 40
2.0
 41
0.0
 71
     1
 72
     1
  1
PSC ø40 / Wp.: CN..12 04..
  7
SLDTEXTSTYLE0
 73
     1
 44
1.0
  0
MTEXT
  5
4D
330
1F
100
AcDbEntity
  8
VERMASSUNG
100
AcDbMText
 10
13.9808475933
 20
13.9090973692
 30
0.0
 40
2.0
 41
0.0
 71
     1
 72
     1
  1
Gewicht: 719g
  7
SLDTEXTSTYLE0
 73
     1
 44
1.0
  0
ARC
  5
4E
330
1F
100
AcDbEntity
  8
0
  6
Continuous
 62
     7
370
    15
100
AcDbCircle
 10
161.3077985498
 20
91.5399531561
 30
0.0
 40
0.6000000000000085
100
AcDbArc
 50
270.0
 51
0.0
  0
ARC
  5
4F
330
1F
100
AcDbEntity
  8
0
  6
Continuous
 62
     7
370
    15
100
AcDbCircle
 10
161.3077985498
 20
130.3399531561
 30
0.0
 40
0.6000000000000227
100
AcDbArc
 50
0.0
 51
90.0
  0
LINE
  5
50
330
1F
100
AcDbEntity
  8
0
  6
Continuous
 62
     7
370
    15
100
AcDbLine
 10
142.207798564
 20
90.9399536031
 30
0.0
 11
161.307799122
 21
90.9399536031
 31
0.0
  0
LINE
  5
51
330
1F
100
AcDbEntity
  8
0
  6
Continuous
 62
     7
370
    15
100
AcDbLine
 10
161.307799122
 20
130.939952709
 30
0.0
 11
142.207798564
 21
130.939952709
 31
0.0
  0
ARC
  5
52
330
1F
100
AcDbEntity
  8
0
  6
Continuous
 62
     7
370
    15
100
AcDbCircle
 10
142.2077985498
 20
91.2399531561
 30
0.0
 40
0.2999999999999972
100
AcDbArc
 50
180.0
 51
270.0
  0
ARC
  5
53
330
1F
100
AcDbEntity
  8
0
  6
Continuous
 62
     7
370
    15
100
AcDbCircle
 10
142.2077985498
 20
130.6399531561
 30
0.0
 40
0.3000000000000114
100
AcDbArc
 50
90.0
 51
180.0
  0
ARC
  5
54
330
1F
100
AcDbEntity
  8
0
  6
Continuous
 62
     7
370
    15
100
AcDbCircle
 10
163.9077985498
 20
92.9399531561
 30
0.0
 40
2.0
100
AcDbArc
 50
90.0
 51
180.0
  0
ARC
  5
55
330
1F
100
AcDbEntity
  8
0
  6
Continuous
 62
     7
370
    15
100
AcDbCircle
 10
163.9077985498
 20
128.9399531561
 30
0.0
 40
2.000000000000014
100
AcDbArc
 50
180.0
 51
270.0
  0
LINE
  5
56
330
1F
100
AcDbEntity
  8
0
  6
Continuous
 62
     7
370
    15
100
AcDbLine
 10
163.9077984306
 20
94.9399523961
 30
0.0
 11
225.493582389
 21
94.9399523961
 31
0.0
  0
LINE
  5
57
330
1F
100
AcDbEntity
  8
0
  6
Continuous
 62
     7
370
    15
100
AcDbLine
 10
225.493582389
 20
126.939953916
 30
0.0
 11
163.9077984306
 21
126.939953916
 31
0.0
  0
LWPOLYLINE
  5
58
330
1F
100
AcDbEntity
  8
0
  6
Continuous
 62
     7
370
    15
100
AcDbPolyline
 90
        3
 70
   128
 43
0.0
 10
141.7077985548
 20
96.8501331809
 10
141.83325349
 20
96.7818309146
 10
141.9077985498
 20
96.7290929111
  0
LWPOLYLINE
  5
59
330
1F
100
AcDbEntity
  8
0
  6
Continuous
 62
     7
370
    15
100
AcDbPolyline
 90
        3
 70
   128
 43
0.0
 10
141.9077985498
 20
125.150813401
 10
141.83325349
 20
125.0980753976
 10
141.7077985548
 20
125.0297731313
  0
ARC
  5
5A
330
1F
100
AcDbEntity
  8
0
  6
Continuous
 62
     7
370
    15
100
AcDbCircle
 10
225.4935849874
 20
93.9399531561
 30
0.0
 40
0.9999999999999858
100
AcDbArc
 50
45.0
 51
90.0
  0
ARC
  5
5B
330
1F
100
AcDbEntity
  8
0
  6
Continuous
 62
     7
370
    15
100
AcDbCircle
 10
225.4935849874
 20
127.9399531561
 30
0.0
 40
1.0
100
AcDbArc
 50
270.0
 51
315.0
  0
LINE
  5
5C
330
1F
100
AcDbEntity
  8
0
  6
Continuous
 62
     7
370
    15
100
AcDbLine
 10
228.9921887728
 20
130.0243434089
 30
0.0
 11
226.2006946417
 21
127.2328455525
 31
0.0
  0
LINE
  5
5D
330
1F
100
AcDbEntity
  8
0
  6
Continuous
 62
     7
370
    15
100
AcDbLine
 10
226.2006946417
 20
94.6470607596
 30
0.0
 11
226.4077984306
 21
94.4399532455
 31
0.0
  0
LINE
  5
5E
330
1F
100
AcDbEntity
  8
0
  6
Continuous
 62
     7
370
    15
100
AcDbLine
 10
226.4077984306
 20
94.4399532455
 30
0.0
 11
237.1751092884
 21
94.4399532455
 31
0.0
  0
LINE
  5
5F
330
1F
100
AcDbEntity
  8
0
  6
Continuous
 62
     7
370
    15
100
AcDbLine
 10
239.0313990923
 20
131.1044671165
 30
0.0
 11
229.0614046666
 21
130.0565783458
 31
0.0
  0
LINE
  5
60
330
1F
100
AcDbEntity
  8
0
  6
Continuous
 62
     7
370
    15
100
AcDbLine
 10
250.2842493864
 20
119.7387815046
 30
0.0
 11
250.7818066093
 21
120.3976158577
 31
0.0
  0
LINE
  5
61
330
1F
100
AcDbEntity
  8
0
  6
Continuous
 62
     7
370
    15
100
AcDbLine
 10
239.2191388222
 20
131.9170795905
 30
0.0
 11
238.7215815994
 21
131.2582433748
 31
0.0
  0
LINE
  5
62
330
1F
100
AcDbEntity
  8
0
  6
Continuous
 62
     7
370
    15
100
AcDbLine
 10
246.3527568194
 20
123.9374565485
 30
0.0
 11
246.3556401941
 21
123.9404442313
 31
0.0
  0
LINE
  5
63
330
1F
100
AcDbEntity
  8
0
  6
Continuous
 62
     7
370
    15
100
AcDbLine
 10
243.1083791467
 20
127.0557992684
 30
0.0
 11
242.4401663753
 21
126.3629148307
 31
0.0
  0
LINE
  5
64
330
1F
100
AcDbEntity
  8
0
  6
Continuous
 62
     7
370
    15
100
AcDbLine
 10
161.9077981028
 20
91.5399525838
 30
0.0
 11
161.9077981028
 21
130.3399537283
 31
0.0
  0
SPLINE
  5
65
330
1F
100
AcDbEntity
  8
0
  6
Continuous
 62
     7
370
    15
100
AcDbSpline
210
0.0
220
0.0
230
1.0
 70
     8
 71
     3
 72
    12
 73
     8
 74
     0
 42
0.00000001
 43
0.00000001
 12
1.0
 22
0.0
 32
0.0
 13
1.0
 23
0.0
 33
0.0
 40
0.0
 40
0.0
 40
0.0
 40
0.0
 40
0.25
 40
0.25
 40
0.5
 40
0.5
 40
1.0
 40
1.0
 40
1.0
 40
1.0
 10
148.839700551789
 20
116.7691661517057
 30
0.0
 10
148.8021886657444
 20
116.7691661517057
 30
0.0
 10
148.7669013180396
 20
116.7839709659925
 30
0.0
 10
148.7079714698012
 20
116.8275628391183
 30
0.0
 10
148.6844457433321
 20
116.8550762652043
 30
0.0
 10
148.624186955564
 20
116.9442079973179
 30
0.0
 10
148.5985921932747
 20
117.0105938479357
 30
0.0
 10
148.5798929306537
 20
117.0781982831131
 30
0.0
  0
LINE
  5
66
330
1F
100
AcDbEntity
  8
0
  6
Continuous
 62
     7
370
    15
100
AcDbLine
 10
150.975896469
 20
116.7691663432
 30
0.0
 11
148.8397004592
 21
116.7691663432
 31
0.0
  0
SPLINE
  5
67
330
1F
100
AcDbEntity
  8
0
  6
Continuous
 62
     7
370
    15
100
AcDbSpline
210
0.0
220
0.0
230
1.0
 70
     8
 71
     3
 72
    12
 73
     8
 74
     0
 42
0.00000001
 43
0.00000001
 12
1.0
 22
0.0
 32
0.0
 13
1.0
 23
0.0
 33
0.0
 40
0.0
 40
0.0
 40
0.0
 40
0.0
 40
0.5000000000000006
 40
0.5000000000000006
 40
0.7500000000000002
 40
0.7500000000000002
 40
1.0
 40
1.0
 40
1.0
 40
1.0
 10
151.235704168926
 20
117.0781982831131
 30
0.0
 10
151.2170109357955
 20
117.0106156466727
 30
0.0
 10
151.1913556383837
 20
116.9441330771953
 30
0.0
 10
151.1311950156973
 20
116.8551379942978
 30
0.0
 10
151.1071227039429
 20
116.8271360972986
 30
0.0
 10
151.0487411835924
 20
116.7840596966334
 30
0.0
 10
151.0132723559394
 20
116.7691661517057
 30
0.0
 10
150.9758965477906
 20
116.7691661517057
 30
0.0
  0
ELLIPSE
  5
68
330
1F
100
AcDbEntity
  8
0
  6
Continuous
 62
     7
370
    15
100
AcDbEllipse
 10
140.9588693774
 20
110.9399531561
 30
0.0
 11
9.367417879781698
 21
19.7417491527499
 31
0.0
210
0.0
220
0.0
230
1.0
 40
0.3419987131
 41
5.185211263708394
 42
6.132113578252555
  0
SPLINE
  5
69
330
1F
100
AcDbEntity
  8
0
  6
Continuous
 62
     7
370
    15
100
AcDbSpline
210
0.0
220
0.0
230
1.0
 70
     8
 71
     3
 72
    12
 73
     8
 74
     0
 42
0.00000001
 43
0.00000001
 12
1.0
 22
0.0
 32
0.0
 13
1.0
 23
0.0
 33
0.0
 40
0.0
 40
0.0
 40
0.0
 40
0.0
 40
0.249999999999997
 40
0.249999999999997
 40
0.499999999999994
 40
0.499999999999994
 40
1.0
 40
1.0
 40
1.0
 40
1.0
 10
150.9758965477906
 20
130.0716095362875
 30
0.0
 10
151.0134084338353
 20
130.0716095362875
 30
0.0
 10
151.04869578154
 20
130.067105992025
 30
0.0
 10
151.1076256297784
 20
130.0537327925717
 30
0.0
 10
151.1311513562475
 20
130.0452478900006
 30
0.0
 10
151.1914101440156
 20
130.017500086166
 30
0.0
 10
151.2170049063049
 20
129.9965102224256
 30
0.0
 10
151.235704168926
 20
129.9747094392361
 30
0.0
  0
LINE
  5
6A
330
1F
100
AcDbEntity
  8
0
  6
Continuous
 62
     7
370
    15
100
AcDbLine
 10
148.8397004592
 20
130.0716098922
 30
0.0
 11
150.975896469
 21
130.0716098922
 31
0.0
  0
SPLINE
  5
6B
330
1F
100
AcDbEntity
  8
0
  6
Continuous
 62
     7
370
    15
100
AcDbSpline
210
0.0
220
0.0
230
1.0
 70
     8
 71
     3
 72
    12
 73
     8
 74
     0
 42
0.00000001
 43
0.00000001
 12
1.0
 22
0.0
 32
0.0
 13
1.0
 23
0.0
 33
0.0
 40
0.0
 40
0.0
 40
0.0
 40
0.0
 40
0.4999999999999971
 40
0.4999999999999971
 40
0.7499999999999986
 40
0.7499999999999986
 40
1.0
 40
1.0
 40
1.0
 40
1.0
 10
148.5798929306537
 20
129.9747094392361
 30
0.0
 10
148.5985861637841
 20
129.996503192864
 30
0.0
 10
148.6242414611959
 20
130.0175233545737
 30
0.0
 10
148.6844020838823
 20
130.0452287005374
 30
0.0
 10
148.7084743956367
 20
130.0538639167307
 30
0.0
 10
148.7668559159872
 20
130.0670785619573
 30
0.0
 10
148.8023247436402
 20
130.0716095362875
 30
0.0
 10
148.839700551789
 20
130.0716095362875
 30
0.0
  0
ELLIPSE
  5
6C
330
1F
100
AcDbEntity
  8
0
  6
Continuous
 62
     7
370
    15
100
AcDbEllipse
 10
158.8567277222
 20
110.9399531561
 30
0.0
 11
-9.367417879781584
 21
19.74174915274993
 31
0.0
210
0.0
220
0.0
230
1.0
 40
0.3419987131
 41
0.1510717289270749
 42
1.097974043471209
  0
SPLINE
  5
6D
330
1F
100
AcDbEntity
  8
0
  6
Continuous
 62
     7
370
    15
100
AcDbSpline
210
0.0
220
0.0
230
1.0
 70
     8
 71
     3
 72
    12
 73
     8
 74
     0
 42
0.00000001
 43
0.00000001
 12
1.0
 22
0.0
 32
0.0
 13
1.0
 23
0.0
 33
0.0
 40
0.0
 40
0.0
 40
0.0
 40
0.0
 40
0.25
 40
0.25
 40
0.5
 40
0.5
 40
1.0
 40
1.0
 40
1.0
 40
1.0
 10
148.839700551789
 20
91.80829677582079
 30
0.0
 10
148.8021997289112
 20
91.80829677582079
 30
0.0
 10
148.7669213248752
 20
91.81279774368394
 30
0.0
 10
148.7080036048229
 20
91.82616426490125
 30
0.0
 10
148.6844802234245
 20
91.83464552514612
 30
0.0
 10
148.6242246389586
 20
91.86238292082402
 30
0.0
 10
148.5987029865475
 20
91.88326691987707
 30
0.0
 10
148.5798929306537
 20
91.90519687287222
 30
0.0
  0
LINE
  5
6E
330
1F
100
AcDbEntity
  8
0
  6
Continuous
 62
     7
370
    15
100
AcDbLine
 10
150.975896469
 20
91.8082964199
 30
0.0
 11
148.8397004592
 21
91.8082964199
 31
0.0
  0
SPLINE
  5
6F
330
1F
100
AcDbEntity
  8
0
  6
Continuous
 62
     7
370
    15
100
AcDbSpline
210
0.0
220
0.0
230
1.0
 70
     8
 71
     3
 72
    12
 73
     8
 74
     0
 42
0.00000001
 43
0.00000001
 12
1.0
 22
0.0
 32
0.0
 13
1.0
 23
0.0
 33
0.0
 40
0.0
 40
0.0
 40
0.0
 40
0.0
 40
0.4999999999999969
 40
0.4999999999999969
 40
0.7499999999999984
 40
0.7499999999999984
 40
1.0
 40
1.0
 40
1.0
 40
1.0
 10
151.235704168926
 20
91.90519687287222
 30
0.0
 10
151.2169009360743
 20
91.88327487461116
 30
0.0
 10
151.191364277055
 20
91.86238106660122
 30
0.0
 10
151.1311381031066
 20
91.83465434048347
 30
0.0
 10
151.1072120257066
 20
91.826081207108
 30
0.0
 10
151.0491511055253
 20
91.81290210130045
 30
0.0
 10
151.0133494068994
 20
91.80829677582079
 30
0.0
 10
150.9758965477906
 20
91.80829677582078
 30
0.0
  0
ELLIPSE
  5
70
330
1F
100
AcDbEntity
  8
0
  6
Continuous
 62
     7
370
    15
100
AcDbEllipse
 10
140.9588693774
 20
110.9399531561
 30
0.0
 11
-9.367417879781783
 21
19.74174915274993
 31
0.0
210
0.0
220
0.0
230
1.0
 40
0.3419987131
 41
3.292664382516898
 42
4.239566697060999
  0
SPLINE
  5
71
330
1F
100
AcDbEntity
  8
0
  6
Continuous
 62
     7
370
    15
100
AcDbSpline
210
0.0
220
0.0
230
1.0
 70
     8
 71
     3
 72
    12
 73
     8
 74
     0
 42
0.00000001
 43
0.00000001
 12
1.0
 22
0.0
 32
0.0
 13
1.0
 23
0.0
 33
0.0
 40
0.0
 40
0.0
 40
0.0
 40
0.0
 40
0.2500000000000004
 40
0.2500000000000004
 40
0.5000000000000009
 40
0.5000000000000009
 40
1.0
 40
1.0
 40
1.0
 40
1.0
 10
150.9758965477906
 20
105.1107401604024
 30
0.0
 10
151.0133973706684
 20
105.1107401604024
 30
0.0
 10
151.0486757747043
 20
105.0959438226493
 30
0.0
 10
151.1075934947567
 20
105.0523735614902
 30
0.0
 10
151.1311168761551
 20
105.0248717629887
 30
0.0
 10
151.191372460621
 20
104.9357725997456
 30
0.0
 10
151.2168941130322
 20
104.8697130209632
 30
0.0
 10
151.235704168926
 20
104.801708028995
 30
0.0
  0
LINE
  5
72
330
1F
100
AcDbEntity
  8
0
  6
Continuous
 62
     7
370
    15
100
AcDbLine
 10
148.8397004592
 20
105.110739969
 30
0.0
 11
150.975896469
 21
105.110739969
 31
0.0
  0
SPLINE
  5
73
330
1F
100
AcDbEntity
  8
0
  6
Continuous
 62
     7
370
    15
100
AcDbSpline
210
0.0
220
0.0
230
1.0
 70
     8
 71
     3
 72
    12
 73
     8
 74
     0
 42
0.00000001
 43
0.00000001
 12
1.0
 22
0.0
 32
0.0
 13
1.0
 23
0.0
 33
0.0
 40
0.0
 40
0.0
 40
0.0
 40
0.0
 40
0.5000000000000023
 40
0.5000000000000023
 40
0.7500000000000011
 40
0.7500000000000011
 40
1.0
 40
1.0
 40
1.0
 40
1.0
 10
148.5798929306537
 20
104.801708028995
 30
0.0
 10
148.5986961635053
 20
104.8696883532574
 30
0.0
 10
148.6242328225245
 20
104.9357787410542
 30
0.0
 10
148.684458996473
 20
105.0248433535014
 30
0.0
 10
148.708385073873
 20
105.0526444405213
 30
0.0
 10
148.7664459940543
 20
105.0956035137462
 30
0.0
 10
148.8022476926803
 20
105.1107401604024
 30
0.0
 10
148.839700551789
 20
105.1107401604024
 30
0.0
  0
ELLIPSE
  5
74
330
1F
100
AcDbEntity
  8
0
  6
Continuous
 62
     7
370
    15
100
AcDbEllipse
 10
158.8567277222
 20
110.9399531561
 30
0.0
 11
9.367417879781641
 21
19.74174915274993
 31
0.0
210
0.0
220
0.0
230
1.0
 40
0.3419987131
 41
2.043618610118596
 42
2.990520924662727
  0
LINE
  5
75
330
1F
100
AcDbEntity
  8
0
  6
Continuous
 62
     7
370
    15
100
AcDbLine
 10
141.9077985498
 20
91.2399530935
 30
0.0
 11
141.9077985498
 21
130.6399532186
 31
0.0
  0
ELLIPSE
  5
76
330
1F
100
AcDbEntity
  8
0
  6
Continuous
 62
     7
370
    15
100
AcDbEllipse
 10
223.4922578994
 20
110.9399531561
 30
0.0
 11
-0.6417425547208779
 21
15.99909656657808
 31
0.0
210
0.0
220
0.0
230
1.0
 40
0.2649452246
 41
0.3664936598871587
 42
2.474592585192283
  0
ELLIPSE
  5
77
330
1F
100
AcDbEntity
  8
0
  6
Continuous
 62
     7
370
    15
100
AcDbEllipse
 10
220.9550285056
 20
118.6169892378
 30
0.0
 11
0.03534061625174445
 21
2.339706936174721
 31
0.0
210
0.0
220
0.0
230
1.0
 40
0.2506800175
 41
5.549162470043147
 42
10.27916522910257
  0
SPLINE
  5
78
330
1F
100
AcDbEntity
  8
0
  6
Continuous
 62
     7
370
    15
100
AcDbSpline
210
0.0
220
0.0
230
1.0
 70
     8
 71
     3
 72
    14
 73
    10
 74
     0
 42
0.00000001
 43
0.00000001
 12
1.0
 22
0.0
 32
0.0
 13
1.0
 23
0.0
 33
0.0
 40
0.0
 40
0.0
 40
0.0
 40
0.0
 40
0.25
 40
0.25
 40
0.5
 40
0.5
 40
0.75
 40
0.75
 40
1.0
 40
1.0
 40
1.0
 40
1.0
 10
223.9583464345868
 20
96.92732732164652
 30
0.0
 10
223.6412695023363
 20
96.94454217851705
 30
0.0
 10
223.3391990496181
 20
96.98657575086679
 30
0.0
 10
222.764409533576
 20
97.12351815365261
 30
0.0
 10
222.5066716107596
 20
97.21512133539551
 30
0.0
 10
222.0499648091119
 20
97.44847506986304
 30
0.0
 10
221.8609018858146
 20
97.58543758771035
 30
0.0
 10
221.5569507392099
 20
97.90093047579154
 30
0.0
 10
221.4464054351349
 20
98.07532046705082
 30
0.0
 10
221.3741543455226
 20
98.2645822672556
 30
0.0
  0
ELLIPSE
  5
79
330
1F
100
AcDbEntity
  8
0
  6
Continuous
 62
     7
370
    15
100
AcDbEllipse
 10
278.1689261844
 20
110.9399531561
 30
0.0
 11
152.2296510335275
 21
-2.251148238946982
 31
0.0
210
0.0
220
0.0
230
1.0
 40
0.1040588589
 41
4.349826012189162
 42
4.360596634983245
  0
ELLIPSE
  5
7A
330
1F
100
AcDbEntity
  8
0
  6
Continuous
 62
     7
370
    15
100
AcDbEllipse
 10
278.1689261844
 20
110.9399531561
 30
0.0
 11
152.2296510335275
 21
-2.251148238946982
 31
0.0
210
0.0
220
0.0
230
1.0
 40
0.1040588589
 41
1.925666281985074
 42
1.936436904779158
  0
SPLINE
  5
7B
330
1F
100
AcDbEntity
  8
0
  6
Continuous
 62
     7
370
    15
100
AcDbSpline
210
0.0
220
0.0
230
1.0
 70
     8
 71
     3
 72
    18
 73
    14
 74
     0
 42
0.00000001
 43
0.00000001
 12
1.0
 22
0.0
 32
0.0
 13
1.0
 23
0.0
 33
0.0
 40
0.0
 40
0.0
 40
0.0
 40
0.0
 40
0.2500000000000064
 40
0.2500000000000064
 40
0.3750000000000069
 40
0.3750000000000069
 40
0.5000000000000075
 40
0.5000000000000075
 40
0.6250000000000082
 40
0.6250000000000082
 40
0.7500000000000087
 40
0.7500000000000087
 40
1.0
 40
1.0
 40
1.0
 40
1.0
 10
221.3741543455226
 20
125.8156146079342
 30
0.0
 10
221.4464608138531
 20
125.9299093567082
 30
0.0
 10
221.5560165114941
 20
126.0301045845098
 30
0.0
 10
221.7826985859253
 20
126.1621107384177
 30
0.0
 10
221.8692221478665
 20
126.2030751290735
 30
0.0
 10
222.0586501312375
 20
126.2767199383642
 30
0.0
 10
222.162128602522
 20
126.3098057223508
 30
0.0
 10
222.3872832970505
 20
126.3693595899458
 30
0.0
 10
222.5101519573268
 20
126.3960290177122
 30
0.0
 10
222.7699778801357
 20
126.4422193100647
 30
0.0
 10
222.9057705819521
 20
126.4616407758005
 30
0.0
 10
223.3306475806557
 20
126.5104564516326
 30
0.0
 10
223.6407985681079
 20
126.5305788248404
 30
0.0
 10
223.9583464345868
 20
126.5385292712035
 30
0.0
  0
SPLINE
  5
7C
330
1F
100
AcDbEntity
  8
0
  6
Continuous
 62
     7
370
    15
100
AcDbSpline
210
0.0
220
0.0
230
1.0
 70
     8
 71
     3
 72
    18
 73
    14
 74
     0
 42
0.00000001
 43
0.00000001
 12
1.0
 22
0.0
 32
0.0
 13
1.0
 23
0.0
 33
0.0
 40
0.0
 40
0.0
 40
0.0
 40
0.0
 40
0.25
 40
0.25
 40
0.5
 40
0.5
 40
0.625
 40
0.625
 40
0.75
 40
0.75
 40
0.875
 40
0.875
 40
1.0
 40
1.0
 40
1.0
 40
1.0
 10
140.6517142322258
 20
97.10876477337531
 30
0.0
 10
140.6860110516776
 20
97.10790311789347
 30
0.0
 10
140.7238223316548
 20
97.10815472098841
 30
0.0
 10
140.8103946988348
 20
97.11055323360027
 30
0.0
 10
140.8587338289177
 20
97.11272421833219
 30
0.0
 10
140.9480061862401
 20
97.1168190966274
 30
0.0
 10
140.980547652016
 20
97.11832371457702
 30
0.0
 10
141.0567238518695
 20
97.12128677254513
 30
0.0
 10
141.099939911864
 20
97.12277411080092
 30
0.0
 10
141.20562921383
 20
97.1243995221246
 30
0.0
 10
141.2706002725446
 20
97.1243572810507
 30
0.0
 10
141.4042606609024
 20
97.12033510772969
 30
0.0
 10
141.4635671142386
 20
97.11679388090619
 30
0.0
 10
141.5128216609145
 20
97.1132271734701
 30
0.0
  0
SPLINE
  5
7D
330
1F
100
AcDbEntity
  8
0
  6
Continuous
 62
     7
370
    15
100
AcDbSpline
210
0.0
220
0.0
230
1.0
 70
     8
 71
     3
 72
    14
 73
    10
 74
     0
 42
0.00000001
 43
0.00000001
 12
1.0
 22
0.0
 32
0.0
 13
1.0
 23
0.0
 33
0.0
 40
0.0
 40
0.0
 40
0.0
 40
0.0
 40
0.1249999999999996
 40
0.1249999999999996
 40
0.2499999999999992
 40
0.2499999999999992
 40
0.4999999999999984
 40
0.4999999999999984
 40
1.0
 40
1.0
 40
1.0
 40
1.0
 10
141.5128216608837
 20
97.11322717348905
 30
0.0
 10
141.5243484386011
 20
97.11239247605502
 30
0.0
 10
141.5377012462535
 20
97.11065206177487
 30
0.0
 10
141.5678438188537
 20
97.10340447177457
 30
0.0
 10
141.5829043444682
 20
97.09805743754661
 30
0.0
 10
141.6182506983965
 20
97.08231016731818
 30
0.0
 10
141.6319827981255
 20
97.07247189315689
 30
0.0
 10
141.6653540438166
 20
97.04626790720641
 30
0.0
 10
141.6762944116705
 20
97.03218000580583
 30
0.0
 10
141.6849475366838
 20
97.01940638231746
 30
0.0
  0
LINE
  5
7E
330
1F
100
AcDbEntity
  8
0
  6
Continuous
 62
     7
370
    15
100
AcDbLine
 10
141.7077985548
 20
105.4345082084
 30
0.0
 11
141.7077985548
 21
96.8501331809
 31
0.0
  0
SPLINE
  5
7F
330
1F
100
AcDbEntity
  8
0
  6
Continuous
 62
     7
370
    15
100
AcDbSpline
210
0.0
220
0.0
230
1.0
 70
     8
 71
     3
 72
    16
 73
    12
 74
     0
 42
0.00000001
 43
0.00000001
 12
1.0
 22
0.0
 32
0.0
 13
1.0
 23
0.0
 33
0.0
 40
0.0
 40
0.0
 40
0.0
 40
0.0
 40
0.5000000000000033
 40
0.5000000000000033
 40
0.7500000000000039
 40
0.7500000000000039
 40
0.875000000000002
 40
0.875000000000002
 40
0.937500000000001
 40
0.937500000000001
 40
1.0
 40
1.0
 40
1.0
 40
1.0
 10
141.7077985497898
 20
105.4345083890913
 30
0.0
 10
141.7077985497898
 20
105.5520837701108
 30
0.0
 10
141.7039151246308
 20
105.6707795232121
 30
0.0
 10
141.6790997993562
 20
105.8515370012046
 30
0.0
 10
141.6682603516437
 20
105.9131810779775
 30
0.0
 10
141.6350445695949
 20
106.0025180523188
 30
0.0
 10
141.6216628259661
 20
106.0327775837439
 30
0.0
 10
141.5861531761038
 20
106.0662938277313
 30
0.0
 10
141.5707362096031
 20
106.0744321735374
 30
0.0
 10
141.5390351874545
 20
106.074416764106
 30
0.0
 10
141.5248889025037
 20
106.0673745267502
 30
0.0
 10
141.5128216609141
 20
106.0582334631406
 30
0.0
  0
SPLINE
  5
80
330
1F
100
AcDbEntity
  8
0
  6
Continuous
 62
     7
370
    15
100
AcDbSpline
210
0.0
220
0.0
230
1.0
 70
     8
 71
     3
 72
    18
 73
    14
 74
     0
 42
0.00000001
 43
0.00000001
 12
1.0
 22
0.0
 32
0.0
 13
1.0
 23
0.0
 33
0.0
 40
0.0
 40
0.0
 40
0.0
 40
0.0
 40
0.1250000000000003
 40
0.1250000000000003
 40
0.2500000000000007
 40
0.2500000000000007
 40
0.375000000000001
 40
0.375000000000001
 40
0.5000000000000013
 40
0.5000000000000013
 40
0.7500000000000007
 40
0.7500000000000007
 40
1.0
 40
1.0
 40
1.0
 40
1.0
 10
141.5128216609203
 20
106.0582334631333
 30
0.0
 10
141.4641170772323
 20
106.0213392239428
 30
0.0
 10
141.4056085944567
 20
105.9918079195168
 30
0.0
 10
141.2738817791869
 20
105.9825719462379
 30
0.0
 10
141.2091237076894
 20
106.0056351207949
 30
0.0
 10
141.1039131055387
 20
106.0731532424423
 30
0.0
 10
141.0606969570185
 20
106.1161643390929
 30
0.0
 10
140.9845186409347
 20
106.206406361089
 30
0.0
 10
140.9516638086434
 20
106.2540372425643
 30
0.0
 10
140.8612959026824
 20
106.4011015419138
 30
0.0
 10
140.8118732448428
 20
106.5050148672184
 30
0.0
 10
140.7242221192512
 20
106.7161488308587
 30
0.0
 10
140.6861605718607
 20
106.8238715756175
 30
0.0
 10
140.6517142322268
 20
106.9332046915269
 30
0.0
  0
SPLINE
  5
81
330
1F
100
AcDbEntity
  8
0
  6
Continuous
 62
     7
370
    15
100
AcDbSpline
210
0.0
220
0.0
230
1.0
 70
     8
 71
     3
 72
     8
 73
     4
 74
     0
 42
0.00000001
 43
0.00000001
 12
1.0
 22
0.0
 32
0.0
 13
1.0
 23
0.0
 33
0.0
 40
0.0
 40
0.0
 40
0.0
 40
0.0
 40
1.0
 40
1.0
 40
1.0
 40
1.0
 10
140.5864782062301
 20
107.1684084656558
 30
0.0
 10
140.605904411529
 20
107.088816194083
 30
0.0
 10
140.6274012359574
 20
107.0103744479502
 30
0.0
 10
140.6517142322268
 20
106.9332046915269
 30
0.0
  0
SPLINE
  5
82
330
1F
100
AcDbEntity
  8
0
  6
Continuous
 62
     7
370
    15
100
AcDbSpline
210
0.0
220
0.0
230
1.0
 70
     8
 71
     3
 72
     8
 73
     4
 74
     0
 42
0.00000001
 43
0.00000001
 12
1.0
 22
0.0
 32
0.0
 13
1.0
 23
0.0
 33
0.0
 40
0.0
 40
0.0
 40
0.0
 40
0.0
 40
1.0
 40
1.0
 40
1.0
 40
1.0
 10
140.6517142322268
 20
114.9467016205814
 30
0.0
 10
140.6274012359574
 20
114.8695318641581
 30
0.0
 10
140.605904411529
 20
114.7910901180254
 30
0.0
 10
140.5864782062301
 20
114.7114978464526
 30
0.0
  0
SPLINE
  5
83
330
1F
100
AcDbEntity
  8
0
  6
Continuous
 62
     7
370
    15
100
AcDbSpline
210
0.0
220
0.0
230
1.0
 70
     8
 71
     3
 72
    18
 73
    14
 74
     0
 42
0.00000001
 43
0.00000001
 12
1.0
 22
0.0
 32
0.0
 13
1.0
 23
0.0
 33
0.0
 40
0.0
 40
0.0
 40
0.0
 40
0.0
 40
0.2499999999999999
 40
0.2499999999999999
 40
0.4999999999999998
 40
0.4999999999999998
 40
0.6249999999999998
 40
0.6249999999999998
 40
0.7499999999999999
 40
0.7499999999999999
 40
0.8749999999999999
 40
0.8749999999999999
 40
1.0
 40
1.0
 40
1.0
 40
1.0
 10
140.6517142322268
 20
114.9467016205814
 30
0.0
 10
140.6860125512395
 20
115.0555649171745
 30
0.0
 10
140.7238269485514
 20
115.1625723404108
 30
0.0
 10
140.810415009625
 20
115.3716071645491
 30
0.0
 10
140.8587651153036
 20
115.4737772585386
 30
0.0
 10
140.9480817041035
 20
115.6204580301034
 30
0.0
 10
140.9806420595917
 20
115.6682597286389
 30
0.0
 10
141.0568876933207
 20
115.7598152666643
 30
0.0
 10
141.1000470631006
 20
115.8034946586562
 30
0.0
 10
141.2057758871187
 20
115.8728488759828
 30
0.0
 10
141.2707730641734
 20
115.8969651896487
 30
0.0
 10
141.4042575541277
 20
115.8887609676105
 30
0.0
 10
141.4635849475732
 20
115.8589701820185
 30
0.0
 10
141.5128216609145
 20
115.8216728489675
 30
0.0
  0
SPLINE
  5
84
330
1F
100
AcDbEntity
  8
0
  6
Continuous
 62
     7
370
    15
100
AcDbSpline
210
0.0
220
0.0
230
1.0
 70
     8
 71
     3
 72
    16
 73
    12
 74
     0
 42
0.00000001
 43
0.00000001
 12
1.0
 22
0.0
 32
0.0
 13
1.0
 23
0.0
 33
0.0
 40
0.0
 40
0.0
 40
0.0
 40
0.0
 40
0.0624999999999999
 40
0.0624999999999999
 40
0.1249999999999998
 40
0.1249999999999998
 40
0.2499999999999997
 40
0.2499999999999997
 40
0.5000000000000009
 40
0.5000000000000009
 40
1.0
 40
1.0
 40
1.0
 40
1.0
 10
141.5128216608837
 20
115.8216728489191
 30
0.0
 10
141.5248914941596
 20
115.8125298220733
 30
0.0
 10
141.5391671490929
 20
115.8054853743821
 30
0.0
 10
141.5706315612173
 20
115.8054783024835
 30
0.0
 10
141.5861320860277
 20
115.8136062712804
 30
0.0
 10
141.6215709826346
 20
115.8470147322876
 30
0.0
 10
141.635163598738
 20
115.8776818987498
 30
0.0
 10
141.6681579171308
 20
115.9665028928316
 30
0.0
 10
141.6789453104496
 20
116.0274055383794
 30
0.0
 10
141.7039985577287
 20
116.2094136157578
 30
0.0
 10
141.7077985497899
 20
116.3281023307964
 30
0.0
 10
141.70779854979
 20
116.445397923017
 30
0.0
  0
LINE
  5
85
330
1F
100
AcDbEntity
  8
0
  6
Continuous
 62
     7
370
    15
100
AcDbLine
 10
141.7077985548
 20
125.0297731313
 30
0.0
 11
141.7077985548
 21
116.4453981037
 31
0.0
  0
SPLINE
  5
86
330
1F
100
AcDbEntity
  8
0
  6
Continuous
 62
     7
370
    15
100
AcDbSpline
210
0.0
220
0.0
230
1.0
 70
     8
 71
     3
 72
    16
 73
    12
 74
     0
 42
0.00000001
 43
0.00000001
 12
1.0
 22
0.0
 32
0.0
 13
1.0
 23
0.0
 33
0.0
 40
0.0
 40
0.0
 40
0.0
 40
0.0
 40
0.4999999999999998
 40
0.4999999999999998
 40
0.749999999999999
 40
0.749999999999999
 40
0.8749999999999979
 40
0.8749999999999979
 40
0.9374999999999989
 40
0.9374999999999989
 40
1.0
 40
1.0
 40
1.0
 40
1.0
 10
141.7077985497898
 20
124.9247650627143
 30
0.0
 10
141.7077985497898
 20
124.9091998352749
 30
0.0
 10
141.7039151246309
 20
124.8900284574269
 30
0.0
 10
141.6790997993562
 20
124.8512560754451
 30
0.0
 10
141.6682603516437
 20
124.8366052992425
 30
0.0
 10
141.6350445695949
 20
124.8095610552629
 30
0.0
 10
141.6216628259661
 20
124.7995829561229
 30
0.0
 10
141.5861531761038
 20
124.7831084203359
 30
0.0
 10
141.5707362096031
 20
124.7773563295459
 30
0.0
 10
141.5390351874545
 20
124.7694358091193
 30
0.0
 10
141.5248889025037
 20
124.7675529731005
 30
0.0
 10
141.5128216609141
 20
124.7666791386382
 30
0.0
  0
SPLINE
  5
87
330
1F
100
AcDbEntity
  8
0
  6
Continuous
 62
     7
370
    15
100
AcDbSpline
210
0.0
220
0.0
230
1.0
 70
     8
 71
     3
 72
    18
 73
    14
 74
     0
 42
0.00000001
 43
0.00000001
 12
1.0
 22
0.0
 32
0.0
 13
1.0
 23
0.0
 33
0.0
 40
0.0
 40
0.0
 40
0.0
 40
0.0
 40
0.1249999999999998
 40
0.1249999999999998
 40
0.2499999999999997
 40
0.2499999999999997
 40
0.3749999999999995
 40
0.3749999999999995
 40
0.4999999999999993
 40
0.4999999999999993
 40
0.7499999999999997
 40
0.7499999999999997
 40
1.0
 40
1.0
 40
1.0
 40
1.0
 10
141.5128216609202
 20
124.7666791386381
 30
0.0
 10
141.4641175319034
 20
124.7631522890199
 30
0.0
 10
141.405609862699
 20
124.7596520158223
 30
0.0
 10
141.273884200068
 20
124.7556090319343
 30
0.0
 10
141.2091265614477
 20
124.7554974573037
 30
0.0
 10
141.1039161448286
 20
124.7570296420652
 30
0.0
 10
141.0607001098884
 20
124.7584847942803
 30
0.0
 10
140.9845218884075
 20
124.76141005581
 30
0.0
 10
140.9516671207234
 20
124.7629203863183
 30
0.0
 10
140.8612994018815
 20
124.7670623790066
 30
0.0
 10
140.8118770326921
 20
124.7693004639931
 30
0.0
 10
140.7242245706041
 20
124.7717517470396
 30
0.0
 10
140.6861618343697
 20
124.7720069824007
 30
0.0
 10
140.6517142322263
 20
124.7711415387327
 30
0.0
  0
SPLINE
  5
88
330
1F
100
AcDbEntity
  8
0
  6
Continuous
 62
     7
370
    15
100
AcDbSpline
210
0.0
220
0.0
230
1.0
 70
     8
 71
     3
 72
     8
 73
     4
 74
     0
 42
0.00000001
 43
0.00000001
 12
1.0
 22
0.0
 32
0.0
 13
1.0
 23
0.0
 33
0.0
 40
0.0
 40
0.0
 40
0.0
 40
0.0
 40
1.0
 40
1.0
 40
1.0
 40
1.0
 10
140.4127585718505
 20
107.9934623516903
 30
0.0
 10
140.4634856545729
 20
107.7101112303712
 30
0.0
 10
140.52137296756
 20
107.4351550462314
 30
0.0
 10
140.5864782062302
 20
107.1684084656558
 30
0.0
  0
SPLINE
  5
89
330
1F
100
AcDbEntity
  8
0
  6
Continuous
 62
     7
370
    15
100
AcDbSpline
210
0.0
220
0.0
230
1.0
 70
     8
 71
     3
 72
    24
 73
    20
 74
     0
 42
0.00000001
 43
0.00000001
 12
1.0
 22
0.0
 32
0.0
 13
1.0
 23
0.0
 33
0.0
 40
0.0
 40
0.0
 40
0.0
 40
0.0
 40
0.2499999999999973
 40
0.2499999999999973
 40
0.3749999999999959
 40
0.3749999999999959
 40
0.4374999999999947
 40
0.4374999999999947
 40
0.4687499999999946
 40
0.4687499999999946
 40
0.4999999999999944
 40
0.4999999999999944
 40
0.5624999999999948
 40
0.5624999999999948
 40
0.624999999999995
 40
0.624999999999995
 40
0.7499999999999963
 40
0.7499999999999963
 40
1.0
 40
1.0
 40
1.0
 40
1.0
 10
140.2077985497815
 20
107.9937547599835
 30
0.0
 10
140.2082015791555
 20
108.0870230526131
 30
0.0
 10
140.2102313188705
 20
108.1807806114621
 30
0.0
 10
140.2195400302903
 20
108.3223704971016
 30
0.0
 10
140.2234660234049
 20
108.3695509157108
 30
0.0
 10
140.2343953833209
 20
108.4401469623962
 30
0.0
 10
140.2385170114153
 20
108.4639268761609
 30
0.0
 10
140.2504115325976
 20
108.4973780232081
 30
0.0
 10
140.2556983445513
 20
108.5095329752778
 30
0.0
 10
140.2722662760662
 20
108.517415614246
 30
0.0
 10
140.2801929848336
 20
108.509852015144
 30
0.0
 10
140.2971853230588
 20
108.4860595839173
 30
0.0
 10
140.3045830238498
 20
108.4658711060728
 30
0.0
 10
140.3186854141916
 20
108.425421481453
 30
0.0
 10
140.3248385714839
 20
108.4045658070555
 30
0.0
 10
140.342152304945
 20
108.3414407717544
 30
0.0
 10
140.3521573458335
 20
108.2984616598529
 30
0.0
 10
140.3805138020643
 20
108.168736015564
 30
0.0
 10
140.3970623414105
 20
108.0811382884281
 30
0.0
 10
140.4127585718505
 20
107.9934623516903
 30
0.0
  0
SPLINE
  5
8A
330
1F
100
AcDbEntity
  8
0
  6
Continuous
 62
     7
370
    15
100
AcDbSpline
210
0.0
220
0.0
230
1.0
 70
     8
 71
     3
 72
    16
 73
    12
 74
     0
 42
0.00000001
 43
0.00000001
 12
1.0
 22
0.0
 32
0.0
 13
1.0
 23
0.0
 33
0.0
 40
0.0
 40
0.0
 40
0.0
 40
0.0
 40
0.2499999999999998
 40
0.2499999999999998
 40
0.3749999999999998
 40
0.3749999999999998
 40
0.4999999999999999
 40
0.4999999999999999
 40
0.7499999999999999
 40
0.7499999999999999
 40
1.0
 40
1.0
 40
1.0
 40
1.0
 10
140.2077985497898
 20
113.8861515521235
 30
0.0
 10
140.1272617403943
 20
113.4170787252605
 30
0.0
 10
140.0672243315921
 20
112.9367150750805
 30
0.0
 10
140.0064863843448
 20
112.1995307959395
 30
0.0
 10
139.9911639033019
 20
111.9510123927125
 30
0.0
 10
139.970580951524
 20
111.4482289474987
 30
0.0
 10
139.9653814044875
 20
111.1933703944741
 30
0.0
 10
139.9653276939473
 20
110.4370930547533
 30
0.0
 10
139.9855250312164
 20
109.9384348554435
 30
0.0
 10
140.0662033382894
 20
108.9520118846992
 30
0.0
 10
140.1272496866306
 20
108.4628977919263
 30
0.0
 10
140.2077985497898
 20
107.9937547599848
 30
0.0
  0
SPLINE
  5
8B
330
1F
100
AcDbEntity
  8
0
  6
Continuous
 62
     7
370
    15
100
AcDbSpline
210
0.0
220
0.0
230
1.0
 70
     8
 71
     3
 72
    24
 73
    20
 74
     0
 42
0.00000001
 43
0.00000001
 12
1.0
 22
0.0
 32
0.0
 13
1.0
 23
0.0
 33
0.0
 40
0.0
 40
0.0
 40
0.0
 40
0.0
 40
0.2499999999999954
 40
0.2499999999999954
 40
0.3749999999999918
 40
0.3749999999999918
 40
0.4374999999999906
 40
0.4374999999999906
 40
0.4999999999999892
 40
0.4999999999999892
 40
0.5312499999999905
 40
0.5312499999999905
 40
0.5624999999999917
 40
0.5624999999999917
 40
0.6249999999999931
 40
0.6249999999999931
 40
0.7499999999999949
 40
0.7499999999999949
 40
1.0
 40
1.0
 40
1.0
 40
1.0
 10
140.4127585718506
 20
113.886443960418
 30
0.0
 10
140.3969895269409
 20
113.7983612969271
 30
0.0
 10
140.3803753623803
 20
113.7104164804177
 30
0.0
 10
140.3518432348869
 20
113.5800691131547
 30
0.0
 10
140.341755601333
 20
113.5368079353526
 30
0.0
 10
140.3242677784841
 20
113.4733721595171
 30
0.0
 10
140.3180579705578
 20
113.4524580359734
 30
0.0
 10
140.3037801109754
 20
113.4119832442883
 30
0.0
 10
140.2962089486236
 20
113.3915056008291
 30
0.0
 10
140.2787891234492
 20
113.3686592212922
 30
0.0
 10
140.2703050409946
 20
113.3621074242485
 30
0.0
 10
140.2542689673771
 20
113.372678799475
 30
0.0
 10
140.2494485950992
 20
113.3847698397589
 30
0.0
 10
140.2380416944933
 20
113.4184130829788
 30
0.0
 10
140.234020732784
 20
113.4418207622756
 30
0.0
 10
140.2232667210047
 20
113.5124093653367
 30
0.0
 10
140.219394835382
 20
113.5593743928593
 30
0.0
 10
140.2102268705811
 20
113.6999512574654
 30
0.0
 10
140.208198536068
 20
113.7935874870849
 30
0.0
 10
140.2077985497898
 20
113.8861515521235
 30
0.0
  0
SPLINE
  5
8C
330
1F
100
AcDbEntity
  8
0
  6
Continuous
 62
     7
370
    15
100
AcDbSpline
210
0.0
220
0.0
230
1.0
 70
     8
 71
     3
 72
     8
 73
     4
 74
     0
 42
0.00000001
 43
0.00000001
 12
1.0
 22
0.0
 32
0.0
 13
1.0
 23
0.0
 33
0.0
 40
0.0
 40
0.0
 40
0.0
 40
0.0
 40
1.0
 40
1.0
 40
1.0
 40
1.0
 10
140.5864782062302
 20
114.7114978464526
 30
0.0
 10
140.52137296756
 20
114.444751265877
 30
0.0
 10
140.4634856545729
 20
114.1697950817372
 30
0.0
 10
140.4127585718505
 20
113.8864439604181
 30
0.0
  0
LINE
  5
8D
330
1F
100
AcDbEntity
  8
0
  6
Continuous
 62
     7
370
    15
100
AcDbLine
 10
140.2077985273
 20
107.9937547038
 30
0.0
 11
140.2077985273
 21
106.8387494015
 31
0.0
  0
LINE
  5
8E
330
1F
100
AcDbEntity
  8
0
  6
Continuous
 62
     7
370
    15
100
AcDbLine
 10
119.4077976557
 20
114.7798727325
 30
0.0
 11
119.4077976557
 21
107.1000335796
 31
0.0
  0
LINE
  5
8F
330
1F
100
AcDbEntity
  8
0
  6
Continuous
 62
     7
370
    15
100
AcDbLine
 10
140.2077985273
 20
115.0411569106
 30
0.0
 11
140.2077985273
 21
113.8861516083
 31
0.0
  0
LINE
  5
90
330
1F
100
AcDbEntity
  8
0
  6
Continuous
 62
     7
370
    15
100
AcDbLine
 10
117.9077983412
 20
114.3468598893
 30
0.0
 11
117.9077983412
 21
107.5330464228
 31
0.0
  0
LINE
  5
91
330
1F
100
AcDbEntity
  8
0
  6
Continuous
 62
     7
370
    15
100
AcDbLine
 10
140.412758528
 20
124.7651378217
 30
0.0
 11
140.6517142473
 21
124.771141127
 31
0.0
  0
LINE
  5
92
330
1F
100
AcDbEntity
  8
0
  6
Continuous
 62
     7
370
    15
100
AcDbLine
 10
140.2077985273
 20
115.0411569106
 30
0.0
 11
140.2077985273
 21
124.9600515293
 31
0.0
  0
ARC
  5
93
330
1F
100
AcDbEntity
  8
0
  6
Continuous
 62
     7
370
    15
100
AcDbCircle
 10
140.4077354607
 20
124.9650750517
 30
0.0
 40
0.2000000000000059
100
AcDbArc
 50
181.4391666667
 51
271.4391666667
  0
LINE
  5
94
330
1F
100
AcDbEntity
  8
0
  6
Continuous
 62
     7
370
    15
100
AcDbLine
 10
119.4077976557
 20
114.7798727325
 30
0.0
 11
119.4077976557
 21
124.4374836388
 31
0.0
  0
LINE
  5
95
330
1F
100
AcDbEntity
  8
0
  6
Continuous
 62
     7
370
    15
100
AcDbLine
 10
119.4077976557
 20
124.4374836388
 30
0.0
 11
140.2077985273
 21
124.9600515293
 31
0.0
  0
LINE
  5
96
330
1F
100
AcDbEntity
  8
0
  6
Continuous
 62
     7
370
    15
100
AcDbLine
 10
140.2077985273
 20
96.9198547828
 30
0.0
 11
140.2077985273
 21
106.8387494015
 31
0.0
  0
ARC
  5
97
330
1F
100
AcDbEntity
  8
0
  6
Continuous
 62
     7
370
    15
100
AcDbCircle
 10
140.4077354607
 20
96.9148312604
 30
0.0
 40
0.2000000000000343
100
AcDbArc
 50
88.5608333333
 51
178.5608333333
  0
LINE
  5
98
330
1F
100
AcDbEntity
  8
0
  6
Continuous
 62
     7
370
    15
100
AcDbLine
 10
119.4077976557
 20
97.4424226733
 30
0.0
 11
119.4077976557
 21
107.1000335796
 31
0.0
  0
LINE
  5
99
330
1F
100
AcDbEntity
  8
0
  6
Continuous
 62
     7
370
    15
100
AcDbLine
 10
119.4077976557
 20
97.4424226733
 30
0.0
 11
140.2077985273
 21
96.9198547828
 31
0.0
  0
LINE
  5
9A
330
1F
100
AcDbEntity
  8
0
  6
Continuous
 62
     7
370
    15
100
AcDbLine
 10
140.412758528
 20
97.1147684904
 30
0.0
 11
140.6517142473
 21
97.1087651851
 31
0.0
  0
LINE
  5
9B
330
1F
100
AcDbEntity
  8
0
  6
Continuous
 62
     7
370
    15
100
AcDbLine
 10
117.9077983412
 20
123.5714579525
 30
0.0
 11
119.4077976557
 21
124.4374836388
 31
0.0
  0
LINE
  5
9C
330
1F
100
AcDbEntity
  8
0
  6
Continuous
 62
     7
370
    15
100
AcDbLine
 10
117.9077983412
 20
114.3468598893
 30
0.0
 11
117.9077983412
 21
123.5714579525
 31
0.0
  0
LINE
  5
9D
330
1F
100
AcDbEntity
  8
0
  6
Continuous
 62
     7
370
    15
100
AcDbLine
 10
117.9077983412
 20
98.3084483596
 30
0.0
 11
119.4077976557
 21
97.4424226733
 31
0.0
  0
LINE
  5
9E
330
1F
100
AcDbEntity
  8
0
  6
Continuous
 62
     7
370
    15
100
AcDbLine
 10
117.9077983412
 20
98.3084483596
 30
0.0
 11
117.9077983412
 21
107.5330464228
 31
0.0
  0
SPLINE
  5
9F
330
1F
100
AcDbEntity
  8
0
  6
Continuous
 62
     7
370
    15
100
AcDbSpline
210
0.0
220
0.0
230
1.0
 70
     8
 71
     3
 72
    20
 73
    16
 74
     0
 42
0.00000001
 43
0.00000001
 12
1.0
 22
0.0
 32
0.0
 13
1.0
 23
0.0
 33
0.0
 40
0.0
 40
0.0
 40
0.0
 40
0.0
 40
0.1250000000000002
 40
0.1250000000000002
 40
0.2500000000000004
 40
0.2500000000000004
 40
0.3750000000000007
 40
0.3750000000000007
 40
0.5000000000000009
 40
0.5000000000000009
 40
0.6250000000000011
 40
0.6250000000000011
 40
0.7500000000000013
 40
0.7500000000000013
 40
1.0
 40
1.0
 40
1.0
 40
1.0
 10
221.3741543455226
 20
120.348253682814
 30
0.0
 10
221.4044271969723
 20
120.2325560352902
 30
0.0
 10
221.4380478927204
 20
120.1087523703325
 30
0.0
 10
221.5035047773213
 20
119.8424529327227
 30
0.0
 10
221.5353904657698
 20
119.6987004646325
 30
0.0
 10
221.5860392195111
 20
119.4058160822022
 30
0.0
 10
221.6053573494734
 20
119.2535290941203
 30
0.0
 10
221.6271306124559
 20
118.9465958941556
 30
0.0
 10
221.6296042440297
 20
118.7947390911261
 30
0.0
 10
221.619969495496
 20
118.4936851091923
 30
0.0
 10
221.607883660822
 20
118.3460861934669
 30
0.0
 10
221.5744832193365
 20
118.0630955329608
 30
0.0
 10
221.5531250187275
 20
117.926390626437
 30
0.0
 10
221.4812615353026
 20
117.5291420150273
 30
0.0
 10
221.4239170642704
 20
117.2863901580721
 30
0.0
 10
221.3741543455226
 20
117.0738674439791
 30
0.0
  0
LINE
  5
A0
330
1F
100
AcDbEntity
  8
0
  6
Continuous
 62
     7
370
    15
100
AcDbLine
 10
238.4356506678
 20
124.0020512196
 30
0.0
 11
239.0606053683
 21
131.1055958795
 31
0.0
  0
LINE
  5
A1
330
1F
100
AcDbEntity
  8
0
  6
Continuous
 62
     7
370
    15
100
AcDbLine
 10
237.1390037748
 20
123.908061214
 30
0.0
 11
238.4356506678
 21
124.0020512196
 31
0.0
  0
ARC
  5
A2
330
1F
100
AcDbEntity
  8
0
  6
Continuous
 62
     7
370
    15
100
AcDbCircle
 10
237.3393593623
 20
121.5865141639
 30
0.0
 40
2.330176617231908
100
AcDbArc
 50
94.9325538624
 51
275.0974152721
  0
LINE
  5
A3
330
1F
100
AcDbEntity
  8
0
  6
Continuous
 62
     7
370
    15
100
AcDbLine
 10
249.7924291107
 20
120.1532284322
 30
0.0
 11
237.5463940712
 21
119.2655532213
 31
0.0
  0
LINE
  5
A4
330
1F
100
AcDbEntity
  8
0
  6
Continuous
 62
     7
370
    15
100
AcDbLine
 10
248.9878707143
 20
111.0081989828
 30
0.0
 11
249.7924291107
 21
120.1532284322
 31
0.0
  0
LINE
  5
A5
330
1F
100
AcDbEntity
  8
0
  6
Continuous
 62
     7
370
    15
100
AcDbLine
 10
238.1299086424
 20
95.7265735196
 30
0.0
 11
248.9878707143
 21
111.0081989828
 31
0.0
  0
ELLIPSE
  5
A6
330
1F
100
AcDbEntity
  8
0
  6
Continuous
 62
     7
370
    15
100
AcDbEllipse
 10
278.1689261844
 20
110.9399531561
 30
0.0
 11
156.9868276283252
 21
-2.32149662141407
 31
0.0
210
0.0
220
0.0
230
1.0
 40
0.1040588589
 41
4.377925064758892
 42
4.456031793480356
  0
SPLINE
  5
A7
330
1F
100
AcDbEntity
  8
0
  6
Continuous
 62
     7
370
    15
100
AcDbSpline
210
0.0
220
0.0
230
1.0
 70
     8
 71
     3
 72
     8
 73
     4
 74
     0
 42
0.00000001
 43
0.00000001
 12
1.0
 22
0.0
 32
0.0
 13
1.0
 23
0.0
 33
0.0
 40
0.0
 40
0.0
 40
0.0
 40
0.0
 40
1.0
 40
1.0
 40
1.0
 40
1.0
 10
226.4077985497896
 20
96.27137309717268
 30
0.0
 10
226.3387145507485
 20
96.34735868166567
 30
0.0
 10
226.2696783096279
 20
96.4233882600359
 30
0.0
 10
226.2006917686032
 20
96.49946362138604
 30
0.0
  0
SPLINE
  5
A8
330
1F
100
AcDbEntity
  8
0
  6
Continuous
 62
     7
370
    15
100
AcDbSpline
210
0.0
220
0.0
230
1.0
 70
     8
 71
     3
 72
    10
 73
     6
 74
     0
 42
0.00000001
 43
0.00000001
 12
1.0
 22
0.0
 32
0.0
 13
1.0
 23
0.0
 33
0.0
 40
0.0
 40
0.0
 40
0.0
 40
0.0
 40
0.5
 40
0.5
 40
1.0
 40
1.0
 40
1.0
 40
1.0
 10
226.2006917686032
 20
96.49946362138606
 30
0.0
 10
226.1095016969213
 20
96.60002407204365
 30
0.0
 10
226.0015471599697
 20
96.68250569446619
 30
0.0
 10
225.7598665915211
 20
96.80211484868082
 30
0.0
 10
225.6287485582675
 20
96.83779354547636
 30
0.0
 10
225.4935849874167
 20
96.84495907129737
 30
0.0
  0
SPLINE
  5
A9
330
1F
100
AcDbEntity
  8
0
  6
Continuous
 62
     7
370
    15
100
AcDbSpline
210
0.0
220
0.0
230
1.0
 70
     8
 71
     3
 72
     8
 73
     4
 74
     0
 42
0.00000001
 43
0.00000001
 12
1.0
 22
0.0
 32
0.0
 13
1.0
 23
0.0
 33
0.0
 40
0.0
 40
0.0
 40
0.0
 40
0.0
 40
1.0
 40
1.0
 40
1.0
 40
1.0
 10
225.4935849874167
 20
126.5759835578007
 30
0.0
 10
225.7636667950884
 20
126.5824002615892
 30
0.0
 10
226.0184397025561
 20
126.7051445283965
 30
0.0
 10
226.2006917686037
 20
126.9007923409516
 30
0.0
  0
SPLINE
  5
AA
330
1F
100
AcDbEntity
  8
0
  6
Continuous
 62
     7
370
    15
100
AcDbSpline
210
0.0
220
0.0
230
1.0
 70
     8
 71
     3
 72
     8
 73
     4
 74
     0
 42
0.00000001
 43
0.00000001
 12
1.0
 22
0.0
 32
0.0
 13
1.0
 23
0.0
 33
0.0
 40
0.0
 40
0.0
 40
0.0
 40
0.0
 40
1.0
 40
1.0
 40
1.0
 40
1.0
 10
226.2006917686032
 20
126.9007923409521
 30
0.0
 10
227.17718254524
 20
127.9490563665536
 30
0.0
 10
228.1633806908046
 20
128.9880941174644
 30
0.0
 10
229.1552860936693
 20
130.0217074610023
 30
0.0
  0
ELLIPSE
  5
AB
330
1F
100
AcDbEntity
  8
0
  6
Continuous
 62
     7
370
    15
100
AcDbEllipse
 10
272.0662522109
 20
108.4333539262
 30
0.0
 11
217.162849030142
 21
19.44089462863678
 31
0.0
210
0.0
220
0.0
230
1.0
 40
0.1182598878
 41
1.71277821745836
 42
1.75910564366094
  0
CIRCLE
  5
AC
330
1F
100
AcDbEntity
  8
0
  6
Continuous
 62
     7
370
    15
100
AcDbCircle
 10
240.5118997515
 20
114.2178107301
 30
0.0
 40
3.969276670535212
  0
LINE
  5
AD
330
1F
100
AcDbEntity
  8
0
  6
Continuous
 62
     7
370
    15
100
AcDbLine
 10
226.4077984306
 20
96.2713730114
 30
0.0
 11
226.4077984306
 21
94.4399532455
 31
0.0
  0
LINE
  5
AE
330
1F
100
AcDbEntity
  8
0
  6
Continuous
 62
     7
370
    15
100
AcDbLine
 10
229.1552894327
 20
130.021707766
 30
0.0
 11
229.0069707247
 21
130.009561457
 31
0.0
  0
ELLIPSE
  5
AF
330
1F
100
AcDbEntity
  8
0
  6
Continuous
 62
     7
370
    15
100
AcDbEllipse
 10
248.9204735859
 20
110.9399531561
 30
0.0
 11
11.74560502276822
 21
16.49993160123834
 31
0.0
210
0.0
220
0.0
230
1.0
 40
0.0040448756
 41
3.144472021887371
 42
3.541994353844761
  0
ARC
  5
B0
330
1F
100
AcDbEntity
  8
0
  6
Continuous
 62
     7
370
    15
100
AcDbCircle
 10
236.8102107823
 20
120.9590861332
 30
0.0
 40
2.304180967826235
100
AcDbArc
 50
94.0438548257
 51
132.5831844893
  0
LINE
  5
B1
330
1F
100
AcDbEntity
  8
0
  6
Continuous
 62
     7
370
    15
100
AcDbLine
 10
237.9443668338
 20
123.3515205386
 30
0.0
 11
238.4356506678
 21
124.0020512196
 31
0.0
  0
LINE
  5
B2
330
1F
100
AcDbEntity
  8
0
  6
Continuous
 62
     7
370
    15
100
AcDbLine
 10
237.9443668338
 20
123.3515205386
 30
0.0
 11
237.9666738721
 21
123.3531373146
 31
0.0
  0
LINE
  5
B3
330
1F
100
AcDbEntity
  8
0
  6
Continuous
 62
     7
370
    15
100
AcDbLine
 10
237.9326172682
 20
122.9660181853
 30
0.0
 11
236.3404058429
 21
122.8506031039
 31
0.0
  0
ELLIPSE
  5
B4
330
1F
100
AcDbEntity
  8
0
  6
Continuous
 62
     7
370
    15
100
AcDbEllipse
 10
236.3427841274
 20
104.6786661323
 30
0.0
 11
2.73362693842327
 21
26.425887890064
 31
0.0
210
0.0
220
0.0
230
1.0
 40
0.0894011665
 41
0.006664280596216
 42
0.0188472574999772
  0
ARC
  5
B5
330
1F
100
AcDbEntity
  8
0
  6
Continuous
 62
     7
370
    15
100
AcDbCircle
 10
236.7915574741
 20
121.2079364683
 30
0.0
 40
2.054635020170016
100
AcDbArc
 50
94.0143529173
 51
142.8480443249
  0
ARC
  5
B6
330
1F
100
AcDbEntity
  8
0
  6
Continuous
 62
     7
370
    15
100
AcDbCircle
 10
236.4853662837
 20
120.7971127689
 30
0.0
 40
2.058600516158271
100
AcDbArc
 50
94.0379377763
 51
131.5620189123
  0
LINE
  5
B7
330
1F
100
AcDbEntity
  8
0
  6
Continuous
 62
     7
370
    15
100
AcDbLine
 10
246.7238553378
 20
124.1865722986
 30
0.0
 11
246.7083804819
 21
124.5062487724
 31
0.0
  0
LWPOLYLINE
  5
B8
330
1F
100
AcDbEntity
  8
0
  6
Continuous
 62
     7
370
    15
100
AcDbPolyline
 90
        3
 70
   128
 43
0.0
 10
243.5506158086
 20
127.4090424704
 10
243.2718150827
 20
127.4017446267
 10
242.6532529804
 20
127.296283521
  0
ARC
  5
B9
330
1F
100
AcDbEntity
  8
0
  6
Continuous
 62
     7
370
    15
100
AcDbCircle
 10
244.2177066254
 20
125.142276042
 30
0.0
 40
2.818130591893049
100
AcDbArc
 50
49.3301888187
 51
104.3659378407
  0
ARC
  5
BA
330
1F
100
AcDbEntity
  8
0
  6
Continuous
 62
     7
370
    15
100
AcDbCircle
 10
244.2621957855
 20
125.1465297415
 30
0.0
 40
2.779559417234299
100
AcDbArc
 50
358.7783557923
 51
18.4379952497
  0
CIRCLE
  5
BB
330
1F
100
AcDbEntity
  8
0
  6
Continuous
 62
     7
370
    15
100
AcDbCircle
 10
240.5216788254
 20
114.2148984417
 30
0.0
 40
3.477077864103201
  0
CIRCLE
  5
BC
330
1F
100
AcDbEntity
  8
0
  6
Continuous
 62
     7
370
    15
100
AcDbCircle
 10
240.5427583476
 20
114.2215493305
 30
0.0
 40
1.98488840980339
  0
SPLINE
  5
BD
330
1F
100
AcDbEntity
  8
0
  6
Continuous
 62
     7
370
    15
100
AcDbSpline
210
0.0
220
0.0
230
1.0
 70
     8
 71
     3
 72
    11
 73
     7
 74
     0
 42
0.00000001
 43
0.00000001
 12
1.0
 22
0.0
 32
0.0
 13
1.0
 23
0.0
 33
0.0
 40
0.0
 40
0.0
 40
0.0
 40
0.0
 40
0.1081102530818658
 40
0.4711554680154365
 40
0.8135800018894701
 40
0.9999999999999999
 40
0.9999999999999999
 40
0.9999999999999999
 40
0.9999999999999999
 10
239.4829564305729
 20
112.8524019441159
 30
0.0
 10
239.5376970246754
 20
112.8396176312823
 30
0.0
 10
239.7762620959666
 20
112.7839022969392
 30
0.0
 10
240.241363954241
 20
112.6922960217207
 30
0.0
 10
240.7859145073319
 20
112.6230401923663
 30
0.0
 10
241.0837600925844
 20
112.5976805362861
 30
0.0
 10
241.1887519570774
 20
112.588741147198
 30
0.0
  0
SPLINE
  5
BE
330
1F
100
AcDbEntity
  8
0
  6
Continuous
 62
     7
370
    15
100
AcDbSpline
210
0.0
220
0.0
230
1.0
 70
     8
 71
     3
 72
    10
 73
     6
 74
     0
 42
0.00000001
 43
0.00000001
 12
1.0
 22
0.0
 32
0.0
 13
1.0
 23
0.0
 33
0.0
 40
0.0
 40
0.0
 40
0.0
 40
0.0
 40
0.4391154239447497
 40
0.7513662913000362
 40
1.0
 40
1.0
 40
1.0
 40
1.0
 10
241.1887519570774
 20
112.588741147198
 30
0.0
 10
241.3298328994294
 20
112.7657917749852
 30
0.0
 10
241.5712351792125
 20
113.0687414467999
 30
0.0
 10
241.9570387921383
 20
113.5553143927145
 30
0.0
 10
242.1595130705715
 20
113.8113309250251
 30
0.0
 10
242.2492675992435
 20
113.9248201216163
 30
0.0
  0
SPLINE
  5
BF
330
1F
100
AcDbEntity
  8
0
  6
Continuous
 62
     7
370
    15
100
AcDbSpline
210
0.0
220
0.0
230
1.0
 70
     8
 71
     3
 72
    10
 73
     6
 74
     0
 42
0.00000001
 43
0.00000001
 12
1.0
 22
0.0
 32
0.0
 13
1.0
 23
0.0
 33
0.0
 40
0.0
 40
0.0
 40
0.0
 40
0.0
 40
0.4391166315626067
 40
0.7513668109308623
 40
0.9999999999999999
 40
0.9999999999999999
 40
0.9999999999999999
 40
0.9999999999999999
 10
242.2492675992435
 20
113.9248201216163
 30
0.0
 10
242.1461506440417
 20
114.139615509507
 30
0.0
 10
241.9697085504977
 20
114.5071491304218
 30
0.0
 10
241.7481008559459
 20
115.0876097472537
 30
0.0
 10
241.6482451554785
 20
115.3903559570579
 30
0.0
 10
241.6039802643245
 20
115.5245598929526
 30
0.0
  0
SPLINE
  5
C0
330
1F
100
AcDbEntity
  8
0
  6
Continuous
 62
     7
370
    15
100
AcDbSpline
210
0.0
220
0.0
230
1.0
 70
     8
 71
     3
 72
    11
 73
     7
 74
     0
 42
0.00000001
 43
0.00000001
 12
1.0
 22
0.0
 32
0.0
 13
1.0
 23
0.0
 33
0.0
 40
0.0
 40
0.0
 40
0.0
 40
0.0
 40
0.1864160834950553
 40
0.5288406529780774
 40
0.8918897408964069
 40
0.9999999999999999
 40
0.9999999999999999
 40
0.9999999999999999
 40
0.9999999999999999
 10
241.6039802643245
 20
115.5245598929526
 30
0.0
 10
241.4989908819213
 20
115.5334992225028
 30
0.0
 10
241.2011482682106
 20
115.5588590562031
 30
0.0
 10
240.6565976402651
 20
115.6281156806266
 30
0.0
 10
240.1914923050627
 20
115.719720352673
 30
0.0
 10
239.9529253227849
 20
115.7754362385979
 30
0.0
 10
239.89818473782
 20
115.7882205734553
 30
0.0
  0
SPLINE
  5
C1
330
1F
100
AcDbEntity
  8
0
  6
Continuous
 62
     7
370
    15
100
AcDbSpline
210
0.0
220
0.0
230
1.0
 70
     8
 71
     3
 72
    10
 73
     6
 74
     0
 42
0.00000001
 43
0.00000001
 12
1.0
 22
0.0
 32
0.0
 13
1.0
 23
0.0
 33
0.0
 40
0.0
 40
0.0
 40
0.0
 40
0.0
 40
0.4391164084113117
 40
0.751366658126077
 40
1.0
 40
1.0
 40
1.0
 40
1.0
 10
239.89818473782
 20
115.7882205734553
 30
0.0
 10
239.735624962727
 20
115.5827312097519
 30
0.0
 10
239.4574709411105
 20
115.231120899755
 30
0.0
 10
239.088005426453
 20
114.7661758790853
 30
0.0
 10
238.9145568739649
 20
114.5485935132333
 30
0.0
 10
238.8376690956539
 20
114.4521417154522
 30
0.0
  0
SPLINE
  5
C2
330
1F
100
AcDbEntity
  8
0
  6
Continuous
 62
     7
370
    15
100
AcDbSpline
210
0.0
220
0.0
230
1.0
 70
     8
 71
     3
 72
    10
 73
     6
 74
     0
 42
0.00000001
 43
0.00000001
 12
1.0
 22
0.0
 32
0.0
 13
1.0
 23
0.0
 33
0.0
 40
0.0
 40
0.0
 40
0.0
 40
0.0
 40
0.4391159452199253
 40
0.7513665538177645
 40
1.0
 40
1.0
 40
1.0
 40
1.0
 10
238.8376690956539
 20
114.4521417154522
 30
0.0
 10
238.9193070855338
 20
114.2089069633038
 30
0.0
 10
239.0589969687739
 20
113.7927106045061
 30
0.0
 10
239.2969434386862
 20
113.2338812198153
 30
0.0
 10
239.4258248044468
 20
112.9695686599083
 30
0.0
 10
239.4829564305729
 20
112.8524019441159
 30
0.0
  0
LINE
  5
C3
330
1F
100
AcDbEntity
  8
0
  6
Continuous
 62
     7
370
    15
100
AcDbLine
 10
239.5080797883
 20
115.2716648358
 30
0.0
 11
239.8981847378
 21
115.7882205735
 31
0.0
  0
LINE
  5
C4
330
1F
100
AcDbEntity
  8
0
  6
Continuous
 62
     7
370
    15
100
AcDbLine
 10
239.5080797883
 20
115.2716648358
 30
0.0
 11
238.9778219673
 21
114.6036255232
 31
0.0
  0
LINE
  5
C5
330
1F
100
AcDbEntity
  8
0
  6
Continuous
 62
     7
370
    15
100
AcDbLine
 10
241.8591626498
 20
113.4082643839
 30
0.0
 11
241.5365227076
 21
114.2081342696
 31
0.0
  0
LINE
  5
C6
330
1F
100
AcDbEntity
  8
0
  6
Continuous
 62
     7
370
    15
100
AcDbLine
 10
241.5365227076
 20
114.2081342696
 30
0.0
 11
241.2138753149
 21
115.0080041552
 31
0.0
  0
LINE
  5
C7
330
1F
100
AcDbEntity
  8
0
  6
Continuous
 62
     7
370
    15
100
AcDbLine
 10
241.2138753149
 20
115.0080041552
 30
0.0
 11
241.6039802643
 21
115.524559893
 31
0.0
  0
LINE
  5
C8
330
1F
100
AcDbEntity
  8
0
  6
Continuous
 62
     7
370
    15
100
AcDbLine
 10
241.2138753149
 20
115.0080041552
 30
0.0
 11
240.3609775516
 21
115.1398342627
 31
0.0
  0
LINE
  5
C9
330
1F
100
AcDbEntity
  8
0
  6
Continuous
 62
     7
370
    15
100
AcDbLine
 10
240.3609775516
 20
115.1398342627
 30
0.0
 11
239.5080797883
 21
115.2716648358
 31
0.0
  0
ARC
  5
CA
330
1F
100
AcDbEntity
  8
0
  6
Continuous
 62
     7
370
    15
100
AcDbCircle
 10
240.1718579343
 20
113.6521550576
 30
0.0
 40
1.473574846251485
100
AcDbArc
 50
326.5017728471
 51
22.1665141514
  0
ARC
  5
CB
330
1F
100
AcDbEntity
  8
0
  6
Continuous
 62
     7
370
    15
100
AcDbCircle
 10
240.1301554677
 20
113.6832061259
 30
0.0
 40
1.474803160813868
100
AcDbArc
 50
80.9955929725
 51
141.3841010146
  0
ARC
  5
CC
330
1F
100
AcDbEntity
  8
0
  6
Continuous
 62
     7
370
    15
100
AcDbCircle
 10
240.1278774571
 20
113.6382722333
 30
0.0
 40
1.519547360893518
100
AcDbArc
 50
22.0256052971
 51
81.1759283674
  0
LINE
  5
CD
330
1F
100
AcDbEntity
  8
0
  6
Continuous
 62
     7
370
    15
100
AcDbLine
 10
238.5256238791
 20
119.3757845613
 30
0.0
 11
250.4972763869
 21
120.2435713785
 31
0.0
  0
ARC
  5
CE
330
1F
100
AcDbEntity
  8
0
  6
Continuous
 62
     7
370
    15
100
AcDbCircle
 10
238.4967446111
 20
119.7781880954
 30
0.0
 40
0.403438491459443
100
AcDbArc
 50
175.304823703
 51
274.1049046647
  0
LINE
  5
CF
330
1F
100
AcDbEntity
  8
0
  6
Continuous
 62
     7
370
    15
100
AcDbLine
 10
239.1420402142
 20
131.7163367348
 30
0.0
 11
238.0946599456
 21
119.8112113925
 31
0.0
  0
ARC
  5
D0
330
1F
100
AcDbEntity
  8
0
  6
Continuous
 62
     7
370
    15
100
AcDbCircle
 10
239.5304199804
 20
131.6821624917
 30
0.0
 40
0.3898803940853484
100
AcDbArc
 50
93.934337063
 51
174.9713913971
  0
LINE
  5
D1
330
1F
100
AcDbEntity
  8
0
  6
Continuous
 62
     7
370
    15
100
AcDbLine
 10
251.4753215524
 20
132.9389099556
 30
0.0
 11
239.5036690446
 21
132.0711240696
 31
0.0
  0
ARC
  5
D2
330
1F
100
AcDbEntity
  8
0
  6
Continuous
 62
     7
370
    15
100
AcDbCircle
 10
251.5042017774
 20
132.5365073687
 30
0.0
 40
0.4034376151832264
100
AcDbArc
 50
355.3046785069
 51
94.1050498609
  0
LINE
  5
D3
330
1F
100
AcDbEntity
  8
0
  6
Continuous
 62
     7
370
    15
100
AcDbLine
 10
250.8588977667
 20
120.598357782
 30
0.0
 11
251.9062854859
 21
132.5034831243
 31
0.0
  0
ARC
  5
D4
330
1F
100
AcDbEntity
  8
0
  6
Continuous
 62
     7
370
    15
100
AcDbCircle
 10
250.4705311189
 20
120.6325191133
 30
0.0
 40
0.3898661946426489
100
AcDbArc
 50
273.9336456656
 51
354.9731126722
  0
ARC
  5
D5
330
1F
100
AcDbEntity
  8
0
  6
Continuous
 62
     7
370
    15
100
AcDbCircle
 10
251.5044874006
 20
132.5368722836
 30
0.0
 40
0.3832658131406252
100
AcDbArc
 50
355.3045677147
 51
94.1052138524
  0
LINE
  5
D6
330
1F
100
AcDbEntity
  8
0
  6
Continuous
 62
     7
370
    15
100
AcDbLine
 10
251.4770500871
 20
132.9191547411
 30
0.0
 11
239.5053975793
 21
132.0513688552
 31
0.0
  0
ARC
  5
D7
330
1F
100
AcDbEntity
  8
0
  6
Continuous
 62
     7
370
    15
100
AcDbCircle
 10
239.5308076827
 20
131.6818680395
 30
0.0
 40
0.3703734954555549
100
AcDbArc
 50
93.933964608
 51
174.9731134375
  0
LINE
  5
D8
330
1F
100
AcDbEntity
  8
0
  6
Continuous
 62
     7
370
    15
100
AcDbLine
 10
239.1618587586
 20
131.7143213528
 30
0.0
 11
238.1144710394
 21
119.8091950791
 31
0.0
  0
ARC
  5
D9
330
1F
100
AcDbEntity
  8
0
  6
Continuous
 62
     7
370
    15
100
AcDbCircle
 10
238.4964549673
 20
119.7778260105
 30
0.0
 40
0.3832698000342672
100
AcDbArc
 50
175.3053229332
 51
274.105630231
  0
LINE
  5
DA
330
1F
100
AcDbEntity
  8
0
  6
Continuous
 62
     7
370
    15
100
AcDbLine
 10
238.5238953444
 20
119.3955397757
 30
0.0
 11
250.4955404016
 21
120.263326593
 31
0.0
  0
ARC
  5
DB
330
1F
100
AcDbEntity
  8
0
  6
Continuous
 62
     7
370
    15
100
AcDbCircle
 10
250.4701349878
 20
120.6328307845
 30
0.0
 40
0.3703765416862871
100
AcDbArc
 50
273.9332050338
 51
354.9726306356
  0
LINE
  5
DC
330
1F
100
AcDbEntity
  8
0
  6
Continuous
 62
     7
370
    15
100
AcDbLine
 10
250.8390866729
 20
120.6003740954
 30
0.0
 11
251.8864669415
 21
132.5054985064
 31
0.0
  0
LINE
  5
DD
330
1F
100
AcDbEntity
  8
0
  6
Continuous
 62
     7
370
    15
100
AcDbLine
 10
239.3315680834
 20
120.5704544263
 30
0.0
 11
238.4680234405
 21
119.7405249404
 31
0.0
  0
LINE
  5
DE
330
1F
100
AcDbEntity
  8
0
  6
Continuous
 62
     7
370
    15
100
AcDbLine
 10
249.831611714
 20
121.1351031961
 30
0.0
 11
250.4396759483
 21
120.6083117577
 31
0.0
  0
LINE
  5
DF
330
1F
100
AcDbEntity
  8
0
  6
Continuous
 62
     7
370
    15
100
AcDbLine
 10
249.7407593342
 20
119.5659652876
 30
0.0
 11
249.999719164
 21
119.5847360941
 31
0.0
  0
LINE
  5
E0
330
1F
100
AcDbEntity
  8
0
  6
Continuous
 62
     7
370
    15
100
AcDbLine
 10
237.9694529387
 20
123.3847389522
 30
0.0
 11
237.6074515792
 21
119.2699788662
 31
0.0
  0
LINE
  5
E1
330
1F
100
AcDbEntity
  8
0
  6
Continuous
 62
     7
370
    15
100
AcDbLine
 10
240.0484480473
 20
131.0195267724
 30
0.0
 11
239.5154037091
 21
131.6456512141
 31
0.0
  0
ARC
  5
E2
330
1F
100
AcDbEntity
  8
0
  6
Continuous
 62
     7
370
    15
100
AcDbCircle
 10
241.3718050679
 20
122.601318312
 30
0.0
 40
1.008594522659838
100
AcDbArc
 50
175.3046953024
 51
274.1052311624
  0
SPLINE
  5
E3
330
1F
100
AcDbEntity
  8
0
  6
Continuous
 62
     7
370
    15
100
AcDbSpline
210
0.0
220
0.0
230
1.0
 70
     8
 71
     3
 72
    11
 73
     7
 74
     0
 42
0.00000001
 43
0.00000001
 12
1.0
 22
0.0
 32
0.0
 13
1.0
 23
0.0
 33
0.0
 40
0.0
 40
0.0
 40
0.0
 40
0.0
 40
0.336786342577428
 40
0.6790120578130295
 40
0.9923722046618774
 40
0.9999999999999999
 40
0.9999999999999999
 40
0.9999999999999999
 40
0.9999999999999999
 10
239.331568083424
 20
120.5704544263484
 30
0.0
 10
239.3846347377334
 20
120.6217875207505
 30
0.0
 10
239.491625115871
 20
120.7252827806744
 30
0.0
 10
239.6639493577194
 20
120.8956647130441
 30
0.0
 10
239.7738264655803
 20
121.005638675848
 30
0.0
 10
239.8244940014603
 20
121.0567272159288
 30
0.0
 10
239.8256980391926
 20
121.0579412581922
 30
0.0
  0
LINE
  5
E4
330
1F
100
AcDbEntity
  8
0
  6
Continuous
 62
     7
370
    15
100
AcDbLine
 10
241.4440088483
 20
121.5953115898
 30
0.0
 11
248.1441073629
 21
122.0809795486
 31
0.0
  0
LINE
  5
E5
330
1F
100
AcDbEntity
  8
0
  6
Continuous
 62
     7
370
    15
100
AcDbLine
 10
240.9527771684
 20
129.3467466312
 30
0.0
 11
240.3665952894
 21
122.6838786679
 31
0.0
  0
ARC
  5
E6
330
1F
100
AcDbEntity
  8
0
  6
Continuous
 62
     7
370
    15
100
AcDbCircle
 10
241.9237025822
 20
129.2613373513
 30
0.0
 40
0.9746747684321588
100
AcDbArc
 50
93.9336873127
 51
174.972809446
  0
LINE
  5
E7
330
1F
100
AcDbEntity
  8
0
  6
Continuous
 62
     7
370
    15
100
AcDbLine
 10
248.5569365832
 20
130.7193838584
 30
0.0
 11
241.8568380686
 21
130.2337158995
 31
0.0
  0
ARC
  5
E8
330
1F
100
AcDbEntity
  8
0
  6
Continuous
 62
     7
370
    15
100
AcDbCircle
 10
248.6291375013
 20
129.7133743031
 30
0.0
 40
1.008597143491889
100
AcDbArc
 50
355.3048690081
 51
94.1050574567
  0
LINE
  5
E9
330
1F
100
AcDbEntity
  8
0
  6
Continuous
 62
     7
370
    15
100
AcDbLine
 10
249.0481682631
 20
122.9679478856
 30
0.0
 11
249.6343501421
 21
129.6308167803
 31
0.0
  0
ARC
  5
EA
330
1F
100
AcDbEntity
  8
0
  6
Continuous
 62
     7
370
    15
100
AcDbCircle
 10
248.0772456218
 20
123.0533553606
 30
0.0
 40
0.9746718484798657
100
AcDbArc
 50
273.933535753
 51
354.9729008559
  0
CIRCLE
  5
EB
330
1F
100
AcDbEntity
  8
0
  6
Continuous
 62
     7
370
    15
100
AcDbCircle
 10
245.0132086027
 20
126.1243636088
 30
0.0
 40
2.553485356329027
  0
ARC
  5
EC
330
1F
100
AcDbEntity
  8
0
  6
Continuous
 62
     7
370
    15
100
AcDbCircle
 10
244.4809862518
 20
125.465434671
 30
0.0
 40
2.588006759760888
100
AcDbArc
 50
354.9683078811
 51
132.8719646415
  0
LWPOLYLINE
  5
ED
330
1F
100
AcDbEntity
  8
0
  6
Continuous
 62
     7
370
    15
100
AcDbPolyline
 90
        3
 70
   128
 43
0.0
 10
246.7831843111
 20
124.2937367933
 10
246.9312273475
 20
124.6376900526
 10
247.0590197059
 20
125.2384489926
  0
LINE
  5
EE
330
1F
100
AcDbEntity
  8
0
  6
Continuous
 62
     7
370
    15
100
AcDbLine
 10
250.5226754161
 20
131.5499913471
 30
0.0
 11
251.4870562169
 21
132.5134371
 31
0.0
  0
SPLINE
  5
EF
330
1F
100
AcDbEntity
  8
0
  6
Continuous
 62
     7
370
    15
100
AcDbSpline
210
0.0
220
0.0
230
1.0
 70
     8
 71
     3
 72
    11
 73
     7
 74
     0
 42
0.00000001
 43
0.00000001
 12
1.0
 22
0.0
 32
0.0
 13
1.0
 23
0.0
 33
0.0
 40
0.0
 40
0.0
 40
0.0
 40
0.0
 40
0.008121024138984
 40
0.3263738121362721
 40
0.6627690932845471
 40
1.0
 40
1.0
 40
1.0
 40
1.0
 10
249.3488662454075
 20
121.635039016843
 30
0.0
 10
249.3499530171984
 20
121.6337065373232
 30
0.0
 10
249.3936290174479
 20
121.5801558504837
 30
0.0
 10
249.4922893866422
 20
121.4659637120387
 30
0.0
 10
249.6600770017127
 20
121.2900571325521
 30
0.0
 10
249.7743862101658
 20
121.1867972058655
 30
0.0
 10
249.8316117140239
 20
121.1351031961443
 30
0.0
  0
ARC
  5
F0
330
1F
100
AcDbEntity
  8
0
  6
Continuous
 62
     7
370
    15
100
AcDbCircle
 10
249.9723791905
 20
119.9750285835
 30
0.0
 40
0.3912488996141
100
AcDbArc
 50
274.0070215104
 51
322.8554402186
  0
SPLINE
  5
F1
330
1F
100
AcDbEntity
  8
0
  6
Continuous
 62
     7
370
    15
100
AcDbSpline
210
0.0
220
0.0
230
1.0
 70
     8
 71
     3
 72
    11
 73
     7
 74
     0
 42
0.00000001
 43
0.00000001
 12
1.0
 22
0.0
 32
0.0
 13
1.0
 23
0.0
 33
0.0
 40
0.0
 40
0.0
 40
0.0
 40
0.0
 40
0.3372307197795817
 40
0.6736324634006224
 40
0.9918875394267409
 40
1.0
 40
1.0
 40
1.0
 40
1.0
 10
240.0484480472988
 20
131.0195267724396
 30
0.0
 10
240.1004283959773
 20
130.9608852011566
 30
0.0
 10
240.204261315919
 20
130.8437462105364
 30
0.0
 10
240.3775025328005
 20
130.6750941074036
 30
0.0
 10
240.4886230633169
 20
130.577309621039
 30
0.0
 10
240.5403533785462
 20
130.5344910144967
 30
0.0
 10
240.5416392299122
 20
130.5334266799094
 30
0.0
  0
ARC
  5
F2
330
1F
100
AcDbEntity
  8
0
  6
Continuous
 62
     7
370
    15
100
AcDbCircle
 10
239.032234553
 20
131.0237691328
 30
0.0
 40
0.3892087199913261
100
AcDbArc
 50
142.9552712234
 51
175.0278585291
  0
SPLINE
  5
F3
330
1F
100
AcDbEntity
  8
0
  6
Continuous
 62
     7
370
    15
100
AcDbSpline
210
0.0
220
0.0
230
1.0
 70
     8
 71
     3
 72
    11
 73
     7
 74
     0
 42
0.00000001
 43
0.00000001
 12
1.0
 22
0.0
 32
0.0
 13
1.0
 23
0.0
 33
0.0
 40
0.0
 40
0.0
 40
0.0
 40
0.0
 40
0.0076299008375415
 40
0.3209907373736039
 40
0.663217929351522
 40
1.0
 40
1.0
 40
1.0
 40
1.0
 10
250.0443034383243
 20
131.0833633469941
 30
0.0
 10
250.0453183916023
 20
131.0843267265469
 30
0.0
 10
250.0880175836412
 20
131.1248562064981
 30
0.0
 10
250.1851184648913
 20
131.2179188973269
 30
0.0
 10
250.3498281625459
 20
131.3782173564477
 30
0.0
 10
250.4653685125753
 20
131.4930402801465
 30
0.0
 10
250.5226754161304
 20
131.5499913471343
 30
0.0
  0
LINE
  5
F4
330
1F
100
AcDbEntity
  8
0
  6
Continuous
 62
     7
370
    15
100
AcDbLine
 10
242.5083242866
 20
126.3700357231
 30
0.0
 11
242.8366788241
 21
126.7105076986
 31
0.0
  0
LINE
  5
F5
330
1F
100
AcDbEntity
  8
0
  6
Continuous
 62
     7
370
    15
100
AcDbLine
 10
242.8366788241
 20
126.7105076986
 30
0.0
 11
242.5153427335
 21
125.8361271175
 31
0.0
  0
LINE
  5
F6
330
1F
100
AcDbEntity
  8
0
  6
Continuous
 62
     7
370
    15
100
AcDbLine
 10
242.5153427335
 20
125.8361271175
 30
0.0
 11
242.4675100061
 21
125.7865313964
 31
0.0
  0
ELLIPSE
  5
F7
330
1F
100
AcDbEntity
  8
0
  6
Continuous
 62
     7
370
    15
100
AcDbEllipse
 10
244.7320077669
 20
125.4981217591
 30
0.0
 11
1.759005141004934
 21
-1.403439041303344
 31
0.0
210
0.0
220
0.0
230
1.0
 40
0.9859532801
 41
0.528252941498099
 42
3.247423834369544
  0
ELLIPSE
  5
F8
330
1F
100
AcDbEntity
  8
0
  6
Continuous
 62
     7
370
    15
100
AcDbEllipse
 10
244.7320077669
 20
125.4981217591
 30
0.0
 11
1.759005141004934
 21
-1.403439041303344
 31
0.0
210
0.0
220
0.0
230
1.0
 40
0.9859532801
 41
3.669845595087896
 42
6.389016487959335
  0
LINE
  5
F9
330
1F
100
AcDbEntity
  8
0
  6
Continuous
 62
     7
370
    15
100
AcDbLine
 10
246.6273405167
 20
124.2857348698
 30
0.0
 11
246.9486766073
 21
125.1601163822
 31
0.0
  0
LWPOLYLINE
  5
FA
330
1F
100
AcDbEntity
  8
0
  6
Continuous
 62
     7
370
    15
100
AcDbPolyline
 90
        3
 70
   128
 43
0.0
 10
242.6386274907
 20
127.1902803856
 10
243.0303641173
 20
127.3167875188
 10
243.5246430847
 20
127.3930591124
  0
LWPOLYLINE
  5
FB
330
1F
100
AcDbEntity
  8
0
  6
Continuous
 62
     7
370
    15
100
AcDbPolyline
 90
        3
 70
   128
 43
0.0
 10
246.6369666668
 20
124.3119348364
 10
246.6256045314
 20
124.1774956288
 10
246.6229968282
 20
124.1543848591
  0
LINE
  5
FC
330
1F
100
AcDbEntity
  8
0
  6
HIDDEN
 62
     7
370
     0
100
AcDbLine
 10
161.9077981028
 20
91.5399525838
 30
0.0
 11
161.9077981028
 21
130.3399537283
 31
0.0
  0
SPLINE
  5
FD
330
1F
100
AcDbEntity
  8
0
  6
HIDDEN
 62
     7
370
     0
100
AcDbSpline
210
0.0
220
0.0
230
1.0
 70
     8
 71
     3
 72
    58
 73
    54
 74
     0
 42
0.00000001
 43
0.00000001
 12
1.0
 22
0.0
 32
0.0
 13
1.0
 23
0.0
 33
0.0
 40
-0.0624999999999997
 40
-0.0624999999999997
 40
0.0
 40
0.0
 40
0.0312500000000002
 40
0.0312500000000002
 40
0.0625000000000004
 40
0.0625000000000004
 40
0.0937500000000006
 40
0.0937500000000006
 40
0.1250000000000008
 40
0.1250000000000008
 40
0.1875000000000009
 40
0.1875000000000009
 40
0.2500000000000011
 40
0.2500000000000011
 40
0.2812500000000011
 40
0.2812500000000011
 40
0.3125000000000012
 40
0.3125000000000012
 40
0.3437500000000013
 40
0.3437500000000013
 40
0.3750000000000014
 40
0.3750000000000014
 40
0.4062500000000014
 40
0.4062500000000014
 40
0.4375000000000016
 40
0.4375000000000016
 40
0.4687500000000016
 40
0.4687500000000016
 40
0.5000000000000016
 40
0.5000000000000016
 40
0.5625000000000017
 40
0.5625000000000017
 40
0.6250000000000018
 40
0.6250000000000018
 40
0.6562500000000017
 40
0.6562500000000017
 40
0.6875000000000014
 40
0.6875000000000014
 40
0.7187500000000013
 40
0.7187500000000013
 40
0.7500000000000012
 40
0.7500000000000012
 40
0.7812500000000011
 40
0.7812500000000011
 40
0.8125000000000009
 40
0.8125000000000009
 40
0.8437500000000008
 40
0.8437500000000008
 40
0.8750000000000007
 40
0.8750000000000007
 40
0.9375000000000003
 40
0.9375000000000003
 40
1.0
 40
1.0
 40
1.03125
 40
1.03125
 10
151.9077985497898
 20
110.6755170416062
 30
0.0
 10
151.9077985497898
 20
111.0721712132782
 30
0.0
 10
151.920780587462
 20
111.2021633741187
 30
0.0
 10
151.9716313897203
 20
111.457882986571
 30
0.0
 10
152.0101232937732
 20
111.5849416704321
 30
0.0
 10
152.1105385794997
 20
111.8271048680909
 30
0.0
 10
152.1719747187727
 20
111.9419466524757
 30
0.0
 10
152.3171081950835
 20
112.1592888500458
 30
0.0
 10
152.4015298839346
 20
112.2621304978936
 30
0.0
 10
152.6781300580995
 20
112.5386739786451
 30
0.0
 10
152.9011289693666
 20
112.6876566147773
 30
0.0
 10
153.3823634869523
 20
112.887199678332
 30
0.0
 10
153.6456629024613
 20
112.9398101513634
 30
0.0
 10
154.0372263425015
 20
112.9400242101159
 30
0.0
 10
154.1698139531062
 20
112.9270253607104
 30
0.0
 10
154.4263796587055
 20
112.875975276684
 30
0.0
 10
154.551089424886
 20
112.8382040378718
 30
0.0
 10
154.793328609913
 20
112.7380121297593
 30
0.0
 10
154.9103452636867
 20
112.6754267359348
 30
0.0
 10
155.126988468533
 20
112.5307216502242
 30
0.0
 10
155.2279952249915
 20
112.448102308844
 30
0.0
 10
155.4148013206481
 20
112.261458274054
 30
0.0
 10
155.4975148561799
 20
112.1605124260941
 30
0.0
 10
155.6423849855553
 20
111.9440312224124
 30
0.0
 10
155.705055281652
 20
111.827114057404
 30
0.0
 10
155.8054832196882
 20
111.5849175882055
 30
0.0
 10
155.8433543986179
 20
111.460256597302
 30
0.0
 10
155.8946167963936
 20
111.203857248234
 30
0.0
 10
155.9077504370343
 20
111.0712463229362
 30
0.0
 10
155.9078943701731
 20
110.6795717106011
 30
0.0
 10
155.8555291129083
 20
110.4162876909405
 30
0.0
 10
155.6563684495576
 20
109.9347749770807
 30
0.0
 10
155.5075707761957
 20
109.7116538900357
 30
0.0
 10
155.2312701176095
 20
109.4348217415282
 30
0.0
 10
155.1285050705498
 20
109.3503145272439
 30
0.0
 10
154.9112877967554
 20
109.204993585558
 30
0.0
 10
154.7965181033176
 20
109.1434713622959
 30
0.0
 10
154.554531566173
 20
109.0428749590239
 30
0.0
 10
154.4274489932816
 20
109.0042470709353
 30
0.0
 10
154.1717742932784
 20
108.9531689608691
 30
0.0
 10
154.0418337759342
 20
108.940079821102
 30
0.0
 10
153.7775704081729
 20
108.9398283027434
 30
0.0
 10
153.6473595145259
 20
108.9527027727998
 30
0.0
 10
153.3916095690923
 20
109.0033216699318
 30
0.0
 10
153.2645921847249
 20
109.0416694887276
 30
0.0
 10
153.0222404569732
 20
109.141903608921
 30
0.0
 10
152.9073376776869
 20
109.203247795911
 30
0.0
 10
152.6899155125379
 20
109.3481528004401
 30
0.0
 10
152.5869791150932
 20
109.4324916925621
 30
0.0
 10
152.3101419579363
 20
109.7088928056039
 30
0.0
 10
152.1609867168721
 20
109.9317364386464
 30
0.0
 10
151.9610161316369
 20
110.4127997198969
 30
0.0
 10
151.9077985497898
 20
110.6755170416062
 30
0.0
 10
151.9077985497898
 20
111.0721712132782
 30
0.0
  0
SPLINE
  5
FE
330
1F
100
AcDbEntity
  8
0
  6
HIDDEN
 62
     7
370
     0
100
AcDbSpline
210
0.0
220
0.0
230
1.0
 70
     8
 71
     3
 72
    12
 73
     8
 74
     0
 42
0.00000001
 43
0.00000001
 12
1.0
 22
0.0
 32
0.0
 13
1.0
 23
0.0
 33
0.0
 40
0.0
 40
0.0
 40
0.0
 40
0.0
 40
0.2500000000000004
 40
0.2500000000000004
 40
0.5000000000000008
 40
0.5000000000000008
 40
1.0
 40
1.0
 40
1.0
 40
1.0
 10
148.839700551789
 20
105.1107401604025
 30
0.0
 10
148.8021886657443
 20
105.1107401604025
 30
0.0
 10
148.7669013180396
 20
105.0959353461158
 30
0.0
 10
148.7079714698012
 20
105.0523434729899
 30
0.0
 10
148.6844457433321
 20
105.0248300469039
 30
0.0
 10
148.624186955564
 20
104.9356983147903
 30
0.0
 10
148.5985921932747
 20
104.8693124641725
 30
0.0
 10
148.5798929306537
 20
104.8017080289951
 30
0.0
  0
LINE
  5
FF
330
1F
100
AcDbEntity
  8
0
  6
HIDDEN
 62
     7
370
     0
100
AcDbLine
 10
150.975896469
 20
105.110739969
 30
0.0
 11
148.8397004592
 21
105.110739969
 31
0.0
  0
SPLINE
  5
100
330
1F
100
AcDbEntity
  8
0
  6
HIDDEN
 62
     7
370
     0
100
AcDbSpline
210
0.0
220
0.0
230
1.0
 70
     8
 71
     3
 72
    12
 73
     8
 74
     0
 42
0.00000001
 43
0.00000001
 12
1.0
 22
0.0
 32
0.0
 13
1.0
 23
0.0
 33
0.0
 40
0.0
 40
0.0
 40
0.0
 40
0.0
 40
0.4999999999999916
 40
0.4999999999999916
 40
0.7499999999999958
 40
0.7499999999999958
 40
1.0
 40
1.0
 40
1.0
 40
1.0
 10
151.235704168926
 20
104.8017080289951
 30
0.0
 10
151.2170109357955
 20
104.8692906654355
 30
0.0
 10
151.1913556383837
 20
104.9357732349129
 30
0.0
 10
151.1311950156973
 20
105.0247683178105
 30
0.0
 10
151.1071227039429
 20
105.0527702148096
 30
0.0
 10
151.0487411835924
 20
105.0958466154748
 30
0.0
 10
151.0132723559393
 20
105.1107401604025
 30
0.0
 10
150.9758965477906
 20
105.1107401604025
 30
0.0
  0
ELLIPSE
  5
101
330
1F
100
AcDbEntity
  8
0
  6
HIDDEN
 62
     7
370
     0
100
AcDbEllipse
 10
140.9588693774
 20
110.9399531561
 30
0.0
 11
-9.367417879781755
 21
19.74174915274993
 31
0.0
210
0.0
220
0.0
230
1.0
 40
0.3419987131
 41
3.292664382516899
 42
4.239566697061004
  0
SPLINE
  5
102
330
1F
100
AcDbEntity
  8
0
  6
HIDDEN
 62
     7
370
     0
100
AcDbSpline
210
0.0
220
0.0
230
1.0
 70
     8
 71
     3
 72
    12
 73
     8
 74
     0
 42
0.00000001
 43
0.00000001
 12
1.0
 22
0.0
 32
0.0
 13
1.0
 23
0.0
 33
0.0
 40
0.0
 40
0.0
 40
0.0
 40
0.0
 40
0.249999999999997
 40
0.249999999999997
 40
0.499999999999994
 40
0.499999999999994
 40
1.0
 40
1.0
 40
1.0
 40
1.0
 10
150.9758965477906
 20
91.80829677582084
 30
0.0
 10
151.0134084338353
 20
91.80829677582084
 30
0.0
 10
151.04869578154
 20
91.81280032008337
 30
0.0
 10
151.1076256297784
 20
91.82617351953668
 30
0.0
 10
151.1311513562475
 20
91.8346584221078
 30
0.0
 10
151.1914101440156
 20
91.86240622594238
 30
0.0
 10
151.2170049063049
 20
91.88339608968275
 30
0.0
 10
151.235704168926
 20
91.90519687287228
 30
0.0
  0
LINE
  5
103
330
1F
100
AcDbEntity
  8
0
  6
HIDDEN
 62
     7
370
     0
100
AcDbLine
 10
148.8397004592
 20
91.8082964199
 30
0.0
 11
150.975896469
 21
91.8082964199
 31
0.0
  0
SPLINE
  5
104
330
1F
100
AcDbEntity
  8
0
  6
HIDDEN
 62
     7
370
     0
100
AcDbSpline
210
0.0
220
0.0
230
1.0
 70
     8
 71
     3
 72
    12
 73
     8
 74
     0
 42
0.00000001
 43
0.00000001
 12
1.0
 22
0.0
 32
0.0
 13
1.0
 23
0.0
 33
0.0
 40
0.0
 40
0.0
 40
0.0
 40
0.0
 40
0.4999999999999978
 40
0.4999999999999978
 40
0.7499999999999989
 40
0.7499999999999989
 40
1.0
 40
1.0
 40
1.0
 40
1.0
 10
148.5798929306537
 20
91.90519687287228
 30
0.0
 10
148.5985861637841
 20
91.88340311924432
 30
0.0
 10
148.6242414611959
 20
91.86238295753468
 30
0.0
 10
148.6844020838823
 20
91.83467761157098
 30
0.0
 10
148.7084743956367
 20
91.82604239537758
 30
0.0
 10
148.7668559159872
 20
91.81282775015102
 30
0.0
 10
148.8023247436402
 20
91.80829677582084
 30
0.0
 10
148.839700551789
 20
91.80829677582084
 30
0.0
  0
ELLIPSE
  5
105
330
1F
100
AcDbEntity
  8
0
  6
HIDDEN
 62
     7
370
     0
100
AcDbEllipse
 10
158.8567277222
 20
110.9399531561
 30
0.0
 11
9.367417879781613
 21
19.74174915274993
 31
0.0
210
0.0
220
0.0
230
1.0
 40
0.3419987131
 41
2.043618610118592
 42
2.990520924662723
  0
SPLINE
  5
106
330
1F
100
AcDbEntity
  8
0
  6
HIDDEN
 62
     7
370
     0
100
AcDbSpline
210
0.0
220
0.0
230
1.0
 70
     8
 71
     3
 72
    12
 73
     8
 74
     0
 42
0.00000001
 43
0.00000001
 12
1.0
 22
0.0
 32
0.0
 13
1.0
 23
0.0
 33
0.0
 40
0.0
 40
0.0
 40
0.0
 40
0.0
 40
0.2500000000000008
 40
0.2500000000000008
 40
0.5000000000000016
 40
0.5000000000000016
 40
1.0
 40
1.0
 40
1.0
 40
1.0
 10
148.839700551789
 20
130.0716095362876
 30
0.0
 10
148.8021886657443
 20
130.0716095362876
 30
0.0
 10
148.7669013180396
 20
130.0671059920251
 30
0.0
 10
148.7079714698012
 20
130.0537327925718
 30
0.0
 10
148.6844457433321
 20
130.0452478900007
 30
0.0
 10
148.624186955564
 20
130.0175000861661
 30
0.0
 10
148.5985921932747
 20
129.9965102224257
 30
0.0
 10
148.5798929306537
 20
129.9747094392362
 30
0.0
  0
LINE
  5
107
330
1F
100
AcDbEntity
  8
0
  6
HIDDEN
 62
     7
370
     0
100
AcDbLine
 10
150.975896469
 20
130.0716098922
 30
0.0
 11
148.8397004592
 21
130.0716098922
 31
0.0
  0
SPLINE
  5
108
330
1F
100
AcDbEntity
  8
0
  6
HIDDEN
 62
     7
370
     0
100
AcDbSpline
210
0.0
220
0.0
230
1.0
 70
     8
 71
     3
 72
    12
 73
     8
 74
     0
 42
0.00000001
 43
0.00000001
 12
1.0
 22
0.0
 32
0.0
 13
1.0
 23
0.0
 33
0.0
 40
0.0
 40
0.0
 40
0.0
 40
0.0
 40
0.4999999999999947
 40
0.4999999999999947
 40
0.7499999999999973
 40
0.7499999999999973
 40
1.0
 40
1.0
 40
1.0
 40
1.0
 10
151.235704168926
 20
129.9747094392362
 30
0.0
 10
151.2170109357955
 20
129.9965031928642
 30
0.0
 10
151.1913556383837
 20
130.0175233545738
 30
0.0
 10
151.1311950156973
 20
130.0452287005375
 30
0.0
 10
151.1071227039429
 20
130.0538639167309
 30
0.0
 10
151.0487411835924
 20
130.0670785619575
 30
0.0
 10
151.0132723559393
 20
130.0716095362876
 30
0.0
 10
150.9758965477906
 20
130.0716095362876
 30
0.0
  0
ELLIPSE
  5
109
330
1F
100
AcDbEntity
  8
0
  6
HIDDEN
 62
     7
370
     0
100
AcDbEllipse
 10
140.9588693774
 20
110.9399531561
 30
0.0
 11
9.36741787978184
 21
19.74174915274993
 31
0.0
210
0.0
220
0.0
230
1.0
 40
0.3419987131
 41
5.185211263708412
 42
6.132113578252568
  0
SPLINE
  5
10A
330
1F
100
AcDbEntity
  8
0
  6
HIDDEN
 62
     7
370
     0
100
AcDbSpline
210
0.0
220
0.0
230
1.0
 70
     8
 71
     3
 72
    12
 73
     8
 74
     0
 42
0.00000001
 43
0.00000001
 12
1.0
 22
0.0
 32
0.0
 13
1.0
 23
0.0
 33
0.0
 40
0.0
 40
0.0
 40
0.0
 40
0.0
 40
0.2500000000000042
 40
0.2500000000000042
 40
0.5000000000000084
 40
0.5000000000000084
 40
1.0
 40
1.0
 40
1.0
 40
1.0
 10
150.9758965477906
 20
116.7691661517061
 30
0.0
 10
151.0134084338353
 20
116.7691661517061
 30
0.0
 10
151.04869578154
 20
116.7839709659929
 30
0.0
 10
151.1076256297784
 20
116.8275628391187
 30
0.0
 10
151.1311513562475
 20
116.8550762652047
 30
0.0
 10
151.1914101440156
 20
116.9442079973183
 30
0.0
 10
151.2170049063049
 20
117.0105938479361
 30
0.0
 10
151.235704168926
 20
117.0781982831135
 30
0.0
  0
LINE
  5
10B
330
1F
100
AcDbEntity
  8
0
  6
HIDDEN
 62
     7
370
     0
100
AcDbLine
 10
148.8397004592
 20
116.7691663432
 30
0.0
 11
150.975896469
 21
116.7691663432
 31
0.0
  0
SPLINE
  5
10C
330
1F
100
AcDbEntity
  8
0
  6
HIDDEN
 62
     7
370
     0
100
AcDbSpline
210
0.0
220
0.0
230
1.0
 70
     8
 71
     3
 72
    12
 73
     8
 74
     0
 42
0.00000001
 43
0.00000001
 12
1.0
 22
0.0
 32
0.0
 13
1.0
 23
0.0
 33
0.0
 40
0.0
 40
0.0
 40
0.0
 40
0.0
 40
0.500000000000001
 40
0.500000000000001
 40
0.7500000000000004
 40
0.7500000000000004
 40
1.0
 40
1.0
 40
1.0
 40
1.0
 10
148.5798929306537
 20
117.0781982831135
 30
0.0
 10
148.5985861637841
 20
117.0106156466731
 30
0.0
 10
148.6242414611959
 20
116.9441330771957
 30
0.0
 10
148.6844020838823
 20
116.8551379942982
 30
0.0
 10
148.7084743956367
 20
116.827136097299
 30
0.0
 10
148.7668559159872
 20
116.7840596966338
 30
0.0
 10
148.8023247436402
 20
116.7691661517061
 30
0.0
 10
148.839700551789
 20
116.7691661517061
 30
0.0
  0
ELLIPSE
  5
10D
330
1F
100
AcDbEntity
  8
0
  6
HIDDEN
 62
     7
370
     0
100
AcDbEllipse
 10
158.8567277222
 20
110.9399531561
 30
0.0
 11
-9.367417879781726
 21
19.74174915274994
 31
0.0
210
0.0
220
0.0
230
1.0
 40
0.3419987131
 41
0.1510717289270551
 42
1.097974043471188
  0
LINE
  5
10E
330
1F
100
AcDbEntity
  8
0
  6
HIDDEN
 62
     7
370
     0
100
AcDbLine
 10
141.9077985498
 20
91.2399530935
 30
0.0
 11
141.9077985498
 21
130.6399532186
 31
0.0
  0
LINE
  5
10F
330
1F
100
AcDbEntity
  8
0
  6
HIDDEN
 62
     7
370
     0
100
AcDbLine
 10
161.9077981028
 20
92.9399539309
 30
0.0
 11
161.9077981028
 21
128.9212998527
 31
0.0
  0
SPLINE
  5
110
330
1F
100
AcDbEntity
  8
0
  6
HIDDEN
 62
     7
370
     0
100
AcDbSpline
210
0.0
220
0.0
230
1.0
 70
     8
 71
     3
 72
    68
 73
    64
 74
     0
 42
0.00000001
 43
0.00000001
 12
1.0
 22
0.0
 32
0.0
 13
1.0
 23
0.0
 33
0.0
 40
-0.0312500000000008
 40
-0.0312500000000008
 40
0.0
 40
0.0
 40
0.0312499999999998
 40
0.0312499999999998
 40
0.0624999999999996
 40
0.0624999999999996
 40
0.0937499999999994
 40
0.0937499999999994
 40
0.1249999999999992
 40
0.1249999999999992
 40
0.156249999999999
 40
0.156249999999999
 40
0.1874999999999988
 40
0.1874999999999988
 40
0.2187499999999987
 40
0.2187499999999987
 40
0.2499999999999986
 40
0.2499999999999986
 40
0.2812499999999984
 40
0.2812499999999984
 40
0.3124999999999984
 40
0.3124999999999984
 40
0.3437499999999983
 40
0.3437499999999983
 40
0.3749999999999982
 40
0.3749999999999982
 40
0.4062499999999981
 40
0.4062499999999981
 40
0.437499999999998
 40
0.437499999999998
 40
0.4687499999999979
 40
0.4687499999999979
 40
0.4999999999999979
 40
0.4999999999999979
 40
0.5312499999999978
 40
0.5312499999999978
 40
0.5624999999999977
 40
0.5624999999999977
 40
0.5937499999999977
 40
0.5937499999999977
 40
0.6249999999999976
 40
0.6249999999999976
 40
0.6562499999999974
 40
0.6562499999999974
 40
0.6874999999999973
 40
0.6874999999999973
 40
0.7187499999999972
 40
0.7187499999999972
 40
0.7499999999999971
 40
0.7499999999999971
 40
0.7812499999999971
 40
0.7812499999999971
 40
0.812499999999997
 40
0.812499999999997
 40
0.8437499999999969
 40
0.8437499999999969
 40
0.8749999999999969
 40
0.8749999999999969
 40
0.9374999999999984
 40
0.9374999999999984
 40
0.9687499999999992
 40
0.9687499999999992
 40
1.0
 40
1.0
 40
1.03125
 40
1.03125
 10
212.1064648953042
 20
108.9365394209125
 30
0.0
 10
211.7091322042754
 20
108.9365394209125
 30
0.0
 10
211.5138757078032
 20
108.9167937190265
 30
0.0
 10
211.1298752509245
 20
108.8396447161232
 30
0.0
 10
210.9391102915913
 20
108.7812759612872
 30
0.0
 10
210.5760357635903
 20
108.6297391350799
 30
0.0
 10
210.403903994759
 20
108.5372376660504
 30
0.0
 10
210.0781387496406
 20
108.3195931935864
 30
0.0
 10
209.9242468967115
 20
108.1935766315374
 30
0.0
 10
209.6482159529707
 20
107.9195834260623
 30
0.0
 10
209.5241895481919
 20
107.7705581242088
 30
0.0
 10
209.3048561964369
 20
107.4482076343201
 30
0.0
 10
209.2119342312297
 20
107.2779557451162
 30
0.0
 10
209.0621633994567
 20
106.9267893664025
 30
0.0
 10
209.0043188343371
 20
106.7432842823051
 30
0.0
 10
208.9270760035612
 20
106.3704095531908
 30
0.0
 10
208.9079138026493
 20
106.1838903374002
 30
0.0
 10
208.9076843236385
 20
105.8108104765784
 30
0.0
 10
208.9272649942349
 20
105.6224298003551
 30
0.0
 10
209.0039912988682
 20
105.260548374378
 30
0.0
 10
209.0607552995023
 20
105.0856859979975
 30
0.0
 10
209.2114001081157
 20
104.7478124659899
 30
0.0
 10
209.3051355504647
 20
104.5862447355352
 30
0.0
 10
209.5220467901563
 20
104.2880896746402
 30
0.0
 10
209.6465103284513
 20
104.1492251253324
 30
0.0
 10
209.9254763948441
 20
103.8953250053467
 30
0.0
 10
210.0764702355364
 20
103.7832673309488
 30
0.0
 10
210.4008987509892
 20
103.5872582226262
 30
0.0
 10
210.5764878680123
 20
103.5026468331177
 30
0.0
 10
210.9391551680678
 20
103.367674927634
 30
0.0
 10
211.1261378767072
 20
103.3167793325431
 30
0.0
 10
211.5114917003771
 20
103.2478579140938
 30
0.0
 10
211.7105878574473
 20
103.2302706826196
 30
0.0
 10
212.1026022660977
 20
103.2301303943498
 30
0.0
 10
212.2977235417606
 20
103.2470182581302
 30
0.0
 10
212.6861433737554
 20
103.3158919736717
 30
0.0
 10
212.8748279797969
 20
103.3672372180438
 30
0.0
 10
213.2360378261504
 20
103.5013429193547
 30
0.0
 10
213.4111434033067
 20
103.5853156416872
 30
0.0
 10
213.7380013635987
 20
103.7823850579426
 30
0.0
 10
213.8887804579477
 20
103.8944020772999
 30
0.0
 10
214.1655751768021
 20
104.1457373268091
 30
0.0
 10
214.2921519821288
 20
104.2863931214221
 30
0.0
 10
214.5095997158557
 20
104.5848369211074
 30
0.0
 10
214.6019801795305
 20
104.743640466548
 30
0.0
 10
214.7533344953202
 20
105.0815248486705
 30
0.0
 10
214.8110990737679
 20
105.2589477821609
 30
0.0
 10
214.8878705632703
 20
105.6194734429707
 30
0.0
 10
214.907650849896
 20
105.8051276600065
 30
0.0
 10
214.9079446013156
 20
106.1820050868555
 30
0.0
 10
214.8886505672592
 20
106.3686960725107
 30
0.0
 10
214.8124727567331
 20
106.738587888784
 30
0.0
 10
214.7545766200182
 20
106.9237109555415
 30
0.0
 10
214.6043838776505
 20
107.2766589055937
 30
0.0
 10
214.5123926917106
 20
107.445287338173
 30
0.0
 10
214.2945461251678
 20
107.7664274014641
 30
0.0
 10
214.1685044776011
 20
107.9183032486637
 30
0.0
 10
213.7549894367296
 20
108.3292586969768
 30
0.0
 10
213.4211479773598
 20
108.5535872141653
 30
0.0
 10
212.8800250252288
 20
108.7799788752287
 30
0.0
 10
212.6899443027469
 20
108.8386191623203
 30
0.0
 10
212.3026095767723
 20
108.9167901784927
 30
0.0
 10
212.1064648953042
 20
108.9365394209125
 30
0.0
 10
211.7091322042754
 20
108.9365394209125
 30
0.0
  0
LINE
  5
111
330
1F
100
AcDbEntity
  8
0
  6
HIDDEN
 62
     7
370
     0
100
AcDbLine
 10
141.9077985498
 20
95.139953919
 30
0.0
 11
141.9077985498
 21
126.7215028929
 31
0.0
  0
SPLINE
  5
112
330
1F
100
AcDbEntity
  8
0
  6
HIDDEN
 62
     7
370
     0
100
AcDbSpline
210
0.0
220
0.0
230
1.0
 70
     8
 71
     3
 72
    18
 73
    14
 74
     0
 42
0.00000001
 43
0.00000001
 12
1.0
 22
0.0
 32
0.0
 13
1.0
 23
0.0
 33
0.0
 40
0.0
 40
0.0
 40
0.0
 40
0.0
 40
0.250000000000002
 40
0.250000000000002
 40
0.500000000000004
 40
0.500000000000004
 40
0.625000000000003
 40
0.625000000000003
 40
0.750000000000002
 40
0.750000000000002
 40
0.875000000000001
 40
0.875000000000001
 40
1.0
 40
1.0
 40
1.0
 40
1.0
 10
140.6517142322268
 20
120.7643930742055
 30
0.0
 10
140.6860152767595
 20
120.6563828884079
 30
0.0
 10
140.7238355480563
 20
120.5491058003799
 30
0.0
 10
140.8104538685172
 20
120.3376091030634
 30
0.0
 10
140.8588252032607
 20
120.2332227528937
 30
0.0
 10
140.9482281853791
 20
120.0823478302494
 30
0.0
 10
140.9808254692564
 20
120.0330028272138
 30
0.0
 10
141.0572073732013
 20
119.9383971887436
 30
0.0
 10
141.100245810542
 20
119.893401253989
 30
0.0
 10
141.2060588433739
 20
119.8224734813311
 30
0.0
 10
141.271097268105
 20
119.7985269374246
 30
0.0
 10
141.4042493399076
 20
119.8108076014954
 30
0.0
 10
141.4636185203708
 20
119.8441245595003
 30
0.0
 10
141.5128216609145
 20
119.884959445725
 30
0.0
  0
SPLINE
  5
113
330
1F
100
AcDbEntity
  8
0
  6
HIDDEN
 62
     7
370
     0
100
AcDbSpline
210
0.0
220
0.0
230
1.0
 70
     8
 71
     3
 72
    16
 73
    12
 74
     0
 42
0.00000001
 43
0.00000001
 12
1.0
 22
0.0
 32
0.0
 13
1.0
 23
0.0
 33
0.0
 40
0.0
 40
0.0
 40
0.0
 40
0.0
 40
0.0625
 40
0.0625
 40
0.1250000000000001
 40
0.1250000000000001
 40
0.2500000000000002
 40
0.2500000000000002
 40
0.5000000000000003
 40
0.5000000000000003
 40
1.0
 40
1.0
 40
1.0
 40
1.0
 10
141.5128216608837
 20
119.8849594457544
 30
0.0
 10
141.5248914941595
 20
119.8949764947347
 30
0.0
 10
141.5391671490929
 20
119.9039356017904
 30
0.0
 10
141.5706315612173
 20
119.9118059971846
 30
0.0
 10
141.5861320860276
 20
119.9094485065423
 30
0.0
 10
141.6215709826346
 20
119.8924728143643
 30
0.0
 10
141.635163598738
 20
119.8719243231967
 30
0.0
 10
141.6681579171308
 20
119.8099819961831
 30
0.0
 10
141.6789453104495
 20
119.7635864459779
 30
0.0
 10
141.7039985577287
 20
119.6206504172834
 30
0.0
 10
141.7077985497899
 20
119.5210877003979
 30
0.0
 10
141.70779854979
 20
119.4193202957514
 30
0.0
  0
LINE
  5
114
330
1F
100
AcDbEntity
  8
0
  6
HIDDEN
 62
     7
370
     0
100
AcDbLine
 10
141.7077985548
 20
102.4605861458
 30
0.0
 11
141.7077985548
 21
119.4193201663
 31
0.0
  0
SPLINE
  5
115
330
1F
100
AcDbEntity
  8
0
  6
HIDDEN
 62
     7
370
     0
100
AcDbSpline
210
0.0
220
0.0
230
1.0
 70
     8
 71
     3
 72
    16
 73
    12
 74
     0
 42
0.00000001
 43
0.00000001
 12
1.0
 22
0.0
 32
0.0
 13
1.0
 23
0.0
 33
0.0
 40
0.0
 40
0.0
 40
0.0
 40
0.0
 40
0.4999999999999936
 40
0.4999999999999936
 40
0.7499999999999926
 40
0.7499999999999926
 40
0.8749999999999941
 40
0.8749999999999941
 40
0.937499999999997
 40
0.937499999999997
 40
1.0
 40
1.0
 40
1.0
 40
1.0
 10
141.7077985497898
 20
102.4605860163569
 30
0.0
 10
141.7077985497898
 20
102.3585758627768
 30
0.0
 10
141.7039151246308
 20
102.2590514875236
 30
0.0
 10
141.6790997993562
 20
102.1170663915129
 30
0.0
 10
141.6682603516437
 20
102.0700730909425
 30
0.0
 10
141.6350445695949
 20
102.0077803605809
 30
0.0
 10
141.6216628259661
 20
101.9874989282958
 30
0.0
 10
141.5861531761038
 20
101.9704572200953
 30
0.0
 10
141.5707362096031
 20
101.9680709650792
 30
0.0
 10
141.5390351874545
 20
101.9760068949372
 30
0.0
 10
141.5248889025037
 20
101.9849319683119
 30
0.0
 10
141.5128216609141
 20
101.9949468663837
 30
0.0
  0
SPLINE
  5
116
330
1F
100
AcDbEntity
  8
0
  6
HIDDEN
 62
     7
370
     0
100
AcDbSpline
210
0.0
220
0.0
230
1.0
 70
     8
 71
     3
 72
    18
 73
    14
 74
     0
 42
0.00000001
 43
0.00000001
 12
1.0
 22
0.0
 32
0.0
 13
1.0
 23
0.0
 33
0.0
 40
0.0
 40
0.0
 40
0.0
 40
0.0
 40
0.1249999999999996
 40
0.1249999999999996
 40
0.2499999999999993
 40
0.2499999999999993
 40
0.3749999999999989
 40
0.3749999999999989
 40
0.4999999999999986
 40
0.4999999999999986
 40
0.7499999999999992
 40
0.7499999999999992
 40
1.0
 40
1.0
 40
1.0
 40
1.0
 10
141.5128216609202
 20
101.9949468663911
 30
0.0
 10
141.4641161687781
 20
102.0353687420726
 30
0.0
 10
141.4056060604512
 20
102.0684008635403
 30
0.0
 10
141.2738769421591
 20
102.0816780154932
 30
0.0
 10
141.2091180058186
 20
102.058724428513
 30
0.0
 10
141.103907032959
 20
101.9896712315934
 30
0.0
 10
141.060690657519
 20
101.9452035797525
 30
0.0
 10
140.9845121524071
 20
101.8520339203825
 30
0.0
 10
140.9516571910272
 20
101.8028915508217
 30
0.0
 10
140.8612889111935
 20
101.6516818158819
 30
0.0
 10
140.8118656768234
 20
101.5455270463536
 30
0.0
 10
140.7242172217752
 20
101.3319454306921
 30
0.0
 10
140.6861580495724
 20
101.2239729994569
 30
0.0
 10
140.6517142322268
 20
101.1155132379029
 30
0.0
  0
SPLINE
  5
117
330
1F
100
AcDbEntity
  8
0
  6
HIDDEN
 62
     7
370
     0
100
AcDbSpline
210
0.0
220
0.0
230
1.0
 70
     8
 71
     3
 72
     8
 73
     4
 74
     0
 42
0.00000001
 43
0.00000001
 12
1.0
 22
0.0
 32
0.0
 13
1.0
 23
0.0
 33
0.0
 40
0.0
 40
0.0
 40
0.0
 40
0.0
 40
1.0
 40
1.0
 40
1.0
 40
1.0
 10
140.6517142322262
 20
101.1155132379024
 30
0.0
 10
140.6274005283361
 20
101.0389520803523
 30
0.0
 10
140.60590388638
 20
100.9625267092191
 30
0.0
 10
140.5864782062301
 20
100.8864338384474
 30
0.0
  0
SPLINE
  5
118
330
1F
100
AcDbEntity
  8
0
  6
HIDDEN
 62
     7
370
     0
100
AcDbSpline
210
0.0
220
0.0
230
1.0
 70
     8
 71
     3
 72
     8
 73
     4
 74
     0
 42
0.00000001
 43
0.00000001
 12
1.0
 22
0.0
 32
0.0
 13
1.0
 23
0.0
 33
0.0
 40
0.0
 40
0.0
 40
0.0
 40
0.0
 40
1.0
 40
1.0
 40
1.0
 40
1.0
 10
140.5864782062301
 20
97.114889148049
 30
0.0
 10
140.6059036331234
 20
97.1113919444617
 30
0.0
 10
140.6274001870924
 20
97.10937562681949
 30
0.0
 10
140.6517142322268
 20
97.10876477337561
 30
0.0
  0
SPLINE
  5
119
330
1F
100
AcDbEntity
  8
0
  6
HIDDEN
 62
     7
370
     0
100
AcDbSpline
210
0.0
220
0.0
230
1.0
 70
     8
 71
     3
 72
     8
 73
     4
 74
     0
 42
0.00000001
 43
0.00000001
 12
1.0
 22
0.0
 32
0.0
 13
1.0
 23
0.0
 33
0.0
 40
0.0
 40
0.0
 40
0.0
 40
0.0
 40
1.0
 40
1.0
 40
1.0
 40
1.0
 10
141.6849475366838
 20
97.01940638231746
 30
0.0
 10
141.7038844688496
 20
96.991451944916
 30
0.0
 10
141.7077985497899
 20
96.97136809355966
 30
0.0
 10
141.70779854979
 20
96.95514124939425
 30
0.0
  0
LINE
  5
11A
330
1F
100
AcDbEntity
  8
0
  6
HIDDEN
 62
     7
370
     0
100
AcDbLine
 10
141.7077985548
 20
96.8501331809
 30
0.0
 11
141.7077985548
 21
96.9551416638
 31
0.0
  0
LINE
  5
11B
330
1F
100
AcDbEntity
  8
0
  6
HIDDEN
 62
     7
370
     0
100
AcDbLine
 10
141.7077985548
 20
124.9247646483
 30
0.0
 11
141.7077985548
 21
125.0297731313
 31
0.0
  0
SPLINE
  5
11C
330
1F
100
AcDbEntity
  8
0
  6
HIDDEN
 62
     7
370
     0
100
AcDbSpline
210
0.0
220
0.0
230
1.0
 70
     8
 71
     3
 72
     8
 73
     4
 74
     0
 42
0.00000001
 43
0.00000001
 12
1.0
 22
0.0
 32
0.0
 13
1.0
 23
0.0
 33
0.0
 40
0.0
 40
0.0
 40
0.0
 40
0.0
 40
1.0
 40
1.0
 40
1.0
 40
1.0
 10
140.6517142322265
 20
124.7711415387327
 30
0.0
 10
140.6274001870922
 20
124.7705306852889
 30
0.0
 10
140.6059036331233
 20
124.7685143676467
 30
0.0
 10
140.5864782062301
 20
124.7650171640594
 30
0.0
  0
SPLINE
  5
11D
330
1F
100
AcDbEntity
  8
0
  6
HIDDEN
 62
     7
370
     0
100
AcDbSpline
210
0.0
220
0.0
230
1.0
 70
     8
 71
     3
 72
     8
 73
     4
 74
     0
 42
0.00000001
 43
0.00000001
 12
1.0
 22
0.0
 32
0.0
 13
1.0
 23
0.0
 33
0.0
 40
0.0
 40
0.0
 40
0.0
 40
0.0
 40
1.0
 40
1.0
 40
1.0
 40
1.0
 10
140.5864782062301
 20
120.993472473661
 30
0.0
 10
140.60590388638
 20
120.9173796028893
 30
0.0
 10
140.6274005283361
 20
120.8409542317561
 30
0.0
 10
140.6517142322262
 20
120.764393074206
 30
0.0
  0
LINE
  5
11E
330
1F
100
AcDbEntity
  8
0
  6
HIDDEN
 62
     7
370
     0
100
AcDbLine
 10
141.7077985548
 20
96.9551416638
 30
0.0
 11
141.7077985548
 21
105.4345082084
 31
0.0
  0
LINE
  5
11F
330
1F
100
AcDbEntity
  8
0
  6
HIDDEN
 62
     7
370
     0
100
AcDbLine
 10
141.7077985548
 20
116.4453981037
 30
0.0
 11
141.7077985548
 21
124.9247646483
 31
0.0
  0
SPLINE
  5
120
330
1F
100
AcDbEntity
  8
0
  6
HIDDEN
 62
     7
370
     0
100
AcDbSpline
210
0.0
220
0.0
230
1.0
 70
     8
 71
     3
 72
    60
 73
    56
 74
     0
 42
0.00000001
 43
0.00000001
 12
1.0
 22
0.0
 32
0.0
 13
1.0
 23
0.0
 33
0.0
 40
-0.0312499999999986
 40
-0.0312499999999986
 40
0.0
 40
0.0
 40
0.0312500000000001
 40
0.0312500000000001
 40
0.0625000000000003
 40
0.0625000000000003
 40
0.1250000000000029
 40
0.1250000000000029
 40
0.1562500000000033
 40
0.1562500000000033
 40
0.1875000000000037
 40
0.1875000000000037
 40
0.2187500000000041
 40
0.2187500000000041
 40
0.2500000000000044
 40
0.2500000000000044
 40
0.3125000000000051
 40
0.3125000000000051
 40
0.3750000000000058
 40
0.3750000000000058
 40
0.4062500000000061
 40
0.4062500000000061
 40
0.4375000000000065
 40
0.4375000000000065
 40
0.4687500000000068
 40
0.4687500000000068
 40
0.5000000000000072
 40
0.5000000000000072
 40
0.5312500000000075
 40
0.5312500000000075
 40
0.562500000000008
 40
0.562500000000008
 40
0.6250000000000063
 40
0.6250000000000063
 40
0.6562500000000064
 40
0.6562500000000064
 40
0.6875000000000066
 40
0.6875000000000066
 40
0.7187500000000066
 40
0.7187500000000066
 40
0.7500000000000067
 40
0.7500000000000067
 40
0.7812500000000067
 40
0.7812500000000067
 40
0.8125000000000067
 40
0.8125000000000067
 40
0.8750000000000057
 40
0.8750000000000057
 40
0.9062500000000042
 40
0.9062500000000042
 40
0.9375000000000028
 40
0.9375000000000028
 40
0.9687500000000014
 40
0.9687500000000014
 40
1.0
 40
1.0
 40
1.03125
 40
1.03125
 10
212.0773261463604
 20
114.3796647726052
 30
0.0
 10
211.7382709532192
 20
114.3796647726053
 30
0.0
 10
211.5726731055117
 20
114.3673336469932
 30
0.0
 10
211.248553028839
 20
114.3191195239169
 30
0.0
 10
211.0887429645134
 20
114.2825810421305
 30
0.0
 10
210.639401361972
 20
114.1406030604463
 30
0.0
 10
210.3697186221966
 20
114.0005309638072
 30
0.0
 10
210.0315338334391
 20
113.7281409139053
 30
0.0
 10
209.9279673998153
 20
113.6252542333729
 30
0.0
 10
209.7475159375153
 20
113.4005801038666
 30
0.0
 10
209.670393971253
 20
113.2791707536075
 30
0.0
 10
209.5429760864458
 20
113.0157111063299
 30
0.0
 10
209.4925118936447
 20
112.8716657940284
 30
0.0
 10
209.4256704809622
 20
112.5746817286134
 30
0.0
 10
209.4083522794132
 20
112.4207251973495
 30
0.0
 10
209.4067298874798
 20
111.9413116945572
 30
0.0
 10
209.4752178580235
 20
111.6095204618304
 30
0.0
 10
209.7292681643943
 20
110.989508043484
 30
0.0
 10
209.9138510637497
 20
110.7004338416382
 30
0.0
 10
210.2512195341728
 20
110.3314054184946
 30
0.0
 10
210.3752087031396
 20
110.2175403465469
 30
0.0
 10
210.6413774483571
 20
110.0155042312788
 30
0.0
 10
210.7819141291811
 20
109.928242078564
 30
0.0
 10
211.0795724644791
 20
109.7828925102921
 30
0.0
 10
211.2390398420216
 20
109.7243547720679
 30
0.0
 10
211.5646572261552
 20
109.6457028229372
 30
0.0
 10
211.7306242085423
 20
109.6250144988041
 30
0.0
 10
212.0694574546053
 20
109.6237781891934
 30
0.0
 10
212.2364481334405
 20
109.6434132545448
 30
0.0
 10
212.5620730472313
 20
109.7197484862753
 30
0.0
 10
212.7222042197883
 20
109.77724368631
 30
0.0
 10
213.1729093791466
 20
109.9941591196345
 30
0.0
 10
213.4431678802974
 20
110.2006984666165
 30
0.0
 10
213.7828826091992
 20
110.5695211407044
 30
0.0
 10
213.8868412530746
 20
110.7044881928429
 30
0.0
 10
214.0671503456962
 20
110.9861373897342
 30
0.0
 10
214.1445840542888
 20
111.133693729938
 30
0.0
 10
214.2728329091334
 20
111.4428010045758
 30
0.0
 10
214.3231482000502
 20
111.6046552473338
 30
0.0
 10
214.3898964465415
 20
111.9252135468892
 30
0.0
 10
214.4073699557377
 20
112.0860428187176
 30
0.0
 10
214.4082117382682
 20
112.4087007177378
 30
0.0
 10
214.3914516407362
 20
112.5645470889718
 30
0.0
 10
214.3256994972323
 20
112.863206023047
 30
0.0
 10
214.2758446364588
 20
113.007677153129
 30
0.0
 10
214.0848798508912
 20
113.4065345078807
 30
0.0
 10
213.8995837179213
 20
113.634564037849
 30
0.0
 10
213.5606948171015
 20
113.9083139878609
 30
0.0
 10
213.4355128946983
 20
113.9898099655292
 30
0.0
 10
213.169577758725
 20
114.1289312279886
 30
0.0
 10
213.0287221753262
 20
114.187062047333
 30
0.0
 10
212.729055578842
 20
114.2820214686319
 30
0.0
 10
212.5686773967074
 20
114.3188080777788
 30
0.0
 10
212.2439402566587
 20
114.3672504000715
 30
0.0
 10
212.0773261463604
 20
114.3796647726052
 30
0.0
 10
211.7382709532192
 20
114.3796647726053
 30
0.0
  0
SPLINE
  5
121
330
1F
100
AcDbEntity
  8
0
  6
HIDDEN
 62
     7
370
     0
100
AcDbSpline
210
0.0
220
0.0
230
1.0
 70
     8
 71
     3
 72
    64
 73
    60
 74
     0
 42
0.00000001
 43
0.00000001
 12
1.0
 22
0.0
 32
0.0
 13
1.0
 23
0.0
 33
0.0
 40
-0.0312499999999999
 40
-0.0312499999999999
 40
0.0
 40
0.0
 40
0.0312500000000004
 40
0.0312500000000004
 40
0.0625000000000007
 40
0.0625000000000007
 40
0.1250000000000015
 40
0.1250000000000015
 40
0.1562500000000018
 40
0.1562500000000018
 40
0.1875000000000022
 40
0.1875000000000022
 40
0.2187500000000026
 40
0.2187500000000026
 40
0.2500000000000029
 40
0.2500000000000029
 40
0.2812500000000032
 40
0.2812500000000032
 40
0.3125000000000035
 40
0.3125000000000035
 40
0.3750000000000031
 40
0.3750000000000031
 40
0.406250000000003
 40
0.406250000000003
 40
0.4375000000000029
 40
0.4375000000000029
 40
0.4687500000000028
 40
0.4687500000000028
 40
0.5000000000000028
 40
0.5000000000000028
 40
0.5312500000000027
 40
0.5312500000000027
 40
0.5625000000000027
 40
0.5625000000000027
 40
0.5937500000000026
 40
0.5937500000000026
 40
0.6250000000000024
 40
0.6250000000000024
 40
0.6562500000000024
 40
0.6562500000000024
 40
0.6875000000000023
 40
0.6875000000000023
 40
0.7187500000000022
 40
0.7187500000000022
 40
0.7500000000000022
 40
0.7500000000000022
 40
0.7812500000000023
 40
0.7812500000000023
 40
0.8125000000000023
 40
0.8125000000000023
 40
0.8437500000000023
 40
0.8437500000000023
 40
0.8750000000000024
 40
0.8750000000000024
 40
0.9375000000000001
 40
0.9375000000000001
 40
0.9687500000000001
 40
0.9687500000000001
 40
1.0
 40
1.0
 40
1.03125
 40
1.03125
 10
212.4940595031506
 20
116.787123017277
 30
0.0
 10
212.3737678104594
 20
116.7278201269541
 30
0.0
 10
212.3313155062635
 20
116.6909100359835
 30
0.0
 10
212.2955917069629
 20
116.6051753731065
 30
0.0
 10
212.3039348094979
 20
116.5583090620462
 30
0.0
 10
212.3987373703922
 20
116.408590779675
 30
0.0
 10
212.5480424726061
 20
116.2996781488378
 30
0.0
 10
212.8057175355119
 20
116.1083266271425
 30
0.0
 10
212.8978757145512
 20
116.0399456479316
 30
0.0
 10
213.0901460374755
 20
115.8892315839998
 30
0.0
 10
213.1910858296416
 20
115.8061909641298
 30
0.0
 10
213.3912195871347
 20
115.6273335798314
 30
0.0
 10
213.4911456812671
 20
115.5311029785333
 30
0.0
 10
213.6882613474054
 20
115.3203526743558
 30
0.0
 10
213.7833103803652
 20
115.2079139477908
 30
0.0
 10
213.9591139588801
 20
114.9717280565531
 30
0.0
 10
214.0409908806016
 20
114.8459491611058
 30
0.0
 10
214.1796136045446
 20
114.5953388380333
 30
0.0
 10
214.2384504912283
 20
114.4669553081704
 30
0.0
 10
214.3747338280703
 20
114.0922157729939
 30
0.0
 10
214.4115077987557
 20
113.8573901248408
 30
0.0
 10
214.4054865809368
 20
113.5569113160652
 30
0.0
 10
214.3934454462097
 20
113.4633536791876
 30
0.0
 10
214.3547904701663
 20
113.2958532281764
 30
0.0
 10
214.3282582473534
 20
113.2211492560447
 30
0.0
 10
214.2653309910585
 20
113.0892730172434
 30
0.0
 10
214.2285350301496
 20
113.0317324770413
 30
0.0
 10
214.1520808624897
 20
112.9394716228392
 30
0.0
 10
214.1123167245077
 20
112.9043683904232
 30
0.0
 10
214.0404873537824
 20
112.8651261497445
 30
0.0
 10
214.0089398406247
 20
112.8614943694466
 30
0.0
 10
213.97688251526
 20
112.9055849166933
 30
0.0
 10
213.9785184465407
 20
112.9536656004393
 30
0.0
 10
214.0166847307269
 20
113.0985890977948
 30
0.0
 10
214.0503650617204
 20
113.1898994467065
 30
0.0
 10
214.1261140888826
 20
113.3967060811458
 30
0.0
 10
214.1669547560176
 20
113.5089835685216
 30
0.0
 10
214.2439641033563
 20
113.7474519128729
 30
0.0
 10
214.2805622808889
 20
113.8747703510121
 30
0.0
 10
214.3419622974468
 20
114.13827026765
 30
0.0
 10
214.366830971234
 20
114.2740057952367
 30
0.0
 10
214.4005717412559
 20
114.5539198485517
 30
0.0
 10
214.4094195394741
 20
114.6997032132274
 30
0.0
 10
214.4056764260326
 20
114.9911092243278
 30
0.0
 10
214.3933903195895
 20
115.1369722307714
 30
0.0
 10
214.3431894722647
 20
115.4289426697549
 30
0.0
 10
214.3056196536022
 20
115.5713970968174
 30
0.0
 10
214.2058275369858
 20
115.8406106207795
 30
0.0
 10
214.1419836719996
 20
115.9705485751128
 30
0.0
 10
213.9945483897918
 20
116.2026547237075
 30
0.0
 10
213.9107335097959
 20
116.3061997684237
 30
0.0
 10
213.7274516740112
 20
116.4863762768201
 30
0.0
 10
213.6307421818953
 20
116.5605823227196
 30
0.0
 10
213.3297220188549
 20
116.7426939611945
 30
0.0
 10
213.1191282358068
 20
116.8061283701619
 30
0.0
 10
212.829651325124
 20
116.833619530275
 30
0.0
 10
212.7379834636291
 20
116.8316429902571
 30
0.0
 10
212.5702733201803
 20
116.8084973903362
 30
0.0
 10
212.4940595031506
 20
116.787123017277
 30
0.0
 10
212.3737678104594
 20
116.7278201269541
 30
0.0
  0
LWPOLYLINE
  5
122
330
1F
100
AcDbEntity
  8
0
  6
HIDDEN
 62
     7
370
     0
100
AcDbPolyline
 90
       26
 70
   128
 43
0.0
 10
211.9077988478
 20
117.3348153534
 10
212.5295199963
 20
117.2601172293
 10
213.1121852013
 20
117.0407171885
 10
213.6191674086
 20
116.6904002021
 10
214.0186153861
 20
116.231178079
 10
214.2854430291
 20
115.6919055211
 10
214.4028641793
 20
115.1064673031
 10
214.3635176631
 20
114.5116485714
 10
214.1698696228
 20
113.9448237664
 10
213.8340794059
 20
113.4416085261
 10
213.3772619578
 20
113.0336219503
 10
212.8281094643
 20
112.7464991587
 10
212.2211330148
 20
112.59828115
 10
211.5944646808
 20
112.59828115
 10
210.9874882313
 20
112.7464991587
 10
210.4383357378
 20
113.0336219503
 10
209.9815182897
 20
113.4416085261
 10
209.6457280728
 20
113.9448237664
 10
209.4520800325
 20
114.5116485714
 10
209.4127335164
 20
115.1064673031
 10
209.5301546666
 20
115.6919055211
 10
209.7969823095
 20
116.231178079
 10
210.196430287
 20
116.6904002021
 10
210.7034124943
 20
117.0407171885
 10
211.2860702487
 20
117.2601172293
 10
211.9077988478
 20
117.3348153534
  0
CIRCLE
  5
123
330
1F
100
AcDbEntity
  8
0
  6
HIDDEN
 62
     7
370
     0
100
AcDbCircle
 10
130.4077985498
 20
110.9399531561
 30
0.0
 40
2.299999999999997
  0
LINE
  5
124
330
1F
100
AcDbEntity
  8
0
  6
HIDDEN
 62
     7
370
     0
100
AcDbLine
 10
118.9348310741
 20
120.5026466923
 30
0.0
 11
118.9348310741
 21
101.3772596198
 31
0.0
  0
LINE
  5
125
330
1F
100
AcDbEntity
  8
0
  6
HIDDEN
 62
     7
370
     0
100
AcDbLine
 10
117.9077983412
 20
100.784302369
 30
0.0
 11
117.9077983412
 21
121.0956039431
 31
0.0
  0
LINE
  5
126
330
1F
100
AcDbEntity
  8
0
  6
HIDDEN
 62
     7
370
     0
100
AcDbLine
 10
122.4348307165
 20
120.1708928275
 30
0.0
 11
122.4348307165
 21
101.7090134847
 31
0.0
  0
LINE
  5
127
330
1F
100
AcDbEntity
  8
0
  6
HIDDEN
 62
     7
370
     0
100
AcDbLine
 10
125.8348305288
 20
119.9399527686
 30
0.0
 11
125.8348305288
 21
101.9399535435
 31
0.0
  0
LINE
  5
128
330
1F
100
AcDbEntity
  8
0
  6
HIDDEN
 62
     7
370
     0
100
AcDbLine
 10
121.0348312321
 20
119.9399527686
 30
0.0
 11
121.0348312321
 21
101.9399535435
 31
0.0
  0
LINE
  5
129
330
1F
100
AcDbEntity
  8
0
  6
HIDDEN
 62
     7
370
     0
100
AcDbLine
 10
122.034831396
 20
119.9399527686
 30
0.0
 11
122.034831396
 21
101.9399535435
 31
0.0
  0
SPLINE
  5
12A
330
1F
100
AcDbEntity
  8
0
  6
HIDDEN
 62
     7
370
     0
100
AcDbSpline
210
0.0
220
0.0
230
1.0
 70
     8
 71
     3
 72
    14
 73
    10
 74
     0
 42
0.00000001
 43
0.00000001
 12
1.0
 22
0.0
 32
0.0
 13
1.0
 23
0.0
 33
0.0
 40
0.0
 40
0.0
 40
0.0
 40
0.0
 40
0.25
 40
0.25
 40
0.5
 40
0.5
 40
0.75
 40
0.75
 40
1.0
 40
1.0
 40
1.0
 40
1.0
 10
132.4077985497898
 20
112.0757348252142
 30
0.0
 10
132.5060228962928
 20
111.9027713954107
 30
0.0
 10
132.5813377342768
 20
111.7177388409863
 30
0.0
 10
132.6823044444712
 20
111.3347266268518
 30
0.0
 10
132.7076800307613
 20
111.1400080733862
 30
0.0
 10
132.7079162560277
 20
110.7426327721207
 30
0.0
 10
132.6822131866921
 20
110.5451404376453
 30
0.0
 10
132.5818930731756
 20
110.1639686030142
 30
0.0
 10
132.506001245088
 20
109.9770967910417
 30
0.0
 10
132.4077985497944
 20
109.8041714868918
 30
0.0
  0
LINE
  5
12B
330
1F
100
AcDbEntity
  8
0
  6
HIDDEN
 62
     7
370
     0
100
AcDbLine
 10
132.9077989372
 20
119.4399526867
 30
0.0
 11
132.9077989372
 21
102.4399526941
 31
0.0
  0
SPLINE
  5
12C
330
1F
100
AcDbEntity
  8
0
  6
HIDDEN
 62
     7
370
     0
100
AcDbSpline
210
0.0
220
0.0
230
1.0
 70
     8
 71
     3
 72
    14
 73
    10
 74
     0
 42
0.00000001
 43
0.00000001
 12
1.0
 22
0.0
 32
0.0
 13
1.0
 23
0.0
 33
0.0
 40
0.0
 40
0.0
 40
0.0
 40
0.0
 40
0.25
 40
0.25
 40
0.5
 40
0.5
 40
0.75
 40
0.75
 40
1.0
 40
1.0
 40
1.0
 40
1.0
 10
132.4077985497898
 20
109.8041714868941
 30
0.0
 10
132.5060228962928
 20
109.9771349166977
 30
0.0
 10
132.5813377342768
 20
110.1621674711221
 30
0.0
 10
132.6823044444712
 20
110.5451796852565
 30
0.0
 10
132.7076800307613
 20
110.7398982387222
 30
0.0
 10
132.7079162560277
 20
111.1372735399877
 30
0.0
 10
132.6822131866921
 20
111.3347658744631
 30
0.0
 10
132.5818930731756
 20
111.7159377090941
 30
0.0
 10
132.506001245088
 20
111.9028095210667
 30
0.0
 10
132.4077985497944
 20
112.0757348252166
 30
0.0
  0
SPLINE
  5
12D
330
1F
100
AcDbEntity
  8
0
  6
HIDDEN
 62
     7
370
     0
100
AcDbSpline
210
0.0
220
0.0
230
1.0
 70
     8
 71
     3
 72
    60
 73
    56
 74
     0
 42
0.00000001
 43
0.00000001
 12
1.0
 22
0.0
 32
0.0
 13
1.0
 23
0.0
 33
0.0
 40
0.0
 40
0.0
 40
0.0
 40
0.0
 40
0.0624999999999998
 40
0.0624999999999998
 40
0.1249999999999995
 40
0.1249999999999995
 40
0.1874999999999993
 40
0.1874999999999993
 40
0.2187499999999991
 40
0.2187499999999991
 40
0.2499999999999989
 40
0.2499999999999989
 40
0.3124999999999991
 40
0.3124999999999991
 40
0.3749999999999992
 40
0.3749999999999992
 40
0.4062499999999993
 40
0.4062499999999993
 40
0.4374999999999993
 40
0.4374999999999993
 40
0.4687499999999994
 40
0.4687499999999994
 40
0.4999999999999994
 40
0.4999999999999994
 40
0.5312499999999996
 40
0.5312499999999996
 40
0.5624999999999997
 40
0.5624999999999997
 40
0.5937499999999998
 40
0.5937499999999998
 40
0.6249999999999999
 40
0.6249999999999999
 40
0.65625
 40
0.65625
 40
0.6875000000000001
 40
0.6875000000000001
 40
0.7187500000000001
 40
0.7187500000000001
 40
0.75
 40
0.75
 40
0.78125
 40
0.78125
 40
0.8125
 40
0.8125
 40
0.84375
 40
0.84375
 40
0.875
 40
0.875
 40
0.90625
 40
0.90625
 40
0.9375
 40
0.9375
 40
0.96875
 40
0.96875
 40
1.0
 40
1.0
 40
1.0
 40
1.0
 10
132.4077985497898
 20
109.8041714868941
 30
0.0
 10
132.2826086482111
 20
109.5837243622786
 30
0.0
 10
132.1257413296429
 20
109.3899906334582
 30
0.0
 10
131.7487038098241
 20
109.0543009346958
 30
0.0
 10
131.5369905034031
 20
108.9203235763831
 30
0.0
 10
131.0711005214544
 20
108.7231968316979
 30
0.0
 10
130.8252612904028
 20
108.663979419476
 30
0.0
 10
130.4457802373082
 20
108.6367726835854
 30
0.0
 10
130.3180345086143
 20
108.6382659487272
 30
0.0
 10
130.0675682619461
 20
108.6617817545362
 30
0.0
 10
129.9437388791379
 20
108.6837009733404
 30
0.0
 10
129.5765192050393
 20
108.7805375381853
 30
0.0
 10
129.3457501869536
 20
108.8843386596371
 30
0.0
 10
128.9258612255341
 20
109.1630571405651
 30
0.0
 10
128.7416028506465
 20
109.3346194320688
 30
0.0
 10
128.5108544631632
 20
109.6332667933356
 30
0.0
 10
128.4418076133742
 20
109.7397343338379
 30
0.0
 10
128.3232429495687
 20
109.9600176822309
 30
0.0
 10
128.273034580819
 20
110.0746791986323
 30
0.0
 10
128.1912027284612
 20
110.3133598354091
 30
0.0
 10
128.1598518295786
 20
110.4374054622871
 30
0.0
 10
128.11845745154
 20
110.6855204983955
 30
0.0
 10
128.1079516764757
 20
110.810758200884
 30
0.0
 10
128.1076487241399
 20
111.063637256475
 30
0.0
 10
128.1181332537565
 20
111.1915169427116
 30
0.0
 10
128.1592733312179
 20
111.4399390039171
 30
0.0
 10
128.1898514517665
 20
111.5617379306855
 30
0.0
 10
128.2711341601178
 20
111.8005174601598
 30
0.0
 10
128.3221350466797
 20
111.9175590224664
 30
0.0
 10
128.4407020950428
 20
112.1383842203924
 30
0.0
 10
128.5085908483145
 20
112.2433225839551
 30
0.0
 10
128.6617412860522
 20
112.4422999171845
 30
0.0
 10
128.7472974576247
 20
112.5363080423787
 30
0.0
 10
128.9300088285839
 20
112.7068007273154
 30
0.0
 10
129.0278161282658
 20
112.7842389223648
 30
0.0
 10
129.2366192401827
 20
112.923404818253
 30
0.0
 10
129.3482014154706
 20
112.98518662726
 30
0.0
 10
129.5768472149696
 20
113.0882654978608
 30
0.0
 10
129.6948020259408
 20
113.1302695330565
 30
0.0
 10
129.9381304709295
 20
113.1950056543533
 30
0.0
 10
130.0644743462726
 20
113.2176789169159
 30
0.0
 10
130.3155803272904
 20
113.2415617130971
 30
0.0
 10
130.4412623210133
 20
113.2431650143638
 30
0.0
 10
130.6928843908051
 20
113.2256982755929
 30
0.0
 10
130.8197820110909
 20
113.2062623849529
 30
0.0
 10
131.0649725773521
 20
113.1476692136293
 30
0.0
 10
131.1841617343856
 20
113.1086063624726
 30
0.0
 10
131.4158467587404
 20
113.0110966403489
 30
0.0
 10
131.5290215630909
 20
112.9520612860603
 30
0.0
 10
131.7410999800266
 20
112.8182575692208
 30
0.0
 10
131.8408887587274
 20
112.743262353076
 30
0.0
 10
132.0281469457164
 20
112.5770672885552
 30
0.0
 10
132.1160419826597
 20
112.4851730898137
 30
0.0
 10
132.2742630582917
 20
112.2898088920993
 30
0.0
 10
132.3452010145833
 20
112.1859629384269
 30
0.0
 10
132.4077985497898
 20
112.0757348252142
 30
0.0
  0
SPLINE
  5
12E
330
1F
100
AcDbEntity
  8
0
  6
HIDDEN
 62
     7
370
     0
100
AcDbSpline
210
0.0
220
0.0
230
1.0
 70
     8
 71
     3
 72
    60
 73
    56
 74
     0
 42
0.00000001
 43
0.00000001
 12
1.0
 22
0.0
 32
0.0
 13
1.0
 23
0.0
 33
0.0
 40
0.0
 40
0.0
 40
0.0
 40
0.0
 40
0.0624999999999998
 40
0.0624999999999998
 40
0.1249999999999995
 40
0.1249999999999995
 40
0.1874999999999993
 40
0.1874999999999993
 40
0.2187499999999991
 40
0.2187499999999991
 40
0.2499999999999989
 40
0.2499999999999989
 40
0.3124999999999991
 40
0.3124999999999991
 40
0.3749999999999992
 40
0.3749999999999992
 40
0.4062499999999993
 40
0.4062499999999993
 40
0.4374999999999993
 40
0.4374999999999993
 40
0.4687499999999994
 40
0.4687499999999994
 40
0.4999999999999994
 40
0.4999999999999994
 40
0.5312499999999996
 40
0.5312499999999996
 40
0.5624999999999997
 40
0.5624999999999997
 40
0.5937499999999998
 40
0.5937499999999998
 40
0.6249999999999999
 40
0.6249999999999999
 40
0.65625
 40
0.65625
 40
0.6875000000000001
 40
0.6875000000000001
 40
0.7187500000000001
 40
0.7187500000000001
 40
0.75
 40
0.75
 40
0.78125
 40
0.78125
 40
0.8125
 40
0.8125
 40
0.84375
 40
0.84375
 40
0.875
 40
0.875
 40
0.90625
 40
0.90625
 40
0.9375
 40
0.9375
 40
0.96875
 40
0.96875
 40
1.0
 40
1.0
 40
1.0
 40
1.0
 10
132.4077985497898
 20
112.0757348252142
 30
0.0
 10
132.2826086482111
 20
112.2961819498298
 30
0.0
 10
132.1257413296429
 20
112.4899156786502
 30
0.0
 10
131.7487038098241
 20
112.8256053774126
 30
0.0
 10
131.5369905034031
 20
112.9595827357253
 30
0.0
 10
131.0711005214544
 20
113.1567094804105
 30
0.0
 10
130.8252612904028
 20
113.2159268926323
 30
0.0
 10
130.4457802373082
 20
113.243133628523
 30
0.0
 10
130.3180345086143
 20
113.2416403633811
 30
0.0
 10
130.0675682619461
 20
113.2181245575722
 30
0.0
 10
129.9437388791379
 20
113.196205338768
 30
0.0
 10
129.5765192050393
 20
113.0993687739231
 30
0.0
 10
129.3457501869536
 20
112.9955676524713
 30
0.0
 10
128.9258612255341
 20
112.7168491715432
 30
0.0
 10
128.7416028506465
 20
112.5452868800395
 30
0.0
 10
128.5108544631632
 20
112.2466395187727
 30
0.0
 10
128.4418076133742
 20
112.1401719782704
 30
0.0
 10
128.3232429495687
 20
111.9198886298775
 30
0.0
 10
128.273034580819
 20
111.8052271134761
 30
0.0
 10
128.1912027284612
 20
111.5665464766993
 30
0.0
 10
128.1598518295786
 20
111.4425008498212
 30
0.0
 10
128.11845745154
 20
111.1943858137129
 30
0.0
 10
128.1079516764757
 20
111.0691481112244
 30
0.0
 10
128.1076487241399
 20
110.8162690556334
 30
0.0
 10
128.1181332537565
 20
110.6883893693968
 30
0.0
 10
128.1592733312179
 20
110.4399673081913
 30
0.0
 10
128.1898514517665
 20
110.3181683814229
 30
0.0
 10
128.2711341601178
 20
110.0793888519486
 30
0.0
 10
128.3221350466797
 20
109.9623472896419
 30
0.0
 10
128.4407020950428
 20
109.741522091716
 30
0.0
 10
128.5085908483145
 20
109.6365837281532
 30
0.0
 10
128.6617412860522
 20
109.4376063949238
 30
0.0
 10
128.7472974576247
 20
109.3435982697297
 30
0.0
 10
128.9300088285839
 20
109.1731055847929
 30
0.0
 10
129.0278161282658
 20
109.0956673897436
 30
0.0
 10
129.2366192401827
 20
108.9565014938553
 30
0.0
 10
129.3482014154706
 20
108.8947196848483
 30
0.0
 10
129.5768472149696
 20
108.7916408142475
 30
0.0
 10
129.6948020259408
 20
108.7496367790519
 30
0.0
 10
129.9381304709295
 20
108.6849006577551
 30
0.0
 10
130.0644743462726
 20
108.6622273951924
 30
0.0
 10
130.3155803272904
 20
108.6383445990113
 30
0.0
 10
130.4412623210133
 20
108.6367412977446
 30
0.0
 10
130.6928843908051
 20
108.6542080365155
 30
0.0
 10
130.8197820110909
 20
108.6736439271554
 30
0.0
 10
131.0649725773521
 20
108.7322370984791
 30
0.0
 10
131.1841617343856
 20
108.7712999496357
 30
0.0
 10
131.4158467587404
 20
108.8688096717595
 30
0.0
 10
131.5290215630909
 20
108.9278450260481
 30
0.0
 10
131.7410999800266
 20
109.0616487428876
 30
0.0
 10
131.8408887587274
 20
109.1366439590324
 30
0.0
 10
132.0281469457164
 20
109.3028390235532
 30
0.0
 10
132.1160419826597
 20
109.3947332222947
 30
0.0
 10
132.2742630582917
 20
109.5900974200091
 30
0.0
 10
132.3452010145833
 20
109.6939433736815
 30
0.0
 10
132.4077985497898
 20
109.8041714868941
 30
0.0
  0
LINE
  5
12F
330
1F
100
AcDbEntity
  8
0
  6
HIDDEN
 62
     7
370
     0
100
AcDbLine
 10
226.4077984306
 20
94.4399532455
 30
0.0
 11
226.4077984306
 21
110.9399531561
 31
0.0
  0
SPLINE
  5
130
330
1F
100
AcDbEntity
  8
0
  6
HIDDEN
 62
     7
370
     0
100
AcDbSpline
210
0.0
220
0.0
230
1.0
 70
     8
 71
     3
 72
    12
 73
     8
 74
     0
 42
0.00000001
 43
0.00000001
 12
1.0
 22
0.0
 32
0.0
 13
1.0
 23
0.0
 33
0.0
 40
0.0
 40
0.0
 40
0.0
 40
0.0
 40
0.2500000000000001
 40
0.2500000000000001
 40
0.5000000000000001
 40
0.5000000000000001
 40
1.0
 40
1.0
 40
1.0
 40
1.0
 10
227.4648484158692
 20
116.9399531560542
 30
0.0
 10
227.3001053173867
 20
116.4578860235291
 30
0.0
 10
227.1498262684659
 20
115.9663091562302
 30
0.0
 10
226.8882202386421
 20
114.9786974559766
 30
0.0
 10
226.7765147723134
 20
114.4819079495837
 30
0.0
 10
226.504521463561
 20
112.9816775571441
 30
0.0
 10
226.4077985497898
 20
111.9661053587793
 30
0.0
 10
226.4077985497898
 20
110.9399531560542
 30
0.0
  0
SPLINE
  5
131
330
1F
100
AcDbEntity
  8
0
  6
HIDDEN
 62
     7
370
     0
100
AcDbSpline
210
0.0
220
0.0
230
1.0
 70
     8
 71
     3
 72
    14
 73
    10
 74
     0
 42
0.00000001
 43
0.00000001
 12
1.0
 22
0.0
 32
0.0
 13
1.0
 23
0.0
 33
0.0
 40
0.0
 40
0.0
 40
0.0
 40
0.0
 40
0.4999999999999998
 40
0.4999999999999998
 40
0.6249999999999998
 40
0.6249999999999998
 40
0.7499999999999997
 40
0.7499999999999997
 40
1.0
 40
1.0
 40
1.0
 40
1.0
 10
227.4648484158692
 20
116.9399531560542
 30
0.0
 10
227.9467469719871
 20
118.3500726527463
 30
0.0
 10
228.4075794856878
 20
119.7418017565617
 30
0.0
 10
228.9621600691395
 20
121.4565563395233
 30
0.0
 10
229.0723366567509
 20
121.7993188866036
 30
0.0
 10
229.2886424591418
 20
122.4760094800202
 30
0.0
 10
229.3947333882146
 20
122.8098003674731
 30
0.0
 10
229.7071463038666
 20
123.7976459939934
 30
0.0
 10
229.907628044426
 20
124.4382239317635
 30
0.0
 10
230.1009240950474
 20
125.0605670177756
 30
0.0
  0
SPLINE
  5
132
330
1F
100
AcDbEntity
  8
0
  6
HIDDEN
 62
     7
370
     0
100
AcDbSpline
210
0.0
220
0.0
230
1.0
 70
     8
 71
     3
 72
    14
 73
    10
 74
     0
 42
0.00000001
 43
0.00000001
 12
1.0
 22
0.0
 32
0.0
 13
1.0
 23
0.0
 33
0.0
 40
0.0
 40
0.0
 40
0.0
 40
0.0
 40
0.0289420510249929
 40
0.223138198948502
 40
0.3574076077496437
 40
0.4916782428688579
 40
0.6298574631912719
 40
0.7680394363256793
 40
1.0
 40
1.0
 40
1.0
 40
1.0
 10
229.0069707247204
 20
130.0095614569785
 30
0.0
 10
228.9977650199395
 20
130.0098143033382
 30
0.0
 10
228.9267906310449
 20
130.011763704964
 30
0.0
 10
228.9271079902923
 20
129.7367732550682
 30
0.0
 10
228.9845083596591
 20
129.251260157292
 30
0.0
 10
229.1081223891693
 20
128.6501341033855
 30
0.0
 10
229.2973810198494
 20
127.8869244279339
 30
0.0
 10
229.6023223346901
 20
126.765966636263
 30
0.0
 10
229.9088377754053
 20
125.7175733767347
 30
0.0
 10
230.1009245726055
 20
125.0605673121811
 30
0.0
  0
ELLIPSE
  5
133
330
1F
100
AcDbEntity
  8
0
  6
HIDDEN
 62
     7
370
     0
100
AcDbEllipse
 10
248.9204735859
 20
110.9399531561
 30
0.0
 11
11.74560502276822
 21
16.49993160123834
 31
0.0
210
0.0
220
0.0
230
1.0
 40
0.0040448756
 41
1.735251045915377
 42
3.144472021887371
  0
ELLIPSE
  5
134
330
1F
100
AcDbEntity
  8
0
  6
HIDDEN
 62
     7
370
     0
100
AcDbEllipse
 10
248.6973677491
 20
110.9399531561
 30
0.0
 11
1.692802268121284
 21
16.49928264335409
 31
0.0
210
0.0
220
0.0
230
1.0
 40
0.090889472
 41
1.580121183404163
 42
1.741696534229979
  0
SPLINE
  5
135
330
1F
100
AcDbEntity
  8
0
  6
HIDDEN
 62
     7
370
     0
100
AcDbSpline
210
0.0
220
0.0
230
1.0
 70
     8
 71
     3
 72
    38
 73
    34
 74
     0
 42
0.00000001
 43
0.00000001
 12
1.0
 22
0.0
 32
0.0
 13
1.0
 23
0.0
 33
0.0
 40
0.0
 40
0.0
 40
0.0
 40
0.0
 40
0.0625
 40
0.0625
 40
0.125
 40
0.125
 40
0.1875
 40
0.1875
 40
0.25
 40
0.25
 40
0.3124999999999999
 40
0.3124999999999999
 40
0.3749999999999999
 40
0.3749999999999999
 40
0.4374999999999999
 40
0.4374999999999999
 40
0.4999999999999999
 40
0.4999999999999999
 40
0.5624999999999999
 40
0.5624999999999999
 40
0.6249999999999998
 40
0.6249999999999998
 40
0.6874999999999998
 40
0.6874999999999998
 40
0.7499999999999998
 40
0.7499999999999998
 40
0.8124999999999998
 40
0.8124999999999998
 40
0.8749999999999998
 40
0.8749999999999998
 40
0.9374999999999999
 40
0.9374999999999999
 40
1.0
 40
1.0
 40
1.0
 40
1.0
 10
234.2417588689646
 20
110.9399531560542
 30
0.0
 10
234.2666542901707
 20
110.6821830109433
 30
0.0
 10
234.3152774202647
 20
110.4310030874969
 30
0.0
 10
234.4587145602066
 20
109.9414169486614
 30
0.0
 10
234.5548294198599
 20
109.7006757869642
 30
0.0
 10
234.7898304315621
 20
109.2449490073411
 30
0.0
 10
234.9274583964989
 20
109.0310866140734
 30
0.0
 10
235.2419906254485
 20
108.6303585336271
 30
0.0
 10
235.4206622435188
 20
108.442420255909
 30
0.0
 10
235.8042352673451
 20
108.1075038408007
 30
0.0
 10
236.0101527551513
 20
107.9586745157119
 30
0.0
 10
236.4503032346714
 20
107.6978246370875
 30
0.0
 10
236.6839748540121
 20
107.5867690118078
 30
0.0
 10
237.1616687629242
 20
107.4098260366577
 30
0.0
 10
237.4078184005863
 20
107.3425760335277
 30
0.0
 10
237.9152123975655
 20
107.2515874814025
 30
0.0
 10
238.1720697894724
 20
107.2289315892473
 30
0.0
 10
238.6823014020918
 20
107.2287753521402
 30
0.0
 10
238.9374025546502
 20
107.2510206682958
 30
0.0
 10
239.446352939604
 20
107.3422856606468
 30
0.0
 10
239.6926363100854
 20
107.4099178504903
 30
0.0
 10
240.1694847256974
 20
107.5877381201907
 30
0.0
 10
240.4016983918564
 20
107.6989458736868
 30
0.0
 10
240.8419147840465
 20
107.9621397119674
 30
0.0
 10
241.0470497554267
 20
108.1119711790188
 30
0.0
 10
241.4283244590891
 20
108.4474524794675
 30
0.0
 10
241.6060290582737
 20
108.6353019864079
 30
0.0
 10
241.9214193959234
 20
109.0372861985294
 30
0.0
 10
242.0593316675027
 20
109.2507138985069
 30
0.0
 10
242.2964142819223
 20
109.7022247930377
 30
0.0
 10
242.3959799039031
 20
109.9424344970851
 30
0.0
 10
242.549016252639
 20
110.4323031687675
 30
0.0
 10
242.6035223268655
 20
110.6831404530318
 30
0.0
 10
242.6358384276712
 20
110.9399531560542
 30
0.0
  0
LINE
  5
136
330
1F
100
AcDbEntity
  8
0
  6
HIDDEN
 62
     7
370
     0
100
AcDbLine
 10
133.8077983397
 20
117.1899532492
 30
0.0
 11
133.8077983397
 21
104.6899530629
 31
0.0
  0
LINE
  5
137
330
1F
100
AcDbEntity
  8
0
  6
HIDDEN
 62
     7
370
     0
100
AcDbLine
 10
132.9077989372
 20
103.7899531948
 30
0.0
 11
132.9077989372
 21
118.0708791653
 31
0.0
  0
LINE
  5
138
330
1F
100
AcDbEntity
  8
0
  6
HIDDEN
 62
     7
370
     0
100
AcDbLine
 10
152.9077984902
 20
117.1899532492
 30
0.0
 11
152.9077984902
 21
104.6899530629
 31
0.0
  0
LINE
  5
139
330
1F
100
AcDbEntity
  8
0
  6
HIDDEN
 62
     7
370
     0
100
AcDbLine
 10
154.1095193985
 20
115.189953387
 30
0.0
 11
154.1095193985
 21
106.6899529251
 31
0.0
  0
LINE
  5
13A
330
1F
100
AcDbEntity
  8
0
  6
HIDDEN
 62
     7
370
     0
100
AcDbLine
 10
216.90780153
 20
115.189953387
 30
0.0
 11
216.90780153
 21
106.6899529251
 31
0.0
  0
SPLINE
  5
13B
330
1F
100
AcDbEntity
  8
0
  6
HIDDEN
 62
     7
370
     0
100
AcDbSpline
210
0.0
220
0.0
230
1.0
 70
     8
 71
     3
 72
    60
 73
    56
 74
     0
 42
0.00000001
 43
0.00000001
 12
1.0
 22
0.0
 32
0.0
 13
1.0
 23
0.0
 33
0.0
 40
-0.0312499999999987
 40
-0.0312499999999987
 40
0.0
 40
0.0
 40
0.0312500000000001
 40
0.0312500000000001
 40
0.0625000000000002
 40
0.0625000000000002
 40
0.1250000000000027
 40
0.1250000000000027
 40
0.156250000000003
 40
0.156250000000003
 40
0.1875000000000034
 40
0.1875000000000034
 40
0.2187500000000037
 40
0.2187500000000037
 40
0.2500000000000041
 40
0.2500000000000041
 40
0.3125000000000047
 40
0.3125000000000047
 40
0.3750000000000053
 40
0.3750000000000053
 40
0.4062500000000057
 40
0.4062500000000057
 40
0.4375000000000059
 40
0.4375000000000059
 40
0.4687500000000063
 40
0.4687500000000063
 40
0.5000000000000066
 40
0.5000000000000066
 40
0.5312500000000069
 40
0.5312500000000069
 40
0.5625000000000072
 40
0.5625000000000072
 40
0.6250000000000054
 40
0.6250000000000054
 40
0.6562500000000056
 40
0.6562500000000056
 40
0.6875000000000057
 40
0.6875000000000057
 40
0.7187500000000057
 40
0.7187500000000057
 40
0.7500000000000058
 40
0.7500000000000058
 40
0.7812500000000059
 40
0.7812500000000059
 40
0.812500000000006
 40
0.812500000000006
 40
0.8750000000000051
 40
0.8750000000000051
 40
0.9062500000000039
 40
0.9062500000000039
 40
0.9375000000000027
 40
0.9375000000000027
 40
0.9687500000000013
 40
0.9687500000000013
 40
1.0
 40
1.0
 40
1.03125
 40
1.03125
 10
211.7382709532192
 20
112.2555241209789
 30
0.0
 10
212.0773261463604
 20
112.2555241209789
 30
0.0
 10
212.2429239940679
 20
112.2354223845487
 30
0.0
 10
212.5670440707406
 20
112.1585289580699
 30
0.0
 10
212.7268541350662
 20
112.1007749374755
 30
0.0
 10
213.1761957376076
 20
111.8834501673673
 30
0.0
 10
213.445878477383
 20
111.6766941545732
 30
0.0
 10
213.7840632661405
 20
111.3088863502288
 30
0.0
 10
213.8876296997644
 20
111.1743572682098
 30
0.0
 10
214.0680811620643
 20
110.8921425898523
 30
0.0
 10
214.1452031283266
 20
110.7448035829099
 30
0.0
 10
214.2726210131338
 20
110.4375326543794
 30
0.0
 10
214.3230852059349
 20
110.2755280621174
 30
0.0
 10
214.3899266186174
 20
109.9545733831099
 30
0.0
 10
214.4072448201664
 20
109.7942820525647
 30
0.0
 10
214.4088672120998
 20
109.3142787321454
 30
0.0
 10
214.3403792415561
 20
109.0079848846639
 30
0.0
 10
214.0863289351854
 20
108.4754412826253
 30
0.0
 10
213.9017460358299
 20
108.2478170748791
 30
0.0
 10
213.5643775654068
 20
107.9742107946044
 30
0.0
 10
213.44038839644
 20
107.8930308555934
 30
0.0
 10
213.1742196512225
 20
107.7530329786705
 30
0.0
 10
213.0336829703985
 20
107.6947847447535
 30
0.0
 10
212.7360246351005
 20
107.5997392058431
 30
0.0
 10
212.576557257558
 20
107.5626671419533
 30
0.0
 10
212.2509398734244
 20
107.5133242043354
 30
0.0
 10
212.0849728910374
 20
107.5006320998976
 30
0.0
 10
211.7461396449743
 20
107.4998684628129
 30
0.0
 10
211.5791489661391
 20
107.5119096456077
 30
0.0
 10
211.2535240523483
 20
107.5597574164467
 30
0.0
 10
211.0933928797913
 20
107.5961147730139
 30
0.0
 10
210.642687720433
 20
107.7377580947641
 30
0.0
 10
210.3724292192822
 20
107.8775777569367
 30
0.0
 10
210.0327144903804
 20
108.1506237674217
 30
0.0
 10
209.928755846505
 20
108.2538338362757
 30
0.0
 10
209.7484467538834
 20
108.4780054049121
 30
0.0
 10
209.6710130452908
 20
108.5995380721169
 30
0.0
 10
209.5427641904462
 20
108.8645510392997
 30
0.0
 10
209.4924488995294
 20
109.0084949777157
 30
0.0
 10
209.4257006530381
 20
109.3051159684533
 30
0.0
 10
209.4082271438419
 20
109.4595541813322
 30
0.0
 10
209.4073853613115
 20
109.7819060514309
 30
0.0
 10
209.4241454588434
 20
109.9438850263378
 30
0.0
 10
209.4898976023473
 20
110.266137155035
 30
0.0
 10
209.5397524631208
 20
110.4283682269863
 30
0.0
 10
209.7307172486884
 20
110.892951322518
 30
0.0
 10
209.9160133816582
 20
111.1826489742204
 30
0.0
 10
210.2549022824781
 20
111.5521149913066
 30
0.0
 10
210.3800842048813
 20
111.6665256898459
 30
0.0
 10
210.6460193408546
 20
111.867449824448
 30
0.0
 10
210.7868749242534
 20
111.9545833635862
 30
0.0
 10
211.0865415207376
 20
112.0998999531216
 30
0.0
 10
211.2469197028722
 20
112.1580353422021
 30
0.0
 10
211.5716568429209
 20
112.2352865563558
 30
0.0
 10
211.7382709532192
 20
112.2555241209789
 30
0.0
 10
212.0773261463604
 20
112.2555241209789
 30
0.0
  0
CIRCLE
  5
13C
330
1F
100
AcDbEntity
  8
0
  6
HIDDEN
 62
     7
370
     0
100
AcDbCircle
 10
240.4671078204
 20
114.1491228652
 30
0.0
 40
3.473568620101102
  0
CIRCLE
  5
13D
330
1F
100
AcDbEntity
  8
0
  6
HIDDEN
 62
     7
370
     0
100
AcDbCircle
 10
240.0406964717
 20
113.5844877494
 30
0.0
 40
3.473571725342026
  0
ARC
  5
13E
330
1F
100
AcDbEntity
  8
0
  6
HIDDEN
 62
     7
370
     0
100
AcDbCircle
 10
236.8651681467
 20
120.9532616992
 30
0.0
 40
2.345941252817914
100
AcDbArc
 50
133.4752524456
 51
274.6441085683
  0
LINE
  5
13F
330
1F
100
AcDbEntity
  8
0
  6
HIDDEN
 62
     7
370
     0
100
AcDbLine
 10
249.7924291107
 20
120.1532284322
 30
0.0
 11
249.3011452767
 21
119.5026986825
 31
0.0
  0
LINE
  5
140
330
1F
100
AcDbEntity
  8
0
  6
HIDDEN
 62
     7
370
     0
100
AcDbLine
 10
246.9317116353
 20
108.2855448185
 30
0.0
 11
248.9878707143
 21
111.0081989828
 31
0.0
  0
LINE
  5
141
330
1F
100
AcDbEntity
  8
0
  6
HIDDEN
 62
     7
370
     0
100
AcDbLine
 10
237.9666738721
 20
123.3531373146
 30
0.0
 11
238.4473778817
 21
123.3879827487
 31
0.0
  0
LINE
  5
142
330
1F
100
AcDbEntity
  8
0
  6
HIDDEN
 62
     7
370
     0
100
AcDbLine
 10
238.1400637838
 20
122.9810553195
 30
0.0
 11
238.4473778817
 21
123.3879827487
 31
0.0
  0
LINE
  5
143
330
1F
100
AcDbEntity
  8
0
  6
HIDDEN
 62
     7
370
     0
100
AcDbLine
 10
238.1400637838
 20
122.9810553195
 30
0.0
 11
237.9326172682
 21
122.9660181853
 31
0.0
  0
ELLIPSE
  5
144
330
1F
100
AcDbEntity
  8
0
  6
HIDDEN
 62
     7
370
     0
100
AcDbEllipse
 10
236.8529137928
 20
104.7322829207
 30
0.0
 11
2.733626938423242
 21
26.42588789006402
 31
0.0
210
0.0
220
0.0
230
1.0
 40
0.0894011665
 41
0.1891571882354316
 42
0.3017904566273123
  0
ELLIPSE
  5
145
330
1F
100
AcDbEntity
  8
0
  6
HIDDEN
 62
     7
370
     0
100
AcDbEllipse
 10
232.5956665197
 20
104.2848282017
 30
0.0
 11
217.1628490301419
 21
19.44089462863677
 31
0.0
210
0.0
220
0.0
230
1.0
 40
0.1182598878
 41
1.530285309819162
 42
1.5326049572069
  0
ELLIPSE
  5
146
330
1F
100
AcDbEntity
  8
0
  6
HIDDEN
 62
     7
370
     0
100
AcDbEllipse
 10
236.3427841274
 20
104.6786661323
 30
0.0
 11
2.73362693842327
 21
26.425887890064
 31
0.0
210
0.0
220
0.0
230
1.0
 40
0.0894011665
 41
0.0188472574999772
 42
0.1868375408476831
  0
SPLINE
  5
147
330
1F
100
AcDbEntity
  8
0
  6
HIDDEN
 62
     7
370
     0
100
AcDbSpline
210
0.0
220
0.0
230
1.0
 70
     8
 71
     3
 72
    12
 73
     8
 74
     0
 42
0.00000001
 43
0.00000001
 12
1.0
 22
0.0
 32
0.0
 13
1.0
 23
0.0
 33
0.0
 40
0.0
 40
0.0
 40
0.0
 40
0.0
 40
0.5
 40
0.5
 40
0.75
 40
0.75
 40
1.0
 40
1.0
 40
1.0
 40
1.0
 10
230.1009240950474
 20
125.0605670177754
 30
0.0
 10
233.2831297451339
 20
125.6211148342174
 30
0.0
 10
236.4510371171106
 20
126.2123704261734
 30
0.0
 10
241.1711148391487
 20
127.1580741599411
 30
0.0
 10
242.7391240215557
 20
127.4831520002971
 30
0.0
 10
245.8615849108999
 20
128.1557121167954
 30
0.0
 10
247.4160700528656
 20
128.5031898074437
 30
0.0
 10
248.9616052940676
 20
128.8634897148755
 30
0.0
  0
SPLINE
  5
148
330
1F
100
AcDbEntity
  8
0
  6
HIDDEN
 62
     7
370
     0
100
AcDbSpline
210
0.0
220
0.0
230
1.0
 70
     8
 71
     3
 72
    15
 73
    11
 74
     0
 42
0.00000001
 43
0.00000001
 12
1.0
 22
0.0
 32
0.0
 13
1.0
 23
0.0
 33
0.0
 40
0.0
 40
0.0
 40
0.0
 40
0.0
 40
0.098612886957599
 40
0.1978661249895067
 40
0.2977604349418307
 40
0.3982965238649223
 40
0.4994750853483942
 40
0.6642152779521864
 40
0.8310560237207616
 40
1.0
 40
1.0
 40
1.0
 40
1.0
 10
249.5207709114289
 20
130.7690941763247
 30
0.0
 10
249.5030481940389
 20
130.7176736865732
 30
0.0
 10
249.4674876753029
 20
130.6144988037957
 30
0.0
 10
249.4133866102951
 20
130.4500149791122
 30
0.0
 10
249.3585233238789
 20
130.2777009542328
 30
0.0
 10
249.3028616395804
 20
130.0967922073918
 30
0.0
 10
249.2347265845722
 20
129.8682025649679
 30
0.0
 10
249.1534748892527
 20
129.5842032707961
 30
0.0
 10
249.0585414490158
 20
129.2376659980177
 30
0.0
 10
248.9940546228097
 20
128.9887356820043
 30
0.0
 10
248.9616092489688
 20
128.8634909205772
 30
0.0
  0
ELLIPSE
  5
149
330
1F
100
AcDbEntity
  8
0
  6
HIDDEN
 62
     7
370
     0
100
AcDbEllipse
 10
207.9055554718
 20
101.6897929614
 30
0.0
 11
217.1628490301419
 21
19.44089462863678
 31
0.0
210
0.0
220
0.0
230
1.0
 40
0.1182598878
 41
1.367396722434433
 42
1.417652041427281
  0
ELLIPSE
  5
14A
330
1F
100
AcDbEntity
  8
0
  6
HIDDEN
 62
     7
370
     0
100
AcDbEllipse
 10
242.5691456477
 20
120.3477226453
 30
0.0
 11
0.938287612369578
 21
2.751666891553327
 31
0.0
210
0.0
220
0.0
230
1.0
 40
0.8587453104
 41
4.575938033196763
 42
4.684963051302658
  0
ELLIPSE
  5
14B
330
1F
100
AcDbEntity
  8
0
  6
HIDDEN
 62
     7
370
     0
100
AcDbEllipse
 10
242.5691456477
 20
120.3477226453
 30
0.0
 11
0.938287612369578
 21
2.751666891553327
 31
0.0
210
0.0
220
0.0
230
1.0
 40
0.8587453104
 41
2.217011811208257
 42
2.40555334123456
  0
ELLIPSE
  5
14C
330
1F
100
AcDbEntity
  8
0
  6
HIDDEN
 62
     7
370
     0
100
AcDbEllipse
 10
242.0982928705
 20
119.2833259286
 30
0.0
 11
2.967222170038013
 21
0.5785035440251248
 31
0.0
210
0.0
220
0.0
230
1.0
 40
0.1845741307
 41
2.26512182275692
 42
2.853074040823619
  0
ELLIPSE
  5
14D
330
1F
100
AcDbEntity
  8
0
  6
HIDDEN
 62
     7
370
     0
100
AcDbEllipse
 10
241.6369433852
 20
118.2404120896
 30
0.0
 11
0.9382876123696063
 21
2.751666891553327
 31
0.0
210
0.0
220
0.0
230
1.0
 40
0.8587453104
 41
1.543370397712842
 42
1.629059593141563
  0
SPLINE
  5
14E
330
1F
100
AcDbEntity
  8
0
  6
HIDDEN
 62
     7
370
     0
100
AcDbSpline
210
0.0
220
0.0
230
1.0
 70
     8
 71
     3
 72
    22
 73
    18
 74
     0
 42
0.00000001
 43
0.00000001
 12
1.0
 22
0.0
 32
0.0
 13
1.0
 23
0.0
 33
0.0
 40
0.0
 40
0.0
 40
0.0
 40
0.0
 40
0.1249999999999989
 40
0.1249999999999989
 40
0.2499999999999978
 40
0.2499999999999978
 40
0.4999999999999953
 40
0.4999999999999953
 40
0.6249999999999953
 40
0.6249999999999953
 40
0.7499999999999953
 40
0.7499999999999953
 40
0.8749999999999954
 40
0.8749999999999954
 40
0.9374999999999978
 40
0.9374999999999978
 40
1.0
 40
1.0
 40
1.0
 40
1.0
 10
238.2323086757636
 20
116.7064095782174
 30
0.0
 10
238.2616469660706
 20
116.745257687702
 30
0.0
 10
238.3064415871165
 20
116.7884799139175
 30
0.0
 10
238.4194871656818
 20
116.8806994482031
 30
0.0
 10
238.488069959083
 20
116.9298367807829
 30
0.0
 10
238.7215648624273
 20
117.0798803177543
 30
0.0
 10
238.9133415622585
 20
117.1840471430352
 30
0.0
 10
239.2579309517718
 20
117.3299268190048
 30
0.0
 10
239.3825350619896
 20
117.3768327728252
 30
0.0
 10
239.6572846731626
 20
117.4627928334691
 30
0.0
 10
239.8073611631914
 20
117.5019598627559
 30
0.0
 10
240.1407577438686
 20
117.5625440638176
 30
0.0
 10
240.3246951864564
 20
117.5847157878461
 30
0.0
 10
240.6397171292252
 20
117.5870615427893
 30
0.0
 10
240.7530052460438
 20
117.5825522499776
 30
0.0
 10
240.997608450881
 20
117.5550078924085
 30
0.0
 10
241.1280459663014
 20
117.5319968073015
 30
0.0
 10
241.2644378586387
 20
117.4948346017302
 30
0.0
  0
SPLINE
  5
14F
330
1F
100
AcDbEntity
  8
0
  6
HIDDEN
 62
     7
370
     0
100
AcDbSpline
210
0.0
220
0.0
230
1.0
 70
     8
 71
     3
 72
     8
 73
     4
 74
     0
 42
0.00000001
 43
0.00000001
 12
1.0
 22
0.0
 32
0.0
 13
1.0
 23
0.0
 33
0.0
 40
0.0
 40
0.0
 40
0.0
 40
0.0
 40
1.0
 40
1.0
 40
1.0
 40
1.0
 10
241.2644378586387
 20
117.4948346017302
 30
0.0
 10
241.4016984567794
 20
117.4350289235744
 30
0.0
 10
241.5429077699916
 20
117.3816761476376
 30
0.0
 10
241.6863319758011
 20
117.3357631704069
 30
0.0
  0
SPLINE
  5
150
330
1F
100
AcDbEntity
  8
0
  6
HIDDEN
 62
     7
370
     0
100
AcDbSpline
210
0.0
220
0.0
230
1.0
 70
     8
 71
     3
 72
    22
 73
    18
 74
     0
 42
0.00000001
 43
0.00000001
 12
1.0
 22
0.0
 32
0.0
 13
1.0
 23
0.0
 33
0.0
 40
0.0
 40
0.0
 40
0.0
 40
0.0
 40
0.0625
 40
0.0625
 40
0.1249999999999999
 40
0.1249999999999999
 40
0.1874999999999999
 40
0.1874999999999999
 40
0.2499999999999999
 40
0.2499999999999999
 40
0.3749999999999998
 40
0.3749999999999998
 40
0.4999999999999998
 40
0.4999999999999998
 40
0.7499999999999999
 40
0.7499999999999999
 40
1.0
 40
1.0
 40
1.0
 40
1.0
 10
241.6863319758011
 20
117.3357631704069
 30
0.0
 10
241.810765981913
 20
117.2745112845829
 30
0.0
 10
241.9165700155601
 20
117.2088280323942
 30
0.0
 10
242.1055980845788
 20
117.07234875818
 30
0.0
 10
242.1845873886423
 20
117.0045501281642
 30
0.0
 10
242.3243088376496
 20
116.8702533555094
 30
0.0
 10
242.3851288018912
 20
116.8033083785468
 30
0.0
 10
242.491890617665
 20
116.6734739317376
 30
0.0
 10
242.5381939801451
 20
116.6102181541177
 30
0.0
 10
242.6623979699751
 20
116.4243972925201
 30
0.0
 10
242.725863197575
 20
116.3057178195893
 30
0.0
 10
242.8293468322256
 20
116.077060089792
 30
0.0
 10
242.8689755583914
 20
115.9671216590429
 30
0.0
 10
242.9603436105203
 20
115.6558406720647
 30
0.0
 10
242.986508076589
 20
115.4700651349122
 30
0.0
 10
242.988330976189
 20
115.1544590288665
 30
0.0
 10
242.9644738516131
 20
115.023308397105
 30
0.0
 10
242.9050331072033
 20
114.9446003155325
 30
0.0
  0
ELLIPSE
  5
151
330
1F
100
AcDbEntity
  8
0
  6
HIDDEN
 62
     7
370
     0
100
AcDbEllipse
 10
241.8183509802
 20
118.6504970628
 30
0.0
 11
2.967222170038042
 21
0.578503544025125
 31
0.0
210
0.0
220
0.0
230
1.0
 40
0.1845741307
 41
6.189380907948107
 42
8.359765599910206
  0
LINE
  5
152
330
1F
100
AcDbEntity
  8
0
  6
HIDDEN
 62
     7
370
     0
100
AcDbLine
 10
238.2323094222
 20
116.7064096371
 30
0.0
 11
237.9346736285
 21
116.3122934813
 31
0.0
  0
ELLIPSE
  5
153
330
1F
100
AcDbEntity
  8
0
  6
HIDDEN
 62
     7
370
     0
100
AcDbEllipse
 10
239.3435069321
 20
112.5995598703
 30
0.0
 11
3.671213746604394
 21
-2.058398841173997
 31
0.0
210
0.0
220
0.0
230
1.0
 40
0.8772799171
 41
1.104348183352981
 42
2.379472024591351
  0
LINE
  5
154
330
1F
100
AcDbEntity
  8
0
  6
HIDDEN
 62
     7
370
     0
100
AcDbLine
 10
242.6073946568
 20
114.5504842571
 30
0.0
 11
242.9050304505
 21
114.94460018
 31
0.0
  0
ELLIPSE
  5
155
330
1F
100
AcDbEntity
  8
0
  6
HIDDEN
 62
     7
370
     0
100
AcDbEllipse
 10
238.4456847947
 20
111.4107144288
 30
0.0
 11
-2.570105550204659
 21
-3.403188827857349
 31
0.0
210
0.0
220
0.0
230
1.0
 40
0.9848432766
 41
2.09906661268544
 42
5.463108037728075
  0
ARC
  5
156
330
1F
100
AcDbEntity
  8
0
  6
HIDDEN
 62
     7
370
     0
100
AcDbCircle
 10
240.0038410981
 20
113.5124150224
 30
0.0
 40
4.177171724860044
100
AcDbArc
 50
72.4353542089
 51
66.2477769049
  0
ARC
  5
157
330
1F
100
AcDbEntity
  8
0
  6
HIDDEN
 62
     7
370
     0
100
AcDbCircle
 10
236.8446142612
 20
121.2025839445
 30
0.0
 40
2.100339453776054
100
AcDbArc
 50
143.6057892147
 51
274.5647237859
  0
LINE
  5
158
330
1F
100
AcDbEntity
  8
0
  6
HIDDEN
 62
     7
370
     0
100
AcDbLine
 10
240.117611787
 20
119.3340389582
 30
0.0
 11
237.0117702099
 21
119.1089066269
 31
0.0
  0
LINE
  5
159
330
1F
100
AcDbEntity
  8
0
  6
HIDDEN
 62
     7
370
     0
100
AcDbLine
 10
237.0551102373
 20
118.6150225403
 30
0.0
 11
240.2873434636
 21
118.8493172231
 31
0.0
  0
ARC
  5
15A
330
1F
100
AcDbEntity
  8
0
  6
HIDDEN
 62
     7
370
     0
100
AcDbCircle
 10
236.5365760769
 20
120.7919646496
 30
0.0
 40
2.096717170957764
100
AcDbArc
 50
132.5158014748
 51
274.5924767089
  0
LINE
  5
15B
330
1F
100
AcDbEntity
  8
0
  6
HIDDEN
 62
     7
370
     0
100
AcDbLine
 10
238.4473778817
 20
123.3879827487
 30
0.0
 11
239.0935592863
 21
130.7327669638
 31
0.0
  0
LINE
  5
15C
330
1F
100
AcDbEntity
  8
0
  6
HIDDEN
 62
     7
370
     0
100
AcDbLine
 10
238.5899968955
 20
130.6900490599
 30
0.0
 11
237.9443668338
 21
123.3515205386
 31
0.0
  0
LWPOLYLINE
  5
15D
330
1F
100
AcDbEntity
  8
0
  6
HIDDEN
 62
     7
370
     0
100
AcDbPolyline
 90
       26
 70
   128
 43
0.0
 10
211.9077988478
 20
110.536441498
 10
212.5295199963
 20
110.4617435194
 10
213.1121852013
 20
110.2423431294
 10
213.6191674086
 20
109.8920260847
 10
214.0186153861
 20
109.4328040781
 10
214.2854430291
 20
108.893531753
 10
214.4028641793
 20
108.308093535
 10
214.3635176631
 20
107.7132745704
 10
214.1698696228
 20
107.1464497654
 10
213.8340794059
 20
106.6432345251
 10
213.3772619578
 20
106.2352481822
 10
212.8281094643
 20
105.9481251577
 10
212.2211330148
 20
105.7999074983
 10
211.5944646808
 20
105.7999074983
 10
210.9874882313
 20
105.9481251577
 10
210.4383357378
 20
106.2352481822
 10
209.9815182897
 20
106.6432345251
 10
209.6457280728
 20
107.1464497654
 10
209.4520800325
 20
107.7132745704
 10
209.4127335164
 20
108.308093535
 10
209.5301546666
 20
108.893531753
 10
209.7969823095
 20
109.4328040781
 10
210.196430287
 20
109.8920260847
 10
210.7034124943
 20
110.2423431294
 10
211.2860702487
 20
110.4617435194
 10
211.9077988478
 20
110.536441498
  0
LINE
  5
15E
330
1F
100
AcDbEntity
  8
0
  6
HIDDEN
 62
     7
370
     0
100
AcDbLine
 10
244.9055113408
 20
119.4668176177
 30
0.0
 11
244.9864097449
 21
119.6869627165
 31
0.0
  0
LINE
  5
15F
330
1F
100
AcDbEntity
  8
0
  6
HIDDEN
 62
     7
370
     0
100
AcDbLine
 10
249.3451558563
 20
120.0029139
 30
0.0
 11
244.9864097449
 21
119.6869627165
 31
0.0
  0
LINE
  5
160
330
1F
100
AcDbEntity
  8
0
  6
HIDDEN
 62
     7
370
     0
100
AcDbLine
 10
249.3011452767
 20
119.5026986825
 30
0.0
 11
249.3451558563
 21
120.0029139
 31
0.0
  0
LINE
  5
161
330
1F
100
AcDbEntity
  8
0
  6
HIDDEN
 62
     7
370
     0
100
AcDbLine
 10
244.7825320574
 20
119.1751581209
 30
0.0
 11
249.3011452767
 21
119.5026986825
 31
0.0
  0
LINE
  5
162
330
1F
100
AcDbEntity
  8
0
  6
HIDDEN
 62
     7
370
     0
100
AcDbLine
 10
242.6073946568
 20
114.5504842571
 30
0.0
 11
243.6541267249
 21
117.7462657506
 31
0.0
  0
LINE
  5
163
330
1F
100
AcDbEntity
  8
0
  6
HIDDEN
 62
     7
370
     0
100
AcDbLine
 10
245.7836740228
 20
122.2856991517
 30
0.0
 11
245.4904713246
 21
121.89745871
 31
0.0
  0
LINE
  5
164
330
1F
100
AcDbEntity
  8
0
  6
HIDDEN
 62
     7
370
     0
100
AcDbLine
 10
244.679095647
 20
119.2800352874
 30
0.0
 11
245.7836740228
 21
122.2856991517
 31
0.0
  0
LINE
  5
165
330
1F
100
AcDbEntity
  8
0
  6
HIDDEN
 62
     7
370
     0
100
AcDbLine
 10
244.9864097449
 20
119.6869627165
 30
0.0
 11
244.679095647
 21
119.2800352874
 31
0.0
  0
LINE
  5
166
330
1F
100
AcDbEntity
  8
0
  6
HIDDEN
 62
     7
370
     0
100
AcDbLine
 10
249.3451558563
 20
120.0029139
 30
0.0
 11
249.0378417584
 21
119.5959864708
 31
0.0
  0
SPLINE
  5
167
330
1F
100
AcDbEntity
  8
0
  6
HIDDEN
 62
     7
370
     0
100
AcDbSpline
210
0.0
220
0.0
230
1.0
 70
     8
 71
     3
 72
     8
 73
     4
 74
     0
 42
0.00000001
 43
0.00000001
 12
1.0
 22
0.0
 32
0.0
 13
1.0
 23
0.0
 33
0.0
 40
0.0
 40
0.0
 40
0.0
 40
0.0
 40
1.0
 40
1.0
 40
1.0
 40
1.0
 10
140.4127585718474
 20
97.20086862489659
 30
0.0
 10
140.4634857150541
 20
97.15511432357138
 30
0.0
 10
140.521373044615
 20
97.12661017770785
 30
0.0
 10
140.5864782062302
 20
97.11488914804904
 30
0.0
  0
LINE
  5
168
330
1F
100
AcDbEntity
  8
0
  6
HIDDEN
 62
     7
370
     0
100
AcDbLine
 10
119.4077976557
 20
101.2823420169
 30
0.0
 11
119.4077976557
 21
97.4424226733
 31
0.0
  0
LINE
  5
169
330
1F
100
AcDbEntity
  8
0
  6
HIDDEN
 62
     7
370
     0
100
AcDbLine
 10
117.9077983412
 20
101.7153548601
 30
0.0
 11
117.9077983412
 21
98.3084483596
 31
0.0
  0
LINE
  5
16A
330
1F
100
AcDbEntity
  8
0
  6
HIDDEN
 62
     7
370
     0
100
AcDbLine
 10
140.2077985273
 20
101.021057606
 30
0.0
 11
140.2077985273
 21
99.9659147637
 31
0.0
  0
LINE
  5
16B
330
1F
100
AcDbEntity
  8
0
  6
HIDDEN
 62
     7
370
     0
100
AcDbLine
 10
140.2077985273
 20
97.0197167771
 30
0.0
 11
140.2077985273
 21
96.9198547828
 31
0.0
  0
SPLINE
  5
16C
330
1F
100
AcDbEntity
  8
0
  6
HIDDEN
 62
     7
370
     0
100
AcDbSpline
210
0.0
220
0.0
230
1.0
 70
     8
 71
     3
 72
    16
 73
    12
 74
     0
 42
0.00000001
 43
0.00000001
 12
1.0
 22
0.0
 32
0.0
 13
1.0
 23
0.0
 33
0.0
 40
0.0
 40
0.0
 40
0.0
 40
0.0
 40
0.2499999999999998
 40
0.2499999999999998
 40
0.3749999999999997
 40
0.3749999999999997
 40
0.4999999999999996
 40
0.4999999999999996
 40
0.7499999999999998
 40
0.7499999999999998
 40
1.0
 40
1.0
 40
1.0
 40
1.0
 10
140.2077985497897
 20
99.96591516380775
 30
0.0
 10
140.1272612178905
 20
99.57690797986375
 30
0.0
 10
140.0672238738632
 20
99.22040753823941
 30
0.0
 10
140.0064861667096
 20
98.73390515305208
 30
0.0
 10
139.9911637915967
 20
98.57982621219864
 30
0.0
 10
139.9705809822924
 20
98.28835665370599
 30
0.0
 10
139.9653813852667
 20
98.15078676980713
 30
0.0
 10
139.9653277320864
 20
97.77254193461788
 30
0.0
 10
139.9855252755638
 20
97.5626608660658
 30
0.0
 10
140.0662033639213
 20
97.22608156715395
 30
0.0
 10
140.1272495285283
 20
97.09979707523543
 30
0.0
 10
140.207798549786
 20
97.01971676774296
 30
0.0
  0
SPLINE
  5
16D
330
1F
100
AcDbEntity
  8
0
  6
HIDDEN
 62
     7
370
     0
100
AcDbSpline
210
0.0
220
0.0
230
1.0
 70
     8
 71
     3
 72
    24
 73
    20
 74
     0
 42
0.00000001
 43
0.00000001
 12
1.0
 22
0.0
 32
0.0
 13
1.0
 23
0.0
 33
0.0
 40
0.0
 40
0.0
 40
0.0
 40
0.0
 40
0.2499999999999926
 40
0.2499999999999926
 40
0.3749999999999869
 40
0.3749999999999869
 40
0.4374999999999852
 40
0.4374999999999852
 40
0.4687499999999856
 40
0.4687499999999856
 40
0.499999999999986
 40
0.499999999999986
 40
0.5624999999999868
 40
0.5624999999999868
 40
0.6249999999999876
 40
0.6249999999999876
 40
0.749999999999991
 40
0.749999999999991
 40
1.0
 40
1.0
 40
1.0
 40
1.0
 10
140.2077985497898
 20
97.01971676774676
 30
0.0
 10
140.2082014604255
 20
97.05014100458476
 30
0.0
 10
140.2102454397661
 20
97.0829991051389
 30
0.0
 10
140.2194826825922
 20
97.13902447229246
 30
0.0
 10
140.2233697455728
 20
97.15863552547788
 30
0.0
 10
140.2342736369794
 20
97.19290980890737
 30
0.0
 10
140.2384156827298
 20
97.20497223437958
 30
0.0
 10
140.2503107564825
 20
97.22729139907905
 30
0.0
 10
140.2555578207913
 20
97.23625791143932
 30
0.0
 10
140.2724248871704
 20
97.25390747596566
 30
0.0
 10
140.2802472946956
 20
97.25805176010547
 30
0.0
 10
140.2971960953172
 20
97.26453930127954
 30
0.0
 10
140.3046524465352
 20
97.26394241990789
 30
0.0
 10
140.3187123497276
 20
97.26219615593587
 30
0.0
 10
140.3248447348636
 20
97.2603654680374
 30
0.0
 10
140.3421394973867
 20
97.25379905846457
 30
0.0
 10
140.3521568157957
 20
97.24793384330587
 30
0.0
 10
140.3805281500385
 20
97.22918915927553
 30
0.0
 10
140.3970635876829
 20
97.21502501118887
 30
0.0
 10
140.4127585718475
 20
97.20086862489661
 30
0.0
  0
LINE
  5
16E
330
1F
100
AcDbEntity
  8
0
  6
HIDDEN
 62
     7
370
     0
100
AcDbLine
 10
119.4077976557
 20
124.4374836388
 30
0.0
 11
119.4077976557
 21
120.5975642952
 31
0.0
  0
LINE
  5
16F
330
1F
100
AcDbEntity
  8
0
  6
HIDDEN
 62
     7
370
     0
100
AcDbLine
 10
117.9077983412
 20
123.5714579525
 30
0.0
 11
117.9077983412
 21
120.164551452
 31
0.0
  0
LINE
  5
170
330
1F
100
AcDbEntity
  8
0
  6
HIDDEN
 62
     7
370
     0
100
AcDbLine
 10
140.2077985273
 20
124.9600515293
 30
0.0
 11
140.2077985273
 21
124.860189535
 31
0.0
  0
LINE
  5
171
330
1F
100
AcDbEntity
  8
0
  6
HIDDEN
 62
     7
370
     0
100
AcDbLine
 10
140.2077985273
 20
121.9139915484
 30
0.0
 11
140.2077985273
 21
120.8588487061
 31
0.0
  0
SPLINE
  5
172
330
1F
100
AcDbEntity
  8
0
  6
HIDDEN
 62
     7
370
     0
100
AcDbSpline
210
0.0
220
0.0
230
1.0
 70
     8
 71
     3
 72
    16
 73
    12
 74
     0
 42
0.00000001
 43
0.00000001
 12
1.0
 22
0.0
 32
0.0
 13
1.0
 23
0.0
 33
0.0
 40
0.0
 40
0.0
 40
0.0
 40
0.0
 40
0.2499999999999996
 40
0.2499999999999996
 40
0.3749999999999995
 40
0.3749999999999995
 40
0.4999999999999994
 40
0.4999999999999994
 40
0.7499999999999998
 40
0.7499999999999998
 40
1.0
 40
1.0
 40
1.0
 40
1.0
 10
140.2077985497897
 20
124.8601895443691
 30
0.0
 10
140.1272612178904
 20
124.7801208582167
 30
0.0
 10
140.067223873863
 20
124.6562563667264
 30
0.0
 10
140.0064861667094
 20
124.4055755427943
 30
0.0
 10
139.9911637915965
 20
124.3111369384848
 30
0.0
 10
139.9705809822923
 20
124.0998258708661
 30
0.0
 10
139.9653813852666
 20
123.9825364161125
 30
0.0
 10
139.9653277320865
 20
123.6045007443573
 30
0.0
 10
139.9855252755642
 20
123.3157235906132
 30
0.0
 10
140.0662033639222
 20
122.6658837274744
 30
0.0
 10
140.1272495285296
 20
122.3030547935816
 30
0.0
 10
140.2077985497877
 20
121.91399114831
 30
0.0
  0
SPLINE
  5
173
330
1F
100
AcDbEntity
  8
0
  6
HIDDEN
 62
     7
370
     0
100
AcDbSpline
210
0.0
220
0.0
230
1.0
 70
     8
 71
     3
 72
    24
 73
    20
 74
     0
 42
0.00000001
 43
0.00000001
 12
1.0
 22
0.0
 32
0.0
 13
1.0
 23
0.0
 33
0.0
 40
0.0
 40
0.0
 40
0.0
 40
0.0
 40
0.2500000000000105
 40
0.2500000000000105
 40
0.3750000000000144
 40
0.3750000000000144
 40
0.4375000000000154
 40
0.4375000000000154
 40
0.5000000000000164
 40
0.5000000000000164
 40
0.5312500000000155
 40
0.5312500000000155
 40
0.5625000000000147
 40
0.5625000000000147
 40
0.6250000000000128
 40
0.6250000000000128
 40
0.7500000000000093
 40
0.7500000000000093
 40
1.0
 40
1.0
 40
1.0
 40
1.0
 10
140.4127585718502
 20
124.6790376872141
 30
0.0
 10
140.3969919835518
 20
124.6648167162259
 30
0.0
 10
140.3803804505972
 20
124.6505864258911
 30
0.0
 10
140.3518541026392
 20
124.6317893706696
 30
0.0
 10
140.3417686688492
 20
124.6259009503284
 30
0.0
 10
140.3242858983143
 20
124.619363555526
 30
0.0
 10
140.3180782418687
 20
124.6175523415248
 30
0.0
 10
140.3038067416236
 20
124.6159465390183
 30
0.0
 10
140.2962366711205
 20
124.6153937616322
 30
0.0
 10
140.2788403416852
 20
124.622592506345
 30
0.0
 10
140.2703810687251
 20
124.6276842550928
 30
0.0
 10
140.2543201041776
 20
124.6454991875719
 30
0.0
 10
140.2494868683313
 20
124.6540216024343
 30
0.0
 10
140.238060948596
 20
124.675918039083
 30
0.0
 10
140.2340395927136
 20
124.6876585618889
 30
0.0
 10
140.2232790976825
 20
124.7217088258423
 30
0.0
 10
140.2194047886216
 20
124.741283814871
 30
0.0
 10
140.2102319164944
 20
124.7971321235521
 30
0.0
 10
140.2081995457797
 20
124.829909884581
 30
0.0
 10
140.2077985497898
 20
124.8601895443689
 30
0.0
  0
SPLINE
  5
174
330
1F
100
AcDbEntity
  8
0
  6
HIDDEN
 62
     7
370
     0
100
AcDbSpline
210
0.0
220
0.0
230
1.0
 70
     8
 71
     3
 72
     8
 73
     4
 74
     0
 42
0.00000001
 43
0.00000001
 12
1.0
 22
0.0
 32
0.0
 13
1.0
 23
0.0
 33
0.0
 40
0.0
 40
0.0
 40
0.0
 40
0.0
 40
1.0
 40
1.0
 40
1.0
 40
1.0
 10
140.5864782062302
 20
124.7650171640593
 30
0.0
 10
140.5213730446161
 20
124.7532961344007
 30
0.0
 10
140.4634857150561
 20
124.724791988538
 30
0.0
 10
140.4127585718501
 20
124.6790376872142
 30
0.0
  0
ARC
  5
175
330
1F
100
AcDbEntity
  8
0
  6
HIDDEN
 62
     7
370
     0
100
AcDbCircle
 10
244.142278995
 20
125.0098113151
 30
0.0
 40
3.180403231691818
100
AcDbArc
 50
301.0707758513
 51
197.6121907711
  0
LINE
  5
176
330
1F
100
AcDbEntity
  8
0
  6
HIDDEN
 62
     7
370
     0
100
AcDbLine
 10
241.1109529945
 20
124.0475081431
 30
0.0
 11
239.3005811187
 21
119.1213165002
 31
0.0
  0
LINE
  5
177
330
1F
100
AcDbEntity
  8
0
  6
HIDDEN
 62
     7
370
     0
100
AcDbLine
 10
249.9787830326
 20
130.2912492829
 30
0.0
 11
249.5207734915
 21
130.7690959948
 31
0.0
  0
LINE
  5
178
330
1F
100
AcDbEntity
  8
0
  6
HIDDEN
 62
     7
370
     0
100
AcDbLine
 10
244.679095647
 20
119.2800352874
 30
0.0
 11
249.0378417584
 21
119.5959864708
 31
0.0
  0
LINE
  5
179
330
1F
100
AcDbEntity
  8
0
  6
HIDDEN
 62
     7
370
     0
100
AcDbLine
 10
238.7607865545
 20
130.0365157949
 30
0.0
 11
238.1400637838
 21
122.9810553195
 31
0.0
  0
LINE
  5
17A
330
1F
100
AcDbEntity
  8
0
  6
HIDDEN
 62
     7
370
     0
100
AcDbLine
 10
236.704456112
 20
118.7019791978
 30
0.0
 11
239.2233334991
 21
118.8845649886
 31
0.0
  0
LINE
  5
17B
330
1F
100
AcDbEntity
  8
0
  6
HIDDEN
 62
     7
370
     0
100
AcDbLine
 10
249.0378417584
 20
119.5959864708
 30
0.0
 11
249.9787830326
 21
130.2912492829
 31
0.0
  0
SPLINE
  5
17C
330
1F
100
AcDbEntity
  8
0
  6
HIDDEN
 62
     7
370
     0
100
AcDbSpline
210
0.0
220
0.0
230
1.0
 70
     8
 71
     3
 72
    10
 73
     6
 74
     0
 42
0.00000001
 43
0.00000001
 12
1.0
 22
0.0
 32
0.0
 13
1.0
 23
0.0
 33
0.0
 40
0.0
 40
0.0
 40
0.0
 40
0.0
 40
0.5
 40
0.5
 40
1.0
 40
1.0
 40
1.0
 40
1.0
 10
244.7988897617411
 20
121.3109477571601
 30
0.0
 10
244.9622875717271
 20
121.4220267985424
 30
0.0
 10
245.1053093831729
 20
121.5331399778514
 30
0.0
 10
245.3438820780501
 20
121.7377137867645
 30
0.0
 10
245.4411656475893
 20
121.8321679798803
 30
0.0
 10
245.4904737713612
 20
121.8974590166354
 30
0.0
  0
ARC
  5
17D
330
1F
100
AcDbEntity
  8
0
  6
HIDDEN
 62
     7
370
     0
100
AcDbCircle
 10
243.6090210752
 20
124.1895627917
 30
0.0
 40
3.114835698075822
100
AcDbArc
 50
292.4575780138
 51
359.9449914311
  0
ARC
  5
17E
330
1F
100
AcDbEntity
  8
0
  6
HIDDEN
 62
     7
370
     0
100
AcDbCircle
 10
243.4922997907
 20
124.1766416422
 30
0.0
 40
3.232926827555072
100
AcDbArc
 50
5.8516536715
 51
88.9664341003
  0
ARC
  5
17F
330
1F
100
AcDbEntity
  8
0
  6
HIDDEN
 62
     7
370
     0
100
AcDbCircle
 10
243.4850531313
 20
124.2802035426
 30
0.0
 40
3.128678623130777
100
AcDbArc
 50
105.4182437522
 51
207.0617917994
  0
SPLINE
  5
180
330
1F
100
AcDbEntity
  8
0
  6
HIDDEN
 62
     7
370
     0
100
AcDbSpline
210
0.0
220
0.0
230
1.0
 70
     8
 71
     3
 72
    10
 73
     6
 74
     0
 42
0.00000001
 43
0.00000001
 12
1.0
 22
0.0
 32
0.0
 13
1.0
 23
0.0
 33
0.0
 40
0.0
 40
0.0
 40
0.0
 40
0.0
 40
0.5
 40
0.5
 40
1.0
 40
1.0
 40
1.0
 40
1.0
 10
240.8177493399234
 20
123.6592682793181
 30
0.0
 10
240.7683532974121
 20
123.5938608255264
 30
0.0
 10
240.7366889741116
 20
123.4759910570082
 30
0.0
 10
240.6970803134805
 20
123.196281570985
 30
0.0
 10
240.6900532720307
 20
123.0330516564069
 30
0.0
 10
240.6989119769508
 20
122.8568079815374
 30
0.0
  0
LINE
  5
181
330
1F
100
AcDbEntity
  8
0
  6
HIDDEN
 62
     7
370
     0
100
AcDbLine
 10
240.8177502963
 20
123.6592686328
 30
0.0
 11
241.1109529945
 21
124.0475081431
 31
0.0
  0
SPLINE
  5
182
330
1F
100
AcDbEntity
  8
0
  6
HIDDEN
 62
     7
370
     0
100
AcDbSpline
210
0.0
220
0.0
230
1.0
 70
     8
 71
     3
 72
    16
 73
    12
 74
     0
 42
0.00000001
 43
0.00000001
 12
1.0
 22
0.0
 32
0.0
 13
1.0
 23
0.0
 33
0.0
 40
0.0
 40
0.0
 40
0.0
 40
0.0
 40
0.0835560002505752
 40
0.1670549714364397
 40
0.2505256748789115
 40
0.3756267725039103
 40
0.5007043409174344
 40
0.6255976893831247
 40
0.7505307682137898
 40
0.875254981640483
 40
1.0
 40
1.0
 40
1.0
 40
1.0
 10
249.2414199206014
 20
127.7093080601469
 30
0.0
 10
249.26273035144
 20
127.7963154360095
 30
0.0
 10
249.305336668214
 20
127.9702708030195
 30
0.0
 10
249.3688120711903
 20
128.2214792143088
 30
0.0
 10
249.4424217201505
 20
128.5059439007331
 30
0.0
 10
249.5258720168023
 20
128.8176806465204
 30
0.0
 10
249.6187539885973
 20
129.1502569721257
 30
0.0
 10
249.7105980110291
 20
129.464584659008
 30
0.0
 10
249.8012554228917
 20
129.7598096059768
 30
0.0
 10
249.8908234345549
 20
130.0376251209888
 30
0.0
 10
249.9494607942511
 20
130.2067034598461
 30
0.0
 10
249.978781919183
 20
130.29124967957
 30
0.0
  0
LWPOLYLINE
  5
183
330
1F
100
AcDbEntity
  8
0
  6
HIDDEN
 62
     7
370
     0
100
AcDbPolyline
 90
       29
 70
   128
 43
0.0
 10
211.9077988478
 20
110.955733262
 10
212.5753634187
 20
110.8841983441
 10
213.209452531
 20
110.6731806649
 10
213.7782671067
 20
110.3332615166
 10
214.2532937738
 20
109.8814858415
 10
214.6107055756
 20
109.3405075662
 10
214.8325838658
 20
108.737453731
 10
214.9077974769
 20
108.1025636813
 10
214.8325838658
 20
107.4676738645
 10
214.6107055756
 20
106.86461968
 10
214.2532937738
 20
106.3236414047
 10
213.7782671067
 20
105.871866137
 10
213.209452531
 20
105.5319469015
 10
212.5753634187
 20
105.3209292295
 10
211.9077988478
 20
105.2493943425
 10
211.2402342769
 20
105.3209292295
 10
210.6061451646
 20
105.5319469015
 10
210.037330589
 20
105.871866137
 10
209.5623039218
 20
106.3236414047
 10
209.20489212
 20
106.86461968
 10
208.9830138298
 20
107.4676738645
 10
208.9078002187
 20
108.1025636813
 10
208.9830138298
 20
108.737453731
 10
209.20489212
 20
109.3405075662
 10
209.5623039218
 20
109.8814858415
 10
210.037330589
 20
110.3332615166
 10
210.6061451646
 20
110.6731806649
 10
211.2402342769
 20
110.8841983441
 10
211.9077988478
 20
110.955733262
  0
LWPOLYLINE
  5
184
330
1F
100
AcDbEntity
  8
0
  6
HIDDEN
 62
     7
370
     0
100
AcDbPolyline
 90
       13
 70
   128
 43
0.0
 10
238.9814056965
 20
119.5080752077
 10
239.2118223521
 20
119.9384868669
 10
239.5857520911
 20
120.2795353311
 10
240.0777213785
 20
120.5079766514
 10
240.654195151
 20
120.6082447025
 10
241.2758864972
 20
120.5735063704
 10
241.9004388663
 20
120.406128146
 10
242.4852796408
 20
120.1175168681
 10
242.9905556652
 20
119.7273402067
 10
243.3818378064
 20
119.2621892842
 10
243.6324529859
 20
118.7537635269
 10
243.725324473
 20
118.2367099973
 10
243.6541267249
 20
117.7462657506
  0
ELLIPSE
  5
185
330
1F
100
AcDbEntity
  8
0
  6
HIDDEN
 62
     7
370
     0
100
AcDbEllipse
 10
242.2678806185
 20
120.7749745942
 30
0.0
 11
0.9382876123695781
 21
2.751666891553314
 31
0.0
210
0.0
220
0.0
230
1.0
 40
0.8587453104
 41
5.185286000754179
 42
7.326232755440884
  0
LINE
  5
186
330
1F
100
AcDbEntity
  8
0
  6
HIDDEN
 62
     7
370
     0
100
AcDbLine
 10
117.9077983412
 20
120.164551452
 30
0.0
 11
117.9077983412
 21
112.7901670116
 31
0.0
  0
LINE
  5
187
330
1F
100
AcDbEntity
  8
0
  6
HIDDEN
 62
     7
370
     0
100
AcDbLine
 10
117.9077983412
 20
109.0897393005
 30
0.0
 11
117.9077983412
 21
101.7153548601
 31
0.0
  0
SPLINE
  5
188
330
1F
100
AcDbEntity
  8
0
  6
HIDDEN
 62
     7
370
     0
100
AcDbSpline
210
0.0
220
0.0
230
1.0
 70
     8
 71
     3
 72
    24
 73
    20
 74
     0
 42
0.00000001
 43
0.00000001
 12
1.0
 22
0.0
 32
0.0
 13
1.0
 23
0.0
 33
0.0
 40
0.0
 40
0.0
 40
0.0
 40
0.0
 40
0.2499999999999913
 40
0.2499999999999913
 40
0.3749999999999883
 40
0.3749999999999883
 40
0.4374999999999838
 40
0.4374999999999838
 40
0.4999999999999793
 40
0.4999999999999793
 40
0.5312499999999771
 40
0.5312499999999771
 40
0.562499999999975
 40
0.562499999999975
 40
0.6249999999999761
 40
0.6249999999999761
 40
0.7499999999999843
 40
0.7499999999999843
 40
1.0
 40
1.0
 40
1.0
 40
1.0
 10
140.4127585718502
 20
100.147359429256
 30
0.0
 10
140.3969896944928
 20
100.0735007373264
 30
0.0
 10
140.3803757126427
 20
99.99978934859062
 30
0.0
 10
140.3518440466377
 20
99.88824252496858
 30
0.0
 10
140.341756631819
 20
99.85087095184011
 30
0.0
 10
140.3242690713646
 20
99.7939714542024
 30
0.0
 10
140.3180595095814
 20
99.7748683540571
 30
0.0
 10
140.3037819559287
 20
99.73599483982156
 30
0.0
 10
140.2962104081333
 20
99.71607018038819
 30
0.0
 10
140.2787928244551
 20
99.68599796236079
 30
0.0
 10
140.2703103278101
 20
99.6743165835577
 30
0.0
 10
140.2542720159382
 20
99.66705507280903
 30
0.0
 10
140.2494514677347
 20
99.67063331981882
 30
0.0
 10
140.2380422431868
 20
99.68239417505046
 30
0.0
 10
140.2340217627292
 20
99.69405982510102
 30
0.0
 10
140.2232679079089
 20
99.7305951552146
 30
0.0
 10
140.2193952266268
 20
99.75799088853816
 30
0.0
 10
140.2102270767891
 20
99.84271688029415
 30
0.0
 10
140.20819857142
 20
99.90354900246624
 30
0.0
 10
140.2077985497898
 20
99.96591516380785
 30
0.0
  0
SPLINE
  5
189
330
1F
100
AcDbEntity
  8
0
  6
HIDDEN
 62
     7
370
     0
100
AcDbSpline
210
0.0
220
0.0
230
1.0
 70
     8
 71
     3
 72
    24
 73
    20
 74
     0
 42
0.00000001
 43
0.00000001
 12
1.0
 22
0.0
 32
0.0
 13
1.0
 23
0.0
 33
0.0
 40
0.0
 40
0.0
 40
0.0
 40
0.0
 40
0.2499999999999946
 40
0.2499999999999946
 40
0.3749999999999936
 40
0.3749999999999936
 40
0.4374999999999901
 40
0.4374999999999901
 40
0.468749999999989
 40
0.468749999999989
 40
0.499999999999988
 40
0.499999999999988
 40
0.5624999999999899
 40
0.5624999999999899
 40
0.6249999999999917
 40
0.6249999999999917
 40
0.7499999999999957
 40
0.7499999999999957
 40
1.0
 40
1.0
 40
1.0
 40
1.0
 10
140.2077985497862
 20
121.9139911483114
 30
0.0
 10
140.208203219362
 20
121.977081956804
 30
0.0
 10
140.2102466661764
 20
122.0382676793065
 30
0.0
 10
140.2196462314307
 20
122.1237674118082
 30
0.0
 10
140.2235971249594
 20
122.1513477952493
 30
0.0
 10
140.2347494332564
 20
122.1878018773609
 30
0.0
 10
140.2389709741829
 20
122.1996602990553
 30
0.0
 10
140.2511786957465
 20
122.2102803504307
 30
0.0
 10
140.2569694659987
 20
122.2131137176529
 30
0.0
 10
140.2738909791085
 20
122.2017991306547
 30
0.0
 10
140.2812970950583
 20
122.1900182449009
 30
0.0
 10
140.2977543483015
 20
122.1599774036712
 30
0.0
 10
140.3052108662125
 20
122.1402644500582
 30
0.0
 10
140.3191187954871
 20
122.1018623839981
 30
0.0
 10
140.3252107413821
 20
122.0829807340866
 30
0.0
 10
140.3424050337331
 20
122.0266798235551
 30
0.0
 10
140.3523899839367
 20
121.9896037457455
 30
0.0
 10
140.3806360290356
 20
121.8789450748556
 30
0.0
 10
140.3971155659967
 20
121.8058160144471
 30
0.0
 10
140.4127585718564
 20
121.7325468828232
 30
0.0
  0
SPLINE
  5
18A
330
1F
100
AcDbEntity
  8
0
  6
HIDDEN
 62
     7
370
     0
100
AcDbSpline
210
0.0
220
0.0
230
1.0
 70
     8
 71
     3
 72
     8
 73
     4
 74
     0
 42
0.00000001
 43
0.00000001
 12
1.0
 22
0.0
 32
0.0
 13
1.0
 23
0.0
 33
0.0
 40
0.0
 40
0.0
 40
0.0
 40
0.0
 40
1.0
 40
1.0
 40
1.0
 40
1.0
 10
140.5864782062302
 20
100.8864338384474
 30
0.0
 10
140.5213730446161
 20
100.6314086032417
 30
0.0
 10
140.4634857150561
 20
100.3849565871005
 30
0.0
 10
140.4127585718501
 20
100.1473594292559
 30
0.0
  0
SPLINE
  5
18B
330
1F
100
AcDbEntity
  8
0
  6
HIDDEN
 62
     7
370
     0
100
AcDbSpline
210
0.0
220
0.0
230
1.0
 70
     8
 71
     3
 72
     8
 73
     4
 74
     0
 42
0.00000001
 43
0.00000001
 12
1.0
 22
0.0
 32
0.0
 13
1.0
 23
0.0
 33
0.0
 40
0.0
 40
0.0
 40
0.0
 40
0.0
 40
1.0
 40
1.0
 40
1.0
 40
1.0
 10
140.4127585718564
 20
121.7325468828232
 30
0.0
 10
140.4634857150609
 20
121.4949497249877
 30
0.0
 10
140.5213730446188
 20
121.2484977088562
 30
0.0
 10
140.5864782062302
 20
120.993472473661
 30
0.0
  0
LINE
  5
18C
330
1F
100
AcDbEntity
  8
0
  6
HIDDEN
 62
     7
370
     0
100
AcDbLine
 10
119.4077976557
 20
108.3849248535
 30
0.0
 11
119.4077976557
 21
101.2823420169
 31
0.0
  0
LINE
  5
18D
330
1F
100
AcDbEntity
  8
0
  6
HIDDEN
 62
     7
370
     0
100
AcDbLine
 10
119.4077976557
 20
120.5975642952
 30
0.0
 11
119.4077976557
 21
113.4949814586
 31
0.0
  0
LINE
  5
18E
330
1F
100
AcDbEntity
  8
0
  6
HIDDEN
 62
     7
370
     0
100
AcDbLine
 10
140.2077985273
 20
120.8588487061
 30
0.0
 11
140.2077985273
 21
101.021057606
 31
0.0
  0
LINE
  5
18F
330
1F
100
AcDbEntity
  8
0
  6
HIDDEN
 62
     7
370
     0
100
AcDbLine
 10
238.9814056965
 20
119.5080752077
 30
0.0
 11
237.9346736285
 21
116.3122934813
 31
0.0
  0
LINE
  5
190
330
1F
100
AcDbEntity
  8
0
  6
HIDDEN
 62
     7
370
     0
100
AcDbLine
 10
141.7077985548
 20
119.4193201663
 30
0.0
 11
141.7077985548
 21
102.4605861458
 31
0.0
  0
SPLINE
  5
191
330
1F
100
AcDbEntity
  8
0
  6
HIDDEN
 62
     7
370
     0
100
AcDbSpline
210
0.0
220
0.0
230
1.0
 70
     8
 71
     3
 72
    22
 73
    18
 74
     0
 42
0.00000001
 43
0.00000001
 12
1.0
 22
0.0
 32
0.0
 13
1.0
 23
0.0
 33
0.0
 40
0.0
 40
0.0
 40
0.0
 40
0.0
 40
0.1249999999999999
 40
0.1249999999999999
 40
0.2499999999999999
 40
0.2499999999999999
 40
0.3749999999999999
 40
0.3749999999999999
 40
0.4999999999999999
 40
0.4999999999999999
 40
0.6249999999999999
 40
0.6249999999999999
 40
0.7499999999999999
 40
0.7499999999999999
 40
0.8749999999999999
 40
0.8749999999999999
 40
1.0
 40
1.0
 40
1.0
 40
1.0
 10
122.1077985497898
 20
108.3470084762262
 30
0.0
 10
122.288734907866
 20
108.5386283355328
 30
0.0
 10
122.4678303566428
 20
108.7322701999199
 30
0.0
 10
122.8186703451548
 20
109.1269254533042
 30
0.0
 10
122.9908634530595
 20
109.3279369839718
 30
0.0
 10
123.3165949586787
 20
109.7441480992055
 30
0.0
 10
123.4726711938471
 20
109.9601639394922
 30
0.0
 10
123.7240504077362
 20
110.425486702657
 30
0.0
 10
123.817915538055
 20
110.6810258956798
 30
0.0
 10
123.8141876211928
 20
111.2153565307804
 30
0.0
 10
123.7168149787055
 20
111.4707773967812
 30
0.0
 10
123.4649941697116
 20
111.9308061127288
 30
0.0
 10
123.310024914239
 20
112.1446431136574
 30
0.0
 10
122.9852121565137
 20
112.5586816963512
 30
0.0
 10
122.8143190923858
 20
112.757974168387
 30
0.0
 10
122.4656848528582
 20
113.1499490608212
 30
0.0
 10
122.2876770023297
 20
113.3423983468106
 30
0.0
 10
122.1077985497898
 20
113.5328978358822
 30
0.0
  0
LINE
  5
192
330
1F
100
AcDbEntity
  8
0
  6
HIDDEN
 62
     7
370
     0
100
AcDbLine
 10
122.1077986571
 20
108.3470083831
 30
0.0
 11
122.1077986571
 21
113.532897929
 31
0.0
  0
SPLINE
  5
193
330
1F
100
AcDbEntity
  8
0
  6
HIDDEN
 62
     7
370
     0
100
AcDbSpline
210
0.0
220
0.0
230
1.0
 70
     8
 71
     3
 72
     8
 73
     4
 74
     0
 42
0.00000001
 43
0.00000001
 12
1.0
 22
0.0
 32
0.0
 13
1.0
 23
0.0
 33
0.0
 40
0.0000137051794235
 40
0.0000137051794235
 40
0.0000137051794235
 40
0.0000137051794235
 40
0.0027147144718019
 40
0.0027147144718019
 40
0.0027147144718019
 40
0.0027147144718019
 10
119.4077985497898
 20
108.3849249189924
 30
0.0
 10
120.3077946852846
 20
108.3719533517941
 30
0.0
 10
121.20779486388
 20
108.359318494482
 30
0.0
 10
122.1077985497898
 20
108.3470084762262
 30
0.0
  0
SPLINE
  5
194
330
1F
100
AcDbEntity
  8
0
  6
HIDDEN
 62
     7
370
     0
100
AcDbSpline
210
0.0
220
0.0
230
1.0
 70
     8
 71
     3
 72
     8
 73
     4
 74
     0
 42
0.00000001
 43
0.00000001
 12
1.0
 22
0.0
 32
0.0
 13
1.0
 23
0.0
 33
0.0
 40
0.0000137050638847
 40
0.0000137050638847
 40
0.0000137050638847
 40
0.0000137050638847
 40
0.0027147143562631
 40
0.0027147143562631
 40
0.0027147143562631
 40
0.0027147143562631
 10
122.1077985497898
 20
113.5328978358822
 30
0.0
 10
121.20779486388
 20
113.5205878176264
 30
0.0
 10
120.3077946852846
 20
113.5079529603143
 30
0.0
 10
119.4077985497898
 20
113.4949813931159
 30
0.0
  0
SPLINE
  5
195
330
1F
100
AcDbEntity
  8
0
  6
HIDDEN
 62
     7
370
     0
100
AcDbSpline
210
0.0
220
0.0
230
1.0
 70
     8
 71
     3
 72
    10
 73
     6
 74
     0
 42
0.00000001
 43
0.00000001
 12
1.0
 22
0.0
 32
0.0
 13
1.0
 23
0.0
 33
0.0
 40
0.0
 40
0.0
 40
0.0
 40
0.0
 40
0.5
 40
0.5
 40
1.0
 40
1.0
 40
1.0
 40
1.0
 10
117.9077985497889
 20
109.0897393424041
 30
0.0
 10
118.1449405105048
 20
108.9341245278752
 30
0.0
 10
118.3902832692682
 20
108.8022154984559
 30
0.0
 10
118.8915468580013
 20
108.5705586218184
 30
0.0
 10
119.1475814272516
 20
108.4711130056956
 30
0.0
 10
119.4077985497898
 20
108.3849249189924
 30
0.0
  0
SPLINE
  5
196
330
1F
100
AcDbEntity
  8
0
  6
HIDDEN
 62
     7
370
     0
100
AcDbSpline
210
0.0
220
0.0
230
1.0
 70
     8
 71
     3
 72
    10
 73
     6
 74
     0
 42
0.00000001
 43
0.00000001
 12
1.0
 22
0.0
 32
0.0
 13
1.0
 23
0.0
 33
0.0
 40
0.0
 40
0.0
 40
0.0
 40
0.0
 40
0.5
 40
0.5
 40
1.0
 40
1.0
 40
1.0
 40
1.0
 10
119.4077985497898
 20
113.4949813931159
 30
0.0
 10
119.1475814272518
 20
113.4087933064129
 30
0.0
 10
118.8915468580016
 20
113.3093476902901
 30
0.0
 10
118.3902832692688
 20
113.0776908136528
 30
0.0
 10
118.1449405105055
 20
112.9457817842336
 30
0.0
 10
117.9077985497898
 20
112.7901669697049
 30
0.0
  0
LINE
  5
197
330
1F
100
AcDbEntity
  8
0
  6
HIDDEN
 62
     7
370
     0
100
AcDbLine
 10
117.9077983412
 20
109.0897393005
 30
0.0
 11
117.9077983412
 21
112.7901670116
 31
0.0
  0
SPLINE
  5
198
330
1F
100
AcDbEntity
  8
0
  6
HIDDEN
 62
     7
370
     0
100
AcDbSpline
210
0.0
220
0.0
230
1.0
 70
     8
 71
     3
 72
    11
 73
     7
 74
     0
 42
0.00000001
 43
0.00000001
 12
1.0
 22
0.0
 32
0.0
 13
1.0
 23
0.0
 33
0.0
 40
0.0
 40
0.0
 40
0.0
 40
0.0
 40
0.2494342645716408
 40
0.4992338001118321
 40
0.7494164560637817
 40
0.9999999999999999
 40
0.9999999999999999
 40
0.9999999999999999
 40
0.9999999999999999
 10
248.9616001614527
 20
128.8634878795671
 30
0.0
 10
248.9829934797081
 20
128.7706949029596
 30
0.0
 10
249.0258114445454
 20
128.5849730639214
 30
0.0
 10
249.0943161312393
 20
128.2988662596099
 30
0.0
 10
249.1657349814116
 20
128.0076223541911
 30
0.0
 10
249.2161797650024
 20
127.8087984519294
 30
0.0
 10
249.2414223485635
 20
127.7093069166399
 30
0.0
  0
ELLIPSE
  5
199
330
1F
100
AcDbEntity
  8
0
  6
HIDDEN
 62
     7
370
     0
100
AcDbEllipse
 10
249.35373967
 20
116.9399531561
 30
0.0
 11
1.744099306549231
 21
16.99926090527389
 31
0.0
210
0.0
220
0.0
230
1.0
 40
0.090889472
 41
0.894063933758778
 42
1.580121183404163
  0
SPLINE
  5
19A
330
1F
100
AcDbEntity
  8
0
  6
HIDDEN
 62
     7
370
     0
100
AcDbSpline
210
0.0
220
0.0
230
1.0
 70
     8
 71
     3
 72
    62
 73
    58
 74
     0
 42
0.00000001
 43
0.00000001
 12
1.0
 22
0.0
 32
0.0
 13
1.0
 23
0.0
 33
0.0
 40
-0.0312499999999998
 40
-0.0312499999999998
 40
0.0
 40
0.0
 40
0.0312500000000003
 40
0.0312500000000003
 40
0.0625000000000007
 40
0.0625000000000007
 40
0.093750000000001
 40
0.093750000000001
 40
0.1250000000000013
 40
0.1250000000000013
 40
0.1875000000000017
 40
0.1875000000000017
 40
0.250000000000002
 40
0.250000000000002
 40
0.281250000000002
 40
0.281250000000002
 40
0.312500000000002
 40
0.312500000000002
 40
0.343750000000002
 40
0.343750000000002
 40
0.375000000000002
 40
0.375000000000002
 40
0.4375000000000021
 40
0.4375000000000021
 40
0.468750000000002
 40
0.468750000000002
 40
0.5000000000000019
 40
0.5000000000000019
 40
0.5625000000000017
 40
0.5625000000000017
 40
0.5937500000000016
 40
0.5937500000000016
 40
0.6250000000000014
 40
0.6250000000000014
 40
0.6562500000000013
 40
0.6562500000000013
 40
0.6875000000000012
 40
0.6875000000000012
 40
0.7187500000000011
 40
0.7187500000000011
 40
0.750000000000001
 40
0.750000000000001
 40
0.7812500000000009
 40
0.7812500000000009
 40
0.8125000000000008
 40
0.8125000000000008
 40
0.8437500000000007
 40
0.8437500000000007
 40
0.8750000000000006
 40
0.8750000000000006
 40
0.9062500000000004
 40
0.9062500000000004
 40
0.9375000000000003
 40
0.9375000000000003
 40
0.9687500000000002
 40
0.9687500000000002
 40
1.0
 40
1.0
 40
1.03125
 40
1.03125
 10
128.3615706777181
 20
112.4279321947105
 30
0.0
 10
128.5890710243063
 20
112.6772787365712
 30
0.0
 10
128.7135335532238
 20
112.7888764140281
 30
0.0
 10
128.9826278193756
 20
112.9875272098464
 30
0.0
 10
129.1284409109649
 20
113.0748674546352
 30
0.0
 10
129.4296077892542
 20
113.2190632072774
 30
0.0
 10
129.5859435163186
 20
113.2768828777916
 30
0.0
 10
129.910066815653
 20
113.3641364898427
 30
0.0
 10
130.0767320273635
 20
113.3929385393245
 30
0.0
 10
130.5747482939954
 20
113.4337178445923
 30
0.0
 10
130.9154192427884
 20
113.4002745844511
 30
0.0
 10
131.5544301582099
 20
113.2178219399923
 30
0.0
 10
131.8608847652737
 20
113.0663973796795
 30
0.0
 10
132.2574406745361
 20
112.7658994740952
 30
0.0
 10
132.3817898653856
 20
112.6516382888998
 30
0.0
 10
132.6042539594348
 20
112.4019784183273
 30
0.0
 10
132.701819297912
 20
112.2678118103282
 30
0.0
 10
132.8690749015508
 20
111.9803427158295
 30
0.0
 10
132.93916055707
 20
111.8250758659296
 30
0.0
 10
133.0432159177915
 20
111.5080964458426
 30
0.0
 10
133.0781916804589
 20
111.3454436943381
 30
0.0
 10
133.1300561999829
 20
110.8445066741356
 30
0.0
 10
133.0907500922115
 20
110.5043520728253
 30
0.0
 10
132.9280302997507
 20
110.0278574407281
 30
0.0
 10
132.8577498018644
 20
109.8767900809007
 30
0.0
 10
132.6864166567344
 20
109.5894955104598
 30
0.0
 10
132.5850244155527
 20
109.4536377321624
 30
0.0
 10
132.2484248283295
 20
109.0848293371642
 30
0.0
 10
131.9731920621649
 20
108.8824042278331
 30
0.0
 10
131.523408834819
 20
108.6653275012243
 30
0.0
 10
131.3646090363153
 20
108.6060252291501
 30
0.0
 10
131.0420473154356
 20
108.5180527113496
 30
0.0
 10
130.8781882034685
 20
108.4889329475033
 30
0.0
 10
130.5453554301146
 20
108.4600763323931
 30
0.0
 10
130.3753031386737
 20
108.4606998556071
 30
0.0
 10
130.043027474654
 20
108.4919562994115
 30
0.0
 10
129.8793128629053
 20
108.5222749944633
 30
0.0
 10
129.5568473773309
 20
108.6129920334663
 30
0.0
 10
129.3983362788044
 20
108.6737609421681
 30
0.0
 10
129.0997825726065
 20
108.8212716169651
 30
0.0
 10
128.9579564434045
 20
108.908406644829
 30
0.0
 10
128.6900347048462
 20
109.110992111401
 30
0.0
 10
128.5659412744536
 20
109.2253302780432
 30
0.0
 10
128.3448070865354
 20
109.473516715996
 30
0.0
 10
128.2463500844368
 20
109.6085493328498
 30
0.0
 10
128.0769915707018
 20
109.9005537309045
 30
0.0
 10
128.0088247329959
 20
110.0526894773401
 30
0.0
 10
127.9050907666694
 20
110.3690984257802
 30
0.0
 10
127.8694222048003
 20
110.5355948951344
 30
0.0
 10
127.8352084401478
 20
110.8688567712449
 30
0.0
 10
127.8360668429768
 20
111.0355192250667
 30
0.0
 10
127.8738636229264
 20
111.3689074242843
 30
0.0
 10
127.9112063783805
 20
111.5346629967638
 30
0.0
 10
128.0184559614489
 20
111.8505543132265
 30
0.0
 10
128.089217177988
 20
112.0038336462986
 30
0.0
 10
128.2613403280887
 20
112.2932106887851
 30
0.0
 10
128.3615706777181
 20
112.4279321947105
 30
0.0
 10
128.5890710243063
 20
112.6772787365712
 30
0.0
  0
SPLINE
  5
19B
330
1F
100
AcDbEntity
  8
0
  6
HIDDEN
 62
     7
370
     0
100
AcDbSpline
210
0.0
220
0.0
230
1.0
 70
     8
 71
     3
 72
    62
 73
    58
 74
     0
 42
0.00000001
 43
0.00000001
 12
1.0
 22
0.0
 32
0.0
 13
1.0
 23
0.0
 33
0.0
 40
-0.0312499999999998
 40
-0.0312499999999998
 40
0.0
 40
0.0
 40
0.0312500000000003
 40
0.0312500000000003
 40
0.0625000000000007
 40
0.0625000000000007
 40
0.093750000000001
 40
0.093750000000001
 40
0.1250000000000013
 40
0.1250000000000013
 40
0.1875000000000017
 40
0.1875000000000017
 40
0.250000000000002
 40
0.250000000000002
 40
0.281250000000002
 40
0.281250000000002
 40
0.312500000000002
 40
0.312500000000002
 40
0.343750000000002
 40
0.343750000000002
 40
0.375000000000002
 40
0.375000000000002
 40
0.4375000000000021
 40
0.4375000000000021
 40
0.468750000000002
 40
0.468750000000002
 40
0.5000000000000019
 40
0.5000000000000019
 40
0.5625000000000017
 40
0.5625000000000017
 40
0.5937500000000016
 40
0.5937500000000016
 40
0.6250000000000014
 40
0.6250000000000014
 40
0.6562500000000013
 40
0.6562500000000013
 40
0.6875000000000012
 40
0.6875000000000012
 40
0.7187500000000011
 40
0.7187500000000011
 40
0.750000000000001
 40
0.750000000000001
 40
0.7812500000000009
 40
0.7812500000000009
 40
0.8125000000000008
 40
0.8125000000000008
 40
0.8437500000000007
 40
0.8437500000000007
 40
0.8750000000000006
 40
0.8750000000000006
 40
0.9062500000000004
 40
0.9062500000000004
 40
0.9375000000000003
 40
0.9375000000000003
 40
0.9687500000000002
 40
0.9687500000000002
 40
1.0
 40
1.0
 40
1.03125
 40
1.03125
 10
128.3615706777181
 20
112.4279321947105
 30
0.0
 10
128.5890710243063
 20
112.6772787365712
 30
0.0
 10
128.7135335532238
 20
112.7888764140281
 30
0.0
 10
128.9826278193756
 20
112.9875272098464
 30
0.0
 10
129.1284409109649
 20
113.0748674546352
 30
0.0
 10
129.4296077892542
 20
113.2190632072774
 30
0.0
 10
129.5859435163186
 20
113.2768828777916
 30
0.0
 10
129.910066815653
 20
113.3641364898427
 30
0.0
 10
130.0767320273635
 20
113.3929385393245
 30
0.0
 10
130.5747482939954
 20
113.4337178445923
 30
0.0
 10
130.9154192427884
 20
113.4002745844511
 30
0.0
 10
131.5544301582099
 20
113.2178219399923
 30
0.0
 10
131.8608847652737
 20
113.0663973796795
 30
0.0
 10
132.2574406745361
 20
112.7658994740952
 30
0.0
 10
132.3817898653856
 20
112.6516382888998
 30
0.0
 10
132.6042539594348
 20
112.4019784183273
 30
0.0
 10
132.701819297912
 20
112.2678118103282
 30
0.0
 10
132.8690749015508
 20
111.9803427158295
 30
0.0
 10
132.93916055707
 20
111.8250758659296
 30
0.0
 10
133.0432159177915
 20
111.5080964458426
 30
0.0
 10
133.0781916804589
 20
111.3454436943381
 30
0.0
 10
133.1300561999829
 20
110.8445066741356
 30
0.0
 10
133.0907500922115
 20
110.5043520728253
 30
0.0
 10
132.9280302997507
 20
110.0278574407281
 30
0.0
 10
132.8577498018644
 20
109.8767900809007
 30
0.0
 10
132.6864166567344
 20
109.5894955104598
 30
0.0
 10
132.5850244155527
 20
109.4536377321624
 30
0.0
 10
132.2484248283295
 20
109.0848293371642
 30
0.0
 10
131.9731920621649
 20
108.8824042278331
 30
0.0
 10
131.523408834819
 20
108.6653275012243
 30
0.0
 10
131.3646090363153
 20
108.6060252291501
 30
0.0
 10
131.0420473154356
 20
108.5180527113496
 30
0.0
 10
130.8781882034685
 20
108.4889329475033
 30
0.0
 10
130.5453554301146
 20
108.4600763323931
 30
0.0
 10
130.3753031386737
 20
108.4606998556071
 30
0.0
 10
130.043027474654
 20
108.4919562994115
 30
0.0
 10
129.8793128629053
 20
108.5222749944633
 30
0.0
 10
129.5568473773309
 20
108.6129920334663
 30
0.0
 10
129.3983362788044
 20
108.6737609421681
 30
0.0
 10
129.0997825726065
 20
108.8212716169651
 30
0.0
 10
128.9579564434045
 20
108.908406644829
 30
0.0
 10
128.6900347048462
 20
109.110992111401
 30
0.0
 10
128.5659412744536
 20
109.2253302780432
 30
0.0
 10
128.3448070865354
 20
109.473516715996
 30
0.0
 10
128.2463500844368
 20
109.6085493328498
 30
0.0
 10
128.0769915707018
 20
109.9005537309045
 30
0.0
 10
128.0088247329959
 20
110.0526894773401
 30
0.0
 10
127.9050907666694
 20
110.3690984257802
 30
0.0
 10
127.8694222048003
 20
110.5355948951344
 30
0.0
 10
127.8352084401478
 20
110.8688567712449
 30
0.0
 10
127.8360668429768
 20
111.0355192250667
 30
0.0
 10
127.8738636229264
 20
111.3689074242843
 30
0.0
 10
127.9112063783805
 20
111.5346629967638
 30
0.0
 10
128.0184559614489
 20
111.8505543132265
 30
0.0
 10
128.089217177988
 20
112.0038336462986
 30
0.0
 10
128.2613403280887
 20
112.2932106887851
 30
0.0
 10
128.3615706777181
 20
112.4279321947105
 30
0.0
 10
128.5890710243063
 20
112.6772787365712
 30
0.0
  0
CIRCLE
  5
19C
330
1F
100
AcDbEntity
  8
0
  6
HIDDEN
 62
     7
370
     0
100
AcDbCircle
 10
130.4077985498
 20
110.9399531561
 30
0.0
 40
2.299999999999997
  0
LINE
  5
19D
330
1F
100
AcDbEntity
  8
0
  6
HIDDEN
 62
     7
370
     0
100
AcDbLine
 10
247.7924921128
 20
116.9399532082
 30
0.0
 11
247.1820362421
 21
110.9399531561
 31
0.0
  0
CIRCLE
  5
19E
330
1F
100
AcDbEntity
  8
0
  6
HIDDEN
 62
     7
370
     0
100
AcDbCircle
 10
153.9077985498
 20
110.9399531561
 30
0.0
 40
2.0
  0
LINE
  5
19F
330
1F
100
AcDbEntity
  8
0
  6
HIDDEN
 62
     7
370
     0
100
AcDbLine
 10
141.9077985498
 20
95.139953919
 30
0.0
 11
142.0006917702
 21
95.2328458952
 31
0.0
  0
LINE
  5
1A0
330
1F
100
AcDbEntity
  8
0
  6
HIDDEN
 62
     7
370
     0
100
AcDbLine
 10
142.0006917702
 20
126.6470604169
 30
0.0
 11
141.9077985498
 21
126.7399523931
 31
0.0
  0
ARC
  5
1A1
330
1F
100
AcDbEntity
  8
0
  6
HIDDEN
 62
     7
370
     0
100
AcDbCircle
 10
141.2935849874
 20
95.9399531561
 30
0.0
 40
1.000000000000018
100
AcDbArc
 50
315.0
 51
0.0
  0
ARC
  5
1A2
330
1F
100
AcDbEntity
  8
0
  6
HIDDEN
 62
     7
370
     0
100
AcDbCircle
 10
141.2935849874
 20
95.9399531561
 30
0.0
 40
1.000000000000016
100
AcDbArc
 50
0.0
 51
52.1052014664
  0
ARC
  5
1A3
330
1F
100
AcDbEntity
  8
0
  6
HIDDEN
 62
     7
370
     0
100
AcDbCircle
 10
141.2935849874
 20
125.9399531561
 30
0.0
 40
1.00000000000003
100
AcDbArc
 50
351.8087250651
 51
45.0
  0
ARC
  5
1A4
330
1F
100
AcDbEntity
  8
0
  6
HIDDEN
 62
     7
370
     0
100
AcDbCircle
 10
141.2935849874
 20
125.9399531561
 30
0.0
 40
1.00000000000003
100
AcDbArc
 50
307.8947985337
 51
351.8087250651
  0
LINE
  5
1A5
330
1F
100
AcDbEntity
  8
0
  6
HIDDEN
 62
     7
370
     0
100
AcDbLine
 10
142.2935849856
 20
95.9399534913
 30
0.0
 11
142.2935849856
 21
125.9399528208
 31
0.0
  0
LINE
  5
1A6
330
1F
100
AcDbEntity
  8
0
  6
HIDDEN
 62
     7
370
     0
100
AcDbLine
 10
142.2935849856
 20
95.9399534913
 30
0.0
 11
142.2935849856
 21
125.9399528208
 31
0.0
  0
LINE
  5
1A7
330
1F
100
AcDbEntity
  8
0
  6
HIDDEN
 62
     7
370
     0
100
AcDbLine
 10
214.4077964636
 20
114.8023248243
 30
0.0
 11
214.4077964636
 21
114.9571739661
 31
0.0
  0
LINE
  5
1A8
330
1F
100
AcDbEntity
  8
0
  6
HIDDEN
 62
     7
370
     0
100
AcDbLine
 10
214.4077964636
 20
112.2528766573
 30
0.0
 11
214.4077964636
 21
113.6947108025
 31
0.0
  0
LINE
  5
1A9
330
1F
100
AcDbEntity
  8
0
  6
HIDDEN
 62
     7
370
     0
100
AcDbLine
 10
209.407801232
 20
114.9571739661
 30
0.0
 11
209.407801232
 21
112.2507244872
 31
0.0
  0
LINE
  5
1AA
330
1F
100
AcDbEntity
  8
0
  6
HIDDEN
 62
     7
370
     0
100
AcDbLine
 10
220.9154315802
 20
120.9387943673
 30
0.0
 11
212.4339141461
 21
116.7574717256
 31
0.0
  0
LINE
  5
1AB
330
1F
100
AcDbEntity
  8
0
  6
HIDDEN
 62
     7
370
     0
100
AcDbLine
 10
214.0734293076
 20
112.8830855305
 30
0.0
 11
220.9946312519
 21
116.29518462
 31
0.0
  0
LINE
  5
1AC
330
1F
100
AcDbEntity
  8
0
  6
HIDDEN
 62
     7
370
     0
100
AcDbLine
 10
117.9077983412
 20
100.784302369
 30
0.0
 11
118.9348310741
 21
101.3772596198
 31
0.0
  0
LINE
  5
1AD
330
1F
100
AcDbEntity
  8
0
  6
HIDDEN
 62
     7
370
     0
100
AcDbLine
 10
118.9348310741
 20
120.5026466923
 30
0.0
 11
117.9077983412
 21
121.0956039431
 31
0.0
  0
LINE
  5
1AE
330
1F
100
AcDbEntity
  8
0
  6
HIDDEN
 62
     7
370
     0
100
AcDbLine
 10
123.4077983114
 20
100.9399533796
 30
0.0
 11
124.4206171992
 21
100.9399533796
 31
0.0
  0
LINE
  5
1AF
330
1F
100
AcDbEntity
  8
0
  6
HIDDEN
 62
     7
370
     0
100
AcDbLine
 10
124.4206171992
 20
120.9399529325
 30
0.0
 11
123.4077983114
 21
120.9399529325
 31
0.0
  0
ARC
  5
1B0
330
1F
100
AcDbEntity
  8
0
  6
HIDDEN
 62
     7
370
     0
100
AcDbCircle
 10
124.4206170195
 20
101.9399531561
 30
0.0
 40
1.000000000000028
100
AcDbArc
 50
270.0
 51
315.0
  0
ARC
  5
1B1
330
1F
100
AcDbEntity
  8
0
  6
HIDDEN
 62
     7
370
     0
100
AcDbCircle
 10
124.4206170195
 20
119.9399531561
 30
0.0
 40
1.000000000000018
100
AcDbArc
 50
45.0
 51
90.0
  0
ARC
  5
1B2
330
1F
100
AcDbEntity
  8
0
  6
HIDDEN
 62
     7
370
     0
100
AcDbCircle
 10
123.4077985498
 20
101.9399531561
 30
0.0
 40
1.000000000000004
100
AcDbArc
 50
193.3524261238
 51
270.0
  0
ARC
  5
1B3
330
1F
100
AcDbEntity
  8
0
  6
HIDDEN
 62
     7
370
     0
100
AcDbCircle
 10
123.4077985498
 20
119.9399531561
 30
0.0
 40
1.000000000000004
100
AcDbArc
 50
90.0
 51
166.6475738762
  0
LINE
  5
1B4
330
1F
100
AcDbEntity
  8
0
  6
HIDDEN
 62
     7
370
     0
100
AcDbLine
 10
125.127723864
 20
101.2328459474
 30
0.0
 11
125.8348305288
 21
101.9399535435
 31
0.0
  0
LINE
  5
1B5
330
1F
100
AcDbEntity
  8
0
  6
HIDDEN
 62
     7
370
     0
100
AcDbLine
 10
125.8348305288
 20
119.9399527686
 30
0.0
 11
125.127723864
 21
120.6470603647
 31
0.0
  0
LINE
  5
1B6
330
1F
100
AcDbEntity
  8
0
  6
HIDDEN
 62
     7
370
     0
100
AcDbLine
 10
118.9348310741
 20
101.3772596198
 30
0.0
 11
121.0348312321
 21
101.9399535435
 31
0.0
  0
LINE
  5
1B7
330
1F
100
AcDbEntity
  8
0
  6
HIDDEN
 62
     7
370
     0
100
AcDbLine
 10
121.0348312321
 20
119.9399527686
 30
0.0
 11
118.9348310741
 21
120.5026466923
 31
0.0
  0
LINE
  5
1B8
330
1F
100
AcDbEntity
  8
0
  6
HIDDEN
 62
     7
370
     0
100
AcDbLine
 10
122.4348307165
 20
120.1708928275
 30
0.0
 11
122.034831396
 21
119.9399527686
 31
0.0
  0
LINE
  5
1B9
330
1F
100
AcDbEntity
  8
0
  6
HIDDEN
 62
     7
370
     0
100
AcDbLine
 10
122.034831396
 20
101.9399535435
 30
0.0
 11
122.4348307165
 21
101.7090134847
 31
0.0
  0
ARC
  5
1BA
330
1F
100
AcDbEntity
  8
0
  6
HIDDEN
 62
     7
370
     0
100
AcDbCircle
 10
132.4077985498
 20
102.4399531561
 30
0.0
 40
0.5
100
AcDbArc
 50
270.0
 51
0.0
  0
ARC
  5
1BB
330
1F
100
AcDbEntity
  8
0
  6
HIDDEN
 62
     7
370
     0
100
AcDbCircle
 10
132.4077985498
 20
119.4399531561
 30
0.0
 40
0.5
100
AcDbArc
 50
0.0
 51
90.0
  0
LINE
  5
1BC
330
1F
100
AcDbEntity
  8
0
  6
HIDDEN
 62
     7
370
     0
100
AcDbLine
 10
121.0348312321
 20
101.9399535435
 30
0.0
 11
122.034831396
 21
101.9399535435
 31
0.0
  0
LINE
  5
1BD
330
1F
100
AcDbEntity
  8
0
  6
HIDDEN
 62
     7
370
     0
100
AcDbLine
 10
122.034831396
 20
119.9399527686
 30
0.0
 11
121.0348312321
 21
119.9399527686
 31
0.0
  0
LINE
  5
1BE
330
1F
100
AcDbEntity
  8
0
  6
HIDDEN
 62
     7
370
     0
100
AcDbLine
 10
125.8348305288
 20
101.9399535435
 30
0.0
 11
132.4077988553
 21
101.9399535435
 31
0.0
  0
LINE
  5
1BF
330
1F
100
AcDbEntity
  8
0
  6
HIDDEN
 62
     7
370
     0
100
AcDbLine
 10
132.4077988553
 20
119.9399527686
 30
0.0
 11
125.8348305288
 21
119.9399527686
 31
0.0
  0
LINE
  5
1C0
330
1F
100
AcDbEntity
  8
0
  6
HIDDEN
 62
     7
370
     0
100
AcDbLine
 10
132.9077989372
 20
103.7899531948
 30
0.0
 11
133.8077983397
 21
104.6899530629
 31
0.0
  0
LINE
  5
1C1
330
1F
100
AcDbEntity
  8
0
  6
HIDDEN
 62
     7
370
     0
100
AcDbLine
 10
133.8077983397
 20
117.1899532492
 30
0.0
 11
132.9077989372
 21
118.0899531173
 31
0.0
  0
LINE
  5
1C2
330
1F
100
AcDbEntity
  8
0
  6
HIDDEN
 62
     7
370
     0
100
AcDbLine
 10
133.8077983397
 20
104.6899530629
 30
0.0
 11
152.9077984902
 21
104.6899530629
 31
0.0
  0
LINE
  5
1C3
330
1F
100
AcDbEntity
  8
0
  6
HIDDEN
 62
     7
370
     0
100
AcDbLine
 10
152.9077984902
 20
117.1899532492
 30
0.0
 11
133.8077983397
 21
117.1899532492
 31
0.0
  0
LINE
  5
1C4
330
1F
100
AcDbEntity
  8
0
  6
HIDDEN
 62
     7
370
     0
100
AcDbLine
 10
152.9077984902
 20
104.6899530629
 30
0.0
 11
154.1095193985
 21
106.6899529251
 31
0.0
  0
LINE
  5
1C5
330
1F
100
AcDbEntity
  8
0
  6
HIDDEN
 62
     7
370
     0
100
AcDbLine
 10
154.1095193985
 20
115.189953387
 30
0.0
 11
152.9077984902
 21
117.1899532492
 31
0.0
  0
LINE
  5
1C6
330
1F
100
AcDbEntity
  8
0
  6
HIDDEN
 62
     7
370
     0
100
AcDbLine
 10
154.1095193985
 20
106.6899529251
 30
0.0
 11
216.90780153
 21
106.6899529251
 31
0.0
  0
LINE
  5
1C7
330
1F
100
AcDbEntity
  8
0
  6
HIDDEN
 62
     7
370
     0
100
AcDbLine
 10
216.90780153
 20
115.189953387
 30
0.0
 11
154.1095193985
 21
115.189953387
 31
0.0
  0
LINE
  5
1C8
330
1F
100
AcDbEntity
  8
0
  6
HIDDEN
 62
     7
370
     0
100
AcDbLine
 10
216.90780153
 20
106.6899529251
 30
0.0
 11
219.4614582273
 21
110.9399531561
 31
0.0
  0
LINE
  5
1C9
330
1F
100
AcDbEntity
  8
0
  6
HIDDEN
 62
     7
370
     0
100
AcDbLine
 10
219.4614582273
 20
110.9399531561
 30
0.0
 11
216.90780153
 21
115.189953387
 31
0.0
  0
LINE
  5
1CA
330
1F
100
AcDbEntity
  8
0
  6
HIDDEN
 62
     7
370
     0
100
AcDbLine
 10
242.8858079525
 20
111.4824376709
 30
0.0
 11
243.3122195813
 21
112.047069968
 31
0.0
  0
LINE
  5
1CB
330
1F
100
AcDbEntity
  8
0
  6
HIDDEN
 62
     7
370
     0
100
AcDbLine
 10
237.7262063834
 20
116.2656551751
 30
0.0
 11
237.2997947546
 21
115.7010231691
 31
0.0
  0
LINE
  5
1CC
330
1F
100
AcDbEntity
  8
0
  6
HIDDEN
 62
     7
370
     0
100
AcDbLine
 10
235.4673915121
 20
123.0030466395
 30
0.0
 11
234.9761076781
 21
122.3525159585
 31
0.0
  0
LINE
  5
1CD
330
1F
100
AcDbEntity
  8
0
  6
HIDDEN
 62
     7
370
     0
100
AcDbLine
 10
242.9439746353
 20
115.0153499621
 30
0.0
 11
244.8240466925
 21
119.2653883772
 31
0.0
  0
LINE
  5
1CE
330
1F
100
AcDbEntity
  8
0
  6
HIDDEN
 62
     7
370
     0
100
AcDbLine
 10
241.811210713
 20
108.8979941851
 30
0.0
 11
243.4004419061
 21
111.0023632646
 31
0.0
  0
LINE
  5
1CF
330
1F
100
AcDbEntity
  8
0
  6
HIDDEN
 62
     7
370
     0
100
AcDbLine
 10
236.6972290489
 20
116.0646655189
 30
0.0
 11
235.0940801712
 21
113.941865653
 31
0.0
  0
LINE
  5
1D0
330
1F
100
AcDbEntity
  8
0
  6
HIDDEN
 62
     7
370
     0
100
AcDbLine
 10
235.1539381358
 20
122.4487942236
 30
0.0
 11
234.8466240379
 21
122.0418667945
 31
0.0
  0
LINE
  5
1D1
330
1F
100
AcDbEntity
  8
0
  6
HIDDEN
 62
     7
370
     0
100
AcDbLine
 10
214.4077964636
 20
108.158800198
 30
0.0
 11
214.4077964636
 21
109.6291818249
 31
0.0
  0
LINE
  5
1D2
330
1F
100
AcDbEntity
  8
0
  6
HIDDEN
 62
     7
370
     0
100
AcDbLine
 10
209.407801232
 20
109.6270296548
 30
0.0
 11
209.407801232
 21
108.158800198
 31
0.0
  0
LINE
  5
1D3
330
1F
100
AcDbEntity
  8
0
  6
HIDDEN
 62
     7
370
     0
100
AcDbLine
 10
241.5731497618
 20
126.9439288008
 30
0.0
 11
240.9877874466
 21
126.1688281375
 31
0.0
  0
LINE
  5
1D4
330
1F
100
AcDbEntity
  8
0
  6
HIDDEN
 62
     7
370
     0
100
AcDbLine
 10
246.0950039836
 20
122.3118367198
 30
0.0
 11
246.6803588482
 21
123.0869364517
 31
0.0
  0
LINE
  5
1D5
330
1F
100
AcDbEntity
  8
0
  6
HIDDEN
 62
     7
370
     0
100
AcDbLine
 10
214.9077974769
 20
105.9961245919
 30
0.0
 11
214.9077974769
 21
108.1025636813
 31
0.0
  0
LINE
  5
1D6
330
1F
100
AcDbEntity
  8
0
  6
HIDDEN
 62
     7
370
     0
100
AcDbLine
 10
208.9078002187
 20
108.1025636813
 30
0.0
 11
208.9078002187
 21
105.9977888654
 31
0.0
  0
LINE
  5
1D7
330
1F
100
AcDbEntity
  8
0
  6
HIDDEN
 62
     7
370
     0
100
AcDbLine
 10
240.7716014
 20
123.5722234997
 30
0.0
 11
239.0314735981
 21
119.6385460498
 31
0.0
  0
LINE
  5
1D8
330
1F
100
AcDbEntity
  8
VERMASSUNG
  6
CENTERX2
100
AcDbLine
 10
114.4745355239
 20
110.9399531561
 30
0.0
 11
251.9077985498
 21
110.9399531561
 31
0.0
  0
LINE
  5
1D9
330
1F
100
AcDbEntity
  8
VERMASSUNG
  6
CENTERX2
100
AcDbLine
 10
251.9077985498
 20
110.9399531561
 30
0.0
 11
251.9077985498
 21
132.9399531561
 31
0.0
  0
LINE
  5
1DA
330
1F
100
AcDbEntity
  8
VERMASSUNG
  6
CENTERX2
100
AcDbLine
 10
251.9077985498
 20
132.9399531561
 30
0.0
 11
261.2623275337
 21
132.9399531561
 31
0.0
  0
DIMENSION
  5
1DB
330
1F
100
AcDbEntity
  8
VERMASSUNG
100
AcDbDimension
  2
_D
 10
251.9077985498
 20
140.0650190547
 30
0.0
 11
196.9077985498
 21
140.0650190547
 31
0.0
 70
   160
  1
<>
 71
     2
 42
-1.0
  3
SLDDIMSTYLE0
100
AcDbAlignedDimension
 13
141.9077985498
 23
130.6399531561
 33
0.0
 14
251.9077985498
 24
132.9399531561
 34
0.0
100
AcDbRotatedDimension
  0
DIMENSION
  5
1E6
330
1F
100
AcDbEntity
  8
VERMASSUNG
100
AcDbDimension
  2
_D_1
 10
117.9077985498
 20
145.5137791446
 30
0.0
 11
184.9077985498
 21
145.5137791446
 31
0.0
 70
   160
  1
<>
 71
     2
 42
-1.0
  3
SLDDIMSTYLE0
100
AcDbAlignedDimension
 13
251.9077985498
 23
132.9399531561
 33
0.0
 14
117.9077985498
 24
123.5714581381
 34
0.0
 50
0.0
100
AcDbRotatedDimension
  0
DIMENSION
  5
1F0
330
1F
100
AcDbEntity
  8
VERMASSUNG
100
AcDbDimension
  2
_D_2
 10
268.0575364075
 20
132.9399531561
 30
0.0
 11
268.0575364075
 21
121.9399531561
 31
0.0
 70
   160
  1
<>
 71
     2
 42
-1.0
  3
SLDDIMSTYLE0
100
AcDbAlignedDimension
 13
251.9077985498
 23
110.9399531561
 33
0.0
 14
251.9077985498
 24
132.9399531561
 34
0.0
 50
90.0
100
AcDbRotatedDimension
  0
DIMENSION
  5
1FA
330
1F
100
AcDbEntity
  8
VERMASSUNG
100
AcDbDimension
  2
_D_3
 10
261.2623275337
 20
132.9399531561
 30
0.0
 11
258.6517434436
 21
125.6169169066
 31
0.0
 70
   162
  1
<>
 71
     1
 42
-1.0
  3
SLDDIMSTYLE1
100
AcDb2LineAngularDimension
 13
250.8589009495
 23
120.5983581131
 33
0.0
 14
251.9062847674
 24
132.503483292
 34
0.0
 15
251.9077985498
 25
132.9399531561
 35
0.0
 16
258.6517434436
 26
125.6169169066
 36
0.0
  0
DIMENSION
  5
204
330
1F
100
AcDbEntity
  8
VERMASSUNG
100
AcDbDimension
  2
_D_4
 10
107.9077985498
 20
90.9399531561
 30
0.0
 11
107.9077985498
 21
110.9399531561
 31
0.0
 70
   160
  1
PSC%%c<>
 71
     2
 42
-1.0
  3
SLDDIMSTYLE0
100
AcDbAlignedDimension
 13
142.2077985498
 23
130.9399531561
 33
0.0
 14
142.2077985498
 24
90.9399531561
 34
0.0
 50
90.0
100
AcDbRotatedDimension
  0
DIMENSION
  5
210
330
1F
100
AcDbEntity
  8
VERMASSUNG
100
AcDbDimension
  2
_D_5
 10
181.5469778233
 20
94.9399531561
 30
0.0
 11
181.5469778233
 21
102.6703028469
 31
0.0
 70
   160
  1
%%c<>
 71
     2
 42
-1.0
  3
SLDDIMSTYLE0
100
AcDbAlignedDimension
 13
163.9077985498
 23
126.9399531561
 33
0.0
 14
163.9077985498
 24
94.9399531561
 34
0.0
 50
90.0
100
AcDbRotatedDimension
  0
LINE
  5
219
330
1F
100
AcDbEntity
  8
0
  6
Continuous
 62
     7
370
    15
100
AcDbLine
 10
60.8636537553
 20
117.8511983308
 30
0.0
 11
60.6359891579
 21
117.6776608045
 31
0.0
  0
LINE
  5
21A
330
1F
100
AcDbEntity
  8
0
  6
Continuous
 62
     7
370
    15
100
AcDbLine
 10
59.6671731663
 20
110.7841783087
 30
0.0
 11
59.8381851786
 21
110.5546104373
 31
0.0
  0
LINE
  5
21B
330
1F
100
AcDbEntity
  8
0
  6
Continuous
 62
     7
370
    15
100
AcDbLine
 10
70.9688387331
 20
131.2100567448
 30
0.0
 11
68.3057185714
 21
131.5843329358
 31
0.0
  0
LINE
  5
21C
330
1F
100
AcDbEntity
  8
0
  6
Continuous
 62
     7
370
    15
100
AcDbLine
 10
71.2296155733
 20
130.8665421384
 30
0.0
 11
70.9789473084
 21
131.2030420231
 31
0.0
  0
LINE
  5
21D
330
1F
100
AcDbEntity
  8
0
  6
Continuous
 62
     7
370
    15
100
AcDbLine
 10
68.3640081887
 20
132.2810758429
 30
0.0
 11
63.6761542963
 21
132.939910196
 31
0.0
  0
LINE
  5
21E
330
1F
100
AcDbEntity
  8
0
  6
Continuous
 62
     7
370
    15
100
AcDbLine
 10
62.7050819793
 20
130.8038957941
 30
0.0
 11
62.25964669
 21
130.2223165112
 31
0.0
  0
SPLINE
  5
21F
330
1F
100
AcDbEntity
  8
0
  6
Continuous
 62
     7
370
    15
100
AcDbSpline
210
0.0
220
0.0
230
1.0
 70
     8
 71
     3
 72
     9
 73
     5
 74
     0
 42
0.00000001
 43
0.00000001
 12
1.0
 22
0.0
 32
0.0
 13
1.0
 23
0.0
 33
0.0
 40
0.0
 40
0.0
 40
0.0
 40
0.0
 40
0.5800212848730039
 40
0.9999999999999999
 40
0.9999999999999999
 40
0.9999999999999999
 40
0.9999999999999999
 10
62.8207926973633
 20
131.0079616087081
 30
0.0
 10
62.82190569881289
 20
131.0127065774539
 30
0.0
 10
62.82382459640966
 20
131.020887257835
 30
0.0
 10
62.81453248008753
 20
130.9897066287439
 30
0.0
 10
62.81062998901377
 20
130.9766114282014
 30
0.0
  0
LINE
  5
220
330
1F
100
AcDbEntity
  8
0
  6
Continuous
 62
     7
370
    15
100
AcDbLine
 10
60.987330832
 20
121.6120064783
 30
0.0
 11
61.2663925611
 21
120.9017044457
 31
0.0
  0
SPLINE
  5
221
330
1F
100
AcDbEntity
  8
0
  6
Continuous
 62
     7
370
    15
100
AcDbSpline
210
0.0
220
0.0
230
1.0
 70
     8
 71
     3
 72
    13
 73
     9
 74
     0
 42
0.00000001
 43
0.00000001
 12
1.0
 22
0.0
 32
0.0
 13
1.0
 23
0.0
 33
0.0
 40
0.0
 40
0.0
 40
0.0
 40
0.0
 40
0.1599631109692365
 40
0.3593631786959941
 40
0.5295061289812385
 40
0.694242219681897
 40
0.9084198289028181
 40
1.0
 40
1.0
 40
1.0
 40
1.0
 10
61.27886483305389
 20
120.9072765486838
 30
0.0
 10
61.2953808668474
 20
120.8650567661977
 30
0.0
 10
61.3324847614111
 20
120.7702084280645
 30
0.0
 10
61.33531416998274
 20
120.6317308682262
 30
0.0
 10
61.32048945606871
 20
120.5261839934341
 30
0.0
 10
61.30296689935532
 20
120.4661340534966
 30
0.0
 10
61.29260823125148
 20
120.4418592872711
 30
0.0
 10
61.29538828306537
 20
120.4476262942491
 30
0.0
 10
61.29622096055443
 20
120.4493536206486
 30
0.0
  0
LINE
  5
222
330
1F
100
AcDbEntity
  8
0
  6
Continuous
 62
     7
370
    15
100
AcDbLine
 10
60.3878966984
 20
119.3747843208
 30
0.0
 11
60.6851574019
 21
119.3330070528
 31
0.0
  0
LINE
  5
223
330
1F
100
AcDbEntity
  8
0
  6
Continuous
 62
     7
370
    15
100
AcDbLine
 10
62.4637383488
 20
127.7042344736
 30
0.0
 11
62.1896529091
 21
127.7290355938
 31
0.0
  0
LINE
  5
224
330
1F
100
AcDbEntity
  8
0
  6
Continuous
 62
     7
370
    15
100
AcDbLine
 10
61.5646169507
 20
123.2672079059
 30
0.0
 11
61.5976395537
 21
123.2642202231
 31
0.0
  0
SPLINE
  5
225
330
1F
100
AcDbEntity
  8
0
  6
Continuous
 62
     7
370
    15
100
AcDbSpline
210
0.0
220
0.0
230
1.0
 70
     8
 71
     3
 72
    16
 73
    12
 74
     0
 42
0.00000001
 43
0.00000001
 12
1.0
 22
0.0
 32
0.0
 13
1.0
 23
0.0
 33
0.0
 40
0.0
 40
0.0
 40
0.0
 40
0.0
 40
0.0835560002505752
 40
0.1670549714364397
 40
0.2505256748789115
 40
0.3756267725039103
 40
0.5007043409174344
 40
0.6255976893831247
 40
0.7505307682137898
 40
0.875254981640483
 40
1.0
 40
1.0
 40
1.0
 40
1.0
 10
76.37213020655129
 20
127.7093080601469
 30
0.0
 10
76.236477388757
 20
127.7963154360095
 30
0.0
 10
75.96526433961704
 20
127.9702708030195
 30
0.0
 10
75.55239790106916
 20
128.2214792143088
 30
0.0
 10
75.06602523801992
 20
128.5059439007331
 30
0.0
 10
74.5027136994749
 20
128.8176806465204
 30
0.0
 10
73.85979030656118
 20
129.1502569721257
 30
0.0
 10
73.2079522591942
 20
129.464584659008
 30
0.0
 10
72.54787207826129
 20
129.7598096059768
 30
0.0
 10
71.8803671836481
 20
130.0376251209888
 30
0.0
 10
71.4291937615253
 20
130.2067034598461
 30
0.0
 10
71.20358823725661
 20
130.29124967957
 30
0.0
  0
SPLINE
  5
226
330
1F
100
AcDbEntity
  8
0
  6
Continuous
 62
     7
370
    15
100
AcDbSpline
210
0.0
220
0.0
230
1.0
 70
     8
 71
     3
 72
    15
 73
    11
 74
     0
 42
0.00000001
 43
0.00000001
 12
1.0
 22
0.0
 32
0.0
 13
1.0
 23
0.0
 33
0.0
 40
0.0
 40
0.0
 40
0.0
 40
0.0
 40
0.098612886957599
 40
0.1978661249895067
 40
0.2977604349418307
 40
0.3982965238649223
 40
0.4994750853483942
 40
0.6642152779521864
 40
0.8310560237207616
 40
1.0
 40
1.0
 40
1.0
 40
1.0
 10
71.22213243340613
 20
130.7690941763247
 30
0.0
 10
71.36228670718923
 20
130.7176736865732
 30
0.0
 10
71.64350535831848
 20
130.6144988037957
 30
0.0
 10
72.06315130593897
 20
130.4500149791122
 30
0.0
 10
72.48272047133786
 20
130.2777009542328
 30
0.0
 10
72.90178017171782
 20
130.0967922073918
 30
0.0
 10
73.40698551390726
 20
129.8682025649679
 30
0.0
 10
73.99697758109123
 20
129.5842032707961
 30
0.0
 10
74.67030959252153
 20
129.2376659980177
 30
0.0
 10
75.11297512925577
 20
128.9887356820043
 30
0.0
 10
75.33569424369783
 20
128.8634909205772
 30
0.0
  0
SPLINE
  5
227
330
1F
100
AcDbEntity
  8
0
  6
Continuous
 62
     7
370
    15
100
AcDbSpline
210
0.0
220
0.0
230
1.0
 70
     8
 71
     3
 72
    11
 73
     7
 74
     0
 42
0.00000001
 43
0.00000001
 12
1.0
 22
0.0
 32
0.0
 13
1.0
 23
0.0
 33
0.0
 40
0.0
 40
0.0
 40
0.0
 40
0.0
 40
0.2494342645716408
 40
0.4992338001118321
 40
0.7494164560637817
 40
0.9999999999999999
 40
0.9999999999999999
 40
0.9999999999999999
 40
0.9999999999999999
 10
75.3356974652902
 20
128.8634878795671
 30
0.0
 10
75.42582152574867
 20
128.7706949029596
 30
0.0
 10
75.60620162413437
 20
128.5849730639214
 30
0.0
 10
75.86820905122346
 20
128.2988662596099
 30
0.0
 10
76.12462707272844
 20
128.0076223541911
 30
0.0
 10
76.28958370688352
 20
127.8087984519294
 30
0.0
 10
76.3721280519124
 20
127.7093069166399
 30
0.0
  0
LINE
  5
228
330
1F
100
AcDbEntity
  8
0
  6
Continuous
 62
     7
370
    15
100
AcDbLine
 10
69.6005973485
 20
119.5959864708
 30
0.0
 11
69.677566037
 21
120.1095270517
 31
0.0
  0
LINE
  5
229
330
1F
100
AcDbEntity
  8
0
  6
Continuous
 62
     7
370
    15
100
AcDbLine
 10
80.2183825043
 20
116.9399532082
 30
0.0
 11
80.2183825043
 21
110.9399531561
 31
0.0
  0
ARC
  5
22A
330
1F
100
AcDbEntity
  8
0
  6
Continuous
 62
     7
370
    15
100
AcDbCircle
 10
63.7183825937
 20
110.9399531561
 30
0.0
 40
16.49999999999999
100
AcDbArc
 50
350.7424143243
 51
0.0
  0
LINE
  5
22B
330
1F
100
AcDbEntity
  8
0
  6
Continuous
 62
     7
370
    15
100
AcDbLine
 10
80.003470507
 20
108.2855448185
 30
0.0
 11
60.6307798051
 21
111.0081989828
 31
0.0
  0
LINE
  5
22C
330
1F
100
AcDbEntity
  8
0
  6
Continuous
 62
     7
370
    15
100
AcDbLine
 10
60.6307798051
 20
111.0081989828
 30
0.0
 11
62.0014233035
 21
120.1532284322
 31
0.0
  0
LINE
  5
22D
330
1F
100
AcDbEntity
  8
0
  6
Continuous
 62
     7
370
    15
100
AcDbLine
 10
62.0014233035
 20
120.1532284322
 30
0.0
 11
66.6301866048
 21
119.5026986825
 31
0.0
  0
LINE
  5
22E
330
1F
100
AcDbEntity
  8
0
  6
Continuous
 62
     7
370
    15
100
AcDbLine
 10
66.6301866048
 20
119.5026986825
 30
0.0
 11
66.7051583049
 21
120.0029139
 31
0.0
  0
LINE
  5
22F
330
1F
100
AcDbEntity
  8
0
  6
Continuous
 62
     7
370
    15
100
AcDbLine
 10
66.7051583049
 20
120.0029139
 30
0.0
 11
69.6005973485
 21
119.5959864708
 31
0.0
  0
ARC
  5
230
330
1F
100
AcDbEntity
  8
0
  6
Continuous
 62
     7
370
    15
100
AcDbCircle
 10
63.2183825937
 20
116.9399531561
 30
0.0
 40
16.99999999999999
100
AcDbArc
 50
0.0
 51
39.308184909
  0
LWPOLYLINE
  5
231
330
1F
100
AcDbEntity
  8
0
  6
Continuous
 62
     7
370
    15
100
AcDbPolyline
 90
        3
 70
   128
 43
0.0
 10
60.5769093134
 20
119.2655532213
 10
60.5171924443
 20
119.3009676936
 10
60.5001352713
 20
119.3590105104
  0
ARC
  5
232
330
1F
100
AcDbEntity
  8
0
  6
Continuous
 62
     7
370
    15
100
AcDbCircle
 10
80.2693048373
 20
118.8520627916
 30
0.0
 40
19.82676090787401
100
AcDbArc
 50
167.7523652222
 51
175.1997158165
  0
LINE
  5
233
330
1F
100
AcDbEntity
  8
0
  6
Continuous
 62
     7
370
    15
100
AcDbLine
 10
57.3306538616
 20
95.7265735196
 30
0.0
 11
60.6307798051
 21
111.0081989828
 31
0.0
  0
ARC
  5
234
330
1F
100
AcDbEntity
  8
0
  6
Continuous
 62
     7
370
    15
100
AcDbCircle
 10
63.7183825937
 20
110.9399531561
 30
0.0
 40
16.50000000000001
100
AcDbArc
 50
242.7484622093
 51
247.2236481166
  0
SPLINE
  5
235
330
1F
100
AcDbEntity
  8
0
  6
Continuous
 62
     7
370
    15
100
AcDbSpline
210
0.0
220
0.0
230
1.0
 70
     8
 71
     3
 72
     8
 73
     4
 74
     0
 42
0.00000001
 43
0.00000001
 12
1.0
 22
0.0
 32
0.0
 13
1.0
 23
0.0
 33
0.0
 40
0.0
 40
0.0
 40
0.0
 40
0.0
 40
1.0
 40
1.0
 40
1.0
 40
1.0
 10
56.16306929403275
 20
96.27137309717268
 30
0.0
 10
56.16641599240509
 20
96.34735868166567
 30
0.0
 10
56.16977394260347
 20
96.4233882600359
 30
0.0
 10
56.17314360220684
 20
96.49946362138604
 30
0.0
  0
SPLINE
  5
236
330
1F
100
AcDbEntity
  8
0
  6
Continuous
 62
     7
370
    15
100
AcDbSpline
210
0.0
220
0.0
230
1.0
 70
     8
 71
     3
 72
    10
 73
     6
 74
     0
 42
0.00000001
 43
0.00000001
 12
1.0
 22
0.0
 32
0.0
 13
1.0
 23
0.0
 33
0.0
 40
0.0
 40
0.0
 40
0.0
 40
0.0
 40
0.5
 40
0.5
 40
1.0
 40
1.0
 40
1.0
 40
1.0
 10
56.17314360220684
 20
96.49946362138606
 30
0.0
 10
56.17759779712964
 20
96.60002407204365
 30
0.0
 10
56.17773184579706
 20
96.68250569446619
 30
0.0
 10
56.16889052827258
 20
96.80211484868082
 30
0.0
 10
56.15998834711407
 20
96.83779354547636
 30
0.0
 10
56.14664951925677
 20
96.84495907129737
 30
0.0
  0
ARC
  5
237
330
1F
100
AcDbEntity
  8
0
  6
Continuous
 62
     7
370
    15
100
AcDbCircle
 10
63.7183825937
 20
110.9399531561
 30
0.0
 40
16.00000000000001
100
AcDbArc
 50
241.1385050887
 51
241.7556163175
  0
ARC
  5
238
330
1F
100
AcDbEntity
  8
0
  6
Continuous
 62
     7
370
    15
100
AcDbCircle
 10
63.7183825937
 20
110.9399531561
 30
0.0
 40
16.0
100
AcDbArc
 50
102.2443836825
 51
102.8614949113
  0
SPLINE
  5
239
330
1F
100
AcDbEntity
  8
0
  6
Continuous
 62
     7
370
    15
100
AcDbSpline
210
0.0
220
0.0
230
1.0
 70
     8
 71
     3
 72
     8
 73
     4
 74
     0
 42
0.00000001
 43
0.00000001
 12
1.0
 22
0.0
 32
0.0
 13
1.0
 23
0.0
 33
0.0
 40
0.0
 40
0.0
 40
0.0
 40
0.0
 40
1.0
 40
1.0
 40
1.0
 40
1.0
 10
60.32507251714677
 20
126.5759835578007
 30
0.0
 10
60.3546400406719
 20
126.5824002615892
 30
0.0
 10
60.39893149389241
 20
126.7051445283965
 30
0.0
 10
60.44577171651599
 20
126.9007923409516
 30
0.0
  0
SPLINE
  5
23A
330
1F
100
AcDbEntity
  8
0
  6
Continuous
 62
     7
370
    15
100
AcDbSpline
210
0.0
220
0.0
230
1.0
 70
     8
 71
     3
 72
     8
 73
     4
 74
     0
 42
0.00000001
 43
0.00000001
 12
1.0
 22
0.0
 32
0.0
 13
1.0
 23
0.0
 33
0.0
 40
0.0
 40
0.0
 40
0.0
 40
0.0
 40
1.0
 40
1.0
 40
1.0
 40
1.0
 10
60.44577171651601
 20
126.9007923409521
 30
0.0
 10
60.69673757034391
 20
127.9490563665536
 30
0.0
 10
60.94743706834375
 20
128.9880941174644
 30
0.0
 10
61.19797996765499
 20
130.0217074610023
 30
0.0
  0
ELLIPSE
  5
23B
330
1F
100
AcDbEntity
  8
0
  6
Continuous
 62
     7
370
    15
100
AcDbEllipse
 10
62.7183825937
 20
108.4333539262
 30
0.0
 11
22.79178641213884
 21
30.85594993360201
 31
0.0
210
0.0
220
0.0
230
1.0
 40
0.4054768606
 41
1.094330593413589
 42
1.12727600089296
  0
LWPOLYLINE
  5
23C
330
1F
100
AcDbEntity
  8
0
  6
Continuous
 62
     7
370
    15
100
AcDbPolyline
 90
       33
 70
   128
 43
0.0
 10
60.7463518144
 20
118.186640233
 10
60.8164310441
 20
118.0991769361
 10
60.8624241766
 20
117.8628529015
 10
60.882563096
 20
117.4867503869
 10
60.876074106
 20
116.9853221218
 10
60.843206801
 20
116.3778385671
 10
60.7852238216
 20
115.687643789
 10
60.70435359
 20
114.9412627856
 10
60.6037041624
 20
114.1673777311
 10
60.4871430886
 20
113.3957290149
 10
60.3591497973
 20
112.6559704135
 10
60.2246433017
 20
111.9765306648
 10
60.088792209
 20
111.3835201541
 10
59.9568175138
 20
110.8997279443
 10
59.833790733
 20
110.54374589
 10
59.7244397257
 20
110.3292542102
 10
59.6329670851
 20
110.2644956263
 10
59.5628873897
 20
110.3519588651
 10
59.51689449
 20
110.5882827542
 10
59.4967555706
 20
110.9643854343
 10
59.5032445607
 20
111.465813563
 10
59.5361118657
 20
112.0732974086
 10
59.5940946122
 20
112.763491954
 10
59.6749650766
 20
113.5098730738
 10
59.7756145042
 20
114.2837581283
 10
59.892175578
 20
115.0554070773
 10
60.0201686365
 20
115.7951654459
 10
60.154675365
 20
116.4746053109
 10
60.2905264576
 20
117.0676156471
 10
60.4225011528
 20
117.5514079223
 10
60.5455279336
 20
117.907390144
 10
60.6548789409
 20
118.1218816491
 10
60.7463518144
 20
118.186640233
  0
LINE
  5
23D
330
1F
100
AcDbEntity
  8
0
  6
Continuous
 62
     7
370
    15
100
AcDbLine
 10
62.0014233035
 20
120.1532284322
 30
0.0
 11
60.5769093134
 21
119.2655532213
 31
0.0
  0
LINE
  5
23E
330
1F
100
AcDbEntity
  8
0
  6
Continuous
 62
     7
370
    15
100
AcDbLine
 10
66.7051583049
 20
120.0029139
 30
0.0
 11
66.5558461086
 21
119.9098710495
 31
0.0
  0
ARC
  5
23F
330
1F
100
AcDbEntity
  8
0
  6
Continuous
 62
     7
370
    15
100
AcDbCircle
 10
63.7183825937
 20
110.9399531561
 30
0.0
 40
16.50000000000001
100
AcDbArc
 50
247.2236481166
 51
350.7424143243
  0
SPLINE
  5
240
330
1F
100
AcDbEntity
  8
0
  6
Continuous
 62
     7
370
    15
100
AcDbSpline
210
0.0
220
0.0
230
1.0
 70
     8
 71
     3
 72
    20
 73
    16
 74
     0
 42
0.00000001
 43
0.00000001
 12
1.0
 22
0.0
 32
0.0
 13
1.0
 23
0.0
 33
0.0
 40
0.0
 40
0.0
 40
0.0
 40
0.0
 40
0.1250000000000002
 40
0.1250000000000002
 40
0.2500000000000004
 40
0.2500000000000004
 40
0.3750000000000007
 40
0.3750000000000007
 40
0.5000000000000009
 40
0.5000000000000009
 40
0.6250000000000011
 40
0.6250000000000011
 40
0.7500000000000013
 40
0.7500000000000013
 40
1.0
 40
1.0
 40
1.0
 40
1.0
 10
57.05807724020367
 20
120.348253682814
 30
0.0
 10
57.15590713331949
 20
120.2325560352902
 30
0.0
 10
57.2387112167032
 20
120.1087523703325
 30
0.0
 10
57.37368068857232
 20
119.8424529327227
 30
0.0
 10
57.42558510334319
 20
119.6987004646325
 30
0.0
 10
57.49239960222302
 20
119.4058160822022
 30
0.0
 10
57.50839297363103
 20
119.2535290941203
 30
0.0
 10
57.5070999093733
 20
118.9465958941556
 30
0.0
 10
57.49025569515411
 20
118.7947390911261
 30
0.0
 10
57.42969994625408
 20
118.4936851091923
 30
0.0
 10
57.38610349503404
 20
118.3460861934669
 30
0.0
 10
57.27919100636661
 20
118.0630955329608
 30
0.0
 10
57.21557704850566
 20
117.926390626437
 30
0.0
 10
56.99598470577399
 20
117.5291420150273
 30
0.0
 10
56.81530252661477
 20
117.2863901580721
 30
0.0
 10
56.59789226505984
 20
117.0738674439791
 30
0.0
  0
SPLINE
  5
241
330
1F
100
AcDbEntity
  8
0
  6
Continuous
 62
     7
370
    15
100
AcDbSpline
210
0.0
220
0.0
230
1.0
 70
     8
 71
     3
 72
    14
 73
    10
 74
     0
 42
0.00000001
 43
0.00000001
 12
1.0
 22
0.0
 32
0.0
 13
1.0
 23
0.0
 33
0.0
 40
0.0
 40
0.0
 40
0.0
 40
0.0
 40
0.25
 40
0.25
 40
0.5
 40
0.5
 40
0.75
 40
0.75
 40
1.0
 40
1.0
 40
1.0
 40
1.0
 10
55.99527977003896
 20
96.92732732164652
 30
0.0
 10
55.9640455169638
 20
96.94454217851705
 30
0.0
 10
55.88753035562579
 20
96.98657575086679
 30
0.0
 10
55.64836948277154
 20
97.12351815365261
 30
0.0
 10
55.49170630104123
 20
97.21512133539551
 30
0.0
 10
55.11435851310952
 20
97.44847506986304
 30
0.0
 10
54.90165149667531
 20
97.58543758771035
 30
0.0
 10
54.44143693006838
 20
97.90093047579154
 30
0.0
 10
54.20011530533583
 20
98.07532046705082
 30
0.0
 10
53.95441962616808
 20
98.2645822672556
 30
0.0
  0
SPLINE
  5
242
330
1F
100
AcDbEntity
  8
0
  6
Continuous
 62
     7
370
    15
100
AcDbSpline
210
0.0
220
0.0
230
1.0
 70
     8
 71
     3
 72
    18
 73
    14
 74
     0
 42
0.00000001
 43
0.00000001
 12
1.0
 22
0.0
 32
0.0
 13
1.0
 23
0.0
 33
0.0
 40
0.0
 40
0.0
 40
0.0
 40
0.0
 40
0.2500000000000064
 40
0.2500000000000064
 40
0.3750000000000069
 40
0.3750000000000069
 40
0.5000000000000075
 40
0.5000000000000075
 40
0.6250000000000082
 40
0.6250000000000082
 40
0.7500000000000087
 40
0.7500000000000087
 40
1.0
 40
1.0
 40
1.0
 40
1.0
 10
57.82646470823924
 20
125.8156146079342
 30
0.0
 10
58.11503118549514
 20
125.9299093567082
 30
0.0
 10
58.39253000728904
 20
126.0301045845098
 30
0.0
 10
58.78834582769649
 20
126.1621107384177
 30
0.0
 10
58.91703394575264
 20
126.2030751290735
 30
0.0
 10
59.15774383718308
 20
126.2767199383642
 30
0.0
 10
59.27094817486583
 20
126.3098057223508
 30
0.0
 10
59.48217462933962
 20
126.3693595899458
 30
0.0
 10
59.58098638531564
 20
126.3960290177122
 30
0.0
 10
59.75756544105312
 20
126.4422193100647
 30
0.0
 10
59.83484489775071
 20
126.4616407758005
 30
0.0
 10
60.03354426266873
 20
126.5104564516326
 30
0.0
 10
60.12204181915414
 20
126.5305788248404
 30
0.0
 10
60.15686280857036
 20
126.5385292712035
 30
0.0
  0
ELLIPSE
  5
243
330
1F
100
AcDbEntity
  8
0
  6
Continuous
 62
     7
370
    15
100
AcDbEllipse
 10
55.2351926823
 20
118.6169892378
 30
0.0
 11
1.61868231841688
 21
1.934502064879666
 31
0.0
210
0.0
220
0.0
230
1.0
 40
0.8130428287
 41
6.142763567312901
 42
10.87276632637229
  0
SPLINE
  5
244
330
1F
100
AcDbEntity
  8
0
  6
Continuous
 62
     7
370
    15
100
AcDbSpline
210
0.0
220
0.0
230
1.0
 70
     8
 71
     3
 72
    11
 73
     7
 74
     0
 42
0.00000001
 43
0.00000001
 12
1.0
 22
0.0
 32
0.0
 13
1.0
 23
0.0
 33
0.0
 40
0.0
 40
0.0
 40
0.0
 40
0.0
 40
0.125956411594834
 40
0.4383127510053877
 40
0.7522640468591875
 40
1.0
 40
1.0
 40
1.0
 40
1.0
 10
53.55580742330546
 20
116.7892894300224
 30
0.0
 10
53.6109984632737
 20
116.7793908347602
 30
0.0
 10
53.80305646375996
 20
116.7449449461744
 30
0.0
 10
54.16417657494266
 20
116.6417260152043
 30
0.0
 10
54.59930033200693
 20
116.5002324628198
 30
0.0
 10
54.8288768605272
 20
116.3917124865923
 30
0.0
 10
54.93013313831086
 20
116.3438490184547
 30
0.0
  0
ARC
  5
245
330
1F
100
AcDbEntity
  8
0
  6
Continuous
 62
     7
370
    15
100
AcDbCircle
 10
63.7183825937
 20
110.9399531561
 30
0.0
 40
16.0
100
AcDbArc
 50
111.607414392
 51
232.392585608
  0
ARC
  5
246
330
1F
100
AcDbEntity
  8
0
  6
Continuous
 62
     7
370
    15
100
AcDbCircle
 10
63.7183825937
 20
110.9399531561
 30
0.0
 40
20.0
100
AcDbArc
 50
94.7423830342
 51
270.0
  0
ARC
  5
247
330
1F
100
AcDbEntity
  8
0
  6
Continuous
 62
     7
370
    15
100
AcDbCircle
 10
63.7183825937
 20
110.9399531561
 30
0.0
 40
20.0
100
AcDbArc
 50
270.0
 51
42.4560606961
  0
LWPOLYLINE
  5
248
330
1F
100
AcDbEntity
  8
0
  6
Continuous
 62
     7
370
    15
100
AcDbPolyline
 90
       31
 70
   128
 43
0.0
 10
60.7224456952
 20
117.6506897027
 10
60.771299385
 20
117.4650701287
 10
60.7947326251
 20
117.1378685685
 10
60.7917211936
 20
116.6833859461
 10
60.7623968725
 20
116.1214845779
 10
60.7080411618
 20
115.4767225089
 10
60.6310296324
 20
114.7772789991
 10
60.5347280842
 20
114.0537230822
 10
60.4233453968
 20
113.3376775833
 10
60.3017495931
 20
112.6604372694
 10
60.1752547999
 20
112.0516006195
 10
60.0493895807
 20
111.5377767419
 10
59.9296547924
 20
111.1414222833
 10
59.8212835365
 20
110.8798597779
 10
59.7290120539
 20
110.7645207812
 10
59.6568732043
 20
110.8004461421
 10
59.6080192816
 20
110.9860657743
 10
59.5845862743
 20
111.3132671744
 10
59.5875972402
 20
111.7677501461
 10
59.6169217941
 20
112.3296515143
 10
59.6712775049
 20
112.9744135833
 10
59.7482890342
 20
113.6738568603
 10
59.8445905824
 20
114.3974127772
 10
59.9559732699
 20
115.113458276
 10
60.0775690735
 20
115.7906988228
 10
60.2040638667
 20
116.3995351235
 10
60.3299290859
 20
116.9133592921
 10
60.4496638742
 20
117.309713416
 10
60.5580351301
 20
117.5712758268
 10
60.6503066127
 20
117.6866150054
 10
60.7224456952
 20
117.6506897027
  0
LWPOLYLINE
  5
249
330
1F
100
AcDbEntity
  8
0
  6
Continuous
 62
     7
370
    15
100
AcDbPolyline
 90
       24
 70
   128
 43
0.0
 10
60.494108683
 20
116.1827805045
 10
60.5276777395
 20
116.0280622135
 10
60.5361776878
 20
115.7396614144
 10
60.5189777897
 20
115.3389668616
 10
60.477353957
 20
114.8556970584
 10
60.4143930585
 20
114.3256930227
 10
60.3347647455
 20
113.7882635521
 10
60.2443745346
 20
113.2832666917
 10
60.1499265511
 20
112.8481560445
 10
60.0584250395
 20
112.5152018212
 10
59.9766567801
 20
112.3090975743
 10
59.9106860799
 20
112.2451292176
 10
59.8654054091
 20
112.3280409083
 10
59.8441731171
 20
112.5516834727
 10
59.8485638373
 20
112.8994705214
 10
59.8782523055
 20
113.3456080279
 10
59.9310364094
 20
113.8570079638
 10
60.0030011018
 20
114.395742683
 10
60.0888096713
 20
114.9218558858
 10
60.1820976925
 20
115.3963288816
 10
60.2759466027
 20
115.7839718799
 10
60.363395697
 20
116.0560349526
 10
60.4379599434
 20
116.1923409964
 10
60.494108683
 20
116.1827805045
  0
LINE
  5
24A
330
1F
100
AcDbEntity
  8
0
  6
Continuous
 62
     7
370
    15
100
AcDbLine
 10
60.4525474817
 20
114.6329386684
 30
0.0
 11
60.3095538435
 21
114.4521417155
 31
0.0
  0
LINE
  5
24B
330
1F
100
AcDbEntity
  8
0
  6
Continuous
 62
     7
370
    15
100
AcDbLine
 10
60.3095538435
 20
114.4521417155
 30
0.0
 11
60.3814638206
 21
114.1158481187
 31
0.0
  0
LINE
  5
24C
330
1F
100
AcDbEntity
  8
0
  6
Continuous
 62
     7
370
    15
100
AcDbLine
 10
60.4287207578
 20
114.4353939744
 30
0.0
 11
60.3095538435
 21
114.4521417155
 31
0.0
  0
LINE
  5
24D
330
1F
100
AcDbEntity
  8
0
  6
Continuous
 62
     7
370
    15
100
AcDbLine
 10
69.4782006075
 20
120.4948450031
 30
0.0
 11
70.9206530345
 21
130.1189881342
 31
0.0
  0
LINE
  5
24E
330
1F
100
AcDbEntity
  8
0
  6
Continuous
 62
     7
370
    15
100
AcDbLine
 10
71.1888096747
 20
130.1077042299
 30
0.0
 11
69.7463572477
 21
120.4835620301
 31
0.0
  0
ARC
  5
24F
330
1F
100
AcDbEntity
  8
0
  6
Continuous
 62
     7
370
    15
100
AcDbCircle
 10
68.3842829139
 20
130.7776021267
 30
0.0
 40
2.620485790784515
100
AcDbArc
 50
345.4436064342
 51
9.4988851906
  0
ARC
  5
250
330
1F
100
AcDbEntity
  8
0
  6
Continuous
 62
     7
370
    15
100
AcDbCircle
 10
69.1101954761
 20
130.5999961442
 30
0.0
 40
2.136115239303451
100
AcDbArc
 50
346.6757675496
 51
7.1680927287
  0
ARC
  5
251
330
1F
100
AcDbEntity
  8
0
  6
Continuous
 62
     7
370
    15
100
AcDbCircle
 10
65.4398918398
 20
120.9707096837
 30
0.0
 40
4.066249487809311
100
AcDbArc
 50
340.9079844903
 51
353.2793943235
  0
LINE
  5
252
330
1F
100
AcDbEntity
  8
0
  6
Continuous
 62
     7
370
    15
100
AcDbLine
 10
69.2978229825
 20
119.6385385993
 30
0.0
 11
69.5919309263
 21
119.8626837286
 31
0.0
  0
ARC
  5
253
330
1F
100
AcDbEntity
  8
0
  6
Continuous
 62
     7
370
    15
100
AcDbCircle
 10
67.8800933122
 20
120.6180998245
 30
0.0
 40
1.871107023979484
100
AcDbArc
 50
336.1886320496
 51
355.8767161212
  0
LINE
  5
254
330
1F
100
AcDbEntity
  8
0
  6
Continuous
 62
     7
370
    15
100
AcDbLine
 10
60.3917172165
 20
119.3757845613
 30
0.0
 11
61.7843137341
 21
120.2435713785
 31
0.0
  0
ARC
  5
255
330
1F
100
AcDbEntity
  8
0
  6
Continuous
 62
     7
370
    15
100
AcDbCircle
 10
61.2828388326
 20
119.5621455453
 30
0.0
 40
0.9103999950965913
100
AcDbArc
 50
164.1226812205
 51
191.8120732467
  0
LINE
  5
256
330
1F
100
AcDbEntity
  8
0
  6
Continuous
 62
     7
370
    15
100
AcDbLine
 10
62.1914935517
 20
131.7163367348
 30
0.0
 11
60.4071708848
 21
119.8112113925
 31
0.0
  0
ARC
  5
257
330
1F
100
AcDbEntity
  8
0
  6
Continuous
 62
     7
370
    15
100
AcDbCircle
 10
63.2579175553
 20
131.6394604214
 30
0.0
 40
1.069191340732594
100
AcDbArc
 50
156.188490057
 51
175.8767975144
  0
LINE
  5
258
330
1F
100
AcDbEntity
  8
0
  6
Continuous
 62
     7
370
    15
100
AcDbLine
 10
63.6723338219
 20
132.9389099556
 30
0.0
 11
62.279737297
 21
132.0711240696
 31
0.0
  0
ARC
  5
259
330
1F
100
AcDbEntity
  8
0
  6
Continuous
 62
     7
370
    15
100
AcDbCircle
 10
62.7812199489
 20
132.7525488284
 30
0.0
 40
0.9103924453274984
100
AcDbArc
 50
344.1225554391
 51
11.8121818165
  0
LINE
  5
25A
330
1F
100
AcDbEntity
  8
0
  6
Continuous
 62
     7
370
    15
100
AcDbLine
 10
61.8725574794
 20
120.598357782
 30
0.0
 11
63.6568800881
 21
132.5034831243
 31
0.0
  0
ARC
  5
25B
330
1F
100
AcDbEntity
  8
0
  6
Continuous
 62
     7
370
    15
100
AcDbCircle
 10
60.8061410483
 20
120.6752333452
 30
0.0
 40
1.069183733905839
100
AcDbArc
 50
336.1884086711
 51
355.8768084418
  0
ARC
  5
25C
330
1F
100
AcDbEntity
  8
0
  6
Continuous
 62
     7
370
    15
100
AcDbCircle
 10
62.8231706931
 20
132.7421116919
 30
0.0
 40
0.8648850649210096
100
AcDbArc
 50
344.1227333111
 51
11.8120107572
  0
LINE
  5
25D
330
1F
100
AcDbEntity
  8
0
  6
Continuous
 62
     7
370
    15
100
AcDbLine
 10
63.6697413837
 20
132.9191547411
 30
0.0
 11
62.2771448442
 21
132.0513688552
 31
0.0
  0
ARC
  5
25E
330
1F
100
AcDbEntity
  8
0
  6
Continuous
 62
     7
370
    15
100
AcDbCircle
 10
63.2064240208
 20
131.6412861758
 30
0.0
 40
1.015739923437584
100
AcDbArc
 50
156.188556445
 51
175.8766791335
  0
LINE
  5
25F
330
1F
100
AcDbEntity
  8
0
  6
Continuous
 62
     7
370
    15
100
AcDbLine
 10
62.1933132396
 20
131.7143213528
 30
0.0
 11
60.4089906891
 21
119.8091950791
 31
0.0
  0
ARC
  5
260
330
1F
100
AcDbEntity
  8
0
  6
Continuous
 62
     7
370
    15
100
AcDbCircle
 10
61.2408674432
 20
119.5725830475
 30
0.0
 40
0.8648723533889984
100
AcDbArc
 50
164.1225732596
 51
191.812201925
  0
LINE
  5
261
330
1F
100
AcDbEntity
  8
0
  6
Continuous
 62
     7
370
    15
100
AcDbLine
 10
60.3943097857
 20
119.3955397757
 30
0.0
 11
61.786906187
 21
120.263326593
 31
0.0
  0
ARC
  5
262
330
1F
100
AcDbEntity
  8
0
  6
Continuous
 62
     7
370
    15
100
AcDbCircle
 10
60.8576375051
 20
120.6734066621
 30
0.0
 40
1.015729268146135
100
AcDbArc
 50
336.1884521497
 51
355.8767834288
  0
LINE
  5
263
330
1F
100
AcDbEntity
  8
0
  6
Continuous
 62
     7
370
    15
100
AcDbLine
 10
61.8707377915
 20
120.6003740954
 30
0.0
 11
63.6550603348
 21
132.5054985064
 31
0.0
  0
ARC
  5
264
330
1F
100
AcDbEntity
  8
0
  6
Continuous
 62
     7
370
    15
100
AcDbCircle
 10
67.3301970681
 20
132.1080935091
 30
0.0
 40
1.048183343209852
100
AcDbArc
 50
345.4434991998
 51
9.4990125194
  0
LINE
  5
265
330
1F
100
AcDbEntity
  8
0
  6
Continuous
 62
     7
370
    15
100
AcDbLine
 10
66.5604114518
 20
119.9395234289
 30
0.0
 11
68.3447340024
 21
131.8446487712
 31
0.0
  0
LINE
  5
266
330
1F
100
AcDbEntity
  8
0
  6
Continuous
 62
     7
370
    15
100
AcDbLine
 10
62.7768888124
 20
131.0195267724
 30
0.0
 11
62.4439563588
 21
131.6456512141
 31
0.0
  0
ARC
  5
267
330
1F
100
AcDbEntity
  8
0
  6
Continuous
 62
     7
370
    15
100
AcDbCircle
 10
65.4939902397
 20
120.0163990481
 30
0.0
 40
1.06918850653867
100
AcDbArc
 50
336.1884637024
 51
355.876823869
  0
LINE
  5
268
330
1F
100
AcDbEntity
  8
0
  6
Continuous
 62
     7
370
    15
100
AcDbLine
 10
61.3576728837
 20
120.5704544263
 30
0.0
 11
60.6596338083
 21
119.7405249404
 31
0.0
  0
ARC
  5
269
330
1F
100
AcDbEntity
  8
0
  6
Continuous
 62
     7
370
    15
100
AcDbCircle
 10
60.8228529972
 20
130.2534815299
 30
0.0
 40
2.275993904697972
100
AcDbArc
 50
344.1226342206
 51
11.8121018875
  0
LINE
  5
26A
330
1F
100
AcDbEntity
  8
0
  6
Continuous
 62
     7
370
    15
100
AcDbLine
 10
66.3938243859
 20
119.5359170961
 30
0.0
 11
66.4721677066
 21
119.5847360941
 31
0.0
  0
LINE
  5
26B
330
1F
100
AcDbEntity
  8
0
  6
Continuous
 62
     7
370
    15
100
AcDbLine
 10
62.013395688
 20
122.9679478856
 30
0.0
 11
63.012016505
 21
129.6308167803
 31
0.0
  0
ARC
  5
26C
330
1F
100
AcDbEntity
  8
0
  6
Continuous
 62
     7
370
    15
100
AcDbCircle
 10
59.347333819
 20
123.1601394529
 30
0.0
 40
2.672980263325327
100
AcDbArc
 50
336.1884897792
 51
355.8767836282
  0
LINE
  5
26D
330
1F
100
AcDbEntity
  8
0
  6
Continuous
 62
     7
370
    15
100
AcDbLine
 10
61.0134001807
 20
121.5953115898
 30
0.0
 11
61.7927862084
 21
122.0809795486
 31
0.0
  0
ARC
  5
26E
330
1F
100
AcDbEntity
  8
0
  6
Continuous
 62
     7
370
    15
100
AcDbCircle
 10
63.2412037273
 20
122.0612138332
 30
0.0
 40
2.275999460112989
100
AcDbArc
 50
164.1226717738
 51
191.812070454
  0
LINE
  5
26F
330
1F
100
AcDbEntity
  8
0
  6
Continuous
 62
     7
370
    15
100
AcDbLine
 10
62.0506554595
 20
129.3467466312
 30
0.0
 11
61.0520344679
 21
122.6838786679
 31
0.0
  0
ARC
  5
270
330
1F
100
AcDbEntity
  8
0
  6
Continuous
 62
     7
370
    15
100
AcDbCircle
 10
64.716727057
 20
129.1545537774
 30
0.0
 40
2.672990059107861
100
AcDbArc
 50
156.188530475
 51
175.8767711156
  0
LINE
  5
271
330
1F
100
AcDbEntity
  8
0
  6
Continuous
 62
     7
370
    15
100
AcDbLine
 10
63.0506508504
 20
130.7193838584
 30
0.0
 11
62.2712649391
 21
130.2337158995
 31
0.0
  0
LWPOLYLINE
  5
272
330
1F
100
AcDbEntity
  8
0
  6
Continuous
 62
     7
370
    15
100
AcDbPolyline
 90
       14
 70
   128
 43
0.0
 10
62.2667735196
 20
125.897284277
 10
62.351125617
 20
126.5131567197
 10
62.4169328702
 20
127.1083519387
 10
62.4603706864
 20
127.6482768881
 10
62.4789145994
 20
128.1015553104
 10
62.4714869526
 20
128.4418438154
 10
62.4385195305
 20
128.6493648368
 10
62.3819280635
 20
128.7120596098
 10
62.3050015173
 20
128.6262829381
 10
62.2122105895
 20
128.3970211225
 10
62.1089479872
 20
128.0375976639
 10
62.0012149201
 20
127.568900265
 10
61.895272437
 20
127.0181701111
 10
61.8174177115
 20
126.5493134561
  0
ARC
  5
273
330
1F
100
AcDbEntity
  8
0
  6
Continuous
 62
     7
370
    15
100
AcDbCircle
 10
48.0842648284
 20
127.8128597575
 30
0.0
 40
14.31128862806959
100
AcDbArc
 50
344.5711966359
 51
352.307835404
  0
LINE
  5
274
330
1F
100
AcDbEntity
  8
0
  6
Continuous
 62
     7
370
    15
100
AcDbLine
 10
62.7251087907
 20
130.8238223719
 30
0.0
 11
62.719882674
 21
130.7930104958
 31
0.0
  0
LINE
  5
275
330
1F
100
AcDbEntity
  8
0
  6
Continuous
 62
     7
370
    15
100
AcDbLine
 10
62.0649020174
 20
125.1601163822
 30
0.0
 11
62.14284452
 21
125.1530634763
 31
0.0
  0
ELLIPSE
  5
276
330
1F
100
AcDbEntity
  8
0
  6
Continuous
 62
     7
370
    15
100
AcDbEllipse
 10
61.8771349588
 20
125.4981217591
 30
0.0
 11
0.3137265769723996
 21
2.230774236460988
 31
0.0
210
0.0
220
0.0
230
1.0
 40
0.1044186664
 41
4.574984257398404
 42
7.294155150269895
  0
LINE
  5
277
330
1F
100
AcDbEntity
  8
0
  6
Continuous
 62
     7
370
    15
100
AcDbLine
 10
61.8463597246
 20
126.7105076986
 30
0.0
 11
61.6893678424
 21
125.8361271175
 31
0.0
  0
LINE
  5
278
330
1F
100
AcDbEntity
  8
0
  6
Continuous
 62
     7
370
    15
100
AcDbLine
 10
61.9079102515
 20
124.2857348698
 30
0.0
 11
62.0649020174
 21
125.1601163822
 31
0.0
  0
ELLIPSE
  5
279
330
1F
100
AcDbEntity
  8
0
  6
Continuous
 62
     7
370
    15
100
AcDbEllipse
 10
61.8771349588
 20
125.4981217591
 30
0.0
 11
0.3137265769723996
 21
2.230774236460988
 31
0.0
210
0.0
220
0.0
230
1.0
 40
0.1044186664
 41
1.43339160380862
 42
4.152562496680094
  0
LINE
  5
27A
330
1F
100
AcDbEntity
  8
0
  6
Continuous
 62
     7
370
    15
100
AcDbLine
 10
61.9561896645
 20
124.2813660356
 30
0.0
 11
61.9079102515
 21
124.2857348698
 31
0.0
  0
LINE
  5
27B
330
1F
100
AcDbEntity
  8
VERMASSUNG
  6
CENTERX2
100
AcDbLine
 10
63.7183825937
 20
132.8980865516
 30
0.0
 11
57.4316979469
 21
88.1660009612
 31
0.0
  0
CIRCLE
  5
27C
330
1F
100
AcDbEntity
  8
VERMASSUNG
  6
CENTERX2
100
AcDbCircle
 10
63.7183825937
 20
112.8980865516
 30
0.0
 40
20.00000000000001
  0
DIMENSION
  5
27D
330
1F
100
AcDbEntity
  8
VERMASSUNG
100
AcDbDimension
  2
_D_6
 10
51.843598397
 20
128.9912372773
 30
0.0
 11
45.8023784108
 21
137.1785240686
 31
0.0
 70
   160
  1
%%c<> min. 
 71
     2
 42
-1.0
  3
SLDDIMSTYLE2
100
AcDbAlignedDimension
 13
75.5931667904
 23
96.8049358258
 33
0.0
 14
51.843598397
 24
128.9912372773
 34
0.0
 50
-53.5771946769
100
AcDbRotatedDimension
  0
DIMENSION
  5
28C
330
1F
100
AcDbEntity
  8
VERMASSUNG
100
AcDbDimension
  2
_D_7
 10
63.7183825937
 20
133.4399531561
 30
0.0
 11
60.1900390157
 21
82.4404226033
 31
0.0
 70
   162
  1
<>
 71
     1
 42
-1.0
  3
SLDDIMSTYLE3
100
AcDb2LineAngularDimension
 13
57.4316979469
 23
88.1660009612
 33
0.0
 14
63.7183825937
 24
132.8980865516
 34
0.0
 15
63.7183825937
 25
88.4399531561
 35
0.0
 16
60.1900390157
 26
82.4404226033
 36
0.0
  0
INSERT
  5
2A4
330
1F
100
AcDbEntity
  8
VERMASSUNG
100
AcDbBlockReference
  2
SW_CENTERMARKSYMBOL_0
 10
63.7183825937
 20
110.9399531561
 30
0.0
  0
OLE2FRAME
  5
2A5
330
1F
100
AcDbEntity
  8
0
100
AcDbOle2Frame
 70
     2
  3
Paintbrush-Bild
 10
13.8511154363
 20
38.264191557
 30
0.0
 11
51.6290888628
 21
31.9806341108
 31
0.0
 71
     2
 72
     0
 73
     1
 90
    12928
310
80552BED0767C5B32B40DDAF6807D121434000000000000000006FFBDDFB85D0
310
4940DDAF6807D121434000000000000000006FFBDDFB85D04940416F4BD60AFB
310
3F4000000000000000002BED0767C5B32B40416F4BD60AFB3F40000000000000
310
0000000000000100000000010000010000000100000000000100000000320000
310
D0CF11E0A1B11AE1000000000000000000000000000000003E000300FEFF0900
310
0600000000000000000000000100000001000000000000000010000002000000
310
01000000FEFFFFFF0000000000000000FFFFFFFFFFFFFFFFFFFFFFFFFFFFFFFF
310
FFFFFFFFFFFFFFFFFFFFFFFFFFFFFFFFFFFFFFFFFFFFFFFFFFFFFFFFFFFFFFFF
310
FFFFFFFFFFFFFFFFFFFFFFFFFFFFFFFFFFFFFFFFFFFFFFFFFFFFFFFFFFFFFFFF
310
FFFFFFFFFFFFFFFFFFFFFFFFFFFFFFFFFFFFFFFFFFFFFFFFFFFFFFFFFFFFFFFF
310
FFFFFFFFFFFFFFFFFFFFFFFFFFFFFFFFFFFFFFFFFFFFFFFFFFFFFFFFFFFFFFFF
310
FFFFFFFFFFFFFFFFFFFFFFFFFFFFFFFFFFFFFFFFFFFFFFFFFFFFFFFFFFFFFFFF
310
FFFFFFFFFFFFFFFFFFFFFFFFFFFFFFFFFFFFFFFFFFFFFFFFFFFFFFFFFFFFFFFF
310
FFFFFFFFFFFFFFFFFFFFFFFFFFFFFFFFFFFFFFFFFFFFFFFFFFFFFFFFFFFFFFFF
310
FFFFFFFFFFFFFFFFFFFFFFFFFFFFFFFFFFFFFFFFFFFFFFFFFFFFFFFFFFFFFFFF
310
FFFFFFFFFFFFFFFFFFFFFFFFFFFFFFFFFFFFFFFFFFFFFFFFFFFFFFFFFFFFFFFF
310
FFFFFFFFFFFFFFFFFFFFFFFFFFFFFFFFFFFFFFFFFFFFFFFFFFFFFFFFFFFFFFFF
310
FFFFFFFFFFFFFFFFFFFFFFFFFFFFFFFFFFFFFFFFFFFFFFFFFFFFFFFFFFFFFFFF
310
FFFFFFFFFFFFFFFFFFFFFFFFFFFFFFFFFFFFFFFFFFFFFFFFFFFFFFFFFFFFFFFF
310
FFFFFFFFFFFFFFFFFFFFFFFFFFFFFFFFFFFFFFFFFFFFFFFFFFFFFFFFFFFFFFFF
310
FDFFFFFFFEFFFFFFFEFFFFFFFEFFFFFF05000000060000000700000008000000
310
090000000A0000000B0000000C0000000D0000000E0000000F00000010000000
310
11000000120000001300000014000000150000001600000017000000FEFFFFFF
310
FFFFFFFFFFFFFFFFFFFFFFFFFFFFFFFFFFFFFFFFFFFFFFFFFFFFFFFFFFFFFFFF
310
FFFFFFFFFFFFFFFFFFFFFFFFFFFFFFFFFFFFFFFFFFFFFFFFFFFFFFFFFFFFFFFF
310
FFFFFFFFFFFFFFFFFFFFFFFFFFFFFFFFFFFFFFFFFFFFFFFFFFFFFFFFFFFFFFFF
310
FFFFFFFFFFFFFFFFFFFFFFFFFFFFFFFFFFFFFFFFFFFFFFFFFFFFFFFFFFFFFFFF
310
FFFFFFFFFFFFFFFFFFFFFFFFFFFFFFFFFFFFFFFFFFFFFFFFFFFFFFFFFFFFFFFF
310
FFFFFFFFFFFFFFFFFFFFFFFFFFFFFFFFFFFFFFFFFFFFFFFFFFFFFFFFFFFFFFFF
310
FFFFFFFFFFFFFFFFFFFFFFFFFFFFFFFFFFFFFFFFFFFFFFFFFFFFFFFFFFFFFFFF
310
FFFFFFFFFFFFFFFFFFFFFFFFFFFFFFFFFFFFFFFFFFFFFFFFFFFFFFFFFFFFFFFF
310
FFFFFFFFFFFFFFFFFFFFFFFFFFFFFFFFFFFFFFFFFFFFFFFFFFFFFFFFFFFFFFFF
310
FFFFFFFFFFFFFFFFFFFFFFFFFFFFFFFFFFFFFFFFFFFFFFFFFFFFFFFFFFFFFFFF
310
FFFFFFFFFFFFFFFFFFFFFFFFFFFFFFFFFFFFFFFFFFFFFFFFFFFFFFFFFFFFFFFF
310
FFFFFFFFFFFFFFFFFFFFFFFFFFFFFFFFFFFFFFFFFFFFFFFFFFFFFFFFFFFFFFFF
310
FFFFFFFFFFFFFFFFFFFFFFFFFFFFFFFFFFFFFFFFFFFFFFFFFFFFFFFFFFFFFFFF
310
52006F006F007400200045006E00740072007900000000000000000000000000
310
0000000000000000000000000000000000000000000000000000000000000000
310
16000500FFFFFFFFFFFFFFFF020000000A00030000000000C000000000000046
310
00000000000000000000000060A903121043CD0103000000C000000000000000
310
01004F006C006500000000000000000000000000000000000000000000000000
310
0000000000000000000000000000000000000000000000000000000000000000
310
0A000200FFFFFFFFFFFFFFFFFFFFFFFF00000000000000000000000000000000
310
0000000000000000000000000000000000000000000000001400000000000000
310
010043006F006D0070004F0062006A0000000000000000000000000000000000
310
0000000000000000000000000000000000000000000000000000000000000000
310
120002010100000003000000FFFFFFFF00000000000000000000000000000000
310
0000000000000000000000000000000000000000010000004D00000000000000
310
01004F006C006500310030004E00610074006900760065000000000000000000
310
0000000000000000000000000000000000000000000000000000000000000000
310
1A000200FFFFFFFFFFFFFFFFFFFFFFFF00000000000000000000000000000000
310
0000000000000000000000000000000000000000040000002426000000000000
310
FEFFFFFF02000000FEFFFFFFFFFFFFFFFFFFFFFFFFFFFFFFFFFFFFFFFFFFFFFF
310
FFFFFFFFFFFFFFFFFFFFFFFFFFFFFFFFFFFFFFFFFFFFFFFFFFFFFFFFFFFFFFFF
310
FFFFFFFFFFFFFFFFFFFFFFFFFFFFFFFFFFFFFFFFFFFFFFFFFFFFFFFFFFFFFFFF
310
FFFFFFFFFFFFFFFFFFFFFFFFFFFFFFFFFFFFFFFFFFFFFFFFFFFFFFFFFFFFFFFF
310
FFFFFFFFFFFFFFFFFFFFFFFFFFFFFFFFFFFFFFFFFFFFFFFFFFFFFFFFFFFFFFFF
310
FFFFFFFFFFFFFFFFFFFFFFFFFFFFFFFFFFFFFFFFFFFFFFFFFFFFFFFFFFFFFFFF
310
FFFFFFFFFFFFFFFFFFFFFFFFFFFFFFFFFFFFFFFFFFFFFFFFFFFFFFFFFFFFFFFF
310
FFFFFFFFFFFFFFFFFFFFFFFFFFFFFFFFFFFFFFFFFFFFFFFFFFFFFFFFFFFFFFFF
310
FFFFFFFFFFFFFFFFFFFFFFFFFFFFFFFFFFFFFFFFFFFFFFFFFFFFFFFFFFFFFFFF
310
FFFFFFFFFFFFFFFFFFFFFFFFFFFFFFFFFFFFFFFFFFFFFFFFFFFFFFFFFFFFFFFF
310
FFFFFFFFFFFFFFFFFFFFFFFFFFFFFFFFFFFFFFFFFFFFFFFFFFFFFFFFFFFFFFFF
310
FFFFFFFFFFFFFFFFFFFFFFFFFFFFFFFFFFFFFFFFFFFFFFFFFFFFFFFFFFFFFFFF
310
FFFFFFFFFFFFFFFFFFFFFFFFFFFFFFFFFFFFFFFFFFFFFFFFFFFFFFFFFFFFFFFF
310
FFFFFFFFFFFFFFFFFFFFFFFFFFFFFFFFFFFFFFFFFFFFFFFFFFFFFFFFFFFFFFFF
310
FFFFFFFFFFFFFFFFFFFFFFFFFFFFFFFFFFFFFFFFFFFFFFFFFFFFFFFFFFFFFFFF
310
FFFFFFFFFFFFFFFFFFFFFFFFFFFFFFFFFFFFFFFFFFFFFFFFFFFFFFFFFFFFFFFF
310
0100000200000000000000000000000000000000000000000000000000000000
310
0000000000000000000000000000000000000000000000000000000000000000
310
0100FEFF030A0000FFFFFFFF0A00030000000000C00000000000004607000000
310
5042727573680007000000504272757368000700000050427275736800F439B2
310
7100000000000000000000000000000000000000000000000000000000000000
310
0000000000000000000000000000000000000000000000000000000000000000
310
0000000000000000000000000000000000000000000000000000000000000000
310
0000000000000000000000000000000000000000000000000000000000000000
310
0000000000000000000000000000000000000000000000000000000000000000
310
0000000000000000000000000000000000000000000000000000000000000000
310
0000000000000000000000000000000000000000000000000000000000000000
310
0000000000000000000000000000000000000000000000000000000000000000
310
0000000000000000000000000000000000000000000000000000000000000000
310
0000000000000000000000000000000000000000000000000000000000000000
310
0000000000000000000000000000000000000000000000000000000000000000
310
0000000000000000000000000000000000000000000000000000000000000000
310
20260000424D0E260000000000003E00000028000000B40200006E0000000100
310
01000000000000000000130B0000130B00000200000002000000000000FFFFFF
310
FFFFFFFFFFFFFFFFFFFFFFFFFFFFFFFFFFFFFFFFFFFFFFFFFFFFFFFFFFFFFFFF
310
FFFFFFFFFFFFFFFFFFFFFFFFFFFFFFFFFFFFFFFFFFFFFFFFFFFFFFFFFFFFFFFF
310
FFFFFFFFFFFFFFFFFFFFFFFFFFFFFFFFFFFFFFFFFFFFFFFFF000FFFFFFFFFFFF
310
FFFFFFFFFFFFFFFFFFFFFFFFFFFFFFFFFFFFFFFFFFFFFFFFFFFFFFFFFFFFFFFF
310
FFFFFFFFFFFFFFFFFFFFFFFFFFFFFFFFFFFFFFFFFFFFFFFFFFFFFFFFFFFFFFFF
310
FFFFFFFFFFFFFFFFFFFFFFFFFFFFFFFFF000FFFFFFFFFFFFFFFFFFFFFFFFFFFF
310
FFFFFFFFFFFFFFFFFFFFFFFFFFFFFFFFFFFFFFFFFFFFFFFFFFFFFFFFFFFFFFFF
310
FFFFFFFFFFFFFFFFFFFFFFFFFFFFFFFFFFFFFFFFFFFFFFFFFFFFFFFFFFFFFFFF
310
FFFFFFFFFFFFFFFFF000FFFFFFFFFFFFFFFFFFFFFFFFFFFFFFFFFFFFFFFFFFFF
310
FFFFFFFFFFFFFFFFFFFFFFFFFFFFFFFFFFFFFFFFFFFFFFFFFFFFFFFFFFFFFFFF
310
FFFFFFFFFFFFFFFFFFFFFFFFFFFFFFFFFFFFFFFFFFFFFFFFFFFFFFFFFFFFFFFF
310
F000FFFFFFFFFFFFFFFFFFFFFFFFFFFFFFFFFFFFFFFFFFFFFFFFFFFFFFFFFFFF
310
FFFFFFFFFFFFFFFFFFFFFFFFFFFFFFFFFFFFFFFFFFFFFFFFFFFFFFFFFFFFFFFF
310
FFFFFFFFFFFFFFFFFFFFFFFFFFFFFFFFFFFFFFFFFFFFFFFFF000FFFFFFFFFFFF
310
FFFFFFFFFFFFFFFFFFFFFFFFFFFFFFFFFFFFFFFFFFFFFFFFFFFFFFFFFFFFFFFF
310
FFFFFFFFFFFFFFFFFFFFFFFFFFFFFFFFFFFFFFFFFFFFFFFFFFFFFFFFFFFFFFFF
310
FFFFFFFFFFFFFFFFFFFFFFFFFFFFFFFFF000FFFFFFFFFFFFFFFFFFFFFFFFFFFF
310
FFFFFFFFFFFFFFFFFFFFFFFFFFFFFFFFFFFFFFFFFFFFFFFFFFFFFFFFFFFFFFFF
310
FFFFFFFFFFFFFFFFFFFFFFFFFFFFFFFFFFFFFFFFFFFFFFFFFFFFFFFFFFFFFFFF
310
FFFFFFFFFFFFFFFFF000FFFFFFFFFFFFFFFFFFFFFFFFFFFFFFFFFFFFFFFFFFFF
310
FFFFFFFFFFFFFFFFFFFFFFFFFFFFFFFFFFFFFFFFFFFFFFFFFFFFFFFFFFFFFFFF
310
FFFFFFFFFFFFFFFFFFFFFFFFFFFFFFFFFFFFFFFFFFFFFFFFFFFFFFFFFFFFFFFF
310
F000FFFFFFFFFFFFFFFFFFFFFFFFFFFFFFFFFFFFFFFFFFFFFFFFFFFFFFFFFFFF
310
FFFFFFFFFFFFFFFFFFFFFFFFFFFFFFFFFFFFFFFFFFFFFFFFFFFFFFFFFFFFFFFF
310
FFFFFFFFFFFFFFFFFFFFFFFFFFFFFFFFFFFFFFFFFFFFFFFFF000FFFFFFFFFFFF
310
FFFFFFFFFFFFFFFFFFFFFFFFFFFFFFFFFFFFFFFFFFFFFFFFFFFFFFFFFFFFFFFF
310
FFFFFFFFFFFFFFFFFFFFFFFFFFFFFFFFFFFFFFFFFFFFFFFFFFFFFFFFFFFFFFFF
310
FFFFFFFFFFFFFFFFFFFFFFFFFFFFFFFFF000FFFFFFFFFFFFFFFFFFFFFFFFFFFF
310
FFFFFFFFFFFFFFFFFFFFFFFFFFFFFFFFFFFFFFFFFFFFFFFFFFFFFFFFFFFFFFFF
310
FFFFFFFFFFFFFFFFFFFFFFFFFFFFFFFFFFFFFFFFFFFFFFFFFFFFFFFFFFFFFFFF
310
FFFFFFFFFFFFFFFFF000FFFFFFFFFFFFFFFFFFFFFFFFFFFFFFFFFFFFFFFFFFFF
310
FFFFFFFFFFFFFFFFFFFFFFFFFFFFFFFFFFFFFFFFFFFFFFFFFFFFFFFFFFFFFFFF
310
FFFFFFFFFFFFFFFFFFFFFFFFFFFFFFFFFFFFFFFFFFFFFFFFFFFFFFFFFFFFFFFF
310
F000FFFFFFFFFFFFFFFFFFFFFFFFFFFFFFFFFFFFFFFFFFFFFFFFFFFFFFFFFFFF
310
FFFFFFFFFFFFFFFFFFFFFFFFFFFFFFFFFFFFFFFFFFFFFFFFFFFFFFFFFFFFFFFF
310
FFFFFFFFFFFFFFFFFFFFFFFFFFFFFFFFFFFFFFFFFFFFFFFFF000FFFFFFFFFFFF
310
FFFFFFFFFFFFFFFFFFFFFFFFFFFFFFFFFFFFFFFFFFFFFFFFFFFFFFFFFFFFFFFF
310
FFFFFFFFFFFFFFFFFFFFFFFFFFFFFFFFFFFFFFFFFFFFFFFFFFFFFFFFFFFFFFFF
310
FFFFFFFFFFFFFFFFFFFFFFFFFFFFFFFFF000FFFFFFFFFFFFFFFFFFFFFFFFFFFF
310
FFFFFFFFFFFFFFFFFFFFFFFFFFFFFFFFFFFFFFFFFFFFFFFFFFFFFFFFFFFFFFFF
310
FFFFFFFFFFFFFFFFFFFFFFFFFFFFFFFFFFFFFFFFFFFFFFFFFFFFFFFFFFFFFFFF
310
FFFFFFFFFFFFFFFFF000FFFFFFFFFFFFFFFFFFFFFFFFFFFFFFFFFFFFFFFFFFFF
310
FFFFFFFFFFFFFFFFFFFFFFFFFFFFFFFFFFFFFFFFFFFFFFFFFFFFFFFFFFFFFFFF
310
FFFFFFFFFFFFFFFFFFFFFFFFFFFFFFFFFFFFFFFFFFFFFFFFFFFFFFFFFFFFFFFF
310
F000FFFFFFFFFFFFFFFFFFFFFFFFFFFFFFFFFFFFFFFFFFFFFFFFFFFFFFFFFFFF
310
FFFFFFFFFFFFFFFFFFFFFFFFFFFFFFFFFFFFFFFFFFFFFFFFFFFFFFFFFFFFFFFF
310
FFFFFFFFFFFFFFFFFFFFFFFFFFFFFFFFFFFFFFFFFFFFFFFFF000FFFFFFFFFFFF
310
FFFFFFFFFFFFFFFFFFFFFFFFFFFFFFFFFFFFFFFFFFFFFFFFFFFFFFFFFFFFFFFF
310
FFFFFFFFFFFFFFFFFFFFFFFFFFFFFFFFFFFFFFFFFFFFFFFFFFFFFFFFFFFFFFFF
310
FFFFFFFFFFFFFFFFFFFFFFFFFFFFFFFFF000FFFFFFFFFFFFFFFFFFFFFFFFFFFF
310
FFFFFFFFFFFFFFFFFFFFFFFFFFFFFFFFFFFFFFFFFFFFFFFFFFFFFFFFFFFFFFFF
310
FFFFFFFFFFFFFFFFFFFFFFFFFFFFFFFFFFFFFFFFFFFFFFFFFFFFFFFFFFFFFFFF
310
FFFFFFFFFFFFFFFFF000FFFFF80003FFFFFFFFFFFFFFFFFFFFFFFFFFFFFFFFFF
310
FFFFF00007FFFFFFFFFF00007FFFFFF800000000000000007FFFFFFFFFFFFFFF
310
FFFFFFFC001FFFFFFFFFFFFFFC001FFFFFFFFFFFFFFFFFFFFFFFFFFE0007FFFF
310
F000FFFF8000007FFFFFFFF8000FFFFFC0007FFFFF80007FFFFF0000007FFFFF
310
FFF8000007FFFFF800000000000000007FFFFFF0001FFFFFFFFFFFC00001FFFF
310
FFFFFFFFC00001FFFFFFFF000000000003FFFFE000007FFFF000FFFE0000000F
310
FFFFFFF0000FFFFF80007FFFFF80007FFFFC0000001FFFFFFFC0000001FFFFF8
310
00000000000000007FFFFFF0001FFFFFFFFFFE0000003FFFFFFFFFFE0000003F
310
FFFFFF000000000003FFFF0000000FFFF000FFF800000003FFFFFFF00007FFFF
310
80007FFFFF80007FFFF000000007FFFFFF000000003FFFF80000000000000000
310
7FFFFFF0001FFFFFFFFFF80000000FFFFFFFFFF80000000FFFFFFF0000000000
310
03FFFC00000003FFF000FFE000000000FFFFFFF00007FFFF80003FFFFF80007F
310
FFC000000001FFFFFC000000001FFFF800000000000000007FFFFFF0001FFFFF
310
FFFFE000000003FFFFFFFFE000000003FFFFFF000000000003FFF000000000FF
310
F000FF80000000007FFFFFF00007FFFF80003FFFFF80007FFF8000000000FFFF
310
F80000000007FFF800000000000000007FFFFFF0001FFFFFFFFFC000000001FF
310
FFFFFFC000000001FFFFFF000000000003FFC0000000007FF000FF0000000000
310
3FFFFFE00007FFFF00003FFFFF80007FFE00000000003FFFF00000000003FFF8
310
00000000000000007FFFFFF0001FFFFFFFFF8000000000FFFFFFFF8000000000
310
FFFFFF000000000003FF80000000003FF000FE00000000001FFFFFE00003FFFF
310
00003FFFFF80007FFC00000000001FFFE00000000001FFF8000001FFFE000000
310
7FFFFFF0001FFFFFFFFE00000000003FFFFFFE00000000003FFFFF0000000000
310
03FF00000000001FF000FC00000000000FFFFFE00003FFFF00001FFFFF80007F
310
F800000000001FFFC00000000000FFF8000001FFFE0000007FFFFFF0001FFFFF
310
FFFC00000000001FFFFFFC00000000001FFFFF000000000003FE00000000000F
310
F000F8000000000007FFFFE00003FFFF00001FFFFF80007FF800000000000FFF
310
800000000000FFF8000001FFFE0000007FFFFFF0001FFFFFFFF800000000000F
310
FFFFF800000000000FFFFF000000000003FC000000000007F000F80000000000
310
03FFFFC00003FFFE00001FFFFF80007FF0000000000007FF0000000000007FF8
310
000001FFFE0000007FFFFFF0001FFFFFFFF0000000000007FFFFF00000000000
310
07FFFF000000000003F8000000000003F000F0000000000003FFFFC00001FFFE
310
00001FFFFF80007FE0000000000007FE0000000000003FF8000001FFFE000000
310
7FFFFFF0001FFFFFFFF0000000000007FFFFF0000000000007FFFF0000000000
310
03F800001F800003F000E00001FFF00001FFFFC00001FFFE00000FFFFF80007F
310
E00001FFE00003FE00001FFF00003FF8000001FFFE0000007FFFFFF0001FFFFF
310
FFE000003E000003FFFFE000003E000003FFFF000000000003F00001FFF80001
310
F000E00007FFFC0001FFFFC00001FFFE00000FFFFF80007FC0000FFFFC0003FC
310
0000FFFFC0001FF8000001FFFE0000007FFFFFF0001FFFFFFFC00003FFE00001
310
FFFFC00003FFE00001FFFF0001FFFFFFFFF00007FFFE0001F000E0000FFFFF00
310
00FFFF800001FFFC00000FFFFF80007FC0001FFFFE0001FC0001FFFFE0001FF8
310
000001FFFE0000007FFFFFF0001FFFFFFF80000FFFF80000FFFF80000FFFF800
310
00FFFF0003FFFFFFFFE0000FFFFF8000F000C0003FFFFF8000FFFF800000FFFC
310
000007FFFF80007F80003FFFFF0001FC0003FFFFF0001FF8000001FFFE000000
310
7FFFFFF0001FFFFFFF80003FFFFE0000FFFF80003FFFFE0000FFFF0003FFFFFF
310
FFE0003FFFFF8000F000C0003FFFFF8000FFFF800000FFFC000007FFFF80007F
310
80007FFFFF8001F80007FFFFF8000FF8000001FFFE0000007FFFFFF0001FFFFF
310
FF00007FFFFF00007FFF00007FFFFF00007FFF0003FFFFFFFFE0003FFFFFC000
310
F000C0007FFFFFC000FFFF000000FFFC000007FFFF80007F8000FFFFFF8000F8
310
000FFFFFF8000FF8000001FFFE0000007FFFFFF0001FFFFFFF0000FFFFFF8000
310
7FFF0000FFFFFF80007FFF0003FFFFFFFFC0007FFFFFC00070008000FFFFFFC0
310
00FFFF000000FFF8000007FFFF80007F8000FFFFFF8000F8000FFFFFF8000FF8
310
000001FFFE0000007FFFFFF0001FFFFFFE0001FFFFFFC0003FFE0001FFFFFFC0
310
003FFF0003FFFFFFFFC0007FFFFFE00070008000FFFFFFC0007FFF0000007FF8
310
000003FFFF80007F0001FFFFFF8000F8000FFFFFF8000FF8000001FFFE000000
310
7FFFFFF0001FFFFFFE0001FFFFFFC0003FFE0001FFFFFFC0003FFF0003FFFFFF
310
FFC000FFFFFFE00070008000FFFFFFC0007FFF0000007FF8000003FFFF80007F
310
0001FFFFFF8000F8001FFFFFF8000FF8000001FFFE0000007FFFFFF0001FFFFF
310
FE0003FFFFFFE0003FFE0003FFFFFFE0003FFF0003FFFFFFFFC000FFFFFFE000
310
70008000FFFFFFC0007FFE0000007FF8000003FFFF80007F0001FFFFFF8000F0
310
001FFFFFF8000FF8000001FFFE0000007FFFFFF0001FFFFFFC0003FFFFFFE000
310
1FFC0003FFFFFFE0001FFF0003FFFFFFFFC000FFFFFFC00070008000FFFFFF80
310
007FFE0000007FF0000003FFFF80007F0001FFFFFF0000F0001FFFFFF8000FF8
310
000001FFFE0000007FFFFFF0001FFFFFFC0007FFFFFFF0001FFC0007FFFFFFF0
310
001FFF0003FFFFFFFFC000FFFFFFC00070008001FFFFFF0000FFFE0000003FF0
310
000001FFFF80007F0001FFFFFF0000F8001FFFFFF0000FF8000001FFFE000000
310
7FFFFFF0001FFFFFFC0007FFFFFFF0001FFC0007FFFFFFF0001FFF0003FFFFFF
310
FFC001FFFFFF80007000FFFFFFFFFE0000FFFE0008003FF0008001FFFF80007F
310
FFFFFFFFFC0000FFFFFFFFFFE0000FF8000001FFFE0000007FFFFFF0001FFFFF
310
F8000FFFFFFFF8000FF8000FFFFFFFF8000FFF0003FFFFFFFFFFFFFFFFFF0000
310
7000FFFFFFFFFC0000FFFC0008003FF0008001FFFF80007FFFFFFFFFF80001FF
310
FFFFFFFF80000FF8000001FFFE0000007FFFFFF0001FFFFFF8000FFFFFFFF800
310
0FF8000FFFFFFFF8000FFF0003FFFFFFFFFFFFFFFFFE0000F000FFFFFFFFE000
310
00FFFC000C003FE000C001FFFF80007FFFFFFFFFC00001FFFFFFFFFE00001FF8
310
000001FFFE0000007FFFFFF0001FFFFFF8000FFFFFFFF8000FF8000FFFFFFFF8
310
000FFF0003FFFFFFFFFFFFFFFFF00000F000FFFFFFFE000001FFFC000C001FE0
310
00C000FFFF80007FFFFFFFFE000001FFFFFFFFE000001FF80FFFFFFFFFFFFFC0
310
7FFFFFF0001FFFFFF8000FFFFFFFF8000FF8000FFFFFFFF8000FFF0003FFFFFF
310
FFFFFFFFFF800000F000FFFFFFC0000001FFFC001C001FE001C000FFFF80007F
310
FFFFFF80000003FFFFFFF80000001FF80FFFFFFFFFFFFFC07FFFFFF0001FFFFF
310
F8001FFFFFFFFC000FF8001FFFFFFFFC000FFF0003FFFFFFFFFFFFFFF0000001
310
F000FFFFF800000001FFF8001C001FE001C000FFFF80007FFFFFF800000003FF
310
FFFF800000003FF80FFFFFFFFFFFFFC07FFFFFF0001FFFFFF8001FFFFFFFFC00
310
0FF8001FFFFFFFFC000FFF0003FFFFFFFFFFFFFE00000001F000FFFFC0000000
310
03FFF8001E001FC001E000FFFF80007FFFFF8000000007FFFFFC000000003FF8
310
0FFFFFFFFFFFFFC07FFFFFF0001FFFFFF8001FFFFFFFFC000FF8001FFFFFFFFC
310
000FFF0003FFFFFFFFFFFFE000000003F000FFFE0000000007FFF8001E000FC0
310
01E0007FFF80007FFFFE0000000007FFFFE0000000007FF80FFFFFFFFFFFFFC0
310
7FFFFFF0001FFFFFF0001FFFFFFFFC0007F0001FFFFFFFFC0007FF0003FFFFFF
310
FFFFFF0000000003F000FFF80000000007FFF8001E000FC003E0007FFF80007F
310
FFF0000000000FFFFF8000000000FFF80FFFFFFFFFFFFFC07FFFFFF0001FFFFF
310
F0001FFFFFFFFC0007F0001FFFFFFFFC0007FF0003FFFFFFFFFFFC0000000007
310
F000FFE0000000000FFFF0003E000FC003E0007FFF80007FFFC0000000001FFF
310
FE0000000001FFF80FFFFFFFFFFFFFC07FFFFFF0001FFFFFF0001FFFFFFFFC00
310
07F0001FFFFFFFFC0007FF0003FFFFFFFFFFF0000000000FF000FFC000000000
310
1FFFF0003F000F8003F0003FFF80007FFF80000000003FFFF80000000003FFF8
310
0FFFFFFFFFFFFFC07FFFFFF0001FFFFFF0001FFFFFFFFC0007F0001FFFFFFFFC
310
0007FF0003FFFFFFFFFFE0000000001FF000FF00000000007FFFF0003F000780
310
03F0003FFF80007FFF00000000007FFFF00000000007FFF80FFFFFFFFFFFFFC0
310
7FFFFFF0001FFFFFF0001FFFFFFFFC0007F0001FFFFFFFFC0007FF0003FFFFFF
310
FFFF80000000007FF000FE0000000000FFFFE0003F00078007F0003FFF80007F
310
FE0000000001FFFFE0000000001FFFF80FFFFFFFFFFFFFC07FFFFFF0001FFFFF
310
F0001FFFFFFFFC0007F0001FFFFFFFFC0007FF0003FFFFFFFFFF0000000000FF
310
F000FC0000000003FFFFE0007F00078007F0003FFF80007FFC0000000007FFFF
310
C0000000007FFFF80FFFFFFFFFFFFFC07FFFFFF0001FFFFFF8001FFFFFFFFC00
310
0FF8001FFFFFFFFC000FFF0003FFFFFFFFFE0000000003FFF000FC000000000F
310
FFFFE0007F80070007F8001FFF80007FF8000000001FFFFF8000000001FFFFF8
310
0FFFFFFFFFFFFFC07FFFFFF0001FFFFFF8001FFFFFFFFC000FF8001FFFFFFFFC
310
000FFF0003FFFFFFFFFC000000000FFFF000F8000000007FFFFFE0007F800700
310
07F8001FFF80007FF000000000FFFFFF800000000FFFFFF80FFFFFFFFFFFFFC0
310
7FFFFFF0001FFFFFF8000FFFFFFFF8000FF8000FFFFFFFF8000FFF0003FFFFFF
310
FFFC000000007FFFF000F800000007FFFFFFC0007F8003000FF8001FFF80007F
310
F000000007FFFFFF000000007FFFFFF80FFFFFFFFFFFFFC07FFFFFF0001FFFFF
310
F8000FFFFFFFF8000FF8000FFFFFFFF8000FFF0003FFFFFFFFF80000000FFFFF
310
F000F0000000FFFFFFFFC000FF8003000FF8001FFF80007FE0000000FFFFFFFF
310
0000000FFFFFFFF8000001FFFE0000007FFFFFF0001FFFFFF8000FFFFFFFF800
310
0FF8000FFFFFFFF8000FFF0003FFFFFFFFF8000000FFFFFFF000F000000FFFFF
310
FFFFC000FFC002000FF8000FFF80007FE000001FFFFFFFFE000001FFFFFFFFF8
310
000001FFFE0000007FFFFFF0001FFFFFF8000FFFFFFFF8000FF8000FFFFFFFF8
310
000FFF0003FFFFFFFFF000001FFFFFFFF000E00000FFFFFFFFFFC000FFC00200
310
0FFC000FFF80007FE00001FFFFFFFFFE00001FFFFFFFFFF8000001FFFE000000
310
7FFFFFF0001FFFFFFC000FFFFFFFF8001FFC000FFFFFFFF8001FFF0003FFFFFF
310
FFF00001FFFFFFFFF000E00007FFFFFFFFFF8000FFC000001FFC000FFF80007F
310
C0000FFFFFFFFFFE0000FFFFFFFFFFF8000001FFFE0000007FFFFFF0001FFFFF
310
FC0007FFFFFFF0001FFC0007FFFFFFF0001FFF0003FFFFFFFFF00007FFFFFFFF
310
F000E0001FFFFFFFFFFF8000FFC000001FFC000FFF80007FC0003FFFFFFFFFFE
310
0001FFFFFFFFFFF8000001FFFE0000007FFFFFF0001FFFFFFC0007FFFFFFF000
310
1FFC0007FFFFFFF0001FFF0003FFFFFFFFF0001FFFFFFFFFF000E0003FFFFF00
310
03FF8001FFE000001FFC0007FF80007FC0007FFFFF0007FC0003FFFFF0003FF8
310
000001FFFE0000007FFFFFF0001FFFFFFC0003FFFFFFE0001FFC0003FFFFFFE0
310
001FFF0003FFFFFFFFF0003FFFFFFFFFF000E0003FFFFF0001FF8001FFE00000
310
1FFE0007FF80007FC0007FFFFE0003FC0007FFFFE0003FF8000001FFFE000000
310
7FFFFFF0001FFFFFFE0003FFFFFFE0003FFE0003FFFFFFE0003FFF0003FFFFFF
310
FFF0003FFFFF8001F000E0003FFFFF0001FF0001FFE000001FFE0007FF80007F
310
C0007FFFFE0003FC0007FFFFE0003FF8000001FFFE0000007FFFFFF0001FFFFF
310
FE0001FFFFFFC0003FFE0001FFFFFFC0003FFF0003FFFFFFFFF0003FFFFF0001
310
F000E0003FFFFF0003FF0001FFE000003FFE0007FF80007FC0007FFFFE0003FC
310
0007FFFFE0003FF8000001FFFE0000007FFFFFF0001FFFFFFF0001FFFFFFC000
310
7FFF0001FFFFFFC0007FFF0003FFFFFFFFF0003FFFFF0001F000E0003FFFFE00
310
03FF0003FFF000003FFE0003FF80007FC0007FFFFC0003FE0007FFFFE0003FF8
310
000001FFFE0000007FFFFFF0001FFFFFFF0000FFFFFF80007FFF0000FFFFFF80
310
007FFF0003FFFFFFFFF0003FFFFF0001F000E0003FFFFE0003FF0003FFF00000
310
3FFF0003FF80007FC0007FFFFC0007FE0007FFFFC0003FF8000001FFFE000000
310
7FFFFFF0001FFFFFFF80007FFFFF0000FFFF80007FFFFF0000FFFF0003FFFFFF
310
FFF0003FFFFF0003F000E0003FFFFC0003FE0003FFF000003FFF0003FF80007F
310
E0003FFFF80007FE0003FFFFC0007FF8000001FFFE0000007FFFFFF0001FFFFF
310
FF80003FFFFE0000FFFF80003FFFFE0000FFFF0003FFFFFFFFF0001FFFFE0003
310
F000F0001FFFF80003FE0003FFF000007FFF0001FF80007FE0003FFFF00007FE
310
0001FFFF80007FF8000001FFFE0000007FFFFFF0001FFFFFFFC0000FFFF80001
310
FFFFC0000FFFF80001FFFF0003FFFFFFFFF0001FFFFC0003F000F0000FFFF000
310
07FE0007FFF800007FFF0001FF80007FE0001FFFE00007FF0000FFFE00007FF8
310
000001FFFE0000007FFFFFF0001FFFFFFFC00003FFE00001FFFFC00003FFE000
310
01FFFF0003FFFFFFFFF8000FFFF80003F000F00003FFC00007FC0007FFF80000
310
7FFF8001FF80007FF00007FF80000FFF00007FF80000FFF8000001FFFE000000
310
7F80000000000001FFE000003E000003FFFFE000003E000003FFFF0003FFFFFF
310
FFF80003FFE00007F000F800000000000FFC0007FFF800007FFF8001FF80007F
310
F000000000000FFF000000000000FFF8000001FFFE0000007F80000000000001
310
FFF0000000000007FFFFF0000000000007FFFF0003FFFFFFFFFC00007E000007
310
F000F800000000000FFC0007FFF80000FFFF8000FF80007FF800000000001FFF
310
800000000001FFF8000001FFFE0000007F80000000000001FFF800000000000F
310
FFFFF800000000000FFFFF0003FFFFFFFFFC00000000000FF000FC0000000000
310
1FFC0007FFFC0000FFFF8000FF80007FF800000000003FFFC00000000001FFF8
310
000001FFFE0000007F80000000000001FFF800000000000FFFFFF80000000000
310
0FFFFF0003FFFFFFFFFE00000000001FF000FE00000000003FF8000FFFFC0000
310
FFFF8000FF80007FFC00000000003FFFC00000000003FFF8000001FFFE000000
310
7F80000000000001FFFC00000000001FFFFFFC00000000001FFFFF0003FFFFFF
310
FFFF00000000001FF000FF00000000003FF8000FFFFC0000FFFFC000FF80007F
310
FE00000000007FFFE00000000007FFF8000001FFFE0000007F80000000000001
310
FFFE00000000003FFFFFFE00000000003FFFFF0003FFFFFFFFFF80000000003F
310
F000FF80000000007FF8000FFFFC0001FFFFC0007F80007FFF0000000000FFFF
310
F0000000000FFFF800000000000000007F80000000000001FFFF8000000000FF
310
FFFFFF8000000000FFFFFF0003FFFFFFFFFFC0000000007FF000FFC000000000
310
FFF8000FFFFE0001FFFFC0007F80007FFF8000000001FFFFF8000000001FFFF8
310
00000000000000007F80000000000001FFFFC000000001FFFFFFFFC000000001
310
FFFFFF0003FFFFFFFFFFE000000000FFF000FFE000000003FFF0001FFFFE0001
310
FFFFC0007F80007FFFC000000007FFFFFE000000003FFFF80000000000000000
310
7F80000000000001FFFFE000000003FFFFFFFFE000000003FFFFFF0003FFFFFF
310
FFFFF000000003FFF000FFF80000000FFFF0001FFFFE0001FFFFE0007F80007F
310
FFF00000000FFFFFFF00000000FFFFF800000000000000007F80000000000001
310
FFFFF80000000FFFFFFFFFF80000000FFFFFFF0003FFFFFFFFFFFC0000000FFF
310
F000FFFE0000003FFFF0001FFFFE0003FFFFE0003F80007FFFFC0000003FFFFF
310
FFC0000003FFFFF800000000000000007F80000000000001FFFFFE0000003FFF
310
FFFFFFFE0000003FFFFFFF0003FFFFFFFFFFFF0000003FFFF000FFFF800000FF
310
FFF0001FFFFF0003FFFFE0003F80007FFFFF000001FFFFFFFFF800001FFFFFF8
310
00000000000000007F80000000000001FFFFFFC00001FFFFFFFFFFFFC00001FF
310
FFFFFF0003FFFFFFFFFFFFC00000FFFFF000FFFFF8000FFFFFFFFFFFFFFFFFFF
310
FFFFFFFFFFFFFFFFFFFFF0001FFFFFFFFFFF0000FFFFFFF80000000000000000
310
7FFFFFFFFFFFFFFFFFFFFFFC001FFFFFFFFFFFFFFC001FFFFFFFFFFFFFFFFFFF
310
FFFFFFFC001FFFFFF000FFFFFFFFFFFFFFFFFFFFFFFFFFFFFFFFFFFFFFFFFFFF
310
FFFFFFFFFFFFFFFFFFFFFFFFFFFFFFFFFFFFFFFFFFFFFFFFFFFFFFFFFFFFFFFF
310
FFFFFFFFFFFFFFFFFFFFFFFFFFFFFFFFFFFFFFFFFFFFFFFFFFFFFFFFFFFFFFFF
310
F000FFFFFFFFFFFFFFFFFFFFFFFFFFFFFFFFFFFFFFFFFFFFFFFFFFFFFFFFFFFF
310
FFFFFFFFFFFFFFFFFFFFFFFFFFFFFFFFFFFFFFFFFFFFFFFFFFFFFFFFFFFFFFFF
310
FFFFFFFFFFFFFFFFFFFFFFFFFFFFFFFFFFFFFFFFFFFFFFFFF000FFFFFFFFFFFF
310
FFFFFFFFFFFFFFFFFFFFFFFFFFFFFFFFFFFFFFFFFFFFFFFFFFFFFFFFFFFFFFFF
310
FFFFFFFFFFFFFFFFFFFFFFFFFFFFFFFFFFFFFFFFFFFFFFFFFFFFFFFFFFFFFFFF
310
FFFFFFFFFFFFFFFFFFFFFFFFFFFFFFFFF000FFFFFFFFFFFFFFFFFFFFFFFFFFFF
310
FFFFFFFFFFFFFFFFFFFFFFFFFFFFFFFFFFFFFFFFFFFFFFFFFFFFFFFFFFFFFFFF
310
FFFFFFFFFFFFFFFFFFFFFFFFFFFFFFFFFFFFFFFFFFFFFFFFFFFFFFFFFFFFFFFF
310
FFFFFFFFFFFFFFFFF000FFFFFFFFFFFFFFFFFFFFFFFFFFFFFFFFFFFFFFFFFFFF
310
FFFFFFFFFFFFFFFFFFFFFFFFFFFFFFFFFFFFFFFFFFFFFFFFFFFFFFFFFFFFFFFF
310
FFFFFFFFFFFFFFFFFFFFFFFFFFFFFFFFFFFFFFFFFFFFFFFFFFFFFFFFFFFFFFFF
310
F000FFFFFFFFFFFFFFFFFFFFFFFFFFFFFFFFFFFFFFFFFFFFFFFFFFFFFFFFFFFF
310
FFFFFFFFFFFFFFFFFFFFFFFFFFFFFFFFFFFFFFFFFFFFFFFFFFFFFFFFFFFFFFFF
310
FFFFFFFFFFFFFFFFFFFFFFFFFFFFFFFFFFFFFFFFFFFFFFFFF000FFFFFFFFFFFF
310
FFFFFFFFFFFFFFFFFFFFFFFFFFFFFFFFFFFFFFFFFFFFFFFFFFFFFFFFFFFFFFFF
310
FFFFFFFFFFFFFFFFFFFFFFFFFFFFFFFFFFFFFFFFFFFFFFFFFFFFFFFFFFFFFFFF
310
FFFFFFFFFFFFFFFFFFFFFFFFFFFFFFFFF000FFFFFFFFFFFFFFFFFFFFFFFFFFFF
310
FFFFFFFFFFFFFFFFFFFFFFFFFFFFFFFFFFFFFFFFFFFFFFFFFFFFFFFFFFFFFFFF
310
FFFFFFFFFFFFFFFFFFFFFFFFFFFFFFFFFFFFFFFFFFFFFFFFFFFFFFFFFFFFFFFF
310
FFFFFFFFFFFFFFFFF000FFFFFFFFFFFFFFFFFFFFFFFFFFFFFFFFFFFFFFFFFFFF
310
FFFFFFFFFFFFFFFFFFFFFFFFFFFFFFFFFFFFFFFFFFFFFFFFFFFFFFFFFFFFFFFF
310
FFFFFFFFFFFFFFFFFFFFFFFFFFFFFFFFFFFFFFFFFFFFFFFFFFFFFFFFFFFFFFFF
310
F000FFFFFFFFFFFFFFFFFFFFFFFFFFFFFFFFFFFFFFFFFFFFFFFFFFFFFFFFFFFF
310
FFFFFFFFFFFFFFFFFFFFFFFFFFFFFFFFFFFFFFFFFFFFFFFFFFFFFFFFFFFFFFFF
310
FFFFFFFFFFFFFFFFFFFFFFFFFFFFFFFFFFFFFFFFFFFFFFFFF000FFFFFFFFFFFF
310
FFFFFFFFFFFFFFFFFFFFFFFFFFFFFFFFFFFFFFFFFFFFFFFFFFFFFFFFFFFFFFFF
310
FFFFFFFFFFFFFFFFFFFFFFFFFFFFFFFFFFFFFFFFFFFFFFFFFFFFFFFFFFFFFFFF
310
FFFFFFFFFFFFFFFFFFFFFFFFFFFFFFFFF000FFFFFFFFFFFFFFFFFFFFFFFFFFFF
310
FFFFFFFFFFFFFFFFFFFFFFFFFFFFFFFFFFFFFFFFFFFFFFFFFFFFFFFFFFFFFFFF
310
FFFFFFFFFFFFFFFFFFFFFFFFFFFFFFFFFFFFFFFFFFFFFFFFFFFFFFFFFFFFFFFF
310
FFFFFFFFFFFFFFFFF000FFFFFFFFFFFFFFFFFFFFFFFFFFFFFFFFFFFFFFFFFFFF
310
FFFFFFFFFFFFFFFFFFFFFFFFFFFFFFFFFFFFFFFFFFFFFFFFFFFFFFFFFFFFFFFF
310
FFFFFFFFFFFFFFFFFFFFFFFFFFFFFFFFFFFFFFFFFFFFFFFFFFFFFFFFFFFFFFFF
310
F000FFFFFFFFFFFFFFFFFFFFFFFFFFFFFFFFFFFFFFFFFFFFFFFFFFFFFFFFFFFF
310
FFFFFFFFFFFFFFFFFFFFFFFFFFFFFFFFFFFFFFFFFFFFFFFFFFFFFFFFFFFFFFFF
310
FFFFFFFFFFFFFFFFFFFFFFFFFFFFFFFFFFFFFFFFFFFFFFFFF000FFFFFFFFFFFF
310
FFFFFFFFFFFFFFFFFFFFFFFFFFFFFFFFFFFFFFFFFFFFFFFFFFFFFFFFFFFFFFFF
310
FFFFFFFFFFFFFFFFFFFFFFFFFFFFFFFFFFFFFFFFFFFFFFFFFFFFFFFFFFFFFFFF
310
FFFFFFFFFFFFFFFFFFFFFFFFFFFFFFFFF000FFFFFFFFFFFFFFFFFFFFFFFFFFFF
310
FFFFFFFFFFFFFFFFFFFFFFFFFFFFFFFFFFFFFFFFFFFFFFFFFFFFFFFFFFFFFFFF
310
FFFFFFFFFFFFFFFFFFFFFFFFFFFFFFFFFFFFFFFFFFFFFFFFFFFFFFFFFFFFFFFF
310
FFFFFFFFFFFFFFFFF000FFFFFFFFFFFFFFFFFFFFFFFFFFFFFFFFFFFFFFFFFFFF
310
FFFFFFFFFFFFFFFFFFFFFFFFFFFFFFFFFFFFFFFFFFFFFFFFFFFFFFFFFFFFFFFF
310
FFFFFFFFFFFFFFFFFFFFFFFFFFFFFFFFFFFFFFFFFFFFFFFFFFFFFFFFFFFFFFFF
310
F000FFFFFFFFFFFFFFFFFFFFFFFFFFFFFFFFFFFFFFFFFFFFFFFFFFFFFFFFFFFF
310
FFFFFFFFFFFFFFFFFFFFFFFFFFFFFFFFFFFFFFFFFFFFFFFFFFFFFFFFFFFFFFFF
310
FFFFFFFFFFFFFFFFFFFFFFFFFFFFFFFFFFFFFFFFFFFFFFFFF000FFFFFFFFFFFF
310
FFFFFFFFFFFFFFFFFFFFFFFFFFFFFFFFFFFFFFFFFFFFFFFFFFFFFFFFFFFFFFFF
310
FFFFFFFFFFFFFFFFFFFFFFFFFFFFFFFFFFFFFFFFFFFFFFFFFFFFFFFFFFFFFFFF
310
FFFFFFFFFFFFFFFFFFFFFFFFFFFFFFFFF000FFFFFFFFFFFFFFFFFFFFFFFFFFFF
310
FFFFFFFFFFFFFFFFFFFFFFFFFFFFFFFFFFFFFFFFFFFFFFFFFFFFFFFFFFFFFFFF
310
FFFFFFFFFFFFFFFFFFFFFFFFFFFFFFFFFFFFFFFFFFFFFFFFFFFFFFFFFFFFFFFF
310
FFFFFFFFFFFFFFFFF000FFFFFFFFFFFFFFFFFFFFFFFFFFFFFFFFFFFFFFFFFFFF
310
FFFFFFFFFFFFFFFFFFFFFFFFFFFFFFFFFFFFFFFFFFFFFFFFFFFFFFFFFFFFFFFF
310
FFFFFFFFFFFFFFFFFFFFFFFFFFFFFFFFFFFFFFFFFFFFFFFFFFFFFFFFFFFFFFFF
310
F000FFFFFFFFFFFFFFFFFFFFFFFFFFFFFFFFFFFFFFFFFFFFFFFFFFFFFFFFFFFF
310
FFFFFFFFFFFFFFFFFFFFFFFFFFFFFFFFFFFFFFFFFFFFFFFFFFFFFFFFFFFFFFFF
310
FFFFFFFFFFFFFFFFFFFFFFFFFFFFFFFFFFFFFFFFFFFFFFFFF000FFFFFFFFFFFF
310
FFFFFFFFFFFFFFFFFFFFFFFFFFFFFFFFFFFFFFFFFFFFFFFFFFFFFFFFFFFFFFFF
310
FFFFFFFFFFFFFFFFFFFFFFFFFFFFFFFFFFFFFFFFFFFFFFFFFFFFFFFFFFFFFFFF
310
FFFFFFFFFFFFFFFFFFFFFFFFFFFFFFFFF0000000000000000000000000000000
310
0000000000000000000000000000000000000000000000000000000000000000
310
0000000000000000000000000000000000000000000000000000000000000000
310
0000000000000000000000000000000000000000000000000000000000000000
310
0000000000000000000000000000000000000000000000000000000000000000
310
0000000000000000000000000000000000000000000000000000000000000000
310
0000000000000000000000000000000000000000000000000000000000000000
310
0000000000000000000000000000000000000000000000000000000000000000
310
0000000000000000000000000000000000000000000000000000000000000000
310
0000000000000000000000000000000000000000000000000000000000000000
310
0000000000000000000000000000000000000000000000000000000000000000
310
0000000000000000000000000000000000000000000000000000000000000000
310
0000000000000000000000000000000000000000000000000000000000000000
310
0000000000000000000000000000000000000000000000000000000000000000
310
0000000000000000000000000000000000000000000000000000000000000000
310
0000000000000000000000000000000000000000000000000000000000000000
  1
OLE
  0
ENDSEC
  0
SECTION
  2
OBJECTS
  0
DICTIONARY
  5
C
330
0
100
AcDbDictionary
281
     1
  3
ACAD_GROUP
350
D
  3
ACAD_LAYOUT
350
1A
  3
ACAD_MLINESTYLE
350
17
  3
ACAD_PLOTSETTINGS
350
19
  3
ACAD_PLOTSTYLENAME
350
E
  0
DICTIONARY
  5
D
102
{ACAD_REACTORS
330
C
102
}
330
C
100
AcDbDictionary
281
     1
  0
DICTIONARY
  5
1A
102
{ACAD_REACTORS
330
C
102
}
330
C
100
AcDbDictionary
281
     1
  3
Layout1
350
1E
  3
Layout2
350
26
  3
Model
350
22
  0
DICTIONARY
  5
17
102
{ACAD_REACTORS
330
C
102
}
330
C
100
AcDbDictionary
281
     1
  3
Standard
350
18
  0
DICTIONARY
  5
19
102
{ACAD_REACTORS
330
C
102
}
330
C
100
AcDbDictionary
281
     1
  0
ACDBDICTIONARYWDFLT
  5
E
102
{ACAD_REACTORS
330
C
102
}
330
C
100
AcDbDictionary
281
     1
  3
Normal
350
F
100
AcDbDictionaryWithDefault
340
F
  0
LAYOUT
  5
1E
102
{ACAD_REACTORS
330
1A
102
}
330
1A
100
AcDbPlotSettings
  1

  2
none_device
  4

  6

 40
0.0
 41
0.0
 42
0.0
 43
0.0
 44
0.0
 45
0.0
 46
0.0
 47
0.0
 48
0.0
 49
0.0
140
0.0
141
0.0
142
1.0
143
1.0
 70
   688
 72
     0
 73
     0
 74
     5
  7

 75
    16
147
1.0
148
0.0
149
0.0
100
AcDbLayout
  1
Layout1
 70
     1
 71
     1
 10
0.0
 20
0.0
 11
420.0
 21
297.0
 12
0.0
 22
0.0
 32
0.0
 14
1.0000000000E+20
 24
1.0000000000E+20
 34
1.0000000000E+20
 15
-1.0000000000E+20
 25
-1.0000000000E+20
 35
-1.0000000000E+20
146
0.0
 13
0.0
 23
0.0
 33
0.0
 16
1.0
 26
0.0
 36
0.0
 17
0.0
 27
1.0
 37
0.0
 76
     0
330
1B
  0
LAYOUT
  5
26
102
{ACAD_REACTORS
330
1A
102
}
330
1A
100
AcDbPlotSettings
  1

  2
none_device
  4

  6

 40
0.0
 41
0.0
 42
0.0
 43
0.0
 44
0.0
 45
0.0
 46
0.0
 47
0.0
 48
0.0
 49
0.0
140
0.0
141
0.0
142
1.0
143
1.0
 70
   688
 72
     0
 73
     0
 74
     5
  7

 75
    16
147
1.0
148
0.0
149
0.0
100
AcDbLayout
  1
Layout2
 70
     1
 71
     2
 10
0.0
 20
0.0
 11
0.0
 21
0.0
 12
0.0
 22
0.0
 32
0.0
 14
0.0
 24
0.0
 34
0.0
 15
0.0
 25
0.0
 35
0.0
146
0.0
 13
0.0
 23
0.0
 33
0.0
 16
1.0
 26
0.0
 36
0.0
 17
0.0
 27
1.0
 37
0.0
 76
     0
330
23
  0
LAYOUT
  5
22
102
{ACAD_REACTORS
330
1A
102
}
330
1A
100
AcDbPlotSettings
  1

  2
none_device
  4

  6

 40
0.0
 41
0.0
 42
0.0
 43
0.0
 44
0.0
 45
0.0
 46
0.0
 47
0.0
 48
0.0
 49
0.0
140
0.0
141
0.0
142
1.0
143
1.0
 70
  1712
 72
     0
 73
     0
 74
     0
  7

 75
     0
147
1.0
148
0.0
149
0.0
100
AcDbLayout
  1
Model
 70
     1
 71
     0
 10
0.0
 20
0.0
 11
297.0
 21
210.0
 12
0.0
 22
0.0
 32
0.0
 14
0.0
 24
0.0
 34
0.0
 15
297.0
 25
210.0
 35
0.0
146
0.0
 13
0.0
 23
0.0
 33
0.0
 16
1.0
 26
0.0
 36
0.0
 17
0.0
 27
1.0
 37
0.0
 76
     0
330
1F
331
29
  0
MLINESTYLE
  5
18
102
{ACAD_REACTORS
330
17
102
}
330
17
100
AcDbMlineStyle
  2
Standard
 70
     0
  3

 62
   256
 51
90.0
 52
90.0
 71
     2
 49
0.5
 62
   256
  6
BYLAYER
 49
-0.5
 62
   256
  6
BYLAYER
  0
ACDBPLACEHOLDER
  5
F
102
{ACAD_REACTORS
330
E
102
}
330
E
  0
ENDSEC
  0
EOF
