  0
SECTION
  2
HEADER
  9
$ACADVER
  1
AC1015
  9
$ACADMAINTVER
 70
     6
  9
$DWGCODEPAGE
  3
ANSI_1252
  9
$INSBASE
 10
0.0
 20
0.0
 30
0.0
  9
$EXTMIN
 10
0.0
 20
0.0
 30
0.0
  9
$EXTMAX
 10
297.0
 20
210.0
 30
0.0
  9
$LIMMIN
 10
0.0
 20
0.0
  9
$LIMMAX
 10
297.0
 20
210.0
  9
$ORTHOMODE
 70
     0
  9
$REGENMODE
 70
     1
  9
$FILLMODE
 70
     1
  9
$QTEXTMODE
 70
     0
  9
$MIRRTEXT
 70
     1
  9
$LTSCALE
 40
1.0
  9
$ATTMODE
 70
     1
  9
$TEXTSIZE
 40
2.0
  9
$TRACEWID
 40
1.0
  9
$TEXTSTYLE
  7
Standard
  9
$CLAYER
  8
0
  9
$CELTYPE
  6
ByLayer
  9
$CECOLOR
 62
   256
  9
$CELTSCALE
 40
1.0
  9
$DISPSILH
 70
     0
  9
$DIMSCALE
 40
1.0
  9
$DIMASZ
 40
3.0
  9
$DIMEXO
 40
0.0
  9
$DIMDLI
 40
3.75
  9
$DIMRND
 40
0.0
  9
$DIMDLE
 40
0.0
  9
$DIMEXE
 40
1.0
  9
$DIMTP
 40
0.0
  9
$DIMTM
 40
0.0
  9
$DIMTXT
 40
2.0
  9
$DIMCEN
 40
2.5
  9
$DIMTSZ
 40
0.0
  9
$DIMTOL
 70
     0
  9
$DIMLIM
 70
     0
  9
$DIMTIH
 70
     1
  9
$DIMTOH
 70
     1
  9
$DIMSE1
 70
     0
  9
$DIMSE2
 70
     0
  9
$DIMTAD
 70
     1
  9
$DIMZIN
 70
     0
  9
$DIMBLK
  1

  9
$DIMASO
 70
     1
  9
$DIMSHO
 70
     1
  9
$DIMPOST
  1

  9
$DIMAPOST
  1

  9
$DIMALT
 70
     0
  9
$DIMALTD
 70
     3
  9
$DIMALTF
 40
0.0393700787
  9
$DIMLFAC
 40
1.0
  9
$DIMTOFL
 70
     1
  9
$DIMTVP
 40
0.0
  9
$DIMTIX
 70
     0
  9
$DIMSOXD
 70
     0
  9
$DIMSAH
 70
     0
  9
$DIMBLK1
  1

  9
$DIMBLK2
  1

  9
$DIMSTYLE
  2
ISO-25
  9
$DIMCLRD
 70
     0
  9
$DIMCLRE
 70
     0
  9
$DIMCLRT
 70
     0
  9
$DIMTFAC
 40
1.0
  9
$DIMGAP
 40
1.524
  9
$DIMJUST
 70
     0
  9
$DIMSD1
 70
     0
  9
$DIMSD2
 70
     0
  9
$DIMTOLJ
 70
     0
  9
$DIMTZIN
 70
     0
  9
$DIMALTZ
 70
     0
  9
$DIMALTTZ
 70
     0
  9
$DIMUPT
 70
     0
  9
$DIMDEC
 70
     2
  9
$DIMTDEC
 70
     3
  9
$DIMALTU
 70
     2
  9
$DIMALTTD
 70
     3
  9
$DIMTXSTY
  7
Standard
  9
$DIMAUNIT
 70
     0
  9
$DIMADEC
 70
     2
  9
$DIMALTRND
 40
0.0
  9
$DIMAZIN
 70
     0
  9
$DIMDSEP
 70
    44
  9
$DIMATFIT
 70
     3
  9
$DIMFRAC
 70
     0
  9
$DIMLDRBLK
  1

  9
$DIMLUNIT
 70
     2
  9
$DIMLWD
 70
    -2
  9
$DIMLWE
 70
    -2
  9
$DIMTMOVE
 70
     0
  9
$LUNITS
 70
     2
  9
$LUPREC
 70
     2
  9
$SKETCHINC
 40
1.0
  9
$FILLETRAD
 40
10.0
  9
$AUNITS
 70
     0
  9
$AUPREC
 70
     2
  9
$MENU
  1
.
  9
$ELEVATION
 40
0.0
  9
$PELEVATION
 40
0.0
  9
$THICKNESS
 40
0.0
  9
$LIMCHECK
 70
     0
  9
$CHAMFERA
 40
10.0
  9
$CHAMFERB
 40
10.0
  9
$CHAMFERC
 40
20.0
  9
$CHAMFERD
 40
0.0
  9
$SKPOLY
 70
     0
  9
$TDCREATE
 40
2456045.396008993
  9
$TDUCREATE
 40
2456045.31267566
  9
$TDUPDATE
 40
2456045.396010625
  9
$TDUUPDATE
 40
2456045.312677292
  9
$TDINDWG
 40
0.0000000116
  9
$TDUSRTIMER
 40
0.0000000116
  9
$USRTIMER
 70
     1
  9
$ANGBASE
 50
0.0
  9
$ANGDIR
 70
     0
  9
$PDMODE
 70
     0
  9
$PDSIZE
 40
-1.0
  9
$PLINEWID
 40
0.0
  9
$SPLFRAME
 70
     0
  9
$SPLINETYPE
 70
     6
  9
$SPLINESEGS
 70
     8
  9
$HANDSEED
  5
27F
  9
$SURFTAB1
 70
     6
  9
$SURFTAB2
 70
     6
  9
$SURFTYPE
 70
     6
  9
$SURFU
 70
     6
  9
$SURFV
 70
     6
  9
$UCSBASE
  2

  9
$UCSNAME
  2

  9
$UCSORG
 10
0.0
 20
0.0
 30
0.0
  9
$UCSXDIR
 10
1.0
 20
0.0
 30
0.0
  9
$UCSYDIR
 10
0.0
 20
1.0
 30
0.0
  9
$UCSORTHOREF
  2

  9
$UCSORTHOVIEW
 70
     0
  9
$UCSORGTOP
 10
0.0
 20
0.0
 30
0.0
  9
$UCSORGBOTTOM
 10
0.0
 20
0.0
 30
0.0
  9
$UCSORGLEFT
 10
0.0
 20
0.0
 30
0.0
  9
$UCSORGRIGHT
 10
0.0
 20
0.0
 30
0.0
  9
$UCSORGFRONT
 10
0.0
 20
0.0
 30
0.0
  9
$UCSORGBACK
 10
0.0
 20
0.0
 30
0.0
  9
$PUCSBASE
  2

  9
$PUCSNAME
  2

  9
$PUCSORG
 10
0.0
 20
0.0
 30
0.0
  9
$PUCSXDIR
 10
1.0
 20
0.0
 30
0.0
  9
$PUCSYDIR
 10
0.0
 20
1.0
 30
0.0
  9
$PUCSORTHOREF
  2

  9
$PUCSORTHOVIEW
 70
     0
  9
$PUCSORGTOP
 10
0.0
 20
0.0
 30
0.0
  9
$PUCSORGBOTTOM
 10
0.0
 20
0.0
 30
0.0
  9
$PUCSORGLEFT
 10
0.0
 20
0.0
 30
0.0
  9
$PUCSORGRIGHT
 10
0.0
 20
0.0
 30
0.0
  9
$PUCSORGFRONT
 10
0.0
 20
0.0
 30
0.0
  9
$PUCSORGBACK
 10
0.0
 20
0.0
 30
0.0
  9
$USERI1
 70
     0
  9
$USERI2
 70
     0
  9
$USERI3
 70
     0
  9
$USERI4
 70
     0
  9
$USERI5
 70
     0
  9
$USERR1
 40
0.0
  9
$USERR2
 40
0.0
  9
$USERR3
 40
0.0
  9
$USERR4
 40
0.0
  9
$USERR5
 40
0.0
  9
$WORLDVIEW
 70
     1
  9
$SHADEDGE
 70
     3
  9
$SHADEDIF
 70
    70
  9
$TILEMODE
 70
     1
  9
$MAXACTVP
 70
    64
  9
$PINSBASE
 10
0.0
 20
0.0
 30
0.0
  9
$PLIMCHECK
 70
     0
  9
$PEXTMIN
 10
1.0000000000E+20
 20
1.0000000000E+20
 30
1.0000000000E+20
  9
$PEXTMAX
 10
-1.0000000000E+20
 20
-1.0000000000E+20
 30
-1.0000000000E+20
  9
$PLIMMIN
 10
0.0
 20
0.0
  9
$PLIMMAX
 10
420.0
 20
297.0
  9
$UNITMODE
 70
     0
  9
$VISRETAIN
 70
     1
  9
$PLINEGEN
 70
     0
  9
$PSLTSCALE
 70
     1
  9
$TREEDEPTH
 70
  3020
  9
$CMLSTYLE
  2
Standard
  9
$CMLJUST
 70
     0
  9
$CMLSCALE
 40
20.0
  9
$PROXYGRAPHICS
 70
     1
  9
$MEASUREMENT
 70
     1
  9
$CELWEIGHT
370
    -1
  9
$ENDCAPS
280
     0
  9
$JOINSTYLE
280
     0
  9
$LWDISPLAY
290
     1
  9
$INSUNITS
 70
     4
  9
$HYPERLINKBASE
  1

  9
$STYLESHEET
  1

  9
$XEDIT
290
     1
  9
$CEPSNTYPE
380
     0
  9
$PSTYLEMODE
290
     1
  9
$FINGERPRINTGUID
  2
{58F59AC7-DBDF-43E2-A670-C8BD3DAE9283}
  9
$VERSIONGUID
  2
{FAEB1C32-E019-11D5-929B-00C0DF256EC4}
  9
$EXTNAMES
290
     1
  9
$PSVPSCALE
 40
0.0
  9
$OLESTARTUP
290
     0
  0
ENDSEC
  0
SECTION
  2
CLASSES
  0
CLASS
  1
ACDBDICTIONARYWDFLT
  2
AcDbDictionaryWithDefault
  3
ObjectDBX Classes
 90
        0
280
     0
281
     0
  0
CLASS
  1
VISUALSTYLE
  2
AcDbVisualStyle
  3
ObjectDBX Classes
 90
     4095
280
     0
281
     0
  0
CLASS
  1
MATERIAL
  2
AcDbMaterial
  3
ObjectDBX Classes
 90
     1153
280
     0
281
     0
  0
CLASS
  1
ACDBPLACEHOLDER
  2
AcDbPlaceHolder
  3
ObjectDBX Classes
 90
        0
280
     0
281
     0
  0
CLASS
  1
LAYOUT
  2
AcDbLayout
  3
ObjectDBX Classes
 90
        0
280
     0
281
     0
  0
ENDSEC
  0
SECTION
  2
TABLES
  0
TABLE
  2
VPORT
  5
8
330
0
100
AcDbSymbolTable
 70
     1
  0
VPORT
  5
29
330
8
100
AcDbSymbolTableRecord
100
AcDbViewportTableRecord
  2
*Active
 70
     0
 10
0.0
 20
0.0
 11
1.0
 21
1.0
 12
148.5
 22
105.0
 13
0.0
 23
0.0
 14
10.0
 24
10.0
 15
10.0
 25
10.0
 16
0.0
 26
0.0
 36
1.0
 17
0.0
 27
0.0
 37
0.0
 40
210.0
 41
1.4142857143
 42
50.0
 43
0.0
 44
0.0
 50
0.0
 51
0.0
 71
     0
 72
  2000
 73
     1
 74
     3
 75
     0
 76
     0
 77
     0
 78
     0
281
     0
 65
     1
110
0.0
120
0.0
130
0.0
111
1.0
121
0.0
131
0.0
112
0.0
122
1.0
132
0.0
 79
     0
146
0.0
  0
ENDTAB
  0
TABLE
  2
LTYPE
  5
5
330
0
100
AcDbSymbolTable
 70
     6
  0
LTYPE
  5
14
330
5
100
AcDbSymbolTableRecord
100
AcDbLinetypeTableRecord
  2
ByBlock
 70
     0
  3

 72
    65
 73
     0
 40
0.0
  0
LTYPE
  5
15
330
5
100
AcDbSymbolTableRecord
100
AcDbLinetypeTableRecord
  2
ByLayer
 70
     0
  3

 72
    65
 73
     0
 40
0.0
  0
LTYPE
  5
16
330
5
100
AcDbSymbolTableRecord
100
AcDbLinetypeTableRecord
  2
Continuous
 70
     0
  3
Solid line
 72
    65
 73
     0
 40
0.0
  0
LTYPE
  5
3F
330
5
100
AcDbSymbolTableRecord
100
AcDbLinetypeTableRecord
  2
HIDDEN
 70
     0
  3
Hidden __ __ __ __ __ __ __ __ __ __ __ __ __ __
 72
    65
 73
     2
 40
1.905
 49
1.27
 74
     0
 49
-0.635
 74
     0
  0
LTYPE
  5
40
330
5
100
AcDbSymbolTableRecord
100
AcDbLinetypeTableRecord
  2
PHANTOM
 70
     0
  3
Phantom ______  __  __  ______  __  __  ______
 72
    65
 73
     6
 40
12.7
 49
6.35
 74
     0
 49
-1.27
 74
     0
 49
1.27
 74
     0
 49
-1.27
 74
     0
 49
1.27
 74
     0
 49
-1.27
 74
     0
  0
LTYPE
  5
41
330
5
100
AcDbSymbolTableRecord
100
AcDbLinetypeTableRecord
  2
CENTER
 70
     0
  3
Center ____ _ ____ _ ____ _ ____ _ ____ _ ____
 72
    65
 73
     4
 40
10.16
 49
6.35
 74
     0
 49
-1.27
 74
     0
 49
1.27
 74
     0
 49
-1.27
 74
     0
  0
LTYPE
  5
42
330
5
100
AcDbSymbolTableRecord
100
AcDbLinetypeTableRecord
  2
CENTERX2
 70
     0
  3
Center (2x) ________  __  ________  __  _____
 72
    65
 73
     4
 40
20.32
 49
12.7
 74
     0
 49
-2.54
 74
     0
 49
2.54
 74
     0
 49
-2.54
 74
     0
  0
LTYPE
  5
43
330
5
100
AcDbSymbolTableRecord
100
AcDbLinetypeTableRecord
  2
DOT2
 70
     0
  3
Dot (.5x) ........................................
 72
    65
 73
     2
 40
0.635
 49
0.0
 74
     0
 49
-0.635
 74
     0
  0
ENDTAB
  0
TABLE
  2
LAYER
  5
2
330
0
100
AcDbSymbolTable
 70
     5
  0
LAYER
  5
10
330
2
100
AcDbSymbolTableRecord
100
AcDbLayerTableRecord
  2
0
 70
     0
 62
     7
  6
Continuous
370
    -3
390
F
  0
LAYER
  5
44
330
2
100
AcDbSymbolTableRecord
100
AcDbLayerTableRecord
  2
FORMAT
 70
     0
 62
     7
  6
Continuous
370
    -3
390
F
  0
LAYER
  5
45
330
2
100
AcDbSymbolTableRecord
100
AcDbLayerTableRecord
  2
VERMASSUNG
 70
     0
 62
     7
  6
Continuous
370
    -3
390
F
  0
LAYER
  5
46
330
2
100
AcDbSymbolTableRecord
100
AcDbLayerTableRecord
  2
KOPF_DÜNN
 70
     0
 62
     7
  6
Continuous
370
    -3
390
F
  0
LAYER
  5
47
330
2
100
AcDbSymbolTableRecord
100
AcDbLayerTableRecord
  2
KOPF_DICK
 70
     0
 62
     7
  6
Continuous
370
    15
390
F
  0
ENDTAB
  0
TABLE
  2
STYLE
  5
3
330
0
100
AcDbSymbolTable
 70
     2
  0
STYLE
  5
11
330
3
100
AcDbSymbolTableRecord
100
AcDbTextStyleTableRecord
  2
Standard
 70
     0
 40
0.0
 41
1.0
 50
0.0
 71
     0
 42
2.0
  3
txt
  4

  0
STYLE
  5
48
330
3
100
AcDbSymbolTableRecord
100
AcDbTextStyleTableRecord
  2
SLDTEXTSTYLE0
 70
     0
 40
0.0
 41
0.7
 50
0.0
 71
     0
 42
0.2
  3
TXT
  4

  0
ENDTAB
  0
TABLE
  2
VIEW
  5
6
330
0
100
AcDbSymbolTable
 70
     0
  0
ENDTAB
  0
TABLE
  2
UCS
  5
7
330
0
100
AcDbSymbolTable
 70
     0
  0
ENDTAB
  0
TABLE
  2
APPID
  5
9
330
0
100
AcDbSymbolTable
 70
     1
  0
APPID
  5
12
330
9
100
AcDbSymbolTableRecord
100
AcDbRegAppTableRecord
  2
ACAD
 70
     0
  0
ENDTAB
  0
TABLE
  2
DIMSTYLE
  5
A
330
0
100
AcDbSymbolTable
 70
     5
100
AcDbDimStyleTable
  0
DIMSTYLE
105
27
330
A
100
AcDbSymbolTableRecord
100
AcDbDimStyleTableRecord
  2
ISO-25
 70
     0
 41
2.5
 42
0.625
 43
3.75
 44
1.25
 73
     0
 74
     0
 77
     1
 78
     8
140
2.5
141
2.5
143
0.0393700787
147
0.625
171
     3
172
     1
178
     0
271
     2
272
     2
274
     3
278
    44
283
     0
284
     8
340
11
  0
DIMSTYLE
105
1D6
102
{ACAD_REACTORS
330
1D5
330
1EB
102
}
330
A
100
AcDbSymbolTableRecord
100
AcDbDimStyleTableRecord
  2
SLDDIMSTYLE0
 70
     0
 41
3.0
 44
0.0
 45
0.000000001
 47
0.1
 48
0.1
 71
     1
 73
     0
 74
     0
 77
     1
 78
    12
 79
     3
140
2.0
147
0.5
173
     1
178
     0
271
     2
272
     1
276
     2
284
     8
340
48
  0
DIMSTYLE
105
1E3
102
{ACAD_REACTORS
330
1E2
102
}
330
A
100
AcDbSymbolTableRecord
100
AcDbDimStyleTableRecord
  2
SLDDIMSTYLE1
 70
     0
 41
3.0
 44
0.0
 73
     0
 74
     0
 77
     1
 78
    12
 79
     3
140
2.0
147
0.5
173
     1
178
     0
179
     2
272
     3
276
     2
284
    12
340
48
  0
DIMSTYLE
105
1F8
102
{ACAD_REACTORS
330
1F7
330
202
102
}
330
A
100
AcDbSymbolTableRecord
100
AcDbDimStyleTableRecord
  2
SLDDIMSTYLE2
 70
     0
 41
3.0
 44
0.0
 45
0.000000001
 73
     0
 74
     0
 77
     1
 78
    12
 79
     3
140
2.0
147
0.5
173
     1
178
     0
271
     2
272
     3
276
     2
284
    12
340
48
  0
DIMSTYLE
105
264
102
{ACAD_REACTORS
330
263
102
}
330
A
100
AcDbSymbolTableRecord
100
AcDbDimStyleTableRecord
  2
SLDDIMSTYLE3
 70
     0
 41
3.0
 44
0.0
 45
0.000000001
 73
     0
 74
     0
 77
     1
 78
    12
 79
     3
140
2.0
147
0.5
172
     1
173
     1
178
     0
271
     2
272
     3
276
     2
284
    12
289
     0
340
48
  0
ENDTAB
  0
TABLE
  2
BLOCK_RECORD
  5
1
330
0
100
AcDbSymbolTable
 70
     8
  0
BLOCK_RECORD
  5
1F
330
1
100
AcDbSymbolTableRecord
100
AcDbBlockTableRecord
  2
*Model_Space
340
22
  0
BLOCK_RECORD
  5
1B
330
1
100
AcDbSymbolTableRecord
100
AcDbBlockTableRecord
  2
*Paper_Space
340
1E
  0
BLOCK_RECORD
  5
23
330
1
100
AcDbSymbolTableRecord
100
AcDbBlockTableRecord
  2
*Paper_Space0
340
26
  0
BLOCK_RECORD
  5
1D7
330
1
100
AcDbSymbolTableRecord
100
AcDbBlockTableRecord
  2
_D
340
0
  0
BLOCK_RECORD
  5
1E4
330
1
100
AcDbSymbolTableRecord
100
AcDbBlockTableRecord
  2
_D_1
340
0
  0
BLOCK_RECORD
  5
1EC
330
1
100
AcDbSymbolTableRecord
100
AcDbBlockTableRecord
  2
_D_2
340
0
  0
BLOCK_RECORD
  5
1F9
330
1
100
AcDbSymbolTableRecord
100
AcDbBlockTableRecord
  2
_D_3
340
0
  0
BLOCK_RECORD
  5
203
330
1
100
AcDbSymbolTableRecord
100
AcDbBlockTableRecord
  2
_D_4
340
0
  0
BLOCK_RECORD
  5
265
330
1
100
AcDbSymbolTableRecord
100
AcDbBlockTableRecord
  2
_D_5
340
0
  0
BLOCK_RECORD
  5
272
330
1
100
AcDbSymbolTableRecord
100
AcDbBlockTableRecord
  2
SW_CENTERMARKSYMBOL_0
340
0
102
{BLKREFS
331
27D
102
}
  0
ENDTAB
  0
ENDSEC
  0
SECTION
  2
BLOCKS
  0
BLOCK
  5
20
330
1F
100
AcDbEntity
  8
0
100
AcDbBlockBegin
  2
*Model_Space
 70
     0
 10
0.0
 20
0.0
 30
0.0
  3
*Model_Space
  1

  0
ENDBLK
  5
21
330
1F
100
AcDbEntity
  8
0
100
AcDbBlockEnd
  0
BLOCK
  5
1C
330
1B
100
AcDbEntity
 67
     1
  8
0
100
AcDbBlockBegin
  2
*Paper_Space
 70
     0
 10
0.0
 20
0.0
 30
0.0
  3
*Paper_Space
  1

  0
ENDBLK
  5
1D
330
1B
100
AcDbEntity
 67
     1
  8
0
100
AcDbBlockEnd
  0
BLOCK
  5
24
330
23
100
AcDbEntity
  8
0
100
AcDbBlockBegin
  2
*Paper_Space0
 70
     0
 10
0.0
 20
0.0
 30
0.0
  3
*Paper_Space0
  1

  0
ENDBLK
  5
25
330
23
100
AcDbEntity
  8
0
100
AcDbBlockEnd
  0
BLOCK
  5
1D8
330
1D7
100
AcDbEntity
  8
0
100
AcDbBlockBegin
  2
_D
 70
     0
 10
0.0
 20
0.0
 30
0.0
  3
_D
  1

  0
SOLID
  5
1DA
330
1D7
100
AcDbEntity
  8
VERMASSUNG
100
AcDbTrace
 10
243.2940308534
 20
143.4854457227
 30
0.0
 11
242.8440308534
 21
140.4854457227
 31
0.0
 12
243.7440308534
 22
140.4854457227
 32
0.0
 13
243.7440308534
 23
140.4854457227
 33
0.0
  0
SOLID
  5
1DB
330
1D7
100
AcDbEntity
  8
VERMASSUNG
100
AcDbTrace
 10
243.2940308534
 20
116.4854457227
 30
0.0
 11
243.7440308534
 21
119.4854457227
 31
0.0
 12
242.8440308534
 22
119.4854457227
 32
0.0
 13
242.8440308534
 23
119.4854457227
 33
0.0
  0
LINE
  5
1DC
330
1D7
100
AcDbEntity
  8
VERMASSUNG
100
AcDbLine
 10
227.260873318
 20
143.4854457227
 30
0.0
 11
244.2940308534
 21
143.4854457227
 31
0.0
  0
LINE
  5
1DD
330
1D7
100
AcDbEntity
  8
VERMASSUNG
100
AcDbLine
 10
227.260873318
 20
116.4854457227
 30
0.0
 11
244.2940308534
 21
116.4854457227
 31
0.0
  0
LINE
  5
1DE
330
1D7
100
AcDbEntity
  8
VERMASSUNG
100
AcDbLine
 10
243.2940308534
 20
143.4854457227
 30
0.0
 11
243.2940308534
 21
116.4854457227
 31
0.0
  0
MTEXT
  5
1DF
330
1D7
100
AcDbEntity
  8
VERMASSUNG
100
AcDbMText
 10
240.7158954902
 20
125.4354455357
 30
0.1
 40
2.0
 41
0.0
 71
     1
 72
     1
  1
27
  7
SLDTEXTSTYLE0
 11
-7.044195017643634E-15
 21
1.0
 31
0.0
 73
     1
 44
1.0
  0
MTEXT
  5
1E0
330
1D7
100
AcDbEntity
  8
VERMASSUNG
100
AcDbMText
 10
240.7158954902
 20
131.2229456378
 30
0.1
 40
2.0
 41
0.0
 71
     1
 72
     1
  1

  7
SLDTEXTSTYLE0
 11
-7.044195017643634E-15
 21
1.0
 31
0.0
 73
     1
 44
1.0
  0
MTEXT
  5
1E1
330
1D7
100
AcDbEntity
  8
VERMASSUNG
100
AcDbMText
 10
241.210429353
 20
131.2354459276
 30
0.1
 40
1.5
 41
0.0
 71
     1
 72
     1
  1
±0.1
  7
SLDTEXTSTYLE0
 11
-7.044195017643634E-15
 21
1.0
 31
0.0
 73
     1
 44
1.0
  0
ENDBLK
  5
1D9
330
1D7
100
AcDbEntity
  8
0
100
AcDbBlockEnd
  0
BLOCK
  5
1E5
330
1E4
100
AcDbEntity
  8
0
100
AcDbBlockBegin
  2
_D_1
 70
     0
 10
0.0
 20
0.0
 30
0.0
  3
_D_1
  1

  0
ARC
  5
1E7
330
1E4
100
AcDbEntity
  8
VERMASSUNG
100
AcDbCircle
 10
227.2976164241
 20
143.4854457227
 30
0.0
 40
10.44574316402072
100
AcDbArc
 50
264.9952138766
 51
0.0
  0
SOLID
  5
1E8
330
1E4
100
AcDbEntity
  8
VERMASSUNG
100
AcDbTrace
 10
226.386340673
 20
133.0795278509
 30
0.0
 11
229.4058171874
 21
132.7875319969
 31
0.0
 12
229.3586018457
 22
133.68629265
 32
0.0
 13
229.3586018457
 23
133.68629265
 33
0.0
  0
SOLID
  5
1E9
330
1E4
100
AcDbEntity
  8
VERMASSUNG
100
AcDbTrace
 10
237.7433595881
 20
143.4854457227
 30
0.0
 11
236.8796111638
 21
140.5774500798
 31
0.0
 12
237.7708261975
 22
140.4520078075
 32
0.0
 13
237.7708261975
 23
140.4520078075
 33
0.0
  0
MTEXT
  5
1EA
330
1E4
100
AcDbEntity
  8
VERMASSUNG
100
AcDbMText
 10
230.4744666848
 20
135.7254923681
 30
0.1
 40
2.0
 41
0.0
 71
     1
 72
     1
  1
95°
  7
SLDTEXTSTYLE0
 11
0.7373055534122347
 21
0.6755594133068373
 31
0.0
 73
     1
 44
1.0
  0
ENDBLK
  5
1E6
330
1E4
100
AcDbEntity
  8
0
100
AcDbBlockEnd
  0
BLOCK
  5
1ED
330
1EC
100
AcDbEntity
  8
0
100
AcDbBlockBegin
  2
_D_2
 70
     0
 10
0.0
 20
0.0
 30
0.0
  3
_D_2
  1

  0
SOLID
  5
1EF
330
1EC
100
AcDbEntity
  8
VERMASSUNG
100
AcDbTrace
 10
227.260873318
 20
154.6835508951
 30
0.0
 11
224.260873318
 21
155.1335508951
 31
0.0
 12
224.260873318
 22
154.2335508951
 32
0.0
 13
224.260873318
 23
154.2335508951
 33
0.0
  0
SOLID
  5
1F0
330
1EC
100
AcDbEntity
  8
VERMASSUNG
100
AcDbTrace
 10
177.260873318
 20
154.6835508951
 30
0.0
 11
180.260873318
 21
154.2335508951
 31
0.0
 12
180.260873318
 22
155.1335508951
 32
0.0
 13
180.260873318
 23
155.1335508951
 33
0.0
  0
LINE
  5
1F1
330
1EC
100
AcDbEntity
  8
VERMASSUNG
100
AcDbLine
 10
227.260873318
 20
143.4854457227
 30
0.0
 11
227.260873318
 21
155.6835508951
 31
0.0
  0
LINE
  5
1F2
330
1EC
100
AcDbEntity
  8
VERMASSUNG
100
AcDbLine
 10
177.260873318
 20
136.1854457227
 30
0.0
 11
177.260873318
 21
155.6835508951
 31
0.0
  0
LINE
  5
1F3
330
1EC
100
AcDbEntity
  8
VERMASSUNG
100
AcDbLine
 10
227.260873318
 20
154.6835508951
 30
0.0
 11
177.260873318
 21
154.6835508951
 31
0.0
  0
MTEXT
  5
1F4
330
1EC
100
AcDbEntity
  8
VERMASSUNG
100
AcDbMText
 10
197.710873131
 20
157.2616862582
 30
0.1
 40
2.0
 41
0.0
 71
     1
 72
     1
  1
50
  7
SLDTEXTSTYLE0
 73
     1
 44
1.0
  0
MTEXT
  5
1F5
330
1EC
100
AcDbEntity
  8
VERMASSUNG
100
AcDbMText
 10
203.4983732331
 20
157.2616862582
 30
0.1
 40
2.0
 41
0.0
 71
     1
 72
     1
  1

  7
SLDTEXTSTYLE0
 73
     1
 44
1.0
  0
MTEXT
  5
1F6
330
1EC
100
AcDbEntity
  8
VERMASSUNG
100
AcDbMText
 10
203.5108735229
 20
156.7671523955
 30
0.1
 40
1.5
 41
0.0
 71
     1
 72
     1
  1
±0.1
  7
SLDTEXTSTYLE0
 73
     1
 44
1.0
  0
ENDBLK
  5
1EE
330
1EC
100
AcDbEntity
  8
0
100
AcDbBlockEnd
  0
BLOCK
  5
1FA
330
1F9
100
AcDbEntity
  8
0
100
AcDbBlockBegin
  2
_D_3
 70
     0
 10
0.0
 20
0.0
 30
0.0
  3
_D_3
  1

  0
SOLID
  5
1FC
330
1F9
100
AcDbEntity
  8
VERMASSUNG
100
AcDbTrace
 10
227.260873318
 20
160.6835508951
 30
0.0
 11
224.260873318
 21
161.1335508951
 31
0.0
 12
224.260873318
 22
160.2335508951
 32
0.0
 13
224.260873318
 23
160.2335508951
 33
0.0
  0
SOLID
  5
1FD
330
1F9
100
AcDbEntity
  8
VERMASSUNG
100
AcDbTrace
 10
153.260873318
 20
160.6835508951
 30
0.0
 11
156.260873318
 21
160.2335508951
 31
0.0
 12
156.260873318
 22
161.1335508951
 32
0.0
 13
156.260873318
 23
161.1335508951
 33
0.0
  0
LINE
  5
1FE
330
1F9
100
AcDbEntity
  8
VERMASSUNG
100
AcDbLine
 10
227.260873318
 20
143.4854457227
 30
0.0
 11
227.260873318
 21
161.6835508951
 31
0.0
  0
LINE
  5
1FF
330
1F9
100
AcDbEntity
  8
VERMASSUNG
100
AcDbLine
 10
153.260873318
 20
129.1169507048
 30
0.0
 11
153.260873318
 21
161.6835508951
 31
0.0
  0
LINE
  5
200
330
1F9
100
AcDbEntity
  8
VERMASSUNG
100
AcDbLine
 10
227.260873318
 20
160.6835508951
 30
0.0
 11
153.260873318
 21
160.6835508951
 31
0.0
  0
MTEXT
  5
201
330
1F9
100
AcDbEntity
  8
VERMASSUNG
100
AcDbMText
 10
187.860873204
 20
163.2616862582
 30
0.1
 40
2.0
 41
0.0
 71
     1
 72
     1
  1
74
  7
SLDTEXTSTYLE0
 73
     1
 44
1.0
  0
ENDBLK
  5
1FB
330
1F9
100
AcDbEntity
  8
0
100
AcDbBlockEnd
  0
BLOCK
  5
204
330
203
100
AcDbEntity
  8
0
100
AcDbBlockBegin
  2
_D_4
 70
     0
 10
0.0
 20
0.0
 30
0.0
  3
_D_4
  1

  0
SOLID
  5
206
330
203
100
AcDbEntity
  8
VERMASSUNG
100
AcDbTrace
 10
146.5358047538
 20
136.4854457227
 30
0.0
 11
146.0858047538
 21
133.4854457227
 31
0.0
 12
146.9858047538
 22
133.4854457227
 32
0.0
 13
146.9858047538
 23
133.4854457227
 33
0.0
  0
SOLID
  5
207
330
203
100
AcDbEntity
  8
VERMASSUNG
100
AcDbTrace
 10
146.5358047538
 20
96.4854457227
 30
0.0
 11
146.9858047538
 21
99.4854457227
 31
0.0
 12
146.0858047538
 22
99.4854457227
 32
0.0
 13
146.0858047538
 23
99.4854457227
 33
0.0
  0
LINE
  5
208
330
203
100
AcDbEntity
  8
VERMASSUNG
100
AcDbLine
 10
177.560873318
 20
136.4854457227
 30
0.0
 11
145.5358047538
 21
136.4854457227
 31
0.0
  0
LINE
  5
209
330
203
100
AcDbEntity
  8
VERMASSUNG
100
AcDbLine
 10
177.560873318
 20
96.4854457227
 30
0.0
 11
145.5358047538
 21
96.4854457227
 31
0.0
  0
LINE
  5
20A
330
203
100
AcDbEntity
  8
VERMASSUNG
100
AcDbLine
 10
146.5358047538
 20
136.4854457227
 30
0.0
 11
146.5358047538
 21
96.4854457227
 31
0.0
  0
MTEXT
  5
20B
330
203
100
AcDbEntity
  8
VERMASSUNG
100
AcDbMText
 10
143.7576692647
 20
109.9804457834
 30
0.3501124596
 40
2.0
 41
0.0
 71
     1
 72
     1
  1
PSC
  7
SLDTEXTSTYLE0
 11
-7.044195017643634E-15
 21
1.0
 31
0.0
 73
     1
 44
1.0
  0
MTEXT
  5
20C
330
203
100
AcDbEntity
  8
VERMASSUNG
100
AcDbMText
 10
143.9576692742
 20
114.5804458854
 30
0.3501124596
 40
2.0
 41
0.0
 71
     1
 72
     1
  1
%%c
  7
SLDTEXTSTYLE0
 11
-7.044195017643634E-15
 21
1.0
 31
0.0
 73
     1
 44
1.0
  0
MTEXT
  5
20D
330
203
100
AcDbEntity
  8
VERMASSUNG
100
AcDbMText
 10
143.7576692647
 20
118.1904463654
 30
0.3501124596
 40
2.0
 41
0.0
 71
     1
 72
     1
  1
40
  7
SLDTEXTSTYLE0
 11
-7.044195017643634E-15
 21
1.0
 31
0.0
 73
     1
 44
1.0
  0
ENDBLK
  5
205
330
203
100
AcDbEntity
  8
0
100
AcDbBlockEnd
  0
BLOCK
  5
266
330
265
100
AcDbEntity
  8
0
100
AcDbBlockBegin
  2
_D_5
 70
     0
 10
0.0
 20
0.0
 30
0.0
  3
_D_5
  1

  0
SOLID
  5
268
330
265
100
AcDbEntity
  8
VERMASSUNG
100
AcDbTrace
 10
105.9858010594
 20
103.1759760007
 30
0.0
 11
108.0868330902
 21
100.9877885303
 31
0.0
 12
108.6363781266
 22
101.700529895
 32
0.0
 13
108.6363781266
 23
101.700529895
 33
0.0
  0
SOLID
  5
269
330
265
100
AcDbEntity
  8
VERMASSUNG
100
AcDbTrace
 10
66.3890585761
 20
133.7062558014
 30
0.0
 11
64.2880265453
 21
135.8944432718
 31
0.0
 12
63.7384815089
 22
135.1817019071
 32
0.0
 13
63.7384815089
 23
135.1817019071
 33
0.0
  0
LINE
  5
26A
330
265
100
AcDbEntity
  8
VERMASSUNG
100
AcDbLine
 10
105.9858010594
 20
103.1759760007
 30
0.0
 11
106.5964066555
 21
103.9679108504
 31
0.0
  0
LINE
  5
26B
330
265
100
AcDbEntity
  8
VERMASSUNG
100
AcDbLine
 10
66.3890585761
 20
133.7062558014
 30
0.0
 11
66.9996641721
 21
134.4981906511
 31
0.0
  0
LINE
  5
26C
330
265
100
AcDbEntity
  8
VERMASSUNG
100
AcDbLine
 10
105.9858010594
 20
103.1759760007
 30
0.0
 11
110.7374101574
 21
99.5123424246
 31
0.0
  0
LINE
  5
26D
330
265
100
AcDbEntity
  8
VERMASSUNG
100
AcDbLine
 10
105.9858010594
 20
103.1759760007
 30
0.0
 11
66.3890585761
 21
133.7062558014
 31
0.0
  0
LINE
  5
26E
330
265
100
AcDbEntity
  8
VERMASSUNG
100
AcDbLine
 10
66.3890585761
 20
133.7062558014
 30
0.0
 11
51.6078768548
 21
145.1029916295
 31
0.0
  0
MTEXT
  5
26F
330
265
100
AcDbEntity
  8
VERMASSUNG
100
AcDbMText
 10
53.1821008059
 20
147.144706963
 30
0.1
 40
2.0
 41
0.0
 71
     1
 72
     1
  1
%%c
  7
SLDTEXTSTYLE0
 11
0.7919348496664199
 21
-0.6106055960141743
 31
0.0
 73
     1
 44
1.0
  0
MTEXT
  5
270
330
265
100
AcDbEntity
  8
VERMASSUNG
100
AcDbMText
 10
56.1631067495
 20
145.0988077301
 30
0.1
 40
2.0
 41
0.0
 71
     1
 72
     1
  1
50
  7
SLDTEXTSTYLE0
 11
0.7919348496664199
 21
-0.6106055960141743
 31
0.0
 73
     1
 44
1.0
  0
MTEXT
  5
271
330
265
100
AcDbEntity
  8
VERMASSUNG
100
AcDbMText
 10
60.7464301416
 20
141.5649274965
 30
0.1
 40
2.0
 41
0.0
 71
     1
 72
     1
  1
min.
  7
SLDTEXTSTYLE0
 11
0.7919348496664199
 21
-0.6106055960141743
 31
0.0
 73
     1
 44
1.0
  0
ENDBLK
  5
267
330
265
100
AcDbEntity
  8
0
100
AcDbBlockEnd
  0
BLOCK
  5
273
330
272
100
AcDbEntity
  8
0
100
AcDbBlockBegin
  2
SW_CENTERMARKSYMBOL_0
 70
     0
 10
0.0
 20
0.0
 30
0.0
  3
SW_CENTERMARKSYMBOL_0
  1

  0
LINE
  5
275
330
272
100
AcDbEntity
  8
VERMASSUNG
 62
     0
100
AcDbLine
 10
0.0
 20
0.0
 30
0.0
 11
0.0
 21
2.5
 31
0.0
  0
LINE
  5
276
330
272
100
AcDbEntity
  8
VERMASSUNG
 62
     0
100
AcDbLine
 10
0.0
 20
0.0
 30
0.0
 11
-2.5
 21
0.0
 31
0.0
  0
LINE
  5
277
330
272
100
AcDbEntity
  8
VERMASSUNG
 62
     0
100
AcDbLine
 10
0.0
 20
0.0
 30
0.0
 11
0.0
 21
-2.5
 31
0.0
  0
LINE
  5
278
330
272
100
AcDbEntity
  8
VERMASSUNG
 62
     0
100
AcDbLine
 10
0.0
 20
0.0
 30
0.0
 11
2.5
 21
0.0
 31
0.0
  0
LINE
  5
279
330
272
100
AcDbEntity
  8
VERMASSUNG
 62
     0
100
AcDbLine
 10
0.0
 20
5.0
 30
0.0
 11
0.0
 21
22.5
 31
0.0
  0
LINE
  5
27A
330
272
100
AcDbEntity
  8
VERMASSUNG
 62
     0
100
AcDbLine
 10
-5.0
 20
0.0
 30
0.0
 11
-22.5
 21
0.0
 31
0.0
  0
LINE
  5
27B
330
272
100
AcDbEntity
  8
VERMASSUNG
 62
     0
100
AcDbLine
 10
0.0
 20
-5.0
 30
0.0
 11
0.0
 21
-22.5
 31
0.0
  0
LINE
  5
27C
330
272
100
AcDbEntity
  8
VERMASSUNG
 62
     0
100
AcDbLine
 10
5.0
 20
0.0
 30
0.0
 11
22.5
 21
0.0
 31
0.0
  0
ENDBLK
  5
274
330
272
100
AcDbEntity
  8
0
100
AcDbBlockEnd
  0
ENDSEC
  0
SECTION
  2
ENTITIES
  0
MTEXT
  5
49
330
1F
100
AcDbEntity
  8
KOPF_DÜNN
100
AcDbMText
 10
13.8892156294
 20
23.8442973028
 30
0.0
 40
3.0
 41
0.0
 71
     1
 72
     1
  1
PS4.PCD.RLA.050
  7
SLDTEXTSTYLE0
 73
     1
 44
1.0
  0
MTEXT
  5
4A
330
1F
100
AcDbEntity
  8
VERMASSUNG
100
AcDbMText
 10
13.9329988022
 20
28.8834360957
 30
0.0
 40
3.0
 41
0.0
 71
     1
 72
     1
  1
Klemmhalter rechts_Turning tool right 95° /80°
  7
SLDTEXTSTYLE0
 73
     1
 44
1.0
  0
MTEXT
  5
4B
330
1F
100
AcDbEntity
  8
VERMASSUNG
100
AcDbMText
 10
98.8601118557
 20
13.8365368179
 30
0.0
 40
2.0
 41
0.0
 71
     1
 72
     1
  1
Datum: 27.04.2012
  7
SLDTEXTSTYLE0
 73
     1
 44
1.0
  0
MTEXT
  5
4C
330
1F
100
AcDbEntity
  8
VERMASSUNG
100
AcDbMText
 10
13.933048693
 20
18.0482802738
 30
0.0
 40
2.0
 41
0.0
 71
     1
 72
     1
  1
PSC ø40 / CN..12 04..
  7
SLDTEXTSTYLE0
 73
     1
 44
1.0
  0
MTEXT
  5
4D
330
1F
100
AcDbEntity
  8
VERMASSUNG
100
AcDbMText
 10
13.9808475933
 20
13.9090973692
 30
0.0
 40
2.0
 41
0.0
 71
     1
 72
     1
  1
Gewicht: 409g
  7
SLDTEXTSTYLE0
 73
     1
 44
1.0
  0
LINE
  5
4E
330
1F
100
AcDbEntity
  8
0
  6
Continuous
 62
     7
370
    15
100
AcDbLine
 10
218.790123076
 20
137.7993146044
 30
0.0
 11
217.8404623407
 21
137.194983059
 31
0.0
  0
LINE
  5
4F
330
1F
100
AcDbEntity
  8
0
  6
Continuous
 62
     7
370
    15
100
AcDbLine
 10
225.6001900566
 20
130.3490197838
 30
0.0
 11
226.0977455418
 21
130.8438496079
 31
0.0
  0
LINE
  5
50
330
1F
100
AcDbEntity
  8
0
  6
Continuous
 62
     7
370
    15
100
AcDbLine
 10
214.6093479411
 20
142.4553727974
 30
0.0
 11
214.111792456
 21
141.9605429733
 31
0.0
  0
LINE
  5
51
330
1F
100
AcDbEntity
  8
0
  6
Continuous
 62
     7
370
    15
100
AcDbLine
 10
199.49354633
 20
136.4854457227
 30
0.0
 11
177.560873318
 21
136.4854457227
 31
0.0
  0
LINE
  5
52
330
1F
100
AcDbEntity
  8
0
  6
Continuous
 62
     7
370
    15
100
AcDbLine
 10
177.560873318
 20
96.4854457227
 30
0.0
 11
199.49354633
 21
96.4854457227
 31
0.0
  0
ARC
  5
53
330
1F
100
AcDbEntity
  8
0
  6
Continuous
 62
     7
370
    15
100
AcDbCircle
 10
177.560873318
 20
96.7854457227
 30
0.0
 40
0.3000000000000114
100
AcDbArc
 50
180.0
 51
270.0
  0
ARC
  5
54
330
1F
100
AcDbEntity
  8
0
  6
Continuous
 62
     7
370
    15
100
AcDbCircle
 10
177.560873318
 20
136.1854457227
 30
0.0
 40
0.2999999999999829
100
AcDbArc
 50
90.0
 51
180.0
  0
LWPOLYLINE
  5
55
330
1F
100
AcDbEntity
  8
0
  6
Continuous
 62
     7
370
    15
100
AcDbPolyline
 90
        3
 70
   128
 43
0.0
 10
177.060873318
 20
102.3956254438
 10
177.1863282615
 20
102.3273233289
 10
177.260873318
 20
102.2745855708
  0
LWPOLYLINE
  5
56
330
1F
100
AcDbEntity
  8
0
  6
Continuous
 62
     7
370
    15
100
AcDbPolyline
 90
        3
 70
   128
 43
0.0
 10
177.260873318
 20
130.6963058747
 10
177.1863282615
 20
130.6435681165
 10
177.060873318
 20
130.5752660016
  0
ARC
  5
57
330
1F
100
AcDbEntity
  8
0
  6
Continuous
 62
     7
370
    15
100
AcDbCircle
 10
199.49354633
 20
137.4854457227
 30
0.0
 40
1.0
100
AcDbArc
 50
270.0
 51
345.0
  0
ARC
  5
58
330
1F
100
AcDbEntity
  8
0
  6
Continuous
 62
     7
370
    15
100
AcDbCircle
 10
199.49354633
 20
95.4854457227
 30
0.0
 40
1.000000000000008
100
AcDbArc
 50
30.0
 51
90.0
  0
LINE
  5
59
330
1F
100
AcDbEntity
  8
0
  6
Continuous
 62
     7
370
    15
100
AcDbLine
 10
200.3595717338
 20
95.9854457227
 30
0.0
 11
207.5604515454
 21
95.9854457227
 31
0.0
  0
LINE
  5
5A
330
1F
100
AcDbEntity
  8
0
  6
Continuous
 62
     7
370
    15
100
AcDbLine
 10
201.2571685854
 20
140.2036702801
 30
0.0
 11
200.4594721563
 21
137.2266266776
 31
0.0
  0
LINE
  5
5B
330
1F
100
AcDbEntity
  8
0
  6
Continuous
 62
     7
370
    15
100
AcDbLine
 10
214.2929824448
 20
141.5939019316
 30
0.0
 11
201.2606878724
 21
140.2241525768
 31
0.0
  0
ARC
  5
5C
330
1F
100
AcDbEntity
  8
0
  6
Continuous
 62
     7
370
    15
100
AcDbCircle
 10
219.233190143
 20
135.559545119
 30
0.0
 40
2.789036248736252
100
AcDbArc
 50
66.376644174
 51
110.0513763033
  0
LWPOLYLINE
  5
5D
330
1F
100
AcDbEntity
  8
0
  6
Continuous
 62
     7
370
    15
100
AcDbPolyline
 90
        3
 70
   128
 43
0.0
 10
221.970355482
 20
134.8880766758
 10
221.867379578
 20
134.5531362087
 10
221.8573992662
 20
134.5271665275
  0
CIRCLE
  5
5E
330
1F
100
AcDbEntity
  8
0
  6
Continuous
 62
     7
370
    15
100
AcDbCircle
 10
215.8865277706
 20
124.6624164289
 30
0.0
 40
3.47943262664104
  0
CIRCLE
  5
5F
330
1F
100
AcDbEntity
  8
0
  6
Continuous
 62
     7
370
    15
100
AcDbCircle
 10
215.9028390793
 20
124.6615927091
 30
0.0
 40
1.988376604202204
  0
SPLINE
  5
60
330
1F
100
AcDbEntity
  8
0
  6
Continuous
 62
     7
370
    15
100
AcDbSpline
210
0.0
220
0.0
230
1.0
 70
     8
 71
     3
 72
    11
 73
     7
 74
     0
 42
0.00000001
 43
0.00000001
 12
1.0
 22
0.0
 32
0.0
 13
1.0
 23
0.0
 33
0.0
 40
0.0
 40
0.0
 40
0.0
 40
0.0
 40
0.1081100880371207
 40
0.4711580666043576
 40
0.813580843083598
 40
1.0
 40
1.0
 40
1.0
 40
1.0
 10
214.8840461440742
 20
123.2504890656995
 30
0.0
 10
214.9390344510903
 20
123.240858398725
 30
0.0
 10
215.1786807680066
 20
123.1988866779149
 30
0.0
 10
215.6458400834784
 20
123.129846589484
 30
0.0
 10
216.1926870465587
 20
123.0775635128203
 30
0.0
 10
216.4917508756781
 20
123.0583751740729
 30
0.0
 10
216.5971722187449
 20
123.0516111984763
 30
0.0
  0
SPLINE
  5
61
330
1F
100
AcDbEntity
  8
0
  6
Continuous
 62
     7
370
    15
100
AcDbSpline
210
0.0
220
0.0
230
1.0
 70
     8
 71
     3
 72
    11
 73
     7
 74
     0
 42
0.00000001
 43
0.00000001
 12
1.0
 22
0.0
 32
0.0
 13
1.0
 23
0.0
 33
0.0
 40
0.0
 40
0.0
 40
0.0
 40
0.0
 40
0.2164499953511894
 40
0.4402998152333205
 40
0.7518914760010328
 40
1.0
 40
1.0
 40
1.0
 40
1.0
 10
216.5971722187449
 20
123.0516111984763
 30
0.0
 10
216.660848670198
 20
123.1406608592591
 30
0.0
 10
216.7903784942299
 20
123.3218045415476
 30
0.0
 10
217.0425622880003
 20
123.6697062875169
 30
0.0
 10
217.3292149109934
 20
124.0589476918355
 30
0.0
 10
217.5235309876504
 20
124.318855663313
 30
0.0
 10
217.6096690241936
 20
124.4340698171296
 30
0.0
  0
SPLINE
  5
62
330
1F
100
AcDbEntity
  8
0
  6
Continuous
 62
     7
370
    15
100
AcDbSpline
210
0.0
220
0.0
230
1.0
 70
     8
 71
     3
 72
    11
 73
     7
 74
     0
 42
0.00000001
 43
0.00000001
 12
1.0
 22
0.0
 32
0.0
 13
1.0
 23
0.0
 33
0.0
 40
0.0
 40
0.0
 40
0.0
 40
0.0
 40
0.2164499953511764
 40
0.4402998152332909
 40
0.7518914760010267
 40
1.0
 40
1.0
 40
1.0
 40
1.0
 10
217.6096690241936
 20
124.4340698171296
 30
0.0
 10
217.5559976543751
 20
124.5367424591762
 30
0.0
 10
217.4468200395821
 20
124.7455978359078
 30
0.0
 10
217.2560214786104
 20
125.1449256778493
 30
0.0
 10
217.0674845409773
 20
125.5893321326224
 30
0.0
 10
216.9577041250936
 20
125.8845428542949
 30
0.0
 10
216.9090397549715
 20
126.015406303006
 30
0.0
  0
SPLINE
  5
63
330
1F
100
AcDbEntity
  8
0
  6
Continuous
 62
     7
370
    15
100
AcDbSpline
210
0.0
220
0.0
230
1.0
 70
     8
 71
     3
 72
    11
 73
     7
 74
     0
 42
0.00000001
 43
0.00000001
 12
1.0
 22
0.0
 32
0.0
 13
1.0
 23
0.0
 33
0.0
 40
0.0
 40
0.0
 40
0.0
 40
0.0
 40
0.1864191569163789
 40
0.5288419333956547
 40
0.8918899119628756
 40
1.0
 40
1.0
 40
1.0
 40
1.0
 10
216.9090397549715
 20
126.015406303006
 30
0.0
 10
216.8036184119047
 20
126.0221702786026
 30
0.0
 10
216.5045545827854
 20
126.0413586173499
 30
0.0
 10
215.9577076197051
 20
126.0936416940138
 30
0.0
 10
215.4905483042332
 20
126.1626817824446
 30
0.0
 10
215.250901987317
 20
126.2046535032546
 30
0.0
 10
215.1959136803008
 20
126.2142841702292
 30
0.0
  0
SPLINE
  5
64
330
1F
100
AcDbEntity
  8
0
  6
Continuous
 62
     7
370
    15
100
AcDbSpline
210
0.0
220
0.0
230
1.0
 70
     8
 71
     3
 72
    11
 73
     7
 74
     0
 42
0.00000001
 43
0.00000001
 12
1.0
 22
0.0
 32
0.0
 13
1.0
 23
0.0
 33
0.0
 40
0.0
 40
0.0
 40
0.0
 40
0.0
 40
0.2164499953511909
 40
0.4402998152333303
 40
0.7518914760010587
 40
1.0
 40
1.0
 40
1.0
 40
1.0
 10
215.1959136803008
 20
126.2142841702292
 30
0.0
 10
215.1208796236126
 20
126.1139391223612
 30
0.0
 10
214.9682463041136
 20
125.9098185079711
 30
0.0
 10
214.6968046325104
 20
125.5427643808388
 30
0.0
 10
214.421761395251
 20
125.1650687648241
 30
0.0
 10
214.2566214671247
 20
124.9341771118828
 30
0.0
 10
214.1834168748521
 20
124.831825551576
 30
0.0
  0
SPLINE
  5
65
330
1F
100
AcDbEntity
  8
0
  6
Continuous
 62
     7
370
    15
100
AcDbSpline
210
0.0
220
0.0
230
1.0
 70
     8
 71
     3
 72
    11
 73
     7
 74
     0
 42
0.00000001
 43
0.00000001
 12
1.0
 22
0.0
 32
0.0
 13
1.0
 23
0.0
 33
0.0
 40
0.0
 40
0.0
 40
0.0
 40
0.0
 40
0.2164499953512029
 40
0.4402998152333414
 40
0.751891476001082
 40
1.0
 40
1.0
 40
1.0
 40
1.0
 10
214.1834168748521
 20
124.831825551576
 30
0.0
 10
214.2257306394356
 20
124.7178575224442
 30
0.0
 10
214.3118047587613
 20
124.4860252136109
 30
0.0
 10
214.4833454419003
 20
124.0675449905063
 30
0.0
 10
214.6834917652669
 20
123.6346843240371
 30
0.0
 10
214.8224483296814
 20
123.368489920901
 30
0.0
 10
214.8840461440742
 20
123.2504890656995
 30
0.0
  0
LINE
  5
66
330
1F
100
AcDbEntity
  8
0
  6
Continuous
 62
     7
370
    15
100
AcDbLine
 10
216.496246198
 20
123.0584871207
 30
0.0
 11
216.7133150857
 21
123.354872011
 31
0.0
  0
LINE
  5
67
330
1F
100
AcDbEntity
  8
0
  6
Continuous
 62
     7
370
    15
100
AcDbLine
 10
216.7133150857
 20
123.354872011
 30
0.0
 11
217.2195634884
 21
124.0461013203
 31
0.0
  0
LINE
  5
68
330
1F
100
AcDbEntity
  8
0
  6
Continuous
 62
     7
370
    15
100
AcDbLine
 10
217.2195634884
 20
124.0461013203
 30
0.0
 11
217.6096690242
 21
124.4340698171
 31
0.0
  0
LINE
  5
69
330
1F
100
AcDbEntity
  8
0
  6
Continuous
 62
     7
370
    15
100
AcDbLine
 10
217.2195634884
 20
124.0461013203
 30
0.0
 11
216.8692488538
 21
124.8367695633
 31
0.0
  0
LINE
  5
6A
330
1F
100
AcDbEntity
  8
0
  6
Continuous
 62
     7
370
    15
100
AcDbLine
 10
216.8692488538
 20
124.8367695633
 30
0.0
 11
216.5189342192
 21
125.6274378062
 31
0.0
  0
LINE
  5
6B
330
1F
100
AcDbEntity
  8
0
  6
Continuous
 62
     7
370
    15
100
AcDbLine
 10
216.5189342192
 20
125.6274378062
 30
0.0
 11
216.909039755
 21
126.015406303
 31
0.0
  0
LINE
  5
6C
330
1F
100
AcDbEntity
  8
0
  6
Continuous
 62
     7
370
    15
100
AcDbLine
 10
216.5189342192
 20
125.6274378062
 30
0.0
 11
215.6623711819
 21
125.7268767398
 31
0.0
  0
LINE
  5
6D
330
1F
100
AcDbEntity
  8
0
  6
Continuous
 62
     7
370
    15
100
AcDbLine
 10
215.6623711819
 20
125.7268767398
 30
0.0
 11
214.8989550393
 21
125.8155021927
 31
0.0
  0
ARC
  5
6E
330
1F
100
AcDbEntity
  8
0
  6
Continuous
 62
     7
370
    15
100
AcDbCircle
 10
215.5112371381
 20
124.2305144531
 30
0.0
 40
1.487192347545737
100
AcDbArc
 50
323.9288835421
 51
24.0573452248
  0
ARC
  5
6F
330
1F
100
AcDbEntity
  8
0
  6
Continuous
 62
     7
370
    15
100
AcDbCircle
 10
215.5292714737
 20
124.2220208568
 30
0.0
 40
1.467619295340327
100
AcDbArc
 50
306.8407417276
 51
323.7823603725
  0
ARC
  5
70
330
1F
100
AcDbEntity
  8
0
  6
Continuous
 62
     7
370
    15
100
AcDbCircle
 10
215.4895853744
 20
124.2573654556
 30
0.0
 40
1.479634532477573
100
AcDbArc
 50
83.2939271646
 51
127.9145172634
  0
ARC
  5
71
330
1F
100
AcDbEntity
  8
0
  6
Continuous
 62
     7
370
    15
100
AcDbCircle
 10
215.4858026784
 20
124.224227542
 30
0.0
 40
1.512987458046364
100
AcDbArc
 50
23.882102474
 51
83.2982025035
  0
LINE
  5
72
330
1F
100
AcDbEntity
  8
0
  6
Continuous
 62
     7
370
    15
100
AcDbLine
 10
217.7989917885
 20
136.9183419302
 30
0.0
 11
218.1089255014
 21
137.1155731231
 31
0.0
  0
LINE
  5
73
330
1F
100
AcDbEntity
  8
0
  6
Continuous
 62
     7
370
    15
100
AcDbLine
 10
218.1089255014
 20
137.1155731231
 30
0.0
 11
217.8142515903
 21
136.309200607
 31
0.0
  0
ELLIPSE
  5
74
330
1F
100
AcDbEntity
  8
0
  6
Continuous
 62
     7
370
    15
100
AcDbEllipse
 10
220.0042572696
 20
135.9049990293
 30
0.0
 11
-1.502644295739799
 21
1.67549547682404
 31
0.0
210
0.0
220
0.0
230
1.0
 40
0.9898983231
 41
3.837979583766146
 42
6.557150476637597
  0
ELLIPSE
  5
75
330
1F
100
AcDbEntity
  8
0
  6
Continuous
 62
     7
370
    15
100
AcDbEllipse
 10
220.0042572696
 20
135.9049990293
 30
0.0
 11
-1.502644295739799
 21
1.67549547682404
 31
0.0
210
0.0
220
0.0
230
1.0
 40
0.9898983231
 41
3.295690576881177
 42
3.415557823047822
  0
LINE
  5
76
330
1F
100
AcDbEntity
  8
0
  6
Continuous
 62
     7
370
    15
100
AcDbLine
 10
221.8995890377
 20
134.6944249355
 30
0.0
 11
222.2209230011
 21
135.5737524455
 31
0.0
  0
ARC
  5
77
330
1F
100
AcDbEntity
  8
0
  6
Continuous
 62
     7
370
    15
100
AcDbCircle
 10
218.999730115
 20
135.335546884
 30
0.0
 40
2.882661791247471
100
AcDbArc
 50
75.7125206712
 51
105.4803581106
  0
LINE
  5
78
330
1F
100
AcDbEntity
  8
0
  6
Continuous
 62
     7
370
    15
100
AcDbLine
 10
221.8223542305
 20
134.5801453938
 30
0.0
 11
221.8054985697
 21
134.518120154
 31
0.0
  0
LINE
  5
79
330
1F
100
AcDbEntity
  8
0
  6
Continuous
 62
     7
370
    15
100
AcDbLine
 10
213.8787002408
 20
129.8149335598
 30
0.0
 11
225.8503520598
 21
130.7307922113
 31
0.0
  0
ARC
  5
7A
330
1F
100
AcDbEntity
  8
0
  6
Continuous
 62
     7
370
    15
100
AcDbCircle
 10
213.84895562
 20
130.2165041935
 30
0.0
 40
0.402670729364232
100
AcDbArc
 50
175.1377687674
 51
274.2362029422
  0
LINE
  5
7B
330
1F
100
AcDbEntity
  8
0
  6
Continuous
 62
     7
370
    15
100
AcDbLine
 10
214.4951177651
 20
142.2107794726
 30
0.0
 11
213.4477339473
 21
130.2506346146
 31
0.0
  0
ARC
  5
7C
330
1F
100
AcDbEntity
  8
0
  6
Continuous
 62
     7
370
    15
100
AcDbCircle
 10
214.8861246622
 20
142.1770748289
 30
0.0
 40
0.3924568722548412
100
AcDbArc
 50
94.2937518475
 51
175.073304225
  0
LINE
  5
7D
330
1F
100
AcDbEntity
  8
0
  6
Continuous
 62
     7
370
    15
100
AcDbLine
 10
226.8283932421
 20
143.4842888456
 30
0.0
 11
214.8567414231
 21
142.568430194
 31
0.0
  0
ARC
  5
7E
330
1F
100
AcDbEntity
  8
0
  6
Continuous
 62
     7
370
    15
100
AcDbCircle
 10
226.8581378629
 20
143.0827182119
 30
0.0
 40
0.4026707293642627
100
AcDbArc
 50
355.1377687674
 51
94.2362029422
  0
LINE
  5
7F
330
1F
100
AcDbEntity
  8
0
  6
Continuous
 62
     7
370
    15
100
AcDbLine
 10
226.2119757177
 20
131.0884429328
 30
0.0
 11
227.2593595356
 21
143.0485877908
 31
0.0
  0
ARC
  5
80
330
1F
100
AcDbEntity
  8
0
  6
Continuous
 62
     7
370
    15
100
AcDbCircle
 10
225.8209688206
 20
131.1221475765
 30
0.0
 40
0.3924568722549027
100
AcDbArc
 50
274.2937518475
 51
355.073304225
  0
ARC
  5
81
330
1F
100
AcDbEntity
  8
0
  6
Continuous
 62
     7
370
    15
100
AcDbCircle
 10
226.8583841977
 20
143.0829629492
 30
0.0
 40
0.3825371928960304
100
AcDbArc
 50
355.1377687674
 51
94.2362029422
  0
LINE
  5
82
330
1F
100
AcDbEntity
  8
0
  6
Continuous
 62
     7
370
    15
100
AcDbLine
 10
226.830126808
 20
143.4644550512
 30
0.0
 11
214.858474989
 21
142.5485963993
 31
0.0
  0
ARC
  5
83
330
1F
100
AcDbEntity
  8
0
  6
Continuous
 62
     7
370
    15
100
AcDbCircle
 10
214.8863890665
 20
142.1768088021
 30
0.0
 40
0.3728340290430402
100
AcDbArc
 50
94.2937518945
 51
175.0733041242
  0
LINE
  5
84
330
1F
100
AcDbEntity
  8
0
  6
Continuous
 62
     7
370
    15
100
AcDbLine
 10
214.5149325139
 20
142.2088282142
 30
0.0
 11
213.4675486961
 21
130.2486833563
 31
0.0
  0
ARC
  5
85
330
1F
100
AcDbEntity
  8
0
  6
Continuous
 62
     7
370
    15
100
AcDbCircle
 10
213.8487092852
 20
130.2162594562
 30
0.0
 40
0.3825371928961154
100
AcDbArc
 50
175.1377687674
 51
274.2362029422
  0
LINE
  5
86
330
1F
100
AcDbEntity
  8
0
  6
Continuous
 62
     7
370
    15
100
AcDbLine
 10
213.8769666749
 20
129.8347673542
 30
0.0
 11
225.8486184939
 21
130.7506260057
 31
0.0
  0
ARC
  5
87
330
1F
100
AcDbEntity
  8
0
  6
Continuous
 62
     7
370
    15
100
AcDbCircle
 10
225.8207044167
 20
131.1224136026
 30
0.0
 40
0.3728340286420577
100
AcDbArc
 50
274.2937518474
 51
355.073304225
  0
LINE
  5
88
330
1F
100
AcDbEntity
  8
0
  6
Continuous
 62
     7
370
    15
100
AcDbLine
 10
226.192160969
 20
131.0903941912
 30
0.0
 11
227.2395447868
 21
143.0505390491
 31
0.0
  0
LINE
  5
89
330
1F
100
AcDbEntity
  8
0
  6
Continuous
 62
     7
370
    15
100
AcDbLine
 10
212.9501784622
 20
129.7558047905
 30
0.0
 11
212.9487122208
 21
129.7149996026
 31
0.0
  0
LINE
  5
8A
330
1F
100
AcDbEntity
  8
0
  6
Continuous
 62
     7
370
    15
100
AcDbLine
 10
213.8210960992
 20
130.1888022525
 30
0.0
 11
213.8769666749
 21
129.8347673542
 31
0.0
  0
LINE
  5
8B
330
1F
100
AcDbEntity
  8
0
  6
Continuous
 62
     7
370
    15
100
AcDbLine
 10
213.8210960992
 20
130.1888022525
 30
0.0
 11
213.4675486961
 21
130.2486833563
 31
0.0
  0
LINE
  5
8C
330
1F
100
AcDbEntity
  8
0
  6
Continuous
 62
     7
370
    15
100
AcDbLine
 10
225.7927479182
 20
131.104660904
 30
0.0
 11
225.8486184939
 21
130.7506260057
 31
0.0
  0
LINE
  5
8D
330
1F
100
AcDbEntity
  8
0
  6
Continuous
 62
     7
370
    15
100
AcDbLine
 10
214.6846456317
 20
131.0425867903
 30
0.0
 11
213.8210960992
 21
130.1888022525
 31
0.0
  0
LINE
  5
8E
330
1F
100
AcDbEntity
  8
0
  6
Continuous
 62
     7
370
    15
100
AcDbLine
 10
225.1846883852
 20
131.6441782857
 30
0.0
 11
225.7927479182
 21
131.104660904
 31
0.0
  0
LINE
  5
8F
330
1F
100
AcDbEntity
  8
0
  6
Continuous
 62
     7
370
    15
100
AcDbLine
 10
225.1077712984
 20
130.217217395
 30
0.0
 11
225.3527965746
 21
130.2359623872
 31
0.0
  0
LINE
  5
90
330
1F
100
AcDbEntity
  8
0
  6
Continuous
 62
     7
370
    15
100
AcDbLine
 10
213.99756228
 20
141.7159496484
 30
0.0
 11
213.9840305365
 21
141.5614297775
 31
0.0
  0
LINE
  5
91
330
1F
100
AcDbEntity
  8
0
  6
Continuous
 62
     7
370
    15
100
AcDbLine
 10
213.3225313949
 20
134.0077274749
 30
0.0
 11
212.9501784622
 21
129.7558047905
 31
0.0
  0
LINE
  5
92
330
1F
100
AcDbEntity
  8
0
  6
Continuous
 62
     7
370
    15
100
AcDbLine
 10
214.868479917
 20
142.1489471105
 30
0.0
 11
214.5149325139
 21
142.2088282142
 31
0.0
  0
LINE
  5
93
330
1F
100
AcDbEntity
  8
0
  6
Continuous
 62
     7
370
    15
100
AcDbLine
 10
215.4015235274
 20
141.5348247513
 30
0.0
 11
214.868479917
 21
142.1489471105
 31
0.0
  0
ARC
  5
94
330
1F
100
AcDbEntity
  8
0
  6
Continuous
 62
     7
370
    15
100
AcDbCircle
 10
216.7227215788
 20
133.0587311181
 30
0.0
 40
1.00667682341064
100
AcDbArc
 50
175.1377687674
 51
274.2362029422
  0
SPLINE
  5
95
330
1F
100
AcDbEntity
  8
0
  6
Continuous
 62
     7
370
    15
100
AcDbSpline
210
0.0
220
0.0
230
1.0
 70
     8
 71
     3
 72
    11
 73
     7
 74
     0
 42
0.00000001
 43
0.00000001
 12
1.0
 22
0.0
 32
0.0
 13
1.0
 23
0.0
 33
0.0
 40
0.0
 40
0.0
 40
0.0
 40
0.0
 40
0.3367831131412834
 40
0.6790111347687411
 40
0.9923717339918542
 40
1.0
 40
1.0
 40
1.0
 40
1.0
 10
214.6846456316806
 20
131.0425867902778
 30
0.0
 10
214.7377101442384
 20
131.0950566307459
 30
0.0
 10
214.8446970847406
 20
131.2008446127653
 30
0.0
 10
215.0170255171059
 20
131.3713007588181
 30
0.0
 10
215.1268942521056
 20
131.4799975918855
 30
0.0
 10
215.177567477995
 20
131.5301360738731
 30
0.0
 10
215.1787717217817
 20
131.5313276095283
 30
0.0
  0
LINE
  5
96
330
1F
100
AcDbEntity
  8
0
  6
Continuous
 62
     7
370
    15
100
AcDbLine
 10
216.7970831308
 20
132.0548045339
 30
0.0
 11
223.4971840648
 21
132.5673775271
 31
0.0
  0
LINE
  5
97
330
1F
100
AcDbEntity
  8
0
  6
Continuous
 62
     7
370
    15
100
AcDbLine
 10
216.3058502733
 20
139.8377180746
 30
0.0
 11
215.7196673971
 21
133.1440571709
 31
0.0
  0
ARC
  5
98
330
1F
100
AcDbEntity
  8
0
  6
Continuous
 62
     7
370
    15
100
AcDbCircle
 10
217.283367516
 20
139.7534564654
 30
0.0
 40
0.9811421806371523
100
AcDbArc
 50
94.2937518475
 51
175.073304225
  0
LINE
  5
99
330
1F
100
AcDbEntity
  8
0
  6
Continuous
 62
     7
370
    15
100
AcDbLine
 10
223.9100103521
 20
141.2444178715
 30
0.0
 11
217.2099094181
 21
140.7318448783
 31
0.0
  0
ARC
  5
9A
330
1F
100
AcDbEntity
  8
0
  6
Continuous
 62
     7
370
    15
100
AcDbCircle
 10
223.9843719046
 20
140.2404912876
 30
0.0
 40
1.006676823230229
100
AcDbArc
 50
355.1377687515
 51
94.2362029702
  0
LINE
  5
9B
330
1F
100
AcDbEntity
  8
0
  6
Continuous
 62
     7
370
    15
100
AcDbLine
 10
224.4012432096
 20
133.4615043308
 30
0.0
 11
224.9874260861
 21
140.1551652345
 31
0.0
  0
ARC
  5
9C
330
1F
100
AcDbEntity
  8
0
  6
Continuous
 62
     7
370
    15
100
AcDbCircle
 10
223.4237259669
 20
133.54576594
 30
0.0
 40
0.9811421806372321
100
AcDbArc
 50
274.2937518475
 51
355.073304225
  0
CIRCLE
  5
9D
330
1F
100
AcDbEntity
  8
0
  6
Continuous
 62
     7
370
    15
100
AcDbCircle
 10
220.3560370659
 20
136.6225425522
 30
0.0
 40
2.563474283191757
  0
ARC
  5
9E
330
1F
100
AcDbEntity
  8
0
  6
Continuous
 62
     7
370
    15
100
AcDbCircle
 10
219.8356714938
 20
136.1309058663
 30
0.0
 40
2.586476709594284
100
AcDbArc
 50
354.9463959865
 51
126.3470978076
  0
ARC
  5
9F
330
1F
100
AcDbEntity
  8
0
  6
Continuous
 62
     7
370
    15
100
AcDbCircle
 10
219.8833954892
 20
136.1226603007
 30
0.0
 40
2.538215064579672
100
AcDbArc
 50
322.861575208
 51
355.0369060972
  0
LINE
  5
A0
330
1F
100
AcDbEntity
  8
0
  6
Continuous
 62
     7
370
    15
100
AcDbLine
 10
226.840131736
 20
143.064805762
 30
0.0
 11
227.2395447868
 21
143.0505390491
 31
0.0
  0
LINE
  5
A1
330
1F
100
AcDbEntity
  8
0
  6
Continuous
 62
     7
370
    15
100
AcDbLine
 10
225.7927479182
 20
131.104660904
 30
0.0
 11
226.192160969
 21
131.0903941912
 31
0.0
  0
LINE
  5
A2
330
1F
100
AcDbEntity
  8
0
  6
Continuous
 62
     7
370
    15
100
AcDbLine
 10
225.8757493396
 20
142.1107407333
 30
0.0
 11
226.840131736
 21
143.064805762
 31
0.0
  0
LINE
  5
A3
330
1F
100
AcDbEntity
  8
0
  6
Continuous
 62
     7
370
    15
100
AcDbLine
 10
214.868479917
 20
142.1489471105
 30
0.0
 11
214.858474989
 21
142.5485963993
 31
0.0
  0
LINE
  5
A4
330
1F
100
AcDbEntity
  8
0
  6
Continuous
 62
     7
370
    15
100
AcDbLine
 10
226.840131736
 20
143.064805762
 30
0.0
 11
226.830126808
 21
143.4644550512
 31
0.0
  0
SPLINE
  5
A5
330
1F
100
AcDbEntity
  8
0
  6
Continuous
 62
     7
370
    15
100
AcDbSpline
210
0.0
220
0.0
230
1.0
 70
     8
 71
     3
 72
    11
 73
     7
 74
     0
 42
0.00000001
 43
0.00000001
 12
1.0
 22
0.0
 32
0.0
 13
1.0
 23
0.0
 33
0.0
 40
0.0
 40
0.0
 40
0.0
 40
0.0
 40
0.0081164391031442
 40
0.3263678516910953
 40
0.6627685813469929
 40
0.9999999999999999
 40
0.9999999999999999
 40
0.9999999999999999
 40
0.9999999999999999
 10
224.7019444732523
 20
132.1427026983353
 30
0.0
 10
224.7030293014764
 20
132.1414028723532
 30
0.0
 10
224.7466510243071
 20
132.0891359350975
 30
0.0
 10
224.8453845682444
 20
131.9769491410104
 30
0.0
 10
225.0131476111517
 20
131.8018280552308
 30
0.0
 10
225.1274611386198
 20
131.6967713923831
 30
0.0
 10
225.1846883851757
 20
131.6441782856853
 30
0.0
  0
SPLINE
  5
A6
330
1F
100
AcDbEntity
  8
0
  6
Continuous
 62
     7
370
    15
100
AcDbSpline
210
0.0
220
0.0
230
1.0
 70
     8
 71
     3
 72
    11
 73
     7
 74
     0
 42
0.00000001
 43
0.00000001
 12
1.0
 22
0.0
 32
0.0
 13
1.0
 23
0.0
 33
0.0
 40
0.0
 40
0.0
 40
0.0
 40
0.0
 40
0.3372314186521256
 40
0.6736321483071497
 40
0.9918835608968732
 40
1.0
 40
1.0
 40
1.0
 40
1.0
 10
215.4015235273789
 20
141.5348247512554
 30
0.0
 10
215.453502368402
 20
141.4770119903395
 30
0.0
 10
215.5573320129969
 20
141.3615288764262
 30
0.0
 10
215.7305948423533
 20
141.1918774486892
 30
0.0
 10
215.8416629407065
 20
141.0919576390378
 30
0.0
 10
215.8934282045066
 20
141.0477896315811
 30
0.0
 10
215.8947155543761
 20
141.0466912178097
 30
0.0
  0
ARC
  5
A7
330
1F
100
AcDbEntity
  8
0
  6
Continuous
 62
     7
370
    15
100
AcDbCircle
 10
225.3233062545
 20
130.6276967561
 30
0.0
 40
0.3928428372090486
100
AcDbArc
 50
274.3051870643
 51
314.815068431
  0
ARC
  5
A8
330
1F
100
AcDbEntity
  8
0
  6
Continuous
 62
     7
370
    15
100
AcDbCircle
 10
214.3891457112
 20
141.6820426298
 30
0.0
 40
0.393048685906821
100
AcDbArc
 50
134.8817616345
 51
175.0511301793
  0
SPLINE
  5
A9
330
1F
100
AcDbEntity
  8
0
  6
Continuous
 62
     7
370
    15
100
AcDbSpline
210
0.0
220
0.0
230
1.0
 70
     8
 71
     3
 72
    11
 73
     7
 74
     0
 42
0.00000001
 43
0.00000001
 12
1.0
 22
0.0
 32
0.0
 13
1.0
 23
0.0
 33
0.0
 40
0.0
 40
0.0
 40
0.0
 40
0.0
 40
0.0076282660081476
 40
0.3209888652310273
 40
0.663216886858566
 40
1.0
 40
1.0
 40
1.0
 40
1.0
 10
225.3973770673602
 20
141.6376674308407
 30
0.0
 10
225.3983917226057
 20
141.6386704165405
 30
0.0
 10
225.441087275632
 20
141.6808749281914
 30
0.0
 10
225.5381904270403
 20
141.7768761088704
 30
0.0
 10
225.7029012165953
 20
141.9397563423571
 30
0.0
 10
225.8184421348213
 20
142.0540514425156
 30
0.0
 10
225.8757493395826
 20
142.1107407332755
 30
0.0
  0
ELLIPSE
  5
AA
330
1F
100
AcDbEntity
  8
0
  6
Continuous
 62
     7
370
    15
100
AcDbEllipse
 10
197.7839938184
 20
125.4446514461
 30
0.0
 11
0.1255419163368003
 21
2.525982492880146
 31
0.0
210
0.0
220
0.0
230
1.0
 40
0.2396689235
 41
0.0
 42
6.283185307179586
  0
ELLIPSE
  5
AB
330
1F
100
AcDbEntity
  8
0
  6
Continuous
 62
     7
370
    15
100
AcDbEllipse
 10
200.724823005
 20
116.4854457227
 30
0.0
 11
-0.6029274463962792
 21
19.99935571561064
 31
0.0
210
0.0
220
0.0
230
1.0
 40
0.266256518
 41
0.1916644071333198
 42
2.724435227584104
  0
SPLINE
  5
AC
330
1F
100
AcDbEntity
  8
0
  6
Continuous
 62
     7
370
    15
100
AcDbSpline
210
0.0
220
0.0
230
1.0
 70
     8
 71
     3
 72
    12
 73
     8
 74
     0
 42
0.00000001
 43
0.00000001
 12
1.0
 22
0.0
 32
0.0
 13
1.0
 23
0.0
 33
0.0
 40
0.0
 40
0.0
 40
0.0
 40
0.0
 40
0.5000000000000006
 40
0.5000000000000006
 40
0.7500000000000002
 40
0.7500000000000002
 40
1.0
 40
1.0
 40
1.0
 40
1.0
 10
183.9329676988562
 20
122.6236908497803
 30
0.0
 10
183.9516609319867
 20
122.55610821334
 30
0.0
 10
183.9773162293984
 20
122.4896256438626
 30
0.0
 10
184.0374768520849
 20
122.400630560965
 30
0.0
 10
184.0615491638392
 20
122.3726286639659
 30
0.0
 10
184.1199306841898
 20
122.3295522633007
 30
0.0
 10
184.1553995118428
 20
122.3146587183729
 30
0.0
 10
184.1927753199916
 20
122.3146587183729
 30
0.0
  0
LINE
  5
AD
330
1F
100
AcDbEntity
  8
0
  6
Continuous
 62
     7
370
    15
100
AcDbLine
 10
184.19277532
 20
122.3146587184
 30
0.0
 11
186.328971316
 21
122.3146587184
 31
0.0
  0
SPLINE
  5
AE
330
1F
100
AcDbEntity
  8
0
  6
Continuous
 62
     7
370
    15
100
AcDbSpline
210
0.0
220
0.0
230
1.0
 70
     8
 71
     3
 72
    12
 73
     8
 74
     0
 42
0.00000001
 43
0.00000001
 12
1.0
 22
0.0
 32
0.0
 13
1.0
 23
0.0
 33
0.0
 40
0.0
 40
0.0
 40
0.0
 40
0.0
 40
0.2499999999999984
 40
0.2499999999999984
 40
0.4999999999999968
 40
0.4999999999999968
 40
1.0
 40
1.0
 40
1.0
 40
1.0
 10
186.3289713159932
 20
122.3146587183729
 30
0.0
 10
186.3664832020379
 20
122.3146587183729
 30
0.0
 10
186.4017705497426
 20
122.3294635326597
 30
0.0
 10
186.460700397981
 20
122.3730554057856
 30
0.0
 10
186.4842261244501
 20
122.4005688318716
 30
0.0
 10
186.5444849122181
 20
122.4897005639852
 30
0.0
 10
186.5700796745075
 20
122.556086414603
 30
0.0
 10
186.5887789371285
 20
122.6236908497803
 30
0.0
  0
ELLIPSE
  5
AF
330
1F
100
AcDbEntity
  8
0
  6
Continuous
 62
     7
370
    15
100
AcDbEllipse
 10
176.3119441456
 20
116.4854457227
 30
0.0
 11
9.367417879781698
 21
19.74174915274992
 31
0.0
210
0.0
220
0.0
230
1.0
 40
0.3419987131
 41
5.185211263708393
 42
6.132113578252552
  0
SPLINE
  5
B0
330
1F
100
AcDbEntity
  8
0
  6
Continuous
 62
     7
370
    15
100
AcDbSpline
210
0.0
220
0.0
230
1.0
 70
     8
 71
     3
 72
    12
 73
     8
 74
     0
 42
0.00000001
 43
0.00000001
 12
1.0
 22
0.0
 32
0.0
 13
1.0
 23
0.0
 33
0.0
 40
0.0
 40
0.0
 40
0.0
 40
0.0
 40
0.5000000000000084
 40
0.5000000000000084
 40
0.7500000000000042
 40
0.7500000000000042
 40
1.0
 40
1.0
 40
1.0
 40
1.0
 10
186.5887789371285
 20
135.5202020059033
 30
0.0
 10
186.5700857039981
 20
135.5419957595313
 30
0.0
 10
186.5444304065863
 20
135.5630159212409
 30
0.0
 10
186.4842697838998
 20
135.5907212672046
 30
0.0
 10
186.4601974721455
 20
135.599356483398
 30
0.0
 10
186.401815951795
 20
135.6125711286246
 30
0.0
 10
186.3663471241419
 20
135.6171021029547
 30
0.0
 10
186.3289713159932
 20
135.6171021029547
 30
0.0
  0
LINE
  5
B1
330
1F
100
AcDbEntity
  8
0
  6
Continuous
 62
     7
370
    15
100
AcDbLine
 10
186.328971316
 20
135.617102103
 30
0.0
 11
184.19277532
 21
135.617102103
 31
0.0
  0
SPLINE
  5
B2
330
1F
100
AcDbEntity
  8
0
  6
Continuous
 62
     7
370
    15
100
AcDbSpline
210
0.0
220
0.0
230
1.0
 70
     8
 71
     3
 72
    12
 73
     8
 74
     0
 42
0.00000001
 43
0.00000001
 12
1.0
 22
0.0
 32
0.0
 13
1.0
 23
0.0
 33
0.0
 40
0.0
 40
0.0
 40
0.0
 40
0.0
 40
0.2500000000000023
 40
0.2500000000000023
 40
0.5000000000000046
 40
0.5000000000000046
 40
1.0
 40
1.0
 40
1.0
 40
1.0
 10
184.1927753199916
 20
135.6171021029547
 30
0.0
 10
184.1552634339469
 20
135.6171021029547
 30
0.0
 10
184.1199760862422
 20
135.6125985586922
 30
0.0
 10
184.0610462380038
 20
135.5992253592389
 30
0.0
 10
184.0375205115347
 20
135.5907404566678
 30
0.0
 10
183.9772617237666
 20
135.5629926528332
 30
0.0
 10
183.9516669614773
 20
135.5420027890928
 30
0.0
 10
183.9329676988562
 20
135.5202020059033
 30
0.0
  0
ELLIPSE
  5
B3
330
1F
100
AcDbEntity
  8
0
  6
Continuous
 62
     7
370
    15
100
AcDbEllipse
 10
194.2098024904
 20
116.4854457227
 30
0.0
 11
-9.367417879781556
 21
19.74174915274995
 31
0.0
210
0.0
220
0.0
230
1.0
 40
0.3419987131
 41
0.1510717289270781
 42
1.097974043471208
  0
SPLINE
  5
B4
330
1F
100
AcDbEntity
  8
0
  6
Continuous
 62
     7
370
    15
100
AcDbSpline
210
0.0
220
0.0
230
1.0
 70
     8
 71
     3
 72
    12
 73
     8
 74
     0
 42
0.00000001
 43
0.00000001
 12
1.0
 22
0.0
 32
0.0
 13
1.0
 23
0.0
 33
0.0
 40
0.0
 40
0.0
 40
0.0
 40
0.0
 40
0.5000000000000016
 40
0.5000000000000016
 40
0.7500000000000008
 40
0.7500000000000008
 40
1.0
 40
1.0
 40
1.0
 40
1.0
 10
183.9329676988562
 20
97.45068943953949
 30
0.0
 10
183.9517709317079
 20
97.4287674412784
 30
0.0
 10
183.9773075907271
 20
97.40787363326847
 30
0.0
 10
184.0375337646756
 20
97.38014690715072
 30
0.0
 10
184.0614598420755
 20
97.37157377377525
 30
0.0
 10
184.1195207622569
 20
97.35839466796772
 30
0.0
 10
184.1553224608828
 20
97.35378934248804
 30
0.0
 10
184.1927753199916
 20
97.35378934248803
 30
0.0
  0
LINE
  5
B5
330
1F
100
AcDbEntity
  8
0
  6
Continuous
 62
     7
370
    15
100
AcDbLine
 10
184.19277532
 20
97.3537893425
 30
0.0
 11
186.328971316
 21
97.3537893425
 31
0.0
  0
SPLINE
  5
B6
330
1F
100
AcDbEntity
  8
0
  6
Continuous
 62
     7
370
    15
100
AcDbSpline
210
0.0
220
0.0
230
1.0
 70
     8
 71
     3
 72
    12
 73
     8
 74
     0
 42
0.00000001
 43
0.00000001
 12
1.0
 22
0.0
 32
0.0
 13
1.0
 23
0.0
 33
0.0
 40
0.0
 40
0.0
 40
0.0
 40
0.0
 40
0.2499999999999972
 40
0.2499999999999972
 40
0.4999999999999944
 40
0.4999999999999944
 40
1.0
 40
1.0
 40
1.0
 40
1.0
 10
186.3289713159932
 20
97.35378934248803
 30
0.0
 10
186.366472138871
 20
97.35378934248803
 30
0.0
 10
186.4017505429069
 20
97.3582903103512
 30
0.0
 10
186.4606682629593
 20
97.37165683156852
 30
0.0
 10
186.4841916443577
 20
97.38013809181335
 30
0.0
 10
186.5444472288236
 20
97.40787548749127
 30
0.0
 10
186.5699688812347
 20
97.42875948654432
 30
0.0
 10
186.5887789371285
 20
97.45068943953949
 30
0.0
  0
ELLIPSE
  5
B7
330
1F
100
AcDbEntity
  8
0
  6
Continuous
 62
     7
370
    15
100
AcDbEllipse
 10
176.3119441456
 20
116.4854457227
 30
0.0
 11
-9.367417879781813
 21
19.74174915274992
 31
0.0
210
0.0
220
0.0
230
1.0
 40
0.3419987131
 41
3.29266438251689
 42
4.239566697060996
  0
SPLINE
  5
B8
330
1F
100
AcDbEntity
  8
0
  6
Continuous
 62
     7
370
    15
100
AcDbSpline
210
0.0
220
0.0
230
1.0
 70
     8
 71
     3
 72
    12
 73
     8
 74
     0
 42
0.00000001
 43
0.00000001
 12
1.0
 22
0.0
 32
0.0
 13
1.0
 23
0.0
 33
0.0
 40
0.0
 40
0.0
 40
0.0
 40
0.0
 40
0.5
 40
0.5
 40
0.75
 40
0.75
 40
1.0
 40
1.0
 40
1.0
 40
1.0
 10
186.5887789371285
 20
110.3472005956622
 30
0.0
 10
186.5699757042768
 20
110.4151809199247
 30
0.0
 10
186.5444390452576
 20
110.4812713077215
 30
0.0
 10
186.4842128713092
 20
110.5703359201686
 30
0.0
 10
186.4602867939092
 20
110.5981370071886
 30
0.0
 10
186.4022258737279
 20
110.6410960804134
 30
0.0
 10
186.3664241751019
 20
110.6562327270697
 30
0.0
 10
186.3289713159932
 20
110.6562327270697
 30
0.0
  0
LINE
  5
B9
330
1F
100
AcDbEntity
  8
0
  6
Continuous
 62
     7
370
    15
100
AcDbLine
 10
186.328971316
 20
110.6562327271
 30
0.0
 11
184.19277532
 21
110.6562327271
 31
0.0
  0
SPLINE
  5
BA
330
1F
100
AcDbEntity
  8
0
  6
Continuous
 62
     7
370
    15
100
AcDbSpline
210
0.0
220
0.0
230
1.0
 70
     8
 71
     3
 72
    12
 73
     8
 74
     0
 42
0.00000001
 43
0.00000001
 12
1.0
 22
0.0
 32
0.0
 13
1.0
 23
0.0
 33
0.0
 40
0.0
 40
0.0
 40
0.0
 40
0.0
 40
0.2499999999999992
 40
0.2499999999999992
 40
0.4999999999999984
 40
0.4999999999999984
 40
1.0
 40
1.0
 40
1.0
 40
1.0
 10
184.1927753199916
 20
110.6562327270697
 30
0.0
 10
184.1552744971138
 20
110.6562327270697
 30
0.0
 10
184.1199960930778
 20
110.6414363893166
 30
0.0
 10
184.0610783730255
 20
110.5978661281575
 30
0.0
 10
184.0375549916271
 20
110.5703643296559
 30
0.0
 10
183.9772994071612
 20
110.4812651664129
 30
0.0
 10
183.95177775475
 20
110.4152055876305
 30
0.0
 10
183.9329676988562
 20
110.3472005956623
 30
0.0
  0
ELLIPSE
  5
BB
330
1F
100
AcDbEntity
  8
0
  6
Continuous
 62
     7
370
    15
100
AcDbEllipse
 10
194.2098024904
 20
116.4854457227
 30
0.0
 11
9.367417879781669
 21
19.74174915274995
 31
0.0
210
0.0
220
0.0
230
1.0
 40
0.3419987131
 41
2.043618610118598
 42
2.990520924662729
  0
SPLINE
  5
BC
330
1F
100
AcDbEntity
  8
0
  6
Continuous
 62
     7
370
    15
100
AcDbSpline
210
0.0
220
0.0
230
1.0
 70
     8
 71
     3
 72
    10
 73
     6
 74
     0
 42
0.00000001
 43
0.00000001
 12
1.0
 22
0.0
 32
0.0
 13
1.0
 23
0.0
 33
0.0
 40
0.0
 40
0.0
 40
0.0
 40
0.0
 40
0.5
 40
0.5
 40
1.0
 40
1.0
 40
1.0
 40
1.0
 10
199.1185681968545
 20
136.0880034796887
 30
0.0
 10
199.1455494295921
 20
136.1089406899228
 30
0.0
 10
199.1917390337369
 20
136.1276710923296
 30
0.0
 10
199.3195939393292
 20
136.1598061464641
 30
0.0
 10
199.3998909029927
 20
136.1728551142606
 30
0.0
 10
199.4935463300134
 20
136.1825348131181
 30
0.0
  0
SPLINE
  5
BD
330
1F
100
AcDbEntity
  8
0
  6
Continuous
 62
     7
370
    15
100
AcDbSpline
210
0.0
220
0.0
230
1.0
 70
     8
 71
     3
 72
     8
 73
     4
 74
     0
 42
0.00000001
 43
0.00000001
 12
1.0
 22
0.0
 32
0.0
 13
1.0
 23
0.0
 33
0.0
 40
0.0
 40
0.0
 40
0.0
 40
0.0
 40
1.0
 40
1.0
 40
1.0
 40
1.0
 10
199.4935463300134
 20
97.93975280564194
 30
0.0
 10
199.3063406086296
 20
97.98152884033472
 30
0.0
 10
199.1725037604481
 20
98.05217108206185
 30
0.0
 10
199.1185681968545
 20
98.13610575075917
 30
0.0
  0
LINE
  5
BE
330
1F
100
AcDbEntity
  8
0
  6
Continuous
 62
     7
370
    15
100
AcDbLine
 10
177.260873318
 20
96.7854457227
 30
0.0
 11
177.260873318
 21
136.1854457198
 31
0.0
  0
SPLINE
  5
BF
330
1F
100
AcDbEntity
  8
0
  6
Continuous
 62
     7
370
    15
100
AcDbSpline
210
0.0
220
0.0
230
1.0
 70
     8
 71
     3
 72
    18
 73
    14
 74
     0
 42
0.00000001
 43
0.00000001
 12
1.0
 22
0.0
 32
0.0
 13
1.0
 23
0.0
 33
0.0
 40
0.0
 40
0.0
 40
0.0
 40
0.0
 40
0.2499999999999996
 40
0.2499999999999996
 40
0.4999999999999991
 40
0.4999999999999991
 40
0.6249999999999993
 40
0.6249999999999993
 40
0.7499999999999996
 40
0.7499999999999996
 40
0.8749999999999998
 40
0.8749999999999998
 40
1.0
 40
1.0
 40
1.0
 40
1.0
 10
176.0047890004284
 20
102.6542573400425
 30
0.0
 10
176.0390858198801
 20
102.6533956845607
 30
0.0
 10
176.0768970998573
 20
102.6536472876557
 30
0.0
 10
176.1634694670373
 20
102.6560458002675
 30
0.0
 10
176.2118085971202
 20
102.6582167849994
 30
0.0
 10
176.3010809544427
 20
102.6623116632946
 30
0.0
 10
176.3336224202186
 20
102.6638162812443
 30
0.0
 10
176.4097986200721
 20
102.6667793392124
 30
0.0
 10
176.4530146800666
 20
102.6682666774682
 30
0.0
 10
176.5587039820325
 20
102.6698920887919
 30
0.0
 10
176.6236750407471
 20
102.669849847718
 30
0.0
 10
176.7573354291049
 20
102.6658276743969
 30
0.0
 10
176.8166418824412
 20
102.6622864475734
 30
0.0
 10
176.8658964291171
 20
102.6587197401373
 30
0.0
  0
SPLINE
  5
C0
330
1F
100
AcDbEntity
  8
0
  6
Continuous
 62
     7
370
    15
100
AcDbSpline
210
0.0
220
0.0
230
1.0
 70
     8
 71
     3
 72
    14
 73
    10
 74
     0
 42
0.00000001
 43
0.00000001
 12
1.0
 22
0.0
 32
0.0
 13
1.0
 23
0.0
 33
0.0
 40
0.0
 40
0.0
 40
0.0
 40
0.0
 40
0.1249999999999974
 40
0.1249999999999974
 40
0.2499999999999947
 40
0.2499999999999947
 40
0.4999999999999964
 40
0.4999999999999964
 40
1.0
 40
1.0
 40
1.0
 40
1.0
 10
176.8658964290863
 20
102.6587197401563
 30
0.0
 10
176.8774232068037
 20
102.6578850427223
 30
0.0
 10
176.8907760144561
 20
102.6561446284421
 30
0.0
 10
176.9209185870563
 20
102.6488970384418
 30
0.0
 10
176.9359791126708
 20
102.6435500042139
 30
0.0
 10
176.971325466599
 20
102.6278027339854
 30
0.0
 10
176.985057566328
 20
102.6179644598242
 30
0.0
 10
177.0184288120191
 20
102.5917604738737
 30
0.0
 10
177.0293691798731
 20
102.5776725724731
 30
0.0
 10
177.0380223048864
 20
102.5648989489848
 30
0.0
  0
LINE
  5
C1
330
1F
100
AcDbEntity
  8
0
  6
Continuous
 62
     7
370
    15
100
AcDbLine
 10
177.060873318
 20
110.9800009558
 30
0.0
 11
177.060873318
 21
102.3956254438
 31
0.0
  0
SPLINE
  5
C2
330
1F
100
AcDbEntity
  8
0
  6
Continuous
 62
     7
370
    15
100
AcDbSpline
210
0.0
220
0.0
230
1.0
 70
     8
 71
     3
 72
    16
 73
    12
 74
     0
 42
0.00000001
 43
0.00000001
 12
1.0
 22
0.0
 32
0.0
 13
1.0
 23
0.0
 33
0.0
 40
0.0
 40
0.0
 40
0.0
 40
0.0
 40
0.5000000000000032
 40
0.5000000000000032
 40
0.7500000000000031
 40
0.7500000000000031
 40
0.8750000000000017
 40
0.8750000000000017
 40
0.9375000000000008
 40
0.9375000000000008
 40
1.0
 40
1.0
 40
1.0
 40
1.0
 10
177.0608733179924
 20
110.9800009557585
 30
0.0
 10
177.0608733179924
 20
111.097576336778
 30
0.0
 10
177.0569898928334
 20
111.2162720898792
 30
0.0
 10
177.0321745675588
 20
111.3970295678717
 30
0.0
 10
177.0213351198463
 20
111.4586736446446
 30
0.0
 10
176.9881193377975
 20
111.5480106189859
 30
0.0
 10
176.9747375941687
 20
111.5782701504111
 30
0.0
 10
176.9392279443065
 20
111.6117863943985
 30
0.0
 10
176.9238109778057
 20
111.6199247402046
 30
0.0
 10
176.8921099556571
 20
111.6199093307732
 30
0.0
 10
176.8779636707063
 20
111.6128670934174
 30
0.0
 10
176.8658964291166
 20
111.6037260298078
 30
0.0
  0
SPLINE
  5
C3
330
1F
100
AcDbEntity
  8
0
  6
Continuous
 62
     7
370
    15
100
AcDbSpline
210
0.0
220
0.0
230
1.0
 70
     8
 71
     3
 72
    18
 73
    14
 74
     0
 42
0.00000001
 43
0.00000001
 12
1.0
 22
0.0
 32
0.0
 13
1.0
 23
0.0
 33
0.0
 40
0.0
 40
0.0
 40
0.0
 40
0.0
 40
0.125
 40
0.125
 40
0.25
 40
0.25
 40
0.375
 40
0.375
 40
0.5
 40
0.5
 40
0.75
 40
0.75
 40
1.0
 40
1.0
 40
1.0
 40
1.0
 10
176.8658964291228
 20
111.6037260298005
 30
0.0
 10
176.8171918454348
 20
111.5668317906099
 30
0.0
 10
176.7586833626593
 20
111.537300486184
 30
0.0
 10
176.6269565473895
 20
111.5280645129051
 30
0.0
 10
176.562198475892
 20
111.5511276874621
 30
0.0
 10
176.4569878737413
 20
111.6186458091095
 30
0.0
 10
176.4137717252211
 20
111.6616569057601
 30
0.0
 10
176.3375934091372
 20
111.7518989277562
 30
0.0
 10
176.304738576846
 20
111.7995298092315
 30
0.0
 10
176.214370670885
 20
111.946594108581
 30
0.0
 10
176.1649480130454
 20
112.0505074338856
 30
0.0
 10
176.0772968874538
 20
112.261641397526
 30
0.0
 10
176.0392353400633
 20
112.3693641422848
 30
0.0
 10
176.0047890004294
 20
112.4786972581942
 30
0.0
  0
SPLINE
  5
C4
330
1F
100
AcDbEntity
  8
0
  6
Continuous
 62
     7
370
    15
100
AcDbSpline
210
0.0
220
0.0
230
1.0
 70
     8
 71
     3
 72
     8
 73
     4
 74
     0
 42
0.00000001
 43
0.00000001
 12
1.0
 22
0.0
 32
0.0
 13
1.0
 23
0.0
 33
0.0
 40
0.0
 40
0.0
 40
0.0
 40
0.0
 40
1.0
 40
1.0
 40
1.0
 40
1.0
 10
175.9395529744326
 20
112.713901032323
 30
0.0
 10
175.9589791797316
 20
112.6343087607502
 30
0.0
 10
175.98047600416
 20
112.5558670146175
 30
0.0
 10
176.0047890004294
 20
112.4786972581942
 30
0.0
  0
SPLINE
  5
C5
330
1F
100
AcDbEntity
  8
0
  6
Continuous
 62
     7
370
    15
100
AcDbSpline
210
0.0
220
0.0
230
1.0
 70
     8
 71
     3
 72
     8
 73
     4
 74
     0
 42
0.00000001
 43
0.00000001
 12
1.0
 22
0.0
 32
0.0
 13
1.0
 23
0.0
 33
0.0
 40
0.0
 40
0.0
 40
0.0
 40
0.0
 40
1.0
 40
1.0
 40
1.0
 40
1.0
 10
176.0047890004294
 20
120.4921941872487
 30
0.0
 10
175.98047600416
 20
120.4150244308254
 30
0.0
 10
175.9589791797316
 20
120.3365826846926
 30
0.0
 10
175.9395529744326
 20
120.2569904131199
 30
0.0
  0
SPLINE
  5
C6
330
1F
100
AcDbEntity
  8
0
  6
Continuous
 62
     7
370
    15
100
AcDbSpline
210
0.0
220
0.0
230
1.0
 70
     8
 71
     3
 72
    18
 73
    14
 74
     0
 42
0.00000001
 43
0.00000001
 12
1.0
 22
0.0
 32
0.0
 13
1.0
 23
0.0
 33
0.0
 40
0.0
 40
0.0
 40
0.0
 40
0.0
 40
0.2499999999999993
 40
0.2499999999999993
 40
0.4999999999999987
 40
0.4999999999999987
 40
0.624999999999999
 40
0.624999999999999
 40
0.7499999999999993
 40
0.7499999999999993
 40
0.8749999999999997
 40
0.8749999999999997
 40
1.0
 40
1.0
 40
1.0
 40
1.0
 10
176.0047890004294
 20
120.4921941872487
 30
0.0
 10
176.039087319442
 20
120.6010574838417
 30
0.0
 10
176.076901716754
 20
120.708064907078
 30
0.0
 10
176.1634897778276
 20
120.9170997312164
 30
0.0
 10
176.2118398835062
 20
121.0192698252059
 30
0.0
 10
176.301156472306
 20
121.1659505967706
 30
0.0
 10
176.3337168277943
 20
121.2137522953062
 30
0.0
 10
176.4099624615232
 20
121.3053078333316
 30
0.0
 10
176.4531218313032
 20
121.3489872253235
 30
0.0
 10
176.5588506553213
 20
121.4183414426501
 30
0.0
 10
176.623847832376
 20
121.442457756316
 30
0.0
 10
176.7573323223302
 20
121.4342535342778
 30
0.0
 10
176.8166597157757
 20
121.4044627486859
 30
0.0
 10
176.8658964291171
 20
121.3671654156348
 30
0.0
  0
SPLINE
  5
C7
330
1F
100
AcDbEntity
  8
0
  6
Continuous
 62
     7
370
    15
100
AcDbSpline
210
0.0
220
0.0
230
1.0
 70
     8
 71
     3
 72
    16
 73
    12
 74
     0
 42
0.00000001
 43
0.00000001
 12
1.0
 22
0.0
 32
0.0
 13
1.0
 23
0.0
 33
0.0
 40
0.0
 40
0.0
 40
0.0
 40
0.0
 40
0.0624999999999998
 40
0.0624999999999998
 40
0.1249999999999997
 40
0.1249999999999997
 40
0.2499999999999993
 40
0.2499999999999993
 40
0.4999999999999984
 40
0.4999999999999984
 40
1.0
 40
1.0
 40
1.0
 40
1.0
 10
176.8658964290863
 20
121.3671654155865
 30
0.0
 10
176.8779662623621
 20
121.3580223887407
 30
0.0
 10
176.8922419172955
 20
121.3509779410494
 30
0.0
 10
176.9237063294199
 20
121.3509708691508
 30
0.0
 10
176.9392068542303
 20
121.3590988379478
 30
0.0
 10
176.9746457508372
 20
121.3925072989549
 30
0.0
 10
176.9882383669405
 20
121.4231744654171
 30
0.0
 10
177.0212326853334
 20
121.5119954594989
 30
0.0
 10
177.0320200786521
 20
121.5728981050468
 30
0.0
 10
177.0570733259313
 20
121.7549061824251
 30
0.0
 10
177.0608733179925
 20
121.8735948974638
 30
0.0
 10
177.0608733179925
 20
121.9908904896843
 30
0.0
  0
LINE
  5
C8
330
1F
100
AcDbEntity
  8
0
  6
Continuous
 62
     7
370
    15
100
AcDbLine
 10
177.060873318
 20
130.5752660016
 30
0.0
 11
177.060873318
 21
121.9908904897
 31
0.0
  0
SPLINE
  5
C9
330
1F
100
AcDbEntity
  8
0
  6
Continuous
 62
     7
370
    15
100
AcDbSpline
210
0.0
220
0.0
230
1.0
 70
     8
 71
     3
 72
    16
 73
    12
 74
     0
 42
0.00000001
 43
0.00000001
 12
1.0
 22
0.0
 32
0.0
 13
1.0
 23
0.0
 33
0.0
 40
0.0
 40
0.0
 40
0.0
 40
0.0
 40
0.5000000000000017
 40
0.5000000000000017
 40
0.7500000000000018
 40
0.7500000000000018
 40
0.875000000000001
 40
0.875000000000001
 40
0.9375000000000006
 40
0.9375000000000006
 40
1.0
 40
1.0
 40
1.0
 40
1.0
 10
177.0608733179924
 20
130.4702576293816
 30
0.0
 10
177.0608733179924
 20
130.4546924019421
 30
0.0
 10
177.0569898928335
 20
130.4355210240941
 30
0.0
 10
177.0321745675588
 20
130.3967486421123
 30
0.0
 10
177.0213351198463
 20
130.3820978659098
 30
0.0
 10
176.9881193377975
 20
130.3550536219302
 30
0.0
 10
176.9747375941687
 20
130.3450755227901
 30
0.0
 10
176.9392279443064
 20
130.3286009870031
 30
0.0
 10
176.9238109778057
 20
130.3228488962132
 30
0.0
 10
176.892109955657
 20
130.3149283757865
 30
0.0
 10
176.8779636707063
 20
130.3130455397678
 30
0.0
 10
176.8658964291166
 20
130.3121717053055
 30
0.0
  0
SPLINE
  5
CA
330
1F
100
AcDbEntity
  8
0
  6
Continuous
 62
     7
370
    15
100
AcDbSpline
210
0.0
220
0.0
230
1.0
 70
     8
 71
     3
 72
    18
 73
    14
 74
     0
 42
0.00000001
 43
0.00000001
 12
1.0
 22
0.0
 32
0.0
 13
1.0
 23
0.0
 33
0.0
 40
0.0
 40
0.0
 40
0.0
 40
0.0
 40
0.125
 40
0.125
 40
0.25
 40
0.25
 40
0.375
 40
0.375
 40
0.5
 40
0.5
 40
0.75
 40
0.75
 40
1.0
 40
1.0
 40
1.0
 40
1.0
 10
176.8658964291228
 20
130.3121717053054
 30
0.0
 10
176.817192300106
 20
130.3086448556872
 30
0.0
 10
176.7586846309015
 20
130.3051445824895
 30
0.0
 10
176.6269589682706
 20
130.3011015986016
 30
0.0
 10
176.5622013296503
 20
130.300990023971
 30
0.0
 10
176.4569909130312
 20
130.3025222087325
 30
0.0
 10
176.413774878091
 20
130.3039773609476
 30
0.0
 10
176.3375966566101
 20
130.3069026224773
 30
0.0
 10
176.3047418889259
 20
130.3084129529855
 30
0.0
 10
176.2143741700841
 20
130.3125549456739
 30
0.0
 10
176.1649518008947
 20
130.3147930306604
 30
0.0
 10
176.0772993388067
 20
130.3172443137069
 30
0.0
 10
176.0392366025722
 20
130.3174995490679
 30
0.0
 10
176.0047890004288
 20
130.3166341054
 30
0.0
  0
SPLINE
  5
CB
330
1F
100
AcDbEntity
  8
0
  6
Continuous
 62
     7
370
    15
100
AcDbSpline
210
0.0
220
0.0
230
1.0
 70
     8
 71
     3
 72
     8
 73
     4
 74
     0
 42
0.00000001
 43
0.00000001
 12
1.0
 22
0.0
 32
0.0
 13
1.0
 23
0.0
 33
0.0
 40
0.0
 40
0.0
 40
0.0
 40
0.0
 40
1.0
 40
1.0
 40
1.0
 40
1.0
 10
175.7658333400531
 20
113.5389549183575
 30
0.0
 10
175.8165604227755
 20
113.2556037970384
 30
0.0
 10
175.8744477357625
 20
112.9806476128987
 30
0.0
 10
175.9395529744328
 20
112.7139010323231
 30
0.0
  0
SPLINE
  5
CC
330
1F
100
AcDbEntity
  8
0
  6
Continuous
 62
     7
370
    15
100
AcDbSpline
210
0.0
220
0.0
230
1.0
 70
     8
 71
     3
 72
    24
 73
    20
 74
     0
 42
0.00000001
 43
0.00000001
 12
1.0
 22
0.0
 32
0.0
 13
1.0
 23
0.0
 33
0.0
 40
0.0
 40
0.0
 40
0.0
 40
0.0
 40
0.2500000000000058
 40
0.2500000000000058
 40
0.3750000000000092
 40
0.3750000000000092
 40
0.4375000000000104
 40
0.4375000000000104
 40
0.468750000000011
 40
0.468750000000011
 40
0.5000000000000115
 40
0.5000000000000115
 40
0.5625000000000093
 40
0.5625000000000093
 40
0.6250000000000071
 40
0.6250000000000071
 40
0.7500000000000044
 40
0.7500000000000044
 40
1.0
 40
1.0
 40
1.0
 40
1.0
 10
175.5608733179841
 20
113.5392473266508
 30
0.0
 10
175.561276347358
 20
113.6325156192804
 30
0.0
 10
175.5633060870731
 20
113.7262731781294
 30
0.0
 10
175.5726147984929
 20
113.867863063769
 30
0.0
 10
175.5765407916075
 20
113.9150434823782
 30
0.0
 10
175.5874701515235
 20
113.9856395290636
 30
0.0
 10
175.5915917796179
 20
114.0094194428284
 30
0.0
 10
175.6034863008002
 20
114.0428705898756
 30
0.0
 10
175.608773112754
 20
114.0550255419452
 30
0.0
 10
175.6253410442689
 20
114.0629081809132
 30
0.0
 10
175.6332677530363
 20
114.0553445818112
 30
0.0
 10
175.6502600912615
 20
114.0315521505844
 30
0.0
 10
175.6576577920524
 20
114.0113636727399
 30
0.0
 10
175.6717601823942
 20
113.9709140481201
 30
0.0
 10
175.6779133396865
 20
113.9500583737226
 30
0.0
 10
175.6952270731476
 20
113.8869333384216
 30
0.0
 10
175.7052321140361
 20
113.8439542265201
 30
0.0
 10
175.7335885702668
 20
113.7142285822312
 30
0.0
 10
175.7501371096131
 20
113.6266308550953
 30
0.0
 10
175.7658333400531
 20
113.5389549183576
 30
0.0
  0
SPLINE
  5
CD
330
1F
100
AcDbEntity
  8
0
  6
Continuous
 62
     7
370
    15
100
AcDbSpline
210
0.0
220
0.0
230
1.0
 70
     8
 71
     3
 72
    16
 73
    12
 74
     0
 42
0.00000001
 43
0.00000001
 12
1.0
 22
0.0
 32
0.0
 13
1.0
 23
0.0
 33
0.0
 40
0.0
 40
0.0
 40
0.0
 40
0.0
 40
0.2499999999999998
 40
0.2499999999999998
 40
0.3749999999999998
 40
0.3749999999999998
 40
0.4999999999999998
 40
0.4999999999999998
 40
0.7499999999999999
 40
0.7499999999999999
 40
1.0
 40
1.0
 40
1.0
 40
1.0
 10
175.5608733179924
 20
119.4316441187908
 30
0.0
 10
175.4803365085969
 20
118.9625712919277
 30
0.0
 10
175.4202990997947
 20
118.4822076417477
 30
0.0
 10
175.3595611525474
 20
117.7450233626068
 30
0.0
 10
175.3442386715045
 20
117.4965049593797
 30
0.0
 10
175.3236557197266
 20
116.993721514166
 30
0.0
 10
175.31845617269
 20
116.7388629611413
 30
0.0
 10
175.3184024621498
 20
115.9825856214206
 30
0.0
 10
175.338599799419
 20
115.4839274221108
 30
0.0
 10
175.4192781064919
 20
114.4975044513665
 30
0.0
 10
175.4803244548332
 20
114.0083903585935
 30
0.0
 10
175.5608733179924
 20
113.5392473266521
 30
0.0
  0
SPLINE
  5
CE
330
1F
100
AcDbEntity
  8
0
  6
Continuous
 62
     7
370
    15
100
AcDbSpline
210
0.0
220
0.0
230
1.0
 70
     8
 71
     3
 72
    24
 73
    20
 74
     0
 42
0.00000001
 43
0.00000001
 12
1.0
 22
0.0
 32
0.0
 13
1.0
 23
0.0
 33
0.0
 40
0.0
 40
0.0
 40
0.0
 40
0.0
 40
0.250000000000004
 40
0.250000000000004
 40
0.375000000000006
 40
0.375000000000006
 40
0.4375000000000067
 40
0.4375000000000067
 40
0.5000000000000073
 40
0.5000000000000073
 40
0.5312500000000063
 40
0.5312500000000063
 40
0.5625000000000054
 40
0.5625000000000054
 40
0.6250000000000047
 40
0.6250000000000047
 40
0.7500000000000031
 40
0.7500000000000031
 40
1.0
 40
1.0
 40
1.0
 40
1.0
 10
175.7658333400532
 20
119.4319365270853
 30
0.0
 10
175.7500642951435
 20
119.3438538635943
 30
0.0
 10
175.7334501305829
 20
119.2559090470849
 30
0.0
 10
175.7049180030895
 20
119.1255616798218
 30
0.0
 10
175.6948303695356
 20
119.0823005020197
 30
0.0
 10
175.6773425466866
 20
119.0188647261842
 30
0.0
 10
175.6711327387603
 20
118.9979506026405
 30
0.0
 10
175.6568548791779
 20
118.9574758109554
 30
0.0
 10
175.6492837168261
 20
118.9369981674962
 30
0.0
 10
175.6318638916517
 20
118.9141517879593
 30
0.0
 10
175.623379809197
 20
118.9075999909157
 30
0.0
 10
175.6073437355796
 20
118.9181713661424
 30
0.0
 10
175.6025233633018
 20
118.9302624064263
 30
0.0
 10
175.5911164626959
 20
118.9639056496462
 30
0.0
 10
175.5870955009865
 20
118.987313328943
 30
0.0
 10
175.5763414892073
 20
119.0579019320041
 30
0.0
 10
175.5724696035846
 20
119.1048669595266
 30
0.0
 10
175.5633016387837
 20
119.2454438241327
 30
0.0
 10
175.5612733042706
 20
119.3390800537522
 30
0.0
 10
175.5608733179924
 20
119.4316441187908
 30
0.0
  0
SPLINE
  5
CF
330
1F
100
AcDbEntity
  8
0
  6
Continuous
 62
     7
370
    15
100
AcDbSpline
210
0.0
220
0.0
230
1.0
 70
     8
 71
     3
 72
     8
 73
     4
 74
     0
 42
0.00000001
 43
0.00000001
 12
1.0
 22
0.0
 32
0.0
 13
1.0
 23
0.0
 33
0.0
 40
0.0
 40
0.0
 40
0.0
 40
0.0
 40
1.0
 40
1.0
 40
1.0
 40
1.0
 10
175.9395529744328
 20
120.2569904131198
 30
0.0
 10
175.8744477357625
 20
119.9902438325442
 30
0.0
 10
175.8165604227755
 20
119.7152876484045
 30
0.0
 10
175.7658333400531
 20
119.4319365270853
 30
0.0
  0
LINE
  5
D0
330
1F
100
AcDbEntity
  8
0
  6
Continuous
 62
     7
370
    15
100
AcDbLine
 10
175.560873318
 20
113.5392473267
 30
0.0
 11
175.560873318
 21
112.3842420573
 31
0.0
  0
LINE
  5
D1
330
1F
100
AcDbEntity
  8
0
  6
Continuous
 62
     7
370
    15
100
AcDbLine
 10
154.760873318
 20
120.3253651888
 30
0.0
 11
154.760873318
 21
112.6455262566
 31
0.0
  0
LINE
  5
D2
330
1F
100
AcDbEntity
  8
0
  6
Continuous
 62
     7
370
    15
100
AcDbLine
 10
175.560873318
 20
120.5866493882
 30
0.0
 11
175.560873318
 21
119.4316441188
 31
0.0
  0
LINE
  5
D3
330
1F
100
AcDbEntity
  8
0
  6
Continuous
 62
     7
370
    15
100
AcDbLine
 10
153.260873318
 20
119.8923524869
 30
0.0
 11
153.260873318
 21
113.0785389585
 31
0.0
  0
LINE
  5
D4
330
1F
100
AcDbEntity
  8
0
  6
Continuous
 62
     7
370
    15
100
AcDbLine
 10
175.7658333401
 20
130.3106307075
 30
0.0
 11
176.0047890004
 21
130.3166341054
 31
0.0
  0
LINE
  5
D5
330
1F
100
AcDbEntity
  8
0
  6
Continuous
 62
     7
370
    15
100
AcDbLine
 10
154.760873318
 20
102.9879153369
 30
0.0
 11
154.760873318
 21
112.6455262566
 31
0.0
  0
LINE
  5
D6
330
1F
100
AcDbEntity
  8
0
  6
Continuous
 62
     7
370
    15
100
AcDbLine
 10
175.560873318
 20
102.4653469382
 30
0.0
 11
175.560873318
 21
112.3842420573
 31
0.0
  0
LINE
  5
D7
330
1F
100
AcDbEntity
  8
0
  6
Continuous
 62
     7
370
    15
100
AcDbLine
 10
154.760873318
 20
102.9879153369
 30
0.0
 11
175.560873318
 21
102.4653469382
 31
0.0
  0
ARC
  5
D8
330
1F
100
AcDbEntity
  8
0
  6
Continuous
 62
     7
370
    15
100
AcDbCircle
 10
175.7608102289
 20
102.460323827
 30
0.0
 40
0.2000000000000063
100
AcDbArc
 50
88.5608333333
 51
178.5608333333
  0
LINE
  5
D9
330
1F
100
AcDbEntity
  8
0
  6
Continuous
 62
     7
370
    15
100
AcDbLine
 10
175.560873318
 20
120.5866493882
 30
0.0
 11
175.560873318
 21
130.5055445073
 31
0.0
  0
ARC
  5
DA
330
1F
100
AcDbEntity
  8
0
  6
Continuous
 62
     7
370
    15
100
AcDbCircle
 10
175.7608102289
 20
130.5105676184
 30
0.0
 40
0.2000000000000066
100
AcDbArc
 50
181.4391666667
 51
271.4391666667
  0
LINE
  5
DB
330
1F
100
AcDbEntity
  8
0
  6
Continuous
 62
     7
370
    15
100
AcDbLine
 10
154.760873318
 20
120.3253651888
 30
0.0
 11
154.760873318
 21
129.9829761086
 31
0.0
  0
LINE
  5
DC
330
1F
100
AcDbEntity
  8
0
  6
Continuous
 62
     7
370
    15
100
AcDbLine
 10
154.760873318
 20
129.9829761086
 30
0.0
 11
175.560873318
 21
130.5055445073
 31
0.0
  0
LINE
  5
DD
330
1F
100
AcDbEntity
  8
0
  6
Continuous
 62
     7
370
    15
100
AcDbLine
 10
175.7658333401
 20
102.660260738
 30
0.0
 11
176.0047890004
 21
102.65425734
 31
0.0
  0
LINE
  5
DE
330
1F
100
AcDbEntity
  8
0
  6
Continuous
 62
     7
370
    15
100
AcDbLine
 10
153.260873318
 20
103.8539407407
 30
0.0
 11
154.760873318
 21
102.9879153369
 31
0.0
  0
LINE
  5
DF
330
1F
100
AcDbEntity
  8
0
  6
Continuous
 62
     7
370
    15
100
AcDbLine
 10
153.260873318
 20
103.8539407407
 30
0.0
 11
153.260873318
 21
113.0785389585
 31
0.0
  0
LINE
  5
E0
330
1F
100
AcDbEntity
  8
0
  6
Continuous
 62
     7
370
    15
100
AcDbLine
 10
153.260873318
 20
129.1169507048
 30
0.0
 11
154.760873318
 21
129.9829761086
 31
0.0
  0
LINE
  5
E1
330
1F
100
AcDbEntity
  8
0
  6
Continuous
 62
     7
370
    15
100
AcDbLine
 10
153.260873318
 20
119.8923524869
 30
0.0
 11
153.260873318
 21
129.1169507048
 31
0.0
  0
SPLINE
  5
E2
330
1F
100
AcDbEntity
  8
0
  6
Continuous
 62
     7
370
    15
100
AcDbSpline
210
0.0
220
0.0
230
1.0
 70
     8
 71
     3
 72
     8
 73
     4
 74
     0
 42
0.00000001
 43
0.00000001
 12
1.0
 22
0.0
 32
0.0
 13
1.0
 23
0.0
 33
0.0
 40
0.0
 40
0.0
 40
0.0
 40
0.0
 40
1.0
 40
1.0
 40
1.0
 40
1.0
 10
199.4935463300134
 20
136.182534813118
 30
0.0
 10
199.5924582227171
 20
136.192757790742
 30
0.0
 10
199.7002804428225
 20
136.2141746727038
 30
0.0
 10
199.8076860872716
 20
136.2528421980149
 30
0.0
  0
SPLINE
  5
E3
330
1F
100
AcDbEntity
  8
0
  6
Continuous
 62
     7
370
    15
100
AcDbSpline
210
0.0
220
0.0
230
1.0
 70
     8
 71
     3
 72
     8
 73
     4
 74
     0
 42
0.00000001
 43
0.00000001
 12
1.0
 22
0.0
 32
0.0
 13
1.0
 23
0.0
 33
0.0
 40
0.0
 40
0.0
 40
0.0
 40
0.0
 40
1.0
 40
1.0
 40
1.0
 40
1.0
 10
199.8076860872716
 20
97.84822401105679
 30
0.0
 10
199.700289983575
 20
97.88924789127687
 30
0.0
 10
199.592486058474
 20
97.91767383552236
 30
0.0
 10
199.4935463300133
 20
97.93975280564206
 30
0.0
  0
SPLINE
  5
E4
330
1F
100
AcDbEntity
  8
0
  6
Continuous
 62
     7
370
    15
100
AcDbSpline
210
0.0
220
0.0
230
1.0
 70
     8
 71
     3
 72
    12
 73
     8
 74
     0
 42
0.00000001
 43
0.00000001
 12
1.0
 22
0.0
 32
0.0
 13
1.0
 23
0.0
 33
0.0
 40
0.0
 40
0.0
 40
0.0
 40
0.0
 40
0.4999999999999962
 40
0.4999999999999962
 40
0.7499999999999981
 40
0.7499999999999981
 40
1.0
 40
1.0
 40
1.0
 40
1.0
 10
199.8076860872716
 20
136.2528421980151
 30
0.0
 10
199.9674139273285
 20
136.3103464412043
 30
0.0
 10
200.1104153595274
 20
136.4084904299968
 30
0.0
 10
200.2786497872197
 20
136.5962066575987
 30
0.0
 10
200.3278814319377
 20
136.6666034768835
 30
0.0
 10
200.4073253977104
 20
136.8152092829236
 30
0.0
 10
200.4380573478207
 20
136.8935936984338
 30
0.0
 10
200.4594721563025
 20
136.9762081352217
 30
0.0
  0
SPLINE
  5
E5
330
1F
100
AcDbEntity
  8
0
  6
Continuous
 62
     7
370
    15
100
AcDbSpline
210
0.0
220
0.0
230
1.0
 70
     8
 71
     3
 72
     8
 73
     4
 74
     0
 42
0.00000001
 43
0.00000001
 12
1.0
 22
0.0
 32
0.0
 13
1.0
 23
0.0
 33
0.0
 40
0.0
 40
0.0
 40
0.0
 40
0.0
 40
1.0
 40
1.0
 40
1.0
 40
1.0
 10
200.3595717337978
 20
97.36277631261478
 30
0.0
 10
200.2400410443443
 20
97.58075090224594
 30
0.0
 10
200.0422883100888
 20
97.75860908875558
 30
0.0
 10
199.8076860872716
 20
97.84822401105679
 30
0.0
  0
LINE
  5
E6
330
1F
100
AcDbEntity
  8
0
  6
Continuous
 62
     7
370
    15
100
AcDbLine
 10
200.3595717338
 20
97.3627763126
 30
0.0
 11
200.3595717338
 21
95.9854457227
 31
0.0
  0
LINE
  5
E7
330
1F
100
AcDbEntity
  8
0
  6
Continuous
 62
     7
370
    15
100
AcDbLine
 10
213.7887283411
 20
134.4713705455
 30
0.0
 11
212.4920792778
 21
134.3721739366
 31
0.0
  0
ARC
  5
E8
330
1F
100
AcDbEntity
  8
0
  6
Continuous
 62
     7
370
    15
100
AcDbCircle
 10
212.7011684727
 20
132.0421746597
 30
0.0
 40
2.339362075903202
100
AcDbArc
 50
95.1278664963
 51
274.862579501
  0
LINE
  5
E9
330
1F
100
AcDbEntity
  8
0
  6
Continuous
 62
     7
370
    15
100
AcDbLine
 10
212.8994672618
 20
129.711232251
 30
0.0
 11
225.1455033275
 21
130.6480819228
 31
0.0
  0
LINE
  5
EA
330
1F
100
AcDbEntity
  8
0
  6
Continuous
 62
     7
370
    15
100
AcDbLine
 10
225.1455033275
 20
130.6480819228
 30
0.0
 11
224.1419302464
 21
119.1882147558
 31
0.0
  0
LINE
  5
EB
330
1F
100
AcDbEntity
  8
0
  6
Continuous
 62
     7
370
    15
100
AcDbLine
 10
224.1419302464
 20
119.1882147558
 30
0.0
 11
208.5288241259
 21
97.061919953
 31
0.0
  0
ELLIPSE
  5
EC
330
1F
100
AcDbEntity
  8
0
  6
Continuous
 62
     7
370
    15
100
AcDbEllipse
 10
251.2429328229
 20
116.4854457227
 30
0.0
 11
195.044339874664
 21
-2.16650078466273
 31
0.0
210
0.0
220
0.0
230
1.0
 40
0.1045157088
 41
4.449615408792199
 42
4.492763752427357
  0
SPLINE
  5
ED
330
1F
100
AcDbEntity
  8
0
  6
Continuous
 62
     7
370
    15
100
AcDbSpline
210
0.0
220
0.0
230
1.0
 70
     8
 71
     3
 72
     8
 73
     4
 74
     0
 42
0.00000001
 43
0.00000001
 12
1.0
 22
0.0
 32
0.0
 13
1.0
 23
0.0
 33
0.0
 40
0.0
 40
0.0
 40
0.0
 40
0.0
 40
1.0
 40
1.0
 40
1.0
 40
1.0
 10
200.4594721563025
 20
136.9762081352217
 30
0.0
 10
200.7265435642381
 20
138.0065210594516
 30
0.0
 10
200.9951535632759
 20
139.0364157906097
 30
0.0
 10
201.2647847524979
 20
140.0660329596139
 30
0.0
  0
ELLIPSE
  5
EE
330
1F
100
AcDbEntity
  8
0
  6
Continuous
 62
     7
370
    15
100
AcDbEllipse
 10
247.772464549
 20
119.9750303061
 30
0.0
 11
215.3493833991934
 21
20.26302228663779
 31
0.0
210
0.0
220
0.0
230
1.0
 40
0.1150714178
 41
1.715505424873982
 42
1.777635146693594
  0
LINE
  5
EF
330
1F
100
AcDbEntity
  8
0
  6
Continuous
 62
     7
370
    15
100
AcDbLine
 10
214.4107747705
 20
141.574559727
 30
0.0
 11
213.7887283411
 21
134.4713705455
 31
0.0
  0
CIRCLE
  5
F0
330
1F
100
AcDbEntity
  8
0
  6
Continuous
 62
     7
370
    15
100
AcDbCircle
 10
215.9227496178
 20
124.7041961134
 30
0.0
 40
3.976282661241005
  0
ELLIPSE
  5
F1
330
1F
100
AcDbEntity
  8
0
  6
Continuous
 62
     7
370
    15
100
AcDbEllipse
 10
222.1399269547
 20
116.4854457227
 30
0.0
 11
14.58718609352482
 21
20.49781058791308
 31
0.0
210
0.0
220
0.0
230
1.0
 40
0.0205386817
 41
3.156207884742658
 42
3.481713800064892
  0
SPLINE
  5
F2
330
1F
100
AcDbEntity
  8
0
  6
Continuous
 62
     7
370
    15
100
AcDbSpline
210
0.0
220
0.0
230
1.0
 70
     8
 71
     3
 72
     9
 73
     5
 74
     0
 42
0.00000001
 43
0.00000001
 12
1.0
 22
0.0
 32
0.0
 13
1.0
 23
0.0
 33
0.0
 40
0.0
 40
0.0
 40
0.0
 40
0.0
 40
0.45267377012535
 40
1.0
 40
1.0
 40
1.0
 40
1.0
 10
201.2630048924807
 20
140.2021064463656
 30
0.0
 10
201.2629568081947
 20
140.2057809266826
 30
0.0
 10
201.2628505853711
 20
140.2138982079557
 30
0.0
 10
201.264100591407
 20
140.1183364282309
 30
0.0
 10
201.264784752498
 20
140.066032959614
 30
0.0
  0
ELLIPSE
  5
F3
330
1F
100
AcDbEntity
  8
0
  6
Continuous
 62
     7
370
    15
100
AcDbEllipse
 10
211.7916564639
 20
116.1932949881
 30
0.0
 11
2.547289797953425
 21
25.40076590679334
 31
0.0
210
0.0
220
0.0
230
1.0
 40
0.0928940858
 41
6.25222167863278
 42
6.302465511708969
  0
ARC
  5
F4
330
1F
100
AcDbEntity
  8
0
  6
Continuous
 62
     7
370
    15
100
AcDbCircle
 10
212.1753811027
 20
131.578181099
 30
0.0
 40
2.312001507740152
100
AcDbArc
 50
94.3306845212
 51
126.1505283373
  0
LINE
  5
F5
330
1F
100
AcDbEntity
  8
0
  6
Continuous
 62
     7
370
    15
100
AcDbLine
 10
213.2974445637
 20
133.982778072
 30
0.0
 11
213.7887283411
 21
134.4713705455
 31
0.0
  0
LINE
  5
F6
330
1F
100
AcDbEntity
  8
0
  6
Continuous
 62
     7
370
    15
100
AcDbLine
 10
213.2974445637
 20
133.982778072
 30
0.0
 11
213.3205009718
 21
133.9845419398
 31
0.0
  0
LINE
  5
F7
330
1F
100
AcDbEntity
  8
0
  6
Continuous
 62
     7
370
    15
100
AcDbLine
 10
211.6934818184
 20
133.5779512777
 30
0.0
 11
213.295628289
 21
133.7005191345
 31
0.0
  0
ARC
  5
F8
330
1F
100
AcDbEntity
  8
0
  6
Continuous
 62
     7
370
    15
100
AcDbCircle
 10
212.1556559019
 20
131.826896768
 30
0.0
 40
2.062506649555317
100
AcDbArc
 50
94.3060251397
 51
134.8142303556
  0
LINE
  5
F9
330
1F
100
AcDbEntity
  8
0
  6
Continuous
 62
     7
370
    15
100
AcDbLine
 10
212.950836095
 20
129.7633143429
 30
0.0
 11
212.4259970133
 21
129.7231629569
 31
0.0
  0
ARC
  5
FA
330
1F
100
AcDbEntity
  8
0
  6
Continuous
 62
     7
370
    15
100
AcDbCircle
 10
211.8494230207
 20
131.517931598
 30
0.0
 40
2.06591353623817
100
AcDbArc
 50
94.3289706866
 51
125.3082826065
  0
LWPOLYLINE
  5
FB
330
1F
100
AcDbEntity
  8
0
  6
Continuous
 62
     7
370
    15
100
AcDbPolyline
 90
        3
 70
   128
 43
0.0
 10
220.0686595612
 20
138.1438057838
 10
219.7147238532
 20
138.2647037611
 10
219.3251974871
 20
138.3472234217
  0
SPLINE
  5
FC
330
1F
100
AcDbEntity
  8
0
  6
HIDDEN
 62
     7
370
     0
100
AcDbSpline
210
0.0
220
0.0
230
1.0
 70
     8
 71
     3
 72
    68
 73
    64
 74
     0
 42
0.00000001
 43
0.00000001
 12
1.0
 22
0.0
 32
0.0
 13
1.0
 23
0.0
 33
0.0
 40
-0.0625000000000004
 40
-0.0625000000000004
 40
0.0
 40
0.0
 40
0.0312499999999999
 40
0.0312499999999999
 40
0.0624999999999999
 40
0.0624999999999999
 40
0.0937499999999998
 40
0.0937499999999998
 40
0.1249999999999998
 40
0.1249999999999998
 40
0.1562499999999997
 40
0.1562499999999997
 40
0.1874999999999996
 40
0.1874999999999996
 40
0.2187499999999996
 40
0.2187499999999996
 40
0.2499999999999995
 40
0.2499999999999995
 40
0.2812499999999994
 40
0.2812499999999994
 40
0.3124999999999994
 40
0.3124999999999994
 40
0.3437499999999993
 40
0.3437499999999993
 40
0.3749999999999992
 40
0.3749999999999992
 40
0.4062499999999992
 40
0.4062499999999992
 40
0.4374999999999991
 40
0.4374999999999991
 40
0.4687499999999991
 40
0.4687499999999991
 40
0.499999999999999
 40
0.499999999999999
 40
0.5312499999999989
 40
0.5312499999999989
 40
0.562499999999999
 40
0.562499999999999
 40
0.593749999999999
 40
0.593749999999999
 40
0.6249999999999991
 40
0.6249999999999991
 40
0.6562499999999991
 40
0.6562499999999991
 40
0.6874999999999992
 40
0.6874999999999992
 40
0.7187499999999992
 40
0.7187499999999992
 40
0.7499999999999992
 40
0.7499999999999992
 40
0.7812499999999993
 40
0.7812499999999993
 40
0.8124999999999993
 40
0.8124999999999993
 40
0.8437499999999994
 40
0.8437499999999994
 40
0.8749999999999994
 40
0.8749999999999994
 40
0.9062499999999996
 40
0.9062499999999996
 40
0.9374999999999996
 40
0.9374999999999996
 40
1.0
 40
1.0
 40
1.03125
 40
1.03125
 10
193.7608733179922
 20
108.6867218796307
 30
0.0
 10
193.7608733179922
 20
109.1466098417894
 30
0.0
 10
193.7446337198703
 20
109.2980817073118
 30
0.0
 10
193.6810338954101
 20
109.5974506779187
 30
0.0
 10
193.6328899878548
 20
109.7469300994575
 30
0.0
 10
193.5073503977569
 20
110.0330017672235
 30
0.0
 10
193.4305513471882
 20
110.1693012921662
 30
0.0
 10
193.2491358285467
 20
110.4282363295465
 30
0.0
 10
193.1436487548496
 20
110.5512493179733
 30
0.0
 10
192.9132417394499
 20
110.7724899663349
 30
0.0
 10
192.787492538601
 20
110.8721973090476
 30
0.0
 10
192.5142795200261
 20
111.0488031009701
 30
0.0
 10
192.3690121142504
 20
111.1239903465251
 30
0.0
 10
192.068269405618
 20
111.2450724727929
 30
0.0
 10
191.9105658781303
 20
111.2918515737584
 30
0.0
 10
191.5877901476701
 20
111.3544285997771
 30
0.0
 10
191.4254777706844
 20
111.3699474690895
 30
0.0
 10
191.0990472543581
 20
111.3701242120662
 30
0.0
 10
190.9332374618106
 20
111.3542697658681
 30
0.0
 10
190.6124875204836
 20
111.2921243173913
 30
0.0
 10
190.4565728354578
 20
111.2461672854634
 30
0.0
 10
190.1537025725686
 20
111.1245295841401
 30
0.0
 10
190.0075255492154
 20
111.0487230395669
 30
0.0
 10
189.7368043238683
 20
110.8739624864519
 30
0.0
 10
189.6104529660871
 20
110.7742989834148
 30
0.0
 10
189.3771368419974
 20
110.5503878040377
 30
0.0
 10
189.2738062714267
 20
110.4296710094809
 30
0.0
 10
189.0927332033019
 20
110.1717639011081
 30
0.0
 10
189.0143592487726
 20
110.0329270331714
 30
0.0
 10
188.8888475889019
 20
109.7468998971811
 30
0.0
 10
188.841484417048
 20
109.6002687694092
 30
0.0
 10
188.7773577014851
 20
109.3000353371225
 30
0.0
 10
188.7609347404693
 20
109.1455278432851
 30
0.0
 10
188.7608122474958
 20
108.8428393852388
 30
0.0
 10
188.7765826521187
 20
108.693065860416
 30
0.0
 10
188.8405764634945
 20
108.3966517844419
 30
0.0
 10
188.8885080276843
 20
108.2525760214102
 30
0.0
 10
189.0130151590902
 20
107.9789295320678
 30
0.0
 10
189.0905722763659
 20
107.8472614352717
 30
0.0
 10
189.2730061360738
 20
107.6010705713644
 30
0.0
 10
189.3763058636624
 20
107.488206447403
 30
0.0
 10
189.6065459735459
 20
107.2819857150432
 30
0.0
 10
189.7349912389021
 20
107.1879523813112
 30
0.0
 10
190.0063230358176
 20
107.0267333322773
 30
0.0
 10
190.14975396751
 20
106.9586568753461
 30
0.0
 10
190.4523743268535
 20
106.84747020007
 30
0.0
 10
190.6111295453796
 20
106.8049335541944
 30
0.0
 10
190.9307391533896
 20
106.7486656044729
 30
0.0
 10
191.0932898483394
 20
106.7342495994419
 30
0.0
 10
191.4239285281449
 20
106.7339860926404
 30
0.0
 10
191.5864828956274
 20
106.7481374127602
 30
0.0
 10
191.9062949103554
 20
106.8039115776454
 30
0.0
 10
192.0652260828536
 20
106.8462296170288
 30
0.0
 10
192.3679783655199
 20
106.9569066973407
 30
0.0
 10
192.5115832291546
 20
107.0247604987553
 30
0.0
 10
192.7834281882774
 20
107.1856744520444
 30
0.0
 10
192.9119867609514
 20
107.2794759126598
 30
0.0
 10
193.1425270415272
 20
107.4852375542601
 30
0.0
 10
193.246078410295
 20
107.5979446295325
 30
0.0
 10
193.4291310501713
 20
107.8440493887762
 30
0.0
 10
193.5067776474945
 20
107.9753461559118
 30
0.0
 10
193.6942824715334
 20
108.3853476567994
 30
0.0
 10
193.7608733179922
 20
108.6867218796307
 30
0.0
 10
193.7608733179922
 20
109.1466098417894
 30
0.0
  0
SPLINE
  5
FD
330
1F
100
AcDbEntity
  8
0
  6
HIDDEN
 62
     7
370
     0
100
AcDbSpline
210
0.0
220
0.0
230
1.0
 70
     8
 71
     3
 72
    68
 73
    64
 74
     0
 42
0.00000001
 43
0.00000001
 12
1.0
 22
0.0
 32
0.0
 13
1.0
 23
0.0
 33
0.0
 40
-0.0625000000000004
 40
-0.0625000000000004
 40
0.0
 40
0.0
 40
0.0312499999999999
 40
0.0312499999999999
 40
0.0624999999999999
 40
0.0624999999999999
 40
0.0937499999999998
 40
0.0937499999999998
 40
0.1249999999999998
 40
0.1249999999999998
 40
0.1562499999999997
 40
0.1562499999999997
 40
0.1874999999999996
 40
0.1874999999999996
 40
0.2187499999999996
 40
0.2187499999999996
 40
0.2499999999999995
 40
0.2499999999999995
 40
0.2812499999999994
 40
0.2812499999999994
 40
0.3124999999999994
 40
0.3124999999999994
 40
0.3437499999999993
 40
0.3437499999999993
 40
0.3749999999999992
 40
0.3749999999999992
 40
0.4062499999999992
 40
0.4062499999999992
 40
0.4374999999999991
 40
0.4374999999999991
 40
0.4687499999999991
 40
0.4687499999999991
 40
0.499999999999999
 40
0.499999999999999
 40
0.5312499999999989
 40
0.5312499999999989
 40
0.562499999999999
 40
0.562499999999999
 40
0.593749999999999
 40
0.593749999999999
 40
0.6249999999999991
 40
0.6249999999999991
 40
0.6562499999999991
 40
0.6562499999999991
 40
0.6874999999999992
 40
0.6874999999999992
 40
0.7187499999999992
 40
0.7187499999999992
 40
0.7499999999999992
 40
0.7499999999999992
 40
0.7812499999999993
 40
0.7812499999999993
 40
0.8124999999999993
 40
0.8124999999999993
 40
0.8437499999999994
 40
0.8437499999999994
 40
0.8749999999999994
 40
0.8749999999999994
 40
0.9062499999999996
 40
0.9062499999999996
 40
0.9374999999999996
 40
0.9374999999999996
 40
1.0
 40
1.0
 40
1.03125
 40
1.03125
 10
193.7608733179922
 20
108.6867218796307
 30
0.0
 10
193.7608733179922
 20
109.1466098417894
 30
0.0
 10
193.7446337198703
 20
109.2980817073118
 30
0.0
 10
193.6810338954101
 20
109.5974506779187
 30
0.0
 10
193.6328899878548
 20
109.7469300994575
 30
0.0
 10
193.5073503977569
 20
110.0330017672235
 30
0.0
 10
193.4305513471882
 20
110.1693012921662
 30
0.0
 10
193.2491358285467
 20
110.4282363295465
 30
0.0
 10
193.1436487548496
 20
110.5512493179733
 30
0.0
 10
192.9132417394499
 20
110.7724899663349
 30
0.0
 10
192.787492538601
 20
110.8721973090476
 30
0.0
 10
192.5142795200261
 20
111.0488031009701
 30
0.0
 10
192.3690121142504
 20
111.1239903465251
 30
0.0
 10
192.068269405618
 20
111.2450724727929
 30
0.0
 10
191.9105658781303
 20
111.2918515737584
 30
0.0
 10
191.5877901476701
 20
111.3544285997771
 30
0.0
 10
191.4254777706844
 20
111.3699474690895
 30
0.0
 10
191.0990472543581
 20
111.3701242120662
 30
0.0
 10
190.9332374618106
 20
111.3542697658681
 30
0.0
 10
190.6124875204836
 20
111.2921243173913
 30
0.0
 10
190.4565728354578
 20
111.2461672854634
 30
0.0
 10
190.1537025725686
 20
111.1245295841401
 30
0.0
 10
190.0075255492154
 20
111.0487230395669
 30
0.0
 10
189.7368043238683
 20
110.8739624864519
 30
0.0
 10
189.6104529660871
 20
110.7742989834148
 30
0.0
 10
189.3771368419974
 20
110.5503878040377
 30
0.0
 10
189.2738062714267
 20
110.4296710094809
 30
0.0
 10
189.0927332033019
 20
110.1717639011081
 30
0.0
 10
189.0143592487726
 20
110.0329270331714
 30
0.0
 10
188.8888475889019
 20
109.7468998971811
 30
0.0
 10
188.841484417048
 20
109.6002687694092
 30
0.0
 10
188.7773577014851
 20
109.3000353371225
 30
0.0
 10
188.7609347404693
 20
109.1455278432851
 30
0.0
 10
188.7608122474958
 20
108.8428393852388
 30
0.0
 10
188.7765826521187
 20
108.693065860416
 30
0.0
 10
188.8405764634945
 20
108.3966517844419
 30
0.0
 10
188.8885080276843
 20
108.2525760214102
 30
0.0
 10
189.0130151590902
 20
107.9789295320678
 30
0.0
 10
189.0905722763659
 20
107.8472614352717
 30
0.0
 10
189.2730061360738
 20
107.6010705713644
 30
0.0
 10
189.3763058636624
 20
107.488206447403
 30
0.0
 10
189.6065459735459
 20
107.2819857150432
 30
0.0
 10
189.7349912389021
 20
107.1879523813112
 30
0.0
 10
190.0063230358176
 20
107.0267333322773
 30
0.0
 10
190.14975396751
 20
106.9586568753461
 30
0.0
 10
190.4523743268535
 20
106.84747020007
 30
0.0
 10
190.6111295453796
 20
106.8049335541944
 30
0.0
 10
190.9307391533896
 20
106.7486656044729
 30
0.0
 10
191.0932898483394
 20
106.7342495994419
 30
0.0
 10
191.4239285281449
 20
106.7339860926404
 30
0.0
 10
191.5864828956274
 20
106.7481374127602
 30
0.0
 10
191.9062949103554
 20
106.8039115776454
 30
0.0
 10
192.0652260828536
 20
106.8462296170288
 30
0.0
 10
192.3679783655199
 20
106.9569066973407
 30
0.0
 10
192.5115832291546
 20
107.0247604987553
 30
0.0
 10
192.7834281882774
 20
107.1856744520444
 30
0.0
 10
192.9119867609514
 20
107.2794759126598
 30
0.0
 10
193.1425270415272
 20
107.4852375542601
 30
0.0
 10
193.246078410295
 20
107.5979446295325
 30
0.0
 10
193.4291310501713
 20
107.8440493887762
 30
0.0
 10
193.5067776474945
 20
107.9753461559118
 30
0.0
 10
193.6942824715334
 20
108.3853476567994
 30
0.0
 10
193.7608733179922
 20
108.6867218796307
 30
0.0
 10
193.7608733179922
 20
109.1466098417894
 30
0.0
  0
SPLINE
  5
FE
330
1F
100
AcDbEntity
  8
0
  6
HIDDEN
 62
     7
370
     0
100
AcDbSpline
210
0.0
220
0.0
230
1.0
 70
     8
 71
     3
 72
    58
 73
    54
 74
     0
 42
0.00000001
 43
0.00000001
 12
1.0
 22
0.0
 32
0.0
 13
1.0
 23
0.0
 33
0.0
 40
-0.0624999999999998
 40
-0.0624999999999998
 40
0.0
 40
0.0
 40
0.03125
 40
0.03125
 40
0.0625000000000001
 40
0.0625000000000001
 40
0.0937500000000001
 40
0.0937500000000001
 40
0.1250000000000002
 40
0.1250000000000002
 40
0.1875000000000003
 40
0.1875000000000003
 40
0.2500000000000004
 40
0.2500000000000004
 40
0.2812500000000004
 40
0.2812500000000004
 40
0.3125000000000005
 40
0.3125000000000005
 40
0.3437500000000006
 40
0.3437500000000006
 40
0.3750000000000006
 40
0.3750000000000006
 40
0.4062500000000006
 40
0.4062500000000006
 40
0.4375000000000007
 40
0.4375000000000007
 40
0.4687500000000007
 40
0.4687500000000007
 40
0.5000000000000008
 40
0.5000000000000008
 40
0.5625000000000009
 40
0.5625000000000009
 40
0.625000000000001
 40
0.625000000000001
 40
0.6562500000000009
 40
0.6562500000000009
 40
0.6875000000000009
 40
0.6875000000000009
 40
0.7187500000000008
 40
0.7187500000000008
 40
0.7500000000000007
 40
0.7500000000000007
 40
0.7812500000000007
 40
0.7812500000000007
 40
0.8125000000000006
 40
0.8125000000000006
 40
0.8437500000000006
 40
0.8437500000000006
 40
0.8750000000000004
 40
0.8750000000000004
 40
0.9375000000000002
 40
0.9375000000000002
 40
1.0
 40
1.0
 40
1.03125
 40
1.03125
 10
187.2608733179924
 20
116.7498818371695
 30
0.0
 10
187.2608733179924
 20
116.3532276654974
 30
0.0
 10
187.2738553556646
 20
116.223235504657
 30
0.0
 10
187.3247061579229
 20
115.9675158922047
 30
0.0
 10
187.3631980619758
 20
115.8404572083435
 30
0.0
 10
187.4636133477022
 20
115.5982940106847
 30
0.0
 10
187.5250494869753
 20
115.4834522263
 30
0.0
 10
187.6701829632861
 20
115.2661100287298
 30
0.0
 10
187.7546046521373
 20
115.1632683808821
 30
0.0
 10
188.0312048263021
 20
114.8867249001305
 30
0.0
 10
188.2542037375692
 20
114.7377422639983
 30
0.0
 10
188.7354382551549
 20
114.5381992004436
 30
0.0
 10
188.9987376706639
 20
114.4855887274122
 30
0.0
 10
189.3903011107041
 20
114.4853746686597
 30
0.0
 10
189.5228887213088
 20
114.4983735180653
 30
0.0
 10
189.7794544269081
 20
114.5494236020916
 30
0.0
 10
189.9041641930886
 20
114.5871948409038
 30
0.0
 10
190.1464033781156
 20
114.6873867490163
 30
0.0
 10
190.2634200318893
 20
114.7499721428408
 30
0.0
 10
190.4800632367356
 20
114.8946772285514
 30
0.0
 10
190.581069993194
 20
114.9772965699316
 30
0.0
 10
190.7678760888506
 20
115.1639406047216
 30
0.0
 10
190.8505896243825
 20
115.2648864526815
 30
0.0
 10
190.9954597537578
 20
115.4813676563632
 30
0.0
 10
191.0581300498545
 20
115.5982848213716
 30
0.0
 10
191.1585579878908
 20
115.8404812905701
 30
0.0
 10
191.1964291668205
 20
115.9651422814736
 30
0.0
 10
191.2476915645962
 20
116.2215416305416
 30
0.0
 10
191.2608252052369
 20
116.3541525558395
 30
0.0
 10
191.2609691383757
 20
116.7458271681746
 30
0.0
 10
191.2086038811109
 20
117.0091111878351
 30
0.0
 10
191.0094432177602
 20
117.490623901695
 30
0.0
 10
190.8606455443983
 20
117.7137449887399
 30
0.0
 10
190.5843448858121
 20
117.9905771372474
 30
0.0
 10
190.4815798387524
 20
118.0750843515317
 30
0.0
 10
190.264362564958
 20
118.2204052932176
 30
0.0
 10
190.1495928715202
 20
118.2819275164797
 30
0.0
 10
189.9076063343756
 20
118.3825239197517
 30
0.0
 10
189.7805237614841
 20
118.4211518078403
 30
0.0
 10
189.5248490614809
 20
118.4722299179065
 30
0.0
 10
189.3949085441367
 20
118.4853190576737
 30
0.0
 10
189.1306451763754
 20
118.4855705760322
 30
0.0
 10
189.0004342827285
 20
118.4726961059759
 30
0.0
 10
188.7446843372948
 20
118.4220772088438
 30
0.0
 10
188.6176669529275
 20
118.383729390048
 30
0.0
 10
188.3753152251758
 20
118.2834952698546
 30
0.0
 10
188.2604124458895
 20
118.2221510828646
 30
0.0
 10
188.0429902807405
 20
118.0772460783355
 30
0.0
 10
187.9400538832958
 20
117.9929071862135
 30
0.0
 10
187.6632167261389
 20
117.7165060731717
 30
0.0
 10
187.5140614850747
 20
117.4936624401293
 30
0.0
 10
187.3140908998395
 20
117.0125991588787
 30
0.0
 10
187.2608733179924
 20
116.7498818371695
 30
0.0
 10
187.2608733179924
 20
116.3532276654974
 30
0.0
  0
SPLINE
  5
FF
330
1F
100
AcDbEntity
  8
0
  6
HIDDEN
 62
     7
370
     0
100
AcDbSpline
210
0.0
220
0.0
230
1.0
 70
     8
 71
     3
 72
    12
 73
     8
 74
     0
 42
0.00000001
 43
0.00000001
 12
1.0
 22
0.0
 32
0.0
 13
1.0
 23
0.0
 33
0.0
 40
0.0
 40
0.0
 40
0.0
 40
0.0
 40
0.5000000000000029
 40
0.5000000000000029
 40
0.7500000000000014
 40
0.7500000000000014
 40
1.0
 40
1.0
 40
1.0
 40
1.0
 10
183.9329676988562
 20
110.3472005956624
 30
0.0
 10
183.9516609319867
 20
110.4147832321027
 30
0.0
 10
183.9773162293984
 20
110.4812658015802
 30
0.0
 10
184.0374768520849
 20
110.5702608844777
 30
0.0
 10
184.0615491638392
 20
110.5982627814769
 30
0.0
 10
184.1199306841898
 20
110.6413391821421
 30
0.0
 10
184.1553995118428
 20
110.6562327270698
 30
0.0
 10
184.1927753199916
 20
110.6562327270698
 30
0.0
  0
LINE
  5
100
330
1F
100
AcDbEntity
  8
0
  6
HIDDEN
 62
     7
370
     0
100
AcDbLine
 10
184.19277532
 20
110.6562327271
 30
0.0
 11
186.328971316
 21
110.6562327271
 31
0.0
  0
SPLINE
  5
101
330
1F
100
AcDbEntity
  8
0
  6
HIDDEN
 62
     7
370
     0
100
AcDbSpline
210
0.0
220
0.0
230
1.0
 70
     8
 71
     3
 72
    12
 73
     8
 74
     0
 42
0.00000001
 43
0.00000001
 12
1.0
 22
0.0
 32
0.0
 13
1.0
 23
0.0
 33
0.0
 40
0.0
 40
0.0
 40
0.0
 40
0.0
 40
0.2500000000000012
 40
0.2500000000000012
 40
0.5000000000000023
 40
0.5000000000000023
 40
1.0
 40
1.0
 40
1.0
 40
1.0
 10
186.3289713159932
 20
110.6562327270698
 30
0.0
 10
186.3664832020379
 20
110.6562327270698
 30
0.0
 10
186.4017705497426
 20
110.641427912783
 30
0.0
 10
186.460700397981
 20
110.5978360396572
 30
0.0
 10
186.4842261244501
 20
110.5703226135712
 30
0.0
 10
186.5444849122181
 20
110.4811908814576
 30
0.0
 10
186.5700796745075
 20
110.4148050308398
 30
0.0
 10
186.5887789371285
 20
110.3472005956624
 30
0.0
  0
ELLIPSE
  5
102
330
1F
100
AcDbEntity
  8
0
  6
HIDDEN
 62
     7
370
     0
100
AcDbEllipse
 10
176.3119441456
 20
116.4854457227
 30
0.0
 11
-9.367417879781783
 21
19.74174915274995
 31
0.0
210
0.0
220
0.0
230
1.0
 40
0.3419987131
 41
3.292664382516895
 42
4.239566697061003
  0
SPLINE
  5
103
330
1F
100
AcDbEntity
  8
0
  6
HIDDEN
 62
     7
370
     0
100
AcDbSpline
210
0.0
220
0.0
230
1.0
 70
     8
 71
     3
 72
    12
 73
     8
 74
     0
 42
0.00000001
 43
0.00000001
 12
1.0
 22
0.0
 32
0.0
 13
1.0
 23
0.0
 33
0.0
 40
0.0
 40
0.0
 40
0.0
 40
0.0
 40
0.4999999999999998
 40
0.4999999999999998
 40
0.7499999999999999
 40
0.7499999999999999
 40
1.0
 40
1.0
 40
1.0
 40
1.0
 10
186.5887789371285
 20
97.45068943953952
 30
0.0
 10
186.5700857039981
 20
97.42889568591157
 30
0.0
 10
186.5444304065863
 20
97.40787552420194
 30
0.0
 10
186.4842697838998
 20
97.38017017823822
 30
0.0
 10
186.4601974721455
 20
97.37153496204485
 30
0.0
 10
186.401815951795
 20
97.35832031681825
 30
0.0
 10
186.3663471241419
 20
97.35378934248807
 30
0.0
 10
186.3289713159932
 20
97.35378934248807
 30
0.0
  0
LINE
  5
104
330
1F
100
AcDbEntity
  8
0
  6
HIDDEN
 62
     7
370
     0
100
AcDbLine
 10
186.328971316
 20
97.3537893425
 30
0.0
 11
184.19277532
 21
97.3537893425
 31
0.0
  0
SPLINE
  5
105
330
1F
100
AcDbEntity
  8
0
  6
HIDDEN
 62
     7
370
     0
100
AcDbSpline
210
0.0
220
0.0
230
1.0
 70
     8
 71
     3
 72
    12
 73
     8
 74
     0
 42
0.00000001
 43
0.00000001
 12
1.0
 22
0.0
 32
0.0
 13
1.0
 23
0.0
 33
0.0
 40
0.0
 40
0.0
 40
0.0
 40
0.0
 40
0.2500000000000023
 40
0.2500000000000023
 40
0.5000000000000046
 40
0.5000000000000046
 40
1.0
 40
1.0
 40
1.0
 40
1.0
 10
184.1927753199916
 20
97.35378934248807
 30
0.0
 10
184.1552634339469
 20
97.35378934248807
 30
0.0
 10
184.1199760862422
 20
97.3582928867506
 30
0.0
 10
184.0610462380038
 20
97.37166608620392
 30
0.0
 10
184.0375205115347
 20
97.38015098877503
 30
0.0
 10
183.9772617237666
 20
97.40789879260964
 30
0.0
 10
183.9516669614773
 20
97.42888865635
 30
0.0
 10
183.9329676988562
 20
97.45068943953952
 30
0.0
  0
ELLIPSE
  5
106
330
1F
100
AcDbEntity
  8
0
  6
HIDDEN
 62
     7
370
     0
100
AcDbEllipse
 10
194.2098024904
 20
116.4854457227
 30
0.0
 11
9.367417879781641
 21
19.74174915274995
 31
0.0
210
0.0
220
0.0
230
1.0
 40
0.3419987131
 41
2.043618610118592
 42
2.990520924662726
  0
SPLINE
  5
107
330
1F
100
AcDbEntity
  8
0
  6
HIDDEN
 62
     7
370
     0
100
AcDbSpline
210
0.0
220
0.0
230
1.0
 70
     8
 71
     3
 72
    12
 73
     8
 74
     0
 42
0.00000001
 43
0.00000001
 12
1.0
 22
0.0
 32
0.0
 13
1.0
 23
0.0
 33
0.0
 40
0.0
 40
0.0
 40
0.0
 40
0.0
 40
0.4999999999999994
 40
0.4999999999999994
 40
0.7499999999999997
 40
0.7499999999999997
 40
1.0
 40
1.0
 40
1.0
 40
1.0
 10
183.9329676988563
 20
135.5202020059034
 30
0.0
 10
183.9516609319867
 20
135.5419957595314
 30
0.0
 10
183.9773162293984
 20
135.563015921241
 30
0.0
 10
184.0374768520849
 20
135.5907212672047
 30
0.0
 10
184.0615491638392
 20
135.5993564833981
 30
0.0
 10
184.1199306841898
 20
135.6125711286247
 30
0.0
 10
184.1553995118428
 20
135.6171021029548
 30
0.0
 10
184.1927753199916
 20
135.6171021029548
 30
0.0
  0
LINE
  5
108
330
1F
100
AcDbEntity
  8
0
  6
HIDDEN
 62
     7
370
     0
100
AcDbLine
 10
184.19277532
 20
135.617102103
 30
0.0
 11
186.328971316
 21
135.617102103
 31
0.0
  0
SPLINE
  5
109
330
1F
100
AcDbEntity
  8
0
  6
HIDDEN
 62
     7
370
     0
100
AcDbSpline
210
0.0
220
0.0
230
1.0
 70
     8
 71
     3
 72
    12
 73
     8
 74
     0
 42
0.00000001
 43
0.00000001
 12
1.0
 22
0.0
 32
0.0
 13
1.0
 23
0.0
 33
0.0
 40
0.0
 40
0.0
 40
0.0
 40
0.0
 40
0.25
 40
0.25
 40
0.5
 40
0.5
 40
1.0
 40
1.0
 40
1.0
 40
1.0
 10
186.3289713159932
 20
135.6171021029549
 30
0.0
 10
186.3664832020379
 20
135.6171021029549
 30
0.0
 10
186.4017705497426
 20
135.6125985586924
 30
0.0
 10
186.460700397981
 20
135.5992253592391
 30
0.0
 10
186.4842261244501
 20
135.5907404566679
 30
0.0
 10
186.5444849122181
 20
135.5629926528333
 30
0.0
 10
186.5700796745075
 20
135.5420027890929
 30
0.0
 10
186.5887789371285
 20
135.5202020059034
 30
0.0
  0
ELLIPSE
  5
10A
330
1F
100
AcDbEntity
  8
0
  6
HIDDEN
 62
     7
370
     0
100
AcDbEllipse
 10
176.3119441456
 20
116.4854457227
 30
0.0
 11
9.367417879781813
 21
19.74174915274992
 31
0.0
210
0.0
220
0.0
230
1.0
 40
0.3419987131
 41
5.185211263708413
 42
6.132113578252571
  0
SPLINE
  5
10B
330
1F
100
AcDbEntity
  8
0
  6
HIDDEN
 62
     7
370
     0
100
AcDbSpline
210
0.0
220
0.0
230
1.0
 70
     8
 71
     3
 72
    12
 73
     8
 74
     0
 42
0.00000001
 43
0.00000001
 12
1.0
 22
0.0
 32
0.0
 13
1.0
 23
0.0
 33
0.0
 40
0.0
 40
0.0
 40
0.0
 40
0.0
 40
0.4999999999999978
 40
0.4999999999999978
 40
0.7499999999999989
 40
0.7499999999999989
 40
1.0
 40
1.0
 40
1.0
 40
1.0
 10
186.5887789371285
 20
122.6236908497808
 30
0.0
 10
186.5700857039981
 20
122.5561082133404
 30
0.0
 10
186.5444304065863
 20
122.489625643863
 30
0.0
 10
186.4842697838998
 20
122.4006305609654
 30
0.0
 10
186.4601974721455
 20
122.3726286639663
 30
0.0
 10
186.401815951795
 20
122.3295522633011
 30
0.0
 10
186.3663471241419
 20
122.3146587183733
 30
0.0
 10
186.3289713159932
 20
122.3146587183733
 30
0.0
  0
LINE
  5
10C
330
1F
100
AcDbEntity
  8
0
  6
HIDDEN
 62
     7
370
     0
100
AcDbLine
 10
186.328971316
 20
122.3146587184
 30
0.0
 11
184.19277532
 21
122.3146587184
 31
0.0
  0
SPLINE
  5
10D
330
1F
100
AcDbEntity
  8
0
  6
HIDDEN
 62
     7
370
     0
100
AcDbSpline
210
0.0
220
0.0
230
1.0
 70
     8
 71
     3
 72
    12
 73
     8
 74
     0
 42
0.00000001
 43
0.00000001
 12
1.0
 22
0.0
 32
0.0
 13
1.0
 23
0.0
 33
0.0
 40
0.0
 40
0.0
 40
0.0
 40
0.0
 40
0.2499999999999993
 40
0.2499999999999993
 40
0.4999999999999987
 40
0.4999999999999987
 40
1.0
 40
1.0
 40
1.0
 40
1.0
 10
184.1927753199916
 20
122.3146587183734
 30
0.0
 10
184.1552634339469
 20
122.3146587183734
 30
0.0
 10
184.1199760862422
 20
122.3294635326601
 30
0.0
 10
184.0610462380038
 20
122.373055405786
 30
0.0
 10
184.0375205115347
 20
122.400568831872
 30
0.0
 10
183.9772617237666
 20
122.4897005639856
 30
0.0
 10
183.9516669614773
 20
122.5560864146034
 30
0.0
 10
183.9329676988562
 20
122.6236908497808
 30
0.0
  0
ELLIPSE
  5
10E
330
1F
100
AcDbEntity
  8
0
  6
HIDDEN
 62
     7
370
     0
100
AcDbEllipse
 10
194.2098024904
 20
116.4854457227
 30
0.0
 11
-9.367417879781698
 21
19.74174915274995
 31
0.0
210
0.0
220
0.0
230
1.0
 40
0.3419987131
 41
0.1510717289270579
 42
1.097974043471188
  0
LINE
  5
10F
330
1F
100
AcDbEntity
  8
0
  6
HIDDEN
 62
     7
370
     0
100
AcDbLine
 10
177.260873318
 20
136.1854457198
 30
0.0
 11
177.260873318
 21
96.7854457227
 31
0.0
  0
LINE
  5
110
330
1F
100
AcDbEntity
  8
0
  6
HIDDEN
 62
     7
370
     0
100
AcDbLine
 10
177.260873318
 20
100.6854457227
 30
0.0
 11
177.260873318
 21
132.2729541989
 31
0.0
  0
SPLINE
  5
111
330
1F
100
AcDbEntity
  8
0
  6
HIDDEN
 62
     7
370
     0
100
AcDbSpline
210
0.0
220
0.0
230
1.0
 70
     8
 71
     3
 72
    18
 73
    14
 74
     0
 42
0.00000001
 43
0.00000001
 12
1.0
 22
0.0
 32
0.0
 13
1.0
 23
0.0
 33
0.0
 40
0.0
 40
0.0
 40
0.0
 40
0.0
 40
0.2499999999999987
 40
0.2499999999999987
 40
0.4999999999999973
 40
0.4999999999999973
 40
0.624999999999998
 40
0.624999999999998
 40
0.7499999999999987
 40
0.7499999999999987
 40
0.8749999999999993
 40
0.8749999999999993
 40
1.0
 40
1.0
 40
1.0
 40
1.0
 10
176.0047890004294
 20
126.3098856408727
 30
0.0
 10
176.0390900449621
 20
126.2018754550751
 30
0.0
 10
176.0769103162589
 20
126.0945983670472
 30
0.0
 10
176.1635286367197
 20
125.8831016697306
 30
0.0
 10
176.2118999714632
 20
125.7787153195609
 30
0.0
 10
176.3013029535817
 20
125.6278403969166
 30
0.0
 10
176.3339002374589
 20
125.5784953938811
 30
0.0
 10
176.4102821414038
 20
125.4838897554108
 30
0.0
 10
176.4533205787446
 20
125.4388938206562
 30
0.0
 10
176.5591336115764
 20
125.3679660479983
 30
0.0
 10
176.6241720363075
 20
125.3440195040917
 30
0.0
 10
176.7573241081102
 20
125.3563001681625
 30
0.0
 10
176.8166932885733
 20
125.3896171261674
 30
0.0
 10
176.8658964291171
 20
125.4304520123921
 30
0.0
  0
SPLINE
  5
112
330
1F
100
AcDbEntity
  8
0
  6
HIDDEN
 62
     7
370
     0
100
AcDbSpline
210
0.0
220
0.0
230
1.0
 70
     8
 71
     3
 72
    16
 73
    12
 74
     0
 42
0.00000001
 43
0.00000001
 12
1.0
 22
0.0
 32
0.0
 13
1.0
 23
0.0
 33
0.0
 40
0.0
 40
0.0
 40
0.0
 40
0.0
 40
0.0625000000000031
 40
0.0625000000000031
 40
0.1250000000000061
 40
0.1250000000000061
 40
0.2500000000000083
 40
0.2500000000000083
 40
0.5000000000000039
 40
0.5000000000000039
 40
1.0
 40
1.0
 40
1.0
 40
1.0
 10
176.8658964290863
 20
125.4304520124216
 30
0.0
 10
176.8779662623621
 20
125.4404690614019
 30
0.0
 10
176.8922419172955
 20
125.4494281684575
 30
0.0
 10
176.9237063294199
 20
125.4572985638517
 30
0.0
 10
176.9392068542303
 20
125.4549410732094
 30
0.0
 10
176.9746457508372
 20
125.4379653810314
 30
0.0
 10
176.9882383669405
 20
125.4174168898639
 30
0.0
 10
177.0212326853334
 20
125.3554745628502
 30
0.0
 10
177.0320200786521
 20
125.309079012645
 30
0.0
 10
177.0570733259313
 20
125.1661429839505
 30
0.0
 10
177.0608733179925
 20
125.066580267065
 30
0.0
 10
177.0608733179925
 20
124.9648128624185
 30
0.0
  0
LINE
  5
113
330
1F
100
AcDbEntity
  8
0
  6
HIDDEN
 62
     7
370
     0
100
AcDbLine
 10
177.060873318
 20
108.006078583
 30
0.0
 11
177.060873318
 21
124.9648128624
 31
0.0
  0
SPLINE
  5
114
330
1F
100
AcDbEntity
  8
0
  6
HIDDEN
 62
     7
370
     0
100
AcDbSpline
210
0.0
220
0.0
230
1.0
 70
     8
 71
     3
 72
    16
 73
    12
 74
     0
 42
0.00000001
 43
0.00000001
 12
1.0
 22
0.0
 32
0.0
 13
1.0
 23
0.0
 33
0.0
 40
0.0
 40
0.0
 40
0.0
 40
0.0
 40
0.4999999999999999
 40
0.4999999999999999
 40
0.7499999999999998
 40
0.7499999999999998
 40
0.8749999999999998
 40
0.8749999999999998
 40
0.9374999999999999
 40
0.9374999999999999
 40
1.0
 40
1.0
 40
1.0
 40
1.0
 10
177.0608733179924
 20
108.0060785830243
 30
0.0
 10
177.0608733179924
 20
107.9040684294442
 30
0.0
 10
177.0569898928335
 20
107.804544054191
 30
0.0
 10
177.0321745675588
 20
107.6625589581803
 30
0.0
 10
177.0213351198463
 20
107.6155656576099
 30
0.0
 10
176.9881193377975
 20
107.5532729272482
 30
0.0
 10
176.9747375941687
 20
107.5329914949631
 30
0.0
 10
176.9392279443065
 20
107.5159497867627
 30
0.0
 10
176.9238109778057
 20
107.5135635317466
 30
0.0
 10
176.8921099556571
 20
107.5214994616046
 30
0.0
 10
176.8779636707063
 20
107.5304245349792
 30
0.0
 10
176.8658964291166
 20
107.5404394330511
 30
0.0
  0
SPLINE
  5
115
330
1F
100
AcDbEntity
  8
0
  6
HIDDEN
 62
     7
370
     0
100
AcDbSpline
210
0.0
220
0.0
230
1.0
 70
     8
 71
     3
 72
    18
 73
    14
 74
     0
 42
0.00000001
 43
0.00000001
 12
1.0
 22
0.0
 32
0.0
 13
1.0
 23
0.0
 33
0.0
 40
0.0
 40
0.0
 40
0.0
 40
0.0
 40
0.125000000000001
 40
0.125000000000001
 40
0.250000000000002
 40
0.250000000000002
 40
0.375000000000003
 40
0.375000000000003
 40
0.500000000000004
 40
0.500000000000004
 40
0.750000000000002
 40
0.750000000000002
 40
1.0
 40
1.0
 40
1.0
 40
1.0
 10
176.8658964291228
 20
107.5404394330585
 30
0.0
 10
176.8171909369807
 20
107.5808613087399
 30
0.0
 10
176.7586808286538
 20
107.6138934302077
 30
0.0
 10
176.6269517103617
 20
107.6271705821605
 30
0.0
 10
176.5621927740211
 20
107.6042169951804
 30
0.0
 10
176.4569818011616
 20
107.5351637982607
 30
0.0
 10
176.4137654257216
 20
107.4906961464199
 30
0.0
 10
176.3375869206097
 20
107.3975264870498
 30
0.0
 10
176.3047319592298
 20
107.348384117489
 30
0.0
 10
176.214363679396
 20
107.1971743825492
 30
0.0
 10
176.164940445026
 20
107.0910196130209
 30
0.0
 10
176.0772919899778
 20
106.8774379973594
 30
0.0
 10
176.039232817775
 20
106.7694655661241
 30
0.0
 10
176.0047890004294
 20
106.6610058045702
 30
0.0
  0
SPLINE
  5
116
330
1F
100
AcDbEntity
  8
0
  6
HIDDEN
 62
     7
370
     0
100
AcDbSpline
210
0.0
220
0.0
230
1.0
 70
     8
 71
     3
 72
     8
 73
     4
 74
     0
 42
0.00000001
 43
0.00000001
 12
1.0
 22
0.0
 32
0.0
 13
1.0
 23
0.0
 33
0.0
 40
0.0
 40
0.0
 40
0.0
 40
0.0
 40
1.0
 40
1.0
 40
1.0
 40
1.0
 10
176.0047890004288
 20
106.6610058045697
 30
0.0
 10
175.9804752965387
 20
106.5844446470196
 30
0.0
 10
175.9589786545826
 20
106.5080192758864
 30
0.0
 10
175.9395529744326
 20
106.4319264051147
 30
0.0
  0
SPLINE
  5
117
330
1F
100
AcDbEntity
  8
0
  6
HIDDEN
 62
     7
370
     0
100
AcDbSpline
210
0.0
220
0.0
230
1.0
 70
     8
 71
     3
 72
     8
 73
     4
 74
     0
 42
0.00000001
 43
0.00000001
 12
1.0
 22
0.0
 32
0.0
 13
1.0
 23
0.0
 33
0.0
 40
0.0
 40
0.0
 40
0.0
 40
0.0
 40
1.0
 40
1.0
 40
1.0
 40
1.0
 10
175.9395529744326
 20
102.6603817147162
 30
0.0
 10
175.958978401326
 20
102.656884511129
 30
0.0
 10
175.980474955295
 20
102.6548681934867
 30
0.0
 10
176.0047890004294
 20
102.6542573400428
 30
0.0
  0
SPLINE
  5
118
330
1F
100
AcDbEntity
  8
0
  6
HIDDEN
 62
     7
370
     0
100
AcDbSpline
210
0.0
220
0.0
230
1.0
 70
     8
 71
     3
 72
     8
 73
     4
 74
     0
 42
0.00000001
 43
0.00000001
 12
1.0
 22
0.0
 32
0.0
 13
1.0
 23
0.0
 33
0.0
 40
0.0
 40
0.0
 40
0.0
 40
0.0
 40
1.0
 40
1.0
 40
1.0
 40
1.0
 10
177.0380223048864
 20
102.5648989489848
 30
0.0
 10
177.0569592370522
 20
102.5369445115833
 30
0.0
 10
177.0608733179925
 20
102.5168606602269
 30
0.0
 10
177.0608733179925
 20
102.5006338160615
 30
0.0
  0
LINE
  5
119
330
1F
100
AcDbEntity
  8
0
  6
HIDDEN
 62
     7
370
     0
100
AcDbLine
 10
177.060873318
 20
102.3956254438
 30
0.0
 11
177.060873318
 21
102.5006338161
 31
0.0
  0
LINE
  5
11A
330
1F
100
AcDbEntity
  8
0
  6
HIDDEN
 62
     7
370
     0
100
AcDbLine
 10
177.060873318
 20
130.4702576294
 30
0.0
 11
177.060873318
 21
130.5752660016
 31
0.0
  0
SPLINE
  5
11B
330
1F
100
AcDbEntity
  8
0
  6
HIDDEN
 62
     7
370
     0
100
AcDbSpline
210
0.0
220
0.0
230
1.0
 70
     8
 71
     3
 72
     8
 73
     4
 74
     0
 42
0.00000001
 43
0.00000001
 12
1.0
 22
0.0
 32
0.0
 13
1.0
 23
0.0
 33
0.0
 40
0.0
 40
0.0
 40
0.0
 40
0.0
 40
1.0
 40
1.0
 40
1.0
 40
1.0
 10
176.004789000429
 20
130.3166341054
 30
0.0
 10
175.9804749552948
 20
130.3160232519561
 30
0.0
 10
175.9589784013259
 20
130.3140069343139
 30
0.0
 10
175.9395529744326
 20
130.3105097307266
 30
0.0
  0
SPLINE
  5
11C
330
1F
100
AcDbEntity
  8
0
  6
HIDDEN
 62
     7
370
     0
100
AcDbSpline
210
0.0
220
0.0
230
1.0
 70
     8
 71
     3
 72
     8
 73
     4
 74
     0
 42
0.00000001
 43
0.00000001
 12
1.0
 22
0.0
 32
0.0
 13
1.0
 23
0.0
 33
0.0
 40
0.0
 40
0.0
 40
0.0
 40
0.0
 40
1.0
 40
1.0
 40
1.0
 40
1.0
 10
175.9395529744326
 20
126.5389650403282
 30
0.0
 10
175.9589786545826
 20
126.4628721695565
 30
0.0
 10
175.9804752965387
 20
126.3864467984233
 30
0.0
 10
176.0047890004288
 20
126.3098856408732
 30
0.0
  0
SPLINE
  5
11D
330
1F
100
AcDbEntity
  8
0
  6
HIDDEN
 62
     7
370
     0
100
AcDbSpline
210
0.0
220
0.0
230
1.0
 70
     8
 71
     3
 72
    62
 73
    58
 74
     0
 42
0.00000001
 43
0.00000001
 12
1.0
 22
0.0
 32
0.0
 13
1.0
 23
0.0
 33
0.0
 40
-0.0312499999999997
 40
-0.0312499999999997
 40
0.0
 40
0.0
 40
0.0312500000000001
 40
0.0312500000000001
 40
0.0625000000000002
 40
0.0625000000000002
 40
0.0937500000000003
 40
0.0937500000000003
 40
0.1250000000000004
 40
0.1250000000000004
 40
0.1875000000000007
 40
0.1875000000000007
 40
0.2187500000000008
 40
0.2187500000000008
 40
0.2500000000000009
 40
0.2500000000000009
 40
0.281250000000001
 40
0.281250000000001
 40
0.3125000000000011
 40
0.3125000000000011
 40
0.3437500000000012
 40
0.3437500000000012
 40
0.3750000000000013
 40
0.3750000000000013
 40
0.4062500000000014
 40
0.4062500000000014
 40
0.4375000000000015
 40
0.4375000000000015
 40
0.4687500000000016
 40
0.4687500000000016
 40
0.5000000000000016
 40
0.5000000000000016
 40
0.5625000000000021
 40
0.5625000000000021
 40
0.5937500000000022
 40
0.5937500000000022
 40
0.6250000000000022
 40
0.6250000000000022
 40
0.687500000000002
 40
0.687500000000002
 40
0.7187500000000018
 40
0.7187500000000018
 40
0.7500000000000016
 40
0.7500000000000016
 40
0.7812500000000013
 40
0.7812500000000013
 40
0.8125000000000011
 40
0.8125000000000011
 40
0.875000000000001
 40
0.875000000000001
 40
0.9062500000000008
 40
0.9062500000000008
 40
0.9375000000000006
 40
0.9375000000000006
 40
0.9687500000000003
 40
0.9687500000000003
 40
1.0
 40
1.0
 40
1.03125
 40
1.03125
 10
191.4007148637941
 20
116.7435328150674
 30
0.0
 10
191.1210317721907
 20
116.7435328150674
 30
0.0
 10
190.9837478152332
 20
116.7582196144349
 30
0.0
 10
190.7140120603817
 20
116.8153120808157
 30
0.0
 10
190.5801300412862
 20
116.8584668688152
 30
0.0
 10
190.3263834828882
 20
116.9694051774635
 30
0.0
 10
190.2061978211456
 20
117.0368508118377
 30
0.0
 10
189.9787352296318
 20
117.1946574278978
 30
0.0
 10
189.8719200241702
 20
117.2851087460165
 30
0.0
 10
189.5836754268455
 20
117.5788167236134
 30
0.0
 10
189.4275547279443
 20
117.8119364721084
 30
0.0
 10
189.269839267102
 20
118.181371508711
 30
0.0
 10
189.2289300379944
 20
118.3101091278393
 30
0.0
 10
189.1745531329722
 20
118.5686431726664
 30
0.0
 10
189.1609656650826
 20
118.6973578031743
 30
0.0
 10
189.1607819000949
 20
118.9535255934301
 30
0.0
 10
189.1746679363011
 20
119.0818273617827
 30
0.0
 10
189.2287550208518
 20
119.3256986242615
 30
0.0
 10
189.2687637768968
 20
119.4426936483406
 30
0.0
 10
189.3751100514791
 20
119.6672693289536
 30
0.0
 10
189.4403093263966
 20
119.7721718448432
 30
0.0
 10
189.5920167304348
 20
119.9660000353336
 30
0.0
 10
189.6798174050747
 20
120.0562323203976
 30
0.0
 10
189.8731553144381
 20
120.2176537841929
 30
0.0
 10
189.9781037004497
 20
120.2887787854522
 30
0.0
 10
190.2048317103957
 20
120.4131655927679
 30
0.0
 10
190.3276034613778
 20
120.4665182234088
 30
0.0
 10
190.5802819336031
 20
120.5511716859459
 30
0.0
 10
190.7112629051038
 20
120.5832352486499
 30
0.0
 10
190.9830512763526
 20
120.6267352463898
 30
0.0
 10
191.1222848866868
 20
120.6376600798205
 30
0.0
 10
191.5354686694852
 20
120.6377944333922
 30
0.0
 10
191.8135444142
 20
120.5939166060815
 30
0.0
 10
192.1936132422312
 20
120.4667512247408
 30
0.0
 10
192.3163814841733
 20
120.4134135154349
 30
0.0
 10
192.5430676500597
 20
120.289138910765
 30
0.0
 10
192.648235758605
 20
120.2179511482903
 30
0.0
 10
192.9393222543352
 20
119.9749160540346
 30
0.0
 10
193.0932527765633
 20
119.7797806105592
 30
0.0
 10
193.252684379313
 20
119.4434342598944
 30
0.0
 10
193.2926855768685
 20
119.3266518392417
 30
0.0
 10
193.346844797798
 20
119.0833044235911
 30
0.0
 10
193.3608677043474
 20
118.9551259975852
 30
0.0
 10
193.3608789281841
 20
118.6985057821983
 30
0.0
 10
193.347337974985
 20
118.5696874237453
 30
0.0
 10
193.2931198883752
 20
118.3111966902367
 30
0.0
 10
193.2522399337689
 20
118.1822530645383
 30
0.0
 10
193.0942718565931
 20
117.8119193665528
 30
0.0
 10
192.9382438992381
 20
117.5789518677126
 30
0.0
 10
192.6494967799129
 20
117.2847930978992
 30
0.0
 10
192.542281945184
 20
117.1941114519853
 30
0.0
 10
192.3154285382341
 20
117.0368074153105
 30
0.0
 10
192.1954110259942
 20
116.9694270605091
 30
0.0
 10
191.94159281854
 20
116.8584555209842
 30
0.0
 10
191.8077257744887
 20
116.8153120422504
 30
0.0
 10
191.5380585325944
 20
116.7582304291463
 30
0.0
 10
191.4007148637941
 20
116.7435328150674
 30
0.0
 10
191.1210317721907
 20
116.7435328150674
 30
0.0
  0
SPLINE
  5
11E
330
1F
100
AcDbEntity
  8
0
  6
HIDDEN
 62
     7
370
     0
100
AcDbSpline
210
0.0
220
0.0
230
1.0
 70
     8
 71
     3
 72
    20
 73
    16
 74
     0
 42
0.00000001
 43
0.00000001
 12
1.0
 22
0.0
 32
0.0
 13
1.0
 23
0.0
 33
0.0
 40
0.0
 40
0.0
 40
0.0
 40
0.0
 40
0.0625000000000002
 40
0.0625000000000002
 40
0.1250000000000004
 40
0.1250000000000004
 40
0.2500000000000002
 40
0.2500000000000002
 40
0.4999999999999999
 40
0.4999999999999999
 40
0.7499999999999996
 40
0.7499999999999996
 40
0.8749999999999999
 40
0.8749999999999999
 40
1.0
 40
1.0
 40
1.0
 40
1.0
 10
192.4829930125973
 20
119.9062671749557
 30
0.0
 10
192.5394789941159
 20
119.9445965543532
 30
0.0
 10
192.5906672890165
 20
119.9916068389453
 30
0.0
 10
192.6824666884276
 20
120.0886536059836
 30
0.0
 10
192.723553350887
 20
120.13885436612
 30
0.0
 10
192.8399672777582
 20
120.2934931441243
 30
0.0
 10
192.9078258255312
 20
120.401530605892
 30
0.0
 10
193.0908619180294
 20
120.7343830817558
 30
0.0
 10
193.1868495017754
 20
120.9703356612181
 30
0.0
 10
193.3243529633224
 20
121.4790269958074
 30
0.0
 10
193.3628622139371
 20
121.7416331560034
 30
0.0
 10
193.3597644840431
 20
122.1502662009137
 30
0.0
 10
193.3482977246099
 20
122.2855718539636
 30
0.0
 10
193.3017092454843
 20
122.5524436100813
 30
0.0
 10
193.2661033711084
 20
122.6853783387778
 30
0.0
 10
193.2172873061744
 20
122.8121531591834
 30
0.0
  0
SPLINE
  5
11F
330
1F
100
AcDbEntity
  8
0
  6
HIDDEN
 62
     7
370
     0
100
AcDbSpline
210
0.0
220
0.0
230
1.0
 70
     8
 71
     3
 72
    56
 73
    52
 74
     0
 42
0.00000001
 43
0.00000001
 12
1.0
 22
0.0
 32
0.0
 13
1.0
 23
0.0
 33
0.0
 40
0.0
 40
0.0
 40
0.0
 40
0.0
 40
0.0625000000000001
 40
0.0625000000000001
 40
0.1250000000000003
 40
0.1250000000000003
 40
0.1875000000000004
 40
0.1875000000000004
 40
0.2500000000000006
 40
0.2500000000000006
 40
0.2812500000000006
 40
0.2812500000000006
 40
0.2968750000000008
 40
0.2968750000000008
 40
0.3125000000000009
 40
0.3125000000000009
 40
0.3281250000000011
 40
0.3281250000000011
 40
0.3437500000000012
 40
0.3437500000000012
 40
0.3750000000000015
 40
0.3750000000000015
 40
0.4375000000000021
 40
0.4375000000000021
 40
0.5000000000000026
 40
0.5000000000000026
 40
0.5312500000000026
 40
0.5312500000000026
 40
0.5625000000000024
 40
0.5625000000000024
 40
0.5937500000000024
 40
0.5937500000000024
 40
0.6250000000000024
 40
0.6250000000000024
 40
0.6875000000000024
 40
0.6875000000000024
 40
0.7187500000000023
 40
0.7187500000000023
 40
0.7500000000000023
 40
0.7500000000000023
 40
0.8125000000000017
 40
0.8125000000000017
 40
0.875000000000001
 40
0.875000000000001
 40
0.9375000000000004
 40
0.9375000000000004
 40
0.96875
 40
0.96875
 40
0.9843750000000001
 40
0.9843750000000001
 40
1.0
 40
1.0
 40
1.0
 40
1.0
 10
192.6909008745413
 20
123.5304259402575
 30
0.0
 10
192.5243711975377
 20
123.6557012470052
 30
0.0
 10
192.3444952047873
 20
123.7353215273492
 30
0.0
 10
191.9690437664968
 20
123.8227207639975
 30
0.0
 10
191.780549727044
 20
123.8285675471506
 30
0.0
 10
191.4102067774971
 20
123.7834128861876
 30
0.0
 10
191.232692244549
 20
123.7331325623684
 30
0.0
 10
190.8922138268288
 20
123.5892272103164
 30
0.0
 10
190.7275433914233
 20
123.4944348693283
 30
0.0
 10
190.5102381787682
 20
123.3286310765955
 30
0.0
 10
190.4417294901524
 20
123.2693797218135
 30
0.0
 10
190.3663362575794
 20
123.1801943504779
 30
0.0
 10
190.346854963116
 20
123.1508180142986
 30
0.0
 10
190.3355496583245
 20
123.1023091354646
 30
0.0
 10
190.3450655217905
 20
123.0847504350379
 30
0.0
 10
190.3818302679737
 20
123.0603784064837
 30
0.0
 10
190.4082204802581
 20
123.0524776335275
 30
0.0
 10
190.4659225971018
 20
123.0390541626496
 30
0.0
 10
190.4976364599727
 20
123.0335708203158
 30
0.0
 10
190.5973277396328
 20
123.0170816472178
 30
0.0
 10
190.6699146847598
 20
123.005994823201
 30
0.0
 10
190.8970934954767
 20
122.964035782831
 30
0.0
 10
191.0586902810977
 20
122.9255148823952
 30
0.0
 10
191.3968737454463
 20
122.8160330247237
 30
0.0
 10
191.5763443422851
 20
122.7443198113415
 30
0.0
 10
191.8489757446057
 20
122.6081016149796
 30
0.0
 10
191.9403711636297
 20
122.5580259719233
 30
0.0
 10
192.124269424431
 20
122.4468093217269
 30
0.0
 10
192.2173884930482
 20
122.3851570665691
 30
0.0
 10
192.3984324793254
 20
122.2528220983696
 30
0.0
 10
192.4869899198983
 20
122.1818438986385
 30
0.0
 10
192.6594129289015
 20
122.0284844857073
 30
0.0
 10
192.7421372954227
 20
121.9468940828371
 30
0.0
 10
192.9694270695103
 20
121.6958981573053
 30
0.0
 10
193.0980608607085
 20
121.5131646388172
 30
0.0
 10
193.2327207664434
 20
121.2497209635058
 30
0.0
 10
193.2689001851745
 20
121.16232182366
 30
0.0
 10
193.3225436659573
 20
120.9960237261194
 30
0.0
 10
193.3406357601478
 20
120.9156972883248
 30
0.0
 10
193.3711012477233
 20
120.6860716158678
 30
0.0
 10
193.3602403231876
 20
120.5518210926723
 30
0.0
 10
193.2923466041475
 20
120.3100858306045
 30
0.0
 10
193.2360589600643
 20
120.2066707463488
 30
0.0
 10
193.0888766095517
 20
120.0266897031635
 30
0.0
 10
192.9974978799269
 20
119.9501176601867
 30
0.0
 10
192.8324173628117
 20
119.8476645287299
 30
0.0
 10
192.7727232856561
 20
119.8157290205547
 30
0.0
 10
192.6708919297754
 20
119.7639783589784
 30
0.0
 10
192.6346590947489
 20
119.7459579053247
 30
0.0
 10
192.5540825724358
 20
119.7034886675477
 30
0.0
 10
192.5096338839696
 20
119.6787564781978
 30
0.0
 10
192.4617055990054
 20
119.648519580217
 30
0.0
  0
SPLINE
  5
120
330
1F
100
AcDbEntity
  8
0
  6
HIDDEN
 62
     7
370
     0
100
AcDbSpline
210
0.0
220
0.0
230
1.0
 70
     8
 71
     3
 72
     8
 73
     4
 74
     0
 42
0.00000001
 43
0.00000001
 12
1.0
 22
0.0
 32
0.0
 13
1.0
 23
0.0
 33
0.0
 40
0.0
 40
0.0
 40
0.0
 40
0.0
 40
1.0
 40
1.0
 40
1.0
 40
1.0
 10
192.4617055983387
 20
119.6485195838593
 30
0.0
 10
192.452292854386
 20
119.7237599297595
 30
0.0
 10
192.4595524125229
 20
119.8094991227106
 30
0.0
 10
192.4829930115164
 20
119.9062671691969
 30
0.0
  0
LWPOLYLINE
  5
121
330
1F
100
AcDbEntity
  8
0
  6
HIDDEN
 62
     7
370
     0
100
AcDbPolyline
 90
       28
 70
   128
 43
0.0
 10
192.6909008745
 20
123.5304259403
 10
192.3279752881
 20
123.7815158396
 10
191.9154324621
 20
123.9546312953
 10
191.4724544775
 20
124.0417229256
 10
191.0196385641
 20
124.0387412148
 10
190.5780393881
 20
123.9458248041
 10
190.1681900689
 20
123.7672940451
 10
189.8091474467
 20
123.5114501158
 10
189.5176059933
 20
123.1901890393
 10
189.3071215661
 20
122.8184485517
 10
189.1874810989
 20
122.4135135399
 10
189.1642475367
 20
121.9942123428
 10
189.2385011749
 20
121.5800412863
 10
189.4067894282
 20
121.1902581594
 10
189.6612873662
 20
120.842986781
 10
189.9901615508
 20
120.5543742931
 10
190.3781202577
 20
120.3378403644
 10
190.8071244984
 20
120.2034532135
 10
191.2572267826
 20
120.1574614648
 10
191.7074986206
 20
120.2020036053
 10
192.1370036384
 20
120.3350085506
 10
192.5257710612
 20
120.5502919451
 10
192.8557242975
 20
120.8378437166
 10
193.1115214501
 20
121.1842935166
 10
193.281268671
 20
121.5735324041
 10
193.357073192
 20
121.9874618659
 10
193.3354103161
 20
122.4068353466
 10
193.2172873062
 20
122.8121531592
  0
ARC
  5
122
330
1F
100
AcDbEntity
  8
0
  6
HIDDEN
 62
     7
370
     0
100
AcDbCircle
 10
191.9700782253
 20
119.8188760265
 30
0.0
 40
0.5203064399769304
100
AcDbArc
 50
340.8880125185
 51
9.6692830342
  0
SPLINE
  5
123
330
1F
100
AcDbEntity
  8
0
  6
HIDDEN
 62
     7
370
     0
100
AcDbSpline
210
0.0
220
0.0
230
1.0
 70
     8
 71
     3
 72
    10
 73
     6
 74
     0
 42
0.00000001
 43
0.00000001
 12
1.0
 22
0.0
 32
0.0
 13
1.0
 23
0.0
 33
0.0
 40
0.0
 40
0.0
 40
0.0
 40
0.0
 40
0.5
 40
0.5
 40
1.0
 40
1.0
 40
1.0
 40
1.0
 10
193.2172873061744
 20
122.8121531591833
 30
0.0
 10
193.1106060736377
 20
122.9275308747377
 30
0.0
 10
193.012442652409
 20
123.0497998197206
 30
0.0
 10
192.8339780986549
 20
123.2934617853275
 30
0.0
 10
192.7551479899457
 20
123.4125222848427
 30
0.0
 10
192.6909008745413
 20
123.5304259402575
 30
0.0
  0
LINE
  5
124
330
1F
100
AcDbEntity
  8
0
  6
HIDDEN
 62
     7
370
     0
100
AcDbLine
 10
177.060873318
 20
102.5006338161
 30
0.0
 11
177.060873318
 21
110.9800009558
 31
0.0
  0
LINE
  5
125
330
1F
100
AcDbEntity
  8
0
  6
HIDDEN
 62
     7
370
     0
100
AcDbLine
 10
177.060873318
 20
121.9908904897
 30
0.0
 11
177.060873318
 21
130.4702576294
 31
0.0
  0
CIRCLE
  5
126
330
1F
100
AcDbEntity
  8
0
  6
HIDDEN
 62
     7
370
     0
100
AcDbCircle
 10
165.760873318
 20
116.4854457227
 30
0.0
 40
2.300000000000011
  0
LINE
  5
127
330
1F
100
AcDbEntity
  8
0
  6
HIDDEN
 62
     7
370
     0
100
AcDbLine
 10
154.28790535
 20
126.0481390268
 30
0.0
 11
154.28790535
 21
106.9227524186
 31
0.0
  0
LINE
  5
128
330
1F
100
AcDbEntity
  8
0
  6
HIDDEN
 62
     7
370
     0
100
AcDbLine
 10
153.260873318
 20
106.3297951984
 30
0.0
 11
153.260873318
 21
126.641096247
 31
0.0
  0
LINE
  5
129
330
1F
100
AcDbEntity
  8
0
  6
HIDDEN
 62
     7
370
     0
100
AcDbLine
 10
157.78790535
 20
125.7163858304
 30
0.0
 11
157.78790535
 21
107.254505615
 31
0.0
  0
LINE
  5
12A
330
1F
100
AcDbEntity
  8
0
  6
HIDDEN
 62
     7
370
     0
100
AcDbLine
 10
161.18790535
 20
125.4854457227
 30
0.0
 11
161.18790535
 21
107.4854457227
 31
0.0
  0
LINE
  5
12B
330
1F
100
AcDbEntity
  8
0
  6
HIDDEN
 62
     7
370
     0
100
AcDbLine
 10
156.38790535
 20
125.4854457227
 30
0.0
 11
156.38790535
 21
107.4854457227
 31
0.0
  0
LINE
  5
12C
330
1F
100
AcDbEntity
  8
0
  6
HIDDEN
 62
     7
370
     0
100
AcDbLine
 10
157.38790535
 20
125.4854457227
 30
0.0
 11
157.38790535
 21
107.4854457227
 31
0.0
  0
SPLINE
  5
12D
330
1F
100
AcDbEntity
  8
0
  6
HIDDEN
 62
     7
370
     0
100
AcDbSpline
210
0.0
220
0.0
230
1.0
 70
     8
 71
     3
 72
    14
 73
    10
 74
     0
 42
0.00000001
 43
0.00000001
 12
1.0
 22
0.0
 32
0.0
 13
1.0
 23
0.0
 33
0.0
 40
0.0
 40
0.0
 40
0.0
 40
0.0
 40
0.25
 40
0.25
 40
0.5
 40
0.5
 40
0.75
 40
0.75
 40
1.0
 40
1.0
 40
1.0
 40
1.0
 10
167.7608733179924
 20
117.6212273918815
 30
0.0
 10
167.8590976644953
 20
117.448263962078
 30
0.0
 10
167.9344125024794
 20
117.2632314076536
 30
0.0
 10
168.0353792126737
 20
116.8802191935191
 30
0.0
 10
168.0607547989639
 20
116.6855006400535
 30
0.0
 10
168.0609910242302
 20
116.2881253387879
 30
0.0
 10
168.0352879548947
 20
116.0906330043125
 30
0.0
 10
167.9349678413782
 20
115.7094611696815
 30
0.0
 10
167.8590760132906
 20
115.5225893577089
 30
0.0
 10
167.7608733179969
 20
115.349664053559
 30
0.0
  0
LINE
  5
12E
330
1F
100
AcDbEntity
  8
0
  6
HIDDEN
 62
     7
370
     0
100
AcDbLine
 10
168.260873318
 20
124.9854457227
 30
0.0
 11
168.260873318
 21
107.9854457227
 31
0.0
  0
SPLINE
  5
12F
330
1F
100
AcDbEntity
  8
0
  6
HIDDEN
 62
     7
370
     0
100
AcDbSpline
210
0.0
220
0.0
230
1.0
 70
     8
 71
     3
 72
    14
 73
    10
 74
     0
 42
0.00000001
 43
0.00000001
 12
1.0
 22
0.0
 32
0.0
 13
1.0
 23
0.0
 33
0.0
 40
0.0
 40
0.0
 40
0.0
 40
0.0
 40
0.25
 40
0.25
 40
0.5
 40
0.5
 40
0.75
 40
0.75
 40
1.0
 40
1.0
 40
1.0
 40
1.0
 10
167.7608733179924
 20
115.3496640535614
 30
0.0
 10
167.8590976644953
 20
115.5226274833649
 30
0.0
 10
167.9344125024794
 20
115.7076600377893
 30
0.0
 10
168.0353792126737
 20
116.0906722519238
 30
0.0
 10
168.0607547989639
 20
116.2853908053894
 30
0.0
 10
168.0609910242302
 20
116.682766106655
 30
0.0
 10
168.0352879548947
 20
116.8802584411304
 30
0.0
 10
167.9349678413782
 20
117.2614302757614
 30
0.0
 10
167.8590760132906
 20
117.448302087734
 30
0.0
 10
167.7608733179969
 20
117.6212273918839
 30
0.0
  0
SPLINE
  5
130
330
1F
100
AcDbEntity
  8
0
  6
HIDDEN
 62
     7
370
     0
100
AcDbSpline
210
0.0
220
0.0
230
1.0
 70
     8
 71
     3
 72
    60
 73
    56
 74
     0
 42
0.00000001
 43
0.00000001
 12
1.0
 22
0.0
 32
0.0
 13
1.0
 23
0.0
 33
0.0
 40
0.0
 40
0.0
 40
0.0
 40
0.0
 40
0.0625000000000005
 40
0.0625000000000005
 40
0.1250000000000009
 40
0.1250000000000009
 40
0.1875000000000014
 40
0.1875000000000014
 40
0.2187500000000016
 40
0.2187500000000016
 40
0.2500000000000018
 40
0.2500000000000018
 40
0.3125000000000019
 40
0.3125000000000019
 40
0.375000000000002
 40
0.375000000000002
 40
0.4062500000000019
 40
0.4062500000000019
 40
0.4375000000000018
 40
0.4375000000000018
 40
0.4687500000000018
 40
0.4687500000000018
 40
0.5000000000000017
 40
0.5000000000000017
 40
0.5312500000000017
 40
0.5312500000000017
 40
0.5625000000000016
 40
0.5625000000000016
 40
0.5937500000000014
 40
0.5937500000000014
 40
0.6250000000000013
 40
0.6250000000000013
 40
0.6562500000000012
 40
0.6562500000000012
 40
0.6875000000000011
 40
0.6875000000000011
 40
0.718750000000001
 40
0.718750000000001
 40
0.7500000000000009
 40
0.7500000000000009
 40
0.7812500000000009
 40
0.7812500000000009
 40
0.8125000000000008
 40
0.8125000000000008
 40
0.8437500000000007
 40
0.8437500000000007
 40
0.8750000000000006
 40
0.8750000000000006
 40
0.9062500000000004
 40
0.9062500000000004
 40
0.9375000000000003
 40
0.9375000000000003
 40
0.9687500000000002
 40
0.9687500000000002
 40
1.0
 40
1.0
 40
1.0
 40
1.0
 10
167.7608733179924
 20
115.3496640535614
 30
0.0
 10
167.6356834164137
 20
115.1292169289458
 30
0.0
 10
167.4788160978455
 20
114.9354832001255
 30
0.0
 10
167.1017785780267
 20
114.599793501363
 30
0.0
 10
166.8900652716057
 20
114.4658161430503
 30
0.0
 10
166.4241752896569
 20
114.2686893983652
 30
0.0
 10
166.1783360586053
 20
114.2094719861433
 30
0.0
 10
165.7988550055108
 20
114.1822652502526
 30
0.0
 10
165.6711092768168
 20
114.1837585153945
 30
0.0
 10
165.4206430301487
 20
114.2072743212034
 30
0.0
 10
165.2968136473405
 20
114.2291935400077
 30
0.0
 10
164.9295939732419
 20
114.3260301048525
 30
0.0
 10
164.6988249551561
 20
114.4298312263043
 30
0.0
 10
164.2789359937366
 20
114.7085497072324
 30
0.0
 10
164.0946776188491
 20
114.8801119987361
 30
0.0
 10
163.8639292313657
 20
115.1787593600029
 30
0.0
 10
163.7948823815767
 20
115.2852269005052
 30
0.0
 10
163.6763177177712
 20
115.5055102488981
 30
0.0
 10
163.6261093490216
 20
115.6201717652995
 30
0.0
 10
163.5442774966638
 20
115.8588524020763
 30
0.0
 10
163.5129265977811
 20
115.9828980289544
 30
0.0
 10
163.4715322197425
 20
116.2310130650628
 30
0.0
 10
163.4610264446783
 20
116.3562507675512
 30
0.0
 10
163.4607234923425
 20
116.6091298231423
 30
0.0
 10
163.4712080219591
 20
116.7370095093789
 30
0.0
 10
163.5123480994205
 20
116.9854315705843
 30
0.0
 10
163.5429262199691
 20
117.1072304973527
 30
0.0
 10
163.6242089283204
 20
117.346010026827
 30
0.0
 10
163.6752098148823
 20
117.4630515891337
 30
0.0
 10
163.7937768632453
 20
117.6838767870596
 30
0.0
 10
163.8616656165171
 20
117.7888151506224
 30
0.0
 10
164.0148160542547
 20
117.9877924838518
 30
0.0
 10
164.1003722258272
 20
118.0818006090459
 30
0.0
 10
164.2830835967864
 20
118.2522932939827
 30
0.0
 10
164.3808908964683
 20
118.329731489032
 30
0.0
 10
164.5896940083853
 20
118.4688973849203
 30
0.0
 10
164.7012761836732
 20
118.5306791939273
 30
0.0
 10
164.9299219831722
 20
118.6337580645281
 30
0.0
 10
165.0478767941433
 20
118.6757620997237
 30
0.0
 10
165.291205239132
 20
118.7404982210205
 30
0.0
 10
165.4175491144751
 20
118.7631714835832
 30
0.0
 10
165.668655095493
 20
118.7870542797643
 30
0.0
 10
165.7943370892159
 20
118.788657581031
 30
0.0
 10
166.0459591590077
 20
118.7711908422601
 30
0.0
 10
166.1728567792935
 20
118.7517549516202
 30
0.0
 10
166.4180473455546
 20
118.6931617802965
 30
0.0
 10
166.5372365025881
 20
118.6540989291399
 30
0.0
 10
166.768921526943
 20
118.5565892070161
 30
0.0
 10
166.8820963312935
 20
118.4975538527275
 30
0.0
 10
167.0941747482292
 20
118.363750135888
 30
0.0
 10
167.19396352693
 20
118.2887549197433
 30
0.0
 10
167.381221713919
 20
118.1225598552224
 30
0.0
 10
167.4691167508623
 20
118.0306656564809
 30
0.0
 10
167.6273378264942
 20
117.8353014587666
 30
0.0
 10
167.6982757827859
 20
117.7314555050941
 30
0.0
 10
167.7608733179924
 20
117.6212273918815
 30
0.0
  0
SPLINE
  5
131
330
1F
100
AcDbEntity
  8
0
  6
HIDDEN
 62
     7
370
     0
100
AcDbSpline
210
0.0
220
0.0
230
1.0
 70
     8
 71
     3
 72
    60
 73
    56
 74
     0
 42
0.00000001
 43
0.00000001
 12
1.0
 22
0.0
 32
0.0
 13
1.0
 23
0.0
 33
0.0
 40
0.0
 40
0.0
 40
0.0
 40
0.0
 40
0.0625000000000005
 40
0.0625000000000005
 40
0.1250000000000009
 40
0.1250000000000009
 40
0.1875000000000014
 40
0.1875000000000014
 40
0.2187500000000016
 40
0.2187500000000016
 40
0.2500000000000018
 40
0.2500000000000018
 40
0.3125000000000019
 40
0.3125000000000019
 40
0.375000000000002
 40
0.375000000000002
 40
0.4062500000000019
 40
0.4062500000000019
 40
0.4375000000000018
 40
0.4375000000000018
 40
0.4687500000000018
 40
0.4687500000000018
 40
0.5000000000000017
 40
0.5000000000000017
 40
0.5312500000000017
 40
0.5312500000000017
 40
0.5625000000000016
 40
0.5625000000000016
 40
0.5937500000000014
 40
0.5937500000000014
 40
0.6250000000000013
 40
0.6250000000000013
 40
0.6562500000000012
 40
0.6562500000000012
 40
0.6875000000000011
 40
0.6875000000000011
 40
0.718750000000001
 40
0.718750000000001
 40
0.7500000000000009
 40
0.7500000000000009
 40
0.7812500000000009
 40
0.7812500000000009
 40
0.8125000000000008
 40
0.8125000000000008
 40
0.8437500000000007
 40
0.8437500000000007
 40
0.8750000000000006
 40
0.8750000000000006
 40
0.9062500000000004
 40
0.9062500000000004
 40
0.9375000000000003
 40
0.9375000000000003
 40
0.9687500000000002
 40
0.9687500000000002
 40
1.0
 40
1.0
 40
1.0
 40
1.0
 10
167.7608733179924
 20
117.6212273918815
 30
0.0
 10
167.6356834164137
 20
117.8416745164971
 30
0.0
 10
167.4788160978455
 20
118.0354082453174
 30
0.0
 10
167.1017785780267
 20
118.3710979440798
 30
0.0
 10
166.8900652716057
 20
118.5050753023926
 30
0.0
 10
166.4241752896569
 20
118.7022020470777
 30
0.0
 10
166.1783360586053
 20
118.7614194592996
 30
0.0
 10
165.7988550055108
 20
118.7886261951902
 30
0.0
 10
165.6711092768168
 20
118.7871329300484
 30
0.0
 10
165.4206430301487
 20
118.7636171242395
 30
0.0
 10
165.2968136473405
 20
118.7416979054352
 30
0.0
 10
164.9295939732419
 20
118.6448613405903
 30
0.0
 10
164.6988249551561
 20
118.5410602191385
 30
0.0
 10
164.2789359937366
 20
118.2623417382105
 30
0.0
 10
164.0946776188491
 20
118.0907794467068
 30
0.0
 10
163.8639292313657
 20
117.79213208544
 30
0.0
 10
163.7948823815767
 20
117.6856645449377
 30
0.0
 10
163.6763177177712
 20
117.4653811965447
 30
0.0
 10
163.6261093490216
 20
117.3507196801433
 30
0.0
 10
163.5442774966638
 20
117.1120390433666
 30
0.0
 10
163.5129265977811
 20
116.9879934164885
 30
0.0
 10
163.4715322197425
 20
116.7398783803801
 30
0.0
 10
163.4610264446783
 20
116.6146406778917
 30
0.0
 10
163.4607234923425
 20
116.3617616223006
 30
0.0
 10
163.4712080219591
 20
116.233881936064
 30
0.0
 10
163.5123480994205
 20
115.9854598748585
 30
0.0
 10
163.5429262199691
 20
115.8636609480902
 30
0.0
 10
163.6242089283204
 20
115.6248814186158
 30
0.0
 10
163.6752098148823
 20
115.5078398563092
 30
0.0
 10
163.7937768632453
 20
115.2870146583833
 30
0.0
 10
163.8616656165171
 20
115.1820762948205
 30
0.0
 10
164.0148160542547
 20
114.9830989615911
 30
0.0
 10
164.1003722258272
 20
114.8890908363969
 30
0.0
 10
164.2830835967864
 20
114.7185981514602
 30
0.0
 10
164.3808908964683
 20
114.6411599564109
 30
0.0
 10
164.5896940083853
 20
114.5019940605226
 30
0.0
 10
164.7012761836732
 20
114.4402122515156
 30
0.0
 10
164.9299219831722
 20
114.3371333809148
 30
0.0
 10
165.0478767941433
 20
114.2951293457191
 30
0.0
 10
165.291205239132
 20
114.2303932244224
 30
0.0
 10
165.4175491144751
 20
114.2077199618597
 30
0.0
 10
165.668655095493
 20
114.1838371656785
 30
0.0
 10
165.7943370892159
 20
114.1822338644119
 30
0.0
 10
166.0459591590077
 20
114.1997006031827
 30
0.0
 10
166.1728567792935
 20
114.2191364938227
 30
0.0
 10
166.4180473455546
 20
114.2777296651464
 30
0.0
 10
166.5372365025881
 20
114.316792516303
 30
0.0
 10
166.768921526943
 20
114.4143022384268
 30
0.0
 10
166.8820963312935
 20
114.4733375927154
 30
0.0
 10
167.0941747482292
 20
114.6071413095548
 30
0.0
 10
167.19396352693
 20
114.6821365256996
 30
0.0
 10
167.381221713919
 20
114.8483315902204
 30
0.0
 10
167.4691167508623
 20
114.9402257889619
 30
0.0
 10
167.6273378264942
 20
115.1355899866763
 30
0.0
 10
167.6982757827859
 20
115.2394359403488
 30
0.0
 10
167.7608733179924
 20
115.3496640535614
 30
0.0
  0
SPLINE
  5
132
330
1F
100
AcDbEntity
  8
0
  6
HIDDEN
 62
     7
370
     0
100
AcDbSpline
210
0.0
220
0.0
230
1.0
 70
     8
 71
     3
 72
    10
 73
     6
 74
     0
 42
0.00000001
 43
0.00000001
 12
1.0
 22
0.0
 32
0.0
 13
1.0
 23
0.0
 33
0.0
 40
0.0
 40
0.0
 40
0.0
 40
0.0
 40
0.5
 40
0.5
 40
1.0
 40
1.0
 40
1.0
 40
1.0
 10
200.4594721563025
 20
119.6392668025865
 30
0.0
 10
200.438061449215
 20
119.1137640605793
 30
0.0
 10
200.411559932409
 20
118.5884047240105
 30
0.0
 10
200.3721144634321
 20
117.5373041413913
 30
0.0
 10
200.359571733798
 20
117.0115515931125
 30
0.0
 10
200.359571733798
 20
116.4854457227214
 30
0.0
  0
LINE
  5
133
330
1F
100
AcDbEntity
  8
0
  6
HIDDEN
 62
     7
370
     0
100
AcDbLine
 10
200.3595717338
 20
95.9854457227
 30
0.0
 11
200.3595717338
 21
116.4854457227
 31
0.0
  0
ELLIPSE
  5
134
330
1F
100
AcDbEntity
  8
0
  6
HIDDEN
 62
     7
370
     0
100
AcDbEllipse
 10
222.1399269547
 20
116.4854457227
 30
0.0
 11
14.58718609352482
 21
20.49781058791308
 31
0.0
210
0.0
220
0.0
230
1.0
 40
0.0205386817
 41
1.58541155794709
 42
3.156207884742658
  0
LINE
  5
135
330
1F
100
AcDbEntity
  8
0
  6
HIDDEN
 62
     7
370
     0
100
AcDbLine
 10
169.160873318
 20
122.7354457227
 30
0.0
 11
169.160873318
 21
110.2354457227
 31
0.0
  0
LINE
  5
136
330
1F
100
AcDbEntity
  8
0
  6
HIDDEN
 62
     7
370
     0
100
AcDbLine
 10
168.260873318
 20
109.3354457227
 30
0.0
 11
168.260873318
 21
123.6228884048
 31
0.0
  0
SPLINE
  5
137
330
1F
100
AcDbEntity
  8
0
  6
HIDDEN
 62
     7
370
     0
100
AcDbSpline
210
0.0
220
0.0
230
1.0
 70
     8
 71
     3
 72
    62
 73
    58
 74
     0
 42
0.00000001
 43
0.00000001
 12
1.0
 22
0.0
 32
0.0
 13
1.0
 23
0.0
 33
0.0
 40
-0.03125
 40
-0.03125
 40
0.0
 40
0.0
 40
0.0312499999999999
 40
0.0312499999999999
 40
0.0624999999999998
 40
0.0624999999999998
 40
0.0937499999999997
 40
0.0937499999999997
 40
0.1249999999999996
 40
0.1249999999999996
 40
0.1874999999999994
 40
0.1874999999999994
 40
0.2187499999999994
 40
0.2187499999999994
 40
0.2499999999999994
 40
0.2499999999999994
 40
0.2812499999999994
 40
0.2812499999999994
 40
0.3124999999999994
 40
0.3124999999999994
 40
0.3437499999999994
 40
0.3437499999999994
 40
0.3749999999999994
 40
0.3749999999999994
 40
0.4062499999999994
 40
0.4062499999999994
 40
0.4374999999999994
 40
0.4374999999999994
 40
0.4687499999999994
 40
0.4687499999999994
 40
0.4999999999999994
 40
0.4999999999999994
 40
0.5624999999999998
 40
0.5624999999999998
 40
0.5937499999999998
 40
0.5937499999999998
 40
0.6249999999999998
 40
0.6249999999999998
 40
0.6874999999999998
 40
0.6874999999999998
 40
0.7187499999999999
 40
0.7187499999999999
 40
0.75
 40
0.75
 40
0.7812500000000002
 40
0.7812500000000002
 40
0.8125000000000003
 40
0.8125000000000003
 40
0.8750000000000003
 40
0.8750000000000003
 40
0.9062500000000002
 40
0.9062500000000002
 40
0.9375000000000001
 40
0.9375000000000001
 40
0.96875
 40
0.96875
 40
1.0
 40
1.0
 40
1.03125
 40
1.03125
 10
191.1210317721906
 20
112.333186441195
 30
0.0
 10
191.400714863794
 20
112.333186441195
 30
0.0
 10
191.5379988207516
 20
112.344139478642
 30
0.0
 10
191.807734575603
 20
112.3871226333924
 30
0.0
 10
191.9416165946985
 20
112.4197273108069
 30
0.0
 10
192.1953631530965
 20
112.5048255158783
 30
0.0
 10
192.3155488148392
 20
112.5570573877569
 30
0.0
 10
192.543011406353
 20
112.6816858944345
 30
0.0
 10
192.6498266118146
 20
112.7541951875938
 30
0.0
 10
192.9380712091393
 20
112.9950783051352
 30
0.0
 10
193.0941919080405
 20
113.1932584574402
 30
0.0
 10
193.2519073688827
 20
113.5257350138238
 30
0.0
 10
193.2928165979903
 20
113.6444514624257
 30
0.0
 10
193.3471935030126
 20
113.889533999448
 30
0.0
 10
193.3607809709021
 20
114.0147986325238
 30
0.0
 10
193.3609647358898
 20
114.2709201625936
 30
0.0
 10
193.3470786996836
 20
114.402746500883
 30
0.0
 10
193.2929916151329
 20
114.6599977510168
 30
0.0
 10
193.252982859088
 20
114.7868023649455
 30
0.0
 10
193.1466365845056
 20
115.0363043527457
 30
0.0
 10
193.0814373095882
 20
115.15604181603
 30
0.0
 10
192.92972990555
 20
115.3821686971633
 30
0.0
 10
192.84192923091
 20
115.4901205084703
 30
0.0
 10
192.6485913215467
 20
115.6869593189868
 30
0.0
 10
192.543642935535
 20
115.7757014770537
 30
0.0
 10
192.316914925589
 20
115.933186444391
 30
0.0
 10
192.194143174607
 20
116.0020734939764
 30
0.0
 10
191.9414647023816
 20
116.112436841058
 30
0.0
 10
191.8104837308809
 20
116.1548722317826
 30
0.0
 10
191.5386953596321
 20
116.2126480679988
 30
0.0
 10
191.3994617492979
 20
116.2272985749537
 30
0.0
 10
190.9862779664996
 20
116.2274781801457
 30
0.0
 10
190.7082022217848
 20
116.1681699190356
 30
0.0
 10
190.3281333937535
 20
116.0023741714466
 30
0.0
 10
190.2053651518114
 20
115.9335046751825
 30
0.0
 10
189.9786789859251
 20
115.7761531112667
 30
0.0
 10
189.8735108773797
 20
115.6873218668171
 30
0.0
 10
189.5824243816495
 20
115.3909628302901
 30
0.0
 10
189.4284938594215
 20
115.1613250422047
 30
0.0
 10
189.2690622566717
 20
114.7876144929185
 30
0.0
 10
189.2290610591162
 20
114.6610258868768
 30
0.0
 10
189.1749018381868
 20
114.4042822036526
 30
0.0
 10
189.1608789316374
 20
114.2725449930408
 30
0.0
 10
189.1608677078007
 20
114.0159219522143
 30
0.0
 10
189.1744086609997
 20
113.8905418594064
 30
0.0
 10
189.2286267476096
 20
113.6454646451931
 30
0.0
 10
189.2695067022159
 20
113.5265372079775
 30
0.0
 10
189.4274747793917
 20
113.1932254661364
 30
0.0
 10
189.5835027367466
 20
112.9951854252626
 30
0.0
 10
189.8722498560718
 20
112.7539381715459
 30
0.0
 10
189.9794646908008
 20
112.68125209645
 30
0.0
 10
190.2063180977507
 20
112.5570257359257
 30
0.0
 10
190.3263356099905
 20
112.5048423345724
 30
0.0
 10
190.5801538174447
 20
112.4197185734347
 30
0.0
 10
190.7140208614961
 20
112.3871226215111
 30
0.0
 10
190.9836881033903
 20
112.3441476035542
 30
0.0
 10
191.1210317721906
 20
112.333186441195
 30
0.0
 10
191.400714863794
 20
112.333186441195
 30
0.0
  0
LINE
  5
138
330
1F
100
AcDbEntity
  8
0
  6
HIDDEN
 62
     7
370
     0
100
AcDbLine
 10
194.260873318
 20
122.7354457227
 30
0.0
 11
194.260873318
 21
110.2354457227
 31
0.0
  0
CIRCLE
  5
139
330
1F
100
AcDbEntity
  8
0
  6
HIDDEN
 62
     7
370
     0
100
AcDbCircle
 10
215.8693984222
 20
124.6468300365
 30
0.0
 40
3.477935630307691
  0
SPLINE
  5
13A
330
1F
100
AcDbEntity
  8
0
  6
HIDDEN
 62
     7
370
     0
100
AcDbSpline
210
0.0
220
0.0
230
1.0
 70
     8
 71
     3
 72
     8
 73
     4
 74
     0
 42
0.00000001
 43
0.00000001
 12
1.0
 22
0.0
 32
0.0
 13
1.0
 23
0.0
 33
0.0
 40
0.0
 40
0.0
 40
0.0
 40
0.0
 40
1.0
 40
1.0
 40
1.0
 40
1.0
 10
201.4068269488481
 20
129.4897119019295
 30
0.0
 10
200.9385878562827
 20
126.2274408602476
 30
0.0
 10
200.5942778685293
 20
122.9479277974815
 30
0.0
 10
200.4594721563025
 20
119.6392668025865
 30
0.0
  0
SPLINE
  5
13B
330
1F
100
AcDbEntity
  8
0
  6
HIDDEN
 62
     7
370
     0
100
AcDbSpline
210
0.0
220
0.0
230
1.0
 70
     8
 71
     3
 72
    19
 73
    15
 74
     0
 42
0.00000001
 43
0.00000001
 12
1.0
 22
0.0
 32
0.0
 13
1.0
 23
0.0
 33
0.0
 40
0.0
 40
0.0
 40
0.0
 40
0.0
 40
0.0863161916231285
 40
0.1732308254879455
 40
0.2620363032565046
 40
0.3514967228618247
 40
0.4377706853141527
 40
0.5246471915482573
 40
0.6134276962291061
 40
0.7028675730887047
 40
0.7888065481638022
 40
0.8753445757509473
 40
0.9637734579361917
 40
1.0
 40
1.0
 40
1.0
 40
1.0
 10
201.4068269488481
 20
129.4897119019295
 30
0.0
 10
201.3991509497747
 20
130.0486503203477
 30
0.0
 10
201.3837457328516
 20
131.1704023554961
 30
0.0
 10
201.3625380282558
 20
132.7294066963738
 30
0.0
 10
201.3428091395373
 20
134.1889454445169
 30
0.0
 10
201.3251375493146
 20
135.5052944571168
 30
0.0
 10
201.3096190398768
 20
136.6681238157298
 30
0.0
 10
201.2962174656276
 20
137.6776861968696
 30
0.0
 10
201.2848473436674
 20
138.5382407662036
 30
0.0
 10
201.2758062571738
 20
139.2252360653721
 30
0.0
 10
201.2690701754768
 20
139.7386530516173
 30
0.0
 10
201.2647535606754
 20
140.0683611523353
 30
0.0
 10
201.262685783675
 20
140.2265121943827
 30
0.0
 10
201.2629330372639
 20
140.2076020023773
 30
0.0
 10
201.2630048924807
 20
140.2021064463656
 30
0.0
  0
CIRCLE
  5
13C
330
1F
100
AcDbEntity
  8
0
  6
HIDDEN
 62
     7
370
     0
100
AcDbCircle
 10
215.4429852635
 20
124.2227528137
 30
0.0
 40
3.477935630307803
  0
ELLIPSE
  5
13D
330
1F
100
AcDbEntity
  8
0
  6
HIDDEN
 62
     7
370
     0
100
AcDbEllipse
 10
212.3016091266
 20
116.2468931727
 30
0.0
 11
2.547289797953396
 21
25.40076590679334
 31
0.0
210
0.0
220
0.0
230
1.0
 40
0.0928940858
 41
0.1588459723839989
 42
0.2761063180432751
  0
ELLIPSE
  5
13E
330
1F
100
AcDbEntity
  8
0
  6
HIDDEN
 62
     7
370
     0
100
AcDbEllipse
 10
207.0638445415
 20
115.6963819315
 30
0.0
 11
215.3493833991933
 21
20.26302228663777
 31
0.0
210
0.0
220
0.0
230
1.0
 40
0.1150714178
 41
1.525695823943023
 42
1.52803533258012
  0
ELLIPSE
  5
13F
330
1F
100
AcDbEntity
  8
0
  6
HIDDEN
 62
     7
370
     0
100
AcDbEllipse
 10
211.7916564639
 20
116.1932949881
 30
0.0
 11
2.547289797953425
 21
25.40076590679334
 31
0.0
210
0.0
220
0.0
230
1.0
 40
0.0928940858
 41
0.0192802045293827
 42
0.1565064637469021
  0
LINE
  5
140
330
1F
100
AcDbEntity
  8
0
  6
HIDDEN
 62
     7
370
     0
100
AcDbLine
 10
222.7055149787
 20
131.7282942195
 30
0.0
 11
201.4068269488
 21
129.4897119019
 31
0.0
  0
SPLINE
  5
141
330
1F
100
AcDbEntity
  8
0
  6
HIDDEN
 62
     7
370
     0
100
AcDbSpline
210
0.0
220
0.0
230
1.0
 70
     8
 71
     3
 72
    23
 73
    19
 74
     0
 42
0.00000001
 43
0.00000001
 12
1.0
 22
0.0
 32
0.0
 13
1.0
 23
0.0
 33
0.0
 40
0.0
 40
0.0
 40
0.0
 40
0.0
 40
0.0307245334013226
 40
0.0616751728795012
 40
0.0928522272713669
 40
0.1242559987298737
 40
0.1859740291152123
 40
0.2487508106112095
 40
0.3104928494045376
 40
0.3734836779620531
 40
0.4984155905669727
 40
0.6235527185467342
 40
0.6851084392464655
 40
0.7488954841080484
 40
0.8101996867713714
 40
0.8743890442507166
 40
0.9351764699044132
 40
1.0
 40
1.0
 40
1.0
 40
1.0
 10
224.8463013404771
 20
141.5241412676949
 30
0.0
 10
224.8261227473826
 20
141.4697741212847
 30
0.0
 10
224.7856170641453
 20
141.3606397331392
 30
0.0
 10
224.7238712703599
 20
141.1838713294327
 30
0.0
 10
224.6611400021928
 20
140.9966460399555
 30
0.0
 10
224.5770182664269
 20
140.7344883738683
 30
0.0
 10
224.4701888882315
 20
140.3815348690983
 30
0.0
 10
224.3406981732765
 20
139.9220163252172
 30
0.0
 10
224.208639086165
 20
139.4221173363463
 30
0.0
 10
224.0308878539994
 20
138.7081078789608
 30
0.0
 10
223.8048232946383
 20
137.7234324297227
 30
0.0
 10
223.5771846227426
 20
136.6321834457218
 30
0.0
 10
223.393577891473
 20
135.6932918109041
 30
0.0
 10
223.2566442098494
 20
134.9637219928274
 30
0.0
 10
223.1178615939269
 20
134.1950372922942
 30
0.0
 10
222.9816291711087
 20
133.4106929351507
 30
0.0
 10
222.8432771521832
 20
132.5868343756702
 30
0.0
 10
222.7524102185937
 20
132.0205397706449
 30
0.0
 10
222.7055168933333
 20
131.728294439393
 30
0.0
  0
ELLIPSE
  5
142
330
1F
100
AcDbEntity
  8
0
  6
HIDDEN
 62
     7
370
     0
100
AcDbEllipse
 10
181.5993035172
 20
113.0199508208
 30
0.0
 11
215.3493833991935
 21
20.26302228663781
 31
0.0
210
0.0
220
0.0
230
1.0
 40
0.1150714178
 41
1.357783831656692
 42
1.408435478283744
  0
ARC
  5
143
330
1F
100
AcDbEntity
  8
0
  6
HIDDEN
 62
     7
370
     0
100
AcDbCircle
 10
212.2198011952
 20
131.5644955308
 30
0.0
 40
2.349420408457698
100
AcDbArc
 50
126.8283778927
 51
274.5990531588
  0
LINE
  5
144
330
1F
100
AcDbEntity
  8
0
  6
HIDDEN
 62
     7
370
     0
100
AcDbLine
 10
225.1455033275
 20
130.6480819228
 30
0.0
 11
224.6542195501
 21
130.1594894494
 31
0.0
  0
LINE
  5
145
330
1F
100
AcDbEntity
  8
0
  6
HIDDEN
 62
     7
370
     0
100
AcDbLine
 10
224.1419302464
 20
119.1882147558
 30
0.0
 11
221.7027574468
 21
116.762404
 31
0.0
  0
LINE
  5
146
330
1F
100
AcDbEntity
  8
0
  6
HIDDEN
 62
     7
370
     0
100
AcDbLine
 10
213.3205009718
 20
133.9845419398
 30
0.0
 11
213.8004551444
 21
134.021259528
 31
0.0
  0
LINE
  5
147
330
1F
100
AcDbEntity
  8
0
  6
HIDDEN
 62
     7
370
     0
100
AcDbLine
 10
213.4931414624
 20
133.7156293425
 30
0.0
 11
213.8004551444
 21
134.021259528
 31
0.0
  0
LINE
  5
148
330
1F
100
AcDbEntity
  8
0
  6
HIDDEN
 62
     7
370
     0
100
AcDbLine
 10
213.295628289
 20
133.7005191345
 30
0.0
 11
213.4931414624
 21
133.7156293425
 31
0.0
  0
ELLIPSE
  5
149
330
1F
100
AcDbEntity
  8
0
  6
HIDDEN
 62
     7
370
     0
100
AcDbEllipse
 10
217.9222204159
 20
130.9832074662
 30
0.0
 11
0.9406553105117155
 21
2.766158975077389
 31
0.0
210
0.0
220
0.0
230
1.0
 40
0.8539059128
 41
2.218014007038814
 42
2.406555537065122
  0
ELLIPSE
  5
14A
330
1F
100
AcDbEntity
  8
0
  6
HIDDEN
 62
     7
370
     0
100
AcDbEllipse
 10
217.4513676387
 20
129.9651172406
 30
0.0
 11
2.96839275769608
 21
0.4881156426729377
 31
0.0
210
0.0
220
0.0
230
1.0
 40
0.1367129703
 41
2.278614760664452
 42
2.86656697873115
  0
ELLIPSE
  5
14B
330
1F
100
AcDbEntity
  8
0
  6
HIDDEN
 62
     7
370
     0
100
AcDbEllipse
 10
216.9900181534
 20
128.9675752819
 30
0.0
 11
0.9406553105117155
 21
2.766158975077417
 31
0.0
210
0.0
220
0.0
230
1.0
 40
0.8539059128
 41
1.544372593543376
 42
1.63006178897211
  0
SPLINE
  5
14C
330
1F
100
AcDbEntity
  8
0
  6
HIDDEN
 62
     7
370
     0
100
AcDbSpline
210
0.0
220
0.0
230
1.0
 70
     8
 71
     3
 72
    22
 73
    18
 74
     0
 42
0.00000001
 43
0.00000001
 12
1.0
 22
0.0
 32
0.0
 13
1.0
 23
0.0
 33
0.0
 40
0.0
 40
0.0
 40
0.0
 40
0.0
 40
0.0625000000000007
 40
0.0625000000000007
 40
0.1250000000000013
 40
0.1250000000000013
 40
0.1875000000000019
 40
0.1875000000000019
 40
0.2500000000000026
 40
0.2500000000000026
 40
0.3750000000000022
 40
0.3750000000000022
 40
0.5000000000000018
 40
0.5000000000000018
 40
0.7500000000000009
 40
0.7500000000000009
 40
1.0
 40
1.0
 40
1.0
 40
1.0
 10
216.6175126268411
 20
128.1238626353442
 30
0.0
 10
216.4804322127464
 20
128.1621404081134
 30
0.0
 10
216.3518705783399
 20
128.186740199508
 30
0.0
 10
216.1052181786271
 20
128.2195740913989
 30
0.0
 10
215.9925987325507
 20
128.2270384847998
 30
0.0
 10
215.7805486063881
 20
128.23196528024
 30
0.0
 10
215.6806628057182
 20
128.2292205094803
 30
0.0
 10
215.4942215274325
 20
128.2173765423222
 30
0.0
 10
215.4071018755827
 20
128.2082782652058
 30
0.0
 10
215.158722499063
 20
128.1747726211713
 30
0.0
 10
215.010210650949
 20
128.1442780408605
 30
0.0
 10
214.7353562220752
 20
128.0752830579359
 30
0.0
 10
214.6093016052149
 20
128.036579369079
 30
0.0
 10
214.2636974185812
 20
127.9165384597576
 30
0.0
 10
214.072876050681
 20
127.8306313697859
 30
0.0
 10
213.7641056192093
 20
127.6691011668371
 30
0.0
 10
213.6448241883733
 20
127.5928780724727
 30
0.0
 10
213.5853834439633
 20
127.53376295068
 30
0.0
  0
SPLINE
  5
14D
330
1F
100
AcDbEntity
  8
0
  6
HIDDEN
 62
     7
370
     0
100
AcDbSpline
210
0.0
220
0.0
230
1.0
 70
     8
 71
     3
 72
     8
 73
     4
 74
     0
 42
0.00000001
 43
0.00000001
 12
1.0
 22
0.0
 32
0.0
 13
1.0
 23
0.0
 33
0.0
 40
0.0
 40
0.0
 40
0.0
 40
0.0
 40
1.0
 40
1.0
 40
1.0
 40
1.0
 10
217.0394067440043
 20
127.9656706438239
 30
0.0
 10
216.8970096256041
 20
128.0105501157861
 30
0.0
 10
216.7563693118806
 20
128.0632410229782
 30
0.0
 10
216.6175126268411
 20
128.1238626353442
 30
0.0
  0
SPLINE
  5
14E
330
1F
100
AcDbEntity
  8
0
  6
HIDDEN
 62
     7
370
     0
100
AcDbSpline
210
0.0
220
0.0
230
1.0
 70
     8
 71
     3
 72
    22
 73
    18
 74
     0
 42
0.00000001
 43
0.00000001
 12
1.0
 22
0.0
 32
0.0
 13
1.0
 23
0.0
 33
0.0
 40
0.0
 40
0.0
 40
0.0
 40
0.0
 40
0.1249999999999999
 40
0.1249999999999999
 40
0.2499999999999998
 40
0.2499999999999998
 40
0.4999999999999994
 40
0.4999999999999994
 40
0.6249999999999993
 40
0.6249999999999993
 40
0.7499999999999993
 40
0.7499999999999993
 40
0.8749999999999994
 40
0.8749999999999994
 40
0.9374999999999997
 40
0.9374999999999997
 40
1.0
 40
1.0
 40
1.0
 40
1.0
 10
218.2581078754043
 20
125.7816939988666
 30
0.0
 10
218.2874461657114
 20
125.8108715709497
 30
0.0
 10
218.3078840743749
 20
125.8536432161644
 30
0.0
 10
218.3346960854647
 20
125.9591585498941
 30
0.0
 10
218.3409789143075
 20
126.0221766512865
 30
0.0
 10
218.3395161931085
 20
126.2323784344048
 30
0.0
 10
218.3128493828666
 20
126.4003672466076
 30
0.0
 10
218.2215238988046
 20
126.6833221386833
 30
0.0
 10
218.1823338402045
 20
126.7829817182926
 30
0.0
 10
218.0788742102536
 20
126.99374848085
 30
0.0
 10
218.0147432366122
 20
127.104885901328
 30
0.0
 10
217.8477689466364
 20
127.3372282558257
 30
0.0
 10
217.7451808974602
 20
127.4592405964827
 30
0.0
 10
217.5374967247731
 20
127.6477979842779
 30
0.0
 10
217.4580057289234
 20
127.7125390447035
 30
0.0
 10
217.2705613717584
 20
127.8419906742935
 30
0.0
 10
217.1632157482066
 20
127.9061921083136
 30
0.0
 10
217.0394067440043
 20
127.9656706438239
 30
0.0
  0
ELLIPSE
  5
14F
330
1F
100
AcDbEntity
  8
0
  6
HIDDEN
 62
     7
370
     0
100
AcDbEllipse
 10
217.9222204159
 20
130.9832074662
 30
0.0
 11
0.9406553105117155
 21
2.766158975077389
 31
0.0
210
0.0
220
0.0
230
1.0
 40
0.8539059128
 41
4.576940229027287
 42
4.685965247133195
  0
ELLIPSE
  5
150
330
1F
100
AcDbEntity
  8
0
  6
HIDDEN
 62
     7
370
     0
100
AcDbEllipse
 10
217.1714257484
 20
129.3598195423
 30
0.0
 11
2.968392757696108
 21
0.4881156426729661
 31
0.0
210
0.0
220
0.0
230
1.0
 40
0.1367129703
 41
6.202873845855623
 42
8.373258537817657
  0
ELLIPSE
  5
151
330
1F
100
AcDbEntity
  8
0
  6
HIDDEN
 62
     7
370
     0
100
AcDbEllipse
 10
213.454387237
 20
122.2041703564
 30
0.0
 11
3.010891765566981
 21
2.994397785440782
 31
0.0
210
0.0
220
0.0
230
1.0
 40
0.9890738004
 41
0.0
 42
6.283185307179586
  0
ELLIPSE
  5
152
330
1F
100
AcDbEntity
  8
0
  6
HIDDEN
 62
     7
370
     0
100
AcDbEllipse
 10
214.6965817003
 20
123.4395599484
 30
0.0
 11
3.518690774465682
 21
-2.323872478491111
 31
0.0
210
0.0
220
0.0
230
1.0
 40
0.89827004
 41
1.182660514095205
 42
2.457784355333604
  0
LINE
  5
153
330
1F
100
AcDbEntity
  8
0
  6
HIDDEN
 62
     7
370
     0
100
AcDbLine
 10
217.9604693408
 20
125.4856859593
 30
0.0
 11
218.2581078754
 21
125.7816939989
 31
0.0
  0
LINE
  5
154
330
1F
100
AcDbEntity
  8
0
  6
HIDDEN
 62
     7
370
     0
100
AcDbLine
 10
213.585383444
 20
127.5337629507
 30
0.0
 11
213.2877449094
 21
127.2377549111
 31
0.0
  0
ARC
  5
155
330
1F
100
AcDbEntity
  8
0
  6
HIDDEN
 62
     7
370
     0
100
AcDbCircle
 10
215.3624346338
 20
124.134914194
 30
0.0
 40
4.181737729252681
100
AcDbArc
 50
72.5344011879
 51
66.3578667107
  0
ARC
  5
156
330
1F
100
AcDbEntity
  8
0
  6
HIDDEN
 62
     7
370
     0
100
AcDbCircle
 10
212.1982858362
 20
131.8138138863
 30
0.0
 40
2.101938722762259
100
AcDbArc
 50
135.3872291548
 51
274.5449062293
  0
LINE
  5
157
330
1F
100
AcDbEntity
  8
0
  6
HIDDEN
 62
     7
370
     0
100
AcDbLine
 10
215.4706829719
 20
129.9560883725
 30
0.0
 11
212.950836095
 21
129.7633143429
 31
0.0
  0
LINE
  5
158
330
1F
100
AcDbEntity
  8
0
  6
HIDDEN
 62
     7
370
     0
100
AcDbLine
 10
212.4259970133
 20
129.7231629569
 30
0.0
 11
212.3648443372
 21
129.7184846377
 31
0.0
  0
LINE
  5
159
330
1F
100
AcDbEntity
  8
0
  6
HIDDEN
 62
     7
370
     0
100
AcDbLine
 10
212.4081834844
 20
129.2226397776
 30
0.0
 11
215.6404184029
 21
129.4699131162
 31
0.0
  0
ARC
  5
15A
330
1F
100
AcDbEntity
  8
0
  6
HIDDEN
 62
     7
370
     0
100
AcDbCircle
 10
211.8889970784
 20
131.505311901
 30
0.0
 40
2.099233608093668
100
AcDbArc
 50
125.990659284
 51
274.6048548094
  0
LINE
  5
15B
330
1F
100
AcDbEntity
  8
0
  6
HIDDEN
 62
     7
370
     0
100
AcDbLine
 10
213.8004551444
 20
134.021259528
 30
0.0
 11
214.443594067
 21
141.3653052806
 31
0.0
  0
LINE
  5
15C
330
1F
100
AcDbEntity
  8
0
  6
HIDDEN
 62
     7
370
     0
100
AcDbLine
 10
213.940028951
 20
141.3204915487
 30
0.0
 11
213.2974445637
 21
133.982778072
 31
0.0
  0
LINE
  5
15D
330
1F
100
AcDbEntity
  8
0
  6
HIDDEN
 62
     7
370
     0
100
AcDbLine
 10
220.3394854621
 20
130.3285628607
 30
0.0
 11
220.2585826316
 21
130.1071729903
 31
0.0
  0
LINE
  5
15E
330
1F
100
AcDbEntity
  8
0
  6
HIDDEN
 62
     7
370
     0
100
AcDbLine
 10
224.6982272736
 20
130.6620165442
 30
0.0
 11
220.3394854621
 21
130.3285628607
 31
0.0
  0
LINE
  5
15F
330
1F
100
AcDbEntity
  8
0
  6
HIDDEN
 62
     7
370
     0
100
AcDbLine
 10
224.6542195501
 20
130.1594894494
 30
0.0
 11
224.6982272736
 21
130.6620165442
 31
0.0
  0
LINE
  5
160
330
1F
100
AcDbEntity
  8
0
  6
HIDDEN
 62
     7
370
     0
100
AcDbLine
 10
220.1356042506
 20
129.8138050795
 30
0.0
 11
224.6542195501
 21
130.1594894494
 31
0.0
  0
LINE
  5
161
330
1F
100
AcDbEntity
  8
0
  6
HIDDEN
 62
     7
370
     0
100
AcDbLine
 10
219.0072022516
 20
128.7834085559
 30
0.0
 11
217.9604693408
 21
125.4856859593
 31
0.0
  0
LINE
  5
162
330
1F
100
AcDbEntity
  8
0
  6
HIDDEN
 62
     7
370
     0
100
AcDbLine
 10
220.8435485396
 20
132.754004668
 30
0.0
 11
221.1367493505
 21
133.0455992943
 31
0.0
  0
LINE
  5
163
330
1F
100
AcDbEntity
  8
0
  6
HIDDEN
 62
     7
370
     0
100
AcDbLine
 10
220.0321717801
 20
130.0229326752
 30
0.0
 11
221.1367493505
 21
133.0455992943
 31
0.0
  0
LINE
  5
164
330
1F
100
AcDbEntity
  8
0
  6
HIDDEN
 62
     7
370
     0
100
AcDbLine
 10
220.0321717801
 20
130.0229326752
 30
0.0
 11
220.3394854621
 21
130.3285628607
 31
0.0
  0
LINE
  5
165
330
1F
100
AcDbEntity
  8
0
  6
HIDDEN
 62
     7
370
     0
100
AcDbLine
 10
224.6982272736
 20
130.6620165442
 30
0.0
 11
224.3909135916
 21
130.3563863587
 31
0.0
  0
LINE
  5
166
330
1F
100
AcDbEntity
  8
0
  6
HIDDEN
 62
     7
370
     0
100
AcDbLine
 10
175.560873318
 20
102.5652093344
 30
0.0
 11
175.560873318
 21
102.4653469382
 31
0.0
  0
SPLINE
  5
167
330
1F
100
AcDbEntity
  8
0
  6
HIDDEN
 62
     7
370
     0
100
AcDbSpline
210
0.0
220
0.0
230
1.0
 70
     8
 71
     3
 72
    24
 73
    20
 74
     0
 42
0.00000001
 43
0.00000001
 12
1.0
 22
0.0
 32
0.0
 13
1.0
 23
0.0
 33
0.0
 40
0.0
 40
0.0
 40
0.0
 40
0.0
 40
0.2499999999999993
 40
0.2499999999999993
 40
0.3749999999999999
 40
0.3749999999999999
 40
0.4375000000000002
 40
0.4375000000000002
 40
0.4687500000000002
 40
0.4687500000000002
 40
0.5000000000000002
 40
0.5000000000000002
 40
0.5624999999999994
 40
0.5624999999999994
 40
0.6249999999999988
 40
0.6249999999999988
 40
0.7499999999999993
 40
0.7499999999999993
 40
1.0
 40
1.0
 40
1.0
 40
1.0
 10
175.5608733179922
 20
102.5652093344063
 30
0.0
 10
175.5612762286277
 20
102.5956335712444
 30
0.0
 10
175.563320207968
 20
102.6284916717989
 30
0.0
 10
175.5725574507934
 20
102.6845170389527
 30
0.0
 10
175.5764445137738
 20
102.7041280921382
 30
0.0
 10
175.5873484051793
 20
102.7384023755673
 30
0.0
 10
175.5914904509296
 20
102.7504648010395
 30
0.0
 10
175.6033855246797
 20
102.7727839657373
 30
0.0
 10
175.6086325889867
 20
102.7817504780962
 30
0.0
 10
175.6254996553621
 20
102.7994000426244
 30
0.0
 10
175.6333220628914
 20
102.8035443267694
 30
0.0
 10
175.6502708635161
 20
102.8100318679469
 30
0.0
 10
175.6577272147342
 20
102.8094349865752
 30
0.0
 10
175.6717871179275
 20
102.8076887226038
 30
0.0
 10
175.6779195030637
 20
102.8058580347054
 30
0.0
 10
175.6952142655876
 20
102.7992916251328
 30
0.0
 10
175.7052315839968
 20
102.793426409974
 30
0.0
 10
175.7336029182405
 20
102.7746817259434
 30
0.0
 10
175.7501383558852
 20
102.7605175778564
 30
0.0
 10
175.7658333400501
 20
102.7463611915638
 30
0.0
  0
SPLINE
  5
168
330
1F
100
AcDbEntity
  8
0
  6
HIDDEN
 62
     7
370
     0
100
AcDbSpline
210
0.0
220
0.0
230
1.0
 70
     8
 71
     3
 72
     8
 73
     4
 74
     0
 42
0.00000001
 43
0.00000001
 12
1.0
 22
0.0
 32
0.0
 13
1.0
 23
0.0
 33
0.0
 40
0.0
 40
0.0
 40
0.0
 40
0.0
 40
1.0
 40
1.0
 40
1.0
 40
1.0
 10
175.76583334005
 20
102.7463611915638
 30
0.0
 10
175.8165604832567
 20
102.7006068902386
 30
0.0
 10
175.8744478128176
 20
102.6721027443751
 30
0.0
 10
175.9395529744328
 20
102.6603817147163
 30
0.0
  0
LINE
  5
169
330
1F
100
AcDbEntity
  8
0
  6
HIDDEN
 62
     7
370
     0
100
AcDbLine
 10
175.560873318
 20
106.5665506036
 30
0.0
 11
175.560873318
 21
105.5114077305
 31
0.0
  0
LINE
  5
16A
330
1F
100
AcDbEntity
  8
0
  6
HIDDEN
 62
     7
370
     0
100
AcDbLine
 10
154.760873318
 20
106.827834803
 30
0.0
 11
154.760873318
 21
102.9879153369
 31
0.0
  0
SPLINE
  5
16B
330
1F
100
AcDbEntity
  8
0
  6
HIDDEN
 62
     7
370
     0
100
AcDbSpline
210
0.0
220
0.0
230
1.0
 70
     8
 71
     3
 72
    16
 73
    12
 74
     0
 42
0.00000001
 43
0.00000001
 12
1.0
 22
0.0
 32
0.0
 13
1.0
 23
0.0
 33
0.0
 40
0.0
 40
0.0
 40
0.0
 40
0.0
 40
0.2500000000000002
 40
0.2500000000000002
 40
0.3750000000000002
 40
0.3750000000000002
 40
0.5000000000000003
 40
0.5000000000000003
 40
0.7500000000000001
 40
0.7500000000000001
 40
1.0
 40
1.0
 40
1.0
 40
1.0
 10
175.5608733179922
 20
105.511407730475
 30
0.0
 10
175.4803359860927
 20
105.1224005465295
 30
0.0
 10
175.4202986420653
 20
104.7659001049038
 30
0.0
 10
175.3595609349117
 20
104.279397719715
 30
0.0
 10
175.3442385597988
 20
104.1253187788611
 30
0.0
 10
175.3236557504947
 20
103.8338492203677
 30
0.0
 10
175.3184561534691
 20
103.6962793364685
 30
0.0
 10
175.3184025002893
 20
103.3180345012788
 30
0.0
 10
175.3386000437672
 20
103.1081534327267
 30
0.0
 10
175.4192781321259
 20
102.7715741338155
 30
0.0
 10
175.4803242967338
 20
102.6452896418977
 30
0.0
 10
175.5608733179924
 20
102.5652093344064
 30
0.0
  0
LINE
  5
16C
330
1F
100
AcDbEntity
  8
0
  6
HIDDEN
 62
     7
370
     0
100
AcDbLine
 10
153.260873318
 20
107.2608475049
 30
0.0
 11
153.260873318
 21
103.8539407407
 31
0.0
  0
LINE
  5
16D
330
1F
100
AcDbEntity
  8
0
  6
HIDDEN
 62
     7
370
     0
100
AcDbLine
 10
154.760873318
 20
129.9829761086
 30
0.0
 11
154.760873318
 21
126.1430566425
 31
0.0
  0
LINE
  5
16E
330
1F
100
AcDbEntity
  8
0
  6
HIDDEN
 62
     7
370
     0
100
AcDbLine
 10
153.260873318
 20
129.1169507048
 30
0.0
 11
153.260873318
 21
125.7100439406
 31
0.0
  0
LINE
  5
16F
330
1F
100
AcDbEntity
  8
0
  6
HIDDEN
 62
     7
370
     0
100
AcDbLine
 10
175.560873318
 20
130.5055445073
 30
0.0
 11
175.560873318
 21
130.405682111
 31
0.0
  0
SPLINE
  5
170
330
1F
100
AcDbEntity
  8
0
  6
HIDDEN
 62
     7
370
     0
100
AcDbSpline
210
0.0
220
0.0
230
1.0
 70
     8
 71
     3
 72
    24
 73
    20
 74
     0
 42
0.00000001
 43
0.00000001
 12
1.0
 22
0.0
 32
0.0
 13
1.0
 23
0.0
 33
0.0
 40
0.0
 40
0.0
 40
0.0
 40
0.0
 40
0.2499999999999971
 40
0.2499999999999971
 40
0.3749999999999959
 40
0.3749999999999959
 40
0.4374999999999954
 40
0.4374999999999954
 40
0.4999999999999949
 40
0.4999999999999949
 40
0.5312499999999943
 40
0.5312499999999943
 40
0.5624999999999937
 40
0.5624999999999937
 40
0.6249999999999936
 40
0.6249999999999936
 40
0.749999999999995
 40
0.749999999999995
 40
1.0
 40
1.0
 40
1.0
 40
1.0
 10
175.7658333400528
 20
130.2245302538814
 30
0.0
 10
175.7500667517544
 20
130.2103092828932
 30
0.0
 10
175.7334552187998
 20
130.1960789925583
 30
0.0
 10
175.7049288708418
 20
130.1772819373369
 30
0.0
 10
175.6948434370518
 20
130.1713935169956
 30
0.0
 10
175.6773606665169
 20
130.1648561221932
 30
0.0
 10
175.6711530100714
 20
130.1630449081921
 30
0.0
 10
175.6568815098262
 20
130.1614391056856
 30
0.0
 10
175.6493114393232
 20
130.1608863282995
 30
0.0
 10
175.6319151098879
 20
130.1680850730122
 30
0.0
 10
175.6234558369279
 20
130.1731768217598
 30
0.0
 10
175.6073948723803
 20
130.190991754239
 30
0.0
 10
175.6025616365339
 20
130.1995141691013
 30
0.0
 10
175.5911357167986
 20
130.2214106057501
 30
0.0
 10
175.5871143609162
 20
130.2331511285561
 30
0.0
 10
175.576353865885
 20
130.2672013925095
 30
0.0
 10
175.5724795568241
 20
130.2867763815381
 30
0.0
 10
175.563306684697
 20
130.3426246902194
 30
0.0
 10
175.5612743139822
 20
130.3754024512482
 30
0.0
 10
175.5608733179924
 20
130.4056821110362
 30
0.0
  0
SPLINE
  5
171
330
1F
100
AcDbEntity
  8
0
  6
HIDDEN
 62
     7
370
     0
100
AcDbSpline
210
0.0
220
0.0
230
1.0
 70
     8
 71
     3
 72
     8
 73
     4
 74
     0
 42
0.00000001
 43
0.00000001
 12
1.0
 22
0.0
 32
0.0
 13
1.0
 23
0.0
 33
0.0
 40
0.0
 40
0.0
 40
0.0
 40
0.0
 40
1.0
 40
1.0
 40
1.0
 40
1.0
 10
175.9395529744328
 20
130.3105097307266
 30
0.0
 10
175.8744478128187
 20
130.298788701068
 30
0.0
 10
175.8165604832587
 20
130.2702845552053
 30
0.0
 10
175.7658333400527
 20
130.2245302538815
 30
0.0
  0
LINE
  5
172
330
1F
100
AcDbEntity
  8
0
  6
HIDDEN
 62
     7
370
     0
100
AcDbLine
 10
175.560873318
 20
127.459483715
 30
0.0
 11
175.560873318
 21
126.4043408418
 31
0.0
  0
SPLINE
  5
173
330
1F
100
AcDbEntity
  8
0
  6
HIDDEN
 62
     7
370
     0
100
AcDbSpline
210
0.0
220
0.0
230
1.0
 70
     8
 71
     3
 72
    16
 73
    12
 74
     0
 42
0.00000001
 43
0.00000001
 12
1.0
 22
0.0
 32
0.0
 13
1.0
 23
0.0
 33
0.0
 40
0.0
 40
0.0
 40
0.0
 40
0.0
 40
0.2500000000000003
 40
0.2500000000000003
 40
0.3750000000000003
 40
0.3750000000000003
 40
0.5000000000000002
 40
0.5000000000000002
 40
0.7500000000000001
 40
0.7500000000000001
 40
1.0
 40
1.0
 40
1.0
 40
1.0
 10
175.5608733179922
 20
130.4056821110364
 30
0.0
 10
175.4803359860929
 20
130.325613424884
 30
0.0
 10
175.4202986420656
 20
130.2017489333936
 30
0.0
 10
175.359560934912
 20
129.9510681094616
 30
0.0
 10
175.3442385597991
 20
129.8566295051521
 30
0.0
 10
175.3236557504949
 20
129.6453184375334
 30
0.0
 10
175.3184561534692
 20
129.5280289827798
 30
0.0
 10
175.3184025002891
 20
129.1499933110245
 30
0.0
 10
175.3386000437668
 20
128.8612161572804
 30
0.0
 10
175.4192781321248
 20
128.2113762941416
 30
0.0
 10
175.4803242967322
 20
127.8485473602489
 30
0.0
 10
175.5608733179903
 20
127.4594837149772
 30
0.0
  0
LWPOLYLINE
  5
174
330
1F
100
AcDbEntity
  8
0
  6
HIDDEN
 62
     7
370
     0
100
AcDbPolyline
 90
       30
 70
   128
 43
0.0
 10
191.260873318
 20
109.3839018602
 10
191.7123112424
 20
109.429423651
 10
192.1426404313
 20
109.5638604753
 10
192.5317391699
 20
109.7809262165
 10
192.8614136338
 20
110.0704711218
 10
193.1162486113
 20
110.4189563933
 10
193.2843283023
 20
110.8100872469
 10
193.3577934871
 20
111.2255748387
 10
193.3332090153
 20
111.6459914306
 10
193.2117244296
 20
112.0516788101
 10
192.9990202141
 20
112.4236674862
 10
192.7050421816
 20
112.7445636818
 10
192.3435364181
 20
112.9993626475
 10
191.9314065313
 20
113.1761502668
 10
191.4879232567
 20
113.2666601472
 10
191.0338233793
 20
113.2666601472
 10
190.5903401047
 20
113.1761502668
 10
190.1782102179
 20
112.9993626475
 10
189.8167044544
 20
112.7445636818
 10
189.5227264219
 20
112.4236674862
 10
189.3100222064
 20
112.0516788101
 10
189.1885376207
 20
111.6459914306
 10
189.1639531489
 20
111.2255748387
 10
189.2374183337
 20
110.8100872469
 10
189.4054980247
 20
110.4189563933
 10
189.6603330022
 20
110.0704711218
 10
189.9900074661
 20
109.7809262165
 10
190.3791062047
 20
109.5638604753
 10
190.8094353935
 20
109.429423651
 10
191.260873318
 20
109.3839018602
  0
ARC
  5
175
330
1F
100
AcDbEntity
  8
0
  6
HIDDEN
 62
     7
370
     0
100
AcDbCircle
 10
219.4959289876
 20
135.7766266374
 30
0.0
 40
3.186032299350794
100
AcDbArc
 50
300.9977430098
 51
197.8945248889
  0
LINE
  5
176
330
1F
100
AcDbEntity
  8
0
  6
HIDDEN
 62
     7
370
     0
100
AcDbLine
 10
216.4640249191
 20
134.7976682461
 30
0.0
 11
214.6536559377
 21
129.8436097579
 31
0.0
  0
LINE
  5
177
330
1F
100
AcDbEntity
  8
0
  6
HIDDEN
 62
     7
370
     0
100
AcDbLine
 10
225.3250347215
 20
141.0231777291
 30
0.0
 11
224.8463014347
 21
141.5241394552
 31
0.0
  0
LINE
  5
178
330
1F
100
AcDbEntity
  8
0
  6
HIDDEN
 62
     7
370
     0
100
AcDbLine
 10
220.0321717801
 20
130.0229326752
 30
0.0
 11
224.3909135916
 21
130.3563863587
 31
0.0
  0
LINE
  5
179
330
1F
100
AcDbEntity
  8
0
  6
HIDDEN
 62
     7
370
     0
100
AcDbLine
 10
214.1091693233
 20
140.750092094
 30
0.0
 11
213.4931414624
 21
133.7156293425
 31
0.0
  0
LINE
  5
17A
330
1F
100
AcDbEntity
  8
0
  6
HIDDEN
 62
     7
370
     0
100
AcDbLine
 10
212.0575306552
 20
129.4128544523
 30
0.0
 11
214.5764099002
 21
129.6055544559
 31
0.0
  0
LINE
  5
17B
330
1F
100
AcDbEntity
  8
0
  6
HIDDEN
 62
     7
370
     0
100
AcDbLine
 10
225.3250347746
 20
141.0231777239
 30
0.0
 11
224.3909135916
 21
130.3563863587
 31
0.0
  0
ARC
  5
17C
330
1F
100
AcDbEntity
  8
0
  6
HIDDEN
 62
     7
370
     0
100
AcDbCircle
 10
218.8918175697
 20
135.1853757804
 30
0.0
 40
3.183907215718075
100
AcDbArc
 50
293.3150246376
 51
68.3076961866
  0
ARC
  5
17D
330
1F
100
AcDbEntity
  8
0
  6
HIDDEN
 62
     7
370
     0
100
AcDbCircle
 10
218.8614395341
 20
135.2289792541
 30
0.0
 40
3.152541534643906
100
AcDbArc
 50
81.5407446604
 51
206.9792671478
  0
SPLINE
  5
17E
330
1F
100
AcDbEntity
  8
0
  6
HIDDEN
 62
     7
370
     0
100
AcDbSpline
210
0.0
220
0.0
230
1.0
 70
     8
 71
     3
 72
    10
 73
     6
 74
     0
 42
0.00000001
 43
0.00000001
 12
1.0
 22
0.0
 32
0.0
 13
1.0
 23
0.0
 33
0.0
 40
0.0
 40
0.0
 40
0.0
 40
0.0
 40
0.5
 40
0.5
 40
1.0
 40
1.0
 40
1.0
 40
1.0
 10
216.0519867451534
 20
133.7987718725732
 30
0.0
 10
216.0431391502143
 20
133.9593256555198
 30
0.0
 10
216.050092894099
 20
134.1061369325942
 30
0.0
 10
216.0895262242203
 20
134.3541068962578
 30
0.0
 10
216.1215159843543
 20
134.457035611136
 30
0.0
 10
216.1708241081261
 20
134.5060736198466
 30
0.0
  0
SPLINE
  5
17F
330
1F
100
AcDbEntity
  8
0
  6
HIDDEN
 62
     7
370
     0
100
AcDbSpline
210
0.0
220
0.0
230
1.0
 70
     8
 71
     3
 72
    10
 73
     6
 74
     0
 42
0.00000001
 43
0.00000001
 12
1.0
 22
0.0
 32
0.0
 13
1.0
 23
0.0
 33
0.0
 40
0.0
 40
0.0
 40
0.0
 40
0.0
 40
0.5
 40
0.5
 40
1.0
 40
1.0
 40
1.0
 40
1.0
 10
220.843548539564
 20
132.7540046680324
 30
0.0
 10
220.7941524970527
 20
132.7048792222104
 30
0.0
 10
220.6978603708117
 20
132.6272190166987
 30
0.0
 10
220.4592898261591
 20
132.4538347621174
 30
0.0
 10
220.3155675195937
 20
132.3575478041587
 30
0.0
 10
220.1519645299439
 20
132.2614580666212
 30
0.0
  0
LINE
  5
180
330
1F
100
AcDbEntity
  8
0
  6
HIDDEN
 62
     7
370
     0
100
AcDbLine
 10
216.4640249191
 20
134.7976682461
 30
0.0
 11
216.1708241081
 21
134.5060736198
 31
0.0
  0
SPLINE
  5
181
330
1F
100
AcDbEntity
  8
0
  6
HIDDEN
 62
     7
370
     0
100
AcDbSpline
210
0.0
220
0.0
230
1.0
 70
     8
 71
     3
 72
    24
 73
    20
 74
     0
 42
0.00000001
 43
0.00000001
 12
1.0
 22
0.0
 32
0.0
 13
1.0
 23
0.0
 33
0.0
 40
0.0
 40
0.0
 40
0.0
 40
0.0
 40
0.0314334136435643
 40
0.0628417188144624
 40
0.0942381770096296
 40
0.1256360647373957
 40
0.1883988387468855
 40
0.251150139058803
 40
0.3138399429161549
 40
0.3765112295275843
 40
0.5016590687568725
 40
0.6265921347594879
 40
0.6889633597761626
 40
0.7513152653059576
 40
0.8135617985437433
 40
0.8757857360424041
 40
0.9172011329328711
 40
0.9585950273439034
 40
1.0
 40
1.0
 40
1.0
 40
1.0
 10
223.0986795821268
 20
130.9377918994925
 30
0.0
 10
223.1222539580384
 20
131.084095989109
 30
0.0
 10
223.1693838790538
 20
131.3765873031402
 30
0.0
 10
223.2403876896908
 20
131.8074863850099
 30
0.0
 10
223.3115671482621
 20
132.2323281654884
 30
0.0
 10
223.406699523477
 20
132.7897515839614
 30
0.0
 10
223.5260022979735
 20
133.4698060715634
 30
0.0
 10
223.6694985654186
 20
134.2572782665599
 30
0.0
 10
223.8130901811355
 20
135.0149508847126
 30
0.0
 10
224.0041891992603
 20
135.9828214824388
 30
0.0
 10
224.2420335724001
 20
137.1115871619225
 30
0.0
 10
224.4769249459053
 20
138.124450293712
 30
0.0
 10
224.6619331021417
 20
138.8602996720967
 30
0.0
 10
224.7989476300749
 20
139.373828773463
 30
0.0
 10
224.9340620282807
 20
139.8484382287994
 30
0.0
 10
225.052243605766
 20
140.2349703891418
 30
0.0
 10
225.1540701458503
 20
140.5464701943427
 30
0.0
 10
225.2402900409418
 20
140.7964523940962
 30
0.0
 10
225.296784047844
 20
140.947595947362
 30
0.0
 10
225.3250348306612
 20
141.0231778352765
 30
0.0
  0
LWPOLYLINE
  5
182
330
1F
100
AcDbEntity
  8
0
  6
HIDDEN
 62
     7
370
     0
100
AcDbPolyline
 90
       16
 70
   128
 43
0.0
 10
219.0072022516
 20
128.7834085559
 10
219.0772915373
 20
129.1842163686
 10
219.0422073449
 20
129.6057938668
 10
218.903483022
 20
130.029716091
 10
218.6671814872
 20
130.4374556057
 10
218.3436302515
 20
130.8111922376
 10
217.9469700565
 20
131.1345919026
 10
217.4945368559
 20
131.3935204833
 10
217.0061041518
 20
131.5766615583
 10
216.5030187971
 20
131.676010984
 10
216.0072680358
 20
131.6872267135
 10
215.5405185551
 20
131.6098185658
 10
215.1231695469
 20
131.4471696483
 10
214.7734611657
 20
131.2063884992
 10
214.5066773458
 20
130.8979984101
 10
214.3344778202
 20
130.5354775077
  0
ELLIPSE
  5
183
330
1F
100
AcDbEntity
  8
0
  6
HIDDEN
 62
     7
370
     0
100
AcDbEllipse
 10
217.6209553867
 20
131.7138073653
 30
0.0
 11
0.9406553105117155
 21
2.766158975077389
 31
0.0
210
0.0
220
0.0
230
1.0
 40
0.8539059128
 41
5.186288196584696
 42
7.327234951271459
  0
LINE
  5
184
330
1F
100
AcDbEntity
  8
0
  6
HIDDEN
 62
     7
370
     0
100
AcDbLine
 10
153.260873318
 20
125.7100439406
 30
0.0
 11
153.260873318
 21
118.3356595364
 31
0.0
  0
LINE
  5
185
330
1F
100
AcDbEntity
  8
0
  6
HIDDEN
 62
     7
370
     0
100
AcDbLine
 10
153.260873318
 20
114.6352319091
 30
0.0
 11
153.260873318
 21
107.2608475049
 31
0.0
  0
SPLINE
  5
186
330
1F
100
AcDbEntity
  8
0
  6
HIDDEN
 62
     7
370
     0
100
AcDbSpline
210
0.0
220
0.0
230
1.0
 70
     8
 71
     3
 72
    24
 73
    20
 74
     0
 42
0.00000001
 43
0.00000001
 12
1.0
 22
0.0
 32
0.0
 13
1.0
 23
0.0
 33
0.0
 40
0.0
 40
0.0
 40
0.0
 40
0.0
 40
0.2500000000000169
 40
0.2500000000000169
 40
0.3750000000000272
 40
0.3750000000000272
 40
0.4375000000000305
 40
0.4375000000000305
 40
0.5000000000000339
 40
0.5000000000000339
 40
0.5312500000000342
 40
0.5312500000000342
 40
0.5625000000000345
 40
0.5625000000000345
 40
0.6250000000000312
 40
0.6250000000000312
 40
0.750000000000023
 40
0.750000000000023
 40
1.0
 40
1.0
 40
1.0
 40
1.0
 10
175.7658333400528
 20
105.6928519959232
 30
0.0
 10
175.7500644626953
 20
105.6189933039937
 30
0.0
 10
175.7334504808453
 20
105.5452819152579
 30
0.0
 10
175.7049188148402
 20
105.4337350916359
 30
0.0
 10
175.6948314000215
 20
105.3963635185074
 30
0.0
 10
175.6773438395672
 20
105.3394640208697
 30
0.0
 10
175.671134277784
 20
105.3203609207244
 30
0.0
 10
175.6568567241314
 20
105.2814874064889
 30
0.0
 10
175.649285176336
 20
105.2615627470555
 30
0.0
 10
175.6318675926577
 20
105.2314905290281
 30
0.0
 10
175.6233850960127
 20
105.219809150225
 30
0.0
 10
175.6073467841408
 20
105.2125476394763
 30
0.0
 10
175.6025262359373
 20
105.2161258864861
 30
0.0
 10
175.5911170113893
 20
105.2278867417177
 30
0.0
 10
175.5870965309318
 20
105.2395523917683
 30
0.0
 10
175.5763426761115
 20
105.2760877218818
 30
0.0
 10
175.5724699948293
 20
105.3034834552054
 30
0.0
 10
175.5633018449917
 20
105.3882094469614
 30
0.0
 10
175.5612733396226
 20
105.4490415691335
 30
0.0
 10
175.5608733179924
 20
105.5114077304751
 30
0.0
  0
SPLINE
  5
187
330
1F
100
AcDbEntity
  8
0
  6
HIDDEN
 62
     7
370
     0
100
AcDbSpline
210
0.0
220
0.0
230
1.0
 70
     8
 71
     3
 72
    24
 73
    20
 74
     0
 42
0.00000001
 43
0.00000001
 12
1.0
 22
0.0
 32
0.0
 13
1.0
 23
0.0
 33
0.0
 40
0.0
 40
0.0
 40
0.0
 40
0.0
 40
0.2500000000000061
 40
0.2500000000000061
 40
0.3750000000000078
 40
0.3750000000000078
 40
0.4375000000000056
 40
0.4375000000000056
 40
0.4687500000000045
 40
0.4687500000000045
 40
0.5000000000000033
 40
0.5000000000000033
 40
0.5625000000000026
 40
0.5625000000000026
 40
0.6250000000000016
 40
0.6250000000000016
 40
0.7499999999999999
 40
0.7499999999999999
 40
1.0
 40
1.0
 40
1.0
 40
1.0
 10
175.5608733179888
 20
127.4594837149786
 30
0.0
 10
175.5612779875646
 20
127.5225745234713
 30
0.0
 10
175.563321434379
 20
127.5837602459738
 30
0.0
 10
175.5727209996332
 20
127.6692599784755
 30
0.0
 10
175.576671893162
 20
127.6968403619166
 30
0.0
 10
175.587824201459
 20
127.7332944440282
 30
0.0
 10
175.5920457423855
 20
127.7451528657227
 30
0.0
 10
175.6042534639492
 20
127.7557729170979
 30
0.0
 10
175.6100442342014
 20
127.7586062843202
 30
0.0
 10
175.6269657473113
 20
127.7472916973218
 30
0.0
 10
175.634371863261
 20
127.735510811568
 30
0.0
 10
175.6508291165041
 20
127.7054699703383
 30
0.0
 10
175.6582856344151
 20
127.6857570167252
 30
0.0
 10
175.6721935636897
 20
127.6473549506652
 30
0.0
 10
175.6782855095847
 20
127.6284733007537
 30
0.0
 10
175.6954798019358
 20
127.5721723902222
 30
0.0
 10
175.7054647521393
 20
127.5350963124126
 30
0.0
 10
175.7337107972382
 20
127.4244376415227
 30
0.0
 10
175.7501903341993
 20
127.3513085811143
 30
0.0
 10
175.765833340059
 20
127.2780394494904
 30
0.0
  0
SPLINE
  5
188
330
1F
100
AcDbEntity
  8
0
  6
HIDDEN
 62
     7
370
     0
100
AcDbSpline
210
0.0
220
0.0
230
1.0
 70
     8
 71
     3
 72
     8
 73
     4
 74
     0
 42
0.00000001
 43
0.00000001
 12
1.0
 22
0.0
 32
0.0
 13
1.0
 23
0.0
 33
0.0
 40
0.0
 40
0.0
 40
0.0
 40
0.0
 40
1.0
 40
1.0
 40
1.0
 40
1.0
 10
175.9395529744328
 20
106.4319264051147
 30
0.0
 10
175.8744478128187
 20
106.176901169909
 30
0.0
 10
175.8165604832587
 20
105.9304491537678
 30
0.0
 10
175.7658333400527
 20
105.6928519959232
 30
0.0
  0
SPLINE
  5
189
330
1F
100
AcDbEntity
  8
0
  6
HIDDEN
 62
     7
370
     0
100
AcDbSpline
210
0.0
220
0.0
230
1.0
 70
     8
 71
     3
 72
     8
 73
     4
 74
     0
 42
0.00000001
 43
0.00000001
 12
1.0
 22
0.0
 32
0.0
 13
1.0
 23
0.0
 33
0.0
 40
0.0
 40
0.0
 40
0.0
 40
0.0
 40
1.0
 40
1.0
 40
1.0
 40
1.0
 10
175.7658333400589
 20
127.2780394494904
 30
0.0
 10
175.8165604832634
 20
127.0404422916549
 30
0.0
 10
175.8744478128214
 20
126.7939902755234
 30
0.0
 10
175.9395529744328
 20
126.5389650403282
 30
0.0
  0
LINE
  5
18A
330
1F
100
AcDbEntity
  8
0
  6
HIDDEN
 62
     7
370
     0
100
AcDbLine
 10
154.760873318
 20
113.9304174857
 30
0.0
 11
154.760873318
 21
106.827834803
 31
0.0
  0
LINE
  5
18B
330
1F
100
AcDbEntity
  8
0
  6
HIDDEN
 62
     7
370
     0
100
AcDbLine
 10
154.760873318
 20
126.1430566425
 30
0.0
 11
154.760873318
 21
119.0404739598
 31
0.0
  0
LINE
  5
18C
330
1F
100
AcDbEntity
  8
0
  6
HIDDEN
 62
     7
370
     0
100
AcDbLine
 10
175.560873318
 20
126.4043408418
 30
0.0
 11
175.560873318
 21
106.5665506036
 31
0.0
  0
LINE
  5
18D
330
1F
100
AcDbEntity
  8
0
  6
HIDDEN
 62
     7
370
     0
100
AcDbLine
 10
177.060873318
 20
124.9648128624
 30
0.0
 11
177.060873318
 21
108.006078583
 31
0.0
  0
SPLINE
  5
18E
330
1F
100
AcDbEntity
  8
0
  6
HIDDEN
 62
     7
370
     0
100
AcDbSpline
210
0.0
220
0.0
230
1.0
 70
     8
 71
     3
 72
     8
 73
     4
 74
     0
 42
0.00000001
 43
0.00000001
 12
1.0
 22
0.0
 32
0.0
 13
1.0
 23
0.0
 33
0.0
 40
0.0000137051794235
 40
0.0000137051794235
 40
0.0000137051794235
 40
0.0000137051794235
 40
0.0027147144718019
 40
0.0027147144718019
 40
0.0027147144718019
 40
0.0027147144718019
 10
154.7608733179924
 20
113.9304174856597
 30
0.0
 10
155.6608694534872
 20
113.9174459184613
 30
0.0
 10
156.5608696320826
 20
113.9048110611492
 30
0.0
 10
157.4608733179924
 20
113.8925010428935
 30
0.0
  0
SPLINE
  5
18F
330
1F
100
AcDbEntity
  8
0
  6
HIDDEN
 62
     7
370
     0
100
AcDbSpline
210
0.0
220
0.0
230
1.0
 70
     8
 71
     3
 72
     8
 73
     4
 74
     0
 42
0.00000001
 43
0.00000001
 12
1.0
 22
0.0
 32
0.0
 13
1.0
 23
0.0
 33
0.0
 40
0.0000137050638847
 40
0.0000137050638847
 40
0.0000137050638847
 40
0.0000137050638847
 40
0.0027147143562631
 40
0.0027147143562631
 40
0.0027147143562631
 40
0.0027147143562631
 10
157.4608733179924
 20
119.0783904025494
 30
0.0
 10
156.5608696320826
 20
119.0660803842936
 30
0.0
 10
155.6608694534872
 20
119.0534455269816
 30
0.0
 10
154.7608733179924
 20
119.0404739597832
 30
0.0
  0
SPLINE
  5
190
330
1F
100
AcDbEntity
  8
0
  6
HIDDEN
 62
     7
370
     0
100
AcDbSpline
210
0.0
220
0.0
230
1.0
 70
     8
 71
     3
 72
    10
 73
     6
 74
     0
 42
0.00000001
 43
0.00000001
 12
1.0
 22
0.0
 32
0.0
 13
1.0
 23
0.0
 33
0.0
 40
0.0
 40
0.0
 40
0.0
 40
0.0
 40
0.5
 40
0.5
 40
1.0
 40
1.0
 40
1.0
 40
1.0
 10
153.2608733179924
 20
114.6352319090707
 30
0.0
 10
153.4980152787081
 20
114.479617094542
 30
0.0
 10
153.7433580374714
 20
114.3477080651229
 30
0.0
 10
154.2446216262042
 20
114.1160511884855
 30
0.0
 10
154.5006561954543
 20
114.0166055723628
 30
0.0
 10
154.7608733179924
 20
113.9304174856597
 30
0.0
  0
SPLINE
  5
191
330
1F
100
AcDbEntity
  8
0
  6
HIDDEN
 62
     7
370
     0
100
AcDbSpline
210
0.0
220
0.0
230
1.0
 70
     8
 71
     3
 72
    10
 73
     6
 74
     0
 42
0.00000001
 43
0.00000001
 12
1.0
 22
0.0
 32
0.0
 13
1.0
 23
0.0
 33
0.0
 40
0.0
 40
0.0
 40
0.0
 40
0.0
 40
0.5
 40
0.5
 40
1.0
 40
1.0
 40
1.0
 40
1.0
 10
154.7608733179924
 20
119.0404739597832
 30
0.0
 10
154.5006561954544
 20
118.9542858730801
 30
0.0
 10
154.2446216262042
 20
118.8548402569574
 30
0.0
 10
153.7433580374714
 20
118.62318338032
 30
0.0
 10
153.4980152787081
 20
118.4912743509008
 30
0.0
 10
153.2608733179924
 20
118.3356595363721
 30
0.0
  0
LINE
  5
192
330
1F
100
AcDbEntity
  8
0
  6
HIDDEN
 62
     7
370
     0
100
AcDbLine
 10
153.260873318
 20
114.6352319091
 30
0.0
 11
153.260873318
 21
118.3356595364
 31
0.0
  0
LINE
  5
193
330
1F
100
AcDbEntity
  8
0
  6
HIDDEN
 62
     7
370
     0
100
AcDbLine
 10
157.460873318
 20
113.8925010429
 30
0.0
 11
157.460873318
 21
119.0783904025
 31
0.0
  0
SPLINE
  5
194
330
1F
100
AcDbEntity
  8
0
  6
HIDDEN
 62
     7
370
     0
100
AcDbSpline
210
0.0
220
0.0
230
1.0
 70
     8
 71
     3
 72
    22
 73
    18
 74
     0
 42
0.00000001
 43
0.00000001
 12
1.0
 22
0.0
 32
0.0
 13
1.0
 23
0.0
 33
0.0
 40
0.0
 40
0.0
 40
0.0
 40
0.0
 40
0.125
 40
0.125
 40
0.25
 40
0.25
 40
0.375
 40
0.375
 40
0.4999999999999999
 40
0.4999999999999999
 40
0.6249999999999999
 40
0.6249999999999999
 40
0.7499999999999999
 40
0.7499999999999999
 40
0.8749999999999999
 40
0.8749999999999999
 40
1.0
 40
1.0
 40
1.0
 40
1.0
 10
157.4608733179924
 20
113.8925010428935
 30
0.0
 10
157.6418096760686
 20
114.0841209022
 30
0.0
 10
157.8209051248454
 20
114.2777627665872
 30
0.0
 10
158.1717451133574
 20
114.6724180199714
 30
0.0
 10
158.3439382212621
 20
114.873429550639
 30
0.0
 10
158.6696697268814
 20
115.2896406658727
 30
0.0
 10
158.8257459620497
 20
115.5056565061595
 30
0.0
 10
159.0771251759388
 20
115.9709792693242
 30
0.0
 10
159.1709903062576
 20
116.226518462347
 30
0.0
 10
159.1672623893954
 20
116.7608490974477
 30
0.0
 10
159.069889746908
 20
117.0162699634484
 30
0.0
 10
158.8180689379142
 20
117.4762986793961
 30
0.0
 10
158.6630996824416
 20
117.6901356803247
 30
0.0
 10
158.3382869247163
 20
118.1041742630184
 30
0.0
 10
158.1673938605884
 20
118.3034667350542
 30
0.0
 10
157.8187596210608
 20
118.6954416274884
 30
0.0
 10
157.6407517705323
 20
118.8878909134778
 30
0.0
 10
157.4608733179924
 20
119.0783904025494
 30
0.0
  0
LINE
  5
195
330
1F
100
AcDbEntity
  8
0
  6
HIDDEN
 62
     7
370
     0
100
AcDbLine
 10
213.2877449094
 20
127.2377549111
 30
0.0
 11
214.3344778202
 21
130.5354775077
 31
0.0
  0
LWPOLYLINE
  5
196
330
1F
100
AcDbEntity
  8
0
  6
HIDDEN
 62
     7
370
     0
100
AcDbPolyline
 90
       32
 70
   128
 43
0.0
 10
191.260873318
 20
108.9229937785
 10
191.7641196182
 20
108.9704425484
 10
192.2467629558
 20
109.1108463
 10
192.6890438557
 20
109.3384568871
 10
193.0728552861
 20
109.6439559057
 10
193.3824839617
 20
110.0148361898
 10
193.6052536484
 20
110.4359138573
 10
193.7320441288
 20
110.8899499388
 10
193.7576645859
 20
111.3583561439
 10
193.6810661152
 20
111.8219558674
 10
193.5053846669
 20
112.2617692823
 10
193.2378126603
 20
112.6597903757
 10
192.8893045248
 20
112.9997241171
 10
192.4741282243
 20
113.2676535794
 10
192.0092811254
 20
113.4526096988
 10
191.513794123
 20
113.54702035
 10
191.007952513
 20
113.54702035
 10
190.5124655106
 20
113.4526096988
 10
190.0476184117
 20
113.2676535794
 10
189.6324421112
 20
112.9997241171
 10
189.2839339756
 20
112.6597903757
 10
189.0163619691
 20
112.2617692823
 10
188.8406805208
 20
111.8219558674
 10
188.7640820501
 20
111.3583561439
 10
188.7897025072
 20
110.8899499388
 10
188.9164929876
 20
110.4359138573
 10
189.1392626743
 20
110.0148361898
 10
189.4488913499
 20
109.6439559057
 10
189.8327027803
 20
109.3384568871
 10
190.2749836802
 20
109.1108463
 10
190.7576270178
 20
108.9704425484
 10
191.260873318
 20
108.9229937785
  0
SPLINE
  5
197
330
1F
100
AcDbEntity
  8
0
  6
HIDDEN
 62
     7
370
     0
100
AcDbSpline
210
0.0
220
0.0
230
1.0
 70
     8
 71
     3
 72
    62
 73
    58
 74
     0
 42
0.00000001
 43
0.00000001
 12
1.0
 22
0.0
 32
0.0
 13
1.0
 23
0.0
 33
0.0
 40
-0.0312499999999999
 40
-0.0312499999999999
 40
0.0
 40
0.0
 40
0.0312499999999999
 40
0.0312499999999999
 40
0.0624999999999999
 40
0.0624999999999999
 40
0.0937499999999998
 40
0.0937499999999998
 40
0.1249999999999997
 40
0.1249999999999997
 40
0.1874999999999999
 40
0.1874999999999999
 40
0.2500000000000001
 40
0.2500000000000001
 40
0.2812500000000002
 40
0.2812500000000002
 40
0.3125000000000003
 40
0.3125000000000003
 40
0.3437500000000004
 40
0.3437500000000004
 40
0.3750000000000005
 40
0.3750000000000005
 40
0.4375000000000006
 40
0.4375000000000006
 40
0.4687500000000007
 40
0.4687500000000007
 40
0.5000000000000008
 40
0.5000000000000008
 40
0.562500000000001
 40
0.562500000000001
 40
0.5937500000000009
 40
0.5937500000000009
 40
0.6250000000000008
 40
0.6250000000000008
 40
0.6562500000000008
 40
0.6562500000000008
 40
0.6875000000000007
 40
0.6875000000000007
 40
0.7187500000000007
 40
0.7187500000000007
 40
0.7500000000000006
 40
0.7500000000000006
 40
0.7812500000000004
 40
0.7812500000000004
 40
0.8125000000000004
 40
0.8125000000000004
 40
0.8437500000000003
 40
0.8437500000000003
 40
0.8750000000000002
 40
0.8750000000000002
 40
0.9062500000000002
 40
0.9062500000000002
 40
0.9375000000000001
 40
0.9375000000000001
 40
0.9687500000000001
 40
0.9687500000000001
 40
1.0
 40
1.0
 40
1.03125
 40
1.03125
 10
163.7146454459207
 20
117.9734247613778
 30
0.0
 10
163.9421457925089
 20
118.2227713032384
 30
0.0
 10
164.0666083214263
 20
118.3343689806953
 30
0.0
 10
164.3357025875781
 20
118.5330197765137
 30
0.0
 10
164.4815156791674
 20
118.6203600213024
 30
0.0
 10
164.7826825574568
 20
118.7645557739447
 30
0.0
 10
164.9390182845212
 20
118.8223754444589
 30
0.0
 10
165.2631415838556
 20
118.9096290565099
 30
0.0
 10
165.4298067955661
 20
118.9384311059917
 30
0.0
 10
165.927823062198
 20
118.9792104112596
 30
0.0
 10
166.268494010991
 20
118.9457671511183
 30
0.0
 10
166.9075049264124
 20
118.7633145066595
 30
0.0
 10
167.2139595334763
 20
118.6118899463468
 30
0.0
 10
167.6105154427387
 20
118.3113920407624
 30
0.0
 10
167.7348646335882
 20
118.1971308555671
 30
0.0
 10
167.9573287276374
 20
117.9474709849945
 30
0.0
 10
168.0548940661146
 20
117.8133043769954
 30
0.0
 10
168.2221496697534
 20
117.5258352824967
 30
0.0
 10
168.2922353252725
 20
117.3705684325968
 30
0.0
 10
168.3962906859941
 20
117.0535890125098
 30
0.0
 10
168.4312664486615
 20
116.8909362610054
 30
0.0
 10
168.4831309681855
 20
116.3899992408028
 30
0.0
 10
168.4438248604141
 20
116.0498446394925
 30
0.0
 10
168.2811050679533
 20
115.5733500073953
 30
0.0
 10
168.210824570067
 20
115.4222826475679
 30
0.0
 10
168.039491424937
 20
115.134988077127
 30
0.0
 10
167.9380991837553
 20
114.9991302988296
 30
0.0
 10
167.6014995965321
 20
114.6303219038314
 30
0.0
 10
167.3262668303674
 20
114.4278967945003
 30
0.0
 10
166.8764836030215
 20
114.2108200678916
 30
0.0
 10
166.7176838045179
 20
114.1515177958174
 30
0.0
 10
166.3951220836382
 20
114.0635452780168
 30
0.0
 10
166.231262971671
 20
114.0344255141706
 30
0.0
 10
165.8984301983171
 20
114.0055688990603
 30
0.0
 10
165.7283779068763
 20
114.0061924222744
 30
0.0
 10
165.3961022428566
 20
114.0374488660787
 30
0.0
 10
165.2323876311079
 20
114.0677675611306
 30
0.0
 10
164.9099221455335
 20
114.1584846001336
 30
0.0
 10
164.751411047007
 20
114.2192535088354
 30
0.0
 10
164.4528573408091
 20
114.3667641836324
 30
0.0
 10
164.311031211607
 20
114.4538992114963
 30
0.0
 10
164.0431094730487
 20
114.6564846780683
 30
0.0
 10
163.9190160426562
 20
114.7708228447105
 30
0.0
 10
163.697881854738
 20
115.0190092826632
 30
0.0
 10
163.5994248526393
 20
115.1540418995171
 30
0.0
 10
163.4300663389044
 20
115.4460462975718
 30
0.0
 10
163.3618995011984
 20
115.5981820440073
 30
0.0
 10
163.258165534872
 20
115.9145909924474
 30
0.0
 10
163.2224969730028
 20
116.0810874618016
 30
0.0
 10
163.1882832083503
 20
116.4143493379121
 30
0.0
 10
163.1891416111794
 20
116.581011791734
 30
0.0
 10
163.226938391129
 20
116.9143999909516
 30
0.0
 10
163.264281146583
 20
117.0801555634311
 30
0.0
 10
163.3715307296514
 20
117.3960468798937
 30
0.0
 10
163.4422919461906
 20
117.5493262129659
 30
0.0
 10
163.6144150962913
 20
117.8387032554524
 30
0.0
 10
163.7146454459207
 20
117.9734247613778
 30
0.0
 10
163.9421457925089
 20
118.2227713032384
 30
0.0
  0
CIRCLE
  5
198
330
1F
100
AcDbEntity
  8
0
  6
HIDDEN
 62
     7
370
     0
100
AcDbCircle
 10
165.760873318
 20
116.4854457227
 30
0.0
 40
2.300000000000011
  0
CIRCLE
  5
199
330
1F
100
AcDbEntity
  8
0
  6
HIDDEN
 62
     7
370
     0
100
AcDbCircle
 10
189.260873318
 20
116.4854457227
 30
0.0
 40
2.0
  0
SPLINE
  5
19A
330
1F
100
AcDbEntity
  8
0
  6
HIDDEN
 62
     7
370
     0
100
AcDbSpline
210
0.0
220
0.0
230
1.0
 70
     8
 71
     3
 72
     9
 73
     5
 74
     0
 42
0.00000001
 43
0.00000001
 12
1.0
 22
0.0
 32
0.0
 13
1.0
 23
0.0
 33
0.0
 40
0.0
 40
0.0
 40
0.0
 40
0.0
 40
0.4999998050383644
 40
1.0
 40
1.0
 40
1.0
 40
1.0
 10
222.7055152257996
 20
131.7282918686321
 30
0.0
 10
222.7720334684449
 20
131.5970347492217
 30
0.0
 10
222.9050700056095
 20
131.3345204080405
 30
0.0
 10
223.0341422770438
 20
131.0700344002898
 30
0.0
 10
223.098678437925
 20
130.9377913448497
 30
0.0
  0
LINE
  5
19B
330
1F
100
AcDbEntity
  8
0
  6
HIDDEN
 62
     7
370
     0
100
AcDbLine
 10
223.0986793829
 20
130.9377912518
 30
0.0
 11
221.7027574468
 21
116.762404
 31
0.0
  0
LINE
  5
19C
330
1F
100
AcDbEntity
  8
0
  6
HIDDEN
 62
     7
370
     0
100
AcDbLine
 10
221.7027574468
 20
116.762404
 30
0.0
 11
221.5057864033
 21
116.4854457227
 31
0.0
  0
LINE
  5
19D
330
1F
100
AcDbEntity
  8
0
  6
HIDDEN
 62
     7
370
     0
100
AcDbLine
 10
177.260873318
 20
100.6854457227
 30
0.0
 11
177.3537665368
 21
100.7783389415
 31
0.0
  0
LINE
  5
19E
330
1F
100
AcDbEntity
  8
0
  6
HIDDEN
 62
     7
370
     0
100
AcDbLine
 10
177.3537665368
 20
132.1925525039
 30
0.0
 11
177.260873318
 21
132.2854457227
 31
0.0
  0
ARC
  5
19F
330
1F
100
AcDbEntity
  8
0
  6
HIDDEN
 62
     7
370
     0
100
AcDbCircle
 10
176.6466597556
 20
101.4854457227
 30
0.0
 40
1.0
100
AcDbArc
 50
315.0
 51
0.0
  0
ARC
  5
1A0
330
1F
100
AcDbEntity
  8
0
  6
HIDDEN
 62
     7
370
     0
100
AcDbCircle
 10
176.6466597556
 20
101.4854457227
 30
0.0
 40
1.0
100
AcDbArc
 50
0.0
 51
52.1052014664
  0
ARC
  5
1A1
330
1F
100
AcDbEntity
  8
0
  6
HIDDEN
 62
     7
370
     0
100
AcDbCircle
 10
176.6466597556
 20
131.4854457227
 30
0.0
 40
1.000000000000002
100
AcDbArc
 50
351.8087250651
 51
45.0
  0
ARC
  5
1A2
330
1F
100
AcDbEntity
  8
0
  6
HIDDEN
 62
     7
370
     0
100
AcDbCircle
 10
176.6466597556
 20
131.4854457227
 30
0.0
 40
1.000000000000002
100
AcDbArc
 50
307.8947985336
 51
351.8087250651
  0
LINE
  5
1A3
330
1F
100
AcDbEntity
  8
0
  6
HIDDEN
 62
     7
370
     0
100
AcDbLine
 10
177.6466597556
 20
101.4854457227
 30
0.0
 11
177.6466597556
 21
131.4854457227
 31
0.0
  0
LINE
  5
1A4
330
1F
100
AcDbEntity
  8
0
  6
HIDDEN
 62
     7
370
     0
100
AcDbLine
 10
177.6466597556
 20
101.4854457227
 30
0.0
 11
177.6466597556
 21
131.4854457227
 31
0.0
  0
LINE
  5
1A5
330
1F
100
AcDbEntity
  8
0
  6
HIDDEN
 62
     7
370
     0
100
AcDbLine
 10
189.160873318
 20
122.104544624
 30
0.0
 11
189.160873318
 21
118.8266468151
 31
0.0
  0
LINE
  5
1A6
330
1F
100
AcDbEntity
  8
0
  6
HIDDEN
 62
     7
370
     0
100
AcDbLine
 10
193.360873318
 20
121.9932964727
 30
0.0
 11
193.360873318
 21
122.104544624
 31
0.0
  0
LINE
  5
1A7
330
1F
100
AcDbEntity
  8
0
  6
HIDDEN
 62
     7
370
     0
100
AcDbLine
 10
193.360873318
 20
118.8267007717
 30
0.0
 11
193.360873318
 21
120.6904725686
 31
0.0
  0
LINE
  5
1A8
330
1F
100
AcDbEntity
  8
0
  6
HIDDEN
 62
     7
370
     0
100
AcDbLine
 10
192.8949704347
 20
119.8865167586
 30
0.0
 11
197.760488537
 21
122.9485934354
 31
0.0
  0
LINE
  5
1A9
330
1F
100
AcDbEntity
  8
0
  6
HIDDEN
 62
     7
370
     0
100
AcDbLine
 10
197.8074990999
 20
127.9407094568
 30
0.0
 11
190.7409656444
 21
123.4934405688
 31
0.0
  0
LINE
  5
1AA
330
1F
100
AcDbEntity
  8
0
  6
HIDDEN
 62
     7
370
     0
100
AcDbLine
 10
153.260873318
 20
106.3297951984
 30
0.0
 11
154.28790535
 21
106.9227524186
 31
0.0
  0
LINE
  5
1AB
330
1F
100
AcDbEntity
  8
0
  6
HIDDEN
 62
     7
370
     0
100
AcDbLine
 10
154.28790535
 20
126.0481390268
 30
0.0
 11
153.260873318
 21
126.641096247
 31
0.0
  0
ARC
  5
1AC
330
1F
100
AcDbEntity
  8
0
  6
HIDDEN
 62
     7
370
     0
100
AcDbCircle
 10
158.760873318
 20
107.4854457227
 30
0.0
 40
1.000000000000008
100
AcDbArc
 50
193.3524261238
 51
270.0
  0
ARC
  5
1AD
330
1F
100
AcDbEntity
  8
0
  6
HIDDEN
 62
     7
370
     0
100
AcDbCircle
 10
158.760873318
 20
125.4854457227
 30
0.0
 40
1.000000000000004
100
AcDbArc
 50
90.0
 51
166.6475738762
  0
LINE
  5
1AE
330
1F
100
AcDbEntity
  8
0
  6
HIDDEN
 62
     7
370
     0
100
AcDbLine
 10
158.760873318
 20
106.4854457227
 30
0.0
 11
159.7736917877
 21
106.4854457227
 31
0.0
  0
LINE
  5
1AF
330
1F
100
AcDbEntity
  8
0
  6
HIDDEN
 62
     7
370
     0
100
AcDbLine
 10
159.7736917877
 20
126.4854457227
 30
0.0
 11
158.760873318
 21
126.4854457227
 31
0.0
  0
ARC
  5
1B0
330
1F
100
AcDbEntity
  8
0
  6
HIDDEN
 62
     7
370
     0
100
AcDbCircle
 10
159.7736917877
 20
107.4854457227
 30
0.0
 40
1.0
100
AcDbArc
 50
270.0
 51
315.0
  0
ARC
  5
1B1
330
1F
100
AcDbEntity
  8
0
  6
HIDDEN
 62
     7
370
     0
100
AcDbCircle
 10
159.7736917877
 20
125.4854457227
 30
0.0
 40
1.0
100
AcDbArc
 50
45.0
 51
90.0
  0
LINE
  5
1B2
330
1F
100
AcDbEntity
  8
0
  6
HIDDEN
 62
     7
370
     0
100
AcDbLine
 10
160.4807985689
 20
106.7783389415
 30
0.0
 11
161.18790535
 21
107.4854457227
 31
0.0
  0
LINE
  5
1B3
330
1F
100
AcDbEntity
  8
0
  6
HIDDEN
 62
     7
370
     0
100
AcDbLine
 10
161.18790535
 20
125.4854457227
 30
0.0
 11
160.4807985689
 21
126.1925525039
 31
0.0
  0
LINE
  5
1B4
330
1F
100
AcDbEntity
  8
0
  6
HIDDEN
 62
     7
370
     0
100
AcDbLine
 10
154.28790535
 20
106.9227524186
 30
0.0
 11
156.38790535
 21
107.4854457227
 31
0.0
  0
LINE
  5
1B5
330
1F
100
AcDbEntity
  8
0
  6
HIDDEN
 62
     7
370
     0
100
AcDbLine
 10
156.38790535
 20
125.4854457227
 30
0.0
 11
154.28790535
 21
126.0481390268
 31
0.0
  0
LINE
  5
1B6
330
1F
100
AcDbEntity
  8
0
  6
HIDDEN
 62
     7
370
     0
100
AcDbLine
 10
157.78790535
 20
125.7163858304
 30
0.0
 11
157.38790535
 21
125.4854457227
 31
0.0
  0
LINE
  5
1B7
330
1F
100
AcDbEntity
  8
0
  6
HIDDEN
 62
     7
370
     0
100
AcDbLine
 10
157.38790535
 20
107.4854457227
 30
0.0
 11
157.78790535
 21
107.254505615
 31
0.0
  0
ARC
  5
1B8
330
1F
100
AcDbEntity
  8
0
  6
HIDDEN
 62
     7
370
     0
100
AcDbCircle
 10
167.760873318
 20
107.9854457227
 30
0.0
 40
0.5
100
AcDbArc
 50
270.0
 51
0.0
  0
ARC
  5
1B9
330
1F
100
AcDbEntity
  8
0
  6
HIDDEN
 62
     7
370
     0
100
AcDbCircle
 10
167.760873318
 20
124.9854457227
 30
0.0
 40
0.5
100
AcDbArc
 50
0.0
 51
90.0
  0
LINE
  5
1BA
330
1F
100
AcDbEntity
  8
0
  6
HIDDEN
 62
     7
370
     0
100
AcDbLine
 10
161.18790535
 20
107.4854457227
 30
0.0
 11
167.760873318
 21
107.4854457227
 31
0.0
  0
LINE
  5
1BB
330
1F
100
AcDbEntity
  8
0
  6
HIDDEN
 62
     7
370
     0
100
AcDbLine
 10
167.760873318
 20
125.4854457227
 30
0.0
 11
161.18790535
 21
125.4854457227
 31
0.0
  0
LINE
  5
1BC
330
1F
100
AcDbEntity
  8
0
  6
HIDDEN
 62
     7
370
     0
100
AcDbLine
 10
156.38790535
 20
107.4854457227
 30
0.0
 11
157.38790535
 21
107.4854457227
 31
0.0
  0
LINE
  5
1BD
330
1F
100
AcDbEntity
  8
0
  6
HIDDEN
 62
     7
370
     0
100
AcDbLine
 10
157.38790535
 20
125.4854457227
 30
0.0
 11
156.38790535
 21
125.4854457227
 31
0.0
  0
LINE
  5
1BE
330
1F
100
AcDbEntity
  8
0
  6
HIDDEN
 62
     7
370
     0
100
AcDbLine
 10
168.260873318
 20
109.3354457227
 30
0.0
 11
169.160873318
 21
110.2354457227
 31
0.0
  0
LINE
  5
1BF
330
1F
100
AcDbEntity
  8
0
  6
HIDDEN
 62
     7
370
     0
100
AcDbLine
 10
169.160873318
 20
122.7354457227
 30
0.0
 11
168.260873318
 21
123.6354457227
 31
0.0
  0
LINE
  5
1C0
330
1F
100
AcDbEntity
  8
0
  6
HIDDEN
 62
     7
370
     0
100
AcDbLine
 10
169.160873318
 20
110.2354457227
 30
0.0
 11
194.260873318
 21
110.2354457227
 31
0.0
  0
LINE
  5
1C1
330
1F
100
AcDbEntity
  8
0
  6
HIDDEN
 62
     7
370
     0
100
AcDbLine
 10
194.260873318
 20
122.7354457227
 30
0.0
 11
169.160873318
 21
122.7354457227
 31
0.0
  0
LINE
  5
1C2
330
1F
100
AcDbEntity
  8
0
  6
HIDDEN
 62
     7
370
     0
100
AcDbLine
 10
194.260873318
 20
110.2354457227
 30
0.0
 11
198.0162521869
 21
116.4854457227
 31
0.0
  0
LINE
  5
1C3
330
1F
100
AcDbEntity
  8
0
  6
HIDDEN
 62
     7
370
     0
100
AcDbLine
 10
198.0162521869
 20
116.4854457227
 30
0.0
 11
194.260873318
 21
122.7354457227
 31
0.0
  0
LINE
  5
1C4
330
1F
100
AcDbEntity
  8
0
  6
HIDDEN
 62
     7
370
     0
100
AcDbLine
 10
213.4042200373
 20
127.0904864474
 30
0.0
 11
212.9778068786
 21
126.6664092246
 31
0.0
  0
LINE
  5
1C5
330
1F
100
AcDbEntity
  8
0
  6
HIDDEN
 62
     7
370
     0
100
AcDbLine
 10
217.9139408744
 20
121.7030856228
 30
0.0
 11
218.3403540331
 21
122.1271628456
 31
0.0
  0
LINE
  5
1C6
330
1F
100
AcDbEntity
  8
0
  6
HIDDEN
 62
     7
370
     0
100
AcDbLine
 10
211.0386425712
 20
133.7079617316
 30
0.0
 11
210.5473587939
 21
133.2193692581
 31
0.0
  0
LINE
  5
1C7
330
1F
100
AcDbEntity
  8
0
  6
HIDDEN
 62
     7
370
     0
100
AcDbLine
 10
218.2996442326
 20
125.8436018886
 30
0.0
 11
220.1506855767
 21
129.8459720365
 31
0.0
  0
LINE
  5
1C8
330
1F
100
AcDbEntity
  8
0
  6
HIDDEN
 62
     7
370
     0
100
AcDbLine
 10
212.440228553
 20
127.1190175032
 30
0.0
 11
210.4927068396
 21
125.1821645174
 31
0.0
  0
LINE
  5
1C9
330
1F
100
AcDbEntity
  8
0
  6
HIDDEN
 62
     7
370
     0
100
AcDbLine
 10
216.4160676345
 20
119.2261761953
 30
0.0
 11
218.363589348
 21
121.1630291811
 31
0.0
  0
LINE
  5
1CA
330
1F
100
AcDbEntity
  8
0
  6
HIDDEN
 62
     7
370
     0
100
AcDbLine
 10
210.7019797201
 20
133.290030131
 30
0.0
 11
210.3946660381
 21
132.9843999455
 31
0.0
  0
LINE
  5
1CB
330
1F
100
AcDbEntity
  8
0
  6
HIDDEN
 62
     7
370
     0
100
AcDbLine
 10
189.160873318
 20
114.1441906738
 30
0.0
 11
189.160873318
 21
111.3309879547
 31
0.0
  0
LINE
  5
1CC
330
1F
100
AcDbEntity
  8
0
  6
HIDDEN
 62
     7
370
     0
100
AcDbLine
 10
193.360873318
 20
111.3309879547
 30
0.0
 11
193.360873318
 21
114.1442446303
 31
0.0
  0
LINE
  5
1CD
330
1F
100
AcDbEntity
  8
0
  6
HIDDEN
 62
     7
370
     0
100
AcDbLine
 10
217.2233108807
 20
138.0498690383
 30
0.0
 11
216.6379514864
 21
137.467716304
 31
0.0
  0
LINE
  5
1CE
330
1F
100
AcDbEntity
  8
0
  6
HIDDEN
 62
     7
370
     0
100
AcDbLine
 10
221.1509882825
 20
132.9298204395
 30
0.0
 11
221.7363476768
 21
133.5119731738
 31
0.0
  0
LINE
  5
1CF
330
1F
100
AcDbEntity
  8
0
  6
HIDDEN
 62
     7
370
     0
100
AcDbLine
 10
216.1260894467
 20
134.4372502728
 30
0.0
 11
214.4017605865
 21
130.7088611812
 31
0.0
  0
LINE
  5
1D0
330
1F
100
AcDbEntity
  8
0
  6
HIDDEN
 62
     7
370
     0
100
AcDbLine
 10
188.760873318
 20
111.2409534149
 30
0.0
 11
188.760873318
 21
108.9936607858
 31
0.0
  0
LINE
  5
1D1
330
1F
100
AcDbEntity
  8
0
  6
HIDDEN
 62
     7
370
     0
100
AcDbLine
 10
193.760873318
 20
108.9933138544
 30
0.0
 11
193.760873318
 21
111.2409534149
 31
0.0
  0
LINE
  5
1D2
330
1F
100
AcDbEntity
  8
VERMASSUNG
  6
CENTERX2
100
AcDbLine
 10
227.260873318
 20
143.4854457227
 30
0.0
 11
239.325385074
 21
143.4854457227
 31
0.0
  0
LINE
  5
1D3
330
1F
100
AcDbEntity
  8
VERMASSUNG
  6
CENTERX2
100
AcDbLine
 10
149.6115913679
 20
116.4854457227
 30
0.0
 11
227.260873318
 21
116.4854457227
 31
0.0
  0
LINE
  5
1D4
330
1F
100
AcDbEntity
  8
VERMASSUNG
  6
CENTERX2
100
AcDbLine
 10
227.260873318
 20
143.4854457227
 30
0.0
 11
227.260873318
 21
116.4854457227
 31
0.0
  0
DIMENSION
  5
1D5
330
1F
100
AcDbEntity
  8
VERMASSUNG
100
AcDbDimension
  2
_D
 10
243.2940308534
 20
116.4854457227
 30
0.0
 11
243.2940308534
 21
129.9854457227
 31
0.0
 70
   160
  1
<>
 71
     2
 42
-1.0
  3
SLDDIMSTYLE0
100
AcDbAlignedDimension
 13
227.260873318
 23
143.4854457227
 33
0.0
 14
227.260873318
 24
116.4854457227
 34
0.0
 50
90.0
100
AcDbRotatedDimension
  0
DIMENSION
  5
1E2
330
1F
100
AcDbEntity
  8
VERMASSUNG
100
AcDbDimension
  2
_D_1
 10
239.325385074
 20
143.4854457227
 30
0.0
 11
234.3543365475
 21
135.7837412784
 31
0.0
 70
   162
  1
<>
 71
     1
 42
-1.0
  3
SLDDIMSTYLE1
100
AcDb2LineAngularDimension
 13
226.2119757177
 23
131.0884429328
 33
0.0
 14
227.2593595356
 24
143.0485877908
 34
0.0
 15
227.260873318
 25
143.4854457227
 35
0.0
 16
234.3543365475
 26
135.7837412784
 36
0.0
  0
DIMENSION
  5
1EB
330
1F
100
AcDbEntity
  8
VERMASSUNG
100
AcDbDimension
  2
_D_2
 10
177.260873318
 20
154.6835508951
 30
0.0
 11
202.260873318
 21
154.6835508951
 31
0.0
 70
   160
  1
<>
 71
     2
 42
-1.0
  3
SLDDIMSTYLE0
100
AcDbAlignedDimension
 13
227.260873318
 23
143.4854457227
 33
0.0
 14
177.260873318
 24
136.1854457227
 34
0.0
100
AcDbRotatedDimension
  0
DIMENSION
  5
1F7
330
1F
100
AcDbEntity
  8
VERMASSUNG
100
AcDbDimension
  2
_D_3
 10
153.260873318
 20
160.6835508951
 30
0.0
 11
190.260873318
 21
160.6835508951
 31
0.0
 70
   160
  1
<>
 71
     2
 42
-1.0
  3
SLDDIMSTYLE2
100
AcDbAlignedDimension
 13
227.260873318
 23
143.4854457227
 33
0.0
 14
153.260873318
 24
129.1169507048
 34
0.0
100
AcDbRotatedDimension
  0
DIMENSION
  5
202
330
1F
100
AcDbEntity
  8
VERMASSUNG
100
AcDbDimension
  2
_D_4
 10
146.5358047538
 20
96.4854457227
 30
0.0
 11
146.5358047538
 21
116.4854457227
 31
0.0
 70
   160
  1
PSC%%c<>
 71
     2
 42
-1.0
  3
SLDDIMSTYLE2
100
AcDbAlignedDimension
 13
177.560873318
 23
136.4854457227
 33
0.0
 14
177.560873318
 24
96.4854457227
 34
0.0
 50
90.0
100
AcDbRotatedDimension
  0
LINE
  5
20E
330
1F
100
AcDbEntity
  8
0
  6
Continuous
 62
     7
370
    15
100
AcDbLine
 10
83.8611867264
 20
128.3077457545
 30
0.0
 11
83.6397172868
 21
128.1263688205
 31
0.0
  0
LINE
  5
20F
330
1F
100
AcDbEntity
  8
0
  6
Continuous
 62
     7
370
    15
100
AcDbLine
 10
82.9120707683
 20
121.2032748943
 30
0.0
 11
83.0909901749
 21
120.9798152184
 31
0.0
  0
LINE
  5
210
330
1F
100
AcDbEntity
  8
0
  6
Continuous
 62
     7
370
    15
100
AcDbLine
 10
90.8533768714
 20
142.9905918983
 30
0.0
 11
86.1453856021
 21
143.4854222087
 31
0.0
  0
LINE
  5
211
330
1F
100
AcDbEntity
  8
0
  6
Continuous
 62
     7
370
    15
100
AcDbLine
 10
85.2494506151
 20
141.3168171046
 30
0.0
 11
84.8245835848
 21
140.7200479505
 31
0.0
  0
SPLINE
  5
212
330
1F
100
AcDbEntity
  8
0
  6
Continuous
 62
     7
370
    15
100
AcDbSpline
210
0.0
220
0.0
230
1.0
 70
     8
 71
     3
 72
     9
 73
     5
 74
     0
 42
0.00000001
 43
0.00000001
 12
1.0
 22
0.0
 32
0.0
 13
1.0
 23
0.0
 33
0.0
 40
0.0
 40
0.0
 40
0.0
 40
0.0
 40
0.807479200211624
 40
1.0
 40
1.0
 40
1.0
 40
1.0
 10
85.35809509774224
 20
141.5318147835954
 30
0.0
 10
85.35983342573559
 20
141.5335414248285
 30
0.0
 10
85.36198620935265
 20
141.5356797353046
 30
0.0
 10
85.35238004869356
 20
141.502629129907
 30
0.0
 10
85.35053066296057
 20
141.4962662009223
 30
0.0
  0
LINE
  5
213
330
1F
100
AcDbEntity
  8
0
  6
Continuous
 62
     7
370
    15
100
AcDbLine
 10
83.8535382398
 20
132.0705795286
 30
0.0
 11
84.1572190154
 21
131.3704503325
 31
0.0
  0
SPLINE
  5
214
330
1F
100
AcDbEntity
  8
0
  6
Continuous
 62
     7
370
    15
100
AcDbSpline
210
0.0
220
0.0
230
1.0
 70
     8
 71
     3
 72
    13
 73
     9
 74
     0
 42
0.00000001
 43
0.00000001
 12
1.0
 22
0.0
 32
0.0
 13
1.0
 23
0.0
 33
0.0
 40
0.0
 40
0.0
 40
0.0
 40
0.0
 40
0.1817236030373323
 40
0.369804312509426
 40
0.5385553519849527
 40
0.7041084263208554
 40
0.92265808406886
 40
1.0
 40
1.0
 40
1.0
 40
1.0
 10
84.17226034068987
 20
131.3780853150114
 30
0.0
 10
84.19077426606246
 20
131.3302772517064
 30
0.0
 10
84.22844977617689
 20
131.2329886899158
 30
0.0
 10
84.23532006632823
 20
131.0943410065991
 30
0.0
 10
84.2234892666969
 20
130.9928321596166
 30
0.0
 10
84.20817058723354
 20
130.9339197393095
 30
0.0
 10
84.19953996730511
 20
130.9119246248306
 30
0.0
 10
84.20155818060302
 20
130.9165467573686
 30
0.0
 10
84.20208571331129
 20
130.9177549181207
 30
0.0
  0
LINE
  5
215
330
1F
100
AcDbEntity
  8
0
  6
Continuous
 62
     7
370
    15
100
AcDbLine
 10
83.3325473111
 20
129.8138005284
 30
0.0
 11
83.6310848579
 21
129.7824233396
 31
0.0
  0
LINE
  5
216
330
1F
100
AcDbEntity
  8
0
  6
Continuous
 62
     7
370
    15
100
AcDbLine
 10
93.493998608
 20
142.0111311225
 30
0.0
 11
90.8194385454
 21
142.2922396658
 31
0.0
  0
LINE
  5
217
330
1F
100
AcDbEntity
  8
0
  6
Continuous
 62
     7
370
    15
100
AcDbLine
 10
93.7666051075
 20
141.6769297419
 30
0.0
 11
93.5043456018
 21
142.0044758914
 31
0.0
  0
LWPOLYLINE
  5
218
330
1F
100
AcDbEntity
  8
0
  6
Continuous
 62
     7
370
    15
100
AcDbPolyline
 90
       38
 70
   128
 43
0.0
 10
83.7160133276
 20
128.118563406
 10
83.7649231296
 20
128.0009094251
 10
83.8008644976
 20
127.7871662376
 10
83.8228036635
 20
127.4834833665
 10
83.8301094234
 20
127.0985966174
 10
83.8225715313
 20
126.6435794158
 10
83.8004067525
 20
126.1315215004
 10
83.764253043
 20
125.5771536005
 10
83.7151502244
 20
124.9964236838
 10
83.6545108803
 20
124.406038746
 10
83.5840793777
 20
123.8229828512
 10
83.5058822747
 20
123.2640295846
 10
83.4221689481
 20
122.7452586962
 10
83.3353477981
 20
122.2815946301
 10
83.247916399
 20
121.886376254
 10
83.1623897873
 20
121.5709726883
 10
83.0812287502
 20
121.3444582743
 10
83.0067681134
 20
121.2133490106
 10
82.9411499187
 20
121.1814167535
 10
82.8862617243
 20
121.249579787
 10
82.8436825875
 20
121.4158776773
 10
82.8146376632
 20
121.6755262201
 10
82.7999623478
 20
122.0210557429
 10
82.8000787631
 20
122.442525774
 10
82.8149838824
 20
122.9278118906
 10
82.8442485988
 20
123.462952636
 10
82.8870309968
 20
124.0325532479
 10
82.9421005663
 20
124.620228037
 10
83.0078728948
 20
125.2090697733
 10
83.0824557677
 20
125.7821386305
 10
83.1637036506
 20
126.3229492677
 10
83.2492791567
 20
126.8159420786
 10
83.3367205676
 20
127.2469358144
 10
83.4235121481
 20
127.6035317776
 10
83.5071572554
 20
127.8754705188
 10
83.5852493517
 20
128.0549289284
 10
83.6555420872
 20
128.1367446853
 10
83.7160133276
 20
128.118563406
  0
LWPOLYLINE
  5
219
330
1F
100
AcDbEntity
  8
0
  6
Continuous
 62
     7
370
    15
100
AcDbPolyline
 90
       29
 70
   128
 43
0.0
 10
83.5437798858
 20
126.6366662083
 10
83.5791710749
 20
126.5360265596
 10
83.6012720581
 20
126.3413549957
 10
83.6089747943
 20
126.0624136401
 10
83.6018930175
 20
125.7131900264
 10
83.5803820271
 20
125.3111948816
 10
83.5455202948
 20
124.8765866829
 10
83.4990559131
 20
124.4311583785
 10
83.4433188182
 20
123.9972449464
 10
83.3811041419
 20
123.5966053417
 10
83.3155311164
 20
123.2493286578
 10
83.2498882417
 20
122.9728292299
 10
83.1874670446
 20
122.7809721229
 10
83.1313974675
 20
122.6833774334
 10
83.0844911732
 20
122.6849392613
 10
83.0491002169
 20
122.78557891
 10
83.0269992337
 20
122.9802500082
 10
83.0192964975
 20
123.2591913638
 10
83.0263780415
 20
123.6084149776
 10
83.0478892647
 20
124.0104101224
 10
83.082750997
 20
124.4450183211
 10
83.1292153787
 20
124.8904466254
 10
83.1849522408
 20
125.3243600575
 10
83.2471671499
 20
125.7250001279
 10
83.3127399426
 20
126.0722763462
 10
83.3783828173
 20
126.348775774
 10
83.4408040144
 20
126.540632881
 10
83.4968735915
 20
126.6382280362
 10
83.5437798858
 20
126.6366662083
  0
LINE
  5
21A
330
1F
100
AcDbEntity
  8
0
  6
Continuous
 62
     7
370
    15
100
AcDbLine
 10
83.556122471
 20
125.0238222627
 30
0.0
 11
83.4190115318
 21
124.8318254573
 31
0.0
  0
LINE
  5
21B
330
1F
100
AcDbEntity
  8
0
  6
Continuous
 62
     7
370
    15
100
AcDbLine
 10
83.4190115318
 20
124.8318254573
 30
0.0
 11
83.512527727
 21
124.5806254072
 31
0.0
  0
LINE
  5
21C
330
1F
100
AcDbEntity
  8
0
  6
Continuous
 62
     7
370
    15
100
AcDbLine
 10
83.5401183911
 20
124.8190970717
 30
0.0
 11
83.4190115318
 21
124.8318254573
 31
0.0
  0
LINE
  5
21D
330
1F
100
AcDbEntity
  8
0
  6
Continuous
 62
     7
370
    15
100
AcDbLine
 10
83.3363305763
 20
129.814933948
 30
0.0
 11
84.6977933295
 21
130.7307919113
 31
0.0
  0
ARC
  5
21E
330
1F
100
AcDbEntity
  8
0
  6
Continuous
 62
     7
370
    15
100
AcDbCircle
 10
84.2204042764
 20
130.0322811972
 30
0.0
 40
0.9103988873239525
100
AcDbArc
 50
166.1226874348
 51
193.8120965695
  0
LINE
  5
21F
330
1F
100
AcDbEntity
  8
0
  6
Continuous
 62
     7
370
    15
100
AcDbLine
 10
84.7043313304
 20
142.2107787428
 30
0.0
 11
83.3365785409
 21
130.2506345881
 31
0.0
  0
ARC
  5
220
330
1F
100
AcDbEntity
  8
0
  6
Continuous
 62
     7
370
    15
100
AcDbCircle
 10
85.7728119584
 20
142.1711631763
 30
0.0
 40
1.069214779841039
100
AcDbArc
 50
158.1887065662
 51
177.87664326
  0
LINE
  5
221
330
1F
100
AcDbEntity
  8
0
  6
Continuous
 62
     7
370
    15
100
AcDbLine
 10
86.1416023552
 20
143.4842897204
 30
0.0
 11
84.7801394746
 21
142.5684308259
 31
0.0
  0
ARC
  5
222
330
1F
100
AcDbEntity
  8
0
  6
Continuous
 62
     7
370
    15
100
AcDbCircle
 10
85.2575178616
 20
143.2669418981
 30
0.0
 40
0.9104095055075577
100
AcDbArc
 50
346.1227689318
 51
13.8119694247
  0
LINE
  5
223
330
1F
100
AcDbEntity
  8
0
  6
Continuous
 62
     7
370
    15
100
AcDbLine
 10
84.7736014737
 20
131.088443063
 30
0.0
 11
86.1413542159
 21
143.0485872177
 31
0.0
  0
ARC
  5
224
330
1F
100
AcDbEntity
  8
0
  6
Continuous
 62
     7
370
    15
100
AcDbCircle
 10
83.7051380348
 20
131.1280560206
 30
0.0
 40
1.06919750594031
100
AcDbArc
 50
338.1885404557
 51
357.8767488417
  0
ARC
  5
225
330
1F
100
AcDbEntity
  8
0
  6
Continuous
 62
     7
370
    15
100
AcDbCircle
 10
85.2998400178
 20
143.2579750857
 30
0.0
 40
0.864869986335054
100
AcDbArc
 50
346.1225343862
 51
13.8122042222
  0
LINE
  5
226
330
1F
100
AcDbEntity
  8
0
  6
Continuous
 62
     7
370
    15
100
AcDbLine
 10
86.1397009474
 20
143.4644544122
 30
0.0
 11
84.7782380631
 21
142.5485955177
 31
0.0
  0
ARC
  5
227
330
1F
100
AcDbEntity
  8
0
  6
Continuous
 62
     7
370
    15
100
AcDbCircle
 10
85.7212363784
 20
142.171199792
 30
0.0
 40
1.015713225413319
100
AcDbArc
 50
158.1883041211
 51
177.8768980986
  0
LINE
  5
228
330
1F
100
AcDbEntity
  8
0
  6
Continuous
 62
     7
370
    15
100
AcDbLine
 10
84.7062204018
 20
142.2088285533
 30
0.0
 11
83.3384677287
 21
130.2486834673
 31
0.0
  0
ARC
  5
229
330
1F
100
AcDbEntity
  8
0
  6
Continuous
 62
     7
370
    15
100
AcDbCircle
 10
84.1781015426
 20
130.0412469235
 30
0.0
 40
0.8648785238472062
100
AcDbArc
 50
166.1226244506
 51
193.8120790538
  0
LINE
  5
22A
330
1F
100
AcDbEntity
  8
0
  6
Continuous
 62
     7
370
    15
100
AcDbLine
 10
83.3382318713
 20
129.8347673936
 30
0.0
 11
84.699694741
 21
130.7506262881
 31
0.0
  0
ARC
  5
22B
330
1F
100
AcDbEntity
  8
0
  6
Continuous
 62
     7
370
    15
100
AcDbCircle
 10
83.7566809753
 20
131.1280255333
 30
0.0
 40
1.015728877432194
100
AcDbArc
 50
338.1884436276
 51
357.8767847326
  0
LINE
  5
22C
330
1F
100
AcDbEntity
  8
0
  6
Continuous
 62
     7
370
    15
100
AcDbLine
 10
84.7717125187
 20
131.0903941838
 30
0.0
 11
86.1394652173
 21
143.0505392698
 31
0.0
  0
ARC
  5
22D
330
1F
100
AcDbEntity
  8
0
  6
Continuous
 62
     7
370
    15
100
AcDbCircle
 10
89.8262387896
 20
142.781635478
 30
0.0
 40
1.048177191458767
100
AcDbArc
 50
347.4434645192
 51
11.4990795306
  0
LINE
  5
22E
330
1F
100
AcDbEntity
  8
0
  6
Continuous
 62
     7
370
    15
100
AcDbLine
 10
89.4815927357
 20
130.5936127526
 30
0.0
 11
90.8493456416
 21
142.55375877
 31
0.0
  0
LINE
  5
22F
330
1F
100
AcDbEntity
  8
0
  6
Continuous
 62
     7
370
    15
100
AcDbLine
 10
85.3136882986
 20
141.5348248182
 30
0.0
 11
84.95910731
 21
142.1489463744
 31
0.0
  0
ARC
  5
230
330
1F
100
AcDbEntity
  8
0
  6
Continuous
 62
     7
370
    15
100
AcDbCircle
 10
88.4131397346
 20
130.6332242092
 30
0.0
 40
1.069187019642848
100
AcDbArc
 50
338.1884559622
 51
357.8768085019
  0
LINE
  5
231
330
1F
100
AcDbEntity
  8
0
  6
Continuous
 62
     7
370
    15
100
AcDbLine
 10
84.2215878409
 20
130.993533842
 30
0.0
 11
83.5913546369
 21
130.1888022197
 31
0.0
  0
ARC
  5
232
330
1F
100
AcDbEntity
  8
0
  6
Continuous
 62
     7
370
    15
100
AcDbCircle
 10
83.3875748627
 20
140.7010501866
 30
0.0
 40
2.275996486362248
100
AcDbArc
 50
346.1226494128
 51
13.8120917823
  0
LINE
  5
233
330
1F
100
AcDbEntity
  8
0
  6
Continuous
 62
     7
370
    15
100
AcDbLine
 10
89.3291927394
 20
130.1844389734
 30
0.0
 11
89.4057847079
 21
130.2359625322
 31
0.0
  0
LINE
  5
234
330
1F
100
AcDbEntity
  8
0
  6
Continuous
 62
     7
370
    15
100
AcDbLine
 10
84.8316562813
 20
133.4615042058
 30
0.0
 11
85.5971381286
 21
140.1551654188
 31
0.0
  0
ARC
  5
235
330
1F
100
AcDbEntity
  8
0
  6
Continuous
 62
     7
370
    15
100
AcDbCircle
 10
82.160498565
 20
133.5605367687
 30
0.0
 40
2.672992890734851
100
AcDbArc
 50
338.1885398076
 51
357.8767445231
  0
LINE
  5
236
330
1F
100
AcDbEntity
  8
0
  6
Continuous
 62
     7
370
    15
100
AcDbLine
 10
83.8801742982
 20
132.0548047868
 30
0.0
 11
84.6421359791
 21
132.5673767922
 31
0.0
  0
ARC
  5
237
330
1F
100
AcDbEntity
  8
0
  6
Continuous
 62
     7
370
    15
100
AcDbCircle
 10
86.0903590181
 20
132.5981721956
 30
0.0
 40
2.275997503673758
100
AcDbArc
 50
166.1226465377
 51
193.8120762867
  0
LINE
  5
238
330
1F
100
AcDbEntity
  8
0
  6
Continuous
 62
     7
370
    15
100
AcDbLine
 10
84.6462765228
 20
139.8377185313
 30
0.0
 11
83.8807947919
 21
133.1440573184
 31
0.0
  0
ARC
  5
239
330
1F
100
AcDbEntity
  8
0
  6
Continuous
 62
     7
370
    15
100
AcDbCircle
 10
87.3174048011
 20
139.7386898161
 30
0.0
 40
2.672963330337251
100
AcDbArc
 50
158.188418065
 51
177.876803564
  0
LINE
  5
23A
330
1F
100
AcDbEntity
  8
0
  6
Continuous
 62
     7
370
    15
100
AcDbLine
 10
85.5977584477
 20
141.2444179503
 30
0.0
 11
84.8357969415
 21
140.7318440823
 31
0.0
  0
LWPOLYLINE
  5
23B
330
1F
100
AcDbEntity
  8
0
  6
Continuous
 62
     7
370
    15
100
AcDbPolyline
 90
       33
 70
   128
 43
0.0
 10
84.9826474194
 20
136.397899091
 10
85.0349379223
 20
136.9009269027
 10
85.0758545319
 20
137.3942968992
 10
85.1038245935
 20
137.8590492157
 10
85.117773361
 20
138.2773248104
 10
85.1171648581
 20
138.6330453304
 10
85.1020223679
 20
138.9125464109
 10
85.0729278507
 20
139.1050824521
 10
85.0309993591
 20
139.20325689
 10
84.9778481977
 20
139.2032960055
 10
84.9155169897
 20
139.1051979361
 10
84.8464009803
 20
138.9127345381
 10
84.7731564179
 20
138.6332986502
 10
84.6985978758
 20
138.2776321469
 10
84.6255906843
 20
137.8594012556
 10
84.5569404526
 20
137.3946787415
 10
84.4952853847
 20
136.9013236461
 10
84.4429948818
 20
136.3982958344
 10
84.4020783886
 20
135.9049258379
 10
84.374108327
 20
135.4401735214
 10
84.3601594431
 20
135.0218979267
 10
84.3607680624
 20
134.666175544
 10
84.3759105526
 20
134.3866763262
 10
84.4050050698
 20
134.194140285
 10
84.4469335614
 20
134.0959658472
 10
84.5000846064
 20
134.0959267316
 10
84.5624159308
 20
134.194024801
 10
84.6315318238
 20
134.386488199
 10
84.7047765026
 20
134.665924087
 10
84.7793350447
 20
135.0215905903
 10
84.8523421198
 20
135.4398214815
 10
84.9209923515
 20
135.9045439956
 10
84.9826474194
 20
136.397899091
  0
LINE
  5
23C
330
1F
100
AcDbEntity
  8
0
  6
Continuous
 62
     7
370
    15
100
AcDbLine
 10
85.2687699123
 20
141.3374309985
 30
0.0
 11
85.264622209
 21
141.3064570723
 31
0.0
  0
LINE
  5
23D
330
1F
100
AcDbEntity
  8
0
  6
Continuous
 62
     7
370
    15
100
AcDbLine
 10
92.3782238722
 20
131.2504261357
 30
0.0
 11
93.4839198351
 21
140.9190473703
 31
0.0
  0
LINE
  5
23E
330
1F
100
AcDbEntity
  8
0
  6
Continuous
 62
     7
370
    15
100
AcDbLine
 10
93.7523069777
 20
140.9171288458
 30
0.0
 11
92.6466110148
 21
131.2485076112
 31
0.0
  0
ARC
  5
23F
330
1F
100
AcDbEntity
  8
0
  6
Continuous
 62
     7
370
    15
100
AcDbCircle
 10
90.9261238136
 20
141.4887414947
 30
0.0
 40
2.6204716909189
100
AcDbArc
 50
347.4435516036
 51
11.4989200619
  0
ARC
  5
240
330
1F
100
AcDbEntity
  8
0
  6
Continuous
 62
     7
370
    15
100
AcDbCircle
 10
91.6577805254
 20
141.3365791675
 30
0.0
 40
2.136113206593663
100
AcDbArc
 50
348.6757323494
 51
9.1681085413
  0
ARC
  5
241
330
1F
100
AcDbEntity
  8
0
  6
Continuous
 62
     7
370
    15
100
AcDbCircle
 10
88.3257747314
 20
131.5850647387
 30
0.0
 40
4.066242372673341
100
AcDbArc
 50
342.9079684046
 51
355.2794037201
  0
LINE
  5
242
330
1F
100
AcDbEntity
  8
0
  6
Continuous
 62
     7
370
    15
100
AcDbLine
 10
92.2278408878
 20
130.3883455319
 30
0.0
 11
92.513946908
 21
130.6226187942
 31
0.0
  0
ARC
  5
243
330
1F
100
AcDbEntity
  8
0
  6
Continuous
 62
     7
370
    15
100
AcDbCircle
 10
90.7768086438
 20
131.3178288261
 30
0.0
 40
1.871086940104776
100
AcDbArc
 50
338.1885051181
 51
357.8767837353
  0
SPLINE
  5
244
330
1F
100
AcDbEntity
  8
0
  6
Continuous
 62
     7
370
    15
100
AcDbSpline
210
0.0
220
0.0
230
1.0
 70
     8
 71
     3
 72
    24
 73
    20
 74
     0
 42
0.00000001
 43
0.00000001
 12
1.0
 22
0.0
 32
0.0
 13
1.0
 23
0.0
 33
0.0
 40
0.0
 40
0.0
 40
0.0
 40
0.0
 40
0.0314334136435643
 40
0.0628417188144624
 40
0.0942381770096296
 40
0.1256360647373957
 40
0.1883988387468855
 40
0.251150139058803
 40
0.3138399429161549
 40
0.3765112295275843
 40
0.5016590687568725
 40
0.6265921347594879
 40
0.6889633597761626
 40
0.7513152653059576
 40
0.8135617985437433
 40
0.8757857360424041
 40
0.9172011329328711
 40
0.9585950273439034
 40
1.0
 40
1.0
 40
1.0
 40
1.0
 10
106.6874283967842
 20
130.9377918994924
 30
0.0
 10
106.5912699792706
 20
131.084095989109
 30
0.0
 10
106.399029953941
 20
131.3765873031402
 30
0.0
 10
106.0993331780151
 20
131.8074863850099
 30
0.0
 10
105.7915369957901
 20
132.2323281654884
 30
0.0
 10
105.3694369564863
 20
132.7897515839613
 30
0.0
 10
104.8204732439626
 20
133.4698060715634
 30
0.0
 10
104.1286888481157
 20
134.2572782665599
 30
0.0
 10
103.4051225725749
 20
135.0149508847126
 30
0.0
 10
102.4003510824361
 20
135.9828214824388
 30
0.0
 10
101.0714400700205
 20
137.1115871619225
 30
0.0
 10
99.65378217828544
 20
138.124450293712
 30
0.0
 10
98.47323280695035
 20
138.8602996720967
 30
0.0
 10
97.56646711023907
 20
139.373828773463
 30
0.0
 10
96.63943053587127
 20
139.8484382287994
 30
0.0
 10
95.79903134761831
 20
140.2349703891418
 30
0.0
 10
95.0526837409982
 20
140.5464701943427
 30
0.0
 10
94.40649759405936
 20
140.7964523940962
 30
0.0
 10
93.9700262425105
 20
140.947595947362
 30
0.0
 10
93.75176136744403
 20
141.0231778352765
 30
0.0
  0
SPLINE
  5
245
330
1F
100
AcDbEntity
  8
0
  6
Continuous
 62
     7
370
    15
100
AcDbSpline
210
0.0
220
0.0
230
1.0
 70
    24
 71
     3
 72
     9
 73
     5
 74
     0
 42
0.00000001
 43
0.00000001
 12
1.0
 22
0.0
 32
0.0
 13
1.0
 23
0.0
 33
0.0
 40
0.0
 40
0.0
 40
0.0
 40
0.0
 40
0.4999998050383644
 40
1.0
 40
1.0
 40
1.0
 40
1.0
 10
106.6874298177801
 20
131.7282918686321
 30
0.0
 10
106.6874298177801
 20
131.5970347492217
 30
0.0
 10
106.6874298177801
 20
131.3345204080405
 30
0.0
 10
106.6874298177801
 20
131.0700344002897
 30
0.0
 10
106.6874298177801
 20
130.9377913448497
 30
0.0
  0
SPLINE
  5
246
330
1F
100
AcDbEntity
  8
0
  6
Continuous
 62
     7
370
    15
100
AcDbSpline
210
0.0
220
0.0
230
1.0
 70
     8
 71
     3
 72
    23
 73
    19
 74
     0
 42
0.00000001
 43
0.00000001
 12
1.0
 22
0.0
 32
0.0
 13
1.0
 23
0.0
 33
0.0
 40
0.0
 40
0.0
 40
0.0
 40
0.0
 40
0.0307245334013226
 40
0.0616751728795012
 40
0.0928522272713669
 40
0.1242559987298737
 40
0.1859740291152123
 40
0.2487508106112095
 40
0.3104928494045376
 40
0.3734836779620531
 40
0.4984155905669727
 40
0.6235527185467342
 40
0.6851084392464655
 40
0.7488954841080484
 40
0.8101996867713714
 40
0.8743890442507166
 40
0.9351764699044132
 40
1.0
 40
1.0
 40
1.0
 40
1.0
 10
93.75382114949295
 20
141.5241412676949
 30
0.0
 10
93.91419422152507
 20
141.4697741212847
 30
0.0
 10
94.23612057313476
 20
141.3606397331392
 30
0.0
 10
94.71631646200098
 20
141.1838713294327
 30
0.0
 10
95.19645705023804
 20
140.9966460399555
 30
0.0
 10
95.82908030854782
 20
140.7344883738683
 30
0.0
 10
96.61212803099394
 20
140.3815348690983
 30
0.0
 10
97.52925880236471
 20
139.9220163252172
 30
0.0
 10
98.43280358886948
 20
139.4221173363463
 30
0.0
 10
99.60740693957116
 20
138.7081078789608
 30
0.0
 10
101.0235534648473
 20
137.7234324297226
 30
0.0
 10
102.3486175946693
 20
136.6321834457218
 30
0.0
 10
103.357754150942
 20
135.693291810904
 30
0.0
 10
104.0807848730062
 20
134.9637219928273
 30
0.0
 10
104.7837350031894
 20
134.1950372922942
 30
0.0
 10
105.4438112661324
 20
133.4106929351507
 30
0.0
 10
106.0862382628986
 20
132.5868343756702
 30
0.0
 10
106.4827853684953
 20
132.0205397706449
 30
0.0
 10
106.6874298048076
 20
131.728294439393
 30
0.0
  0
LINE
  5
247
330
1F
100
AcDbEntity
  8
0
  6
Continuous
 62
     7
370
    15
100
AcDbLine
 10
83.6073822327
 20
119.1882148476
 30
0.0
 11
106.687430384
 21
116.7624040016
 31
0.0
  0
LINE
  5
248
330
1F
100
AcDbEntity
  8
0
  6
Continuous
 62
     7
370
    15
100
AcDbLine
 10
84.9179235272
 20
130.6480820847
 30
0.0
 11
83.6073822327
 21
119.1882148476
 31
0.0
  0
LINE
  5
249
330
1F
100
AcDbEntity
  8
0
  6
Continuous
 62
     7
370
    15
100
AcDbLine
 10
84.9179235272
 20
130.6480820847
 30
0.0
 11
89.5665703327
 21
130.159489773
 31
0.0
  0
LINE
  5
24A
330
1F
100
AcDbEntity
  8
0
  6
Continuous
 62
     7
370
    15
100
AcDbLine
 10
89.5665703327
 20
130.159489773
 30
0.0
 11
89.6240389891
 21
130.6620165331
 31
0.0
  0
LINE
  5
24B
330
1F
100
AcDbEntity
  8
0
  6
Continuous
 62
     7
370
    15
100
AcDbLine
 10
89.6240389891
 20
130.6620165331
 30
0.0
 11
92.5319158457
 21
130.3563862664
 31
0.0
  0
LINE
  5
24C
330
1F
100
AcDbEntity
  8
0
  6
Continuous
 62
     7
370
    15
100
AcDbLine
 10
92.5909155965
 20
130.8723007885
 30
0.0
 11
92.5319158457
 21
130.3563862664
 31
0.0
  0
LINE
  5
24D
330
1F
100
AcDbEntity
  8
0
  6
Continuous
 62
     7
370
    15
100
AcDbLine
 10
106.687430384
 20
130.937791392
 30
0.0
 11
106.687430384
 21
116.7624040016
 31
0.0
  0
ARC
  5
24E
330
1F
100
AcDbEntity
  8
0
  6
Continuous
 62
     7
370
    15
100
AcDbCircle
 10
103.2703945075
 20
129.9794968906
 30
0.0
 40
19.87728964347751
100
AcDbArc
 50
169.761850295
 51
177.190242248
  0
LWPOLYLINE
  5
24F
330
1F
100
AcDbEntity
  8
0
  6
Continuous
 62
     7
370
    15
100
AcDbPolyline
 90
        3
 70
   128
 43
0.0
 10
83.4452680763
 20
129.801953174
 10
83.4750887923
 20
129.7251265121
 10
83.5252565783
 20
129.7112321106
  0
LINE
  5
250
330
1F
100
AcDbEntity
  8
0
  6
Continuous
 62
     7
370
    15
100
AcDbLine
 10
83.6073822327
 20
119.1882148476
 30
0.0
 11
79.631771984
 21
97.0619199423
 31
0.0
  0
ARC
  5
251
330
1F
100
AcDbEntity
  8
0
  6
Continuous
 62
     7
370
    15
100
AcDbCircle
 10
86.1874298178
 20
116.4854457227
 30
0.0
 40
20.50000000000002
100
AcDbArc
 50
248.8776668622
 51
251.3498848455
  0
SPLINE
  5
252
330
1F
100
AcDbEntity
  8
0
  6
Continuous
 62
     7
370
    15
100
AcDbSpline
210
0.0
220
0.0
230
1.0
 70
     8
 71
     3
 72
     8
 73
     4
 74
     0
 42
0.00000001
 43
0.00000001
 12
1.0
 22
0.0
 32
0.0
 13
1.0
 23
0.0
 33
0.0
 40
0.0
 40
0.0
 40
0.0
 40
0.0
 40
1.0
 40
1.0
 40
1.0
 40
1.0
 10
78.80004092644882
 20
97.36277631261477
 30
0.0
 10
78.81031859577652
 20
97.58075090224594
 30
0.0
 10
78.80811310688743
 20
97.75860908875558
 30
0.0
 10
78.79273850610885
 20
97.84822401105677
 30
0.0
  0
SPLINE
  5
253
330
1F
100
AcDbEntity
  8
0
  6
Continuous
 62
     7
370
    15
100
AcDbSpline
210
0.0
220
0.0
230
1.0
 70
     8
 71
     3
 72
    12
 73
     8
 74
     0
 42
0.00000001
 43
0.00000001
 12
1.0
 22
0.0
 32
0.0
 13
1.0
 23
0.0
 33
0.0
 40
0.0
 40
0.0
 40
0.0
 40
0.0
 40
0.4999999999999962
 40
0.4999999999999962
 40
0.7499999999999981
 40
0.7499999999999981
 40
1.0
 40
1.0
 40
1.0
 40
1.0
 10
82.8292265313194
 20
136.2528421980151
 30
0.0
 10
82.8521510167007
 20
136.3103464412042
 30
0.0
 10
82.8775792115131
 20
136.4084904299968
 30
0.0
 10
82.91508853116038
 20
136.5962066575987
 30
0.0
 10
82.92769049172665
 20
136.6666034768835
 30
0.0
 10
82.95170548216402
 20
136.8152092829236
 30
0.0
 10
82.96319186639063
 20
136.8935936984338
 30
0.0
 10
82.97413817862439
 20
136.9762081352217
 30
0.0
  0
SPLINE
  5
254
330
1F
100
AcDbEntity
  8
0
  6
Continuous
 62
     7
370
    15
100
AcDbSpline
210
0.0
220
0.0
230
1.0
 70
     8
 71
     3
 72
     8
 73
     4
 74
     0
 42
0.00000001
 43
0.00000001
 12
1.0
 22
0.0
 32
0.0
 13
1.0
 23
0.0
 33
0.0
 40
0.0
 40
0.0
 40
0.0
 40
0.0
 40
1.0
 40
1.0
 40
1.0
 40
1.0
 10
82.97413817862439
 20
136.9762081352217
 30
0.0
 10
83.11065338596094
 20
138.0065210594516
 30
0.0
 10
83.247287242633
 20
139.0364157906097
 30
0.0
 10
83.383999848972
 20
140.0660329596139
 30
0.0
  0
LWPOLYLINE
  5
255
330
1F
100
AcDbEntity
  8
0
  6
Continuous
 62
     7
370
    15
100
AcDbPolyline
 90
       41
 70
   128
 43
0.0
 10
82.8937439699
 20
124.6608029676
 10
82.8342308276
 20
124.038455039
 10
82.7865345389
 20
123.4314315578
 10
82.7518295016
 20
122.8546797855
 10
82.7309704371
 20
122.3224000631
 10
82.7244707368
 20
121.8477002902
 10
82.7324905884
 20
121.4422680994
 10
82.7548323184
 20
121.1160868032
 10
82.7909462139
 20
120.8771881273
 10
82.8399423961
 20
120.7314547708
 10
82.900615035
 20
120.6824751196
 10
82.9714700565
 20
120.7314547708
 10
83.0507623948
 20
120.8771881273
 10
83.1365399979
 20
121.1160868032
 10
83.2266903933
 20
121.4422680994
 10
83.3189942394
 20
121.8477002902
 10
83.4111781776
 20
122.3224000631
 10
83.5009728078
 20
122.8546797855
 10
83.5861669373
 20
123.4314315578
 10
83.6646625292
 20
124.038455039
 10
83.7345270891
 20
124.6608029676
 10
83.7940402314
 20
125.2831499649
 10
83.8417365201
 20
125.8901729805
 10
83.8764415573
 20
126.4669252185
 10
83.8973008547
 20
126.9992049409
 10
83.903800555
 20
127.4739047138
 10
83.8957807034
 20
127.8793373702
 10
83.8734389734
 20
128.2055182008
 10
83.8373250779
 20
128.4444173423
 10
83.7883286629
 20
128.5901506988
 10
83.727656024
 20
128.6391298843
 10
83.6568012353
 20
128.5901506988
 10
83.577508897
 20
128.4444173423
 10
83.4917312939
 20
128.2055182008
 10
83.4015806656
 20
127.8793373702
 10
83.3092770524
 20
127.4739047138
 10
83.2170928814
 20
126.9992049409
 10
83.1272982512
 20
126.4669252185
 10
83.0421043545
 20
125.8901729805
 10
82.9636085298
 20
125.2831499649
 10
82.8937439699
 20
124.6608029676
  0
LINE
  5
256
330
1F
100
AcDbEntity
  8
0
  6
Continuous
 62
     7
370
    15
100
AcDbLine
 10
83.5252565783
 20
129.7112321106
 30
0.0
 11
84.9179235272
 21
130.6480820847
 31
0.0
  0
ELLIPSE
  5
257
330
1F
100
AcDbEntity
  8
0
  6
Continuous
 62
     7
370
    15
100
AcDbEllipse
 10
86.1874298178
 20
119.9750303061
 30
0.0
 11
21.75048845429386
 21
30.80469282832283
 31
0.0
210
0.0
220
0.0
230
1.0
 40
0.4001153713
 41
1.118987409332902
 42
1.167615503852972
  0
LINE
  5
258
330
1F
100
AcDbEntity
  8
0
  6
Continuous
 62
     7
370
    15
100
AcDbLine
 10
89.6240389891
 20
130.6620165331
 30
0.0
 11
89.4780648857
 21
130.5638197435
 31
0.0
  0
LINE
  5
259
330
1F
100
AcDbEntity
  8
0
  6
Continuous
 62
     7
370
    15
100
AcDbLine
 10
106.687430384
 20
116.7624040016
 30
0.0
 11
106.687430384
 21
116.4854457227
 31
0.0
  0
ARC
  5
25A
330
1F
100
AcDbEntity
  8
0
  6
Continuous
 62
     7
370
    15
100
AcDbCircle
 10
86.1874298178
 20
116.4854457227
 30
0.0
 40
20.50000000000001
100
AcDbArc
 50
251.3498848455
 51
0.0
  0
SPLINE
  5
25B
330
1F
100
AcDbEntity
  8
0
  6
Continuous
 62
     7
370
    15
100
AcDbSpline
210
0.0
220
0.0
230
1.0
 70
     8
 71
     3
 72
     8
 73
     4
 74
     0
 42
0.00000001
 43
0.00000001
 12
1.0
 22
0.0
 32
0.0
 13
1.0
 23
0.0
 33
0.0
 40
0.0
 40
0.0
 40
0.0
 40
0.0
 40
1.0
 40
1.0
 40
1.0
 40
1.0
 10
82.71976758437582
 20
136.182534813118
 30
0.0
 10
82.77783636024668
 20
136.192757790742
 30
0.0
 10
82.81381144071833
 20
136.2141746727038
 30
0.0
 10
82.82922653131972
 20
136.2528421980149
 30
0.0
  0
SPLINE
  5
25C
330
1F
100
AcDbEntity
  8
0
  6
Continuous
 62
     7
370
    15
100
AcDbSpline
210
0.0
220
0.0
230
1.0
 70
     8
 71
     3
 72
     8
 73
     4
 74
     0
 42
0.00000001
 43
0.00000001
 12
1.0
 22
0.0
 32
0.0
 13
1.0
 23
0.0
 33
0.0
 40
0.0
 40
0.0
 40
0.0
 40
0.0
 40
1.0
 40
1.0
 40
1.0
 40
1.0
 10
78.79273850610885
 20
97.84822401105677
 30
0.0
 10
78.78570032804012
 20
97.88924789127685
 30
0.0
 10
78.75497897072339
 20
97.91767383552235
 30
0.0
 10
78.70028922704844
 20
97.93975280564204
 30
0.0
  0
SPLINE
  5
25D
330
1F
100
AcDbEntity
  8
0
  6
Continuous
 62
     7
370
    15
100
AcDbSpline
210
0.0
220
0.0
230
1.0
 70
     8
 71
     3
 72
     8
 73
     4
 74
     0
 42
0.00000001
 43
0.00000001
 12
1.0
 22
0.0
 32
0.0
 13
1.0
 23
0.0
 33
0.0
 40
0.0
 40
0.0
 40
0.0
 40
0.0
 40
1.0
 40
1.0
 40
1.0
 40
1.0
 10
78.70028922704806
 20
97.93975280564193
 30
0.0
 10
78.59680973426755
 20
97.9815288403347
 30
0.0
 10
78.4247689879611
 20
98.05217108206185
 30
0.0
 10
78.23119185041467
 20
98.13610575075916
 30
0.0
  0
SPLINE
  5
25E
330
1F
100
AcDbEntity
  8
0
  6
Continuous
 62
     7
370
    15
100
AcDbSpline
210
0.0
220
0.0
230
1.0
 70
     8
 71
     3
 72
    10
 73
     6
 74
     0
 42
0.00000001
 43
0.00000001
 12
1.0
 22
0.0
 32
0.0
 13
1.0
 23
0.0
 33
0.0
 40
0.0
 40
0.0
 40
0.0
 40
0.0
 40
0.5
 40
0.5
 40
1.0
 40
1.0
 40
1.0
 40
1.0
 10
82.22009703809498
 20
136.0880034796886
 30
0.0
 10
82.32354761702938
 20
136.1089406899227
 30
0.0
 10
82.42038816761581
 20
136.1276710923296
 30
0.0
 10
82.5919935186338
 20
136.1598061464641
 30
0.0
 10
82.66478475215916
 20
136.1728551142606
 30
0.0
 10
82.71976758437583
 20
136.182534813118
 30
0.0
  0
ELLIPSE
  5
25F
330
1F
100
AcDbEntity
  8
0
  6
Continuous
 62
     7
370
    15
100
AcDbEllipse
 10
76.0933011906
 20
125.4446514461
 30
0.0
 11
1.784771828645205
 21
2.162295987651519
 31
0.0
210
0.0
220
0.0
230
1.0
 40
0.7318176116
 41
0.0
 42
6.283185307179586
  0
ARC
  5
260
330
1F
100
AcDbEntity
  8
0
  6
Continuous
 62
     7
370
    15
100
AcDbCircle
 10
86.1874298178
 20
116.4854457227
 30
0.0
 40
20.0
100
AcDbArc
 50
101.4414607571
 51
246.5585392429
  0
SPLINE
  5
261
330
1F
100
AcDbEntity
  8
0
  6
Continuous
 62
     7
370
    15
100
AcDbSpline
210
0.0
220
0.0
230
1.0
 70
     8
 71
     3
 72
    15
 73
    11
 74
     0
 42
0.00000001
 43
0.00000001
 12
1.0
 22
0.0
 32
0.0
 13
1.0
 23
0.0
 33
0.0
 40
0.0
 40
0.0
 40
0.0
 40
0.0
 40
0.0735061911328122
 40
0.2500984968382995
 40
0.4273292613031928
 40
0.4895351544223562
 40
0.5417146087035788
 40
0.6145355455811828
 40
0.8745205266444254
 40
1.0
 40
1.0
 40
1.0
 40
1.0
 10
74.06955035255774
 20
123.6062561718448
 30
0.0
 10
74.10183585476346
 20
123.5946504508278
 30
0.0
 10
74.211684500801
 20
123.5551629826793
 30
0.0
 10
74.39983942632713
 20
123.3978998068489
 30
0.0
 10
74.59002462197829
 20
123.2422902116564
 30
0.0
 10
74.76773910597741
 20
123.1328251537254
 30
0.0
 10
74.90042356760028
 20
123.0815878057807
 30
0.0
 10
75.16453514172606
 20
123.0294264107154
 30
0.0
 10
75.43756584479634
 20
123.0164872012924
 30
0.0
 10
75.63422606778524
 20
122.9654374060744
 30
0.0
 10
75.69824447707757
 20
122.9488192682787
 30
0.0
  0
CIRCLE
  5
262
330
1F
100
AcDbEntity
  8
VERMASSUNG
  6
CENTERX2
100
AcDbCircle
 10
86.1874298178
 20
118.4411159011
 30
0.0
 40
24.99999999999999
  0
DIMENSION
  5
263
330
1F
100
AcDbEntity
  8
VERMASSUNG
100
AcDbDimension
  2
_D_5
 10
66.3890585761
 20
133.7062558014
 30
0.0
 11
57.0761867744
 21
140.8867601567
 31
0.0
 70
   160
  1
%%c<> min. 
 71
     2
 42
-1.0
  3
SLDDIMSTYLE3
100
AcDbAlignedDimension
 13
105.9858010594
 23
103.1759760007
 33
0.0
 14
66.3890585761
 24
133.7062558014
 34
0.0
 50
-37.6333043911
100
AcDbRotatedDimension
  0
INSERT
  5
27D
330
1F
100
AcDbEntity
  8
VERMASSUNG
100
AcDbBlockReference
  2
SW_CENTERMARKSYMBOL_0
 10
86.1874298178
 20
116.4854457227
 30
0.0
  0
OLE2FRAME
  5
27E
330
1F
100
AcDbEntity
  8
0
100
AcDbOle2Frame
 70
     2
  3
Paintbrush-Bild
 10
13.8511154363
 20
38.264191557
 30
0.0
 11
51.6290888628
 21
31.9806341108
 31
0.0
 71
     2
 72
     0
 73
     1
 90
    12928
310
80552BED0767C5B32B40DDAF6807D121434000000000000000006FFBDDFB85D0
310
4940DDAF6807D121434000000000000000006FFBDDFB85D04940416F4BD60AFB
310
3F4000000000000000002BED0767C5B32B40416F4BD60AFB3F40000000000000
310
0000000000000100000000010000010000000100000000000100000000320000
310
D0CF11E0A1B11AE1000000000000000000000000000000003E000300FEFF0900
310
0600000000000000000000000100000001000000000000000010000002000000
310
01000000FEFFFFFF0000000000000000FFFFFFFFFFFFFFFFFFFFFFFFFFFFFFFF
310
FFFFFFFFFFFFFFFFFFFFFFFFFFFFFFFFFFFFFFFFFFFFFFFFFFFFFFFFFFFFFFFF
310
FFFFFFFFFFFFFFFFFFFFFFFFFFFFFFFFFFFFFFFFFFFFFFFFFFFFFFFFFFFFFFFF
310
FFFFFFFFFFFFFFFFFFFFFFFFFFFFFFFFFFFFFFFFFFFFFFFFFFFFFFFFFFFFFFFF
310
FFFFFFFFFFFFFFFFFFFFFFFFFFFFFFFFFFFFFFFFFFFFFFFFFFFFFFFFFFFFFFFF
310
FFFFFFFFFFFFFFFFFFFFFFFFFFFFFFFFFFFFFFFFFFFFFFFFFFFFFFFFFFFFFFFF
310
FFFFFFFFFFFFFFFFFFFFFFFFFFFFFFFFFFFFFFFFFFFFFFFFFFFFFFFFFFFFFFFF
310
FFFFFFFFFFFFFFFFFFFFFFFFFFFFFFFFFFFFFFFFFFFFFFFFFFFFFFFFFFFFFFFF
310
FFFFFFFFFFFFFFFFFFFFFFFFFFFFFFFFFFFFFFFFFFFFFFFFFFFFFFFFFFFFFFFF
310
FFFFFFFFFFFFFFFFFFFFFFFFFFFFFFFFFFFFFFFFFFFFFFFFFFFFFFFFFFFFFFFF
310
FFFFFFFFFFFFFFFFFFFFFFFFFFFFFFFFFFFFFFFFFFFFFFFFFFFFFFFFFFFFFFFF
310
FFFFFFFFFFFFFFFFFFFFFFFFFFFFFFFFFFFFFFFFFFFFFFFFFFFFFFFFFFFFFFFF
310
FFFFFFFFFFFFFFFFFFFFFFFFFFFFFFFFFFFFFFFFFFFFFFFFFFFFFFFFFFFFFFFF
310
FFFFFFFFFFFFFFFFFFFFFFFFFFFFFFFFFFFFFFFFFFFFFFFFFFFFFFFFFFFFFFFF
310
FDFFFFFFFEFFFFFFFEFFFFFFFEFFFFFF05000000060000000700000008000000
310
090000000A0000000B0000000C0000000D0000000E0000000F00000010000000
310
11000000120000001300000014000000150000001600000017000000FEFFFFFF
310
FFFFFFFFFFFFFFFFFFFFFFFFFFFFFFFFFFFFFFFFFFFFFFFFFFFFFFFFFFFFFFFF
310
FFFFFFFFFFFFFFFFFFFFFFFFFFFFFFFFFFFFFFFFFFFFFFFFFFFFFFFFFFFFFFFF
310
FFFFFFFFFFFFFFFFFFFFFFFFFFFFFFFFFFFFFFFFFFFFFFFFFFFFFFFFFFFFFFFF
310
FFFFFFFFFFFFFFFFFFFFFFFFFFFFFFFFFFFFFFFFFFFFFFFFFFFFFFFFFFFFFFFF
310
FFFFFFFFFFFFFFFFFFFFFFFFFFFFFFFFFFFFFFFFFFFFFFFFFFFFFFFFFFFFFFFF
310
FFFFFFFFFFFFFFFFFFFFFFFFFFFFFFFFFFFFFFFFFFFFFFFFFFFFFFFFFFFFFFFF
310
FFFFFFFFFFFFFFFFFFFFFFFFFFFFFFFFFFFFFFFFFFFFFFFFFFFFFFFFFFFFFFFF
310
FFFFFFFFFFFFFFFFFFFFFFFFFFFFFFFFFFFFFFFFFFFFFFFFFFFFFFFFFFFFFFFF
310
FFFFFFFFFFFFFFFFFFFFFFFFFFFFFFFFFFFFFFFFFFFFFFFFFFFFFFFFFFFFFFFF
310
FFFFFFFFFFFFFFFFFFFFFFFFFFFFFFFFFFFFFFFFFFFFFFFFFFFFFFFFFFFFFFFF
310
FFFFFFFFFFFFFFFFFFFFFFFFFFFFFFFFFFFFFFFFFFFFFFFFFFFFFFFFFFFFFFFF
310
FFFFFFFFFFFFFFFFFFFFFFFFFFFFFFFFFFFFFFFFFFFFFFFFFFFFFFFFFFFFFFFF
310
FFFFFFFFFFFFFFFFFFFFFFFFFFFFFFFFFFFFFFFFFFFFFFFFFFFFFFFFFFFFFFFF
310
52006F006F007400200045006E00740072007900000000000000000000000000
310
0000000000000000000000000000000000000000000000000000000000000000
310
16000500FFFFFFFFFFFFFFFF020000000A00030000000000C000000000000046
310
00000000000000000000000060A3B2964724CD0103000000C000000000000000
310
01004F006C006500000000000000000000000000000000000000000000000000
310
0000000000000000000000000000000000000000000000000000000000000000
310
0A000200FFFFFFFFFFFFFFFFFFFFFFFF00000000000000000000000000000000
310
0000000000000000000000000000000000000000000000001400000000000000
310
010043006F006D0070004F0062006A0000000000000000000000000000000000
310
0000000000000000000000000000000000000000000000000000000000000000
310
120002010100000003000000FFFFFFFF00000000000000000000000000000000
310
0000000000000000000000000000000000000000010000004D00000000000000
310
01004F006C006500310030004E00610074006900760065000000000000000000
310
0000000000000000000000000000000000000000000000000000000000000000
310
1A000200FFFFFFFFFFFFFFFFFFFFFFFF00000000000000000000000000000000
310
0000000000000000000000000000000000000000040000002426000000000000
310
FEFFFFFF02000000FEFFFFFFFFFFFFFFFFFFFFFFFFFFFFFFFFFFFFFFFFFFFFFF
310
FFFFFFFFFFFFFFFFFFFFFFFFFFFFFFFFFFFFFFFFFFFFFFFFFFFFFFFFFFFFFFFF
310
FFFFFFFFFFFFFFFFFFFFFFFFFFFFFFFFFFFFFFFFFFFFFFFFFFFFFFFFFFFFFFFF
310
FFFFFFFFFFFFFFFFFFFFFFFFFFFFFFFFFFFFFFFFFFFFFFFFFFFFFFFFFFFFFFFF
310
FFFFFFFFFFFFFFFFFFFFFFFFFFFFFFFFFFFFFFFFFFFFFFFFFFFFFFFFFFFFFFFF
310
FFFFFFFFFFFFFFFFFFFFFFFFFFFFFFFFFFFFFFFFFFFFFFFFFFFFFFFFFFFFFFFF
310
FFFFFFFFFFFFFFFFFFFFFFFFFFFFFFFFFFFFFFFFFFFFFFFFFFFFFFFFFFFFFFFF
310
FFFFFFFFFFFFFFFFFFFFFFFFFFFFFFFFFFFFFFFFFFFFFFFFFFFFFFFFFFFFFFFF
310
FFFFFFFFFFFFFFFFFFFFFFFFFFFFFFFFFFFFFFFFFFFFFFFFFFFFFFFFFFFFFFFF
310
FFFFFFFFFFFFFFFFFFFFFFFFFFFFFFFFFFFFFFFFFFFFFFFFFFFFFFFFFFFFFFFF
310
FFFFFFFFFFFFFFFFFFFFFFFFFFFFFFFFFFFFFFFFFFFFFFFFFFFFFFFFFFFFFFFF
310
FFFFFFFFFFFFFFFFFFFFFFFFFFFFFFFFFFFFFFFFFFFFFFFFFFFFFFFFFFFFFFFF
310
FFFFFFFFFFFFFFFFFFFFFFFFFFFFFFFFFFFFFFFFFFFFFFFFFFFFFFFFFFFFFFFF
310
FFFFFFFFFFFFFFFFFFFFFFFFFFFFFFFFFFFFFFFFFFFFFFFFFFFFFFFFFFFFFFFF
310
FFFFFFFFFFFFFFFFFFFFFFFFFFFFFFFFFFFFFFFFFFFFFFFFFFFFFFFFFFFFFFFF
310
FFFFFFFFFFFFFFFFFFFFFFFFFFFFFFFFFFFFFFFFFFFFFFFFFFFFFFFFFFFFFFFF
310
0100000200000000000000000000000000000000000000000000000000000000
310
0000000000000000000000000000000000000000000000000000000000000000
310
0100FEFF030A0000FFFFFFFF0A00030000000000C00000000000004607000000
310
5042727573680007000000504272757368000700000050427275736800F439B2
310
7100000000000000000000000000000000000000000000000000000000000000
310
0000000000000000000000000000000000000000000000000000000000000000
310
0000000000000000000000000000000000000000000000000000000000000000
310
0000000000000000000000000000000000000000000000000000000000000000
310
0000000000000000000000000000000000000000000000000000000000000000
310
0000000000000000000000000000000000000000000000000000000000000000
310
0000000000000000000000000000000000000000000000000000000000000000
310
0000000000000000000000000000000000000000000000000000000000000000
310
0000000000000000000000000000000000000000000000000000000000000000
310
0000000000000000000000000000000000000000000000000000000000000000
310
0000000000000000000000000000000000000000000000000000000000000000
310
0000000000000000000000000000000000000000000000000000000000000000
310
20260000424D0E260000000000003E00000028000000B40200006E0000000100
310
01000000000000000000130B0000130B00000200000002000000000000FFFFFF
310
FFFFFFFFFFFFFFFFFFFFFFFFFFFFFFFFFFFFFFFFFFFFFFFFFFFFFFFFFFFFFFFF
310
FFFFFFFFFFFFFFFFFFFFFFFFFFFFFFFFFFFFFFFFFFFFFFFFFFFFFFFFFFFFFFFF
310
FFFFFFFFFFFFFFFFFFFFFFFFFFFFFFFFFFFFFFFFFFFFFFFFF000FFFFFFFFFFFF
310
FFFFFFFFFFFFFFFFFFFFFFFFFFFFFFFFFFFFFFFFFFFFFFFFFFFFFFFFFFFFFFFF
310
FFFFFFFFFFFFFFFFFFFFFFFFFFFFFFFFFFFFFFFFFFFFFFFFFFFFFFFFFFFFFFFF
310
FFFFFFFFFFFFFFFFFFFFFFFFFFFFFFFFF000FFFFFFFFFFFFFFFFFFFFFFFFFFFF
310
FFFFFFFFFFFFFFFFFFFFFFFFFFFFFFFFFFFFFFFFFFFFFFFFFFFFFFFFFFFFFFFF
310
FFFFFFFFFFFFFFFFFFFFFFFFFFFFFFFFFFFFFFFFFFFFFFFFFFFFFFFFFFFFFFFF
310
FFFFFFFFFFFFFFFFF000FFFFFFFFFFFFFFFFFFFFFFFFFFFFFFFFFFFFFFFFFFFF
310
FFFFFFFFFFFFFFFFFFFFFFFFFFFFFFFFFFFFFFFFFFFFFFFFFFFFFFFFFFFFFFFF
310
FFFFFFFFFFFFFFFFFFFFFFFFFFFFFFFFFFFFFFFFFFFFFFFFFFFFFFFFFFFFFFFF
310
F000FFFFFFFFFFFFFFFFFFFFFFFFFFFFFFFFFFFFFFFFFFFFFFFFFFFFFFFFFFFF
310
FFFFFFFFFFFFFFFFFFFFFFFFFFFFFFFFFFFFFFFFFFFFFFFFFFFFFFFFFFFFFFFF
310
FFFFFFFFFFFFFFFFFFFFFFFFFFFFFFFFFFFFFFFFFFFFFFFFF000FFFFFFFFFFFF
310
FFFFFFFFFFFFFFFFFFFFFFFFFFFFFFFFFFFFFFFFFFFFFFFFFFFFFFFFFFFFFFFF
310
FFFFFFFFFFFFFFFFFFFFFFFFFFFFFFFFFFFFFFFFFFFFFFFFFFFFFFFFFFFFFFFF
310
FFFFFFFFFFFFFFFFFFFFFFFFFFFFFFFFF000FFFFFFFFFFFFFFFFFFFFFFFFFFFF
310
FFFFFFFFFFFFFFFFFFFFFFFFFFFFFFFFFFFFFFFFFFFFFFFFFFFFFFFFFFFFFFFF
310
FFFFFFFFFFFFFFFFFFFFFFFFFFFFFFFFFFFFFFFFFFFFFFFFFFFFFFFFFFFFFFFF
310
FFFFFFFFFFFFFFFFF000FFFFFFFFFFFFFFFFFFFFFFFFFFFFFFFFFFFFFFFFFFFF
310
FFFFFFFFFFFFFFFFFFFFFFFFFFFFFFFFFFFFFFFFFFFFFFFFFFFFFFFFFFFFFFFF
310
FFFFFFFFFFFFFFFFFFFFFFFFFFFFFFFFFFFFFFFFFFFFFFFFFFFFFFFFFFFFFFFF
310
F000FFFFFFFFFFFFFFFFFFFFFFFFFFFFFFFFFFFFFFFFFFFFFFFFFFFFFFFFFFFF
310
FFFFFFFFFFFFFFFFFFFFFFFFFFFFFFFFFFFFFFFFFFFFFFFFFFFFFFFFFFFFFFFF
310
FFFFFFFFFFFFFFFFFFFFFFFFFFFFFFFFFFFFFFFFFFFFFFFFF000FFFFFFFFFFFF
310
FFFFFFFFFFFFFFFFFFFFFFFFFFFFFFFFFFFFFFFFFFFFFFFFFFFFFFFFFFFFFFFF
310
FFFFFFFFFFFFFFFFFFFFFFFFFFFFFFFFFFFFFFFFFFFFFFFFFFFFFFFFFFFFFFFF
310
FFFFFFFFFFFFFFFFFFFFFFFFFFFFFFFFF000FFFFFFFFFFFFFFFFFFFFFFFFFFFF
310
FFFFFFFFFFFFFFFFFFFFFFFFFFFFFFFFFFFFFFFFFFFFFFFFFFFFFFFFFFFFFFFF
310
FFFFFFFFFFFFFFFFFFFFFFFFFFFFFFFFFFFFFFFFFFFFFFFFFFFFFFFFFFFFFFFF
310
FFFFFFFFFFFFFFFFF000FFFFFFFFFFFFFFFFFFFFFFFFFFFFFFFFFFFFFFFFFFFF
310
FFFFFFFFFFFFFFFFFFFFFFFFFFFFFFFFFFFFFFFFFFFFFFFFFFFFFFFFFFFFFFFF
310
FFFFFFFFFFFFFFFFFFFFFFFFFFFFFFFFFFFFFFFFFFFFFFFFFFFFFFFFFFFFFFFF
310
F000FFFFFFFFFFFFFFFFFFFFFFFFFFFFFFFFFFFFFFFFFFFFFFFFFFFFFFFFFFFF
310
FFFFFFFFFFFFFFFFFFFFFFFFFFFFFFFFFFFFFFFFFFFFFFFFFFFFFFFFFFFFFFFF
310
FFFFFFFFFFFFFFFFFFFFFFFFFFFFFFFFFFFFFFFFFFFFFFFFF000FFFFFFFFFFFF
310
FFFFFFFFFFFFFFFFFFFFFFFFFFFFFFFFFFFFFFFFFFFFFFFFFFFFFFFFFFFFFFFF
310
FFFFFFFFFFFFFFFFFFFFFFFFFFFFFFFFFFFFFFFFFFFFFFFFFFFFFFFFFFFFFFFF
310
FFFFFFFFFFFFFFFFFFFFFFFFFFFFFFFFF000FFFFFFFFFFFFFFFFFFFFFFFFFFFF
310
FFFFFFFFFFFFFFFFFFFFFFFFFFFFFFFFFFFFFFFFFFFFFFFFFFFFFFFFFFFFFFFF
310
FFFFFFFFFFFFFFFFFFFFFFFFFFFFFFFFFFFFFFFFFFFFFFFFFFFFFFFFFFFFFFFF
310
FFFFFFFFFFFFFFFFF000FFFFFFFFFFFFFFFFFFFFFFFFFFFFFFFFFFFFFFFFFFFF
310
FFFFFFFFFFFFFFFFFFFFFFFFFFFFFFFFFFFFFFFFFFFFFFFFFFFFFFFFFFFFFFFF
310
FFFFFFFFFFFFFFFFFFFFFFFFFFFFFFFFFFFFFFFFFFFFFFFFFFFFFFFFFFFFFFFF
310
F000FFFFFFFFFFFFFFFFFFFFFFFFFFFFFFFFFFFFFFFFFFFFFFFFFFFFFFFFFFFF
310
FFFFFFFFFFFFFFFFFFFFFFFFFFFFFFFFFFFFFFFFFFFFFFFFFFFFFFFFFFFFFFFF
310
FFFFFFFFFFFFFFFFFFFFFFFFFFFFFFFFFFFFFFFFFFFFFFFFF000FFFFFFFFFFFF
310
FFFFFFFFFFFFFFFFFFFFFFFFFFFFFFFFFFFFFFFFFFFFFFFFFFFFFFFFFFFFFFFF
310
FFFFFFFFFFFFFFFFFFFFFFFFFFFFFFFFFFFFFFFFFFFFFFFFFFFFFFFFFFFFFFFF
310
FFFFFFFFFFFFFFFFFFFFFFFFFFFFFFFFF000FFFFFFFFFFFFFFFFFFFFFFFFFFFF
310
FFFFFFFFFFFFFFFFFFFFFFFFFFFFFFFFFFFFFFFFFFFFFFFFFFFFFFFFFFFFFFFF
310
FFFFFFFFFFFFFFFFFFFFFFFFFFFFFFFFFFFFFFFFFFFFFFFFFFFFFFFFFFFFFFFF
310
FFFFFFFFFFFFFFFFF000FFFFF80003FFFFFFFFFFFFFFFFFFFFFFFFFFFFFFFFFF
310
FFFFF00007FFFFFFFFFF00007FFFFFF800000000000000007FFFFFFFFFFFFFFF
310
FFFFFFFC001FFFFFFFFFFFFFFC001FFFFFFFFFFFFFFFFFFFFFFFFFFE0007FFFF
310
F000FFFF8000007FFFFFFFF8000FFFFFC0007FFFFF80007FFFFF0000007FFFFF
310
FFF8000007FFFFF800000000000000007FFFFFF0001FFFFFFFFFFFC00001FFFF
310
FFFFFFFFC00001FFFFFFFF000000000003FFFFE000007FFFF000FFFE0000000F
310
FFFFFFF0000FFFFF80007FFFFF80007FFFFC0000001FFFFFFFC0000001FFFFF8
310
00000000000000007FFFFFF0001FFFFFFFFFFE0000003FFFFFFFFFFE0000003F
310
FFFFFF000000000003FFFF0000000FFFF000FFF800000003FFFFFFF00007FFFF
310
80007FFFFF80007FFFF000000007FFFFFF000000003FFFF80000000000000000
310
7FFFFFF0001FFFFFFFFFF80000000FFFFFFFFFF80000000FFFFFFF0000000000
310
03FFFC00000003FFF000FFE000000000FFFFFFF00007FFFF80003FFFFF80007F
310
FFC000000001FFFFFC000000001FFFF800000000000000007FFFFFF0001FFFFF
310
FFFFE000000003FFFFFFFFE000000003FFFFFF000000000003FFF000000000FF
310
F000FF80000000007FFFFFF00007FFFF80003FFFFF80007FFF8000000000FFFF
310
F80000000007FFF800000000000000007FFFFFF0001FFFFFFFFFC000000001FF
310
FFFFFFC000000001FFFFFF000000000003FFC0000000007FF000FF0000000000
310
3FFFFFE00007FFFF00003FFFFF80007FFE00000000003FFFF00000000003FFF8
310
00000000000000007FFFFFF0001FFFFFFFFF8000000000FFFFFFFF8000000000
310
FFFFFF000000000003FF80000000003FF000FE00000000001FFFFFE00003FFFF
310
00003FFFFF80007FFC00000000001FFFE00000000001FFF8000001FFFE000000
310
7FFFFFF0001FFFFFFFFE00000000003FFFFFFE00000000003FFFFF0000000000
310
03FF00000000001FF000FC00000000000FFFFFE00003FFFF00001FFFFF80007F
310
F800000000001FFFC00000000000FFF8000001FFFE0000007FFFFFF0001FFFFF
310
FFFC00000000001FFFFFFC00000000001FFFFF000000000003FE00000000000F
310
F000F8000000000007FFFFE00003FFFF00001FFFFF80007FF800000000000FFF
310
800000000000FFF8000001FFFE0000007FFFFFF0001FFFFFFFF800000000000F
310
FFFFF800000000000FFFFF000000000003FC000000000007F000F80000000000
310
03FFFFC00003FFFE00001FFFFF80007FF0000000000007FF0000000000007FF8
310
000001FFFE0000007FFFFFF0001FFFFFFFF0000000000007FFFFF00000000000
310
07FFFF000000000003F8000000000003F000F0000000000003FFFFC00001FFFE
310
00001FFFFF80007FE0000000000007FE0000000000003FF8000001FFFE000000
310
7FFFFFF0001FFFFFFFF0000000000007FFFFF0000000000007FFFF0000000000
310
03F800001F800003F000E00001FFF00001FFFFC00001FFFE00000FFFFF80007F
310
E00001FFE00003FE00001FFF00003FF8000001FFFE0000007FFFFFF0001FFFFF
310
FFE000003E000003FFFFE000003E000003FFFF000000000003F00001FFF80001
310
F000E00007FFFC0001FFFFC00001FFFE00000FFFFF80007FC0000FFFFC0003FC
310
0000FFFFC0001FF8000001FFFE0000007FFFFFF0001FFFFFFFC00003FFE00001
310
FFFFC00003FFE00001FFFF0001FFFFFFFFF00007FFFE0001F000E0000FFFFF00
310
00FFFF800001FFFC00000FFFFF80007FC0001FFFFE0001FC0001FFFFE0001FF8
310
000001FFFE0000007FFFFFF0001FFFFFFF80000FFFF80000FFFF80000FFFF800
310
00FFFF0003FFFFFFFFE0000FFFFF8000F000C0003FFFFF8000FFFF800000FFFC
310
000007FFFF80007F80003FFFFF0001FC0003FFFFF0001FF8000001FFFE000000
310
7FFFFFF0001FFFFFFF80003FFFFE0000FFFF80003FFFFE0000FFFF0003FFFFFF
310
FFE0003FFFFF8000F000C0003FFFFF8000FFFF800000FFFC000007FFFF80007F
310
80007FFFFF8001F80007FFFFF8000FF8000001FFFE0000007FFFFFF0001FFFFF
310
FF00007FFFFF00007FFF00007FFFFF00007FFF0003FFFFFFFFE0003FFFFFC000
310
F000C0007FFFFFC000FFFF000000FFFC000007FFFF80007F8000FFFFFF8000F8
310
000FFFFFF8000FF8000001FFFE0000007FFFFFF0001FFFFFFF0000FFFFFF8000
310
7FFF0000FFFFFF80007FFF0003FFFFFFFFC0007FFFFFC00070008000FFFFFFC0
310
00FFFF000000FFF8000007FFFF80007F8000FFFFFF8000F8000FFFFFF8000FF8
310
000001FFFE0000007FFFFFF0001FFFFFFE0001FFFFFFC0003FFE0001FFFFFFC0
310
003FFF0003FFFFFFFFC0007FFFFFE00070008000FFFFFFC0007FFF0000007FF8
310
000003FFFF80007F0001FFFFFF8000F8000FFFFFF8000FF8000001FFFE000000
310
7FFFFFF0001FFFFFFE0001FFFFFFC0003FFE0001FFFFFFC0003FFF0003FFFFFF
310
FFC000FFFFFFE00070008000FFFFFFC0007FFF0000007FF8000003FFFF80007F
310
0001FFFFFF8000F8001FFFFFF8000FF8000001FFFE0000007FFFFFF0001FFFFF
310
FE0003FFFFFFE0003FFE0003FFFFFFE0003FFF0003FFFFFFFFC000FFFFFFE000
310
70008000FFFFFFC0007FFE0000007FF8000003FFFF80007F0001FFFFFF8000F0
310
001FFFFFF8000FF8000001FFFE0000007FFFFFF0001FFFFFFC0003FFFFFFE000
310
1FFC0003FFFFFFE0001FFF0003FFFFFFFFC000FFFFFFC00070008000FFFFFF80
310
007FFE0000007FF0000003FFFF80007F0001FFFFFF0000F0001FFFFFF8000FF8
310
000001FFFE0000007FFFFFF0001FFFFFFC0007FFFFFFF0001FFC0007FFFFFFF0
310
001FFF0003FFFFFFFFC000FFFFFFC00070008001FFFFFF0000FFFE0000003FF0
310
000001FFFF80007F0001FFFFFF0000F8001FFFFFF0000FF8000001FFFE000000
310
7FFFFFF0001FFFFFFC0007FFFFFFF0001FFC0007FFFFFFF0001FFF0003FFFFFF
310
FFC001FFFFFF80007000FFFFFFFFFE0000FFFE0008003FF0008001FFFF80007F
310
FFFFFFFFFC0000FFFFFFFFFFE0000FF8000001FFFE0000007FFFFFF0001FFFFF
310
F8000FFFFFFFF8000FF8000FFFFFFFF8000FFF0003FFFFFFFFFFFFFFFFFF0000
310
7000FFFFFFFFFC0000FFFC0008003FF0008001FFFF80007FFFFFFFFFF80001FF
310
FFFFFFFF80000FF8000001FFFE0000007FFFFFF0001FFFFFF8000FFFFFFFF800
310
0FF8000FFFFFFFF8000FFF0003FFFFFFFFFFFFFFFFFE0000F000FFFFFFFFE000
310
00FFFC000C003FE000C001FFFF80007FFFFFFFFFC00001FFFFFFFFFE00001FF8
310
000001FFFE0000007FFFFFF0001FFFFFF8000FFFFFFFF8000FF8000FFFFFFFF8
310
000FFF0003FFFFFFFFFFFFFFFFF00000F000FFFFFFFE000001FFFC000C001FE0
310
00C000FFFF80007FFFFFFFFE000001FFFFFFFFE000001FF80FFFFFFFFFFFFFC0
310
7FFFFFF0001FFFFFF8000FFFFFFFF8000FF8000FFFFFFFF8000FFF0003FFFFFF
310
FFFFFFFFFF800000F000FFFFFFC0000001FFFC001C001FE001C000FFFF80007F
310
FFFFFF80000003FFFFFFF80000001FF80FFFFFFFFFFFFFC07FFFFFF0001FFFFF
310
F8001FFFFFFFFC000FF8001FFFFFFFFC000FFF0003FFFFFFFFFFFFFFF0000001
310
F000FFFFF800000001FFF8001C001FE001C000FFFF80007FFFFFF800000003FF
310
FFFF800000003FF80FFFFFFFFFFFFFC07FFFFFF0001FFFFFF8001FFFFFFFFC00
310
0FF8001FFFFFFFFC000FFF0003FFFFFFFFFFFFFE00000001F000FFFFC0000000
310
03FFF8001E001FC001E000FFFF80007FFFFF8000000007FFFFFC000000003FF8
310
0FFFFFFFFFFFFFC07FFFFFF0001FFFFFF8001FFFFFFFFC000FF8001FFFFFFFFC
310
000FFF0003FFFFFFFFFFFFE000000003F000FFFE0000000007FFF8001E000FC0
310
01E0007FFF80007FFFFE0000000007FFFFE0000000007FF80FFFFFFFFFFFFFC0
310
7FFFFFF0001FFFFFF0001FFFFFFFFC0007F0001FFFFFFFFC0007FF0003FFFFFF
310
FFFFFF0000000003F000FFF80000000007FFF8001E000FC003E0007FFF80007F
310
FFF0000000000FFFFF8000000000FFF80FFFFFFFFFFFFFC07FFFFFF0001FFFFF
310
F0001FFFFFFFFC0007F0001FFFFFFFFC0007FF0003FFFFFFFFFFFC0000000007
310
F000FFE0000000000FFFF0003E000FC003E0007FFF80007FFFC0000000001FFF
310
FE0000000001FFF80FFFFFFFFFFFFFC07FFFFFF0001FFFFFF0001FFFFFFFFC00
310
07F0001FFFFFFFFC0007FF0003FFFFFFFFFFF0000000000FF000FFC000000000
310
1FFFF0003F000F8003F0003FFF80007FFF80000000003FFFF80000000003FFF8
310
0FFFFFFFFFFFFFC07FFFFFF0001FFFFFF0001FFFFFFFFC0007F0001FFFFFFFFC
310
0007FF0003FFFFFFFFFFE0000000001FF000FF00000000007FFFF0003F000780
310
03F0003FFF80007FFF00000000007FFFF00000000007FFF80FFFFFFFFFFFFFC0
310
7FFFFFF0001FFFFFF0001FFFFFFFFC0007F0001FFFFFFFFC0007FF0003FFFFFF
310
FFFF80000000007FF000FE0000000000FFFFE0003F00078007F0003FFF80007F
310
FE0000000001FFFFE0000000001FFFF80FFFFFFFFFFFFFC07FFFFFF0001FFFFF
310
F0001FFFFFFFFC0007F0001FFFFFFFFC0007FF0003FFFFFFFFFF0000000000FF
310
F000FC0000000003FFFFE0007F00078007F0003FFF80007FFC0000000007FFFF
310
C0000000007FFFF80FFFFFFFFFFFFFC07FFFFFF0001FFFFFF8001FFFFFFFFC00
310
0FF8001FFFFFFFFC000FFF0003FFFFFFFFFE0000000003FFF000FC000000000F
310
FFFFE0007F80070007F8001FFF80007FF8000000001FFFFF8000000001FFFFF8
310
0FFFFFFFFFFFFFC07FFFFFF0001FFFFFF8001FFFFFFFFC000FF8001FFFFFFFFC
310
000FFF0003FFFFFFFFFC000000000FFFF000F8000000007FFFFFE0007F800700
310
07F8001FFF80007FF000000000FFFFFF800000000FFFFFF80FFFFFFFFFFFFFC0
310
7FFFFFF0001FFFFFF8000FFFFFFFF8000FF8000FFFFFFFF8000FFF0003FFFFFF
310
FFFC000000007FFFF000F800000007FFFFFFC0007F8003000FF8001FFF80007F
310
F000000007FFFFFF000000007FFFFFF80FFFFFFFFFFFFFC07FFFFFF0001FFFFF
310
F8000FFFFFFFF8000FF8000FFFFFFFF8000FFF0003FFFFFFFFF80000000FFFFF
310
F000F0000000FFFFFFFFC000FF8003000FF8001FFF80007FE0000000FFFFFFFF
310
0000000FFFFFFFF8000001FFFE0000007FFFFFF0001FFFFFF8000FFFFFFFF800
310
0FF8000FFFFFFFF8000FFF0003FFFFFFFFF8000000FFFFFFF000F000000FFFFF
310
FFFFC000FFC002000FF8000FFF80007FE000001FFFFFFFFE000001FFFFFFFFF8
310
000001FFFE0000007FFFFFF0001FFFFFF8000FFFFFFFF8000FF8000FFFFFFFF8
310
000FFF0003FFFFFFFFF000001FFFFFFFF000E00000FFFFFFFFFFC000FFC00200
310
0FFC000FFF80007FE00001FFFFFFFFFE00001FFFFFFFFFF8000001FFFE000000
310
7FFFFFF0001FFFFFFC000FFFFFFFF8001FFC000FFFFFFFF8001FFF0003FFFFFF
310
FFF00001FFFFFFFFF000E00007FFFFFFFFFF8000FFC000001FFC000FFF80007F
310
C0000FFFFFFFFFFE0000FFFFFFFFFFF8000001FFFE0000007FFFFFF0001FFFFF
310
FC0007FFFFFFF0001FFC0007FFFFFFF0001FFF0003FFFFFFFFF00007FFFFFFFF
310
F000E0001FFFFFFFFFFF8000FFC000001FFC000FFF80007FC0003FFFFFFFFFFE
310
0001FFFFFFFFFFF8000001FFFE0000007FFFFFF0001FFFFFFC0007FFFFFFF000
310
1FFC0007FFFFFFF0001FFF0003FFFFFFFFF0001FFFFFFFFFF000E0003FFFFF00
310
03FF8001FFE000001FFC0007FF80007FC0007FFFFF0007FC0003FFFFF0003FF8
310
000001FFFE0000007FFFFFF0001FFFFFFC0003FFFFFFE0001FFC0003FFFFFFE0
310
001FFF0003FFFFFFFFF0003FFFFFFFFFF000E0003FFFFF0001FF8001FFE00000
310
1FFE0007FF80007FC0007FFFFE0003FC0007FFFFE0003FF8000001FFFE000000
310
7FFFFFF0001FFFFFFE0003FFFFFFE0003FFE0003FFFFFFE0003FFF0003FFFFFF
310
FFF0003FFFFF8001F000E0003FFFFF0001FF0001FFE000001FFE0007FF80007F
310
C0007FFFFE0003FC0007FFFFE0003FF8000001FFFE0000007FFFFFF0001FFFFF
310
FE0001FFFFFFC0003FFE0001FFFFFFC0003FFF0003FFFFFFFFF0003FFFFF0001
310
F000E0003FFFFF0003FF0001FFE000003FFE0007FF80007FC0007FFFFE0003FC
310
0007FFFFE0003FF8000001FFFE0000007FFFFFF0001FFFFFFF0001FFFFFFC000
310
7FFF0001FFFFFFC0007FFF0003FFFFFFFFF0003FFFFF0001F000E0003FFFFE00
310
03FF0003FFF000003FFE0003FF80007FC0007FFFFC0003FE0007FFFFE0003FF8
310
000001FFFE0000007FFFFFF0001FFFFFFF0000FFFFFF80007FFF0000FFFFFF80
310
007FFF0003FFFFFFFFF0003FFFFF0001F000E0003FFFFE0003FF0003FFF00000
310
3FFF0003FF80007FC0007FFFFC0007FE0007FFFFC0003FF8000001FFFE000000
310
7FFFFFF0001FFFFFFF80007FFFFF0000FFFF80007FFFFF0000FFFF0003FFFFFF
310
FFF0003FFFFF0003F000E0003FFFFC0003FE0003FFF000003FFF0003FF80007F
310
E0003FFFF80007FE0003FFFFC0007FF8000001FFFE0000007FFFFFF0001FFFFF
310
FF80003FFFFE0000FFFF80003FFFFE0000FFFF0003FFFFFFFFF0001FFFFE0003
310
F000F0001FFFF80003FE0003FFF000007FFF0001FF80007FE0003FFFF00007FE
310
0001FFFF80007FF8000001FFFE0000007FFFFFF0001FFFFFFFC0000FFFF80001
310
FFFFC0000FFFF80001FFFF0003FFFFFFFFF0001FFFFC0003F000F0000FFFF000
310
07FE0007FFF800007FFF0001FF80007FE0001FFFE00007FF0000FFFE00007FF8
310
000001FFFE0000007FFFFFF0001FFFFFFFC00003FFE00001FFFFC00003FFE000
310
01FFFF0003FFFFFFFFF8000FFFF80003F000F00003FFC00007FC0007FFF80000
310
7FFF8001FF80007FF00007FF80000FFF00007FF80000FFF8000001FFFE000000
310
7F80000000000001FFE000003E000003FFFFE000003E000003FFFF0003FFFFFF
310
FFF80003FFE00007F000F800000000000FFC0007FFF800007FFF8001FF80007F
310
F000000000000FFF000000000000FFF8000001FFFE0000007F80000000000001
310
FFF0000000000007FFFFF0000000000007FFFF0003FFFFFFFFFC00007E000007
310
F000F800000000000FFC0007FFF80000FFFF8000FF80007FF800000000001FFF
310
800000000001FFF8000001FFFE0000007F80000000000001FFF800000000000F
310
FFFFF800000000000FFFFF0003FFFFFFFFFC00000000000FF000FC0000000000
310
1FFC0007FFFC0000FFFF8000FF80007FF800000000003FFFC00000000001FFF8
310
000001FFFE0000007F80000000000001FFF800000000000FFFFFF80000000000
310
0FFFFF0003FFFFFFFFFE00000000001FF000FE00000000003FF8000FFFFC0000
310
FFFF8000FF80007FFC00000000003FFFC00000000003FFF8000001FFFE000000
310
7F80000000000001FFFC00000000001FFFFFFC00000000001FFFFF0003FFFFFF
310
FFFF00000000001FF000FF00000000003FF8000FFFFC0000FFFFC000FF80007F
310
FE00000000007FFFE00000000007FFF8000001FFFE0000007F80000000000001
310
FFFE00000000003FFFFFFE00000000003FFFFF0003FFFFFFFFFF80000000003F
310
F000FF80000000007FF8000FFFFC0001FFFFC0007F80007FFF0000000000FFFF
310
F0000000000FFFF800000000000000007F80000000000001FFFF8000000000FF
310
FFFFFF8000000000FFFFFF0003FFFFFFFFFFC0000000007FF000FFC000000000
310
FFF8000FFFFE0001FFFFC0007F80007FFF8000000001FFFFF8000000001FFFF8
310
00000000000000007F80000000000001FFFFC000000001FFFFFFFFC000000001
310
FFFFFF0003FFFFFFFFFFE000000000FFF000FFE000000003FFF0001FFFFE0001
310
FFFFC0007F80007FFFC000000007FFFFFE000000003FFFF80000000000000000
310
7F80000000000001FFFFE000000003FFFFFFFFE000000003FFFFFF0003FFFFFF
310
FFFFF000000003FFF000FFF80000000FFFF0001FFFFE0001FFFFE0007F80007F
310
FFF00000000FFFFFFF00000000FFFFF800000000000000007F80000000000001
310
FFFFF80000000FFFFFFFFFF80000000FFFFFFF0003FFFFFFFFFFFC0000000FFF
310
F000FFFE0000003FFFF0001FFFFE0003FFFFE0003F80007FFFFC0000003FFFFF
310
FFC0000003FFFFF800000000000000007F80000000000001FFFFFE0000003FFF
310
FFFFFFFE0000003FFFFFFF0003FFFFFFFFFFFF0000003FFFF000FFFF800000FF
310
FFF0001FFFFF0003FFFFE0003F80007FFFFF000001FFFFFFFFF800001FFFFFF8
310
00000000000000007F80000000000001FFFFFFC00001FFFFFFFFFFFFC00001FF
310
FFFFFF0003FFFFFFFFFFFFC00000FFFFF000FFFFF8000FFFFFFFFFFFFFFFFFFF
310
FFFFFFFFFFFFFFFFFFFFF0001FFFFFFFFFFF0000FFFFFFF80000000000000000
310
7FFFFFFFFFFFFFFFFFFFFFFC001FFFFFFFFFFFFFFC001FFFFFFFFFFFFFFFFFFF
310
FFFFFFFC001FFFFFF000FFFFFFFFFFFFFFFFFFFFFFFFFFFFFFFFFFFFFFFFFFFF
310
FFFFFFFFFFFFFFFFFFFFFFFFFFFFFFFFFFFFFFFFFFFFFFFFFFFFFFFFFFFFFFFF
310
FFFFFFFFFFFFFFFFFFFFFFFFFFFFFFFFFFFFFFFFFFFFFFFFFFFFFFFFFFFFFFFF
310
F000FFFFFFFFFFFFFFFFFFFFFFFFFFFFFFFFFFFFFFFFFFFFFFFFFFFFFFFFFFFF
310
FFFFFFFFFFFFFFFFFFFFFFFFFFFFFFFFFFFFFFFFFFFFFFFFFFFFFFFFFFFFFFFF
310
FFFFFFFFFFFFFFFFFFFFFFFFFFFFFFFFFFFFFFFFFFFFFFFFF000FFFFFFFFFFFF
310
FFFFFFFFFFFFFFFFFFFFFFFFFFFFFFFFFFFFFFFFFFFFFFFFFFFFFFFFFFFFFFFF
310
FFFFFFFFFFFFFFFFFFFFFFFFFFFFFFFFFFFFFFFFFFFFFFFFFFFFFFFFFFFFFFFF
310
FFFFFFFFFFFFFFFFFFFFFFFFFFFFFFFFF000FFFFFFFFFFFFFFFFFFFFFFFFFFFF
310
FFFFFFFFFFFFFFFFFFFFFFFFFFFFFFFFFFFFFFFFFFFFFFFFFFFFFFFFFFFFFFFF
310
FFFFFFFFFFFFFFFFFFFFFFFFFFFFFFFFFFFFFFFFFFFFFFFFFFFFFFFFFFFFFFFF
310
FFFFFFFFFFFFFFFFF000FFFFFFFFFFFFFFFFFFFFFFFFFFFFFFFFFFFFFFFFFFFF
310
FFFFFFFFFFFFFFFFFFFFFFFFFFFFFFFFFFFFFFFFFFFFFFFFFFFFFFFFFFFFFFFF
310
FFFFFFFFFFFFFFFFFFFFFFFFFFFFFFFFFFFFFFFFFFFFFFFFFFFFFFFFFFFFFFFF
310
F000FFFFFFFFFFFFFFFFFFFFFFFFFFFFFFFFFFFFFFFFFFFFFFFFFFFFFFFFFFFF
310
FFFFFFFFFFFFFFFFFFFFFFFFFFFFFFFFFFFFFFFFFFFFFFFFFFFFFFFFFFFFFFFF
310
FFFFFFFFFFFFFFFFFFFFFFFFFFFFFFFFFFFFFFFFFFFFFFFFF000FFFFFFFFFFFF
310
FFFFFFFFFFFFFFFFFFFFFFFFFFFFFFFFFFFFFFFFFFFFFFFFFFFFFFFFFFFFFFFF
310
FFFFFFFFFFFFFFFFFFFFFFFFFFFFFFFFFFFFFFFFFFFFFFFFFFFFFFFFFFFFFFFF
310
FFFFFFFFFFFFFFFFFFFFFFFFFFFFFFFFF000FFFFFFFFFFFFFFFFFFFFFFFFFFFF
310
FFFFFFFFFFFFFFFFFFFFFFFFFFFFFFFFFFFFFFFFFFFFFFFFFFFFFFFFFFFFFFFF
310
FFFFFFFFFFFFFFFFFFFFFFFFFFFFFFFFFFFFFFFFFFFFFFFFFFFFFFFFFFFFFFFF
310
FFFFFFFFFFFFFFFFF000FFFFFFFFFFFFFFFFFFFFFFFFFFFFFFFFFFFFFFFFFFFF
310
FFFFFFFFFFFFFFFFFFFFFFFFFFFFFFFFFFFFFFFFFFFFFFFFFFFFFFFFFFFFFFFF
310
FFFFFFFFFFFFFFFFFFFFFFFFFFFFFFFFFFFFFFFFFFFFFFFFFFFFFFFFFFFFFFFF
310
F000FFFFFFFFFFFFFFFFFFFFFFFFFFFFFFFFFFFFFFFFFFFFFFFFFFFFFFFFFFFF
310
FFFFFFFFFFFFFFFFFFFFFFFFFFFFFFFFFFFFFFFFFFFFFFFFFFFFFFFFFFFFFFFF
310
FFFFFFFFFFFFFFFFFFFFFFFFFFFFFFFFFFFFFFFFFFFFFFFFF000FFFFFFFFFFFF
310
FFFFFFFFFFFFFFFFFFFFFFFFFFFFFFFFFFFFFFFFFFFFFFFFFFFFFFFFFFFFFFFF
310
FFFFFFFFFFFFFFFFFFFFFFFFFFFFFFFFFFFFFFFFFFFFFFFFFFFFFFFFFFFFFFFF
310
FFFFFFFFFFFFFFFFFFFFFFFFFFFFFFFFF000FFFFFFFFFFFFFFFFFFFFFFFFFFFF
310
FFFFFFFFFFFFFFFFFFFFFFFFFFFFFFFFFFFFFFFFFFFFFFFFFFFFFFFFFFFFFFFF
310
FFFFFFFFFFFFFFFFFFFFFFFFFFFFFFFFFFFFFFFFFFFFFFFFFFFFFFFFFFFFFFFF
310
FFFFFFFFFFFFFFFFF000FFFFFFFFFFFFFFFFFFFFFFFFFFFFFFFFFFFFFFFFFFFF
310
FFFFFFFFFFFFFFFFFFFFFFFFFFFFFFFFFFFFFFFFFFFFFFFFFFFFFFFFFFFFFFFF
310
FFFFFFFFFFFFFFFFFFFFFFFFFFFFFFFFFFFFFFFFFFFFFFFFFFFFFFFFFFFFFFFF
310
F000FFFFFFFFFFFFFFFFFFFFFFFFFFFFFFFFFFFFFFFFFFFFFFFFFFFFFFFFFFFF
310
FFFFFFFFFFFFFFFFFFFFFFFFFFFFFFFFFFFFFFFFFFFFFFFFFFFFFFFFFFFFFFFF
310
FFFFFFFFFFFFFFFFFFFFFFFFFFFFFFFFFFFFFFFFFFFFFFFFF000FFFFFFFFFFFF
310
FFFFFFFFFFFFFFFFFFFFFFFFFFFFFFFFFFFFFFFFFFFFFFFFFFFFFFFFFFFFFFFF
310
FFFFFFFFFFFFFFFFFFFFFFFFFFFFFFFFFFFFFFFFFFFFFFFFFFFFFFFFFFFFFFFF
310
FFFFFFFFFFFFFFFFFFFFFFFFFFFFFFFFF000FFFFFFFFFFFFFFFFFFFFFFFFFFFF
310
FFFFFFFFFFFFFFFFFFFFFFFFFFFFFFFFFFFFFFFFFFFFFFFFFFFFFFFFFFFFFFFF
310
FFFFFFFFFFFFFFFFFFFFFFFFFFFFFFFFFFFFFFFFFFFFFFFFFFFFFFFFFFFFFFFF
310
FFFFFFFFFFFFFFFFF000FFFFFFFFFFFFFFFFFFFFFFFFFFFFFFFFFFFFFFFFFFFF
310
FFFFFFFFFFFFFFFFFFFFFFFFFFFFFFFFFFFFFFFFFFFFFFFFFFFFFFFFFFFFFFFF
310
FFFFFFFFFFFFFFFFFFFFFFFFFFFFFFFFFFFFFFFFFFFFFFFFFFFFFFFFFFFFFFFF
310
F000FFFFFFFFFFFFFFFFFFFFFFFFFFFFFFFFFFFFFFFFFFFFFFFFFFFFFFFFFFFF
310
FFFFFFFFFFFFFFFFFFFFFFFFFFFFFFFFFFFFFFFFFFFFFFFFFFFFFFFFFFFFFFFF
310
FFFFFFFFFFFFFFFFFFFFFFFFFFFFFFFFFFFFFFFFFFFFFFFFF000FFFFFFFFFFFF
310
FFFFFFFFFFFFFFFFFFFFFFFFFFFFFFFFFFFFFFFFFFFFFFFFFFFFFFFFFFFFFFFF
310
FFFFFFFFFFFFFFFFFFFFFFFFFFFFFFFFFFFFFFFFFFFFFFFFFFFFFFFFFFFFFFFF
310
FFFFFFFFFFFFFFFFFFFFFFFFFFFFFFFFF000FFFFFFFFFFFFFFFFFFFFFFFFFFFF
310
FFFFFFFFFFFFFFFFFFFFFFFFFFFFFFFFFFFFFFFFFFFFFFFFFFFFFFFFFFFFFFFF
310
FFFFFFFFFFFFFFFFFFFFFFFFFFFFFFFFFFFFFFFFFFFFFFFFFFFFFFFFFFFFFFFF
310
FFFFFFFFFFFFFFFFF000FFFFFFFFFFFFFFFFFFFFFFFFFFFFFFFFFFFFFFFFFFFF
310
FFFFFFFFFFFFFFFFFFFFFFFFFFFFFFFFFFFFFFFFFFFFFFFFFFFFFFFFFFFFFFFF
310
FFFFFFFFFFFFFFFFFFFFFFFFFFFFFFFFFFFFFFFFFFFFFFFFFFFFFFFFFFFFFFFF
310
F000FFFFFFFFFFFFFFFFFFFFFFFFFFFFFFFFFFFFFFFFFFFFFFFFFFFFFFFFFFFF
310
FFFFFFFFFFFFFFFFFFFFFFFFFFFFFFFFFFFFFFFFFFFFFFFFFFFFFFFFFFFFFFFF
310
FFFFFFFFFFFFFFFFFFFFFFFFFFFFFFFFFFFFFFFFFFFFFFFFF000FFFFFFFFFFFF
310
FFFFFFFFFFFFFFFFFFFFFFFFFFFFFFFFFFFFFFFFFFFFFFFFFFFFFFFFFFFFFFFF
310
FFFFFFFFFFFFFFFFFFFFFFFFFFFFFFFFFFFFFFFFFFFFFFFFFFFFFFFFFFFFFFFF
310
FFFFFFFFFFFFFFFFFFFFFFFFFFFFFFFFF0000000000000000000000000000000
310
0000000000000000000000000000000000000000000000000000000000000000
310
0000000000000000000000000000000000000000000000000000000000000000
310
0000000000000000000000000000000000000000000000000000000000000000
310
0000000000000000000000000000000000000000000000000000000000000000
310
0000000000000000000000000000000000000000000000000000000000000000
310
0000000000000000000000000000000000000000000000000000000000000000
310
0000000000000000000000000000000000000000000000000000000000000000
310
0000000000000000000000000000000000000000000000000000000000000000
310
0000000000000000000000000000000000000000000000000000000000000000
310
0000000000000000000000000000000000000000000000000000000000000000
310
0000000000000000000000000000000000000000000000000000000000000000
310
0000000000000000000000000000000000000000000000000000000000000000
310
0000000000000000000000000000000000000000000000000000000000000000
310
0000000000000000000000000000000000000000000000000000000000000000
310
0000000000000000000000000000000000000000000000000000000000000000
  1
OLE
  0
ENDSEC
  0
SECTION
  2
OBJECTS
  0
DICTIONARY
  5
C
330
0
100
AcDbDictionary
281
     1
  3
ACAD_GROUP
350
D
  3
ACAD_LAYOUT
350
1A
  3
ACAD_MLINESTYLE
350
17
  3
ACAD_PLOTSETTINGS
350
19
  3
ACAD_PLOTSTYLENAME
350
E
  0
DICTIONARY
  5
D
102
{ACAD_REACTORS
330
C
102
}
330
C
100
AcDbDictionary
281
     1
  0
DICTIONARY
  5
1A
102
{ACAD_REACTORS
330
C
102
}
330
C
100
AcDbDictionary
281
     1
  3
Layout1
350
1E
  3
Layout2
350
26
  3
Model
350
22
  0
DICTIONARY
  5
17
102
{ACAD_REACTORS
330
C
102
}
330
C
100
AcDbDictionary
281
     1
  3
Standard
350
18
  0
DICTIONARY
  5
19
102
{ACAD_REACTORS
330
C
102
}
330
C
100
AcDbDictionary
281
     1
  0
ACDBDICTIONARYWDFLT
  5
E
102
{ACAD_REACTORS
330
C
102
}
330
C
100
AcDbDictionary
281
     1
  3
Normal
350
F
100
AcDbDictionaryWithDefault
340
F
  0
LAYOUT
  5
1E
102
{ACAD_REACTORS
330
1A
102
}
330
1A
100
AcDbPlotSettings
  1

  2
none_device
  4

  6

 40
0.0
 41
0.0
 42
0.0
 43
0.0
 44
0.0
 45
0.0
 46
0.0
 47
0.0
 48
0.0
 49
0.0
140
0.0
141
0.0
142
1.0
143
1.0
 70
   688
 72
     0
 73
     0
 74
     5
  7

 75
    16
147
1.0
148
0.0
149
0.0
100
AcDbLayout
  1
Layout1
 70
     1
 71
     1
 10
0.0
 20
0.0
 11
420.0
 21
297.0
 12
0.0
 22
0.0
 32
0.0
 14
1.0000000000E+20
 24
1.0000000000E+20
 34
1.0000000000E+20
 15
-1.0000000000E+20
 25
-1.0000000000E+20
 35
-1.0000000000E+20
146
0.0
 13
0.0
 23
0.0
 33
0.0
 16
1.0
 26
0.0
 36
0.0
 17
0.0
 27
1.0
 37
0.0
 76
     0
330
1B
  0
LAYOUT
  5
26
102
{ACAD_REACTORS
330
1A
102
}
330
1A
100
AcDbPlotSettings
  1

  2
none_device
  4

  6

 40
0.0
 41
0.0
 42
0.0
 43
0.0
 44
0.0
 45
0.0
 46
0.0
 47
0.0
 48
0.0
 49
0.0
140
0.0
141
0.0
142
1.0
143
1.0
 70
   688
 72
     0
 73
     0
 74
     5
  7

 75
    16
147
1.0
148
0.0
149
0.0
100
AcDbLayout
  1
Layout2
 70
     1
 71
     2
 10
0.0
 20
0.0
 11
0.0
 21
0.0
 12
0.0
 22
0.0
 32
0.0
 14
0.0
 24
0.0
 34
0.0
 15
0.0
 25
0.0
 35
0.0
146
0.0
 13
0.0
 23
0.0
 33
0.0
 16
1.0
 26
0.0
 36
0.0
 17
0.0
 27
1.0
 37
0.0
 76
     0
330
23
  0
LAYOUT
  5
22
102
{ACAD_REACTORS
330
1A
102
}
330
1A
100
AcDbPlotSettings
  1

  2
none_device
  4

  6

 40
0.0
 41
0.0
 42
0.0
 43
0.0
 44
0.0
 45
0.0
 46
0.0
 47
0.0
 48
0.0
 49
0.0
140
0.0
141
0.0
142
1.0
143
1.0
 70
  1712
 72
     0
 73
     0
 74
     0
  7

 75
     0
147
1.0
148
0.0
149
0.0
100
AcDbLayout
  1
Model
 70
     1
 71
     0
 10
0.0
 20
0.0
 11
297.0
 21
210.0
 12
0.0
 22
0.0
 32
0.0
 14
0.0
 24
0.0
 34
0.0
 15
297.0
 25
210.0
 35
0.0
146
0.0
 13
0.0
 23
0.0
 33
0.0
 16
1.0
 26
0.0
 36
0.0
 17
0.0
 27
1.0
 37
0.0
 76
     0
330
1F
331
29
  0
MLINESTYLE
  5
18
102
{ACAD_REACTORS
330
17
102
}
330
17
100
AcDbMlineStyle
  2
Standard
 70
     0
  3

 62
   256
 51
90.0
 52
90.0
 71
     2
 49
0.5
 62
   256
  6
BYLAYER
 49
-0.5
 62
   256
  6
BYLAYER
  0
ACDBPLACEHOLDER
  5
F
102
{ACAD_REACTORS
330
E
102
}
330
E
  0
ENDSEC
  0
EOF
