  0
SECTION
  2
HEADER
  9
$ACADVER
  1
AC1015
  9
$ACADMAINTVER
 70
     6
  9
$DWGCODEPAGE
  3
ANSI_1252
  9
$INSBASE
 10
0.0
 20
0.0
 30
0.0
  9
$EXTMIN
 10
0.0
 20
0.0
 30
0.0
  9
$EXTMAX
 10
297.0
 20
210.0
 30
0.0
  9
$LIMMIN
 10
0.0
 20
0.0
  9
$LIMMAX
 10
297.0
 20
210.0
  9
$ORTHOMODE
 70
     0
  9
$REGENMODE
 70
     1
  9
$FILLMODE
 70
     1
  9
$QTEXTMODE
 70
     0
  9
$MIRRTEXT
 70
     1
  9
$LTSCALE
 40
1.0
  9
$ATTMODE
 70
     1
  9
$TEXTSIZE
 40
2.0
  9
$TRACEWID
 40
1.0
  9
$TEXTSTYLE
  7
Standard
  9
$CLAYER
  8
0
  9
$CELTYPE
  6
ByLayer
  9
$CECOLOR
 62
   256
  9
$CELTSCALE
 40
1.0
  9
$DISPSILH
 70
     0
  9
$DIMSCALE
 40
1.0
  9
$DIMASZ
 40
3.0
  9
$DIMEXO
 40
0.0
  9
$DIMDLI
 40
3.75
  9
$DIMRND
 40
0.0
  9
$DIMDLE
 40
0.0
  9
$DIMEXE
 40
1.0
  9
$DIMTP
 40
0.0
  9
$DIMTM
 40
0.0
  9
$DIMTXT
 40
2.0
  9
$DIMCEN
 40
2.5
  9
$DIMTSZ
 40
0.0
  9
$DIMTOL
 70
     0
  9
$DIMLIM
 70
     0
  9
$DIMTIH
 70
     1
  9
$DIMTOH
 70
     1
  9
$DIMSE1
 70
     0
  9
$DIMSE2
 70
     0
  9
$DIMTAD
 70
     1
  9
$DIMZIN
 70
     0
  9
$DIMBLK
  1

  9
$DIMASO
 70
     1
  9
$DIMSHO
 70
     1
  9
$DIMPOST
  1

  9
$DIMAPOST
  1

  9
$DIMALT
 70
     0
  9
$DIMALTD
 70
     3
  9
$DIMALTF
 40
0.0393700787
  9
$DIMLFAC
 40
1.0
  9
$DIMTOFL
 70
     1
  9
$DIMTVP
 40
0.0
  9
$DIMTIX
 70
     0
  9
$DIMSOXD
 70
     0
  9
$DIMSAH
 70
     0
  9
$DIMBLK1
  1

  9
$DIMBLK2
  1

  9
$DIMSTYLE
  2
ISO-25
  9
$DIMCLRD
 70
     0
  9
$DIMCLRE
 70
     0
  9
$DIMCLRT
 70
     0
  9
$DIMTFAC
 40
1.0
  9
$DIMGAP
 40
1.524
  9
$DIMJUST
 70
     0
  9
$DIMSD1
 70
     0
  9
$DIMSD2
 70
     0
  9
$DIMTOLJ
 70
     0
  9
$DIMTZIN
 70
     0
  9
$DIMALTZ
 70
     0
  9
$DIMALTTZ
 70
     0
  9
$DIMUPT
 70
     0
  9
$DIMDEC
 70
     2
  9
$DIMTDEC
 70
     3
  9
$DIMALTU
 70
     2
  9
$DIMALTTD
 70
     3
  9
$DIMTXSTY
  7
Standard
  9
$DIMAUNIT
 70
     0
  9
$DIMADEC
 70
     2
  9
$DIMALTRND
 40
0.0
  9
$DIMAZIN
 70
     0
  9
$DIMDSEP
 70
    44
  9
$DIMATFIT
 70
     3
  9
$DIMFRAC
 70
     0
  9
$DIMLDRBLK
  1

  9
$DIMLUNIT
 70
     2
  9
$DIMLWD
 70
    -2
  9
$DIMLWE
 70
    -2
  9
$DIMTMOVE
 70
     0
  9
$LUNITS
 70
     2
  9
$LUPREC
 70
     2
  9
$SKETCHINC
 40
1.0
  9
$FILLETRAD
 40
10.0
  9
$AUNITS
 70
     0
  9
$AUPREC
 70
     2
  9
$MENU
  1
.
  9
$ELEVATION
 40
0.0
  9
$PELEVATION
 40
0.0
  9
$THICKNESS
 40
0.0
  9
$LIMCHECK
 70
     0
  9
$CHAMFERA
 40
10.0
  9
$CHAMFERB
 40
10.0
  9
$CHAMFERC
 40
20.0
  9
$CHAMFERD
 40
0.0
  9
$SKPOLY
 70
     0
  9
$TDCREATE
 40
2456085.431079757
  9
$TDUCREATE
 40
2456085.347746423
  9
$TDUPDATE
 40
2456085.431081389
  9
$TDUUPDATE
 40
2456085.347748056
  9
$TDINDWG
 40
0.0000000116
  9
$TDUSRTIMER
 40
0.0000000116
  9
$USRTIMER
 70
     1
  9
$ANGBASE
 50
0.0
  9
$ANGDIR
 70
     0
  9
$PDMODE
 70
     0
  9
$PDSIZE
 40
-1.0
  9
$PLINEWID
 40
0.0
  9
$SPLFRAME
 70
     0
  9
$SPLINETYPE
 70
     6
  9
$SPLINESEGS
 70
     8
  9
$HANDSEED
  5
2A7
  9
$SURFTAB1
 70
     6
  9
$SURFTAB2
 70
     6
  9
$SURFTYPE
 70
     6
  9
$SURFU
 70
     6
  9
$SURFV
 70
     6
  9
$UCSBASE
  2

  9
$UCSNAME
  2

  9
$UCSORG
 10
0.0
 20
0.0
 30
0.0
  9
$UCSXDIR
 10
1.0
 20
0.0
 30
0.0
  9
$UCSYDIR
 10
0.0
 20
1.0
 30
0.0
  9
$UCSORTHOREF
  2

  9
$UCSORTHOVIEW
 70
     0
  9
$UCSORGTOP
 10
0.0
 20
0.0
 30
0.0
  9
$UCSORGBOTTOM
 10
0.0
 20
0.0
 30
0.0
  9
$UCSORGLEFT
 10
0.0
 20
0.0
 30
0.0
  9
$UCSORGRIGHT
 10
0.0
 20
0.0
 30
0.0
  9
$UCSORGFRONT
 10
0.0
 20
0.0
 30
0.0
  9
$UCSORGBACK
 10
0.0
 20
0.0
 30
0.0
  9
$PUCSBASE
  2

  9
$PUCSNAME
  2

  9
$PUCSORG
 10
0.0
 20
0.0
 30
0.0
  9
$PUCSXDIR
 10
1.0
 20
0.0
 30
0.0
  9
$PUCSYDIR
 10
0.0
 20
1.0
 30
0.0
  9
$PUCSORTHOREF
  2

  9
$PUCSORTHOVIEW
 70
     0
  9
$PUCSORGTOP
 10
0.0
 20
0.0
 30
0.0
  9
$PUCSORGBOTTOM
 10
0.0
 20
0.0
 30
0.0
  9
$PUCSORGLEFT
 10
0.0
 20
0.0
 30
0.0
  9
$PUCSORGRIGHT
 10
0.0
 20
0.0
 30
0.0
  9
$PUCSORGFRONT
 10
0.0
 20
0.0
 30
0.0
  9
$PUCSORGBACK
 10
0.0
 20
0.0
 30
0.0
  9
$USERI1
 70
     0
  9
$USERI2
 70
     0
  9
$USERI3
 70
     0
  9
$USERI4
 70
     0
  9
$USERI5
 70
     0
  9
$USERR1
 40
0.0
  9
$USERR2
 40
0.0
  9
$USERR3
 40
0.0
  9
$USERR4
 40
0.0
  9
$USERR5
 40
0.0
  9
$WORLDVIEW
 70
     1
  9
$SHADEDGE
 70
     3
  9
$SHADEDIF
 70
    70
  9
$TILEMODE
 70
     1
  9
$MAXACTVP
 70
    64
  9
$PINSBASE
 10
0.0
 20
0.0
 30
0.0
  9
$PLIMCHECK
 70
     0
  9
$PEXTMIN
 10
1.0000000000E+20
 20
1.0000000000E+20
 30
1.0000000000E+20
  9
$PEXTMAX
 10
-1.0000000000E+20
 20
-1.0000000000E+20
 30
-1.0000000000E+20
  9
$PLIMMIN
 10
0.0
 20
0.0
  9
$PLIMMAX
 10
420.0
 20
297.0
  9
$UNITMODE
 70
     0
  9
$VISRETAIN
 70
     1
  9
$PLINEGEN
 70
     0
  9
$PSLTSCALE
 70
     1
  9
$TREEDEPTH
 70
  3020
  9
$CMLSTYLE
  2
Standard
  9
$CMLJUST
 70
     0
  9
$CMLSCALE
 40
20.0
  9
$PROXYGRAPHICS
 70
     1
  9
$MEASUREMENT
 70
     1
  9
$CELWEIGHT
370
    -1
  9
$ENDCAPS
280
     0
  9
$JOINSTYLE
280
     0
  9
$LWDISPLAY
290
     1
  9
$INSUNITS
 70
     4
  9
$HYPERLINKBASE
  1

  9
$STYLESHEET
  1

  9
$XEDIT
290
     1
  9
$CEPSNTYPE
380
     0
  9
$PSTYLEMODE
290
     1
  9
$FINGERPRINTGUID
  2
{37FC67B1-2AA2-419A-829B-441AFB92DBEB}
  9
$VERSIONGUID
  2
{FAEB1C32-E019-11D5-929B-00C0DF256EC4}
  9
$EXTNAMES
290
     1
  9
$PSVPSCALE
 40
0.0
  9
$OLESTARTUP
290
     0
  0
ENDSEC
  0
SECTION
  2
CLASSES
  0
CLASS
  1
ACDBDICTIONARYWDFLT
  2
AcDbDictionaryWithDefault
  3
ObjectDBX Classes
 90
        0
280
     0
281
     0
  0
CLASS
  1
VISUALSTYLE
  2
AcDbVisualStyle
  3
ObjectDBX Classes
 90
     4095
280
     0
281
     0
  0
CLASS
  1
MATERIAL
  2
AcDbMaterial
  3
ObjectDBX Classes
 90
     1153
280
     0
281
     0
  0
CLASS
  1
ACDBPLACEHOLDER
  2
AcDbPlaceHolder
  3
ObjectDBX Classes
 90
        0
280
     0
281
     0
  0
CLASS
  1
LAYOUT
  2
AcDbLayout
  3
ObjectDBX Classes
 90
        0
280
     0
281
     0
  0
ENDSEC
  0
SECTION
  2
TABLES
  0
TABLE
  2
VPORT
  5
8
330
0
100
AcDbSymbolTable
 70
     1
  0
VPORT
  5
29
330
8
100
AcDbSymbolTableRecord
100
AcDbViewportTableRecord
  2
*Active
 70
     0
 10
0.0
 20
0.0
 11
1.0
 21
1.0
 12
148.5
 22
105.0
 13
0.0
 23
0.0
 14
10.0
 24
10.0
 15
10.0
 25
10.0
 16
0.0
 26
0.0
 36
1.0
 17
0.0
 27
0.0
 37
0.0
 40
210.0
 41
1.4142857143
 42
50.0
 43
0.0
 44
0.0
 50
0.0
 51
0.0
 71
     0
 72
  2000
 73
     1
 74
     3
 75
     0
 76
     0
 77
     0
 78
     0
281
     0
 65
     1
110
0.0
120
0.0
130
0.0
111
1.0
121
0.0
131
0.0
112
0.0
122
1.0
132
0.0
 79
     0
146
0.0
  0
ENDTAB
  0
TABLE
  2
LTYPE
  5
5
330
0
100
AcDbSymbolTable
 70
     6
  0
LTYPE
  5
14
330
5
100
AcDbSymbolTableRecord
100
AcDbLinetypeTableRecord
  2
ByBlock
 70
     0
  3

 72
    65
 73
     0
 40
0.0
  0
LTYPE
  5
15
330
5
100
AcDbSymbolTableRecord
100
AcDbLinetypeTableRecord
  2
ByLayer
 70
     0
  3

 72
    65
 73
     0
 40
0.0
  0
LTYPE
  5
16
330
5
100
AcDbSymbolTableRecord
100
AcDbLinetypeTableRecord
  2
Continuous
 70
     0
  3
Solid line
 72
    65
 73
     0
 40
0.0
  0
LTYPE
  5
3F
330
5
100
AcDbSymbolTableRecord
100
AcDbLinetypeTableRecord
  2
HIDDEN
 70
     0
  3
Hidden __ __ __ __ __ __ __ __ __ __ __ __ __ __
 72
    65
 73
     2
 40
1.905
 49
1.27
 74
     0
 49
-0.635
 74
     0
  0
LTYPE
  5
40
330
5
100
AcDbSymbolTableRecord
100
AcDbLinetypeTableRecord
  2
PHANTOM
 70
     0
  3
Phantom ______  __  __  ______  __  __  ______
 72
    65
 73
     6
 40
12.7
 49
6.35
 74
     0
 49
-1.27
 74
     0
 49
1.27
 74
     0
 49
-1.27
 74
     0
 49
1.27
 74
     0
 49
-1.27
 74
     0
  0
LTYPE
  5
41
330
5
100
AcDbSymbolTableRecord
100
AcDbLinetypeTableRecord
  2
CENTER
 70
     0
  3
Center ____ _ ____ _ ____ _ ____ _ ____ _ ____
 72
    65
 73
     4
 40
10.16
 49
6.35
 74
     0
 49
-1.27
 74
     0
 49
1.27
 74
     0
 49
-1.27
 74
     0
  0
LTYPE
  5
42
330
5
100
AcDbSymbolTableRecord
100
AcDbLinetypeTableRecord
  2
CENTERX2
 70
     0
  3
Center (2x) ________  __  ________  __  _____
 72
    65
 73
     4
 40
20.32
 49
12.7
 74
     0
 49
-2.54
 74
     0
 49
2.54
 74
     0
 49
-2.54
 74
     0
  0
LTYPE
  5
43
330
5
100
AcDbSymbolTableRecord
100
AcDbLinetypeTableRecord
  2
DOT2
 70
     0
  3
Dot (.5x) ........................................
 72
    65
 73
     2
 40
0.635
 49
0.0
 74
     0
 49
-0.635
 74
     0
  0
ENDTAB
  0
TABLE
  2
LAYER
  5
2
330
0
100
AcDbSymbolTable
 70
     5
  0
LAYER
  5
10
330
2
100
AcDbSymbolTableRecord
100
AcDbLayerTableRecord
  2
0
 70
     0
 62
     7
  6
Continuous
370
    -3
390
F
  0
LAYER
  5
44
330
2
100
AcDbSymbolTableRecord
100
AcDbLayerTableRecord
  2
FORMAT
 70
     0
 62
     7
  6
Continuous
370
    -3
390
F
  0
LAYER
  5
45
330
2
100
AcDbSymbolTableRecord
100
AcDbLayerTableRecord
  2
VERMASSUNG
 70
     0
 62
     7
  6
Continuous
370
    -3
390
F
  0
LAYER
  5
46
330
2
100
AcDbSymbolTableRecord
100
AcDbLayerTableRecord
  2
KOPF_DÜNN
 70
     0
 62
     7
  6
Continuous
370
    -3
390
F
  0
LAYER
  5
47
330
2
100
AcDbSymbolTableRecord
100
AcDbLayerTableRecord
  2
KOPF_DICK
 70
     0
 62
     7
  6
Continuous
370
    15
390
F
  0
ENDTAB
  0
TABLE
  2
STYLE
  5
3
330
0
100
AcDbSymbolTable
 70
     2
  0
STYLE
  5
11
330
3
100
AcDbSymbolTableRecord
100
AcDbTextStyleTableRecord
  2
Standard
 70
     0
 40
0.0
 41
1.0
 50
0.0
 71
     0
 42
2.0
  3
txt
  4

  0
STYLE
  5
48
330
3
100
AcDbSymbolTableRecord
100
AcDbTextStyleTableRecord
  2
SLDTEXTSTYLE0
 70
     0
 40
0.0
 41
0.7
 50
0.0
 71
     0
 42
0.2
  3
TXT
  4

  0
ENDTAB
  0
TABLE
  2
VIEW
  5
6
330
0
100
AcDbSymbolTable
 70
     0
  0
ENDTAB
  0
TABLE
  2
UCS
  5
7
330
0
100
AcDbSymbolTable
 70
     0
  0
ENDTAB
  0
TABLE
  2
APPID
  5
9
330
0
100
AcDbSymbolTable
 70
     1
  0
APPID
  5
12
330
9
100
AcDbSymbolTableRecord
100
AcDbRegAppTableRecord
  2
ACAD
 70
     0
  0
ENDTAB
  0
TABLE
  2
DIMSTYLE
  5
A
330
0
100
AcDbSymbolTable
 70
     5
100
AcDbDimStyleTable
  0
DIMSTYLE
105
27
330
A
100
AcDbSymbolTableRecord
100
AcDbDimStyleTableRecord
  2
ISO-25
 70
     0
 41
2.5
 42
0.625
 43
3.75
 44
1.25
 73
     0
 74
     0
 77
     1
 78
     8
140
2.5
141
2.5
143
0.0393700787
147
0.625
171
     3
172
     1
178
     0
271
     2
272
     2
274
     3
278
    44
283
     0
284
     8
340
11
  0
DIMSTYLE
105
1E1
102
{ACAD_REACTORS
330
1E0
330
1EB
330
1F5
330
209
330
215
102
}
330
A
100
AcDbSymbolTableRecord
100
AcDbDimStyleTableRecord
  2
SLDDIMSTYLE0
 70
     0
 41
3.0
 44
0.0
 45
0.000000001
 73
     0
 74
     0
 77
     1
 78
    12
 79
     3
140
2.0
147
0.5
173
     1
178
     0
271
     2
272
     3
276
     2
284
    12
340
48
  0
DIMSTYLE
105
200
102
{ACAD_REACTORS
330
1FF
102
}
330
A
100
AcDbSymbolTableRecord
100
AcDbDimStyleTableRecord
  2
SLDDIMSTYLE1
 70
     0
 41
3.0
 44
0.0
 73
     0
 74
     0
 77
     1
 78
    12
 79
     3
140
2.0
147
0.5
173
     1
178
     0
179
     1
272
     3
276
     2
284
    12
340
48
  0
DIMSTYLE
105
27F
102
{ACAD_REACTORS
330
27E
102
}
330
A
100
AcDbSymbolTableRecord
100
AcDbDimStyleTableRecord
  2
SLDDIMSTYLE2
 70
     0
 41
3.0
 44
0.0
 45
0.000000001
 73
     0
 74
     0
 77
     1
 78
    12
 79
     3
140
2.0
147
0.5
172
     1
173
     1
178
     0
271
     2
272
     3
276
     2
284
    12
289
     0
340
48
  0
DIMSTYLE
105
28E
102
{ACAD_REACTORS
330
28D
102
}
330
A
100
AcDbSymbolTableRecord
100
AcDbDimStyleTableRecord
  2
SLDDIMSTYLE3
 70
     0
 41
3.0
 44
0.0
 73
     0
 74
     0
 77
     1
 78
    12
 79
     3
140
2.0
147
0.5
173
     1
178
     0
179
     2
272
     3
276
     2
284
    12
340
48
  0
ENDTAB
  0
TABLE
  2
BLOCK_RECORD
  5
1
330
0
100
AcDbSymbolTable
 70
    10
  0
BLOCK_RECORD
  5
1F
330
1
100
AcDbSymbolTableRecord
100
AcDbBlockTableRecord
  2
*Model_Space
340
22
  0
BLOCK_RECORD
  5
1B
330
1
100
AcDbSymbolTableRecord
100
AcDbBlockTableRecord
  2
*Paper_Space
340
1E
  0
BLOCK_RECORD
  5
23
330
1
100
AcDbSymbolTableRecord
100
AcDbBlockTableRecord
  2
*Paper_Space0
340
26
  0
BLOCK_RECORD
  5
1E2
330
1
100
AcDbSymbolTableRecord
100
AcDbBlockTableRecord
  2
_D
340
0
  0
BLOCK_RECORD
  5
1EC
330
1
100
AcDbSymbolTableRecord
100
AcDbBlockTableRecord
  2
_D_1
340
0
  0
BLOCK_RECORD
  5
1F6
330
1
100
AcDbSymbolTableRecord
100
AcDbBlockTableRecord
  2
_D_2
340
0
  0
BLOCK_RECORD
  5
201
330
1
100
AcDbSymbolTableRecord
100
AcDbBlockTableRecord
  2
_D_3
340
0
  0
BLOCK_RECORD
  5
20A
330
1
100
AcDbSymbolTableRecord
100
AcDbBlockTableRecord
  2
_D_4
340
0
  0
BLOCK_RECORD
  5
216
330
1
100
AcDbSymbolTableRecord
100
AcDbBlockTableRecord
  2
_D_5
340
0
  0
BLOCK_RECORD
  5
280
330
1
100
AcDbSymbolTableRecord
100
AcDbBlockTableRecord
  2
_D_6
340
0
  0
BLOCK_RECORD
  5
28F
330
1
100
AcDbSymbolTableRecord
100
AcDbBlockTableRecord
  2
_D_7
340
0
  0
BLOCK_RECORD
  5
29A
330
1
100
AcDbSymbolTableRecord
100
AcDbBlockTableRecord
  2
SW_CENTERMARKSYMBOL_0
340
0
102
{BLKREFS
331
2A5
102
}
  0
ENDTAB
  0
ENDSEC
  0
SECTION
  2
BLOCKS
  0
BLOCK
  5
20
330
1F
100
AcDbEntity
  8
0
100
AcDbBlockBegin
  2
*Model_Space
 70
     0
 10
0.0
 20
0.0
 30
0.0
  3
*Model_Space
  1

  0
ENDBLK
  5
21
330
1F
100
AcDbEntity
  8
0
100
AcDbBlockEnd
  0
BLOCK
  5
1C
330
1B
100
AcDbEntity
 67
     1
  8
0
100
AcDbBlockBegin
  2
*Paper_Space
 70
     0
 10
0.0
 20
0.0
 30
0.0
  3
*Paper_Space
  1

  0
ENDBLK
  5
1D
330
1B
100
AcDbEntity
 67
     1
  8
0
100
AcDbBlockEnd
  0
BLOCK
  5
24
330
23
100
AcDbEntity
  8
0
100
AcDbBlockBegin
  2
*Paper_Space0
 70
     0
 10
0.0
 20
0.0
 30
0.0
  3
*Paper_Space0
  1

  0
ENDBLK
  5
25
330
23
100
AcDbEntity
  8
0
100
AcDbBlockEnd
  0
BLOCK
  5
1E3
330
1E2
100
AcDbEntity
  8
0
100
AcDbBlockBegin
  2
_D
 70
     0
 10
0.0
 20
0.0
 30
0.0
  3
_D
  1

  0
SOLID
  5
1E5
330
1E2
100
AcDbEntity
  8
VERMASSUNG
100
AcDbTrace
 10
145.3870761433
 20
95.8709875053
 30
0.0
 11
148.3870761433
 21
95.4209875053
 31
0.0
 12
148.3870761433
 22
96.3209875053
 32
0.0
 13
148.3870761433
 23
96.3209875053
 33
0.0
  0
SOLID
  5
1E6
330
1E2
100
AcDbEntity
  8
VERMASSUNG
100
AcDbTrace
 10
255.3870761433
 20
95.8709875053
 30
0.0
 11
252.3870761433
 21
96.3209875053
 31
0.0
 12
252.3870761433
 22
95.4209875053
 32
0.0
 13
252.3870761433
 23
95.4209875053
 33
0.0
  0
LINE
  5
1E7
330
1E2
100
AcDbEntity
  8
VERMASSUNG
100
AcDbLine
 10
145.3870761433
 20
108.1986707615
 30
0.0
 11
145.3870761433
 21
94.8709875053
 31
0.0
  0
LINE
  5
1E8
330
1E2
100
AcDbEntity
  8
VERMASSUNG
100
AcDbLine
 10
255.3870761433
 20
105.8986707615
 30
0.0
 11
255.3870761433
 21
94.8709875053
 31
0.0
  0
LINE
  5
1E9
330
1E2
100
AcDbEntity
  8
VERMASSUNG
100
AcDbLine
 10
145.3870761433
 20
95.8709875053
 30
0.0
 11
255.3870761433
 21
95.8709875053
 31
0.0
  0
MTEXT
  5
1EA
330
1E2
100
AcDbEntity
  8
VERMASSUNG
100
AcDbMText
 10
197.7870759034
 20
98.4491228685
 30
0.1
 40
2.0
 41
0.0
 71
     1
 72
     1
  1
110
  7
SLDTEXTSTYLE0
 73
     1
 44
1.0
  0
ENDBLK
  5
1E4
330
1E2
100
AcDbEntity
  8
0
100
AcDbBlockEnd
  0
BLOCK
  5
1ED
330
1EC
100
AcDbEntity
  8
0
100
AcDbBlockBegin
  2
_D_1
 70
     0
 10
0.0
 20
0.0
 30
0.0
  3
_D_1
  1

  0
SOLID
  5
1EF
330
1EC
100
AcDbEntity
  8
VERMASSUNG
100
AcDbTrace
 10
255.3870761433
 20
86.9576649889
 30
0.0
 11
252.3870761433
 21
87.4076649889
 31
0.0
 12
252.3870761433
 22
86.5076649889
 32
0.0
 13
252.3870761433
 23
86.5076649889
 33
0.0
  0
SOLID
  5
1F0
330
1EC
100
AcDbEntity
  8
VERMASSUNG
100
AcDbTrace
 10
121.3870761433
 20
86.9576649889
 30
0.0
 11
124.3870761433
 21
86.5076649889
 31
0.0
 12
124.3870761433
 22
87.4076649889
 32
0.0
 13
124.3870761433
 23
87.4076649889
 33
0.0
  0
LINE
  5
1F1
330
1EC
100
AcDbEntity
  8
VERMASSUNG
100
AcDbLine
 10
255.3870761433
 20
105.8986707615
 30
0.0
 11
255.3870761433
 21
85.9576649889
 31
0.0
  0
LINE
  5
1F2
330
1EC
100
AcDbEntity
  8
VERMASSUNG
100
AcDbLine
 10
121.3870761433
 20
115.2671657794
 30
0.0
 11
121.3870761433
 21
85.9576649889
 31
0.0
  0
LINE
  5
1F3
330
1EC
100
AcDbEntity
  8
VERMASSUNG
100
AcDbLine
 10
255.3870761433
 20
86.9576649889
 30
0.0
 11
121.3870761433
 21
86.9576649889
 31
0.0
  0
MTEXT
  5
1F4
330
1EC
100
AcDbEntity
  8
VERMASSUNG
100
AcDbMText
 10
185.4870759473
 20
89.535800352
 30
0.1
 40
2.0
 41
0.0
 71
     1
 72
     1
  1
134
  7
SLDTEXTSTYLE0
 73
     1
 44
1.0
  0
ENDBLK
  5
1EE
330
1EC
100
AcDbEntity
  8
0
100
AcDbBlockEnd
  0
BLOCK
  5
1F7
330
1F6
100
AcDbEntity
  8
0
100
AcDbBlockBegin
  2
_D_2
 70
     0
 10
0.0
 20
0.0
 30
0.0
  3
_D_2
  1

  0
SOLID
  5
1F9
330
1F6
100
AcDbEntity
  8
VERMASSUNG
100
AcDbTrace
 10
271.656736191
 20
127.8986707615
 30
0.0
 11
271.206736191
 21
124.8986707615
 31
0.0
 12
272.106736191
 22
124.8986707615
 32
0.0
 13
272.106736191
 23
124.8986707615
 33
0.0
  0
SOLID
  5
1FA
330
1F6
100
AcDbEntity
  8
VERMASSUNG
100
AcDbTrace
 10
271.656736191
 20
105.8986707615
 30
0.0
 11
272.106736191
 21
108.8986707615
 31
0.0
 12
271.206736191
 22
108.8986707615
 32
0.0
 13
271.206736191
 23
108.8986707615
 33
0.0
  0
LINE
  5
1FB
330
1F6
100
AcDbEntity
  8
VERMASSUNG
100
AcDbLine
 10
255.3870761433
 20
127.8986707615
 30
0.0
 11
272.656736191
 21
127.8986707615
 31
0.0
  0
LINE
  5
1FC
330
1F6
100
AcDbEntity
  8
VERMASSUNG
100
AcDbLine
 10
255.3870761433
 20
105.8986707615
 30
0.0
 11
272.656736191
 21
105.8986707615
 31
0.0
  0
LINE
  5
1FD
330
1F6
100
AcDbEntity
  8
VERMASSUNG
100
AcDbLine
 10
271.656736191
 20
127.8986707615
 30
0.0
 11
271.656736191
 21
105.8986707615
 31
0.0
  0
MTEXT
  5
1FE
330
1F6
100
AcDbEntity
  8
VERMASSUNG
100
AcDbMText
 10
269.0786008278
 20
114.5986707104
 30
0.1
 40
2.0
 41
0.0
 71
     1
 72
     1
  1
22
  7
SLDTEXTSTYLE0
 11
-7.044195017643634E-15
 21
1.0
 31
0.0
 73
     1
 44
1.0
  0
ENDBLK
  5
1F8
330
1F6
100
AcDbEntity
  8
0
100
AcDbBlockEnd
  0
BLOCK
  5
202
330
201
100
AcDbEntity
  8
0
100
AcDbBlockBegin
  2
_D_3
 70
     0
 10
0.0
 20
0.0
 30
0.0
  3
_D_3
  1

  0
ARC
  5
204
330
201
100
AcDbEntity
  8
VERMASSUNG
100
AcDbCircle
 10
255.4239619128
 20
105.8986707615
 30
0.0
 40
10.5329684080271
100
AcDbArc
 50
0.0
 51
95.0277975181
  0
SOLID
  5
205
330
201
100
AcDbEntity
  8
VERMASSUNG
100
AcDbTrace
 10
265.9569303208
 20
105.8986707615
 30
0.0
 11
265.9877314137
 21
108.9320766514
 31
0.0
 12
265.0963790263
 22
108.8076141211
 32
0.0
 13
265.0963790263
 23
108.8076141211
 33
0.0
  0
SOLID
  5
206
330
201
100
AcDbEntity
  8
VERMASSUNG
100
AcDbTrace
 10
254.5008626256
 20
116.3911114304
 30
0.0
 11
257.474031127
 21
115.7888082987
 31
0.0
 12
257.5198974907
 22
116.6876388037
 32
0.0
 13
257.5198974907
 23
116.6876388037
 33
0.0
  0
LINE
  5
207
330
201
100
AcDbEntity
  8
VERMASSUNG
100
AcDbLine
 10
265.5603744477
 20
105.8986707615
 30
0.0
 11
266.9569303208
 21
105.8986707615
 31
0.0
  0
MTEXT
  5
208
330
201
100
AcDbEntity
  8
VERMASSUNG
100
AcDbMText
 10
262.1407704531
 20
117.5260318665
 30
0.1
 40
2.0
 41
0.0
 71
     1
 72
     1
  1
95°
  7
SLDTEXTSTYLE0
 11
0.7374411991856016
 21
-0.6754113396617664
 31
0.0
 73
     1
 44
1.0
  0
ENDBLK
  5
203
330
201
100
AcDbEntity
  8
0
100
AcDbBlockEnd
  0
BLOCK
  5
20B
330
20A
100
AcDbEntity
  8
0
100
AcDbBlockBegin
  2
_D_4
 70
     0
 10
0.0
 20
0.0
 30
0.0
  3
_D_4
  1

  0
SOLID
  5
20D
330
20A
100
AcDbEntity
  8
VERMASSUNG
100
AcDbTrace
 10
114.8575765393
 20
107.8986707615
 30
0.0
 11
115.3075765393
 21
110.8986707615
 31
0.0
 12
114.4075765393
 22
110.8986707615
 32
0.0
 13
114.4075765393
 23
110.8986707615
 33
0.0
  0
SOLID
  5
20E
330
20A
100
AcDbEntity
  8
VERMASSUNG
100
AcDbTrace
 10
114.8575765393
 20
147.8986707615
 30
0.0
 11
114.4075765393
 21
144.8986707615
 31
0.0
 12
115.3075765393
 22
144.8986707615
 32
0.0
 13
115.3075765393
 23
144.8986707615
 33
0.0
  0
LINE
  5
20F
330
20A
100
AcDbEntity
  8
VERMASSUNG
100
AcDbLine
 10
145.6870761433
 20
107.8986707615
 30
0.0
 11
113.8575765393
 21
107.8986707615
 31
0.0
  0
LINE
  5
210
330
20A
100
AcDbEntity
  8
VERMASSUNG
100
AcDbLine
 10
145.6870761433
 20
147.8986707615
 30
0.0
 11
113.8575765393
 21
147.8986707615
 31
0.0
  0
LINE
  5
211
330
20A
100
AcDbEntity
  8
VERMASSUNG
100
AcDbLine
 10
114.8575765393
 20
107.8986707615
 30
0.0
 11
114.8575765393
 21
147.8986707615
 31
0.0
  0
MTEXT
  5
212
330
20A
100
AcDbEntity
  8
VERMASSUNG
100
AcDbMText
 10
112.0794410503
 20
121.3936708221
 30
0.1
 40
2.0
 41
0.0
 71
     1
 72
     1
  1
PSC
  7
SLDTEXTSTYLE0
 11
6.123233995736766E-17
 21
1.0
 31
0.0
 73
     1
 44
1.0
  0
MTEXT
  5
213
330
20A
100
AcDbEntity
  8
VERMASSUNG
100
AcDbMText
 10
112.2794410598
 20
125.9936709242
 30
0.1
 40
2.0
 41
0.0
 71
     1
 72
     1
  1
%%c
  7
SLDTEXTSTYLE0
 11
6.123233995736766E-17
 21
1.0
 31
0.0
 73
     1
 44
1.0
  0
MTEXT
  5
214
330
20A
100
AcDbEntity
  8
VERMASSUNG
100
AcDbMText
 10
112.0794410503
 20
129.6036714042
 30
0.1
 40
2.0
 41
0.0
 71
     1
 72
     1
  1
40
  7
SLDTEXTSTYLE0
 11
6.123233995736766E-17
 21
1.0
 31
0.0
 73
     1
 44
1.0
  0
ENDBLK
  5
20C
330
20A
100
AcDbEntity
  8
0
100
AcDbBlockEnd
  0
BLOCK
  5
217
330
216
100
AcDbEntity
  8
0
100
AcDbBlockBegin
  2
_D_5
 70
     0
 10
0.0
 20
0.0
 30
0.0
  3
_D_5
  1

  0
SOLID
  5
219
330
216
100
AcDbEntity
  8
VERMASSUNG
100
AcDbTrace
 10
186.3060756789
 20
111.8986707615
 30
0.0
 11
186.7560756789
 21
114.8986707615
 31
0.0
 12
185.8560756789
 22
114.8986707615
 32
0.0
 13
185.8560756789
 23
114.8986707615
 33
0.0
  0
SOLID
  5
21A
330
216
100
AcDbEntity
  8
VERMASSUNG
100
AcDbTrace
 10
186.3060756789
 20
143.8986707615
 30
0.0
 11
185.8560756789
 21
140.8986707615
 31
0.0
 12
186.7560756789
 22
140.8986707615
 32
0.0
 13
186.7560756789
 23
140.8986707615
 33
0.0
  0
LINE
  5
21B
330
216
100
AcDbEntity
  8
VERMASSUNG
100
AcDbLine
 10
186.3060756789
 20
111.8986707615
 30
0.0
 11
186.3060756789
 21
143.8986707615
 31
0.0
  0
MTEXT
  5
21C
330
216
100
AcDbEntity
  8
VERMASSUNG
100
AcDbMText
 10
183.7279401993
 20
132.3556403187
 30
0.1
 40
2.0
 41
0.0
 71
     1
 72
     1
  1
%%c
  7
SLDTEXTSTYLE0
 11
6.123233995736766E-17
 21
1.0
 31
0.0
 73
     1
 44
1.0
  0
MTEXT
  5
21D
330
216
100
AcDbEntity
  8
VERMASSUNG
100
AcDbMText
 10
183.5279401898
 20
135.965640333
 30
0.1
 40
2.0
 41
0.0
 71
     1
 72
     1
  1
32
  7
SLDTEXTSTYLE0
 11
6.123233995736766E-17
 21
1.0
 31
0.0
 73
     1
 44
1.0
  0
ENDBLK
  5
218
330
216
100
AcDbEntity
  8
0
100
AcDbBlockEnd
  0
BLOCK
  5
281
330
280
100
AcDbEntity
  8
0
100
AcDbBlockBegin
  2
_D_6
 70
     0
 10
0.0
 20
0.0
 30
0.0
  3
_D_6
  1

  0
SOLID
  5
283
330
280
100
AcDbEntity
  8
VERMASSUNG
100
AcDbTrace
 10
76.0340382158
 20
138.6684593602
 30
0.0
 11
78.4735566109
 21
140.4715816522
 31
0.0
 12
77.8371605079
 22
141.1079777553
 32
0.0
 13
77.8371605079
 23
141.1079777553
 33
0.0
  0
SOLID
  5
284
330
280
100
AcDbEntity
  8
VERMASSUNG
100
AcDbTrace
 10
47.7497669684
 20
110.3841881127
 30
0.0
 11
45.3102485733
 21
108.5810658207
 31
0.0
 12
45.9466446763
 22
107.9446697176
 32
0.0
 13
45.9466446763
 23
107.9446697176
 33
0.0
  0
LINE
  5
285
330
280
100
AcDbEntity
  8
VERMASSUNG
100
AcDbLine
 10
74.6198245863
 20
140.0826729897
 30
0.0
 11
76.741144997
 21
137.961352579
 31
0.0
  0
LINE
  5
286
330
280
100
AcDbEntity
  8
VERMASSUNG
100
AcDbLine
 10
46.3355533388
 20
111.7984017422
 30
0.0
 11
48.4568737496
 21
109.6770813315
 31
0.0
  0
LINE
  5
287
330
280
100
AcDbEntity
  8
VERMASSUNG
100
AcDbLine
 10
76.0340382158
 20
138.6684593602
 30
0.0
 11
80.276678903
 21
142.9111000473
 31
0.0
  0
LINE
  5
288
330
280
100
AcDbEntity
  8
VERMASSUNG
100
AcDbLine
 10
76.0340382158
 20
138.6684593602
 30
0.0
 11
47.7497669684
 21
110.3841881127
 31
0.0
  0
LINE
  5
289
330
280
100
AcDbEntity
  8
VERMASSUNG
100
AcDbLine
 10
47.7497669684
 20
110.3841881127
 30
0.0
 11
35.0942598792
 21
97.7286810236
 31
0.0
  0
MTEXT
  5
28A
330
280
100
AcDbEntity
  8
VERMASSUNG
100
AcDbMText
 10
33.2712427988
 20
99.551698104
 30
0.1
 40
2.0
 41
0.0
 71
     1
 72
     1
  1
%%c
  7
SLDTEXTSTYLE0
 11
0.707106781186546
 21
0.7071067811865491
 31
0.0
 73
     1
 44
1.0
  0
MTEXT
  5
28B
330
280
100
AcDbEntity
  8
VERMASSUNG
100
AcDbMText
 10
35.6824769261
 20
102.2457749571
 30
0.1
 40
2.0
 41
0.0
 71
     1
 72
     1
  1
40
  7
SLDTEXTSTYLE0
 11
0.707106781186546
 21
0.7071067811865491
 31
0.0
 73
     1
 44
1.0
  0
MTEXT
  5
28C
330
280
100
AcDbEntity
  8
VERMASSUNG
100
AcDbMText
 10
39.9162789396
 20
106.4795769707
 30
0.1
 40
2.0
 41
0.0
 71
     1
 72
     1
  1
min.
  7
SLDTEXTSTYLE0
 11
0.707106781186546
 21
0.7071067811865491
 31
0.0
 73
     1
 44
1.0
  0
ENDBLK
  5
282
330
280
100
AcDbEntity
  8
0
100
AcDbBlockEnd
  0
BLOCK
  5
290
330
28F
100
AcDbEntity
  8
0
100
AcDbBlockBegin
  2
_D_7
 70
     0
 10
0.0
 20
0.0
 30
0.0
  3
_D_7
  1

  0
ARC
  5
292
330
28F
100
AcDbEntity
  8
VERMASSUNG
100
AcDbCircle
 10
60.4776889626
 20
105.940537366
 30
0.0
 40
49.35402234821801
100
AcDbArc
 50
90.0
 51
98.0
  0
ARC
  5
293
330
28F
100
AcDbEntity
  8
VERMASSUNG
100
AcDbCircle
 10
60.4776889626
 20
105.940537366
 30
0.0
 40
49.35402234821801
100
AcDbArc
 50
83.0462842381
 51
90.0
  0
ARC
  5
294
330
28F
100
AcDbEntity
  8
VERMASSUNG
100
AcDbCircle
 10
60.4776889626
 20
105.940537366
 30
0.0
 40
49.35402234821802
100
AcDbArc
 50
98.0
 51
104.9537157619
  0
SOLID
  5
295
330
28F
100
AcDbEntity
  8
VERMASSUNG
100
AcDbTrace
 10
60.4776889626
 20
155.2945597142
 30
0.0
 11
63.4626491095
 21
154.7537150775
 31
0.0
 12
63.4899646933
 22
155.6533004592
 32
0.0
 13
63.4899646933
 23
155.6533004592
 33
0.0
  0
SOLID
  5
296
330
28F
100
AcDbEntity
  8
VERMASSUNG
100
AcDbTrace
 10
53.6089366275
 20
154.8142497614
 30
0.0
 11
50.5760490952
 21
154.7502715117
 31
0.0
 12
50.7282969327
 22
153.8632424276
 32
0.0
 13
50.7282969327
 23
153.8632424276
 33
0.0
  0
LINE
  5
297
330
28F
100
AcDbEntity
  8
VERMASSUNG
100
AcDbLine
 10
60.4776889626
 20
150.3986707615
 30
0.0
 11
60.4776889626
 21
156.2945597142
 31
0.0
  0
LINE
  5
298
330
28F
100
AcDbEntity
  8
VERMASSUNG
100
AcDbLine
 10
54.0321624744
 20
151.802841385
 30
0.0
 11
53.4697635265
 21
155.8045178301
 31
0.0
  0
MTEXT
  5
299
330
28F
100
AcDbEntity
  8
VERMASSUNG
100
AcDbMText
 10
54.6604436357
 20
157.5927266936
 30
0.1
 40
2.0
 41
0.0
 71
     1
 72
     1
  1
8°
  7
SLDTEXTSTYLE0
 11
0.9975640502598235
 21
0.06975647374413559
 31
0.0
 73
     1
 44
1.0
  0
ENDBLK
  5
291
330
28F
100
AcDbEntity
  8
0
100
AcDbBlockEnd
  0
BLOCK
  5
29B
330
29A
100
AcDbEntity
  8
0
100
AcDbBlockBegin
  2
SW_CENTERMARKSYMBOL_0
 70
     0
 10
0.0
 20
0.0
 30
0.0
  3
SW_CENTERMARKSYMBOL_0
  1

  0
LINE
  5
29D
330
29A
100
AcDbEntity
  8
VERMASSUNG
 62
     0
100
AcDbLine
 10
0.0
 20
0.0
 30
0.0
 11
0.0
 21
2.5
 31
0.0
  0
LINE
  5
29E
330
29A
100
AcDbEntity
  8
VERMASSUNG
 62
     0
100
AcDbLine
 10
0.0
 20
0.0
 30
0.0
 11
-2.5
 21
0.0
 31
0.0
  0
LINE
  5
29F
330
29A
100
AcDbEntity
  8
VERMASSUNG
 62
     0
100
AcDbLine
 10
0.0
 20
0.0
 30
0.0
 11
0.0
 21
-2.5
 31
0.0
  0
LINE
  5
2A0
330
29A
100
AcDbEntity
  8
VERMASSUNG
 62
     0
100
AcDbLine
 10
0.0
 20
0.0
 30
0.0
 11
2.5
 21
0.0
 31
0.0
  0
LINE
  5
2A1
330
29A
100
AcDbEntity
  8
VERMASSUNG
 62
     0
100
AcDbLine
 10
0.0
 20
5.0
 30
0.0
 11
0.0
 21
22.5
 31
0.0
  0
LINE
  5
2A2
330
29A
100
AcDbEntity
  8
VERMASSUNG
 62
     0
100
AcDbLine
 10
-5.0
 20
0.0
 30
0.0
 11
-22.5
 21
0.0
 31
0.0
  0
LINE
  5
2A3
330
29A
100
AcDbEntity
  8
VERMASSUNG
 62
     0
100
AcDbLine
 10
0.0
 20
-5.0
 30
0.0
 11
0.0
 21
-22.5
 31
0.0
  0
LINE
  5
2A4
330
29A
100
AcDbEntity
  8
VERMASSUNG
 62
     0
100
AcDbLine
 10
5.0
 20
0.0
 30
0.0
 11
22.5
 21
0.0
 31
0.0
  0
ENDBLK
  5
29C
330
29A
100
AcDbEntity
  8
0
100
AcDbBlockEnd
  0
ENDSEC
  0
SECTION
  2
ENTITIES
  0
MTEXT
  5
49
330
1F
100
AcDbEntity
  8
KOPF_DÜNN
100
AcDbMText
 10
13.8892156294
 20
23.8442973028
 30
0.0
 40
3.0
 41
0.0
 71
     1
 72
     1
  1
PS4.PCD.LLB.110
  7
SLDTEXTSTYLE0
 73
     1
 44
1.0
  0
MTEXT
  5
4A
330
1F
100
AcDbEntity
  8
VERMASSUNG
100
AcDbMText
 10
13.9329988022
 20
28.8834360957
 30
0.0
 40
3.0
 41
0.0
 71
     1
 72
     1
  1
Bohrstange links_Boring bar left
  7
SLDTEXTSTYLE0
 73
     1
 44
1.0
  0
MTEXT
  5
4B
330
1F
100
AcDbEntity
  8
VERMASSUNG
100
AcDbMText
 10
98.8601118557
 20
13.8365368179
 30
0.0
 40
2.0
 41
0.0
 71
     1
 72
     1
  1
Datum: 06.06.2012
  7
SLDTEXTSTYLE0
 73
     1
 44
1.0
  0
MTEXT
  5
4C
330
1F
100
AcDbEntity
  8
VERMASSUNG
100
AcDbMText
 10
13.933048693
 20
18.0482802738
 30
0.0
 40
2.0
 41
0.0
 71
     1
 72
     1
  1
PSC ø40 / Wp.: CN..12 04..
  7
SLDTEXTSTYLE0
 73
     1
 44
1.0
  0
MTEXT
  5
4D
330
1F
100
AcDbEntity
  8
VERMASSUNG
100
AcDbMText
 10
13.9808475933
 20
13.9090973692
 30
0.0
 40
2.0
 41
0.0
 71
     1
 72
     1
  1
Gewicht: 719g
  7
SLDTEXTSTYLE0
 73
     1
 44
1.0
  0
LINE
  5
4E
330
1F
100
AcDbEntity
  8
0
  6
Continuous
 62
     7
370
    15
100
AcDbLine
 10
254.2610842028
 20
118.4410080599
 30
0.0
 11
253.7635269799
 21
119.099842413
 31
0.0
  0
LINE
  5
4F
330
1F
100
AcDbEntity
  8
0
  6
Continuous
 62
     7
370
    15
100
AcDbLine
 10
242.2008591928
 20
107.5803805428
 30
0.0
 11
242.6984164157
 21
106.921544327
 31
0.0
  0
LINE
  5
50
330
1F
100
AcDbEntity
  8
0
  6
Continuous
 62
     7
370
    15
100
AcDbLine
 10
245.9176707306
 20
112.5050327094
 30
0.0
 11
246.491961483
 21
111.909538536
 31
0.0
  0
ARC
  5
51
330
1F
100
AcDbEntity
  8
0
  6
Continuous
 62
     7
370
    15
100
AcDbCircle
 10
164.7870761433
 20
108.4986707615
 30
0.0
 40
0.5999999999999943
100
AcDbArc
 50
270.0
 51
0.0
  0
ARC
  5
52
330
1F
100
AcDbEntity
  8
0
  6
Continuous
 62
     7
370
    15
100
AcDbCircle
 10
164.7870761433
 20
147.2986707615
 30
0.0
 40
0.5999999999999943
100
AcDbArc
 50
0.0
 51
90.0
  0
LINE
  5
53
330
1F
100
AcDbEntity
  8
0
  6
Continuous
 62
     7
370
    15
100
AcDbLine
 10
145.6870761575
 20
107.8986712085
 30
0.0
 11
164.7870767155
 21
107.8986712085
 31
0.0
  0
LINE
  5
54
330
1F
100
AcDbEntity
  8
0
  6
Continuous
 62
     7
370
    15
100
AcDbLine
 10
164.7870767155
 20
147.8986703145
 30
0.0
 11
145.6870761575
 21
147.8986703145
 31
0.0
  0
ARC
  5
55
330
1F
100
AcDbEntity
  8
0
  6
Continuous
 62
     7
370
    15
100
AcDbCircle
 10
145.6870761433
 20
108.1986707615
 30
0.0
 40
0.2999999999999972
100
AcDbArc
 50
180.0
 51
270.0
  0
ARC
  5
56
330
1F
100
AcDbEntity
  8
0
  6
Continuous
 62
     7
370
    15
100
AcDbCircle
 10
145.6870761433
 20
147.5986707615
 30
0.0
 40
0.3000000000000114
100
AcDbArc
 50
90.0
 51
180.0
  0
ARC
  5
57
330
1F
100
AcDbEntity
  8
0
  6
Continuous
 62
     7
370
    15
100
AcDbCircle
 10
167.3870761433
 20
109.8986707615
 30
0.0
 40
2.000000000000028
100
AcDbArc
 50
90.0
 51
180.0
  0
ARC
  5
58
330
1F
100
AcDbEntity
  8
0
  6
Continuous
 62
     7
370
    15
100
AcDbCircle
 10
167.3870761433
 20
145.8986707615
 30
0.0
 40
2.000000000000028
100
AcDbArc
 50
180.0
 51
270.0
  0
LINE
  5
59
330
1F
100
AcDbEntity
  8
0
  6
Continuous
 62
     7
370
    15
100
AcDbLine
 10
167.3870760241
 20
111.8986700015
 30
0.0
 11
228.9728599825
 21
111.8986700015
 31
0.0
  0
LINE
  5
5A
330
1F
100
AcDbEntity
  8
0
  6
Continuous
 62
     7
370
    15
100
AcDbLine
 10
228.9728599825
 20
143.8986715214
 30
0.0
 11
167.3870760241
 21
143.8986715214
 31
0.0
  0
LWPOLYLINE
  5
5B
330
1F
100
AcDbEntity
  8
0
  6
Continuous
 62
     7
370
    15
100
AcDbPolyline
 90
        3
 70
   128
 43
0.0
 10
145.1870761483
 20
113.8088507863
 10
145.3125310835
 20
113.74054852
 10
145.3870761433
 20
113.6878105166
  0
LWPOLYLINE
  5
5C
330
1F
100
AcDbEntity
  8
0
  6
Continuous
 62
     7
370
    15
100
AcDbPolyline
 90
        3
 70
   128
 43
0.0
 10
145.3870761433
 20
142.1095310064
 10
145.3125310835
 20
142.056793003
 10
145.1870761483
 20
141.9884907367
  0
ARC
  5
5D
330
1F
100
AcDbEntity
  8
0
  6
Continuous
 62
     7
370
    15
100
AcDbCircle
 10
228.9728625809
 20
110.8986707615
 30
0.0
 40
0.999999999999998
100
AcDbArc
 50
45.0
 51
90.0
  0
ARC
  5
5E
330
1F
100
AcDbEntity
  8
0
  6
Continuous
 62
     7
370
    15
100
AcDbCircle
 10
228.9728625809
 20
144.8986707615
 30
0.0
 40
1.0
100
AcDbArc
 50
270.0
 51
315.0
  0
LINE
  5
5F
330
1F
100
AcDbEntity
  8
0
  6
Continuous
 62
     7
370
    15
100
AcDbLine
 10
229.8870760241
 20
144.3986706721
 30
0.0
 11
229.6799722352
 21
144.1915631579
 31
0.0
  0
LINE
  5
60
330
1F
100
AcDbEntity
  8
0
  6
Continuous
 62
     7
370
    15
100
AcDbLine
 10
229.6799722352
 20
111.605778365
 30
0.0
 11
232.4663999715
 21
108.8193450408
 31
0.0
  0
LINE
  5
61
330
1F
100
AcDbEntity
  8
0
  6
Continuous
 62
     7
370
    15
100
AcDbLine
 10
240.6543868818
 20
144.3986706721
 30
0.0
 11
229.8870760241
 21
144.3986706721
 31
0.0
  0
LINE
  5
62
330
1F
100
AcDbEntity
  8
0
  6
Continuous
 62
     7
370
    15
100
AcDbLine
 10
232.5437817016
 20
108.7817214714
 30
0.0
 11
242.5106766858
 21
107.734156801
 31
0.0
  0
LINE
  5
63
330
1F
100
AcDbEntity
  8
0
  6
Continuous
 62
     7
370
    15
100
AcDbLine
 10
249.193407897
 20
111.5269661235
 30
0.0
 11
249.4109797516
 21
111.2388707982
 31
0.0
  0
LINE
  5
64
330
1F
100
AcDbEntity
  8
0
  6
Continuous
 62
     7
370
    15
100
AcDbLine
 10
249.2062601485
 20
111.5342378901
 30
0.0
 11
249.4230571427
 21
111.2471632945
 31
0.0
  0
LINE
  5
65
330
1F
100
AcDbEntity
  8
0
  6
Continuous
 62
     7
370
    15
100
AcDbLine
 10
250.0676515737
 20
114.7113805922
 30
0.0
 11
250.1018869915
 21
114.4320844026
 31
0.0
  0
CIRCLE
  5
66
330
1F
100
AcDbEntity
  8
0
  6
Continuous
 62
     7
370
    15
100
AcDbCircle
 10
244.1022596618
 20
124.6019482226
 30
0.0
 40
3.477471254177708
  0
CIRCLE
  5
67
330
1F
100
AcDbEntity
  8
0
  6
Continuous
 62
     7
370
    15
100
AcDbCircle
 10
244.0798248215
 20
124.6049351983
 30
0.0
 40
1.988934491490969
  0
SPLINE
  5
68
330
1F
100
AcDbEntity
  8
0
  6
Continuous
 62
     7
370
    15
100
AcDbSpline
210
0.0
220
0.0
230
1.0
 70
     8
 71
     3
 72
    11
 73
     7
 74
     0
 42
0.00000001
 43
0.00000001
 12
1.0
 22
0.0
 32
0.0
 13
1.0
 23
0.0
 33
0.0
 40
0.0
 40
0.0
 40
0.0
 40
0.0
 40
0.1081123512793194
 40
0.4711598730676773
 40
0.8135797497935654
 40
0.9999999999999999
 40
0.9999999999999999
 40
0.9999999999999999
 40
0.9999999999999999
 10
242.9228130021068
 20
123.314064024587
 30
0.0
 10
242.9772924362727
 20
123.3090224786142
 30
0.0
 10
243.2147169579179
 20
123.2870511299894
 30
0.0
 10
243.677637785291
 20
123.2307539554747
 30
0.0
 10
244.2197514013113
 20
123.1347874412596
 30
0.0
 10
244.5163013973014
 20
123.0723965999834
 30
0.0
 10
244.6208375730487
 20
123.0504033440843
 30
0.0
  0
SPLINE
  5
69
330
1F
100
AcDbEntity
  8
0
  6
Continuous
 62
     7
370
    15
100
AcDbSpline
210
0.0
220
0.0
230
1.0
 70
     8
 71
     3
 72
    10
 73
     6
 74
     0
 42
0.00000001
 43
0.00000001
 12
1.0
 22
0.0
 32
0.0
 13
1.0
 23
0.0
 33
0.0
 40
0.0
 40
0.0
 40
0.0
 40
0.0
 40
0.4391160445944243
 40
0.7513669385346259
 40
1.0
 40
1.0
 40
1.0
 40
1.0
 10
244.6208375730487
 20
123.0504033440843
 30
0.0
 10
244.7675616652104
 20
123.2558929363721
 30
0.0
 10
245.0186197472229
 20
123.6075040600345
 30
0.0
 10
245.418457525277
 20
124.0724473106988
 30
0.0
 10
245.627916265115
 20
124.2900302995014
 30
0.0
 10
245.7207667865726
 20
124.3864822020873
 30
0.0
  0
SPLINE
  5
6A
330
1F
100
AcDbEntity
  8
0
  6
Continuous
 62
     7
370
    15
100
AcDbSpline
210
0.0
220
0.0
230
1.0
 70
     8
 71
     3
 72
    10
 73
     6
 74
     0
 42
0.00000001
 43
0.00000001
 12
1.0
 22
0.0
 32
0.0
 13
1.0
 23
0.0
 33
0.0
 40
0.0
 40
0.0
 40
0.0
 40
0.0
 40
0.4391173635565939
 40
0.7513677938529677
 40
1.0
 40
1.0
 40
1.0
 40
1.0
 10
245.7207667865726
 20
124.3864822020873
 30
0.0
 10
245.6244054983127
 20
124.6297167415238
 30
0.0
 10
245.4595229985948
 20
125.0459120789273
 30
0.0
 10
245.2547173620112
 20
125.6047416530437
 30
0.0
 10
245.1632328231805
 20
125.8690551363658
 30
0.0
 10
245.1226788797351
 20
125.9862219734237
 30
0.0
  0
SPLINE
  5
6B
330
1F
100
AcDbEntity
  8
0
  6
Continuous
 62
     7
370
    15
100
AcDbSpline
210
0.0
220
0.0
230
1.0
 70
     8
 71
     3
 72
    11
 73
     7
 74
     0
 42
0.00000001
 43
0.00000001
 12
1.0
 22
0.0
 32
0.0
 13
1.0
 23
0.0
 33
0.0
 40
0.0
 40
0.0
 40
0.0
 40
0.0
 40
0.1864202917546836
 40
0.528840141730768
 40
0.8918876366431717
 40
1.0
 40
1.0
 40
1.0
 40
1.0
 10
245.1226788797352
 20
125.9862219734237
 30
0.0
 10
245.0181427103006
 20
126.0082152727783
 30
0.0
 10
244.7215927900135
 20
126.0706062251706
 30
0.0
 10
244.1794790835092
 20
126.1665727370548
 30
0.0
 10
243.7165582238281
 20
126.2228691598341
 30
0.0
 10
243.4791337416908
 20
126.2448410901682
 30
0.0
 10
243.4246543087932
 20
126.2498827703416
 30
0.0
  0
SPLINE
  5
6C
330
1F
100
AcDbEntity
  8
0
  6
Continuous
 62
     7
370
    15
100
AcDbSpline
210
0.0
220
0.0
230
1.0
 70
     8
 71
     3
 72
    10
 73
     6
 74
     0
 42
0.00000001
 43
0.00000001
 12
1.0
 22
0.0
 32
0.0
 13
1.0
 23
0.0
 33
0.0
 40
0.0
 40
0.0
 40
0.0
 40
0.0
 40
0.4391170672640048
 40
0.7513670403433256
 40
1.0
 40
1.0
 40
1.0
 40
1.0
 10
243.4246543087932
 20
126.2498827703416
 30
0.0
 10
243.2564514737618
 20
126.0728325823969
 30
0.0
 10
242.968641967467
 20
125.769884494915
 30
0.0
 10
242.5851414497449
 20
125.2833094587265
 30
0.0
 10
242.4047088109255
 20
125.0272929657049
 30
0.0
 10
242.3247250952693
 20
124.9138037959233
 30
0.0
  0
SPLINE
  5
6D
330
1F
100
AcDbEntity
  8
0
  6
Continuous
 62
     7
370
    15
100
AcDbSpline
210
0.0
220
0.0
230
1.0
 70
     8
 71
     3
 72
    10
 73
     6
 74
     0
 42
0.00000001
 43
0.00000001
 12
1.0
 22
0.0
 32
0.0
 13
1.0
 23
0.0
 33
0.0
 40
0.0
 40
0.0
 40
0.0
 40
0.0
 40
0.4391168540966093
 40
0.7513678461160627
 40
1.0
 40
1.0
 40
1.0
 40
1.0
 10
242.3247250952693
 20
124.9138037959233
 30
0.0
 10
242.3996074333341
 20
124.6990081038427
 30
0.0
 10
242.5277377488503
 20
124.3314736423253
 30
0.0
 10
242.7488818511427
 20
123.7510161033737
 30
0.0
 10
242.8693922987513
 20
123.4482682039538
 30
0.0
 10
242.9228130021068
 20
123.314064024587
 30
0.0
  0
LINE
  5
6E
330
1F
100
AcDbEntity
  8
0
  6
Continuous
 62
     7
370
    15
100
AcDbLine
 10
245.3306618371
 20
124.9030379398
 30
0.0
 11
245.7207667866
 21
124.3864822021
 31
0.0
  0
LINE
  5
6F
330
1F
100
AcDbEntity
  8
0
  6
Continuous
 62
     7
370
    15
100
AcDbLine
 10
245.3306618371
 20
124.9030379398
 30
0.0
 11
245.0316178837
 21
125.7029078255
 31
0.0
  0
LINE
  5
70
330
1F
100
AcDbEntity
  8
0
  6
Continuous
 62
     7
370
    15
100
AcDbLine
 10
245.0316178837
 20
125.7029078255
 30
0.0
 11
244.9092420974
 21
126.0302285949
 31
0.0
  0
LINE
  5
71
330
1F
100
AcDbEntity
  8
0
  6
Continuous
 62
     7
370
    15
100
AcDbLine
 10
244.2307326236
 20
123.5669590818
 30
0.0
 11
244.620837573
 21
123.0504033441
 31
0.0
  0
LINE
  5
72
330
1F
100
AcDbEntity
  8
0
  6
Continuous
 62
     7
370
    15
100
AcDbLine
 10
244.2307326236
 20
123.5669590818
 30
0.0
 11
244.7806972303
 21
124.2349983944
 31
0.0
  0
LINE
  5
73
330
1F
100
AcDbEntity
  8
0
  6
Continuous
 62
     7
370
    15
100
AcDbLine
 10
244.7806972303
 20
124.2349983944
 30
0.0
 11
245.3306618371
 21
124.9030379398
 31
0.0
  0
LINE
  5
74
330
1F
100
AcDbEntity
  8
0
  6
Continuous
 62
     7
370
    15
100
AcDbLine
 10
242.7320110836
 20
123.7996733101
 30
0.0
 11
243.3817166128
 21
123.6987896549
 31
0.0
  0
LINE
  5
75
330
1F
100
AcDbEntity
  8
0
  6
Continuous
 62
     7
370
    15
100
AcDbLine
 10
243.3817166128
 20
123.6987896549
 30
0.0
 11
244.2307326236
 21
123.5669590818
 31
0.0
  0
ARC
  5
76
330
1F
100
AcDbEntity
  8
0
  6
Continuous
 62
     7
370
    15
100
AcDbCircle
 10
243.6337398764
 20
125.1864569075
 30
0.0
 40
1.490229671504771
100
AcDbArc
 50
320.3225952464
 51
20.2769269686
  0
ARC
  5
77
330
1F
100
AcDbEntity
  8
0
  6
Continuous
 62
     7
370
    15
100
AcDbCircle
 10
243.610042577
 20
125.1961723581
 30
0.0
 40
1.514690630372604
100
AcDbArc
 50
261.3301295923
 51
320.6120605643
  0
ARC
  5
78
330
1F
100
AcDbEntity
  8
0
  6
Continuous
 62
     7
370
    15
100
AcDbCircle
 10
243.6050725731
 20
125.1500263871
 30
0.0
 40
1.468324193756864
100
AcDbArc
 50
226.5201340618
 51
261.2504140769
  0
ARC
  5
79
330
1F
100
AcDbEntity
  8
0
  6
Continuous
 62
     7
370
    15
100
AcDbCircle
 10
243.6686136087
 20
125.1937069848
 30
0.0
 40
1.455014140744493
100
AcDbArc
 50
20.4850405672
 51
35.9458243311
  0
LINE
  5
7A
330
1F
100
AcDbEntity
  8
0
  6
Continuous
 62
     7
370
    15
100
AcDbLine
 10
241.5739375391
 20
119.027412525
 30
0.0
 11
242.6213178077
 21
107.1222871827
 31
0.0
  0
ARC
  5
7B
330
1F
100
AcDbEntity
  8
0
  6
Continuous
 62
     7
370
    15
100
AcDbCircle
 10
241.9760222046
 20
119.0604358221
 30
0.0
 40
0.4034384914594736
100
AcDbArc
 50
85.8950953353
 51
184.695176297
  0
LINE
  5
7C
330
1F
100
AcDbEntity
  8
0
  6
Continuous
 62
     7
370
    15
100
AcDbLine
 10
253.9765539803
 20
118.595052539
 30
0.0
 11
242.0049014726
 21
119.4628393563
 31
0.0
  0
ARC
  5
7D
330
1F
100
AcDbEntity
  8
0
  6
Continuous
 62
     7
370
    15
100
AcDbCircle
 10
253.9498087123
 20
118.2061048043
 30
0.0
 40
0.3898661946426489
100
AcDbArc
 50
5.0268873278
 51
86.0663543344
  0
LINE
  5
7E
330
1F
100
AcDbEntity
  8
0
  6
Continuous
 62
     7
370
    15
100
AcDbLine
 10
255.3855630794
 20
106.3351407932
 30
0.0
 11
254.3381753602
 21
118.2402661355
 31
0.0
  0
ARC
  5
7F
330
1F
100
AcDbEntity
  8
0
  6
Continuous
 62
     7
370
    15
100
AcDbCircle
 10
254.9834793709
 20
106.3021165489
 30
0.0
 40
0.4034376151832027
100
AcDbArc
 50
265.8949501391
 51
4.6953214931
  0
LINE
  5
80
330
1F
100
AcDbEntity
  8
0
  6
Continuous
 62
     7
370
    15
100
AcDbLine
 10
242.9829466381
 20
106.7674998479
 30
0.0
 11
254.9545991459
 21
105.899713962
 31
0.0
  0
ARC
  5
81
330
1F
100
AcDbEntity
  8
0
  6
Continuous
 62
     7
370
    15
100
AcDbCircle
 10
243.0096975739
 20
107.1564614259
 30
0.0
 40
0.3898803940853496
100
AcDbArc
 50
185.0286086029
 51
266.065662937
  0
ARC
  5
82
330
1F
100
AcDbEntity
  8
0
  6
Continuous
 62
     7
370
    15
100
AcDbCircle
 10
254.9837649941
 20
106.301751634
 30
0.0
 40
0.383265813140611
100
AcDbArc
 50
265.8947861476
 51
4.6954322853
  0
LINE
  5
83
330
1F
100
AcDbEntity
  8
0
  6
Continuous
 62
     7
370
    15
100
AcDbLine
 10
255.365744535
 20
106.3331254112
 30
0.0
 11
254.3183642664
 21
118.2382498222
 31
0.0
  0
ARC
  5
84
330
1F
100
AcDbEntity
  8
0
  6
Continuous
 62
     7
370
    15
100
AcDbCircle
 10
253.9494125813
 20
118.205793133
 30
0.0
 40
0.3703765416862871
100
AcDbArc
 50
5.0273693644
 51
86.0667949662
  0
LINE
  5
85
330
1F
100
AcDbEntity
  8
0
  6
Continuous
 62
     7
370
    15
100
AcDbLine
 10
253.9748179951
 20
118.5752973246
 30
0.0
 11
242.0031729379
 21
119.4430841418
 31
0.0
  0
ARC
  5
86
330
1F
100
AcDbEntity
  8
0
  6
Continuous
 62
     7
370
    15
100
AcDbCircle
 10
241.9757325608
 20
119.060797907
 30
0.0
 40
0.3832698000342815
100
AcDbArc
 50
85.894369769
 51
184.6946770668
  0
LINE
  5
87
330
1F
100
AcDbEntity
  8
0
  6
Continuous
 62
     7
370
    15
100
AcDbLine
 10
241.5937486329
 20
119.0294288384
 30
0.0
 11
242.6411363521
 21
107.1243025648
 31
0.0
  0
ARC
  5
88
330
1F
100
AcDbEntity
  8
0
  6
Continuous
 62
     7
370
    15
100
AcDbCircle
 10
243.0100852762
 20
107.156755878
 30
0.0
 40
0.3703734954555407
100
AcDbArc
 50
185.0268865625
 51
266.066035392
  0
LINE
  5
89
330
1F
100
AcDbEntity
  8
0
  6
Continuous
 62
     7
370
    15
100
AcDbLine
 10
242.9846751728
 20
106.7872550624
 30
0.0
 11
254.9563276806
 21
105.9194691764
 31
0.0
  0
LINE
  5
8A
330
1F
100
AcDbEntity
  8
0
  6
Continuous
 62
     7
370
    15
100
AcDbLine
 10
253.4789967575
 20
119.2538878234
 30
0.0
 11
253.2200369277
 21
119.2726586299
 31
0.0
  0
LINE
  5
8B
330
1F
100
AcDbEntity
  8
0
  6
Continuous
 62
     7
370
    15
100
AcDbLine
 10
253.3108893075
 20
117.7035207214
 30
0.0
 11
253.9189535418
 21
118.2303121599
 31
0.0
  0
LINE
  5
8C
330
1F
100
AcDbEntity
  8
0
  6
Continuous
 62
     7
370
    15
100
AcDbLine
 10
242.8108456769
 20
118.2681694912
 30
0.0
 11
241.947301034
 21
119.0980989771
 31
0.0
  0
LINE
  5
8D
330
1F
100
AcDbEntity
  8
0
  6
Continuous
 62
     7
370
    15
100
AcDbLine
 10
243.5277256408
 20
107.8190971451
 30
0.0
 11
242.9946813025
 21
107.1929727035
 31
0.0
  0
LINE
  5
8E
330
1F
100
AcDbEntity
  8
0
  6
Continuous
 62
     7
370
    15
100
AcDbLine
 10
241.0867291727
 20
119.5686450513
 30
0.0
 11
241.4487305322
 21
115.4538849654
 31
0.0
  0
ARC
  5
8F
330
1F
100
AcDbEntity
  8
0
  6
Continuous
 62
     7
370
    15
100
AcDbCircle
 10
244.8510826613
 20
116.2373056055
 30
0.0
 40
1.008594522659838
100
AcDbArc
 50
85.8947688376
 51
184.6953046976
  0
SPLINE
  5
90
330
1F
100
AcDbEntity
  8
0
  6
Continuous
 62
     7
370
    15
100
AcDbSpline
210
0.0
220
0.0
230
1.0
 70
     8
 71
     3
 72
    11
 73
     7
 74
     0
 42
0.00000001
 43
0.00000001
 12
1.0
 22
0.0
 32
0.0
 13
1.0
 23
0.0
 33
0.0
 40
0.0
 40
0.0
 40
0.0
 40
0.0
 40
0.336786342577428
 40
0.6790120578130295
 40
0.9923722046618774
 40
0.9999999999999999
 40
0.9999999999999999
 40
0.9999999999999999
 40
0.9999999999999999
 10
242.8108456768962
 20
118.2681694911912
 30
0.0
 10
242.8639123312057
 20
118.2168363967891
 30
0.0
 10
242.9709027093432
 20
118.1133411368652
 30
0.0
 10
243.1432269511917
 20
117.9429592044955
 30
0.0
 10
243.2531040590525
 20
117.8329852416916
 30
0.0
 10
243.3037715949326
 20
117.7818967016108
 30
0.0
 10
243.3049756326648
 20
117.7806826593473
 30
0.0
  0
LINE
  5
91
330
1F
100
AcDbEntity
  8
0
  6
Continuous
 62
     7
370
    15
100
AcDbLine
 10
243.8458728828
 20
116.1547452496
 30
0.0
 11
244.4320547619
 21
109.4918772863
 31
0.0
  0
LINE
  5
92
330
1F
100
AcDbEntity
  8
0
  6
Continuous
 62
     7
370
    15
100
AcDbLine
 10
251.6233849564
 20
116.7576443689
 30
0.0
 11
244.9232864418
 21
117.2433123278
 31
0.0
  0
ARC
  5
93
330
1F
100
AcDbEntity
  8
0
  6
Continuous
 62
     7
370
    15
100
AcDbCircle
 10
251.5565232152
 20
115.7852685569
 30
0.0
 40
0.9746718484798779
100
AcDbArc
 50
5.0270991441
 51
86.066464247
  0
LINE
  5
94
330
1F
100
AcDbEntity
  8
0
  6
Continuous
 62
     7
370
    15
100
AcDbLine
 10
253.1136277356
 20
109.2078071373
 30
0.0
 11
252.5274458566
 21
115.8706760319
 31
0.0
  0
ARC
  5
95
330
1F
100
AcDbEntity
  8
0
  6
Continuous
 62
     7
370
    15
100
AcDbCircle
 10
252.1084150948
 20
109.1252496144
 30
0.0
 40
1.008597143491893
100
AcDbArc
 50
265.8949425433
 51
4.6951309919
  0
LINE
  5
96
330
1F
100
AcDbEntity
  8
0
  6
Continuous
 62
     7
370
    15
100
AcDbLine
 10
245.3361156621
 20
108.604908018
 30
0.0
 11
252.0362141767
 21
108.1192400592
 31
0.0
  0
ARC
  5
97
330
1F
100
AcDbEntity
  8
0
  6
Continuous
 62
     7
370
    15
100
AcDbCircle
 10
245.4029801757
 20
109.5772865662
 30
0.0
 40
0.974674768432173
100
AcDbArc
 50
185.027190554
 51
266.0663126873
  0
CIRCLE
  5
98
330
1F
100
AcDbEntity
  8
0
  6
Continuous
 62
     7
370
    15
100
AcDbCircle
 10
248.4410996952
 20
112.6845615845
 30
0.0
 40
2.558421926257791
  0
ARC
  5
99
330
1F
100
AcDbEntity
  8
0
  6
Continuous
 62
     7
370
    15
100
AcDbCircle
 10
247.9552329879
 20
113.3722917864
 30
0.0
 40
2.588104538101855
100
AcDbArc
 50
265.6419971274
 51
26.9408931315
  0
ARC
  5
9A
330
1F
100
AcDbEntity
  8
0
  6
Continuous
 62
     7
370
    15
100
AcDbCircle
 10
247.9372299517
 20
113.3155351374
 30
0.0
 40
2.530180726955573
100
AcDbArc
 50
226.6220344963
 51
265.9508336476
  0
LINE
  5
9B
330
1F
100
AcDbEntity
  8
0
  6
Continuous
 62
     7
370
    15
100
AcDbLine
 10
254.0019530096
 20
107.2886325704
 30
0.0
 11
254.9663338103
 21
106.3251868175
 31
0.0
  0
SPLINE
  5
9C
330
1F
100
AcDbEntity
  8
0
  6
Continuous
 62
     7
370
    15
100
AcDbSpline
210
0.0
220
0.0
230
1.0
 70
     8
 71
     3
 72
    11
 73
     7
 74
     0
 42
0.00000001
 43
0.00000001
 12
1.0
 22
0.0
 32
0.0
 13
1.0
 23
0.0
 33
0.0
 40
0.0
 40
0.0
 40
0.0
 40
0.0
 40
0.3372309067154529
 40
0.673626187863728
 40
0.991878975861016
 40
1.0
 40
1.0
 40
1.0
 40
1.0
 10
253.3108893074962
 20
117.7035207213953
 30
0.0
 10
253.253663803638
 20
117.6518267116741
 30
0.0
 10
253.139354595185
 20
117.5485667849875
 30
0.0
 10
252.9715669801144
 20
117.3726602055008
 30
0.0
 10
252.8729066109201
 20
117.2584680670559
 30
0.0
 10
252.8292306106706
 20
117.2049173802164
 30
0.0
 10
252.8281438388798
 20
117.2035849006966
 30
0.0
  0
ARC
  5
9D
330
1F
100
AcDbEntity
  8
0
  6
Continuous
 62
     7
370
    15
100
AcDbCircle
 10
253.4515338182
 20
118.8633682096
 30
0.0
 40
0.3914840760248146
100
AcDbArc
 50
37.1601896488
 51
85.9773486222
  0
SPLINE
  5
9E
330
1F
100
AcDbEntity
  8
0
  6
Continuous
 62
     7
370
    15
100
AcDbSpline
210
0.0
220
0.0
230
1.0
 70
     8
 71
     3
 72
    11
 73
     7
 74
     0
 42
0.00000001
 43
0.00000001
 12
1.0
 22
0.0
 32
0.0
 13
1.0
 23
0.0
 33
0.0
 40
0.0
 40
0.0
 40
0.0
 40
0.0
 40
0.008112460573259
 40
0.3263675365993776
 40
0.6627692802204184
 40
1.0
 40
1.0
 40
1.0
 40
1.0
 10
244.0209168233844
 20
108.3051972376302
 30
0.0
 10
244.0196309720185
 20
108.3041329030429
 30
0.0
 10
243.9679006567891
 20
108.2613142965006
 30
0.0
 10
243.8567801262728
 20
108.163529810136
 30
0.0
 10
243.6835389093912
 20
107.9948777070033
 30
0.0
 10
243.5797059894496
 20
107.877738716383
 30
0.0
 10
243.5277256407711
 20
107.8190971450999
 30
0.0
  0
ARC
  5
9F
330
1F
100
AcDbEntity
  8
0
  6
Continuous
 62
     7
370
    15
100
AcDbCircle
 10
242.5115121464
 20
107.8148547847
 30
0.0
 40
0.3892087199913002
100
AcDbArc
 50
184.9721414709
 51
217.0447287766
  0
SPLINE
  5
A0
330
1F
100
AcDbEntity
  8
0
  6
Continuous
 62
     7
370
    15
100
AcDbSpline
210
0.0
220
0.0
230
1.0
 70
     8
 71
     3
 72
    11
 73
     7
 74
     0
 42
0.00000001
 43
0.00000001
 12
1.0
 22
0.0
 32
0.0
 13
1.0
 23
0.0
 33
0.0
 40
0.0
 40
0.0
 40
0.0
 40
0.0
 40
0.0076299008375415
 40
0.3209907373736039
 40
0.663217929351522
 40
1.0
 40
1.0
 40
1.0
 40
1.0
 10
253.5235810317966
 20
107.7552605705455
 30
0.0
 10
253.5245959850746
 20
107.7542971909927
 30
0.0
 10
253.5672951771135
 20
107.7137677110415
 30
0.0
 10
253.6643960583635
 20
107.6207050202127
 30
0.0
 10
253.8291057560181
 20
107.4604065610919
 30
0.0
 10
253.9446461060475
 20
107.3455836373931
 30
0.0
 10
254.0019530096027
 20
107.2886325704053
 30
0.0
  0
LINE
  5
A1
330
1F
100
AcDbEntity
  8
0
  6
Continuous
 62
     7
370
    15
100
AcDbLine
 10
245.9410133996
 20
113.0146859499
 30
0.0
 11
246.2202611604
 21
112.2548282432
 31
0.0
  0
LINE
  5
A2
330
1F
100
AcDbEntity
  8
0
  6
Continuous
 62
     7
370
    15
100
AcDbLine
 10
246.2202611604
 20
112.2548282432
 30
0.0
 11
245.9149140158
 21
112.5714518415
 31
0.0
  0
ELLIPSE
  5
A3
330
1F
100
AcDbEntity
  8
0
  6
Continuous
 62
     7
370
    15
100
AcDbEllipse
 10
248.1155907081
 20
113.4672156203
 30
0.0
 11
1.759005141004963
 21
1.403439041303358
 31
0.0
210
0.0
220
0.0
230
1.0
 40
0.9859532801
 41
3.03576147281004
 42
5.754932365681507
  0
ELLIPSE
  5
A4
330
1F
100
AcDbEntity
  8
0
  6
Continuous
 62
     7
370
    15
100
AcDbEllipse
 10
248.1155907081
 20
113.4672156203
 30
0.0
 11
1.759005141004963
 21
1.403439041303358
 31
0.0
210
0.0
220
0.0
230
1.0
 40
0.9859532801
 41
6.177354126399866
 42
6.255267836896159
  0
LINE
  5
A5
330
1F
100
AcDbEntity
  8
0
  6
Continuous
 62
     7
370
    15
100
AcDbLine
 10
250.3322589436
 20
113.8052214222
 30
0.0
 11
250.010922853
 21
114.6796020033
 31
0.0
  0
LINE
  5
A6
330
1F
100
AcDbEntity
  8
0
  6
Continuous
 62
     7
370
    15
100
AcDbLine
 10
250.0128003993
 20
114.752429566
 30
0.0
 11
250.0205490031
 21
114.6534020366
 31
0.0
  0
LWPOLYLINE
  5
A7
330
1F
100
AcDbEntity
  8
0
  6
Continuous
 62
     7
370
    15
100
AcDbPolyline
 90
        3
 70
   128
 43
0.0
 10
246.9082254209
 20
111.572278692
 10
246.4139464536
 20
111.6485502856
 10
246.0753175654
 20
111.7541790294
  0
LINE
  5
A8
330
1F
100
AcDbEntity
  8
0
  6
Continuous
 62
     7
370
    15
100
AcDbLine
 10
165.3870756962
 20
108.4986701893
 30
0.0
 11
165.3870756962
 21
147.2986713337
 31
0.0
  0
SPLINE
  5
A9
330
1F
100
AcDbEntity
  8
0
  6
Continuous
 62
     7
370
    15
100
AcDbSpline
210
0.0
220
0.0
230
1.0
 70
     8
 71
     3
 72
    12
 73
     8
 74
     0
 42
0.00000001
 43
0.00000001
 12
1.0
 22
0.0
 32
0.0
 13
1.0
 23
0.0
 33
0.0
 40
0.0
 40
0.0
 40
0.0
 40
0.0
 40
0.2499999999999988
 40
0.2499999999999988
 40
0.4999999999999977
 40
0.4999999999999977
 40
1.0
 40
1.0
 40
1.0
 40
1.0
 10
152.3189781452612
 20
133.7278837571369
 30
0.0
 10
152.2814662592166
 20
133.7278837571369
 30
0.0
 10
152.2461789115118
 20
133.7426885714237
 30
0.0
 10
152.1872490632734
 20
133.7862804445495
 30
0.0
 10
152.1637233368043
 20
133.8137938706355
 30
0.0
 10
152.1034645490363
 20
133.9029256027491
 30
0.0
 10
152.0778697867469
 20
133.9693114533669
 30
0.0
 10
152.0591705241259
 20
134.0369158885443
 30
0.0
  0
LINE
  5
AA
330
1F
100
AcDbEntity
  8
0
  6
Continuous
 62
     7
370
    15
100
AcDbLine
 10
154.4551740625
 20
133.7278839486
 30
0.0
 11
152.3189780527
 21
133.7278839486
 31
0.0
  0
SPLINE
  5
AB
330
1F
100
AcDbEntity
  8
0
  6
Continuous
 62
     7
370
    15
100
AcDbSpline
210
0.0
220
0.0
230
1.0
 70
     8
 71
     3
 72
    12
 73
     8
 74
     0
 42
0.00000001
 43
0.00000001
 12
1.0
 22
0.0
 32
0.0
 13
1.0
 23
0.0
 33
0.0
 40
0.0
 40
0.0
 40
0.0
 40
0.0
 40
0.4999999999999938
 40
0.4999999999999938
 40
0.7499999999999969
 40
0.7499999999999969
 40
1.0
 40
1.0
 40
1.0
 40
1.0
 10
154.7149817623982
 20
134.0369158885443
 30
0.0
 10
154.6962885292677
 20
133.969333252104
 30
0.0
 10
154.670633231856
 20
133.9028506826265
 30
0.0
 10
154.6104726091695
 20
133.813855599729
 30
0.0
 10
154.5864002974152
 20
133.7858537027298
 30
0.0
 10
154.5280187770646
 20
133.7427773020646
 30
0.0
 10
154.4925499494116
 20
133.7278837571369
 30
0.0
 10
154.4551741412629
 20
133.7278837571369
 30
0.0
  0
ELLIPSE
  5
AC
330
1F
100
AcDbEntity
  8
0
  6
Continuous
 62
     7
370
    15
100
AcDbEllipse
 10
144.4381469708
 20
127.8986707615
 30
0.0
 11
9.367417879781698
 21
19.74174915274992
 31
0.0
210
0.0
220
0.0
230
1.0
 40
0.3419987131
 41
5.185211263708394
 42
6.132113578252552
  0
SPLINE
  5
AD
330
1F
100
AcDbEntity
  8
0
  6
Continuous
 62
     7
370
    15
100
AcDbSpline
210
0.0
220
0.0
230
1.0
 70
     8
 71
     3
 72
    12
 73
     8
 74
     0
 42
0.00000001
 43
0.00000001
 12
1.0
 22
0.0
 32
0.0
 13
1.0
 23
0.0
 33
0.0
 40
0.0
 40
0.0
 40
0.0
 40
0.0
 40
0.2500000000000027
 40
0.2500000000000027
 40
0.5000000000000053
 40
0.5000000000000053
 40
1.0
 40
1.0
 40
1.0
 40
1.0
 10
154.4551741412629
 20
147.0303271417187
 30
0.0
 10
154.4926860273075
 20
147.0303271417187
 30
0.0
 10
154.5279733750123
 20
147.0258235974562
 30
0.0
 10
154.5869032232507
 20
147.0124503980029
 30
0.0
 10
154.6104289497197
 20
147.0039654954318
 30
0.0
 10
154.6706877374878
 20
146.9762176915972
 30
0.0
 10
154.6962824997771
 20
146.9552278278568
 30
0.0
 10
154.7149817623982
 20
146.9334270446672
 30
0.0
  0
LINE
  5
AE
330
1F
100
AcDbEntity
  8
0
  6
Continuous
 62
     7
370
    15
100
AcDbLine
 10
152.3189780527
 20
147.0303274976
 30
0.0
 11
154.4551740625
 21
147.0303274976
 31
0.0
  0
SPLINE
  5
AF
330
1F
100
AcDbEntity
  8
0
  6
Continuous
 62
     7
370
    15
100
AcDbSpline
210
0.0
220
0.0
230
1.0
 70
     8
 71
     3
 72
    12
 73
     8
 74
     0
 42
0.00000001
 43
0.00000001
 12
1.0
 22
0.0
 32
0.0
 13
1.0
 23
0.0
 33
0.0
 40
0.0
 40
0.0
 40
0.0
 40
0.0
 40
0.500000000000004
 40
0.500000000000004
 40
0.750000000000002
 40
0.750000000000002
 40
1.0
 40
1.0
 40
1.0
 40
1.0
 10
152.0591705241259
 20
146.9334270446672
 30
0.0
 10
152.0778637572563
 20
146.9552207982952
 30
0.0
 10
152.1035190546681
 20
146.9762409600049
 30
0.0
 10
152.1636796773546
 20
147.0039463059686
 30
0.0
 10
152.1877519891089
 20
147.012581522162
 30
0.0
 10
152.2461335094594
 20
147.0257961673885
 30
0.0
 10
152.2816023371125
 20
147.0303271417187
 30
0.0
 10
152.3189781452612
 20
147.0303271417187
 30
0.0
  0
ELLIPSE
  5
B0
330
1F
100
AcDbEntity
  8
0
  6
Continuous
 62
     7
370
    15
100
AcDbEllipse
 10
162.3360053157
 20
127.8986707615
 30
0.0
 11
-9.367417879781556
 21
19.74174915274992
 31
0.0
210
0.0
220
0.0
230
1.0
 40
0.3419987131
 41
0.1510717289270746
 42
1.097974043471205
  0
SPLINE
  5
B1
330
1F
100
AcDbEntity
  8
0
  6
Continuous
 62
     7
370
    15
100
AcDbSpline
210
0.0
220
0.0
230
1.0
 70
     8
 71
     3
 72
    12
 73
     8
 74
     0
 42
0.00000001
 43
0.00000001
 12
1.0
 22
0.0
 32
0.0
 13
1.0
 23
0.0
 33
0.0
 40
0.0
 40
0.0
 40
0.0
 40
0.0
 40
0.2500000000000008
 40
0.2500000000000008
 40
0.5000000000000016
 40
0.5000000000000016
 40
1.0
 40
1.0
 40
1.0
 40
1.0
 10
152.3189781452612
 20
108.767014381252
 30
0.0
 10
152.2814773223834
 20
108.767014381252
 30
0.0
 10
152.2461989183475
 20
108.7715153491151
 30
0.0
 10
152.1872811982951
 20
108.7848818703325
 30
0.0
 10
152.1637578168967
 20
108.7933631305773
 30
0.0
 10
152.1035022324308
 20
108.8211005262552
 30
0.0
 10
152.0779805800197
 20
108.8419845253083
 30
0.0
 10
152.0591705241259
 20
108.8639144783034
 30
0.0
  0
LINE
  5
B2
330
1F
100
AcDbEntity
  8
0
  6
Continuous
 62
     7
370
    15
100
AcDbLine
 10
154.4551740625
 20
108.7670140253
 30
0.0
 11
152.3189780527
 21
108.7670140253
 31
0.0
  0
SPLINE
  5
B3
330
1F
100
AcDbEntity
  8
0
  6
Continuous
 62
     7
370
    15
100
AcDbSpline
210
0.0
220
0.0
230
1.0
 70
     8
 71
     3
 72
    12
 73
     8
 74
     0
 42
0.00000001
 43
0.00000001
 12
1.0
 22
0.0
 32
0.0
 13
1.0
 23
0.0
 33
0.0
 40
0.0
 40
0.0
 40
0.0
 40
0.0
 40
0.4999999999999969
 40
0.4999999999999969
 40
0.7499999999999984
 40
0.7499999999999984
 40
1.0
 40
1.0
 40
1.0
 40
1.0
 10
154.7149817623982
 20
108.8639144783034
 30
0.0
 10
154.6961785295465
 20
108.8419924800424
 30
0.0
 10
154.6706418705273
 20
108.8210986720324
 30
0.0
 10
154.6104156965789
 20
108.7933719459147
 30
0.0
 10
154.5864896191789
 20
108.7847988125392
 30
0.0
 10
154.5284286989976
 20
108.7716197067316
 30
0.0
 10
154.4926270003716
 20
108.767014381252
 30
0.0
 10
154.4551741412628
 20
108.767014381252
 30
0.0
  0
ELLIPSE
  5
B4
330
1F
100
AcDbEntity
  8
0
  6
Continuous
 62
     7
370
    15
100
AcDbEllipse
 10
144.4381469708
 20
127.8986707615
 30
0.0
 11
-9.367417879781781
 21
19.74174915274992
 31
0.0
210
0.0
220
0.0
230
1.0
 40
0.3419987131
 41
3.292664382516894
 42
4.239566697060996
  0
SPLINE
  5
B5
330
1F
100
AcDbEntity
  8
0
  6
Continuous
 62
     7
370
    15
100
AcDbSpline
210
0.0
220
0.0
230
1.0
 70
     8
 71
     3
 72
    12
 73
     8
 74
     0
 42
0.00000001
 43
0.00000001
 12
1.0
 22
0.0
 32
0.0
 13
1.0
 23
0.0
 33
0.0
 40
0.0
 40
0.0
 40
0.0
 40
0.0
 40
0.2500000000000012
 40
0.2500000000000012
 40
0.5000000000000023
 40
0.5000000000000023
 40
1.0
 40
1.0
 40
1.0
 40
1.0
 10
154.4551741412629
 20
122.0694577658336
 30
0.0
 10
154.4926749641406
 20
122.0694577658336
 30
0.0
 10
154.5279533681766
 20
122.0546614280806
 30
0.0
 10
154.586871088229
 20
122.0110911669214
 30
0.0
 10
154.6103944696274
 20
121.9835893684199
 30
0.0
 10
154.6706500540933
 20
121.8944902051768
 30
0.0
 10
154.6961717065044
 20
121.8284306263944
 30
0.0
 10
154.7149817623982
 20
121.7604256344262
 30
0.0
  0
LINE
  5
B6
330
1F
100
AcDbEntity
  8
0
  6
Continuous
 62
     7
370
    15
100
AcDbLine
 10
152.3189780527
 20
122.0694575744
 30
0.0
 11
154.4551740625
 21
122.0694575744
 31
0.0
  0
SPLINE
  5
B7
330
1F
100
AcDbEntity
  8
0
  6
Continuous
 62
     7
370
    15
100
AcDbSpline
210
0.0
220
0.0
230
1.0
 70
     8
 71
     3
 72
    12
 73
     8
 74
     0
 42
0.00000001
 43
0.00000001
 12
1.0
 22
0.0
 32
0.0
 13
1.0
 23
0.0
 33
0.0
 40
0.0
 40
0.0
 40
0.0
 40
0.0
 40
0.5
 40
0.5
 40
0.75
 40
0.75
 40
1.0
 40
1.0
 40
1.0
 40
1.0
 10
152.0591705241259
 20
121.7604256344262
 30
0.0
 10
152.0779737569776
 20
121.8284059586886
 30
0.0
 10
152.1035104159968
 20
121.8944963464854
 30
0.0
 10
152.1637365899452
 20
121.9835609589326
 30
0.0
 10
152.1876626673452
 20
122.0113620459525
 30
0.0
 10
152.2457235875265
 20
122.0543211191774
 30
0.0
 10
152.2815252861525
 20
122.0694577658336
 30
0.0
 10
152.3189781452612
 20
122.0694577658336
 30
0.0
  0
ELLIPSE
  5
B8
330
1F
100
AcDbEntity
  8
0
  6
Continuous
 62
     7
370
    15
100
AcDbEllipse
 10
162.3360053157
 20
127.8986707615
 30
0.0
 11
9.367417879781698
 21
19.74174915274995
 31
0.0
210
0.0
220
0.0
230
1.0
 40
0.3419987131
 41
2.043618610118599
 42
2.99052092466274
  0
LINE
  5
B9
330
1F
100
AcDbEntity
  8
0
  6
Continuous
 62
     7
370
    15
100
AcDbLine
 10
145.3870761433
 20
108.1986706989
 30
0.0
 11
145.3870761433
 21
147.5986708241
 31
0.0
  0
ELLIPSE
  5
BA
330
1F
100
AcDbEntity
  8
0
  6
Continuous
 62
     7
370
    15
100
AcDbEllipse
 10
226.9715354929
 20
127.8986707615
 30
0.0
 11
0.6417425547209065
 21
15.99909656657809
 31
0.0
210
0.0
220
0.0
230
1.0
 40
0.2649452246
 41
0.6670000683975197
 42
2.775098993702634
  0
SPLINE
  5
BB
330
1F
100
AcDbEntity
  8
0
  6
Continuous
 62
     7
370
    15
100
AcDbSpline
210
0.0
220
0.0
230
1.0
 70
     8
 71
     3
 72
    14
 73
    10
 74
     0
 42
0.00000001
 43
0.00000001
 12
1.0
 22
0.0
 32
0.0
 13
1.0
 23
0.0
 33
0.0
 40
0.0
 40
0.0
 40
0.0
 40
0.0
 40
0.25
 40
0.25
 40
0.5
 40
0.5
 40
0.75
 40
0.75
 40
1.0
 40
1.0
 40
1.0
 40
1.0
 10
227.437624028059
 20
112.3000946463361
 30
0.0
 10
227.1205470958085
 20
112.3080333019182
 30
0.0
 10
226.8184766430903
 20
112.3273481282103
 30
0.0
 10
226.2436871270483
 20
112.3930639439497
 30
0.0
 10
225.9859492042318
 20
112.4379363486192
 30
0.0
 10
225.5292424025841
 20
112.5582392086781
 30
0.0
 10
225.3401794792867
 20
112.6312660312904
 30
0.0
 10
225.0362283326821
 20
112.8076849336958
 30
0.0
 10
224.9256830286071
 20
112.9088020979056
 30
0.0
 10
224.8534319389948
 20
113.0230093096054
 30
0.0
  0
ELLIPSE
  5
BC
330
1F
100
AcDbEntity
  8
0
  6
Continuous
 62
     7
370
    15
100
AcDbEllipse
 10
281.6482037779
 20
127.8986707615
 30
0.0
 11
152.2296510335275
 21
2.251148238946968
 31
0.0
210
0.0
220
0.0
230
1.0
 40
0.1040588589
 41
4.346748402400447
 42
4.35751902519453
  0
ELLIPSE
  5
BD
330
1F
100
AcDbEntity
  8
0
  6
Continuous
 62
     7
370
    15
100
AcDbEllipse
 10
281.6482037779
 20
127.8986707615
 30
0.0
 11
152.2296510335275
 21
2.251148238946968
 31
0.0
210
0.0
220
0.0
230
1.0
 40
0.1040588589
 41
1.922588672196359
 42
1.933359294990443
  0
SPLINE
  5
BE
330
1F
100
AcDbEntity
  8
0
  6
Continuous
 62
     7
370
    15
100
AcDbSpline
210
0.0
220
0.0
230
1.0
 70
     8
 71
     3
 72
    18
 73
    14
 74
     0
 42
0.00000001
 43
0.00000001
 12
1.0
 22
0.0
 32
0.0
 13
1.0
 23
0.0
 33
0.0
 40
0.0
 40
0.0
 40
0.0
 40
0.0
 40
0.2500000000000016
 40
0.2500000000000016
 40
0.3749999999999997
 40
0.3749999999999997
 40
0.4999999999999979
 40
0.4999999999999979
 40
0.6249999999999961
 40
0.6249999999999961
 40
0.7499999999999942
 40
0.7499999999999942
 40
1.0
 40
1.0
 40
1.0
 40
1.0
 10
224.8534319389948
 20
140.574041650284
 30
0.0
 10
224.9257384073253
 20
140.7634485150955
 30
0.0
 10
225.0352941049663
 20
140.9362513911786
 30
0.0
 10
225.2619761793975
 20
141.172245476686
 30
0.0
 10
225.3484997413388
 20
141.247094228907
 30
0.0
 10
225.5379277247097
 20
141.3842348011757
 30
0.0
 10
225.6414061959943
 20
141.447242242308
 30
0.0
 10
225.8665608905227
 20
141.5627109954618
 30
0.0
 10
225.9894295507989
 20
141.6155835059671
 30
0.0
 10
226.249255473608
 20
141.7086562487459
 30
0.0
 10
226.3850481754243
 20
141.7486264649398
 30
0.0
 10
226.809925174128
 20
141.850320071827
 30
0.0
 10
227.1200761615802
 20
141.894056170889
 30
0.0
 10
227.437624028059
 20
141.911296595893
 30
0.0
  0
ELLIPSE
  5
BF
330
1F
100
AcDbEntity
  8
0
  6
Continuous
 62
     7
370
    15
100
AcDbEllipse
 10
224.4343060991
 20
120.2216346797
 30
0.0
 11
-0.03534061625174445
 21
2.339706936174736
 31
0.0
210
0.0
220
0.0
230
1.0
 40
0.2506800175
 41
5.428798038846486
 42
10.15880079790582
  0
SPLINE
  5
C0
330
1F
100
AcDbEntity
  8
0
  6
Continuous
 62
     7
370
    15
100
AcDbSpline
210
0.0
220
0.0
230
1.0
 70
     8
 71
     3
 72
    18
 73
    14
 74
     0
 42
0.00000001
 43
0.00000001
 12
1.0
 22
0.0
 32
0.0
 13
1.0
 23
0.0
 33
0.0
 40
0.0
 40
0.0
 40
0.0
 40
0.0
 40
0.2499999999999997
 40
0.2499999999999997
 40
0.4999999999999993
 40
0.4999999999999993
 40
0.6249999999999994
 40
0.6249999999999994
 40
0.7499999999999997
 40
0.7499999999999997
 40
0.8749999999999998
 40
0.8749999999999998
 40
1.0
 40
1.0
 40
1.0
 40
1.0
 10
144.130991825698
 20
114.0674823788065
 30
0.0
 10
144.1652886451498
 20
114.0666207233247
 30
0.0
 10
144.203099925127
 20
114.0668723264196
 30
0.0
 10
144.289672292307
 20
114.0692708390315
 30
0.0
 10
144.3380114223899
 20
114.0714418237634
 30
0.0
 10
144.4272837797123
 20
114.0755367020586
 30
0.0
 10
144.4598252454882
 20
114.0770413200082
 30
0.0
 10
144.5360014453417
 20
114.0800043779763
 30
0.0
 10
144.5792175053363
 20
114.0814917162321
 30
0.0
 10
144.6849068073022
 20
114.0831171275558
 30
0.0
 10
144.7498778660168
 20
114.0830748864819
 30
0.0
 10
144.8835382543746
 20
114.0790527131609
 30
0.0
 10
144.9428447077108
 20
114.0755114863374
 30
0.0
 10
144.9920992543867
 20
114.0719447789013
 30
0.0
  0
SPLINE
  5
C1
330
1F
100
AcDbEntity
  8
0
  6
Continuous
 62
     7
370
    15
100
AcDbSpline
210
0.0
220
0.0
230
1.0
 70
     8
 71
     3
 72
    14
 73
    10
 74
     0
 42
0.00000001
 43
0.00000001
 12
1.0
 22
0.0
 32
0.0
 13
1.0
 23
0.0
 33
0.0
 40
0.0
 40
0.0
 40
0.0
 40
0.0
 40
0.1249999999999971
 40
0.1249999999999971
 40
0.2499999999999942
 40
0.2499999999999942
 40
0.4999999999999951
 40
0.4999999999999951
 40
1.0
 40
1.0
 40
1.0
 40
1.0
 10
144.992099254356
 20
114.0719447789203
 30
0.0
 10
145.0036260320733
 20
114.0711100814862
 30
0.0
 10
145.0169788397258
 20
114.0693696672061
 30
0.0
 10
145.047121412326
 20
114.0621220772058
 30
0.0
 10
145.0621819379405
 20
114.0567750429778
 30
0.0
 10
145.0975282918687
 20
114.0410277727494
 30
0.0
 10
145.1112603915977
 20
114.0311894985881
 30
0.0
 10
145.1446316372888
 20
114.0049855126376
 30
0.0
 10
145.1555720051428
 20
113.9908976112371
 30
0.0
 10
145.1642251301561
 20
113.9781239877487
 30
0.0
  0
LINE
  5
C2
330
1F
100
AcDbEntity
  8
0
  6
Continuous
 62
     7
370
    15
100
AcDbLine
 10
145.1870761483
 20
122.3932258139
 30
0.0
 11
145.1870761483
 21
113.8088507863
 31
0.0
  0
SPLINE
  5
C3
330
1F
100
AcDbEntity
  8
0
  6
Continuous
 62
     7
370
    15
100
AcDbSpline
210
0.0
220
0.0
230
1.0
 70
     8
 71
     3
 72
    16
 73
    12
 74
     0
 42
0.00000001
 43
0.00000001
 12
1.0
 22
0.0
 32
0.0
 13
1.0
 23
0.0
 33
0.0
 40
0.0
 40
0.0
 40
0.0
 40
0.0
 40
0.4999999999999984
 40
0.4999999999999984
 40
0.7499999999999992
 40
0.7499999999999992
 40
0.8749999999999996
 40
0.8749999999999996
 40
0.9374999999999998
 40
0.9374999999999998
 40
1.0
 40
1.0
 40
1.0
 40
1.0
 10
145.187076143262
 20
122.3932259945226
 30
0.0
 10
145.187076143262
 20
122.510801375542
 30
0.0
 10
145.1831927181031
 20
122.6294971286433
 30
0.0
 10
145.1583773928284
 20
122.8102546066358
 30
0.0
 10
145.1475379451159
 20
122.8718986834087
 30
0.0
 10
145.1143221630671
 20
122.96123565775
 30
0.0
 10
145.1009404194383
 20
122.9914951891751
 30
0.0
 10
145.0654307695761
 20
123.0250114331626
 30
0.0
 10
145.0500138030753
 20
123.0331497789686
 30
0.0
 10
145.0183127809267
 20
123.0331343695373
 30
0.0
 10
145.0041664959759
 20
123.0260921321814
 30
0.0
 10
144.9920992543863
 20
123.0169510685718
 30
0.0
  0
SPLINE
  5
C4
330
1F
100
AcDbEntity
  8
0
  6
Continuous
 62
     7
370
    15
100
AcDbSpline
210
0.0
220
0.0
230
1.0
 70
     8
 71
     3
 72
    18
 73
    14
 74
     0
 42
0.00000001
 43
0.00000001
 12
1.0
 22
0.0
 32
0.0
 13
1.0
 23
0.0
 33
0.0
 40
0.0
 40
0.0
 40
0.0
 40
0.0
 40
0.1249999999999993
 40
0.1249999999999993
 40
0.2499999999999986
 40
0.2499999999999986
 40
0.3749999999999979
 40
0.3749999999999979
 40
0.4999999999999972
 40
0.4999999999999972
 40
0.7499999999999986
 40
0.7499999999999986
 40
1.0
 40
1.0
 40
1.0
 40
1.0
 10
144.9920992543925
 20
123.0169510685645
 30
0.0
 10
144.9433946707045
 20
122.980056829374
 30
0.0
 10
144.884886187929
 20
122.950525524948
 30
0.0
 10
144.7531593726592
 20
122.9412895516691
 30
0.0
 10
144.6884013011616
 20
122.9643527262261
 30
0.0
 10
144.5831906990109
 20
123.0318708478735
 30
0.0
 10
144.5399745504907
 20
123.0748819445241
 30
0.0
 10
144.4637962344069
 20
123.1651239665202
 30
0.0
 10
144.4309414021156
 20
123.2127548479955
 30
0.0
 10
144.3405734961547
 20
123.359819147345
 30
0.0
 10
144.2911508383151
 20
123.4637324726496
 30
0.0
 10
144.2034997127235
 20
123.6748664362899
 30
0.0
 10
144.1654381653329
 20
123.7825891810487
 30
0.0
 10
144.1309918256991
 20
123.8919222969581
 30
0.0
  0
SPLINE
  5
C5
330
1F
100
AcDbEntity
  8
0
  6
Continuous
 62
     7
370
    15
100
AcDbSpline
210
0.0
220
0.0
230
1.0
 70
     8
 71
     3
 72
     8
 73
     4
 74
     0
 42
0.00000001
 43
0.00000001
 12
1.0
 22
0.0
 32
0.0
 13
1.0
 23
0.0
 33
0.0
 40
0.0
 40
0.0
 40
0.0
 40
0.0
 40
1.0
 40
1.0
 40
1.0
 40
1.0
 10
144.0657557997023
 20
124.127126071087
 30
0.0
 10
144.0851820050012
 20
124.0475337995142
 30
0.0
 10
144.1066788294297
 20
123.9690920533814
 30
0.0
 10
144.1309918256991
 20
123.8919222969581
 30
0.0
  0
SPLINE
  5
C6
330
1F
100
AcDbEntity
  8
0
  6
Continuous
 62
     7
370
    15
100
AcDbSpline
210
0.0
220
0.0
230
1.0
 70
     8
 71
     3
 72
     8
 73
     4
 74
     0
 42
0.00000001
 43
0.00000001
 12
1.0
 22
0.0
 32
0.0
 13
1.0
 23
0.0
 33
0.0
 40
0.0
 40
0.0
 40
0.0
 40
0.0
 40
1.0
 40
1.0
 40
1.0
 40
1.0
 10
144.130991825699
 20
131.9054192260126
 30
0.0
 10
144.1066788294297
 20
131.8282494695893
 30
0.0
 10
144.0851820050012
 20
131.7498077234566
 30
0.0
 10
144.0657557997023
 20
131.6702154518838
 30
0.0
  0
SPLINE
  5
C7
330
1F
100
AcDbEntity
  8
0
  6
Continuous
 62
     7
370
    15
100
AcDbSpline
210
0.0
220
0.0
230
1.0
 70
     8
 71
     3
 72
    18
 73
    14
 74
     0
 42
0.00000001
 43
0.00000001
 12
1.0
 22
0.0
 32
0.0
 13
1.0
 23
0.0
 33
0.0
 40
0.0
 40
0.0
 40
0.0
 40
0.0
 40
0.25
 40
0.25
 40
0.5
 40
0.5
 40
0.625
 40
0.625
 40
0.75
 40
0.75
 40
0.875
 40
0.875
 40
1.0
 40
1.0
 40
1.0
 40
1.0
 10
144.130991825699
 20
131.9054192260126
 30
0.0
 10
144.1652901447117
 20
132.0142825226057
 30
0.0
 10
144.2031045420237
 20
132.121289945842
 30
0.0
 10
144.2896926030972
 20
132.3303247699803
 30
0.0
 10
144.3380427087759
 20
132.4324948639698
 30
0.0
 10
144.4273592975757
 20
132.5791756355346
 30
0.0
 10
144.459919653064
 20
132.6269773340701
 30
0.0
 10
144.5361652867929
 20
132.7185328720955
 30
0.0
 10
144.5793246565729
 20
132.7622122640874
 30
0.0
 10
144.685053480591
 20
132.831566481414
 30
0.0
 10
144.7500506576457
 20
132.85568279508
 30
0.0
 10
144.8835351475999
 20
132.8474785730417
 30
0.0
 10
144.9428625410454
 20
132.8176877874497
 30
0.0
 10
144.9920992543868
 20
132.7803904543987
 30
0.0
  0
SPLINE
  5
C8
330
1F
100
AcDbEntity
  8
0
  6
Continuous
 62
     7
370
    15
100
AcDbSpline
210
0.0
220
0.0
230
1.0
 70
     8
 71
     3
 72
    16
 73
    12
 74
     0
 42
0.00000001
 43
0.00000001
 12
1.0
 22
0.0
 32
0.0
 13
1.0
 23
0.0
 33
0.0
 40
0.0
 40
0.0
 40
0.0
 40
0.0
 40
0.0624999999999993
 40
0.0624999999999993
 40
0.1249999999999986
 40
0.1249999999999986
 40
0.2499999999999994
 40
0.2499999999999994
 40
0.4999999999999997
 40
0.4999999999999997
 40
1.0
 40
1.0
 40
1.0
 40
1.0
 10
144.992099254356
 20
132.7803904543504
 30
0.0
 10
145.0041690876318
 20
132.7712474275045
 30
0.0
 10
145.0184447425651
 20
132.7642029798133
 30
0.0
 10
145.0499091546895
 20
132.7641959079146
 30
0.0
 10
145.0654096794999
 20
132.7723238767116
 30
0.0
 10
145.1008485761068
 20
132.8057323377188
 30
0.0
 10
145.1144411922102
 20
132.8363995041809
 30
0.0
 10
145.147435510603
 20
132.9252204982628
 30
0.0
 10
145.1582229039218
 20
132.9861231438106
 30
0.0
 10
145.1832761512009
 20
133.168131221189
 30
0.0
 10
145.1870761432622
 20
133.2868199362276
 30
0.0
 10
145.1870761432622
 20
133.4041155284482
 30
0.0
  0
LINE
  5
C9
330
1F
100
AcDbEntity
  8
0
  6
Continuous
 62
     7
370
    15
100
AcDbLine
 10
145.1870761483
 20
141.9884907367
 30
0.0
 11
145.1870761483
 21
133.4041157091
 31
0.0
  0
SPLINE
  5
CA
330
1F
100
AcDbEntity
  8
0
  6
Continuous
 62
     7
370
    15
100
AcDbSpline
210
0.0
220
0.0
230
1.0
 70
     8
 71
     3
 72
    12
 73
     8
 74
     0
 42
0.00000001
 43
0.00000001
 12
1.0
 22
0.0
 32
0.0
 13
1.0
 23
0.0
 33
0.0
 40
0.0
 40
0.0
 40
0.0
 40
0.0
 40
0.4999999999999998
 40
0.4999999999999998
 40
0.7499999999999999
 40
0.7499999999999999
 40
1.0
 40
1.0
 40
1.0
 40
1.0
 10
145.1467368133944
 20
141.7972782643561
 30
0.0
 10
145.1366139613133
 20
141.7863445197185
 30
0.0
 10
145.1242511769672
 20
141.7742792328959
 30
0.0
 10
145.0894165737939
 20
141.7529298925517
 30
0.0
 10
145.0740593525508
 20
141.7447102163227
 30
0.0
 10
145.0313903104111
 20
141.7303709166931
 30
0.0
 10
145.0089660960513
 20
141.7266181356698
 30
0.0
 10
144.9920992543863
 20
141.7253967440695
 30
0.0
  0
SPLINE
  5
CB
330
1F
100
AcDbEntity
  8
0
  6
Continuous
 62
     7
370
    15
100
AcDbSpline
210
0.0
220
0.0
230
1.0
 70
     8
 71
     3
 72
    18
 73
    14
 74
     0
 42
0.00000001
 43
0.00000001
 12
1.0
 22
0.0
 32
0.0
 13
1.0
 23
0.0
 33
0.0
 40
0.0
 40
0.0
 40
0.0
 40
0.0
 40
0.1249999999999998
 40
0.1249999999999998
 40
0.2499999999999996
 40
0.2499999999999996
 40
0.3749999999999993
 40
0.3749999999999993
 40
0.4999999999999991
 40
0.4999999999999991
 40
0.7499999999999996
 40
0.7499999999999996
 40
1.0
 40
1.0
 40
1.0
 40
1.0
 10
144.9920992543925
 20
141.7253967440693
 30
0.0
 10
144.9433951253757
 20
141.7218698944511
 30
0.0
 10
144.8848874561712
 20
141.7183696212535
 30
0.0
 10
144.7531617935403
 20
141.7143266373656
 30
0.0
 10
144.68840415492
 20
141.7142150627349
 30
0.0
 10
144.5831937383008
 20
141.7157472474964
 30
0.0
 10
144.5399777033607
 20
141.7172023997115
 30
0.0
 10
144.4637994818797
 20
141.7201276612412
 30
0.0
 10
144.4309447141956
 20
141.7216379917495
 30
0.0
 10
144.3405769953538
 20
141.7257799844378
 30
0.0
 10
144.2911546261643
 20
141.7280180694243
 30
0.0
 10
144.2035021640764
 20
141.7304693524708
 30
0.0
 10
144.1654394278419
 20
141.7307245878319
 30
0.0
 10
144.1309918256985
 20
141.729859144164
 30
0.0
  0
SPLINE
  5
CC
330
1F
100
AcDbEntity
  8
0
  6
Continuous
 62
     7
370
    15
100
AcDbSpline
210
0.0
220
0.0
230
1.0
 70
     8
 71
     3
 72
     8
 73
     4
 74
     0
 42
0.00000001
 43
0.00000001
 12
1.0
 22
0.0
 32
0.0
 13
1.0
 23
0.0
 33
0.0
 40
0.0
 40
0.0
 40
0.0
 40
0.0
 40
1.0
 40
1.0
 40
1.0
 40
1.0
 10
143.8920361653228
 20
124.9521799571215
 30
0.0
 10
143.9427632480451
 20
124.6688288358024
 30
0.0
 10
144.0006505610322
 20
124.3938726516626
 30
0.0
 10
144.0657557997024
 20
124.127126071087
 30
0.0
  0
SPLINE
  5
CD
330
1F
100
AcDbEntity
  8
0
  6
Continuous
 62
     7
370
    15
100
AcDbSpline
210
0.0
220
0.0
230
1.0
 70
     8
 71
     3
 72
    24
 73
    20
 74
     0
 42
0.00000001
 43
0.00000001
 12
1.0
 22
0.0
 32
0.0
 13
1.0
 23
0.0
 33
0.0
 40
0.0
 40
0.0
 40
0.0
 40
0.0
 40
0.2499999999999981
 40
0.2499999999999981
 40
0.3749999999999974
 40
0.3749999999999974
 40
0.4374999999999971
 40
0.4374999999999971
 40
0.4687499999999976
 40
0.4687499999999976
 40
0.4999999999999981
 40
0.4999999999999981
 40
0.5624999999999981
 40
0.5624999999999981
 40
0.624999999999998
 40
0.624999999999998
 40
0.749999999999999
 40
0.749999999999999
 40
1.0
 40
1.0
 40
1.0
 40
1.0
 10
143.6870761432538
 20
124.9524723654148
 30
0.0
 10
143.6874791726277
 20
125.0457406580444
 30
0.0
 10
143.6895089123428
 20
125.1394982168933
 30
0.0
 10
143.6988176237626
 20
125.2810881025329
 30
0.0
 10
143.7027436168771
 20
125.3282685211421
 30
0.0
 10
143.7136729767931
 20
125.3988645678275
 30
0.0
 10
143.7177946048875
 20
125.4226444815923
 30
0.0
 10
143.7296891260699
 20
125.4560956286395
 30
0.0
 10
143.7349759380236
 20
125.468250580709
 30
0.0
 10
143.7515438695386
 20
125.4761332196771
 30
0.0
 10
143.7594705783059
 20
125.4685696205751
 30
0.0
 10
143.7764629165311
 20
125.4447771893484
 30
0.0
 10
143.783860617322
 20
125.4245887115039
 30
0.0
 10
143.7979630076638
 20
125.3841390868841
 30
0.0
 10
143.8041161649561
 20
125.3632834124866
 30
0.0
 10
143.8214298984172
 20
125.3001583771856
 30
0.0
 10
143.8314349393058
 20
125.2571792652841
 30
0.0
 10
143.8597913955365
 20
125.1274536209952
 30
0.0
 10
143.8763399348827
 20
125.0398558938593
 30
0.0
 10
143.8920361653228
 20
124.9521799571215
 30
0.0
  0
SPLINE
  5
CE
330
1F
100
AcDbEntity
  8
0
  6
Continuous
 62
     7
370
    15
100
AcDbSpline
210
0.0
220
0.0
230
1.0
 70
     8
 71
     3
 72
    16
 73
    12
 74
     0
 42
0.00000001
 43
0.00000001
 12
1.0
 22
0.0
 32
0.0
 13
1.0
 23
0.0
 33
0.0
 40
0.0
 40
0.0
 40
0.0
 40
0.0
 40
0.25
 40
0.25
 40
0.375
 40
0.375
 40
0.5
 40
0.5
 40
0.75
 40
0.75
 40
1.0
 40
1.0
 40
1.0
 40
1.0
 10
143.687076143262
 20
130.8448691575547
 30
0.0
 10
143.6065393338666
 20
130.3757963306917
 30
0.0
 10
143.5465019250643
 20
129.8954326805117
 30
0.0
 10
143.4857639778171
 20
129.1582484013707
 30
0.0
 10
143.4704414967742
 20
128.9097299981437
 30
0.0
 10
143.4498585449963
 20
128.40694655293
 30
0.0
 10
143.4446589979597
 20
128.1520879999053
 30
0.0
 10
143.4446052874195
 20
127.3958106601845
 30
0.0
 10
143.4648026246886
 20
126.8971524608747
 30
0.0
 10
143.5454809317616
 20
125.9107294901304
 30
0.0
 10
143.6065272801029
 20
125.4216153973575
 30
0.0
 10
143.687076143262
 20
124.952472365416
 30
0.0
  0
SPLINE
  5
CF
330
1F
100
AcDbEntity
  8
0
  6
Continuous
 62
     7
370
    15
100
AcDbSpline
210
0.0
220
0.0
230
1.0
 70
     8
 71
     3
 72
    24
 73
    20
 74
     0
 42
0.00000001
 43
0.00000001
 12
1.0
 22
0.0
 32
0.0
 13
1.0
 23
0.0
 33
0.0
 40
0.0
 40
0.0
 40
0.0
 40
0.0
 40
0.2500000000000011
 40
0.2500000000000011
 40
0.375000000000003
 40
0.375000000000003
 40
0.437500000000004
 40
0.437500000000004
 40
0.500000000000005
 40
0.500000000000005
 40
0.5312500000000047
 40
0.5312500000000047
 40
0.5625000000000044
 40
0.5625000000000044
 40
0.6250000000000037
 40
0.6250000000000037
 40
0.7500000000000022
 40
0.7500000000000022
 40
1.0
 40
1.0
 40
1.0
 40
1.0
 10
143.8920361653229
 20
130.8451615658492
 30
0.0
 10
143.8762671204131
 20
130.7570789023583
 30
0.0
 10
143.8596529558525
 20
130.6691340858488
 30
0.0
 10
143.8311208283591
 20
130.5387867185858
 30
0.0
 10
143.8210331948052
 20
130.4955255407837
 30
0.0
 10
143.8035453719563
 20
130.4320897649483
 30
0.0
 10
143.79733556403
 20
130.4111756414046
 30
0.0
 10
143.7830577044476
 20
130.3707008497195
 30
0.0
 10
143.7754865420958
 20
130.3502232062603
 30
0.0
 10
143.7580667169214
 20
130.3273768267234
 30
0.0
 10
143.7495826344668
 20
130.3208250296797
 30
0.0
 10
143.7335465608494
 20
130.3313964049063
 30
0.0
 10
143.7287261885715
 20
130.3434874451902
 30
0.0
 10
143.7173192879656
 20
130.3771306884101
 30
0.0
 10
143.7132983262562
 20
130.4005383677068
 30
0.0
 10
143.702544314477
 20
130.4711269707679
 30
0.0
 10
143.6986724288543
 20
130.5180919982905
 30
0.0
 10
143.6895044640534
 20
130.6586688628966
 30
0.0
 10
143.6874761295402
 20
130.7523050925161
 30
0.0
 10
143.687076143262
 20
130.8448691575547
 30
0.0
  0
SPLINE
  5
D0
330
1F
100
AcDbEntity
  8
0
  6
Continuous
 62
     7
370
    15
100
AcDbSpline
210
0.0
220
0.0
230
1.0
 70
     8
 71
     3
 72
     8
 73
     4
 74
     0
 42
0.00000001
 43
0.00000001
 12
1.0
 22
0.0
 32
0.0
 13
1.0
 23
0.0
 33
0.0
 40
0.0
 40
0.0
 40
0.0
 40
0.0
 40
1.0
 40
1.0
 40
1.0
 40
1.0
 10
144.0657557997024
 20
131.6702154518838
 30
0.0
 10
144.0006505610322
 20
131.4034688713081
 30
0.0
 10
143.9427632480451
 20
131.1285126871684
 30
0.0
 10
143.8920361653228
 20
130.8451615658493
 30
0.0
  0
LINE
  5
D1
330
1F
100
AcDbEntity
  8
0
  6
Continuous
 62
     7
370
    15
100
AcDbLine
 10
143.6870761207
 20
124.9524723092
 30
0.0
 11
143.6870761207
 21
123.7974670069
 31
0.0
  0
LINE
  5
D2
330
1F
100
AcDbEntity
  8
0
  6
Continuous
 62
     7
370
    15
100
AcDbLine
 10
122.8870752492
 20
131.7385903379
 30
0.0
 11
122.8870752492
 21
124.0587511851
 31
0.0
  0
LINE
  5
D3
330
1F
100
AcDbEntity
  8
0
  6
Continuous
 62
     7
370
    15
100
AcDbLine
 10
143.6870761207
 20
131.999874516
 30
0.0
 11
143.6870761207
 21
130.8448692137
 31
0.0
  0
LINE
  5
D4
330
1F
100
AcDbEntity
  8
0
  6
Continuous
 62
     7
370
    15
100
AcDbLine
 10
121.3870759346
 20
131.3055774948
 30
0.0
 11
121.3870759346
 21
124.4917640282
 31
0.0
  0
LINE
  5
D5
330
1F
100
AcDbEntity
  8
0
  6
Continuous
 62
     7
370
    15
100
AcDbLine
 10
143.8920361214
 20
141.7238554271
 30
0.0
 11
144.1309918408
 21
141.7298587324
 31
0.0
  0
LINE
  5
D6
330
1F
100
AcDbEntity
  8
0
  6
Continuous
 62
     7
370
    15
100
AcDbLine
 10
143.6870761207
 20
113.8785723882
 30
0.0
 11
143.6870761207
 21
123.7974670069
 31
0.0
  0
ARC
  5
D7
330
1F
100
AcDbEntity
  8
0
  6
Continuous
 62
     7
370
    15
100
AcDbCircle
 10
143.8870130542
 20
113.8735488658
 30
0.0
 40
0.2000000000000059
100
AcDbArc
 50
88.5608333333
 51
178.5608333333
  0
LINE
  5
D8
330
1F
100
AcDbEntity
  8
0
  6
Continuous
 62
     7
370
    15
100
AcDbLine
 10
143.6870761207
 20
131.999874516
 30
0.0
 11
143.6870761207
 21
141.9187691348
 31
0.0
  0
ARC
  5
D9
330
1F
100
AcDbEntity
  8
0
  6
Continuous
 62
     7
370
    15
100
AcDbCircle
 10
143.8870130542
 20
141.9237926572
 30
0.0
 40
0.2000000000000066
100
AcDbArc
 50
181.4391666667
 51
271.4391666667
  0
LINE
  5
DA
330
1F
100
AcDbEntity
  8
0
  6
Continuous
 62
     7
370
    15
100
AcDbLine
 10
122.8870752492
 20
131.7385903379
 30
0.0
 11
122.8870752492
 21
141.3962012442
 31
0.0
  0
LINE
  5
DB
330
1F
100
AcDbEntity
  8
0
  6
Continuous
 62
     7
370
    15
100
AcDbLine
 10
122.8870752492
 20
141.3962012442
 30
0.0
 11
143.6870761207
 21
141.9187691348
 31
0.0
  0
LINE
  5
DC
330
1F
100
AcDbEntity
  8
0
  6
Continuous
 62
     7
370
    15
100
AcDbLine
 10
122.8870752492
 20
114.4011402788
 30
0.0
 11
122.8870752492
 21
124.0587511851
 31
0.0
  0
LINE
  5
DD
330
1F
100
AcDbEntity
  8
0
  6
Continuous
 62
     7
370
    15
100
AcDbLine
 10
122.8870752492
 20
114.4011402788
 30
0.0
 11
143.6870761207
 21
113.8785723882
 31
0.0
  0
LINE
  5
DE
330
1F
100
AcDbEntity
  8
0
  6
Continuous
 62
     7
370
    15
100
AcDbLine
 10
143.8920361214
 20
114.0734860959
 30
0.0
 11
144.1309918408
 21
114.0674827905
 31
0.0
  0
LINE
  5
DF
330
1F
100
AcDbEntity
  8
0
  6
Continuous
 62
     7
370
    15
100
AcDbLine
 10
121.3870759346
 20
140.5301755579
 30
0.0
 11
122.8870752492
 21
141.3962012442
 31
0.0
  0
LINE
  5
E0
330
1F
100
AcDbEntity
  8
0
  6
Continuous
 62
     7
370
    15
100
AcDbLine
 10
121.3870759346
 20
131.3055774948
 30
0.0
 11
121.3870759346
 21
140.5301755579
 31
0.0
  0
LINE
  5
E1
330
1F
100
AcDbEntity
  8
0
  6
Continuous
 62
     7
370
    15
100
AcDbLine
 10
121.3870759346
 20
115.267165965
 30
0.0
 11
122.8870752492
 21
114.4011402788
 31
0.0
  0
LINE
  5
E2
330
1F
100
AcDbEntity
  8
0
  6
Continuous
 62
     7
370
    15
100
AcDbLine
 10
121.3870759346
 20
115.267165965
 30
0.0
 11
121.3870759346
 21
124.4917640282
 31
0.0
  0
SPLINE
  5
E3
330
1F
100
AcDbEntity
  8
0
  6
Continuous
 62
     7
370
    15
100
AcDbSpline
210
0.0
220
0.0
230
1.0
 70
     8
 71
     3
 72
    18
 73
    14
 74
     0
 42
0.00000001
 43
0.00000001
 12
1.0
 22
0.0
 32
0.0
 13
1.0
 23
0.0
 33
0.0
 40
0.0
 40
0.0
 40
0.0
 40
0.0
 40
0.2499999999999991
 40
0.2499999999999991
 40
0.3749999999999994
 40
0.3749999999999994
 40
0.4999999999999999
 40
0.4999999999999999
 40
0.6250000000000003
 40
0.6250000000000003
 40
0.7500000000000007
 40
0.7500000000000007
 40
1.0
 40
1.0
 40
1.0
 40
1.0
 10
224.8534319389948
 20
121.7647564735605
 30
0.0
 10
224.9032414967375
 20
121.5520337231641
 30
0.0
 10
224.9598729326101
 20
121.3124887156778
 30
0.0
 10
225.0317710808669
 20
120.9160554179565
 30
0.0
 10
225.0535220929343
 20
120.7772417480697
 30
0.0
 10
225.087054406098
 20
120.4937490678384
 30
0.0
 10
225.0990419480539
 20
120.3480977339247
 30
0.0
 10
225.1088799683246
 20
120.0471258645406
 30
0.0
 10
225.1064121770831
 20
119.8934474904209
 30
0.0
 10
225.0850134107997
 20
119.5890905660933
 30
0.0
 10
225.0656298621371
 20
119.4348968443779
 30
0.0
 10
224.9895253798706
 20
118.9939788598131
 30
0.0
 10
224.9140304759578
 20
118.7219674525043
 30
0.0
 10
224.8534319389948
 20
118.4903702347255
 30
0.0
  0
SPLINE
  5
E4
330
1F
100
AcDbEntity
  8
0
  6
Continuous
 62
     7
370
    15
100
AcDbSpline
210
0.0
220
0.0
230
1.0
 70
     8
 71
     3
 72
     8
 73
     4
 74
     0
 42
0.00000001
 43
0.00000001
 12
1.0
 22
0.0
 32
0.0
 13
1.0
 23
0.0
 33
0.0
 40
0.0
 40
0.0
 40
0.0
 40
0.0
 40
1.0
 40
1.0
 40
1.0
 40
1.0
 10
232.6345636871415
 20
108.8169164565373
 30
0.0
 10
231.6426582842768
 20
109.8505298000753
 30
0.0
 10
230.6564601387122
 20
110.889567550986
 30
0.0
 10
229.6799693620755
 20
111.9378315765875
 30
0.0
  0
SPLINE
  5
E5
330
1F
100
AcDbEntity
  8
0
  6
Continuous
 62
     7
370
    15
100
AcDbSpline
210
0.0
220
0.0
230
1.0
 70
     8
 71
     3
 72
    10
 73
     6
 74
     0
 42
0.00000001
 43
0.00000001
 12
1.0
 22
0.0
 32
0.0
 13
1.0
 23
0.0
 33
0.0
 40
0.0
 40
0.0
 40
0.0
 40
0.0
 40
0.5
 40
0.5
 40
1.0
 40
1.0
 40
1.0
 40
1.0
 10
229.6799693620755
 20
111.9378315765875
 30
0.0
 10
229.5887792903935
 20
112.0357242284417
 30
0.0
 10
229.4808247534419
 20
112.1150476015156
 30
0.0
 10
229.2391441849934
 20
112.2275863025613
 30
0.0
 10
229.1080261517397
 20
112.2594290934763
 30
0.0
 10
228.9728625808889
 20
112.262640359739
 30
0.0
  0
SPLINE
  5
E6
330
1F
100
AcDbEntity
  8
0
  6
Continuous
 62
     7
370
    15
100
AcDbSpline
210
0.0
220
0.0
230
1.0
 70
     8
 71
     3
 72
     8
 73
     4
 74
     0
 42
0.00000001
 43
0.00000001
 12
1.0
 22
0.0
 32
0.0
 13
1.0
 23
0.0
 33
0.0
 40
0.0
 40
0.0
 40
0.0
 40
0.0
 40
1.0
 40
1.0
 40
1.0
 40
1.0
 10
228.9728625808889
 20
141.9936648462424
 30
0.0
 10
229.2429443885607
 20
142.007982891811
 30
0.0
 10
229.4977172960283
 20
142.1381806329399
 30
0.0
 10
229.6799693620759
 20
142.3391602961531
 30
0.0
  0
SPLINE
  5
E7
330
1F
100
AcDbEntity
  8
0
  6
Continuous
 62
     7
370
    15
100
AcDbSpline
210
0.0
220
0.0
230
1.0
 70
     8
 71
     3
 72
     8
 73
     4
 74
     0
 42
0.00000001
 43
0.00000001
 12
1.0
 22
0.0
 32
0.0
 13
1.0
 23
0.0
 33
0.0
 40
0.0
 40
0.0
 40
0.0
 40
0.0
 40
1.0
 40
1.0
 40
1.0
 40
1.0
 10
229.6799693620755
 20
142.3391602961535
 30
0.0
 10
229.7489559031002
 20
142.4152356575037
 30
0.0
 10
229.8179921442208
 20
142.491265235874
 30
0.0
 10
229.887076143262
 20
142.5672508203671
 30
0.0
  0
ELLIPSE
  5
E8
330
1F
100
AcDbEntity
  8
0
  6
Continuous
 62
     7
370
    15
100
AcDbEllipse
 10
281.6482037779
 20
127.8986707615
 30
0.0
 11
156.9868276283252
 21
2.32149662141407
 31
0.0
210
0.0
220
0.0
230
1.0
 40
0.1040588589
 41
1.827153513699241
 42
1.905260242420708
  0
LINE
  5
E9
330
1F
100
AcDbEntity
  8
0
  6
Continuous
 62
     7
370
    15
100
AcDbLine
 10
252.4671483078
 20
127.8304249348
 30
0.0
 11
241.6091862359
 21
143.1120503979
 31
0.0
  0
LINE
  5
EA
330
1F
100
AcDbEntity
  8
0
  6
Continuous
 62
     7
370
    15
100
AcDbLine
 10
253.2717067041
 20
118.6853954854
 30
0.0
 11
252.4671483078
 21
127.8304249348
 31
0.0
  0
LINE
  5
EB
330
1F
100
AcDbEntity
  8
0
  6
Continuous
 62
     7
370
    15
100
AcDbLine
 10
241.0256716647
 20
119.5730706962
 30
0.0
 11
253.2717067041
 21
118.6853954854
 31
0.0
  0
ARC
  5
EC
330
1F
100
AcDbEntity
  8
0
  6
Continuous
 62
     7
370
    15
100
AcDbCircle
 10
240.8186369558
 20
117.2521097537
 30
0.0
 40
2.330176617231932
100
AcDbArc
 50
84.9025847279
 51
265.0674461376
  0
LINE
  5
ED
330
1F
100
AcDbEntity
  8
0
  6
Continuous
 62
     7
370
    15
100
AcDbLine
 10
241.9149282613
 20
114.836572698
 30
0.0
 11
240.6182813683
 21
114.9305627035
 31
0.0
  0
LINE
  5
EE
330
1F
100
AcDbEntity
  8
0
  6
Continuous
 62
     7
370
    15
100
AcDbLine
 10
242.5398829617
 20
107.733028038
 30
0.0
 11
241.9149282613
 21
114.836572698
 31
0.0
  0
ELLIPSE
  5
EF
330
1F
100
AcDbEntity
  8
0
  6
Continuous
 62
     7
370
    15
100
AcDbEllipse
 10
275.5455298043
 20
130.4052699913
 30
0.0
 11
217.1628490301422
 21
-19.44089462863658
 31
0.0
210
0.0
220
0.0
230
1.0
 40
0.1182598878
 41
4.52407966351865
 42
4.570407089721229
  0
CIRCLE
  5
F0
330
1F
100
AcDbEntity
  8
0
  6
Continuous
 62
     7
370
    15
100
AcDbCircle
 10
244.1059124901
 20
124.5977306305
 30
0.0
 40
3.976780173802003
  0
LINE
  5
F1
330
1F
100
AcDbEntity
  8
0
  6
Continuous
 62
     7
370
    15
100
AcDbLine
 10
229.8870760241
 20
144.3986706721
 30
0.0
 11
229.8870760241
 21
142.5672509061
 31
0.0
  0
LINE
  5
F2
330
1F
100
AcDbEntity
  8
0
  6
Continuous
 62
     7
370
    15
100
AcDbLine
 10
232.4931699076
 20
108.8461131143
 30
0.0
 11
232.6345670261
 21
108.8169161515
 31
0.0
  0
ELLIPSE
  5
F3
330
1F
100
AcDbEntity
  8
0
  6
Continuous
 62
     7
370
    15
100
AcDbEllipse
 10
252.3997511794
 20
127.8986707615
 30
0.0
 11
-11.7456050227652
 21
16.49993160123384
 31
0.0
210
0.0
220
0.0
230
1.0
 40
0.0040448756
 41
5.882783606930317
 42
6.280305938888506
  0
ARC
  5
F4
330
1F
100
AcDbEntity
  8
0
  6
Continuous
 62
     7
370
    15
100
AcDbCircle
 10
240.2894883757
 20
117.8795377843
 30
0.0
 40
2.304180967826258
100
AcDbArc
 50
227.4168155107
 51
265.9561451743
  0
LINE
  5
F5
330
1F
100
AcDbEntity
  8
0
  6
Continuous
 62
     7
370
    15
100
AcDbLine
 10
239.8196834364
 20
115.9880208137
 30
0.0
 11
241.4118948617
 21
115.8726057323
 31
0.0
  0
LINE
  5
F6
330
1F
100
AcDbEntity
  8
0
  6
Continuous
 62
     7
370
    15
100
AcDbLine
 10
241.4459514656
 20
115.485486603
 30
0.0
 11
241.4236444273
 21
115.487103379
 31
0.0
  0
LINE
  5
F7
330
1F
100
AcDbEntity
  8
0
  6
Continuous
 62
     7
370
    15
100
AcDbLine
 10
241.4236444273
 20
115.487103379
 30
0.0
 11
241.9149282613
 21
114.836572698
 31
0.0
  0
ELLIPSE
  5
F8
330
1F
100
AcDbEntity
  8
0
  6
Continuous
 62
     7
370
    15
100
AcDbEllipse
 10
239.8220617209
 20
134.1599577852
 30
0.0
 11
-2.733626938423214
 21
26.42588789006399
 31
0.0
210
0.0
220
0.0
230
1.0
 40
0.0894011665
 41
3.122745396089813
 42
3.134928372993576
  0
ARC
  5
F9
330
1F
100
AcDbEntity
  8
0
  6
Continuous
 62
     7
370
    15
100
AcDbCircle
 10
240.2708350675
 20
117.6306874492
 30
0.0
 40
2.054635020170026
100
AcDbArc
 50
217.1519556751
 51
265.9856470827
  0
ARC
  5
FA
330
1F
100
AcDbEntity
  8
0
  6
Continuous
 62
     7
370
    15
100
AcDbCircle
 10
239.9646438772
 20
118.0415111486
 30
0.0
 40
2.058600516158271
100
AcDbArc
 50
228.4379810877
 51
265.9620622237
  0
ARC
  5
FB
330
1F
100
AcDbEntity
  8
0
  6
Continuous
 62
     7
370
    15
100
AcDbCircle
 10
247.4990530214
 20
113.9635093709
 30
0.0
 40
3.241196136694326
100
AcDbArc
 50
282.2843243365
 51
305.0039890941
  0
LWPOLYLINE
  5
FC
330
1F
100
AcDbEntity
  8
0
  6
Continuous
 62
     7
370
    15
100
AcDbPolyline
 90
        3
 70
   128
 43
0.0
 10
246.171415154
 20
111.5319244849
 10
246.7510926762
 20
111.4368792908
 10
247.1645402946
 20
111.4347782271
  0
LINE
  5
FD
330
1F
100
AcDbEntity
  8
0
  6
HIDDEN
 62
     7
370
     0
100
AcDbLine
 10
165.3870756962
 20
108.4986701893
 30
0.0
 11
165.3870756962
 21
147.2986713337
 31
0.0
  0
SPLINE
  5
FE
330
1F
100
AcDbEntity
  8
0
  6
HIDDEN
 62
     7
370
     0
100
AcDbSpline
210
0.0
220
0.0
230
1.0
 70
     8
 71
     3
 72
    58
 73
    54
 74
     0
 42
0.00000001
 43
0.00000001
 12
1.0
 22
0.0
 32
0.0
 13
1.0
 23
0.0
 33
0.0
 40
-0.0624999999999998
 40
-0.0624999999999998
 40
0.0
 40
0.0
 40
0.0312500000000004
 40
0.0312500000000004
 40
0.0625000000000007
 40
0.0625000000000007
 40
0.0937500000000011
 40
0.0937500000000011
 40
0.1250000000000014
 40
0.1250000000000014
 40
0.1875000000000018
 40
0.1875000000000018
 40
0.2500000000000022
 40
0.2500000000000022
 40
0.2812500000000021
 40
0.2812500000000021
 40
0.3125000000000021
 40
0.3125000000000021
 40
0.3437500000000021
 40
0.3437500000000021
 40
0.375000000000002
 40
0.375000000000002
 40
0.406250000000002
 40
0.406250000000002
 40
0.4375000000000019
 40
0.4375000000000019
 40
0.4687500000000019
 40
0.4687500000000019
 40
0.5000000000000019
 40
0.5000000000000019
 40
0.5625000000000019
 40
0.5625000000000019
 40
0.6250000000000019
 40
0.6250000000000019
 40
0.6562500000000017
 40
0.6562500000000017
 40
0.6875000000000014
 40
0.6875000000000014
 40
0.7187500000000012
 40
0.7187500000000012
 40
0.750000000000001
 40
0.750000000000001
 40
0.7812500000000009
 40
0.7812500000000009
 40
0.8125000000000007
 40
0.8125000000000007
 40
0.8437500000000004
 40
0.8437500000000004
 40
0.8750000000000002
 40
0.8750000000000002
 40
0.9375000000000002
 40
0.9375000000000002
 40
1.0
 40
1.0
 40
1.03125
 40
1.03125
 10
155.387076143262
 20
127.6342346470374
 30
0.0
 10
155.387076143262
 20
128.0308888187094
 30
0.0
 10
155.4000581809342
 20
128.1608809795499
 30
0.0
 10
155.4509089831925
 20
128.4166005920022
 30
0.0
 10
155.4894008872455
 20
128.5436592758633
 30
0.0
 10
155.5898161729719
 20
128.7858224735221
 30
0.0
 10
155.651252312245
 20
128.9006642579069
 30
0.0
 10
155.7963857885558
 20
129.1180064554771
 30
0.0
 10
155.8808074774069
 20
129.2208481033248
 30
0.0
 10
156.1574076515717
 20
129.4973915840764
 30
0.0
 10
156.3804065628388
 20
129.6463742202085
 30
0.0
 10
156.8616410804245
 20
129.8459172837632
 30
0.0
 10
157.1249404959335
 20
129.8985277567946
 30
0.0
 10
157.5165039359738
 20
129.8987418155471
 30
0.0
 10
157.6490915465784
 20
129.8857429661415
 30
0.0
 10
157.9056572521777
 20
129.8346928821152
 30
0.0
 10
158.0303670183583
 20
129.796921643303
 30
0.0
 10
158.2726062033853
 20
129.6967297351905
 30
0.0
 10
158.389622857159
 20
129.634144341366
 30
0.0
 10
158.6062660620053
 20
129.4894392556554
 30
0.0
 10
158.7072728184637
 20
129.4068199142752
 30
0.0
 10
158.8940789141203
 20
129.2201758794852
 30
0.0
 10
158.9767924496522
 20
129.1192300315253
 30
0.0
 10
159.1216625790275
 20
128.9027488278437
 30
0.0
 10
159.1843328751242
 20
128.7858316628352
 30
0.0
 10
159.2847608131604
 20
128.5436351936367
 30
0.0
 10
159.3226319920901
 20
128.4189742027332
 30
0.0
 10
159.3738943898658
 20
128.1625748536652
 30
0.0
 10
159.3870280305065
 20
128.0299639283674
 30
0.0
 10
159.3871719636453
 20
127.6382893160322
 30
0.0
 10
159.3348067063806
 20
127.3750052963717
 30
0.0
 10
159.1356460430299
 20
126.8934925825119
 30
0.0
 10
158.9868483696679
 20
126.670371495467
 30
0.0
 10
158.7105477110817
 20
126.3935393469594
 30
0.0
 10
158.607782664022
 20
126.3090321326751
 30
0.0
 10
158.3905653902276
 20
126.1637111909892
 30
0.0
 10
158.2757956967899
 20
126.1021889677271
 30
0.0
 10
158.0338091596452
 20
126.0015925644552
 30
0.0
 10
157.9067265867538
 20
125.9629646763665
 30
0.0
 10
157.6510518867506
 20
125.9118865663003
 30
0.0
 10
157.5211113694064
 20
125.8987974265332
 30
0.0
 10
157.2568480016451
 20
125.8985459081746
 30
0.0
 10
157.1266371079982
 20
125.911420378231
 30
0.0
 10
156.8708871625645
 20
125.962039275363
 30
0.0
 10
156.7438697781972
 20
126.0003870941588
 30
0.0
 10
156.5015180504455
 20
126.1006212143522
 30
0.0
 10
156.3866152711591
 20
126.1619654013422
 30
0.0
 10
156.1691931060101
 20
126.3068704058714
 30
0.0
 10
156.0662567085654
 20
126.3912092979933
 30
0.0
 10
155.7894195514085
 20
126.6676104110351
 30
0.0
 10
155.6402643103444
 20
126.8904540440776
 30
0.0
 10
155.4402937251091
 20
127.3715173253281
 30
0.0
 10
155.387076143262
 20
127.6342346470374
 30
0.0
 10
155.387076143262
 20
128.0308888187094
 30
0.0
  0
SPLINE
  5
FF
330
1F
100
AcDbEntity
  8
0
  6
HIDDEN
 62
     7
370
     0
100
AcDbSpline
210
0.0
220
0.0
230
1.0
 70
     8
 71
     3
 72
    12
 73
     8
 74
     0
 42
0.00000001
 43
0.00000001
 12
1.0
 22
0.0
 32
0.0
 13
1.0
 23
0.0
 33
0.0
 40
0.0
 40
0.0
 40
0.0
 40
0.0
 40
0.2499999999999988
 40
0.2499999999999988
 40
0.4999999999999977
 40
0.4999999999999977
 40
1.0
 40
1.0
 40
1.0
 40
1.0
 10
152.3189781452612
 20
122.0694577658337
 30
0.0
 10
152.2814662592166
 20
122.0694577658337
 30
0.0
 10
152.2461789115118
 20
122.054652951547
 30
0.0
 10
152.1872490632734
 20
122.0110610784211
 30
0.0
 10
152.1637233368044
 20
121.9835476523351
 30
0.0
 10
152.1034645490363
 20
121.8944159202215
 30
0.0
 10
152.077869786747
 20
121.8280300696037
 30
0.0
 10
152.0591705241259
 20
121.7604256344263
 30
0.0
  0
LINE
  5
100
330
1F
100
AcDbEntity
  8
0
  6
HIDDEN
 62
     7
370
     0
100
AcDbLine
 10
154.4551740625
 20
122.0694575744
 30
0.0
 11
152.3189780527
 21
122.0694575744
 31
0.0
  0
SPLINE
  5
101
330
1F
100
AcDbEntity
  8
0
  6
HIDDEN
 62
     7
370
     0
100
AcDbSpline
210
0.0
220
0.0
230
1.0
 70
     8
 71
     3
 72
    12
 73
     8
 74
     0
 42
0.00000001
 43
0.00000001
 12
1.0
 22
0.0
 32
0.0
 13
1.0
 23
0.0
 33
0.0
 40
0.0
 40
0.0
 40
0.0
 40
0.0
 40
0.5000000000000029
 40
0.5000000000000029
 40
0.7500000000000014
 40
0.7500000000000014
 40
1.0
 40
1.0
 40
1.0
 40
1.0
 10
154.7149817623982
 20
121.7604256344263
 30
0.0
 10
154.6962885292677
 20
121.8280082708667
 30
0.0
 10
154.670633231856
 20
121.8944908403441
 30
0.0
 10
154.6104726091695
 20
121.9834859232417
 30
0.0
 10
154.5864002974152
 20
122.0114878202408
 30
0.0
 10
154.5280187770646
 20
122.054564220906
 30
0.0
 10
154.4925499494116
 20
122.0694577658337
 30
0.0
 10
154.4551741412629
 20
122.0694577658337
 30
0.0
  0
ELLIPSE
  5
102
330
1F
100
AcDbEntity
  8
0
  6
HIDDEN
 62
     7
370
     0
100
AcDbEllipse
 10
144.4381469708
 20
127.8986707615
 30
0.0
 11
-9.367417879781728
 21
19.74174915274992
 31
0.0
210
0.0
220
0.0
230
1.0
 40
0.3419987131
 41
3.292664382516902
 42
4.239566697061004
  0
SPLINE
  5
103
330
1F
100
AcDbEntity
  8
0
  6
HIDDEN
 62
     7
370
     0
100
AcDbSpline
210
0.0
220
0.0
230
1.0
 70
     8
 71
     3
 72
    12
 73
     8
 74
     0
 42
0.00000001
 43
0.00000001
 12
1.0
 22
0.0
 32
0.0
 13
1.0
 23
0.0
 33
0.0
 40
0.0
 40
0.0
 40
0.0
 40
0.0
 40
0.2500000000000014
 40
0.2500000000000014
 40
0.5000000000000029
 40
0.5000000000000029
 40
1.0
 40
1.0
 40
1.0
 40
1.0
 10
154.4551741412628
 20
108.7670143812521
 30
0.0
 10
154.4926860273075
 20
108.7670143812521
 30
0.0
 10
154.5279733750123
 20
108.7715179255146
 30
0.0
 10
154.5869032232507
 20
108.7848911249679
 30
0.0
 10
154.6104289497198
 20
108.793376027539
 30
0.0
 10
154.6706877374878
 20
108.8211238313736
 30
0.0
 10
154.6962824997771
 20
108.842113695114
 30
0.0
 10
154.7149817623982
 20
108.8639144783035
 30
0.0
  0
LINE
  5
104
330
1F
100
AcDbEntity
  8
0
  6
HIDDEN
 62
     7
370
     0
100
AcDbLine
 10
152.3189780527
 20
108.7670140253
 30
0.0
 11
154.4551740625
 21
108.7670140253
 31
0.0
  0
SPLINE
  5
105
330
1F
100
AcDbEntity
  8
0
  6
HIDDEN
 62
     7
370
     0
100
AcDbSpline
210
0.0
220
0.0
230
1.0
 70
     8
 71
     3
 72
    12
 73
     8
 74
     0
 42
0.00000001
 43
0.00000001
 12
1.0
 22
0.0
 32
0.0
 13
1.0
 23
0.0
 33
0.0
 40
0.0
 40
0.0
 40
0.0
 40
0.0
 40
0.4999999999999977
 40
0.4999999999999977
 40
0.7499999999999988
 40
0.7499999999999988
 40
1.0
 40
1.0
 40
1.0
 40
1.0
 10
152.0591705241259
 20
108.8639144783035
 30
0.0
 10
152.0778637572563
 20
108.8421207246755
 30
0.0
 10
152.1035190546681
 20
108.8211005629659
 30
0.0
 10
152.1636796773546
 20
108.7933952170022
 30
0.0
 10
152.1877519891089
 20
108.7847600008088
 30
0.0
 10
152.2461335094594
 20
108.7715453555822
 30
0.0
 10
152.2816023371125
 20
108.7670143812521
 30
0.0
 10
152.3189781452612
 20
108.7670143812521
 30
0.0
  0
ELLIPSE
  5
106
330
1F
100
AcDbEntity
  8
0
  6
HIDDEN
 62
     7
370
     0
100
AcDbEllipse
 10
162.3360053157
 20
127.8986707615
 30
0.0
 11
9.367417879781641
 21
19.74174915274995
 31
0.0
210
0.0
220
0.0
230
1.0
 40
0.3419987131
 41
2.043618610118591
 42
2.990520924662728
  0
SPLINE
  5
107
330
1F
100
AcDbEntity
  8
0
  6
HIDDEN
 62
     7
370
     0
100
AcDbSpline
210
0.0
220
0.0
230
1.0
 70
     8
 71
     3
 72
    12
 73
     8
 74
     0
 42
0.00000001
 43
0.00000001
 12
1.0
 22
0.0
 32
0.0
 13
1.0
 23
0.0
 33
0.0
 40
0.0
 40
0.0
 40
0.0
 40
0.0
 40
0.2499999999999988
 40
0.2499999999999988
 40
0.4999999999999977
 40
0.4999999999999977
 40
1.0
 40
1.0
 40
1.0
 40
1.0
 10
152.3189781452612
 20
147.0303271417188
 30
0.0
 10
152.2814662592166
 20
147.0303271417188
 30
0.0
 10
152.2461789115118
 20
147.0258235974563
 30
0.0
 10
152.1872490632734
 20
147.012450398003
 30
0.0
 10
152.1637233368043
 20
147.0039654954319
 30
0.0
 10
152.1034645490363
 20
146.9762176915973
 30
0.0
 10
152.077869786747
 20
146.9552278278569
 30
0.0
 10
152.0591705241259
 20
146.9334270446674
 30
0.0
  0
LINE
  5
108
330
1F
100
AcDbEntity
  8
0
  6
HIDDEN
 62
     7
370
     0
100
AcDbLine
 10
154.4551740625
 20
147.0303274976
 30
0.0
 11
152.3189780527
 21
147.0303274976
 31
0.0
  0
SPLINE
  5
109
330
1F
100
AcDbEntity
  8
0
  6
HIDDEN
 62
     7
370
     0
100
AcDbSpline
210
0.0
220
0.0
230
1.0
 70
     8
 71
     3
 72
    12
 73
     8
 74
     0
 42
0.00000001
 43
0.00000001
 12
1.0
 22
0.0
 32
0.0
 13
1.0
 23
0.0
 33
0.0
 40
0.0
 40
0.0
 40
0.0
 40
0.0
 40
0.4999999999999994
 40
0.4999999999999994
 40
0.7499999999999997
 40
0.7499999999999997
 40
1.0
 40
1.0
 40
1.0
 40
1.0
 10
154.7149817623982
 20
146.9334270446674
 30
0.0
 10
154.6962885292677
 20
146.9552207982954
 30
0.0
 10
154.670633231856
 20
146.976240960005
 30
0.0
 10
154.6104726091695
 20
147.0039463059687
 30
0.0
 10
154.5864002974152
 20
147.0125815221621
 30
0.0
 10
154.5280187770646
 20
147.0257961673886
 30
0.0
 10
154.4925499494116
 20
147.0303271417188
 30
0.0
 10
154.4551741412629
 20
147.0303271417188
 30
0.0
  0
ELLIPSE
  5
10A
330
1F
100
AcDbEntity
  8
0
  6
HIDDEN
 62
     7
370
     0
100
AcDbEllipse
 10
144.4381469708
 20
127.8986707615
 30
0.0
 11
9.36741787978184
 21
19.74174915274992
 31
0.0
210
0.0
220
0.0
230
1.0
 40
0.3419987131
 41
5.185211263708413
 42
6.132113578252573
  0
SPLINE
  5
10B
330
1F
100
AcDbEntity
  8
0
  6
HIDDEN
 62
     7
370
     0
100
AcDbSpline
210
0.0
220
0.0
230
1.0
 70
     8
 71
     3
 72
    12
 73
     8
 74
     0
 42
0.00000001
 43
0.00000001
 12
1.0
 22
0.0
 32
0.0
 13
1.0
 23
0.0
 33
0.0
 40
0.0
 40
0.0
 40
0.0
 40
0.0
 40
0.2499999999999981
 40
0.2499999999999981
 40
0.4999999999999962
 40
0.4999999999999962
 40
1.0
 40
1.0
 40
1.0
 40
1.0
 10
154.4551741412629
 20
133.7278837571373
 30
0.0
 10
154.4926860273075
 20
133.7278837571373
 30
0.0
 10
154.5279733750122
 20
133.7426885714241
 30
0.0
 10
154.5869032232506
 20
133.7862804445499
 30
0.0
 10
154.6104289497197
 20
133.8137938706359
 30
0.0
 10
154.6706877374878
 20
133.9029256027495
 30
0.0
 10
154.6962824997771
 20
133.9693114533673
 30
0.0
 10
154.7149817623982
 20
134.0369158885447
 30
0.0
  0
LINE
  5
10C
330
1F
100
AcDbEntity
  8
0
  6
HIDDEN
 62
     7
370
     0
100
AcDbLine
 10
152.3189780527
 20
133.7278839486
 30
0.0
 11
154.4551740625
 21
133.7278839486
 31
0.0
  0
SPLINE
  5
10D
330
1F
100
AcDbEntity
  8
0
  6
HIDDEN
 62
     7
370
     0
100
AcDbSpline
210
0.0
220
0.0
230
1.0
 70
     8
 71
     3
 72
    12
 73
     8
 74
     0
 42
0.00000001
 43
0.00000001
 12
1.0
 22
0.0
 32
0.0
 13
1.0
 23
0.0
 33
0.0
 40
0.0
 40
0.0
 40
0.0
 40
0.0
 40
0.499999999999999
 40
0.499999999999999
 40
0.7499999999999994
 40
0.7499999999999994
 40
1.0
 40
1.0
 40
1.0
 40
1.0
 10
152.0591705241259
 20
134.0369158885447
 30
0.0
 10
152.0778637572563
 20
133.9693332521043
 30
0.0
 10
152.1035190546681
 20
133.9028506826269
 30
0.0
 10
152.1636796773546
 20
133.8138555997294
 30
0.0
 10
152.1877519891089
 20
133.7858537027302
 30
0.0
 10
152.2461335094594
 20
133.742777302065
 30
0.0
 10
152.2816023371125
 20
133.7278837571373
 30
0.0
 10
152.3189781452612
 20
133.7278837571373
 30
0.0
  0
ELLIPSE
  5
10E
330
1F
100
AcDbEntity
  8
0
  6
HIDDEN
 62
     7
370
     0
100
AcDbEllipse
 10
162.3360053157
 20
127.8986707615
 30
0.0
 11
-9.367417879781669
 21
19.74174915274995
 31
0.0
210
0.0
220
0.0
230
1.0
 40
0.3419987131
 41
0.1510717289270586
 42
1.09797404347119
  0
LINE
  5
10F
330
1F
100
AcDbEntity
  8
0
  6
HIDDEN
 62
     7
370
     0
100
AcDbLine
 10
145.3870761433
 20
108.1986706989
 30
0.0
 11
145.3870761433
 21
147.5986708241
 31
0.0
  0
LINE
  5
110
330
1F
100
AcDbEntity
  8
0
  6
HIDDEN
 62
     7
370
     0
100
AcDbLine
 10
165.3870756962
 20
109.8986715363
 30
0.0
 11
165.3870756962
 21
145.8800174581
 31
0.0
  0
SPLINE
  5
111
330
1F
100
AcDbEntity
  8
0
  6
HIDDEN
 62
     7
370
     0
100
AcDbSpline
210
0.0
220
0.0
230
1.0
 70
     8
 71
     3
 72
    68
 73
    64
 74
     0
 42
0.00000001
 43
0.00000001
 12
1.0
 22
0.0
 32
0.0
 13
1.0
 23
0.0
 33
0.0
 40
-0.03125
 40
-0.03125
 40
0.0
 40
0.0
 40
0.0312499999999999
 40
0.0312499999999999
 40
0.0624999999999999
 40
0.0624999999999999
 40
0.0937499999999998
 40
0.0937499999999998
 40
0.1249999999999997
 40
0.1249999999999997
 40
0.1562499999999997
 40
0.1562499999999997
 40
0.1874999999999996
 40
0.1874999999999996
 40
0.2187499999999995
 40
0.2187499999999995
 40
0.2499999999999994
 40
0.2499999999999994
 40
0.2812499999999994
 40
0.2812499999999994
 40
0.3124999999999993
 40
0.3124999999999993
 40
0.3437499999999993
 40
0.3437499999999993
 40
0.3749999999999993
 40
0.3749999999999993
 40
0.4062499999999993
 40
0.4062499999999993
 40
0.4374999999999992
 40
0.4374999999999992
 40
0.4687499999999992
 40
0.4687499999999992
 40
0.4999999999999992
 40
0.4999999999999992
 40
0.5312499999999992
 40
0.5312499999999992
 40
0.5624999999999993
 40
0.5624999999999993
 40
0.5937499999999993
 40
0.5937499999999993
 40
0.6249999999999993
 40
0.6249999999999993
 40
0.6562499999999994
 40
0.6562499999999994
 40
0.6874999999999994
 40
0.6874999999999994
 40
0.7187499999999996
 40
0.7187499999999996
 40
0.7499999999999996
 40
0.7499999999999996
 40
0.7812499999999996
 40
0.7812499999999996
 40
0.8124999999999997
 40
0.8124999999999997
 40
0.8437499999999997
 40
0.8437499999999997
 40
0.8749999999999997
 40
0.8749999999999997
 40
0.9374999999999999
 40
0.9374999999999999
 40
0.96875
 40
0.96875
 40
1.0
 40
1.0
 40
1.03125
 40
1.03125
 10
215.5857424887764
 20
135.608423594398
 30
0.0
 10
215.1884097977476
 20
135.608423594398
 30
0.0
 10
214.9931533012754
 20
135.5910048862022
 30
0.0
 10
214.6091528443967
 20
135.5226975597571
 30
0.0
 10
214.4183878850636
 20
135.4709495483353
 30
0.0
 10
214.0553133570626
 20
135.3357915436883
 30
0.0
 10
213.8831815882313
 20
135.2529771393203
 30
0.0
 10
213.5574163431128
 20
135.0565659638777
 30
0.0
 10
213.4035244901837
 20
134.9421510156504
 30
0.0
 10
213.1274935464429
 20
134.6909799839755
 30
0.0
 10
213.0034671416641
 20
134.553292154725
 30
0.0
 10
212.7841337899091
 20
134.25218102357
 30
0.0
 10
212.691211824702
 20
134.0915977936625
 30
0.0
 10
212.5414409929289
 20
133.7565023813424
 30
0.0
 10
212.4835964278093
 20
133.5795067383849
 30
0.0
 10
212.4063535970335
 20
133.2154161680625
 30
0.0
 10
212.3871913961216
 20
133.0311384071719
 30
0.0
 10
212.3869619171108
 20
132.6580851386886
 30
0.0
 10
212.4065425877072
 20
132.4674150222853
 30
0.0
 10
212.4832688923404
 20
132.0968079790794
 30
0.0
 10
212.5400328929745
 20
131.9155528723325
 30
0.0
 10
212.6906777015879
 20
131.561509098309
 30
0.0
 10
212.7844131439369
 20
131.3901949179091
 30
0.0
 10
213.0013243836285
 20
131.071027389461
 30
0.0
 10
213.1257879219235
 20
130.9207639758678
 30
0.0
 10
213.4047539883163
 20
130.6437964650249
 30
0.0
 10
213.5557478290086
 20
130.5203636187669
 30
0.0
 10
213.8801763444613
 20
130.3031790239114
 30
0.0
 10
214.0557654614845
 20
130.2086770900274
 30
0.0
 10
214.41843276154
 20
130.0573482492563
 30
0.0
 10
214.6054154701795
 20
129.9999415558063
 30
0.0
 10
214.9907692938494
 20
129.9221010151201
 30
0.0
 10
215.1898654509195
 20
129.9021641609457
 30
0.0
 10
215.5818798595698
 20
129.9020053199519
 30
0.0
 10
215.7770011352328
 20
129.9211510651164
 30
0.0
 10
216.1654209672275
 20
129.99894095748
 30
0.0
 10
216.3541055732692
 20
130.0568543603734
 30
0.0
 10
216.7153154196226
 20
130.2072182517808
 30
0.0
 10
216.8904209967789
 20
130.3010193066835
 30
0.0
 10
217.2172789570709
 20
130.5193932005952
 30
0.0
 10
217.36805805142
 20
130.6427756764419
 30
0.0
 10
217.6448527702742
 20
130.9169730698327
 30
0.0
 10
217.771429575601
 20
131.0692000574908
 30
0.0
 10
217.9888773093279
 20
131.3886989859892
 30
0.0
 10
218.0812577730026
 20
131.5571045037316
 30
0.0
 10
218.2326120887924
 20
131.9112247009855
 30
0.0
 10
218.2903766672402
 20
132.0951504582644
 30
0.0
 10
218.3671481567426
 20
132.4644054868896
 30
0.0
 10
218.3869284433682
 20
132.6523719697736
 30
0.0
 10
218.3872221947878
 20
133.0292834369315
 30
0.0
 10
218.3679281607315
 20
133.2137183608052
 30
0.0
 10
218.2917503502053
 20
133.5749452506318
 30
0.0
 10
218.2338542134904
 20
133.7535492550131
 30
0.0
 10
218.0836614711227
 20
134.0903757087549
 30
0.0
 10
217.9916702851827
 20
134.2494306722487
 30
0.0
 10
217.77382371864
 20
134.549455583897
 30
0.0
 10
217.6477820710733
 20
134.6897995762216
 30
0.0
 10
217.2342670302019
 20
135.0665451161602
 30
0.0
 10
216.9004255708321
 20
135.2678647978593
 30
0.0
 10
216.359302618701
 20
135.4697954730767
 30
0.0
 10
216.1692218962191
 20
135.5217887771424
 30
0.0
 10
215.7818871702445
 20
135.5910025040628
 30
0.0
 10
215.5857424887764
 20
135.608423594398
 30
0.0
 10
215.1884097977476
 20
135.608423594398
 30
0.0
  0
LINE
  5
112
330
1F
100
AcDbEntity
  8
0
  6
HIDDEN
 62
     7
370
     0
100
AcDbLine
 10
145.3870761433
 20
112.0986715244
 30
0.0
 11
145.3870761433
 21
143.6802204983
 31
0.0
  0
SPLINE
  5
113
330
1F
100
AcDbEntity
  8
0
  6
HIDDEN
 62
     7
370
     0
100
AcDbSpline
210
0.0
220
0.0
230
1.0
 70
     8
 71
     3
 72
    18
 73
    14
 74
     0
 42
0.00000001
 43
0.00000001
 12
1.0
 22
0.0
 32
0.0
 13
1.0
 23
0.0
 33
0.0
 40
0.0
 40
0.0
 40
0.0
 40
0.0
 40
0.2499999999999992
 40
0.2499999999999992
 40
0.4999999999999984
 40
0.4999999999999984
 40
0.6249999999999988
 40
0.6249999999999988
 40
0.7499999999999992
 40
0.7499999999999992
 40
0.8749999999999996
 40
0.8749999999999996
 40
1.0
 40
1.0
 40
1.0
 40
1.0
 10
144.1309918256991
 20
137.7231106796367
 30
0.0
 10
144.1652928702318
 20
137.6151004938391
 30
0.0
 10
144.2031131415285
 20
137.5078234058112
 30
0.0
 10
144.2897314619894
 20
137.2963267084946
 30
0.0
 10
144.3381027967329
 20
137.1919403583249
 30
0.0
 10
144.4275057788514
 20
137.0410654356806
 30
0.0
 10
144.4601030627286
 20
136.9917204326451
 30
0.0
 10
144.5364849666735
 20
136.8971147941748
 30
0.0
 10
144.5795234040143
 20
136.8521188594202
 30
0.0
 10
144.6853364368461
 20
136.7811910867623
 30
0.0
 10
144.7503748615772
 20
136.7572445428558
 30
0.0
 10
144.8835269333799
 20
136.7695252069266
 30
0.0
 10
144.942896113843
 20
136.8028421649315
 30
0.0
 10
144.9920992543868
 20
136.8436770511562
 30
0.0
  0
SPLINE
  5
114
330
1F
100
AcDbEntity
  8
0
  6
HIDDEN
 62
     7
370
     0
100
AcDbSpline
210
0.0
220
0.0
230
1.0
 70
     8
 71
     3
 72
    16
 73
    12
 74
     0
 42
0.00000001
 43
0.00000001
 12
1.0
 22
0.0
 32
0.0
 13
1.0
 23
0.0
 33
0.0
 40
0.0
 40
0.0
 40
0.0
 40
0.0
 40
0.0625000000000017
 40
0.0625000000000017
 40
0.1250000000000033
 40
0.1250000000000033
 40
0.2500000000000067
 40
0.2500000000000067
 40
0.5000000000000044
 40
0.5000000000000044
 40
1.0
 40
1.0
 40
1.0
 40
1.0
 10
144.992099254356
 20
136.8436770511856
 30
0.0
 10
145.0041690876318
 20
136.853694100166
 30
0.0
 10
145.0184447425651
 20
136.8626532072216
 30
0.0
 10
145.0499091546895
 20
136.8705236026158
 30
0.0
 10
145.0654096794999
 20
136.8681661119735
 30
0.0
 10
145.1008485761068
 20
136.8511904197956
 30
0.0
 10
145.1144411922102
 20
136.8306419286279
 30
0.0
 10
145.147435510603
 20
136.7686996016143
 30
0.0
 10
145.1582229039218
 20
136.7223040514091
 30
0.0
 10
145.1832761512009
 20
136.5793680227146
 30
0.0
 10
145.1870761432622
 20
136.4798053058291
 30
0.0
 10
145.1870761432622
 20
136.3780379011826
 30
0.0
  0
LINE
  5
115
330
1F
100
AcDbEntity
  8
0
  6
HIDDEN
 62
     7
370
     0
100
AcDbLine
 10
145.1870761483
 20
119.4193037512
 30
0.0
 11
145.1870761483
 21
136.3780377718
 31
0.0
  0
SPLINE
  5
116
330
1F
100
AcDbEntity
  8
0
  6
HIDDEN
 62
     7
370
     0
100
AcDbSpline
210
0.0
220
0.0
230
1.0
 70
     8
 71
     3
 72
    16
 73
    12
 74
     0
 42
0.00000001
 43
0.00000001
 12
1.0
 22
0.0
 32
0.0
 13
1.0
 23
0.0
 33
0.0
 40
0.0
 40
0.0
 40
0.0
 40
0.0
 40
0.4999999999999963
 40
0.4999999999999963
 40
0.7499999999999992
 40
0.7499999999999992
 40
0.8750000000000009
 40
0.8750000000000009
 40
0.9375000000000004
 40
0.9375000000000004
 40
1.0
 40
1.0
 40
1.0
 40
1.0
 10
145.187076143262
 20
119.4193036217881
 30
0.0
 10
145.187076143262
 20
119.317293468208
 30
0.0
 10
145.1831927181031
 20
119.2177690929548
 30
0.0
 10
145.1583773928284
 20
119.0757839969442
 30
0.0
 10
145.147537945116
 20
119.0287906963737
 30
0.0
 10
145.1143221630671
 20
118.9664979660121
 30
0.0
 10
145.1009404194384
 20
118.946216533727
 30
0.0
 10
145.0654307695761
 20
118.9291748255265
 30
0.0
 10
145.0500138030753
 20
118.9267885705104
 30
0.0
 10
145.0183127809267
 20
118.9347245003684
 30
0.0
 10
145.0041664959759
 20
118.943649573743
 30
0.0
 10
144.9920992543863
 20
118.9536644718149
 30
0.0
  0
SPLINE
  5
117
330
1F
100
AcDbEntity
  8
0
  6
HIDDEN
 62
     7
370
     0
100
AcDbSpline
210
0.0
220
0.0
230
1.0
 70
     8
 71
     3
 72
    18
 73
    14
 74
     0
 42
0.00000001
 43
0.00000001
 12
1.0
 22
0.0
 32
0.0
 13
1.0
 23
0.0
 33
0.0
 40
0.0
 40
0.0
 40
0.0
 40
0.0
 40
0.1250000000000003
 40
0.1250000000000003
 40
0.2500000000000006
 40
0.2500000000000006
 40
0.3750000000000008
 40
0.3750000000000008
 40
0.5000000000000011
 40
0.5000000000000011
 40
0.7500000000000006
 40
0.7500000000000006
 40
1.0
 40
1.0
 40
1.0
 40
1.0
 10
144.9920992543925
 20
118.9536644718223
 30
0.0
 10
144.9433937622503
 20
118.9940863475038
 30
0.0
 10
144.8848836539235
 20
119.0271184689715
 30
0.0
 10
144.7531545356314
 20
119.0403956209244
 30
0.0
 10
144.6883955992908
 20
119.0174420339442
 30
0.0
 10
144.5831846264313
 20
118.9483888370246
 30
0.0
 10
144.5399682509913
 20
118.9039211851837
 30
0.0
 10
144.4637897458794
 20
118.8107515258137
 30
0.0
 10
144.4309347844995
 20
118.7616091562529
 30
0.0
 10
144.3405665046657
 20
118.6103994213131
 30
0.0
 10
144.2911432702956
 20
118.5042446517848
 30
0.0
 10
144.2034948152474
 20
118.2906630361233
 30
0.0
 10
144.1654356430446
 20
118.1826906048881
 30
0.0
 10
144.1309918256991
 20
118.0742308433341
 30
0.0
  0
SPLINE
  5
118
330
1F
100
AcDbEntity
  8
0
  6
HIDDEN
 62
     7
370
     0
100
AcDbSpline
210
0.0
220
0.0
230
1.0
 70
     8
 71
     3
 72
     8
 73
     4
 74
     0
 42
0.00000001
 43
0.00000001
 12
1.0
 22
0.0
 32
0.0
 13
1.0
 23
0.0
 33
0.0
 40
0.0
 40
0.0
 40
0.0
 40
0.0
 40
1.0
 40
1.0
 40
1.0
 40
1.0
 10
144.1309918256985
 20
118.0742308433336
 30
0.0
 10
144.1066781218084
 20
117.9976696857835
 30
0.0
 10
144.0851814798523
 20
117.9212443146503
 30
0.0
 10
144.0657557997023
 20
117.8451514438786
 30
0.0
  0
SPLINE
  5
119
330
1F
100
AcDbEntity
  8
0
  6
HIDDEN
 62
     7
370
     0
100
AcDbSpline
210
0.0
220
0.0
230
1.0
 70
     8
 71
     3
 72
     8
 73
     4
 74
     0
 42
0.00000001
 43
0.00000001
 12
1.0
 22
0.0
 32
0.0
 13
1.0
 23
0.0
 33
0.0
 40
0.0
 40
0.0
 40
0.0
 40
0.0
 40
1.0
 40
1.0
 40
1.0
 40
1.0
 10
144.0657557997023
 20
114.0736067534802
 30
0.0
 10
144.0851812265956
 20
114.0701095498929
 30
0.0
 10
144.1066777805647
 20
114.0680932322507
 30
0.0
 10
144.1309918256991
 20
114.0674823788068
 30
0.0
  0
SPLINE
  5
11A
330
1F
100
AcDbEntity
  8
0
  6
HIDDEN
 62
     7
370
     0
100
AcDbSpline
210
0.0
220
0.0
230
1.0
 70
     8
 71
     3
 72
     8
 73
     4
 74
     0
 42
0.00000001
 43
0.00000001
 12
1.0
 22
0.0
 32
0.0
 13
1.0
 23
0.0
 33
0.0
 40
0.0
 40
0.0
 40
0.0
 40
0.0
 40
1.0
 40
1.0
 40
1.0
 40
1.0
 10
145.1642251301561
 20
113.9781239877487
 30
0.0
 10
145.1831620623219
 20
113.9501695503472
 30
0.0
 10
145.1870761432621
 20
113.9300856989909
 30
0.0
 10
145.1870761432622
 20
113.9138588548255
 30
0.0
  0
LINE
  5
11B
330
1F
100
AcDbEntity
  8
0
  6
HIDDEN
 62
     7
370
     0
100
AcDbLine
 10
145.1870761483
 20
113.8088507863
 30
0.0
 11
145.1870761483
 21
113.9138592692
 31
0.0
  0
LINE
  5
11C
330
1F
100
AcDbEntity
  8
0
  6
HIDDEN
 62
     7
370
     0
100
AcDbLine
 10
145.1870761483
 20
141.8834822537
 30
0.0
 11
145.1870761483
 21
141.9884907367
 31
0.0
  0
SPLINE
  5
11D
330
1F
100
AcDbEntity
  8
0
  6
HIDDEN
 62
     7
370
     0
100
AcDbSpline
210
0.0
220
0.0
230
1.0
 70
     8
 71
     3
 72
    10
 73
     6
 74
     0
 42
0.00000001
 43
0.00000001
 12
1.0
 22
0.0
 32
0.0
 13
1.0
 23
0.0
 33
0.0
 40
0.0
 40
0.0
 40
0.0
 40
0.0
 40
0.5
 40
0.5
 40
1.0
 40
1.0
 40
1.0
 40
1.0
 10
145.187076143262
 20
141.8834826681455
 30
0.0
 10
145.187076143262
 20
141.8733564680254
 30
0.0
 10
145.1850675642165
 20
141.8615958754717
 30
0.0
 10
145.1738843363111
 20
141.8336146607214
 30
0.0
 10
145.1655832026366
 20
141.8176343463837
 30
0.0
 10
145.1467368133944
 20
141.7972782643561
 30
0.0
  0
SPLINE
  5
11E
330
1F
100
AcDbEntity
  8
0
  6
HIDDEN
 62
     7
370
     0
100
AcDbSpline
210
0.0
220
0.0
230
1.0
 70
     8
 71
     3
 72
     8
 73
     4
 74
     0
 42
0.00000001
 43
0.00000001
 12
1.0
 22
0.0
 32
0.0
 13
1.0
 23
0.0
 33
0.0
 40
0.0
 40
0.0
 40
0.0
 40
0.0
 40
1.0
 40
1.0
 40
1.0
 40
1.0
 10
144.1309918256987
 20
141.729859144164
 30
0.0
 10
144.1066777805644
 20
141.7292482907201
 30
0.0
 10
144.0851812265956
 20
141.7272319730779
 30
0.0
 10
144.0657557997023
 20
141.7237347694906
 30
0.0
  0
SPLINE
  5
11F
330
1F
100
AcDbEntity
  8
0
  6
HIDDEN
 62
     7
370
     0
100
AcDbSpline
210
0.0
220
0.0
230
1.0
 70
     8
 71
     3
 72
     8
 73
     4
 74
     0
 42
0.00000001
 43
0.00000001
 12
1.0
 22
0.0
 32
0.0
 13
1.0
 23
0.0
 33
0.0
 40
0.0
 40
0.0
 40
0.0
 40
0.0
 40
1.0
 40
1.0
 40
1.0
 40
1.0
 10
144.0657557997023
 20
137.9521900790922
 30
0.0
 10
144.0851814798523
 20
137.8760972083205
 30
0.0
 10
144.1066781218083
 20
137.7996718371873
 30
0.0
 10
144.1309918256984
 20
137.7231106796372
 30
0.0
  0
LINE
  5
120
330
1F
100
AcDbEntity
  8
0
  6
HIDDEN
 62
     7
370
     0
100
AcDbLine
 10
145.1870761483
 20
113.9138592692
 30
0.0
 11
145.1870761483
 21
122.3932258139
 31
0.0
  0
LINE
  5
121
330
1F
100
AcDbEntity
  8
0
  6
HIDDEN
 62
     7
370
     0
100
AcDbLine
 10
145.1870761483
 20
133.4041157091
 30
0.0
 11
145.1870761483
 21
141.8834822537
 31
0.0
  0
SPLINE
  5
122
330
1F
100
AcDbEntity
  8
0
  6
HIDDEN
 62
     7
370
     0
100
AcDbSpline
210
0.0
220
0.0
230
1.0
 70
     8
 71
     3
 72
    60
 73
    56
 74
     0
 42
0.00000001
 43
0.00000001
 12
1.0
 22
0.0
 32
0.0
 13
1.0
 23
0.0
 33
0.0
 40
-0.031249999999999
 40
-0.031249999999999
 40
0.0
 40
0.0
 40
0.0312499999999984
 40
0.0312499999999984
 40
0.0624999999999968
 40
0.0624999999999968
 40
0.1249999999999958
 40
0.1249999999999958
 40
0.1562499999999962
 40
0.1562499999999962
 40
0.1874999999999966
 40
0.1874999999999966
 40
0.2187499999999969
 40
0.2187499999999969
 40
0.2499999999999973
 40
0.2499999999999973
 40
0.3124999999999981
 40
0.3124999999999981
 40
0.3749999999999988
 40
0.3749999999999988
 40
0.4062499999999992
 40
0.4062499999999992
 40
0.4374999999999996
 40
0.4374999999999996
 40
0.4687499999999999
 40
0.4687499999999999
 40
0.5000000000000003
 40
0.5000000000000003
 40
0.5312500000000007
 40
0.5312500000000007
 40
0.5625000000000011
 40
0.5625000000000011
 40
0.6250000000000018
 40
0.6250000000000018
 40
0.6562500000000022
 40
0.6562500000000022
 40
0.6875000000000026
 40
0.6875000000000026
 40
0.718750000000003
 40
0.718750000000003
 40
0.7500000000000033
 40
0.7500000000000033
 40
0.7812500000000037
 40
0.7812500000000037
 40
0.8125000000000041
 40
0.8125000000000041
 40
0.8750000000000038
 40
0.8750000000000038
 40
0.9062500000000029
 40
0.9062500000000029
 40
0.9375000000000019
 40
0.9375000000000019
 40
0.968750000000001
 40
0.968750000000001
 40
1.0
 40
1.0
 40
1.031249999999998
 40
1.031249999999998
 10
215.5566037398326
 20
129.2142417264101
 30
0.0
 10
215.2175485466915
 20
129.2142417264101
 30
0.0
 10
215.051950698984
 20
129.1941399899799
 30
0.0
 10
214.7278306223113
 20
129.1172465635011
 30
0.0
 10
214.5680205579857
 20
129.0594925429067
 30
0.0
 10
214.1186789554443
 20
128.8421677727985
 30
0.0
 10
213.8489962156689
 20
128.6354117600044
 30
0.0
 10
213.5108114269114
 20
128.26760395566
 30
0.0
 10
213.4072449932874
 20
128.133074873641
 30
0.0
 10
213.2267935309875
 20
127.8508601952835
 30
0.0
 10
213.1496715647253
 20
127.7035211883411
 30
0.0
 10
213.0222536799181
 20
127.3962502598106
 30
0.0
 10
212.9717894871169
 20
127.2342456675486
 30
0.0
 10
212.9049480744345
 20
126.9132909885411
 30
0.0
 10
212.8876298728854
 20
126.7529996579959
 30
0.0
 10
212.886007480952
 20
126.2729963375766
 30
0.0
 10
212.9544954514957
 20
125.9667024900951
 30
0.0
 10
213.2085457578665
 20
125.4341588880565
 30
0.0
 10
213.3931286572219
 20
125.2065346803102
 30
0.0
 10
213.730497127645
 20
124.9329284000356
 30
0.0
 10
213.8544862966119
 20
124.8517484610246
 30
0.0
 10
214.1206550418293
 20
124.7117505841017
 30
0.0
 10
214.2611917226533
 20
124.6535023501847
 30
0.0
 10
214.5588500579513
 20
124.5584568112743
 30
0.0
 10
214.7183174354938
 20
124.5213847473845
 30
0.0
 10
215.0439348196274
 20
124.4720418097666
 30
0.0
 10
215.2099018020145
 20
124.4593497053288
 30
0.0
 10
215.5487350480775
 20
124.4585860682441
 30
0.0
 10
215.7157257269127
 20
124.4706272510389
 30
0.0
 10
216.0413506407035
 20
124.5184750218779
 30
0.0
 10
216.2014818132606
 20
124.5548323784451
 30
0.0
 10
216.6521869726188
 20
124.6964757001953
 30
0.0
 10
216.9224454737696
 20
124.8362953623679
 30
0.0
 10
217.2621602026714
 20
125.1093413728529
 30
0.0
 10
217.3661188465468
 20
125.2125514417069
 30
0.0
 10
217.5464279391684
 20
125.4367230103433
 30
0.0
 10
217.623861647761
 20
125.5582556775481
 30
0.0
 10
217.7521105026057
 20
125.8232686447309
 30
0.0
 10
217.8024257935224
 20
125.9672125831469
 30
0.0
 10
217.8691740400138
 20
126.2638335738845
 30
0.0
 10
217.88664754921
 20
126.4182717867634
 30
0.0
 10
217.8874893317404
 20
126.7406236568621
 30
0.0
 10
217.8707292342085
 20
126.9026026317689
 30
0.0
 10
217.8049770907046
 20
127.2248547604662
 30
0.0
 10
217.755122229931
 20
127.3870858324175
 30
0.0
 10
217.5641574443635
 20
127.8516689279492
 30
0.0
 10
217.3788613113936
 20
128.1413665796516
 30
0.0
 10
217.0399724105737
 20
128.5108325967378
 30
0.0
 10
216.9147904881706
 20
128.6252432952771
 30
0.0
 10
216.6488553521972
 20
128.8261674298792
 30
0.0
 10
216.5079997687984
 20
128.9133009690174
 30
0.0
 10
216.2083331723143
 20
129.0586175585528
 30
0.0
 10
216.0479549901796
 20
129.1167529476333
 30
0.0
 10
215.7232178501309
 20
129.194004161787
 30
0.0
 10
215.5566037398326
 20
129.2142417264101
 30
0.0
 10
215.2175485466915
 20
129.2142417264101
 30
0.0
  0
SPLINE
  5
123
330
1F
100
AcDbEntity
  8
0
  6
HIDDEN
 62
     7
370
     0
100
AcDbSpline
210
0.0
220
0.0
230
1.0
 70
     8
 71
     3
 72
    64
 73
    60
 74
     0
 42
0.00000001
 43
0.00000001
 12
1.0
 22
0.0
 32
0.0
 13
1.0
 23
0.0
 33
0.0
 40
-0.0312499999999999
 40
-0.0312499999999999
 40
0.0
 40
0.0
 40
0.0312500000000008
 40
0.0312500000000008
 40
0.0625000000000016
 40
0.0625000000000016
 40
0.1250000000000033
 40
0.1250000000000033
 40
0.1562500000000042
 40
0.1562500000000042
 40
0.187500000000005
 40
0.187500000000005
 40
0.2187500000000058
 40
0.2187500000000058
 40
0.2500000000000066
 40
0.2500000000000066
 40
0.312500000000008
 40
0.312500000000008
 40
0.3437500000000077
 40
0.3437500000000077
 40
0.3750000000000074
 40
0.3750000000000074
 40
0.406250000000007
 40
0.406250000000007
 40
0.4375000000000067
 40
0.4375000000000067
 40
0.4687500000000063
 40
0.4687500000000063
 40
0.500000000000006
 40
0.500000000000006
 40
0.5312500000000057
 40
0.5312500000000057
 40
0.5625000000000054
 40
0.5625000000000054
 40
0.5937500000000051
 40
0.5937500000000051
 40
0.6250000000000048
 40
0.6250000000000048
 40
0.6562500000000046
 40
0.6562500000000046
 40
0.6875000000000042
 40
0.6875000000000042
 40
0.718750000000004
 40
0.718750000000004
 40
0.7500000000000037
 40
0.7500000000000037
 40
0.8125000000000024
 40
0.8125000000000024
 40
0.8750000000000011
 40
0.8750000000000011
 40
0.9062500000000007
 40
0.9062500000000007
 40
0.9375000000000001
 40
0.9375000000000001
 40
0.9531250000000001
 40
0.9531250000000001
 40
0.9687500000000001
 40
0.9687500000000001
 40
1.0
 40
1.0
 40
1.031250000000001
 40
1.031250000000001
 10
217.5129813062006
 20
125.9751224003787
 30
0.0
 10
217.5838676052926
 20
125.9401759936369
 30
0.0
 10
217.6234251702173
 20
125.9067352323159
 30
0.0
 10
217.6995772694625
 20
125.8184364024804
 30
0.0
 10
217.7364003443781
 20
125.7633128444845
 30
0.0
 10
217.8337622993347
 20
125.5680069244243
 30
0.0
 10
217.8789320709592
 20
125.4047745046387
 30
0.0
 10
217.889692662647
 20
125.1056176738902
 30
0.0
 10
217.8834601043226
 20
124.9986710898667
 30
0.0
 10
217.8473573369968
 20
124.7717483611617
 30
0.0
 10
217.816738360031
 20
124.6496657340231
 30
0.0
 10
217.7308816212122
 20
124.4033335501885
 30
0.0
 10
217.6755309165146
 20
124.2775635524002
 30
0.0
 10
217.5387440679119
 20
124.0228223235693
 30
0.0
 10
217.4605158420149
 20
123.8996783668652
 30
0.0
 10
217.1997055688631
 20
123.5411774175162
 30
0.0
 10
216.9951640639458
 20
123.3252012679743
 30
0.0
 10
216.6952100626861
 20
123.0536065784645
 30
0.0
 10
216.595970703297
 20
122.9709919600468
 30
0.0
 10
216.401813849922
 20
122.8174009662323
 30
0.0
 10
216.3074377209084
 20
122.7469673720335
 30
0.0
 10
216.1337552723757
 20
122.6179798154264
 30
0.0
 10
216.0534933706967
 20
122.5588391433168
 30
0.0
 10
215.9151413764152
 20
122.445988361761
 30
0.0
 10
215.8588992421548
 20
122.3936025761431
 30
0.0
 10
215.7881506751675
 20
122.2929109250786
 30
0.0
 10
215.7753809862042
 20
122.2451918353001
 30
0.0
 10
215.8018186579449
 20
122.1588598526688
 30
0.0
 10
215.8411943408032
 20
122.1198318094227
 30
0.0
 10
215.9546370348635
 20
122.0582720287042
 30
0.0
 10
216.0287584853552
 20
122.0352190034946
 30
0.0
 10
216.1927664432211
 20
122.0086736312299
 30
0.0
 10
216.2835006630233
 20
122.0047464828411
 30
0.0
 10
216.4763694067202
 20
122.0192518600989
 30
0.0
 10
216.5760272244072
 20
122.0375077998967
 30
0.0
 10
216.7778162718806
 20
122.09901338405
 30
0.0
 10
216.8811076881594
 20
122.14286627864
 30
0.0
 10
217.0824366657432
 20
122.2588523425807
 30
0.0
 10
217.1797364148502
 20
122.3302098185654
 30
0.0
 10
217.3647866560021
 20
122.5042504083944
 30
0.0
 10
217.4509732141174
 20
122.6061021483007
 30
0.0
 10
217.6015241956399
 20
122.8324262809867
 30
0.0
 10
217.6678560942718
 20
122.9603290594373
 30
0.0
 10
217.7732694115866
 20
123.2291817848913
 30
0.0
 10
217.8131793040722
 20
123.370916302343
 30
0.0
 10
217.8954324007143
 20
123.8088891398956
 30
0.0
 10
217.8980496443615
 20
124.1081029699256
 30
0.0
 10
217.8360685725577
 20
124.6704951944433
 30
0.0
 10
217.7703036404258
 20
124.9406571494543
 30
0.0
 10
217.6559010777531
 20
125.301684822275
 30
0.0
 10
217.6150337966087
 20
125.4154739730674
 30
0.0
 10
217.5379284291345
 20
125.6262048162032
 30
0.0
 10
217.5026506855497
 20
125.7206203534877
 30
0.0
 10
217.470748440913
 20
125.8336950758354
 30
0.0
 10
217.4639415154503
 20
125.8657660658302
 30
0.0
 10
217.4595834783547
 20
125.9175896359658
 30
0.0
 10
217.4621994114462
 20
125.9372160471577
 30
0.0
 10
217.4826339950213
 20
125.975525575211
 30
0.0
 10
217.5129813062006
 20
125.9751224003787
 30
0.0
 10
217.5838676052926
 20
125.9401759936369
 30
0.0
  0
LWPOLYLINE
  5
124
330
1F
100
AcDbEntity
  8
0
  6
HIDDEN
 62
     7
370
     0
100
AcDbPolyline
 90
       26
 70
   128
 43
0.0
 10
215.3870764413
 20
126.2590911059
 10
216.0087975898
 20
126.1843930982
 10
216.5914627948
 20
125.9649928246
 10
217.0984450021
 20
125.6146757217
 10
217.4978929796
 20
125.1554538315
 10
217.7647206225
 20
124.6161815064
 10
217.8821417727
 20
124.0307430556
 10
217.8427952566
 20
123.4359243238
 10
217.6491472163
 20
122.8690995189
 10
217.3133569994
 20
122.3658840457
 10
216.8565395513
 20
121.9578977028
 10
216.3073870578
 20
121.6707746783
 10
215.7004106083
 20
121.5225570189
 10
215.0737422743
 20
121.5225570189
 10
214.4667658248
 20
121.6707746783
 10
213.9176133313
 20
121.9578977028
 10
213.4607958832
 20
122.3658840457
 10
213.1250056663
 20
122.8690995189
 10
212.931357626
 20
123.4359243238
 10
212.8920111098
 20
124.0307430556
 10
213.00943226
 20
124.6161815064
 10
213.276259903
 20
125.1554538315
 10
213.6757078805
 20
125.6146757217
 10
214.1826900878
 20
125.9649928246
 10
214.7653478422
 20
126.1843930982
 10
215.3870764413
 20
126.2590911059
  0
CIRCLE
  5
125
330
1F
100
AcDbEntity
  8
0
  6
HIDDEN
 62
     7
370
     0
100
AcDbCircle
 10
133.8870761433
 20
127.8986707615
 30
0.0
 40
2.300000000000011
  0
LINE
  5
126
330
1F
100
AcDbEntity
  8
0
  6
HIDDEN
 62
     7
370
     0
100
AcDbLine
 10
122.4141086676
 20
137.4613642978
 30
0.0
 11
122.4141086676
 21
118.3359772252
 31
0.0
  0
LINE
  5
127
330
1F
100
AcDbEntity
  8
0
  6
HIDDEN
 62
     7
370
     0
100
AcDbLine
 10
121.3870759346
 20
117.7430199744
 30
0.0
 11
121.3870759346
 21
138.0543215485
 31
0.0
  0
LINE
  5
128
330
1F
100
AcDbEntity
  8
0
  6
HIDDEN
 62
     7
370
     0
100
AcDbLine
 10
125.91410831
 20
137.1296104329
 30
0.0
 11
125.91410831
 21
118.6677310901
 31
0.0
  0
LINE
  5
129
330
1F
100
AcDbEntity
  8
0
  6
HIDDEN
 62
     7
370
     0
100
AcDbLine
 10
129.3141081222
 20
136.8986703741
 30
0.0
 11
129.3141081222
 21
118.8986711489
 31
0.0
  0
LINE
  5
12A
330
1F
100
AcDbEntity
  8
0
  6
HIDDEN
 62
     7
370
     0
100
AcDbLine
 10
124.5141088256
 20
136.8986703741
 30
0.0
 11
124.5141088256
 21
118.8986711489
 31
0.0
  0
LINE
  5
12B
330
1F
100
AcDbEntity
  8
0
  6
HIDDEN
 62
     7
370
     0
100
AcDbLine
 10
125.5141089895
 20
136.8986703741
 30
0.0
 11
125.5141089895
 21
118.8986711489
 31
0.0
  0
SPLINE
  5
12C
330
1F
100
AcDbEntity
  8
0
  6
HIDDEN
 62
     7
370
     0
100
AcDbSpline
210
0.0
220
0.0
230
1.0
 70
     8
 71
     3
 72
    14
 73
    10
 74
     0
 42
0.00000001
 43
0.00000001
 12
1.0
 22
0.0
 32
0.0
 13
1.0
 23
0.0
 33
0.0
 40
0.0
 40
0.0
 40
0.0
 40
0.0
 40
0.25
 40
0.25
 40
0.5
 40
0.5
 40
0.75
 40
0.75
 40
1.0
 40
1.0
 40
1.0
 40
1.0
 10
135.8870761432621
 20
129.0344524306454
 30
0.0
 10
135.985300489765
 20
128.8614890008419
 30
0.0
 10
136.0606153277491
 20
128.6764564464175
 30
0.0
 10
136.1615820379434
 20
128.2934442322831
 30
0.0
 10
136.1869576242336
 20
128.0987256788174
 30
0.0
 10
136.1871938494999
 20
127.7013503775518
 30
0.0
 10
136.1614907801644
 20
127.5038580430765
 30
0.0
 10
136.0611706666479
 20
127.1226862084454
 30
0.0
 10
135.9852788385603
 20
126.9358143964729
 30
0.0
 10
135.8870761432666
 20
126.762889092323
 30
0.0
  0
LINE
  5
12D
330
1F
100
AcDbEntity
  8
0
  6
HIDDEN
 62
     7
370
     0
100
AcDbLine
 10
136.3870765307
 20
136.3986702921
 30
0.0
 11
136.3870765307
 21
119.3986702995
 31
0.0
  0
SPLINE
  5
12E
330
1F
100
AcDbEntity
  8
0
  6
HIDDEN
 62
     7
370
     0
100
AcDbSpline
210
0.0
220
0.0
230
1.0
 70
     8
 71
     3
 72
    14
 73
    10
 74
     0
 42
0.00000001
 43
0.00000001
 12
1.0
 22
0.0
 32
0.0
 13
1.0
 23
0.0
 33
0.0
 40
0.0
 40
0.0
 40
0.0
 40
0.0
 40
0.25
 40
0.25
 40
0.5
 40
0.5
 40
0.75
 40
0.75
 40
1.0
 40
1.0
 40
1.0
 40
1.0
 10
135.8870761432621
 20
126.7628890923254
 30
0.0
 10
135.985300489765
 20
126.9358525221289
 30
0.0
 10
136.0606153277491
 20
127.1208850765533
 30
0.0
 10
136.1615820379434
 20
127.5038972906877
 30
0.0
 10
136.1869576242336
 20
127.6986158441534
 30
0.0
 10
136.1871938494999
 20
128.0959911454189
 30
0.0
 10
136.1614907801644
 20
128.2934834798943
 30
0.0
 10
136.0611706666479
 20
128.6746553145254
 30
0.0
 10
135.9852788385603
 20
128.8615271264979
 30
0.0
 10
135.8870761432666
 20
129.0344524306478
 30
0.0
  0
SPLINE
  5
12F
330
1F
100
AcDbEntity
  8
0
  6
HIDDEN
 62
     7
370
     0
100
AcDbSpline
210
0.0
220
0.0
230
1.0
 70
     8
 71
     3
 72
    60
 73
    56
 74
     0
 42
0.00000001
 43
0.00000001
 12
1.0
 22
0.0
 32
0.0
 13
1.0
 23
0.0
 33
0.0
 40
0.0
 40
0.0
 40
0.0
 40
0.0
 40
0.0625000000000002
 40
0.0625000000000002
 40
0.1250000000000003
 40
0.1250000000000003
 40
0.1875000000000004
 40
0.1875000000000004
 40
0.2187500000000005
 40
0.2187500000000005
 40
0.2500000000000006
 40
0.2500000000000006
 40
0.3125000000000008
 40
0.3125000000000008
 40
0.3750000000000009
 40
0.3750000000000009
 40
0.4062500000000008
 40
0.4062500000000008
 40
0.4375000000000007
 40
0.4375000000000007
 40
0.4687500000000007
 40
0.4687500000000007
 40
0.5000000000000006
 40
0.5000000000000006
 40
0.5312500000000006
 40
0.5312500000000006
 40
0.5625000000000004
 40
0.5625000000000004
 40
0.5937500000000004
 40
0.5937500000000004
 40
0.6250000000000004
 40
0.6250000000000004
 40
0.6562500000000003
 40
0.6562500000000003
 40
0.6875000000000003
 40
0.6875000000000003
 40
0.7187500000000003
 40
0.7187500000000003
 40
0.7500000000000002
 40
0.7500000000000002
 40
0.7812500000000002
 40
0.7812500000000002
 40
0.8125000000000002
 40
0.8125000000000002
 40
0.8437500000000002
 40
0.8437500000000002
 40
0.8750000000000001
 40
0.8750000000000001
 40
0.9062500000000001
 40
0.9062500000000001
 40
0.9375000000000001
 40
0.9375000000000001
 40
0.96875
 40
0.96875
 40
1.0
 40
1.0
 40
1.0
 40
1.0
 10
135.8870761432621
 20
126.7628890923254
 30
0.0
 10
135.7618862416833
 20
126.5424419677097
 30
0.0
 10
135.6050189231152
 20
126.3487082388894
 30
0.0
 10
135.2279814032964
 20
126.013018540127
 30
0.0
 10
135.0162680968754
 20
125.8790411818143
 30
0.0
 10
134.5503781149266
 20
125.6819144371291
 30
0.0
 10
134.3045388838751
 20
125.6226970249073
 30
0.0
 10
133.9250578307804
 20
125.5954902890166
 30
0.0
 10
133.7973121020865
 20
125.5969835541584
 30
0.0
 10
133.5468458554184
 20
125.6204993599674
 30
0.0
 10
133.4230164726102
 20
125.6424185787716
 30
0.0
 10
133.0557967985116
 20
125.7392551436165
 30
0.0
 10
132.8250277804258
 20
125.8430562650683
 30
0.0
 10
132.4051388190063
 20
126.1217747459963
 30
0.0
 10
132.2208804441187
 20
126.2933370375
 30
0.0
 10
131.9901320566354
 20
126.5919843987668
 30
0.0
 10
131.9210852068464
 20
126.6984519392691
 30
0.0
 10
131.8025205430409
 20
126.9187352876621
 30
0.0
 10
131.7523121742913
 20
127.0333968040635
 30
0.0
 10
131.6704803219335
 20
127.2720774408403
 30
0.0
 10
131.6391294230508
 20
127.3961230677184
 30
0.0
 10
131.5977350450122
 20
127.6442381038267
 30
0.0
 10
131.5872292699479
 20
127.7694758063152
 30
0.0
 10
131.5869263176122
 20
128.0223548619062
 30
0.0
 10
131.5974108472287
 20
128.1502345481428
 30
0.0
 10
131.6385509246902
 20
128.3986566093483
 30
0.0
 10
131.6691290452387
 20
128.5204555361167
 30
0.0
 10
131.75041175359
 20
128.759235065591
 30
0.0
 10
131.801412640152
 20
128.8762766278977
 30
0.0
 10
131.919979688515
 20
129.0971018258236
 30
0.0
 10
131.9878684417868
 20
129.2020401893863
 30
0.0
 10
132.1410188795244
 20
129.4010175226157
 30
0.0
 10
132.2265750510969
 20
129.4950256478099
 30
0.0
 10
132.4092864220561
 20
129.6655183327466
 30
0.0
 10
132.507093721738
 20
129.742956527796
 30
0.0
 10
132.715896833655
 20
129.8821224236843
 30
0.0
 10
132.8274790089429
 20
129.9439042326913
 30
0.0
 10
133.0561248084419
 20
130.046983103292
 30
0.0
 10
133.174079619413
 20
130.0889871384877
 30
0.0
 10
133.4174080644017
 20
130.1537232597845
 30
0.0
 10
133.5437519397448
 20
130.1763965223472
 30
0.0
 10
133.7948579207626
 20
130.2002793185283
 30
0.0
 10
133.9205399144856
 20
130.201882619795
 30
0.0
 10
134.1721619842774
 20
130.1844158810241
 30
0.0
 10
134.2990596045632
 20
130.1649799903842
 30
0.0
 10
134.5442501708243
 20
130.1063868190605
 30
0.0
 10
134.6634393278578
 20
130.0673239679039
 30
0.0
 10
134.8951243522126
 20
129.96981424578
 30
0.0
 10
135.0082991565631
 20
129.9107788914915
 30
0.0
 10
135.2203775734988
 20
129.776975174652
 30
0.0
 10
135.3201663521997
 20
129.7019799585072
 30
0.0
 10
135.5074245391886
 20
129.5357848939864
 30
0.0
 10
135.595319576132
 20
129.4438906952449
 30
0.0
 10
135.7535406517639
 20
129.2485264975305
 30
0.0
 10
135.8244786080556
 20
129.144680543858
 30
0.0
 10
135.8870761432621
 20
129.0344524306454
 30
0.0
  0
SPLINE
  5
130
330
1F
100
AcDbEntity
  8
0
  6
HIDDEN
 62
     7
370
     0
100
AcDbSpline
210
0.0
220
0.0
230
1.0
 70
     8
 71
     3
 72
    60
 73
    56
 74
     0
 42
0.00000001
 43
0.00000001
 12
1.0
 22
0.0
 32
0.0
 13
1.0
 23
0.0
 33
0.0
 40
0.0
 40
0.0
 40
0.0
 40
0.0
 40
0.0624999999999995
 40
0.0624999999999995
 40
0.124999999999999
 40
0.124999999999999
 40
0.1874999999999986
 40
0.1874999999999986
 40
0.2187499999999983
 40
0.2187499999999983
 40
0.2499999999999981
 40
0.2499999999999981
 40
0.312499999999998
 40
0.312499999999998
 40
0.3749999999999979
 40
0.3749999999999979
 40
0.4062499999999981
 40
0.4062499999999981
 40
0.4374999999999983
 40
0.4374999999999983
 40
0.4687499999999984
 40
0.4687499999999984
 40
0.4999999999999986
 40
0.4999999999999986
 40
0.5312499999999987
 40
0.5312499999999987
 40
0.5624999999999988
 40
0.5624999999999988
 40
0.5937499999999988
 40
0.5937499999999988
 40
0.6249999999999989
 40
0.6249999999999989
 40
0.656249999999999
 40
0.656249999999999
 40
0.6874999999999991
 40
0.6874999999999991
 40
0.7187499999999992
 40
0.7187499999999992
 40
0.7499999999999992
 40
0.7499999999999992
 40
0.7812499999999993
 40
0.7812499999999993
 40
0.8124999999999994
 40
0.8124999999999994
 40
0.8437499999999996
 40
0.8437499999999996
 40
0.8749999999999997
 40
0.8749999999999997
 40
0.9062499999999998
 40
0.9062499999999998
 40
0.9374999999999998
 40
0.9374999999999998
 40
0.9687499999999999
 40
0.9687499999999999
 40
1.0
 40
1.0
 40
1.0
 40
1.0
 10
135.8870761432621
 20
129.0344524306454
 30
0.0
 10
135.7618862416833
 20
129.254899555261
 30
0.0
 10
135.6050189231152
 20
129.4486332840814
 30
0.0
 10
135.2279814032964
 20
129.7843229828438
 30
0.0
 10
135.0162680968754
 20
129.9183003411565
 30
0.0
 10
134.5503781149266
 20
130.1154270858417
 30
0.0
 10
134.304538883875
 20
130.1746444980635
 30
0.0
 10
133.9250578307804
 20
130.2018512339542
 30
0.0
 10
133.7973121020865
 20
130.2003579688123
 30
0.0
 10
133.5468458554184
 20
130.1768421630034
 30
0.0
 10
133.4230164726102
 20
130.1549229441992
 30
0.0
 10
133.0557967985116
 20
130.0580863793543
 30
0.0
 10
132.8250277804258
 20
129.9542852579025
 30
0.0
 10
132.4051388190063
 20
129.6755667769744
 30
0.0
 10
132.2208804441187
 20
129.5040044854707
 30
0.0
 10
131.9901320566354
 20
129.2053571242039
 30
0.0
 10
131.9210852068464
 20
129.0988895837016
 30
0.0
 10
131.8025205430409
 20
128.8786062353087
 30
0.0
 10
131.7523121742913
 20
128.7639447189073
 30
0.0
 10
131.6704803219335
 20
128.5252640821305
 30
0.0
 10
131.6391294230508
 20
128.4012184552524
 30
0.0
 10
131.5977350450122
 20
128.1531034191441
 30
0.0
 10
131.5872292699479
 20
128.0278657166556
 30
0.0
 10
131.5869263176122
 20
127.7749866610646
 30
0.0
 10
131.5974108472287
 20
127.6471069748279
 30
0.0
 10
131.6385509246902
 20
127.3986849136225
 30
0.0
 10
131.6691290452387
 20
127.2768859868541
 30
0.0
 10
131.75041175359
 20
127.0381064573798
 30
0.0
 10
131.801412640152
 20
126.9210648950731
 30
0.0
 10
131.919979688515
 20
126.7002396971472
 30
0.0
 10
131.9878684417868
 20
126.5953013335845
 30
0.0
 10
132.1410188795244
 20
126.3963240003551
 30
0.0
 10
132.2265750510969
 20
126.3023158751609
 30
0.0
 10
132.4092864220561
 20
126.1318231902242
 30
0.0
 10
132.507093721738
 20
126.0543849951748
 30
0.0
 10
132.715896833655
 20
125.9152190992865
 30
0.0
 10
132.8274790089429
 20
125.8534372902795
 30
0.0
 10
133.0561248084419
 20
125.7503584196787
 30
0.0
 10
133.174079619413
 20
125.7083543844831
 30
0.0
 10
133.4174080644017
 20
125.6436182631863
 30
0.0
 10
133.5437519397448
 20
125.6209450006236
 30
0.0
 10
133.7948579207626
 20
125.5970622044425
 30
0.0
 10
133.9205399144856
 20
125.5954589031758
 30
0.0
 10
134.1721619842774
 20
125.6129256419467
 30
0.0
 10
134.2990596045632
 20
125.6323615325866
 30
0.0
 10
134.5442501708243
 20
125.6909547039103
 30
0.0
 10
134.6634393278578
 20
125.7300175550669
 30
0.0
 10
134.8951243522126
 20
125.8275272771907
 30
0.0
 10
135.0082991565631
 20
125.8865626314793
 30
0.0
 10
135.2203775734988
 20
126.0203663483188
 30
0.0
 10
135.3201663521997
 20
126.0953615644636
 30
0.0
 10
135.5074245391886
 20
126.2615566289844
 30
0.0
 10
135.595319576132
 20
126.3534508277259
 30
0.0
 10
135.7535406517639
 20
126.5488150254403
 30
0.0
 10
135.8244786080556
 20
126.6526609791127
 30
0.0
 10
135.8870761432621
 20
126.7628890923254
 30
0.0
  0
SPLINE
  5
131
330
1F
100
AcDbEntity
  8
0
  6
HIDDEN
 62
     7
370
     0
100
AcDbSpline
210
0.0
220
0.0
230
1.0
 70
     8
 71
     3
 72
    12
 73
     8
 74
     0
 42
0.00000001
 43
0.00000001
 12
1.0
 22
0.0
 32
0.0
 13
1.0
 23
0.0
 33
0.0
 40
0.0
 40
0.0
 40
0.0
 40
0.0
 40
0.2499999999999999
 40
0.2499999999999999
 40
0.4999999999999998
 40
0.4999999999999998
 40
1.0
 40
1.0
 40
1.0
 40
1.0
 10
233.5802016885208
 20
113.7780568997602
 30
0.0
 10
233.3862475034025
 20
114.4025189398459
 30
0.0
 10
233.1855787230614
 20
115.0436599899163
 30
0.0
 10
232.7698140809906
 20
116.3582831545707
 30
0.0
 10
232.5541217012093
 20
117.0336205136636
 30
0.0
 10
231.8868694159757
 20
119.0968433001339
 30
0.0
 10
231.4255817969496
 20
120.4898468829274
 30
0.0
 10
230.9441260093414
 20
121.8986707614854
 30
0.0
  0
SPLINE
  5
132
330
1F
100
AcDbEntity
  8
0
  6
HIDDEN
 62
     7
370
     0
100
AcDbSpline
210
0.0
220
0.0
230
1.0
 70
     8
 71
     3
 72
    12
 73
     8
 74
     0
 42
0.00000001
 43
0.00000001
 12
1.0
 22
0.0
 32
0.0
 13
1.0
 23
0.0
 33
0.0
 40
0.0
 40
0.0
 40
0.0
 40
0.0
 40
0.2499999999999999
 40
0.2499999999999999
 40
0.4999999999999998
 40
0.4999999999999998
 40
1.0
 40
1.0
 40
1.0
 40
1.0
 10
229.887076143262
 20
127.8986707614854
 30
0.0
 10
229.887076143262
 20
127.3863338366168
 30
0.0
 10
229.9113393710154
 20
126.8697481895562
 30
0.0
 10
230.0059514030456
 20
125.8506421144225
 30
0.0
 10
230.0761048118891
 20
125.3461691034281
 30
0.0
 10
230.3488826627465
 20
123.8466061453978
 30
0.0
 10
230.6137668700306
 20
122.8653594085847
 30
0.0
 10
230.9441260093414
 20
121.8986707614854
 30
0.0
  0
LINE
  5
133
330
1F
100
AcDbEntity
  8
0
  6
HIDDEN
 62
     7
370
     0
100
AcDbLine
 10
229.8870760241
 20
127.8986707615
 30
0.0
 11
229.8870760241
 21
144.3986706721
 31
0.0
  0
SPLINE
  5
134
330
1F
100
AcDbEntity
  8
0
  6
HIDDEN
 62
     7
370
     0
100
AcDbSpline
210
0.0
220
0.0
230
1.0
 70
     8
 71
     3
 72
    14
 73
    10
 74
     0
 42
0.00000001
 43
0.00000001
 12
1.0
 22
0.0
 32
0.0
 13
1.0
 23
0.0
 33
0.0
 40
0.0
 40
0.0
 40
0.0
 40
0.0
 40
0.1928695192075688
 40
0.3884382340473437
 40
0.5261118648700859
 40
0.6637833653133208
 40
0.8057098760289634
 40
0.9476364993498424
 40
1.0
 40
1.0
 40
1.0
 40
1.0
 10
233.5802021660778
 20
113.7780566053584
 30
0.0
 10
233.4192255299274
 20
113.2279321115438
 30
0.0
 10
233.0950194006955
 20
112.1199841695284
 30
0.0
 10
232.7730427032867
 20
110.9451615429754
 30
0.0
 10
232.5662123143403
 20
110.0945740506874
 30
0.0
 10
232.4484531916122
 20
109.5000408412729
 30
0.0
 10
232.4101817943243
 20
109.0900527441088
 30
0.0
 10
232.414902004519
 20
108.8445709695411
 30
0.0
 10
232.4765539693321
 20
108.8457857235854
 30
0.0
 10
232.4931699075672
 20
108.8461131142572
 30
0.0
  0
ELLIPSE
  5
135
330
1F
100
AcDbEntity
  8
0
  6
HIDDEN
 62
     7
370
     0
100
AcDbEllipse
 10
252.1766453426
 20
127.8986707615
 30
0.0
 11
-1.692802268121284
 21
16.49928264335409
 31
0.0
210
0.0
220
0.0
230
1.0
 40
0.090889472
 41
1.399896119359826
 42
1.56147147018563
  0
ELLIPSE
  5
136
330
1F
100
AcDbEntity
  8
0
  6
HIDDEN
 62
     7
370
     0
100
AcDbEllipse
 10
252.3997511794
 20
127.8986707615
 30
0.0
 11
-11.7456050227652
 21
16.49993160123384
 31
0.0
210
0.0
220
0.0
230
1.0
 40
0.0040448756
 41
6.280305938888506
 42
7.689526914853854
  0
SPLINE
  5
137
330
1F
100
AcDbEntity
  8
0
  6
HIDDEN
 62
     7
370
     0
100
AcDbSpline
210
0.0
220
0.0
230
1.0
 70
     8
 71
     3
 72
    38
 73
    34
 74
     0
 42
0.00000001
 43
0.00000001
 12
1.0
 22
0.0
 32
0.0
 13
1.0
 23
0.0
 33
0.0
 40
0.0
 40
0.0
 40
0.0
 40
0.0
 40
0.0625
 40
0.0625
 40
0.125
 40
0.125
 40
0.1875
 40
0.1875
 40
0.25
 40
0.25
 40
0.3125
 40
0.3125
 40
0.375
 40
0.375
 40
0.4375
 40
0.4375
 40
0.5
 40
0.5
 40
0.5625
 40
0.5625
 40
0.625
 40
0.625
 40
0.6875
 40
0.6875
 40
0.75
 40
0.75
 40
0.8125
 40
0.8125
 40
0.875
 40
0.875
 40
0.9375
 40
0.9375
 40
1.0
 40
1.0
 40
1.0
 40
1.0
 10
246.1151160211433
 20
127.8986707614854
 30
0.0
 10
246.0827961375908
 20
128.1555135256046
 30
0.0
 10
246.0283875628714
 20
128.4055441772236
 30
0.0
 10
245.8765859273278
 20
128.8924092665441
 30
0.0
 10
245.7782790985398
 20
129.1309354295303
 30
0.0
 10
245.53980450331
 20
129.5861617805521
 30
0.0
 10
245.4016647567886
 20
129.7997920651554
 30
0.0
 10
245.088224816167
 20
130.1999108834027
 30
0.0
 10
244.9108303404661
 20
130.3880809135609
 30
0.0
 10
244.527668672378
 20
130.7257195270983
 30
0.0
 10
244.3226318042774
 20
130.875363933881
 30
0.0
 10
243.8857907386232
 20
131.1370554149429
 30
0.0
 10
243.6516860731588
 20
131.2496513264642
 30
0.0
 10
243.1731797785022
 20
131.4283769378244
 30
0.0
 10
242.9274899083286
 20
131.4957455133187
 30
0.0
 10
242.4231895522366
 20
131.5866910356069
 30
0.0
 10
242.1636803593701
 20
131.609755947755
 30
0.0
 10
241.652403972534
 20
131.6097853386652
 30
0.0
 10
241.3980575878338
 20
131.5874157767853
 30
0.0
 10
240.891982976456
 20
131.497180347861
 30
0.0
 10
240.6420912941995
 20
131.4291421818405
 30
0.0
 10
240.1644709620473
 20
131.2523856591045
 30
0.0
 10
239.934329997564
 20
131.1433103487483
 30
0.0
 10
239.492003066891
 20
130.881772578351
 30
0.0
 10
239.284427400777
 20
130.73174784413
 30
0.0
 10
238.902170433414
 20
130.39832066747
 30
0.0
 10
238.7259931606753
 20
130.2138016360438
 30
0.0
 10
238.4077765208762
 20
129.8093378320296
 30
0.0
 10
238.2701582885244
 20
129.5951690086685
 30
0.0
 10
238.036638644139
 20
129.1433919692705
 30
0.0
 10
237.9401799345112
 20
128.9037230032731
 30
0.0
 10
237.7947101891967
 20
128.4090866529012
 30
0.0
 10
237.7459384102225
 20
128.1565084835766
 30
0.0
 10
237.7210364624368
 20
127.8986707614854
 30
0.0
  0
LINE
  5
138
330
1F
100
AcDbEntity
  8
0
  6
HIDDEN
 62
     7
370
     0
100
AcDbLine
 10
137.2870759332
 20
134.1486708546
 30
0.0
 11
137.2870759332
 21
121.6486706684
 31
0.0
  0
LINE
  5
139
330
1F
100
AcDbEntity
  8
0
  6
HIDDEN
 62
     7
370
     0
100
AcDbLine
 10
136.3870765307
 20
120.7486708002
 30
0.0
 11
136.3870765307
 21
135.0295967708
 31
0.0
  0
LINE
  5
13A
330
1F
100
AcDbEntity
  8
0
  6
HIDDEN
 62
     7
370
     0
100
AcDbLine
 10
156.3870760837
 20
134.1486708546
 30
0.0
 11
156.3870760837
 21
121.6486706684
 31
0.0
  0
LINE
  5
13B
330
1F
100
AcDbEntity
  8
0
  6
HIDDEN
 62
     7
370
     0
100
AcDbLine
 10
157.5887969919
 20
132.1486709925
 30
0.0
 11
157.5887969919
 21
123.6486705305
 31
0.0
  0
LINE
  5
13C
330
1F
100
AcDbEntity
  8
0
  6
HIDDEN
 62
     7
370
     0
100
AcDbLine
 10
220.3870791235
 20
132.1486709925
 30
0.0
 11
220.3870791235
 21
123.6486705305
 31
0.0
  0
SPLINE
  5
13D
330
1F
100
AcDbEntity
  8
0
  6
HIDDEN
 62
     7
370
     0
100
AcDbSpline
210
0.0
220
0.0
230
1.0
 70
     8
 71
     3
 72
    60
 73
    56
 74
     0
 42
0.00000001
 43
0.00000001
 12
1.0
 22
0.0
 32
0.0
 13
1.0
 23
0.0
 33
0.0
 40
-0.0312500000000008
 40
-0.0312500000000008
 40
0.0
 40
0.0
 40
0.0312499999999989
 40
0.0312499999999989
 40
0.0624999999999979
 40
0.0624999999999979
 40
0.1249999999999981
 40
0.1249999999999981
 40
0.1562499999999973
 40
0.1562499999999973
 40
0.1874999999999966
 40
0.1874999999999966
 40
0.2187499999999958
 40
0.2187499999999958
 40
0.249999999999995
 40
0.249999999999995
 40
0.3124999999999934
 40
0.3124999999999934
 40
0.3749999999999919
 40
0.3749999999999919
 40
0.4062499999999911
 40
0.4062499999999911
 40
0.4374999999999903
 40
0.4374999999999903
 40
0.4687499999999896
 40
0.4687499999999896
 40
0.4999999999999888
 40
0.4999999999999888
 40
0.531249999999988
 40
0.531249999999988
 40
0.5624999999999873
 40
0.5624999999999873
 40
0.6249999999999881
 40
0.6249999999999881
 40
0.6562499999999893
 40
0.6562499999999893
 40
0.6874999999999907
 40
0.6874999999999907
 40
0.7187499999999919
 40
0.7187499999999919
 40
0.7499999999999932
 40
0.7499999999999932
 40
0.7812499999999944
 40
0.7812499999999944
 40
0.8124999999999957
 40
0.8124999999999957
 40
0.8749999999999971
 40
0.8749999999999971
 40
0.9062499999999978
 40
0.9062499999999978
 40
0.9374999999999986
 40
0.9374999999999986
 40
0.9687499999999992
 40
0.9687499999999992
 40
1.0
 40
1.0
 40
1.031249999999999
 40
1.031249999999999
 10
215.2175485466915
 20
131.3383823780364
 30
0.0
 10
215.5566037398326
 20
131.3383823780364
 30
0.0
 10
215.7222015875401
 20
131.3260512524244
 30
0.0
 10
216.0463216642128
 20
131.2778371293481
 30
0.0
 10
216.2061317285384
 20
131.2412986475617
 30
0.0
 10
216.6554733310798
 20
131.0993206658775
 30
0.0
 10
216.9251560708552
 20
130.9592485692384
 30
0.0
 10
217.2633408596127
 20
130.6868585193365
 30
0.0
 10
217.3669072932366
 20
130.5839718388041
 30
0.0
 10
217.5473587555365
 20
130.3592977092978
 30
0.0
 10
217.6244807217989
 20
130.2378883590387
 30
0.0
 10
217.751898606606
 20
129.9744287117611
 30
0.0
 10
217.8023627994071
 20
129.8303833994596
 30
0.0
 10
217.8692042120896
 20
129.5333993340446
 30
0.0
 10
217.8865224136386
 20
129.3794428027807
 30
0.0
 10
217.888144805572
 20
128.9000292999884
 30
0.0
 10
217.8196568350284
 20
128.5682380672616
 30
0.0
 10
217.5656065286575
 20
127.9482256489152
 30
0.0
 10
217.3810236293022
 20
127.6591514470694
 30
0.0
 10
217.0436551588791
 20
127.2901230239258
 30
0.0
 10
216.9196659899122
 20
127.1762579519781
 30
0.0
 10
216.6534972446947
 20
126.97422183671
 30
0.0
 10
216.5129605638708
 20
126.8869596839952
 30
0.0
 10
216.2153022285728
 20
126.7416101157233
 30
0.0
 10
216.0558348510303
 20
126.6830723774991
 30
0.0
 10
215.7302174668967
 20
126.6044204283684
 30
0.0
 10
215.5642504845096
 20
126.5837321042353
 30
0.0
 10
215.2254172384466
 20
126.5824957946246
 30
0.0
 10
215.0584265596113
 20
126.602130859976
 30
0.0
 10
214.7328016458206
 20
126.6784660917066
 30
0.0
 10
214.5726704732635
 20
126.7359612917412
 30
0.0
 10
214.1219653139052
 20
126.9528767250657
 30
0.0
 10
213.8517068127545
 20
127.1594160720477
 30
0.0
 10
213.5119920838527
 20
127.5282387461356
 30
0.0
 10
213.4080334399773
 20
127.6632057982741
 30
0.0
 10
213.2277243473556
 20
127.9448549951654
 30
0.0
 10
213.1502906387631
 20
128.0924113353692
 30
0.0
 10
213.0220417839184
 20
128.401518610007
 30
0.0
 10
212.9717264930017
 20
128.563372852765
 30
0.0
 10
212.9049782465103
 20
128.8839311523204
 30
0.0
 10
212.8875047373141
 20
129.0447604241489
 30
0.0
 10
212.8866629547837
 20
129.367418323169
 30
0.0
 10
212.9034230523156
 20
129.523264694403
 30
0.0
 10
212.9691751958195
 20
129.8219236284782
 30
0.0
 10
213.0190300565931
 20
129.9663947585602
 30
0.0
 10
213.2099948421606
 20
130.3652521133119
 30
0.0
 10
213.3952909751305
 20
130.5932816432802
 30
0.0
 10
213.7341798759503
 20
130.8670315932921
 30
0.0
 10
213.8593617983535
 20
130.9485275709604
 30
0.0
 10
214.1252969343268
 20
131.0876488334198
 30
0.0
 10
214.2661525177256
 20
131.1457796527642
 30
0.0
 10
214.5658191142097
 20
131.2407390740631
 30
0.0
 10
214.7261972963445
 20
131.27752568321
 30
0.0
 10
215.050934436393
 20
131.3259680055027
 30
0.0
 10
215.2175485466915
 20
131.3383823780364
 30
0.0
 10
215.5566037398326
 20
131.3383823780364
 30
0.0
  0
CIRCLE
  5
13E
330
1F
100
AcDbEntity
  8
0
  6
HIDDEN
 62
     7
370
     0
100
AcDbCircle
 10
244.0467082225
 20
124.6672267211
 30
0.0
 40
3.481306795164933
  0
CIRCLE
  5
13F
330
1F
100
AcDbEntity
  8
0
  6
HIDDEN
 62
     7
370
     0
100
AcDbCircle
 10
243.6202971859
 20
125.2318557416
 30
0.0
 40
3.481310050446525
  0
ARC
  5
140
330
1F
100
AcDbEntity
  8
0
  6
HIDDEN
 62
     7
370
     0
100
AcDbCircle
 10
240.3444457402
 20
117.8853622184
 30
0.0
 40
2.34594125281792
100
AcDbArc
 50
85.3558914317
 51
226.5247475544
  0
LINE
  5
141
330
1F
100
AcDbEntity
  8
0
  6
HIDDEN
 62
     7
370
     0
100
AcDbLine
 10
252.7804228702
 20
119.3359252351
 30
0.0
 11
253.2717067041
 21
118.6853954854
 31
0.0
  0
LINE
  5
142
330
1F
100
AcDbEntity
  8
0
  6
HIDDEN
 62
     7
370
     0
100
AcDbLine
 10
250.4109892287
 20
130.553079099
 30
0.0
 11
252.4671483078
 21
127.8304249348
 31
0.0
  0
LINE
  5
143
330
1F
100
AcDbEntity
  8
0
  6
HIDDEN
 62
     7
370
     0
100
AcDbLine
 10
241.4118948617
 20
115.8726057323
 30
0.0
 11
241.6193413773
 21
115.857568598
 31
0.0
  0
LINE
  5
144
330
1F
100
AcDbEntity
  8
0
  6
HIDDEN
 62
     7
370
     0
100
AcDbLine
 10
241.6193413773
 20
115.857568598
 30
0.0
 11
241.9266554751
 21
115.4506411689
 31
0.0
  0
LINE
  5
145
330
1F
100
AcDbEntity
  8
0
  6
HIDDEN
 62
     7
370
     0
100
AcDbLine
 10
241.9266554751
 20
115.4506411689
 30
0.0
 11
241.4459514656
 21
115.485486603
 31
0.0
  0
ELLIPSE
  5
146
330
1F
100
AcDbEntity
  8
0
  6
HIDDEN
 62
     7
370
     0
100
AcDbEllipse
 10
239.8220617209
 20
134.1599577852
 30
0.0
 11
-2.733626938423214
 21
26.42588789006399
 31
0.0
210
0.0
220
0.0
230
1.0
 40
0.0894011665
 41
2.95475511274211
 42
3.122745396089813
  0
ELLIPSE
  5
147
330
1F
100
AcDbEntity
  8
0
  6
HIDDEN
 62
     7
370
     0
100
AcDbEllipse
 10
236.0749441131
 20
134.5537957159
 30
0.0
 11
217.1628490301422
 21
-19.44089462863658
 31
0.0
210
0.0
220
0.0
230
1.0
 40
0.1182598878
 41
4.750580349972688
 42
4.752899997360426
  0
ELLIPSE
  5
148
330
1F
100
AcDbEntity
  8
0
  6
HIDDEN
 62
     7
370
     0
100
AcDbEllipse
 10
240.3321913863
 20
134.1063409969
 30
0.0
 11
-2.733626938423214
 21
26.42588789006402
 31
0.0
210
0.0
220
0.0
230
1.0
 40
0.0894011665
 41
2.839802196962506
 42
2.952435465354388
  0
ELLIPSE
  5
149
330
1F
100
AcDbEntity
  8
0
  6
HIDDEN
 62
     7
370
     0
100
AcDbEllipse
 10
211.3848330653
 20
137.1488309562
 30
0.0
 11
217.1628490301423
 21
-19.44089462863661
 31
0.0
210
0.0
220
0.0
230
1.0
 40
0.1182598878
 41
4.865533265752309
 42
4.915788586952488
  0
SPLINE
  5
14A
330
1F
100
AcDbEntity
  8
0
  6
HIDDEN
 62
     7
370
     0
100
AcDbSpline
210
0.0
220
0.0
230
1.0
 70
     8
 71
     3
 72
    15
 73
    11
 74
     0
 42
0.00000001
 43
0.00000001
 12
1.0
 22
0.0
 32
0.0
 13
1.0
 23
0.0
 33
0.0
 40
0.0
 40
0.0
 40
0.0
 40
0.0
 40
0.1016176176901425
 40
0.2024794539193557
 40
0.3025860745967174
 40
0.4019380585471144
 40
0.5005359978965552
 40
0.6688014754873138
 40
0.8352883855505974
 40
0.9999999999999999
 40
0.9999999999999999
 40
0.9999999999999999
 40
0.9999999999999999
 10
252.4408868424407
 20
109.9751329969626
 30
0.0
 10
252.4604224552939
 20
109.8993551747209
 30
0.0
 10
252.4993483847972
 20
109.7483631281104
 30
0.0
 10
252.5570965221015
 20
109.5316014323758
 30
0.0
 10
252.6140868623021
 20
109.3229487789036
 30
0.0
 10
252.6702802589378
 20
109.1229610898998
 30
0.0
 10
252.7388662816997
 20
108.8856989168925
 30
0.0
 10
252.8192326148142
 20
108.6190670693253
 30
0.0
 10
252.9107678991921
 20
108.330475532738
 30
0.0
 10
252.970394840759
 20
108.156200287406
 30
0.0
 10
253.0000485049009
 20
108.0695297412149
 30
0.0
  0
SPLINE
  5
14B
330
1F
100
AcDbEntity
  8
0
  6
HIDDEN
 62
     7
370
     0
100
AcDbSpline
210
0.0
220
0.0
230
1.0
 70
     8
 71
     3
 72
    12
 73
     8
 74
     0
 42
0.00000001
 43
0.00000001
 12
1.0
 22
0.0
 32
0.0
 13
1.0
 23
0.0
 33
0.0
 40
0.0
 40
0.0
 40
0.0
 40
0.0
 40
0.25
 40
0.25
 40
0.5
 40
0.5
 40
1.0
 40
1.0
 40
1.0
 40
1.0
 10
252.4408828875393
 20
109.9751342026642
 30
0.0
 10
250.8953476463375
 20
110.3354341100959
 30
0.0
 10
249.3408625043719
 20
110.6829118007442
 30
0.0
 10
246.2184016150282
 20
111.3554719172424
 30
0.0
 10
244.6503924326214
 20
111.6805497575983
 30
0.0
 10
239.930314710584
 20
112.626253491366
 30
0.0
 10
236.7624073386077
 20
113.2175090833219
 30
0.0
 10
233.5802016885216
 20
113.7780568997638
 30
0.0
  0
ELLIPSE
  5
14C
330
1F
100
AcDbEntity
  8
0
  6
HIDDEN
 62
     7
370
     0
100
AcDbEllipse
 10
245.577570464
 20
119.555297989
 30
0.0
 11
2.967222170038099
 21
-0.5785035440251534
 31
0.0
210
0.0
220
0.0
230
1.0
 40
0.1845741307
 41
3.430111266356115
 42
4.018063484422775
  0
ELLIPSE
  5
14D
330
1F
100
AcDbEntity
  8
0
  6
HIDDEN
 62
     7
370
     0
100
AcDbEllipse
 10
246.0484232412
 20
118.4909012722
 30
0.0
 11
-0.938287612369635
 21
2.75166689155327
 31
0.0
210
0.0
220
0.0
230
1.0
 40
0.8587453104
 41
0.7360393123552099
 42
0.9245808423814691
  0
ELLIPSE
  5
14E
330
1F
100
AcDbEntity
  8
0
  6
HIDDEN
 62
     7
370
     0
100
AcDbEllipse
 10
246.0484232412
 20
118.4909012722
 30
0.0
 11
-0.938287612369635
 21
2.75166689155327
 31
0.0
210
0.0
220
0.0
230
1.0
 40
0.8587453104
 41
4.739814909466745
 42
4.848839927572616
  0
SPLINE
  5
14F
330
1F
100
AcDbEntity
  8
0
  6
HIDDEN
 62
     7
370
     0
100
AcDbSpline
210
0.0
220
0.0
230
1.0
 70
     8
 71
     3
 72
    22
 73
    18
 74
     0
 42
0.00000001
 43
0.00000001
 12
1.0
 22
0.0
 32
0.0
 13
1.0
 23
0.0
 33
0.0
 40
0.0
 40
0.0
 40
0.0
 40
0.0
 40
0.1250000000000002
 40
0.1250000000000002
 40
0.2500000000000005
 40
0.2500000000000005
 40
0.5000000000000009
 40
0.5000000000000009
 40
0.6250000000000006
 40
0.6250000000000006
 40
0.7500000000000003
 40
0.7500000000000003
 40
0.8750000000000002
 40
0.8750000000000002
 40
0.9375000000000001
 40
0.9375000000000001
 40
1.0
 40
1.0
 40
1.0
 40
1.0
 10
246.3843107006736
 20
123.8940236020046
 30
0.0
 10
246.4136489909807
 20
123.8551754925199
 30
0.0
 10
246.4340868996442
 20
123.8027697841383
 30
0.0
 10
246.460898910734
 20
123.6780366488129
 30
0.0
 10
246.4671817395768
 20
123.6054096676921
 30
0.0
 10
246.4657190183778
 20
123.3667774443276
 30
0.0
 10
246.4390522081359
 20
123.1802484329031
 30
0.0
 10
246.347726724074
 20
122.8700109238804
 30
0.0
 10
246.3085366654738
 20
122.7613478328629
 30
0.0
 10
246.2050770355231
 20
122.5327873355742
 30
0.0
 10
246.1409460618816
 20
122.4128552838327
 30
0.0
 10
245.973971771906
 20
122.1636106882565
 30
0.0
 10
245.8713837227298
 20
122.033407071316
 30
0.0
 10
245.6636995500427
 20
121.8339796160965
 30
0.0
 10
245.5842085541931
 20
121.765803255959
 30
0.0
 10
245.3967641970283
 20
121.6304479159697
 30
0.0
 10
245.2894185734764
 20
121.5638049795528
 30
0.0
 10
245.1656095692741
 20
121.5028607471331
 30
0.0
  0
SPLINE
  5
150
330
1F
100
AcDbEntity
  8
0
  6
HIDDEN
 62
     7
370
     0
100
AcDbSpline
210
0.0
220
0.0
230
1.0
 70
     8
 71
     3
 72
     8
 73
     4
 74
     0
 42
0.00000001
 43
0.00000001
 12
1.0
 22
0.0
 32
0.0
 13
1.0
 23
0.0
 33
0.0
 40
0.0
 40
0.0
 40
0.0
 40
0.0
 40
1.0
 40
1.0
 40
1.0
 40
1.0
 10
245.1656095692742
 20
121.5028607471331
 30
0.0
 10
245.0225930973016
 20
121.4570782937166
 30
0.0
 10
244.8819703723207
 20
121.4040282290412
 30
0.0
 10
244.74371545211
 20
121.3437893158092
 30
0.0
  0
SPLINE
  5
151
330
1F
100
AcDbEntity
  8
0
  6
HIDDEN
 62
     7
370
     0
100
AcDbSpline
210
0.0
220
0.0
230
1.0
 70
     8
 71
     3
 72
    22
 73
    18
 74
     0
 42
0.00000001
 43
0.00000001
 12
1.0
 22
0.0
 32
0.0
 13
1.0
 23
0.0
 33
0.0
 40
0.0
 40
0.0
 40
0.0
 40
0.0
 40
0.0624999999999987
 40
0.0624999999999987
 40
0.1249999999999974
 40
0.1249999999999974
 40
0.1874999999999962
 40
0.1874999999999962
 40
0.2499999999999949
 40
0.2499999999999949
 40
0.374999999999996
 40
0.374999999999996
 40
0.4999999999999969
 40
0.4999999999999969
 40
0.7499999999999984
 40
0.7499999999999984
 40
1.0
 40
1.0
 40
1.0
 40
1.0
 10
244.7437154521101
 20
121.3437893158092
 30
0.0
 10
244.6066350380154
 20
121.3064395112052
 30
0.0
 10
244.4780734036087
 20
121.2837572689398
 30
0.0
 10
244.231421003896
 20
121.2559670903661
 30
0.0
 10
244.1188015578197
 20
121.2515213422337
 30
0.0
 10
243.9067514316571
 20
121.2531857654795
 30
0.0
 10
243.8068656309872
 20
121.2595380605192
 30
0.0
 10
243.6204243527015
 20
121.2788228837542
 30
0.0
 10
243.5333047008518
 20
121.2917726983433
 30
0.0
 10
243.284925324332
 20
121.3371143094334
 30
0.0
 10
243.1364134762181
 20
121.3758697078871
 30
0.0
 10
242.8615590473443
 20
121.4618784296971
 30
0.0
 10
242.7355044304841
 20
121.5093474268859
 30
0.0
 10
242.3899002438503
 20
121.6558719106542
 30
0.0
 10
242.1990788759502
 20
121.7598348654971
 30
0.0
 10
241.8903084444785
 20
121.9583345134927
 30
0.0
 10
241.7710270136426
 20
122.0535062577506
 30
0.0
 10
241.7115862692326
 20
122.132214339323
 30
0.0
  0
ELLIPSE
  5
152
330
1F
100
AcDbEntity
  8
0
  6
HIDDEN
 62
     7
370
     0
100
AcDbEllipse
 10
245.1162209786
 20
120.5982118279
 30
0.0
 11
-0.9382876123696349
 21
2.751666891553285
 31
0.0
210
0.0
220
0.0
230
1.0
 40
0.8587453104
 41
1.512533060448152
 42
1.598222255876955
  0
ELLIPSE
  5
153
330
1F
100
AcDbEntity
  8
0
  6
HIDDEN
 62
     7
370
     0
100
AcDbEllipse
 10
245.2976285737
 20
120.1881268547
 30
0.0
 11
2.967222170038042
 21
-0.5785035440251391
 31
0.0
210
0.0
220
0.0
230
1.0
 40
0.1845741307
 41
4.206605014449003
 42
6.376989706411151
  0
LINE
  5
154
330
1F
100
AcDbEntity
  8
0
  6
HIDDEN
 62
     7
370
     0
100
AcDbLine
 10
241.7115870156
 20
122.1322142804
 30
0.0
 11
241.4139512219
 21
122.5263304362
 31
0.0
  0
LINE
  5
155
330
1F
100
AcDbEntity
  8
0
  6
HIDDEN
 62
     7
370
     0
100
AcDbLine
 10
246.0866722503
 20
124.2881396605
 30
0.0
 11
246.384308044
 21
123.8940237375
 31
0.0
  0
ELLIPSE
  5
156
330
1F
100
AcDbEntity
  8
0
  6
HIDDEN
 62
     7
370
     0
100
AcDbEllipse
 10
242.8227845256
 20
126.2390640472
 30
0.0
 11
3.671213746604338
 21
2.058398841174111
 31
0.0
210
0.0
220
0.0
230
1.0
 40
0.8772799171
 41
3.903713282588217
 42
5.178837123826597
  0
ELLIPSE
  5
157
330
1F
100
AcDbEntity
  8
0
  6
HIDDEN
 62
     7
370
     0
100
AcDbEllipse
 10
241.9249623881
 20
127.4279094887
 30
0.0
 11
-2.570105550204829
 21
3.403188827857264
 31
0.0
210
0.0
220
0.0
230
1.0
 40
0.9848432766
 41
0.8200772694514904
 42
4.184118694494119
  0
ARC
  5
158
330
1F
100
AcDbEntity
  8
0
  6
HIDDEN
 62
     7
370
     0
100
AcDbCircle
 10
243.4833491101
 20
125.3255977697
 30
0.0
 40
4.176519555980224
100
AcDbArc
 50
293.7527066643
 51
287.5641622218
  0
ARC
  5
159
330
1F
100
AcDbEntity
  8
0
  6
HIDDEN
 62
     7
370
     0
100
AcDbCircle
 10
240.3260927722
 20
117.6348156998
 30
0.0
 40
2.101385932544201
100
AcDbArc
 50
85.4977520676
 51
216.3317349318
  0
LINE
  5
15A
330
1F
100
AcDbEntity
  8
0
  6
HIDDEN
 62
     7
370
     0
100
AcDbLine
 10
240.4910478034
 20
119.7297172906
 30
0.0
 11
243.5968893805
 21
119.5045849593
 31
0.0
  0
LINE
  5
15B
330
1F
100
AcDbEntity
  8
0
  6
HIDDEN
 62
     7
370
     0
100
AcDbLine
 10
243.766621057
 20
119.9893066945
 30
0.0
 11
240.5343878307
 21
120.2236013772
 31
0.0
  0
ARC
  5
15C
330
1F
100
AcDbEntity
  8
0
  6
HIDDEN
 62
     7
370
     0
100
AcDbCircle
 10
240.0134075967
 20
118.0477256005
 30
0.0
 40
2.095851633638109
100
AcDbArc
 50
85.3385338485
 51
227.5531879678
  0
LINE
  5
15D
330
1F
100
AcDbEntity
  8
0
  6
HIDDEN
 62
     7
370
     0
100
AcDbLine
 10
242.5728368797
 20
108.1058569538
 30
0.0
 11
241.9266554751
 21
115.4506411689
 31
0.0
  0
LINE
  5
15E
330
1F
100
AcDbEntity
  8
0
  6
HIDDEN
 62
     7
370
     0
100
AcDbLine
 10
241.4236444273
 20
115.487103379
 30
0.0
 11
242.0692744889
 21
108.1485748576
 31
0.0
  0
LWPOLYLINE
  5
15F
330
1F
100
AcDbEntity
  8
0
  6
HIDDEN
 62
     7
370
     0
100
AcDbPolyline
 90
       26
 70
   128
 43
0.0
 10
215.3870764413
 20
133.057464874
 10
216.0087975898
 20
132.9827672156
 10
216.5914627948
 20
132.7633667091
 10
217.0984450021
 20
132.4130497227
 10
217.4978929796
 20
131.9538275996
 10
217.7647206225
 20
131.4145552745
 10
217.8821417727
 20
130.8291170566
 10
217.8427952566
 20
130.234298092
 10
217.6491472163
 20
129.667473287
 10
217.3133569994
 20
129.1642581631
 10
216.8565395513
 20
128.7562715291
 10
216.3073870578
 20
128.4691487375
 10
215.7004106083
 20
128.3209308452
 10
215.0737422743
 20
128.3209308452
 10
214.4667658248
 20
128.4691487375
 10
213.9176133313
 20
128.7562715291
 10
213.4607958832
 20
129.1642581631
 10
213.1250056663
 20
129.667473287
 10
212.931357626
 20
130.234298092
 10
212.8920111098
 20
130.8291170566
 10
213.00943226
 20
131.4145552745
 10
213.276259903
 20
131.9538275996
 10
213.6757078805
 20
132.4130497227
 10
214.1826900878
 20
132.7633667091
 10
214.7653478422
 20
132.9827672156
 10
215.3870764413
 20
133.057464874
  0
LINE
  5
160
330
1F
100
AcDbEntity
  8
0
  6
HIDDEN
 62
     7
370
     0
100
AcDbLine
 10
248.3847889342
 20
119.3718062999
 30
0.0
 11
248.4656873383
 21
119.151661201
 31
0.0
  0
LINE
  5
161
330
1F
100
AcDbEntity
  8
0
  6
HIDDEN
 62
     7
370
     0
100
AcDbLine
 10
248.4656873383
 20
119.151661201
 30
0.0
 11
252.8244334497
 21
118.8357100176
 31
0.0
  0
LINE
  5
162
330
1F
100
AcDbEntity
  8
0
  6
HIDDEN
 62
     7
370
     0
100
AcDbLine
 10
252.8244334497
 20
118.8357100176
 30
0.0
 11
252.7804228702
 21
119.3359252351
 31
0.0
  0
LINE
  5
163
330
1F
100
AcDbEntity
  8
0
  6
HIDDEN
 62
     7
370
     0
100
AcDbLine
 10
252.7804228702
 20
119.3359252351
 30
0.0
 11
248.2618096509
 21
119.6634657966
 31
0.0
  0
LINE
  5
164
330
1F
100
AcDbEntity
  8
0
  6
HIDDEN
 62
     7
370
     0
100
AcDbLine
 10
246.0866722503
 20
124.2881396605
 30
0.0
 11
247.1334043183
 21
121.0923581669
 31
0.0
  0
LINE
  5
165
330
1F
100
AcDbEntity
  8
0
  6
HIDDEN
 62
     7
370
     0
100
AcDbLine
 10
248.4656873383
 20
119.151661201
 30
0.0
 11
248.1583732405
 21
119.5585886302
 31
0.0
  0
LINE
  5
166
330
1F
100
AcDbEntity
  8
0
  6
HIDDEN
 62
     7
370
     0
100
AcDbLine
 10
248.1583732405
 20
119.5585886302
 30
0.0
 11
249.0146014132
 21
117.2287203657
 31
0.0
  0
SPLINE
  5
167
330
1F
100
AcDbEntity
  8
0
  6
HIDDEN
 62
     7
370
     0
100
AcDbSpline
210
0.0
220
0.0
230
1.0
 70
     8
 71
     3
 72
     8
 73
     4
 74
     0
 42
0.00000001
 43
0.00000001
 12
1.0
 22
0.0
 32
0.0
 13
1.0
 23
0.0
 33
0.0
 40
0.0
 40
0.0
 40
0.0
 40
0.0
 40
1.0
 40
1.0
 40
1.0
 40
1.0
 10
249.2106879441777
 20
116.6221302702132
 30
0.0
 10
249.1418389580946
 20
116.8323037163965
 30
0.0
 10
249.0771017952
 20
117.0330676974858
 30
0.0
 10
249.0145983078237
 20
117.228720152408
 30
0.0
  0
LINE
  5
168
330
1F
100
AcDbEntity
  8
0
  6
HIDDEN
 62
     7
370
     0
100
AcDbLine
 10
249.2106857934
 20
116.622130415
 30
0.0
 11
248.9697489181
 21
116.9411652075
 31
0.0
  0
LINE
  5
169
330
1F
100
AcDbEntity
  8
0
  6
HIDDEN
 62
     7
370
     0
100
AcDbLine
 10
252.5171193519
 20
119.2426374467
 30
0.0
 11
252.8244334497
 21
118.8357100176
 31
0.0
  0
SPLINE
  5
16A
330
1F
100
AcDbEntity
  8
0
  6
HIDDEN
 62
     7
370
     0
100
AcDbSpline
210
0.0
220
0.0
230
1.0
 70
     8
 71
     3
 72
     8
 73
     4
 74
     0
 42
0.00000001
 43
0.00000001
 12
1.0
 22
0.0
 32
0.0
 13
1.0
 23
0.0
 33
0.0
 40
0.0
 40
0.0
 40
0.0
 40
0.0
 40
1.0
 40
1.0
 40
1.0
 40
1.0
 10
143.8920361653197
 20
114.1595862303278
 30
0.0
 10
143.9427633085263
 20
114.1138319290026
 30
0.0
 10
144.0006506380872
 20
114.085327783139
 30
0.0
 10
144.0657557997024
 20
114.0736067534802
 30
0.0
  0
LINE
  5
16B
330
1F
100
AcDbEntity
  8
0
  6
HIDDEN
 62
     7
370
     0
100
AcDbLine
 10
143.6870761207
 20
113.9784343826
 30
0.0
 11
143.6870761207
 21
113.8785723882
 31
0.0
  0
SPLINE
  5
16C
330
1F
100
AcDbEntity
  8
0
  6
HIDDEN
 62
     7
370
     0
100
AcDbSpline
210
0.0
220
0.0
230
1.0
 70
     8
 71
     3
 72
    24
 73
    20
 74
     0
 42
0.00000001
 43
0.00000001
 12
1.0
 22
0.0
 32
0.0
 13
1.0
 23
0.0
 33
0.0
 40
0.0
 40
0.0
 40
0.0
 40
0.0
 40
0.2500000000000029
 40
0.2500000000000029
 40
0.3750000000000034
 40
0.3750000000000034
 40
0.4375000000000037
 40
0.4375000000000037
 40
0.468750000000003
 40
0.468750000000003
 40
0.5000000000000023
 40
0.5000000000000023
 40
0.5625000000000018
 40
0.5625000000000018
 40
0.6250000000000013
 40
0.6250000000000013
 40
0.7500000000000007
 40
0.7500000000000007
 40
1.0
 40
1.0
 40
1.0
 40
1.0
 10
143.687076143262
 20
113.978434373178
 30
0.0
 10
143.6874790538978
 20
114.008858610016
 30
0.0
 10
143.6895230332384
 20
114.0417167105701
 30
0.0
 10
143.6987602760645
 20
114.0977420777237
 30
0.0
 10
143.7026473390451
 20
114.1173531309092
 30
0.0
 10
143.7135512304517
 20
114.1516274143387
 30
0.0
 10
143.7176932762021
 20
114.1636898398109
 30
0.0
 10
143.7295883499549
 20
114.1860090045104
 30
0.0
 10
143.7348354142637
 20
114.1949755168706
 30
0.0
 10
143.7517024806428
 20
114.212625081397
 30
0.0
 10
143.7595248881678
 20
114.2167693655367
 30
0.0
 10
143.7764736887894
 20
114.2232569067107
 30
0.0
 10
143.7839300400074
 20
114.2226600253391
 30
0.0
 10
143.7979899431998
 20
114.2209137613671
 30
0.0
 10
143.8041223283358
 20
114.2190830734686
 30
0.0
 10
143.821417090859
 20
114.2125166638958
 30
0.0
 10
143.831434409268
 20
114.2066514487371
 30
0.0
 10
143.8598057435108
 20
114.1879067647067
 30
0.0
 10
143.8763411811552
 20
114.1737426166201
 30
0.0
 10
143.8920361653197
 20
114.1595862303278
 30
0.0
  0
LINE
  5
16D
330
1F
100
AcDbEntity
  8
0
  6
HIDDEN
 62
     7
370
     0
100
AcDbLine
 10
122.8870752492
 20
118.2410596224
 30
0.0
 11
122.8870752492
 21
114.4011402788
 31
0.0
  0
LINE
  5
16E
330
1F
100
AcDbEntity
  8
0
  6
HIDDEN
 62
     7
370
     0
100
AcDbLine
 10
121.3870759346
 20
118.6740724655
 30
0.0
 11
121.3870759346
 21
115.267165965
 31
0.0
  0
LINE
  5
16F
330
1F
100
AcDbEntity
  8
0
  6
HIDDEN
 62
     7
370
     0
100
AcDbLine
 10
143.6870761207
 20
117.9797752114
 30
0.0
 11
143.6870761207
 21
116.9246323692
 31
0.0
  0
SPLINE
  5
170
330
1F
100
AcDbEntity
  8
0
  6
HIDDEN
 62
     7
370
     0
100
AcDbSpline
210
0.0
220
0.0
230
1.0
 70
     8
 71
     3
 72
    16
 73
    12
 74
     0
 42
0.00000001
 43
0.00000001
 12
1.0
 22
0.0
 32
0.0
 13
1.0
 23
0.0
 33
0.0
 40
0.0
 40
0.0
 40
0.0
 40
0.0
 40
0.2499999999999987
 40
0.2499999999999987
 40
0.3749999999999986
 40
0.3749999999999986
 40
0.4999999999999986
 40
0.4999999999999986
 40
0.7499999999999992
 40
0.7499999999999992
 40
1.0
 40
1.0
 40
1.0
 40
1.0
 10
143.6870761432619
 20
116.9246327692389
 30
0.0
 10
143.6065388113627
 20
116.535625585295
 30
0.0
 10
143.5465014673355
 20
116.1791251436706
 30
0.0
 10
143.4857637601818
 20
115.6926227584833
 30
0.0
 10
143.4704413850689
 20
115.5385438176298
 30
0.0
 10
143.4498585757646
 20
115.2470742591372
 30
0.0
 10
143.4446589787389
 20
115.1095043752383
 30
0.0
 10
143.4446053255586
 20
114.7312595400491
 30
0.0
 10
143.4648028690361
 20
114.521378471497
 30
0.0
 10
143.5454809573935
 20
114.1847991725852
 30
0.0
 10
143.6065271220006
 20
114.0585146806666
 30
0.0
 10
143.6870761432582
 20
113.9784343731742
 30
0.0
  0
SPLINE
  5
171
330
1F
100
AcDbEntity
  8
0
  6
HIDDEN
 62
     7
370
     0
100
AcDbSpline
210
0.0
220
0.0
230
1.0
 70
     8
 71
     3
 72
     8
 73
     4
 74
     0
 42
0.00000001
 43
0.00000001
 12
1.0
 22
0.0
 32
0.0
 13
1.0
 23
0.0
 33
0.0
 40
0.0
 40
0.0
 40
0.0
 40
0.0
 40
1.0
 40
1.0
 40
1.0
 40
1.0
 10
144.0657557997024
 20
141.7237347694905
 30
0.0
 10
144.0006506380884
 20
141.7120137398319
 30
0.0
 10
143.9427633085284
 20
141.6835095939692
 30
0.0
 10
143.8920361653224
 20
141.6377552926454
 30
0.0
  0
LINE
  5
172
330
1F
100
AcDbEntity
  8
0
  6
HIDDEN
 62
     7
370
     0
100
AcDbLine
 10
143.6870761207
 20
141.9187691348
 30
0.0
 11
143.6870761207
 21
141.8189071404
 31
0.0
  0
SPLINE
  5
173
330
1F
100
AcDbEntity
  8
0
  6
HIDDEN
 62
     7
370
     0
100
AcDbSpline
210
0.0
220
0.0
230
1.0
 70
     8
 71
     3
 72
    24
 73
    20
 74
     0
 42
0.00000001
 43
0.00000001
 12
1.0
 22
0.0
 32
0.0
 13
1.0
 23
0.0
 33
0.0
 40
0.0
 40
0.0
 40
0.0
 40
0.0
 40
0.2499999999999952
 40
0.2499999999999952
 40
0.374999999999992
 40
0.374999999999992
 40
0.4374999999999901
 40
0.4374999999999901
 40
0.4999999999999882
 40
0.4999999999999882
 40
0.5312499999999873
 40
0.5312499999999873
 40
0.5624999999999863
 40
0.5624999999999863
 40
0.6249999999999889
 40
0.6249999999999889
 40
0.7499999999999939
 40
0.7499999999999939
 40
1.0
 40
1.0
 40
1.0
 40
1.0
 10
143.8920361653224
 20
141.6377552926454
 30
0.0
 10
143.8762695770241
 20
141.6235343216571
 30
0.0
 10
143.8596580440694
 20
141.6093040313223
 30
0.0
 10
143.8311316961114
 20
141.5905069761008
 30
0.0
 10
143.8210462623215
 20
141.5846185557595
 30
0.0
 10
143.8035634917865
 20
141.5780811609572
 30
0.0
 10
143.797355835341
 20
141.576269946956
 30
0.0
 10
143.7830843350958
 20
141.5746641444495
 30
0.0
 10
143.7755142645927
 20
141.5741113670634
 30
0.0
 10
143.7581179351574
 20
141.5813101117762
 30
0.0
 10
143.7496586621974
 20
141.5864018605239
 30
0.0
 10
143.7335976976498
 20
141.6042167930031
 30
0.0
 10
143.7287644618035
 20
141.6127392078654
 30
0.0
 10
143.7173385420683
 20
141.6346356445142
 30
0.0
 10
143.7133171861858
 20
141.6463761673201
 30
0.0
 10
143.7025566911547
 20
141.6804264312734
 30
0.0
 10
143.6986823820938
 20
141.7000014203022
 30
0.0
 10
143.6895095099667
 20
141.7558497289833
 30
0.0
 10
143.6874771392519
 20
141.7886274900122
 30
0.0
 10
143.687076143262
 20
141.8189071498001
 30
0.0
  0
LINE
  5
174
330
1F
100
AcDbEntity
  8
0
  6
HIDDEN
 62
     7
370
     0
100
AcDbLine
 10
122.8870752492
 20
141.3962012442
 30
0.0
 11
122.8870752492
 21
137.5562819006
 31
0.0
  0
LINE
  5
175
330
1F
100
AcDbEntity
  8
0
  6
HIDDEN
 62
     7
370
     0
100
AcDbLine
 10
143.6870761207
 20
138.8727091538
 30
0.0
 11
143.6870761207
 21
137.8175663116
 31
0.0
  0
SPLINE
  5
176
330
1F
100
AcDbEntity
  8
0
  6
HIDDEN
 62
     7
370
     0
100
AcDbSpline
210
0.0
220
0.0
230
1.0
 70
     8
 71
     3
 72
    16
 73
    12
 74
     0
 42
0.00000001
 43
0.00000001
 12
1.0
 22
0.0
 32
0.0
 13
1.0
 23
0.0
 33
0.0
 40
0.0
 40
0.0
 40
0.0
 40
0.0
 40
0.2499999999999997
 40
0.2499999999999997
 40
0.3749999999999997
 40
0.3749999999999997
 40
0.4999999999999998
 40
0.4999999999999998
 40
0.7499999999999999
 40
0.7499999999999999
 40
1.0
 40
1.0
 40
1.0
 40
1.0
 10
143.6870761432619
 20
141.8189071498003
 30
0.0
 10
143.6065388113624
 20
141.7388384636477
 30
0.0
 10
143.546501467335
 20
141.6149739721571
 30
0.0
 10
143.4857637601814
 20
141.3642931482242
 30
0.0
 10
143.4704413850685
 20
141.2698545439144
 30
0.0
 10
143.4498585757644
 20
141.0585434762949
 30
0.0
 10
143.4446589787388
 20
140.9412540215409
 30
0.0
 10
143.4446053255589
 20
140.5632183497844
 30
0.0
 10
143.4648028690369
 20
140.2744411960393
 30
0.0
 10
143.5454809573956
 20
139.6246013328981
 30
0.0
 10
143.6065271220035
 20
139.2617723990041
 30
0.0
 10
143.687076143262
 20
138.8727087537311
 30
0.0
  0
LINE
  5
177
330
1F
100
AcDbEntity
  8
0
  6
HIDDEN
 62
     7
370
     0
100
AcDbLine
 10
121.3870759346
 20
140.5301755579
 30
0.0
 11
121.3870759346
 21
137.1232690575
 31
0.0
  0
LINE
  5
178
330
1F
100
AcDbEntity
  8
0
  6
HIDDEN
 62
     7
370
     0
100
AcDbLine
 10
253.000051085
 20
108.0695279228
 30
0.0
 11
253.458060626
 21
108.5473746346
 31
0.0
  0
LINE
  5
179
330
1F
100
AcDbEntity
  8
0
  6
HIDDEN
 62
     7
370
     0
100
AcDbLine
 10
244.3418729343
 20
115.4669104429
 30
0.0
 11
242.7798587122
 21
119.7173074173
 31
0.0
  0
ARC
  5
17A
330
1F
100
AcDbEntity
  8
0
  6
HIDDEN
 62
     7
370
     0
100
AcDbCircle
 10
247.6298918588
 20
113.8238064908
 30
0.0
 40
3.675712046027506
100
AcDbArc
 50
153.4475734764
 51
67.8694195816
  0
LINE
  5
17B
330
1F
100
AcDbEntity
  8
0
  6
HIDDEN
 62
     7
370
     0
100
AcDbLine
 10
252.5171193519
 20
119.2426374467
 30
0.0
 11
248.1583732405
 21
119.5585886302
 31
0.0
  0
LINE
  5
17C
330
1F
100
AcDbEntity
  8
0
  6
HIDDEN
 62
     7
370
     0
100
AcDbLine
 10
241.6193413773
 20
115.857568598
 30
0.0
 11
242.2400641479
 21
108.8021081226
 31
0.0
  0
LINE
  5
17D
330
1F
100
AcDbEntity
  8
0
  6
HIDDEN
 62
     7
370
     0
100
AcDbLine
 10
242.7026110926
 20
119.954058929
 30
0.0
 11
240.1837337055
 21
120.1366447197
 31
0.0
  0
LINE
  5
17E
330
1F
100
AcDbEntity
  8
0
  6
HIDDEN
 62
     7
370
     0
100
AcDbLine
 10
253.458060626
 20
108.5473746346
 30
0.0
 11
252.5171193519
 21
119.2426374467
 31
0.0
  0
ARC
  5
17F
330
1F
100
AcDbEntity
  8
0
  6
HIDDEN
 62
     7
370
     0
100
AcDbCircle
 10
247.5037302333
 20
113.8529124725
 30
0.0
 40
3.132193737149375
100
AcDbArc
 50
161.2384423674
 51
282.6311678987
  0
ARC
  5
180
330
1F
100
AcDbEntity
  8
0
  6
HIDDEN
 62
     7
370
     0
100
AcDbCircle
 10
247.5775136944
 20
113.9179431751
 30
0.0
 40
3.159094764925794
100
AcDbArc
 50
304.3124209748
 51
58.8704610931
  0
SPLINE
  5
181
330
1F
100
AcDbEntity
  8
0
  6
HIDDEN
 62
     7
370
     0
100
AcDbSpline
210
0.0
220
0.0
230
1.0
 70
     8
 71
     3
 72
     8
 73
     4
 74
     0
 42
0.00000001
 43
0.00000001
 12
1.0
 22
0.0
 32
0.0
 13
1.0
 23
0.0
 33
0.0
 40
0.0
 40
0.0
 40
0.0
 40
0.0
 40
1.0
 40
1.0
 40
1.0
 40
1.0
 10
244.341873876386
 20
115.4669108897258
 30
0.0
 10
244.4043773637623
 20
115.2712584348037
 30
0.0
 10
244.4691145266569
 20
115.0704944537146
 30
0.0
 10
244.53796351274
 20
114.8603210075315
 30
0.0
  0
SPLINE
  5
182
330
1F
100
AcDbEntity
  8
0
  6
HIDDEN
 62
     7
370
     0
100
AcDbSpline
210
0.0
220
0.0
230
1.0
 70
     8
 71
     3
 72
    10
 73
     6
 74
     0
 42
0.00000001
 43
0.00000001
 12
1.0
 22
0.0
 32
0.0
 13
1.0
 23
0.0
 33
0.0
 40
0.0
 40
0.0
 40
0.0
 40
0.0
 40
0.5
 40
0.5
 40
1.0
 40
1.0
 40
1.0
 40
1.0
 10
244.2970269333958
 20
115.1793556382214
 30
0.0
 10
244.2476308908844
 20
115.2447630920129
 30
0.0
 10
244.2159665675838
 20
115.3626328605311
 30
0.0
 10
244.1763579069527
 20
115.6423423465545
 30
0.0
 10
244.1693308655028
 20
115.8055722611326
 30
0.0
 10
244.1781895704229
 20
115.9818159360022
 30
0.0
  0
ARC
  5
183
330
1F
100
AcDbEntity
  8
0
  6
HIDDEN
 62
     7
370
     0
100
AcDbCircle
 10
246.9632437673
 20
114.5579601786
 30
0.0
 40
3.127920167248347
100
AcDbArc
 50
152.9216431999
 51
255.3360913029
  0
ARC
  5
184
330
1F
100
AcDbEntity
  8
0
  6
HIDDEN
 62
     7
370
     0
100
AcDbCircle
 10
247.0182230534
 20
114.6097407355
 30
0.0
 40
3.17833221435426
100
AcDbArc
 50
272.6385927579
 51
66.6457063567
  0
SPLINE
  5
185
330
1F
100
AcDbEntity
  8
0
  6
HIDDEN
 62
     7
370
     0
100
AcDbSpline
210
0.0
220
0.0
230
1.0
 70
     8
 71
     3
 72
    10
 73
     6
 74
     0
 42
0.00000001
 43
0.00000001
 12
1.0
 22
0.0
 32
0.0
 13
1.0
 23
0.0
 33
0.0
 40
0.0
 40
0.0
 40
0.0
 40
0.0
 40
0.5
 40
0.5
 40
1.0
 40
1.0
 40
1.0
 40
1.0
 10
248.2781673552133
 20
117.5276761603796
 30
0.0
 10
248.4415651651994
 20
117.4165971189972
 30
0.0
 10
248.5845869766452
 20
117.3054839396882
 30
0.0
 10
248.8231596715225
 20
117.1009101307751
 30
0.0
 10
248.9204432410617
 20
117.0064559376593
 30
0.0
 10
248.9697513648335
 20
116.9411649009042
 30
0.0
  0
LINE
  5
186
330
1F
100
AcDbEntity
  8
0
  6
HIDDEN
 62
     7
370
     0
100
AcDbLine
 10
244.2970278897
 20
115.1793552848
 30
0.0
 11
244.5379647651
 21
114.8603214236
 31
0.0
  0
SPLINE
  5
187
330
1F
100
AcDbEntity
  8
0
  6
HIDDEN
 62
     7
370
     0
100
AcDbSpline
210
0.0
220
0.0
230
1.0
 70
     8
 71
     3
 72
    16
 73
    12
 74
     0
 42
0.00000001
 43
0.00000001
 12
1.0
 22
0.0
 32
0.0
 13
1.0
 23
0.0
 33
0.0
 40
0.0
 40
0.0
 40
0.0
 40
0.0
 40
0.0831303917827991
 40
0.166278595123228
 40
0.2494737300455634
 40
0.3743129187441329
 40
0.4993001434452398
 40
0.6242836786993369
 40
0.74947879560753
 40
0.8746443321849021
 40
1.0
 40
1.0
 40
1.0
 40
1.0
 10
253.4580595126552
 20
108.5473742379697
 30
0.0
 10
253.4385476190922
 20
108.603308167244
 30
0.0
 10
253.3995196513387
 20
108.715188010223
 30
0.0
 10
253.3402594782166
 20
108.8937552114783
 30
0.0
 10
253.2705204467162
 20
109.1112347510331
 30
0.0
 10
253.1898934336699
 20
109.3740340953257
 30
0.0
 10
253.0980785650738
 20
109.6882022103649
 30
0.0
 10
253.0051752701711
 20
110.0207969112781
 30
0.0
 10
252.91128490649
 20
110.3717899918379
 30
0.0
 10
252.8164968468733
 20
110.7395303725416
 30
0.0
 10
252.7526467778545
 20
110.9993216402143
 30
0.0
 10
252.7206975140734
 20
111.129315857393
 30
0.0
  0
LWPOLYLINE
  5
188
330
1F
100
AcDbEntity
  8
0
  6
HIDDEN
 62
     7
370
     0
100
AcDbPolyline
 90
       29
 70
   128
 43
0.0
 10
215.3870764413
 20
133.589229575
 10
216.0546410122
 20
133.517694688
 10
216.6887301245
 20
133.3066770161
 10
217.2575447001
 20
132.9667577805
 10
217.7325713673
 20
132.5149825128
 10
218.0899831691
 20
131.9740042376
 10
218.3118614593
 20
131.3709500531
 10
218.3870750704
 20
130.7360602362
 10
218.3118614593
 20
130.1011701865
 10
218.0899831691
 20
129.4981163513
 10
217.7325713673
 20
128.9571380761
 10
217.2575447001
 20
128.5053624009
 10
216.6887301245
 20
128.1654432526
 10
216.0546410122
 20
127.9544255734
 10
215.3870764413
 20
127.8828906555
 10
214.7195118704
 20
127.9544255734
 10
214.0854227581
 20
128.1654432526
 10
213.5166081824
 20
128.5053624009
 10
213.0415815153
 20
128.9571380761
 10
212.6841697135
 20
129.4981163513
 10
212.4622914233
 20
130.1011701865
 10
212.3870778122
 20
130.7360602362
 10
212.4622914233
 20
131.3709500531
 10
212.6841697135
 20
131.9740042376
 10
213.0415815153
 20
132.5149825128
 10
213.5166081824
 20
132.9667577805
 10
214.0854227581
 20
133.3066770161
 10
214.7195118704
 20
133.517694688
 10
215.3870764413
 20
133.589229575
  0
LWPOLYLINE
  5
189
330
1F
100
AcDbEntity
  8
0
  6
HIDDEN
 62
     7
370
     0
100
AcDbPolyline
 90
       13
 70
   128
 43
0.0
 10
242.46068329
 20
119.3305487098
 10
242.6910999455
 20
118.9001370506
 10
243.0650296845
 20
118.5590885865
 10
243.5569989719
 20
118.3306472661
 10
244.1334727445
 20
118.2303792151
 10
244.7551640906
 20
118.2651175471
 10
245.3797164597
 20
118.4324957715
 10
245.9645572343
 20
118.7211070495
 10
246.4698332586
 20
119.1112837108
 10
246.8611153998
 20
119.5764346333
 10
247.1117305794
 20
120.0848603906
 10
247.2046020665
 20
120.6019139202
 10
247.1334043183
 20
121.0923581669
  0
ELLIPSE
  5
18A
330
1F
100
AcDbEntity
  8
0
  6
HIDDEN
 62
     7
370
     0
100
AcDbEllipse
 10
245.747158212
 20
118.0636493233
 30
0.0
 11
-0.938287612369635
 21
2.75166689155327
 31
0.0
210
0.0
220
0.0
230
1.0
 40
0.8587453104
 41
2.098545205328454
 42
4.239491960015243
  0
LINE
  5
18B
330
1F
100
AcDbEntity
  8
0
  6
HIDDEN
 62
     7
370
     0
100
AcDbLine
 10
121.3870759346
 20
137.1232690575
 30
0.0
 11
121.3870759346
 21
129.748884617
 31
0.0
  0
LINE
  5
18C
330
1F
100
AcDbEntity
  8
0
  6
HIDDEN
 62
     7
370
     0
100
AcDbLine
 10
121.3870759346
 20
126.048456906
 30
0.0
 11
121.3870759346
 21
118.6740724655
 31
0.0
  0
SPLINE
  5
18D
330
1F
100
AcDbEntity
  8
0
  6
HIDDEN
 62
     7
370
     0
100
AcDbSpline
210
0.0
220
0.0
230
1.0
 70
     8
 71
     3
 72
    24
 73
    20
 74
     0
 42
0.00000001
 43
0.00000001
 12
1.0
 22
0.0
 32
0.0
 13
1.0
 23
0.0
 33
0.0
 40
0.0
 40
0.0
 40
0.0
 40
0.0
 40
0.2499999999999941
 40
0.2499999999999941
 40
0.3749999999999893
 40
0.3749999999999893
 40
0.4374999999999869
 40
0.4374999999999869
 40
0.4999999999999844
 40
0.4999999999999844
 40
0.5312499999999856
 40
0.5312499999999856
 40
0.5624999999999869
 40
0.5624999999999869
 40
0.6249999999999892
 40
0.6249999999999892
 40
0.7499999999999919
 40
0.7499999999999919
 40
1.0
 40
1.0
 40
1.0
 40
1.0
 10
143.8920361653224
 20
117.1060770346872
 30
0.0
 10
143.876267287965
 20
117.0322183427576
 30
0.0
 10
143.859653306115
 20
116.9585069540218
 30
0.0
 10
143.8311216401099
 20
116.8469601303998
 30
0.0
 10
143.8210342252912
 20
116.8095885572713
 30
0.0
 10
143.8035466648369
 20
116.7526890596336
 30
0.0
 10
143.7973371030536
 20
116.7335859594883
 30
0.0
 10
143.783059549401
 20
116.6947124452528
 30
0.0
 10
143.7754880016056
 20
116.6747877858194
 30
0.0
 10
143.7580704179273
 20
116.644715567792
 30
0.0
 10
143.7495879212823
 20
116.633034188989
 30
0.0
 10
143.7335496094105
 20
116.6257726782403
 30
0.0
 10
143.728729061207
 20
116.6293509252501
 30
0.0
 10
143.717319836659
 20
116.6411117804817
 30
0.0
 10
143.7132993562015
 20
116.6527774305323
 30
0.0
 10
143.7025455013812
 20
116.6893127606458
 30
0.0
 10
143.698672820099
 20
116.7167084939694
 30
0.0
 10
143.6895046702614
 20
116.8014344857253
 30
0.0
 10
143.6874761648923
 20
116.8622666078974
 30
0.0
 10
143.6870761432621
 20
116.9246327692391
 30
0.0
  0
SPLINE
  5
18E
330
1F
100
AcDbEntity
  8
0
  6
HIDDEN
 62
     7
370
     0
100
AcDbSpline
210
0.0
220
0.0
230
1.0
 70
     8
 71
     3
 72
    24
 73
    20
 74
     0
 42
0.00000001
 43
0.00000001
 12
1.0
 22
0.0
 32
0.0
 13
1.0
 23
0.0
 33
0.0
 40
0.0
 40
0.0
 40
0.0
 40
0.0
 40
0.2499999999999903
 40
0.2499999999999903
 40
0.3749999999999855
 40
0.3749999999999855
 40
0.437499999999985
 40
0.437499999999985
 40
0.4687499999999853
 40
0.4687499999999853
 40
0.4999999999999856
 40
0.4999999999999856
 40
0.5624999999999878
 40
0.5624999999999878
 40
0.62499999999999
 40
0.62499999999999
 40
0.7499999999999944
 40
0.7499999999999944
 40
1.0
 40
1.0
 40
1.0
 40
1.0
 10
143.6870761432584
 20
138.872708753734
 30
0.0
 10
143.687480812834
 20
138.9357995622275
 30
0.0
 10
143.6895242596483
 20
138.9969852847309
 30
0.0
 10
143.6989238249022
 20
139.0824850172341
 30
0.0
 10
143.7028747184308
 20
139.1100654006757
 30
0.0
 10
143.7140270267271
 20
139.1465194827884
 30
0.0
 10
143.7182485676535
 20
139.158377904483
 30
0.0
 10
143.7304562892158
 20
139.1689979558604
 30
0.0
 10
143.7362470594662
 20
139.1718313230846
 30
0.0
 10
143.7531685725759
 20
139.1605167360919
 30
0.0
 10
143.7605746885272
 20
139.1487358503377
 30
0.0
 10
143.7770319417718
 20
139.1186950091075
 30
0.0
 10
143.7844884596829
 20
139.0989820554941
 30
0.0
 10
143.7983963889579
 20
139.0605799894335
 30
0.0
 10
143.804488334853
 20
139.0416983395218
 30
0.0
 10
143.8216826272045
 20
138.9853974289896
 30
0.0
 10
143.8316675774082
 20
138.9483213511795
 30
0.0
 10
143.8599136225075
 20
138.8376626802884
 30
0.0
 10
143.8763931594688
 20
138.7645336198791
 30
0.0
 10
143.8920361653287
 20
138.6912644882544
 30
0.0
  0
SPLINE
  5
18F
330
1F
100
AcDbEntity
  8
0
  6
HIDDEN
 62
     7
370
     0
100
AcDbSpline
210
0.0
220
0.0
230
1.0
 70
     8
 71
     3
 72
     8
 73
     4
 74
     0
 42
0.00000001
 43
0.00000001
 12
1.0
 22
0.0
 32
0.0
 13
1.0
 23
0.0
 33
0.0
 40
0.0
 40
0.0
 40
0.0
 40
0.0
 40
1.0
 40
1.0
 40
1.0
 40
1.0
 10
144.0657557997024
 20
117.8451514438786
 30
0.0
 10
144.0006506380884
 20
117.5901262086729
 30
0.0
 10
143.9427633085284
 20
117.3436741925317
 30
0.0
 10
143.8920361653224
 20
117.1060770346871
 30
0.0
  0
SPLINE
  5
190
330
1F
100
AcDbEntity
  8
0
  6
HIDDEN
 62
     7
370
     0
100
AcDbSpline
210
0.0
220
0.0
230
1.0
 70
     8
 71
     3
 72
     8
 73
     4
 74
     0
 42
0.00000001
 43
0.00000001
 12
1.0
 22
0.0
 32
0.0
 13
1.0
 23
0.0
 33
0.0
 40
0.0
 40
0.0
 40
0.0
 40
0.0
 40
1.0
 40
1.0
 40
1.0
 40
1.0
 10
143.8920361653286
 20
138.6912644882544
 30
0.0
 10
143.9427633085331
 20
138.4536673304189
 30
0.0
 10
144.000650638091
 20
138.2072153142874
 30
0.0
 10
144.0657557997024
 20
137.9521900790922
 30
0.0
  0
LINE
  5
191
330
1F
100
AcDbEntity
  8
0
  6
HIDDEN
 62
     7
370
     0
100
AcDbLine
 10
122.8870752492
 20
125.3436424589
 30
0.0
 11
122.8870752492
 21
118.2410596224
 31
0.0
  0
LINE
  5
192
330
1F
100
AcDbEntity
  8
0
  6
HIDDEN
 62
     7
370
     0
100
AcDbLine
 10
122.8870752492
 20
137.5562819006
 30
0.0
 11
122.8870752492
 21
130.4536990641
 31
0.0
  0
LINE
  5
193
330
1F
100
AcDbEntity
  8
0
  6
HIDDEN
 62
     7
370
     0
100
AcDbLine
 10
143.6870761207
 20
137.8175663116
 30
0.0
 11
143.6870761207
 21
117.9797752114
 31
0.0
  0
LINE
  5
194
330
1F
100
AcDbEntity
  8
0
  6
HIDDEN
 62
     7
370
     0
100
AcDbLine
 10
242.46068329
 20
119.3305487098
 30
0.0
 11
241.4139512219
 21
122.5263304362
 31
0.0
  0
LINE
  5
195
330
1F
100
AcDbEntity
  8
0
  6
HIDDEN
 62
     7
370
     0
100
AcDbLine
 10
145.1870761483
 20
136.3780377718
 30
0.0
 11
145.1870761483
 21
119.4193037512
 31
0.0
  0
SPLINE
  5
196
330
1F
100
AcDbEntity
  8
0
  6
HIDDEN
 62
     7
370
     0
100
AcDbSpline
210
0.0
220
0.0
230
1.0
 70
     8
 71
     3
 72
     8
 73
     4
 74
     0
 42
0.00000001
 43
0.00000001
 12
1.0
 22
0.0
 32
0.0
 13
1.0
 23
0.0
 33
0.0
 40
0.0000137051794235
 40
0.0000137051794235
 40
0.0000137051794235
 40
0.0000137051794235
 40
0.0027147144718018
 40
0.0027147144718018
 40
0.0027147144718018
 40
0.0027147144718018
 10
122.887076143262
 20
125.3436425244236
 30
0.0
 10
123.7870722787568
 20
125.3306709572253
 30
0.0
 10
124.6870724573522
 20
125.3180360999132
 30
0.0
 10
125.587076143262
 20
125.3057260816574
 30
0.0
  0
SPLINE
  5
197
330
1F
100
AcDbEntity
  8
0
  6
HIDDEN
 62
     7
370
     0
100
AcDbSpline
210
0.0
220
0.0
230
1.0
 70
     8
 71
     3
 72
     8
 73
     4
 74
     0
 42
0.00000001
 43
0.00000001
 12
1.0
 22
0.0
 32
0.0
 13
1.0
 23
0.0
 33
0.0
 40
0.0000137050638847
 40
0.0000137050638847
 40
0.0000137050638847
 40
0.0000137050638847
 40
0.0027147143562631
 40
0.0027147143562631
 40
0.0027147143562631
 40
0.0027147143562631
 10
125.587076143262
 20
130.4916154413133
 30
0.0
 10
124.6870724573522
 20
130.4793054230576
 30
0.0
 10
123.7870722787568
 20
130.4666705657455
 30
0.0
 10
122.887076143262
 20
130.4536989985471
 30
0.0
  0
SPLINE
  5
198
330
1F
100
AcDbEntity
  8
0
  6
HIDDEN
 62
     7
370
     0
100
AcDbSpline
210
0.0
220
0.0
230
1.0
 70
     8
 71
     3
 72
    10
 73
     6
 74
     0
 42
0.00000001
 43
0.00000001
 12
1.0
 22
0.0
 32
0.0
 13
1.0
 23
0.0
 33
0.0
 40
0.0
 40
0.0
 40
0.0
 40
0.0
 40
0.5
 40
0.5
 40
1.0
 40
1.0
 40
1.0
 40
1.0
 10
121.3870761432612
 20
126.0484569478353
 30
0.0
 10
121.624218103977
 20
125.8928421333064
 30
0.0
 10
121.8695608627405
 20
125.7609331038871
 30
0.0
 10
122.3708244514735
 20
125.5292762272496
 30
0.0
 10
122.6268590207239
 20
125.4298306111268
 30
0.0
 10
122.887076143262
 20
125.3436425244236
 30
0.0
  0
SPLINE
  5
199
330
1F
100
AcDbEntity
  8
0
  6
HIDDEN
 62
     7
370
     0
100
AcDbSpline
210
0.0
220
0.0
230
1.0
 70
     8
 71
     3
 72
    10
 73
     6
 74
     0
 42
0.00000001
 43
0.00000001
 12
1.0
 22
0.0
 32
0.0
 13
1.0
 23
0.0
 33
0.0
 40
0.0
 40
0.0
 40
0.0
 40
0.0
 40
0.5
 40
0.5
 40
1.0
 40
1.0
 40
1.0
 40
1.0
 10
122.887076143262
 20
130.4536989985471
 30
0.0
 10
122.626859020724
 20
130.3675109118441
 30
0.0
 10
122.3708244514739
 20
130.2680652957213
 30
0.0
 10
121.8695608627411
 20
130.036408419084
 30
0.0
 10
121.6242181039778
 20
129.9044993896648
 30
0.0
 10
121.387076143262
 20
129.7488845751361
 30
0.0
  0
LINE
  5
19A
330
1F
100
AcDbEntity
  8
0
  6
HIDDEN
 62
     7
370
     0
100
AcDbLine
 10
121.3870759346
 20
126.048456906
 30
0.0
 11
121.3870759346
 21
129.748884617
 31
0.0
  0
LINE
  5
19B
330
1F
100
AcDbEntity
  8
0
  6
HIDDEN
 62
     7
370
     0
100
AcDbLine
 10
125.5870762506
 20
125.3057259886
 30
0.0
 11
125.5870762506
 21
130.4916155344
 31
0.0
  0
SPLINE
  5
19C
330
1F
100
AcDbEntity
  8
0
  6
HIDDEN
 62
     7
370
     0
100
AcDbSpline
210
0.0
220
0.0
230
1.0
 70
     8
 71
     3
 72
    22
 73
    18
 74
     0
 42
0.00000001
 43
0.00000001
 12
1.0
 22
0.0
 32
0.0
 13
1.0
 23
0.0
 33
0.0
 40
0.0
 40
0.0
 40
0.0
 40
0.0
 40
0.125
 40
0.125
 40
0.2500000000000001
 40
0.2500000000000001
 40
0.3750000000000001
 40
0.3750000000000001
 40
0.5000000000000001
 40
0.5000000000000001
 40
0.6250000000000001
 40
0.6250000000000001
 40
0.75
 40
0.75
 40
0.875
 40
0.875
 40
1.0
 40
1.0
 40
1.0
 40
1.0
 10
125.587076143262
 20
125.3057260816574
 30
0.0
 10
125.7680125013382
 20
125.497345940964
 30
0.0
 10
125.9471079501151
 20
125.6909878053512
 30
0.0
 10
126.2979479386271
 20
126.0856430587354
 30
0.0
 10
126.4701410465318
 20
126.286654589403
 30
0.0
 10
126.795872552151
 20
126.7028657046367
 30
0.0
 10
126.9519487873194
 20
126.9188815449235
 30
0.0
 10
127.2033280012084
 20
127.3842043080882
 30
0.0
 10
127.2971931315272
 20
127.639743501111
 30
0.0
 10
127.2934652146651
 20
128.1740741362116
 30
0.0
 10
127.1960925721777
 20
128.4294950022123
 30
0.0
 10
126.9442717631838
 20
128.88952371816
 30
0.0
 10
126.7893025077113
 20
129.1033607190886
 30
0.0
 10
126.464489749986
 20
129.5173993017823
 30
0.0
 10
126.2935966858581
 20
129.7166917738182
 30
0.0
 10
125.9449624463305
 20
130.1086666662523
 30
0.0
 10
125.766954595802
 20
130.3011159522418
 30
0.0
 10
125.587076143262
 20
130.4916154413133
 30
0.0
  0
SPLINE
  5
19D
330
1F
100
AcDbEntity
  8
0
  6
HIDDEN
 62
     7
370
     0
100
AcDbSpline
210
0.0
220
0.0
230
1.0
 70
     8
 71
     3
 72
    11
 73
     7
 74
     0
 42
0.00000001
 43
0.00000001
 12
1.0
 22
0.0
 32
0.0
 13
1.0
 23
0.0
 33
0.0
 40
0.0
 40
0.0
 40
0.0
 40
0.0
 40
0.2505835439358288
 40
0.5007661998876368
 40
0.7505657354279486
 40
1.0
 40
1.0
 40
1.0
 40
1.0
 10
252.7206999420355
 20
111.1293170009
 30
0.0
 10
252.6954573584739
 20
111.0298254656107
 30
0.0
 10
252.645012574882
 20
110.8310015633494
 30
0.0
 10
252.5735937247092
 20
110.5397576579308
 30
0.0
 10
252.5050890380158
 20
110.2536508536191
 30
0.0
 10
252.4622710731796
 20
110.0679290145805
 30
0.0
 10
252.4408777549248
 20
109.9751360379729
 30
0.0
  0
ELLIPSE
  5
19E
330
1F
100
AcDbEntity
  8
0
  6
HIDDEN
 62
     7
370
     0
100
AcDbEllipse
 10
252.8330172635
 20
121.8986707615
 30
0.0
 11
-1.744099306549231
 21
16.99926090527391
 31
0.0
210
0.0
220
0.0
230
1.0
 40
0.090889472
 41
1.56147147018563
 42
2.247528719831001
  0
SPLINE
  5
19F
330
1F
100
AcDbEntity
  8
0
  6
HIDDEN
 62
     7
370
     0
100
AcDbSpline
210
0.0
220
0.0
230
1.0
 70
     8
 71
     3
 72
    62
 73
    58
 74
     0
 42
0.00000001
 43
0.00000001
 12
1.0
 22
0.0
 32
0.0
 13
1.0
 23
0.0
 33
0.0
 40
-0.03125
 40
-0.03125
 40
0.0
 40
0.0
 40
0.0312499999999999
 40
0.0312499999999999
 40
0.0624999999999997
 40
0.0624999999999997
 40
0.0937499999999996
 40
0.0937499999999996
 40
0.1249999999999994
 40
0.1249999999999994
 40
0.1874999999999994
 40
0.1874999999999994
 40
0.2499999999999995
 40
0.2499999999999995
 40
0.2812499999999996
 40
0.2812499999999996
 40
0.3124999999999996
 40
0.3124999999999996
 40
0.3437499999999997
 40
0.3437499999999997
 40
0.3749999999999997
 40
0.3749999999999997
 40
0.4374999999999997
 40
0.4374999999999997
 40
0.4687499999999998
 40
0.4687499999999998
 40
0.4999999999999998
 40
0.4999999999999998
 40
0.5625000000000001
 40
0.5625000000000001
 40
0.5937500000000001
 40
0.5937500000000001
 40
0.6250000000000001
 40
0.6250000000000001
 40
0.6562500000000001
 40
0.6562500000000001
 40
0.6875000000000001
 40
0.6875000000000001
 40
0.7187500000000001
 40
0.7187500000000001
 40
0.75
 40
0.75
 40
0.78125
 40
0.78125
 40
0.8125
 40
0.8125
 40
0.84375
 40
0.84375
 40
0.875
 40
0.875
 40
0.90625
 40
0.90625
 40
0.9375
 40
0.9375
 40
0.96875
 40
0.96875
 40
1.0
 40
1.0
 40
1.03125
 40
1.03125
 10
131.8408482711903
 20
129.3866498001417
 30
0.0
 10
132.0683486177786
 20
129.6359963420024
 30
0.0
 10
132.192811146696
 20
129.7475940194593
 30
0.0
 10
132.4619054128478
 20
129.9462448152777
 30
0.0
 10
132.6077185044371
 20
130.0335850600664
 30
0.0
 10
132.9088853827265
 20
130.1777808127086
 30
0.0
 10
133.0652211097909
 20
130.2356004832228
 30
0.0
 10
133.3893444091253
 20
130.3228540952739
 30
0.0
 10
133.5560096208357
 20
130.3516561447557
 30
0.0
 10
134.0540258874677
 20
130.3924354500235
 30
0.0
 10
134.3946968362607
 20
130.3589921898823
 30
0.0
 10
135.0337077516821
 20
130.1765395454235
 30
0.0
 10
135.340162358746
 20
130.0251149851107
 30
0.0
 10
135.7367182680083
 20
129.7246170795264
 30
0.0
 10
135.8610674588579
 20
129.610355894331
 30
0.0
 10
136.083531552907
 20
129.3606960237585
 30
0.0
 10
136.1810968913843
 20
129.2265294157594
 30
0.0
 10
136.3483524950231
 20
128.9390603212607
 30
0.0
 10
136.4184381505422
 20
128.7837934713608
 30
0.0
 10
136.5224935112637
 20
128.4668140512738
 30
0.0
 10
136.5574692739311
 20
128.3041612997693
 30
0.0
 10
136.6093337934552
 20
127.8032242795668
 30
0.0
 10
136.5700276856838
 20
127.4630696782565
 30
0.0
 10
136.4073078932229
 20
126.9865750461593
 30
0.0
 10
136.3370273953367
 20
126.8355076863319
 30
0.0
 10
136.1656942502067
 20
126.548213115891
 30
0.0
 10
136.064302009025
 20
126.4123553375936
 30
0.0
 10
135.7277024218018
 20
126.0435469425954
 30
0.0
 10
135.4524696556371
 20
125.8411218332643
 30
0.0
 10
135.0026864282912
 20
125.6240451066555
 30
0.0
 10
134.8438866297876
 20
125.5647428345813
 30
0.0
 10
134.5213249089079
 20
125.4767703167808
 30
0.0
 10
134.3574657969407
 20
125.4476505529345
 30
0.0
 10
134.0246330235868
 20
125.4187939378243
 30
0.0
 10
133.854580732146
 20
125.4194174610383
 30
0.0
 10
133.5223050681263
 20
125.4506739048427
 30
0.0
 10
133.3585904563776
 20
125.4809925998946
 30
0.0
 10
133.0361249708032
 20
125.5717096388975
 30
0.0
 10
132.8776138722767
 20
125.6324785475993
 30
0.0
 10
132.5790601660788
 20
125.7799892223963
 30
0.0
 10
132.4372340368767
 20
125.8671242502602
 30
0.0
 10
132.1693122983184
 20
126.0697097168323
 30
0.0
 10
132.0452188679259
 20
126.1840478834744
 30
0.0
 10
131.8240846800077
 20
126.4322343214272
 30
0.0
 10
131.725627677909
 20
126.567266938281
 30
0.0
 10
131.5562691641741
 20
126.8592713363357
 30
0.0
 10
131.4881023264681
 20
127.0114070827713
 30
0.0
 10
131.3843683601417
 20
127.3278160312114
 30
0.0
 10
131.3486997982725
 20
127.4943125005656
 30
0.0
 10
131.31448603362
 20
127.8275743766761
 30
0.0
 10
131.3153444364491
 20
127.994236830498
 30
0.0
 10
131.3531412163987
 20
128.3276250297155
 30
0.0
 10
131.3904839718527
 20
128.493380602195
 30
0.0
 10
131.4977335549212
 20
128.8092719186577
 30
0.0
 10
131.5684947714603
 20
128.9625512517298
 30
0.0
 10
131.740617921561
 20
129.2519282942163
 30
0.0
 10
131.8408482711903
 20
129.3866498001417
 30
0.0
 10
132.0683486177786
 20
129.6359963420024
 30
0.0
  0
SPLINE
  5
1A0
330
1F
100
AcDbEntity
  8
0
  6
HIDDEN
 62
     7
370
     0
100
AcDbSpline
210
0.0
220
0.0
230
1.0
 70
     8
 71
     3
 72
    62
 73
    58
 74
     0
 42
0.00000001
 43
0.00000001
 12
1.0
 22
0.0
 32
0.0
 13
1.0
 23
0.0
 33
0.0
 40
-0.03125
 40
-0.03125
 40
0.0
 40
0.0
 40
0.0312499999999999
 40
0.0312499999999999
 40
0.0624999999999997
 40
0.0624999999999997
 40
0.0937499999999996
 40
0.0937499999999996
 40
0.1249999999999994
 40
0.1249999999999994
 40
0.1874999999999994
 40
0.1874999999999994
 40
0.2499999999999995
 40
0.2499999999999995
 40
0.2812499999999996
 40
0.2812499999999996
 40
0.3124999999999996
 40
0.3124999999999996
 40
0.3437499999999997
 40
0.3437499999999997
 40
0.3749999999999997
 40
0.3749999999999997
 40
0.4374999999999997
 40
0.4374999999999997
 40
0.4687499999999998
 40
0.4687499999999998
 40
0.4999999999999998
 40
0.4999999999999998
 40
0.5625000000000001
 40
0.5625000000000001
 40
0.5937500000000001
 40
0.5937500000000001
 40
0.6250000000000001
 40
0.6250000000000001
 40
0.6562500000000001
 40
0.6562500000000001
 40
0.6875000000000001
 40
0.6875000000000001
 40
0.7187500000000001
 40
0.7187500000000001
 40
0.75
 40
0.75
 40
0.78125
 40
0.78125
 40
0.8125
 40
0.8125
 40
0.84375
 40
0.84375
 40
0.875
 40
0.875
 40
0.90625
 40
0.90625
 40
0.9375
 40
0.9375
 40
0.96875
 40
0.96875
 40
1.0
 40
1.0
 40
1.03125
 40
1.03125
 10
131.8408482711903
 20
129.3866498001417
 30
0.0
 10
132.0683486177786
 20
129.6359963420024
 30
0.0
 10
132.192811146696
 20
129.7475940194593
 30
0.0
 10
132.4619054128478
 20
129.9462448152777
 30
0.0
 10
132.6077185044371
 20
130.0335850600664
 30
0.0
 10
132.9088853827265
 20
130.1777808127086
 30
0.0
 10
133.0652211097909
 20
130.2356004832228
 30
0.0
 10
133.3893444091253
 20
130.3228540952739
 30
0.0
 10
133.5560096208357
 20
130.3516561447557
 30
0.0
 10
134.0540258874677
 20
130.3924354500235
 30
0.0
 10
134.3946968362607
 20
130.3589921898823
 30
0.0
 10
135.0337077516821
 20
130.1765395454235
 30
0.0
 10
135.340162358746
 20
130.0251149851107
 30
0.0
 10
135.7367182680083
 20
129.7246170795264
 30
0.0
 10
135.8610674588579
 20
129.610355894331
 30
0.0
 10
136.083531552907
 20
129.3606960237585
 30
0.0
 10
136.1810968913843
 20
129.2265294157594
 30
0.0
 10
136.3483524950231
 20
128.9390603212607
 30
0.0
 10
136.4184381505422
 20
128.7837934713608
 30
0.0
 10
136.5224935112637
 20
128.4668140512738
 30
0.0
 10
136.5574692739311
 20
128.3041612997693
 30
0.0
 10
136.6093337934552
 20
127.8032242795668
 30
0.0
 10
136.5700276856838
 20
127.4630696782565
 30
0.0
 10
136.4073078932229
 20
126.9865750461593
 30
0.0
 10
136.3370273953367
 20
126.8355076863319
 30
0.0
 10
136.1656942502067
 20
126.548213115891
 30
0.0
 10
136.064302009025
 20
126.4123553375936
 30
0.0
 10
135.7277024218018
 20
126.0435469425954
 30
0.0
 10
135.4524696556371
 20
125.8411218332643
 30
0.0
 10
135.0026864282912
 20
125.6240451066555
 30
0.0
 10
134.8438866297876
 20
125.5647428345813
 30
0.0
 10
134.5213249089079
 20
125.4767703167808
 30
0.0
 10
134.3574657969407
 20
125.4476505529345
 30
0.0
 10
134.0246330235868
 20
125.4187939378243
 30
0.0
 10
133.854580732146
 20
125.4194174610383
 30
0.0
 10
133.5223050681263
 20
125.4506739048427
 30
0.0
 10
133.3585904563776
 20
125.4809925998946
 30
0.0
 10
133.0361249708032
 20
125.5717096388975
 30
0.0
 10
132.8776138722767
 20
125.6324785475993
 30
0.0
 10
132.5790601660788
 20
125.7799892223963
 30
0.0
 10
132.4372340368767
 20
125.8671242502602
 30
0.0
 10
132.1693122983184
 20
126.0697097168323
 30
0.0
 10
132.0452188679259
 20
126.1840478834744
 30
0.0
 10
131.8240846800077
 20
126.4322343214272
 30
0.0
 10
131.725627677909
 20
126.567266938281
 30
0.0
 10
131.5562691641741
 20
126.8592713363357
 30
0.0
 10
131.4881023264681
 20
127.0114070827713
 30
0.0
 10
131.3843683601417
 20
127.3278160312114
 30
0.0
 10
131.3486997982725
 20
127.4943125005656
 30
0.0
 10
131.31448603362
 20
127.8275743766761
 30
0.0
 10
131.3153444364491
 20
127.994236830498
 30
0.0
 10
131.3531412163987
 20
128.3276250297155
 30
0.0
 10
131.3904839718527
 20
128.493380602195
 30
0.0
 10
131.4977335549212
 20
128.8092719186577
 30
0.0
 10
131.5684947714603
 20
128.9625512517298
 30
0.0
 10
131.740617921561
 20
129.2519282942163
 30
0.0
 10
131.8408482711903
 20
129.3866498001417
 30
0.0
 10
132.0683486177786
 20
129.6359963420024
 30
0.0
  0
CIRCLE
  5
1A1
330
1F
100
AcDbEntity
  8
0
  6
HIDDEN
 62
     7
370
     0
100
AcDbCircle
 10
133.8870761433
 20
127.8986707615
 30
0.0
 40
2.300000000000011
  0
LINE
  5
1A2
330
1F
100
AcDbEntity
  8
0
  6
HIDDEN
 62
     7
370
     0
100
AcDbLine
 10
250.6613138356
 20
127.8986707615
 30
0.0
 11
251.2717697062
 21
121.8986707093
 31
0.0
  0
CIRCLE
  5
1A3
330
1F
100
AcDbEntity
  8
0
  6
HIDDEN
 62
     7
370
     0
100
AcDbCircle
 10
157.3870761433
 20
127.8986707615
 30
0.0
 40
2.0
  0
LINE
  5
1A4
330
1F
100
AcDbEntity
  8
0
  6
HIDDEN
 62
     7
370
     0
100
AcDbLine
 10
145.3870761433
 20
112.0986715244
 30
0.0
 11
145.4799693637
 21
112.1915635007
 31
0.0
  0
LINE
  5
1A5
330
1F
100
AcDbEntity
  8
0
  6
HIDDEN
 62
     7
370
     0
100
AcDbLine
 10
145.4799693637
 20
143.6057780223
 30
0.0
 11
145.3870761433
 21
143.6986699985
 31
0.0
  0
ARC
  5
1A6
330
1F
100
AcDbEntity
  8
0
  6
HIDDEN
 62
     7
370
     0
100
AcDbCircle
 10
144.7728625809
 20
112.8986707615
 30
0.0
 40
1.0
100
AcDbArc
 50
315.0
 51
0.0
  0
ARC
  5
1A7
330
1F
100
AcDbEntity
  8
0
  6
HIDDEN
 62
     7
370
     0
100
AcDbCircle
 10
144.7728625809
 20
112.8986707615
 30
0.0
 40
1.000000000000016
100
AcDbArc
 50
0.0
 51
52.1052014664
  0
ARC
  5
1A8
330
1F
100
AcDbEntity
  8
0
  6
HIDDEN
 62
     7
370
     0
100
AcDbCircle
 10
144.7728625809
 20
142.8986707615
 30
0.0
 40
1.000000000000008
100
AcDbArc
 50
351.8087250651
 51
45.0
  0
ARC
  5
1A9
330
1F
100
AcDbEntity
  8
0
  6
HIDDEN
 62
     7
370
     0
100
AcDbCircle
 10
144.7728625809
 20
142.8986707615
 30
0.0
 40
1.000000000000016
100
AcDbArc
 50
307.8947985336
 51
351.8087250651
  0
LINE
  5
1AA
330
1F
100
AcDbEntity
  8
0
  6
HIDDEN
 62
     7
370
     0
100
AcDbLine
 10
145.7728625791
 20
112.8986710968
 30
0.0
 11
145.7728625791
 21
142.8986704262
 31
0.0
  0
LINE
  5
1AB
330
1F
100
AcDbEntity
  8
0
  6
HIDDEN
 62
     7
370
     0
100
AcDbLine
 10
145.7728625791
 20
112.8986710968
 30
0.0
 11
145.7728625791
 21
142.8986704262
 31
0.0
  0
LINE
  5
1AC
330
1F
100
AcDbEntity
  8
0
  6
HIDDEN
 62
     7
370
     0
100
AcDbLine
 10
212.8870788255
 20
126.5878994303
 30
0.0
 11
212.8870788255
 21
123.8814499514
 31
0.0
  0
LINE
  5
1AD
330
1F
100
AcDbEntity
  8
0
  6
HIDDEN
 62
     7
370
     0
100
AcDbLine
 10
217.8870740571
 20
125.1492812583
 30
0.0
 11
217.8870740571
 21
126.5857472602
 31
0.0
  0
LINE
  5
1AE
330
1F
100
AcDbEntity
  8
0
  6
HIDDEN
 62
     7
370
     0
100
AcDbLine
 10
217.8870740571
 20
123.8814499514
 30
0.0
 11
217.8870740571
 21
124.0327342233
 31
0.0
  0
LINE
  5
1AF
330
1F
100
AcDbEntity
  8
0
  6
HIDDEN
 62
     7
370
     0
100
AcDbLine
 10
224.4739088454
 20
122.5434392976
 30
0.0
 11
217.5484228172
 21
125.9576492297
 31
0.0
  0
LINE
  5
1B0
330
1F
100
AcDbEntity
  8
0
  6
HIDDEN
 62
     7
370
     0
100
AcDbLine
 10
215.919845108
 20
122.0778716082
 30
0.0
 11
224.3947091737
 21
117.8998295503
 31
0.0
  0
LINE
  5
1B1
330
1F
100
AcDbEntity
  8
0
  6
HIDDEN
 62
     7
370
     0
100
AcDbLine
 10
121.3870759346
 20
117.7430199744
 30
0.0
 11
122.4141086676
 21
118.3359772252
 31
0.0
  0
LINE
  5
1B2
330
1F
100
AcDbEntity
  8
0
  6
HIDDEN
 62
     7
370
     0
100
AcDbLine
 10
122.4141086676
 20
137.4613642978
 30
0.0
 11
121.3870759346
 21
138.0543215485
 31
0.0
  0
ARC
  5
1B3
330
1F
100
AcDbEntity
  8
0
  6
HIDDEN
 62
     7
370
     0
100
AcDbCircle
 10
127.8998946129
 20
118.8986707615
 30
0.0
 40
1.000000000000018
100
AcDbArc
 50
270.0
 51
315.0
  0
ARC
  5
1B4
330
1F
100
AcDbEntity
  8
0
  6
HIDDEN
 62
     7
370
     0
100
AcDbCircle
 10
127.8998946129
 20
136.8986707615
 30
0.0
 40
1.0
100
AcDbArc
 50
45.0
 51
90.0
  0
LINE
  5
1B5
330
1F
100
AcDbEntity
  8
0
  6
HIDDEN
 62
     7
370
     0
100
AcDbLine
 10
126.8870759048
 20
117.898670985
 30
0.0
 11
127.8998947927
 21
117.898670985
 31
0.0
  0
LINE
  5
1B6
330
1F
100
AcDbEntity
  8
0
  6
HIDDEN
 62
     7
370
     0
100
AcDbLine
 10
127.8998947927
 20
137.898670538
 30
0.0
 11
126.8870759048
 21
137.898670538
 31
0.0
  0
ARC
  5
1B7
330
1F
100
AcDbEntity
  8
0
  6
HIDDEN
 62
     7
370
     0
100
AcDbCircle
 10
126.8870761433
 20
118.8986707615
 30
0.0
 40
1.0
100
AcDbArc
 50
193.3524261238
 51
270.0
  0
ARC
  5
1B8
330
1F
100
AcDbEntity
  8
0
  6
HIDDEN
 62
     7
370
     0
100
AcDbCircle
 10
126.8870761433
 20
136.8986707615
 30
0.0
 40
0.9999999999999906
100
AcDbArc
 50
90.0
 51
166.6475738762
  0
LINE
  5
1B9
330
1F
100
AcDbEntity
  8
0
  6
HIDDEN
 62
     7
370
     0
100
AcDbLine
 10
128.6070014575
 20
118.1915635528
 30
0.0
 11
129.3141081222
 21
118.8986711489
 31
0.0
  0
LINE
  5
1BA
330
1F
100
AcDbEntity
  8
0
  6
HIDDEN
 62
     7
370
     0
100
AcDbLine
 10
129.3141081222
 20
136.8986703741
 30
0.0
 11
128.6070014575
 21
137.6057779702
 31
0.0
  0
LINE
  5
1BB
330
1F
100
AcDbEntity
  8
0
  6
HIDDEN
 62
     7
370
     0
100
AcDbLine
 10
122.4141086676
 20
118.3359772252
 30
0.0
 11
124.5141088256
 21
118.8986711489
 31
0.0
  0
LINE
  5
1BC
330
1F
100
AcDbEntity
  8
0
  6
HIDDEN
 62
     7
370
     0
100
AcDbLine
 10
124.5141088256
 20
136.8986703741
 30
0.0
 11
122.4141086676
 21
137.4613642978
 31
0.0
  0
LINE
  5
1BD
330
1F
100
AcDbEntity
  8
0
  6
HIDDEN
 62
     7
370
     0
100
AcDbLine
 10
125.91410831
 20
137.1296104329
 30
0.0
 11
125.5141089895
 21
136.8986703741
 31
0.0
  0
LINE
  5
1BE
330
1F
100
AcDbEntity
  8
0
  6
HIDDEN
 62
     7
370
     0
100
AcDbLine
 10
125.5141089895
 20
118.8986711489
 30
0.0
 11
125.91410831
 21
118.6677310901
 31
0.0
  0
ARC
  5
1BF
330
1F
100
AcDbEntity
  8
0
  6
HIDDEN
 62
     7
370
     0
100
AcDbCircle
 10
135.8870761433
 20
119.3986707615
 30
0.0
 40
0.5000000000000284
100
AcDbArc
 50
270.0
 51
0.0
  0
ARC
  5
1C0
330
1F
100
AcDbEntity
  8
0
  6
HIDDEN
 62
     7
370
     0
100
AcDbCircle
 10
135.8870761433
 20
136.3986707615
 30
0.0
 40
0.5000000000000284
100
AcDbArc
 50
0.0
 51
90.0
  0
LINE
  5
1C1
330
1F
100
AcDbEntity
  8
0
  6
HIDDEN
 62
     7
370
     0
100
AcDbLine
 10
124.5141088256
 20
118.8986711489
 30
0.0
 11
125.5141089895
 21
118.8986711489
 31
0.0
  0
LINE
  5
1C2
330
1F
100
AcDbEntity
  8
0
  6
HIDDEN
 62
     7
370
     0
100
AcDbLine
 10
125.5141089895
 20
136.8986703741
 30
0.0
 11
124.5141088256
 21
136.8986703741
 31
0.0
  0
LINE
  5
1C3
330
1F
100
AcDbEntity
  8
0
  6
HIDDEN
 62
     7
370
     0
100
AcDbLine
 10
129.3141081222
 20
118.8986711489
 30
0.0
 11
135.8870764487
 21
118.8986711489
 31
0.0
  0
LINE
  5
1C4
330
1F
100
AcDbEntity
  8
0
  6
HIDDEN
 62
     7
370
     0
100
AcDbLine
 10
135.8870764487
 20
136.8986703741
 30
0.0
 11
129.3141081222
 21
136.8986703741
 31
0.0
  0
LINE
  5
1C5
330
1F
100
AcDbEntity
  8
0
  6
HIDDEN
 62
     7
370
     0
100
AcDbLine
 10
136.3870765307
 20
120.7486708002
 30
0.0
 11
137.2870759332
 21
121.6486706684
 31
0.0
  0
LINE
  5
1C6
330
1F
100
AcDbEntity
  8
0
  6
HIDDEN
 62
     7
370
     0
100
AcDbLine
 10
137.2870759332
 20
134.1486708546
 30
0.0
 11
136.3870765307
 21
135.0486707227
 31
0.0
  0
LINE
  5
1C7
330
1F
100
AcDbEntity
  8
0
  6
HIDDEN
 62
     7
370
     0
100
AcDbLine
 10
156.3870760837
 20
121.6486706684
 30
0.0
 11
157.5887969919
 21
123.6486705305
 31
0.0
  0
LINE
  5
1C8
330
1F
100
AcDbEntity
  8
0
  6
HIDDEN
 62
     7
370
     0
100
AcDbLine
 10
157.5887969919
 20
132.1486709925
 30
0.0
 11
156.3870760837
 21
134.1486708546
 31
0.0
  0
LINE
  5
1C9
330
1F
100
AcDbEntity
  8
0
  6
HIDDEN
 62
     7
370
     0
100
AcDbLine
 10
137.2870759332
 20
121.6486706684
 30
0.0
 11
156.3870760837
 21
121.6486706684
 31
0.0
  0
LINE
  5
1CA
330
1F
100
AcDbEntity
  8
0
  6
HIDDEN
 62
     7
370
     0
100
AcDbLine
 10
156.3870760837
 20
134.1486708546
 30
0.0
 11
137.2870759332
 21
134.1486708546
 31
0.0
  0
LINE
  5
1CB
330
1F
100
AcDbEntity
  8
0
  6
HIDDEN
 62
     7
370
     0
100
AcDbLine
 10
157.5887969919
 20
123.6486705305
 30
0.0
 11
220.3870791235
 21
123.6486705305
 31
0.0
  0
LINE
  5
1CC
330
1F
100
AcDbEntity
  8
0
  6
HIDDEN
 62
     7
370
     0
100
AcDbLine
 10
220.3870791235
 20
132.1486709925
 30
0.0
 11
157.5887969919
 21
132.1486709925
 31
0.0
  0
LINE
  5
1CD
330
1F
100
AcDbEntity
  8
0
  6
HIDDEN
 62
     7
370
     0
100
AcDbLine
 10
220.3870791235
 20
123.6486705305
 30
0.0
 11
222.9407358208
 21
127.8986707615
 31
0.0
  0
LINE
  5
1CE
330
1F
100
AcDbEntity
  8
0
  6
HIDDEN
 62
     7
370
     0
100
AcDbLine
 10
222.9407358208
 20
127.8986707615
 30
0.0
 11
220.3870791235
 21
132.1486709925
 31
0.0
  0
LINE
  5
1CF
330
1F
100
AcDbEntity
  8
0
  6
HIDDEN
 62
     7
370
     0
100
AcDbLine
 10
240.7790723481
 20
123.1376007484
 30
0.0
 11
241.2054839768
 21
122.5729687424
 31
0.0
  0
LINE
  5
1D0
330
1F
100
AcDbEntity
  8
0
  6
HIDDEN
 62
     7
370
     0
100
AcDbLine
 10
246.7914971747
 20
126.7915539496
 30
0.0
 11
246.365085546
 21
127.3561862466
 31
0.0
  0
LINE
  5
1D1
330
1F
100
AcDbEntity
  8
0
  6
HIDDEN
 62
     7
370
     0
100
AcDbLine
 10
238.4553852715
 20
116.4861079591
 30
0.0
 11
238.9466691055
 21
115.835577278
 31
0.0
  0
LINE
  5
1D2
330
1F
100
AcDbEntity
  8
0
  6
HIDDEN
 62
     7
370
     0
100
AcDbLine
 10
248.303324286
 20
119.5732355403
 30
0.0
 11
246.4223805108
 21
123.8252357865
 31
0.0
  0
LINE
  5
1D3
330
1F
100
AcDbEntity
  8
0
  6
HIDDEN
 62
     7
370
     0
100
AcDbLine
 10
238.5733577647
 20
124.8967582645
 30
0.0
 11
240.1765066423
 21
122.7739583986
 31
0.0
  0
LINE
  5
1D4
330
1F
100
AcDbEntity
  8
0
  6
HIDDEN
 62
     7
370
     0
100
AcDbLine
 10
246.8797194996
 20
127.836260653
 30
0.0
 11
245.2906075158
 21
129.9404707091
 31
0.0
  0
LINE
  5
1D5
330
1F
100
AcDbEntity
  8
0
  6
HIDDEN
 62
     7
370
     0
100
AcDbLine
 10
238.3259016314
 20
116.7967571231
 30
0.0
 11
238.6332157292
 21
116.3898296939
 31
0.0
  0
LINE
  5
1D6
330
1F
100
AcDbEntity
  8
0
  6
HIDDEN
 62
     7
370
     0
100
AcDbLine
 10
212.8870788255
 20
130.6798237195
 30
0.0
 11
212.8870788255
 21
129.2115942627
 31
0.0
  0
LINE
  5
1D7
330
1F
100
AcDbEntity
  8
0
  6
HIDDEN
 62
     7
370
     0
100
AcDbLine
 10
217.8870740571
 20
129.2094420927
 30
0.0
 11
217.8870740571
 21
130.6798237195
 31
0.0
  0
LINE
  5
1D8
330
1F
100
AcDbEntity
  8
0
  6
HIDDEN
 62
     7
370
     0
100
AcDbLine
 10
250.1073706188
 20
115.820893115
 30
0.0
 11
249.5742815771
 21
116.5267871978
 31
0.0
  0
LINE
  5
1D9
330
1F
100
AcDbEntity
  8
0
  6
HIDDEN
 62
     7
370
     0
100
AcDbLine
 10
244.4670650401
 20
112.6697957801
 30
0.0
 11
245.0001615324
 21
111.9639016973
 31
0.0
  0
LINE
  5
1DA
330
1F
100
AcDbEntity
  8
0
  6
HIDDEN
 62
     7
370
     0
100
AcDbLine
 10
212.3870778122
 20
132.8408350522
 30
0.0
 11
212.3870778122
 21
130.7360602362
 31
0.0
  0
LINE
  5
1DB
330
1F
100
AcDbEntity
  8
0
  6
HIDDEN
 62
     7
370
     0
100
AcDbLine
 10
218.3870750704
 20
130.7360602362
 30
0.0
 11
218.3870750704
 21
132.8424993256
 31
0.0
  0
LINE
  5
1DC
330
1F
100
AcDbEntity
  8
0
  6
HIDDEN
 62
     7
370
     0
100
AcDbLine
 10
242.5107511916
 20
119.2000778677
 30
0.0
 11
244.2508789935
 21
115.2664004179
 31
0.0
  0
LINE
  5
1DD
330
1F
100
AcDbEntity
  8
VERMASSUNG
  6
CENTERX2
100
AcDbLine
 10
118.2165304418
 20
127.8986707615
 30
0.0
 11
255.3870761433
 21
127.8986707615
 31
0.0
  0
LINE
  5
1DE
330
1F
100
AcDbEntity
  8
VERMASSUNG
  6
CENTERX2
100
AcDbLine
 10
255.3870761433
 20
127.8986707615
 30
0.0
 11
255.3870761433
 21
105.8986707615
 31
0.0
  0
LINE
  5
1DF
330
1F
100
AcDbEntity
  8
VERMASSUNG
  6
CENTERX2
100
AcDbLine
 10
255.3870761433
 20
105.8986707615
 30
0.0
 11
265.5603744477
 21
105.8986707615
 31
0.0
  0
DIMENSION
  5
1E0
330
1F
100
AcDbEntity
  8
VERMASSUNG
100
AcDbDimension
  2
_D
 10
255.3870761433
 20
95.8709875053
 30
0.0
 11
200.3870761433
 21
95.8709875053
 31
0.0
 70
   160
  1
<>
 71
     2
 42
-1.0
  3
SLDDIMSTYLE0
100
AcDbAlignedDimension
 13
145.3870761433
 23
108.1986707615
 33
0.0
 14
255.3870761433
 24
105.8986707615
 34
0.0
100
AcDbRotatedDimension
  0
DIMENSION
  5
1EB
330
1F
100
AcDbEntity
  8
VERMASSUNG
100
AcDbDimension
  2
_D_1
 10
121.3870761433
 20
86.9576649889
 30
0.0
 11
188.3870761433
 21
86.9576649889
 31
0.0
 70
   160
  1
<>
 71
     2
 42
-1.0
  3
SLDDIMSTYLE0
100
AcDbAlignedDimension
 13
255.3870761433
 23
105.8986707615
 33
0.0
 14
121.3870761433
 24
115.2671657794
 34
0.0
100
AcDbRotatedDimension
  0
DIMENSION
  5
1F5
330
1F
100
AcDbEntity
  8
VERMASSUNG
100
AcDbDimension
  2
_D_2
 10
271.656736191
 20
105.8986707615
 30
0.0
 11
271.656736191
 21
116.8986707615
 31
0.0
 70
   160
  1
<>
 71
     2
 42
-1.0
  3
SLDDIMSTYLE0
100
AcDbAlignedDimension
 13
255.3870761433
 23
127.8986707615
 33
0.0
 14
255.3870761433
 24
105.8986707615
 34
0.0
 50
90.0
100
AcDbRotatedDimension
  0
DIMENSION
  5
1FF
330
1F
100
AcDbEntity
  8
VERMASSUNG
100
AcDbDimension
  2
_D_3
 10
255.3855623608
 20
106.3351406255
 30
0.0
 11
262.5380482158
 21
113.6661156153
 31
0.0
 70
   162
  1
<>
 71
     1
 42
-1.0
  3
SLDDIMSTYLE1
100
AcDb2LineAngularDimension
 13
265.5603744477
 23
105.8986707615
 33
0.0
 14
255.3870761433
 24
105.8986707615
 34
0.0
 15
254.338178543
 25
118.2402658045
 35
0.0
 16
262.5380482158
 26
113.6661156153
 36
0.0
  0
DIMENSION
  5
209
330
1F
100
AcDbEntity
  8
VERMASSUNG
100
AcDbDimension
  2
_D_4
 10
114.8575765393
 20
147.8986707615
 30
0.0
 11
114.8575765393
 21
127.8986707615
 31
0.0
 70
   160
  1
PSC%%c<>
 71
     2
 42
-1.0
  3
SLDDIMSTYLE0
100
AcDbAlignedDimension
 13
145.6870761433
 23
107.8986707615
 33
0.0
 14
145.6870761433
 24
147.8986707615
 34
0.0
 50
90.0
100
AcDbRotatedDimension
  0
DIMENSION
  5
215
330
1F
100
AcDbEntity
  8
VERMASSUNG
100
AcDbDimension
  2
_D_5
 10
186.3060756789
 20
143.8986707615
 30
0.0
 11
186.3060756789
 21
136.4606401441
 31
0.0
 70
   160
  1
%%c<>
 71
     2
 42
-1.0
  3
SLDDIMSTYLE0
100
AcDbAlignedDimension
 13
167.3870761433
 23
111.8986707615
 33
0.0
 14
167.3870761433
 24
143.8986707615
 34
0.0
 50
90.0
100
AcDbRotatedDimension
  0
LINE
  5
21E
330
1F
100
AcDbEntity
  8
0
  6
Continuous
 62
     7
370
    15
100
AcDbLine
 10
56.5974916105
 20
128.2840134844
 30
0.0
 11
56.4264796621
 21
128.054445606
 31
0.0
  0
LINE
  5
21F
330
1F
100
AcDbEntity
  8
0
  6
Continuous
 62
     7
370
    15
100
AcDbLine
 10
57.3952954155
 20
121.1609633276
 30
0.0
 11
57.622960134
 21
120.9874258008
 31
0.0
  0
LINE
  5
220
330
1F
100
AcDbEntity
  8
0
  6
Continuous
 62
     7
370
    15
100
AcDbLine
 10
65.0650247756
 20
107.2542908641
 30
0.0
 11
67.7281449351
 21
107.6285679942
 31
0.0
  0
LINE
  5
221
330
1F
100
AcDbEntity
  8
0
  6
Continuous
 62
     7
370
    15
100
AcDbLine
 10
67.7382535501
 20
107.6355818895
 30
0.0
 11
67.9889220183
 21
107.9720813504
 31
0.0
  0
LINE
  5
222
330
1F
100
AcDbEntity
  8
0
  6
Continuous
 62
     7
370
    15
100
AcDbLine
 10
60.4354606661
 20
105.8987135014
 30
0.0
 11
65.123314663
 21
106.5575484151
 31
0.0
  0
LINE
  5
223
330
1F
100
AcDbEntity
  8
0
  6
Continuous
 62
     7
370
    15
100
AcDbLine
 10
59.0189531049
 20
108.6163076009
 30
0.0
 11
59.4643882921
 21
108.0347290157
 31
0.0
  0
SPLINE
  5
224
330
1F
100
AcDbEntity
  8
0
  6
Continuous
 62
     7
370
    15
100
AcDbSpline
210
0.0
220
0.0
230
1.0
 70
     8
 71
     3
 72
    11
 73
     7
 74
     0
 42
0.00000001
 43
0.00000001
 12
1.0
 22
0.0
 32
0.0
 13
1.0
 23
0.0
 33
0.0
 40
0.0
 40
0.0
 40
0.0
 40
0.0
 40
0.0180384417119598
 40
0.4034703740135732
 40
0.7513761032094098
 40
1.0
 40
1.0
 40
1.0
 40
1.0
 10
59.46438406192073
 20
108.0315337609717
 30
0.0
 10
59.46690094886425
 20
108.0293486109157
 30
0.0
 10
59.52319679374175
 20
107.9804728086479
 30
0.0
 10
59.55295664948373
 20
107.8733048168196
 30
0.0
 10
59.57319272300258
 20
107.799437337362
 30
0.0
 10
59.57216792667443
 20
107.8014074436834
 30
0.0
 10
59.57174080814516
 20
107.8022285521236
 30
0.0
  0
SPLINE
  5
225
330
1F
100
AcDbEntity
  8
0
  6
Continuous
 62
     7
370
    15
100
AcDbSpline
210
0.0
220
0.0
230
1.0
 70
     8
 71
     3
 72
    12
 73
     8
 74
     0
 42
0.00000001
 43
0.00000001
 12
1.0
 22
0.0
 32
0.0
 13
1.0
 23
0.0
 33
0.0
 40
0.0
 40
0.0
 40
0.0
 40
0.0
 40
0.2547711413659345
 40
0.4692482763094117
 40
0.6580009640727541
 40
0.8938166355476898
 40
0.9999999999999999
 40
0.9999999999999999
 40
0.9999999999999999
 40
0.9999999999999999
 10
58.05288455329516
 20
118.394256146642
 30
0.0
 10
58.05379682018711
 20
118.3924759277185
 30
0.0
 10
58.05547707197814
 20
118.3891970451229
 30
0.0
 10
58.07829075289506
 20
118.3225329925342
 30
0.0
 10
58.09450953054299
 20
118.1949871617576
 30
0.0
 10
58.09113061745638
 20
118.0506184101926
 30
0.0
 10
58.04800851395959
 20
117.9634497690474
 30
0.0
 10
58.03462002583378
 20
117.9363857758217
 30
0.0
  0
LINE
  5
226
330
1F
100
AcDbEntity
  8
0
  6
Continuous
 62
     7
370
    15
100
AcDbLine
 10
58.0262412353
 20
117.9382994054
 30
0.0
 11
57.7466371915
 21
117.2266174326
 31
0.0
  0
LINE
  5
227
330
1F
100
AcDbEntity
  8
0
  6
Continuous
 62
     7
370
    15
100
AcDbLine
 10
57.4444638765
 20
119.5056167753
 30
0.0
 11
57.1472031349
 21
119.4638395025
 31
0.0
  0
LWPOLYLINE
  5
228
330
1F
100
AcDbEntity
  8
0
  6
Continuous
 62
     7
370
    15
100
AcDbPolyline
 90
       31
 70
   128
 43
0.0
 10
56.5297375398
 20
128.0381777698
 10
56.6301843087
 20
127.8525581442
 10
56.7445633527
 20
127.5253567301
 10
56.8678757587
 20
127.0708737991
 10
56.9947321829
 20
126.5089724364
 10
57.1195883907
 20
125.8642104278
 10
57.2369875668
 20
125.1647669669
 10
57.3417988038
 20
124.4412110893
 10
57.4294413478
 20
123.7251656588
 10
57.496084799
 20
123.0479252968
 10
57.5388165188
 20
122.4390886568
 10
57.555768926
 20
121.9252648215
 10
57.546201119
 20
121.5289103581
 10
57.510531257
 20
121.2673478586
 10
57.4503182841
 20
121.1520088593
 10
57.368193796
 20
121.1879342279
 10
57.2677470271
 20
121.3735538535
 10
57.1533679831
 20
121.7007552677
 10
57.0300555771
 20
122.1552381986
 10
56.903199153
 20
122.7171395613
 10
56.7783429452
 20
123.36190157
 10
56.6609437691
 20
124.0613450309
 10
56.5561325321
 20
124.7849009085
 10
56.4684899881
 20
125.5009463389
 10
56.4018465369
 20
126.1781867009
 10
56.3591148171
 20
126.7870233409
 10
56.3421624099
 20
127.3008471762
 10
56.3517302169
 20
127.6972016396
 10
56.3874000789
 20
127.9587641392
 10
56.4476130518
 20
128.0741031385
 10
56.5297375398
 20
128.0381777698
  0
LWPOLYLINE
  5
229
330
1F
100
AcDbEntity
  8
0
  6
Continuous
 62
     7
370
    15
100
AcDbPolyline
 90
       24
 70
   128
 43
0.0
 10
56.7094067376
 20
126.5702684394
 10
56.7859798717
 20
126.4155502534
 10
56.8746409167
 20
126.1271493144
 10
56.9688142885
 20
125.7264550007
 10
57.0615155789
 20
125.2431849765
 10
57.1458695573
 20
124.7131811687
 10
57.215620075
 20
124.175751535
 10
57.2655940551
 20
123.670754773
 10
57.2920851563
 20
123.2356441821
 10
57.2931286547
 20
122.9026899244
 10
57.2686471588
 20
122.696585694
 10
57.2204563492
 20
122.6326172989
 10
57.1521303177
 20
122.7155289823
 10
57.0687364936
 20
122.9391715639
 10
56.9764598152
 20
123.2869584965
 10
56.8821440218
 20
123.7330960144
 10
56.7927840841
 20
124.2444961388
 10
56.71500742
 20
124.7832306619
 10
56.6545823689
 20
125.3093441088
 10
56.6159903803
 20
125.7838170519
 10
56.6020936456
 20
126.1714600035
 10
56.6139228219
 20
126.4435232594
 10
56.6506005934
 20
126.5798291324
 10
56.7094067376
 20
126.5702684394
  0
LINE
  5
22A
330
1F
100
AcDbEntity
  8
0
  6
Continuous
 62
     7
370
    15
100
AcDbLine
 10
57.0815555268
 20
125.1157136231
 30
0.0
 11
56.9955754647
 21
124.9138038655
 31
0.0
  0
LINE
  5
22B
330
1F
100
AcDbEntity
  8
0
  6
Continuous
 62
     7
370
    15
100
AcDbLine
 10
56.9955754647
 20
124.9138038655
 30
0.0
 11
57.156708759
 21
124.6069661041
 31
0.0
  0
LINE
  5
22C
330
1F
100
AcDbEntity
  8
0
  6
Continuous
 62
     7
370
    15
100
AcDbLine
 10
57.2888178683
 20
123.3147575648
 30
0.0
 11
57.2838837444
 21
123.3140641189
 31
0.0
  0
LINE
  5
22D
330
1F
100
AcDbEntity
  8
0
  6
Continuous
 62
     7
370
    15
100
AcDbLine
 10
57.1132340153
 20
124.9303396964
 30
0.0
 11
56.9955754647
 21
124.9138038655
 31
0.0
  0
ARC
  5
22E
330
1F
100
AcDbEntity
  8
0
  6
Continuous
 62
     7
370
    15
100
AcDbCircle
 10
65.1435995968
 20
108.0610229893
 30
0.0
 40
2.620475515689949
100
AcDbArc
 50
350.5010688618
 51
14.5564253113
  0
LINE
  5
22F
330
1F
100
AcDbEntity
  8
0
  6
Continuous
 62
     7
370
    15
100
AcDbLine
 10
67.6799594073
 20
108.7196358046
 30
0.0
 11
66.2375070454
 21
118.3437790165
 31
0.0
  0
ARC
  5
230
330
1F
100
AcDbEntity
  8
0
  6
Continuous
 62
     7
370
    15
100
AcDbCircle
 10
65.8695005149
 20
108.2386271562
 30
0.0
 40
2.136116611005501
100
AcDbArc
 50
352.8319169909
 51
13.3242242995
  0
LINE
  5
231
330
1F
100
AcDbEntity
  8
0
  6
Continuous
 62
     7
370
    15
100
AcDbLine
 10
66.5056637564
 20
118.3550623028
 30
0.0
 11
67.9481161183
 21
108.7309190909
 31
0.0
  0
ARC
  5
232
330
1F
100
AcDbEntity
  8
0
  6
Continuous
 62
     7
370
    15
100
AcDbCircle
 10
62.7874172741
 20
118.0027018136
 30
0.0
 40
3.466908289492156
100
AcDbArc
 50
5.6459372228
 51
20.1667128796
  0
LINE
  5
233
330
1F
100
AcDbEntity
  8
0
  6
Continuous
 62
     7
370
    15
100
AcDbLine
 10
66.3512371184
 20
118.9759398754
 30
0.0
 11
66.0571293233
 21
119.2000855188
 31
0.0
  0
ARC
  5
234
330
1F
100
AcDbEntity
  8
0
  6
Continuous
 62
     7
370
    15
100
AcDbCircle
 10
64.6394216152
 20
118.2205281691
 30
0.0
 40
1.871085022906515
100
AcDbArc
 50
4.1232200601
 51
23.8115183253
  0
LINE
  5
235
330
1F
100
AcDbEntity
  8
0
  6
Continuous
 62
     7
370
    15
100
AcDbLine
 10
57.166477346
 20
119.0274123784
 30
0.0
 11
58.9507999143
 21
107.1222871994
 31
0.0
  0
ARC
  5
236
330
1F
100
AcDbEntity
  8
0
  6
Continuous
 62
     7
370
    15
100
AcDbCircle
 10
58.0421430813
 20
119.2764783456
 30
0.0
 40
0.9103978998327618
100
AcDbArc
 50
168.1878974803
 51
195.8773641343
  0
LINE
  5
237
330
1F
100
AcDbEntity
  8
0
  6
Continuous
 62
     7
370
    15
100
AcDbLine
 10
58.5436200936
 20
118.5950529888
 30
0.0
 11
57.1510236113
 21
119.462839356
 31
0.0
  0
ARC
  5
238
330
1F
100
AcDbEntity
  8
0
  6
Continuous
 62
     7
370
    15
100
AcDbCircle
 10
57.565439806
 20
118.1633891567
 30
0.0
 40
1.069191441660882
100
AcDbArc
 50
4.1232200601
 51
23.8115183253
  0
LINE
  5
239
330
1F
100
AcDbEntity
  8
0
  6
Continuous
 62
     7
370
    15
100
AcDbLine
 10
60.416186455
 20
106.3351406255
 30
0.0
 11
58.6318638867
 21
118.2402658045
 31
0.0
  0
ARC
  5
23A
330
1F
100
AcDbEntity
  8
0
  6
Continuous
 62
     7
370
    15
100
AcDbCircle
 10
59.5405207197
 20
106.0860746583
 30
0.0
 40
0.9103978998327658
100
AcDbArc
 50
348.1878974803
 51
15.8773641343
  0
LINE
  5
23B
330
1F
100
AcDbEntity
  8
0
  6
Continuous
 62
     7
370
    15
100
AcDbLine
 10
59.0390437074
 20
106.7675000151
 30
0.0
 11
60.4316401897
 21
105.899713648
 31
0.0
  0
ARC
  5
23C
330
1F
100
AcDbEntity
  8
0
  6
Continuous
 62
     7
370
    15
100
AcDbCircle
 10
60.017223995
 20
107.1991638473
 30
0.0
 40
1.069191441661349
100
AcDbArc
 50
184.1232200601
 51
203.8115183253
  0
ARC
  5
23D
330
1F
100
AcDbEntity
  8
0
  6
Continuous
 62
     7
370
    15
100
AcDbCircle
 10
59.5824842548
 20
106.0965119618
 30
0.0
 40
0.8648780048410334
100
AcDbArc
 50
348.1878974803
 51
15.8773641343
  0
LINE
  5
23E
330
1F
100
AcDbEntity
  8
0
  6
Continuous
 62
     7
370
    15
100
AcDbLine
 10
60.4143667034
 20
106.3331246307
 30
0.0
 11
58.6300441352
 21
118.2382498096
 31
0.0
  0
ARC
  5
23F
330
1F
100
AcDbEntity
  8
0
  6
Continuous
 62
     7
370
    15
100
AcDbCircle
 10
57.6169412601
 20
118.1652169942
 30
0.0
 40
1.01573186802154
100
AcDbArc
 50
4.1232200661
 51
23.811518364
  0
LINE
  5
240
330
1F
100
AcDbEntity
  8
0
  6
Continuous
 62
     7
370
    15
100
AcDbLine
 10
58.5462125316
 20
118.5752976347
 30
0.0
 11
57.1536160494
 21
119.4430840019
 31
0.0
  0
ARC
  5
241
330
1F
100
AcDbEntity
  8
0
  6
Continuous
 62
     7
370
    15
100
AcDbCircle
 10
58.0001795459
 20
119.266041042
 30
0.0
 40
0.8648780048410396
100
AcDbArc
 50
168.1878974803
 51
195.8773641343
  0
LINE
  5
242
330
1F
100
AcDbEntity
  8
0
  6
Continuous
 62
     7
370
    15
100
AcDbLine
 10
57.1682970973
 20
119.0294283732
 30
0.0
 11
58.9526196656
 21
107.1243031942
 31
0.0
  0
ARC
  5
243
330
1F
100
AcDbEntity
  8
0
  6
Continuous
 62
     7
370
    15
100
AcDbCircle
 10
59.9657225423
 20
107.1973360097
 30
0.0
 40
1.015731869577714
100
AcDbArc
 50
184.1232200601
 51
203.8115183253
  0
LINE
  5
244
330
1F
100
AcDbEntity
  8
0
  6
Continuous
 62
     7
370
    15
100
AcDbLine
 10
59.0364512691
 20
106.7872553692
 30
0.0
 11
60.4290477513
 21
105.919469002
 31
0.0
  0
LINE
  5
245
330
1F
100
AcDbEntity
  8
0
  6
Continuous
 62
     7
370
    15
100
AcDbLine
 10
65.1040404518
 20
106.9939755392
 30
0.0
 11
63.3197178836
 21
118.8991007182
 31
0.0
  0
ARC
  5
246
330
1F
100
AcDbEntity
  8
0
  6
Continuous
 62
     7
370
    15
100
AcDbCircle
 10
64.0894965277
 20
106.7305304131
 30
0.0
 40
1.048190206276832
100
AcDbArc
 50
350.5010688618
 51
14.5564253113
  0
LINE
  5
247
330
1F
100
AcDbEntity
  8
0
  6
Continuous
 62
     7
370
    15
100
AcDbLine
 10
60.4444015736
 20
105.9568124911
 30
0.0
 11
60.4290477513
 21
105.919469002
 31
0.0
  0
LINE
  5
248
330
1F
100
AcDbEntity
  8
0
  6
Continuous
 62
     7
370
    15
100
AcDbLine
 10
59.2032627651
 20
107.1929734481
 30
0.0
 11
59.0364512691
 21
106.7872553692
 31
0.0
  0
LINE
  5
249
330
1F
100
AcDbEntity
  8
0
  6
Continuous
 62
     7
370
    15
100
AcDbLine
 10
59.5361951686
 20
107.8190963978
 30
0.0
 11
59.2032627651
 21
107.1929734481
 31
0.0
  0
ARC
  5
24A
330
1F
100
AcDbEntity
  8
0
  6
Continuous
 62
     7
370
    15
100
AcDbCircle
 10
62.2532938029
 20
118.8222240703
 30
0.0
 40
1.069191441661137
100
AcDbArc
 50
4.1232200601
 51
23.8115183253
  0
LINE
  5
24B
330
1F
100
AcDbEntity
  8
0
  6
Continuous
 62
     7
370
    15
100
AcDbLine
 10
58.5553662513
 20
118.5633955917
 30
0.0
 11
58.5462125316
 21
118.5752976347
 31
0.0
  0
LINE
  5
24C
330
1F
100
AcDbEntity
  8
0
  6
Continuous
 62
     7
370
    15
100
AcDbLine
 10
59.7713228716
 20
109.2078077184
 30
0.0
 11
58.7727020057
 21
115.8706760959
 31
0.0
  0
LINE
  5
24D
330
1F
100
AcDbEntity
  8
0
  6
Continuous
 62
     7
370
    15
100
AcDbLine
 10
63.2314740904
 20
119.2538879025
 30
0.0
 11
63.1531306765
 21
119.3027070309
 31
0.0
  0
LINE
  5
24E
330
1F
100
AcDbEntity
  8
0
  6
Continuous
 62
     7
370
    15
100
AcDbLine
 10
57.4189401968
 20
119.098098627
 30
0.0
 11
57.1536160494
 21
119.4430840019
 31
0.0
  0
LINE
  5
24F
330
1F
100
AcDbEntity
  8
0
  6
Continuous
 62
     7
370
    15
100
AcDbLine
 10
58.1169792451
 20
118.2681697305
 30
0.0
 11
57.4189401968
 21
119.098098627
 31
0.0
  0
ARC
  5
250
330
1F
100
AcDbEntity
  8
0
  6
Continuous
 62
     7
370
    15
100
AcDbCircle
 10
57.5821585327
 20
108.5851427999
 30
0.0
 40
2.275994750325975
100
AcDbArc
 50
348.1878974917
 51
15.8773641436
  0
LINE
  5
251
330
1F
100
AcDbEntity
  8
0
  6
Continuous
 62
     7
370
    15
100
AcDbLine
 10
57.8113409291
 20
116.1547452854
 30
0.0
 11
58.809961795
 21
109.491876908
 31
0.0
  0
ARC
  5
252
330
1F
100
AcDbEntity
  8
0
  6
Continuous
 62
     7
370
    15
100
AcDbCircle
 10
60.0005052674
 20
116.7774102034
 30
0.0
 40
2.275994749582063
100
AcDbArc
 50
168.1878974803
 51
195.8773641343
  0
LINE
  5
253
330
1F
100
AcDbEntity
  8
0
  6
Continuous
 62
     7
370
    15
100
AcDbLine
 10
58.5520925227
 20
116.7576440566
 30
0.0
 11
57.7727065924
 21
117.2433127294
 31
0.0
  0
ARC
  5
254
330
1F
100
AcDbEntity
  8
0
  6
Continuous
 62
     7
370
    15
100
AcDbCircle
 10
56.1066418039
 20
115.6784844763
 30
0.0
 40
2.67297860415204
100
AcDbArc
 50
4.1232200601
 51
23.8115183253
  0
LINE
  5
255
330
1F
100
AcDbEntity
  8
0
  6
Continuous
 62
     7
370
    15
100
AcDbLine
 10
59.0305712779
 20
108.6049089472
 30
0.0
 11
59.8099572085
 21
108.1192402742
 31
0.0
  0
ARC
  5
256
330
1F
100
AcDbEntity
  8
0
  6
Continuous
 62
     7
370
    15
100
AcDbCircle
 10
61.4760219968
 20
109.6840685276
 30
0.0
 40
2.672978604152014
100
AcDbArc
 50
184.1232200601
 51
203.8115183253
  0
LWPOLYLINE
  5
257
330
1F
100
AcDbEntity
  8
0
  6
Continuous
 62
     7
370
    15
100
AcDbPolyline
 90
       27
 70
   128
 43
0.0
 10
59.1257564278
 20
110.1328358299
 10
59.1871961494
 20
110.1625476117
 10
59.2256296796
 20
110.3386387614
 10
59.2388234016
 20
110.6508755014
 10
59.2260105441
 20
111.0811117674
 10
59.1879357438
 20
111.6043437913
 10
59.1268117697
 20
112.19016323
 10
59.0461909251
 20
112.8045243868
 10
58.9507586003
 20
113.4117228246
 10
58.8460609752
 20
113.9764703772
 10
58.7381826953
 20
114.4659459696
 10
58.6333932539
 20
114.8517030595
 10
58.5377826326
 20
115.1113228471
 10
58.4569073732
 20
115.229717174
 10
58.3954676516
 20
115.2000053922
 10
58.3570341214
 20
115.0239142425
 10
58.3438403994
 20
114.7116775025
 10
58.3566532569
 20
114.2814412365
 10
58.3947280572
 20
113.7582092126
 10
58.4558520313
 20
113.172389774
 10
58.5364728759
 20
112.5580286171
 10
58.6319052007
 20
111.9508301793
 10
58.7366028258
 20
111.3860826267
 10
58.8444811057
 20
110.8966070344
 10
58.9492705471
 20
110.5108499444
 10
59.0448811684
 20
110.2512301568
 10
59.1257564278
 20
110.1328358299
  0
LINE
  5
258
330
1F
100
AcDbEntity
  8
0
  6
Continuous
 62
     7
370
    15
100
AcDbLine
 10
59.2032627651
 20
107.1929734481
 30
0.0
 11
58.9526196656
 21
107.1243031942
 31
0.0
  0
LINE
  5
259
330
1F
100
AcDbEntity
  8
0
  6
Continuous
 62
     7
370
    15
100
AcDbLine
 10
57.4189401968
 20
119.098098627
 30
0.0
 11
57.1682970973
 21
119.0294283732
 31
0.0
  0
SPLINE
  5
25A
330
1F
100
AcDbEntity
  8
0
  6
Continuous
 62
     7
370
    15
100
AcDbSpline
210
0.0
220
0.0
230
1.0
 70
     8
 71
     3
 72
    16
 73
    12
 74
     0
 42
0.00000001
 43
0.00000001
 12
1.0
 22
0.0
 32
0.0
 13
1.0
 23
0.0
 33
0.0
 40
0.0
 40
0.0
 40
0.0
 40
0.0
 40
0.0831303917827991
 40
0.166278595123228
 40
0.2494737300455634
 40
0.3743129187441329
 40
0.4993001434452398
 40
0.6242836786993369
 40
0.74947879560753
 40
0.8746443321849021
 40
1.0
 40
1.0
 40
1.0
 40
1.0
 10
67.96289460611142
 20
108.5473742379697
 30
0.0
 10
68.11338810077764
 20
108.603308167244
 30
0.0
 10
68.41440733491847
 20
108.715188010223
 30
0.0
 10
68.86185024431825
 20
108.8937552114783
 30
0.0
 10
69.38028574590196
 20
109.1112347510331
 30
0.0
 10
69.96707021138315
 20
109.3740340953257
 30
0.0
 10
70.61876759123368
 20
109.6882022103649
 30
0.0
 10
71.26190280840322
 20
110.0207969112781
 30
0.0
 10
71.89540345800997
 20
110.3717899918379
 30
0.0
 10
72.52012551810877
 20
110.7395303725416
 30
0.0
 10
72.9275631490361
 20
110.9993216402143
 30
0.0
 10
73.13143657540637
 20
111.129315857393
 30
0.0
  0
SPLINE
  5
25B
330
1F
100
AcDbEntity
  8
0
  6
Continuous
 62
     7
370
    15
100
AcDbSpline
210
0.0
220
0.0
230
1.0
 70
     8
 71
     3
 72
    11
 73
     7
 74
     0
 42
0.00000001
 43
0.00000001
 12
1.0
 22
0.0
 32
0.0
 13
1.0
 23
0.0
 33
0.0
 40
0.0
 40
0.0
 40
0.0
 40
0.0
 40
0.2505835439358288
 40
0.5007661998876368
 40
0.7505657354279486
 40
1.0
 40
1.0
 40
1.0
 40
1.0
 10
73.13143442076745
 20
111.1293170009
 30
0.0
 10
73.04889007573878
 20
111.0298254656107
 30
0.0
 10
72.88393344158405
 20
110.8310015633494
 30
0.0
 10
72.62751542007928
 20
110.5397576579308
 30
0.0
 10
72.36550799299003
 20
110.2536508536191
 30
0.0
 10
72.18512789460404
 20
110.0679290145805
 30
0.0
 10
72.09500383414534
 20
109.9751360379729
 30
0.0
  0
SPLINE
  5
25C
330
1F
100
AcDbEntity
  8
0
  6
Continuous
 62
     7
370
    15
100
AcDbSpline
210
0.0
220
0.0
230
1.0
 70
     8
 71
     3
 72
    15
 73
    11
 74
     0
 42
0.00000001
 43
0.00000001
 12
1.0
 22
0.0
 32
0.0
 13
1.0
 23
0.0
 33
0.0
 40
0.0
 40
0.0
 40
0.0
 40
0.0
 40
0.1016176176901425
 40
0.2024794539193557
 40
0.3025860745967174
 40
0.4019380585471144
 40
0.5005359978965552
 40
0.6688014754873138
 40
0.8352883855505974
 40
0.9999999999999999
 40
0.9999999999999999
 40
0.9999999999999999
 40
0.9999999999999999
 10
72.0950006125531
 20
109.9751329969626
 30
0.0
 10
71.9613001370108
 20
109.8993551747209
 30
0.0
 10
71.69489358377795
 20
109.7483631281104
 30
0.0
 10
71.29178244672553
 20
109.5316014323758
 30
0.0
 10
70.88824271120473
 20
109.3229487789036
 30
0.0
 10
70.48409855243952
 20
109.1229610898998
 30
0.0
 10
69.9833783612601
 20
108.8856989168925
 30
0.0
 10
69.3842182944637
 20
108.6190670693253
 30
0.0
 10
68.68540071741226
 20
108.330475532738
 30
0.0
 10
68.21525274241979
 20
108.156200287406
 30
0.0
 10
67.9814388022609
 20
108.0695297412149
 30
0.0
  0
LINE
  5
25D
330
1F
100
AcDbEntity
  8
0
  6
Continuous
 62
     7
370
    15
100
AcDbLine
 10
66.4368725837
 20
118.7290968021
 30
0.0
 11
66.3599038327
 21
119.242637701
 31
0.0
  0
LINE
  5
25E
330
1F
100
AcDbEntity
  8
0
  6
Continuous
 62
     7
370
    15
100
AcDbLine
 10
66.3599038327
 20
119.242637701
 30
0.0
 11
63.4644645995
 21
118.8357102544
 31
0.0
  0
LINE
  5
25F
330
1F
100
AcDbEntity
  8
0
  6
Continuous
 62
     7
370
    15
100
AcDbLine
 10
63.4644645995
 20
118.8357102544
 30
0.0
 11
63.389493063
 21
119.335925598
 31
0.0
  0
LINE
  5
260
330
1F
100
AcDbEntity
  8
0
  6
Continuous
 62
     7
370
    15
100
AcDbLine
 10
63.389493063
 20
119.335925598
 30
0.0
 11
58.7607296626
 21
118.6853953261
 31
0.0
  0
LINE
  5
261
330
1F
100
AcDbEntity
  8
0
  6
Continuous
 62
     7
370
    15
100
AcDbLine
 10
58.7607296626
 20
118.6853953261
 30
0.0
 11
57.3900861393
 21
127.8304249362
 31
0.0
  0
LINE
  5
262
330
1F
100
AcDbEntity
  8
0
  6
Continuous
 62
     7
370
    15
100
AcDbLine
 10
76.7627777231
 20
130.5530791818
 30
0.0
 11
57.3900861393
 21
127.8304249362
 31
0.0
  0
ARC
  5
263
330
1F
100
AcDbEntity
  8
0
  6
Continuous
 62
     7
370
    15
100
AcDbCircle
 10
60.4776889626
 20
127.8986707615
 30
0.0
 40
16.50000000000002
100
AcDbArc
 50
0.0
 51
9.2575856757
  0
LINE
  5
264
330
1F
100
AcDbEntity
  8
0
  6
Continuous
 62
     7
370
    15
100
AcDbLine
 10
76.9776889626
 20
127.8986707615
 30
0.0
 11
76.9776889626
 21
121.8986707615
 31
0.0
  0
ARC
  5
265
330
1F
100
AcDbEntity
  8
0
  6
Continuous
 62
     7
370
    15
100
AcDbCircle
 10
59.9776889626
 20
121.8986707615
 30
0.0
 40
17.00000000000001
100
AcDbArc
 50
320.691815091
 51
0.0
  0
SPLINE
  5
266
330
1F
100
AcDbEntity
  8
0
  6
Continuous
 62
     7
370
    15
100
AcDbSpline
210
0.0
220
0.0
230
1.0
 70
     8
 71
     3
 72
     8
 73
     4
 74
     0
 42
0.00000001
 43
0.00000001
 12
1.0
 22
0.0
 32
0.0
 13
1.0
 23
0.0
 33
0.0
 40
0.0
 40
0.0
 40
0.0
 40
0.0
 40
1.0
 40
1.0
 40
1.0
 40
1.0
 10
57.95728633650979
 20
108.8169164565373
 30
0.0
 10
57.70674343719856
 20
109.8505298000753
 30
0.0
 10
57.45604393919871
 20
110.889567550986
 30
0.0
 10
57.20507808537083
 20
111.9378315765875
 30
0.0
  0
SPLINE
  5
267
330
1F
100
AcDbEntity
  8
0
  6
Continuous
 62
     7
370
    15
100
AcDbSpline
210
0.0
220
0.0
230
1.0
 70
     8
 71
     3
 72
    10
 73
     6
 74
     0
 42
0.00000001
 43
0.00000001
 12
1.0
 22
0.0
 32
0.0
 13
1.0
 23
0.0
 33
0.0
 40
0.0
 40
0.0
 40
0.0
 40
0.0
 40
0.5
 40
0.5
 40
1.0
 40
1.0
 40
1.0
 40
1.0
 10
57.20507808537083
 20
111.9378315765875
 30
0.0
 10
57.18164151561734
 20
112.0357242284417
 30
0.0
 10
57.15903535515868
 20
112.1150476015156
 30
0.0
 10
57.11756778428154
 20
112.2275863025613
 30
0.0
 10
57.09917607687985
 20
112.2594290934763
 30
0.0
 10
57.08437888600157
 20
112.262640359739
 30
0.0
  0
ARC
  5
268
330
1F
100
AcDbEntity
  8
0
  6
Continuous
 62
     7
370
    15
100
AcDbCircle
 10
60.4776889626
 20
127.8986707615
 30
0.0
 40
16.0
100
AcDbArc
 50
257.1385050887
 51
257.7556163175
  0
ARC
  5
269
330
1F
100
AcDbEntity
  8
0
  6
Continuous
 62
     7
370
    15
100
AcDbCircle
 10
60.4776889626
 20
127.8986707615
 30
0.0
 40
16.0
100
AcDbArc
 50
118.2443836825
 51
118.8614949113
  0
SPLINE
  5
26A
330
1F
100
AcDbEntity
  8
0
  6
Continuous
 62
     7
370
    15
100
AcDbSpline
210
0.0
220
0.0
230
1.0
 70
     8
 71
     3
 72
     8
 73
     4
 74
     0
 42
0.00000001
 43
0.00000001
 12
1.0
 22
0.0
 32
0.0
 13
1.0
 23
0.0
 33
0.0
 40
0.0
 40
0.0
 40
0.0
 40
0.0
 40
1.0
 40
1.0
 40
1.0
 40
1.0
 10
52.90595588811157
 20
141.9936648462424
 30
0.0
 10
52.9326093326547
 20
142.007982891811
 30
0.0
 10
52.94135210494858
 20
142.1381806329399
 30
0.0
 10
52.93244997106176
 20
142.3391602961531
 30
0.0
  0
SPLINE
  5
26B
330
1F
100
AcDbEntity
  8
0
  6
Continuous
 62
     7
370
    15
100
AcDbSpline
210
0.0
220
0.0
230
1.0
 70
     8
 71
     3
 72
     8
 73
     4
 74
     0
 42
0.00000001
 43
0.00000001
 12
1.0
 22
0.0
 32
0.0
 13
1.0
 23
0.0
 33
0.0
 40
0.0
 40
0.0
 40
0.0
 40
0.0
 40
1.0
 40
1.0
 40
1.0
 40
1.0
 10
52.93244997106165
 20
142.3391602961535
 30
0.0
 10
52.92908031145829
 20
142.4152356575037
 30
0.0
 10
52.92572236125991
 20
142.491265235874
 30
0.0
 10
52.92237566288757
 20
142.5672508203671
 30
0.0
  0
ARC
  5
26C
330
1F
100
AcDbEntity
  8
0
  6
Continuous
 62
     7
370
    15
100
AcDbCircle
 10
60.4776889626
 20
127.8986707615
 30
0.0
 40
16.50000000000002
100
AcDbArc
 50
112.7763518834
 51
117.2515377907
  0
LINE
  5
26D
330
1F
100
AcDbEntity
  8
0
  6
Continuous
 62
     7
370
    15
100
AcDbLine
 10
57.3900861393
 20
127.8304249362
 30
0.0
 11
54.0899603741
 21
143.1120505135
 31
0.0
  0
ARC
  5
26E
330
1F
100
AcDbEntity
  8
0
  6
Continuous
 62
     7
370
    15
100
AcDbCircle
 10
77.1530423898
 20
120.005210545
 30
0.0
 40
19.95231794347385
100
AcDbArc
 50
184.8237485922
 51
192.2241683683
  0
LWPOLYLINE
  5
26F
330
1F
100
AcDbEntity
  8
0
  6
Continuous
 62
     7
370
    15
100
AcDbPolyline
 90
        3
 70
   128
 43
0.0
 10
57.2594417316
 20
119.4796136086
 10
57.2764988486
 20
119.5376559832
 10
57.3362155685
 20
119.5730709209
  0
ELLIPSE
  5
270
330
1F
100
AcDbEntity
  8
0
  6
Continuous
 62
     7
370
    15
100
AcDbEllipse
 10
59.4776889626
 20
130.4052699913
 30
0.0
 11
-22.79178641213881
 21
30.8559499336019
 31
0.0
210
0.0
220
0.0
230
1.0
 40
0.4054768606
 41
2.014316652696834
 42
2.047262060176211
  0
LWPOLYLINE
  5
271
330
1F
100
AcDbEntity
  8
0
  6
Continuous
 62
     7
370
    15
100
AcDbPolyline
 90
       33
 70
   128
 43
0.0
 10
56.3922732641
 20
128.5741282738
 10
56.4837460855
 20
128.5093697259
 10
56.5930970345
 20
128.2948780266
 10
56.7161238155
 20
127.9388959714
 10
56.8480985784
 20
127.4551037514
 10
56.9839496069
 20
126.86209323
 10
57.1184562223
 20
126.1826534691
 10
57.2464494107
 20
125.4428949576
 10
57.3630104657
 20
124.6712462004
 10
57.4636600114
 20
123.8973612263
 10
57.544530142
 20
123.150980001
 10
57.602513064
 20
122.4607855363
 10
57.635380526
 20
121.8533016186
 10
57.6418694499
 20
121.3518735139
 10
57.6217304701
 20
120.9757708233
 10
57.5757375163
 20
120.7394469621
 10
57.5056580718
 20
120.6519837239
 10
57.4141852504
 20
120.7167422718
 10
57.3048343014
 20
120.9312339712
 10
57.1818075203
 20
121.2872160263
 10
57.0498327575
 20
121.7710082464
 10
56.913981729
 20
122.3640187678
 10
56.7794751136
 20
123.0434585287
 10
56.6514819252
 20
123.7832170401
 10
56.5349208701
 20
124.5548657974
 10
56.4342713245
 20
125.3287507715
 10
56.3534011938
 20
126.0751319968
 10
56.2954182719
 20
126.7653264614
 10
56.2625508099
 20
127.3728103792
 10
56.2560618859
 20
127.8742384839
 10
56.2762008657
 20
128.2503411745
 10
56.3221938196
 20
128.4866650356
 10
56.3922732641
 20
128.5741282738
  0
LINE
  5
272
330
1F
100
AcDbEntity
  8
0
  6
Continuous
 62
     7
370
    15
100
AcDbLine
 10
57.3362155685
 20
119.5730709209
 30
0.0
 11
58.7607296626
 21
118.6853953261
 31
0.0
  0
LINE
  5
273
330
1F
100
AcDbEntity
  8
0
  6
Continuous
 62
     7
370
    15
100
AcDbLine
 10
63.3151523961
 20
118.9287530677
 30
0.0
 11
63.4644645995
 21
118.8357102544
 31
0.0
  0
ARC
  5
274
330
1F
100
AcDbEntity
  8
0
  6
Continuous
 62
     7
370
    15
100
AcDbCircle
 10
60.4776889626
 20
127.8986707615
 30
0.0
 40
16.50000000000002
100
AcDbArc
 50
9.2575856757
 51
112.7763518834
  0
SPLINE
  5
275
330
1F
100
AcDbEntity
  8
0
  6
Continuous
 62
     7
370
    15
100
AcDbSpline
210
0.0
220
0.0
230
1.0
 70
     8
 71
     3
 72
    18
 73
    14
 74
     0
 42
0.00000001
 43
0.00000001
 12
1.0
 22
0.0
 32
0.0
 13
1.0
 23
0.0
 33
0.0
 40
0.0
 40
0.0
 40
0.0
 40
0.0
 40
0.2499999999999991
 40
0.2499999999999991
 40
0.3749999999999994
 40
0.3749999999999994
 40
0.4999999999999999
 40
0.4999999999999999
 40
0.6250000000000003
 40
0.6250000000000003
 40
0.7500000000000007
 40
0.7500000000000007
 40
1.0
 40
1.0
 40
1.0
 40
1.0
 10
53.35719863391466
 20
121.7647564735605
 30
0.0
 10
53.57481353216085
 20
121.5520337231641
 30
0.0
 10
53.75319301008903
 20
121.3124887156778
 30
0.0
 10
53.97298422282503
 20
120.9160554179565
 30
0.0
 10
54.03776586917727
 20
120.7772417480697
 30
0.0
 10
54.14503556558559
 20
120.4937490678384
 30
0.0
 10
54.18817221796159
 20
120.3480977339247
 30
0.0
 10
54.24910465425938
 20
120.0471258645406
 30
0.0
 10
54.26620751576274
 20
119.8934474904209
 30
0.0
 10
54.26787189109218
 20
119.5890905660933
 30
0.0
 10
54.25205031551814
 20
119.4348968443779
 30
0.0
 10
54.15186007056202
 20
118.9939788598131
 30
0.0
 10
54.01321413410503
 20
118.7219674525043
 30
0.0
 10
53.8173836090585
 20
118.4903702347255
 30
0.0
  0
SPLINE
  5
276
330
1F
100
AcDbEntity
  8
0
  6
Continuous
 62
     7
370
    15
100
AcDbSpline
210
0.0
220
0.0
230
1.0
 70
     8
 71
     3
 72
    14
 73
    10
 74
     0
 42
0.00000001
 43
0.00000001
 12
1.0
 22
0.0
 32
0.0
 13
1.0
 23
0.0
 33
0.0
 40
0.0
 40
0.0
 40
0.0
 40
0.0
 40
0.25
 40
0.25
 40
0.5
 40
0.5
 40
0.75
 40
0.75
 40
1.0
 40
1.0
 40
1.0
 40
1.0
 10
56.91616917742519
 20
112.3000946463361
 30
0.0
 10
56.88139982871423
 20
112.3080333019182
 30
0.0
 10
56.79626271222344
 20
112.3273481282103
 30
0.0
 10
56.52862008417836
 20
112.3930639439497
 30
0.0
 10
56.35277650961716
 20
112.4379363486192
 30
0.0
 10
55.92572552869269
 20
112.5582392086781
 30
0.0
 10
55.68350643507171
 20
112.6312660312904
 30
0.0
 10
55.15415817482985
 20
112.8076849336958
 30
0.0
 10
54.87411654450118
 20
112.9088020979056
 30
0.0
 10
54.58577107709406
 20
113.0230093096054
 30
0.0
  0
SPLINE
  5
277
330
1F
100
AcDbEntity
  8
0
  6
Continuous
 62
     7
370
    15
100
AcDbSpline
210
0.0
220
0.0
230
1.0
 70
     8
 71
     3
 72
    18
 73
    14
 74
     0
 42
0.00000001
 43
0.00000001
 12
1.0
 22
0.0
 32
0.0
 13
1.0
 23
0.0
 33
0.0
 40
0.0
 40
0.0
 40
0.0
 40
0.0
 40
0.2500000000000016
 40
0.2500000000000016
 40
0.3749999999999997
 40
0.3749999999999997
 40
0.4999999999999979
 40
0.4999999999999979
 40
0.6249999999999961
 40
0.6249999999999961
 40
0.7499999999999942
 40
0.7499999999999942
 40
1.0
 40
1.0
 40
1.0
 40
1.0
 10
50.71372599502289
 20
140.574041650284
 30
0.0
 10
50.95960999400502
 20
140.7634485150955
 30
0.0
 10
51.1987414344068
 20
140.9362513911786
 30
0.0
 10
51.54283819399615
 20
141.172245476686
 30
0.0
 10
51.65524983628291
 20
141.247094228907
 30
0.0
 10
51.86633577424592
 20
141.3842348011757
 30
0.0
 10
51.96603508986121
 20
141.447242242308
 30
0.0
 10
52.15266371912317
 20
141.5627109954618
 30
0.0
 10
52.24029658470064
 20
141.6155835059671
 30
0.0
 10
52.39730349723758
 20
141.7086562487459
 30
0.0
 10
52.46623599738241
 20
141.7486264649398
 30
0.0
 10
52.6437826620766
 20
141.850320071827
 30
0.0
 10
52.72330549556637
 20
141.894056170889
 30
0.0
 10
52.75458613889378
 20
141.911296595893
 30
0.0
  0
ELLIPSE
  5
278
330
1F
100
AcDbEntity
  8
0
  6
Continuous
 62
     7
370
    15
100
AcDbEllipse
 10
51.9944990512
 20
120.2216346797
 30
0.0
 11
-1.618682318416894
 21
1.93450206487968
 31
0.0
210
0.0
220
0.0
230
1.0
 40
0.8130428287
 41
4.835196941576716
 42
9.565199700636095
  0
SPLINE
  5
279
330
1F
100
AcDbEntity
  8
0
  6
Continuous
 62
     7
370
    15
100
AcDbSpline
210
0.0
220
0.0
230
1.0
 70
     8
 71
     3
 72
    14
 73
    10
 74
     0
 42
0.00000001
 43
0.00000001
 12
1.0
 22
0.0
 32
0.0
 13
1.0
 23
0.0
 33
0.0
 40
0.0
 40
0.0
 40
0.0
 40
0.0
 40
0.157965375136235
 40
0.3215698756082191
 40
0.4820689204225146
 40
0.648868269846073
 40
0.7886147498574934
 40
0.931235843584082
 40
1.0
 40
1.0
 40
1.0
 40
1.0
 10
51.69877300712143
 20
122.4898549217804
 30
0.0
 10
51.6315939878942
 20
122.4598434079218
 30
0.0
 10
51.49483775990593
 20
122.3987490144827
 30
0.0
 10
51.26964770095201
 20
122.3139506163539
 30
0.0
 10
51.03062427504156
 20
122.2323233530746
 30
0.0
 10
50.80064564483208
 20
122.1618069160567
 30
0.0
 10
50.5859813220533
 20
122.1043919465277
 30
0.0
 10
50.42353513464818
 20
122.0666873201538
 30
0.0
 10
50.33062767450578
 20
122.0512643754793
 30
0.0
 10
50.30040464277992
 20
122.0462472525756
 30
0.0
  0
ARC
  5
27A
330
1F
100
AcDbEntity
  8
0
  6
Continuous
 62
     7
370
    15
100
AcDbCircle
 10
60.4776889626
 20
127.8986707615
 30
0.0
 40
16.00000000000002
100
AcDbArc
 50
127.607414392
 51
248.392585608
  0
ARC
  5
27B
330
1F
100
AcDbEntity
  8
0
  6
Continuous
 62
     7
370
    15
100
AcDbCircle
 10
60.4776889626
 20
127.8986707615
 30
0.0
 40
20.0
100
AcDbArc
 50
317.5439393039
 51
265.2576169658
  0
LINE
  5
27C
330
1F
100
AcDbEntity
  8
VERMASSUNG
100
AcDbLine
 10
60.4776889626
 20
105.940537366
 30
0.0
 11
54.0321624744
 21
151.802841385
 31
0.0
  0
CIRCLE
  5
27D
330
1F
100
AcDbEntity
  8
VERMASSUNG
  6
CENTERX2
100
AcDbCircle
 10
60.4776889626
 20
125.940537366
 30
0.0
 40
20.00000000000002
  0
DIMENSION
  5
27E
330
1F
100
AcDbEntity
  8
VERMASSUNG
100
AcDbDimension
  2
_D_6
 10
46.3355533388
 20
111.7984017422
 30
0.0
 11
38.633329267
 21
104.0961776704
 31
0.0
 70
   160
  1
%%c<> min. 
 71
     2
 42
-1.0
  3
SLDDIMSTYLE2
100
AcDbAlignedDimension
 13
74.6198245863
 23
140.0826729897
 33
0.0
 14
46.3355533388
 24
111.7984017422
 34
0.0
 50
45.0
100
AcDbRotatedDimension
  0
DIMENSION
  5
28D
330
1F
100
AcDbEntity
  8
VERMASSUNG
100
AcDbDimension
  2
_D_7
 10
54.0321624744
 20
151.802841385
 30
0.0
 11
57.0349263985
 21
155.1743357963
 31
0.0
 70
   162
  1
<>
 71
     1
 42
-1.0
  3
SLDDIMSTYLE3
100
AcDb2LineAngularDimension
 13
60.4776889626
 23
150.3986707615
 33
0.0
 14
60.4776889626
 24
105.3986707615
 34
0.0
 15
60.4776889626
 25
105.940537366
 35
0.0
 16
57.0349263985
 26
155.1743357963
 36
0.0
  0
INSERT
  5
2A5
330
1F
100
AcDbEntity
  8
VERMASSUNG
100
AcDbBlockReference
  2
SW_CENTERMARKSYMBOL_0
 10
60.4776889626
 20
127.8986707615
 30
0.0
  0
OLE2FRAME
  5
2A6
330
1F
100
AcDbEntity
  8
0
100
AcDbOle2Frame
 70
     2
  3
Paintbrush-Bild
 10
13.8511154363
 20
38.264191557
 30
0.0
 11
51.6290888628
 21
31.9806341108
 31
0.0
 71
     2
 72
     0
 73
     1
 90
    12928
310
80552BED0767C5B32B40DDAF6807D121434000000000000000006FFBDDFB85D0
310
4940DDAF6807D121434000000000000000006FFBDDFB85D04940416F4BD60AFB
310
3F4000000000000000002BED0767C5B32B40416F4BD60AFB3F40000000000000
310
0000000000000100000000010000010000000100000000000100000000320000
310
D0CF11E0A1B11AE1000000000000000000000000000000003E000300FEFF0900
310
0600000000000000000000000100000001000000000000000010000002000000
310
01000000FEFFFFFF0000000000000000FFFFFFFFFFFFFFFFFFFFFFFFFFFFFFFF
310
FFFFFFFFFFFFFFFFFFFFFFFFFFFFFFFFFFFFFFFFFFFFFFFFFFFFFFFFFFFFFFFF
310
FFFFFFFFFFFFFFFFFFFFFFFFFFFFFFFFFFFFFFFFFFFFFFFFFFFFFFFFFFFFFFFF
310
FFFFFFFFFFFFFFFFFFFFFFFFFFFFFFFFFFFFFFFFFFFFFFFFFFFFFFFFFFFFFFFF
310
FFFFFFFFFFFFFFFFFFFFFFFFFFFFFFFFFFFFFFFFFFFFFFFFFFFFFFFFFFFFFFFF
310
FFFFFFFFFFFFFFFFFFFFFFFFFFFFFFFFFFFFFFFFFFFFFFFFFFFFFFFFFFFFFFFF
310
FFFFFFFFFFFFFFFFFFFFFFFFFFFFFFFFFFFFFFFFFFFFFFFFFFFFFFFFFFFFFFFF
310
FFFFFFFFFFFFFFFFFFFFFFFFFFFFFFFFFFFFFFFFFFFFFFFFFFFFFFFFFFFFFFFF
310
FFFFFFFFFFFFFFFFFFFFFFFFFFFFFFFFFFFFFFFFFFFFFFFFFFFFFFFFFFFFFFFF
310
FFFFFFFFFFFFFFFFFFFFFFFFFFFFFFFFFFFFFFFFFFFFFFFFFFFFFFFFFFFFFFFF
310
FFFFFFFFFFFFFFFFFFFFFFFFFFFFFFFFFFFFFFFFFFFFFFFFFFFFFFFFFFFFFFFF
310
FFFFFFFFFFFFFFFFFFFFFFFFFFFFFFFFFFFFFFFFFFFFFFFFFFFFFFFFFFFFFFFF
310
FFFFFFFFFFFFFFFFFFFFFFFFFFFFFFFFFFFFFFFFFFFFFFFFFFFFFFFFFFFFFFFF
310
FFFFFFFFFFFFFFFFFFFFFFFFFFFFFFFFFFFFFFFFFFFFFFFFFFFFFFFFFFFFFFFF
310
FDFFFFFFFEFFFFFFFEFFFFFFFEFFFFFF05000000060000000700000008000000
310
090000000A0000000B0000000C0000000D0000000E0000000F00000010000000
310
11000000120000001300000014000000150000001600000017000000FEFFFFFF
310
FFFFFFFFFFFFFFFFFFFFFFFFFFFFFFFFFFFFFFFFFFFFFFFFFFFFFFFFFFFFFFFF
310
FFFFFFFFFFFFFFFFFFFFFFFFFFFFFFFFFFFFFFFFFFFFFFFFFFFFFFFFFFFFFFFF
310
FFFFFFFFFFFFFFFFFFFFFFFFFFFFFFFFFFFFFFFFFFFFFFFFFFFFFFFFFFFFFFFF
310
FFFFFFFFFFFFFFFFFFFFFFFFFFFFFFFFFFFFFFFFFFFFFFFFFFFFFFFFFFFFFFFF
310
FFFFFFFFFFFFFFFFFFFFFFFFFFFFFFFFFFFFFFFFFFFFFFFFFFFFFFFFFFFFFFFF
310
FFFFFFFFFFFFFFFFFFFFFFFFFFFFFFFFFFFFFFFFFFFFFFFFFFFFFFFFFFFFFFFF
310
FFFFFFFFFFFFFFFFFFFFFFFFFFFFFFFFFFFFFFFFFFFFFFFFFFFFFFFFFFFFFFFF
310
FFFFFFFFFFFFFFFFFFFFFFFFFFFFFFFFFFFFFFFFFFFFFFFFFFFFFFFFFFFFFFFF
310
FFFFFFFFFFFFFFFFFFFFFFFFFFFFFFFFFFFFFFFFFFFFFFFFFFFFFFFFFFFFFFFF
310
FFFFFFFFFFFFFFFFFFFFFFFFFFFFFFFFFFFFFFFFFFFFFFFFFFFFFFFFFFFFFFFF
310
FFFFFFFFFFFFFFFFFFFFFFFFFFFFFFFFFFFFFFFFFFFFFFFFFFFFFFFFFFFFFFFF
310
FFFFFFFFFFFFFFFFFFFFFFFFFFFFFFFFFFFFFFFFFFFFFFFFFFFFFFFFFFFFFFFF
310
FFFFFFFFFFFFFFFFFFFFFFFFFFFFFFFFFFFFFFFFFFFFFFFFFFFFFFFFFFFFFFFF
310
52006F006F007400200045006E00740072007900000000000000000000000000
310
0000000000000000000000000000000000000000000000000000000000000000
310
16000500FFFFFFFFFFFFFFFF020000000A00030000000000C000000000000046
310
00000000000000000000000080574F45BD43CD0103000000C000000000000000
310
01004F006C006500000000000000000000000000000000000000000000000000
310
0000000000000000000000000000000000000000000000000000000000000000
310
0A000200FFFFFFFFFFFFFFFFFFFFFFFF00000000000000000000000000000000
310
0000000000000000000000000000000000000000000000001400000000000000
310
010043006F006D0070004F0062006A0000000000000000000000000000000000
310
0000000000000000000000000000000000000000000000000000000000000000
310
120002010100000003000000FFFFFFFF00000000000000000000000000000000
310
0000000000000000000000000000000000000000010000004D00000000000000
310
01004F006C006500310030004E00610074006900760065000000000000000000
310
0000000000000000000000000000000000000000000000000000000000000000
310
1A000200FFFFFFFFFFFFFFFFFFFFFFFF00000000000000000000000000000000
310
0000000000000000000000000000000000000000040000002426000000000000
310
FEFFFFFF02000000FEFFFFFFFFFFFFFFFFFFFFFFFFFFFFFFFFFFFFFFFFFFFFFF
310
FFFFFFFFFFFFFFFFFFFFFFFFFFFFFFFFFFFFFFFFFFFFFFFFFFFFFFFFFFFFFFFF
310
FFFFFFFFFFFFFFFFFFFFFFFFFFFFFFFFFFFFFFFFFFFFFFFFFFFFFFFFFFFFFFFF
310
FFFFFFFFFFFFFFFFFFFFFFFFFFFFFFFFFFFFFFFFFFFFFFFFFFFFFFFFFFFFFFFF
310
FFFFFFFFFFFFFFFFFFFFFFFFFFFFFFFFFFFFFFFFFFFFFFFFFFFFFFFFFFFFFFFF
310
FFFFFFFFFFFFFFFFFFFFFFFFFFFFFFFFFFFFFFFFFFFFFFFFFFFFFFFFFFFFFFFF
310
FFFFFFFFFFFFFFFFFFFFFFFFFFFFFFFFFFFFFFFFFFFFFFFFFFFFFFFFFFFFFFFF
310
FFFFFFFFFFFFFFFFFFFFFFFFFFFFFFFFFFFFFFFFFFFFFFFFFFFFFFFFFFFFFFFF
310
FFFFFFFFFFFFFFFFFFFFFFFFFFFFFFFFFFFFFFFFFFFFFFFFFFFFFFFFFFFFFFFF
310
FFFFFFFFFFFFFFFFFFFFFFFFFFFFFFFFFFFFFFFFFFFFFFFFFFFFFFFFFFFFFFFF
310
FFFFFFFFFFFFFFFFFFFFFFFFFFFFFFFFFFFFFFFFFFFFFFFFFFFFFFFFFFFFFFFF
310
FFFFFFFFFFFFFFFFFFFFFFFFFFFFFFFFFFFFFFFFFFFFFFFFFFFFFFFFFFFFFFFF
310
FFFFFFFFFFFFFFFFFFFFFFFFFFFFFFFFFFFFFFFFFFFFFFFFFFFFFFFFFFFFFFFF
310
FFFFFFFFFFFFFFFFFFFFFFFFFFFFFFFFFFFFFFFFFFFFFFFFFFFFFFFFFFFFFFFF
310
FFFFFFFFFFFFFFFFFFFFFFFFFFFFFFFFFFFFFFFFFFFFFFFFFFFFFFFFFFFFFFFF
310
FFFFFFFFFFFFFFFFFFFFFFFFFFFFFFFFFFFFFFFFFFFFFFFFFFFFFFFFFFFFFFFF
310
0100000200000000000000000000000000000000000000000000000000000000
310
0000000000000000000000000000000000000000000000000000000000000000
310
0100FEFF030A0000FFFFFFFF0A00030000000000C00000000000004607000000
310
5042727573680007000000504272757368000700000050427275736800F439B2
310
7100000000000000000000000000000000000000000000000000000000000000
310
0000000000000000000000000000000000000000000000000000000000000000
310
0000000000000000000000000000000000000000000000000000000000000000
310
0000000000000000000000000000000000000000000000000000000000000000
310
0000000000000000000000000000000000000000000000000000000000000000
310
0000000000000000000000000000000000000000000000000000000000000000
310
0000000000000000000000000000000000000000000000000000000000000000
310
0000000000000000000000000000000000000000000000000000000000000000
310
0000000000000000000000000000000000000000000000000000000000000000
310
0000000000000000000000000000000000000000000000000000000000000000
310
0000000000000000000000000000000000000000000000000000000000000000
310
0000000000000000000000000000000000000000000000000000000000000000
310
20260000424D0E260000000000003E00000028000000B40200006E0000000100
310
01000000000000000000130B0000130B00000200000002000000000000FFFFFF
310
FFFFFFFFFFFFFFFFFFFFFFFFFFFFFFFFFFFFFFFFFFFFFFFFFFFFFFFFFFFFFFFF
310
FFFFFFFFFFFFFFFFFFFFFFFFFFFFFFFFFFFFFFFFFFFFFFFFFFFFFFFFFFFFFFFF
310
FFFFFFFFFFFFFFFFFFFFFFFFFFFFFFFFFFFFFFFFFFFFFFFFF000FFFFFFFFFFFF
310
FFFFFFFFFFFFFFFFFFFFFFFFFFFFFFFFFFFFFFFFFFFFFFFFFFFFFFFFFFFFFFFF
310
FFFFFFFFFFFFFFFFFFFFFFFFFFFFFFFFFFFFFFFFFFFFFFFFFFFFFFFFFFFFFFFF
310
FFFFFFFFFFFFFFFFFFFFFFFFFFFFFFFFF000FFFFFFFFFFFFFFFFFFFFFFFFFFFF
310
FFFFFFFFFFFFFFFFFFFFFFFFFFFFFFFFFFFFFFFFFFFFFFFFFFFFFFFFFFFFFFFF
310
FFFFFFFFFFFFFFFFFFFFFFFFFFFFFFFFFFFFFFFFFFFFFFFFFFFFFFFFFFFFFFFF
310
FFFFFFFFFFFFFFFFF000FFFFFFFFFFFFFFFFFFFFFFFFFFFFFFFFFFFFFFFFFFFF
310
FFFFFFFFFFFFFFFFFFFFFFFFFFFFFFFFFFFFFFFFFFFFFFFFFFFFFFFFFFFFFFFF
310
FFFFFFFFFFFFFFFFFFFFFFFFFFFFFFFFFFFFFFFFFFFFFFFFFFFFFFFFFFFFFFFF
310
F000FFFFFFFFFFFFFFFFFFFFFFFFFFFFFFFFFFFFFFFFFFFFFFFFFFFFFFFFFFFF
310
FFFFFFFFFFFFFFFFFFFFFFFFFFFFFFFFFFFFFFFFFFFFFFFFFFFFFFFFFFFFFFFF
310
FFFFFFFFFFFFFFFFFFFFFFFFFFFFFFFFFFFFFFFFFFFFFFFFF000FFFFFFFFFFFF
310
FFFFFFFFFFFFFFFFFFFFFFFFFFFFFFFFFFFFFFFFFFFFFFFFFFFFFFFFFFFFFFFF
310
FFFFFFFFFFFFFFFFFFFFFFFFFFFFFFFFFFFFFFFFFFFFFFFFFFFFFFFFFFFFFFFF
310
FFFFFFFFFFFFFFFFFFFFFFFFFFFFFFFFF000FFFFFFFFFFFFFFFFFFFFFFFFFFFF
310
FFFFFFFFFFFFFFFFFFFFFFFFFFFFFFFFFFFFFFFFFFFFFFFFFFFFFFFFFFFFFFFF
310
FFFFFFFFFFFFFFFFFFFFFFFFFFFFFFFFFFFFFFFFFFFFFFFFFFFFFFFFFFFFFFFF
310
FFFFFFFFFFFFFFFFF000FFFFFFFFFFFFFFFFFFFFFFFFFFFFFFFFFFFFFFFFFFFF
310
FFFFFFFFFFFFFFFFFFFFFFFFFFFFFFFFFFFFFFFFFFFFFFFFFFFFFFFFFFFFFFFF
310
FFFFFFFFFFFFFFFFFFFFFFFFFFFFFFFFFFFFFFFFFFFFFFFFFFFFFFFFFFFFFFFF
310
F000FFFFFFFFFFFFFFFFFFFFFFFFFFFFFFFFFFFFFFFFFFFFFFFFFFFFFFFFFFFF
310
FFFFFFFFFFFFFFFFFFFFFFFFFFFFFFFFFFFFFFFFFFFFFFFFFFFFFFFFFFFFFFFF
310
FFFFFFFFFFFFFFFFFFFFFFFFFFFFFFFFFFFFFFFFFFFFFFFFF000FFFFFFFFFFFF
310
FFFFFFFFFFFFFFFFFFFFFFFFFFFFFFFFFFFFFFFFFFFFFFFFFFFFFFFFFFFFFFFF
310
FFFFFFFFFFFFFFFFFFFFFFFFFFFFFFFFFFFFFFFFFFFFFFFFFFFFFFFFFFFFFFFF
310
FFFFFFFFFFFFFFFFFFFFFFFFFFFFFFFFF000FFFFFFFFFFFFFFFFFFFFFFFFFFFF
310
FFFFFFFFFFFFFFFFFFFFFFFFFFFFFFFFFFFFFFFFFFFFFFFFFFFFFFFFFFFFFFFF
310
FFFFFFFFFFFFFFFFFFFFFFFFFFFFFFFFFFFFFFFFFFFFFFFFFFFFFFFFFFFFFFFF
310
FFFFFFFFFFFFFFFFF000FFFFFFFFFFFFFFFFFFFFFFFFFFFFFFFFFFFFFFFFFFFF
310
FFFFFFFFFFFFFFFFFFFFFFFFFFFFFFFFFFFFFFFFFFFFFFFFFFFFFFFFFFFFFFFF
310
FFFFFFFFFFFFFFFFFFFFFFFFFFFFFFFFFFFFFFFFFFFFFFFFFFFFFFFFFFFFFFFF
310
F000FFFFFFFFFFFFFFFFFFFFFFFFFFFFFFFFFFFFFFFFFFFFFFFFFFFFFFFFFFFF
310
FFFFFFFFFFFFFFFFFFFFFFFFFFFFFFFFFFFFFFFFFFFFFFFFFFFFFFFFFFFFFFFF
310
FFFFFFFFFFFFFFFFFFFFFFFFFFFFFFFFFFFFFFFFFFFFFFFFF000FFFFFFFFFFFF
310
FFFFFFFFFFFFFFFFFFFFFFFFFFFFFFFFFFFFFFFFFFFFFFFFFFFFFFFFFFFFFFFF
310
FFFFFFFFFFFFFFFFFFFFFFFFFFFFFFFFFFFFFFFFFFFFFFFFFFFFFFFFFFFFFFFF
310
FFFFFFFFFFFFFFFFFFFFFFFFFFFFFFFFF000FFFFFFFFFFFFFFFFFFFFFFFFFFFF
310
FFFFFFFFFFFFFFFFFFFFFFFFFFFFFFFFFFFFFFFFFFFFFFFFFFFFFFFFFFFFFFFF
310
FFFFFFFFFFFFFFFFFFFFFFFFFFFFFFFFFFFFFFFFFFFFFFFFFFFFFFFFFFFFFFFF
310
FFFFFFFFFFFFFFFFF000FFFFFFFFFFFFFFFFFFFFFFFFFFFFFFFFFFFFFFFFFFFF
310
FFFFFFFFFFFFFFFFFFFFFFFFFFFFFFFFFFFFFFFFFFFFFFFFFFFFFFFFFFFFFFFF
310
FFFFFFFFFFFFFFFFFFFFFFFFFFFFFFFFFFFFFFFFFFFFFFFFFFFFFFFFFFFFFFFF
310
F000FFFFFFFFFFFFFFFFFFFFFFFFFFFFFFFFFFFFFFFFFFFFFFFFFFFFFFFFFFFF
310
FFFFFFFFFFFFFFFFFFFFFFFFFFFFFFFFFFFFFFFFFFFFFFFFFFFFFFFFFFFFFFFF
310
FFFFFFFFFFFFFFFFFFFFFFFFFFFFFFFFFFFFFFFFFFFFFFFFF000FFFFFFFFFFFF
310
FFFFFFFFFFFFFFFFFFFFFFFFFFFFFFFFFFFFFFFFFFFFFFFFFFFFFFFFFFFFFFFF
310
FFFFFFFFFFFFFFFFFFFFFFFFFFFFFFFFFFFFFFFFFFFFFFFFFFFFFFFFFFFFFFFF
310
FFFFFFFFFFFFFFFFFFFFFFFFFFFFFFFFF000FFFFFFFFFFFFFFFFFFFFFFFFFFFF
310
FFFFFFFFFFFFFFFFFFFFFFFFFFFFFFFFFFFFFFFFFFFFFFFFFFFFFFFFFFFFFFFF
310
FFFFFFFFFFFFFFFFFFFFFFFFFFFFFFFFFFFFFFFFFFFFFFFFFFFFFFFFFFFFFFFF
310
FFFFFFFFFFFFFFFFF000FFFFF80003FFFFFFFFFFFFFFFFFFFFFFFFFFFFFFFFFF
310
FFFFF00007FFFFFFFFFF00007FFFFFF800000000000000007FFFFFFFFFFFFFFF
310
FFFFFFFC001FFFFFFFFFFFFFFC001FFFFFFFFFFFFFFFFFFFFFFFFFFE0007FFFF
310
F000FFFF8000007FFFFFFFF8000FFFFFC0007FFFFF80007FFFFF0000007FFFFF
310
FFF8000007FFFFF800000000000000007FFFFFF0001FFFFFFFFFFFC00001FFFF
310
FFFFFFFFC00001FFFFFFFF000000000003FFFFE000007FFFF000FFFE0000000F
310
FFFFFFF0000FFFFF80007FFFFF80007FFFFC0000001FFFFFFFC0000001FFFFF8
310
00000000000000007FFFFFF0001FFFFFFFFFFE0000003FFFFFFFFFFE0000003F
310
FFFFFF000000000003FFFF0000000FFFF000FFF800000003FFFFFFF00007FFFF
310
80007FFFFF80007FFFF000000007FFFFFF000000003FFFF80000000000000000
310
7FFFFFF0001FFFFFFFFFF80000000FFFFFFFFFF80000000FFFFFFF0000000000
310
03FFFC00000003FFF000FFE000000000FFFFFFF00007FFFF80003FFFFF80007F
310
FFC000000001FFFFFC000000001FFFF800000000000000007FFFFFF0001FFFFF
310
FFFFE000000003FFFFFFFFE000000003FFFFFF000000000003FFF000000000FF
310
F000FF80000000007FFFFFF00007FFFF80003FFFFF80007FFF8000000000FFFF
310
F80000000007FFF800000000000000007FFFFFF0001FFFFFFFFFC000000001FF
310
FFFFFFC000000001FFFFFF000000000003FFC0000000007FF000FF0000000000
310
3FFFFFE00007FFFF00003FFFFF80007FFE00000000003FFFF00000000003FFF8
310
00000000000000007FFFFFF0001FFFFFFFFF8000000000FFFFFFFF8000000000
310
FFFFFF000000000003FF80000000003FF000FE00000000001FFFFFE00003FFFF
310
00003FFFFF80007FFC00000000001FFFE00000000001FFF8000001FFFE000000
310
7FFFFFF0001FFFFFFFFE00000000003FFFFFFE00000000003FFFFF0000000000
310
03FF00000000001FF000FC00000000000FFFFFE00003FFFF00001FFFFF80007F
310
F800000000001FFFC00000000000FFF8000001FFFE0000007FFFFFF0001FFFFF
310
FFFC00000000001FFFFFFC00000000001FFFFF000000000003FE00000000000F
310
F000F8000000000007FFFFE00003FFFF00001FFFFF80007FF800000000000FFF
310
800000000000FFF8000001FFFE0000007FFFFFF0001FFFFFFFF800000000000F
310
FFFFF800000000000FFFFF000000000003FC000000000007F000F80000000000
310
03FFFFC00003FFFE00001FFFFF80007FF0000000000007FF0000000000007FF8
310
000001FFFE0000007FFFFFF0001FFFFFFFF0000000000007FFFFF00000000000
310
07FFFF000000000003F8000000000003F000F0000000000003FFFFC00001FFFE
310
00001FFFFF80007FE0000000000007FE0000000000003FF8000001FFFE000000
310
7FFFFFF0001FFFFFFFF0000000000007FFFFF0000000000007FFFF0000000000
310
03F800001F800003F000E00001FFF00001FFFFC00001FFFE00000FFFFF80007F
310
E00001FFE00003FE00001FFF00003FF8000001FFFE0000007FFFFFF0001FFFFF
310
FFE000003E000003FFFFE000003E000003FFFF000000000003F00001FFF80001
310
F000E00007FFFC0001FFFFC00001FFFE00000FFFFF80007FC0000FFFFC0003FC
310
0000FFFFC0001FF8000001FFFE0000007FFFFFF0001FFFFFFFC00003FFE00001
310
FFFFC00003FFE00001FFFF0001FFFFFFFFF00007FFFE0001F000E0000FFFFF00
310
00FFFF800001FFFC00000FFFFF80007FC0001FFFFE0001FC0001FFFFE0001FF8
310
000001FFFE0000007FFFFFF0001FFFFFFF80000FFFF80000FFFF80000FFFF800
310
00FFFF0003FFFFFFFFE0000FFFFF8000F000C0003FFFFF8000FFFF800000FFFC
310
000007FFFF80007F80003FFFFF0001FC0003FFFFF0001FF8000001FFFE000000
310
7FFFFFF0001FFFFFFF80003FFFFE0000FFFF80003FFFFE0000FFFF0003FFFFFF
310
FFE0003FFFFF8000F000C0003FFFFF8000FFFF800000FFFC000007FFFF80007F
310
80007FFFFF8001F80007FFFFF8000FF8000001FFFE0000007FFFFFF0001FFFFF
310
FF00007FFFFF00007FFF00007FFFFF00007FFF0003FFFFFFFFE0003FFFFFC000
310
F000C0007FFFFFC000FFFF000000FFFC000007FFFF80007F8000FFFFFF8000F8
310
000FFFFFF8000FF8000001FFFE0000007FFFFFF0001FFFFFFF0000FFFFFF8000
310
7FFF0000FFFFFF80007FFF0003FFFFFFFFC0007FFFFFC00070008000FFFFFFC0
310
00FFFF000000FFF8000007FFFF80007F8000FFFFFF8000F8000FFFFFF8000FF8
310
000001FFFE0000007FFFFFF0001FFFFFFE0001FFFFFFC0003FFE0001FFFFFFC0
310
003FFF0003FFFFFFFFC0007FFFFFE00070008000FFFFFFC0007FFF0000007FF8
310
000003FFFF80007F0001FFFFFF8000F8000FFFFFF8000FF8000001FFFE000000
310
7FFFFFF0001FFFFFFE0001FFFFFFC0003FFE0001FFFFFFC0003FFF0003FFFFFF
310
FFC000FFFFFFE00070008000FFFFFFC0007FFF0000007FF8000003FFFF80007F
310
0001FFFFFF8000F8001FFFFFF8000FF8000001FFFE0000007FFFFFF0001FFFFF
310
FE0003FFFFFFE0003FFE0003FFFFFFE0003FFF0003FFFFFFFFC000FFFFFFE000
310
70008000FFFFFFC0007FFE0000007FF8000003FFFF80007F0001FFFFFF8000F0
310
001FFFFFF8000FF8000001FFFE0000007FFFFFF0001FFFFFFC0003FFFFFFE000
310
1FFC0003FFFFFFE0001FFF0003FFFFFFFFC000FFFFFFC00070008000FFFFFF80
310
007FFE0000007FF0000003FFFF80007F0001FFFFFF0000F0001FFFFFF8000FF8
310
000001FFFE0000007FFFFFF0001FFFFFFC0007FFFFFFF0001FFC0007FFFFFFF0
310
001FFF0003FFFFFFFFC000FFFFFFC00070008001FFFFFF0000FFFE0000003FF0
310
000001FFFF80007F0001FFFFFF0000F8001FFFFFF0000FF8000001FFFE000000
310
7FFFFFF0001FFFFFFC0007FFFFFFF0001FFC0007FFFFFFF0001FFF0003FFFFFF
310
FFC001FFFFFF80007000FFFFFFFFFE0000FFFE0008003FF0008001FFFF80007F
310
FFFFFFFFFC0000FFFFFFFFFFE0000FF8000001FFFE0000007FFFFFF0001FFFFF
310
F8000FFFFFFFF8000FF8000FFFFFFFF8000FFF0003FFFFFFFFFFFFFFFFFF0000
310
7000FFFFFFFFFC0000FFFC0008003FF0008001FFFF80007FFFFFFFFFF80001FF
310
FFFFFFFF80000FF8000001FFFE0000007FFFFFF0001FFFFFF8000FFFFFFFF800
310
0FF8000FFFFFFFF8000FFF0003FFFFFFFFFFFFFFFFFE0000F000FFFFFFFFE000
310
00FFFC000C003FE000C001FFFF80007FFFFFFFFFC00001FFFFFFFFFE00001FF8
310
000001FFFE0000007FFFFFF0001FFFFFF8000FFFFFFFF8000FF8000FFFFFFFF8
310
000FFF0003FFFFFFFFFFFFFFFFF00000F000FFFFFFFE000001FFFC000C001FE0
310
00C000FFFF80007FFFFFFFFE000001FFFFFFFFE000001FF80FFFFFFFFFFFFFC0
310
7FFFFFF0001FFFFFF8000FFFFFFFF8000FF8000FFFFFFFF8000FFF0003FFFFFF
310
FFFFFFFFFF800000F000FFFFFFC0000001FFFC001C001FE001C000FFFF80007F
310
FFFFFF80000003FFFFFFF80000001FF80FFFFFFFFFFFFFC07FFFFFF0001FFFFF
310
F8001FFFFFFFFC000FF8001FFFFFFFFC000FFF0003FFFFFFFFFFFFFFF0000001
310
F000FFFFF800000001FFF8001C001FE001C000FFFF80007FFFFFF800000003FF
310
FFFF800000003FF80FFFFFFFFFFFFFC07FFFFFF0001FFFFFF8001FFFFFFFFC00
310
0FF8001FFFFFFFFC000FFF0003FFFFFFFFFFFFFE00000001F000FFFFC0000000
310
03FFF8001E001FC001E000FFFF80007FFFFF8000000007FFFFFC000000003FF8
310
0FFFFFFFFFFFFFC07FFFFFF0001FFFFFF8001FFFFFFFFC000FF8001FFFFFFFFC
310
000FFF0003FFFFFFFFFFFFE000000003F000FFFE0000000007FFF8001E000FC0
310
01E0007FFF80007FFFFE0000000007FFFFE0000000007FF80FFFFFFFFFFFFFC0
310
7FFFFFF0001FFFFFF0001FFFFFFFFC0007F0001FFFFFFFFC0007FF0003FFFFFF
310
FFFFFF0000000003F000FFF80000000007FFF8001E000FC003E0007FFF80007F
310
FFF0000000000FFFFF8000000000FFF80FFFFFFFFFFFFFC07FFFFFF0001FFFFF
310
F0001FFFFFFFFC0007F0001FFFFFFFFC0007FF0003FFFFFFFFFFFC0000000007
310
F000FFE0000000000FFFF0003E000FC003E0007FFF80007FFFC0000000001FFF
310
FE0000000001FFF80FFFFFFFFFFFFFC07FFFFFF0001FFFFFF0001FFFFFFFFC00
310
07F0001FFFFFFFFC0007FF0003FFFFFFFFFFF0000000000FF000FFC000000000
310
1FFFF0003F000F8003F0003FFF80007FFF80000000003FFFF80000000003FFF8
310
0FFFFFFFFFFFFFC07FFFFFF0001FFFFFF0001FFFFFFFFC0007F0001FFFFFFFFC
310
0007FF0003FFFFFFFFFFE0000000001FF000FF00000000007FFFF0003F000780
310
03F0003FFF80007FFF00000000007FFFF00000000007FFF80FFFFFFFFFFFFFC0
310
7FFFFFF0001FFFFFF0001FFFFFFFFC0007F0001FFFFFFFFC0007FF0003FFFFFF
310
FFFF80000000007FF000FE0000000000FFFFE0003F00078007F0003FFF80007F
310
FE0000000001FFFFE0000000001FFFF80FFFFFFFFFFFFFC07FFFFFF0001FFFFF
310
F0001FFFFFFFFC0007F0001FFFFFFFFC0007FF0003FFFFFFFFFF0000000000FF
310
F000FC0000000003FFFFE0007F00078007F0003FFF80007FFC0000000007FFFF
310
C0000000007FFFF80FFFFFFFFFFFFFC07FFFFFF0001FFFFFF8001FFFFFFFFC00
310
0FF8001FFFFFFFFC000FFF0003FFFFFFFFFE0000000003FFF000FC000000000F
310
FFFFE0007F80070007F8001FFF80007FF8000000001FFFFF8000000001FFFFF8
310
0FFFFFFFFFFFFFC07FFFFFF0001FFFFFF8001FFFFFFFFC000FF8001FFFFFFFFC
310
000FFF0003FFFFFFFFFC000000000FFFF000F8000000007FFFFFE0007F800700
310
07F8001FFF80007FF000000000FFFFFF800000000FFFFFF80FFFFFFFFFFFFFC0
310
7FFFFFF0001FFFFFF8000FFFFFFFF8000FF8000FFFFFFFF8000FFF0003FFFFFF
310
FFFC000000007FFFF000F800000007FFFFFFC0007F8003000FF8001FFF80007F
310
F000000007FFFFFF000000007FFFFFF80FFFFFFFFFFFFFC07FFFFFF0001FFFFF
310
F8000FFFFFFFF8000FF8000FFFFFFFF8000FFF0003FFFFFFFFF80000000FFFFF
310
F000F0000000FFFFFFFFC000FF8003000FF8001FFF80007FE0000000FFFFFFFF
310
0000000FFFFFFFF8000001FFFE0000007FFFFFF0001FFFFFF8000FFFFFFFF800
310
0FF8000FFFFFFFF8000FFF0003FFFFFFFFF8000000FFFFFFF000F000000FFFFF
310
FFFFC000FFC002000FF8000FFF80007FE000001FFFFFFFFE000001FFFFFFFFF8
310
000001FFFE0000007FFFFFF0001FFFFFF8000FFFFFFFF8000FF8000FFFFFFFF8
310
000FFF0003FFFFFFFFF000001FFFFFFFF000E00000FFFFFFFFFFC000FFC00200
310
0FFC000FFF80007FE00001FFFFFFFFFE00001FFFFFFFFFF8000001FFFE000000
310
7FFFFFF0001FFFFFFC000FFFFFFFF8001FFC000FFFFFFFF8001FFF0003FFFFFF
310
FFF00001FFFFFFFFF000E00007FFFFFFFFFF8000FFC000001FFC000FFF80007F
310
C0000FFFFFFFFFFE0000FFFFFFFFFFF8000001FFFE0000007FFFFFF0001FFFFF
310
FC0007FFFFFFF0001FFC0007FFFFFFF0001FFF0003FFFFFFFFF00007FFFFFFFF
310
F000E0001FFFFFFFFFFF8000FFC000001FFC000FFF80007FC0003FFFFFFFFFFE
310
0001FFFFFFFFFFF8000001FFFE0000007FFFFFF0001FFFFFFC0007FFFFFFF000
310
1FFC0007FFFFFFF0001FFF0003FFFFFFFFF0001FFFFFFFFFF000E0003FFFFF00
310
03FF8001FFE000001FFC0007FF80007FC0007FFFFF0007FC0003FFFFF0003FF8
310
000001FFFE0000007FFFFFF0001FFFFFFC0003FFFFFFE0001FFC0003FFFFFFE0
310
001FFF0003FFFFFFFFF0003FFFFFFFFFF000E0003FFFFF0001FF8001FFE00000
310
1FFE0007FF80007FC0007FFFFE0003FC0007FFFFE0003FF8000001FFFE000000
310
7FFFFFF0001FFFFFFE0003FFFFFFE0003FFE0003FFFFFFE0003FFF0003FFFFFF
310
FFF0003FFFFF8001F000E0003FFFFF0001FF0001FFE000001FFE0007FF80007F
310
C0007FFFFE0003FC0007FFFFE0003FF8000001FFFE0000007FFFFFF0001FFFFF
310
FE0001FFFFFFC0003FFE0001FFFFFFC0003FFF0003FFFFFFFFF0003FFFFF0001
310
F000E0003FFFFF0003FF0001FFE000003FFE0007FF80007FC0007FFFFE0003FC
310
0007FFFFE0003FF8000001FFFE0000007FFFFFF0001FFFFFFF0001FFFFFFC000
310
7FFF0001FFFFFFC0007FFF0003FFFFFFFFF0003FFFFF0001F000E0003FFFFE00
310
03FF0003FFF000003FFE0003FF80007FC0007FFFFC0003FE0007FFFFE0003FF8
310
000001FFFE0000007FFFFFF0001FFFFFFF0000FFFFFF80007FFF0000FFFFFF80
310
007FFF0003FFFFFFFFF0003FFFFF0001F000E0003FFFFE0003FF0003FFF00000
310
3FFF0003FF80007FC0007FFFFC0007FE0007FFFFC0003FF8000001FFFE000000
310
7FFFFFF0001FFFFFFF80007FFFFF0000FFFF80007FFFFF0000FFFF0003FFFFFF
310
FFF0003FFFFF0003F000E0003FFFFC0003FE0003FFF000003FFF0003FF80007F
310
E0003FFFF80007FE0003FFFFC0007FF8000001FFFE0000007FFFFFF0001FFFFF
310
FF80003FFFFE0000FFFF80003FFFFE0000FFFF0003FFFFFFFFF0001FFFFE0003
310
F000F0001FFFF80003FE0003FFF000007FFF0001FF80007FE0003FFFF00007FE
310
0001FFFF80007FF8000001FFFE0000007FFFFFF0001FFFFFFFC0000FFFF80001
310
FFFFC0000FFFF80001FFFF0003FFFFFFFFF0001FFFFC0003F000F0000FFFF000
310
07FE0007FFF800007FFF0001FF80007FE0001FFFE00007FF0000FFFE00007FF8
310
000001FFFE0000007FFFFFF0001FFFFFFFC00003FFE00001FFFFC00003FFE000
310
01FFFF0003FFFFFFFFF8000FFFF80003F000F00003FFC00007FC0007FFF80000
310
7FFF8001FF80007FF00007FF80000FFF00007FF80000FFF8000001FFFE000000
310
7F80000000000001FFE000003E000003FFFFE000003E000003FFFF0003FFFFFF
310
FFF80003FFE00007F000F800000000000FFC0007FFF800007FFF8001FF80007F
310
F000000000000FFF000000000000FFF8000001FFFE0000007F80000000000001
310
FFF0000000000007FFFFF0000000000007FFFF0003FFFFFFFFFC00007E000007
310
F000F800000000000FFC0007FFF80000FFFF8000FF80007FF800000000001FFF
310
800000000001FFF8000001FFFE0000007F80000000000001FFF800000000000F
310
FFFFF800000000000FFFFF0003FFFFFFFFFC00000000000FF000FC0000000000
310
1FFC0007FFFC0000FFFF8000FF80007FF800000000003FFFC00000000001FFF8
310
000001FFFE0000007F80000000000001FFF800000000000FFFFFF80000000000
310
0FFFFF0003FFFFFFFFFE00000000001FF000FE00000000003FF8000FFFFC0000
310
FFFF8000FF80007FFC00000000003FFFC00000000003FFF8000001FFFE000000
310
7F80000000000001FFFC00000000001FFFFFFC00000000001FFFFF0003FFFFFF
310
FFFF00000000001FF000FF00000000003FF8000FFFFC0000FFFFC000FF80007F
310
FE00000000007FFFE00000000007FFF8000001FFFE0000007F80000000000001
310
FFFE00000000003FFFFFFE00000000003FFFFF0003FFFFFFFFFF80000000003F
310
F000FF80000000007FF8000FFFFC0001FFFFC0007F80007FFF0000000000FFFF
310
F0000000000FFFF800000000000000007F80000000000001FFFF8000000000FF
310
FFFFFF8000000000FFFFFF0003FFFFFFFFFFC0000000007FF000FFC000000000
310
FFF8000FFFFE0001FFFFC0007F80007FFF8000000001FFFFF8000000001FFFF8
310
00000000000000007F80000000000001FFFFC000000001FFFFFFFFC000000001
310
FFFFFF0003FFFFFFFFFFE000000000FFF000FFE000000003FFF0001FFFFE0001
310
FFFFC0007F80007FFFC000000007FFFFFE000000003FFFF80000000000000000
310
7F80000000000001FFFFE000000003FFFFFFFFE000000003FFFFFF0003FFFFFF
310
FFFFF000000003FFF000FFF80000000FFFF0001FFFFE0001FFFFE0007F80007F
310
FFF00000000FFFFFFF00000000FFFFF800000000000000007F80000000000001
310
FFFFF80000000FFFFFFFFFF80000000FFFFFFF0003FFFFFFFFFFFC0000000FFF
310
F000FFFE0000003FFFF0001FFFFE0003FFFFE0003F80007FFFFC0000003FFFFF
310
FFC0000003FFFFF800000000000000007F80000000000001FFFFFE0000003FFF
310
FFFFFFFE0000003FFFFFFF0003FFFFFFFFFFFF0000003FFFF000FFFF800000FF
310
FFF0001FFFFF0003FFFFE0003F80007FFFFF000001FFFFFFFFF800001FFFFFF8
310
00000000000000007F80000000000001FFFFFFC00001FFFFFFFFFFFFC00001FF
310
FFFFFF0003FFFFFFFFFFFFC00000FFFFF000FFFFF8000FFFFFFFFFFFFFFFFFFF
310
FFFFFFFFFFFFFFFFFFFFF0001FFFFFFFFFFF0000FFFFFFF80000000000000000
310
7FFFFFFFFFFFFFFFFFFFFFFC001FFFFFFFFFFFFFFC001FFFFFFFFFFFFFFFFFFF
310
FFFFFFFC001FFFFFF000FFFFFFFFFFFFFFFFFFFFFFFFFFFFFFFFFFFFFFFFFFFF
310
FFFFFFFFFFFFFFFFFFFFFFFFFFFFFFFFFFFFFFFFFFFFFFFFFFFFFFFFFFFFFFFF
310
FFFFFFFFFFFFFFFFFFFFFFFFFFFFFFFFFFFFFFFFFFFFFFFFFFFFFFFFFFFFFFFF
310
F000FFFFFFFFFFFFFFFFFFFFFFFFFFFFFFFFFFFFFFFFFFFFFFFFFFFFFFFFFFFF
310
FFFFFFFFFFFFFFFFFFFFFFFFFFFFFFFFFFFFFFFFFFFFFFFFFFFFFFFFFFFFFFFF
310
FFFFFFFFFFFFFFFFFFFFFFFFFFFFFFFFFFFFFFFFFFFFFFFFF000FFFFFFFFFFFF
310
FFFFFFFFFFFFFFFFFFFFFFFFFFFFFFFFFFFFFFFFFFFFFFFFFFFFFFFFFFFFFFFF
310
FFFFFFFFFFFFFFFFFFFFFFFFFFFFFFFFFFFFFFFFFFFFFFFFFFFFFFFFFFFFFFFF
310
FFFFFFFFFFFFFFFFFFFFFFFFFFFFFFFFF000FFFFFFFFFFFFFFFFFFFFFFFFFFFF
310
FFFFFFFFFFFFFFFFFFFFFFFFFFFFFFFFFFFFFFFFFFFFFFFFFFFFFFFFFFFFFFFF
310
FFFFFFFFFFFFFFFFFFFFFFFFFFFFFFFFFFFFFFFFFFFFFFFFFFFFFFFFFFFFFFFF
310
FFFFFFFFFFFFFFFFF000FFFFFFFFFFFFFFFFFFFFFFFFFFFFFFFFFFFFFFFFFFFF
310
FFFFFFFFFFFFFFFFFFFFFFFFFFFFFFFFFFFFFFFFFFFFFFFFFFFFFFFFFFFFFFFF
310
FFFFFFFFFFFFFFFFFFFFFFFFFFFFFFFFFFFFFFFFFFFFFFFFFFFFFFFFFFFFFFFF
310
F000FFFFFFFFFFFFFFFFFFFFFFFFFFFFFFFFFFFFFFFFFFFFFFFFFFFFFFFFFFFF
310
FFFFFFFFFFFFFFFFFFFFFFFFFFFFFFFFFFFFFFFFFFFFFFFFFFFFFFFFFFFFFFFF
310
FFFFFFFFFFFFFFFFFFFFFFFFFFFFFFFFFFFFFFFFFFFFFFFFF000FFFFFFFFFFFF
310
FFFFFFFFFFFFFFFFFFFFFFFFFFFFFFFFFFFFFFFFFFFFFFFFFFFFFFFFFFFFFFFF
310
FFFFFFFFFFFFFFFFFFFFFFFFFFFFFFFFFFFFFFFFFFFFFFFFFFFFFFFFFFFFFFFF
310
FFFFFFFFFFFFFFFFFFFFFFFFFFFFFFFFF000FFFFFFFFFFFFFFFFFFFFFFFFFFFF
310
FFFFFFFFFFFFFFFFFFFFFFFFFFFFFFFFFFFFFFFFFFFFFFFFFFFFFFFFFFFFFFFF
310
FFFFFFFFFFFFFFFFFFFFFFFFFFFFFFFFFFFFFFFFFFFFFFFFFFFFFFFFFFFFFFFF
310
FFFFFFFFFFFFFFFFF000FFFFFFFFFFFFFFFFFFFFFFFFFFFFFFFFFFFFFFFFFFFF
310
FFFFFFFFFFFFFFFFFFFFFFFFFFFFFFFFFFFFFFFFFFFFFFFFFFFFFFFFFFFFFFFF
310
FFFFFFFFFFFFFFFFFFFFFFFFFFFFFFFFFFFFFFFFFFFFFFFFFFFFFFFFFFFFFFFF
310
F000FFFFFFFFFFFFFFFFFFFFFFFFFFFFFFFFFFFFFFFFFFFFFFFFFFFFFFFFFFFF
310
FFFFFFFFFFFFFFFFFFFFFFFFFFFFFFFFFFFFFFFFFFFFFFFFFFFFFFFFFFFFFFFF
310
FFFFFFFFFFFFFFFFFFFFFFFFFFFFFFFFFFFFFFFFFFFFFFFFF000FFFFFFFFFFFF
310
FFFFFFFFFFFFFFFFFFFFFFFFFFFFFFFFFFFFFFFFFFFFFFFFFFFFFFFFFFFFFFFF
310
FFFFFFFFFFFFFFFFFFFFFFFFFFFFFFFFFFFFFFFFFFFFFFFFFFFFFFFFFFFFFFFF
310
FFFFFFFFFFFFFFFFFFFFFFFFFFFFFFFFF000FFFFFFFFFFFFFFFFFFFFFFFFFFFF
310
FFFFFFFFFFFFFFFFFFFFFFFFFFFFFFFFFFFFFFFFFFFFFFFFFFFFFFFFFFFFFFFF
310
FFFFFFFFFFFFFFFFFFFFFFFFFFFFFFFFFFFFFFFFFFFFFFFFFFFFFFFFFFFFFFFF
310
FFFFFFFFFFFFFFFFF000FFFFFFFFFFFFFFFFFFFFFFFFFFFFFFFFFFFFFFFFFFFF
310
FFFFFFFFFFFFFFFFFFFFFFFFFFFFFFFFFFFFFFFFFFFFFFFFFFFFFFFFFFFFFFFF
310
FFFFFFFFFFFFFFFFFFFFFFFFFFFFFFFFFFFFFFFFFFFFFFFFFFFFFFFFFFFFFFFF
310
F000FFFFFFFFFFFFFFFFFFFFFFFFFFFFFFFFFFFFFFFFFFFFFFFFFFFFFFFFFFFF
310
FFFFFFFFFFFFFFFFFFFFFFFFFFFFFFFFFFFFFFFFFFFFFFFFFFFFFFFFFFFFFFFF
310
FFFFFFFFFFFFFFFFFFFFFFFFFFFFFFFFFFFFFFFFFFFFFFFFF000FFFFFFFFFFFF
310
FFFFFFFFFFFFFFFFFFFFFFFFFFFFFFFFFFFFFFFFFFFFFFFFFFFFFFFFFFFFFFFF
310
FFFFFFFFFFFFFFFFFFFFFFFFFFFFFFFFFFFFFFFFFFFFFFFFFFFFFFFFFFFFFFFF
310
FFFFFFFFFFFFFFFFFFFFFFFFFFFFFFFFF000FFFFFFFFFFFFFFFFFFFFFFFFFFFF
310
FFFFFFFFFFFFFFFFFFFFFFFFFFFFFFFFFFFFFFFFFFFFFFFFFFFFFFFFFFFFFFFF
310
FFFFFFFFFFFFFFFFFFFFFFFFFFFFFFFFFFFFFFFFFFFFFFFFFFFFFFFFFFFFFFFF
310
FFFFFFFFFFFFFFFFF000FFFFFFFFFFFFFFFFFFFFFFFFFFFFFFFFFFFFFFFFFFFF
310
FFFFFFFFFFFFFFFFFFFFFFFFFFFFFFFFFFFFFFFFFFFFFFFFFFFFFFFFFFFFFFFF
310
FFFFFFFFFFFFFFFFFFFFFFFFFFFFFFFFFFFFFFFFFFFFFFFFFFFFFFFFFFFFFFFF
310
F000FFFFFFFFFFFFFFFFFFFFFFFFFFFFFFFFFFFFFFFFFFFFFFFFFFFFFFFFFFFF
310
FFFFFFFFFFFFFFFFFFFFFFFFFFFFFFFFFFFFFFFFFFFFFFFFFFFFFFFFFFFFFFFF
310
FFFFFFFFFFFFFFFFFFFFFFFFFFFFFFFFFFFFFFFFFFFFFFFFF000FFFFFFFFFFFF
310
FFFFFFFFFFFFFFFFFFFFFFFFFFFFFFFFFFFFFFFFFFFFFFFFFFFFFFFFFFFFFFFF
310
FFFFFFFFFFFFFFFFFFFFFFFFFFFFFFFFFFFFFFFFFFFFFFFFFFFFFFFFFFFFFFFF
310
FFFFFFFFFFFFFFFFFFFFFFFFFFFFFFFFF000FFFFFFFFFFFFFFFFFFFFFFFFFFFF
310
FFFFFFFFFFFFFFFFFFFFFFFFFFFFFFFFFFFFFFFFFFFFFFFFFFFFFFFFFFFFFFFF
310
FFFFFFFFFFFFFFFFFFFFFFFFFFFFFFFFFFFFFFFFFFFFFFFFFFFFFFFFFFFFFFFF
310
FFFFFFFFFFFFFFFFF000FFFFFFFFFFFFFFFFFFFFFFFFFFFFFFFFFFFFFFFFFFFF
310
FFFFFFFFFFFFFFFFFFFFFFFFFFFFFFFFFFFFFFFFFFFFFFFFFFFFFFFFFFFFFFFF
310
FFFFFFFFFFFFFFFFFFFFFFFFFFFFFFFFFFFFFFFFFFFFFFFFFFFFFFFFFFFFFFFF
310
F000FFFFFFFFFFFFFFFFFFFFFFFFFFFFFFFFFFFFFFFFFFFFFFFFFFFFFFFFFFFF
310
FFFFFFFFFFFFFFFFFFFFFFFFFFFFFFFFFFFFFFFFFFFFFFFFFFFFFFFFFFFFFFFF
310
FFFFFFFFFFFFFFFFFFFFFFFFFFFFFFFFFFFFFFFFFFFFFFFFF000FFFFFFFFFFFF
310
FFFFFFFFFFFFFFFFFFFFFFFFFFFFFFFFFFFFFFFFFFFFFFFFFFFFFFFFFFFFFFFF
310
FFFFFFFFFFFFFFFFFFFFFFFFFFFFFFFFFFFFFFFFFFFFFFFFFFFFFFFFFFFFFFFF
310
FFFFFFFFFFFFFFFFFFFFFFFFFFFFFFFFF0000000000000000000000000000000
310
0000000000000000000000000000000000000000000000000000000000000000
310
0000000000000000000000000000000000000000000000000000000000000000
310
0000000000000000000000000000000000000000000000000000000000000000
310
0000000000000000000000000000000000000000000000000000000000000000
310
0000000000000000000000000000000000000000000000000000000000000000
310
0000000000000000000000000000000000000000000000000000000000000000
310
0000000000000000000000000000000000000000000000000000000000000000
310
0000000000000000000000000000000000000000000000000000000000000000
310
0000000000000000000000000000000000000000000000000000000000000000
310
0000000000000000000000000000000000000000000000000000000000000000
310
0000000000000000000000000000000000000000000000000000000000000000
310
0000000000000000000000000000000000000000000000000000000000000000
310
0000000000000000000000000000000000000000000000000000000000000000
310
0000000000000000000000000000000000000000000000000000000000000000
310
0000000000000000000000000000000000000000000000000000000000000000
  1
OLE
  0
ENDSEC
  0
SECTION
  2
OBJECTS
  0
DICTIONARY
  5
C
330
0
100
AcDbDictionary
281
     1
  3
ACAD_GROUP
350
D
  3
ACAD_LAYOUT
350
1A
  3
ACAD_MLINESTYLE
350
17
  3
ACAD_PLOTSETTINGS
350
19
  3
ACAD_PLOTSTYLENAME
350
E
  0
DICTIONARY
  5
D
102
{ACAD_REACTORS
330
C
102
}
330
C
100
AcDbDictionary
281
     1
  0
DICTIONARY
  5
1A
102
{ACAD_REACTORS
330
C
102
}
330
C
100
AcDbDictionary
281
     1
  3
Layout1
350
1E
  3
Layout2
350
26
  3
Model
350
22
  0
DICTIONARY
  5
17
102
{ACAD_REACTORS
330
C
102
}
330
C
100
AcDbDictionary
281
     1
  3
Standard
350
18
  0
DICTIONARY
  5
19
102
{ACAD_REACTORS
330
C
102
}
330
C
100
AcDbDictionary
281
     1
  0
ACDBDICTIONARYWDFLT
  5
E
102
{ACAD_REACTORS
330
C
102
}
330
C
100
AcDbDictionary
281
     1
  3
Normal
350
F
100
AcDbDictionaryWithDefault
340
F
  0
LAYOUT
  5
1E
102
{ACAD_REACTORS
330
1A
102
}
330
1A
100
AcDbPlotSettings
  1

  2
none_device
  4

  6

 40
0.0
 41
0.0
 42
0.0
 43
0.0
 44
0.0
 45
0.0
 46
0.0
 47
0.0
 48
0.0
 49
0.0
140
0.0
141
0.0
142
1.0
143
1.0
 70
   688
 72
     0
 73
     0
 74
     5
  7

 75
    16
147
1.0
148
0.0
149
0.0
100
AcDbLayout
  1
Layout1
 70
     1
 71
     1
 10
0.0
 20
0.0
 11
420.0
 21
297.0
 12
0.0
 22
0.0
 32
0.0
 14
1.0000000000E+20
 24
1.0000000000E+20
 34
1.0000000000E+20
 15
-1.0000000000E+20
 25
-1.0000000000E+20
 35
-1.0000000000E+20
146
0.0
 13
0.0
 23
0.0
 33
0.0
 16
1.0
 26
0.0
 36
0.0
 17
0.0
 27
1.0
 37
0.0
 76
     0
330
1B
  0
LAYOUT
  5
26
102
{ACAD_REACTORS
330
1A
102
}
330
1A
100
AcDbPlotSettings
  1

  2
none_device
  4

  6

 40
0.0
 41
0.0
 42
0.0
 43
0.0
 44
0.0
 45
0.0
 46
0.0
 47
0.0
 48
0.0
 49
0.0
140
0.0
141
0.0
142
1.0
143
1.0
 70
   688
 72
     0
 73
     0
 74
     5
  7

 75
    16
147
1.0
148
0.0
149
0.0
100
AcDbLayout
  1
Layout2
 70
     1
 71
     2
 10
0.0
 20
0.0
 11
0.0
 21
0.0
 12
0.0
 22
0.0
 32
0.0
 14
0.0
 24
0.0
 34
0.0
 15
0.0
 25
0.0
 35
0.0
146
0.0
 13
0.0
 23
0.0
 33
0.0
 16
1.0
 26
0.0
 36
0.0
 17
0.0
 27
1.0
 37
0.0
 76
     0
330
23
  0
LAYOUT
  5
22
102
{ACAD_REACTORS
330
1A
102
}
330
1A
100
AcDbPlotSettings
  1

  2
none_device
  4

  6

 40
0.0
 41
0.0
 42
0.0
 43
0.0
 44
0.0
 45
0.0
 46
0.0
 47
0.0
 48
0.0
 49
0.0
140
0.0
141
0.0
142
1.0
143
1.0
 70
  1712
 72
     0
 73
     0
 74
     0
  7

 75
     0
147
1.0
148
0.0
149
0.0
100
AcDbLayout
  1
Model
 70
     1
 71
     0
 10
0.0
 20
0.0
 11
297.0
 21
210.0
 12
0.0
 22
0.0
 32
0.0
 14
0.0
 24
0.0
 34
0.0
 15
297.0
 25
210.0
 35
0.0
146
0.0
 13
0.0
 23
0.0
 33
0.0
 16
1.0
 26
0.0
 36
0.0
 17
0.0
 27
1.0
 37
0.0
 76
     0
330
1F
331
29
  0
MLINESTYLE
  5
18
102
{ACAD_REACTORS
330
17
102
}
330
17
100
AcDbMlineStyle
  2
Standard
 70
     0
  3

 62
   256
 51
90.0
 52
90.0
 71
     2
 49
0.5
 62
   256
  6
BYLAYER
 49
-0.5
 62
   256
  6
BYLAYER
  0
ACDBPLACEHOLDER
  5
F
102
{ACAD_REACTORS
330
E
102
}
330
E
  0
ENDSEC
  0
EOF
