  0
SECTION
  2
HEADER
  9
$ACADVER
  1
AC1015
  9
$ACADMAINTVER
 70
     6
  9
$DWGCODEPAGE
  3
ANSI_1252
  9
$INSBASE
 10
0.0
 20
0.0
 30
0.0
  9
$EXTMIN
 10
0.0
 20
0.0
 30
0.0
  9
$EXTMAX
 10
297.0
 20
210.0
 30
0.0
  9
$LIMMIN
 10
0.0
 20
0.0
  9
$LIMMAX
 10
297.0
 20
210.0
  9
$ORTHOMODE
 70
     0
  9
$REGENMODE
 70
     1
  9
$FILLMODE
 70
     1
  9
$QTEXTMODE
 70
     0
  9
$MIRRTEXT
 70
     1
  9
$LTSCALE
 40
1.0
  9
$ATTMODE
 70
     1
  9
$TEXTSIZE
 40
2.0
  9
$TRACEWID
 40
1.0
  9
$TEXTSTYLE
  7
Standard
  9
$CLAYER
  8
0
  9
$CELTYPE
  6
ByLayer
  9
$CECOLOR
 62
   256
  9
$CELTSCALE
 40
1.0
  9
$DISPSILH
 70
     0
  9
$DIMSCALE
 40
1.0
  9
$DIMASZ
 40
3.0
  9
$DIMEXO
 40
0.0
  9
$DIMDLI
 40
3.75
  9
$DIMRND
 40
0.0
  9
$DIMDLE
 40
0.0
  9
$DIMEXE
 40
1.0
  9
$DIMTP
 40
0.0
  9
$DIMTM
 40
0.0
  9
$DIMTXT
 40
2.0
  9
$DIMCEN
 40
2.5
  9
$DIMTSZ
 40
0.0
  9
$DIMTOL
 70
     0
  9
$DIMLIM
 70
     0
  9
$DIMTIH
 70
     1
  9
$DIMTOH
 70
     1
  9
$DIMSE1
 70
     0
  9
$DIMSE2
 70
     0
  9
$DIMTAD
 70
     1
  9
$DIMZIN
 70
     0
  9
$DIMBLK
  1

  9
$DIMASO
 70
     1
  9
$DIMSHO
 70
     1
  9
$DIMPOST
  1

  9
$DIMAPOST
  1

  9
$DIMALT
 70
     0
  9
$DIMALTD
 70
     3
  9
$DIMALTF
 40
0.0393700787
  9
$DIMLFAC
 40
1.0
  9
$DIMTOFL
 70
     1
  9
$DIMTVP
 40
0.0
  9
$DIMTIX
 70
     0
  9
$DIMSOXD
 70
     0
  9
$DIMSAH
 70
     0
  9
$DIMBLK1
  1

  9
$DIMBLK2
  1

  9
$DIMSTYLE
  2
ISO-25
  9
$DIMCLRD
 70
     0
  9
$DIMCLRE
 70
     0
  9
$DIMCLRT
 70
     0
  9
$DIMTFAC
 40
1.0
  9
$DIMGAP
 40
1.524
  9
$DIMJUST
 70
     0
  9
$DIMSD1
 70
     0
  9
$DIMSD2
 70
     0
  9
$DIMTOLJ
 70
     0
  9
$DIMTZIN
 70
     0
  9
$DIMALTZ
 70
     0
  9
$DIMALTTZ
 70
     0
  9
$DIMUPT
 70
     0
  9
$DIMDEC
 70
     2
  9
$DIMTDEC
 70
     3
  9
$DIMALTU
 70
     2
  9
$DIMALTTD
 70
     3
  9
$DIMTXSTY
  7
Standard
  9
$DIMAUNIT
 70
     0
  9
$DIMADEC
 70
     2
  9
$DIMALTRND
 40
0.0
  9
$DIMAZIN
 70
     0
  9
$DIMDSEP
 70
    44
  9
$DIMATFIT
 70
     3
  9
$DIMFRAC
 70
     0
  9
$DIMLDRBLK
  1

  9
$DIMLUNIT
 70
     2
  9
$DIMLWD
 70
    -2
  9
$DIMLWE
 70
    -2
  9
$DIMTMOVE
 70
     0
  9
$LUNITS
 70
     2
  9
$LUPREC
 70
     2
  9
$SKETCHINC
 40
1.0
  9
$FILLETRAD
 40
10.0
  9
$AUNITS
 70
     0
  9
$AUPREC
 70
     2
  9
$MENU
  1
.
  9
$ELEVATION
 40
0.0
  9
$PELEVATION
 40
0.0
  9
$THICKNESS
 40
0.0
  9
$LIMCHECK
 70
     0
  9
$CHAMFERA
 40
10.0
  9
$CHAMFERB
 40
10.0
  9
$CHAMFERC
 40
20.0
  9
$CHAMFERD
 40
0.0
  9
$SKPOLY
 70
     0
  9
$TDCREATE
 40
2456045.430948912
  9
$TDUCREATE
 40
2456045.347615579
  9
$TDUPDATE
 40
2456045.430950544
  9
$TDUUPDATE
 40
2456045.347617211
  9
$TDINDWG
 40
0.0000000116
  9
$TDUSRTIMER
 40
0.0000000116
  9
$USRTIMER
 70
     1
  9
$ANGBASE
 50
0.0
  9
$ANGDIR
 70
     0
  9
$PDMODE
 70
     0
  9
$PDSIZE
 40
-1.0
  9
$PLINEWID
 40
0.0
  9
$SPLFRAME
 70
     0
  9
$SPLINETYPE
 70
     6
  9
$SPLINESEGS
 70
     8
  9
$HANDSEED
  5
27E
  9
$SURFTAB1
 70
     6
  9
$SURFTAB2
 70
     6
  9
$SURFTYPE
 70
     6
  9
$SURFU
 70
     6
  9
$SURFV
 70
     6
  9
$UCSBASE
  2

  9
$UCSNAME
  2

  9
$UCSORG
 10
0.0
 20
0.0
 30
0.0
  9
$UCSXDIR
 10
1.0
 20
0.0
 30
0.0
  9
$UCSYDIR
 10
0.0
 20
1.0
 30
0.0
  9
$UCSORTHOREF
  2

  9
$UCSORTHOVIEW
 70
     0
  9
$UCSORGTOP
 10
0.0
 20
0.0
 30
0.0
  9
$UCSORGBOTTOM
 10
0.0
 20
0.0
 30
0.0
  9
$UCSORGLEFT
 10
0.0
 20
0.0
 30
0.0
  9
$UCSORGRIGHT
 10
0.0
 20
0.0
 30
0.0
  9
$UCSORGFRONT
 10
0.0
 20
0.0
 30
0.0
  9
$UCSORGBACK
 10
0.0
 20
0.0
 30
0.0
  9
$PUCSBASE
  2

  9
$PUCSNAME
  2

  9
$PUCSORG
 10
0.0
 20
0.0
 30
0.0
  9
$PUCSXDIR
 10
1.0
 20
0.0
 30
0.0
  9
$PUCSYDIR
 10
0.0
 20
1.0
 30
0.0
  9
$PUCSORTHOREF
  2

  9
$PUCSORTHOVIEW
 70
     0
  9
$PUCSORGTOP
 10
0.0
 20
0.0
 30
0.0
  9
$PUCSORGBOTTOM
 10
0.0
 20
0.0
 30
0.0
  9
$PUCSORGLEFT
 10
0.0
 20
0.0
 30
0.0
  9
$PUCSORGRIGHT
 10
0.0
 20
0.0
 30
0.0
  9
$PUCSORGFRONT
 10
0.0
 20
0.0
 30
0.0
  9
$PUCSORGBACK
 10
0.0
 20
0.0
 30
0.0
  9
$USERI1
 70
     0
  9
$USERI2
 70
     0
  9
$USERI3
 70
     0
  9
$USERI4
 70
     0
  9
$USERI5
 70
     0
  9
$USERR1
 40
0.0
  9
$USERR2
 40
0.0
  9
$USERR3
 40
0.0
  9
$USERR4
 40
0.0
  9
$USERR5
 40
0.0
  9
$WORLDVIEW
 70
     1
  9
$SHADEDGE
 70
     3
  9
$SHADEDIF
 70
    70
  9
$TILEMODE
 70
     1
  9
$MAXACTVP
 70
    64
  9
$PINSBASE
 10
0.0
 20
0.0
 30
0.0
  9
$PLIMCHECK
 70
     0
  9
$PEXTMIN
 10
1.0000000000E+20
 20
1.0000000000E+20
 30
1.0000000000E+20
  9
$PEXTMAX
 10
-1.0000000000E+20
 20
-1.0000000000E+20
 30
-1.0000000000E+20
  9
$PLIMMIN
 10
0.0
 20
0.0
  9
$PLIMMAX
 10
420.0
 20
297.0
  9
$UNITMODE
 70
     0
  9
$VISRETAIN
 70
     1
  9
$PLINEGEN
 70
     0
  9
$PSLTSCALE
 70
     1
  9
$TREEDEPTH
 70
  3020
  9
$CMLSTYLE
  2
Standard
  9
$CMLJUST
 70
     0
  9
$CMLSCALE
 40
20.0
  9
$PROXYGRAPHICS
 70
     1
  9
$MEASUREMENT
 70
     1
  9
$CELWEIGHT
370
    -1
  9
$ENDCAPS
280
     0
  9
$JOINSTYLE
280
     0
  9
$LWDISPLAY
290
     1
  9
$INSUNITS
 70
     4
  9
$HYPERLINKBASE
  1

  9
$STYLESHEET
  1

  9
$XEDIT
290
     1
  9
$CEPSNTYPE
380
     0
  9
$PSTYLEMODE
290
     1
  9
$FINGERPRINTGUID
  2
{A85EA0DE-90B8-4162-B838-EE133BABE7F5}
  9
$VERSIONGUID
  2
{FAEB1C32-E019-11D5-929B-00C0DF256EC4}
  9
$EXTNAMES
290
     1
  9
$PSVPSCALE
 40
0.0
  9
$OLESTARTUP
290
     0
  0
ENDSEC
  0
SECTION
  2
CLASSES
  0
CLASS
  1
ACDBDICTIONARYWDFLT
  2
AcDbDictionaryWithDefault
  3
ObjectDBX Classes
 90
        0
280
     0
281
     0
  0
CLASS
  1
VISUALSTYLE
  2
AcDbVisualStyle
  3
ObjectDBX Classes
 90
     4095
280
     0
281
     0
  0
CLASS
  1
MATERIAL
  2
AcDbMaterial
  3
ObjectDBX Classes
 90
     1153
280
     0
281
     0
  0
CLASS
  1
ACDBPLACEHOLDER
  2
AcDbPlaceHolder
  3
ObjectDBX Classes
 90
        0
280
     0
281
     0
  0
CLASS
  1
LAYOUT
  2
AcDbLayout
  3
ObjectDBX Classes
 90
        0
280
     0
281
     0
  0
ENDSEC
  0
SECTION
  2
TABLES
  0
TABLE
  2
VPORT
  5
8
330
0
100
AcDbSymbolTable
 70
     1
  0
VPORT
  5
29
330
8
100
AcDbSymbolTableRecord
100
AcDbViewportTableRecord
  2
*Active
 70
     0
 10
0.0
 20
0.0
 11
1.0
 21
1.0
 12
148.5
 22
105.0
 13
0.0
 23
0.0
 14
10.0
 24
10.0
 15
10.0
 25
10.0
 16
0.0
 26
0.0
 36
1.0
 17
0.0
 27
0.0
 37
0.0
 40
210.0
 41
1.4142857143
 42
50.0
 43
0.0
 44
0.0
 50
0.0
 51
0.0
 71
     0
 72
  2000
 73
     1
 74
     3
 75
     0
 76
     0
 77
     0
 78
     0
281
     0
 65
     1
110
0.0
120
0.0
130
0.0
111
1.0
121
0.0
131
0.0
112
0.0
122
1.0
132
0.0
 79
     0
146
0.0
  0
ENDTAB
  0
TABLE
  2
LTYPE
  5
5
330
0
100
AcDbSymbolTable
 70
     6
  0
LTYPE
  5
14
330
5
100
AcDbSymbolTableRecord
100
AcDbLinetypeTableRecord
  2
ByBlock
 70
     0
  3

 72
    65
 73
     0
 40
0.0
  0
LTYPE
  5
15
330
5
100
AcDbSymbolTableRecord
100
AcDbLinetypeTableRecord
  2
ByLayer
 70
     0
  3

 72
    65
 73
     0
 40
0.0
  0
LTYPE
  5
16
330
5
100
AcDbSymbolTableRecord
100
AcDbLinetypeTableRecord
  2
Continuous
 70
     0
  3
Solid line
 72
    65
 73
     0
 40
0.0
  0
LTYPE
  5
3F
330
5
100
AcDbSymbolTableRecord
100
AcDbLinetypeTableRecord
  2
HIDDEN
 70
     0
  3
Hidden __ __ __ __ __ __ __ __ __ __ __ __ __ __
 72
    65
 73
     2
 40
1.905
 49
1.27
 74
     0
 49
-0.635
 74
     0
  0
LTYPE
  5
40
330
5
100
AcDbSymbolTableRecord
100
AcDbLinetypeTableRecord
  2
PHANTOM
 70
     0
  3
Phantom ______  __  __  ______  __  __  ______
 72
    65
 73
     6
 40
12.7
 49
6.35
 74
     0
 49
-1.27
 74
     0
 49
1.27
 74
     0
 49
-1.27
 74
     0
 49
1.27
 74
     0
 49
-1.27
 74
     0
  0
LTYPE
  5
41
330
5
100
AcDbSymbolTableRecord
100
AcDbLinetypeTableRecord
  2
CENTER
 70
     0
  3
Center ____ _ ____ _ ____ _ ____ _ ____ _ ____
 72
    65
 73
     4
 40
10.16
 49
6.35
 74
     0
 49
-1.27
 74
     0
 49
1.27
 74
     0
 49
-1.27
 74
     0
  0
LTYPE
  5
42
330
5
100
AcDbSymbolTableRecord
100
AcDbLinetypeTableRecord
  2
CENTERX2
 70
     0
  3
Center (2x) ________  __  ________  __  _____
 72
    65
 73
     4
 40
20.32
 49
12.7
 74
     0
 49
-2.54
 74
     0
 49
2.54
 74
     0
 49
-2.54
 74
     0
  0
LTYPE
  5
43
330
5
100
AcDbSymbolTableRecord
100
AcDbLinetypeTableRecord
  2
DOT2
 70
     0
  3
Dot (.5x) ........................................
 72
    65
 73
     2
 40
0.635
 49
0.0
 74
     0
 49
-0.635
 74
     0
  0
ENDTAB
  0
TABLE
  2
LAYER
  5
2
330
0
100
AcDbSymbolTable
 70
     5
  0
LAYER
  5
10
330
2
100
AcDbSymbolTableRecord
100
AcDbLayerTableRecord
  2
0
 70
     0
 62
     7
  6
Continuous
370
    -3
390
F
  0
LAYER
  5
44
330
2
100
AcDbSymbolTableRecord
100
AcDbLayerTableRecord
  2
FORMAT
 70
     0
 62
     7
  6
Continuous
370
    -3
390
F
  0
LAYER
  5
45
330
2
100
AcDbSymbolTableRecord
100
AcDbLayerTableRecord
  2
VERMASSUNG
 70
     0
 62
     7
  6
Continuous
370
    -3
390
F
  0
LAYER
  5
46
330
2
100
AcDbSymbolTableRecord
100
AcDbLayerTableRecord
  2
KOPF_DÜNN
 70
     0
 62
     7
  6
Continuous
370
    -3
390
F
  0
LAYER
  5
47
330
2
100
AcDbSymbolTableRecord
100
AcDbLayerTableRecord
  2
KOPF_DICK
 70
     0
 62
     7
  6
Continuous
370
    15
390
F
  0
ENDTAB
  0
TABLE
  2
STYLE
  5
3
330
0
100
AcDbSymbolTable
 70
     2
  0
STYLE
  5
11
330
3
100
AcDbSymbolTableRecord
100
AcDbTextStyleTableRecord
  2
Standard
 70
     0
 40
0.0
 41
1.0
 50
0.0
 71
     0
 42
2.0
  3
txt
  4

  0
STYLE
  5
48
330
3
100
AcDbSymbolTableRecord
100
AcDbTextStyleTableRecord
  2
SLDTEXTSTYLE0
 70
     0
 40
0.0
 41
0.7
 50
0.0
 71
     0
 42
0.2
  3
TXT
  4

  0
ENDTAB
  0
TABLE
  2
VIEW
  5
6
330
0
100
AcDbSymbolTable
 70
     0
  0
ENDTAB
  0
TABLE
  2
UCS
  5
7
330
0
100
AcDbSymbolTable
 70
     0
  0
ENDTAB
  0
TABLE
  2
APPID
  5
9
330
0
100
AcDbSymbolTable
 70
     1
  0
APPID
  5
12
330
9
100
AcDbSymbolTableRecord
100
AcDbRegAppTableRecord
  2
ACAD
 70
     0
  0
ENDTAB
  0
TABLE
  2
DIMSTYLE
  5
A
330
0
100
AcDbSymbolTable
 70
     5
100
AcDbDimStyleTable
  0
DIMSTYLE
105
27
330
A
100
AcDbSymbolTableRecord
100
AcDbDimStyleTableRecord
  2
ISO-25
 70
     0
 41
2.5
 42
0.625
 43
3.75
 44
1.25
 73
     0
 74
     0
 77
     1
 78
     8
140
2.5
141
2.5
143
0.0393700787
147
0.625
171
     3
172
     1
178
     0
271
     2
272
     2
274
     3
278
    44
283
     0
284
     8
340
11
  0
DIMSTYLE
105
1D6
102
{ACAD_REACTORS
330
1D5
330
203
102
}
330
A
100
AcDbSymbolTableRecord
100
AcDbDimStyleTableRecord
  2
SLDDIMSTYLE0
 70
     0
 41
3.0
 44
0.0
 45
0.000000001
 73
     0
 74
     0
 77
     1
 78
    12
 79
     3
140
2.0
147
0.5
173
     1
178
     0
271
     2
272
     3
276
     2
284
    12
340
48
  0
DIMSTYLE
105
1E1
102
{ACAD_REACTORS
330
1E0
330
1ED
102
}
330
A
100
AcDbSymbolTableRecord
100
AcDbDimStyleTableRecord
  2
SLDDIMSTYLE1
 70
     0
 41
3.0
 44
0.0
 45
0.000000001
 47
0.1
 48
0.1
 71
     1
 73
     0
 74
     0
 77
     1
 78
    12
 79
     3
140
2.0
147
0.5
173
     1
178
     0
271
     2
272
     1
276
     2
284
     8
340
48
  0
DIMSTYLE
105
1FA
102
{ACAD_REACTORS
330
1F9
102
}
330
A
100
AcDbSymbolTableRecord
100
AcDbDimStyleTableRecord
  2
SLDDIMSTYLE2
 70
     0
 41
3.0
 44
0.0
 73
     0
 74
     0
 77
     1
 78
    12
 79
     3
140
2.0
147
0.5
173
     1
178
     0
179
     2
272
     3
276
     2
284
    12
340
48
  0
DIMSTYLE
105
263
102
{ACAD_REACTORS
330
262
102
}
330
A
100
AcDbSymbolTableRecord
100
AcDbDimStyleTableRecord
  2
SLDDIMSTYLE3
 70
     0
 41
3.0
 44
0.0
 45
0.000000001
 73
     0
 74
     0
 77
     1
 78
    12
 79
     3
140
2.0
147
0.5
172
     1
173
     1
178
     0
271
     2
272
     3
276
     2
284
    12
289
     0
340
48
  0
ENDTAB
  0
TABLE
  2
BLOCK_RECORD
  5
1
330
0
100
AcDbSymbolTable
 70
     8
  0
BLOCK_RECORD
  5
1F
330
1
100
AcDbSymbolTableRecord
100
AcDbBlockTableRecord
  2
*Model_Space
340
22
  0
BLOCK_RECORD
  5
1B
330
1
100
AcDbSymbolTableRecord
100
AcDbBlockTableRecord
  2
*Paper_Space
340
1E
  0
BLOCK_RECORD
  5
23
330
1
100
AcDbSymbolTableRecord
100
AcDbBlockTableRecord
  2
*Paper_Space0
340
26
  0
BLOCK_RECORD
  5
1D7
330
1
100
AcDbSymbolTableRecord
100
AcDbBlockTableRecord
  2
_D
340
0
  0
BLOCK_RECORD
  5
1E2
330
1
100
AcDbSymbolTableRecord
100
AcDbBlockTableRecord
  2
_D_1
340
0
  0
BLOCK_RECORD
  5
1EE
330
1
100
AcDbSymbolTableRecord
100
AcDbBlockTableRecord
  2
_D_2
340
0
  0
BLOCK_RECORD
  5
1FB
330
1
100
AcDbSymbolTableRecord
100
AcDbBlockTableRecord
  2
_D_3
340
0
  0
BLOCK_RECORD
  5
204
330
1
100
AcDbSymbolTableRecord
100
AcDbBlockTableRecord
  2
_D_4
340
0
  0
BLOCK_RECORD
  5
264
330
1
100
AcDbSymbolTableRecord
100
AcDbBlockTableRecord
  2
_D_5
340
0
  0
BLOCK_RECORD
  5
271
330
1
100
AcDbSymbolTableRecord
100
AcDbBlockTableRecord
  2
SW_CENTERMARKSYMBOL_0
340
0
102
{BLKREFS
331
27C
102
}
  0
ENDTAB
  0
ENDSEC
  0
SECTION
  2
BLOCKS
  0
BLOCK
  5
20
330
1F
100
AcDbEntity
  8
0
100
AcDbBlockBegin
  2
*Model_Space
 70
     0
 10
0.0
 20
0.0
 30
0.0
  3
*Model_Space
  1

  0
ENDBLK
  5
21
330
1F
100
AcDbEntity
  8
0
100
AcDbBlockEnd
  0
BLOCK
  5
1C
330
1B
100
AcDbEntity
 67
     1
  8
0
100
AcDbBlockBegin
  2
*Paper_Space
 70
     0
 10
0.0
 20
0.0
 30
0.0
  3
*Paper_Space
  1

  0
ENDBLK
  5
1D
330
1B
100
AcDbEntity
 67
     1
  8
0
100
AcDbBlockEnd
  0
BLOCK
  5
24
330
23
100
AcDbEntity
  8
0
100
AcDbBlockBegin
  2
*Paper_Space0
 70
     0
 10
0.0
 20
0.0
 30
0.0
  3
*Paper_Space0
  1

  0
ENDBLK
  5
25
330
23
100
AcDbEntity
  8
0
100
AcDbBlockEnd
  0
BLOCK
  5
1D8
330
1D7
100
AcDbEntity
  8
0
100
AcDbBlockBegin
  2
_D
 70
     0
 10
0.0
 20
0.0
 30
0.0
  3
_D
  1

  0
SOLID
  5
1DA
330
1D7
100
AcDbEntity
  8
VERMASSUNG
100
AcDbTrace
 10
159.1667512523
 20
74.5228572947
 30
0.0
 11
162.1667512523
 21
74.0728572947
 31
0.0
 12
162.1667512523
 22
74.9728572947
 32
0.0
 13
162.1667512523
 23
74.9728572947
 33
0.0
  0
SOLID
  5
1DB
330
1D7
100
AcDbEntity
  8
VERMASSUNG
100
AcDbTrace
 10
233.1667512523
 20
74.5228572947
 30
0.0
 11
230.1667512523
 21
74.9728572947
 31
0.0
 12
230.1667512523
 22
74.0728572947
 32
0.0
 13
230.1667512523
 23
74.0728572947
 33
0.0
  0
LINE
  5
1DC
330
1D7
100
AcDbEntity
  8
VERMASSUNG
100
AcDbLine
 10
159.1667512523
 20
104.9205129044
 30
0.0
 11
159.1667512523
 21
73.5228572947
 31
0.0
  0
LINE
  5
1DD
330
1D7
100
AcDbEntity
  8
VERMASSUNG
100
AcDbLine
 10
233.1667512523
 20
90.5520178865
 30
0.0
 11
233.1667512523
 21
73.5228572947
 31
0.0
  0
LINE
  5
1DE
330
1D7
100
AcDbEntity
  8
VERMASSUNG
100
AcDbLine
 10
159.1667512523
 20
74.5228572947
 30
0.0
 11
233.1667512523
 21
74.5228572947
 31
0.0
  0
MTEXT
  5
1DF
330
1D7
100
AcDbEntity
  8
VERMASSUNG
100
AcDbMText
 10
193.7667511383
 20
77.1009926578
 30
0.1
 40
2.0
 41
0.0
 71
     1
 72
     1
  1
74
  7
SLDTEXTSTYLE0
 73
     1
 44
1.0
  0
ENDBLK
  5
1D9
330
1D7
100
AcDbEntity
  8
0
100
AcDbBlockEnd
  0
BLOCK
  5
1E3
330
1E2
100
AcDbEntity
  8
0
100
AcDbBlockBegin
  2
_D_1
 70
     0
 10
0.0
 20
0.0
 30
0.0
  3
_D_1
  1

  0
SOLID
  5
1E5
330
1E2
100
AcDbEntity
  8
VERMASSUNG
100
AcDbTrace
 10
250.7783934056
 20
90.5520178865
 30
0.0
 11
251.2283934056
 21
93.5520178865
 31
0.0
 12
250.3283934056
 22
93.5520178865
 32
0.0
 13
250.3283934056
 23
93.5520178865
 33
0.0
  0
SOLID
  5
1E6
330
1E2
100
AcDbEntity
  8
VERMASSUNG
100
AcDbTrace
 10
250.7783934056
 20
117.5520178865
 30
0.0
 11
250.3283934056
 21
114.5520178865
 31
0.0
 12
251.2283934056
 22
114.5520178865
 32
0.0
 13
251.2283934056
 23
114.5520178865
 33
0.0
  0
LINE
  5
1E7
330
1E2
100
AcDbEntity
  8
VERMASSUNG
100
AcDbLine
 10
233.1667512523
 20
90.5520178865
 30
0.0
 11
251.7783934056
 21
90.5520178865
 31
0.0
  0
LINE
  5
1E8
330
1E2
100
AcDbEntity
  8
VERMASSUNG
100
AcDbLine
 10
233.1667512523
 20
117.5520178865
 30
0.0
 11
251.7783934056
 21
117.5520178865
 31
0.0
  0
LINE
  5
1E9
330
1E2
100
AcDbEntity
  8
VERMASSUNG
100
AcDbLine
 10
250.7783934056
 20
90.5520178865
 30
0.0
 11
250.7783934056
 21
117.5520178865
 31
0.0
  0
MTEXT
  5
1EA
330
1E2
100
AcDbEntity
  8
VERMASSUNG
100
AcDbMText
 10
248.2002580425
 20
99.5020176995
 30
0.1
 40
2.0
 41
0.0
 71
     1
 72
     1
  1
27
  7
SLDTEXTSTYLE0
 11
6.123233995736766E-17
 21
1.0
 31
0.0
 73
     1
 44
1.0
  0
MTEXT
  5
1EB
330
1E2
100
AcDbEntity
  8
VERMASSUNG
100
AcDbMText
 10
248.2002580425
 20
105.2895178015
 30
0.1
 40
2.0
 41
0.0
 71
     1
 72
     1
  1

  7
SLDTEXTSTYLE0
 11
6.123233995736766E-17
 21
1.0
 31
0.0
 73
     1
 44
1.0
  0
MTEXT
  5
1EC
330
1E2
100
AcDbEntity
  8
VERMASSUNG
100
AcDbMText
 10
248.6947919053
 20
105.3020180914
 30
0.1
 40
1.5
 41
0.0
 71
     1
 72
     1
  1
±0.1
  7
SLDTEXTSTYLE0
 11
6.123233995736766E-17
 21
1.0
 31
0.0
 73
     1
 44
1.0
  0
ENDBLK
  5
1E4
330
1E2
100
AcDbEntity
  8
0
100
AcDbBlockEnd
  0
BLOCK
  5
1EF
330
1EE
100
AcDbEntity
  8
0
100
AcDbBlockBegin
  2
_D_2
 70
     0
 10
0.0
 20
0.0
 30
0.0
  3
_D_2
  1

  0
SOLID
  5
1F1
330
1EE
100
AcDbEntity
  8
VERMASSUNG
100
AcDbTrace
 10
183.1667512523
 20
81.6783961783
 30
0.0
 11
186.1667512523
 21
81.2283961783
 31
0.0
 12
186.1667512523
 22
82.1283961783
 32
0.0
 13
186.1667512523
 23
82.1283961783
 33
0.0
  0
SOLID
  5
1F2
330
1EE
100
AcDbEntity
  8
VERMASSUNG
100
AcDbTrace
 10
233.1667512523
 20
81.6783961783
 30
0.0
 11
230.1667512523
 21
82.1283961783
 31
0.0
 12
230.1667512523
 22
81.2283961783
 32
0.0
 13
230.1667512523
 23
81.2283961783
 33
0.0
  0
LINE
  5
1F3
330
1EE
100
AcDbEntity
  8
VERMASSUNG
100
AcDbLine
 10
183.1667512523
 20
97.8520178865
 30
0.0
 11
183.1667512523
 21
80.6783961783
 31
0.0
  0
LINE
  5
1F4
330
1EE
100
AcDbEntity
  8
VERMASSUNG
100
AcDbLine
 10
233.1667512523
 20
90.5520178865
 30
0.0
 11
233.1667512523
 21
80.6783961783
 31
0.0
  0
LINE
  5
1F5
330
1EE
100
AcDbEntity
  8
VERMASSUNG
100
AcDbLine
 10
183.1667512523
 20
81.6783961783
 30
0.0
 11
233.1667512523
 21
81.6783961783
 31
0.0
  0
MTEXT
  5
1F6
330
1EE
100
AcDbEntity
  8
VERMASSUNG
100
AcDbMText
 10
203.6167510653
 20
84.2565315414
 30
0.1
 40
2.0
 41
0.0
 71
     1
 72
     1
  1
50
  7
SLDTEXTSTYLE0
 73
     1
 44
1.0
  0
MTEXT
  5
1F7
330
1EE
100
AcDbEntity
  8
VERMASSUNG
100
AcDbMText
 10
209.4042511674
 20
84.2565315414
 30
0.1
 40
2.0
 41
0.0
 71
     1
 72
     1
  1

  7
SLDTEXTSTYLE0
 73
     1
 44
1.0
  0
MTEXT
  5
1F8
330
1EE
100
AcDbEntity
  8
VERMASSUNG
100
AcDbMText
 10
209.4167514572
 20
83.7619976787
 30
0.1
 40
1.5
 41
0.0
 71
     1
 72
     1
  1
±0.1
  7
SLDTEXTSTYLE0
 73
     1
 44
1.0
  0
ENDBLK
  5
1F0
330
1EE
100
AcDbEntity
  8
0
100
AcDbBlockEnd
  0
BLOCK
  5
1FC
330
1FB
100
AcDbEntity
  8
0
100
AcDbBlockBegin
  2
_D_3
 70
     0
 10
0.0
 20
0.0
 30
0.0
  3
_D_3
  1

  0
ARC
  5
1FE
330
1FB
100
AcDbEntity
  8
VERMASSUNG
100
AcDbCircle
 10
233.2034943584
 20
90.5520178865
 30
0.0
 40
11.47615725255316
100
AcDbArc
 50
0.0
 51
95.0047861234
  0
SOLID
  5
1FF
330
1FB
100
AcDbEntity
  8
VERMASSUNG
100
AcDbTrace
 10
244.679651611
 20
90.5520178865
 30
0.0
 11
244.7434884061
 21
93.5849083994
 31
0.0
 12
243.8508333356
 22
93.4701611774
 32
0.0
 13
243.8508333356
 23
93.4701611774
 33
0.0
  0
SOLID
  5
200
330
1FB
100
AcDbEntity
  8
VERMASSUNG
100
AcDbTrace
 10
232.2023263558
 20
101.9844213047
 30
0.0
 11
235.1816492178
 21
101.4133387505
 31
0.0
 12
235.2180846579
 22
102.3126009252
 32
0.0
 13
235.2180846579
 23
102.3126009252
 33
0.0
  0
LINE
  5
201
330
1FB
100
AcDbEntity
  8
VERMASSUNG
100
AcDbLine
 10
240.5506383637
 20
90.5520178865
 30
0.0
 11
245.679651611
 21
90.5520178865
 31
0.0
  0
MTEXT
  5
202
330
1FB
100
AcDbEntity
  8
VERMASSUNG
100
AcDbMText
 10
240.559817783
 20
102.8734483123
 30
0.1
 40
2.0
 41
0.0
 71
     1
 72
     1
  1
95°
  7
SLDTEXTSTYLE0
 11
0.7373055534122316
 21
-0.6755594133068408
 31
0.0
 73
     1
 44
1.0
  0
ENDBLK
  5
1FD
330
1FB
100
AcDbEntity
  8
0
100
AcDbBlockEnd
  0
BLOCK
  5
205
330
204
100
AcDbEntity
  8
0
100
AcDbBlockBegin
  2
_D_4
 70
     0
 10
0.0
 20
0.0
 30
0.0
  3
_D_4
  1

  0
SOLID
  5
207
330
204
100
AcDbEntity
  8
VERMASSUNG
100
AcDbTrace
 10
151.849232023
 20
137.5520178865
 30
0.0
 11
151.399232023
 21
134.5520178865
 31
0.0
 12
152.299232023
 22
134.5520178865
 32
0.0
 13
152.299232023
 23
134.5520178865
 33
0.0
  0
SOLID
  5
208
330
204
100
AcDbEntity
  8
VERMASSUNG
100
AcDbTrace
 10
151.849232023
 20
97.5520178865
 30
0.0
 11
152.299232023
 21
100.5520178865
 31
0.0
 12
151.399232023
 22
100.5520178865
 32
0.0
 13
151.399232023
 23
100.5520178865
 33
0.0
  0
LINE
  5
209
330
204
100
AcDbEntity
  8
VERMASSUNG
100
AcDbLine
 10
183.4667512523
 20
137.5520178865
 30
0.0
 11
150.849232023
 21
137.5520178865
 31
0.0
  0
LINE
  5
20A
330
204
100
AcDbEntity
  8
VERMASSUNG
100
AcDbLine
 10
183.4667512523
 20
97.5520178865
 30
0.0
 11
150.849232023
 21
97.5520178865
 31
0.0
  0
LINE
  5
20B
330
204
100
AcDbEntity
  8
VERMASSUNG
100
AcDbLine
 10
151.849232023
 20
137.5520178865
 30
0.0
 11
151.849232023
 21
97.5520178865
 31
0.0
  0
MTEXT
  5
20C
330
204
100
AcDbEntity
  8
VERMASSUNG
100
AcDbMText
 10
149.071096534
 20
111.0470179471
 30
0.3501124596
 40
2.0
 41
0.0
 71
     1
 72
     1
  1
PSC
  7
SLDTEXTSTYLE0
 11
-7.044195017643634E-15
 21
1.0
 31
0.0
 73
     1
 44
1.0
  0
MTEXT
  5
20D
330
204
100
AcDbEntity
  8
VERMASSUNG
100
AcDbMText
 10
149.2710965435
 20
115.6470180492
 30
0.3501124596
 40
2.0
 41
0.0
 71
     1
 72
     1
  1
%%c
  7
SLDTEXTSTYLE0
 11
-7.044195017643634E-15
 21
1.0
 31
0.0
 73
     1
 44
1.0
  0
MTEXT
  5
20E
330
204
100
AcDbEntity
  8
VERMASSUNG
100
AcDbMText
 10
149.071096534
 20
119.2570185292
 30
0.3501124596
 40
2.0
 41
0.0
 71
     1
 72
     1
  1
40
  7
SLDTEXTSTYLE0
 11
-7.044195017643634E-15
 21
1.0
 31
0.0
 73
     1
 44
1.0
  0
ENDBLK
  5
206
330
204
100
AcDbEntity
  8
0
100
AcDbBlockEnd
  0
BLOCK
  5
265
330
264
100
AcDbEntity
  8
0
100
AcDbBlockBegin
  2
_D_5
 70
     0
 10
0.0
 20
0.0
 30
0.0
  3
_D_5
  1

  0
SOLID
  5
267
330
264
100
AcDbEntity
  8
VERMASSUNG
100
AcDbTrace
 10
62.603853033
 20
99.4567096211
 30
0.0
 11
60.0222756054
 21
97.863612642
 31
0.0
 12
60.6033025765
 22
97.1762934593
 32
0.0
 13
60.6033025765
 23
97.1762934593
 33
0.0
  0
SOLID
  5
268
330
264
100
AcDbEntity
  8
VERMASSUNG
100
AcDbTrace
 10
100.7882520682
 20
131.7359857952
 30
0.0
 11
103.3698294959
 21
133.3290827743
 31
0.0
 12
102.7888025247
 22
134.016401957
 32
0.0
 13
102.7888025247
 23
134.016401957
 33
0.0
  0
LINE
  5
269
330
264
100
AcDbEntity
  8
VERMASSUNG
100
AcDbLine
 10
62.603853033
 20
99.4567096211
 30
0.0
 11
61.9582675096
 21
100.2203976018
 31
0.0
  0
LINE
  5
26A
330
264
100
AcDbEntity
  8
VERMASSUNG
100
AcDbLine
 10
100.7882520682
 20
131.7359857952
 30
0.0
 11
100.1426665447
 21
132.4996737759
 31
0.0
  0
LINE
  5
26B
330
264
100
AcDbEntity
  8
VERMASSUNG
100
AcDbLine
 10
62.603853033
 20
99.4567096211
 30
0.0
 11
58.0217251488
 21
95.5831964802
 31
0.0
  0
LINE
  5
26C
330
264
100
AcDbEntity
  8
VERMASSUNG
100
AcDbLine
 10
62.603853033
 20
99.4567096211
 30
0.0
 11
100.7882520682
 21
131.7359857952
 31
0.0
  0
LINE
  5
26D
330
264
100
AcDbEntity
  8
VERMASSUNG
100
AcDbLine
 10
100.7882520682
 20
131.7359857952
 30
0.0
 11
114.2793472071
 21
143.1407164413
 31
0.0
  0
MTEXT
  5
26E
330
264
100
AcDbEntity
  8
VERMASSUNG
100
AcDbMText
 10
102.0684096696
 20
136.1940717948
 30
0.1
 40
2.0
 41
0.0
 71
     1
 72
     1
  1
%%c
  7
SLDTEXTSTYLE0
 11
0.7636879807028758
 21
0.6455855234823377
 31
0.0
 73
     1
 44
1.0
  0
MTEXT
  5
26F
330
264
100
AcDbEntity
  8
VERMASSUNG
100
AcDbMText
 10
104.69620618
 20
138.6773731472
 30
0.1
 40
2.0
 41
0.0
 71
     1
 72
     1
  1
50
  7
SLDTEXTSTYLE0
 11
0.7636879807028758
 21
0.6455855234823377
 31
0.0
 73
     1
 44
1.0
  0
MTEXT
  5
270
330
264
100
AcDbEntity
  8
VERMASSUNG
100
AcDbMText
 10
109.1160508019
 20
142.4136997308
 30
0.1
 40
2.0
 41
0.0
 71
     1
 72
     1
  1
min.
  7
SLDTEXTSTYLE0
 11
0.7636879807028758
 21
0.6455855234823377
 31
0.0
 73
     1
 44
1.0
  0
ENDBLK
  5
266
330
264
100
AcDbEntity
  8
0
100
AcDbBlockEnd
  0
BLOCK
  5
272
330
271
100
AcDbEntity
  8
0
100
AcDbBlockBegin
  2
SW_CENTERMARKSYMBOL_0
 70
     0
 10
0.0
 20
0.0
 30
0.0
  3
SW_CENTERMARKSYMBOL_0
  1

  0
LINE
  5
274
330
271
100
AcDbEntity
  8
VERMASSUNG
 62
     0
100
AcDbLine
 10
0.0
 20
0.0
 30
0.0
 11
0.0
 21
2.5
 31
0.0
  0
LINE
  5
275
330
271
100
AcDbEntity
  8
VERMASSUNG
 62
     0
100
AcDbLine
 10
0.0
 20
0.0
 30
0.0
 11
-2.5
 21
0.0
 31
0.0
  0
LINE
  5
276
330
271
100
AcDbEntity
  8
VERMASSUNG
 62
     0
100
AcDbLine
 10
0.0
 20
0.0
 30
0.0
 11
0.0
 21
-2.5
 31
0.0
  0
LINE
  5
277
330
271
100
AcDbEntity
  8
VERMASSUNG
 62
     0
100
AcDbLine
 10
0.0
 20
0.0
 30
0.0
 11
2.5
 21
0.0
 31
0.0
  0
LINE
  5
278
330
271
100
AcDbEntity
  8
VERMASSUNG
 62
     0
100
AcDbLine
 10
0.0
 20
5.0
 30
0.0
 11
0.0
 21
23.0
 31
0.0
  0
LINE
  5
279
330
271
100
AcDbEntity
  8
VERMASSUNG
 62
     0
100
AcDbLine
 10
-5.0
 20
0.0
 30
0.0
 11
-23.0
 21
0.0
 31
0.0
  0
LINE
  5
27A
330
271
100
AcDbEntity
  8
VERMASSUNG
 62
     0
100
AcDbLine
 10
0.0
 20
-5.0
 30
0.0
 11
0.0
 21
-23.0
 31
0.0
  0
LINE
  5
27B
330
271
100
AcDbEntity
  8
VERMASSUNG
 62
     0
100
AcDbLine
 10
5.0
 20
0.0
 30
0.0
 11
23.0
 21
0.0
 31
0.0
  0
ENDBLK
  5
273
330
271
100
AcDbEntity
  8
0
100
AcDbBlockEnd
  0
ENDSEC
  0
SECTION
  2
ENTITIES
  0
MTEXT
  5
49
330
1F
100
AcDbEntity
  8
KOPF_DÜNN
100
AcDbMText
 10
13.8892156294
 20
23.8442973028
 30
0.0
 40
3.0
 41
0.0
 71
     1
 72
     1
  1
PS4.PCD.LLA.050
  7
SLDTEXTSTYLE0
 73
     1
 44
1.0
  0
MTEXT
  5
4A
330
1F
100
AcDbEntity
  8
VERMASSUNG
100
AcDbMText
 10
13.9329988022
 20
28.8834360957
 30
0.0
 40
3.0
 41
0.0
 71
     1
 72
     1
  1
Klemmhalter links_Turning tool left 95° /80°
  7
SLDTEXTSTYLE0
 73
     1
 44
1.0
  0
MTEXT
  5
4B
330
1F
100
AcDbEntity
  8
VERMASSUNG
100
AcDbMText
 10
98.8601118557
 20
13.8365368179
 30
0.0
 40
2.0
 41
0.0
 71
     1
 72
     1
  1
Datum: 27.04.2012
  7
SLDTEXTSTYLE0
 73
     1
 44
1.0
  0
MTEXT
  5
4C
330
1F
100
AcDbEntity
  8
VERMASSUNG
100
AcDbMText
 10
13.933048693
 20
18.0482802738
 30
0.0
 40
2.0
 41
0.0
 71
     1
 72
     1
  1
PSC ø40 / CN..12 04..
  7
SLDTEXTSTYLE0
 73
     1
 44
1.0
  0
MTEXT
  5
4D
330
1F
100
AcDbEntity
  8
VERMASSUNG
100
AcDbMText
 10
13.9808475933
 20
13.9090973692
 30
0.0
 40
2.0
 41
0.0
 71
     1
 72
     1
  1
Gewicht: 409g
  7
SLDTEXTSTYLE0
 73
     1
 44
1.0
  0
LINE
  5
4E
330
1F
100
AcDbEntity
  8
0
  6
Continuous
 62
     7
370
    15
100
AcDbLine
 10
223.746340275
 20
96.8424805502
 30
0.0
 11
224.6960010103
 21
96.2381490048
 31
0.0
  0
LINE
  5
4F
330
1F
100
AcDbEntity
  8
0
  6
Continuous
 62
     7
370
    15
100
AcDbLine
 10
232.0036234761
 20
103.1936140013
 30
0.0
 11
231.506067991
 21
103.6884438254
 31
0.0
  0
LINE
  5
50
330
1F
100
AcDbEntity
  8
0
  6
Continuous
 62
     7
370
    15
100
AcDbLine
 10
220.0176703903
 20
92.0769206359
 30
0.0
 11
220.5152258755
 21
91.5820908118
 31
0.0
  0
LINE
  5
51
330
1F
100
AcDbEntity
  8
0
  6
Continuous
 62
     7
370
    15
100
AcDbLine
 10
205.3994242644
 20
137.5520178865
 30
0.0
 11
183.4667512523
 21
137.5520178865
 31
0.0
  0
LINE
  5
52
330
1F
100
AcDbEntity
  8
0
  6
Continuous
 62
     7
370
    15
100
AcDbLine
 10
183.4667512523
 20
97.5520178865
 30
0.0
 11
205.3994242644
 21
97.5520178865
 31
0.0
  0
ARC
  5
53
330
1F
100
AcDbEntity
  8
0
  6
Continuous
 62
     7
370
    15
100
AcDbCircle
 10
183.4667512523
 20
97.8520178865
 30
0.0
 40
0.2999999999999972
100
AcDbArc
 50
180.0
 51
270.0
  0
ARC
  5
54
330
1F
100
AcDbEntity
  8
0
  6
Continuous
 62
     7
370
    15
100
AcDbCircle
 10
183.4667512523
 20
137.2520178865
 30
0.0
 40
0.2999999999999829
100
AcDbArc
 50
90.0
 51
180.0
  0
LWPOLYLINE
  5
55
330
1F
100
AcDbEntity
  8
0
  6
Continuous
 62
     7
370
    15
100
AcDbPolyline
 90
        3
 70
   128
 43
0.0
 10
182.9667512523
 20
103.4621976076
 10
183.0922061958
 20
103.3938954927
 10
183.1667512523
 20
103.3411577345
  0
LWPOLYLINE
  5
56
330
1F
100
AcDbEntity
  8
0
  6
Continuous
 62
     7
370
    15
100
AcDbPolyline
 90
        3
 70
   128
 43
0.0
 10
183.1667512523
 20
131.7628780384
 10
183.0922061958
 20
131.7101402803
 10
182.9667512523
 20
131.6418381654
  0
ARC
  5
57
330
1F
100
AcDbEntity
  8
0
  6
Continuous
 62
     7
370
    15
100
AcDbCircle
 10
205.3994242644
 20
138.5520178865
 30
0.0
 40
1.000000000000008
100
AcDbArc
 50
270.0
 51
330.0
  0
ARC
  5
58
330
1F
100
AcDbEntity
  8
0
  6
Continuous
 62
     7
370
    15
100
AcDbCircle
 10
205.3994242644
 20
96.5520178865
 30
0.0
 40
1.0
100
AcDbArc
 50
15.0
 51
90.0
  0
LINE
  5
59
330
1F
100
AcDbEntity
  8
0
  6
Continuous
 62
     7
370
    15
100
AcDbLine
 10
213.4663294798
 20
138.0520178865
 30
0.0
 11
206.2654496681
 21
138.0520178865
 31
0.0
  0
LINE
  5
5A
330
1F
100
AcDbEntity
  8
0
  6
Continuous
 62
     7
370
    15
100
AcDbLine
 10
206.3653500906
 20
96.8108369316
 30
0.0
 11
207.1630465198
 21
93.8337933291
 31
0.0
  0
LINE
  5
5B
330
1F
100
AcDbEntity
  8
0
  6
Continuous
 62
     7
370
    15
100
AcDbLine
 10
207.1665658067
 20
93.8133110324
 30
0.0
 11
220.1988603792
 21
92.4435616776
 31
0.0
  0
CIRCLE
  5
5C
330
1F
100
AcDbEntity
  8
0
  6
Continuous
 62
     7
370
    15
100
AcDbCircle
 10
221.8674136956
 20
109.3716293331
 30
0.0
 40
3.485914180366234
  0
CIRCLE
  5
5D
330
1F
100
AcDbEntity
  8
0
  6
Continuous
 62
     7
370
    15
100
AcDbCircle
 10
221.8511333905
 20
109.3741567832
 30
0.0
 40
1.991533032136827
  0
SPLINE
  5
5E
330
1F
100
AcDbEntity
  8
0
  6
Continuous
 62
     7
370
    15
100
AcDbSpline
210
0.0
220
0.0
230
1.0
 70
     8
 71
     3
 72
    11
 73
     7
 74
     0
 42
0.00000001
 43
0.00000001
 12
1.0
 22
0.0
 32
0.0
 13
1.0
 23
0.0
 33
0.0
 40
0.0
 40
0.0
 40
0.0
 40
0.0
 40
0.108110088037121
 40
0.4711580666043569
 40
0.8135808430835951
 40
1.0
 40
1.0
 40
1.0
 40
1.0
 10
221.1017916146455
 20
107.8231794389757
 30
0.0
 10
221.1567799216616
 20
107.8328101059502
 30
0.0
 10
221.3964262385779
 20
107.8747818267603
 30
0.0
 10
221.8635855540497
 20
107.943821915191
 30
0.0
 10
222.4104325171301
 20
107.996104991855
 30
0.0
 10
222.7094963462494
 20
108.0152933306023
 30
0.0
 10
222.8149176893162
 20
108.0220573061988
 30
0.0
  0
SPLINE
  5
5F
330
1F
100
AcDbEntity
  8
0
  6
Continuous
 62
     7
370
    15
100
AcDbSpline
210
0.0
220
0.0
230
1.0
 70
     8
 71
     3
 72
    11
 73
     7
 74
     0
 42
0.00000001
 43
0.00000001
 12
1.0
 22
0.0
 32
0.0
 13
1.0
 23
0.0
 33
0.0
 40
0.0
 40
0.0
 40
0.0
 40
0.0
 40
0.2164499953511891
 40
0.4402998152333206
 40
0.7518914760010333
 40
1.0
 40
1.0
 40
1.0
 40
1.0
 10
222.8149176893162
 20
108.0220573061988
 30
0.0
 10
222.8572314538996
 20
108.1360253353306
 30
0.0
 10
222.9433055732254
 20
108.3678576441638
 30
0.0
 10
223.1148462563643
 20
108.7863378672684
 30
0.0
 10
223.3149925797311
 20
109.2191985337376
 30
0.0
 10
223.4539491441455
 20
109.4853929368738
 30
0.0
 10
223.5155469585382
 20
109.6033937920753
 30
0.0
  0
SPLINE
  5
60
330
1F
100
AcDbEntity
  8
0
  6
Continuous
 62
     7
370
    15
100
AcDbSpline
210
0.0
220
0.0
230
1.0
 70
     8
 71
     3
 72
    11
 73
     7
 74
     0
 42
0.00000001
 43
0.00000001
 12
1.0
 22
0.0
 32
0.0
 13
1.0
 23
0.0
 33
0.0
 40
0.0
 40
0.0
 40
0.0
 40
0.0
 40
0.2164499953511756
 40
0.4402998152332912
 40
0.7518914760010259
 40
1.0
 40
1.0
 40
1.0
 40
1.0
 10
223.5155469585382
 20
109.6033937920753
 30
0.0
 10
223.4405129018501
 20
109.7037388399432
 30
0.0
 10
223.287879582351
 20
109.9078594543334
 30
0.0
 10
223.0164379107478
 20
110.2749135814657
 30
0.0
 10
222.7413946734884
 20
110.6526091974804
 30
0.0
 10
222.5762547453621
 20
110.8835008504217
 30
0.0
 10
222.5030501530896
 20
110.9858524107286
 30
0.0
  0
SPLINE
  5
61
330
1F
100
AcDbEntity
  8
0
  6
Continuous
 62
     7
370
    15
100
AcDbSpline
210
0.0
220
0.0
230
1.0
 70
     8
 71
     3
 72
    13
 73
     9
 74
     0
 42
0.00000001
 43
0.00000001
 12
1.0
 22
0.0
 32
0.0
 13
1.0
 23
0.0
 33
0.0
 40
0.0
 40
0.0
 40
0.0
 40
0.0
 40
0.1858585508580113
 40
0.3545088035973573
 40
0.5287517039503414
 40
0.7072103787972868
 40
0.89221502431359
 40
1.0
 40
1.0
 40
1.0
 40
1.0
 10
222.5030501530896
 20
110.9858524107286
 30
0.0
 10
222.3974800499371
 20
110.9790744212924
 30
0.0
 10
222.1961143834589
 20
110.9661460038764
 30
0.0
 10
221.8812152956657
 20
110.9391262431922
 30
0.0
 10
221.5666816280798
 20
110.9053357705209
 30
0.0
 10
221.2523357781903
 20
110.8633392321432
 30
0.0
 10
220.9945107299326
 20
110.8228052194094
 30
0.0
 10
220.8449734186177
 20
110.7966157153648
 30
0.0
 10
220.7899240784188
 20
110.7869745435054
 30
0.0
  0
SPLINE
  5
62
330
1F
100
AcDbEntity
  8
0
  6
Continuous
 62
     7
370
    15
100
AcDbSpline
210
0.0
220
0.0
230
1.0
 70
     8
 71
     3
 72
    11
 73
     7
 74
     0
 42
0.00000001
 43
0.00000001
 12
1.0
 22
0.0
 32
0.0
 13
1.0
 23
0.0
 33
0.0
 40
0.0
 40
0.0
 40
0.0
 40
0.0
 40
0.2164499953511909
 40
0.4402998152333309
 40
0.7518914760010588
 40
1.0
 40
1.0
 40
1.0
 40
1.0
 10
220.7899240784188
 20
110.7869745435054
 30
0.0
 10
220.7362527086004
 20
110.6843019014588
 30
0.0
 10
220.6270750938075
 20
110.4754465247272
 30
0.0
 10
220.4362765328357
 20
110.0761186827856
 30
0.0
 10
220.2477395952026
 20
109.6317122280126
 30
0.0
 10
220.1379591793189
 20
109.3365015063401
 30
0.0
 10
220.0892948091968
 20
109.205638057629
 30
0.0
  0
SPLINE
  5
63
330
1F
100
AcDbEntity
  8
0
  6
Continuous
 62
     7
370
    15
100
AcDbSpline
210
0.0
220
0.0
230
1.0
 70
     8
 71
     3
 72
    11
 73
     7
 74
     0
 42
0.00000001
 43
0.00000001
 12
1.0
 22
0.0
 32
0.0
 13
1.0
 23
0.0
 33
0.0
 40
0.0
 40
0.0
 40
0.0
 40
0.0
 40
0.2164499953512022
 40
0.4402998152333402
 40
0.7518914760010822
 40
1.0
 40
1.0
 40
1.0
 40
1.0
 10
220.0892948091968
 20
109.205638057629
 30
0.0
 10
220.15297126065
 20
109.1165883968462
 30
0.0
 10
220.2825010846818
 20
108.9354447145576
 30
0.0
 10
220.5346848784522
 20
108.5875429685884
 30
0.0
 10
220.8213375014452
 20
108.1983015642697
 30
0.0
 10
221.0156535781023
 20
107.9383935927922
 30
0.0
 10
221.1017916146455
 20
107.8231794389757
 30
0.0
  0
LINE
  5
64
330
1F
100
AcDbEntity
  8
0
  6
Continuous
 62
     7
370
    15
100
AcDbLine
 10
223.1254414228
 20
109.9913622889
 30
0.0
 11
223.5155469585
 21
109.6033937921
 31
0.0
  0
LINE
  5
65
330
1F
100
AcDbEntity
  8
0
  6
Continuous
 62
     7
370
    15
100
AcDbLine
 10
223.1254414228
 20
109.9913622889
 30
0.0
 11
222.6191930201
 21
110.6825915982
 31
0.0
  0
LINE
  5
66
330
1F
100
AcDbEntity
  8
0
  6
Continuous
 62
     7
370
    15
100
AcDbLine
 10
222.6191930201
 20
110.6825915982
 30
0.0
 11
222.4021241324
 21
110.9789764885
 31
0.0
  0
LINE
  5
67
330
1F
100
AcDbEntity
  8
0
  6
Continuous
 62
     7
370
    15
100
AcDbLine
 10
222.4248121536
 20
108.410025803
 30
0.0
 11
222.8149176893
 21
108.0220573062
 31
0.0
  0
LINE
  5
68
330
1F
100
AcDbEntity
  8
0
  6
Continuous
 62
     7
370
    15
100
AcDbLine
 10
222.4248121536
 20
108.410025803
 30
0.0
 11
222.7751267882
 21
109.2006940459
 31
0.0
  0
LINE
  5
69
330
1F
100
AcDbEntity
  8
0
  6
Continuous
 62
     7
370
    15
100
AcDbLine
 10
222.7751267882
 20
109.2006940459
 30
0.0
 11
223.1254414228
 21
109.9913622889
 31
0.0
  0
LINE
  5
6A
330
1F
100
AcDbEntity
  8
0
  6
Continuous
 62
     7
370
    15
100
AcDbLine
 10
220.8048235845
 20
108.2219603265
 30
0.0
 11
221.5682491162
 21
108.3105868694
 31
0.0
  0
LINE
  5
6B
330
1F
100
AcDbEntity
  8
0
  6
Continuous
 62
     7
370
    15
100
AcDbLine
 10
221.5682491162
 20
108.3105868694
 30
0.0
 11
222.4248121536
 21
108.410025803
 31
0.0
  0
ARC
  5
6C
330
1F
100
AcDbEntity
  8
0
  6
Continuous
 62
     7
370
    15
100
AcDbCircle
 10
221.4171150725
 20
109.8069491561
 30
0.0
 40
1.487192347545653
100
AcDbArc
 50
335.9426547752
 51
36.0711164579
  0
ARC
  5
6D
330
1F
100
AcDbEntity
  8
0
  6
Continuous
 62
     7
370
    15
100
AcDbCircle
 10
221.3916806127
 20
109.8132360672
 30
0.0
 40
1.512987458046716
100
AcDbArc
 50
276.7017974965
 51
336.117897526
  0
ARC
  5
6E
330
1F
100
AcDbEntity
  8
0
  6
Continuous
 62
     7
370
    15
100
AcDbCircle
 10
221.3954866957
 20
109.7804308643
 30
0.0
 40
1.47996223714861
100
AcDbArc
 50
233.6980941447
 51
276.7036694679
  0
ARC
  5
6F
330
1F
100
AcDbEntity
  8
0
  6
Continuous
 62
     7
370
    15
100
AcDbCircle
 10
221.4351575345
 20
109.815450252
 30
0.0
 40
1.467608307874015
100
AcDbArc
 50
36.217590869
 51
52.6519011845
  0
LINE
  5
70
330
1F
100
AcDbEntity
  8
0
  6
Continuous
 62
     7
370
    15
100
AcDbLine
 10
223.7201295246
 20
97.7282630022
 30
0.0
 11
224.0148034357
 21
96.9218904861
 31
0.0
  0
LINE
  5
71
330
1F
100
AcDbEntity
  8
0
  6
Continuous
 62
     7
370
    15
100
AcDbLine
 10
224.0148034357
 20
96.9218904861
 30
0.0
 11
223.7048697229
 21
97.119121679
 31
0.0
  0
ELLIPSE
  5
72
330
1F
100
AcDbEntity
  8
0
  6
Continuous
 62
     7
370
    15
100
AcDbEllipse
 10
225.9101352039
 20
98.1324645799
 30
0.0
 11
1.502644295739799
 21
1.675495476824054
 31
0.0
210
0.0
220
0.0
230
1.0
 40
0.9898983231
 41
2.867627484131761
 42
5.586798377003227
  0
ELLIPSE
  5
73
330
1F
100
AcDbEntity
  8
0
  6
Continuous
 62
     7
370
    15
100
AcDbEllipse
 10
225.9101352039
 20
98.1324645799
 30
0.0
 11
1.502644295739799
 21
1.675495476824054
 31
0.0
210
0.0
220
0.0
230
1.0
 40
0.9898983231
 41
6.009220137721586
 42
6.129087384058192
  0
LINE
  5
74
330
1F
100
AcDbEntity
  8
0
  6
Continuous
 62
     7
370
    15
100
AcDbLine
 10
228.1268009354
 20
98.4637111637
 30
0.0
 11
227.8054669721
 21
99.3430386737
 31
0.0
  0
LINE
  5
75
330
1F
100
AcDbEntity
  8
0
  6
Continuous
 62
     7
370
    15
100
AcDbLine
 10
227.711376504
 20
99.5193434552
 30
0.0
 11
227.7282321709
 21
99.4573181922
 31
0.0
  0
ARC
  5
76
330
1F
100
AcDbEntity
  8
0
  6
Continuous
 62
     7
370
    15
100
AcDbCircle
 10
224.9056080494
 20
98.7019167255
 30
0.0
 40
2.88266179150591
100
AcDbArc
 50
254.51964189
 51
284.2874798039
  0
ARC
  5
77
330
1F
100
AcDbEntity
  8
0
  6
Continuous
 62
     7
370
    15
100
AcDbCircle
 10
225.4396965073
 20
98.2028437234
 30
0.0
 40
2.81598722831132
100
AcDbArc
 50
261.4207272333
 51
8.940838168
  0
LINE
  5
78
330
1F
100
AcDbEntity
  8
0
  6
Continuous
 62
     7
370
    15
100
AcDbLine
 10
219.3536118816
 20
103.7868289946
 30
0.0
 11
220.4009956995
 21
91.8266841367
 31
0.0
  0
ARC
  5
79
330
1F
100
AcDbEntity
  8
0
  6
Continuous
 62
     7
370
    15
100
AcDbCircle
 10
219.7548335543
 20
103.8209594157
 30
0.0
 40
0.402670729364285
100
AcDbArc
 50
85.7637970578
 51
184.8622312326
  0
LINE
  5
7A
330
1F
100
AcDbEntity
  8
0
  6
Continuous
 62
     7
370
    15
100
AcDbLine
 10
231.7562299941
 20
103.3066713979
 30
0.0
 11
219.7845781752
 21
104.2225300494
 31
0.0
  0
ARC
  5
7B
330
1F
100
AcDbEntity
  8
0
  6
Continuous
 62
     7
370
    15
100
AcDbCircle
 10
231.726846755
 20
102.9153160327
 30
0.0
 40
0.3924568722548449
100
AcDbArc
 50
4.926695775
 51
85.7062481525
  0
LINE
  5
7C
330
1F
100
AcDbEntity
  8
0
  6
Continuous
 62
     7
370
    15
100
AcDbLine
 10
233.1652374699
 20
90.9888758184
 30
0.0
 11
232.1178536521
 21
102.9490206764
 31
0.0
  0
ARC
  5
7D
330
1F
100
AcDbEntity
  8
0
  6
Continuous
 62
     7
370
    15
100
AcDbCircle
 10
232.7640157972
 20
90.9547453973
 30
0.0
 40
0.4026707293642874
100
AcDbArc
 50
265.7637970578
 51
4.8622312326
  0
LINE
  5
7E
330
1F
100
AcDbEntity
  8
0
  6
Continuous
 62
     7
370
    15
100
AcDbLine
 10
220.7626193574
 20
91.4690334152
 30
0.0
 11
232.7342711764
 21
90.5531747637
 31
0.0
  0
ARC
  5
7F
330
1F
100
AcDbEntity
  8
0
  6
Continuous
 62
     7
370
    15
100
AcDbCircle
 10
220.7920025966
 20
91.8603887803
 30
0.0
 40
0.3924568722547833
100
AcDbArc
 50
184.926695775
 51
265.7062481526
  0
ARC
  5
80
330
1F
100
AcDbEntity
  8
0
  6
Continuous
 62
     7
370
    15
100
AcDbCircle
 10
232.7642621321
 20
90.95450066
 30
0.0
 40
0.3825371928960846
100
AcDbArc
 50
265.7637970578
 51
4.8622312326
  0
LINE
  5
81
330
1F
100
AcDbEntity
  8
0
  6
Continuous
 62
     7
370
    15
100
AcDbLine
 10
233.1454227211
 20
90.9869245601
 30
0.0
 11
232.098038903
 21
102.947069418
 31
0.0
  0
ARC
  5
82
330
1F
100
AcDbEntity
  8
0
  6
Continuous
 62
     7
370
    15
100
AcDbCircle
 10
231.7265823504
 20
102.9150500062
 30
0.0
 40
0.3728340290427933
100
AcDbArc
 50
4.9266958221
 51
85.7062480519
  0
LINE
  5
83
330
1F
100
AcDbEntity
  8
0
  6
Continuous
 62
     7
370
    15
100
AcDbLine
 10
231.7544964283
 20
103.2868376035
 30
0.0
 11
219.7828446093
 21
104.202696255
 31
0.0
  0
ARC
  5
84
330
1F
100
AcDbEntity
  8
0
  6
Continuous
 62
     7
370
    15
100
AcDbCircle
 10
219.7545872195
 20
103.821204153
 30
0.0
 40
0.3825371928959981
100
AcDbArc
 50
85.7637970578
 51
184.8622312326
  0
LINE
  5
85
330
1F
100
AcDbEntity
  8
0
  6
Continuous
 62
     7
370
    15
100
AcDbLine
 10
219.3734266305
 20
103.7887802529
 30
0.0
 11
220.4208104483
 21
91.828635395
 31
0.0
  0
ARC
  5
86
330
1F
100
AcDbEntity
  8
0
  6
Continuous
 62
     7
370
    15
100
AcDbCircle
 10
220.7922670005
 20
91.8606548064
 30
0.0
 40
0.3728340286421316
100
AcDbArc
 50
184.926695775
 51
265.7062481526
  0
LINE
  5
87
330
1F
100
AcDbEntity
  8
0
  6
Continuous
 62
     7
370
    15
100
AcDbLine
 10
220.7643529233
 20
91.4888672095
 30
0.0
 11
232.7360047423
 21
90.573008558
 31
0.0
  0
LINE
  5
88
330
1F
100
AcDbEntity
  8
0
  6
Continuous
 62
     7
370
    15
100
AcDbLine
 10
218.8545901551
 20
104.3224640066
 30
0.0
 11
218.8560563965
 21
104.2816588188
 31
0.0
  0
LINE
  5
89
330
1F
100
AcDbEntity
  8
0
  6
Continuous
 62
     7
370
    15
100
AcDbLine
 10
219.7269740336
 20
103.8486613567
 30
0.0
 11
219.3734266305
 21
103.7887802529
 31
0.0
  0
LINE
  5
8A
330
1F
100
AcDbEntity
  8
0
  6
Continuous
 62
     7
370
    15
100
AcDbLine
 10
219.7269740336
 20
103.8486613567
 30
0.0
 11
219.7828446093
 21
104.202696255
 31
0.0
  0
LINE
  5
8B
330
1F
100
AcDbEntity
  8
0
  6
Continuous
 62
     7
370
    15
100
AcDbLine
 10
220.7743578514
 20
91.8885164987
 30
0.0
 11
220.4208104483
 21
91.828635395
 31
0.0
  0
LINE
  5
8C
330
1F
100
AcDbEntity
  8
0
  6
Continuous
 62
     7
370
    15
100
AcDbLine
 10
220.590523566
 20
102.9948768189
 30
0.0
 11
219.7269740336
 21
103.8486613567
 31
0.0
  0
LINE
  5
8D
330
1F
100
AcDbEntity
  8
0
  6
Continuous
 62
     7
370
    15
100
AcDbLine
 10
221.3074014617
 20
92.502638858
 30
0.0
 11
220.7743578514
 21
91.8885164987
 31
0.0
  0
LINE
  5
8E
330
1F
100
AcDbEntity
  8
0
  6
Continuous
 62
     7
370
    15
100
AcDbLine
 10
231.258674509
 20
103.801501222
 30
0.0
 11
231.0136492327
 21
103.8202462142
 31
0.0
  0
LINE
  5
8F
330
1F
100
AcDbEntity
  8
0
  6
Continuous
 62
     7
370
    15
100
AcDbLine
 10
218.8560563965
 20
104.2816588188
 30
0.0
 11
219.2284093293
 21
100.0297361343
 31
0.0
  0
LINE
  5
90
330
1F
100
AcDbEntity
  8
0
  6
Continuous
 62
     7
370
    15
100
AcDbLine
 10
219.8899084708
 20
92.4760338317
 30
0.0
 11
219.9034402143
 21
92.3215139608
 31
0.0
  0
LINE
  5
91
330
1F
100
AcDbEntity
  8
0
  6
Continuous
 62
     7
370
    15
100
AcDbLine
 10
231.6986258525
 20
102.9328027052
 30
0.0
 11
231.7544964283
 21
103.2868376035
 31
0.0
  0
LINE
  5
92
330
1F
100
AcDbEntity
  8
0
  6
Continuous
 62
     7
370
    15
100
AcDbLine
 10
231.0905663195
 20
102.3932853235
 30
0.0
 11
231.6986258525
 21
102.9328027052
 31
0.0
  0
ARC
  5
93
330
1F
100
AcDbEntity
  8
0
  6
Continuous
 62
     7
370
    15
100
AcDbCircle
 10
222.6285995131
 20
100.9787324911
 30
0.0
 40
1.006676823410656
100
AcDbArc
 50
85.7637970578
 51
184.8622312326
  0
SPLINE
  5
94
330
1F
100
AcDbEntity
  8
0
  6
Continuous
 62
     7
370
    15
100
AcDbSpline
210
0.0
220
0.0
230
1.0
 70
     8
 71
     3
 72
    11
 73
     7
 74
     0
 42
0.00000001
 43
0.00000001
 12
1.0
 22
0.0
 32
0.0
 13
1.0
 23
0.0
 33
0.0
 40
0.0
 40
0.0
 40
0.0
 40
0.0
 40
0.336783113141283
 40
0.6790111347687401
 40
0.9923717339918524
 40
1.0
 40
1.0
 40
1.0
 40
1.0
 10
220.5905235660257
 20
102.9948768189276
 30
0.0
 10
220.6435880785833
 20
102.9424069784592
 30
0.0
 10
220.7505750190851
 20
102.8366189964395
 30
0.0
 10
220.9229034514508
 20
102.666162850387
 30
0.0
 10
221.03277218645
 20
102.5574660173191
 30
0.0
 10
221.0834454123396
 20
102.5073275353318
 30
0.0
 10
221.0846496561264
 20
102.5061359996766
 30
0.0
  0
LINE
  5
95
330
1F
100
AcDbEntity
  8
0
  6
Continuous
 62
     7
370
    15
100
AcDbLine
 10
221.6255453314
 20
100.8934064383
 30
0.0
 11
222.2117282076
 21
94.1997455346
 31
0.0
  0
LINE
  5
96
330
1F
100
AcDbEntity
  8
0
  6
Continuous
 62
     7
370
    15
100
AcDbLine
 10
229.4030619992
 20
101.4700860821
 30
0.0
 11
222.7029610652
 21
101.9826590753
 31
0.0
  0
ARC
  5
97
330
1F
100
AcDbEntity
  8
0
  6
Continuous
 62
     7
370
    15
100
AcDbCircle
 10
229.3296039013
 20
100.4916976692
 30
0.0
 40
0.9811421806371743
100
AcDbArc
 50
4.926695775
 51
85.7062481525
  0
LINE
  5
98
330
1F
100
AcDbEntity
  8
0
  6
Continuous
 62
     7
370
    15
100
AcDbLine
 10
230.8933040202
 20
93.8822983747
 30
0.0
 11
230.307121144
 21
100.5759592784
 31
0.0
  0
ARC
  5
99
330
1F
100
AcDbEntity
  8
0
  6
Continuous
 62
     7
370
    15
100
AcDbCircle
 10
229.8902498387
 20
93.7969723214
 30
0.0
 40
1.006676823230081
100
AcDbArc
 50
265.7637970419
 51
4.8622312607
  0
LINE
  5
9A
330
1F
100
AcDbEntity
  8
0
  6
Continuous
 62
     7
370
    15
100
AcDbLine
 10
223.1157873524
 20
93.3056187309
 30
0.0
 11
229.8158882864
 21
92.7930457374
 31
0.0
  0
ARC
  5
9B
330
1F
100
AcDbEntity
  8
0
  6
Continuous
 62
     7
370
    15
100
AcDbCircle
 10
223.1892454503
 20
94.2840071438
 30
0.0
 40
0.9811421806371423
100
AcDbArc
 50
184.926695775
 51
265.7062481525
  0
CIRCLE
  5
9C
330
1F
100
AcDbEntity
  8
0
  6
Continuous
 62
     7
370
    15
100
AcDbCircle
 10
226.2323092388
 20
97.3852699073
 30
0.0
 40
2.563520292830515
  0
ARC
  5
9D
330
1F
100
AcDbEntity
  8
0
  6
Continuous
 62
     7
370
    15
100
AcDbCircle
 10
225.7379478833
 20
97.9028422117
 30
0.0
 40
2.586441109450871
100
AcDbArc
 50
265.5715729668
 51
36.6632005708
  0
ARC
  5
9E
330
1F
100
AcDbEntity
  8
0
  6
Continuous
 62
     7
370
    15
100
AcDbCircle
 10
225.7300003718
 20
97.8553179418
 30
0.0
 40
2.53844862827694
100
AcDbArc
 50
233.1774013145
 51
265.6675966738
  0
LINE
  5
9F
330
1F
100
AcDbEntity
  8
0
  6
Continuous
 62
     7
370
    15
100
AcDbLine
 10
232.7460096704
 20
90.9726578472
 30
0.0
 11
232.7360047423
 21
90.573008558
 31
0.0
  0
LINE
  5
A0
330
1F
100
AcDbEntity
  8
0
  6
Continuous
 62
     7
370
    15
100
AcDbLine
 10
220.7743578514
 20
91.8885164987
 30
0.0
 11
220.7643529233
 21
91.4888672095
 31
0.0
  0
LINE
  5
A1
330
1F
100
AcDbEntity
  8
0
  6
Continuous
 62
     7
370
    15
100
AcDbLine
 10
231.7816272739
 20
91.9267228759
 30
0.0
 11
232.7460096704
 21
90.9726578472
 31
0.0
  0
LINE
  5
A2
330
1F
100
AcDbEntity
  8
0
  6
Continuous
 62
     7
370
    15
100
AcDbLine
 10
231.6986258525
 20
102.9328027052
 30
0.0
 11
232.098038903
 21
102.947069418
 31
0.0
  0
LINE
  5
A3
330
1F
100
AcDbEntity
  8
0
  6
Continuous
 62
     7
370
    15
100
AcDbLine
 10
232.7460096704
 20
90.9726578472
 30
0.0
 11
233.1454227211
 21
90.9869245601
 31
0.0
  0
SPLINE
  5
A4
330
1F
100
AcDbEntity
  8
0
  6
Continuous
 62
     7
370
    15
100
AcDbSpline
210
0.0
220
0.0
230
1.0
 70
     8
 71
     3
 72
    11
 73
     7
 74
     0
 42
0.00000001
 43
0.00000001
 12
1.0
 22
0.0
 32
0.0
 13
1.0
 23
0.0
 33
0.0
 40
0.0
 40
0.0
 40
0.0
 40
0.0
 40
0.0081164391031372
 40
0.3263678516910862
 40
0.6627685813469916
 40
1.0
 40
1.0
 40
1.0
 40
1.0
 10
221.8005934887208
 20
92.99077239139521
 30
0.0
 10
221.7993061388513
 20
92.98967397762384
 30
0.0
 10
221.7475408750521
 20
92.945505970167
 30
0.0
 10
221.6364727766986
 20
92.8455861605166
 30
0.0
 10
221.4632099473428
 20
92.67593473277985
 30
0.0
 10
221.3593803027477
 20
92.5604516188665
 30
0.0
 10
221.3074014617245
 20
92.50263885795057
 30
0.0
  0
SPLINE
  5
A5
330
1F
100
AcDbEntity
  8
0
  6
Continuous
 62
     7
370
    15
100
AcDbSpline
210
0.0
220
0.0
230
1.0
 70
     8
 71
     3
 72
    11
 73
     7
 74
     0
 42
0.00000001
 43
0.00000001
 12
1.0
 22
0.0
 32
0.0
 13
1.0
 23
0.0
 33
0.0
 40
0.0
 40
0.0
 40
0.0
 40
0.0
 40
0.3372314186521301
 40
0.6736321483071553
 40
0.991883560896874
 40
1.0
 40
1.0
 40
1.0
 40
1.0
 10
231.0905663195215
 20
102.3932853235205
 30
0.0
 10
231.0333390729656
 20
102.3406922168228
 30
0.0
 10
230.9190255454975
 20
102.2356355539753
 30
0.0
 10
230.7512625025899
 20
102.0605144681952
 30
0.0
 10
230.652528958652
 20
101.9483276741081
 30
0.0
 10
230.608907235821
 20
101.8960607368517
 30
0.0
 10
230.607822407597
 20
101.8947609108696
 30
0.0
  0
ARC
  5
A6
330
1F
100
AcDbEntity
  8
0
  6
Continuous
 62
     7
370
    15
100
AcDbCircle
 10
231.2291235454
 20
103.4096341525
 30
0.0
 40
0.39297971908077
100
AcDbArc
 50
45.1922959293
 51
85.6874485753
  0
ARC
  5
A7
330
1F
100
AcDbEntity
  8
0
  6
Continuous
 62
     7
370
    15
100
AcDbCircle
 10
220.2950236455
 20
92.3554209794
 30
0.0
 40
0.3930486859069314
100
AcDbArc
 50
184.9488698207
 51
225.1182383655
  0
SPLINE
  5
A8
330
1F
100
AcDbEntity
  8
0
  6
Continuous
 62
     7
370
    15
100
AcDbSpline
210
0.0
220
0.0
230
1.0
 70
     8
 71
     3
 72
    11
 73
     7
 74
     0
 42
0.00000001
 43
0.00000001
 12
1.0
 22
0.0
 32
0.0
 13
1.0
 23
0.0
 33
0.0
 40
0.0
 40
0.0
 40
0.0
 40
0.0
 40
0.0076282660081503
 40
0.3209888652310264
 40
0.6632168868585637
 40
1.0
 40
1.0
 40
1.0
 40
1.0
 10
231.3032550017049
 20
92.39979617836418
 30
0.0
 10
231.3042696569504
 20
92.39879319266439
 30
0.0
 10
231.3469652099766
 20
92.35658868101318
 30
0.0
 10
231.444068361385
 20
92.26058750033457
 30
0.0
 10
231.6087791509399
 20
92.09770726684779
 30
0.0
 10
231.724320069166
 20
91.98341216668932
 30
0.0
 10
231.7816272739273
 20
91.92672287592934
 30
0.0
  0
ELLIPSE
  5
A9
330
1F
100
AcDbEntity
  8
0
  6
Continuous
 62
     7
370
    15
100
AcDbEllipse
 10
206.6307009394
 20
117.5520178865
 30
0.0
 11
0.6029274463962793
 21
19.99935571561064
 31
0.0
210
0.0
220
0.0
230
1.0
 40
0.266256518
 41
0.4171574260057073
 42
2.949928246456462
  0
SPLINE
  5
AA
330
1F
100
AcDbEntity
  8
0
  6
Continuous
 62
     7
370
    15
100
AcDbSpline
210
0.0
220
0.0
230
1.0
 70
     8
 71
     3
 72
    10
 73
     6
 74
     0
 42
0.00000001
 43
0.00000001
 12
1.0
 22
0.0
 32
0.0
 13
1.0
 23
0.0
 33
0.0
 40
0.0
 40
0.0
 40
0.0
 40
0.0
 40
0.5
 40
0.5
 40
1.0
 40
1.0
 40
1.0
 40
1.0
 10
205.0244461311992
 20
97.94946012951614
 30
0.0
 10
205.0514273639369
 20
97.92852291928202
 30
0.0
 10
205.0976169680817
 20
97.90979251687519
 30
0.0
 10
205.2254718736739
 20
97.87765746274067
 30
0.0
 10
205.3057688373374
 20
97.86460849494416
 30
0.0
 10
205.3994242643581
 20
97.85492879608672
 30
0.0
  0
SPLINE
  5
AB
330
1F
100
AcDbEntity
  8
0
  6
Continuous
 62
     7
370
    15
100
AcDbSpline
210
0.0
220
0.0
230
1.0
 70
     8
 71
     3
 72
     8
 73
     4
 74
     0
 42
0.00000001
 43
0.00000001
 12
1.0
 22
0.0
 32
0.0
 13
1.0
 23
0.0
 33
0.0
 40
0.0
 40
0.0
 40
0.0
 40
0.0
 40
1.0
 40
1.0
 40
1.0
 40
1.0
 10
205.3994242643581
 20
136.0977108035628
 30
0.0
 10
205.2122185429744
 20
136.0559347688699
 30
0.0
 10
205.0783816947929
 20
135.9852925271428
 30
0.0
 10
205.0244461311992
 20
135.9013578584455
 30
0.0
  0
SPLINE
  5
AC
330
1F
100
AcDbEntity
  8
0
  6
Continuous
 62
     7
370
    15
100
AcDbSpline
210
0.0
220
0.0
230
1.0
 70
     8
 71
     3
 72
    12
 73
     8
 74
     0
 42
0.00000001
 43
0.00000001
 12
1.0
 22
0.0
 32
0.0
 13
1.0
 23
0.0
 33
0.0
 40
0.0
 40
0.0
 40
0.0
 40
0.0
 40
0.5000000000000023
 40
0.5000000000000023
 40
0.7500000000000011
 40
0.7500000000000011
 40
1.0
 40
1.0
 40
1.0
 40
1.0
 10
189.838845633201
 20
98.51726160330135
 30
0.0
 10
189.8576488660526
 20
98.49533960504029
 30
0.0
 10
189.8831855250719
 20
98.47444579703034
 30
0.0
 10
189.9434116990203
 20
98.44671907091256
 30
0.0
 10
189.9673377764203
 20
98.43814593753712
 30
0.0
 10
190.0253986966016
 20
98.42496683172958
 30
0.0
 10
190.0612003952276
 20
98.42036150624992
 30
0.0
 10
190.0986532543363
 20
98.42036150624992
 30
0.0
  0
LINE
  5
AD
330
1F
100
AcDbEntity
  8
0
  6
Continuous
 62
     7
370
    15
100
AcDbLine
 10
190.0986532543
 20
98.4203615062
 30
0.0
 11
192.2348492503
 21
98.4203615062
 31
0.0
  0
SPLINE
  5
AE
330
1F
100
AcDbEntity
  8
0
  6
Continuous
 62
     7
370
    15
100
AcDbSpline
210
0.0
220
0.0
230
1.0
 70
     8
 71
     3
 72
    12
 73
     8
 74
     0
 42
0.00000001
 43
0.00000001
 12
1.0
 22
0.0
 32
0.0
 13
1.0
 23
0.0
 33
0.0
 40
0.0
 40
0.0
 40
0.0
 40
0.0
 40
0.2500000000000012
 40
0.2500000000000012
 40
0.5000000000000023
 40
0.5000000000000023
 40
1.0
 40
1.0
 40
1.0
 40
1.0
 10
192.2348492503379
 20
98.4203615062499
 30
0.0
 10
192.2723500732157
 20
98.42036150624989
 30
0.0
 10
192.3076284772517
 20
98.42486247411306
 30
0.0
 10
192.366546197304
 20
98.43822899533038
 30
0.0
 10
192.3900695787024
 20
98.44671025557523
 30
0.0
 10
192.4503251631683
 20
98.47444765125313
 30
0.0
 10
192.4758468155795
 20
98.49533165030618
 30
0.0
 10
192.4946568714733
 20
98.51726160330135
 30
0.0
  0
ELLIPSE
  5
AF
330
1F
100
AcDbEntity
  8
0
  6
Continuous
 62
     7
370
    15
100
AcDbEllipse
 10
182.2178220799
 20
117.5520178865
 30
0.0
 11
-9.367417879781812
 21
19.74174915274993
 31
0.0
210
0.0
220
0.0
230
1.0
 40
0.3419987131
 41
3.29266438251689
 42
4.239566697060994
  0
SPLINE
  5
B0
330
1F
100
AcDbEntity
  8
0
  6
Continuous
 62
     7
370
    15
100
AcDbSpline
210
0.0
220
0.0
230
1.0
 70
     8
 71
     3
 72
    12
 73
     8
 74
     0
 42
0.00000001
 43
0.00000001
 12
1.0
 22
0.0
 32
0.0
 13
1.0
 23
0.0
 33
0.0
 40
0.0
 40
0.0
 40
0.0
 40
0.0
 40
0.5000000000000061
 40
0.5000000000000061
 40
0.750000000000003
 40
0.750000000000003
 40
1.0
 40
1.0
 40
1.0
 40
1.0
 10
192.4946568714732
 20
111.4137727594241
 30
0.0
 10
192.4758536386216
 20
111.4817530836865
 30
0.0
 10
192.4503169796023
 20
111.5478434714833
 30
0.0
 10
192.3900908056539
 20
111.6369080839305
 30
0.0
 10
192.3661647282539
 20
111.6647091709504
 30
0.0
 10
192.3081038080726
 20
111.7076682441753
 30
0.0
 10
192.2723021094467
 20
111.7228048908315
 30
0.0
 10
192.2348492503379
 20
111.7228048908315
 30
0.0
  0
LINE
  5
B1
330
1F
100
AcDbEntity
  8
0
  6
Continuous
 62
     7
370
    15
100
AcDbLine
 10
192.2348492503
 20
111.7228048908
 30
0.0
 11
190.0986532543
 21
111.7228048908
 31
0.0
  0
SPLINE
  5
B2
330
1F
100
AcDbEntity
  8
0
  6
Continuous
 62
     7
370
    15
100
AcDbSpline
210
0.0
220
0.0
230
1.0
 70
     8
 71
     3
 72
    12
 73
     8
 74
     0
 42
0.00000001
 43
0.00000001
 12
1.0
 22
0.0
 32
0.0
 13
1.0
 23
0.0
 33
0.0
 40
0.0
 40
0.0
 40
0.0
 40
0.0
 40
0.2499999999999986
 40
0.2499999999999986
 40
0.4999999999999971
 40
0.4999999999999971
 40
1.0
 40
1.0
 40
1.0
 40
1.0
 10
190.0986532543363
 20
111.7228048908315
 30
0.0
 10
190.0611524314585
 20
111.7228048908315
 30
0.0
 10
190.0258740274226
 20
111.7080085530784
 30
0.0
 10
189.9669563073702
 20
111.6644382919193
 30
0.0
 10
189.9434329259718
 20
111.6369364934178
 30
0.0
 10
189.8831773415059
 20
111.5478373301747
 30
0.0
 10
189.8576556890948
 20
111.4817777513923
 30
0.0
 10
189.838845633201
 20
111.4137727594241
 30
0.0
  0
ELLIPSE
  5
B3
330
1F
100
AcDbEntity
  8
0
  6
Continuous
 62
     7
370
    15
100
AcDbEllipse
 10
200.1156804248
 20
117.5520178865
 30
0.0
 11
9.367417879781669
 21
19.74174915274995
 31
0.0
210
0.0
220
0.0
230
1.0
 40
0.3419987131
 41
2.043618610118597
 42
2.99052092466273
  0
SPLINE
  5
B4
330
1F
100
AcDbEntity
  8
0
  6
Continuous
 62
     7
370
    15
100
AcDbSpline
210
0.0
220
0.0
230
1.0
 70
     8
 71
     3
 72
    12
 73
     8
 74
     0
 42
0.00000001
 43
0.00000001
 12
1.0
 22
0.0
 32
0.0
 13
1.0
 23
0.0
 33
0.0
 40
0.0
 40
0.0
 40
0.0
 40
0.0
 40
0.500000000000001
 40
0.500000000000001
 40
0.7500000000000004
 40
0.7500000000000004
 40
1.0
 40
1.0
 40
1.0
 40
1.0
 10
189.838845633201
 20
123.6902630135422
 30
0.0
 10
189.8575388663314
 20
123.6226803771019
 30
0.0
 10
189.8831941637432
 20
123.5561978076244
 30
0.0
 10
189.9433547864297
 20
123.4672027247269
 30
0.0
 10
189.967427098184
 20
123.4392008277278
 30
0.0
 10
190.0258086185345
 20
123.3961244270626
 30
0.0
 10
190.0612774461875
 20
123.3812308821348
 30
0.0
 10
190.0986532543363
 20
123.3812308821348
 30
0.0
  0
LINE
  5
B5
330
1F
100
AcDbEntity
  8
0
  6
Continuous
 62
     7
370
    15
100
AcDbLine
 10
190.0986532543
 20
123.3812308821
 30
0.0
 11
192.2348492503
 21
123.3812308821
 31
0.0
  0
SPLINE
  5
B6
330
1F
100
AcDbEntity
  8
0
  6
Continuous
 62
     7
370
    15
100
AcDbSpline
210
0.0
220
0.0
230
1.0
 70
     8
 71
     3
 72
    12
 73
     8
 74
     0
 42
0.00000001
 43
0.00000001
 12
1.0
 22
0.0
 32
0.0
 13
1.0
 23
0.0
 33
0.0
 40
0.0
 40
0.0
 40
0.0
 40
0.0
 40
0.2500000000000001
 40
0.2500000000000001
 40
0.5000000000000002
 40
0.5000000000000002
 40
1.0
 40
1.0
 40
1.0
 40
1.0
 10
192.2348492503379
 20
123.3812308821348
 30
0.0
 10
192.2723611363826
 20
123.3812308821348
 30
0.0
 10
192.3076484840873
 20
123.3960356964216
 30
0.0
 10
192.3665783323257
 20
123.4396275695475
 30
0.0
 10
192.3901040587948
 20
123.4671409956334
 30
0.0
 10
192.4503628465629
 20
123.556272727747
 30
0.0
 10
192.4759576088522
 20
123.6226585783648
 30
0.0
 10
192.4946568714732
 20
123.6902630135422
 30
0.0
  0
ELLIPSE
  5
B7
330
1F
100
AcDbEntity
  8
0
  6
Continuous
 62
     7
370
    15
100
AcDbEllipse
 10
182.2178220799
 20
117.5520178865
 30
0.0
 11
9.367417879781669
 21
19.74174915274993
 31
0.0
210
0.0
220
0.0
230
1.0
 40
0.3419987131
 41
5.185211263708394
 42
6.132113578252549
  0
SPLINE
  5
B8
330
1F
100
AcDbEntity
  8
0
  6
Continuous
 62
     7
370
    15
100
AcDbSpline
210
0.0
220
0.0
230
1.0
 70
     8
 71
     3
 72
    12
 73
     8
 74
     0
 42
0.00000001
 43
0.00000001
 12
1.0
 22
0.0
 32
0.0
 13
1.0
 23
0.0
 33
0.0
 40
0.0
 40
0.0
 40
0.0
 40
0.0
 40
0.4999999999999971
 40
0.4999999999999971
 40
0.7499999999999986
 40
0.7499999999999986
 40
1.0
 40
1.0
 40
1.0
 40
1.0
 10
192.4946568714732
 20
136.5867741696652
 30
0.0
 10
192.4759636383428
 20
136.6085679232931
 30
0.0
 10
192.450308340931
 20
136.6295880850028
 30
0.0
 10
192.3901477182445
 20
136.6572934309665
 30
0.0
 10
192.3660754064902
 20
136.6659286471599
 30
0.0
 10
192.3076938861397
 20
136.6791432923864
 30
0.0
 10
192.2722250584866
 20
136.6836742667166
 30
0.0
 10
192.2348492503379
 20
136.6836742667166
 30
0.0
  0
LINE
  5
B9
330
1F
100
AcDbEntity
  8
0
  6
Continuous
 62
     7
370
    15
100
AcDbLine
 10
192.2348492503
 20
136.6836742667
 30
0.0
 11
190.0986532543
 21
136.6836742667
 31
0.0
  0
SPLINE
  5
BA
330
1F
100
AcDbEntity
  8
0
  6
Continuous
 62
     7
370
    15
100
AcDbSpline
210
0.0
220
0.0
230
1.0
 70
     8
 71
     3
 72
    12
 73
     8
 74
     0
 42
0.00000001
 43
0.00000001
 12
1.0
 22
0.0
 32
0.0
 13
1.0
 23
0.0
 33
0.0
 40
0.0
 40
0.0
 40
0.0
 40
0.0
 40
0.2499999999999988
 40
0.2499999999999988
 40
0.4999999999999976
 40
0.4999999999999976
 40
1.0
 40
1.0
 40
1.0
 40
1.0
 10
190.0986532543363
 20
136.6836742667166
 30
0.0
 10
190.0611413682916
 20
136.6836742667166
 30
0.0
 10
190.0258540205869
 20
136.679170722454
 30
0.0
 10
189.9669241723485
 20
136.6657975230007
 30
0.0
 10
189.9433984458795
 20
136.6573126204296
 30
0.0
 10
189.8831396581114
 20
136.6295648165951
 30
0.0
 10
189.857544895822
 20
136.6085749528547
 30
0.0
 10
189.838845633201
 20
136.5867741696652
 30
0.0
  0
ELLIPSE
  5
BB
330
1F
100
AcDbEntity
  8
0
  6
Continuous
 62
     7
370
    15
100
AcDbEllipse
 10
200.1156804248
 20
117.5520178865
 30
0.0
 11
-9.367417879781586
 21
19.74174915274995
 31
0.0
210
0.0
220
0.0
230
1.0
 40
0.3419987131
 41
0.1510717289270744
 42
1.097974043471205
  0
ELLIPSE
  5
BC
330
1F
100
AcDbEntity
  8
0
  6
Continuous
 62
     7
370
    15
100
AcDbEllipse
 10
203.6898717528
 20
108.5928121631
 30
0.0
 11
-0.1255419163368004
 21
2.52598249288009
 31
0.0
210
0.0
220
0.0
230
1.0
 40
0.2396689235
 41
0.0
 42
6.283185307179586
  0
LINE
  5
BD
330
1F
100
AcDbEntity
  8
0
  6
Continuous
 62
     7
370
    15
100
AcDbLine
 10
183.1667512523
 20
97.8520178865
 30
0.0
 11
183.1667512523
 21
137.2520178829
 31
0.0
  0
SPLINE
  5
BE
330
1F
100
AcDbEntity
  8
0
  6
Continuous
 62
     7
370
    15
100
AcDbSpline
210
0.0
220
0.0
230
1.0
 70
     8
 71
     3
 72
    18
 73
    14
 74
     0
 42
0.00000001
 43
0.00000001
 12
1.0
 22
0.0
 32
0.0
 13
1.0
 23
0.0
 33
0.0
 40
0.0
 40
0.0
 40
0.0
 40
0.0
 40
0.2499999999999999
 40
0.2499999999999999
 40
0.4999999999999998
 40
0.4999999999999998
 40
0.6249999999999998
 40
0.6249999999999998
 40
0.7499999999999999
 40
0.7499999999999999
 40
0.8749999999999999
 40
0.8749999999999999
 40
1.0
 40
1.0
 40
1.0
 40
1.0
 10
181.9106669347731
 20
103.7208295038044
 30
0.0
 10
181.9449637542249
 20
103.7199678483226
 30
0.0
 10
181.982775034202
 20
103.7202194514175
 30
0.0
 10
182.069347401382
 20
103.7226179640294
 30
0.0
 10
182.117686531465
 20
103.7247889487613
 30
0.0
 10
182.2069588887874
 20
103.7288838270565
 30
0.0
 10
182.2395003545633
 20
103.7303884450061
 30
0.0
 10
182.3156765544168
 20
103.7333515029742
 30
0.0
 10
182.3588926144113
 20
103.73483884123
 30
0.0
 10
182.4645819163773
 20
103.7364642525537
 30
0.0
 10
182.5295529750918
 20
103.7364220114798
 30
0.0
 10
182.6632133634497
 20
103.7323998381588
 30
0.0
 10
182.7225198167858
 20
103.7288586113353
 30
0.0
 10
182.7717743634618
 20
103.7252919038992
 30
0.0
  0
SPLINE
  5
BF
330
1F
100
AcDbEntity
  8
0
  6
Continuous
 62
     7
370
    15
100
AcDbSpline
210
0.0
220
0.0
230
1.0
 70
     8
 71
     3
 72
    14
 73
    10
 74
     0
 42
0.00000001
 43
0.00000001
 12
1.0
 22
0.0
 32
0.0
 13
1.0
 23
0.0
 33
0.0
 40
0.0
 40
0.0
 40
0.0
 40
0.0
 40
0.1249999999999986
 40
0.1249999999999986
 40
0.2499999999999972
 40
0.2499999999999972
 40
0.4999999999999996
 40
0.4999999999999996
 40
1.0
 40
1.0
 40
1.0
 40
1.0
 10
182.771774363431
 20
103.7252919039182
 30
0.0
 10
182.7833011411483
 20
103.7244572064841
 30
0.0
 10
182.7966539488008
 20
103.722716792204
 30
0.0
 10
182.826796521401
 20
103.7154692022037
 30
0.0
 10
182.8418570470155
 20
103.7101221679757
 30
0.0
 10
182.8772034009438
 20
103.6943748977473
 30
0.0
 10
182.8909355006728
 20
103.684536623586
 30
0.0
 10
182.9243067463638
 20
103.6583326376356
 30
0.0
 10
182.9352471142178
 20
103.644244736235
 30
0.0
 10
182.9439002392311
 20
103.6314711127466
 30
0.0
  0
LINE
  5
C0
330
1F
100
AcDbEntity
  8
0
  6
Continuous
 62
     7
370
    15
100
AcDbLine
 10
182.9667512523
 20
112.0465731195
 30
0.0
 11
182.9667512523
 21
103.4621976076
 31
0.0
  0
SPLINE
  5
C1
330
1F
100
AcDbEntity
  8
0
  6
Continuous
 62
     7
370
    15
100
AcDbSpline
210
0.0
220
0.0
230
1.0
 70
     8
 71
     3
 72
    16
 73
    12
 74
     0
 42
0.00000001
 43
0.00000001
 12
1.0
 22
0.0
 32
0.0
 13
1.0
 23
0.0
 33
0.0
 40
0.0
 40
0.0
 40
0.0
 40
0.0
 40
0.5
 40
0.5
 40
0.75
 40
0.75
 40
0.875
 40
0.875
 40
0.9375
 40
0.9375
 40
1.0
 40
1.0
 40
1.0
 40
1.0
 10
182.9667512523371
 20
112.0465731195205
 30
0.0
 10
182.9667512523371
 20
112.16414850054
 30
0.0
 10
182.9628678271782
 20
112.2828442536412
 30
0.0
 10
182.9380525019035
 20
112.4636017316337
 30
0.0
 10
182.927213054191
 20
112.5252458084066
 30
0.0
 10
182.8939972721422
 20
112.6145827827479
 30
0.0
 10
182.8806155285134
 20
112.644842314173
 30
0.0
 10
182.8451058786512
 20
112.6783585581605
 30
0.0
 10
182.8296889121504
 20
112.6864969039665
 30
0.0
 10
182.7979878900018
 20
112.6864814945352
 30
0.0
 10
182.783841605051
 20
112.6794392571793
 30
0.0
 10
182.7717743634614
 20
112.6702981935697
 30
0.0
  0
SPLINE
  5
C2
330
1F
100
AcDbEntity
  8
0
  6
Continuous
 62
     7
370
    15
100
AcDbSpline
210
0.0
220
0.0
230
1.0
 70
     8
 71
     3
 72
    18
 73
    14
 74
     0
 42
0.00000001
 43
0.00000001
 12
1.0
 22
0.0
 32
0.0
 13
1.0
 23
0.0
 33
0.0
 40
0.0
 40
0.0
 40
0.0
 40
0.0
 40
0.1250000000000001
 40
0.1250000000000001
 40
0.2500000000000001
 40
0.2500000000000001
 40
0.3750000000000002
 40
0.3750000000000002
 40
0.5000000000000002
 40
0.5000000000000002
 40
0.7500000000000001
 40
0.7500000000000001
 40
1.0
 40
1.0
 40
1.0
 40
1.0
 10
182.7717743634676
 20
112.6702981935624
 30
0.0
 10
182.7230697797796
 20
112.6334039543719
 30
0.0
 10
182.6645612970041
 20
112.6038726499459
 30
0.0
 10
182.5328344817342
 20
112.594636676667
 30
0.0
 10
182.4680764102367
 20
112.617699851224
 30
0.0
 10
182.362865808086
 20
112.6852179728714
 30
0.0
 10
182.3196496595658
 20
112.728229069522
 30
0.0
 10
182.2434713434819
 20
112.8184710915181
 30
0.0
 10
182.2106165111907
 20
112.8661019729934
 30
0.0
 10
182.1202486052297
 20
113.0131662723429
 30
0.0
 10
182.0708259473901
 20
113.1170795976475
 30
0.0
 10
181.9831748217985
 20
113.3282135612878
 30
0.0
 10
181.945113274408
 20
113.4359363060466
 30
0.0
 10
181.9106669347741
 20
113.545269421956
 30
0.0
  0
SPLINE
  5
C3
330
1F
100
AcDbEntity
  8
0
  6
Continuous
 62
     7
370
    15
100
AcDbSpline
210
0.0
220
0.0
230
1.0
 70
     8
 71
     3
 72
     8
 73
     4
 74
     0
 42
0.00000001
 43
0.00000001
 12
1.0
 22
0.0
 32
0.0
 13
1.0
 23
0.0
 33
0.0
 40
0.0
 40
0.0
 40
0.0
 40
0.0
 40
1.0
 40
1.0
 40
1.0
 40
1.0
 10
181.8454309087773
 20
113.780473196085
 30
0.0
 10
181.8648571140762
 20
113.7008809245121
 30
0.0
 10
181.8863539385047
 20
113.6224391783794
 30
0.0
 10
181.9106669347741
 20
113.545269421956
 30
0.0
  0
SPLINE
  5
C4
330
1F
100
AcDbEntity
  8
0
  6
Continuous
 62
     7
370
    15
100
AcDbSpline
210
0.0
220
0.0
230
1.0
 70
     8
 71
     3
 72
     8
 73
     4
 74
     0
 42
0.00000001
 43
0.00000001
 12
1.0
 22
0.0
 32
0.0
 13
1.0
 23
0.0
 33
0.0
 40
0.0
 40
0.0
 40
0.0
 40
0.0
 40
1.0
 40
1.0
 40
1.0
 40
1.0
 10
181.9106669347741
 20
121.5587663510106
 30
0.0
 10
181.8863539385047
 20
121.4815965945872
 30
0.0
 10
181.8648571140762
 20
121.4031548484545
 30
0.0
 10
181.8454309087773
 20
121.3235625768817
 30
0.0
  0
SPLINE
  5
C5
330
1F
100
AcDbEntity
  8
0
  6
Continuous
 62
     7
370
    15
100
AcDbSpline
210
0.0
220
0.0
230
1.0
 70
     8
 71
     3
 72
    18
 73
    14
 74
     0
 42
0.00000001
 43
0.00000001
 12
1.0
 22
0.0
 32
0.0
 13
1.0
 23
0.0
 33
0.0
 40
0.0
 40
0.0
 40
0.0
 40
0.0
 40
0.2500000000000006
 40
0.2500000000000006
 40
0.5000000000000011
 40
0.5000000000000011
 40
0.6250000000000008
 40
0.6250000000000008
 40
0.7500000000000006
 40
0.7500000000000006
 40
0.8750000000000002
 40
0.8750000000000002
 40
1.0
 40
1.0
 40
1.0
 40
1.0
 10
181.9106669347741
 20
121.5587663510105
 30
0.0
 10
181.9449652537867
 20
121.6676296476036
 30
0.0
 10
181.9827796510987
 20
121.7746370708399
 30
0.0
 10
182.0693677121723
 20
121.9836718949783
 30
0.0
 10
182.1177178178509
 20
122.0858419889678
 30
0.0
 10
182.2070344066507
 20
122.2325227605325
 30
0.0
 10
182.239594762139
 20
122.2803244590681
 30
0.0
 10
182.3158403958679
 20
122.3718799970935
 30
0.0
 10
182.3589997656479
 20
122.4155593890854
 30
0.0
 10
182.464728589666
 20
122.484913606412
 30
0.0
 10
182.5297257667208
 20
122.5090299200779
 30
0.0
 10
182.663210256675
 20
122.5008256980397
 30
0.0
 10
182.7225376501205
 20
122.4710349124477
 30
0.0
 10
182.7717743634619
 20
122.4337375793966
 30
0.0
  0
SPLINE
  5
C6
330
1F
100
AcDbEntity
  8
0
  6
Continuous
 62
     7
370
    15
100
AcDbSpline
210
0.0
220
0.0
230
1.0
 70
     8
 71
     3
 72
    16
 73
    12
 74
     0
 42
0.00000001
 43
0.00000001
 12
1.0
 22
0.0
 32
0.0
 13
1.0
 23
0.0
 33
0.0
 40
0.0
 40
0.0
 40
0.0
 40
0.0
 40
0.0624999999999989
 40
0.0624999999999989
 40
0.1249999999999977
 40
0.1249999999999977
 40
0.2499999999999978
 40
0.2499999999999978
 40
0.4999999999999978
 40
0.4999999999999978
 40
1.0
 40
1.0
 40
1.0
 40
1.0
 10
182.7717743634311
 20
122.4337375793483
 30
0.0
 10
182.7838441967069
 20
122.4245945525025
 30
0.0
 10
182.7981198516402
 20
122.4175501048113
 30
0.0
 10
182.8295842637646
 20
122.4175430329127
 30
0.0
 10
182.845084788575
 20
122.4256710017096
 30
0.0
 10
182.8805236851819
 20
122.4590794627168
 30
0.0
 10
182.8941163012852
 20
122.4897466291789
 30
0.0
 10
182.9271106196781
 20
122.5785676232607
 30
0.0
 10
182.9378980129968
 20
122.6394702688086
 30
0.0
 10
182.962951260276
 20
122.8214783461869
 30
0.0
 10
182.9667512523372
 20
122.9401670612255
 30
0.0
 10
182.9667512523373
 20
123.0574626534461
 30
0.0
  0
LINE
  5
C7
330
1F
100
AcDbEntity
  8
0
  6
Continuous
 62
     7
370
    15
100
AcDbLine
 10
182.9667512523
 20
131.6418381654
 30
0.0
 11
182.9667512523
 21
123.0574626534
 31
0.0
  0
SPLINE
  5
C8
330
1F
100
AcDbEntity
  8
0
  6
Continuous
 62
     7
370
    15
100
AcDbSpline
210
0.0
220
0.0
230
1.0
 70
     8
 71
     3
 72
    16
 73
    12
 74
     0
 42
0.00000001
 43
0.00000001
 12
1.0
 22
0.0
 32
0.0
 13
1.0
 23
0.0
 33
0.0
 40
0.0
 40
0.0
 40
0.0
 40
0.0
 40
0.5000000000000002
 40
0.5000000000000002
 40
0.7499999999999994
 40
0.7499999999999994
 40
0.8749999999999998
 40
0.8749999999999998
 40
0.9375
 40
0.9375
 40
1.0
 40
1.0
 40
1.0
 40
1.0
 10
182.9667512523371
 20
131.5368297931434
 30
0.0
 10
182.9667512523371
 20
131.521264565704
 30
0.0
 10
182.9628678271782
 20
131.502093187856
 30
0.0
 10
182.9380525019035
 20
131.4633208058741
 30
0.0
 10
182.927213054191
 20
131.4486700296717
 30
0.0
 10
182.8939972721422
 20
131.421625785692
 30
0.0
 10
182.8806155285134
 20
131.411647686552
 30
0.0
 10
182.8451058786511
 20
131.3951731507649
 30
0.0
 10
182.8296889121504
 20
131.389421059975
 30
0.0
 10
182.7979878900018
 20
131.3815005395484
 30
0.0
 10
182.7838416050511
 20
131.3796177035297
 30
0.0
 10
182.7717743634614
 20
131.3787438690674
 30
0.0
  0
SPLINE
  5
C9
330
1F
100
AcDbEntity
  8
0
  6
Continuous
 62
     7
370
    15
100
AcDbSpline
210
0.0
220
0.0
230
1.0
 70
     8
 71
     3
 72
    18
 73
    14
 74
     0
 42
0.00000001
 43
0.00000001
 12
1.0
 22
0.0
 32
0.0
 13
1.0
 23
0.0
 33
0.0
 40
0.0
 40
0.0
 40
0.0
 40
0.0
 40
0.125
 40
0.125
 40
0.2500000000000001
 40
0.2500000000000001
 40
0.3750000000000001
 40
0.3750000000000001
 40
0.5000000000000001
 40
0.5000000000000001
 40
0.75
 40
0.75
 40
1.0
 40
1.0
 40
1.0
 40
1.0
 10
182.7717743634676
 20
131.3787438690672
 30
0.0
 10
182.7230702344508
 20
131.3752170194491
 30
0.0
 10
182.6645625652462
 20
131.3717167462514
 30
0.0
 10
182.5328369026153
 20
131.3676737623635
 30
0.0
 10
182.468079263995
 20
131.3675621877329
 30
0.0
 10
182.3628688473759
 20
131.3690943724943
 30
0.0
 10
182.3196528124357
 20
131.3705495247094
 30
0.0
 10
182.2434745909547
 20
131.3734747862391
 30
0.0
 10
182.2106198232706
 20
131.3749851167474
 30
0.0
 10
182.1202521044288
 20
131.3791271094358
 30
0.0
 10
182.0708297352394
 20
131.3813651944223
 30
0.0
 10
181.9831772731514
 20
131.3838164774687
 30
0.0
 10
181.9451145369169
 20
131.3840717128298
 30
0.0
 10
181.9106669347736
 20
131.3832062691619
 30
0.0
  0
SPLINE
  5
CA
330
1F
100
AcDbEntity
  8
0
  6
Continuous
 62
     7
370
    15
100
AcDbSpline
210
0.0
220
0.0
230
1.0
 70
     8
 71
     3
 72
     8
 73
     4
 74
     0
 42
0.00000001
 43
0.00000001
 12
1.0
 22
0.0
 32
0.0
 13
1.0
 23
0.0
 33
0.0
 40
0.0
 40
0.0
 40
0.0
 40
0.0
 40
1.0
 40
1.0
 40
1.0
 40
1.0
 10
181.6717112743978
 20
114.6055270821196
 30
0.0
 10
181.7224383571202
 20
114.3221759608004
 30
0.0
 10
181.7803256701073
 20
114.0472197766606
 30
0.0
 10
181.8454309087775
 20
113.780473196085
 30
0.0
  0
SPLINE
  5
CB
330
1F
100
AcDbEntity
  8
0
  6
Continuous
 62
     7
370
    15
100
AcDbSpline
210
0.0
220
0.0
230
1.0
 70
     8
 71
     3
 72
    24
 73
    20
 74
     0
 42
0.00000001
 43
0.00000001
 12
1.0
 22
0.0
 32
0.0
 13
1.0
 23
0.0
 33
0.0
 40
0.0
 40
0.0
 40
0.0
 40
0.0
 40
0.2500000000000067
 40
0.2500000000000067
 40
0.3750000000000105
 40
0.3750000000000105
 40
0.4375000000000124
 40
0.4375000000000124
 40
0.4687500000000134
 40
0.4687500000000134
 40
0.5000000000000143
 40
0.5000000000000143
 40
0.5625000000000125
 40
0.5625000000000125
 40
0.6250000000000108
 40
0.6250000000000108
 40
0.7500000000000062
 40
0.7500000000000062
 40
1.0
 40
1.0
 40
1.0
 40
1.0
 10
181.4667512523288
 20
114.6058194904129
 30
0.0
 10
181.4671542817027
 20
114.6990877830425
 30
0.0
 10
181.4691840214178
 20
114.7928453418915
 30
0.0
 10
181.4784927328376
 20
114.9344352275311
 30
0.0
 10
181.4824187259522
 20
114.9816156461403
 30
0.0
 10
181.4933480858682
 20
115.0522116928258
 30
0.0
 10
181.4974697139625
 20
115.0759916065906
 30
0.0
 10
181.5093642351449
 20
115.1094427536378
 30
0.0
 10
181.5146510470988
 20
115.1215977057075
 30
0.0
 10
181.5312189786137
 20
115.1294803446755
 30
0.0
 10
181.5391456873811
 20
115.1219167455733
 30
0.0
 10
181.5561380256063
 20
115.0981243143465
 30
0.0
 10
181.5635357263972
 20
115.077935836502
 30
0.0
 10
181.577638116739
 20
115.0374862118821
 30
0.0
 10
181.5837912740313
 20
115.0166305374847
 30
0.0
 10
181.6011050074924
 20
114.9535055021836
 30
0.0
 10
181.6111100483809
 20
114.9105263902821
 30
0.0
 10
181.6394665046116
 20
114.7808007459933
 30
0.0
 10
181.6560150439579
 20
114.6932030188573
 30
0.0
 10
181.6717112743979
 20
114.6055270821196
 30
0.0
  0
SPLINE
  5
CC
330
1F
100
AcDbEntity
  8
0
  6
Continuous
 62
     7
370
    15
100
AcDbSpline
210
0.0
220
0.0
230
1.0
 70
     8
 71
     3
 72
    16
 73
    12
 74
     0
 42
0.00000001
 43
0.00000001
 12
1.0
 22
0.0
 32
0.0
 13
1.0
 23
0.0
 33
0.0
 40
0.0
 40
0.0
 40
0.0
 40
0.0
 40
0.2499999999999999
 40
0.2499999999999999
 40
0.375
 40
0.375
 40
0.5000000000000001
 40
0.5000000000000001
 40
0.75
 40
0.75
 40
1.0
 40
1.0
 40
1.0
 40
1.0
 10
181.4667512523371
 20
120.4982162825525
 30
0.0
 10
181.3862144429417
 20
120.0291434556894
 30
0.0
 10
181.3261770341394
 20
119.5487798055095
 30
0.0
 10
181.2654390868922
 20
118.8115955263686
 30
0.0
 10
181.2501166058493
 20
118.5630771231415
 30
0.0
 10
181.2295336540714
 20
118.0602936779278
 30
0.0
 10
181.2243341070348
 20
117.8054351249032
 30
0.0
 10
181.2242803964946
 20
117.0491577851825
 30
0.0
 10
181.2444777337637
 20
116.5504995858727
 30
0.0
 10
181.3251560408367
 20
115.5640766151285
 30
0.0
 10
181.3862023891779
 20
115.0749625223555
 30
0.0
 10
181.4667512523371
 20
114.6058194904141
 30
0.0
  0
SPLINE
  5
CD
330
1F
100
AcDbEntity
  8
0
  6
Continuous
 62
     7
370
    15
100
AcDbSpline
210
0.0
220
0.0
230
1.0
 70
     8
 71
     3
 72
    24
 73
    20
 74
     0
 42
0.00000001
 43
0.00000001
 12
1.0
 22
0.0
 32
0.0
 13
1.0
 23
0.0
 33
0.0
 40
0.0
 40
0.0
 40
0.0
 40
0.0
 40
0.2499999999999913
 40
0.2499999999999913
 40
0.3749999999999876
 40
0.3749999999999876
 40
0.4374999999999871
 40
0.4374999999999871
 40
0.4999999999999866
 40
0.4999999999999866
 40
0.5312499999999875
 40
0.5312499999999875
 40
0.5624999999999883
 40
0.5624999999999883
 40
0.62499999999999
 40
0.62499999999999
 40
0.7499999999999933
 40
0.7499999999999933
 40
1.0
 40
1.0
 40
1.0
 40
1.0
 10
181.6717112743929
 20
120.4985086908189
 30
0.0
 10
181.6559422294834
 20
120.4104260273304
 30
0.0
 10
181.639328064923
 20
120.3224812108233
 30
0.0
 10
181.6107959374297
 20
120.1921338435641
 30
0.0
 10
181.6007083038759
 20
120.1488726657632
 30
0.0
 10
181.5832204810267
 20
120.0854368899299
 30
0.0
 10
181.5770106731003
 20
120.0645227663869
 30
0.0
 10
181.5627328135174
 20
120.0240479747037
 30
0.0
 10
181.5551616511655
 20
120.0035703312448
 30
0.0
 10
181.5377418259883
 20
119.9807239517131
 30
0.0
 10
181.5292577435302
 20
119.9741721546765
 30
0.0
 10
181.5132216699171
 20
119.9847435299169
 30
0.0
 10
181.5084012976413
 20
119.9968345702002
 30
0.0
 10
181.4969943970383
 20
120.03047781342
 30
0.0
 10
181.4929734353292
 20
120.0538854927162
 30
0.0
 10
181.4822194235511
 20
120.1244740957756
 30
0.0
 10
181.4783475379286
 20
120.1714391232968
 30
0.0
 10
181.4691795731284
 20
120.3120159878992
 30
0.0
 10
181.4671512386153
 20
120.4056522175163
 30
0.0
 10
181.4667512523371
 20
120.4982162825525
 30
0.0
  0
SPLINE
  5
CE
330
1F
100
AcDbEntity
  8
0
  6
Continuous
 62
     7
370
    15
100
AcDbSpline
210
0.0
220
0.0
230
1.0
 70
     8
 71
     3
 72
     8
 73
     4
 74
     0
 42
0.00000001
 43
0.00000001
 12
1.0
 22
0.0
 32
0.0
 13
1.0
 23
0.0
 33
0.0
 40
0.0
 40
0.0
 40
0.0
 40
0.0
 40
1.0
 40
1.0
 40
1.0
 40
1.0
 10
181.8454309087775
 20
121.3235625768816
 30
0.0
 10
181.7803256701052
 20
121.0568159962972
 30
0.0
 10
181.7224383571164
 20
120.781859812148
 30
0.0
 10
181.6717112743928
 20
120.4985086908189
 30
0.0
  0
LINE
  5
CF
330
1F
100
AcDbEntity
  8
0
  6
Continuous
 62
     7
370
    15
100
AcDbLine
 10
181.4667512523
 20
114.6058194904
 30
0.0
 11
181.4667512523
 21
113.450814221
 31
0.0
  0
LINE
  5
D0
330
1F
100
AcDbEntity
  8
0
  6
Continuous
 62
     7
370
    15
100
AcDbLine
 10
160.6667512523
 20
121.3919373526
 30
0.0
 11
160.6667512523
 21
113.7120984204
 31
0.0
  0
LINE
  5
D1
330
1F
100
AcDbEntity
  8
0
  6
Continuous
 62
     7
370
    15
100
AcDbLine
 10
181.4667512523
 20
121.653221552
 30
0.0
 11
181.4667512523
 21
120.4982162826
 31
0.0
  0
LINE
  5
D2
330
1F
100
AcDbEntity
  8
0
  6
Continuous
 62
     7
370
    15
100
AcDbLine
 10
159.1667512523
 20
120.9589246507
 30
0.0
 11
159.1667512523
 21
114.1451111223
 31
0.0
  0
LINE
  5
D3
330
1F
100
AcDbEntity
  8
0
  6
Continuous
 62
     7
370
    15
100
AcDbLine
 10
181.6717112744
 20
131.3772028712
 30
0.0
 11
181.9106669348
 21
131.3832062692
 31
0.0
  0
LINE
  5
D4
330
1F
100
AcDbEntity
  8
0
  6
Continuous
 62
     7
370
    15
100
AcDbLine
 10
160.6667512523
 20
104.0544875006
 30
0.0
 11
160.6667512523
 21
113.7120984204
 31
0.0
  0
LINE
  5
D5
330
1F
100
AcDbEntity
  8
0
  6
Continuous
 62
     7
370
    15
100
AcDbLine
 10
181.4667512523
 20
103.5319191019
 30
0.0
 11
181.4667512523
 21
113.450814221
 31
0.0
  0
LINE
  5
D6
330
1F
100
AcDbEntity
  8
0
  6
Continuous
 62
     7
370
    15
100
AcDbLine
 10
160.6667512523
 20
104.0544875006
 30
0.0
 11
181.4667512523
 21
103.5319191019
 31
0.0
  0
ARC
  5
D7
330
1F
100
AcDbEntity
  8
0
  6
Continuous
 62
     7
370
    15
100
AcDbCircle
 10
181.6666881633
 20
103.5268959908
 30
0.0
 40
0.2000000000000059
100
AcDbArc
 50
88.5608333333
 51
178.5608333333
  0
LINE
  5
D8
330
1F
100
AcDbEntity
  8
0
  6
Continuous
 62
     7
370
    15
100
AcDbLine
 10
181.4667512523
 20
121.653221552
 30
0.0
 11
181.4667512523
 21
131.572116671
 31
0.0
  0
ARC
  5
D9
330
1F
100
AcDbEntity
  8
0
  6
Continuous
 62
     7
370
    15
100
AcDbCircle
 10
181.6666881633
 20
131.5771397822
 30
0.0
 40
0.2000000000000336
100
AcDbArc
 50
181.4391666667
 51
271.4391666667
  0
LINE
  5
DA
330
1F
100
AcDbEntity
  8
0
  6
Continuous
 62
     7
370
    15
100
AcDbLine
 10
160.6667512523
 20
121.3919373526
 30
0.0
 11
160.6667512523
 21
131.0495482723
 31
0.0
  0
LINE
  5
DB
330
1F
100
AcDbEntity
  8
0
  6
Continuous
 62
     7
370
    15
100
AcDbLine
 10
160.6667512523
 20
131.0495482723
 30
0.0
 11
181.4667512523
 21
131.572116671
 31
0.0
  0
LINE
  5
DC
330
1F
100
AcDbEntity
  8
0
  6
Continuous
 62
     7
370
    15
100
AcDbLine
 10
181.6717112744
 20
103.7268329017
 30
0.0
 11
181.9106669348
 21
103.7208295038
 31
0.0
  0
LINE
  5
DD
330
1F
100
AcDbEntity
  8
0
  6
Continuous
 62
     7
370
    15
100
AcDbLine
 10
159.1667512523
 20
130.1835228685
 30
0.0
 11
160.6667512523
 21
131.0495482723
 31
0.0
  0
LINE
  5
DE
330
1F
100
AcDbEntity
  8
0
  6
Continuous
 62
     7
370
    15
100
AcDbLine
 10
159.1667512523
 20
120.9589246507
 30
0.0
 11
159.1667512523
 21
130.1835228685
 31
0.0
  0
LINE
  5
DF
330
1F
100
AcDbEntity
  8
0
  6
Continuous
 62
     7
370
    15
100
AcDbLine
 10
159.1667512523
 20
104.9205129044
 30
0.0
 11
160.6667512523
 21
104.0544875006
 31
0.0
  0
LINE
  5
E0
330
1F
100
AcDbEntity
  8
0
  6
Continuous
 62
     7
370
    15
100
AcDbLine
 10
159.1667512523
 20
104.9205129044
 30
0.0
 11
159.1667512523
 21
114.1451111223
 31
0.0
  0
SPLINE
  5
E1
330
1F
100
AcDbEntity
  8
0
  6
Continuous
 62
     7
370
    15
100
AcDbSpline
210
0.0
220
0.0
230
1.0
 70
     8
 71
     3
 72
     8
 73
     4
 74
     0
 42
0.00000001
 43
0.00000001
 12
1.0
 22
0.0
 32
0.0
 13
1.0
 23
0.0
 33
0.0
 40
0.0
 40
0.0
 40
0.0
 40
0.0
 40
1.0
 40
1.0
 40
1.0
 40
1.0
 10
205.7135640216163
 20
136.1892395981479
 30
0.0
 10
205.6061679179197
 20
136.1482157179278
 30
0.0
 10
205.4983639928188
 20
136.1197897736823
 30
0.0
 10
205.399424264358
 20
136.0977108035626
 30
0.0
  0
SPLINE
  5
E2
330
1F
100
AcDbEntity
  8
0
  6
Continuous
 62
     7
370
    15
100
AcDbSpline
210
0.0
220
0.0
230
1.0
 70
     8
 71
     3
 72
     8
 73
     4
 74
     0
 42
0.00000001
 43
0.00000001
 12
1.0
 22
0.0
 32
0.0
 13
1.0
 23
0.0
 33
0.0
 40
0.0
 40
0.0
 40
0.0
 40
0.0
 40
1.0
 40
1.0
 40
1.0
 40
1.0
 10
205.3994242643581
 20
97.85492879608672
 30
0.0
 10
205.4983361570618
 20
97.8447058184628
 30
0.0
 10
205.6061583771672
 20
97.82328893650092
 30
0.0
 10
205.7135640216163
 20
97.78462141118985
 30
0.0
  0
SPLINE
  5
E3
330
1F
100
AcDbEntity
  8
0
  6
Continuous
 62
     7
370
    15
100
AcDbSpline
210
0.0
220
0.0
230
1.0
 70
     8
 71
     3
 72
    12
 73
     8
 74
     0
 42
0.00000001
 43
0.00000001
 12
1.0
 22
0.0
 32
0.0
 13
1.0
 23
0.0
 33
0.0
 40
0.0
 40
0.0
 40
0.0
 40
0.0
 40
0.5
 40
0.5
 40
0.75
 40
0.75
 40
1.0
 40
1.0
 40
1.0
 40
1.0
 10
205.7135640216163
 20
97.78462141118962
 30
0.0
 10
205.8732918616732
 20
97.7271171680005
 30
0.0
 10
206.0162932938722
 20
97.62897317920795
 30
0.0
 10
206.1845277215645
 20
97.44125695160604
 30
0.0
 10
206.2337593662825
 20
97.37086013232127
 30
0.0
 10
206.3132033320552
 20
97.22225432628113
 30
0.0
 10
206.3439352821654
 20
97.14386991077089
 30
0.0
 10
206.3653500906472
 20
97.06125547398305
 30
0.0
  0
LINE
  5
E4
330
1F
100
AcDbEntity
  8
0
  6
Continuous
 62
     7
370
    15
100
AcDbLine
 10
206.2654496681
 20
136.6746872966
 30
0.0
 11
206.2654496681
 21
138.0520178865
 31
0.0
  0
SPLINE
  5
E5
330
1F
100
AcDbEntity
  8
0
  6
Continuous
 62
     7
370
    15
100
AcDbSpline
210
0.0
220
0.0
230
1.0
 70
     8
 71
     3
 72
     8
 73
     4
 74
     0
 42
0.00000001
 43
0.00000001
 12
1.0
 22
0.0
 32
0.0
 13
1.0
 23
0.0
 33
0.0
 40
0.0
 40
0.0
 40
0.0
 40
0.0
 40
1.0
 40
1.0
 40
1.0
 40
1.0
 10
206.2654496681426
 20
136.67468729659
 30
0.0
 10
206.1459189786891
 20
136.4567127069588
 30
0.0
 10
205.9481662444337
 20
136.2788545204491
 30
0.0
 10
205.7135640216163
 20
136.1892395981479
 30
0.0
  0
ELLIPSE
  5
E6
330
1F
100
AcDbEntity
  8
0
  6
Continuous
 62
     7
370
    15
100
AcDbEllipse
 10
257.1488107572
 20
117.5520178865
 30
0.0
 11
195.0443398746503
 21
2.16650078466273
 31
0.0
210
0.0
220
0.0
230
1.0
 40
0.1045157088
 41
1.790421554752244
 42
1.833569898387406
  0
LINE
  5
E7
330
1F
100
AcDbEntity
  8
0
  6
Continuous
 62
     7
370
    15
100
AcDbLine
 10
230.0478081808
 20
114.8492488534
 30
0.0
 11
214.4347020602
 21
136.9755436562
 31
0.0
  0
LINE
  5
E8
330
1F
100
AcDbEntity
  8
0
  6
Continuous
 62
     7
370
    15
100
AcDbLine
 10
231.0513812619
 20
103.3893816864
 30
0.0
 11
230.0478081808
 21
114.8492488534
 31
0.0
  0
LINE
  5
E9
330
1F
100
AcDbEntity
  8
0
  6
Continuous
 62
     7
370
    15
100
AcDbLine
 10
218.8525737923
 20
104.3226182629
 30
0.0
 11
231.0513812619
 21
103.3893816864
 31
0.0
  0
ARC
  5
EA
330
1F
100
AcDbEntity
  8
0
  6
Continuous
 62
     7
370
    15
100
AcDbCircle
 10
218.6542750032
 20
101.9916758543
 30
0.0
 40
2.339362075903198
100
AcDbArc
 50
85.137420499
 51
264.8721335037
  0
LINE
  5
EB
330
1F
100
AcDbEntity
  8
0
  6
Continuous
 62
     7
370
    15
100
AcDbLine
 10
219.6946062755
 20
99.5660930637
 30
0.0
 11
218.4451858083
 21
99.6616765773
 31
0.0
  0
LINE
  5
EC
330
1F
100
AcDbEntity
  8
0
  6
Continuous
 62
     7
370
    15
100
AcDbLine
 10
220.3166527048
 20
92.4629038822
 30
0.0
 11
219.6946062755
 21
99.5660930637
 31
0.0
  0
ELLIPSE
  5
ED
330
1F
100
AcDbEntity
  8
0
  6
Continuous
 62
     7
370
    15
100
AcDbEllipse
 10
253.6783424833
 20
114.0624333031
 30
0.0
 11
215.3493833991798
 21
-20.26302228663621
 31
0.0
210
0.0
220
0.0
230
1.0
 40
0.1150714178
 41
4.505550160485992
 42
4.567679882305605
  0
SPLINE
  5
EE
330
1F
100
AcDbEntity
  8
0
  6
Continuous
 62
     7
370
    15
100
AcDbSpline
210
0.0
220
0.0
230
1.0
 70
     8
 71
     3
 72
     8
 73
     4
 74
     0
 42
0.00000001
 43
0.00000001
 12
1.0
 22
0.0
 32
0.0
 13
1.0
 23
0.0
 33
0.0
 40
0.0
 40
0.0
 40
0.0
 40
0.0
 40
1.0
 40
1.0
 40
1.0
 40
1.0
 10
206.3653500906472
 20
97.06125547398305
 30
0.0
 10
206.6324214985829
 20
96.03094254975312
 30
0.0
 10
206.9010314976207
 20
95.00104781859504
 30
0.0
 10
207.1706626868427
 20
93.97143064959074
 30
0.0
  0
CIRCLE
  5
EF
330
1F
100
AcDbEntity
  8
0
  6
Continuous
 62
     7
370
    15
100
AcDbCircle
 10
221.8322308502
 20
109.4200545842
 30
0.0
 40
3.976282661240949
  0
ELLIPSE
  5
F0
330
1F
100
AcDbEntity
  8
0
  6
Continuous
 62
     7
370
    15
100
AcDbEllipse
 10
228.0458048891
 20
117.5520178865
 30
0.0
 11
-14.5871860935238
 21
20.49781058791139
 31
0.0
210
0.0
220
0.0
230
1.0
 40
0.0205386817
 41
5.943064160705669
 42
6.268570076028066
  0
SPLINE
  5
F1
330
1F
100
AcDbEntity
  8
0
  6
Continuous
 62
     7
370
    15
100
AcDbSpline
210
0.0
220
0.0
230
1.0
 70
     8
 71
     3
 72
     9
 73
     5
 74
     0
 42
0.00000001
 43
0.00000001
 12
1.0
 22
0.0
 32
0.0
 13
1.0
 23
0.0
 33
0.0
 40
0.0
 40
0.0
 40
0.0
 40
0.0
 40
0.4526737701253988
 40
1.0
 40
1.0
 40
1.0
 40
1.0
 10
207.1688828268254
 20
93.83535716283919
 30
0.0
 10
207.1688347425394
 20
93.83168268252214
 30
0.0
 10
207.1687285197158
 20
93.82356540124906
 30
0.0
 10
207.1699785257518
 20
93.91912718097386
 30
0.0
 10
207.1706626868427
 20
93.97143064959074
 30
0.0
  0
ELLIPSE
  5
F2
330
1F
100
AcDbEntity
  8
0
  6
Continuous
 62
     7
370
    15
100
AcDbEllipse
 10
217.6975343983
 20
117.8441686211
 30
0.0
 11
-2.547289797953396
 21
25.40076590679334
 31
0.0
210
0.0
220
0.0
230
1.0
 40
0.0928940858
 41
3.122312449060421
 42
3.172556282136911
  0
ARC
  5
F3
330
1F
100
AcDbEntity
  8
0
  6
Continuous
 62
     7
370
    15
100
AcDbCircle
 10
218.1284876331
 20
102.455669415
 30
0.0
 40
2.312001507738958
100
AcDbArc
 50
233.8494716611
 51
265.6693154788
  0
LINE
  5
F4
330
1F
100
AcDbEntity
  8
0
  6
Continuous
 62
     7
370
    15
100
AcDbLine
 10
219.2015062233
 20
100.3369444747
 30
0.0
 11
217.6465883489
 21
100.4558992362
 31
0.0
  0
LINE
  5
F5
330
1F
100
AcDbEntity
  8
0
  6
Continuous
 62
     7
370
    15
100
AcDbLine
 10
219.2263789062
 20
100.0529216694
 30
0.0
 11
219.2033224981
 21
100.0546855372
 31
0.0
  0
LINE
  5
F6
330
1F
100
AcDbEntity
  8
0
  6
Continuous
 62
     7
370
    15
100
AcDbLine
 10
219.2033224981
 20
100.0546855372
 30
0.0
 11
219.6946062755
 21
99.5660930637
 31
0.0
  0
ARC
  5
F7
330
1F
100
AcDbEntity
  8
0
  6
Continuous
 62
     7
370
    15
100
AcDbCircle
 10
218.1087624323
 20
102.206953746
 30
0.0
 40
2.062506649555663
100
AcDbArc
 50
225.1857696444
 51
265.6939748603
  0
LINE
  5
F8
330
1F
100
AcDbEntity
  8
0
  6
Continuous
 62
     7
370
    15
100
AcDbLine
 10
218.3791035437
 20
104.3106875571
 30
0.0
 11
218.8567140293
 21
104.2741492663
 31
0.0
  0
ARC
  5
F9
330
1F
100
AcDbEntity
  8
0
  6
Continuous
 62
     7
370
    15
100
AcDbCircle
 10
217.8025295512
 20
102.5159189159
 30
0.0
 40
2.065913536239018
100
AcDbArc
 50
234.6917173946
 51
265.6710293134
  0
ARC
  5
FA
330
1F
100
AcDbEntity
  8
0
  6
Continuous
 62
     7
370
    15
100
AcDbCircle
 10
224.7656377866
 20
98.8508083533
 30
0.0
 40
3.19471090258557
100
AcDbArc
 50
264.0115651642
 51
292.2350196986
  0
LWPOLYLINE
  5
FB
330
1F
100
AcDbEntity
  8
0
  6
Continuous
 62
     7
370
    15
100
AcDbPolyline
 90
        3
 70
   128
 43
0.0
 10
227.9827785066
 20
98.857827249
 10
227.9656224484
 20
99.2038521143
 10
227.9633551999
 20
99.2248709522
  0
SPLINE
  5
FC
330
1F
100
AcDbEntity
  8
0
  6
HIDDEN
 62
     7
370
     0
100
AcDbSpline
210
0.0
220
0.0
230
1.0
 70
     8
 71
     3
 72
    68
 73
    64
 74
     0
 42
0.00000001
 43
0.00000001
 12
1.0
 22
0.0
 32
0.0
 13
1.0
 23
0.0
 33
0.0
 40
-0.0625000000000004
 40
-0.0625000000000004
 40
0.0
 40
0.0
 40
0.03125
 40
0.03125
 40
0.0624999999999999
 40
0.0624999999999999
 40
0.0937499999999999
 40
0.0937499999999999
 40
0.1249999999999999
 40
0.1249999999999999
 40
0.1562499999999998
 40
0.1562499999999998
 40
0.1874999999999998
 40
0.1874999999999998
 40
0.2187499999999998
 40
0.2187499999999998
 40
0.2499999999999997
 40
0.2499999999999997
 40
0.2812499999999997
 40
0.2812499999999997
 40
0.3124999999999997
 40
0.3124999999999997
 40
0.3437499999999996
 40
0.3437499999999996
 40
0.3749999999999996
 40
0.3749999999999996
 40
0.4062499999999996
 40
0.4062499999999996
 40
0.4374999999999995
 40
0.4374999999999995
 40
0.4687499999999995
 40
0.4687499999999995
 40
0.4999999999999994
 40
0.4999999999999994
 40
0.5312499999999994
 40
0.5312499999999994
 40
0.5624999999999993
 40
0.5624999999999993
 40
0.5937499999999993
 40
0.5937499999999993
 40
0.6249999999999993
 40
0.6249999999999993
 40
0.6562499999999992
 40
0.6562499999999992
 40
0.6874999999999992
 40
0.6874999999999992
 40
0.7187499999999992
 40
0.7187499999999992
 40
0.7499999999999991
 40
0.7499999999999991
 40
0.7812499999999991
 40
0.7812499999999991
 40
0.8124999999999992
 40
0.8124999999999992
 40
0.8437499999999993
 40
0.8437499999999993
 40
0.8749999999999993
 40
0.8749999999999993
 40
0.9062499999999994
 40
0.9062499999999994
 40
0.9374999999999996
 40
0.9374999999999996
 40
1.0
 40
1.0
 40
1.03125
 40
1.03125
 10
197.4974217650138
 20
127.3033466653773
 30
0.0
 10
197.0014159959989
 20
127.3033466653773
 30
0.0
 10
196.8388762535762
 20
127.2890631499427
 30
0.0
 10
196.5191490438788
 20
127.233037855046
 30
0.0
 10
196.3602924672935
 20
127.1906042877841
 30
0.0
 10
196.0576205690646
 20
127.0796742812813
 30
0.0
 10
195.9140927534685
 20
127.0117051233093
 30
0.0
 10
195.6424609745212
 20
126.8506043446388
 30
0.0
 10
195.5139763421981
 20
126.7566896253873
 30
0.0
 10
195.2836195862377
 20
126.5507196074812
 30
0.0
 10
195.1801920862748
 20
126.4379330520259
 30
0.0
 10
194.9974270097196
 20
126.1917426733062
 30
0.0
 10
194.9198606339981
 20
126.0603069201871
 30
0.0
 10
194.7951254410019
 20
125.7868616848622
 30
0.0
 10
194.7470450976591
 20
125.6428249953131
 30
0.0
 10
194.6827615888478
 20
125.3465048881921
 30
0.0
 10
194.6668422612914
 20
125.1967636121562
 30
0.0
 10
194.6666610141051
 20
124.8941098981206
 30
0.0
 10
194.6829250433857
 20
124.7396050665518
 30
0.0
 10
194.7467652611849
 20
124.439277882825
 30
0.0
 10
194.7939988057719
 20
124.2925671464749
 30
0.0
 10
194.9193039720003
 20
124.0063205005675
 30
0.0
 10
194.9975117496254
 20
123.8675055011605
 30
0.0
 10
195.1783636321236
 20
123.6094368081588
 30
0.0
 10
195.2817357957834
 20
123.4884745776045
 30
0.0
 10
195.5148723316606
 20
123.2643950519068
 30
0.0
 10
195.6409623686449
 20
123.1647750730789
 30
0.0
 10
195.9115045049681
 20
122.9898049069385
 30
0.0
 10
196.0576994655551
 20
122.9138387445048
 30
0.0
 10
196.3603248145049
 20
122.7920028433715
 30
0.0
 10
196.5161473130539
 20
122.7459205270896
 30
0.0
 10
196.8367804853324
 20
122.6834968996349
 30
0.0
 10
197.0025856659404
 20
122.6674872810985
 30
0.0
 10
197.3290394820503
 20
122.6673678474054
 30
0.0
 10
197.4913790843389
 20
122.6827416161045
 30
0.0
 10
197.8142410719935
 20
122.7450366864285
 30
0.0
 10
197.9719817824187
 20
122.7916719736705
 30
0.0
 10
198.2729341150911
 20
122.9125351480038
 30
0.0
 10
198.418453593031
 20
122.9877151026243
 30
0.0
 10
198.6916568489216
 20
123.1640045714937
 30
0.0
 10
198.8174874968529
 20
123.2635914959154
 30
0.0
 10
199.0481673204287
 20
123.4847262921636
 30
0.0
 10
199.1537847983677
 20
123.607705024055
 30
0.0
 10
199.3353291856916
 20
123.8663632535168
 30
0.0
 10
199.4122476426852
 20
124.0025764204541
 30
0.0
 10
199.5380754378097
 20
124.2886108277952
 30
0.0
 10
199.5863357070955
 20
124.4380010958132
 30
0.0
 10
199.6502104758937
 20
124.7372737885001
 30
0.0
 10
199.6666006363594
 20
124.8887646745498
 30
0.0
 10
199.6668998213199
 20
125.1953398140346
 30
0.0
 10
199.650810452405
 20
125.3452972462734
 30
0.0
 10
199.5874950454905
 20
125.6389136885701
 30
0.0
 10
199.5394813779998
 20
125.7840896224867
 30
0.0
 10
199.4142258389899
 20
126.0593732225209
 30
0.0
 10
199.3375553913415
 20
126.1893045897278
 30
0.0
 10
199.1563456071266
 20
126.4342782435462
 30
0.0
 10
199.0509825610394
 20
126.5495946800285
 30
0.0
 10
198.8208009427251
 20
126.7556900447838
 30
0.0
 10
198.6951356028493
 20
126.8478861157014
 30
0.0
 10
198.422007368404
 20
127.0104475927151
 30
0.0
 10
198.2768876336841
 20
127.0791671783833
 30
0.0
 10
197.8259373834311
 20
127.2448543277289
 30
0.0
 10
197.4974217650138
 20
127.3033466653773
 30
0.0
 10
197.0014159959989
 20
127.3033466653773
 30
0.0
  0
SPLINE
  5
FD
330
1F
100
AcDbEntity
  8
0
  6
HIDDEN
 62
     7
370
     0
100
AcDbSpline
210
0.0
220
0.0
230
1.0
 70
     8
 71
     3
 72
    12
 73
     8
 74
     0
 42
0.00000001
 43
0.00000001
 12
1.0
 22
0.0
 32
0.0
 13
1.0
 23
0.0
 33
0.0
 40
0.0
 40
0.0
 40
0.0
 40
0.0
 40
0.4999999999999978
 40
0.4999999999999978
 40
0.7499999999999989
 40
0.7499999999999989
 40
1.0
 40
1.0
 40
1.0
 40
1.0
 10
189.838845633201
 20
136.5867741696653
 30
0.0
 10
189.8575388663314
 20
136.6085679232932
 30
0.0
 10
189.8831941637432
 20
136.6295880850029
 30
0.0
 10
189.9433547864297
 20
136.6572934309666
 30
0.0
 10
189.967427098184
 20
136.66592864716
 30
0.0
 10
190.0258086185346
 20
136.6791432923866
 30
0.0
 10
190.0612774461876
 20
136.6836742667167
 30
0.0
 10
190.0986532543363
 20
136.6836742667167
 30
0.0
  0
LINE
  5
FE
330
1F
100
AcDbEntity
  8
0
  6
HIDDEN
 62
     7
370
     0
100
AcDbLine
 10
190.0986532543
 20
136.6836742667
 30
0.0
 11
192.2348492503
 21
136.6836742667
 31
0.0
  0
SPLINE
  5
FF
330
1F
100
AcDbEntity
  8
0
  6
HIDDEN
 62
     7
370
     0
100
AcDbSpline
210
0.0
220
0.0
230
1.0
 70
     8
 71
     3
 72
    12
 73
     8
 74
     0
 42
0.00000001
 43
0.00000001
 12
1.0
 22
0.0
 32
0.0
 13
1.0
 23
0.0
 33
0.0
 40
0.0
 40
0.0
 40
0.0
 40
0.0
 40
0.2500000000000027
 40
0.2500000000000027
 40
0.5000000000000053
 40
0.5000000000000053
 40
1.0
 40
1.0
 40
1.0
 40
1.0
 10
192.2348492503379
 20
136.6836742667167
 30
0.0
 10
192.2723611363826
 20
136.6836742667167
 30
0.0
 10
192.3076484840873
 20
136.6791707224542
 30
0.0
 10
192.3665783323257
 20
136.6657975230009
 30
0.0
 10
192.3901040587948
 20
136.6573126204298
 30
0.0
 10
192.4503628465629
 20
136.6295648165952
 30
0.0
 10
192.4759576088522
 20
136.6085749528548
 30
0.0
 10
192.4946568714733
 20
136.5867741696653
 30
0.0
  0
ELLIPSE
  5
100
330
1F
100
AcDbEntity
  8
0
  6
HIDDEN
 62
     7
370
     0
100
AcDbEllipse
 10
182.2178220799
 20
117.5520178865
 30
0.0
 11
9.367417879781812
 21
19.74174915274993
 31
0.0
210
0.0
220
0.0
230
1.0
 40
0.3419987131
 41
5.185211263708412
 42
6.132113578252568
  0
SPLINE
  5
101
330
1F
100
AcDbEntity
  8
0
  6
HIDDEN
 62
     7
370
     0
100
AcDbSpline
210
0.0
220
0.0
230
1.0
 70
     8
 71
     3
 72
    12
 73
     8
 74
     0
 42
0.00000001
 43
0.00000001
 12
1.0
 22
0.0
 32
0.0
 13
1.0
 23
0.0
 33
0.0
 40
0.0
 40
0.0
 40
0.0
 40
0.0
 40
0.4999999999999994
 40
0.4999999999999994
 40
0.7499999999999997
 40
0.7499999999999997
 40
1.0
 40
1.0
 40
1.0
 40
1.0
 10
192.4946568714733
 20
123.6902630135426
 30
0.0
 10
192.4759636383428
 20
123.6226803771023
 30
0.0
 10
192.4503083409311
 20
123.5561978076248
 30
0.0
 10
192.3901477182446
 20
123.4672027247273
 30
0.0
 10
192.3660754064903
 20
123.4392008277281
 30
0.0
 10
192.3076938861397
 20
123.3961244270629
 30
0.0
 10
192.2722250584866
 20
123.3812308821352
 30
0.0
 10
192.2348492503379
 20
123.3812308821352
 30
0.0
  0
LINE
  5
102
330
1F
100
AcDbEntity
  8
0
  6
HIDDEN
 62
     7
370
     0
100
AcDbLine
 10
192.2348492503
 20
123.3812308821
 30
0.0
 11
190.0986532543
 21
123.3812308821
 31
0.0
  0
SPLINE
  5
103
330
1F
100
AcDbEntity
  8
0
  6
HIDDEN
 62
     7
370
     0
100
AcDbSpline
210
0.0
220
0.0
230
1.0
 70
     8
 71
     3
 72
    12
 73
     8
 74
     0
 42
0.00000001
 43
0.00000001
 12
1.0
 22
0.0
 32
0.0
 13
1.0
 23
0.0
 33
0.0
 40
0.0
 40
0.0
 40
0.0
 40
0.0
 40
0.2499999999999988
 40
0.2499999999999988
 40
0.4999999999999977
 40
0.4999999999999977
 40
1.0
 40
1.0
 40
1.0
 40
1.0
 10
190.0986532543363
 20
123.3812308821352
 30
0.0
 10
190.0611413682916
 20
123.3812308821352
 30
0.0
 10
190.0258540205869
 20
123.396035696422
 30
0.0
 10
189.9669241723485
 20
123.4396275695479
 30
0.0
 10
189.9433984458794
 20
123.4671409956339
 30
0.0
 10
189.8831396581114
 20
123.5562727277474
 30
0.0
 10
189.857544895822
 20
123.6226585783652
 30
0.0
 10
189.838845633201
 20
123.6902630135426
 30
0.0
  0
ELLIPSE
  5
104
330
1F
100
AcDbEntity
  8
0
  6
HIDDEN
 62
     7
370
     0
100
AcDbEllipse
 10
200.1156804248
 20
117.5520178865
 30
0.0
 11
-9.367417879781698
 21
19.74174915274995
 31
0.0
210
0.0
220
0.0
230
1.0
 40
0.3419987131
 41
0.1510717289270533
 42
1.097974043471189
  0
SPLINE
  5
105
330
1F
100
AcDbEntity
  8
0
  6
HIDDEN
 62
     7
370
     0
100
AcDbSpline
210
0.0
220
0.0
230
1.0
 70
     8
 71
     3
 72
    12
 73
     8
 74
     0
 42
0.00000001
 43
0.00000001
 12
1.0
 22
0.0
 32
0.0
 13
1.0
 23
0.0
 33
0.0
 40
0.0
 40
0.0
 40
0.0
 40
0.0
 40
0.4999999999999992
 40
0.4999999999999992
 40
0.7499999999999996
 40
0.7499999999999996
 40
1.0
 40
1.0
 40
1.0
 40
1.0
 10
189.838845633201
 20
111.4137727594242
 30
0.0
 10
189.8575388663314
 20
111.4813553958646
 30
0.0
 10
189.8831941637432
 20
111.5478379653421
 30
0.0
 10
189.9433547864296
 20
111.6368330482396
 30
0.0
 10
189.9674270981839
 20
111.6648349452388
 30
0.0
 10
190.0258086185345
 20
111.707911345904
 30
0.0
 10
190.0612774461876
 20
111.7228048908317
 30
0.0
 10
190.0986532543363
 20
111.7228048908317
 30
0.0
  0
LINE
  5
106
330
1F
100
AcDbEntity
  8
0
  6
HIDDEN
 62
     7
370
     0
100
AcDbLine
 10
190.0986532543
 20
111.7228048908
 30
0.0
 11
192.2348492503
 21
111.7228048908
 31
0.0
  0
SPLINE
  5
107
330
1F
100
AcDbEntity
  8
0
  6
HIDDEN
 62
     7
370
     0
100
AcDbSpline
210
0.0
220
0.0
230
1.0
 70
     8
 71
     3
 72
    12
 73
     8
 74
     0
 42
0.00000001
 43
0.00000001
 12
1.0
 22
0.0
 32
0.0
 13
1.0
 23
0.0
 33
0.0
 40
0.0
 40
0.0
 40
0.0
 40
0.0
 40
0.2499999999999973
 40
0.2499999999999973
 40
0.4999999999999947
 40
0.4999999999999947
 40
1.0
 40
1.0
 40
1.0
 40
1.0
 10
192.2348492503379
 20
111.7228048908317
 30
0.0
 10
192.2723611363826
 20
111.7228048908317
 30
0.0
 10
192.3076484840873
 20
111.7080000765449
 30
0.0
 10
192.3665783323257
 20
111.6644082034191
 30
0.0
 10
192.3901040587948
 20
111.6368947773331
 30
0.0
 10
192.4503628465629
 20
111.5477630452195
 30
0.0
 10
192.4759576088522
 20
111.4813771946017
 30
0.0
 10
192.4946568714733
 20
111.4137727594243
 30
0.0
  0
ELLIPSE
  5
108
330
1F
100
AcDbEntity
  8
0
  6
HIDDEN
 62
     7
370
     0
100
AcDbEllipse
 10
182.2178220799
 20
117.5520178865
 30
0.0
 11
-9.367417879781755
 21
19.74174915274993
 31
0.0
210
0.0
220
0.0
230
1.0
 40
0.3419987131
 41
3.292664382516897
 42
4.239566697061004
  0
SPLINE
  5
109
330
1F
100
AcDbEntity
  8
0
  6
HIDDEN
 62
     7
370
     0
100
AcDbSpline
210
0.0
220
0.0
230
1.0
 70
     8
 71
     3
 72
    12
 73
     8
 74
     0
 42
0.00000001
 43
0.00000001
 12
1.0
 22
0.0
 32
0.0
 13
1.0
 23
0.0
 33
0.0
 40
0.0
 40
0.0
 40
0.0
 40
0.0
 40
0.5000000000000029
 40
0.5000000000000029
 40
0.7500000000000014
 40
0.7500000000000014
 40
1.0
 40
1.0
 40
1.0
 40
1.0
 10
192.4946568714733
 20
98.51726160330139
 30
0.0
 10
192.4759636383428
 20
98.49546784967343
 30
0.0
 10
192.4503083409311
 20
98.47444768796379
 30
0.0
 10
192.3901477182446
 20
98.44674234200008
 30
0.0
 10
192.3660754064903
 20
98.4381071258067
 30
0.0
 10
192.3076938861397
 20
98.4248924805801
 30
0.0
 10
192.2722250584867
 20
98.42036150624995
 30
0.0
 10
192.2348492503379
 20
98.42036150624995
 30
0.0
  0
LINE
  5
10A
330
1F
100
AcDbEntity
  8
0
  6
HIDDEN
 62
     7
370
     0
100
AcDbLine
 10
192.2348492503
 20
98.4203615062
 30
0.0
 11
190.0986532543
 21
98.4203615062
 31
0.0
  0
SPLINE
  5
10B
330
1F
100
AcDbEntity
  8
0
  6
HIDDEN
 62
     7
370
     0
100
AcDbSpline
210
0.0
220
0.0
230
1.0
 70
     8
 71
     3
 72
    12
 73
     8
 74
     0
 42
0.00000001
 43
0.00000001
 12
1.0
 22
0.0
 32
0.0
 13
1.0
 23
0.0
 33
0.0
 40
0.0
 40
0.0
 40
0.0
 40
0.0
 40
0.25
 40
0.25
 40
0.5
 40
0.5
 40
1.0
 40
1.0
 40
1.0
 40
1.0
 10
190.0986532543363
 20
98.42036150624996
 30
0.0
 10
190.0611413682916
 20
98.42036150624995
 30
0.0
 10
190.0258540205869
 20
98.42486505051245
 30
0.0
 10
189.9669241723485
 20
98.43823824996576
 30
0.0
 10
189.9433984458794
 20
98.4467231525369
 30
0.0
 10
189.8831396581113
 20
98.47447095637149
 30
0.0
 10
189.857544895822
 20
98.49546082011186
 30
0.0
 10
189.8388456332009
 20
98.51726160330138
 30
0.0
  0
ELLIPSE
  5
10C
330
1F
100
AcDbEntity
  8
0
  6
HIDDEN
 62
     7
370
     0
100
AcDbEllipse
 10
200.1156804248
 20
117.5520178865
 30
0.0
 11
9.367417879781614
 21
19.74174915274995
 31
0.0
210
0.0
220
0.0
230
1.0
 40
0.3419987131
 41
2.043618610118592
 42
2.990520924662723
  0
SPLINE
  5
10D
330
1F
100
AcDbEntity
  8
0
  6
HIDDEN
 62
     7
370
     0
100
AcDbSpline
210
0.0
220
0.0
230
1.0
 70
     8
 71
     3
 72
    58
 73
    54
 74
     0
 42
0.00000001
 43
0.00000001
 12
1.0
 22
0.0
 32
0.0
 13
1.0
 23
0.0
 33
0.0
 40
-0.0624999999999996
 40
-0.0624999999999996
 40
0.0
 40
0.0
 40
0.0312500000000001
 40
0.0312500000000001
 40
0.0625000000000001
 40
0.0625000000000001
 40
0.0937500000000002
 40
0.0937500000000002
 40
0.1250000000000002
 40
0.1250000000000002
 40
0.1875
 40
0.1875
 40
0.2499999999999998
 40
0.2499999999999998
 40
0.2812499999999999
 40
0.2812499999999999
 40
0.3125000000000001
 40
0.3125000000000001
 40
0.3437500000000002
 40
0.3437500000000002
 40
0.3750000000000003
 40
0.3750000000000003
 40
0.4062500000000004
 40
0.4062500000000004
 40
0.4375000000000006
 40
0.4375000000000006
 40
0.4687500000000007
 40
0.4687500000000007
 40
0.5000000000000007
 40
0.5000000000000007
 40
0.5625000000000009
 40
0.5625000000000009
 40
0.6250000000000011
 40
0.6250000000000011
 40
0.656250000000001
 40
0.656250000000001
 40
0.687500000000001
 40
0.687500000000001
 40
0.718750000000001
 40
0.718750000000001
 40
0.7500000000000009
 40
0.7500000000000009
 40
0.7812500000000009
 40
0.7812500000000009
 40
0.8125000000000009
 40
0.8125000000000009
 40
0.8437500000000009
 40
0.8437500000000009
 40
0.8750000000000008
 40
0.8750000000000008
 40
0.9375000000000004
 40
0.9375000000000004
 40
1.0
 40
1.0
 40
1.03125
 40
1.03125
 10
197.1667512523371
 20
117.2875817720353
 30
0.0
 10
197.1667512523371
 20
117.6842359437073
 30
0.0
 10
197.1537692146649
 20
117.8142281045478
 30
0.0
 10
197.1029184124066
 20
118.0699477170001
 30
0.0
 10
197.0644265083537
 20
118.1970064008612
 30
0.0
 10
196.9640112226272
 20
118.4391695985201
 30
0.0
 10
196.9025750833542
 20
118.5540113829048
 30
0.0
 10
196.7574416070434
 20
118.771353580475
 30
0.0
 10
196.6730199181922
 20
118.8741952283227
 30
0.0
 10
196.3964197440274
 20
119.1507387090743
 30
0.0
 10
196.1734208327603
 20
119.2997213452064
 30
0.0
 10
195.6921863151746
 20
119.4992644087611
 30
0.0
 10
195.4288868996656
 20
119.5518748817926
 30
0.0
 10
195.0373234596254
 20
119.5520889405451
 30
0.0
 10
194.9047358490207
 20
119.5390900911395
 30
0.0
 10
194.6481701434214
 20
119.4880400071131
 30
0.0
 10
194.5234603772409
 20
119.4502687683009
 30
0.0
 10
194.2812211922139
 20
119.3500768601885
 30
0.0
 10
194.1642045384402
 20
119.2874914663639
 30
0.0
 10
193.9475613335939
 20
119.1427863806534
 30
0.0
 10
193.8465545771354
 20
119.0601670392732
 30
0.0
 10
193.6597484814788
 20
118.8735230044831
 30
0.0
 10
193.577034945947
 20
118.7725771565233
 30
0.0
 10
193.4321648165717
 20
118.5560959528415
 30
0.0
 10
193.3694945204749
 20
118.4391787878331
 30
0.0
 10
193.2690665824387
 20
118.1969823186346
 30
0.0
 10
193.231195403509
 20
118.0723213277312
 30
0.0
 10
193.1799330057333
 20
117.8159219786631
 30
0.0
 10
193.1667993650926
 20
117.6833110533653
 30
0.0
 10
193.1666554319538
 20
117.2916364410302
 30
0.0
 10
193.2190206892186
 20
117.0283524213696
 30
0.0
 10
193.4181813525692
 20
116.5468397075098
 30
0.0
 10
193.5669790259312
 20
116.3237186204649
 30
0.0
 10
193.8432796845174
 20
116.0468864719573
 30
0.0
 10
193.9460447315771
 20
115.962379257673
 30
0.0
 10
194.1632620053715
 20
115.8170583159871
 30
0.0
 10
194.2780316988093
 20
115.755536092725
 30
0.0
 10
194.5200182359539
 20
115.6549396894531
 30
0.0
 10
194.6471008088454
 20
115.6163118013644
 30
0.0
 10
194.9027755088485
 20
115.5652336912983
 30
0.0
 10
195.0327160261927
 20
115.5521445515311
 30
0.0
 10
195.296979393954
 20
115.5518930331725
 30
0.0
 10
195.427190287601
 20
115.5647675032289
 30
0.0
 10
195.6829402330346
 20
115.6153864003609
 30
0.0
 10
195.8099576174019
 20
115.6537342191567
 30
0.0
 10
196.0523093451537
 20
115.7539683393501
 30
0.0
 10
196.16721212444
 20
115.8153125263401
 30
0.0
 10
196.384634289589
 20
115.9602175308693
 30
0.0
 10
196.4875706870337
 20
116.0445564229912
 30
0.0
 10
196.7644078441906
 20
116.320957536033
 30
0.0
 10
196.9135630852548
 20
116.5438011690755
 30
0.0
 10
197.11353367049
 20
117.024864450326
 30
0.0
 10
197.1667512523371
 20
117.2875817720353
 30
0.0
 10
197.1667512523371
 20
117.6842359437073
 30
0.0
  0
LINE
  5
10E
330
1F
100
AcDbEntity
  8
0
  6
HIDDEN
 62
     7
370
     0
100
AcDbLine
 10
183.1667512523
 20
137.2520178829
 30
0.0
 11
183.1667512523
 21
97.8520178865
 31
0.0
  0
LINE
  5
10F
330
1F
100
AcDbEntity
  8
0
  6
HIDDEN
 62
     7
370
     0
100
AcDbLine
 10
183.1667512523
 20
101.7520178865
 30
0.0
 11
183.1667512523
 21
133.3395263627
 31
0.0
  0
SPLINE
  5
110
330
1F
100
AcDbEntity
  8
0
  6
HIDDEN
 62
     7
370
     0
100
AcDbSpline
210
0.0
220
0.0
230
1.0
 70
     8
 71
     3
 72
    18
 73
    14
 74
     0
 42
0.00000001
 43
0.00000001
 12
1.0
 22
0.0
 32
0.0
 13
1.0
 23
0.0
 33
0.0
 40
0.0
 40
0.0
 40
0.0
 40
0.0
 40
0.2500000000000006
 40
0.2500000000000006
 40
0.5000000000000011
 40
0.5000000000000011
 40
0.6250000000000008
 40
0.6250000000000008
 40
0.7500000000000006
 40
0.7500000000000006
 40
0.8750000000000002
 40
0.8750000000000002
 40
1.0
 40
1.0
 40
1.0
 40
1.0
 10
181.9106669347741
 20
127.3764578046346
 30
0.0
 10
181.9449679793069
 20
127.268447618837
 30
0.0
 10
181.9827882506036
 20
127.161170530809
 30
0.0
 10
182.0694065710645
 20
126.9496738334925
 30
0.0
 10
182.117777905808
 20
126.8452874833228
 30
0.0
 10
182.2071808879264
 20
126.6944125606785
 30
0.0
 10
182.2397781718037
 20
126.6450675576429
 30
0.0
 10
182.3161600757486
 20
126.5504619191727
 30
0.0
 10
182.3591985130894
 20
126.5054659844181
 30
0.0
 10
182.4650115459212
 20
126.4345382117602
 30
0.0
 10
182.5300499706523
 20
126.4105916678537
 30
0.0
 10
182.6632020424549
 20
126.4228723319245
 30
0.0
 10
182.722571222918
 20
126.4561892899294
 30
0.0
 10
182.7717743634618
 20
126.4970241761541
 30
0.0
  0
SPLINE
  5
111
330
1F
100
AcDbEntity
  8
0
  6
HIDDEN
 62
     7
370
     0
100
AcDbSpline
210
0.0
220
0.0
230
1.0
 70
     8
 71
     3
 72
    16
 73
    12
 74
     0
 42
0.00000001
 43
0.00000001
 12
1.0
 22
0.0
 32
0.0
 13
1.0
 23
0.0
 33
0.0
 40
0.0
 40
0.0
 40
0.0
 40
0.0
 40
0.0624999999999985
 40
0.0624999999999985
 40
0.124999999999997
 40
0.124999999999997
 40
0.2499999999999962
 40
0.2499999999999962
 40
0.4999999999999991
 40
0.4999999999999991
 40
1.0
 40
1.0
 40
1.0
 40
1.0
 10
182.771774363431
 20
126.4970241761835
 30
0.0
 10
182.7838441967068
 20
126.5070412251638
 30
0.0
 10
182.7981198516402
 20
126.5160003322195
 30
0.0
 10
182.8295842637646
 20
126.5238707276137
 30
0.0
 10
182.845084788575
 20
126.5215132369714
 30
0.0
 10
182.8805236851819
 20
126.5045375447934
 30
0.0
 10
182.8941163012852
 20
126.4839890536258
 30
0.0
 10
182.9271106196781
 20
126.4220467266122
 30
0.0
 10
182.9378980129968
 20
126.375651176407
 30
0.0
 10
182.962951260276
 20
126.2327151477125
 30
0.0
 10
182.9667512523372
 20
126.133152430827
 30
0.0
 10
182.9667512523372
 20
126.0313850261805
 30
0.0
  0
LINE
  5
112
330
1F
100
AcDbEntity
  8
0
  6
HIDDEN
 62
     7
370
     0
100
AcDbLine
 10
182.9667512523
 20
109.0726507468
 30
0.0
 11
182.9667512523
 21
126.0313850262
 31
0.0
  0
SPLINE
  5
113
330
1F
100
AcDbEntity
  8
0
  6
HIDDEN
 62
     7
370
     0
100
AcDbSpline
210
0.0
220
0.0
230
1.0
 70
     8
 71
     3
 72
    16
 73
    12
 74
     0
 42
0.00000001
 43
0.00000001
 12
1.0
 22
0.0
 32
0.0
 13
1.0
 23
0.0
 33
0.0
 40
0.0
 40
0.0
 40
0.0
 40
0.0
 40
0.5000000000000043
 40
0.5000000000000043
 40
0.7500000000000064
 40
0.7500000000000064
 40
0.8750000000000031
 40
0.8750000000000031
 40
0.9375000000000016
 40
0.9375000000000016
 40
1.0
 40
1.0
 40
1.0
 40
1.0
 10
182.9667512523371
 20
109.072650746786
 30
0.0
 10
182.9667512523371
 20
108.970640593206
 30
0.0
 10
182.9628678271782
 20
108.8711162179527
 30
0.0
 10
182.9380525019035
 20
108.7291311219421
 30
0.0
 10
182.927213054191
 20
108.6821378213716
 30
0.0
 10
182.8939972721422
 20
108.61984509101
 30
0.0
 10
182.8806155285135
 20
108.5995636587249
 30
0.0
 10
182.8451058786513
 20
108.5825219505244
 30
0.0
 10
182.8296889121504
 20
108.5801356955082
 30
0.0
 10
182.7979878900018
 20
108.5880716253663
 30
0.0
 10
182.783841605051
 20
108.5969966987409
 30
0.0
 10
182.7717743634613
 20
108.6070115968128
 30
0.0
  0
SPLINE
  5
114
330
1F
100
AcDbEntity
  8
0
  6
HIDDEN
 62
     7
370
     0
100
AcDbSpline
210
0.0
220
0.0
230
1.0
 70
     8
 71
     3
 72
    18
 73
    14
 74
     0
 42
0.00000001
 43
0.00000001
 12
1.0
 22
0.0
 32
0.0
 13
1.0
 23
0.0
 33
0.0
 40
0.0
 40
0.0
 40
0.0
 40
0.0
 40
0.1249999999999994
 40
0.1249999999999994
 40
0.2499999999999987
 40
0.2499999999999987
 40
0.3749999999999981
 40
0.3749999999999981
 40
0.4999999999999974
 40
0.4999999999999974
 40
0.7499999999999987
 40
0.7499999999999987
 40
1.0
 40
1.0
 40
1.0
 40
1.0
 10
182.7717743634675
 20
108.6070115968202
 30
0.0
 10
182.7230688713254
 20
108.6474334725017
 30
0.0
 10
182.6645587629986
 20
108.6804655939694
 30
0.0
 10
182.5328296447065
 20
108.6937427459223
 30
0.0
 10
182.468070708366
 20
108.6707891589421
 30
0.0
 10
182.3628597355063
 20
108.6017359620226
 30
0.0
 10
182.3196433600664
 20
108.5572683101817
 30
0.0
 10
182.2434648549545
 20
108.4640986508117
 30
0.0
 10
182.2106098935746
 20
108.4149562812509
 30
0.0
 10
182.1202416137408
 20
108.263746546311
 30
0.0
 10
182.0708183793707
 20
108.1575917767828
 30
0.0
 10
181.9831699243225
 20
107.9440101611213
 30
0.0
 10
181.9451107521197
 20
107.836037729886
 30
0.0
 10
181.9106669347741
 20
107.727577968332
 30
0.0
  0
SPLINE
  5
115
330
1F
100
AcDbEntity
  8
0
  6
HIDDEN
 62
     7
370
     0
100
AcDbSpline
210
0.0
220
0.0
230
1.0
 70
     8
 71
     3
 72
     8
 73
     4
 74
     0
 42
0.00000001
 43
0.00000001
 12
1.0
 22
0.0
 32
0.0
 13
1.0
 23
0.0
 33
0.0
 40
0.0
 40
0.0
 40
0.0
 40
0.0
 40
1.0
 40
1.0
 40
1.0
 40
1.0
 10
181.9106669347735
 20
107.7275779683315
 30
0.0
 10
181.8863532308834
 20
107.6510168107814
 30
0.0
 10
181.8648565889273
 20
107.5745914396482
 30
0.0
 10
181.8454309087774
 20
107.4984985688765
 30
0.0
  0
SPLINE
  5
116
330
1F
100
AcDbEntity
  8
0
  6
HIDDEN
 62
     7
370
     0
100
AcDbSpline
210
0.0
220
0.0
230
1.0
 70
     8
 71
     3
 72
     8
 73
     4
 74
     0
 42
0.00000001
 43
0.00000001
 12
1.0
 22
0.0
 32
0.0
 13
1.0
 23
0.0
 33
0.0
 40
0.0
 40
0.0
 40
0.0
 40
0.0
 40
1.0
 40
1.0
 40
1.0
 40
1.0
 10
181.8454309087774
 20
103.7269538784781
 30
0.0
 10
181.8648563356707
 20
103.7234566748908
 30
0.0
 10
181.8863528896397
 20
103.7214403572486
 30
0.0
 10
181.9106669347741
 20
103.7208295038047
 30
0.0
  0
SPLINE
  5
117
330
1F
100
AcDbEntity
  8
0
  6
HIDDEN
 62
     7
370
     0
100
AcDbSpline
210
0.0
220
0.0
230
1.0
 70
     8
 71
     3
 72
     8
 73
     4
 74
     0
 42
0.00000001
 43
0.00000001
 12
1.0
 22
0.0
 32
0.0
 13
1.0
 23
0.0
 33
0.0
 40
0.0
 40
0.0
 40
0.0
 40
0.0
 40
1.0
 40
1.0
 40
1.0
 40
1.0
 10
182.9439002392311
 20
103.6314711127466
 30
0.0
 10
182.962837171397
 20
103.6035166753451
 30
0.0
 10
182.9667512523372
 20
103.5834328239888
 30
0.0
 10
182.9667512523372
 20
103.5672059798234
 30
0.0
  0
LINE
  5
118
330
1F
100
AcDbEntity
  8
0
  6
HIDDEN
 62
     7
370
     0
100
AcDbLine
 10
182.9667512523
 20
103.4621976076
 30
0.0
 11
182.9667512523
 21
103.5672059798
 31
0.0
  0
LINE
  5
119
330
1F
100
AcDbEntity
  8
0
  6
HIDDEN
 62
     7
370
     0
100
AcDbLine
 10
182.9667512523
 20
131.5368297931
 30
0.0
 11
182.9667512523
 21
131.6418381654
 31
0.0
  0
SPLINE
  5
11A
330
1F
100
AcDbEntity
  8
0
  6
HIDDEN
 62
     7
370
     0
100
AcDbSpline
210
0.0
220
0.0
230
1.0
 70
     8
 71
     3
 72
     8
 73
     4
 74
     0
 42
0.00000001
 43
0.00000001
 12
1.0
 22
0.0
 32
0.0
 13
1.0
 23
0.0
 33
0.0
 40
0.0
 40
0.0
 40
0.0
 40
0.0
 40
1.0
 40
1.0
 40
1.0
 40
1.0
 10
181.9106669347737
 20
131.3832062691619
 30
0.0
 10
181.8863528896395
 20
131.382595415718
 30
0.0
 10
181.8648563356706
 20
131.3805790980758
 30
0.0
 10
181.8454309087773
 20
131.3770818944885
 30
0.0
  0
SPLINE
  5
11B
330
1F
100
AcDbEntity
  8
0
  6
HIDDEN
 62
     7
370
     0
100
AcDbSpline
210
0.0
220
0.0
230
1.0
 70
     8
 71
     3
 72
     8
 73
     4
 74
     0
 42
0.00000001
 43
0.00000001
 12
1.0
 22
0.0
 32
0.0
 13
1.0
 23
0.0
 33
0.0
 40
0.0
 40
0.0
 40
0.0
 40
0.0
 40
1.0
 40
1.0
 40
1.0
 40
1.0
 10
181.8454309087773
 20
127.6055372040902
 30
0.0
 10
181.8648565889273
 20
127.5294443333184
 30
0.0
 10
181.8863532308834
 20
127.4530189621852
 30
0.0
 10
181.9106669347735
 20
127.3764578046351
 30
0.0
  0
SPLINE
  5
11C
330
1F
100
AcDbEntity
  8
0
  6
HIDDEN
 62
     7
370
     0
100
AcDbSpline
210
0.0
220
0.0
230
1.0
 70
     8
 71
     3
 72
    20
 73
    16
 74
     0
 42
0.00000001
 43
0.00000001
 12
1.0
 22
0.0
 32
0.0
 13
1.0
 23
0.0
 33
0.0
 40
0.0
 40
0.0
 40
0.0
 40
0.0
 40
0.0624999999999999
 40
0.0624999999999999
 40
0.1249999999999998
 40
0.1249999999999998
 40
0.2499999999999993
 40
0.2499999999999993
 40
0.4999999999999996
 40
0.4999999999999996
 40
0.7499999999999998
 40
0.7499999999999998
 40
0.8749999999999999
 40
0.8749999999999999
 40
1.0
 40
1.0
 40
1.0
 40
1.0
 10
198.3888709469088
 20
114.1311964339494
 30
0.0
 10
198.4453569283458
 20
114.0928670546078
 30
0.0
 10
198.4965452234058
 20
114.0458567702175
 30
0.0
 10
198.5883446228087
 20
113.9488100031791
 30
0.0
 10
198.6294312852656
 20
113.8986092430428
 30
0.0
 10
198.7458452121305
 20
113.743970465039
 30
0.0
 10
198.8137037598999
 20
113.6359330032731
 30
0.0
 10
198.9967398523895
 20
113.3030805274135
 30
0.0
 10
199.0927274361315
 20
113.0671279479541
 30
0.0
 10
199.2302308976716
 20
112.5584366133703
 30
0.0
 10
199.2687401482832
 20
112.2958304531813
 30
0.0
 10
199.2656424183868
 20
111.8871974082773
 30
0.0
 10
199.2541756589533
 20
111.7518917552312
 30
0.0
 10
199.2075871798277
 20
111.4850199991186
 30
0.0
 10
199.1719813054521
 20
111.3520852704245
 30
0.0
 10
199.1231652405191
 20
111.2253104500214
 30
0.0
  0
SPLINE
  5
11D
330
1F
100
AcDbEntity
  8
0
  6
HIDDEN
 62
     7
370
     0
100
AcDbSpline
210
0.0
220
0.0
230
1.0
 70
     8
 71
     3
 72
     8
 73
     4
 74
     0
 42
0.00000001
 43
0.00000001
 12
1.0
 22
0.0
 32
0.0
 13
1.0
 23
0.0
 33
0.0
 40
0.0
 40
0.0
 40
0.0
 40
0.0
 40
1.0
 40
1.0
 40
1.0
 40
1.0
 10
198.3675835328408
 20
114.3889440265986
 30
0.0
 10
198.3581707886052
 20
114.3137036799709
 30
0.0
 10
198.3654303468277
 20
114.2279644860612
 30
0.0
 10
198.3888709462587
 20
114.1311964383679
 30
0.0
  0
SPLINE
  5
11E
330
1F
100
AcDbEntity
  8
0
  6
HIDDEN
 62
     7
370
     0
100
AcDbSpline
210
0.0
220
0.0
230
1.0
 70
     8
 71
     3
 72
    56
 73
    52
 74
     0
 42
0.00000001
 43
0.00000001
 12
1.0
 22
0.0
 32
0.0
 13
1.0
 23
0.0
 33
0.0
 40
0.0
 40
0.0
 40
0.0
 40
0.0
 40
0.0625000000000003
 40
0.0625000000000003
 40
0.1250000000000005
 40
0.1250000000000005
 40
0.1875000000000008
 40
0.1875000000000008
 40
0.2500000000000011
 40
0.2500000000000011
 40
0.2812500000000011
 40
0.2812500000000011
 40
0.296875000000001
 40
0.296875000000001
 40
0.3125000000000009
 40
0.3125000000000009
 40
0.3281250000000008
 40
0.3281250000000008
 40
0.3437500000000007
 40
0.3437500000000007
 40
0.3750000000000004
 40
0.3750000000000004
 40
0.4374999999999998
 40
0.4374999999999998
 40
0.4999999999999993
 40
0.4999999999999993
 40
0.5312499999999991
 40
0.5312499999999991
 40
0.5624999999999989
 40
0.5624999999999989
 40
0.5937499999999988
 40
0.5937499999999988
 40
0.6249999999999986
 40
0.6249999999999986
 40
0.6874999999999983
 40
0.6874999999999983
 40
0.7187499999999986
 40
0.7187499999999986
 40
0.7499999999999987
 40
0.7499999999999987
 40
0.812499999999999
 40
0.812499999999999
 40
0.8749999999999992
 40
0.8749999999999992
 40
0.9374999999999996
 40
0.9374999999999996
 40
0.9687499999999999
 40
0.9687499999999999
 40
0.9843749999999999
 40
0.9843749999999999
 40
1.0
 40
1.0
 40
1.0
 40
1.0
 10
198.5967788088851
 20
110.5070376689464
 30
0.0
 10
198.4302491318995
 20
110.3817623622125
 30
0.0
 10
198.2503731391718
 20
110.3021420818728
 30
0.0
 10
197.8749217009217
 20
110.2147428452173
 30
0.0
 10
197.6864276614914
 20
110.2088960620539
 30
0.0
 10
197.3160847119777
 20
110.2540507229876
 30
0.0
 10
197.1385701790451
 20
110.3043310467883
 30
0.0
 10
196.7980917613518
 20
110.448236398796
 30
0.0
 10
196.6334213259603
 20
110.5430287397569
 30
0.0
 10
196.4161161132971
 20
110.7088325324536
 30
0.0
 10
196.3476074246795
 20
110.7680838872229
 30
0.0
 10
196.2722141920505
 20
110.8572692585507
 30
0.0
 10
196.2527328975499
 20
110.8866455947331
 30
0.0
 10
196.2414275926448
 20
110.9351544736146
 30
0.0
 10
196.2509434560507
 20
110.9527131740696
 30
0.0
 10
196.2877082021586
 20
110.9770852026609
 30
0.0
 10
196.31409841442
 20
110.9849859756265
 30
0.0
 10
196.3718005312302
 20
110.9984094465151
 30
0.0
 10
196.4035143940885
 20
111.00389278885
 30
0.0
 10
196.5032056737147
 20
111.0203819619473
 30
0.0
 10
196.5757926188221
 20
111.0314687859571
 30
0.0
 10
196.8029714294926
 20
111.0734278263027
 30
0.0
 10
196.9645682150855
 20
111.1119487267146
 30
0.0
 10
197.3027516793732
 20
111.2214305843254
 30
0.0
 10
197.4822222761783
 20
111.2931437976687
 30
0.0
 10
197.7548536784634
 20
111.4293619939663
 30
0.0
 10
197.8462490974756
 20
111.4794376369992
 30
0.0
 10
198.030147358253
 20
111.5906542871423
 30
0.0
 10
198.1232664268627
 20
111.6523065422728
 30
0.0
 10
198.3043104131355
 20
111.7846415104195
 30
0.0
 10
198.3928678537073
 20
111.8556197101222
 30
0.0
 10
198.5652908627117
 20
112.0089791229894
 30
0.0
 10
198.6480152292541
 20
112.0905695258426
 30
0.0
 10
198.8753050033956
 20
112.3415654513084
 30
0.0
 10
199.003938794657
 20
112.5242989697681
 30
0.0
 10
199.138598700502
 20
112.7877426450614
 30
0.0
 10
199.1747781192762
 20
112.8751417849122
 30
0.0
 10
199.2284216001418
 20
113.0414398824673
 30
0.0
 10
199.2465136943719
 20
113.1217663202625
 30
0.0
 10
199.2769791820703
 20
113.3513919927702
 30
0.0
 10
199.2661182576051
 20
113.4856425159925
 30
0.0
 10
199.1982245387077
 20
113.7273777781126
 30
0.0
 10
199.1419368946827
 20
113.8307928624131
 30
0.0
 10
198.9947545442963
 20
114.0107739056592
 30
0.0
 10
198.9033758147333
 20
114.0873459486679
 30
0.0
 10
198.7382952977355
 20
114.1897990801461
 30
0.0
 10
198.6786012206212
 20
114.2217345883266
 30
0.0
 10
198.5767698648397
 20
114.2734852498631
 30
0.0
 10
198.5405370298592
 20
114.291505703492
 30
0.0
 10
198.4599605076647
 20
114.3339749411729
 30
0.0
 10
198.4155118183694
 20
114.3587071309736
 30
0.0
 10
198.3675835334166
 20
114.3889440289443
 30
0.0
  0
SPLINE
  5
11F
330
1F
100
AcDbEntity
  8
0
  6
HIDDEN
 62
     7
370
     0
100
AcDbSpline
210
0.0
220
0.0
230
1.0
 70
     8
 71
     3
 72
    62
 73
    58
 74
     0
 42
0.00000001
 43
0.00000001
 12
1.0
 22
0.0
 32
0.0
 13
1.0
 23
0.0
 33
0.0
 40
-0.0312499999999998
 40
-0.0312499999999998
 40
0.0
 40
0.0
 40
0.0312500000000003
 40
0.0312500000000003
 40
0.0625000000000006
 40
0.0625000000000006
 40
0.0937500000000008
 40
0.0937500000000008
 40
0.1250000000000011
 40
0.1250000000000011
 40
0.1875000000000016
 40
0.1875000000000016
 40
0.2187500000000017
 40
0.2187500000000017
 40
0.2500000000000019
 40
0.2500000000000019
 40
0.2812500000000021
 40
0.2812500000000021
 40
0.3125000000000022
 40
0.3125000000000022
 40
0.3437500000000024
 40
0.3437500000000024
 40
0.3750000000000026
 40
0.3750000000000026
 40
0.4062500000000027
 40
0.4062500000000027
 40
0.4375000000000029
 40
0.4375000000000029
 40
0.4687500000000031
 40
0.4687500000000031
 40
0.5000000000000032
 40
0.5000000000000032
 40
0.5625000000000028
 40
0.5625000000000028
 40
0.5937500000000024
 40
0.5937500000000024
 40
0.6250000000000022
 40
0.6250000000000022
 40
0.6875000000000018
 40
0.6875000000000018
 40
0.7187500000000016
 40
0.7187500000000016
 40
0.7500000000000014
 40
0.7500000000000014
 40
0.7812500000000012
 40
0.7812500000000012
 40
0.8125000000000011
 40
0.8125000000000011
 40
0.8750000000000008
 40
0.8750000000000008
 40
0.9062500000000006
 40
0.9062500000000006
 40
0.9375000000000004
 40
0.9375000000000004
 40
0.9687500000000002
 40
0.9687500000000002
 40
1.0
 40
1.0
 40
1.03125
 40
1.03125
 10
197.0269097065354
 20
117.2939307941373
 30
0.0
 10
197.3065927981388
 20
117.2939307941373
 30
0.0
 10
197.4438767550964
 20
117.2792439947698
 30
0.0
 10
197.7136125099478
 20
117.222151528389
 30
0.0
 10
197.8474945290433
 20
117.1789967403895
 30
0.0
 10
198.1012410874413
 20
117.0680584317412
 30
0.0
 10
198.2214267491839
 20
117.000612797367
 30
0.0
 10
198.4488893406978
 20
116.842806181307
 30
0.0
 10
198.5557045461594
 20
116.7523548631882
 30
0.0
 10
198.8439491434841
 20
116.4586468855913
 30
0.0
 10
199.0000698423853
 20
116.2255271370964
 30
0.0
 10
199.1577853032275
 20
115.8560921004937
 30
0.0
 10
199.1986945323351
 20
115.7273544813654
 30
0.0
 10
199.2530714373574
 20
115.4688204365383
 30
0.0
 10
199.2666589052469
 20
115.3401058060304
 30
0.0
 10
199.2668426702346
 20
115.0839380157746
 30
0.0
 10
199.2529566340284
 20
114.955636247422
 30
0.0
 10
199.1988695494778
 20
114.7117649849432
 30
0.0
 10
199.1588607934328
 20
114.5947699608641
 30
0.0
 10
199.0525145188505
 20
114.3701942802512
 30
0.0
 10
198.987315243933
 20
114.2652917643615
 30
0.0
 10
198.8356078398948
 20
114.071463573871
 30
0.0
 10
198.7478071652549
 20
113.9812312888071
 30
0.0
 10
198.5544692558915
 20
113.8198098250118
 30
0.0
 10
198.4495208698799
 20
113.7486848237525
 30
0.0
 10
198.2227928599339
 20
113.6242980164368
 30
0.0
 10
198.1000211089518
 20
113.5709453857959
 30
0.0
 10
197.8473426367265
 20
113.4862919232588
 30
0.0
 10
197.7163616652258
 20
113.4542283605547
 30
0.0
 10
197.444573293977
 20
113.4107283628149
 30
0.0
 10
197.3053396836428
 20
113.3998035293842
 30
0.0
 10
196.8921559008444
 20
113.3996691758125
 30
0.0
 10
196.6140801561296
 20
113.4435470031231
 30
0.0
 10
196.2340113280983
 20
113.5707123844639
 30
0.0
 10
196.1112430861562
 20
113.6240500937698
 30
0.0
 10
195.8845569202699
 20
113.7483246984396
 30
0.0
 10
195.7793888117245
 20
113.8195124609143
 30
0.0
 10
195.4883023159943
 20
114.0625475551701
 30
0.0
 10
195.3343717937663
 20
114.2576829986454
 30
0.0
 10
195.1749401910165
 20
114.5940293493102
 30
0.0
 10
195.134938993461
 20
114.7108117699629
 30
0.0
 10
195.0807797725315
 20
114.9541591856135
 30
0.0
 10
195.0667568659821
 20
115.0823376116194
 30
0.0
 10
195.0667456421454
 20
115.3389578270063
 30
0.0
 10
195.0802865953445
 20
115.4677761854593
 30
0.0
 10
195.1345046819543
 20
115.7262669189679
 30
0.0
 10
195.1753846365606
 20
115.8552105446663
 30
0.0
 10
195.3333527137364
 20
116.2255442426519
 30
0.0
 10
195.4893806710913
 20
116.4585117414921
 30
0.0
 10
195.7781277904165
 20
116.7526705113054
 30
0.0
 10
195.8853426251455
 20
116.8433521572194
 30
0.0
 10
196.1121960320954
 20
117.0006561938941
 30
0.0
 10
196.2322135443353
 20
117.0680365486956
 30
0.0
 10
196.4860317517895
 20
117.1790080882205
 30
0.0
 10
196.6198987958408
 20
117.2221515669542
 30
0.0
 10
196.8895660377351
 20
117.2792331800584
 30
0.0
 10
197.0269097065354
 20
117.2939307941373
 30
0.0
 10
197.3065927981388
 20
117.2939307941373
 30
0.0
  0
LWPOLYLINE
  5
120
330
1F
100
AcDbEntity
  8
0
  6
HIDDEN
 62
     7
370
     0
100
AcDbPolyline
 90
       28
 70
   128
 43
0.0
 10
198.5967788089
 20
110.5070376689
 10
198.2338532224
 20
110.2559477696
 10
197.8213103965
 20
110.0828323139
 10
197.3783324118
 20
109.9957406836
 10
196.9255164985
 20
109.9987223944
 10
196.4839173225
 20
110.0916388051
 10
196.0740680032
 20
110.2701695641
 10
195.715025381
 20
110.5260134934
 10
195.4234839276
 20
110.8472745699
 10
195.2129995004
 20
111.2190150575
 10
195.0933590332
 20
111.6239500693
 10
195.0701254711
 20
112.0432512664
 10
195.1443791092
 20
112.4574223229
 10
195.3126673625
 20
112.8472054498
 10
195.5671653005
 20
113.1944768282
 10
195.8960394851
 20
113.4830893161
 10
196.283998192
 20
113.6996232448
 10
196.7130024327
 20
113.8340103957
 10
197.163104717
 20
113.8800021444
 10
197.6133765549
 20
113.8354600039
 10
198.0428815728
 20
113.7024550586
 10
198.4316489955
 20
113.4871716641
 10
198.7616022318
 20
113.1996198926
 10
199.0173993844
 20
112.8531700926
 10
199.1871466053
 20
112.4639312051
 10
199.2629511263
 20
112.0500017433
 10
199.2412882504
 20
111.6306282626
 10
199.1231652405
 20
111.22531045
  0
ARC
  5
121
330
1F
100
AcDbEntity
  8
0
  6
HIDDEN
 62
     7
370
     0
100
AcDbCircle
 10
197.8759561908
 20
114.2185875888
 30
0.0
 40
0.5203064104067727
100
AcDbArc
 50
350.3307155172
 51
19.1119881034
  0
SPLINE
  5
122
330
1F
100
AcDbEntity
  8
0
  6
HIDDEN
 62
     7
370
     0
100
AcDbSpline
210
0.0
220
0.0
230
1.0
 70
     8
 71
     3
 72
    10
 73
     6
 74
     0
 42
0.00000001
 43
0.00000001
 12
1.0
 22
0.0
 32
0.0
 13
1.0
 23
0.0
 33
0.0
 40
0.0
 40
0.0
 40
0.0
 40
0.0
 40
0.5000000000000016
 40
0.5000000000000016
 40
1.0
 40
1.0
 40
1.0
 40
1.0
 10
199.1231652405191
 20
111.2253104500215
 30
0.0
 10
199.0164840079822
 20
111.109932734467
 30
0.0
 10
198.9183205867533
 20
110.9876637894839
 30
0.0
 10
198.7398560329989
 20
110.7440018238766
 30
0.0
 10
198.6610259242896
 20
110.6249413243614
 30
0.0
 10
198.596778808885
 20
110.5070376689463
 30
0.0
  0
LINE
  5
123
330
1F
100
AcDbEntity
  8
0
  6
HIDDEN
 62
     7
370
     0
100
AcDbLine
 10
182.9667512523
 20
103.5672059798
 30
0.0
 11
182.9667512523
 21
112.0465731195
 31
0.0
  0
LINE
  5
124
330
1F
100
AcDbEntity
  8
0
  6
HIDDEN
 62
     7
370
     0
100
AcDbLine
 10
182.9667512523
 20
123.0574626534
 30
0.0
 11
182.9667512523
 21
131.5368297931
 31
0.0
  0
CIRCLE
  5
125
330
1F
100
AcDbEntity
  8
0
  6
HIDDEN
 62
     7
370
     0
100
AcDbCircle
 10
171.6667512523
 20
117.5520178865
 30
0.0
 40
2.299999999999997
  0
LINE
  5
126
330
1F
100
AcDbEntity
  8
0
  6
HIDDEN
 62
     7
370
     0
100
AcDbLine
 10
160.1937832844
 20
127.1147111906
 30
0.0
 11
160.1937832844
 21
107.9893245824
 31
0.0
  0
LINE
  5
127
330
1F
100
AcDbEntity
  8
0
  6
HIDDEN
 62
     7
370
     0
100
AcDbLine
 10
159.1667512523
 20
107.3963673622
 30
0.0
 11
159.1667512523
 21
127.7076684108
 31
0.0
  0
LINE
  5
128
330
1F
100
AcDbEntity
  8
0
  6
HIDDEN
 62
     7
370
     0
100
AcDbLine
 10
163.6937832844
 20
126.7829579942
 30
0.0
 11
163.6937832844
 21
108.3210777788
 31
0.0
  0
LINE
  5
129
330
1F
100
AcDbEntity
  8
0
  6
HIDDEN
 62
     7
370
     0
100
AcDbLine
 10
167.0937832844
 20
126.5520178865
 30
0.0
 11
167.0937832844
 21
108.5520178865
 31
0.0
  0
LINE
  5
12A
330
1F
100
AcDbEntity
  8
0
  6
HIDDEN
 62
     7
370
     0
100
AcDbLine
 10
162.2937832844
 20
126.5520178865
 30
0.0
 11
162.2937832844
 21
108.5520178865
 31
0.0
  0
LINE
  5
12B
330
1F
100
AcDbEntity
  8
0
  6
HIDDEN
 62
     7
370
     0
100
AcDbLine
 10
163.2937832844
 20
126.5520178865
 30
0.0
 11
163.2937832844
 21
108.5520178865
 31
0.0
  0
SPLINE
  5
12C
330
1F
100
AcDbEntity
  8
0
  6
HIDDEN
 62
     7
370
     0
100
AcDbSpline
210
0.0
220
0.0
230
1.0
 70
     8
 71
     3
 72
    14
 73
    10
 74
     0
 42
0.00000001
 43
0.00000001
 12
1.0
 22
0.0
 32
0.0
 13
1.0
 23
0.0
 33
0.0
 40
0.0
 40
0.0
 40
0.0
 40
0.0
 40
0.25
 40
0.25
 40
0.5
 40
0.5
 40
0.75
 40
0.75
 40
1.0
 40
1.0
 40
1.0
 40
1.0
 10
173.6667512523371
 20
118.6877995556434
 30
0.0
 10
173.76497559884
 20
118.5148361258398
 30
0.0
 10
173.8402904368241
 20
118.3298035714154
 30
0.0
 10
173.9412571470185
 20
117.9467913572809
 30
0.0
 10
173.9666327333086
 20
117.7520728038153
 30
0.0
 10
173.9668689585749
 20
117.3546975025498
 30
0.0
 10
173.9411658892394
 20
117.1572051680744
 30
0.0
 10
173.840845775723
 20
116.7760333334433
 30
0.0
 10
173.7649539476353
 20
116.5891615214708
 30
0.0
 10
173.6667512523417
 20
116.4162362173209
 30
0.0
  0
LINE
  5
12D
330
1F
100
AcDbEntity
  8
0
  6
HIDDEN
 62
     7
370
     0
100
AcDbLine
 10
174.1667512523
 20
126.0520178865
 30
0.0
 11
174.1667512523
 21
109.0520178865
 31
0.0
  0
SPLINE
  5
12E
330
1F
100
AcDbEntity
  8
0
  6
HIDDEN
 62
     7
370
     0
100
AcDbSpline
210
0.0
220
0.0
230
1.0
 70
     8
 71
     3
 72
    14
 73
    10
 74
     0
 42
0.00000001
 43
0.00000001
 12
1.0
 22
0.0
 32
0.0
 13
1.0
 23
0.0
 33
0.0
 40
0.0
 40
0.0
 40
0.0
 40
0.0
 40
0.25
 40
0.25
 40
0.5
 40
0.5
 40
0.75
 40
0.75
 40
1.0
 40
1.0
 40
1.0
 40
1.0
 10
173.6667512523371
 20
116.4162362173233
 30
0.0
 10
173.76497559884
 20
116.5891996471268
 30
0.0
 10
173.8402904368241
 20
116.7742322015512
 30
0.0
 10
173.9412571470185
 20
117.1572444156857
 30
0.0
 10
173.9666327333086
 20
117.3519629691513
 30
0.0
 10
173.9668689585749
 20
117.7493382704169
 30
0.0
 10
173.9411658892394
 20
117.9468306048923
 30
0.0
 10
173.8408457757229
 20
118.3280024395233
 30
0.0
 10
173.7649539476353
 20
118.5148742514958
 30
0.0
 10
173.6667512523416
 20
118.6877995556457
 30
0.0
  0
SPLINE
  5
12F
330
1F
100
AcDbEntity
  8
0
  6
HIDDEN
 62
     7
370
     0
100
AcDbSpline
210
0.0
220
0.0
230
1.0
 70
     8
 71
     3
 72
    60
 73
    56
 74
     0
 42
0.00000001
 43
0.00000001
 12
1.0
 22
0.0
 32
0.0
 13
1.0
 23
0.0
 33
0.0
 40
0.0
 40
0.0
 40
0.0
 40
0.0
 40
0.0625000000000004
 40
0.0625000000000004
 40
0.1250000000000007
 40
0.1250000000000007
 40
0.1875000000000011
 40
0.1875000000000011
 40
0.2187500000000011
 40
0.2187500000000011
 40
0.2500000000000011
 40
0.2500000000000011
 40
0.312500000000001
 40
0.312500000000001
 40
0.3750000000000009
 40
0.3750000000000009
 40
0.4062500000000009
 40
0.4062500000000009
 40
0.4375000000000008
 40
0.4375000000000008
 40
0.4687500000000008
 40
0.4687500000000008
 40
0.5000000000000007
 40
0.5000000000000007
 40
0.5312500000000006
 40
0.5312500000000006
 40
0.5625000000000004
 40
0.5625000000000004
 40
0.5937500000000004
 40
0.5937500000000004
 40
0.6250000000000004
 40
0.6250000000000004
 40
0.6562500000000003
 40
0.6562500000000003
 40
0.6875000000000003
 40
0.6875000000000003
 40
0.7187500000000003
 40
0.7187500000000003
 40
0.7500000000000002
 40
0.7500000000000002
 40
0.7812500000000002
 40
0.7812500000000002
 40
0.8125000000000002
 40
0.8125000000000002
 40
0.8437500000000002
 40
0.8437500000000002
 40
0.8750000000000001
 40
0.8750000000000001
 40
0.9062500000000001
 40
0.9062500000000001
 40
0.9375000000000001
 40
0.9375000000000001
 40
0.96875
 40
0.96875
 40
1.0
 40
1.0
 40
1.0
 40
1.0
 10
173.6667512523371
 20
116.4162362173232
 30
0.0
 10
173.5415613507584
 20
116.1957890927077
 30
0.0
 10
173.3846940321902
 20
116.0020553638873
 30
0.0
 10
173.0076565123714
 20
115.6663656651249
 30
0.0
 10
172.7959432059504
 20
115.5323883068122
 30
0.0
 10
172.3300532240017
 20
115.335261562127
 30
0.0
 10
172.0842139929501
 20
115.2760441499051
 30
0.0
 10
171.7047329398555
 20
115.2488374140145
 30
0.0
 10
171.5769872111615
 20
115.2503306791563
 30
0.0
 10
171.3265209644934
 20
115.2738464849653
 30
0.0
 10
171.2026915816852
 20
115.2957657037695
 30
0.0
 10
170.8354719075866
 20
115.3926022686144
 30
0.0
 10
170.6047028895009
 20
115.4964033900662
 30
0.0
 10
170.1848139280814
 20
115.7751218709942
 30
0.0
 10
170.0005555531938
 20
115.9466841624979
 30
0.0
 10
169.7698071657104
 20
116.2453315237647
 30
0.0
 10
169.7007603159215
 20
116.351799064267
 30
0.0
 10
169.5821956521159
 20
116.57208241266
 30
0.0
 10
169.5319872833663
 20
116.6867439290614
 30
0.0
 10
169.4501554310085
 20
116.9254245658382
 30
0.0
 10
169.4188045321258
 20
117.0494701927162
 30
0.0
 10
169.3774101540872
 20
117.2975852288246
 30
0.0
 10
169.366904379023
 20
117.422822931313
 30
0.0
 10
169.3666014266872
 20
117.6757019869041
 30
0.0
 10
169.3770859563038
 20
117.8035816731407
 30
0.0
 10
169.4182260337652
 20
118.0520037343462
 30
0.0
 10
169.4488041543138
 20
118.1738026611145
 30
0.0
 10
169.5300868626651
 20
118.4125821905889
 30
0.0
 10
169.581087749227
 20
118.5296237528955
 30
0.0
 10
169.69965479759
 20
118.7504489508215
 30
0.0
 10
169.7675435508618
 20
118.8553873143842
 30
0.0
 10
169.9206939885994
 20
119.0543646476136
 30
0.0
 10
170.006250160172
 20
119.1483727728078
 30
0.0
 10
170.1889615311311
 20
119.3188654577445
 30
0.0
 10
170.286768830813
 20
119.3963036527939
 30
0.0
 10
170.49557194273
 20
119.5354695486822
 30
0.0
 10
170.6071541180179
 20
119.5972513576891
 30
0.0
 10
170.8357999175169
 20
119.7003302282899
 30
0.0
 10
170.953754728488
 20
119.7423342634856
 30
0.0
 10
171.1970831734768
 20
119.8070703847824
 30
0.0
 10
171.3234270488198
 20
119.8297436473451
 30
0.0
 10
171.5745330298377
 20
119.8536264435262
 30
0.0
 10
171.7002150235606
 20
119.8552297447929
 30
0.0
 10
171.9518370933524
 20
119.837763006022
 30
0.0
 10
172.0787347136382
 20
119.818327115382
 30
0.0
 10
172.3239252798994
 20
119.7597339440584
 30
0.0
 10
172.4431144369329
 20
119.7206710929017
 30
0.0
 10
172.6747994612877
 20
119.623161370778
 30
0.0
 10
172.7879742656382
 20
119.5641260164894
 30
0.0
 10
173.0000526825739
 20
119.4303222996499
 30
0.0
 10
173.0998414612747
 20
119.3553270835051
 30
0.0
 10
173.2870996482637
 20
119.1891320189843
 30
0.0
 10
173.374994685207
 20
119.0972378202428
 30
0.0
 10
173.5332157608389
 20
118.9018736225284
 30
0.0
 10
173.6041537171306
 20
118.798027668856
 30
0.0
 10
173.6667512523371
 20
118.6877995556434
 30
0.0
  0
SPLINE
  5
130
330
1F
100
AcDbEntity
  8
0
  6
HIDDEN
 62
     7
370
     0
100
AcDbSpline
210
0.0
220
0.0
230
1.0
 70
     8
 71
     3
 72
    60
 73
    56
 74
     0
 42
0.00000001
 43
0.00000001
 12
1.0
 22
0.0
 32
0.0
 13
1.0
 23
0.0
 33
0.0
 40
0.0
 40
0.0
 40
0.0
 40
0.0
 40
0.0625000000000004
 40
0.0625000000000004
 40
0.1250000000000008
 40
0.1250000000000008
 40
0.1875000000000012
 40
0.1875000000000012
 40
0.2187500000000012
 40
0.2187500000000012
 40
0.2500000000000012
 40
0.2500000000000012
 40
0.3125000000000011
 40
0.3125000000000011
 40
0.3750000000000011
 40
0.3750000000000011
 40
0.4062500000000011
 40
0.4062500000000011
 40
0.437500000000001
 40
0.437500000000001
 40
0.4687500000000009
 40
0.4687500000000009
 40
0.5000000000000008
 40
0.5000000000000008
 40
0.5312500000000008
 40
0.5312500000000008
 40
0.5625000000000008
 40
0.5625000000000008
 40
0.5937500000000007
 40
0.5937500000000007
 40
0.6250000000000007
 40
0.6250000000000007
 40
0.6562500000000007
 40
0.6562500000000007
 40
0.6875000000000007
 40
0.6875000000000007
 40
0.7187500000000007
 40
0.7187500000000007
 40
0.7500000000000006
 40
0.7500000000000006
 40
0.7812500000000006
 40
0.7812500000000006
 40
0.8125000000000006
 40
0.8125000000000006
 40
0.8437500000000006
 40
0.8437500000000006
 40
0.8750000000000006
 40
0.8750000000000006
 40
0.9062500000000006
 40
0.9062500000000006
 40
0.9375000000000003
 40
0.9375000000000003
 40
0.9687500000000002
 40
0.9687500000000002
 40
1.0
 40
1.0
 40
1.0
 40
1.0
 10
173.6667512523371
 20
118.6877995556434
 30
0.0
 10
173.5415613507583
 20
118.908246680259
 30
0.0
 10
173.3846940321902
 20
119.1019804090793
 30
0.0
 10
173.0076565123713
 20
119.4376701078417
 30
0.0
 10
172.7959432059504
 20
119.5716474661544
 30
0.0
 10
172.3300532240016
 20
119.7687742108396
 30
0.0
 10
172.0842139929501
 20
119.8279916230614
 30
0.0
 10
171.7047329398554
 20
119.8551983589521
 30
0.0
 10
171.5769872111615
 20
119.8537050938102
 30
0.0
 10
171.3265209644934
 20
119.8301892880013
 30
0.0
 10
171.2026915816852
 20
119.8082700691971
 30
0.0
 10
170.8354719075865
 20
119.7114335043522
 30
0.0
 10
170.6047028895008
 20
119.6076323829004
 30
0.0
 10
170.1848139280813
 20
119.3289139019723
 30
0.0
 10
170.0005555531937
 20
119.1573516104686
 30
0.0
 10
169.7698071657104
 20
118.8587042492018
 30
0.0
 10
169.7007603159214
 20
118.7522367086995
 30
0.0
 10
169.5821956521159
 20
118.5319533603066
 30
0.0
 10
169.5319872833663
 20
118.4172918439052
 30
0.0
 10
169.4501554310085
 20
118.1786112071284
 30
0.0
 10
169.4188045321258
 20
118.0545655802503
 30
0.0
 10
169.3774101540872
 20
117.8064505441419
 30
0.0
 10
169.366904379023
 20
117.6812128416535
 30
0.0
 10
169.3666014266872
 20
117.4283337860625
 30
0.0
 10
169.3770859563038
 20
117.3004540998258
 30
0.0
 10
169.4182260337652
 20
117.0520320386204
 30
0.0
 10
169.4488041543138
 20
116.930233111852
 30
0.0
 10
169.5300868626651
 20
116.6914535823777
 30
0.0
 10
169.581087749227
 20
116.574412020071
 30
0.0
 10
169.6996547975901
 20
116.3535868221451
 30
0.0
 10
169.7675435508618
 20
116.2486484585823
 30
0.0
 10
169.9206939885995
 20
116.0496711253529
 30
0.0
 10
170.006250160172
 20
115.9556630001588
 30
0.0
 10
170.1889615311312
 20
115.785170315222
 30
0.0
 10
170.2867688308131
 20
115.7077321201727
 30
0.0
 10
170.49557194273
 20
115.5685662242844
 30
0.0
 10
170.6071541180179
 20
115.5067844152774
 30
0.0
 10
170.8357999175169
 20
115.4037055446766
 30
0.0
 10
170.9537547284881
 20
115.361701509481
 30
0.0
 10
171.1970831734768
 20
115.2969653881842
 30
0.0
 10
171.3234270488198
 20
115.2742921256215
 30
0.0
 10
171.5745330298377
 20
115.2504093294404
 30
0.0
 10
171.7002150235606
 20
115.2488060281737
 30
0.0
 10
171.9518370933524
 20
115.2662727669446
 30
0.0
 10
172.0787347136382
 20
115.2857086575845
 30
0.0
 10
172.3239252798994
 20
115.3443018289082
 30
0.0
 10
172.4431144369329
 20
115.3833646800648
 30
0.0
 10
172.6747994612877
 20
115.4808744021886
 30
0.0
 10
172.7879742656382
 20
115.5399097564772
 30
0.0
 10
173.0000526825739
 20
115.6737134733167
 30
0.0
 10
173.0998414612747
 20
115.7487086894615
 30
0.0
 10
173.2870996482637
 20
115.9149037539823
 30
0.0
 10
173.374994685207
 20
116.0067979527238
 30
0.0
 10
173.5332157608389
 20
116.2021621504382
 30
0.0
 10
173.6041537171306
 20
116.3060081041106
 30
0.0
 10
173.6667512523371
 20
116.4162362173232
 30
0.0
  0
SPLINE
  5
131
330
1F
100
AcDbEntity
  8
0
  6
HIDDEN
 62
     7
370
     0
100
AcDbSpline
210
0.0
220
0.0
230
1.0
 70
     8
 71
     3
 72
    10
 73
     6
 74
     0
 42
0.00000001
 43
0.00000001
 12
1.0
 22
0.0
 32
0.0
 13
1.0
 23
0.0
 33
0.0
 40
0.0
 40
0.0
 40
0.0
 40
0.0
 40
0.5
 40
0.5
 40
1.0
 40
1.0
 40
1.0
 40
1.0
 10
206.3653500906473
 20
114.3981968066182
 30
0.0
 10
206.3439393835598
 20
114.9236995486255
 30
0.0
 10
206.3174378667538
 20
115.4490588851942
 30
0.0
 10
206.2779923977768
 20
116.5001594678135
 30
0.0
 10
206.2654496681428
 20
117.0259120160923
 30
0.0
 10
206.2654496681428
 20
117.5520178864833
 30
0.0
  0
LINE
  5
132
330
1F
100
AcDbEntity
  8
0
  6
HIDDEN
 62
     7
370
     0
100
AcDbLine
 10
206.2654496681
 20
138.0520178865
 30
0.0
 11
206.2654496681
 21
117.5520178865
 31
0.0
  0
ELLIPSE
  5
133
330
1F
100
AcDbEntity
  8
0
  6
HIDDEN
 62
     7
370
     0
100
AcDbEllipse
 10
228.0458048891
 20
117.5520178865
 30
0.0
 11
-14.5871860935238
 21
20.49781058791139
 31
0.0
210
0.0
220
0.0
230
1.0
 40
0.0205386817
 41
6.268570076028066
 42
7.839366402822304
  0
LINE
  5
134
330
1F
100
AcDbEntity
  8
0
  6
HIDDEN
 62
     7
370
     0
100
AcDbLine
 10
175.0667512523
 20
123.8020178865
 30
0.0
 11
175.0667512523
 21
111.3020178865
 31
0.0
  0
LINE
  5
135
330
1F
100
AcDbEntity
  8
0
  6
HIDDEN
 62
     7
370
     0
100
AcDbLine
 10
174.1667512523
 20
110.4020178865
 30
0.0
 11
174.1667512523
 21
124.6894605686
 31
0.0
  0
LINE
  5
136
330
1F
100
AcDbEntity
  8
0
  6
HIDDEN
 62
     7
370
     0
100
AcDbLine
 10
200.1667512523
 20
123.8020178865
 30
0.0
 11
200.1667512523
 21
111.3020178865
 31
0.0
  0
SPLINE
  5
137
330
1F
100
AcDbEntity
  8
0
  6
HIDDEN
 62
     7
370
     0
100
AcDbSpline
210
0.0
220
0.0
230
1.0
 70
     8
 71
     3
 72
    62
 73
    58
 74
     0
 42
0.00000001
 43
0.00000001
 12
1.0
 22
0.0
 32
0.0
 13
1.0
 23
0.0
 33
0.0
 40
-0.0312500000000001
 40
-0.0312500000000001
 40
0.0
 40
0.0
 40
0.03125
 40
0.03125
 40
0.0625
 40
0.0625
 40
0.09375
 40
0.09375
 40
0.125
 40
0.125
 40
0.1875000000000001
 40
0.1875000000000001
 40
0.2187500000000001
 40
0.2187500000000001
 40
0.2500000000000002
 40
0.2500000000000002
 40
0.2812500000000002
 40
0.2812500000000002
 40
0.3125000000000001
 40
0.3125000000000001
 40
0.3437500000000001
 40
0.3437500000000001
 40
0.375
 40
0.375
 40
0.40625
 40
0.40625
 40
0.4374999999999999
 40
0.4374999999999999
 40
0.4687499999999999
 40
0.4687499999999999
 40
0.4999999999999998
 40
0.4999999999999998
 40
0.5624999999999998
 40
0.5624999999999998
 40
0.5937499999999999
 40
0.5937499999999999
 40
0.625
 40
0.625
 40
0.6875
 40
0.6875
 40
0.71875
 40
0.71875
 40
0.7499999999999999
 40
0.7499999999999999
 40
0.7812499999999999
 40
0.7812499999999999
 40
0.8124999999999998
 40
0.8124999999999998
 40
0.8749999999999996
 40
0.8749999999999996
 40
0.9062499999999997
 40
0.9062499999999997
 40
0.9374999999999998
 40
0.9374999999999998
 40
0.9687499999999999
 40
0.9687499999999999
 40
1.0
 40
1.0
 40
1.03125
 40
1.03125
 10
197.3065927981389
 20
121.7042771680099
 30
0.0
 10
197.0269097065354
 20
121.7042771680099
 30
0.0
 10
196.8896257495779
 20
121.6933241305627
 30
0.0
 10
196.6198899947264
 20
121.6503409758124
 30
0.0
 10
196.4860079756309
 20
121.6177362983979
 30
0.0
 10
196.2322614172329
 20
121.5326380933265
 30
0.0
 10
196.1120757554903
 20
121.4804062214479
 30
0.0
 10
195.8846131639765
 20
121.3557777147702
 30
0.0
 10
195.7777979585149
 20
121.283268421611
 30
0.0
 10
195.4895533611902
 20
121.0423853040696
 30
0.0
 10
195.333432662289
 20
120.8442051517645
 30
0.0
 10
195.1757172014468
 20
120.5117285953809
 30
0.0
 10
195.1348079723392
 20
120.393012146779
 30
0.0
 10
195.0804310673169
 20
120.1479296097568
 30
0.0
 10
195.0668435994273
 20
120.0226649766809
 30
0.0
 10
195.0666598344397
 20
119.7665434466111
 30
0.0
 10
195.0805458706459
 20
119.6347171083217
 30
0.0
 10
195.1346329551965
 20
119.3774658581879
 30
0.0
 10
195.1746417112415
 20
119.2506612442592
 30
0.0
 10
195.2809879858238
 20
119.001159256459
 30
0.0
 10
195.3461872607413
 20
118.8814217931747
 30
0.0
 10
195.4978946647795
 20
118.6552949120414
 30
0.0
 10
195.5856953394195
 20
118.5473431007344
 30
0.0
 10
195.7790332487828
 20
118.350504290218
 30
0.0
 10
195.8839816347944
 20
118.2617621321511
 30
0.0
 10
196.1107096447405
 20
118.1042771648137
 30
0.0
 10
196.2334813957225
 20
118.0353901152283
 30
0.0
 10
196.4861598679479
 20
117.9250267681467
 30
0.0
 10
196.6171408394486
 20
117.8825913774221
 30
0.0
 10
196.8889292106974
 20
117.8248155412059
 30
0.0
 10
197.0281628210316
 20
117.8101650342511
 30
0.0
 10
197.44134660383
 20
117.809985429059
 30
0.0
 10
197.7194223485447
 20
117.8692936901691
 30
0.0
 10
198.099491176576
 20
118.0350894377581
 30
0.0
 10
198.2222594185181
 20
118.1039589340222
 30
0.0
 10
198.4489455844044
 20
118.2613104979381
 30
0.0
 10
198.5541136929498
 20
118.3501417423877
 30
0.0
 10
198.84520018868
 20
118.6465007789147
 30
0.0
 10
198.9991307109081
 20
118.8761385670001
 30
0.0
 10
199.1585623136578
 20
119.2498491162863
 30
0.0
 10
199.1985635112133
 20
119.376437722328
 30
0.0
 10
199.2527227321427
 20
119.6331814055522
 30
0.0
 10
199.2667456386921
 20
119.764918616164
 30
0.0
 10
199.2667568625288
 20
120.0215416569905
 30
0.0
 10
199.2532159093298
 20
120.1469217497983
 30
0.0
 10
199.19899782272
 20
120.3919989640116
 30
0.0
 10
199.1581178681136
 20
120.5109264012273
 30
0.0
 10
199.0001497909378
 20
120.8442381430684
 30
0.0
 10
198.8441218335829
 20
121.0422781839422
 30
0.0
 10
198.5553747142577
 20
121.2835254376589
 30
0.0
 10
198.4481598795287
 20
121.3562115127548
 30
0.0
 10
198.2213064725788
 20
121.4804378732791
 30
0.0
 10
198.1012889603389
 20
121.5326212746324
 30
0.0
 10
197.8474707528848
 20
121.6177450357701
 30
0.0
 10
197.7136037088334
 20
121.6503409876937
 30
0.0
 10
197.4439364669391
 20
121.6933160056505
 30
0.0
 10
197.3065927981389
 20
121.7042771680099
 30
0.0
 10
197.0269097065354
 20
121.7042771680099
 30
0.0
  0
CIRCLE
  5
138
330
1F
100
AcDbEntity
  8
0
  6
HIDDEN
 62
     7
370
     0
100
AcDbCircle
 10
221.7810535826
 20
109.4666443528
 30
0.0
 40
3.477935630307773
  0
SPLINE
  5
139
330
1F
100
AcDbEntity
  8
0
  6
HIDDEN
 62
     7
370
     0
100
AcDbSpline
210
0.0
220
0.0
230
1.0
 70
     8
 71
     3
 72
     8
 73
     4
 74
     0
 42
0.00000001
 43
0.00000001
 12
1.0
 22
0.0
 32
0.0
 13
1.0
 23
0.0
 33
0.0
 40
0.0
 40
0.0
 40
0.0
 40
0.0
 40
1.0
 40
1.0
 40
1.0
 40
1.0
 10
207.3127048831928
 20
104.5477517072752
 30
0.0
 10
206.8444657906275
 20
107.8100227489571
 30
0.0
 10
206.500155802874
 20
111.0895358117232
 30
0.0
 10
206.3653500906472
 20
114.3981968066182
 30
0.0
  0
SPLINE
  5
13A
330
1F
100
AcDbEntity
  8
0
  6
HIDDEN
 62
     7
370
     0
100
AcDbSpline
210
0.0
220
0.0
230
1.0
 70
     8
 71
     3
 72
    19
 73
    15
 74
     0
 42
0.00000001
 43
0.00000001
 12
1.0
 22
0.0
 32
0.0
 13
1.0
 23
0.0
 33
0.0
 40
0.0
 40
0.0
 40
0.0
 40
0.0
 40
0.0863161916231287
 40
0.1732308254879459
 40
0.2620363032565051
 40
0.3514967228618253
 40
0.4377706853141535
 40
0.5246471915482583
 40
0.6134276962291071
 40
0.7028675730887057
 40
0.7888065481638034
 40
0.8753445757509486
 40
0.9637734579361932
 40
1.0
 40
1.0
 40
1.0
 40
1.0
 10
207.3127048831929
 20
104.5477517072752
 30
0.0
 10
207.3050288841194
 20
103.9888132888571
 30
0.0
 10
207.2896236671963
 20
102.8670612537087
 30
0.0
 10
207.2684159626005
 20
101.308056912831
 30
0.0
 10
207.248687073882
 20
99.84851816468787
 30
0.0
 10
207.2310154836594
 20
98.53216915208797
 30
0.0
 10
207.2154969742216
 20
97.36933979347498
 30
0.0
 10
207.2020953999723
 20
96.35977741233516
 30
0.0
 10
207.1907252780121
 20
95.49922284300125
 30
0.0
 10
207.1816841915185
 20
94.81222754383265
 30
0.0
 10
207.1749481098215
 20
94.29881055758754
 30
0.0
 10
207.1706314950202
 20
93.96910245686948
 30
0.0
 10
207.1685637180197
 20
93.81095141482213
 30
0.0
 10
207.1688109716086
 20
93.82986160682754
 30
0.0
 10
207.1688828268254
 20
93.83535716283919
 30
0.0
  0
CIRCLE
  5
13B
330
1F
100
AcDbEntity
  8
0
  6
HIDDEN
 62
     7
370
     0
100
AcDbCircle
 10
221.3546404239
 20
109.8907215756
 30
0.0
 40
3.477935630307748
  0
ELLIPSE
  5
13C
330
1F
100
AcDbEntity
  8
0
  6
HIDDEN
 62
     7
370
     0
100
AcDbEllipse
 10
217.6975343983
 20
117.8441686211
 30
0.0
 11
-2.547289797953396
 21
25.40076590679334
 31
0.0
210
0.0
220
0.0
230
1.0
 40
0.0928940858
 41
2.9850861898429
 42
3.122312449060421
  0
ELLIPSE
  5
13D
330
1F
100
AcDbEntity
  8
0
  6
HIDDEN
 62
     7
370
     0
100
AcDbEllipse
 10
212.9697224759
 20
118.3410816777
 30
0.0
 11
215.3493833991933
 21
-20.26302228663764
 31
0.0
210
0.0
220
0.0
230
1.0
 40
0.1150714178
 41
4.755149974599453
 42
4.757489483236551
  0
ELLIPSE
  5
13E
330
1F
100
AcDbEntity
  8
0
  6
HIDDEN
 62
     7
370
     0
100
AcDbEllipse
 10
218.207487061
 20
117.7905704365
 30
0.0
 11
-2.547289797953397
 21
25.40076590679331
 31
0.0
210
0.0
220
0.0
230
1.0
 40
0.0928940858
 41
2.865486335546524
 42
2.982746681205801
  0
ELLIPSE
  5
13F
330
1F
100
AcDbEntity
  8
0
  6
HIDDEN
 62
     7
370
     0
100
AcDbEllipse
 10
187.5051814515
 20
121.0175127884
 30
0.0
 11
215.3493833991936
 21
-20.26302228663761
 31
0.0
210
0.0
220
0.0
230
1.0
 40
0.1150714178
 41
4.874749828895832
 42
4.925401473903571
  0
SPLINE
  5
140
330
1F
100
AcDbEntity
  8
0
  6
HIDDEN
 62
     7
370
     0
100
AcDbSpline
210
0.0
220
0.0
230
1.0
 70
     8
 71
     3
 72
    25
 73
    21
 74
     0
 42
0.00000001
 43
0.00000001
 12
1.0
 22
0.0
 32
0.0
 13
1.0
 23
0.0
 33
0.0
 40
0.0
 40
0.0
 40
0.0
 40
0.0
 40
0.0264141681369333
 40
0.0521829732227564
 40
0.0773064263956338
 40
0.1017845397855335
 40
0.1256173266187623
 40
0.1898033660705241
 40
0.2511102135946192
 40
0.3148939364348766
 40
0.3764523067854477
 40
0.5015887634578535
 40
0.6265200058563242
 40
0.6895075240196294
 40
0.7512522040891255
 40
0.8140256814121982
 40
0.8757463481256976
 40
0.9175655690465148
 40
0.9589832116944462
 40
1.0
 40
1.0
 40
1.0
 40
1.0
 10
228.6113948276778
 20
102.3091691698118
 30
0.0
 10
228.6304782142327
 20
102.1895106716833
 30
0.0
 10
228.6681787333036
 20
101.9531172266448
 30
0.0
 10
228.7242250997643
 20
101.6081338295297
 30
0.0
 10
228.7789889416574
 20
101.2755255475498
 30
0.0
 10
228.8324618679111
 20
100.9554302079165
 30
0.0
 10
228.9145196836539
 20
100.4709790739859
 30
0.0
 10
229.0237411877528
 20
99.84250999744755
 30
0.0
 10
229.1625167267142
 20
99.07374574755967
 30
0.0
 10
229.2994538967003
 20
98.34418824997007
 30
0.0
 10
229.4830602338794
 20
97.40528762964564
 30
0.0
 10
229.7107012524822
 20
96.314032664101
 30
0.0
 10
229.9367637180392
 20
95.32936360143442
 30
0.0
 10
230.1145147720315
 20
94.61535685966297
 30
0.0
 10
230.2465724538862
 20
94.11545375355121
 30
0.0
 10
230.3760628777498
 20
93.65596894007578
 30
0.0
 10
230.4900374893718
 20
93.27929552434426
 30
0.0
 10
230.5879830976071
 20
92.97643473502933
 30
0.0
 10
230.6710200071567
 20
92.73304485822561
 30
0.0
 10
230.725214028785
 20
92.58632536252645
 30
0.0
 10
230.7521792748217
 20
92.51332234150983
 30
0.0
  0
LINE
  5
141
330
1F
100
AcDbEntity
  8
0
  6
HIDDEN
 62
     7
370
     0
100
AcDbLine
 10
207.3127048832
 20
104.5477517073
 30
0.0
 11
228.6113929131
 21
102.3091693897
 31
0.0
  0
ARC
  5
142
330
1F
100
AcDbEntity
  8
0
  6
HIDDEN
 62
     7
370
     0
100
AcDbCircle
 10
218.1715746929
 20
102.469859059
 30
0.0
 40
2.349025240543027
100
AcDbArc
 50
85.36755128
 51
233.205017667
  0
LINE
  5
143
330
1F
100
AcDbEntity
  8
0
  6
HIDDEN
 62
     7
370
     0
100
AcDbLine
 10
230.5600974845
 20
103.8779741598
 30
0.0
 11
231.0513812619
 21
103.3893816864
 31
0.0
  0
LINE
  5
144
330
1F
100
AcDbEntity
  8
0
  6
HIDDEN
 62
     7
370
     0
100
AcDbLine
 10
227.6086353811
 20
117.2750596092
 30
0.0
 11
230.0478081808
 21
114.8492488534
 31
0.0
  0
LINE
  5
145
330
1F
100
AcDbEntity
  8
0
  6
HIDDEN
 62
     7
370
     0
100
AcDbLine
 10
219.3990193967
 20
100.3218342667
 30
0.0
 11
219.2015062233
 21
100.3369444747
 31
0.0
  0
LINE
  5
146
330
1F
100
AcDbEntity
  8
0
  6
HIDDEN
 62
     7
370
     0
100
AcDbLine
 10
219.3990193967
 20
100.3218342667
 30
0.0
 11
219.7063330787
 21
100.0162040812
 31
0.0
  0
LINE
  5
147
330
1F
100
AcDbEntity
  8
0
  6
HIDDEN
 62
     7
370
     0
100
AcDbLine
 10
219.7063330787
 20
100.0162040812
 30
0.0
 11
219.2263789062
 21
100.0529216694
 31
0.0
  0
ELLIPSE
  5
148
330
1F
100
AcDbEntity
  8
0
  6
HIDDEN
 62
     7
370
     0
100
AcDbEllipse
 10
222.8958960877
 20
105.0698883273
 30
0.0
 11
-0.9406553105117724
 21
2.766158975077403
 31
0.0
210
0.0
220
0.0
230
1.0
 40
0.8539059128
 41
1.511530864617702
 42
1.597220060046395
  0
ELLIPSE
  5
149
330
1F
100
AcDbEntity
  8
0
  6
HIDDEN
 62
     7
370
     0
100
AcDbEllipse
 10
223.3572455731
 20
104.0723463686
 30
0.0
 11
2.968392757696136
 21
-0.4881156426729518
 31
0.0
210
0.0
220
0.0
230
1.0
 40
0.1367129703
 41
3.416618328448491
 42
4.004570546515193
  0
ELLIPSE
  5
14A
330
1F
100
AcDbEntity
  8
0
  6
HIDDEN
 62
     7
370
     0
100
AcDbEllipse
 10
223.8280983503
 20
103.054256143
 30
0.0
 11
-0.9406553105117155
 21
2.766158975077402
 31
0.0
210
0.0
220
0.0
230
1.0
 40
0.8539059128
 41
0.7350371165247037
 42
0.9235786465510115
  0
ELLIPSE
  5
14B
330
1F
100
AcDbEntity
  8
0
  6
HIDDEN
 62
     7
370
     0
100
AcDbEllipse
 10
223.8280983503
 20
103.054256143
 30
0.0
 11
-0.9406553105117155
 21
2.766158975077402
 31
0.0
210
0.0
220
0.0
230
1.0
 40
0.8539059128
 41
4.738812713636202
 42
4.847837731742092
  0
SPLINE
  5
14C
330
1F
100
AcDbEntity
  8
0
  6
HIDDEN
 62
     7
370
     0
100
AcDbSpline
210
0.0
220
0.0
230
1.0
 70
     8
 71
     3
 72
    22
 73
    18
 74
     0
 42
0.00000001
 43
0.00000001
 12
1.0
 22
0.0
 32
0.0
 13
1.0
 23
0.0
 33
0.0
 40
0.0
 40
0.0
 40
0.0
 40
0.0
 40
0.1249999999999994
 40
0.1249999999999994
 40
0.2499999999999992
 40
0.2499999999999992
 40
0.499999999999999
 40
0.499999999999999
 40
0.6249999999999993
 40
0.6249999999999993
 40
0.7499999999999996
 40
0.7499999999999996
 40
0.8749999999999999
 40
0.8749999999999999
 40
0.9375
 40
0.9375
 40
1.0
 40
1.0
 40
1.0
 40
1.0
 10
224.163985809749
 20
108.2557696103381
 30
0.0
 10
224.1933241000561
 20
108.226592038255
 30
0.0
 10
224.2137620087195
 20
108.1838203930404
 30
0.0
 10
224.2405740198094
 20
108.0783050593107
 30
0.0
 10
224.2468568486522
 20
108.0152869579182
 30
0.0
 10
224.2453941274532
 20
107.8050851748
 30
0.0
 10
224.2187273172113
 20
107.6370963625973
 30
0.0
 10
224.1274018331494
 20
107.3541414705217
 30
0.0
 10
224.0882117745493
 20
107.2544818909124
 30
0.0
 10
223.9847521445985
 20
107.0437151283551
 30
0.0
 10
223.9206211709572
 20
106.9325777078771
 30
0.0
 10
223.7536468809815
 20
106.7002353533794
 30
0.0
 10
223.6510588318053
 20
106.5782230127225
 30
0.0
 10
223.4433746591184
 20
106.3896656249273
 30
0.0
 10
223.3638836632688
 20
106.3249245645017
 30
0.0
 10
223.176439306104
 20
106.1954729349118
 30
0.0
 10
223.0690936825522
 20
106.1312715008917
 30
0.0
 10
222.9452846783501
 20
106.0717929653813
 30
0.0
  0
SPLINE
  5
14D
330
1F
100
AcDbEntity
  8
0
  6
HIDDEN
 62
     7
370
     0
100
AcDbSpline
210
0.0
220
0.0
230
1.0
 70
     8
 71
     3
 72
     8
 73
     4
 74
     0
 42
0.00000001
 43
0.00000001
 12
1.0
 22
0.0
 32
0.0
 13
1.0
 23
0.0
 33
0.0
 40
0.0
 40
0.0
 40
0.0
 40
0.0
 40
1.0
 40
1.0
 40
1.0
 40
1.0
 10
222.94528467835
 20
106.0717929653814
 30
0.0
 10
222.8028875599491
 20
106.0269134934189
 30
0.0
 10
222.6622472462249
 20
105.9742225862266
 30
0.0
 10
222.5233905611847
 20
105.9136009738603
 30
0.0
  0
SPLINE
  5
14E
330
1F
100
AcDbEntity
  8
0
  6
HIDDEN
 62
     7
370
     0
100
AcDbSpline
210
0.0
220
0.0
230
1.0
 70
     8
 71
     3
 72
    22
 73
    18
 74
     0
 42
0.00000001
 43
0.00000001
 12
1.0
 22
0.0
 32
0.0
 13
1.0
 23
0.0
 33
0.0
 40
0.0
 40
0.0
 40
0.0
 40
0.0
 40
0.0624999999999999
 40
0.0624999999999999
 40
0.1249999999999998
 40
0.1249999999999998
 40
0.1874999999999997
 40
0.1874999999999997
 40
0.2499999999999996
 40
0.2499999999999996
 40
0.3749999999999996
 40
0.3749999999999996
 40
0.4999999999999997
 40
0.4999999999999997
 40
0.7499999999999998
 40
0.7499999999999998
 40
1.0
 40
1.0
 40
1.0
 40
1.0
 10
222.5233905611847
 20
105.9136009738603
 30
0.0
 10
222.38631014709
 20
105.8753232010911
 30
0.0
 10
222.2577485126835
 20
105.8507234096966
 30
0.0
 10
222.0110961129709
 20
105.8178895178058
 30
0.0
 10
221.8984766668946
 20
105.8104251244049
 30
0.0
 10
221.6864265407321
 20
105.8054983289647
 30
0.0
 10
221.5865407400622
 20
105.8082430997245
 30
0.0
 10
221.4000994617766
 20
105.8200870668826
 30
0.0
 10
221.3129798099268
 20
105.829185343999
 30
0.0
 10
221.0646004334072
 20
105.8626909880335
 30
0.0
 10
220.9160885852932
 20
105.8931855683443
 30
0.0
 10
220.6412341564196
 20
105.9621805512689
 30
0.0
 10
220.5151795395593
 20
106.0008842401258
 30
0.0
 10
220.1695753529256
 20
106.1209251494473
 30
0.0
 10
219.9787539850255
 20
106.2068322394189
 30
0.0
 10
219.6699835535539
 20
106.3683624423677
 30
0.0
 10
219.5507021227181
 20
106.444585536732
 30
0.0
 10
219.4912613783081
 20
106.5037006585247
 30
0.0
  0
ELLIPSE
  5
14F
330
1F
100
AcDbEntity
  8
0
  6
HIDDEN
 62
     7
370
     0
100
AcDbEllipse
 10
223.0773036827
 20
104.6776440669
 30
0.0
 11
2.968392757696136
 21
-0.4881156426729518
 31
0.0
210
0.0
220
0.0
230
1.0
 40
0.1367129703
 41
4.193112076541485
 42
6.363496768503623
  0
ELLIPSE
  5
150
330
1F
100
AcDbEntity
  8
0
  6
HIDDEN
 62
     7
370
     0
100
AcDbEllipse
 10
220.6024596347
 20
110.5979036608
 30
0.0
 11
3.518690774465625
 21
2.323872478491211
 31
0.0
210
0.0
220
0.0
230
1.0
 40
0.89827004
 41
3.825400951845968
 42
5.100524793084357
  0
LINE
  5
151
330
1F
100
AcDbEntity
  8
0
  6
HIDDEN
 62
     7
370
     0
100
AcDbLine
 10
219.1936228437
 20
106.7997086981
 30
0.0
 11
219.4912613783
 21
106.5037006585
 31
0.0
  0
LINE
  5
152
330
1F
100
AcDbEntity
  8
0
  6
HIDDEN
 62
     7
370
     0
100
AcDbLine
 10
224.1639858097
 20
108.2557696103
 30
0.0
 11
223.8663472751
 21
108.5517776499
 31
0.0
  0
ELLIPSE
  5
153
330
1F
100
AcDbEntity
  8
0
  6
HIDDEN
 62
     7
370
     0
100
AcDbEllipse
 10
219.3602651714
 20
111.8332932528
 30
0.0
 11
-3.01089176556718
 21
2.994397785440654
 31
0.0
210
0.0
220
0.0
230
1.0
 40
0.9890738004
 41
0.0
 42
6.283185307179586
  0
ARC
  5
154
330
1F
100
AcDbEntity
  8
0
  6
HIDDEN
 62
     7
370
     0
100
AcDbCircle
 10
221.2683125681
 20
109.9025494152
 30
0.0
 40
4.181737729252752
100
AcDbArc
 50
293.6421332893
 51
287.4655988121
  0
ARC
  5
155
330
1F
100
AcDbEntity
  8
0
  6
HIDDEN
 62
     7
370
     0
100
AcDbCircle
 10
218.1540122301
 20
102.2188168536
 30
0.0
 40
2.102948806052094
100
AcDbArc
 50
85.5288821104
 51
224.5389825055
  0
LINE
  5
156
330
1F
100
AcDbEntity
  8
0
  6
HIDDEN
 62
     7
370
     0
100
AcDbLine
 10
218.3179508677
 20
104.3153658762
 30
0.0
 11
218.3791035437
 21
104.3106875571
 31
0.0
  0
LINE
  5
157
330
1F
100
AcDbEntity
  8
0
  6
HIDDEN
 62
     7
370
     0
100
AcDbLine
 10
218.8567140293
 20
104.2741492663
 30
0.0
 11
221.3765609062
 21
104.0813752367
 31
0.0
  0
LINE
  5
158
330
1F
100
AcDbEntity
  8
0
  6
HIDDEN
 62
     7
370
     0
100
AcDbLine
 10
221.5462963372
 20
104.567550493
 30
0.0
 11
218.3612900149
 21
104.8112107364
 31
0.0
  0
ARC
  5
159
330
1F
100
AcDbEntity
  8
0
  6
HIDDEN
 62
     7
370
     0
100
AcDbCircle
 10
217.8421036088
 20
102.5285386129
 30
0.0
 40
2.099233608093374
100
AcDbArc
 50
85.3951451906
 51
234.009340717
  0
LINE
  5
15A
330
1F
100
AcDbEntity
  8
0
  6
HIDDEN
 62
     7
370
     0
100
AcDbLine
 10
220.3494720014
 20
92.6721583286
 30
0.0
 11
219.7063330787
 21
100.0162040812
 31
0.0
  0
LINE
  5
15B
330
1F
100
AcDbEntity
  8
0
  6
HIDDEN
 62
     7
370
     0
100
AcDbLine
 10
219.2033224981
 20
100.0546855372
 30
0.0
 11
219.8459068854
 21
92.7169720605
 31
0.0
  0
LINE
  5
15C
330
1F
100
AcDbEntity
  8
0
  6
HIDDEN
 62
     7
370
     0
100
AcDbLine
 10
226.2453633965
 20
103.7089007486
 30
0.0
 11
226.164460566
 21
103.9302906189
 31
0.0
  0
LINE
  5
15D
330
1F
100
AcDbEntity
  8
0
  6
HIDDEN
 62
     7
370
     0
100
AcDbLine
 10
226.2453633965
 20
103.7089007486
 30
0.0
 11
230.6041052079
 21
103.375447065
 31
0.0
  0
LINE
  5
15E
330
1F
100
AcDbEntity
  8
0
  6
HIDDEN
 62
     7
370
     0
100
AcDbLine
 10
230.6041052079
 20
103.375447065
 30
0.0
 11
230.5600974845
 21
103.8779741598
 31
0.0
  0
LINE
  5
15F
330
1F
100
AcDbEntity
  8
0
  6
HIDDEN
 62
     7
370
     0
100
AcDbLine
 10
230.5600974845
 20
103.8779741598
 30
0.0
 11
226.0414821849
 21
104.2236585297
 31
0.0
  0
LINE
  5
160
330
1F
100
AcDbEntity
  8
0
  6
HIDDEN
 62
     7
370
     0
100
AcDbLine
 10
225.9380497145
 20
104.014530934
 30
0.0
 11
226.2453633965
 21
103.7089007486
 31
0.0
  0
LINE
  5
161
330
1F
100
AcDbEntity
  8
0
  6
HIDDEN
 62
     7
370
     0
100
AcDbLine
 10
225.9380497145
 20
104.014530934
 30
0.0
 11
227.0426272849
 21
100.9918643149
 31
0.0
  0
LINE
  5
162
330
1F
100
AcDbEntity
  8
0
  6
HIDDEN
 62
     7
370
     0
100
AcDbLine
 10
226.7494264739
 20
101.2834589412
 30
0.0
 11
227.0426272849
 21
100.9918643149
 31
0.0
  0
LINE
  5
163
330
1F
100
AcDbEntity
  8
0
  6
HIDDEN
 62
     7
370
     0
100
AcDbLine
 10
224.913080186
 20
105.2540550533
 30
0.0
 11
223.8663472751
 21
108.5517776499
 31
0.0
  0
LINE
  5
164
330
1F
100
AcDbEntity
  8
0
  6
HIDDEN
 62
     7
370
     0
100
AcDbLine
 10
230.2967915259
 20
103.6810772505
 30
0.0
 11
230.6041052079
 21
103.375447065
 31
0.0
  0
LINE
  5
165
330
1F
100
AcDbEntity
  8
0
  6
HIDDEN
 62
     7
370
     0
100
AcDbLine
 10
160.6667512523
 20
107.8944069668
 30
0.0
 11
160.6667512523
 21
104.0544875006
 31
0.0
  0
LINE
  5
166
330
1F
100
AcDbEntity
  8
0
  6
HIDDEN
 62
     7
370
     0
100
AcDbLine
 10
159.1667512523
 20
108.3274196686
 30
0.0
 11
159.1667512523
 21
104.9205129044
 31
0.0
  0
LINE
  5
167
330
1F
100
AcDbEntity
  8
0
  6
HIDDEN
 62
     7
370
     0
100
AcDbLine
 10
181.4667512523
 20
107.6331227674
 30
0.0
 11
181.4667512523
 21
106.5779798942
 31
0.0
  0
LINE
  5
168
330
1F
100
AcDbEntity
  8
0
  6
HIDDEN
 62
     7
370
     0
100
AcDbLine
 10
181.4667512523
 20
103.6317814982
 30
0.0
 11
181.4667512523
 21
103.5319191019
 31
0.0
  0
SPLINE
  5
169
330
1F
100
AcDbEntity
  8
0
  6
HIDDEN
 62
     7
370
     0
100
AcDbSpline
210
0.0
220
0.0
230
1.0
 70
     8
 71
     3
 72
    16
 73
    12
 74
     0
 42
0.00000001
 43
0.00000001
 12
1.0
 22
0.0
 32
0.0
 13
1.0
 23
0.0
 33
0.0
 40
0.0
 40
0.0
 40
0.0
 40
0.0
 40
0.2500000000000005
 40
0.2500000000000005
 40
0.3750000000000007
 40
0.3750000000000007
 40
0.5000000000000009
 40
0.5000000000000009
 40
0.7500000000000004
 40
0.7500000000000004
 40
1.0
 40
1.0
 40
1.0
 40
1.0
 10
181.466751252337
 20
106.5779798942367
 30
0.0
 10
181.3862139204375
 20
106.1889727102912
 30
0.0
 10
181.3261765764101
 20
105.8324722686656
 30
0.0
 10
181.2654388692565
 20
105.3459698834768
 30
0.0
 10
181.2501164941436
 20
105.1918909426229
 30
0.0
 10
181.2295336848395
 20
104.9004213841295
 30
0.0
 10
181.2243340878138
 20
104.7628515002304
 30
0.0
 10
181.224280434634
 20
104.3846066650407
 30
0.0
 10
181.244477978112
 20
104.1747255964886
 30
0.0
 10
181.3251560664707
 20
103.8381462975774
 30
0.0
 10
181.3862022310785
 20
103.7118618056597
 30
0.0
 10
181.4667512523371
 20
103.6317814981683
 30
0.0
  0
SPLINE
  5
16A
330
1F
100
AcDbEntity
  8
0
  6
HIDDEN
 62
     7
370
     0
100
AcDbSpline
210
0.0
220
0.0
230
1.0
 70
     8
 71
     3
 72
    24
 73
    20
 74
     0
 42
0.00000001
 43
0.00000001
 12
1.0
 22
0.0
 32
0.0
 13
1.0
 23
0.0
 33
0.0
 40
0.0
 40
0.0
 40
0.0
 40
0.0
 40
0.2500000000000002
 40
0.2500000000000002
 40
0.3750000000000003
 40
0.3750000000000003
 40
0.4374999999999994
 40
0.4374999999999994
 40
0.4687499999999988
 40
0.4687499999999988
 40
0.4999999999999983
 40
0.4999999999999983
 40
0.562499999999998
 40
0.562499999999998
 40
0.6249999999999978
 40
0.6249999999999978
 40
0.7499999999999992
 40
0.7499999999999992
 40
1.0
 40
1.0
 40
1.0
 40
1.0
 10
181.466751252337
 20
103.6317814981681
 30
0.0
 10
181.4671541629724
 20
103.6622057350063
 30
0.0
 10
181.4691981423127
 20
103.6950638355607
 30
0.0
 10
181.4784353851381
 20
103.7510892027145
 30
0.0
 10
181.4823224481185
 20
103.7707002559
 30
0.0
 10
181.493226339524
 20
103.804974539329
 30
0.0
 10
181.4973683852743
 20
103.8170369648013
 30
0.0
 10
181.5092634590243
 20
103.839356129499
 30
0.0
 10
181.5145105233313
 20
103.8483226418579
 30
0.0
 10
181.5313775897066
 20
103.8659722063861
 30
0.0
 10
181.5391999972361
 20
103.8701164905313
 30
0.0
 10
181.5561487978607
 20
103.8766040317089
 30
0.0
 10
181.5636051490789
 20
103.8760071503372
 30
0.0
 10
181.5776650522722
 20
103.8742608863657
 30
0.0
 10
181.5837974374084
 20
103.8724301984673
 30
0.0
 10
181.6010921999323
 20
103.8658637888947
 30
0.0
 10
181.6111095183416
 20
103.8599985737359
 30
0.0
 10
181.6394808525852
 20
103.8412538897053
 30
0.0
 10
181.6560162902299
 20
103.8270897416183
 30
0.0
 10
181.6717112743948
 20
103.8129333553257
 30
0.0
  0
SPLINE
  5
16B
330
1F
100
AcDbEntity
  8
0
  6
HIDDEN
 62
     7
370
     0
100
AcDbSpline
210
0.0
220
0.0
230
1.0
 70
     8
 71
     3
 72
     8
 73
     4
 74
     0
 42
0.00000001
 43
0.00000001
 12
1.0
 22
0.0
 32
0.0
 13
1.0
 23
0.0
 33
0.0
 40
0.0
 40
0.0
 40
0.0
 40
0.0
 40
1.0
 40
1.0
 40
1.0
 40
1.0
 10
181.6717112743948
 20
103.8129333553257
 30
0.0
 10
181.7224384176014
 20
103.7671790540005
 30
0.0
 10
181.7803257471623
 20
103.738674908137
 30
0.0
 10
181.8454309087775
 20
103.7269538784782
 30
0.0
  0
SPLINE
  5
16C
330
1F
100
AcDbEntity
  8
0
  6
HIDDEN
 62
     7
370
     0
100
AcDbSpline
210
0.0
220
0.0
230
1.0
 70
     8
 71
     3
 72
     8
 73
     4
 74
     0
 42
0.00000001
 43
0.00000001
 12
1.0
 22
0.0
 32
0.0
 13
1.0
 23
0.0
 33
0.0
 40
0.0
 40
0.0
 40
0.0
 40
0.0
 40
1.0
 40
1.0
 40
1.0
 40
1.0
 10
181.8454309087775
 20
131.3770818944884
 30
0.0
 10
181.7803257471634
 20
131.3653608648298
 30
0.0
 10
181.7224384176034
 20
131.3368567189671
 30
0.0
 10
181.6717112743974
 20
131.2911024176433
 30
0.0
  0
LINE
  5
16D
330
1F
100
AcDbEntity
  8
0
  6
HIDDEN
 62
     7
370
     0
100
AcDbLine
 10
181.4667512523
 20
131.572116671
 30
0.0
 11
181.4667512523
 21
131.4722542748
 31
0.0
  0
SPLINE
  5
16E
330
1F
100
AcDbEntity
  8
0
  6
HIDDEN
 62
     7
370
     0
100
AcDbSpline
210
0.0
220
0.0
230
1.0
 70
     8
 71
     3
 72
    24
 73
    20
 74
     0
 42
0.00000001
 43
0.00000001
 12
1.0
 22
0.0
 32
0.0
 13
1.0
 23
0.0
 33
0.0
 40
0.0
 40
0.0
 40
0.0
 40
0.0
 40
0.2500000000000003
 40
0.2500000000000003
 40
0.3750000000000017
 40
0.3750000000000017
 40
0.4375000000000011
 40
0.4375000000000011
 40
0.5000000000000004
 40
0.5000000000000004
 40
0.5312500000000002
 40
0.5312500000000002
 40
0.5625
 40
0.5625
 40
0.625000000000002
 40
0.625000000000002
 40
0.7500000000000019
 40
0.7500000000000019
 40
1.0
 40
1.0
 40
1.0
 40
1.0
 10
181.6717112743975
 20
131.2911024176433
 30
0.0
 10
181.6559446860992
 20
131.276881446655
 30
0.0
 10
181.6393331531446
 20
131.2626511563201
 30
0.0
 10
181.6108068051866
 20
131.2438541010987
 30
0.0
 10
181.6007213713966
 20
131.2379656807574
 30
0.0
 10
181.5832386008617
 20
131.231428285955
 30
0.0
 10
181.5770309444162
 20
131.2296170719539
 30
0.0
 10
181.5627594441711
 20
131.2280112694474
 30
0.0
 10
181.555189373668
 20
131.2274584920613
 30
0.0
 10
181.5377930442328
 20
131.2346572367739
 30
0.0
 10
181.5293337712728
 20
131.2397489855215
 30
0.0
 10
181.5132728067251
 20
131.2575639180006
 30
0.0
 10
181.5084395708787
 20
131.266086332863
 30
0.0
 10
181.4970136511434
 20
131.2879827695118
 30
0.0
 10
181.4929922952609
 20
131.2997232923178
 30
0.0
 10
181.4822318002298
 20
131.3337735562712
 30
0.0
 10
181.4783574911689
 20
131.3533485452999
 30
0.0
 10
181.4691846190417
 20
131.4091968539812
 30
0.0
 10
181.467152248327
 20
131.4419746150101
 30
0.0
 10
181.4667512523371
 20
131.472254274798
 30
0.0
  0
LINE
  5
16F
330
1F
100
AcDbEntity
  8
0
  6
HIDDEN
 62
     7
370
     0
100
AcDbLine
 10
160.6667512523
 20
131.0495482723
 30
0.0
 11
160.6667512523
 21
127.2096288062
 31
0.0
  0
LINE
  5
170
330
1F
100
AcDbEntity
  8
0
  6
HIDDEN
 62
     7
370
     0
100
AcDbLine
 10
159.1667512523
 20
130.1835228685
 30
0.0
 11
159.1667512523
 21
126.7766161043
 31
0.0
  0
LINE
  5
171
330
1F
100
AcDbEntity
  8
0
  6
HIDDEN
 62
     7
370
     0
100
AcDbLine
 10
181.4667512523
 20
128.5260558787
 30
0.0
 11
181.4667512523
 21
127.4709130056
 31
0.0
  0
SPLINE
  5
172
330
1F
100
AcDbEntity
  8
0
  6
HIDDEN
 62
     7
370
     0
100
AcDbSpline
210
0.0
220
0.0
230
1.0
 70
     8
 71
     3
 72
    16
 73
    12
 74
     0
 42
0.00000001
 43
0.00000001
 12
1.0
 22
0.0
 32
0.0
 13
1.0
 23
0.0
 33
0.0
 40
0.0
 40
0.0
 40
0.0
 40
0.0
 40
0.2499999999999999
 40
0.2499999999999999
 40
0.3750000000000001
 40
0.3750000000000001
 40
0.5000000000000002
 40
0.5000000000000002
 40
0.7500000000000001
 40
0.7500000000000001
 40
1.0
 40
1.0
 40
1.0
 40
1.0
 10
181.466751252337
 20
131.4722542747982
 30
0.0
 10
181.3862139204377
 20
131.3921855886458
 30
0.0
 10
181.3261765764104
 20
131.2683210971555
 30
0.0
 10
181.2654388692567
 20
131.0176402732234
 30
0.0
 10
181.2501164941438
 20
130.9232016689139
 30
0.0
 10
181.2295336848396
 20
130.7118906012952
 30
0.0
 10
181.224334087814
 20
130.5946011465416
 30
0.0
 10
181.2242804346339
 20
130.2165654747864
 30
0.0
 10
181.2444779781115
 20
129.9277883210424
 30
0.0
 10
181.3251560664695
 20
129.2779484579036
 30
0.0
 10
181.3862022310769
 20
128.9151195240109
 30
0.0
 10
181.466751252335
 20
128.5260558787392
 30
0.0
  0
LWPOLYLINE
  5
173
330
1F
100
AcDbEntity
  8
0
  6
HIDDEN
 62
     7
370
     0
100
AcDbPolyline
 90
       30
 70
   128
 43
0.0
 10
197.1667512523
 20
124.6535617491
 10
197.6181891768
 20
124.6080399582
 10
198.0485183656
 20
124.4736031339
 10
198.4376171042
 20
124.2565373927
 10
198.7672915681
 20
123.9669924874
 10
199.0221265457
 20
123.6185072159
 10
199.1902062366
 20
123.2273763623
 10
199.2636714214
 20
122.8118887705
 10
199.2390869497
 20
122.3914721786
 10
199.117602364
 20
121.9857847991
 10
198.9048981485
 20
121.613796123
 10
198.6109201159
 20
121.2928999274
 10
198.2494143524
 20
121.0381009617
 10
197.8372844656
 20
120.8613133424
 10
197.393801191
 20
120.770803462
 10
196.9397013136
 20
120.770803462
 10
196.4962180391
 20
120.8613133424
 10
196.0840881523
 20
121.0381009617
 10
195.7225823887
 20
121.2928999274
 10
195.4286043562
 20
121.613796123
 10
195.2159001407
 20
121.9857847991
 10
195.094415555
 20
122.3914721786
 10
195.0698310832
 20
122.8118887705
 10
195.143296268
 20
123.2273763623
 10
195.311375959
 20
123.6185072159
 10
195.5662109366
 20
123.9669924874
 10
195.8958854004
 20
124.2565373927
 10
196.2849841391
 20
124.4736031339
 10
196.7153133279
 20
124.6080399582
 10
197.1667512523
 20
124.6535617491
  0
LINE
  5
174
330
1F
100
AcDbEntity
  8
0
  6
HIDDEN
 62
     7
370
     0
100
AcDbLine
 10
222.3699028534
 20
99.2397953631
 30
0.0
 11
220.559533872
 21
104.1938538513
 31
0.0
  0
ARC
  5
175
330
1F
100
AcDbEntity
  8
0
  6
HIDDEN
 62
     7
370
     0
100
AcDbCircle
 10
225.4012453304
 20
98.2623347226
 30
0.0
 40
3.185037914386424
100
AcDbArc
 50
162.128010658
 51
58.9797214434
  0
LINE
  5
176
330
1F
100
AcDbEntity
  8
0
  6
HIDDEN
 62
     7
370
     0
100
AcDbLine
 10
230.7521793691
 20
92.513324154
 30
0.0
 11
231.2309126559
 21
93.0142858801
 31
0.0
  0
LINE
  5
177
330
1F
100
AcDbEntity
  8
0
  6
HIDDEN
 62
     7
370
     0
100
AcDbLine
 10
230.2967915259
 20
103.6810772505
 30
0.0
 11
225.9380497145
 21
104.014530934
 31
0.0
  0
LINE
  5
178
330
1F
100
AcDbEntity
  8
0
  6
HIDDEN
 62
     7
370
     0
100
AcDbLine
 10
219.3990193967
 20
100.3218342667
 30
0.0
 11
220.0150472576
 21
93.2873715152
 31
0.0
  0
LINE
  5
179
330
1F
100
AcDbEntity
  8
0
  6
HIDDEN
 62
     7
370
     0
100
AcDbLine
 10
220.4822878346
 20
104.4319091533
 30
0.0
 11
218.0106371857
 21
104.6209960617
 31
0.0
  0
LINE
  5
17A
330
1F
100
AcDbEntity
  8
0
  6
HIDDEN
 62
     7
370
     0
100
AcDbLine
 10
230.2967915259
 20
103.6810772505
 30
0.0
 11
231.2309127143
 21
93.0142858243
 31
0.0
  0
SPLINE
  5
17B
330
1F
100
AcDbEntity
  8
0
  6
HIDDEN
 62
     7
370
     0
100
AcDbSpline
210
0.0
220
0.0
230
1.0
 70
     8
 71
     3
 72
    10
 73
     6
 74
     0
 42
0.00000001
 43
0.00000001
 12
1.0
 22
0.0
 32
0.0
 13
1.0
 23
0.0
 33
0.0
 40
0.0
 40
0.0
 40
0.0
 40
0.0
 40
0.5
 40
0.5
 40
1.0
 40
1.0
 40
1.0
 40
1.0
 10
221.9578646794981
 20
100.2386917366316
 30
0.0
 10
221.949017084559
 20
100.0781379536849
 30
0.0
 10
221.9559708284437
 20
99.93132667661061
 30
0.0
 10
221.995404158565
 20
99.68335671294693
 30
0.0
 10
222.027393918699
 20
99.58042799806877
 30
0.0
 10
222.0767020424708
 20
99.53138998935815
 30
0.0
  0
ARC
  5
17C
330
1F
100
AcDbEntity
  8
0
  6
HIDDEN
 62
     7
370
     0
100
AcDbCircle
 10
224.7662469431
 20
98.8077263035
 30
0.0
 40
3.151931631411588
100
AcDbArc
 50
152.9996242698
 51
263.9188485774
  0
ARC
  5
17D
330
1F
100
AcDbEntity
  8
0
  6
HIDDEN
 62
     7
370
     0
100
AcDbCircle
 10
224.7579159352
 20
98.8803074437
 30
0.0
 40
3.224940924061414
100
AcDbArc
 50
292.163687339
 51
359.6006033155
  0
ARC
  5
17E
330
1F
100
AcDbEntity
  8
0
  6
HIDDEN
 62
     7
370
     0
100
AcDbCircle
 10
224.8437805169
 20
98.8819819296
 30
0.0
 40
3.138362484578753
100
AcDbArc
 50
6.2725041551
 51
67.2416302109
  0
SPLINE
  5
17F
330
1F
100
AcDbEntity
  8
0
  6
HIDDEN
 62
     7
370
     0
100
AcDbSpline
210
0.0
220
0.0
230
1.0
 70
     8
 71
     3
 72
    10
 73
     6
 74
     0
 42
0.00000001
 43
0.00000001
 12
1.0
 22
0.0
 32
0.0
 13
1.0
 23
0.0
 33
0.0
 40
0.0
 40
0.0
 40
0.0
 40
0.0
 40
0.5
 40
0.5
 40
1.0
 40
1.0
 40
1.0
 40
1.0
 10
226.7494264739087
 20
101.2834589411725
 30
0.0
 10
226.7000304313974
 20
101.3325843869945
 30
0.0
 10
226.6037383051564
 20
101.4102445925061
 30
0.0
 10
226.3651677605037
 20
101.5836288470875
 30
0.0
 10
226.2214454539383
 20
101.6799158050461
 30
0.0
 10
226.0578424642885
 20
101.7760055425837
 30
0.0
  0
LINE
  5
180
330
1F
100
AcDbEntity
  8
0
  6
HIDDEN
 62
     7
370
     0
100
AcDbLine
 10
222.3699028534
 20
99.2397953631
 30
0.0
 11
222.0767020425
 21
99.5313899894
 31
0.0
  0
SPLINE
  5
181
330
1F
100
AcDbEntity
  8
0
  6
HIDDEN
 62
     7
370
     0
100
AcDbSpline
210
0.0
220
0.0
230
1.0
 70
     8
 71
     3
 72
    25
 73
    21
 74
     0
 42
0.00000001
 43
0.00000001
 12
1.0
 22
0.0
 32
0.0
 13
1.0
 23
0.0
 33
0.0
 40
0.0
 40
0.0
 40
0.0
 40
0.0
 40
0.0248363252789051
 40
0.049669128289144
 40
0.0745054430322078
 40
0.099352300527137
 40
0.1242167228493149
 40
0.1864083096475926
 40
0.2486870838379545
 40
0.3110065643960806
 40
0.3734101044107965
 40
0.4983430602329823
 40
0.623490789092414
 40
0.686129478977865
 40
0.748851769008621
 40
0.8115704428219236
 40
0.8743657326353378
 40
0.9162135262969568
 40
0.9580811195918828
 40
1.0
 40
1.0
 40
1.0
 40
1.0
 10
231.2309127650059
 20
93.01428577392824
 30
0.0
 10
231.2139950702368
 20
93.05919606308316
 30
0.0
 10
231.1801620799532
 20
93.14901027225011
 30
0.0
 10
231.1288735085826
 20
93.29212461525407
 30
0.0
 10
231.0772022351816
 20
93.44135222039696
 30
0.0
 10
231.0251083355576
 20
93.59729904276487
 30
0.0
 10
230.9463495079646
 20
93.84105326241604
 30
0.0
 10
230.8399644113816
 20
94.18892329524334
 30
0.0
 10
230.7048723037847
 20
94.66347017599743
 30
0.0
 10
230.5678350186143
 20
95.17706997739798
 30
0.0
 10
230.3828271499812
 20
95.91290935105296
 30
0.0
 10
230.1479115424488
 20
96.92587635169214
 30
0.0
 10
229.9100918389666
 20
98.05452399522997
 30
0.0
 10
229.7189930337581
 20
99.02238548651529
 30
0.0
 10
229.5754259934832
 20
99.77991275129793
 30
0.0
 10
229.4319057084413
 20
100.5675384046382
 30
0.0
 10
229.304654815288
 20
101.2927933624557
 30
0.0
 10
229.1936959520396
 20
101.9451748835873
 30
0.0
 10
229.0988710916249
 20
102.5153390103584
 30
0.0
 10
229.0360082013343
 20
102.9048146750542
 30
0.0
 10
229.0045575164715
 20
103.0996717097126
 30
0.0
  0
LWPOLYLINE
  5
182
330
1F
100
AcDbEntity
  8
0
  6
HIDDEN
 62
     7
370
     0
100
AcDbPolyline
 90
       16
 70
   128
 43
0.0
 10
224.913080186
 20
105.2540550533
 10
224.9831694716
 20
104.8532472406
 10
224.9480852792
 20
104.4316697424
 10
224.8093609564
 20
104.0077475182
 10
224.5730594216
 20
103.6000080035
 10
224.2495081859
 20
103.2262713716
 10
223.8528479908
 20
102.9028717067
 10
223.4004147903
 20
102.6439431259
 10
222.9119820862
 20
102.4608020509
 10
222.4088967315
 20
102.3614526252
 10
221.9131459701
 20
102.3502368957
 10
221.4463964894
 20
102.4276450434
 10
221.0290474813
 20
102.5902939609
 10
220.6793391001
 20
102.83107511
 10
220.4125552801
 20
103.1394651991
 10
220.2403557545
 20
103.5019861015
  0
ELLIPSE
  5
183
330
1F
100
AcDbEntity
  8
0
  6
HIDDEN
 62
     7
370
     0
100
AcDbEllipse
 10
223.526833321
 20
102.3236562439
 30
0.0
 11
-0.9406553105117724
 21
2.766158975077403
 31
0.0
210
0.0
220
0.0
230
1.0
 40
0.8539059128
 41
2.097543009497955
 42
4.238489764184679
  0
LINE
  5
184
330
1F
100
AcDbEntity
  8
0
  6
HIDDEN
 62
     7
370
     0
100
AcDbLine
 10
159.1667512523
 20
115.7018040728
 30
0.0
 11
159.1667512523
 21
108.3274196686
 31
0.0
  0
LINE
  5
185
330
1F
100
AcDbEntity
  8
0
  6
HIDDEN
 62
     7
370
     0
100
AcDbLine
 10
159.1667512523
 20
126.7766161043
 30
0.0
 11
159.1667512523
 21
119.4022317001
 31
0.0
  0
SPLINE
  5
186
330
1F
100
AcDbEntity
  8
0
  6
HIDDEN
 62
     7
370
     0
100
AcDbSpline
210
0.0
220
0.0
230
1.0
 70
     8
 71
     3
 72
    24
 73
    20
 74
     0
 42
0.00000001
 43
0.00000001
 12
1.0
 22
0.0
 32
0.0
 13
1.0
 23
0.0
 33
0.0
 40
0.0
 40
0.0
 40
0.0
 40
0.0
 40
0.2500000000000002
 40
0.2500000000000002
 40
0.3750000000000017
 40
0.3750000000000017
 40
0.4375000000000036
 40
0.4375000000000036
 40
0.5000000000000056
 40
0.5000000000000056
 40
0.5312500000000044
 40
0.5312500000000044
 40
0.5625000000000034
 40
0.5625000000000034
 40
0.6250000000000012
 40
0.6250000000000012
 40
0.7500000000000009
 40
0.7500000000000009
 40
1.0
 40
1.0
 40
1.0
 40
1.0
 10
181.6717112743975
 20
106.759424159685
 30
0.0
 10
181.6559423970401
 20
106.6855654677553
 30
0.0
 10
181.6393284151901
 20
106.6118540790195
 30
0.0
 10
181.6107967491849
 20
106.5003072553974
 30
0.0
 10
181.6007093343662
 20
106.4629356822689
 30
0.0
 10
181.5832217739119
 20
106.4060361846311
 30
0.0
 10
181.5770122121286
 20
106.3869330844858
 30
0.0
 10
181.562734658476
 20
106.3480595702503
 30
0.0
 10
181.5551631106806
 20
106.3281349108169
 30
0.0
 10
181.5377455270022
 20
106.2980626927894
 30
0.0
 10
181.529263030357
 20
106.2863813139863
 30
0.0
 10
181.5132247184853
 20
106.279119803238
 30
0.0
 10
181.5084041702818
 20
106.2826980502478
 30
0.0
 10
181.4969949457339
 20
106.2944589054795
 30
0.0
 10
181.4929744652765
 20
106.3061245555301
 30
0.0
 10
181.4822206104562
 20
106.3426598856437
 30
0.0
 10
181.478347929174
 20
106.3700556189672
 30
0.0
 10
181.4691797793364
 20
106.4547816107232
 30
0.0
 10
181.4671512739673
 20
106.5156137328952
 30
0.0
 10
181.4667512523371
 20
106.5779798942368
 30
0.0
  0
SPLINE
  5
187
330
1F
100
AcDbEntity
  8
0
  6
HIDDEN
 62
     7
370
     0
100
AcDbSpline
210
0.0
220
0.0
230
1.0
 70
     8
 71
     3
 72
    24
 73
    20
 74
     0
 42
0.00000001
 43
0.00000001
 12
1.0
 22
0.0
 32
0.0
 13
1.0
 23
0.0
 33
0.0
 40
0.0
 40
0.0
 40
0.0
 40
0.0
 40
0.249999999999998
 40
0.249999999999998
 40
0.374999999999997
 40
0.374999999999997
 40
0.4374999999999965
 40
0.4374999999999965
 40
0.4687499999999976
 40
0.4687499999999976
 40
0.4999999999999987
 40
0.4999999999999987
 40
0.5624999999999983
 40
0.5624999999999983
 40
0.6249999999999981
 40
0.6249999999999981
 40
0.7499999999999976
 40
0.7499999999999976
 40
1.0
 40
1.0
 40
1.0
 40
1.0
 10
181.4667512523335
 20
128.5260558787406
 30
0.0
 10
181.4671559219093
 20
128.5891466872332
 30
0.0
 10
181.4691993687237
 20
128.6503324097357
 30
0.0
 10
181.4785989339779
 20
128.7358321422373
 30
0.0
 10
181.4825498275067
 20
128.7634125256784
 30
0.0
 10
181.4937021358036
 20
128.79986660779
 30
0.0
 10
181.4979236767301
 20
128.8117250294844
 30
0.0
 10
181.5101313982936
 20
128.8223450808599
 30
0.0
 10
181.5159221685457
 20
128.8251784480823
 30
0.0
 10
181.5328436816556
 20
128.8138638610844
 30
0.0
 10
181.5402497976055
 20
128.8020829753306
 30
0.0
 10
181.5567070508487
 20
128.7720421341008
 30
0.0
 10
181.5641635687597
 20
128.7523291804877
 30
0.0
 10
181.5780714980343
 20
128.7139271144276
 30
0.0
 10
181.5841634439293
 20
128.6950454645161
 30
0.0
 10
181.6013577362804
 20
128.6387445539846
 30
0.0
 10
181.611342686484
 20
128.6016684761749
 30
0.0
 10
181.6395887315829
 20
128.4910098052849
 30
0.0
 10
181.6560682685441
 20
128.4178807448764
 30
0.0
 10
181.6717112744037
 20
128.3446116132525
 30
0.0
  0
SPLINE
  5
188
330
1F
100
AcDbEntity
  8
0
  6
HIDDEN
 62
     7
370
     0
100
AcDbSpline
210
0.0
220
0.0
230
1.0
 70
     8
 71
     3
 72
     8
 73
     4
 74
     0
 42
0.00000001
 43
0.00000001
 12
1.0
 22
0.0
 32
0.0
 13
1.0
 23
0.0
 33
0.0
 40
0.0
 40
0.0
 40
0.0
 40
0.0
 40
1.0
 40
1.0
 40
1.0
 40
1.0
 10
181.8454309087775
 20
107.4984985688764
 30
0.0
 10
181.7803257471634
 20
107.2434733336708
 30
0.0
 10
181.7224384176034
 20
106.9970213175295
 30
0.0
 10
181.6717112743974
 20
106.7594241596849
 30
0.0
  0
SPLINE
  5
189
330
1F
100
AcDbEntity
  8
0
  6
HIDDEN
 62
     7
370
     0
100
AcDbSpline
210
0.0
220
0.0
230
1.0
 70
     8
 71
     3
 72
     8
 73
     4
 74
     0
 42
0.00000001
 43
0.00000001
 12
1.0
 22
0.0
 32
0.0
 13
1.0
 23
0.0
 33
0.0
 40
0.0
 40
0.0
 40
0.0
 40
0.0
 40
1.0
 40
1.0
 40
1.0
 40
1.0
 10
181.6717112744037
 20
128.3446116132525
 30
0.0
 10
181.7224384176082
 20
128.1070144554169
 30
0.0
 10
181.7803257471661
 20
127.8605624392854
 30
0.0
 10
181.8454309087775
 20
127.6055372040902
 30
0.0
  0
LINE
  5
18A
330
1F
100
AcDbEntity
  8
0
  6
HIDDEN
 62
     7
370
     0
100
AcDbLine
 10
160.6667512523
 20
127.2096288062
 30
0.0
 11
160.6667512523
 21
120.1070461235
 31
0.0
  0
LINE
  5
18B
330
1F
100
AcDbEntity
  8
0
  6
HIDDEN
 62
     7
370
     0
100
AcDbLine
 10
160.6667512523
 20
114.9969896494
 30
0.0
 11
160.6667512523
 21
107.8944069668
 31
0.0
  0
LINE
  5
18C
330
1F
100
AcDbEntity
  8
0
  6
HIDDEN
 62
     7
370
     0
100
AcDbLine
 10
181.4667512523
 20
127.4709130056
 30
0.0
 11
181.4667512523
 21
107.6331227674
 31
0.0
  0
LINE
  5
18D
330
1F
100
AcDbEntity
  8
0
  6
HIDDEN
 62
     7
370
     0
100
AcDbLine
 10
182.9667512523
 20
126.0313850262
 30
0.0
 11
182.9667512523
 21
109.0726507468
 31
0.0
  0
SPLINE
  5
18E
330
1F
100
AcDbEntity
  8
0
  6
HIDDEN
 62
     7
370
     0
100
AcDbSpline
210
0.0
220
0.0
230
1.0
 70
     8
 71
     3
 72
     8
 73
     4
 74
     0
 42
0.00000001
 43
0.00000001
 12
1.0
 22
0.0
 32
0.0
 13
1.0
 23
0.0
 33
0.0
 40
0.0000137051794235
 40
0.0000137051794235
 40
0.0000137051794235
 40
0.0000137051794235
 40
0.0027147144718019
 40
0.0027147144718019
 40
0.0027147144718019
 40
0.0027147144718019
 10
160.6667512523371
 20
114.9969896494216
 30
0.0
 10
161.5667473878319
 20
114.9840180822232
 30
0.0
 10
162.4667475664273
 20
114.9713832249111
 30
0.0
 10
163.3667512523371
 20
114.9590732066553
 30
0.0
  0
SPLINE
  5
18F
330
1F
100
AcDbEntity
  8
0
  6
HIDDEN
 62
     7
370
     0
100
AcDbSpline
210
0.0
220
0.0
230
1.0
 70
     8
 71
     3
 72
     8
 73
     4
 74
     0
 42
0.00000001
 43
0.00000001
 12
1.0
 22
0.0
 32
0.0
 13
1.0
 23
0.0
 33
0.0
 40
0.0000137050638848
 40
0.0000137050638848
 40
0.0000137050638848
 40
0.0000137050638848
 40
0.0027147143562632
 40
0.0027147143562632
 40
0.0027147143562632
 40
0.0027147143562632
 10
163.3667512523371
 20
120.1449625663112
 30
0.0
 10
162.4667475664273
 20
120.1326525480555
 30
0.0
 10
161.5667473878319
 20
120.1200176907434
 30
0.0
 10
160.6667512523371
 20
120.107046123545
 30
0.0
  0
SPLINE
  5
190
330
1F
100
AcDbEntity
  8
0
  6
HIDDEN
 62
     7
370
     0
100
AcDbSpline
210
0.0
220
0.0
230
1.0
 70
     8
 71
     3
 72
    10
 73
     6
 74
     0
 42
0.00000001
 43
0.00000001
 12
1.0
 22
0.0
 32
0.0
 13
1.0
 23
0.0
 33
0.0
 40
0.0
 40
0.0
 40
0.0
 40
0.0
 40
0.5
 40
0.5
 40
1.0
 40
1.0
 40
1.0
 40
1.0
 10
160.6667512523371
 20
120.107046123545
 30
0.0
 10
160.4065341297991
 20
120.020858036842
 30
0.0
 10
160.1504995605489
 20
119.9214124207192
 30
0.0
 10
159.6492359718162
 20
119.6897555440819
 30
0.0
 10
159.4038932130528
 20
119.5578465146627
 30
0.0
 10
159.1667512523371
 20
119.402231700134
 30
0.0
  0
SPLINE
  5
191
330
1F
100
AcDbEntity
  8
0
  6
HIDDEN
 62
     7
370
     0
100
AcDbSpline
210
0.0
220
0.0
230
1.0
 70
     8
 71
     3
 72
    10
 73
     6
 74
     0
 42
0.00000001
 43
0.00000001
 12
1.0
 22
0.0
 32
0.0
 13
1.0
 23
0.0
 33
0.0
 40
0.0
 40
0.0
 40
0.0
 40
0.0
 40
0.5
 40
0.5
 40
1.0
 40
1.0
 40
1.0
 40
1.0
 10
159.1667512523371
 20
115.7018040728326
 30
0.0
 10
159.4038932130528
 20
115.5461892583039
 30
0.0
 10
159.6492359718161
 20
115.4142802288847
 30
0.0
 10
160.1504995605489
 20
115.1826233522474
 30
0.0
 10
160.406534129799
 20
115.0831777361246
 30
0.0
 10
160.6667512523371
 20
114.9969896494216
 30
0.0
  0
LINE
  5
192
330
1F
100
AcDbEntity
  8
0
  6
HIDDEN
 62
     7
370
     0
100
AcDbLine
 10
159.1667512523
 20
115.7018040728
 30
0.0
 11
159.1667512523
 21
119.4022317001
 31
0.0
  0
LINE
  5
193
330
1F
100
AcDbEntity
  8
0
  6
HIDDEN
 62
     7
370
     0
100
AcDbLine
 10
163.3667512523
 20
114.9590732067
 30
0.0
 11
163.3667512523
 21
120.1449625663
 31
0.0
  0
SPLINE
  5
194
330
1F
100
AcDbEntity
  8
0
  6
HIDDEN
 62
     7
370
     0
100
AcDbSpline
210
0.0
220
0.0
230
1.0
 70
     8
 71
     3
 72
    22
 73
    18
 74
     0
 42
0.00000001
 43
0.00000001
 12
1.0
 22
0.0
 32
0.0
 13
1.0
 23
0.0
 33
0.0
 40
0.0
 40
0.0
 40
0.0
 40
0.0
 40
0.1249999999999999
 40
0.1249999999999999
 40
0.2499999999999999
 40
0.2499999999999999
 40
0.3749999999999999
 40
0.3749999999999999
 40
0.5
 40
0.5
 40
0.625
 40
0.625
 40
0.7500000000000001
 40
0.7500000000000001
 40
0.875
 40
0.875
 40
1.0
 40
1.0
 40
1.0
 40
1.0
 10
163.3667512523371
 20
114.9590732066553
 30
0.0
 10
163.5476876104133
 20
115.1506930659619
 30
0.0
 10
163.7267830591902
 20
115.344334930349
 30
0.0
 10
164.0776230477022
 20
115.7389901837333
 30
0.0
 10
164.2498161556069
 20
115.9400017144008
 30
0.0
 10
164.5755476612261
 20
116.3562128296346
 30
0.0
 10
164.7316238963944
 20
116.5722286699213
 30
0.0
 10
164.9830031102835
 20
117.037551433086
 30
0.0
 10
165.0768682406023
 20
117.2930906261088
 30
0.0
 10
165.0731403237402
 20
117.8274212612095
 30
0.0
 10
164.9757676812528
 20
118.0828421272102
 30
0.0
 10
164.723946872259
 20
118.5428708431579
 30
0.0
 10
164.5689776167864
 20
118.7567078440865
 30
0.0
 10
164.2441648590611
 20
119.1707464267802
 30
0.0
 10
164.0732717949332
 20
119.370038898816
 30
0.0
 10
163.7246375554056
 20
119.7620137912502
 30
0.0
 10
163.5466297048771
 20
119.9544630772396
 30
0.0
 10
163.3667512523372
 20
120.1449625663112
 30
0.0
  0
LINE
  5
195
330
1F
100
AcDbEntity
  8
0
  6
HIDDEN
 62
     7
370
     0
100
AcDbLine
 10
219.1936228437
 20
106.7997086981
 30
0.0
 11
220.2403557545
 21
103.5019861015
 31
0.0
  0
LWPOLYLINE
  5
196
330
1F
100
AcDbEntity
  8
0
  6
HIDDEN
 62
     7
370
     0
100
AcDbPolyline
 90
       32
 70
   128
 43
0.0
 10
197.1667512523
 20
125.1144698307
 10
197.6699975526
 20
125.0670210608
 10
198.1526408901
 20
124.9266173092
 10
198.5949217901
 20
124.6990067221
 10
198.9787332204
 20
124.3935077036
 10
199.2883618961
 20
124.0226274194
 10
199.5111315827
 20
123.6015497519
 10
199.6379220632
 20
123.1475136704
 10
199.6635425203
 20
122.6791074653
 10
199.5869440495
 20
122.2155077418
 10
199.4112626013
 20
121.7756943269
 10
199.1436905947
 20
121.3776732336
 10
198.7951824591
 20
121.0377394921
 10
198.3800061587
 20
120.7698100298
 10
197.9151590598
 20
120.5848539104
 10
197.4196720573
 20
120.4904432592
 10
196.9138304474
 20
120.4904432592
 10
196.4183434449
 20
120.5848539104
 10
195.953496346
 20
120.7698100298
 10
195.5383200455
 20
121.0377394921
 10
195.18981191
 20
121.3776732336
 10
194.9222399034
 20
121.7756943269
 10
194.7465584552
 20
122.2155077418
 10
194.6699599844
 20
122.6791074653
 10
194.6955804415
 20
123.1475136704
 10
194.822370922
 20
123.6015497519
 10
195.0451406086
 20
124.0226274194
 10
195.3547692843
 20
124.3935077036
 10
195.7385807146
 20
124.6990067221
 10
196.1808616146
 20
124.9266173092
 10
196.6635049521
 20
125.0670210608
 10
197.1667512523
 20
125.1144698307
  0
SPLINE
  5
197
330
1F
100
AcDbEntity
  8
0
  6
HIDDEN
 62
     7
370
     0
100
AcDbSpline
210
0.0
220
0.0
230
1.0
 70
     8
 71
     3
 72
    62
 73
    58
 74
     0
 42
0.00000001
 43
0.00000001
 12
1.0
 22
0.0
 32
0.0
 13
1.0
 23
0.0
 33
0.0
 40
-0.03125
 40
-0.03125
 40
0.0
 40
0.0
 40
0.0312499999999998
 40
0.0312499999999998
 40
0.0624999999999996
 40
0.0624999999999996
 40
0.0937499999999994
 40
0.0937499999999994
 40
0.1249999999999992
 40
0.1249999999999992
 40
0.1874999999999991
 40
0.1874999999999991
 40
0.2499999999999989
 40
0.2499999999999989
 40
0.2812499999999991
 40
0.2812499999999991
 40
0.3124999999999992
 40
0.3124999999999992
 40
0.3437499999999993
 40
0.3437499999999993
 40
0.3749999999999993
 40
0.3749999999999993
 40
0.4374999999999996
 40
0.4374999999999996
 40
0.4687499999999997
 40
0.4687499999999997
 40
0.4999999999999998
 40
0.4999999999999998
 40
0.5625000000000001
 40
0.5625000000000001
 40
0.5937500000000001
 40
0.5937500000000001
 40
0.6250000000000001
 40
0.6250000000000001
 40
0.6562500000000001
 40
0.6562500000000001
 40
0.6875000000000001
 40
0.6875000000000001
 40
0.7187500000000001
 40
0.7187500000000001
 40
0.75
 40
0.75
 40
0.78125
 40
0.78125
 40
0.8125
 40
0.8125
 40
0.84375
 40
0.84375
 40
0.875
 40
0.875
 40
0.90625
 40
0.90625
 40
0.9375
 40
0.9375
 40
0.96875
 40
0.96875
 40
1.0
 40
1.0
 40
1.03125
 40
1.03125
 10
169.6205233802654
 20
119.0399969251397
 30
0.0
 10
169.8480237268536
 20
119.2893434670003
 30
0.0
 10
169.9724862557711
 20
119.4009411444572
 30
0.0
 10
170.2415805219229
 20
119.5995919402756
 30
0.0
 10
170.3873936135122
 20
119.6869321850643
 30
0.0
 10
170.6885604918015
 20
119.8311279377066
 30
0.0
 10
170.8448962188659
 20
119.8889476082208
 30
0.0
 10
171.1690195182003
 20
119.9762012202718
 30
0.0
 10
171.3356847299108
 20
120.0050032697536
 30
0.0
 10
171.8337009965427
 20
120.0457825750215
 30
0.0
 10
172.1743719453357
 20
120.0123393148802
 30
0.0
 10
172.8133828607572
 20
119.8298866704214
 30
0.0
 10
173.119837467821
 20
119.6784621101087
 30
0.0
 10
173.5163933770834
 20
119.3779642045243
 30
0.0
 10
173.640742567933
 20
119.263703019329
 30
0.0
 10
173.8632066619821
 20
119.0140431487564
 30
0.0
 10
173.9607720004594
 20
118.8798765407573
 30
0.0
 10
174.1280276040982
 20
118.5924074462586
 30
0.0
 10
174.1981132596173
 20
118.4371405963587
 30
0.0
 10
174.3021686203388
 20
118.1201611762717
 30
0.0
 10
174.3371443830062
 20
117.9575084247673
 30
0.0
 10
174.3890089025303
 20
117.4565714045647
 30
0.0
 10
174.3497027947589
 20
117.1164168032544
 30
0.0
 10
174.186983002298
 20
116.6399221711572
 30
0.0
 10
174.1167025044117
 20
116.4888548113298
 30
0.0
 10
173.9453693592818
 20
116.2015602408889
 30
0.0
 10
173.8439771181001
 20
116.0657024625915
 30
0.0
 10
173.5073775308769
 20
115.6968940675933
 30
0.0
 10
173.2321447647122
 20
115.4944689582622
 30
0.0
 10
172.7823615373663
 20
115.2773922316534
 30
0.0
 10
172.6235617388626
 20
115.2180899595792
 30
0.0
 10
172.301000017983
 20
115.1301174417787
 30
0.0
 10
172.1371409060158
 20
115.1009976779324
 30
0.0
 10
171.8043081326619
 20
115.0721410628222
 30
0.0
 10
171.634255841221
 20
115.0727645860362
 30
0.0
 10
171.3019801772013
 20
115.1040210298406
 30
0.0
 10
171.1382655654526
 20
115.1343397248924
 30
0.0
 10
170.8158000798782
 20
115.2250567638954
 30
0.0
 10
170.6572889813517
 20
115.2858256725972
 30
0.0
 10
170.3587352751538
 20
115.4333363473942
 30
0.0
 10
170.2169091459518
 20
115.5204713752581
 30
0.0
 10
169.9489874073934
 20
115.7230568418301
 30
0.0
 10
169.8248939770009
 20
115.8373950084723
 30
0.0
 10
169.6037597890827
 20
116.0855814464251
 30
0.0
 10
169.5053027869841
 20
116.2206140632789
 30
0.0
 10
169.3359442732491
 20
116.5126184613336
 30
0.0
 10
169.2677774355432
 20
116.6647542077692
 30
0.0
 10
169.1640434692167
 20
116.9811631562092
 30
0.0
 10
169.1283749073476
 20
117.1476596255635
 30
0.0
 10
169.094161142695
 20
117.480921501674
 30
0.0
 10
169.0950195455241
 20
117.6475839554959
 30
0.0
 10
169.1328163254737
 20
117.9809721547134
 30
0.0
 10
169.1701590809278
 20
118.1467277271929
 30
0.0
 10
169.2774086639962
 20
118.4626190436556
 30
0.0
 10
169.3481698805353
 20
118.6158983767277
 30
0.0
 10
169.520293030636
 20
118.9052754192142
 30
0.0
 10
169.6205233802654
 20
119.0399969251397
 30
0.0
 10
169.8480237268536
 20
119.2893434670003
 30
0.0
  0
CIRCLE
  5
198
330
1F
100
AcDbEntity
  8
0
  6
HIDDEN
 62
     7
370
     0
100
AcDbCircle
 10
171.6667512523
 20
117.5520178865
 30
0.0
 40
2.299999999999997
  0
CIRCLE
  5
199
330
1F
100
AcDbEntity
  8
0
  6
HIDDEN
 62
     7
370
     0
100
AcDbCircle
 10
195.1667512523
 20
117.5520178865
 30
0.0
 40
2.0
  0
SPLINE
  5
19A
330
1F
100
AcDbEntity
  8
0
  6
HIDDEN
 62
     7
370
     0
100
AcDbSpline
210
0.0
220
0.0
230
1.0
 70
     8
 71
     3
 72
     9
 73
     5
 74
     0
 42
0.00000001
 43
0.00000001
 12
1.0
 22
0.0
 32
0.0
 13
1.0
 23
0.0
 33
0.0
 40
0.0
 40
0.0
 40
0.0
 40
0.0
 40
0.4999995544988955
 40
1.0
 40
1.0
 40
1.0
 40
1.0
 10
229.0045563722698
 20
103.0996722643552
 30
0.0
 10
228.9400202944978
 20
102.9674293780961
 30
0.0
 10
228.8109480239502
 20
102.7029433699201
 30
0.0
 10
228.6779114875915
 20
102.4404290283221
 30
0.0
 10
228.6113931601442
 20
102.3091717405727
 30
0.0
  0
LINE
  5
19B
330
1F
100
AcDbEntity
  8
0
  6
HIDDEN
 62
     7
370
     0
100
AcDbLine
 10
229.0045573172
 20
103.0996723574
 30
0.0
 11
227.6086353811
 21
117.2750596092
 31
0.0
  0
LINE
  5
19C
330
1F
100
AcDbEntity
  8
0
  6
HIDDEN
 62
     7
370
     0
100
AcDbLine
 10
227.6086353811
 20
117.2750596092
 30
0.0
 11
227.4116643376
 21
117.5520178865
 31
0.0
  0
LINE
  5
19D
330
1F
100
AcDbEntity
  8
0
  6
HIDDEN
 62
     7
370
     0
100
AcDbLine
 10
183.1667512523
 20
101.7520178865
 30
0.0
 11
183.2596444712
 21
101.8449111053
 31
0.0
  0
LINE
  5
19E
330
1F
100
AcDbEntity
  8
0
  6
HIDDEN
 62
     7
370
     0
100
AcDbLine
 10
183.2596444712
 20
133.2591246677
 30
0.0
 11
183.1667512523
 21
133.3520178865
 31
0.0
  0
ARC
  5
19F
330
1F
100
AcDbEntity
  8
0
  6
HIDDEN
 62
     7
370
     0
100
AcDbCircle
 10
182.55253769
 20
102.5520178865
 30
0.0
 40
1.0
100
AcDbArc
 50
315.0
 51
0.0
  0
ARC
  5
1A0
330
1F
100
AcDbEntity
  8
0
  6
HIDDEN
 62
     7
370
     0
100
AcDbCircle
 10
182.55253769
 20
102.5520178865
 30
0.0
 40
1.0
100
AcDbArc
 50
0.0
 51
52.1052014664
  0
ARC
  5
1A1
330
1F
100
AcDbEntity
  8
0
  6
HIDDEN
 62
     7
370
     0
100
AcDbCircle
 10
182.55253769
 20
132.5520178865
 30
0.0
 40
1.000000000000008
100
AcDbArc
 50
351.8087250651
 51
45.0
  0
ARC
  5
1A2
330
1F
100
AcDbEntity
  8
0
  6
HIDDEN
 62
     7
370
     0
100
AcDbCircle
 10
182.55253769
 20
132.5520178865
 30
0.0
 40
1.000000000000002
100
AcDbArc
 50
307.8947985337
 51
351.8087250651
  0
LINE
  5
1A3
330
1F
100
AcDbEntity
  8
0
  6
HIDDEN
 62
     7
370
     0
100
AcDbLine
 10
183.55253769
 20
102.5520178865
 30
0.0
 11
183.55253769
 21
132.5520178865
 31
0.0
  0
LINE
  5
1A4
330
1F
100
AcDbEntity
  8
0
  6
HIDDEN
 62
     7
370
     0
100
AcDbLine
 10
183.55253769
 20
102.5520178865
 30
0.0
 11
183.55253769
 21
132.5520178865
 31
0.0
  0
LINE
  5
1A5
330
1F
100
AcDbEntity
  8
0
  6
HIDDEN
 62
     7
370
     0
100
AcDbLine
 10
195.0667512523
 20
115.2107628375
 30
0.0
 11
195.0667512523
 21
111.9329189852
 31
0.0
  0
LINE
  5
1A6
330
1F
100
AcDbEntity
  8
0
  6
HIDDEN
 62
     7
370
     0
100
AcDbLine
 10
199.2667512523
 20
113.3469910406
 30
0.0
 11
199.2667512523
 21
115.2108167941
 31
0.0
  0
LINE
  5
1A7
330
1F
100
AcDbEntity
  8
0
  6
HIDDEN
 62
     7
370
     0
100
AcDbLine
 10
199.2667512523
 20
111.9329189852
 30
0.0
 11
199.2667512523
 21
112.0438466375
 31
0.0
  0
LINE
  5
1A8
330
1F
100
AcDbEntity
  8
0
  6
HIDDEN
 62
     7
370
     0
100
AcDbLine
 10
196.6468435788
 20
110.5440230404
 30
0.0
 11
203.7133770342
 21
106.0967541525
 31
0.0
  0
LINE
  5
1A9
330
1F
100
AcDbEntity
  8
0
  6
HIDDEN
 62
     7
370
     0
100
AcDbLine
 10
203.6663664714
 20
111.0888701738
 30
0.0
 11
198.8008483691
 21
114.1509468506
 31
0.0
  0
LINE
  5
1AA
330
1F
100
AcDbEntity
  8
0
  6
HIDDEN
 62
     7
370
     0
100
AcDbLine
 10
159.1667512523
 20
107.3963673622
 30
0.0
 11
160.1937832844
 21
107.9893245824
 31
0.0
  0
LINE
  5
1AB
330
1F
100
AcDbEntity
  8
0
  6
HIDDEN
 62
     7
370
     0
100
AcDbLine
 10
160.1937832844
 20
127.1147111906
 30
0.0
 11
159.1667512523
 21
127.7076684108
 31
0.0
  0
ARC
  5
1AC
330
1F
100
AcDbEntity
  8
0
  6
HIDDEN
 62
     7
370
     0
100
AcDbCircle
 10
165.679569722
 20
108.5520178865
 30
0.0
 40
1.000000000000008
100
AcDbArc
 50
270.0
 51
315.0
  0
ARC
  5
1AD
330
1F
100
AcDbEntity
  8
0
  6
HIDDEN
 62
     7
370
     0
100
AcDbCircle
 10
165.679569722
 20
126.5520178865
 30
0.0
 40
1.0
100
AcDbArc
 50
45.0
 51
90.0
  0
LINE
  5
1AE
330
1F
100
AcDbEntity
  8
0
  6
HIDDEN
 62
     7
370
     0
100
AcDbLine
 10
164.6667512523
 20
107.5520178865
 30
0.0
 11
165.679569722
 21
107.5520178865
 31
0.0
  0
LINE
  5
1AF
330
1F
100
AcDbEntity
  8
0
  6
HIDDEN
 62
     7
370
     0
100
AcDbLine
 10
165.679569722
 20
127.5520178865
 30
0.0
 11
164.6667512523
 21
127.5520178865
 31
0.0
  0
ARC
  5
1B0
330
1F
100
AcDbEntity
  8
0
  6
HIDDEN
 62
     7
370
     0
100
AcDbCircle
 10
164.6667512523
 20
108.5520178865
 30
0.0
 40
1.000000000000008
100
AcDbArc
 50
193.3524261238
 51
270.0
  0
ARC
  5
1B1
330
1F
100
AcDbEntity
  8
0
  6
HIDDEN
 62
     7
370
     0
100
AcDbCircle
 10
164.6667512523
 20
126.5520178865
 30
0.0
 40
1.000000000000004
100
AcDbArc
 50
90.0
 51
166.6475738762
  0
LINE
  5
1B2
330
1F
100
AcDbEntity
  8
0
  6
HIDDEN
 62
     7
370
     0
100
AcDbLine
 10
166.3866765032
 20
107.8449111053
 30
0.0
 11
167.0937832844
 21
108.5520178865
 31
0.0
  0
LINE
  5
1B3
330
1F
100
AcDbEntity
  8
0
  6
HIDDEN
 62
     7
370
     0
100
AcDbLine
 10
167.0937832844
 20
126.5520178865
 30
0.0
 11
166.3866765032
 21
127.2591246677
 31
0.0
  0
LINE
  5
1B4
330
1F
100
AcDbEntity
  8
0
  6
HIDDEN
 62
     7
370
     0
100
AcDbLine
 10
160.1937832844
 20
107.9893245824
 30
0.0
 11
162.2937832844
 21
108.5520178865
 31
0.0
  0
LINE
  5
1B5
330
1F
100
AcDbEntity
  8
0
  6
HIDDEN
 62
     7
370
     0
100
AcDbLine
 10
162.2937832844
 20
126.5520178865
 30
0.0
 11
160.1937832844
 21
127.1147111906
 31
0.0
  0
LINE
  5
1B6
330
1F
100
AcDbEntity
  8
0
  6
HIDDEN
 62
     7
370
     0
100
AcDbLine
 10
163.6937832844
 20
126.7829579942
 30
0.0
 11
163.2937832844
 21
126.5520178865
 31
0.0
  0
LINE
  5
1B7
330
1F
100
AcDbEntity
  8
0
  6
HIDDEN
 62
     7
370
     0
100
AcDbLine
 10
163.2937832844
 20
108.5520178865
 30
0.0
 11
163.6937832844
 21
108.3210777788
 31
0.0
  0
ARC
  5
1B8
330
1F
100
AcDbEntity
  8
0
  6
HIDDEN
 62
     7
370
     0
100
AcDbCircle
 10
173.6667512523
 20
109.0520178865
 30
0.0
 40
0.5
100
AcDbArc
 50
270.0
 51
0.0
  0
ARC
  5
1B9
330
1F
100
AcDbEntity
  8
0
  6
HIDDEN
 62
     7
370
     0
100
AcDbCircle
 10
173.6667512523
 20
126.0520178865
 30
0.0
 40
0.5000000000000142
100
AcDbArc
 50
0.0
 51
90.0
  0
LINE
  5
1BA
330
1F
100
AcDbEntity
  8
0
  6
HIDDEN
 62
     7
370
     0
100
AcDbLine
 10
167.0937832844
 20
108.5520178865
 30
0.0
 11
173.6667512523
 21
108.5520178865
 31
0.0
  0
LINE
  5
1BB
330
1F
100
AcDbEntity
  8
0
  6
HIDDEN
 62
     7
370
     0
100
AcDbLine
 10
173.6667512523
 20
126.5520178865
 30
0.0
 11
167.0937832844
 21
126.5520178865
 31
0.0
  0
LINE
  5
1BC
330
1F
100
AcDbEntity
  8
0
  6
HIDDEN
 62
     7
370
     0
100
AcDbLine
 10
162.2937832844
 20
108.5520178865
 30
0.0
 11
163.2937832844
 21
108.5520178865
 31
0.0
  0
LINE
  5
1BD
330
1F
100
AcDbEntity
  8
0
  6
HIDDEN
 62
     7
370
     0
100
AcDbLine
 10
163.2937832844
 20
126.5520178865
 30
0.0
 11
162.2937832844
 21
126.5520178865
 31
0.0
  0
LINE
  5
1BE
330
1F
100
AcDbEntity
  8
0
  6
HIDDEN
 62
     7
370
     0
100
AcDbLine
 10
174.1667512523
 20
110.4020178865
 30
0.0
 11
175.0667512523
 21
111.3020178865
 31
0.0
  0
LINE
  5
1BF
330
1F
100
AcDbEntity
  8
0
  6
HIDDEN
 62
     7
370
     0
100
AcDbLine
 10
175.0667512523
 20
123.8020178865
 30
0.0
 11
174.1667512523
 21
124.7020178865
 31
0.0
  0
LINE
  5
1C0
330
1F
100
AcDbEntity
  8
0
  6
HIDDEN
 62
     7
370
     0
100
AcDbLine
 10
200.1667512523
 20
111.3020178847
 30
0.0
 11
203.9221301223
 21
117.5520178865
 31
0.0
  0
LINE
  5
1C1
330
1F
100
AcDbEntity
  8
0
  6
HIDDEN
 62
     7
370
     0
100
AcDbLine
 10
203.9221301223
 20
117.5520178865
 30
0.0
 11
200.1667512523
 21
123.8020178883
 31
0.0
  0
LINE
  5
1C2
330
1F
100
AcDbEntity
  8
0
  6
HIDDEN
 62
     7
370
     0
100
AcDbLine
 10
175.0667512523
 20
111.3020178865
 30
0.0
 11
200.1667512523
 21
111.3020178865
 31
0.0
  0
LINE
  5
1C3
330
1F
100
AcDbEntity
  8
0
  6
HIDDEN
 62
     7
370
     0
100
AcDbLine
 10
200.1667512523
 20
123.8020178865
 30
0.0
 11
175.0667512523
 21
123.8020178865
 31
0.0
  0
LINE
  5
1C4
330
1F
100
AcDbEntity
  8
0
  6
HIDDEN
 62
     7
370
     0
100
AcDbLine
 10
218.883684813
 20
107.3710543846
 30
0.0
 11
219.3100979717
 21
106.9469771618
 31
0.0
  0
LINE
  5
1C5
330
1F
100
AcDbEntity
  8
0
  6
HIDDEN
 62
     7
370
     0
100
AcDbLine
 10
224.2462319674
 20
111.9103007636
 30
0.0
 11
223.8198188087
 21
112.3343779864
 31
0.0
  0
LINE
  5
1C6
330
1F
100
AcDbEntity
  8
0
  6
HIDDEN
 62
     7
370
     0
100
AcDbLine
 10
216.5004653243
 20
100.8144812558
 30
0.0
 11
216.9917491017
 21
100.3258887824
 31
0.0
  0
LINE
  5
1C7
330
1F
100
AcDbEntity
  8
0
  6
HIDDEN
 62
     7
370
     0
100
AcDbLine
 10
226.056563511
 20
104.1914915727
 30
0.0
 11
224.2055221669
 21
108.1938617207
 31
0.0
  0
LINE
  5
1C8
330
1F
100
AcDbEntity
  8
0
  6
HIDDEN
 62
     7
370
     0
100
AcDbLine
 10
216.3985847739
 20
108.8552990918
 30
0.0
 11
218.3461064874
 21
106.918446106
 31
0.0
  0
LINE
  5
1C9
330
1F
100
AcDbEntity
  8
0
  6
HIDDEN
 62
     7
370
     0
100
AcDbLine
 10
224.2694672823
 20
112.8744344281
 30
0.0
 11
222.3219455688
 21
114.8112874139
 31
0.0
  0
LINE
  5
1CA
330
1F
100
AcDbEntity
  8
0
  6
HIDDEN
 62
     7
370
     0
100
AcDbLine
 10
216.3477725686
 20
101.0494505684
 30
0.0
 11
216.6550862505
 21
100.7438203829
 31
0.0
  0
LINE
  5
1CB
330
1F
100
AcDbEntity
  8
0
  6
HIDDEN
 62
     7
370
     0
100
AcDbLine
 10
195.0667512523
 20
122.7064756545
 30
0.0
 11
195.0667512523
 21
119.8932189789
 31
0.0
  0
LINE
  5
1CC
330
1F
100
AcDbEntity
  8
0
  6
HIDDEN
 62
     7
370
     0
100
AcDbLine
 10
199.2667512523
 20
119.8932729354
 30
0.0
 11
199.2667512523
 21
122.7064756545
 31
0.0
  0
LINE
  5
1CD
330
1F
100
AcDbEntity
  8
0
  6
HIDDEN
 62
     7
370
     0
100
AcDbLine
 10
227.6422256112
 20
100.5254904354
 30
0.0
 11
227.0568662169
 21
101.1076431697
 31
0.0
  0
LINE
  5
1CE
330
1F
100
AcDbEntity
  8
0
  6
HIDDEN
 62
     7
370
     0
100
AcDbLine
 10
222.5438294207
 20
96.5697473052
 30
0.0
 11
223.129188815
 21
95.9875945709
 31
0.0
  0
LINE
  5
1CF
330
1F
100
AcDbEntity
  8
0
  6
HIDDEN
 62
     7
370
     0
100
AcDbLine
 10
220.3076385208
 20
103.328602428
 30
0.0
 11
222.031967381
 21
99.6002133364
 31
0.0
  0
LINE
  5
1D0
330
1F
100
AcDbEntity
  8
0
  6
HIDDEN
 62
     7
370
     0
100
AcDbLine
 10
194.6667512523
 20
125.0439309014
 30
0.0
 11
194.6667512523
 21
122.7965101943
 31
0.0
  0
LINE
  5
1D1
330
1F
100
AcDbEntity
  8
0
  6
HIDDEN
 62
     7
370
     0
100
AcDbLine
 10
199.6667512523
 20
122.7965101943
 30
0.0
 11
199.6667512523
 21
125.0441425764
 31
0.0
  0
LINE
  5
1D2
330
1F
100
AcDbEntity
  8
VERMASSUNG
  6
CENTERX2
100
AcDbLine
 10
156.5467248901
 20
117.5520178865
 30
0.0
 11
233.1667512523
 21
117.5520178865
 31
0.0
  0
LINE
  5
1D3
330
1F
100
AcDbEntity
  8
VERMASSUNG
  6
CENTERX2
100
AcDbLine
 10
233.1667512523
 20
90.5520178865
 30
0.0
 11
233.1667512523
 21
117.5520178865
 31
0.0
  0
LINE
  5
1D4
330
1F
100
AcDbEntity
  8
VERMASSUNG
  6
CENTERX2
100
AcDbLine
 10
233.1667512523
 20
90.5520178865
 30
0.0
 11
240.5506383637
 21
90.5520178865
 31
0.0
  0
DIMENSION
  5
1D5
330
1F
100
AcDbEntity
  8
VERMASSUNG
100
AcDbDimension
  2
_D
 10
233.1667512523
 20
74.5228572947
 30
0.0
 11
196.1667512523
 21
74.5228572947
 31
0.0
 70
   160
  1
<>
 71
     2
 42
-1.0
  3
SLDDIMSTYLE0
100
AcDbAlignedDimension
 13
159.1667512523
 23
104.9205129044
 33
0.0
 14
233.1667512523
 24
90.5520178865
 34
0.0
 50
0.0
100
AcDbRotatedDimension
  0
DIMENSION
  5
1E0
330
1F
100
AcDbEntity
  8
VERMASSUNG
100
AcDbDimension
  2
_D_1
 10
250.7783934056
 20
117.5520178865
 30
0.0
 11
250.7783934056
 21
104.0520178865
 31
0.0
 70
   160
  1
<>
 71
     2
 42
-1.0
  3
SLDDIMSTYLE1
100
AcDbAlignedDimension
 13
233.1667512523
 23
90.5520178865
 33
0.0
 14
233.1667512523
 24
117.5520178865
 34
0.0
 50
90.0
100
AcDbRotatedDimension
  0
DIMENSION
  5
1ED
330
1F
100
AcDbEntity
  8
VERMASSUNG
100
AcDbDimension
  2
_D_2
 10
233.1667512523
 20
81.6783961783
 30
0.0
 11
208.1667512523
 21
81.6783961783
 31
0.0
 70
   160
  1
<>
 71
     2
 42
-1.0
  3
SLDDIMSTYLE1
100
AcDbAlignedDimension
 13
183.1667512523
 23
97.8520178865
 33
0.0
 14
233.1667512523
 24
90.5520178865
 34
0.0
100
AcDbRotatedDimension
  0
DIMENSION
  5
1F9
330
1F
100
AcDbEntity
  8
VERMASSUNG
100
AcDbDimension
  2
_D_3
 10
233.1652374699
 20
90.9888758184
 30
0.0
 11
240.956320419
 21
99.0134523606
 31
0.0
 70
   162
  1
<>
 71
     1
 42
-1.0
  3
SLDDIMSTYLE2
100
AcDb2LineAngularDimension
 13
240.5506383637
 23
90.5520178865
 33
0.0
 14
233.1667512523
 24
90.5520178865
 34
0.0
 15
232.1178536521
 25
102.9490206764
 35
0.0
 16
240.956320419
 26
99.0134523606
 36
0.0
  0
DIMENSION
  5
203
330
1F
100
AcDbEntity
  8
VERMASSUNG
100
AcDbDimension
  2
_D_4
 10
151.849232023
 20
97.5520178865
 30
0.0
 11
151.849232023
 21
117.5520178865
 31
0.0
 70
   160
  1
PSC%%c<>
 71
     2
 42
-1.0
  3
SLDDIMSTYLE0
100
AcDbAlignedDimension
 13
183.4667512523
 23
137.5520178865
 33
0.0
 14
183.4667512523
 24
97.5520178865
 34
0.0
 50
90.0
100
AcDbRotatedDimension
  0
LINE
  5
20F
330
1F
100
AcDbEntity
  8
0
  6
Continuous
 62
     7
370
    15
100
AcDbLine
 10
78.5996129078
 20
113.0576483908
 30
0.0
 11
78.4206935012
 21
112.8341887149
 31
0.0
  0
LINE
  5
210
330
1F
100
AcDbEntity
  8
0
  6
Continuous
 62
     7
370
    15
100
AcDbLine
 10
79.1483400197
 20
105.9110947888
 30
0.0
 11
79.3698094592
 21
105.7297178547
 31
0.0
  0
LINE
  5
211
330
1F
100
AcDbEntity
  8
0
  6
Continuous
 62
     7
370
    15
100
AcDbLine
 10
81.654008335
 20
90.5520414005
 30
0.0
 11
86.3619996042
 21
91.0468717109
 31
0.0
  0
LINE
  5
212
330
1F
100
AcDbEntity
  8
0
  6
Continuous
 62
     7
370
    15
100
AcDbLine
 10
80.3332063177
 20
93.3174156587
 30
0.0
 11
80.7580733479
 21
92.7206465046
 31
0.0
  0
SPLINE
  5
213
330
1F
100
AcDbEntity
  8
0
  6
Continuous
 62
     7
370
    15
100
AcDbSpline
210
0.0
220
0.0
230
1.0
 70
     8
 71
     3
 72
    13
 73
     9
 74
     0
 42
0.00000001
 43
0.00000001
 12
1.0
 22
0.0
 32
0.0
 13
1.0
 23
0.0
 33
0.0
 40
0.0
 40
0.0
 40
0.0
 40
0.0
 40
0.117831314347168
 40
0.3441027592341424
 40
0.5330645382183319
 40
0.7319897780539439
 40
0.9670964375927805
 40
1.0
 40
1.0
 40
1.0
 40
1.0
 10
79.71029656873414
 20
103.120319638693
 30
0.0
 10
79.70971009796313
 20
103.1217209485075
 30
0.0
 10
79.70799742751015
 20
103.1258131932254
 30
0.0
 10
79.71921585124316
 20
103.0952414423023
 30
0.0
 10
79.73869172510149
 20
103.0117561596539
 30
0.0
 10
79.74083863399645
 20
102.8685656069391
 30
0.0
 10
79.72467713467533
 20
102.7379938549007
 30
0.0
 10
79.68522300390812
 20
102.6727656654195
 30
0.0
 10
79.68037922800848
 20
102.6647576133844
 30
0.0
  0
LINE
  5
214
330
1F
100
AcDbEntity
  8
0
  6
Continuous
 62
     7
370
    15
100
AcDbLine
 10
79.666431974
 20
102.6683739389
 30
0.0
 11
79.3621609726
 21
101.9668840806
 31
0.0
  0
LINE
  5
215
330
1F
100
AcDbEntity
  8
0
  6
Continuous
 62
     7
370
    15
100
AcDbLine
 10
79.1397075907
 20
104.2550402696
 30
0.0
 11
78.841170044
 21
104.2236630808
 31
0.0
  0
LINE
  5
216
330
1F
100
AcDbEntity
  8
0
  6
Continuous
 62
     7
370
    15
100
AcDbLine
 10
86.3280612783
 20
91.7452239434
 30
0.0
 11
89.0026213408
 21
92.0263324867
 31
0.0
  0
LINE
  5
217
330
1F
100
AcDbEntity
  8
0
  6
Continuous
 62
     7
370
    15
100
AcDbLine
 10
89.0129683346
 20
92.0329877178
 30
0.0
 11
89.2752278403
 21
92.3605338673
 31
0.0
  0
LWPOLYLINE
  5
218
330
1F
100
AcDbEntity
  8
0
  6
Continuous
 62
     7
370
    15
100
AcDbPolyline
 90
       38
 70
   128
 43
0.0
 10
78.420880697
 20
112.8344220112
 10
78.4813517046
 20
112.8526028249
 10
78.5516444401
 20
112.770787068
 10
78.6297367693
 20
112.5913286585
 10
78.7133818765
 20
112.3193903829
 10
78.8001734571
 20
111.9627948853
 10
78.8876148679
 20
111.5318006839
 10
78.973190374
 20
111.0388074073
 10
79.0544382569
 20
110.4979972358
 10
79.1290211298
 20
109.9249279129
 10
79.1947934584
 20
109.3360866423
 10
79.2498630279
 20
108.7484118532
 10
79.2926454258
 20
108.1788112412
 10
79.3219101422
 20
107.6436704959
 10
79.3368150287
 20
107.1583843793
 10
79.3369316769
 20
106.7369143481
 10
79.3222563614
 20
106.3913843597
 10
79.2932114371
 20
106.1317362826
 10
79.2506323003
 20
105.9654383923
 10
79.1957441059
 20
105.8972748931
 10
79.1301259112
 20
105.9292071502
 10
79.0556650416
 20
106.0603168796
 10
78.9745040045
 20
106.2868312935
 10
78.8889776257
 20
106.6022348593
 10
78.8015462265
 20
106.9974527697
 10
78.7147248437
 20
107.4611173014
 10
78.6310115171
 20
107.9798881899
 10
78.5528144141
 20
108.5388409908
 10
78.4823831444
 20
109.1218973513
 10
78.4217438002
 20
109.7122822891
 10
78.3726409816
 20
110.2930117401
 10
78.3364870393
 20
110.84737964
 10
78.3143224933
 20
111.359438021
 10
78.3067846012
 20
111.8144552226
 10
78.3140901283
 20
112.1993415061
 10
78.3360292942
 20
112.5030243772
 10
78.371970895
 20
112.7167675647
 10
78.420880697
 20
112.8344220112
  0
LWPOLYLINE
  5
219
330
1F
100
AcDbEntity
  8
0
  6
Continuous
 62
     7
370
    15
100
AcDbPolyline
 90
       29
 70
   128
 43
0.0
 10
78.593113906
 20
111.3525243479
 10
78.6400202003
 20
111.3540861759
 10
78.6960897774
 20
111.2564914863
 10
78.7585109745
 20
111.0646343793
 10
78.8241538492
 20
110.7881349514
 10
78.8897268747
 20
110.4408582675
 10
78.951941551
 20
110.0402186628
 10
79.0076786459
 20
109.6063052307
 10
79.0541430277
 20
109.1608769263
 10
79.08900476
 20
108.7262687276
 10
79.1105157503
 20
108.3242735828
 10
79.1175975271
 20
107.9750499691
 10
79.109894791
 20
107.6961086135
 10
79.0877938078
 20
107.5014370497
 10
79.0524026186
 20
107.4007974009
 10
79.0054963243
 20
107.399235573
 10
78.9494267472
 20
107.4968307282
 10
78.8870055501
 20
107.6886878352
 10
78.8213626754
 20
107.965187263
 10
78.7557898828
 20
108.3124634813
 10
78.6935749737
 20
108.7131035517
 10
78.6378381115
 20
109.1470169838
 10
78.5913737298
 20
109.5924452881
 10
78.5565119975
 20
110.0270534868
 10
78.5350007744
 20
110.4290486316
 10
78.5279192303
 20
110.7782722454
 10
78.5356219665
 20
111.057213601
 10
78.5577229497
 20
111.2518846992
 10
78.593113906
 20
111.3525243479
  0
LINE
  5
21A
330
1F
100
AcDbEntity
  8
0
  6
Continuous
 62
     7
370
    15
100
AcDbLine
 10
79.0217330021
 20
109.4686445783
 30
0.0
 11
78.9276342646
 21
109.2056381519
 31
0.0
  0
LINE
  5
21B
330
1F
100
AcDbEntity
  8
0
  6
Continuous
 62
     7
370
    15
100
AcDbLine
 10
78.9276342646
 20
109.2056381519
 30
0.0
 11
79.0626478654
 21
109.021853749
 31
0.0
  0
LINE
  5
21C
330
1F
100
AcDbEntity
  8
0
  6
Continuous
 62
     7
370
    15
100
AcDbLine
 10
79.0487411239
 20
109.2183665375
 30
0.0
 11
78.9276342646
 21
109.2056381519
 31
0.0
  0
LINE
  5
21D
330
1F
100
AcDbEntity
  8
0
  6
Continuous
 62
     7
370
    15
100
AcDbLine
 10
78.8452012737
 20
103.7868290211
 30
0.0
 11
80.2129540632
 21
91.8266848664
 31
0.0
  0
ARC
  5
21E
330
1F
100
AcDbEntity
  8
0
  6
Continuous
 62
     7
370
    15
100
AcDbCircle
 10
79.7290270092
 20
104.005182412
 30
0.0
 40
0.910398887323942
100
AcDbArc
 50
166.1879034305
 51
193.8773125652
  0
LINE
  5
21F
330
1F
100
AcDbEntity
  8
0
  6
Continuous
 62
     7
370
    15
100
AcDbLine
 10
80.2064160624
 20
103.3066716979
 30
0.0
 11
78.8449533091
 21
104.2225296612
 31
0.0
  0
ARC
  5
220
330
1F
100
AcDbEntity
  8
0
  6
Continuous
 62
     7
370
    15
100
AcDbCircle
 10
79.2137607676
 20
102.9094075886
 30
0.0
 40
1.069197505940331
100
AcDbArc
 50
2.1232511583
 51
21.8114595443
  0
LINE
  5
221
330
1F
100
AcDbEntity
  8
0
  6
Continuous
 62
     7
370
    15
100
AcDbLine
 10
81.6499769488
 20
90.9888763915
 30
0.0
 11
80.2822242065
 21
102.9490205462
 31
0.0
  0
ARC
  5
222
330
1F
100
AcDbEntity
  8
0
  6
Continuous
 62
     7
370
    15
100
AcDbCircle
 10
80.7661405944
 20
90.7705217111
 30
0.0
 40
0.9104095055075545
100
AcDbArc
 50
346.1880305753
 51
13.8772310682
  0
LINE
  5
223
330
1F
100
AcDbEntity
  8
0
  6
Continuous
 62
     7
370
    15
100
AcDbLine
 10
80.2887622074
 20
91.4690327834
 30
0.0
 11
81.650225088
 21
90.5531738888
 31
0.0
  0
ARC
  5
224
330
1F
100
AcDbEntity
  8
0
  6
Continuous
 62
     7
370
    15
100
AcDbCircle
 10
81.2814346912
 20
91.8663004329
 30
0.0
 40
1.069214779841039
100
AcDbArc
 50
182.12335674
 51
201.8112934338
  0
ARC
  5
225
330
1F
100
AcDbEntity
  8
0
  6
Continuous
 62
     7
370
    15
100
AcDbCircle
 10
80.8084627506
 20
90.7794885235
 30
0.0
 40
0.8648699863350401
100
AcDbArc
 50
346.1877957778
 51
13.8774656138
  0
LINE
  5
226
330
1F
100
AcDbEntity
  8
0
  6
Continuous
 62
     7
370
    15
100
AcDbLine
 10
81.6480879501
 20
90.9869243394
 30
0.0
 11
80.2803352515
 21
102.9470694254
 31
0.0
  0
ARC
  5
227
330
1F
100
AcDbEntity
  8
0
  6
Continuous
 62
     7
370
    15
100
AcDbCircle
 10
79.2653037082
 20
102.9094380759
 30
0.0
 40
1.015728877432193
100
AcDbArc
 50
2.1232152674
 51
21.8115563724
  0
LINE
  5
228
330
1F
100
AcDbEntity
  8
0
  6
Continuous
 62
     7
370
    15
100
AcDbLine
 10
80.2083174738
 20
103.2868373211
 30
0.0
 11
78.8468546041
 21
104.2026962157
 31
0.0
  0
ARC
  5
229
330
1F
100
AcDbEntity
  8
0
  6
Continuous
 62
     7
370
    15
100
AcDbCircle
 10
79.6867242754
 20
103.9962166857
 30
0.0
 40
0.8648785238472068
100
AcDbArc
 50
166.1879209462
 51
193.8773755494
  0
LINE
  5
22A
330
1F
100
AcDbEntity
  8
0
  6
Continuous
 62
     7
370
    15
100
AcDbLine
 10
78.8470904616
 20
103.7887801419
 30
0.0
 11
80.2148431347
 21
91.8286350559
 31
0.0
  0
ARC
  5
22B
330
1F
100
AcDbEntity
  8
0
  6
Continuous
 62
     7
370
    15
100
AcDbCircle
 10
81.2298591112
 20
91.8662638172
 30
0.0
 40
1.01571322541332
100
AcDbArc
 50
182.1231019014
 51
201.8116958789
  0
LINE
  5
22C
330
1F
100
AcDbEntity
  8
0
  6
Continuous
 62
     7
370
    15
100
AcDbLine
 10
80.286860796
 20
91.4888680915
 30
0.0
 11
81.6483236802
 21
90.573009197
 31
0.0
  0
LINE
  5
22D
330
1F
100
AcDbEntity
  8
0
  6
Continuous
 62
     7
370
    15
100
AcDbLine
 10
86.3579683744
 20
91.4837048392
 30
0.0
 11
84.9902154685
 21
103.4438508566
 31
0.0
  0
ARC
  5
22E
330
1F
100
AcDbEntity
  8
0
  6
Continuous
 62
     7
370
    15
100
AcDbCircle
 10
85.3348615224
 20
91.2558281312
 30
0.0
 40
1.048177191458769
100
AcDbArc
 50
348.5009204694
 51
12.5565354808
  0
LINE
  5
22F
330
1F
100
AcDbEntity
  8
0
  6
Continuous
 62
     7
370
    15
100
AcDbLine
 10
80.8223110314
 20
92.502638791
 30
0.0
 11
80.4677300428
 21
91.8885172348
 31
0.0
  0
ARC
  5
230
330
1F
100
AcDbEntity
  8
0
  6
Continuous
 62
     7
370
    15
100
AcDbCircle
 10
83.9217624674
 20
103.4042394
 30
0.0
 40
1.069187019642863
100
AcDbArc
 50
2.1231914981
 51
21.8115440378
  0
LINE
  5
231
330
1F
100
AcDbEntity
  8
0
  6
Continuous
 62
     7
370
    15
100
AcDbLine
 10
81.1057608615
 20
93.8822981904
 30
0.0
 11
80.3402790141
 21
100.5759594034
 31
0.0
  0
LINE
  5
232
330
1F
100
AcDbEntity
  8
0
  6
Continuous
 62
     7
370
    15
100
AcDbLine
 10
84.9144074407
 20
103.801501077
 30
0.0
 11
84.8378154722
 21
103.8530246358
 31
0.0
  0
LINE
  5
233
330
1F
100
AcDbEntity
  8
0
  6
Continuous
 62
     7
370
    15
100
AcDbLine
 10
79.7280389623
 20
103.0467032458
 30
0.0
 11
79.0999773697
 21
103.8486613895
 31
0.0
  0
ARC
  5
234
330
1F
100
AcDbEntity
  8
0
  6
Continuous
 62
     7
370
    15
100
AcDbCircle
 10
78.8961975955
 20
93.3364134226
 30
0.0
 40
2.275996486362235
100
AcDbArc
 50
346.1879082177
 51
13.8773505872
  0
LINE
  5
235
330
1F
100
AcDbEntity
  8
0
  6
Continuous
 62
     7
370
    15
100
AcDbLine
 10
79.3894175247
 20
100.8934062909
 30
0.0
 11
80.1548992556
 21
94.1997450779
 31
0.0
  0
ARC
  5
236
330
1F
100
AcDbEntity
  8
0
  6
Continuous
 62
     7
370
    15
100
AcDbCircle
 10
81.5989817509
 20
101.4392914136
 30
0.0
 40
2.275997503673758
100
AcDbArc
 50
166.1879237133
 51
193.8773534623
  0
LINE
  5
237
330
1F
100
AcDbEntity
  8
0
  6
Continuous
 62
     7
370
    15
100
AcDbLine
 10
80.1507587119
 20
101.470086817
 30
0.0
 11
79.3887970311
 21
101.9826588224
 31
0.0
  0
ARC
  5
238
330
1F
100
AcDbEntity
  8
0
  6
Continuous
 62
     7
370
    15
100
AcDbCircle
 10
77.6691212978
 20
100.4769268405
 30
0.0
 40
2.672992890734865
100
AcDbArc
 50
2.1232554769
 51
21.8114601924
  0
LINE
  5
239
330
1F
100
AcDbEntity
  8
0
  6
Continuous
 62
     7
370
    15
100
AcDbLine
 10
80.3444196743
 20
93.3056195269
 30
0.0
 11
81.1063811805
 21
92.7930456589
 31
0.0
  0
ARC
  5
23A
330
1F
100
AcDbEntity
  8
0
  6
Continuous
 62
     7
370
    15
100
AcDbCircle
 10
82.8260275339
 20
94.2987737931
 30
0.0
 40
2.672963330337265
100
AcDbArc
 50
182.123196436
 51
201.811581935
  0
LWPOLYLINE
  5
23B
330
1F
100
AcDbEntity
  8
0
  6
Continuous
 62
     7
370
    15
100
AcDbPolyline
 90
       33
 70
   128
 43
0.0
 10
80.49287063
 20
94.8292930613
 10
80.5448684649
 20
94.8403050195
 10
80.5854419985
 20
94.9492194693
 10
80.6130319641
 20
95.1518473218
 10
80.6265781674
 20
95.4404045831
 10
80.6255601154
 20
95.8038010637
 10
80.6100168073
 20
96.2280725132
 10
80.58054557
 20
96.6969114731
 10
80.5382791248
 20
97.1923043023
 10
80.4848415817
 20
97.6952129047
 10
80.422286507
 20
98.1863086115
 10
80.3530178771
 20
98.6467191021
 10
80.2796977612
 20
99.0587548356
 10
80.2051437593
 20
99.4065758775
 10
80.1322208525
 20
99.6768196116
 10
80.0637315067
 20
99.8590999286
 10
80.0023076397
 20
99.94641142
 10
79.9503099213
 20
99.9353994618
 10
79.9097363877
 20
99.8264868747
 10
79.8821464221
 20
99.6238571595
 10
79.8686001024
 20
99.3352998982
 10
79.8696181544
 20
98.9719034176
 10
79.8851614625
 20
98.5476338307
 10
79.9146326997
 20
98.0787930082
 10
79.9568992614
 20
97.583400179
 10
80.0103368045
 20
97.0804915766
 10
80.0728918792
 20
96.5893958698
 10
80.1421603926
 20
96.1289853792
 10
80.2154805086
 20
95.7169515084
 10
80.2900346269
 20
95.3691286038
 10
80.3629575337
 20
95.0988848697
 10
80.4314468794
 20
94.9166045527
 10
80.49287063
 20
94.8292930613
  0
ARC
  5
23C
330
1F
100
AcDbEntity
  8
0
  6
Continuous
 62
     7
370
    15
100
AcDbCircle
 10
86.4347465464
 20
92.5487221145
 30
0.0
 40
2.620471690918886
100
AcDbArc
 50
348.5010799381
 51
12.5564483964
  0
LINE
  5
23D
330
1F
100
AcDbEntity
  8
0
  6
Continuous
 62
     7
370
    15
100
AcDbLine
 10
88.9925425679
 20
93.1184162389
 30
0.0
 11
87.886846605
 21
102.7870374735
 31
0.0
  0
ARC
  5
23E
330
1F
100
AcDbEntity
  8
0
  6
Continuous
 62
     7
370
    15
100
AcDbCircle
 10
87.1664032583
 20
92.7008844418
 30
0.0
 40
2.136113206593648
100
AcDbArc
 50
350.8318914587
 51
11.3242676506
  0
LINE
  5
23F
330
1F
100
AcDbEntity
  8
0
  6
Continuous
 62
     7
370
    15
100
AcDbLine
 10
88.1552337476
 20
102.788955998
 30
0.0
 11
89.2609297105
 21
93.1203347634
 31
0.0
  0
ARC
  5
240
330
1F
100
AcDbEntity
  8
0
  6
Continuous
 62
     7
370
    15
100
AcDbCircle
 10
84.4269843129
 20
102.5665808365
 30
0.0
 40
3.466878741608987
100
AcDbArc
 50
3.6458624488
 51
18.1667654265
  0
LINE
  5
241
330
1F
100
AcDbEntity
  8
0
  6
Continuous
 62
     7
370
    15
100
AcDbLine
 10
87.7364636206
 20
103.6491180773
 30
0.0
 11
88.0225696408
 21
103.414844815
 31
0.0
  0
ARC
  5
242
330
1F
100
AcDbEntity
  8
0
  6
Continuous
 62
     7
370
    15
100
AcDbCircle
 10
86.2854313766
 20
102.7196347831
 30
0.0
 40
1.871086940104761
100
AcDbArc
 50
2.1232162647
 51
21.8114948819
  0
SPLINE
  5
243
330
1F
100
AcDbEntity
  8
0
  6
Continuous
 62
     7
370
    15
100
AcDbSpline
210
0.0
220
0.0
230
1.0
 70
     8
 71
     3
 72
    25
 73
    21
 74
     0
 42
0.00000001
 43
0.00000001
 12
1.0
 22
0.0
 32
0.0
 13
1.0
 23
0.0
 33
0.0
 40
0.0
 40
0.0
 40
0.0
 40
0.0
 40
0.0264141681369333
 40
0.0521829732227564
 40
0.0773064263956338
 40
0.1017845397855335
 40
0.1256173266187623
 40
0.1898033660705241
 40
0.2511102135946192
 40
0.3148939364348766
 40
0.3764523067854477
 40
0.5015887634578535
 40
0.6265200058563242
 40
0.6895075240196294
 40
0.7512522040891255
 40
0.8140256814121982
 40
0.8757463481256976
 40
0.9175655690465148
 40
0.9589832116944462
 40
1.0
 40
1.0
 40
1.0
 40
1.0
 10
102.196052537639
 20
102.3091691698118
 30
0.0
 10
102.1135158518748
 20
102.1895106716833
 30
0.0
 10
101.9504590544468
 20
101.9531172266448
 30
0.0
 10
101.7015087614765
 20
101.6081338295297
 30
0.0
 10
101.4537522621241
 20
101.2755255475498
 30
0.0
 10
101.207134763482
 20
100.9554302079165
 30
0.0
 10
100.8218290026145
 20
100.4709790739859
 30
0.0
 10
100.2922537433953
 20
99.84250999744755
 30
0.0
 10
99.58946169927462
 20
99.07374574755967
 30
0.0
 10
98.86638060708013
 20
98.34418824997007
 30
0.0
 10
97.85725769047542
 20
97.40528762964564
 30
0.0
 10
96.53217438545555
 20
96.314032664101
 30
0.0
 10
95.11604385352273
 20
95.32936360143442
 30
0.0
 10
93.94143952551167
 20
94.61535685966297
 30
0.0
 10
93.03791397815503
 20
94.11545375355121
 30
0.0
 10
92.12075229886143
 20
93.65596894007578
 30
0.0
 10
91.285444179012
 20
93.27929552434426
 30
0.0
 10
90.546449022645
 20
92.97643473502933
 30
0.0
 10
89.90640192658122
 20
92.73304485822561
 30
0.0
 10
89.47639957217052
 20
92.58632536252645
 30
0.0
 10
89.26244388232405
 20
92.51332234150983
 30
0.0
  0
SPLINE
  5
244
330
1F
100
AcDbEntity
  8
0
  6
Continuous
 62
     7
370
    15
100
AcDbSpline
210
0.0
220
0.0
230
1.0
 70
     8
 71
     3
 72
    25
 73
    21
 74
     0
 42
0.00000001
 43
0.00000001
 12
1.0
 22
0.0
 32
0.0
 13
1.0
 23
0.0
 33
0.0
 40
0.0
 40
0.0
 40
0.0
 40
0.0
 40
0.0248363252789051
 40
0.049669128289144
 40
0.0745054430322078
 40
0.099352300527137
 40
0.1242167228493149
 40
0.1864083096475926
 40
0.2486870838379545
 40
0.3110065643960806
 40
0.3734101044107965
 40
0.4983430602329823
 40
0.623490789092414
 40
0.686129478977865
 40
0.748851769008621
 40
0.8115704428219236
 40
0.8743657326353378
 40
0.9162135262969568
 40
0.9580811195918828
 40
1.0
 40
1.0
 40
1.0
 40
1.0
 10
89.2603841002753
 20
93.01428577392824
 30
0.0
 10
89.39145253848383
 20
93.05919606308316
 30
0.0
 10
89.65357082687521
 20
93.14901027225011
 30
0.0
 10
90.04373337575859
 20
93.29212461525407
 30
0.0
 10
90.43159554941224
 20
93.44135222039696
 30
0.0
 10
90.81695020805927
 20
93.59729904276487
 30
0.0
 10
91.39130640729212
 20
93.84105326241604
 30
0.0
 10
92.14790226212774
 20
94.18892329524334
 30
0.0
 10
93.07476965511862
 20
94.66347017599743
 30
0.0
 10
93.98170103467169
 20
95.17706997739798
 30
0.0
 10
95.16225772364733
 20
95.91290935105296
 30
0.0
 10
96.58006252707375
 20
96.92587635169214
 30
0.0
 10
97.90883669225416
 20
98.05452399522997
 30
0.0
 10
98.91361535557148
 20
99.02238548651529
 30
0.0
 10
99.63707398991501
 20
99.77991275129793
 30
0.0
 10
100.3289518033184
 20
100.5675384046382
 30
0.0
 10
100.9145974511734
 20
101.2927933624557
 30
0.0
 10
101.4046223645506
 20
101.9451748835873
 30
0.0
 10
101.8103360937879
 20
102.5153390103584
 30
0.0
 10
102.0674269944482
 20
102.9048146750542
 30
0.0
 10
102.1960511296158
 20
103.0996717097126
 30
0.0
  0
SPLINE
  5
245
330
1F
100
AcDbEntity
  8
0
  6
Continuous
 62
     7
370
    15
100
AcDbSpline
210
0.0
220
0.0
230
1.0
 70
    24
 71
     3
 72
     9
 73
     5
 74
     0
 42
0.00000001
 43
0.00000001
 12
1.0
 22
0.0
 32
0.0
 13
1.0
 23
0.0
 33
0.0
 40
0.0
 40
0.0
 40
0.0
 40
0.0
 40
0.4999995544988955
 40
1.0
 40
1.0
 40
1.0
 40
1.0
 10
102.1960525506116
 20
103.0996722643552
 30
0.0
 10
102.1960525506116
 20
102.9674293780961
 30
0.0
 10
102.1960525506116
 20
102.7029433699201
 30
0.0
 10
102.1960525506116
 20
102.4404290283221
 30
0.0
 10
102.1960525506116
 20
102.3091717405727
 30
0.0
  0
LINE
  5
246
330
1F
100
AcDbEntity
  8
0
  6
Continuous
 62
     7
370
    15
100
AcDbLine
 10
88.0405385786
 20
103.6810773428
 30
0.0
 11
85.1326617219
 21
103.3754470761
 31
0.0
  0
LINE
  5
247
330
1F
100
AcDbEntity
  8
0
  6
Continuous
 62
     7
370
    15
100
AcDbLine
 10
85.1326617219
 20
103.3754470761
 30
0.0
 11
85.0751930655
 21
103.8779738362
 31
0.0
  0
LINE
  5
248
330
1F
100
AcDbEntity
  8
0
  6
Continuous
 62
     7
370
    15
100
AcDbLine
 10
85.0751930655
 20
103.8779738362
 30
0.0
 11
80.4265462601
 21
103.3893815245
 31
0.0
  0
LINE
  5
249
330
1F
100
AcDbEntity
  8
0
  6
Continuous
 62
     7
370
    15
100
AcDbLine
 10
80.4265462601
 20
103.3893815245
 30
0.0
 11
79.1160049655
 21
114.8492487616
 31
0.0
  0
LINE
  5
24A
330
1F
100
AcDbEntity
  8
0
  6
Continuous
 62
     7
370
    15
100
AcDbLine
 10
102.1960531169
 20
117.2750596076
 30
0.0
 11
79.1160049655
 21
114.8492487616
 31
0.0
  0
LINE
  5
24B
330
1F
100
AcDbEntity
  8
0
  6
Continuous
 62
     7
370
    15
100
AcDbLine
 10
102.1960531169
 20
103.0996722172
 30
0.0
 11
102.1960531169
 21
117.2750596076
 31
0.0
  0
LINE
  5
24C
330
1F
100
AcDbEntity
  8
0
  6
Continuous
 62
     7
370
    15
100
AcDbLine
 10
88.0405385786
 20
103.6810773428
 30
0.0
 11
88.0995383293
 21
103.1651628207
 31
0.0
  0
SPLINE
  5
24D
330
1F
100
AcDbEntity
  8
0
  6
Continuous
 62
     7
370
    15
100
AcDbSpline
210
0.0
220
0.0
230
1.0
 70
     8
 71
     3
 72
    12
 73
     8
 74
     0
 42
0.00000001
 43
0.00000001
 12
1.0
 22
0.0
 32
0.0
 13
1.0
 23
0.0
 33
0.0
 40
0.0
 40
0.0
 40
0.0
 40
0.0
 40
0.5
 40
0.5
 40
0.75
 40
0.75
 40
1.0
 40
1.0
 40
1.0
 40
1.0
 10
78.3378492641507
 20
97.78462141118962
 30
0.0
 10
78.360773749532
 20
97.7271171680005
 30
0.0
 10
78.38620194434439
 20
97.62897317920795
 30
0.0
 10
78.42371126399166
 20
97.44125695160604
 30
0.0
 10
78.43631322455795
 20
97.37086013232127
 30
0.0
 10
78.46032821499533
 20
97.22225432628113
 30
0.0
 10
78.47181459922194
 20
97.14386991077089
 30
0.0
 10
78.48276091145569
 20
97.06125547398305
 30
0.0
  0
SPLINE
  5
24E
330
1F
100
AcDbEntity
  8
0
  6
Continuous
 62
     7
370
    15
100
AcDbSpline
210
0.0
220
0.0
230
1.0
 70
     8
 71
     3
 72
     8
 73
     4
 74
     0
 42
0.00000001
 43
0.00000001
 12
1.0
 22
0.0
 32
0.0
 13
1.0
 23
0.0
 33
0.0
 40
0.0
 40
0.0
 40
0.0
 40
0.0
 40
1.0
 40
1.0
 40
1.0
 40
1.0
 10
74.30866365928013
 20
136.67468729659
 30
0.0
 10
74.31894132860783
 20
136.4567127069588
 30
0.0
 10
74.31673583971875
 20
136.2788545204491
 30
0.0
 10
74.30136123894017
 20
136.1892395981479
 30
0.0
  0
ARC
  5
24F
330
1F
100
AcDbEntity
  8
0
  6
Continuous
 62
     7
370
    15
100
AcDbCircle
 10
81.6960525506
 20
117.5520178865
 30
0.0
 40
20.50000000000003
100
AcDbArc
 50
108.6501151545
 51
111.1223331378
  0
LINE
  5
250
330
1F
100
AcDbEntity
  8
0
  6
Continuous
 62
     7
370
    15
100
AcDbLine
 10
79.1160049655
 20
114.8492487616
 30
0.0
 11
75.1403947168
 21
136.9755436669
 31
0.0
  0
ARC
  5
251
330
1F
100
AcDbEntity
  8
0
  6
Continuous
 62
     7
370
    15
100
AcDbCircle
 10
99.0046235557
 20
104.0754655455
 30
0.0
 40
20.09834988981931
100
AcDbArc
 50
183.0620122061
 51
189.9858957327
  0
LWPOLYLINE
  5
252
330
1F
100
AcDbEntity
  8
0
  6
Continuous
 62
     7
370
    15
100
AcDbPolyline
 90
        3
 70
   128
 43
0.0
 10
78.9603544206
 20
104.2361893694
 10
78.9890826953
 20
104.3087244968
 10
79.0392504812
 20
104.322617967
  0
SPLINE
  5
253
330
1F
100
AcDbEntity
  8
0
  6
Continuous
 62
     7
370
    15
100
AcDbSpline
210
0.0
220
0.0
230
1.0
 70
     8
 71
     3
 72
     8
 73
     4
 74
     0
 42
0.00000001
 43
0.00000001
 12
1.0
 22
0.0
 32
0.0
 13
1.0
 23
0.0
 33
0.0
 40
0.0
 40
0.0
 40
0.0
 40
0.0
 40
1.0
 40
1.0
 40
1.0
 40
1.0
 10
78.48276091145569
 20
97.06125547398305
 30
0.0
 10
78.61927611879226
 20
96.03094254975312
 30
0.0
 10
78.75590997546433
 20
95.00104781859504
 30
0.0
 10
78.89262258180331
 20
93.97143064959074
 30
0.0
  0
LWPOLYLINE
  5
254
330
1F
100
AcDbEntity
  8
0
  6
Continuous
 62
     7
370
    15
100
AcDbPolyline
 90
       41
 70
   128
 43
0.0
 10
79.2431498219
 20
109.3766606416
 10
79.3026629643
 20
108.7543136443
 10
79.3503592529
 20
108.1472906287
 10
79.3850642902
 20
107.5705383907
 10
79.4059235875
 20
107.0382586683
 10
79.4124232878
 20
106.5635588954
 10
79.4044034363
 20
106.158126239
 10
79.3820617062
 20
105.8319454084
 10
79.3459478107
 20
105.5930462669
 10
79.2969513957
 20
105.4473129104
 10
79.2362787568
 20
105.3983337249
 10
79.1654239681
 20
105.4473129104
 10
79.0861316298
 20
105.5930462669
 10
79.0003540267
 20
105.8319454084
 10
78.9102033985
 20
106.158126239
 10
78.8178997853
 20
106.5635588954
 10
78.7257156142
 20
107.0382586683
 10
78.635920984
 20
107.5705383907
 10
78.5507270873
 20
108.1472906287
 10
78.4722312626
 20
108.7543136443
 10
78.4023667027
 20
109.3766606416
 10
78.3428535604
 20
109.9990085702
 10
78.2951572717
 20
110.6060320514
 10
78.2604522345
 20
111.1827838238
 10
78.2395931699
 20
111.7150635461
 10
78.2330934697
 20
112.189763319
 10
78.2411133212
 20
112.5951955098
 10
78.2634550513
 20
112.921376806
 10
78.2995689467
 20
113.1602754819
 10
78.3485651289
 20
113.3060088384
 10
78.4092377678
 20
113.3549884896
 10
78.4800927893
 20
113.3060088384
 10
78.5593851277
 20
113.1602754819
 10
78.6451627308
 20
112.921376806
 10
78.7353131262
 20
112.5951955098
 10
78.8276169722
 20
112.189763319
 10
78.9198009104
 20
111.7150635461
 10
79.0095955406
 20
111.1827838238
 10
79.0947896701
 20
110.6060320514
 10
79.173285262
 20
109.9990085702
 10
79.2431498219
 20
109.3766606416
  0
LINE
  5
255
330
1F
100
AcDbEntity
  8
0
  6
Continuous
 62
     7
370
    15
100
AcDbLine
 10
79.0392504812
 20
104.322617967
 30
0.0
 11
80.4265462601
 21
103.3893815245
 31
0.0
  0
ELLIPSE
  5
256
330
1F
100
AcDbEntity
  8
0
  6
Continuous
 62
     7
370
    15
100
AcDbEllipse
 10
81.6960525506
 20
114.0624333031
 30
0.0
 11
-21.75048845429374
 21
30.80469282832162
 31
0.0
210
0.0
220
0.0
230
1.0
 40
0.4001153713
 41
1.973977149736828
 42
2.022605244256889
  0
LINE
  5
257
330
1F
100
AcDbEntity
  8
0
  6
Continuous
 62
     7
370
    15
100
AcDbLine
 10
84.9866876186
 20
103.4736438657
 30
0.0
 11
85.1326617219
 21
103.3754470761
 31
0.0
  0
LINE
  5
258
330
1F
100
AcDbEntity
  8
0
  6
Continuous
 62
     7
370
    15
100
AcDbLine
 10
102.1960531169
 20
117.2750596076
 30
0.0
 11
102.1960531169
 21
117.5520178865
 31
0.0
  0
ARC
  5
259
330
1F
100
AcDbEntity
  8
0
  6
Continuous
 62
     7
370
    15
100
AcDbCircle
 10
81.6960525506
 20
117.5520178865
 30
0.0
 40
20.50000000000004
100
AcDbArc
 50
0.0
 51
108.6501151545
  0
SPLINE
  5
25A
330
1F
100
AcDbEntity
  8
0
  6
Continuous
 62
     7
370
    15
100
AcDbSpline
210
0.0
220
0.0
230
1.0
 70
     8
 71
     3
 72
     8
 73
     4
 74
     0
 42
0.00000001
 43
0.00000001
 12
1.0
 22
0.0
 32
0.0
 13
1.0
 23
0.0
 33
0.0
 40
0.0
 40
0.0
 40
0.0
 40
0.0
 40
1.0
 40
1.0
 40
1.0
 40
1.0
 10
74.30136123894016
 20
136.1892395981479
 30
0.0
 10
74.29432306087142
 20
136.1482157179278
 30
0.0
 10
74.26360170355467
 20
136.1197897736823
 30
0.0
 10
74.20891195987973
 20
136.0977108035626
 30
0.0
  0
SPLINE
  5
25B
330
1F
100
AcDbEntity
  8
0
  6
Continuous
 62
     7
370
    15
100
AcDbSpline
210
0.0
220
0.0
230
1.0
 70
     8
 71
     3
 72
     8
 73
     4
 74
     0
 42
0.00000001
 43
0.00000001
 12
1.0
 22
0.0
 32
0.0
 13
1.0
 23
0.0
 33
0.0
 40
0.0
 40
0.0
 40
0.0
 40
0.0
 40
1.0
 40
1.0
 40
1.0
 40
1.0
 10
78.2283903172071
 20
97.85492879608672
 30
0.0
 10
78.28645909307798
 20
97.8447058184628
 30
0.0
 10
78.32243417354962
 20
97.82328893650092
 30
0.0
 10
78.337849264151
 20
97.78462141118985
 30
0.0
  0
SPLINE
  5
25C
330
1F
100
AcDbEntity
  8
0
  6
Continuous
 62
     7
370
    15
100
AcDbSpline
210
0.0
220
0.0
230
1.0
 70
     8
 71
     3
 72
    10
 73
     6
 74
     0
 42
0.00000001
 43
0.00000001
 12
1.0
 22
0.0
 32
0.0
 13
1.0
 23
0.0
 33
0.0
 40
0.0
 40
0.0
 40
0.0
 40
0.0
 40
0.5
 40
0.5
 40
1.0
 40
1.0
 40
1.0
 40
1.0
 10
77.72871977092626
 20
97.94946012951614
 30
0.0
 10
77.83217034986066
 20
97.92852291928202
 30
0.0
 10
77.92901090044708
 20
97.90979251687519
 30
0.0
 10
78.1006162514651
 20
97.87765746274067
 30
0.0
 10
78.17340748499043
 20
97.86460849494416
 30
0.0
 10
78.2283903172071
 20
97.85492879608672
 30
0.0
  0
SPLINE
  5
25D
330
1F
100
AcDbEntity
  8
0
  6
Continuous
 62
     7
370
    15
100
AcDbSpline
210
0.0
220
0.0
230
1.0
 70
     8
 71
     3
 72
     8
 73
     4
 74
     0
 42
0.00000001
 43
0.00000001
 12
1.0
 22
0.0
 32
0.0
 13
1.0
 23
0.0
 33
0.0
 40
0.0
 40
0.0
 40
0.0
 40
0.0
 40
1.0
 40
1.0
 40
1.0
 40
1.0
 10
74.20891195987936
 20
136.0977108035628
 30
0.0
 10
74.10543246709885
 20
136.0559347688699
 30
0.0
 10
73.9333917207924
 20
135.9852925271428
 30
0.0
 10
73.73981458324596
 20
135.9013578584455
 30
0.0
  0
ELLIPSE
  5
25E
330
1F
100
AcDbEntity
  8
0
  6
Continuous
 62
     7
370
    15
100
AcDbEllipse
 10
71.6019239234
 20
108.5928121631
 30
0.0
 11
-1.784771828645205
 21
2.162295987651462
 31
0.0
210
0.0
220
0.0
230
1.0
 40
0.7318176116
 41
0.0
 42
6.283185307179586
  0
ARC
  5
25F
330
1F
100
AcDbEntity
  8
0
  6
Continuous
 62
     7
370
    15
100
AcDbCircle
 10
81.6960525506
 20
117.5520178865
 30
0.0
 40
20.00000000000001
100
AcDbArc
 50
113.4414607571
 51
258.5585392429
  0
SPLINE
  5
260
330
1F
100
AcDbEntity
  8
0
  6
Continuous
 62
     7
370
    15
100
AcDbSpline
210
0.0
220
0.0
230
1.0
 70
     8
 71
     3
 72
    15
 73
    11
 74
     0
 42
0.00000001
 43
0.00000001
 12
1.0
 22
0.0
 32
0.0
 13
1.0
 23
0.0
 33
0.0
 40
0.0
 40
0.0
 40
0.0
 40
0.0
 40
0.0736290274071317
 40
0.2507440826915665
 40
0.4284994867047711
 40
0.4908895220735425
 40
0.5432234382813267
 40
0.6162599401233229
 40
0.8770145302521501
 40
1.0
 40
1.0
 40
1.0
 40
1.0
 10
69.57829695129165
 20
110.4312581944402
 30
0.0
 10
69.61054121852109
 20
110.4428502406951
 30
0.0
 10
69.72034925881744
 20
110.482327021892
 30
0.0
 10
69.90846193374101
 20
110.6395669791449
 30
0.0
 10
70.09864755417439
 20
110.7951729080559
 30
0.0
 10
70.27636163168265
 20
110.9046387374987
 30
0.0
 10
70.40904705590232
 20
110.955874873277
 30
0.0
 10
70.67314913268328
 20
111.0080478534669
 30
0.0
 10
70.94458439578162
 20
111.0207765409369
 30
0.0
 10
71.13983755670762
 20
111.0713863596254
 30
0.0
 10
71.20241455667981
 20
111.0876063819166
 30
0.0
  0
CIRCLE
  5
261
330
1F
100
AcDbEntity
  8
VERMASSUNG
  6
CENTERX2
100
AcDbCircle
 10
81.6960525506
 20
115.5963477082
 30
0.0
 40
24.99999999999998
  0
DIMENSION
  5
262
330
1F
100
AcDbEntity
  8
VERMASSUNG
100
AcDbDimension
  2
_D_5
 10
100.7882520682
 20
131.7359857952
 30
0.0
 11
109.0060819099
 21
138.6829485789
 31
0.0
 70
   160
  1
%%c<> min. 
 71
     2
 42
-1.0
  3
SLDDIMSTYLE3
100
AcDbAlignedDimension
 13
62.603853033
 23
99.4567096211
 33
0.0
 14
100.7882520682
 24
131.7359857952
 34
0.0
 50
40.2095902142
100
AcDbRotatedDimension
  0
INSERT
  5
27C
330
1F
100
AcDbEntity
  8
VERMASSUNG
100
AcDbBlockReference
  2
SW_CENTERMARKSYMBOL_0
 10
81.6960525506
 20
117.5520178865
 30
0.0
  0
OLE2FRAME
  5
27D
330
1F
100
AcDbEntity
  8
0
100
AcDbOle2Frame
 70
     2
  3
Paintbrush-Bild
 10
13.8511154363
 20
38.264191557
 30
0.0
 11
51.6290888628
 21
31.9806341108
 31
0.0
 71
     2
 72
     0
 73
     1
 90
    12928
310
80552BED0767C5B32B40DDAF6807D121434000000000000000006FFBDDFB85D0
310
4940DDAF6807D121434000000000000000006FFBDDFB85D04940416F4BD60AFB
310
3F4000000000000000002BED0767C5B32B40416F4BD60AFB3F40000000000000
310
0000000000000100000000010000010000000100000000000100000000320000
310
D0CF11E0A1B11AE1000000000000000000000000000000003E000300FEFF0900
310
0600000000000000000000000100000001000000000000000010000002000000
310
01000000FEFFFFFF0000000000000000FFFFFFFFFFFFFFFFFFFFFFFFFFFFFFFF
310
FFFFFFFFFFFFFFFFFFFFFFFFFFFFFFFFFFFFFFFFFFFFFFFFFFFFFFFFFFFFFFFF
310
FFFFFFFFFFFFFFFFFFFFFFFFFFFFFFFFFFFFFFFFFFFFFFFFFFFFFFFFFFFFFFFF
310
FFFFFFFFFFFFFFFFFFFFFFFFFFFFFFFFFFFFFFFFFFFFFFFFFFFFFFFFFFFFFFFF
310
FFFFFFFFFFFFFFFFFFFFFFFFFFFFFFFFFFFFFFFFFFFFFFFFFFFFFFFFFFFFFFFF
310
FFFFFFFFFFFFFFFFFFFFFFFFFFFFFFFFFFFFFFFFFFFFFFFFFFFFFFFFFFFFFFFF
310
FFFFFFFFFFFFFFFFFFFFFFFFFFFFFFFFFFFFFFFFFFFFFFFFFFFFFFFFFFFFFFFF
310
FFFFFFFFFFFFFFFFFFFFFFFFFFFFFFFFFFFFFFFFFFFFFFFFFFFFFFFFFFFFFFFF
310
FFFFFFFFFFFFFFFFFFFFFFFFFFFFFFFFFFFFFFFFFFFFFFFFFFFFFFFFFFFFFFFF
310
FFFFFFFFFFFFFFFFFFFFFFFFFFFFFFFFFFFFFFFFFFFFFFFFFFFFFFFFFFFFFFFF
310
FFFFFFFFFFFFFFFFFFFFFFFFFFFFFFFFFFFFFFFFFFFFFFFFFFFFFFFFFFFFFFFF
310
FFFFFFFFFFFFFFFFFFFFFFFFFFFFFFFFFFFFFFFFFFFFFFFFFFFFFFFFFFFFFFFF
310
FFFFFFFFFFFFFFFFFFFFFFFFFFFFFFFFFFFFFFFFFFFFFFFFFFFFFFFFFFFFFFFF
310
FFFFFFFFFFFFFFFFFFFFFFFFFFFFFFFFFFFFFFFFFFFFFFFFFFFFFFFFFFFFFFFF
310
FDFFFFFFFEFFFFFFFEFFFFFFFEFFFFFF05000000060000000700000008000000
310
090000000A0000000B0000000C0000000D0000000E0000000F00000010000000
310
11000000120000001300000014000000150000001600000017000000FEFFFFFF
310
FFFFFFFFFFFFFFFFFFFFFFFFFFFFFFFFFFFFFFFFFFFFFFFFFFFFFFFFFFFFFFFF
310
FFFFFFFFFFFFFFFFFFFFFFFFFFFFFFFFFFFFFFFFFFFFFFFFFFFFFFFFFFFFFFFF
310
FFFFFFFFFFFFFFFFFFFFFFFFFFFFFFFFFFFFFFFFFFFFFFFFFFFFFFFFFFFFFFFF
310
FFFFFFFFFFFFFFFFFFFFFFFFFFFFFFFFFFFFFFFFFFFFFFFFFFFFFFFFFFFFFFFF
310
FFFFFFFFFFFFFFFFFFFFFFFFFFFFFFFFFFFFFFFFFFFFFFFFFFFFFFFFFFFFFFFF
310
FFFFFFFFFFFFFFFFFFFFFFFFFFFFFFFFFFFFFFFFFFFFFFFFFFFFFFFFFFFFFFFF
310
FFFFFFFFFFFFFFFFFFFFFFFFFFFFFFFFFFFFFFFFFFFFFFFFFFFFFFFFFFFFFFFF
310
FFFFFFFFFFFFFFFFFFFFFFFFFFFFFFFFFFFFFFFFFFFFFFFFFFFFFFFFFFFFFFFF
310
FFFFFFFFFFFFFFFFFFFFFFFFFFFFFFFFFFFFFFFFFFFFFFFFFFFFFFFFFFFFFFFF
310
FFFFFFFFFFFFFFFFFFFFFFFFFFFFFFFFFFFFFFFFFFFFFFFFFFFFFFFFFFFFFFFF
310
FFFFFFFFFFFFFFFFFFFFFFFFFFFFFFFFFFFFFFFFFFFFFFFFFFFFFFFFFFFFFFFF
310
FFFFFFFFFFFFFFFFFFFFFFFFFFFFFFFFFFFFFFFFFFFFFFFFFFFFFFFFFFFFFFFF
310
FFFFFFFFFFFFFFFFFFFFFFFFFFFFFFFFFFFFFFFFFFFFFFFFFFFFFFFFFFFFFFFF
310
52006F006F007400200045006E00740072007900000000000000000000000000
310
0000000000000000000000000000000000000000000000000000000000000000
310
16000500FFFFFFFFFFFFFFFF020000000A00030000000000C000000000000046
310
000000000000000000000000F0550C9E4E24CD0103000000C000000000000000
310
01004F006C006500000000000000000000000000000000000000000000000000
310
0000000000000000000000000000000000000000000000000000000000000000
310
0A000200FFFFFFFFFFFFFFFFFFFFFFFF00000000000000000000000000000000
310
0000000000000000000000000000000000000000000000001400000000000000
310
010043006F006D0070004F0062006A0000000000000000000000000000000000
310
0000000000000000000000000000000000000000000000000000000000000000
310
120002010100000003000000FFFFFFFF00000000000000000000000000000000
310
0000000000000000000000000000000000000000010000004D00000000000000
310
01004F006C006500310030004E00610074006900760065000000000000000000
310
0000000000000000000000000000000000000000000000000000000000000000
310
1A000200FFFFFFFFFFFFFFFFFFFFFFFF00000000000000000000000000000000
310
0000000000000000000000000000000000000000040000002426000000000000
310
FEFFFFFF02000000FEFFFFFFFFFFFFFFFFFFFFFFFFFFFFFFFFFFFFFFFFFFFFFF
310
FFFFFFFFFFFFFFFFFFFFFFFFFFFFFFFFFFFFFFFFFFFFFFFFFFFFFFFFFFFFFFFF
310
FFFFFFFFFFFFFFFFFFFFFFFFFFFFFFFFFFFFFFFFFFFFFFFFFFFFFFFFFFFFFFFF
310
FFFFFFFFFFFFFFFFFFFFFFFFFFFFFFFFFFFFFFFFFFFFFFFFFFFFFFFFFFFFFFFF
310
FFFFFFFFFFFFFFFFFFFFFFFFFFFFFFFFFFFFFFFFFFFFFFFFFFFFFFFFFFFFFFFF
310
FFFFFFFFFFFFFFFFFFFFFFFFFFFFFFFFFFFFFFFFFFFFFFFFFFFFFFFFFFFFFFFF
310
FFFFFFFFFFFFFFFFFFFFFFFFFFFFFFFFFFFFFFFFFFFFFFFFFFFFFFFFFFFFFFFF
310
FFFFFFFFFFFFFFFFFFFFFFFFFFFFFFFFFFFFFFFFFFFFFFFFFFFFFFFFFFFFFFFF
310
FFFFFFFFFFFFFFFFFFFFFFFFFFFFFFFFFFFFFFFFFFFFFFFFFFFFFFFFFFFFFFFF
310
FFFFFFFFFFFFFFFFFFFFFFFFFFFFFFFFFFFFFFFFFFFFFFFFFFFFFFFFFFFFFFFF
310
FFFFFFFFFFFFFFFFFFFFFFFFFFFFFFFFFFFFFFFFFFFFFFFFFFFFFFFFFFFFFFFF
310
FFFFFFFFFFFFFFFFFFFFFFFFFFFFFFFFFFFFFFFFFFFFFFFFFFFFFFFFFFFFFFFF
310
FFFFFFFFFFFFFFFFFFFFFFFFFFFFFFFFFFFFFFFFFFFFFFFFFFFFFFFFFFFFFFFF
310
FFFFFFFFFFFFFFFFFFFFFFFFFFFFFFFFFFFFFFFFFFFFFFFFFFFFFFFFFFFFFFFF
310
FFFFFFFFFFFFFFFFFFFFFFFFFFFFFFFFFFFFFFFFFFFFFFFFFFFFFFFFFFFFFFFF
310
FFFFFFFFFFFFFFFFFFFFFFFFFFFFFFFFFFFFFFFFFFFFFFFFFFFFFFFFFFFFFFFF
310
0100000200000000000000000000000000000000000000000000000000000000
310
0000000000000000000000000000000000000000000000000000000000000000
310
0100FEFF030A0000FFFFFFFF0A00030000000000C00000000000004607000000
310
5042727573680007000000504272757368000700000050427275736800F439B2
310
7100000000000000000000000000000000000000000000000000000000000000
310
0000000000000000000000000000000000000000000000000000000000000000
310
0000000000000000000000000000000000000000000000000000000000000000
310
0000000000000000000000000000000000000000000000000000000000000000
310
0000000000000000000000000000000000000000000000000000000000000000
310
0000000000000000000000000000000000000000000000000000000000000000
310
0000000000000000000000000000000000000000000000000000000000000000
310
0000000000000000000000000000000000000000000000000000000000000000
310
0000000000000000000000000000000000000000000000000000000000000000
310
0000000000000000000000000000000000000000000000000000000000000000
310
0000000000000000000000000000000000000000000000000000000000000000
310
0000000000000000000000000000000000000000000000000000000000000000
310
20260000424D0E260000000000003E00000028000000B40200006E0000000100
310
01000000000000000000130B0000130B00000200000002000000000000FFFFFF
310
FFFFFFFFFFFFFFFFFFFFFFFFFFFFFFFFFFFFFFFFFFFFFFFFFFFFFFFFFFFFFFFF
310
FFFFFFFFFFFFFFFFFFFFFFFFFFFFFFFFFFFFFFFFFFFFFFFFFFFFFFFFFFFFFFFF
310
FFFFFFFFFFFFFFFFFFFFFFFFFFFFFFFFFFFFFFFFFFFFFFFFF000FFFFFFFFFFFF
310
FFFFFFFFFFFFFFFFFFFFFFFFFFFFFFFFFFFFFFFFFFFFFFFFFFFFFFFFFFFFFFFF
310
FFFFFFFFFFFFFFFFFFFFFFFFFFFFFFFFFFFFFFFFFFFFFFFFFFFFFFFFFFFFFFFF
310
FFFFFFFFFFFFFFFFFFFFFFFFFFFFFFFFF000FFFFFFFFFFFFFFFFFFFFFFFFFFFF
310
FFFFFFFFFFFFFFFFFFFFFFFFFFFFFFFFFFFFFFFFFFFFFFFFFFFFFFFFFFFFFFFF
310
FFFFFFFFFFFFFFFFFFFFFFFFFFFFFFFFFFFFFFFFFFFFFFFFFFFFFFFFFFFFFFFF
310
FFFFFFFFFFFFFFFFF000FFFFFFFFFFFFFFFFFFFFFFFFFFFFFFFFFFFFFFFFFFFF
310
FFFFFFFFFFFFFFFFFFFFFFFFFFFFFFFFFFFFFFFFFFFFFFFFFFFFFFFFFFFFFFFF
310
FFFFFFFFFFFFFFFFFFFFFFFFFFFFFFFFFFFFFFFFFFFFFFFFFFFFFFFFFFFFFFFF
310
F000FFFFFFFFFFFFFFFFFFFFFFFFFFFFFFFFFFFFFFFFFFFFFFFFFFFFFFFFFFFF
310
FFFFFFFFFFFFFFFFFFFFFFFFFFFFFFFFFFFFFFFFFFFFFFFFFFFFFFFFFFFFFFFF
310
FFFFFFFFFFFFFFFFFFFFFFFFFFFFFFFFFFFFFFFFFFFFFFFFF000FFFFFFFFFFFF
310
FFFFFFFFFFFFFFFFFFFFFFFFFFFFFFFFFFFFFFFFFFFFFFFFFFFFFFFFFFFFFFFF
310
FFFFFFFFFFFFFFFFFFFFFFFFFFFFFFFFFFFFFFFFFFFFFFFFFFFFFFFFFFFFFFFF
310
FFFFFFFFFFFFFFFFFFFFFFFFFFFFFFFFF000FFFFFFFFFFFFFFFFFFFFFFFFFFFF
310
FFFFFFFFFFFFFFFFFFFFFFFFFFFFFFFFFFFFFFFFFFFFFFFFFFFFFFFFFFFFFFFF
310
FFFFFFFFFFFFFFFFFFFFFFFFFFFFFFFFFFFFFFFFFFFFFFFFFFFFFFFFFFFFFFFF
310
FFFFFFFFFFFFFFFFF000FFFFFFFFFFFFFFFFFFFFFFFFFFFFFFFFFFFFFFFFFFFF
310
FFFFFFFFFFFFFFFFFFFFFFFFFFFFFFFFFFFFFFFFFFFFFFFFFFFFFFFFFFFFFFFF
310
FFFFFFFFFFFFFFFFFFFFFFFFFFFFFFFFFFFFFFFFFFFFFFFFFFFFFFFFFFFFFFFF
310
F000FFFFFFFFFFFFFFFFFFFFFFFFFFFFFFFFFFFFFFFFFFFFFFFFFFFFFFFFFFFF
310
FFFFFFFFFFFFFFFFFFFFFFFFFFFFFFFFFFFFFFFFFFFFFFFFFFFFFFFFFFFFFFFF
310
FFFFFFFFFFFFFFFFFFFFFFFFFFFFFFFFFFFFFFFFFFFFFFFFF000FFFFFFFFFFFF
310
FFFFFFFFFFFFFFFFFFFFFFFFFFFFFFFFFFFFFFFFFFFFFFFFFFFFFFFFFFFFFFFF
310
FFFFFFFFFFFFFFFFFFFFFFFFFFFFFFFFFFFFFFFFFFFFFFFFFFFFFFFFFFFFFFFF
310
FFFFFFFFFFFFFFFFFFFFFFFFFFFFFFFFF000FFFFFFFFFFFFFFFFFFFFFFFFFFFF
310
FFFFFFFFFFFFFFFFFFFFFFFFFFFFFFFFFFFFFFFFFFFFFFFFFFFFFFFFFFFFFFFF
310
FFFFFFFFFFFFFFFFFFFFFFFFFFFFFFFFFFFFFFFFFFFFFFFFFFFFFFFFFFFFFFFF
310
FFFFFFFFFFFFFFFFF000FFFFFFFFFFFFFFFFFFFFFFFFFFFFFFFFFFFFFFFFFFFF
310
FFFFFFFFFFFFFFFFFFFFFFFFFFFFFFFFFFFFFFFFFFFFFFFFFFFFFFFFFFFFFFFF
310
FFFFFFFFFFFFFFFFFFFFFFFFFFFFFFFFFFFFFFFFFFFFFFFFFFFFFFFFFFFFFFFF
310
F000FFFFFFFFFFFFFFFFFFFFFFFFFFFFFFFFFFFFFFFFFFFFFFFFFFFFFFFFFFFF
310
FFFFFFFFFFFFFFFFFFFFFFFFFFFFFFFFFFFFFFFFFFFFFFFFFFFFFFFFFFFFFFFF
310
FFFFFFFFFFFFFFFFFFFFFFFFFFFFFFFFFFFFFFFFFFFFFFFFF000FFFFFFFFFFFF
310
FFFFFFFFFFFFFFFFFFFFFFFFFFFFFFFFFFFFFFFFFFFFFFFFFFFFFFFFFFFFFFFF
310
FFFFFFFFFFFFFFFFFFFFFFFFFFFFFFFFFFFFFFFFFFFFFFFFFFFFFFFFFFFFFFFF
310
FFFFFFFFFFFFFFFFFFFFFFFFFFFFFFFFF000FFFFFFFFFFFFFFFFFFFFFFFFFFFF
310
FFFFFFFFFFFFFFFFFFFFFFFFFFFFFFFFFFFFFFFFFFFFFFFFFFFFFFFFFFFFFFFF
310
FFFFFFFFFFFFFFFFFFFFFFFFFFFFFFFFFFFFFFFFFFFFFFFFFFFFFFFFFFFFFFFF
310
FFFFFFFFFFFFFFFFF000FFFFFFFFFFFFFFFFFFFFFFFFFFFFFFFFFFFFFFFFFFFF
310
FFFFFFFFFFFFFFFFFFFFFFFFFFFFFFFFFFFFFFFFFFFFFFFFFFFFFFFFFFFFFFFF
310
FFFFFFFFFFFFFFFFFFFFFFFFFFFFFFFFFFFFFFFFFFFFFFFFFFFFFFFFFFFFFFFF
310
F000FFFFFFFFFFFFFFFFFFFFFFFFFFFFFFFFFFFFFFFFFFFFFFFFFFFFFFFFFFFF
310
FFFFFFFFFFFFFFFFFFFFFFFFFFFFFFFFFFFFFFFFFFFFFFFFFFFFFFFFFFFFFFFF
310
FFFFFFFFFFFFFFFFFFFFFFFFFFFFFFFFFFFFFFFFFFFFFFFFF000FFFFFFFFFFFF
310
FFFFFFFFFFFFFFFFFFFFFFFFFFFFFFFFFFFFFFFFFFFFFFFFFFFFFFFFFFFFFFFF
310
FFFFFFFFFFFFFFFFFFFFFFFFFFFFFFFFFFFFFFFFFFFFFFFFFFFFFFFFFFFFFFFF
310
FFFFFFFFFFFFFFFFFFFFFFFFFFFFFFFFF000FFFFFFFFFFFFFFFFFFFFFFFFFFFF
310
FFFFFFFFFFFFFFFFFFFFFFFFFFFFFFFFFFFFFFFFFFFFFFFFFFFFFFFFFFFFFFFF
310
FFFFFFFFFFFFFFFFFFFFFFFFFFFFFFFFFFFFFFFFFFFFFFFFFFFFFFFFFFFFFFFF
310
FFFFFFFFFFFFFFFFF000FFFFF80003FFFFFFFFFFFFFFFFFFFFFFFFFFFFFFFFFF
310
FFFFF00007FFFFFFFFFF00007FFFFFF800000000000000007FFFFFFFFFFFFFFF
310
FFFFFFFC001FFFFFFFFFFFFFFC001FFFFFFFFFFFFFFFFFFFFFFFFFFE0007FFFF
310
F000FFFF8000007FFFFFFFF8000FFFFFC0007FFFFF80007FFFFF0000007FFFFF
310
FFF8000007FFFFF800000000000000007FFFFFF0001FFFFFFFFFFFC00001FFFF
310
FFFFFFFFC00001FFFFFFFF000000000003FFFFE000007FFFF000FFFE0000000F
310
FFFFFFF0000FFFFF80007FFFFF80007FFFFC0000001FFFFFFFC0000001FFFFF8
310
00000000000000007FFFFFF0001FFFFFFFFFFE0000003FFFFFFFFFFE0000003F
310
FFFFFF000000000003FFFF0000000FFFF000FFF800000003FFFFFFF00007FFFF
310
80007FFFFF80007FFFF000000007FFFFFF000000003FFFF80000000000000000
310
7FFFFFF0001FFFFFFFFFF80000000FFFFFFFFFF80000000FFFFFFF0000000000
310
03FFFC00000003FFF000FFE000000000FFFFFFF00007FFFF80003FFFFF80007F
310
FFC000000001FFFFFC000000001FFFF800000000000000007FFFFFF0001FFFFF
310
FFFFE000000003FFFFFFFFE000000003FFFFFF000000000003FFF000000000FF
310
F000FF80000000007FFFFFF00007FFFF80003FFFFF80007FFF8000000000FFFF
310
F80000000007FFF800000000000000007FFFFFF0001FFFFFFFFFC000000001FF
310
FFFFFFC000000001FFFFFF000000000003FFC0000000007FF000FF0000000000
310
3FFFFFE00007FFFF00003FFFFF80007FFE00000000003FFFF00000000003FFF8
310
00000000000000007FFFFFF0001FFFFFFFFF8000000000FFFFFFFF8000000000
310
FFFFFF000000000003FF80000000003FF000FE00000000001FFFFFE00003FFFF
310
00003FFFFF80007FFC00000000001FFFE00000000001FFF8000001FFFE000000
310
7FFFFFF0001FFFFFFFFE00000000003FFFFFFE00000000003FFFFF0000000000
310
03FF00000000001FF000FC00000000000FFFFFE00003FFFF00001FFFFF80007F
310
F800000000001FFFC00000000000FFF8000001FFFE0000007FFFFFF0001FFFFF
310
FFFC00000000001FFFFFFC00000000001FFFFF000000000003FE00000000000F
310
F000F8000000000007FFFFE00003FFFF00001FFFFF80007FF800000000000FFF
310
800000000000FFF8000001FFFE0000007FFFFFF0001FFFFFFFF800000000000F
310
FFFFF800000000000FFFFF000000000003FC000000000007F000F80000000000
310
03FFFFC00003FFFE00001FFFFF80007FF0000000000007FF0000000000007FF8
310
000001FFFE0000007FFFFFF0001FFFFFFFF0000000000007FFFFF00000000000
310
07FFFF000000000003F8000000000003F000F0000000000003FFFFC00001FFFE
310
00001FFFFF80007FE0000000000007FE0000000000003FF8000001FFFE000000
310
7FFFFFF0001FFFFFFFF0000000000007FFFFF0000000000007FFFF0000000000
310
03F800001F800003F000E00001FFF00001FFFFC00001FFFE00000FFFFF80007F
310
E00001FFE00003FE00001FFF00003FF8000001FFFE0000007FFFFFF0001FFFFF
310
FFE000003E000003FFFFE000003E000003FFFF000000000003F00001FFF80001
310
F000E00007FFFC0001FFFFC00001FFFE00000FFFFF80007FC0000FFFFC0003FC
310
0000FFFFC0001FF8000001FFFE0000007FFFFFF0001FFFFFFFC00003FFE00001
310
FFFFC00003FFE00001FFFF0001FFFFFFFFF00007FFFE0001F000E0000FFFFF00
310
00FFFF800001FFFC00000FFFFF80007FC0001FFFFE0001FC0001FFFFE0001FF8
310
000001FFFE0000007FFFFFF0001FFFFFFF80000FFFF80000FFFF80000FFFF800
310
00FFFF0003FFFFFFFFE0000FFFFF8000F000C0003FFFFF8000FFFF800000FFFC
310
000007FFFF80007F80003FFFFF0001FC0003FFFFF0001FF8000001FFFE000000
310
7FFFFFF0001FFFFFFF80003FFFFE0000FFFF80003FFFFE0000FFFF0003FFFFFF
310
FFE0003FFFFF8000F000C0003FFFFF8000FFFF800000FFFC000007FFFF80007F
310
80007FFFFF8001F80007FFFFF8000FF8000001FFFE0000007FFFFFF0001FFFFF
310
FF00007FFFFF00007FFF00007FFFFF00007FFF0003FFFFFFFFE0003FFFFFC000
310
F000C0007FFFFFC000FFFF000000FFFC000007FFFF80007F8000FFFFFF8000F8
310
000FFFFFF8000FF8000001FFFE0000007FFFFFF0001FFFFFFF0000FFFFFF8000
310
7FFF0000FFFFFF80007FFF0003FFFFFFFFC0007FFFFFC00070008000FFFFFFC0
310
00FFFF000000FFF8000007FFFF80007F8000FFFFFF8000F8000FFFFFF8000FF8
310
000001FFFE0000007FFFFFF0001FFFFFFE0001FFFFFFC0003FFE0001FFFFFFC0
310
003FFF0003FFFFFFFFC0007FFFFFE00070008000FFFFFFC0007FFF0000007FF8
310
000003FFFF80007F0001FFFFFF8000F8000FFFFFF8000FF8000001FFFE000000
310
7FFFFFF0001FFFFFFE0001FFFFFFC0003FFE0001FFFFFFC0003FFF0003FFFFFF
310
FFC000FFFFFFE00070008000FFFFFFC0007FFF0000007FF8000003FFFF80007F
310
0001FFFFFF8000F8001FFFFFF8000FF8000001FFFE0000007FFFFFF0001FFFFF
310
FE0003FFFFFFE0003FFE0003FFFFFFE0003FFF0003FFFFFFFFC000FFFFFFE000
310
70008000FFFFFFC0007FFE0000007FF8000003FFFF80007F0001FFFFFF8000F0
310
001FFFFFF8000FF8000001FFFE0000007FFFFFF0001FFFFFFC0003FFFFFFE000
310
1FFC0003FFFFFFE0001FFF0003FFFFFFFFC000FFFFFFC00070008000FFFFFF80
310
007FFE0000007FF0000003FFFF80007F0001FFFFFF0000F0001FFFFFF8000FF8
310
000001FFFE0000007FFFFFF0001FFFFFFC0007FFFFFFF0001FFC0007FFFFFFF0
310
001FFF0003FFFFFFFFC000FFFFFFC00070008001FFFFFF0000FFFE0000003FF0
310
000001FFFF80007F0001FFFFFF0000F8001FFFFFF0000FF8000001FFFE000000
310
7FFFFFF0001FFFFFFC0007FFFFFFF0001FFC0007FFFFFFF0001FFF0003FFFFFF
310
FFC001FFFFFF80007000FFFFFFFFFE0000FFFE0008003FF0008001FFFF80007F
310
FFFFFFFFFC0000FFFFFFFFFFE0000FF8000001FFFE0000007FFFFFF0001FFFFF
310
F8000FFFFFFFF8000FF8000FFFFFFFF8000FFF0003FFFFFFFFFFFFFFFFFF0000
310
7000FFFFFFFFFC0000FFFC0008003FF0008001FFFF80007FFFFFFFFFF80001FF
310
FFFFFFFF80000FF8000001FFFE0000007FFFFFF0001FFFFFF8000FFFFFFFF800
310
0FF8000FFFFFFFF8000FFF0003FFFFFFFFFFFFFFFFFE0000F000FFFFFFFFE000
310
00FFFC000C003FE000C001FFFF80007FFFFFFFFFC00001FFFFFFFFFE00001FF8
310
000001FFFE0000007FFFFFF0001FFFFFF8000FFFFFFFF8000FF8000FFFFFFFF8
310
000FFF0003FFFFFFFFFFFFFFFFF00000F000FFFFFFFE000001FFFC000C001FE0
310
00C000FFFF80007FFFFFFFFE000001FFFFFFFFE000001FF80FFFFFFFFFFFFFC0
310
7FFFFFF0001FFFFFF8000FFFFFFFF8000FF8000FFFFFFFF8000FFF0003FFFFFF
310
FFFFFFFFFF800000F000FFFFFFC0000001FFFC001C001FE001C000FFFF80007F
310
FFFFFF80000003FFFFFFF80000001FF80FFFFFFFFFFFFFC07FFFFFF0001FFFFF
310
F8001FFFFFFFFC000FF8001FFFFFFFFC000FFF0003FFFFFFFFFFFFFFF0000001
310
F000FFFFF800000001FFF8001C001FE001C000FFFF80007FFFFFF800000003FF
310
FFFF800000003FF80FFFFFFFFFFFFFC07FFFFFF0001FFFFFF8001FFFFFFFFC00
310
0FF8001FFFFFFFFC000FFF0003FFFFFFFFFFFFFE00000001F000FFFFC0000000
310
03FFF8001E001FC001E000FFFF80007FFFFF8000000007FFFFFC000000003FF8
310
0FFFFFFFFFFFFFC07FFFFFF0001FFFFFF8001FFFFFFFFC000FF8001FFFFFFFFC
310
000FFF0003FFFFFFFFFFFFE000000003F000FFFE0000000007FFF8001E000FC0
310
01E0007FFF80007FFFFE0000000007FFFFE0000000007FF80FFFFFFFFFFFFFC0
310
7FFFFFF0001FFFFFF0001FFFFFFFFC0007F0001FFFFFFFFC0007FF0003FFFFFF
310
FFFFFF0000000003F000FFF80000000007FFF8001E000FC003E0007FFF80007F
310
FFF0000000000FFFFF8000000000FFF80FFFFFFFFFFFFFC07FFFFFF0001FFFFF
310
F0001FFFFFFFFC0007F0001FFFFFFFFC0007FF0003FFFFFFFFFFFC0000000007
310
F000FFE0000000000FFFF0003E000FC003E0007FFF80007FFFC0000000001FFF
310
FE0000000001FFF80FFFFFFFFFFFFFC07FFFFFF0001FFFFFF0001FFFFFFFFC00
310
07F0001FFFFFFFFC0007FF0003FFFFFFFFFFF0000000000FF000FFC000000000
310
1FFFF0003F000F8003F0003FFF80007FFF80000000003FFFF80000000003FFF8
310
0FFFFFFFFFFFFFC07FFFFFF0001FFFFFF0001FFFFFFFFC0007F0001FFFFFFFFC
310
0007FF0003FFFFFFFFFFE0000000001FF000FF00000000007FFFF0003F000780
310
03F0003FFF80007FFF00000000007FFFF00000000007FFF80FFFFFFFFFFFFFC0
310
7FFFFFF0001FFFFFF0001FFFFFFFFC0007F0001FFFFFFFFC0007FF0003FFFFFF
310
FFFF80000000007FF000FE0000000000FFFFE0003F00078007F0003FFF80007F
310
FE0000000001FFFFE0000000001FFFF80FFFFFFFFFFFFFC07FFFFFF0001FFFFF
310
F0001FFFFFFFFC0007F0001FFFFFFFFC0007FF0003FFFFFFFFFF0000000000FF
310
F000FC0000000003FFFFE0007F00078007F0003FFF80007FFC0000000007FFFF
310
C0000000007FFFF80FFFFFFFFFFFFFC07FFFFFF0001FFFFFF8001FFFFFFFFC00
310
0FF8001FFFFFFFFC000FFF0003FFFFFFFFFE0000000003FFF000FC000000000F
310
FFFFE0007F80070007F8001FFF80007FF8000000001FFFFF8000000001FFFFF8
310
0FFFFFFFFFFFFFC07FFFFFF0001FFFFFF8001FFFFFFFFC000FF8001FFFFFFFFC
310
000FFF0003FFFFFFFFFC000000000FFFF000F8000000007FFFFFE0007F800700
310
07F8001FFF80007FF000000000FFFFFF800000000FFFFFF80FFFFFFFFFFFFFC0
310
7FFFFFF0001FFFFFF8000FFFFFFFF8000FF8000FFFFFFFF8000FFF0003FFFFFF
310
FFFC000000007FFFF000F800000007FFFFFFC0007F8003000FF8001FFF80007F
310
F000000007FFFFFF000000007FFFFFF80FFFFFFFFFFFFFC07FFFFFF0001FFFFF
310
F8000FFFFFFFF8000FF8000FFFFFFFF8000FFF0003FFFFFFFFF80000000FFFFF
310
F000F0000000FFFFFFFFC000FF8003000FF8001FFF80007FE0000000FFFFFFFF
310
0000000FFFFFFFF8000001FFFE0000007FFFFFF0001FFFFFF8000FFFFFFFF800
310
0FF8000FFFFFFFF8000FFF0003FFFFFFFFF8000000FFFFFFF000F000000FFFFF
310
FFFFC000FFC002000FF8000FFF80007FE000001FFFFFFFFE000001FFFFFFFFF8
310
000001FFFE0000007FFFFFF0001FFFFFF8000FFFFFFFF8000FF8000FFFFFFFF8
310
000FFF0003FFFFFFFFF000001FFFFFFFF000E00000FFFFFFFFFFC000FFC00200
310
0FFC000FFF80007FE00001FFFFFFFFFE00001FFFFFFFFFF8000001FFFE000000
310
7FFFFFF0001FFFFFFC000FFFFFFFF8001FFC000FFFFFFFF8001FFF0003FFFFFF
310
FFF00001FFFFFFFFF000E00007FFFFFFFFFF8000FFC000001FFC000FFF80007F
310
C0000FFFFFFFFFFE0000FFFFFFFFFFF8000001FFFE0000007FFFFFF0001FFFFF
310
FC0007FFFFFFF0001FFC0007FFFFFFF0001FFF0003FFFFFFFFF00007FFFFFFFF
310
F000E0001FFFFFFFFFFF8000FFC000001FFC000FFF80007FC0003FFFFFFFFFFE
310
0001FFFFFFFFFFF8000001FFFE0000007FFFFFF0001FFFFFFC0007FFFFFFF000
310
1FFC0007FFFFFFF0001FFF0003FFFFFFFFF0001FFFFFFFFFF000E0003FFFFF00
310
03FF8001FFE000001FFC0007FF80007FC0007FFFFF0007FC0003FFFFF0003FF8
310
000001FFFE0000007FFFFFF0001FFFFFFC0003FFFFFFE0001FFC0003FFFFFFE0
310
001FFF0003FFFFFFFFF0003FFFFFFFFFF000E0003FFFFF0001FF8001FFE00000
310
1FFE0007FF80007FC0007FFFFE0003FC0007FFFFE0003FF8000001FFFE000000
310
7FFFFFF0001FFFFFFE0003FFFFFFE0003FFE0003FFFFFFE0003FFF0003FFFFFF
310
FFF0003FFFFF8001F000E0003FFFFF0001FF0001FFE000001FFE0007FF80007F
310
C0007FFFFE0003FC0007FFFFE0003FF8000001FFFE0000007FFFFFF0001FFFFF
310
FE0001FFFFFFC0003FFE0001FFFFFFC0003FFF0003FFFFFFFFF0003FFFFF0001
310
F000E0003FFFFF0003FF0001FFE000003FFE0007FF80007FC0007FFFFE0003FC
310
0007FFFFE0003FF8000001FFFE0000007FFFFFF0001FFFFFFF0001FFFFFFC000
310
7FFF0001FFFFFFC0007FFF0003FFFFFFFFF0003FFFFF0001F000E0003FFFFE00
310
03FF0003FFF000003FFE0003FF80007FC0007FFFFC0003FE0007FFFFE0003FF8
310
000001FFFE0000007FFFFFF0001FFFFFFF0000FFFFFF80007FFF0000FFFFFF80
310
007FFF0003FFFFFFFFF0003FFFFF0001F000E0003FFFFE0003FF0003FFF00000
310
3FFF0003FF80007FC0007FFFFC0007FE0007FFFFC0003FF8000001FFFE000000
310
7FFFFFF0001FFFFFFF80007FFFFF0000FFFF80007FFFFF0000FFFF0003FFFFFF
310
FFF0003FFFFF0003F000E0003FFFFC0003FE0003FFF000003FFF0003FF80007F
310
E0003FFFF80007FE0003FFFFC0007FF8000001FFFE0000007FFFFFF0001FFFFF
310
FF80003FFFFE0000FFFF80003FFFFE0000FFFF0003FFFFFFFFF0001FFFFE0003
310
F000F0001FFFF80003FE0003FFF000007FFF0001FF80007FE0003FFFF00007FE
310
0001FFFF80007FF8000001FFFE0000007FFFFFF0001FFFFFFFC0000FFFF80001
310
FFFFC0000FFFF80001FFFF0003FFFFFFFFF0001FFFFC0003F000F0000FFFF000
310
07FE0007FFF800007FFF0001FF80007FE0001FFFE00007FF0000FFFE00007FF8
310
000001FFFE0000007FFFFFF0001FFFFFFFC00003FFE00001FFFFC00003FFE000
310
01FFFF0003FFFFFFFFF8000FFFF80003F000F00003FFC00007FC0007FFF80000
310
7FFF8001FF80007FF00007FF80000FFF00007FF80000FFF8000001FFFE000000
310
7F80000000000001FFE000003E000003FFFFE000003E000003FFFF0003FFFFFF
310
FFF80003FFE00007F000F800000000000FFC0007FFF800007FFF8001FF80007F
310
F000000000000FFF000000000000FFF8000001FFFE0000007F80000000000001
310
FFF0000000000007FFFFF0000000000007FFFF0003FFFFFFFFFC00007E000007
310
F000F800000000000FFC0007FFF80000FFFF8000FF80007FF800000000001FFF
310
800000000001FFF8000001FFFE0000007F80000000000001FFF800000000000F
310
FFFFF800000000000FFFFF0003FFFFFFFFFC00000000000FF000FC0000000000
310
1FFC0007FFFC0000FFFF8000FF80007FF800000000003FFFC00000000001FFF8
310
000001FFFE0000007F80000000000001FFF800000000000FFFFFF80000000000
310
0FFFFF0003FFFFFFFFFE00000000001FF000FE00000000003FF8000FFFFC0000
310
FFFF8000FF80007FFC00000000003FFFC00000000003FFF8000001FFFE000000
310
7F80000000000001FFFC00000000001FFFFFFC00000000001FFFFF0003FFFFFF
310
FFFF00000000001FF000FF00000000003FF8000FFFFC0000FFFFC000FF80007F
310
FE00000000007FFFE00000000007FFF8000001FFFE0000007F80000000000001
310
FFFE00000000003FFFFFFE00000000003FFFFF0003FFFFFFFFFF80000000003F
310
F000FF80000000007FF8000FFFFC0001FFFFC0007F80007FFF0000000000FFFF
310
F0000000000FFFF800000000000000007F80000000000001FFFF8000000000FF
310
FFFFFF8000000000FFFFFF0003FFFFFFFFFFC0000000007FF000FFC000000000
310
FFF8000FFFFE0001FFFFC0007F80007FFF8000000001FFFFF8000000001FFFF8
310
00000000000000007F80000000000001FFFFC000000001FFFFFFFFC000000001
310
FFFFFF0003FFFFFFFFFFE000000000FFF000FFE000000003FFF0001FFFFE0001
310
FFFFC0007F80007FFFC000000007FFFFFE000000003FFFF80000000000000000
310
7F80000000000001FFFFE000000003FFFFFFFFE000000003FFFFFF0003FFFFFF
310
FFFFF000000003FFF000FFF80000000FFFF0001FFFFE0001FFFFE0007F80007F
310
FFF00000000FFFFFFF00000000FFFFF800000000000000007F80000000000001
310
FFFFF80000000FFFFFFFFFF80000000FFFFFFF0003FFFFFFFFFFFC0000000FFF
310
F000FFFE0000003FFFF0001FFFFE0003FFFFE0003F80007FFFFC0000003FFFFF
310
FFC0000003FFFFF800000000000000007F80000000000001FFFFFE0000003FFF
310
FFFFFFFE0000003FFFFFFF0003FFFFFFFFFFFF0000003FFFF000FFFF800000FF
310
FFF0001FFFFF0003FFFFE0003F80007FFFFF000001FFFFFFFFF800001FFFFFF8
310
00000000000000007F80000000000001FFFFFFC00001FFFFFFFFFFFFC00001FF
310
FFFFFF0003FFFFFFFFFFFFC00000FFFFF000FFFFF8000FFFFFFFFFFFFFFFFFFF
310
FFFFFFFFFFFFFFFFFFFFF0001FFFFFFFFFFF0000FFFFFFF80000000000000000
310
7FFFFFFFFFFFFFFFFFFFFFFC001FFFFFFFFFFFFFFC001FFFFFFFFFFFFFFFFFFF
310
FFFFFFFC001FFFFFF000FFFFFFFFFFFFFFFFFFFFFFFFFFFFFFFFFFFFFFFFFFFF
310
FFFFFFFFFFFFFFFFFFFFFFFFFFFFFFFFFFFFFFFFFFFFFFFFFFFFFFFFFFFFFFFF
310
FFFFFFFFFFFFFFFFFFFFFFFFFFFFFFFFFFFFFFFFFFFFFFFFFFFFFFFFFFFFFFFF
310
F000FFFFFFFFFFFFFFFFFFFFFFFFFFFFFFFFFFFFFFFFFFFFFFFFFFFFFFFFFFFF
310
FFFFFFFFFFFFFFFFFFFFFFFFFFFFFFFFFFFFFFFFFFFFFFFFFFFFFFFFFFFFFFFF
310
FFFFFFFFFFFFFFFFFFFFFFFFFFFFFFFFFFFFFFFFFFFFFFFFF000FFFFFFFFFFFF
310
FFFFFFFFFFFFFFFFFFFFFFFFFFFFFFFFFFFFFFFFFFFFFFFFFFFFFFFFFFFFFFFF
310
FFFFFFFFFFFFFFFFFFFFFFFFFFFFFFFFFFFFFFFFFFFFFFFFFFFFFFFFFFFFFFFF
310
FFFFFFFFFFFFFFFFFFFFFFFFFFFFFFFFF000FFFFFFFFFFFFFFFFFFFFFFFFFFFF
310
FFFFFFFFFFFFFFFFFFFFFFFFFFFFFFFFFFFFFFFFFFFFFFFFFFFFFFFFFFFFFFFF
310
FFFFFFFFFFFFFFFFFFFFFFFFFFFFFFFFFFFFFFFFFFFFFFFFFFFFFFFFFFFFFFFF
310
FFFFFFFFFFFFFFFFF000FFFFFFFFFFFFFFFFFFFFFFFFFFFFFFFFFFFFFFFFFFFF
310
FFFFFFFFFFFFFFFFFFFFFFFFFFFFFFFFFFFFFFFFFFFFFFFFFFFFFFFFFFFFFFFF
310
FFFFFFFFFFFFFFFFFFFFFFFFFFFFFFFFFFFFFFFFFFFFFFFFFFFFFFFFFFFFFFFF
310
F000FFFFFFFFFFFFFFFFFFFFFFFFFFFFFFFFFFFFFFFFFFFFFFFFFFFFFFFFFFFF
310
FFFFFFFFFFFFFFFFFFFFFFFFFFFFFFFFFFFFFFFFFFFFFFFFFFFFFFFFFFFFFFFF
310
FFFFFFFFFFFFFFFFFFFFFFFFFFFFFFFFFFFFFFFFFFFFFFFFF000FFFFFFFFFFFF
310
FFFFFFFFFFFFFFFFFFFFFFFFFFFFFFFFFFFFFFFFFFFFFFFFFFFFFFFFFFFFFFFF
310
FFFFFFFFFFFFFFFFFFFFFFFFFFFFFFFFFFFFFFFFFFFFFFFFFFFFFFFFFFFFFFFF
310
FFFFFFFFFFFFFFFFFFFFFFFFFFFFFFFFF000FFFFFFFFFFFFFFFFFFFFFFFFFFFF
310
FFFFFFFFFFFFFFFFFFFFFFFFFFFFFFFFFFFFFFFFFFFFFFFFFFFFFFFFFFFFFFFF
310
FFFFFFFFFFFFFFFFFFFFFFFFFFFFFFFFFFFFFFFFFFFFFFFFFFFFFFFFFFFFFFFF
310
FFFFFFFFFFFFFFFFF000FFFFFFFFFFFFFFFFFFFFFFFFFFFFFFFFFFFFFFFFFFFF
310
FFFFFFFFFFFFFFFFFFFFFFFFFFFFFFFFFFFFFFFFFFFFFFFFFFFFFFFFFFFFFFFF
310
FFFFFFFFFFFFFFFFFFFFFFFFFFFFFFFFFFFFFFFFFFFFFFFFFFFFFFFFFFFFFFFF
310
F000FFFFFFFFFFFFFFFFFFFFFFFFFFFFFFFFFFFFFFFFFFFFFFFFFFFFFFFFFFFF
310
FFFFFFFFFFFFFFFFFFFFFFFFFFFFFFFFFFFFFFFFFFFFFFFFFFFFFFFFFFFFFFFF
310
FFFFFFFFFFFFFFFFFFFFFFFFFFFFFFFFFFFFFFFFFFFFFFFFF000FFFFFFFFFFFF
310
FFFFFFFFFFFFFFFFFFFFFFFFFFFFFFFFFFFFFFFFFFFFFFFFFFFFFFFFFFFFFFFF
310
FFFFFFFFFFFFFFFFFFFFFFFFFFFFFFFFFFFFFFFFFFFFFFFFFFFFFFFFFFFFFFFF
310
FFFFFFFFFFFFFFFFFFFFFFFFFFFFFFFFF000FFFFFFFFFFFFFFFFFFFFFFFFFFFF
310
FFFFFFFFFFFFFFFFFFFFFFFFFFFFFFFFFFFFFFFFFFFFFFFFFFFFFFFFFFFFFFFF
310
FFFFFFFFFFFFFFFFFFFFFFFFFFFFFFFFFFFFFFFFFFFFFFFFFFFFFFFFFFFFFFFF
310
FFFFFFFFFFFFFFFFF000FFFFFFFFFFFFFFFFFFFFFFFFFFFFFFFFFFFFFFFFFFFF
310
FFFFFFFFFFFFFFFFFFFFFFFFFFFFFFFFFFFFFFFFFFFFFFFFFFFFFFFFFFFFFFFF
310
FFFFFFFFFFFFFFFFFFFFFFFFFFFFFFFFFFFFFFFFFFFFFFFFFFFFFFFFFFFFFFFF
310
F000FFFFFFFFFFFFFFFFFFFFFFFFFFFFFFFFFFFFFFFFFFFFFFFFFFFFFFFFFFFF
310
FFFFFFFFFFFFFFFFFFFFFFFFFFFFFFFFFFFFFFFFFFFFFFFFFFFFFFFFFFFFFFFF
310
FFFFFFFFFFFFFFFFFFFFFFFFFFFFFFFFFFFFFFFFFFFFFFFFF000FFFFFFFFFFFF
310
FFFFFFFFFFFFFFFFFFFFFFFFFFFFFFFFFFFFFFFFFFFFFFFFFFFFFFFFFFFFFFFF
310
FFFFFFFFFFFFFFFFFFFFFFFFFFFFFFFFFFFFFFFFFFFFFFFFFFFFFFFFFFFFFFFF
310
FFFFFFFFFFFFFFFFFFFFFFFFFFFFFFFFF000FFFFFFFFFFFFFFFFFFFFFFFFFFFF
310
FFFFFFFFFFFFFFFFFFFFFFFFFFFFFFFFFFFFFFFFFFFFFFFFFFFFFFFFFFFFFFFF
310
FFFFFFFFFFFFFFFFFFFFFFFFFFFFFFFFFFFFFFFFFFFFFFFFFFFFFFFFFFFFFFFF
310
FFFFFFFFFFFFFFFFF000FFFFFFFFFFFFFFFFFFFFFFFFFFFFFFFFFFFFFFFFFFFF
310
FFFFFFFFFFFFFFFFFFFFFFFFFFFFFFFFFFFFFFFFFFFFFFFFFFFFFFFFFFFFFFFF
310
FFFFFFFFFFFFFFFFFFFFFFFFFFFFFFFFFFFFFFFFFFFFFFFFFFFFFFFFFFFFFFFF
310
F000FFFFFFFFFFFFFFFFFFFFFFFFFFFFFFFFFFFFFFFFFFFFFFFFFFFFFFFFFFFF
310
FFFFFFFFFFFFFFFFFFFFFFFFFFFFFFFFFFFFFFFFFFFFFFFFFFFFFFFFFFFFFFFF
310
FFFFFFFFFFFFFFFFFFFFFFFFFFFFFFFFFFFFFFFFFFFFFFFFF000FFFFFFFFFFFF
310
FFFFFFFFFFFFFFFFFFFFFFFFFFFFFFFFFFFFFFFFFFFFFFFFFFFFFFFFFFFFFFFF
310
FFFFFFFFFFFFFFFFFFFFFFFFFFFFFFFFFFFFFFFFFFFFFFFFFFFFFFFFFFFFFFFF
310
FFFFFFFFFFFFFFFFFFFFFFFFFFFFFFFFF000FFFFFFFFFFFFFFFFFFFFFFFFFFFF
310
FFFFFFFFFFFFFFFFFFFFFFFFFFFFFFFFFFFFFFFFFFFFFFFFFFFFFFFFFFFFFFFF
310
FFFFFFFFFFFFFFFFFFFFFFFFFFFFFFFFFFFFFFFFFFFFFFFFFFFFFFFFFFFFFFFF
310
FFFFFFFFFFFFFFFFF000FFFFFFFFFFFFFFFFFFFFFFFFFFFFFFFFFFFFFFFFFFFF
310
FFFFFFFFFFFFFFFFFFFFFFFFFFFFFFFFFFFFFFFFFFFFFFFFFFFFFFFFFFFFFFFF
310
FFFFFFFFFFFFFFFFFFFFFFFFFFFFFFFFFFFFFFFFFFFFFFFFFFFFFFFFFFFFFFFF
310
F000FFFFFFFFFFFFFFFFFFFFFFFFFFFFFFFFFFFFFFFFFFFFFFFFFFFFFFFFFFFF
310
FFFFFFFFFFFFFFFFFFFFFFFFFFFFFFFFFFFFFFFFFFFFFFFFFFFFFFFFFFFFFFFF
310
FFFFFFFFFFFFFFFFFFFFFFFFFFFFFFFFFFFFFFFFFFFFFFFFF000FFFFFFFFFFFF
310
FFFFFFFFFFFFFFFFFFFFFFFFFFFFFFFFFFFFFFFFFFFFFFFFFFFFFFFFFFFFFFFF
310
FFFFFFFFFFFFFFFFFFFFFFFFFFFFFFFFFFFFFFFFFFFFFFFFFFFFFFFFFFFFFFFF
310
FFFFFFFFFFFFFFFFFFFFFFFFFFFFFFFFF0000000000000000000000000000000
310
0000000000000000000000000000000000000000000000000000000000000000
310
0000000000000000000000000000000000000000000000000000000000000000
310
0000000000000000000000000000000000000000000000000000000000000000
310
0000000000000000000000000000000000000000000000000000000000000000
310
0000000000000000000000000000000000000000000000000000000000000000
310
0000000000000000000000000000000000000000000000000000000000000000
310
0000000000000000000000000000000000000000000000000000000000000000
310
0000000000000000000000000000000000000000000000000000000000000000
310
0000000000000000000000000000000000000000000000000000000000000000
310
0000000000000000000000000000000000000000000000000000000000000000
310
0000000000000000000000000000000000000000000000000000000000000000
310
0000000000000000000000000000000000000000000000000000000000000000
310
0000000000000000000000000000000000000000000000000000000000000000
310
0000000000000000000000000000000000000000000000000000000000000000
310
0000000000000000000000000000000000000000000000000000000000000000
  1
OLE
  0
ENDSEC
  0
SECTION
  2
OBJECTS
  0
DICTIONARY
  5
C
330
0
100
AcDbDictionary
281
     1
  3
ACAD_GROUP
350
D
  3
ACAD_LAYOUT
350
1A
  3
ACAD_MLINESTYLE
350
17
  3
ACAD_PLOTSETTINGS
350
19
  3
ACAD_PLOTSTYLENAME
350
E
  0
DICTIONARY
  5
D
102
{ACAD_REACTORS
330
C
102
}
330
C
100
AcDbDictionary
281
     1
  0
DICTIONARY
  5
1A
102
{ACAD_REACTORS
330
C
102
}
330
C
100
AcDbDictionary
281
     1
  3
Layout1
350
1E
  3
Layout2
350
26
  3
Model
350
22
  0
DICTIONARY
  5
17
102
{ACAD_REACTORS
330
C
102
}
330
C
100
AcDbDictionary
281
     1
  3
Standard
350
18
  0
DICTIONARY
  5
19
102
{ACAD_REACTORS
330
C
102
}
330
C
100
AcDbDictionary
281
     1
  0
ACDBDICTIONARYWDFLT
  5
E
102
{ACAD_REACTORS
330
C
102
}
330
C
100
AcDbDictionary
281
     1
  3
Normal
350
F
100
AcDbDictionaryWithDefault
340
F
  0
LAYOUT
  5
1E
102
{ACAD_REACTORS
330
1A
102
}
330
1A
100
AcDbPlotSettings
  1

  2
none_device
  4

  6

 40
0.0
 41
0.0
 42
0.0
 43
0.0
 44
0.0
 45
0.0
 46
0.0
 47
0.0
 48
0.0
 49
0.0
140
0.0
141
0.0
142
1.0
143
1.0
 70
   688
 72
     0
 73
     0
 74
     5
  7

 75
    16
147
1.0
148
0.0
149
0.0
100
AcDbLayout
  1
Layout1
 70
     1
 71
     1
 10
0.0
 20
0.0
 11
420.0
 21
297.0
 12
0.0
 22
0.0
 32
0.0
 14
1.0000000000E+20
 24
1.0000000000E+20
 34
1.0000000000E+20
 15
-1.0000000000E+20
 25
-1.0000000000E+20
 35
-1.0000000000E+20
146
0.0
 13
0.0
 23
0.0
 33
0.0
 16
1.0
 26
0.0
 36
0.0
 17
0.0
 27
1.0
 37
0.0
 76
     0
330
1B
  0
LAYOUT
  5
26
102
{ACAD_REACTORS
330
1A
102
}
330
1A
100
AcDbPlotSettings
  1

  2
none_device
  4

  6

 40
0.0
 41
0.0
 42
0.0
 43
0.0
 44
0.0
 45
0.0
 46
0.0
 47
0.0
 48
0.0
 49
0.0
140
0.0
141
0.0
142
1.0
143
1.0
 70
   688
 72
     0
 73
     0
 74
     5
  7

 75
    16
147
1.0
148
0.0
149
0.0
100
AcDbLayout
  1
Layout2
 70
     1
 71
     2
 10
0.0
 20
0.0
 11
0.0
 21
0.0
 12
0.0
 22
0.0
 32
0.0
 14
0.0
 24
0.0
 34
0.0
 15
0.0
 25
0.0
 35
0.0
146
0.0
 13
0.0
 23
0.0
 33
0.0
 16
1.0
 26
0.0
 36
0.0
 17
0.0
 27
1.0
 37
0.0
 76
     0
330
23
  0
LAYOUT
  5
22
102
{ACAD_REACTORS
330
1A
102
}
330
1A
100
AcDbPlotSettings
  1

  2
none_device
  4

  6

 40
0.0
 41
0.0
 42
0.0
 43
0.0
 44
0.0
 45
0.0
 46
0.0
 47
0.0
 48
0.0
 49
0.0
140
0.0
141
0.0
142
1.0
143
1.0
 70
  1712
 72
     0
 73
     0
 74
     0
  7

 75
     0
147
1.0
148
0.0
149
0.0
100
AcDbLayout
  1
Model
 70
     1
 71
     0
 10
0.0
 20
0.0
 11
297.0
 21
210.0
 12
0.0
 22
0.0
 32
0.0
 14
0.0
 24
0.0
 34
0.0
 15
297.0
 25
210.0
 35
0.0
146
0.0
 13
0.0
 23
0.0
 33
0.0
 16
1.0
 26
0.0
 36
0.0
 17
0.0
 27
1.0
 37
0.0
 76
     0
330
1F
331
29
  0
MLINESTYLE
  5
18
102
{ACAD_REACTORS
330
17
102
}
330
17
100
AcDbMlineStyle
  2
Standard
 70
     0
  3

 62
   256
 51
90.0
 52
90.0
 71
     2
 49
0.5
 62
   256
  6
BYLAYER
 49
-0.5
 62
   256
  6
BYLAYER
  0
ACDBPLACEHOLDER
  5
F
102
{ACAD_REACTORS
330
E
102
}
330
E
  0
ENDSEC
  0
EOF
