  0
SECTION
  2
HEADER
  9
$ACADVER
  1
AC1015
  9
$ACADMAINTVER
 70
     6
  9
$DWGCODEPAGE
  3
ANSI_1252
  9
$INSBASE
 10
0.0
 20
0.0
 30
0.0
  9
$EXTMIN
 10
0.0
 20
0.0
 30
0.0
  9
$EXTMAX
 10
297.0
 20
210.0
 30
0.0
  9
$LIMMIN
 10
0.0
 20
0.0
  9
$LIMMAX
 10
297.0
 20
210.0
  9
$ORTHOMODE
 70
     0
  9
$REGENMODE
 70
     1
  9
$FILLMODE
 70
     1
  9
$QTEXTMODE
 70
     0
  9
$MIRRTEXT
 70
     1
  9
$LTSCALE
 40
1.0
  9
$ATTMODE
 70
     1
  9
$TEXTSIZE
 40
2.0
  9
$TRACEWID
 40
1.0
  9
$TEXTSTYLE
  7
Standard
  9
$CLAYER
  8
0
  9
$CELTYPE
  6
ByLayer
  9
$CECOLOR
 62
   256
  9
$CELTSCALE
 40
1.0
  9
$DISPSILH
 70
     0
  9
$DIMSCALE
 40
1.0
  9
$DIMASZ
 40
3.0
  9
$DIMEXO
 40
0.0
  9
$DIMDLI
 40
3.75
  9
$DIMRND
 40
0.0
  9
$DIMDLE
 40
0.0
  9
$DIMEXE
 40
1.0
  9
$DIMTP
 40
0.0
  9
$DIMTM
 40
0.0
  9
$DIMTXT
 40
2.0
  9
$DIMCEN
 40
2.5
  9
$DIMTSZ
 40
0.0
  9
$DIMTOL
 70
     0
  9
$DIMLIM
 70
     0
  9
$DIMTIH
 70
     1
  9
$DIMTOH
 70
     1
  9
$DIMSE1
 70
     0
  9
$DIMSE2
 70
     0
  9
$DIMTAD
 70
     1
  9
$DIMZIN
 70
     0
  9
$DIMBLK
  1

  9
$DIMASO
 70
     1
  9
$DIMSHO
 70
     1
  9
$DIMPOST
  1

  9
$DIMAPOST
  1

  9
$DIMALT
 70
     0
  9
$DIMALTD
 70
     3
  9
$DIMALTF
 40
0.0393700787
  9
$DIMLFAC
 40
1.0
  9
$DIMTOFL
 70
     1
  9
$DIMTVP
 40
0.0
  9
$DIMTIX
 70
     0
  9
$DIMSOXD
 70
     0
  9
$DIMSAH
 70
     0
  9
$DIMBLK1
  1

  9
$DIMBLK2
  1

  9
$DIMSTYLE
  2
ISO-25
  9
$DIMCLRD
 70
     0
  9
$DIMCLRE
 70
     0
  9
$DIMCLRT
 70
     0
  9
$DIMTFAC
 40
1.0
  9
$DIMGAP
 40
1.524
  9
$DIMJUST
 70
     0
  9
$DIMSD1
 70
     0
  9
$DIMSD2
 70
     0
  9
$DIMTOLJ
 70
     0
  9
$DIMTZIN
 70
     0
  9
$DIMALTZ
 70
     0
  9
$DIMALTTZ
 70
     0
  9
$DIMUPT
 70
     0
  9
$DIMDEC
 70
     2
  9
$DIMTDEC
 70
     3
  9
$DIMALTU
 70
     2
  9
$DIMALTTD
 70
     3
  9
$DIMTXSTY
  7
Standard
  9
$DIMAUNIT
 70
     0
  9
$DIMADEC
 70
     2
  9
$DIMALTRND
 40
0.0
  9
$DIMAZIN
 70
     0
  9
$DIMDSEP
 70
    44
  9
$DIMATFIT
 70
     3
  9
$DIMFRAC
 70
     0
  9
$DIMLDRBLK
  1

  9
$DIMLUNIT
 70
     2
  9
$DIMLWD
 70
    -2
  9
$DIMLWE
 70
    -2
  9
$DIMTMOVE
 70
     0
  9
$LUNITS
 70
     2
  9
$LUPREC
 70
     2
  9
$SKETCHINC
 40
1.0
  9
$FILLETRAD
 40
10.0
  9
$AUNITS
 70
     0
  9
$AUPREC
 70
     2
  9
$MENU
  1
.
  9
$ELEVATION
 40
0.0
  9
$PELEVATION
 40
0.0
  9
$THICKNESS
 40
0.0
  9
$LIMCHECK
 70
     0
  9
$CHAMFERA
 40
10.0
  9
$CHAMFERB
 40
10.0
  9
$CHAMFERC
 40
20.0
  9
$CHAMFERD
 40
0.0
  9
$SKPOLY
 70
     0
  9
$TDCREATE
 40
2456353.579966296
  9
$TDUCREATE
 40
2456353.538299629
  9
$TDUPDATE
 40
2456353.579967916
  9
$TDUUPDATE
 40
2456353.53830125
  9
$TDINDWG
 40
0.0000000116
  9
$TDUSRTIMER
 40
0.0000000116
  9
$USRTIMER
 70
     1
  9
$ANGBASE
 50
0.0
  9
$ANGDIR
 70
     0
  9
$PDMODE
 70
     0
  9
$PDSIZE
 40
-1.0
  9
$PLINEWID
 40
0.0
  9
$SPLFRAME
 70
     0
  9
$SPLINETYPE
 70
     6
  9
$SPLINESEGS
 70
     8
  9
$HANDSEED
  5
2B6
  9
$SURFTAB1
 70
     6
  9
$SURFTAB2
 70
     6
  9
$SURFTYPE
 70
     6
  9
$SURFU
 70
     6
  9
$SURFV
 70
     6
  9
$UCSBASE
  2

  9
$UCSNAME
  2

  9
$UCSORG
 10
0.0
 20
0.0
 30
0.0
  9
$UCSXDIR
 10
1.0
 20
0.0
 30
0.0
  9
$UCSYDIR
 10
0.0
 20
1.0
 30
0.0
  9
$UCSORTHOREF
  2

  9
$UCSORTHOVIEW
 70
     0
  9
$UCSORGTOP
 10
0.0
 20
0.0
 30
0.0
  9
$UCSORGBOTTOM
 10
0.0
 20
0.0
 30
0.0
  9
$UCSORGLEFT
 10
0.0
 20
0.0
 30
0.0
  9
$UCSORGRIGHT
 10
0.0
 20
0.0
 30
0.0
  9
$UCSORGFRONT
 10
0.0
 20
0.0
 30
0.0
  9
$UCSORGBACK
 10
0.0
 20
0.0
 30
0.0
  9
$PUCSBASE
  2

  9
$PUCSNAME
  2

  9
$PUCSORG
 10
0.0
 20
0.0
 30
0.0
  9
$PUCSXDIR
 10
1.0
 20
0.0
 30
0.0
  9
$PUCSYDIR
 10
0.0
 20
1.0
 30
0.0
  9
$PUCSORTHOREF
  2

  9
$PUCSORTHOVIEW
 70
     0
  9
$PUCSORGTOP
 10
0.0
 20
0.0
 30
0.0
  9
$PUCSORGBOTTOM
 10
0.0
 20
0.0
 30
0.0
  9
$PUCSORGLEFT
 10
0.0
 20
0.0
 30
0.0
  9
$PUCSORGRIGHT
 10
0.0
 20
0.0
 30
0.0
  9
$PUCSORGFRONT
 10
0.0
 20
0.0
 30
0.0
  9
$PUCSORGBACK
 10
0.0
 20
0.0
 30
0.0
  9
$USERI1
 70
     0
  9
$USERI2
 70
     0
  9
$USERI3
 70
     0
  9
$USERI4
 70
     0
  9
$USERI5
 70
     0
  9
$USERR1
 40
0.0
  9
$USERR2
 40
0.0
  9
$USERR3
 40
0.0
  9
$USERR4
 40
0.0
  9
$USERR5
 40
0.0
  9
$WORLDVIEW
 70
     1
  9
$SHADEDGE
 70
     3
  9
$SHADEDIF
 70
    70
  9
$TILEMODE
 70
     1
  9
$MAXACTVP
 70
    64
  9
$PINSBASE
 10
0.0
 20
0.0
 30
0.0
  9
$PLIMCHECK
 70
     0
  9
$PEXTMIN
 10
1.0000000000E+20
 20
1.0000000000E+20
 30
1.0000000000E+20
  9
$PEXTMAX
 10
-1.0000000000E+20
 20
-1.0000000000E+20
 30
-1.0000000000E+20
  9
$PLIMMIN
 10
0.0
 20
0.0
  9
$PLIMMAX
 10
420.0
 20
297.0
  9
$UNITMODE
 70
     0
  9
$VISRETAIN
 70
     1
  9
$PLINEGEN
 70
     0
  9
$PSLTSCALE
 70
     1
  9
$TREEDEPTH
 70
  3020
  9
$CMLSTYLE
  2
Standard
  9
$CMLJUST
 70
     0
  9
$CMLSCALE
 40
20.0
  9
$PROXYGRAPHICS
 70
     1
  9
$MEASUREMENT
 70
     1
  9
$CELWEIGHT
370
    -1
  9
$ENDCAPS
280
     0
  9
$JOINSTYLE
280
     0
  9
$LWDISPLAY
290
     1
  9
$INSUNITS
 70
     4
  9
$HYPERLINKBASE
  1

  9
$STYLESHEET
  1

  9
$XEDIT
290
     1
  9
$CEPSNTYPE
380
     0
  9
$PSTYLEMODE
290
     1
  9
$FINGERPRINTGUID
  2
{F810F3BB-CB8B-431A-901D-6514D75D98A6}
  9
$VERSIONGUID
  2
{FAEB1C32-E019-11D5-929B-00C0DF256EC4}
  9
$EXTNAMES
290
     1
  9
$PSVPSCALE
 40
0.0
  9
$OLESTARTUP
290
     0
  0
ENDSEC
  0
SECTION
  2
CLASSES
  0
CLASS
  1
ACDBDICTIONARYWDFLT
  2
AcDbDictionaryWithDefault
  3
ObjectDBX Classes
 90
        0
280
     0
281
     0
  0
CLASS
  1
VISUALSTYLE
  2
AcDbVisualStyle
  3
ObjectDBX Classes
 90
     4095
280
     0
281
     0
  0
CLASS
  1
MATERIAL
  2
AcDbMaterial
  3
ObjectDBX Classes
 90
     1153
280
     0
281
     0
  0
CLASS
  1
ACDBPLACEHOLDER
  2
AcDbPlaceHolder
  3
ObjectDBX Classes
 90
        0
280
     0
281
     0
  0
CLASS
  1
LAYOUT
  2
AcDbLayout
  3
ObjectDBX Classes
 90
        0
280
     0
281
     0
  0
ENDSEC
  0
SECTION
  2
TABLES
  0
TABLE
  2
VPORT
  5
8
330
0
100
AcDbSymbolTable
 70
     1
  0
VPORT
  5
29
330
8
100
AcDbSymbolTableRecord
100
AcDbViewportTableRecord
  2
*Active
 70
     0
 10
0.0
 20
0.0
 11
1.0
 21
1.0
 12
148.5
 22
105.0
 13
0.0
 23
0.0
 14
10.0
 24
10.0
 15
10.0
 25
10.0
 16
0.0
 26
0.0
 36
1.0
 17
0.0
 27
0.0
 37
0.0
 40
210.0
 41
1.4142857143
 42
50.0
 43
0.0
 44
0.0
 50
0.0
 51
0.0
 71
     0
 72
  2000
 73
     1
 74
     3
 75
     0
 76
     0
 77
     0
 78
     0
281
     0
 65
     1
110
0.0
120
0.0
130
0.0
111
1.0
121
0.0
131
0.0
112
0.0
122
1.0
132
0.0
 79
     0
146
0.0
  0
ENDTAB
  0
TABLE
  2
LTYPE
  5
5
330
0
100
AcDbSymbolTable
 70
     6
  0
LTYPE
  5
14
330
5
100
AcDbSymbolTableRecord
100
AcDbLinetypeTableRecord
  2
ByBlock
 70
     0
  3

 72
    65
 73
     0
 40
0.0
  0
LTYPE
  5
15
330
5
100
AcDbSymbolTableRecord
100
AcDbLinetypeTableRecord
  2
ByLayer
 70
     0
  3

 72
    65
 73
     0
 40
0.0
  0
LTYPE
  5
16
330
5
100
AcDbSymbolTableRecord
100
AcDbLinetypeTableRecord
  2
Continuous
 70
     0
  3
Solid line
 72
    65
 73
     0
 40
0.0
  0
LTYPE
  5
3F
330
5
100
AcDbSymbolTableRecord
100
AcDbLinetypeTableRecord
  2
HIDDEN
 70
     0
  3
Hidden __ __ __ __ __ __ __ __ __ __ __ __ __ __
 72
    65
 73
     2
 40
1.905
 49
1.27
 74
     0
 49
-0.635
 74
     0
  0
LTYPE
  5
40
330
5
100
AcDbSymbolTableRecord
100
AcDbLinetypeTableRecord
  2
PHANTOM
 70
     0
  3
Phantom ______  __  __  ______  __  __  ______
 72
    65
 73
     6
 40
12.7
 49
6.35
 74
     0
 49
-1.27
 74
     0
 49
1.27
 74
     0
 49
-1.27
 74
     0
 49
1.27
 74
     0
 49
-1.27
 74
     0
  0
LTYPE
  5
41
330
5
100
AcDbSymbolTableRecord
100
AcDbLinetypeTableRecord
  2
CENTER
 70
     0
  3
Center ____ _ ____ _ ____ _ ____ _ ____ _ ____
 72
    65
 73
     4
 40
10.16
 49
6.35
 74
     0
 49
-1.27
 74
     0
 49
1.27
 74
     0
 49
-1.27
 74
     0
  0
LTYPE
  5
42
330
5
100
AcDbSymbolTableRecord
100
AcDbLinetypeTableRecord
  2
CENTERX2
 70
     0
  3
Center (2x) ________  __  ________  __  _____
 72
    65
 73
     4
 40
20.32
 49
12.7
 74
     0
 49
-2.54
 74
     0
 49
2.54
 74
     0
 49
-2.54
 74
     0
  0
LTYPE
  5
43
330
5
100
AcDbSymbolTableRecord
100
AcDbLinetypeTableRecord
  2
DOT2
 70
     0
  3
Dot (.5x) ........................................
 72
    65
 73
     2
 40
0.635
 49
0.0
 74
     0
 49
-0.635
 74
     0
  0
ENDTAB
  0
TABLE
  2
LAYER
  5
2
330
0
100
AcDbSymbolTable
 70
     5
  0
LAYER
  5
10
330
2
100
AcDbSymbolTableRecord
100
AcDbLayerTableRecord
  2
0
 70
     0
 62
     7
  6
Continuous
370
    -3
390
F
  0
LAYER
  5
44
330
2
100
AcDbSymbolTableRecord
100
AcDbLayerTableRecord
  2
FORMAT
 70
     0
 62
     7
  6
Continuous
370
    -3
390
F
  0
LAYER
  5
45
330
2
100
AcDbSymbolTableRecord
100
AcDbLayerTableRecord
  2
VERMASSUNG
 70
     0
 62
     7
  6
Continuous
370
    -3
390
F
  0
LAYER
  5
46
330
2
100
AcDbSymbolTableRecord
100
AcDbLayerTableRecord
  2
KOPF_DÜNN
 70
     0
 62
     7
  6
Continuous
370
    -3
390
F
  0
LAYER
  5
47
330
2
100
AcDbSymbolTableRecord
100
AcDbLayerTableRecord
  2
KOPF_DICK
 70
     0
 62
     7
  6
Continuous
370
    15
390
F
  0
ENDTAB
  0
TABLE
  2
STYLE
  5
3
330
0
100
AcDbSymbolTable
 70
     2
  0
STYLE
  5
11
330
3
100
AcDbSymbolTableRecord
100
AcDbTextStyleTableRecord
  2
Standard
 70
     0
 40
0.0
 41
1.0
 50
0.0
 71
     0
 42
2.0
  3
txt
  4

  0
STYLE
  5
48
330
3
100
AcDbSymbolTableRecord
100
AcDbTextStyleTableRecord
  2
SLDTEXTSTYLE0
 70
     0
 40
0.0
 41
0.7
 50
0.0
 71
     0
 42
0.2
  3
TXT
  4

  0
ENDTAB
  0
TABLE
  2
VIEW
  5
6
330
0
100
AcDbSymbolTable
 70
     0
  0
ENDTAB
  0
TABLE
  2
UCS
  5
7
330
0
100
AcDbSymbolTable
 70
     0
  0
ENDTAB
  0
TABLE
  2
APPID
  5
9
330
0
100
AcDbSymbolTable
 70
     1
  0
APPID
  5
12
330
9
100
AcDbSymbolTableRecord
100
AcDbRegAppTableRecord
  2
ACAD
 70
     0
  0
ENDTAB
  0
TABLE
  2
DIMSTYLE
  5
A
330
0
100
AcDbSymbolTable
 70
     4
100
AcDbDimStyleTable
  0
DIMSTYLE
105
27
330
A
100
AcDbSymbolTableRecord
100
AcDbDimStyleTableRecord
  2
ISO-25
 70
     0
 41
2.5
 42
0.625
 43
3.75
 44
1.25
 73
     0
 74
     0
 77
     1
 78
     8
140
2.5
141
2.5
143
0.0393700787
147
0.625
171
     3
172
     1
178
     0
271
     2
272
     2
274
     3
278
    44
283
     0
284
     8
340
11
  0
DIMSTYLE
105
1D7
102
{ACAD_REACTORS
330
1D6
330
1EB
330
1F5
330
1FF
102
}
330
A
100
AcDbSymbolTableRecord
100
AcDbDimStyleTableRecord
  2
SLDDIMSTYLE0
 70
     0
 41
3.0
 44
0.0
 45
0.000000001
 73
     0
 74
     0
 77
     1
 78
    12
 79
     3
140
2.0
147
0.5
173
     1
178
     0
271
     2
272
     3
276
     2
284
    12
340
48
  0
DIMSTYLE
105
1E2
102
{ACAD_REACTORS
330
1E1
102
}
330
A
100
AcDbSymbolTableRecord
100
AcDbDimStyleTableRecord
  2
SLDDIMSTYLE1
 70
     0
 41
3.0
 44
0.0
 73
     0
 74
     0
 77
     1
 78
    12
 79
     3
140
2.0
147
0.5
173
     1
178
     0
179
     1
272
     3
276
     2
284
    12
340
48
  0
DIMSTYLE
105
2A0
102
{ACAD_REACTORS
330
29F
102
}
330
A
100
AcDbSymbolTableRecord
100
AcDbDimStyleTableRecord
  2
SLDDIMSTYLE2
 70
     0
 41
3.0
 44
0.0
 45
0.000000001
 73
     0
 74
     0
 77
     1
 78
    12
 79
     3
140
2.0
141
0.0
147
0.5
173
     1
178
     0
271
     2
272
     3
276
     2
284
    12
340
48
  0
ENDTAB
  0
TABLE
  2
BLOCK_RECORD
  5
1
330
0
100
AcDbSymbolTable
 70
     8
  0
BLOCK_RECORD
  5
1F
330
1
100
AcDbSymbolTableRecord
100
AcDbBlockTableRecord
  2
*Model_Space
340
22
  0
BLOCK_RECORD
  5
1B
330
1
100
AcDbSymbolTableRecord
100
AcDbBlockTableRecord
  2
*Paper_Space
340
1E
  0
BLOCK_RECORD
  5
23
330
1
100
AcDbSymbolTableRecord
100
AcDbBlockTableRecord
  2
*Paper_Space0
340
26
  0
BLOCK_RECORD
  5
1D8
330
1
100
AcDbSymbolTableRecord
100
AcDbBlockTableRecord
  2
_D
340
0
  0
BLOCK_RECORD
  5
1E3
330
1
100
AcDbSymbolTableRecord
100
AcDbBlockTableRecord
  2
_D_1
340
0
  0
BLOCK_RECORD
  5
1EC
330
1
100
AcDbSymbolTableRecord
100
AcDbBlockTableRecord
  2
_D_2
340
0
  0
BLOCK_RECORD
  5
1F6
330
1
100
AcDbSymbolTableRecord
100
AcDbBlockTableRecord
  2
_D_3
340
0
  0
BLOCK_RECORD
  5
200
330
1
100
AcDbSymbolTableRecord
100
AcDbBlockTableRecord
  2
_D_4
340
0
  0
BLOCK_RECORD
  5
2A1
330
1
100
AcDbSymbolTableRecord
100
AcDbBlockTableRecord
  2
_D_5
340
0
  0
BLOCK_RECORD
  5
2A9
330
1
100
AcDbSymbolTableRecord
100
AcDbBlockTableRecord
  2
SW_CENTERMARKSYMBOL_0
340
0
102
{BLKREFS
331
2B4
102
}
  0
ENDTAB
  0
ENDSEC
  0
SECTION
  2
BLOCKS
  0
BLOCK
  5
20
330
1F
100
AcDbEntity
  8
0
100
AcDbBlockBegin
  2
*Model_Space
 70
     0
 10
0.0
 20
0.0
 30
0.0
  3
*Model_Space
  1

  0
ENDBLK
  5
21
330
1F
100
AcDbEntity
  8
0
100
AcDbBlockEnd
  0
BLOCK
  5
1C
330
1B
100
AcDbEntity
 67
     1
  8
0
100
AcDbBlockBegin
  2
*Paper_Space
 70
     0
 10
0.0
 20
0.0
 30
0.0
  3
*Paper_Space
  1

  0
ENDBLK
  5
1D
330
1B
100
AcDbEntity
 67
     1
  8
0
100
AcDbBlockEnd
  0
BLOCK
  5
24
330
23
100
AcDbEntity
  8
0
100
AcDbBlockBegin
  2
*Paper_Space0
 70
     0
 10
0.0
 20
0.0
 30
0.0
  3
*Paper_Space0
  1

  0
ENDBLK
  5
25
330
23
100
AcDbEntity
  8
0
100
AcDbBlockEnd
  0
BLOCK
  5
1D9
330
1D8
100
AcDbEntity
  8
0
100
AcDbBlockBegin
  2
_D
 70
     0
 10
0.0
 20
0.0
 30
0.0
  3
_D
  1

  0
SOLID
  5
1DB
330
1D8
100
AcDbEntity
  8
VERMASSUNG
100
AcDbTrace
 10
244.8818601771
 20
138.8215939128
 30
0.0
 11
244.4318601771
 21
135.8215939128
 31
0.0
 12
245.3318601771
 22
135.8215939128
 32
0.0
 13
245.3318601771
 23
135.8215939128
 33
0.0
  0
SOLID
  5
1DC
330
1D8
100
AcDbEntity
  8
VERMASSUNG
100
AcDbTrace
 10
244.8818601771
 20
111.8215939128
 30
0.0
 11
245.3318601771
 21
114.8215939128
 31
0.0
 12
244.4318601771
 22
114.8215939128
 32
0.0
 13
244.4318601771
 23
114.8215939128
 33
0.0
  0
LINE
  5
1DD
330
1D8
100
AcDbEntity
  8
VERMASSUNG
100
AcDbLine
 10
226.6422156453
 20
138.8215939128
 30
0.0
 11
245.8818601771
 21
138.8215939128
 31
0.0
  0
LINE
  5
1DE
330
1D8
100
AcDbEntity
  8
VERMASSUNG
100
AcDbLine
 10
226.6422156453
 20
111.8215939128
 30
0.0
 11
245.8818601771
 21
111.8215939128
 31
0.0
  0
LINE
  5
1DF
330
1D8
100
AcDbEntity
  8
VERMASSUNG
100
AcDbLine
 10
244.8818601771
 20
138.8215939128
 30
0.0
 11
244.8818601771
 21
111.8215939128
 31
0.0
  0
MTEXT
  5
1E0
330
1D8
100
AcDbEntity
  8
VERMASSUNG
100
AcDbMText
 10
242.303724814
 20
123.0215938617
 30
0.1
 40
2.0
 41
0.0
 71
     1
 72
     1
  1
27
  7
SLDTEXTSTYLE0
 11
-7.044195017643634E-15
 21
1.0
 31
0.0
 73
     1
 44
1.0
  0
ENDBLK
  5
1DA
330
1D8
100
AcDbEntity
  8
0
100
AcDbBlockEnd
  0
BLOCK
  5
1E4
330
1E3
100
AcDbEntity
  8
0
100
AcDbBlockBegin
  2
_D_1
 70
     0
 10
0.0
 20
0.0
 30
0.0
  3
_D_1
  1

  0
ARC
  5
1E6
330
1E3
100
AcDbEntity
  8
VERMASSUNG
100
AcDbCircle
 10
226.6639867692
 20
138.8215939128
 30
0.0
 40
11.2533772269498
100
AcDbArc
 50
266.9629351717
 51
0.0
  0
SOLID
  5
1E7
330
1E3
100
AcDbEntity
  8
VERMASSUNG
100
AcDbTrace
 10
226.0677607648
 20
127.5840223974
 30
0.0
 11
229.0935433395
 21
127.3669053543
 31
0.0
 12
229.0240811362
 22
128.2642207962
 32
0.0
 13
229.0240811362
 23
128.2642207962
 33
0.0
  0
SOLID
  5
1E8
330
1E3
100
AcDbEntity
  8
VERMASSUNG
100
AcDbTrace
 10
237.9173639961
 20
138.8215939128
 30
0.0
 11
237.0814893032
 21
135.9054640292
 31
0.0
 12
237.9738641943
 22
135.788557855
 32
0.0
 13
237.9738641943
 23
135.788557855
 33
0.0
  0
LINE
  5
1E9
330
1E3
100
AcDbEntity
  8
VERMASSUNG
100
AcDbLine
 10
234.4260523173
 20
138.8215939128
 30
0.0
 11
238.9173639961
 21
138.8215939128
 31
0.0
  0
MTEXT
  5
1EA
330
1E3
100
AcDbEntity
  8
VERMASSUNG
100
AcDbMText
 10
230.5293620818
 20
130.5313167024
 30
0.1
 40
2.0
 41
0.0
 71
     1
 72
     1
  1
93°
  7
SLDTEXTSTYLE0
 11
0.7255969824835582
 21
0.6881199161561558
 31
0.0
 73
     1
 44
1.0
  0
ENDBLK
  5
1E5
330
1E3
100
AcDbEntity
  8
0
100
AcDbBlockEnd
  0
BLOCK
  5
1ED
330
1EC
100
AcDbEntity
  8
0
100
AcDbBlockBegin
  2
_D_2
 70
     0
 10
0.0
 20
0.0
 30
0.0
  3
_D_2
  1

  0
SOLID
  5
1EF
330
1EC
100
AcDbEntity
  8
VERMASSUNG
100
AcDbTrace
 10
176.6422156453
 20
143.7791509462
 30
0.0
 11
179.6422156453
 21
143.3291509462
 31
0.0
 12
179.6422156453
 22
144.2291509462
 32
0.0
 13
179.6422156453
 23
144.2291509462
 33
0.0
  0
SOLID
  5
1F0
330
1EC
100
AcDbEntity
  8
VERMASSUNG
100
AcDbTrace
 10
226.6422156453
 20
143.7791509462
 30
0.0
 11
223.6422156453
 21
144.2291509462
 31
0.0
 12
223.6422156453
 22
143.3291509462
 32
0.0
 13
223.6422156453
 23
143.3291509462
 33
0.0
  0
LINE
  5
1F1
330
1EC
100
AcDbEntity
  8
VERMASSUNG
100
AcDbLine
 10
176.6422156453
 20
131.5215939128
 30
0.0
 11
176.6422156453
 21
144.7791509462
 31
0.0
  0
LINE
  5
1F2
330
1EC
100
AcDbEntity
  8
VERMASSUNG
100
AcDbLine
 10
226.6422156453
 20
138.8215939128
 30
0.0
 11
226.6422156453
 21
144.7791509462
 31
0.0
  0
LINE
  5
1F3
330
1EC
100
AcDbEntity
  8
VERMASSUNG
100
AcDbLine
 10
176.6422156453
 20
143.7791509462
 30
0.0
 11
226.6422156453
 21
143.7791509462
 31
0.0
  0
MTEXT
  5
1F4
330
1EC
100
AcDbEntity
  8
VERMASSUNG
100
AcDbMText
 10
199.3422155943
 20
146.3572863093
 30
0.1
 40
2.0
 41
0.0
 71
     1
 72
     1
  1
50
  7
SLDTEXTSTYLE0
 73
     1
 44
1.0
  0
ENDBLK
  5
1EE
330
1EC
100
AcDbEntity
  8
0
100
AcDbBlockEnd
  0
BLOCK
  5
1F7
330
1F6
100
AcDbEntity
  8
0
100
AcDbBlockBegin
  2
_D_3
 70
     0
 10
0.0
 20
0.0
 30
0.0
  3
_D_3
  1

  0
SOLID
  5
1F9
330
1F6
100
AcDbEntity
  8
VERMASSUNG
100
AcDbTrace
 10
152.6422156453
 20
149.4289134808
 30
0.0
 11
155.6422156453
 21
148.9789134808
 31
0.0
 12
155.6422156453
 22
149.8789134808
 32
0.0
 13
155.6422156453
 23
149.8789134808
 33
0.0
  0
SOLID
  5
1FA
330
1F6
100
AcDbEntity
  8
VERMASSUNG
100
AcDbTrace
 10
226.6422156453
 20
149.4289134808
 30
0.0
 11
223.6422156453
 21
149.8789134808
 31
0.0
 12
223.6422156453
 22
148.9789134808
 32
0.0
 13
223.6422156453
 23
148.9789134808
 33
0.0
  0
LINE
  5
1FB
330
1F6
100
AcDbEntity
  8
VERMASSUNG
100
AcDbLine
 10
152.6422156453
 20
124.4530988948
 30
0.0
 11
152.6422156453
 21
150.4289134808
 31
0.0
  0
LINE
  5
1FC
330
1F6
100
AcDbEntity
  8
VERMASSUNG
100
AcDbLine
 10
226.6422156453
 20
138.8215939128
 30
0.0
 11
226.6422156453
 21
150.4289134808
 31
0.0
  0
LINE
  5
1FD
330
1F6
100
AcDbEntity
  8
VERMASSUNG
100
AcDbLine
 10
152.6422156453
 20
149.4289134808
 30
0.0
 11
226.6422156453
 21
149.4289134808
 31
0.0
  0
MTEXT
  5
1FE
330
1F6
100
AcDbEntity
  8
VERMASSUNG
100
AcDbMText
 10
187.2422155313
 20
152.0070488439
 30
0.1
 40
2.0
 41
0.0
 71
     1
 72
     1
  1
74
  7
SLDTEXTSTYLE0
 73
     1
 44
1.0
  0
ENDBLK
  5
1F8
330
1F6
100
AcDbEntity
  8
0
100
AcDbBlockEnd
  0
BLOCK
  5
201
330
200
100
AcDbEntity
  8
0
100
AcDbBlockBegin
  2
_D_4
 70
     0
 10
0.0
 20
0.0
 30
0.0
  3
_D_4
  1

  0
SOLID
  5
203
330
200
100
AcDbEntity
  8
VERMASSUNG
100
AcDbTrace
 10
147.0273683045
 20
131.8215939128
 30
0.0
 11
146.5773683045
 21
128.8215939128
 31
0.0
 12
147.4773683045
 22
128.8215939128
 32
0.0
 13
147.4773683045
 23
128.8215939128
 33
0.0
  0
SOLID
  5
204
330
200
100
AcDbEntity
  8
VERMASSUNG
100
AcDbTrace
 10
147.0273683045
 20
91.8215939128
 30
0.0
 11
147.4773683045
 21
94.8215939128
 31
0.0
 12
146.5773683045
 22
94.8215939128
 32
0.0
 13
146.5773683045
 23
94.8215939128
 33
0.0
  0
LINE
  5
205
330
200
100
AcDbEntity
  8
VERMASSUNG
100
AcDbLine
 10
176.9422156453
 20
131.8215939128
 30
0.0
 11
146.0273683045
 21
131.8215939128
 31
0.0
  0
LINE
  5
206
330
200
100
AcDbEntity
  8
VERMASSUNG
100
AcDbLine
 10
176.9422156453
 20
91.8215939128
 30
0.0
 11
146.0273683045
 21
91.8215939128
 31
0.0
  0
LINE
  5
207
330
200
100
AcDbEntity
  8
VERMASSUNG
100
AcDbLine
 10
147.0273683045
 20
131.8215939128
 30
0.0
 11
147.0273683045
 21
91.8215939128
 31
0.0
  0
MTEXT
  5
208
330
200
100
AcDbEntity
  8
VERMASSUNG
100
AcDbMText
 10
144.2492328155
 20
105.3165939734
 30
-2.3231772324
 40
2.0
 41
0.0
 71
     1
 72
     1
  1
PSC
  7
SLDTEXTSTYLE0
 11
-7.044195017643634E-15
 21
1.0
 31
0.0
 73
     1
 44
1.0
  0
MTEXT
  5
209
330
200
100
AcDbEntity
  8
VERMASSUNG
100
AcDbMText
 10
144.449232825
 20
109.9165940755
 30
-2.3231772324
 40
2.0
 41
0.0
 71
     1
 72
     1
  1
%%c
  7
SLDTEXTSTYLE0
 11
-7.044195017643634E-15
 21
1.0
 31
0.0
 73
     1
 44
1.0
  0
MTEXT
  5
20A
330
200
100
AcDbEntity
  8
VERMASSUNG
100
AcDbMText
 10
144.2492328155
 20
113.5265945555
 30
-2.3231772324
 40
2.0
 41
0.0
 71
     1
 72
     1
  1
40
  7
SLDTEXTSTYLE0
 11
-7.044195017643634E-15
 21
1.0
 31
0.0
 73
     1
 44
1.0
  0
ENDBLK
  5
202
330
200
100
AcDbEntity
  8
0
100
AcDbBlockEnd
  0
BLOCK
  5
2A2
330
2A1
100
AcDbEntity
  8
0
100
AcDbBlockBegin
  2
_D_5
 70
     0
 10
0.0
 20
0.0
 30
0.0
  3
_D_5
  1

  0
SOLID
  5
2A4
330
2A1
100
AcDbEntity
  8
VERMASSUNG
100
AcDbTrace
 10
71.2637096876
 20
133.0884274323
 30
0.0
 11
69.7924394809
 21
135.7413247124
 31
0.0
 12
69.0788335887
 22
135.1929027666
 32
0.0
 13
69.0788335887
 23
135.1929027666
 33
0.0
  0
LINE
  5
2A5
330
2A1
100
AcDbEntity
  8
VERMASSUNG
100
AcDbLine
 10
71.2637096876
 20
133.0884274323
 30
0.0
 11
60.9113664155
 21
146.5588824579
 31
0.0
  0
MTEXT
  5
2A6
330
2A1
100
AcDbEntity
  8
VERMASSUNG
100
AcDbMText
 10
62.9533240388
 20
148.1281721533
 30
0.1
 40
2.0
 41
0.0
 71
     1
 72
     1
  1
%%c
  7
SLDTEXTSTYLE0
 11
0.609357717606711
 21
-0.7928954357247492
 31
0.0
 73
     1
 44
1.0
  0
MTEXT
  5
2A7
330
2A1
100
AcDbEntity
  8
VERMASSUNG
100
AcDbMText
 10
65.3116845028
 20
145.3876911683
 30
0.1
 40
2.0
 41
0.0
 71
     1
 72
     1
  1
55
  7
SLDTEXTSTYLE0
 11
0.609357717606711
 21
-0.7928954357247492
 31
0.0
 73
     1
 44
1.0
  0
MTEXT
  5
2A8
330
2A1
100
AcDbEntity
  8
VERMASSUNG
100
AcDbMText
 10
68.8383426394
 20
140.7988083839
 30
0.1
 40
2.0
 41
0.0
 71
     1
 72
     1
  1
min.
  7
SLDTEXTSTYLE0
 11
0.609357717606711
 21
-0.7928954357247492
 31
0.0
 73
     1
 44
1.0
  0
ENDBLK
  5
2A3
330
2A1
100
AcDbEntity
  8
0
100
AcDbBlockEnd
  0
BLOCK
  5
2AA
330
2A9
100
AcDbEntity
  8
0
100
AcDbBlockBegin
  2
SW_CENTERMARKSYMBOL_0
 70
     0
 10
0.0
 20
0.0
 30
0.0
  3
SW_CENTERMARKSYMBOL_0
  1

  0
LINE
  5
2AC
330
2A9
100
AcDbEntity
  8
VERMASSUNG
 62
     0
100
AcDbLine
 10
0.0
 20
0.0
 30
0.0
 11
0.0
 21
2.5
 31
0.0
  0
LINE
  5
2AD
330
2A9
100
AcDbEntity
  8
VERMASSUNG
 62
     0
100
AcDbLine
 10
0.0
 20
0.0
 30
0.0
 11
-2.5
 21
0.0
 31
0.0
  0
LINE
  5
2AE
330
2A9
100
AcDbEntity
  8
VERMASSUNG
 62
     0
100
AcDbLine
 10
0.0
 20
0.0
 30
0.0
 11
0.0
 21
-2.5
 31
0.0
  0
LINE
  5
2AF
330
2A9
100
AcDbEntity
  8
VERMASSUNG
 62
     0
100
AcDbLine
 10
0.0
 20
0.0
 30
0.0
 11
2.5
 21
0.0
 31
0.0
  0
LINE
  5
2B0
330
2A9
100
AcDbEntity
  8
VERMASSUNG
 62
     0
100
AcDbLine
 10
0.0
 20
5.0
 30
0.0
 11
0.0
 21
28.6782096223
 31
0.0
  0
LINE
  5
2B1
330
2A9
100
AcDbEntity
  8
VERMASSUNG
 62
     0
100
AcDbLine
 10
-5.0
 20
0.0
 30
0.0
 11
-27.2909065346
 21
0.0
 31
0.0
  0
LINE
  5
2B2
330
2A9
100
AcDbEntity
  8
VERMASSUNG
 62
     0
100
AcDbLine
 10
0.0
 20
-5.0
 30
0.0
 11
0.0
 21
-23.0
 31
0.0
  0
LINE
  5
2B3
330
2A9
100
AcDbEntity
  8
VERMASSUNG
 62
     0
100
AcDbLine
 10
5.0
 20
0.0
 30
0.0
 11
23.0
 21
0.0
 31
0.0
  0
ENDBLK
  5
2AB
330
2A9
100
AcDbEntity
  8
0
100
AcDbBlockEnd
  0
ENDSEC
  0
SECTION
  2
ENTITIES
  0
MTEXT
  5
49
330
1F
100
AcDbEntity
  8
KOPF_DÜNN
100
AcDbMText
 10
13.8892156294
 20
23.8442973028
 30
0.0
 40
3.0
 41
0.0
 71
     1
 72
     1
  1
PS4.KVD.RUA.050
  7
SLDTEXTSTYLE0
 73
     1
 44
1.0
  0
MTEXT
  5
4A
330
1F
100
AcDbEntity
  8
VERMASSUNG
100
AcDbMText
 10
13.9329988022
 20
28.8834360957
 30
0.0
 40
3.0
 41
0.0
 71
     1
 72
     1
  1
Klemmhalter rechts_Turning tool right 93° /35°
  7
SLDTEXTSTYLE0
 73
     1
 44
1.0
  0
MTEXT
  5
4B
330
1F
100
AcDbEntity
  8
VERMASSUNG
100
AcDbMText
 10
98.8601118557
 20
13.8365368179
 30
0.0
 40
2.0
 41
0.0
 71
     1
 72
     1
  1
Datum: 01.03.2013
  7
SLDTEXTSTYLE0
 73
     1
 44
1.0
  0
MTEXT
  5
4C
330
1F
100
AcDbEntity
  8
VERMASSUNG
100
AcDbMText
 10
13.933048693
 20
18.0482802738
 30
0.0
 40
2.0
 41
0.0
 71
     1
 72
     1
  1
PSC ø40 / VN..16 04..
  7
SLDTEXTSTYLE0
 73
     1
 44
1.0
  0
MTEXT
  5
4D
330
1F
100
AcDbEntity
  8
VERMASSUNG
100
AcDbMText
 10
13.9808475933
 20
13.9090973692
 30
0.0
 40
2.0
 41
0.0
 71
     1
 72
     1
  1
Gewicht: 459g
  7
SLDTEXTSTYLE0
 73
     1
 44
1.0
  0
LINE
  5
4E
330
1F
100
AcDbEntity
  8
0
  6
Continuous
 62
     7
370
    15
100
AcDbLine
 10
198.8748878449
 20
131.8215934658
 30
0.0
 11
176.9422156596
 21
131.8215934658
 31
0.0
  0
LINE
  5
4F
330
1F
100
AcDbEntity
  8
0
  6
Continuous
 62
     7
370
    15
100
AcDbLine
 10
176.9422156596
 20
91.8215943598
 30
0.0
 11
198.8748878449
 21
91.8215943598
 31
0.0
  0
ARC
  5
50
330
1F
100
AcDbEntity
  8
0
  6
Continuous
 62
     7
370
    15
100
AcDbCircle
 10
176.9422156453
 20
92.1215939128
 30
0.0
 40
0.3000000000000256
100
AcDbArc
 50
180.0
 51
270.0
  0
ARC
  5
51
330
1F
100
AcDbEntity
  8
0
  6
Continuous
 62
     7
370
    15
100
AcDbCircle
 10
176.9422156453
 20
131.5215939128
 30
0.0
 40
0.3000000000000114
100
AcDbArc
 50
90.0
 51
180.0
  0
LWPOLYLINE
  5
52
330
1F
100
AcDbEntity
  8
0
  6
Continuous
 62
     7
370
    15
100
AcDbPolyline
 90
        3
 70
   128
 43
0.0
 10
176.4422156504
 20
97.7317739376
 10
176.5676705856
 20
97.6634716713
 10
176.6422156453
 20
97.6107336679
  0
LWPOLYLINE
  5
53
330
1F
100
AcDbEntity
  8
0
  6
Continuous
 62
     7
370
    15
100
AcDbPolyline
 90
        3
 70
   128
 43
0.0
 10
176.6422156453
 20
126.0324541577
 10
176.5676705856
 20
125.9797161543
 10
176.4422156504
 20
125.911413888
  0
ARC
  5
54
330
1F
100
AcDbEntity
  8
0
  6
Continuous
 62
     7
370
    15
100
AcDbCircle
 10
198.8748886573
 20
132.8215939128
 30
0.0
 40
0.9999999999999883
100
AcDbArc
 50
270.0
 51
345.0
  0
ARC
  5
55
330
1F
100
AcDbEntity
  8
0
  6
Continuous
 62
     7
370
    15
100
AcDbCircle
 10
198.8748886573
 20
90.8215939128
 30
0.0
 40
0.9999999999999869
100
AcDbArc
 50
30.0
 51
90.0
  0
LINE
  5
56
330
1F
100
AcDbEntity
  8
0
  6
Continuous
 62
     7
370
    15
100
AcDbLine
 10
199.7409135312
 20
91.3215933465
 30
0.0
 11
210.6201563239
 21
91.3215933465
 31
0.0
  0
LINE
  5
57
330
1F
100
AcDbEntity
  8
0
  6
Continuous
 62
     7
370
    15
100
AcDbLine
 10
199.8614825517
 20
132.6399112218
 30
0.0
 11
199.8408146411
 21
132.5627753609
 31
0.0
  0
LINE
  5
58
330
1F
100
AcDbEntity
  8
0
  6
Continuous
 62
     7
370
    15
100
AcDbLine
 10
209.5552671909
 20
102.6264188909
 30
0.0
 11
210.025223738
 21
103.5591952601
 31
0.0
  0
LINE
  5
59
330
1F
100
AcDbEntity
  8
0
  6
Continuous
 62
     7
370
    15
100
AcDbLine
 10
207.3460582852
 20
104.9090327793
 30
0.0
 11
206.7900251806
 21
103.805414597
 31
0.0
  0
LINE
  5
5A
330
1F
100
AcDbEntity
  8
0
  6
Continuous
 62
     7
370
    15
100
AcDbLine
 10
207.8024193853
 20
114.1109317173
 30
0.0
 11
207.628109327
 21
113.7649567896
 31
0.0
  0
LINE
  5
5B
330
1F
100
AcDbEntity
  8
0
  6
Continuous
 62
     7
370
    15
100
AcDbLine
 10
217.8982522547
 20
108.5905802534
 30
0.0
 11
218.0725623131
 21
108.9365551812
 31
0.0
  0
LINE
  5
5C
330
1F
100
AcDbEntity
  8
0
  6
Continuous
 62
     7
370
    15
100
AcDbLine
 10
206.424633807
 20
114.1544016642
 30
0.0
 11
206.0244649857
 21
113.3601452089
 31
0.0
  0
LINE
  5
5D
330
1F
100
AcDbEntity
  8
0
  6
Continuous
 62
     7
370
    15
100
AcDbLine
 10
218.5272488952
 20
107.060904345
 30
0.0
 11
218.9274158537
 21
107.8551609167
 31
0.0
  0
LINE
  5
5E
330
1F
100
AcDbEntity
  8
0
  6
Continuous
 62
     7
370
    15
100
AcDbLine
 10
201.2511424929
 20
106.2184006074
 30
0.0
 11
200.6443225056
 21
105.0139783979
 31
0.0
  0
LINE
  5
5F
330
1F
100
AcDbEntity
  8
0
  6
Continuous
 62
     7
370
    15
100
AcDbLine
 10
220.6423793197
 20
109.6226279256
 30
0.0
 11
221.2412607133
 21
110.8112891302
 31
0.0
  0
LINE
  5
60
330
1F
100
AcDbEntity
  8
0
  6
Continuous
 62
     7
370
    15
100
AcDbLine
 10
224.7647259593
 20
126.1800306016
 30
0.0
 11
220.3444566786
 21
128.770057308
 31
0.0
  0
LINE
  5
61
330
1F
100
AcDbEntity
  8
0
  6
Continuous
 62
     7
370
    15
100
AcDbLine
 10
216.5569726586
 20
126.9445635476
 30
0.0
 11
216.494417584
 21
126.8204024159
 31
0.0
  0
LINE
  5
62
330
1F
100
AcDbEntity
  8
0
  6
Continuous
 62
     7
370
    15
100
AcDbLine
 10
225.3930147946
 20
122.4763292917
 30
0.0
 11
225.8078780234
 21
123.2997497641
 31
0.0
  0
SPLINE
  5
63
330
1F
100
AcDbEntity
  8
0
  6
Continuous
 62
     7
370
    15
100
AcDbSpline
210
0.0
220
0.0
230
1.0
 70
     8
 71
     3
 72
    10
 73
     6
 74
     0
 42
0.00000001
 43
0.00000001
 12
1.0
 22
0.0
 32
0.0
 13
1.0
 23
0.0
 33
0.0
 40
0.0
 40
0.0
 40
0.0
 40
0.0
 40
0.5
 40
0.5
 40
1.0
 40
1.0
 40
1.0
 40
1.0
 10
198.5516021221145
 20
131.4525307473411
 30
0.0
 10
198.5723922047487
 20
131.4684257173611
 30
0.0
 10
198.6120117860782
 20
131.4826949502238
 30
0.0
 10
198.7226161522961
 20
131.505707995807
 30
0.0
 10
198.79410769336
 20
131.5145050450333
 30
0.0
 10
198.8748886573421
 20
131.5195201740008
 30
0.0
  0
ELLIPSE
  5
64
330
1F
100
AcDbEntity
  8
0
  6
Continuous
 62
     7
370
    15
100
AcDbEllipse
 10
200.4741943018
 20
111.8215939128
 30
0.0
 11
-0.999964928812517
 21
19.99826732264189
 31
0.0
210
0.0
220
0.0
230
1.0
 40
0.263265937
 41
0.1792436056986761
 42
2.586956766843418
  0
SPLINE
  5
65
330
1F
100
AcDbEntity
  8
0
  6
Continuous
 62
     7
370
    15
100
AcDbSpline
210
0.0
220
0.0
230
1.0
 70
     8
 71
     3
 72
     8
 73
     4
 74
     0
 42
0.00000001
 43
0.00000001
 12
1.0
 22
0.0
 32
0.0
 13
1.0
 23
0.0
 33
0.0
 40
0.0
 40
0.0
 40
0.0
 40
0.0
 40
1.0
 40
1.0
 40
1.0
 40
1.0
 10
198.8748886573421
 20
94.49598072938053
 30
0.0
 10
198.713355868552
 20
94.52491476130973
 30
0.0
 10
198.5931772714898
 20
94.59690914377941
 30
0.0
 10
198.5516021221145
 20
94.68258194932275
 30
0.0
  0
SPLINE
  5
66
330
1F
100
AcDbEntity
  8
0
  6
Continuous
 62
     7
370
    15
100
AcDbSpline
210
0.0
220
0.0
230
1.0
 70
     8
 71
     3
 72
    12
 73
     8
 74
     0
 42
0.00000001
 43
0.00000001
 12
1.0
 22
0.0
 32
0.0
 13
1.0
 23
0.0
 33
0.0
 40
0.0
 40
0.0
 40
0.0
 40
0.0
 40
0.5000000000000016
 40
0.5000000000000016
 40
0.7500000000000008
 40
0.7500000000000008
 40
1.0
 40
1.0
 40
1.0
 40
1.0
 10
183.3143100261849
 20
92.78683762960371
 30
0.0
 10
183.3331132590366
 20
92.76491563134265
 30
0.0
 10
183.3586499180559
 20
92.74402182333273
 30
0.0
 10
183.4188760920043
 20
92.71629509721497
 30
0.0
 10
183.4428021694043
 20
92.70772196383953
 30
0.0
 10
183.5008630895856
 20
92.69454285803197
 30
0.0
 10
183.5366647882115
 20
92.68993753255228
 30
0.0
 10
183.5741176473203
 20
92.68993753255228
 30
0.0
  0
LINE
  5
67
330
1F
100
AcDbEntity
  8
0
  6
Continuous
 62
     7
370
    15
100
AcDbLine
 10
183.5741175547
 20
92.6899371767
 30
0.0
 11
185.7103135645
 21
92.6899371767
 31
0.0
  0
SPLINE
  5
68
330
1F
100
AcDbEntity
  8
0
  6
Continuous
 62
     7
370
    15
100
AcDbSpline
210
0.0
220
0.0
230
1.0
 70
     8
 71
     3
 72
    12
 73
     8
 74
     0
 42
0.00000001
 43
0.00000001
 12
1.0
 22
0.0
 32
0.0
 13
1.0
 23
0.0
 33
0.0
 40
0.0
 40
0.0
 40
0.0
 40
0.0
 40
0.2500000000000012
 40
0.2500000000000012
 40
0.5000000000000023
 40
0.5000000000000023
 40
1.0
 40
1.0
 40
1.0
 40
1.0
 10
185.7103136433219
 20
92.68993753255229
 30
0.0
 10
185.7478144661996
 20
92.68993753255229
 30
0.0
 10
185.7830928702355
 20
92.69443850041546
 30
0.0
 10
185.8420105902879
 20
92.70780502163278
 30
0.0
 10
185.8655339716863
 20
92.71628628187761
 30
0.0
 10
185.9257895561522
 20
92.74402367755552
 30
0.0
 10
185.9513112085635
 20
92.76490767660856
 30
0.0
 10
185.9701212644572
 20
92.78683762960374
 30
0.0
  0
ELLIPSE
  5
69
330
1F
100
AcDbEntity
  8
0
  6
Continuous
 62
     7
370
    15
100
AcDbEllipse
 10
175.6932864729
 20
111.8215939128
 30
0.0
 11
-9.367417879781755
 21
19.74174915274996
 31
0.0
210
0.0
220
0.0
230
1.0
 40
0.3419987131
 41
3.292664382516898
 42
4.239566697061001
  0
SPLINE
  5
6A
330
1F
100
AcDbEntity
  8
0
  6
Continuous
 62
     7
370
    15
100
AcDbSpline
210
0.0
220
0.0
230
1.0
 70
     8
 71
     3
 72
    12
 73
     8
 74
     0
 42
0.00000001
 43
0.00000001
 12
1.0
 22
0.0
 32
0.0
 13
1.0
 23
0.0
 33
0.0
 40
0.0
 40
0.0
 40
0.0
 40
0.0
 40
0.4999999999999971
 40
0.4999999999999971
 40
0.7499999999999986
 40
0.7499999999999986
 40
1.0
 40
1.0
 40
1.0
 40
1.0
 10
185.9701212644572
 20
105.6833487857265
 30
0.0
 10
185.9513180316055
 20
105.7513291099889
 30
0.0
 10
185.9257813725863
 20
105.8174194977857
 30
0.0
 10
185.8655551986378
 20
105.9064841102328
 30
0.0
 10
185.8416291212379
 20
105.9342851972528
 30
0.0
 10
185.7835682010565
 20
105.9772442704776
 30
0.0
 10
185.7477665024306
 20
105.9923809171339
 30
0.0
 10
185.7103136433219
 20
105.9923809171339
 30
0.0
  0
LINE
  5
6B
330
1F
100
AcDbEntity
  8
0
  6
Continuous
 62
     7
370
    15
100
AcDbLine
 10
185.7103135645
 20
105.9923807257
 30
0.0
 11
183.5741175547
 21
105.9923807257
 31
0.0
  0
SPLINE
  5
6C
330
1F
100
AcDbEntity
  8
0
  6
Continuous
 62
     7
370
    15
100
AcDbSpline
210
0.0
220
0.0
230
1.0
 70
     8
 71
     3
 72
    12
 73
     8
 74
     0
 42
0.00000001
 43
0.00000001
 12
1.0
 22
0.0
 32
0.0
 13
1.0
 23
0.0
 33
0.0
 40
0.0
 40
0.0
 40
0.0
 40
0.0
 40
0.2499999999999995
 40
0.2499999999999995
 40
0.499999999999999
 40
0.499999999999999
 40
1.0
 40
1.0
 40
1.0
 40
1.0
 10
183.5741176473203
 20
105.9923809171339
 30
0.0
 10
183.5366168244425
 20
105.9923809171339
 30
0.0
 10
183.5013384204065
 20
105.9775845793808
 30
0.0
 10
183.4424207003541
 20
105.9340143182217
 30
0.0
 10
183.4188973189558
 20
105.9065125197202
 30
0.0
 10
183.3586417344898
 20
105.8174133564771
 30
0.0
 10
183.3331200820787
 20
105.7513537776947
 30
0.0
 10
183.3143100261849
 20
105.6833487857265
 30
0.0
  0
ELLIPSE
  5
6D
330
1F
100
AcDbEntity
  8
0
  6
Continuous
 62
     7
370
    15
100
AcDbEllipse
 10
193.5911448178
 20
111.8215939128
 30
0.0
 11
9.367417879781643
 21
19.74174915274997
 31
0.0
210
0.0
220
0.0
230
1.0
 40
0.3419987131
 41
2.043618610118596
 42
2.990520924662728
  0
SPLINE
  5
6E
330
1F
100
AcDbEntity
  8
0
  6
Continuous
 62
     7
370
    15
100
AcDbSpline
210
0.0
220
0.0
230
1.0
 70
     8
 71
     3
 72
    12
 73
     8
 74
     0
 42
0.00000001
 43
0.00000001
 12
1.0
 22
0.0
 32
0.0
 13
1.0
 23
0.0
 33
0.0
 40
0.0
 40
0.0
 40
0.0
 40
0.0
 40
0.5000000000000029
 40
0.5000000000000029
 40
0.7500000000000014
 40
0.7500000000000014
 40
1.0
 40
1.0
 40
1.0
 40
1.0
 10
183.314310026185
 20
117.9598390398446
 30
0.0
 10
183.3330032593153
 20
117.8922564034042
 30
0.0
 10
183.3586585567272
 20
117.8257738339268
 30
0.0
 10
183.4188191794137
 20
117.7367787510293
 30
0.0
 10
183.442891491168
 20
117.7087768540302
 30
0.0
 10
183.5012730115185
 20
117.665700453365
 30
0.0
 10
183.5367418391715
 20
117.6508069084372
 30
0.0
 10
183.5741176473202
 20
117.6508069084372
 30
0.0
  0
LINE
  5
6F
330
1F
100
AcDbEntity
  8
0
  6
Continuous
 62
     7
370
    15
100
AcDbLine
 10
183.5741175547
 20
117.6508070999
 30
0.0
 11
185.7103135645
 21
117.6508070999
 31
0.0
  0
SPLINE
  5
70
330
1F
100
AcDbEntity
  8
0
  6
Continuous
 62
     7
370
    15
100
AcDbSpline
210
0.0
220
0.0
230
1.0
 70
     8
 71
     3
 72
    12
 73
     8
 74
     0
 42
0.00000001
 43
0.00000001
 12
1.0
 22
0.0
 32
0.0
 13
1.0
 23
0.0
 33
0.0
 40
0.0
 40
0.0
 40
0.0
 40
0.0
 40
0.2499999999999958
 40
0.2499999999999958
 40
0.4999999999999916
 40
0.4999999999999916
 40
1.0
 40
1.0
 40
1.0
 40
1.0
 10
185.7103136433219
 20
117.6508069084372
 30
0.0
 10
185.7478255293665
 20
117.6508069084372
 30
0.0
 10
185.7831128770712
 20
117.6656117227241
 30
0.0
 10
185.8420427253096
 20
117.7092035958499
 30
0.0
 10
185.8655684517786
 20
117.7367170219358
 30
0.0
 10
185.9258272395467
 20
117.8258487540494
 30
0.0
 10
185.9514220018361
 20
117.8922346046672
 30
0.0
 10
185.9701212644572
 20
117.9598390398446
 30
0.0
  0
ELLIPSE
  5
71
330
1F
100
AcDbEntity
  8
0
  6
Continuous
 62
     7
370
    15
100
AcDbEllipse
 10
175.6932864729
 20
111.8215939128
 30
0.0
 11
9.367417879781669
 21
19.74174915274996
 31
0.0
210
0.0
220
0.0
230
1.0
 40
0.3419987131
 41
5.185211263708393
 42
6.132113578252549
  0
SPLINE
  5
72
330
1F
100
AcDbEntity
  8
0
  6
Continuous
 62
     7
370
    15
100
AcDbSpline
210
0.0
220
0.0
230
1.0
 70
     8
 71
     3
 72
    12
 73
     8
 74
     0
 42
0.00000001
 43
0.00000001
 12
1.0
 22
0.0
 32
0.0
 13
1.0
 23
0.0
 33
0.0
 40
0.0
 40
0.0
 40
0.0
 40
0.0
 40
0.5
 40
0.5
 40
0.75
 40
0.75
 40
1.0
 40
1.0
 40
1.0
 40
1.0
 10
185.9701212644572
 20
130.8563501959676
 30
0.0
 10
185.9514280313267
 20
130.8781439495955
 30
0.0
 10
185.925772733915
 20
130.8991641113051
 30
0.0
 10
185.8656121112285
 20
130.9268694572689
 30
0.0
 10
185.8415397994742
 20
130.9355046734622
 30
0.0
 10
185.7831582791236
 20
130.9487193186888
 30
0.0
 10
185.7476894514706
 20
130.953250293019
 30
0.0
 10
185.7103136433219
 20
130.953250293019
 30
0.0
  0
LINE
  5
73
330
1F
100
AcDbEntity
  8
0
  6
Continuous
 62
     7
370
    15
100
AcDbLine
 10
185.7103135645
 20
130.9532506489
 30
0.0
 11
183.5741175547
 21
130.9532506489
 31
0.0
  0
SPLINE
  5
74
330
1F
100
AcDbEntity
  8
0
  6
Continuous
 62
     7
370
    15
100
AcDbSpline
210
0.0
220
0.0
230
1.0
 70
     8
 71
     3
 72
    12
 73
     8
 74
     0
 42
0.00000001
 43
0.00000001
 12
1.0
 22
0.0
 32
0.0
 13
1.0
 23
0.0
 33
0.0
 40
0.0
 40
0.0
 40
0.0
 40
0.0
 40
0.2499999999999993
 40
0.2499999999999993
 40
0.4999999999999987
 40
0.4999999999999987
 40
1.0
 40
1.0
 40
1.0
 40
1.0
 10
183.5741176473202
 20
130.953250293019
 30
0.0
 10
183.5366057612756
 20
130.953250293019
 30
0.0
 10
183.5013184135709
 20
130.9487467487565
 30
0.0
 10
183.4423885653324
 20
130.9353735493032
 30
0.0
 10
183.4188628388634
 20
130.926888646732
 30
0.0
 10
183.3586040510953
 20
130.8991408428975
 30
0.0
 10
183.333009288806
 20
130.8781509791571
 30
0.0
 10
183.3143100261849
 20
130.8563501959676
 30
0.0
  0
ELLIPSE
  5
75
330
1F
100
AcDbEntity
  8
0
  6
Continuous
 62
     7
370
    15
100
AcDbEllipse
 10
193.5911448178
 20
111.8215939128
 30
0.0
 11
-9.367417879781557
 21
19.74174915274996
 31
0.0
210
0.0
220
0.0
230
1.0
 40
0.3419987131
 41
0.1510717289270766
 42
1.097974043471208
  0
LINE
  5
76
330
1F
100
AcDbEntity
  8
0
  6
Continuous
 62
     7
370
    15
100
AcDbLine
 10
176.6422156453
 20
92.1215938502
 30
0.0
 11
176.6422156453
 21
131.5215939754
 31
0.0
  0
SPLINE
  5
77
330
1F
100
AcDbEntity
  8
0
  6
Continuous
 62
     7
370
    15
100
AcDbSpline
210
0.0
220
0.0
230
1.0
 70
     8
 71
     3
 72
    18
 73
    14
 74
     0
 42
0.00000001
 43
0.00000001
 12
1.0
 22
0.0
 32
0.0
 13
1.0
 23
0.0
 33
0.0
 40
0.0
 40
0.0
 40
0.0
 40
0.0
 40
0.25
 40
0.25
 40
0.5
 40
0.5
 40
0.625
 40
0.625
 40
0.75
 40
0.75
 40
0.875
 40
0.875
 40
1.0
 40
1.0
 40
1.0
 40
1.0
 10
175.3861313277571
 20
97.99040553010683
 30
0.0
 10
175.4204281472089
 20
97.989543874625
 30
0.0
 10
175.458239427186
 20
97.98979547771994
 30
0.0
 10
175.544811794366
 20
97.9921939903318
 30
0.0
 10
175.5931509244489
 20
97.9943649750637
 30
0.0
 10
175.6824232817713
 20
97.99845985335892
 30
0.0
 10
175.7149647475473
 20
97.99996447130854
 30
0.0
 10
175.7911409474007
 20
98.00292752927666
 30
0.0
 10
175.8343570073953
 20
98.00441486753245
 30
0.0
 10
175.9400463093612
 20
98.00604027885613
 30
0.0
 10
176.0050173680758
 20
98.00599803778223
 30
0.0
 10
176.1386777564336
 20
98.00197586446122
 30
0.0
 10
176.1979842097699
 20
97.99843463763771
 30
0.0
 10
176.2472387564458
 20
97.99486793020162
 30
0.0
  0
SPLINE
  5
78
330
1F
100
AcDbEntity
  8
0
  6
Continuous
 62
     7
370
    15
100
AcDbSpline
210
0.0
220
0.0
230
1.0
 70
     8
 71
     3
 72
    14
 73
    10
 74
     0
 42
0.00000001
 43
0.00000001
 12
1.0
 22
0.0
 32
0.0
 13
1.0
 23
0.0
 33
0.0
 40
0.0
 40
0.0
 40
0.0
 40
0.0
 40
0.1249999999999997
 40
0.1249999999999997
 40
0.2499999999999993
 40
0.2499999999999993
 40
0.5000000000000007
 40
0.5000000000000007
 40
1.0
 40
1.0
 40
1.0
 40
1.0
 10
176.247238756415
 20
97.99486793022058
 30
0.0
 10
176.2587655341323
 20
97.99403323278655
 30
0.0
 10
176.2721183417848
 20
97.99229281850639
 30
0.0
 10
176.3022609143851
 20
97.98504522850607
 30
0.0
 10
176.3173214399996
 20
97.9796981942781
 30
0.0
 10
176.3526677939279
 20
97.96395092404964
 30
0.0
 10
176.3663998936568
 20
97.95411264988834
 30
0.0
 10
176.3997711393479
 20
97.92790866393783
 30
0.0
 10
176.4107115072019
 20
97.91382076253721
 30
0.0
 10
176.4193646322152
 20
97.90104713904883
 30
0.0
  0
LINE
  5
79
330
1F
100
AcDbEntity
  8
0
  6
Continuous
 62
     7
370
    15
100
AcDbLine
 10
176.4422156504
 20
106.3161489652
 30
0.0
 11
176.4422156504
 21
97.7317739376
 31
0.0
  0
SPLINE
  5
7A
330
1F
100
AcDbEntity
  8
0
  6
Continuous
 62
     7
370
    15
100
AcDbSpline
210
0.0
220
0.0
230
1.0
 70
     8
 71
     3
 72
    16
 73
    12
 74
     0
 42
0.00000001
 43
0.00000001
 12
1.0
 22
0.0
 32
0.0
 13
1.0
 23
0.0
 33
0.0
 40
0.0
 40
0.0
 40
0.0
 40
0.0
 40
0.5000000000000002
 40
0.5000000000000002
 40
0.7500000000000013
 40
0.7500000000000013
 40
0.8750000000000019
 40
0.8750000000000019
 40
0.937500000000001
 40
0.937500000000001
 40
1.0
 40
1.0
 40
1.0
 40
1.0
 10
176.4422156453211
 20
106.3161491458228
 30
0.0
 10
176.4422156453211
 20
106.4337245268423
 30
0.0
 10
176.4383322201621
 20
106.5524202799436
 30
0.0
 10
176.4135168948875
 20
106.7331777579361
 30
0.0
 10
176.402677447175
 20
106.794821834709
 30
0.0
 10
176.3694616651261
 20
106.8841588090503
 30
0.0
 10
176.3560799214974
 20
106.9144183404754
 30
0.0
 10
176.3205702716351
 20
106.9479345844629
 30
0.0
 10
176.3051533051343
 20
106.9560729302689
 30
0.0
 10
176.2734522829857
 20
106.9560575208376
 30
0.0
 10
176.259305998035
 20
106.9490152834817
 30
0.0
 10
176.2472387564453
 20
106.9398742198721
 30
0.0
  0
SPLINE
  5
7B
330
1F
100
AcDbEntity
  8
0
  6
Continuous
 62
     7
370
    15
100
AcDbSpline
210
0.0
220
0.0
230
1.0
 70
     8
 71
     3
 72
    18
 73
    14
 74
     0
 42
0.00000001
 43
0.00000001
 12
1.0
 22
0.0
 32
0.0
 13
1.0
 23
0.0
 33
0.0
 40
0.0
 40
0.0
 40
0.0
 40
0.0
 40
0.1249999999999993
 40
0.1249999999999993
 40
0.2499999999999986
 40
0.2499999999999986
 40
0.3749999999999979
 40
0.3749999999999979
 40
0.4999999999999972
 40
0.4999999999999972
 40
0.7499999999999986
 40
0.7499999999999986
 40
1.0
 40
1.0
 40
1.0
 40
1.0
 10
176.2472387564515
 20
106.9398742198648
 30
0.0
 10
176.1985341727635
 20
106.9029799806743
 30
0.0
 10
176.140025689988
 20
106.8734486762483
 30
0.0
 10
176.0082988747182
 20
106.8642127029695
 30
0.0
 10
175.9435408032207
 20
106.8872758775265
 30
0.0
 10
175.83833020107
 20
106.9547939991739
 30
0.0
 10
175.7951140525498
 20
106.9978050958244
 30
0.0
 10
175.7189357364659
 20
107.0880471178206
 30
0.0
 10
175.6860809041747
 20
107.1356779992959
 30
0.0
 10
175.5957129982137
 20
107.2827422986454
 30
0.0
 10
175.5462903403741
 20
107.3866556239499
 30
0.0
 10
175.4586392147825
 20
107.5977895875903
 30
0.0
 10
175.420577667392
 20
107.7055123323491
 30
0.0
 10
175.3861313277581
 20
107.8148454482585
 30
0.0
  0
SPLINE
  5
7C
330
1F
100
AcDbEntity
  8
0
  6
Continuous
 62
     7
370
    15
100
AcDbSpline
210
0.0
220
0.0
230
1.0
 70
     8
 71
     3
 72
     8
 73
     4
 74
     0
 42
0.00000001
 43
0.00000001
 12
1.0
 22
0.0
 32
0.0
 13
1.0
 23
0.0
 33
0.0
 40
0.0
 40
0.0
 40
0.0
 40
0.0
 40
1.0
 40
1.0
 40
1.0
 40
1.0
 10
175.3208953017613
 20
108.0500492223873
 30
0.0
 10
175.3403215070603
 20
107.9704569508145
 30
0.0
 10
175.3618183314887
 20
107.8920152046818
 30
0.0
 10
175.3861313277581
 20
107.8148454482584
 30
0.0
  0
SPLINE
  5
7D
330
1F
100
AcDbEntity
  8
0
  6
Continuous
 62
     7
370
    15
100
AcDbSpline
210
0.0
220
0.0
230
1.0
 70
     8
 71
     3
 72
     8
 73
     4
 74
     0
 42
0.00000001
 43
0.00000001
 12
1.0
 22
0.0
 32
0.0
 13
1.0
 23
0.0
 33
0.0
 40
0.0
 40
0.0
 40
0.0
 40
0.0
 40
1.0
 40
1.0
 40
1.0
 40
1.0
 10
175.3861313277581
 20
115.828342377313
 30
0.0
 10
175.3618183314887
 20
115.7511726208897
 30
0.0
 10
175.3403215070603
 20
115.6727308747569
 30
0.0
 10
175.3208953017613
 20
115.5931386031842
 30
0.0
  0
SPLINE
  5
7E
330
1F
100
AcDbEntity
  8
0
  6
Continuous
 62
     7
370
    15
100
AcDbSpline
210
0.0
220
0.0
230
1.0
 70
     8
 71
     3
 72
    18
 73
    14
 74
     0
 42
0.00000001
 43
0.00000001
 12
1.0
 22
0.0
 32
0.0
 13
1.0
 23
0.0
 33
0.0
 40
0.0
 40
0.0
 40
0.0
 40
0.0
 40
0.25
 40
0.25
 40
0.5
 40
0.5
 40
0.625
 40
0.625
 40
0.75
 40
0.75
 40
0.875
 40
0.875
 40
1.0
 40
1.0
 40
1.0
 40
1.0
 10
175.3861313277581
 20
115.8283423773129
 30
0.0
 10
175.4204296467707
 20
115.937205673906
 30
0.0
 10
175.4582440440827
 20
116.0442130971423
 30
0.0
 10
175.5448321051563
 20
116.2532479212806
 30
0.0
 10
175.593182210835
 20
116.3554180152701
 30
0.0
 10
175.6824987996348
 20
116.5020987868348
 30
0.0
 10
175.715059155123
 20
116.5499004853704
 30
0.0
 10
175.791304788852
 20
116.6414560233958
 30
0.0
 10
175.834464158632
 20
116.6851354153877
 30
0.0
 10
175.94019298265
 20
116.7544896327143
 30
0.0
 10
176.0051901597047
 20
116.7786059463802
 30
0.0
 10
176.1386746496589
 20
116.770401724342
 30
0.0
 10
176.1980020431044
 20
116.74061093875
 30
0.0
 10
176.2472387564458
 20
116.703313605699
 30
0.0
  0
SPLINE
  5
7F
330
1F
100
AcDbEntity
  8
0
  6
Continuous
 62
     7
370
    15
100
AcDbSpline
210
0.0
220
0.0
230
1.0
 70
     8
 71
     3
 72
    16
 73
    12
 74
     0
 42
0.00000001
 43
0.00000001
 12
1.0
 22
0.0
 32
0.0
 13
1.0
 23
0.0
 33
0.0
 40
0.0
 40
0.0
 40
0.0
 40
0.0
 40
0.0624999999999999
 40
0.0624999999999999
 40
0.1249999999999999
 40
0.1249999999999999
 40
0.2499999999999997
 40
0.2499999999999997
 40
0.4999999999999994
 40
0.4999999999999994
 40
1.0
 40
1.0
 40
1.0
 40
1.0
 10
176.247238756415
 20
116.7033136056506
 30
0.0
 10
176.2593085896908
 20
116.6941705788048
 30
0.0
 10
176.2735842446241
 20
116.6871261311136
 30
0.0
 10
176.3050486567486
 20
116.687119059215
 30
0.0
 10
176.320549181559
 20
116.695247028012
 30
0.0
 10
176.3559880781659
 20
116.7286554890191
 30
0.0
 10
176.3695806942692
 20
116.7593226554813
 30
0.0
 10
176.402575012662
 20
116.8481436495631
 30
0.0
 10
176.4133624059808
 20
116.909046295111
 30
0.0
 10
176.4384156532599
 20
117.0910543724893
 30
0.0
 10
176.4422156453212
 20
117.209743087528
 30
0.0
 10
176.4422156453212
 20
117.3270386797485
 30
0.0
  0
LINE
  5
80
330
1F
100
AcDbEntity
  8
0
  6
Continuous
 62
     7
370
    15
100
AcDbLine
 10
176.4422156504
 20
125.911413888
 30
0.0
 11
176.4422156504
 21
117.3270388604
 31
0.0
  0
SPLINE
  5
81
330
1F
100
AcDbEntity
  8
0
  6
Continuous
 62
     7
370
    15
100
AcDbSpline
210
0.0
220
0.0
230
1.0
 70
     8
 71
     3
 72
    16
 73
    12
 74
     0
 42
0.00000001
 43
0.00000001
 12
1.0
 22
0.0
 32
0.0
 13
1.0
 23
0.0
 33
0.0
 40
0.0
 40
0.0
 40
0.0
 40
0.0
 40
0.4999999999999972
 40
0.4999999999999972
 40
0.7499999999999967
 40
0.7499999999999967
 40
0.8749999999999971
 40
0.8749999999999971
 40
0.9374999999999986
 40
0.9374999999999986
 40
1.0
 40
1.0
 40
1.0
 40
1.0
 10
176.4422156453211
 20
125.8064058194458
 30
0.0
 10
176.4422156453211
 20
125.7908405920064
 30
0.0
 10
176.4383322201621
 20
125.7716692141584
 30
0.0
 10
176.4135168948875
 20
125.7328968321766
 30
0.0
 10
176.4026774471749
 20
125.7182460559741
 30
0.0
 10
176.3694616651261
 20
125.6912018119944
 30
0.0
 10
176.3560799214974
 20
125.6812237128544
 30
0.0
 10
176.3205702716351
 20
125.6647491770674
 30
0.0
 10
176.3051533051343
 20
125.6589970862775
 30
0.0
 10
176.2734522829857
 20
125.6510765658508
 30
0.0
 10
176.259305998035
 20
125.6491937298321
 30
0.0
 10
176.2472387564453
 20
125.6483198953698
 30
0.0
  0
SPLINE
  5
82
330
1F
100
AcDbEntity
  8
0
  6
Continuous
 62
     7
370
    15
100
AcDbSpline
210
0.0
220
0.0
230
1.0
 70
     8
 71
     3
 72
    18
 73
    14
 74
     0
 42
0.00000001
 43
0.00000001
 12
1.0
 22
0.0
 32
0.0
 13
1.0
 23
0.0
 33
0.0
 40
0.0
 40
0.0
 40
0.0
 40
0.0
 40
0.1249999999999998
 40
0.1249999999999998
 40
0.2499999999999997
 40
0.2499999999999997
 40
0.3749999999999995
 40
0.3749999999999995
 40
0.4999999999999993
 40
0.4999999999999993
 40
0.7499999999999997
 40
0.7499999999999997
 40
1.0
 40
1.0
 40
1.0
 40
1.0
 10
176.2472387564515
 20
125.6483198953696
 30
0.0
 10
176.1985346274347
 20
125.6447930457514
 30
0.0
 10
176.1400269582302
 20
125.6412927725538
 30
0.0
 10
176.0083012955993
 20
125.6372497886659
 30
0.0
 10
175.943543656979
 20
125.6371382140352
 30
0.0
 10
175.8383332403599
 20
125.6386703987967
 30
0.0
 10
175.7951172054197
 20
125.6401255510118
 30
0.0
 10
175.7189389839388
 20
125.6430508125415
 30
0.0
 10
175.6860842162547
 20
125.6445611430498
 30
0.0
 10
175.5957164974128
 20
125.6487031357381
 30
0.0
 10
175.5462941282234
 20
125.6509412207246
 30
0.0
 10
175.4586416661354
 20
125.6533925037711
 30
0.0
 10
175.420578929901
 20
125.6536477391322
 30
0.0
 10
175.3861313277576
 20
125.6527822954643
 30
0.0
  0
SPLINE
  5
83
330
1F
100
AcDbEntity
  8
0
  6
Continuous
 62
     7
370
    15
100
AcDbSpline
210
0.0
220
0.0
230
1.0
 70
     8
 71
     3
 72
     8
 73
     4
 74
     0
 42
0.00000001
 43
0.00000001
 12
1.0
 22
0.0
 32
0.0
 13
1.0
 23
0.0
 33
0.0
 40
0.0
 40
0.0
 40
0.0
 40
0.0
 40
1.0
 40
1.0
 40
1.0
 40
1.0
 10
175.1471756673818
 20
108.8751031084219
 30
0.0
 10
175.1979027501042
 20
108.5917519871027
 30
0.0
 10
175.2557900630912
 20
108.3167958029629
 30
0.0
 10
175.3208953017614
 20
108.0500492223873
 30
0.0
  0
SPLINE
  5
84
330
1F
100
AcDbEntity
  8
0
  6
Continuous
 62
     7
370
    15
100
AcDbSpline
210
0.0
220
0.0
230
1.0
 70
     8
 71
     3
 72
    24
 73
    20
 74
     0
 42
0.00000001
 43
0.00000001
 12
1.0
 22
0.0
 32
0.0
 13
1.0
 23
0.0
 33
0.0
 40
0.0
 40
0.0
 40
0.0
 40
0.0
 40
0.2499999999999938
 40
0.2499999999999938
 40
0.3749999999999913
 40
0.3749999999999913
 40
0.43749999999999
 40
0.43749999999999
 40
0.4687499999999899
 40
0.4687499999999899
 40
0.4999999999999898
 40
0.4999999999999898
 40
0.5624999999999919
 40
0.5624999999999919
 40
0.624999999999994
 40
0.624999999999994
 40
0.7499999999999963
 40
0.7499999999999963
 40
1.0
 40
1.0
 40
1.0
 40
1.0
 10
174.9422156453128
 20
108.8753955167151
 30
0.0
 10
174.9426186746867
 20
108.9686638093448
 30
0.0
 10
174.9446484144018
 20
109.0624213681938
 30
0.0
 10
174.9539571258216
 20
109.2040112538334
 30
0.0
 10
174.9578831189362
 20
109.2511916724427
 30
0.0
 10
174.9688124788522
 20
109.3217877191281
 30
0.0
 10
174.9729341069466
 20
109.3455676328929
 30
0.0
 10
174.984828628129
 20
109.3790187799401
 30
0.0
 10
174.9901154400828
 20
109.3911737320097
 30
0.0
 10
175.0066833715978
 20
109.3990563709775
 30
0.0
 10
175.0146100803651
 20
109.3914927718753
 30
0.0
 10
175.0316024185902
 20
109.3677003406485
 30
0.0
 10
175.0390001193811
 20
109.347511862804
 30
0.0
 10
175.0531025097229
 20
109.3070622381843
 30
0.0
 10
175.0592556670152
 20
109.2862065637868
 30
0.0
 10
175.0765694004763
 20
109.2230815284858
 30
0.0
 10
175.0865744413648
 20
109.1801024165843
 30
0.0
 10
175.1149308975955
 20
109.0503767722955
 30
0.0
 10
175.1314794369418
 20
108.9627790451596
 30
0.0
 10
175.1471756673818
 20
108.8751031084219
 30
0.0
  0
SPLINE
  5
85
330
1F
100
AcDbEntity
  8
0
  6
Continuous
 62
     7
370
    15
100
AcDbSpline
210
0.0
220
0.0
230
1.0
 70
     8
 71
     3
 72
    16
 73
    12
 74
     0
 42
0.00000001
 43
0.00000001
 12
1.0
 22
0.0
 32
0.0
 13
1.0
 23
0.0
 33
0.0
 40
0.0
 40
0.0
 40
0.0
 40
0.0
 40
0.2500000000000002
 40
0.2500000000000002
 40
0.3750000000000001
 40
0.3750000000000001
 40
0.5000000000000001
 40
0.5000000000000001
 40
0.75
 40
0.75
 40
1.0
 40
1.0
 40
1.0
 40
1.0
 10
174.9422156453211
 20
114.767792308855
 30
0.0
 10
174.8616788359256
 20
114.298719481992
 30
0.0
 10
174.8016414271234
 20
113.818355831812
 30
0.0
 10
174.7409034798761
 20
113.0811715526711
 30
0.0
 10
174.7255809988332
 20
112.832653149444
 30
0.0
 10
174.7049980470553
 20
112.3298697042303
 30
0.0
 10
174.6997985000187
 20
112.0750111512056
 30
0.0
 10
174.6997447894785
 20
111.3187338114849
 30
0.0
 10
174.7199421267476
 20
110.820075612175
 30
0.0
 10
174.8006204338206
 20
109.8336526414308
 30
0.0
 10
174.8616667821619
 20
109.3445385486578
 30
0.0
 10
174.9422156453211
 20
108.8753955167164
 30
0.0
  0
SPLINE
  5
86
330
1F
100
AcDbEntity
  8
0
  6
Continuous
 62
     7
370
    15
100
AcDbSpline
210
0.0
220
0.0
230
1.0
 70
     8
 71
     3
 72
    24
 73
    20
 74
     0
 42
0.00000001
 43
0.00000001
 12
1.0
 22
0.0
 32
0.0
 13
1.0
 23
0.0
 33
0.0
 40
0.0
 40
0.0
 40
0.0
 40
0.0
 40
0.2500000000000026
 40
0.2500000000000026
 40
0.3750000000000025
 40
0.3750000000000025
 40
0.4375000000000023
 40
0.4375000000000023
 40
0.5000000000000022
 40
0.5000000000000022
 40
0.5312500000000018
 40
0.5312500000000018
 40
0.5625000000000013
 40
0.5625000000000013
 40
0.6250000000000004
 40
0.6250000000000004
 40
0.7499999999999999
 40
0.7499999999999999
 40
1.0
 40
1.0
 40
1.0
 40
1.0
 10
175.1471756673769
 20
114.7680847171214
 30
0.0
 10
175.1314066224673
 20
114.680002053633
 30
0.0
 10
175.114792457907
 20
114.592057237126
 30
0.0
 10
175.0862603304137
 20
114.4617098698668
 30
0.0
 10
175.0761726968598
 20
114.418448692066
 30
0.0
 10
175.0586848740107
 20
114.3550129162328
 30
0.0
 10
175.0524750660843
 20
114.3340987926897
 30
0.0
 10
175.0381972065014
 20
114.2936240010065
 30
0.0
 10
175.0306260441496
 20
114.2731463575477
 30
0.0
 10
175.0132062189723
 20
114.2502999780159
 30
0.0
 10
175.0047221365144
 20
114.2437481809793
 30
0.0
 10
174.9886860629012
 20
114.2543195562194
 30
0.0
 10
174.9838656906254
 20
114.2664105965026
 30
0.0
 10
174.9724587900224
 20
114.3000538397224
 30
0.0
 10
174.9684378283132
 20
114.3234615190186
 30
0.0
 10
174.9576838165351
 20
114.3940501220781
 30
0.0
 10
174.9538119309126
 20
114.4410151495992
 30
0.0
 10
174.9446439661123
 20
114.5815920142017
 30
0.0
 10
174.9426156315992
 20
114.6752282438188
 30
0.0
 10
174.9422156453211
 20
114.767792308855
 30
0.0
  0
SPLINE
  5
87
330
1F
100
AcDbEntity
  8
0
  6
Continuous
 62
     7
370
    15
100
AcDbSpline
210
0.0
220
0.0
230
1.0
 70
     8
 71
     3
 72
     8
 73
     4
 74
     0
 42
0.00000001
 43
0.00000001
 12
1.0
 22
0.0
 32
0.0
 13
1.0
 23
0.0
 33
0.0
 40
0.0
 40
0.0
 40
0.0
 40
0.0
 40
1.0
 40
1.0
 40
1.0
 40
1.0
 10
175.3208953017615
 20
115.5931386031841
 30
0.0
 10
175.2557900630891
 20
115.3263920225997
 30
0.0
 10
175.1979027501003
 20
115.0514358384506
 30
0.0
 10
175.1471756673767
 20
114.7680847171215
 30
0.0
  0
LINE
  5
88
330
1F
100
AcDbEntity
  8
0
  6
Continuous
 62
     7
370
    15
100
AcDbLine
 10
174.9422156228
 20
108.8753954605
 30
0.0
 11
174.9422156228
 21
107.7203901582
 31
0.0
  0
LINE
  5
89
330
1F
100
AcDbEntity
  8
0
  6
Continuous
 62
     7
370
    15
100
AcDbLine
 10
154.1422147513
 20
115.6615134892
 30
0.0
 11
154.1422147513
 21
107.9816743364
 31
0.0
  0
LINE
  5
8A
330
1F
100
AcDbEntity
  8
0
  6
Continuous
 62
     7
370
    15
100
AcDbLine
 10
174.9422156228
 20
115.9227976673
 30
0.0
 11
174.9422156228
 21
114.767792365
 31
0.0
  0
LINE
  5
8B
330
1F
100
AcDbEntity
  8
0
  6
Continuous
 62
     7
370
    15
100
AcDbLine
 10
152.6422154367
 20
115.2285006461
 30
0.0
 11
152.6422154367
 21
108.4146871795
 31
0.0
  0
LINE
  5
8C
330
1F
100
AcDbEntity
  8
0
  6
Continuous
 62
     7
370
    15
100
AcDbLine
 10
175.1471756235
 20
125.6467785784
 30
0.0
 11
175.3861313429
 21
125.6527818837
 31
0.0
  0
LINE
  5
8D
330
1F
100
AcDbEntity
  8
0
  6
Continuous
 62
     7
370
    15
100
AcDbLine
 10
174.9422156228
 20
115.9227976673
 30
0.0
 11
174.9422156228
 21
125.8416922861
 31
0.0
  0
ARC
  5
8E
330
1F
100
AcDbEntity
  8
0
  6
Continuous
 62
     7
370
    15
100
AcDbCircle
 10
175.1421525563
 20
125.8467158085
 30
0.0
 40
0.2000000000000066
100
AcDbArc
 50
181.4391666667
 51
271.4391666667
  0
LINE
  5
8F
330
1F
100
AcDbEntity
  8
0
  6
Continuous
 62
     7
370
    15
100
AcDbLine
 10
154.1422147513
 20
115.6615134892
 30
0.0
 11
154.1422147513
 21
125.3191243955
 31
0.0
  0
LINE
  5
90
330
1F
100
AcDbEntity
  8
0
  6
Continuous
 62
     7
370
    15
100
AcDbLine
 10
154.1422147513
 20
125.3191243955
 30
0.0
 11
174.9422156228
 21
125.8416922861
 31
0.0
  0
LINE
  5
91
330
1F
100
AcDbEntity
  8
0
  6
Continuous
 62
     7
370
    15
100
AcDbLine
 10
154.1422147513
 20
98.3240634301
 30
0.0
 11
154.1422147513
 21
107.9816743364
 31
0.0
  0
LINE
  5
92
330
1F
100
AcDbEntity
  8
0
  6
Continuous
 62
     7
370
    15
100
AcDbLine
 10
174.9422156228
 20
97.8014955395
 30
0.0
 11
174.9422156228
 21
107.7203901582
 31
0.0
  0
LINE
  5
93
330
1F
100
AcDbEntity
  8
0
  6
Continuous
 62
     7
370
    15
100
AcDbLine
 10
154.1422147513
 20
98.3240634301
 30
0.0
 11
174.9422156228
 21
97.8014955395
 31
0.0
  0
ARC
  5
94
330
1F
100
AcDbEntity
  8
0
  6
Continuous
 62
     7
370
    15
100
AcDbCircle
 10
175.1421525563
 20
97.7964720171
 30
0.0
 40
0.1999999999999782
100
AcDbArc
 50
88.5608333333
 51
178.5608333333
  0
LINE
  5
95
330
1F
100
AcDbEntity
  8
0
  6
Continuous
 62
     7
370
    15
100
AcDbLine
 10
175.1471756235
 20
97.9964092472
 30
0.0
 11
175.3861313429
 21
97.9904059418
 31
0.0
  0
LINE
  5
96
330
1F
100
AcDbEntity
  8
0
  6
Continuous
 62
     7
370
    15
100
AcDbLine
 10
152.6422154367
 20
124.4530987092
 30
0.0
 11
154.1422147513
 21
125.3191243955
 31
0.0
  0
LINE
  5
97
330
1F
100
AcDbEntity
  8
0
  6
Continuous
 62
     7
370
    15
100
AcDbLine
 10
152.6422154367
 20
115.2285006461
 30
0.0
 11
152.6422154367
 21
124.4530987092
 31
0.0
  0
LINE
  5
98
330
1F
100
AcDbEntity
  8
0
  6
Continuous
 62
     7
370
    15
100
AcDbLine
 10
152.6422154367
 20
99.1900891163
 30
0.0
 11
154.1422147513
 21
98.3240634301
 31
0.0
  0
LINE
  5
99
330
1F
100
AcDbEntity
  8
0
  6
Continuous
 62
     7
370
    15
100
AcDbLine
 10
152.6422154367
 20
99.1900891163
 30
0.0
 11
152.6422154367
 21
108.4146871795
 31
0.0
  0
SPLINE
  5
9A
330
1F
100
AcDbEntity
  8
0
  6
Continuous
 62
     7
370
    15
100
AcDbSpline
210
0.0
220
0.0
230
1.0
 70
     8
 71
     3
 72
     8
 73
     4
 74
     0
 42
0.00000001
 43
0.00000001
 12
1.0
 22
0.0
 32
0.0
 13
1.0
 23
0.0
 33
0.0
 40
0.0
 40
0.0
 40
0.0
 40
0.0
 40
1.0
 40
1.0
 40
1.0
 40
1.0
 10
198.8748886573403
 20
131.5195201739982
 30
0.0
 10
198.9127115040673
 20
131.5218683318425
 30
0.0
 10
198.9514340331043
 20
131.5255837382128
 30
0.0
 10
198.9909871638833
 20
131.5310576913428
 30
0.0
  0
SPLINE
  5
9B
330
1F
100
AcDbEntity
  8
0
  6
Continuous
 62
     7
370
    15
100
AcDbSpline
210
0.0
220
0.0
230
1.0
 70
     8
 71
     3
 72
     8
 73
     4
 74
     0
 42
0.00000001
 43
0.00000001
 12
1.0
 22
0.0
 32
0.0
 13
1.0
 23
0.0
 33
0.0
 40
0.0
 40
0.0
 40
0.0
 40
0.0
 40
1.0
 40
1.0
 40
1.0
 40
1.0
 10
198.9909871638838
 20
94.4760110669207
 30
0.0
 10
198.9514340331046
 20
94.4826868219146
 30
0.0
 10
198.9127115040675
 20
94.48920583579323
 30
0.0
 10
198.8748886573404
 20
94.49598072938005
 30
0.0
  0
LINE
  5
9C
330
1F
100
AcDbEntity
  8
0
  6
Continuous
 62
     7
370
    15
100
AcDbLine
 10
207.5922310561
 20
102.5287855514
 30
0.0
 11
207.7544488221
 21
102.4462945857
 31
0.0
  0
LINE
  5
9D
330
1F
100
AcDbEntity
  8
0
  6
Continuous
 62
     7
370
    15
100
AcDbLine
 10
216.818108058
 20
132.9212600463
 30
0.0
 11
216.4901185989
 21
126.7393512749
 31
0.0
  0
LINE
  5
9E
330
1F
100
AcDbEntity
  8
0
  6
Continuous
 62
     7
370
    15
100
AcDbLine
 10
224.6639568567
 20
121.8372138315
 30
0.0
 11
225.3881495655
 21
122.7425413304
 31
0.0
  0
LINE
  5
9F
330
1F
100
AcDbEntity
  8
0
  6
Continuous
 62
     7
370
    15
100
AcDbLine
 10
225.3881495655
 20
122.7425413304
 30
0.0
 11
224.7968975663
 21
111.5987033332
 31
0.0
  0
LINE
  5
A0
330
1F
100
AcDbEntity
  8
0
  6
Continuous
 62
     7
370
    15
100
AcDbLine
 10
224.7968975663
 20
111.5987033332
 30
0.0
 11
211.7760729253
 21
93.413412767
 31
0.0
  0
ELLIPSE
  5
A1
330
1F
100
AcDbEntity
  8
0
  6
Continuous
 62
     7
370
    15
100
AcDbEllipse
 10
276.789911003
 20
111.8215939128
 30
0.0
 11
234.3158685537474
 21
-3.586401876501895
 31
0.0
210
0.0
220
0.0
230
1.0
 40
0.0861394841
 41
4.378648234518022
 42
4.432555902282593
  0
SPLINE
  5
A2
330
1F
100
AcDbEntity
  8
0
  6
Continuous
 62
     7
370
    15
100
AcDbSpline
210
0.0
220
0.0
230
1.0
 70
     8
 71
     3
 72
    12
 73
     8
 74
     0
 42
0.00000001
 43
0.00000001
 12
1.0
 22
0.0
 32
0.0
 13
1.0
 23
0.0
 33
0.0
 40
0.0
 40
0.0
 40
0.0
 40
0.0
 40
0.2500000000000017
 40
0.2500000000000017
 40
0.5000000000000033
 40
0.5000000000000033
 40
1.0
 40
1.0
 40
1.0
 40
1.0
 10
199.7409140611265
 20
93.92625095797754
 30
0.0
 10
199.7028503210345
 20
93.99672098422579
 30
0.0
 10
199.6577891865655
 20
94.06230482025191
 30
0.0
 10
199.5535276754758
 20
94.18359924191591
 30
0.0
 10
199.4938388369915
 20
94.23937869816551
 30
0.0
 10
199.3014982183516
 20
94.38230499641426
 30
0.0
 10
199.1501245616743
 20
94.44915194712166
 30
0.0
 10
198.9909871638853
 20
94.47601106692046
 30
0.0
  0
SPLINE
  5
A3
330
1F
100
AcDbEntity
  8
0
  6
Continuous
 62
     7
370
    15
100
AcDbSpline
210
0.0
220
0.0
230
1.0
 70
     8
 71
     3
 72
    10
 73
     6
 74
     0
 42
0.00000001
 43
0.00000001
 12
1.0
 22
0.0
 32
0.0
 13
1.0
 23
0.0
 33
0.0
 40
0.0
 40
0.0
 40
0.0
 40
0.0
 40
0.5
 40
0.5
 40
1.0
 40
1.0
 40
1.0
 40
1.0
 10
198.9909871638843
 20
131.5310576913457
 30
0.0
 10
199.1956858028431
 20
131.5593869470423
 30
0.0
 10
199.3854314231844
 20
131.6531098212177
 30
0.0
 10
199.6848700638179
 20
131.9327174324014
 30
0.0
 10
199.7905012480633
 20
132.1145684687892
 30
0.0
 10
199.8408144836312
 20
132.3107954826276
 30
0.0
  0
SPLINE
  5
A4
330
1F
100
AcDbEntity
  8
0
  6
Continuous
 62
     7
370
    15
100
AcDbSpline
210
0.0
220
0.0
230
1.0
 70
     8
 71
     3
 72
     8
 73
     4
 74
     0
 42
0.00000001
 43
0.00000001
 12
1.0
 22
0.0
 32
0.0
 13
1.0
 23
0.0
 33
0.0
 40
0.0
 40
0.0
 40
0.0
 40
0.0
 40
1.0
 40
1.0
 40
1.0
 40
1.0
 10
199.8408144836312
 20
132.3107954826276
 30
0.0
 10
199.9147571471514
 20
132.5991797992809
 30
0.0
 10
199.9888857788523
 20
132.8875142242403
 30
0.0
 10
200.0631797124735
 20
133.1758043018668
 30
0.0
  0
LINE
  5
A5
330
1F
100
AcDbEntity
  8
0
  6
Continuous
 62
     7
370
    15
100
AcDbLine
 10
200.0631790817
 20
133.1758035445
 30
0.0
 11
216.818108058
 21
132.9212600463
 31
0.0
  0
LINE
  5
A6
330
1F
100
AcDbEntity
  8
0
  6
Continuous
 62
     7
370
    15
100
AcDbLine
 10
199.7409135312
 20
93.9262511306
 30
0.0
 11
199.7409135312
 21
91.3215933465
 31
0.0
  0
ELLIPSE
  5
A7
330
1F
100
AcDbEntity
  8
0
  6
Continuous
 62
     7
370
    15
100
AcDbEllipse
 10
225.1217755999
 20
111.8215939128
 30
0.0
 11
14.51199975633042
 21
20.4970617133231
 31
0.0
210
0.0
220
0.0
230
1.0
 40
0.0239164208
 41
2.702839514918846
 42
4.504600188971274
  0
ELLIPSE
  5
A8
330
1F
100
AcDbEntity
  8
0
  6
Continuous
 62
     7
370
    15
100
AcDbEllipse
 10
219.9037721129
 20
103.6670362636
 30
0.0
 11
1.563815467800424
 21
2.186163837771403
 31
0.0
210
0.0
220
0.0
230
1.0
 40
0.0303242938
 41
0.0
 42
6.283185307179586
  0
LINE
  5
A9
330
1F
100
AcDbEntity
  8
0
  6
Continuous
 62
     7
370
    15
100
AcDbLine
 10
224.7968975663
 20
111.5987033332
 30
0.0
 11
222.6076673925
 21
107.2535069757
 31
0.0
  0
SPLINE
  5
AA
330
1F
100
AcDbEntity
  8
0
  6
Continuous
 62
     7
370
    15
100
AcDbSpline
210
0.0
220
0.0
230
1.0
 70
     8
 71
     3
 72
     9
 73
     5
 74
     0
 42
0.00000001
 43
0.00000001
 12
1.0
 22
0.0
 32
0.0
 13
1.0
 23
0.0
 33
0.0
 40
0.0
 40
0.0
 40
0.0
 40
0.0
 40
0.9633566133263872
 40
1.0
 40
1.0
 40
1.0
 40
1.0
 10
199.8692963481028
 20
132.6378176086599
 30
0.0
 10
199.920825519074
 20
132.8107126890407
 30
0.0
 10
199.9743147153472
 20
132.9901842139039
 30
0.0
 10
200.0600378941002
 20
133.1692422515564
 30
0.0
 10
200.0631790816862
 20
133.1758035444672
 30
0.0
  0
ARC
  5
AB
330
1F
100
AcDbEntity
  8
0
  6
Continuous
 62
     7
370
    15
100
AcDbCircle
 10
217.8392553393
 20
138.5490412522
 30
0.0
 40
6.97423416769372
100
AcDbArc
 50
269.0773813138
 51
294.8010219192
  0
LINE
  5
AC
330
1F
100
AcDbEntity
  8
0
  6
Continuous
 62
     7
370
    15
100
AcDbLine
 10
217.7269559562
 20
131.5757112675
 30
0.0
 11
216.7475063562
 21
131.5905919396
 31
0.0
  0
ARC
  5
AD
330
1F
100
AcDbEntity
  8
0
  6
Continuous
 62
     7
370
    15
100
AcDbCircle
 10
208.6914717223
 20
104.2535039963
 30
0.0
 40
1.491476368682894
100
AcDbArc
 50
242.3505601578
 51
233.3005543247
  0
LINE
  5
AE
330
1F
100
AcDbEntity
  8
0
  6
Continuous
 62
     7
370
    15
100
AcDbLine
 10
208.0554392397
 20
103.0406842106
 30
0.0
 11
207.9993363679
 21
102.9323490434
 31
0.0
  0
ARC
  5
AF
330
1F
100
AcDbEntity
  8
0
  6
Continuous
 62
     7
370
    15
100
AcDbCircle
 10
208.7135042379
 20
104.2966236872
 30
0.0
 40
1.417897567095703
100
AcDbArc
 50
242.347154077
 51
233.3035686863
  0
LINE
  5
B0
330
1F
100
AcDbEntity
  8
0
  6
Continuous
 62
     7
370
    15
100
AcDbLine
 10
207.8662038058
 20
103.1597351753
 30
0.0
 11
207.8001395077
 21
103.0576659464
 31
0.0
  0
LINE
  5
B1
330
1F
100
AcDbEntity
  8
0
  6
Continuous
 62
     7
370
    15
100
AcDbLine
 10
208.1583876371
 20
103.2359490269
 30
0.0
 11
208.0554392397
 21
103.0406842106
 31
0.0
  0
ARC
  5
B2
330
1F
100
AcDbEntity
  8
0
  6
Continuous
 62
     7
370
    15
100
AcDbCircle
 10
208.7114334392
 20
104.2918182016
 30
0.0
 40
1.191939332833754
100
AcDbArc
 50
242.3552393791
 51
233.2958255449
  0
LINE
  5
B3
330
1F
100
AcDbEntity
  8
0
  6
Continuous
 62
     7
370
    15
100
AcDbLine
 10
207.999030894
 20
103.3362021768
 30
0.0
 11
207.8662038058
 21
103.1597351753
 31
0.0
  0
LINE
  5
B4
330
1F
100
AcDbEntity
  8
0
  6
Continuous
 62
     7
370
    15
100
AcDbLine
 10
207.8001395077
 20
103.0576659464
 30
0.0
 11
207.3039494664
 21
102.0728221261
 31
0.0
  0
LINE
  5
B5
330
1F
100
AcDbEntity
  8
0
  6
Continuous
 62
     7
370
    15
100
AcDbLine
 10
207.3564276308
 20
102.0607614988
 30
0.0
 11
207.999030894
 21
103.3362021768
 31
0.0
  0
LWPOLYLINE
  5
B6
330
1F
100
AcDbEntity
  8
0
  6
Continuous
 62
     7
370
    15
100
AcDbPolyline
 90
        3
 70
   128
 43
0.0
 10
207.9963598609
 20
103.33090202
 10
208.292229867
 20
103.1958630406
 10
208.3553362846
 20
103.1533621349
  0
LINE
  5
B7
330
1F
100
AcDbEntity
  8
0
  6
Continuous
 62
     7
370
    15
100
AcDbLine
 10
207.9993363679
 20
102.9323490434
 30
0.0
 11
207.5030084908
 21
101.9472360709
 31
0.0
  0
LWPOLYLINE
  5
B8
330
1F
100
AcDbEntity
  8
0
  6
Continuous
 62
     7
370
    15
100
AcDbPolyline
 90
       47
 70
   128
 43
0.0
 10
209.438773638
 20
107.0932859653
 10
210.0889373779
 20
106.6542064869
 10
210.7921678782
 20
106.3058368959
 10
211.5353595674
 20
106.0546666482
 10
212.3046692669
 20
105.9053756394
 10
213.085765785
 20
105.860743402
 10
213.8641018629
 20
105.921603004
 10
214.6251786709
 20
106.0868191631
 10
215.3548140287
 20
106.3533152551
 10
216.0394218028
 20
106.7161268652
 10
216.666246599
 20
107.1684949198
 10
217.2236096323
 20
107.7019932778
 10
217.7011322439
 20
108.3066833303
 10
218.0899147153
 20
108.9713011966
 10
218.3827188075
 20
109.68346634
 10
218.5740906954
 20
110.4299121867
 10
218.660461551
 20
111.1967342072
 10
218.6402220488
 20
111.9696477468
 10
218.5137558937
 20
112.7342549367
 10
218.2834100187
 20
113.4763125661
 10
217.9534834087
 20
114.1819974505
 10
217.5301190674
 20
114.8381642629
 10
217.0211997092
 20
115.4325895109
 10
216.436209923
 20
115.9542004676
 10
215.7860424578
 20
116.3932804116
 10
215.0828156829
 20
116.7416500025
 10
214.3396239936
 20
116.9928197847
 10
213.5703142941
 20
117.142111259
 10
212.7892177761
 20
117.1867430308
 10
212.0108816981
 20
117.1258838945
 10
211.2498048902
 20
116.9606672698
 10
210.520165807
 20
116.6941711777
 10
209.8355617583
 20
116.3313600332
 10
209.2087369621
 20
115.8789919787
 10
208.6513739288
 20
115.3454936207
 10
208.1738513172
 20
114.7408035682
 10
207.7850669831
 20
114.0761854691
 10
207.4922628909
 20
113.3640204421
 10
207.3008928657
 20
112.617574479
 10
207.2145220101
 20
111.8507525276
 10
207.2347596496
 20
111.0778390062
 10
207.3612276673
 20
110.3132317872
 10
207.5915716797
 20
109.571174216
 10
207.9215001524
 20
108.8654892151
 10
208.3448644936
 20
108.2093224027
 10
208.8537838519
 20
107.6148969219
 10
209.438773638
 20
107.0932859653
  0
CIRCLE
  5
B9
330
1F
100
AcDbEntity
  8
0
  6
Continuous
 62
     7
370
    15
100
AcDbCircle
 10
213.1121700801
 20
111.9085320962
 30
0.0
 40
2.485302721516759
  0
SPLINE
  5
BA
330
1F
100
AcDbEntity
  8
0
  6
Continuous
 62
     7
370
    15
100
AcDbSpline
210
0.0
220
0.0
230
1.0
 70
     8
 71
     3
 72
    11
 73
     7
 74
     0
 42
0.00000001
 43
0.00000001
 12
1.0
 22
0.0
 32
0.0
 13
1.0
 23
0.0
 33
0.0
 40
0.0
 40
0.0
 40
0.0
 40
0.0
 40
0.1208908189357651
 40
0.4766708764989829
 40
0.8143660549306112
 40
1.0
 40
1.0
 40
1.0
 40
1.0
 10
213.4013388514597
 20
114.0861850795353
 30
0.0
 10
213.4666562543966
 20
114.025378435444
 30
0.0
 10
213.7242018975041
 20
113.7856186539227
 30
0.0
 10
214.2226319076471
 20
113.3587024716993
 30
0.0
 10
214.7956489317527
 20
112.9441145410653
 30
0.0
 10
215.1110550051667
 20
112.7413057679492
 30
0.0
 10
215.2229350268919
 20
112.6693659676256
 30
0.0
  0
SPLINE
  5
BB
330
1F
100
AcDbEntity
  8
0
  6
Continuous
 62
     7
370
    15
100
AcDbSpline
210
0.0
220
0.0
230
1.0
 70
     8
 71
     3
 72
    11
 73
     7
 74
     0
 42
0.00000001
 43
0.00000001
 12
1.0
 22
0.0
 32
0.0
 13
1.0
 23
0.0
 33
0.0
 40
0.0
 40
0.0
 40
0.0
 40
0.0
 40
0.2164526394161349
 40
0.4403049805120099
 40
0.7518953011066702
 40
1.0
 40
1.0
 40
1.0
 40
1.0
 10
211.2735945940096
 20
113.253566050438
 30
0.0
 10
211.4130319385634
 20
113.2980696521538
 30
0.0
 10
211.6966734660681
 20
113.3885982663534
 30
0.0
 10
212.2361667713234
 20
113.5826535036071
 30
0.0
 10
212.8328142351877
 20
113.8264149084013
 30
0.0
 10
213.2267242464729
 20
114.0064002038735
 30
0.0
 10
213.4013388514597
 20
114.0861850795353
 30
0.0
  0
SPLINE
  5
BC
330
1F
100
AcDbEntity
  8
0
  6
Continuous
 62
     7
370
    15
100
AcDbSpline
210
0.0
220
0.0
230
1.0
 70
     8
 71
     3
 72
    11
 73
     7
 74
     0
 42
0.00000001
 43
0.00000001
 12
1.0
 22
0.0
 32
0.0
 13
1.0
 23
0.0
 33
0.0
 40
0.0
 40
0.0
 40
0.0
 40
0.0
 40
0.2164526149712327
 40
0.4403054906125782
 40
0.7518959462451812
 40
1.0
 40
1.0
 40
1.0
 40
1.0
 10
210.9674465119917
 20
111.0041279094311
 30
0.0
 10
210.9821051372138
 20
111.1456838319747
 30
0.0
 10
211.0119235488369
 20
111.4336353077883
 30
0.0
 10
211.0803833902267
 20
111.9940554502473
 30
0.0
 10
211.1717529432577
 20
112.6308146236448
 30
0.0
 10
211.2423153524443
 20
113.0622966418023
 30
0.0
 10
211.2735945940096
 20
113.253566050438
 30
0.0
  0
SPLINE
  5
BD
330
1F
100
AcDbEntity
  8
0
  6
Continuous
 62
     7
370
    15
100
AcDbSpline
210
0.0
220
0.0
230
1.0
 70
     8
 71
     3
 72
    11
 73
     7
 74
     0
 42
0.00000001
 43
0.00000001
 12
1.0
 22
0.0
 32
0.0
 13
1.0
 23
0.0
 33
0.0
 40
0.0
 40
0.0
 40
0.0
 40
0.0
 40
0.1856327974839344
 40
0.5233280361084617
 40
0.8791081276543488
 40
1.0
 40
1.0
 40
1.0
 40
1.0
 10
212.7890426874239
 20
109.587308681106
 30
0.0
 10
212.6771640181002
 20
109.6592486260584
 30
0.0
 10
212.3617604628385
 20
109.8620586392671
 30
0.0
 10
211.7887423790278
 20
110.2766446087266
 30
0.0
 10
211.2903144768606
 20
110.703563535655
 30
0.0
 10
211.0327652451988
 20
110.9433213684346
 30
0.0
 10
210.9674465119917
 20
111.0041279094311
 30
0.0
  0
SPLINE
  5
BE
330
1F
100
AcDbEntity
  8
0
  6
Continuous
 62
     7
370
    15
100
AcDbSpline
210
0.0
220
0.0
230
1.0
 70
     8
 71
     3
 72
    11
 73
     7
 74
     0
 42
0.00000001
 43
0.00000001
 12
1.0
 22
0.0
 32
0.0
 13
1.0
 23
0.0
 33
0.0
 40
0.0
 40
0.0
 40
0.0
 40
0.0
 40
0.2164520136154662
 40
0.4403056590537232
 40
0.751894964074967
 40
1.0
 40
1.0
 40
1.0
 40
1.0
 10
214.916786944874
 20
110.4199278266186
 30
0.0
 10
214.7647235187852
 20
110.3503623562679
 30
0.0
 10
214.455396818961
 20
110.2088526065615
 30
0.0
 10
213.8944930084435
 20
109.9723068278959
 30
0.0
 10
213.3107540491492
 20
109.7541614484492
 30
0.0
 10
212.9492795232639
 20
109.6385553309811
 30
0.0
 10
212.7890426874239
 20
109.587308681106
 30
0.0
  0
SPLINE
  5
BF
330
1F
100
AcDbEntity
  8
0
  6
Continuous
 62
     7
370
    15
100
AcDbSpline
210
0.0
220
0.0
230
1.0
 70
     8
 71
     3
 72
    11
 73
     7
 74
     0
 42
0.00000001
 43
0.00000001
 12
1.0
 22
0.0
 32
0.0
 13
1.0
 23
0.0
 33
0.0
 40
0.0
 40
0.0
 40
0.0
 40
0.0
 40
0.2164527135365609
 40
0.4403055279243101
 40
0.7518958716457573
 40
1.0
 40
1.0
 40
1.0
 40
1.0
 10
215.2229350268919
 20
112.6693659676256
 30
0.0
 10
215.1956503375998
 20
112.5027483821113
 30
0.0
 10
215.1401481481068
 20
112.1638168771526
 30
0.0
 10
215.0502790627464
 20
111.5609032562043
 30
0.0
 10
214.9718159168735
 20
110.949762206302
 30
0.0
 10
214.933688329854
 20
110.5826591025499
 30
0.0
 10
214.916786944874
 20
110.4199278266186
 30
0.0
  0
LINE
  5
C0
330
1F
100
AcDbEntity
  8
0
  6
Continuous
 62
     7
370
    15
100
AcDbLine
 10
214.7263799071
 20
110.3339935285
 30
0.0
 11
214.8250069678
 21
111.0586559149
 31
0.0
  0
LINE
  5
C1
330
1F
100
AcDbEntity
  8
0
  6
Continuous
 62
     7
370
    15
100
AcDbLine
 10
214.8250069678
 20
111.0586559149
 30
0.0
 11
214.9780791462
 21
112.1833749854
 31
0.0
  0
LINE
  5
C2
330
1F
100
AcDbEntity
  8
0
  6
Continuous
 62
     7
370
    15
100
AcDbLine
 10
214.9780791462
 20
112.1833749854
 30
0.0
 11
215.2229350269
 21
112.6693659676
 31
0.0
  0
LINE
  5
C3
330
1F
100
AcDbEntity
  8
0
  6
Continuous
 62
     7
370
    15
100
AcDbLine
 10
213.1564829707
 20
113.6001940682
 30
0.0
 11
213.4013388515
 21
114.0861850795
 31
0.0
  0
LINE
  5
C4
330
1F
100
AcDbEntity
  8
0
  6
Continuous
 62
     7
370
    15
100
AcDbLine
 10
213.1564829707
 20
113.6001940682
 30
0.0
 11
212.092610842
 21
113.1838846118
 31
0.0
  0
LINE
  5
C5
330
1F
100
AcDbEntity
  8
0
  6
Continuous
 62
     7
370
    15
100
AcDbLine
 10
212.092610842
 20
113.1838846118
 30
0.0
 11
211.2068038642
 21
112.8372542658
 31
0.0
  0
LINE
  5
C6
330
1F
100
AcDbEntity
  8
0
  6
Continuous
 62
     7
370
    15
100
AcDbLine
 10
214.9780791462
 20
112.1833749854
 30
0.0
 11
214.0672791958
 21
112.8917845995
 31
0.0
  0
LINE
  5
C7
330
1F
100
AcDbEntity
  8
0
  6
Continuous
 62
     7
370
    15
100
AcDbLine
 10
214.0672791958
 20
112.8917845995
 30
0.0
 11
213.1564829707
 21
113.6001940682
 31
0.0
  0
ARC
  5
C8
330
1F
100
AcDbEntity
  8
0
  6
Continuous
 62
     7
370
    15
100
AcDbCircle
 10
212.8225629302
 20
111.223107214
 30
0.0
 40
5.717763576592446
100
AcDbArc
 50
231.5165432218
 51
332.5863037317
  0
ARC
  5
C9
330
1F
100
AcDbEntity
  8
0
  6
Continuous
 62
     7
370
    15
100
AcDbCircle
 10
212.7104482134
 20
111.2504389163
 30
0.0
 40
5.670358779759676
100
AcDbArc
 50
153.6758179631
 51
232.5752477696
  0
ARC
  5
CA
330
1F
100
AcDbEntity
  8
0
  6
Continuous
 62
     7
370
    15
100
AcDbCircle
 10
212.7966196997
 20
111.3746646966
 30
0.0
 40
1.941366831244965
100
AcDbArc
 50
111.2621499134
 51
150.9954402691
  0
ARC
  5
CB
330
1F
100
AcDbEntity
  8
0
  6
Continuous
 62
     7
370
    15
100
AcDbCircle
 10
212.8225913665
 20
111.2980602419
 30
0.0
 40
2.02217831068752
100
AcDbArc
 50
52.0104068212
 51
111.1608368957
  0
ARC
  5
CC
330
1F
100
AcDbEntity
  8
0
  6
Continuous
 62
     7
370
    15
100
AcDbCircle
 10
212.8539610265
 20
111.3170883042
 30
0.0
 40
1.987915843956419
100
AcDbArc
 50
352.5303108967
 51
52.3854134441
  0
ARC
  5
CD
330
1F
100
AcDbEntity
  8
0
  6
Continuous
 62
     7
370
    15
100
AcDbCircle
 10
212.915618294
 20
111.3179136175
 30
0.0
 40
1.92690935543308
100
AcDbArc
 50
323.9681520848
 51
352.2676392109
  0
ARC
  5
CE
330
1F
100
AcDbEntity
  8
0
  6
Continuous
 62
     7
370
    15
100
AcDbCircle
 10
212.921887312
 20
111.0912724148
 30
0.0
 40
5.818910991395477
100
AcDbArc
 50
329.8212124389
 51
14.6653250262
  0
ARC
  5
CF
330
1F
100
AcDbEntity
  8
0
  6
Continuous
 62
     7
370
    15
100
AcDbCircle
 10
212.8010711835
 20
111.1777136603
 30
0.0
 40
5.96682223063928
100
AcDbArc
 50
113.3812710689
 51
329.6868669137
  0
LWPOLYLINE
  5
D0
330
1F
100
AcDbEntity
  8
0
  6
Continuous
 62
     7
370
    15
100
AcDbPolyline
 90
       43
 70
   128
 43
0.0
 10
212.6872603059
 20
104.1109652356
 10
213.5551262856
 20
104.152769512
 10
214.4093167245
 20
104.3011394427
 10
215.2365509629
 20
104.5537672103
 10
216.023961848
 20
104.906723565
 10
216.7593043506
 20
105.354519757
 10
217.4311418295
 20
105.8901913562
 10
218.0290248454
 20
106.5054072165
 10
218.5436587989
 20
107.1905993954
 10
218.9670343161
 20
107.9351110016
 10
219.2925725341
 20
108.7273635999
 10
219.5152033329
 20
109.5550355599
 10
219.6314696431
 20
110.4052544902
 10
219.6395609737
 20
111.2647976475
 10
219.5393543899
 20
112.1202968566
 10
219.3324070633
 20
112.9584470396
 10
219.0219339192
 20
113.7662130273
 10
218.6127666593
 20
114.5310320058
 10
218.1112718046
 20
115.2410094724
 10
217.5252426624
 20
115.8851028518
 10
216.8637987435
 20
116.4532957696
 10
216.137221849
 20
116.9367509061
 10
215.3568182349
 20
117.3279496939
 10
214.5347211719
 20
117.6208078028
 10
213.6837158561
 20
117.8107705996
 10
212.817038244
 20
117.8948834636
 10
211.948166436
 20
117.8718388178
 10
211.0906157851
 20
117.7419947558
 10
210.2577228308
 20
117.5073708505
 10
209.4624404073
 20
117.1716155582
 10
208.7171364784
 20
116.7399512702
 10
208.0334004223
 20
116.2190909595
 10
207.4218716681
 20
115.6171355029
 10
206.8920571566
 20
114.9434467875
 10
206.4521972299
 20
114.2085021925
 10
206.109131521
 20
113.423732189
 10
205.8681983709
 20
112.6013414683
 10
205.7331435591
 20
111.7541203999
 10
205.7060662866
 20
110.8952452992
 10
205.7873912364
 20
110.0380736967
 10
205.9758480847
 20
109.1959369001
 10
206.2685106158
 20
108.3819318661
 10
206.6608246625
 20
107.6087185279
  0
SPLINE
  5
D1
330
1F
100
AcDbEntity
  8
0
  6
Continuous
 62
     7
370
    15
100
AcDbSpline
210
0.0
220
0.0
230
1.0
 70
     8
 71
     3
 72
    14
 73
    10
 74
     0
 42
0.00000001
 43
0.00000001
 12
1.0
 22
0.0
 32
0.0
 13
1.0
 23
0.0
 33
0.0
 40
0.0
 40
0.0
 40
0.0
 40
0.0
 40
0.240687798327369
 40
0.3654957648036777
 40
0.4913834833604118
 40
0.5985918738125083
 40
0.7015339651977944
 40
0.8683340157867149
 40
1.0
 40
1.0
 40
1.0
 40
1.0
 10
212.6872603058893
 20
104.1109652356262
 30
0.0
 10
212.5946679837627
 20
104.3043724642477
 30
0.0
 10
212.4540621789576
 20
104.5980704557323
 30
0.0
 10
212.075367406295
 20
104.8984052714327
 30
0.0
 10
211.7230516085504
 20
105.0370695552836
 30
0.0
 10
211.3616713617576
 20
105.0598490005737
 30
0.0
 10
210.9796751039379
 20
104.9856001316264
 30
0.0
 10
210.6251634294333
 20
104.8111002240752
 30
0.0
 10
210.424322418563
 20
104.62749319615
 30
0.0
 10
210.3357229590494
 20
104.5464963749999
 30
0.0
  0
ARC
  5
D2
330
1F
100
AcDbEntity
  8
0
  6
Continuous
 62
     7
370
    15
100
AcDbCircle
 10
212.7394729833
 20
111.0903523705
 30
0.0
 40
6.971374718725357
100
AcDbArc
 50
249.5308144877
 51
249.8302371958
  0
SPLINE
  5
D3
330
1F
100
AcDbEntity
  8
0
  6
Continuous
 62
     7
370
    15
100
AcDbSpline
210
0.0
220
0.0
230
1.0
 70
     8
 71
     3
 72
    14
 73
    10
 74
     0
 42
0.00000001
 43
0.00000001
 12
1.0
 22
0.0
 32
0.0
 13
1.0
 23
0.0
 33
0.0
 40
0.0
 40
0.0
 40
0.0
 40
0.0
 40
0.2406880325819765
 40
0.3654955179120939
 40
0.4913834642113118
 40
0.5985921402053691
 40
0.7015342786497138
 40
0.8683342354506409
 40
0.9999999999999999
 40
0.9999999999999999
 40
0.9999999999999999
 40
0.9999999999999999
 10
210.3015583217222
 20
104.5591474608535
 30
0.0
 10
210.2718724750899
 20
104.7779375352557
 30
0.0
 10
210.2267931922808
 20
105.1101800264997
 30
0.0
 10
209.9602664389396
 20
105.528231818479
 30
0.0
 10
209.6712624367375
 20
105.7799617143291
 30
0.0
 10
209.3401038606747
 20
105.9216480342585
 30
0.0
 10
208.9613901666016
 20
105.975569478137
 30
0.0
 10
208.5789173061057
 20
105.9228401563486
 30
0.0
 10
208.3369134286765
 20
105.810812390504
 30
0.0
 10
208.230155354746
 20
105.7613922380859
 30
0.0
  0
ARC
  5
D4
330
1F
100
AcDbEntity
  8
0
  6
Continuous
 62
     7
370
    15
100
AcDbCircle
 10
212.54622945
 20
110.9422012178
 30
0.0
 40
6.743091077575374
100
AcDbArc
 50
229.8933797634
 51
230.2026974886
  0
SPLINE
  5
D5
330
1F
100
AcDbEntity
  8
0
  6
Continuous
 62
     7
370
    15
100
AcDbSpline
210
0.0
220
0.0
230
1.0
 70
     8
 71
     3
 72
    14
 73
    10
 74
     0
 42
0.00000001
 43
0.00000001
 12
1.0
 22
0.0
 32
0.0
 13
1.0
 23
0.0
 33
0.0
 40
0.0
 40
0.0
 40
0.0
 40
0.0
 40
0.2406877844233359
 40
0.3654955772481742
 40
0.4913836228961064
 40
0.5985913532567865
 40
0.7015344733809078
 40
0.8683340815269189
 40
0.9999999999999999
 40
0.9999999999999999
 40
0.9999999999999999
 40
0.9999999999999999
 10
208.2022492051203
 20
105.7847684347088
 30
0.0
 10
208.2407916865251
 20
106.0060029771716
 30
0.0
 10
208.2993202343007
 20
106.34195790317
 30
0.0
 10
208.1795045566016
 20
106.8320712660335
 30
0.0
 10
207.9894467198561
 20
107.1680425489543
 30
0.0
 10
207.7279876858856
 20
107.4106213262503
 30
0.0
 10
207.3967176227711
 20
107.5831960613693
 30
0.0
 10
207.0299518891859
 20
107.6537121296153
 30
0.0
 10
206.7738168091474
 20
107.6224913500856
 30
0.0
 10
206.6608246624548
 20
107.6087185279483
 30
0.0
  0
LINE
  5
D6
330
1F
100
AcDbEntity
  8
0
  6
Continuous
 62
     7
370
    15
100
AcDbLine
 10
212.2870933473
 20
103.3167086639
 30
0.0
 11
212.6872603059
 21
104.1109652356
 31
0.0
  0
LINE
  5
D7
330
1F
100
AcDbEntity
  8
0
  6
Continuous
 62
     7
370
    15
100
AcDbLine
 10
210.111009723
 20
103.8213159987
 30
0.0
 11
210.2171320677
 21
103.863096992
 31
0.0
  0
SPLINE
  5
D8
330
1F
100
AcDbEntity
  8
0
  6
Continuous
 62
     7
370
    15
100
AcDbSpline
210
0.0
220
0.0
230
1.0
 70
     8
 71
     3
 72
     9
 73
     5
 74
     0
 42
0.00000001
 43
0.00000001
 12
1.0
 22
0.0
 32
0.0
 13
1.0
 23
0.0
 33
0.0
 40
0.0
 40
0.0
 40
0.0
 40
0.0
 40
0.5895801624119479
 40
1.0
 40
1.0
 40
1.0
 40
1.0
 10
212.0561067223627
 20
103.4962294721062
 30
0.0
 10
212.1118268104952
 20
103.4613253679145
 30
0.0
 10
212.2063348887598
 20
103.402123742051
 30
0.0
 10
212.2635933421697
 20
103.3415637046573
 30
0.0
 10
212.2870933473188
 20
103.3167086639458
 30
0.0
  0
LINE
  5
D9
330
1F
100
AcDbEntity
  8
0
  6
Continuous
 62
     7
370
    15
100
AcDbLine
 10
210.335722959
 20
104.546496375
 30
0.0
 11
210.1797115266
 21
104.2368465201
 31
0.0
  0
LINE
  5
DA
330
1F
100
AcDbEntity
  8
0
  6
Continuous
 62
     7
370
    15
100
AcDbLine
 10
210.1765375793
 20
104.3110068054
 30
0.0
 11
210.3015583217
 21
104.5591474609
 31
0.0
  0
LINE
  5
DB
330
1F
100
AcDbEntity
  8
0
  6
Continuous
 62
     7
370
    15
100
AcDbLine
 10
208.2301553547
 20
105.7613922381
 30
0.0
 11
208.1616882444
 21
105.6255001673
 31
0.0
  0
LINE
  5
DC
330
1F
100
AcDbEntity
  8
0
  6
Continuous
 62
     7
370
    15
100
AcDbLine
 10
208.1127640069
 20
105.6071573035
 30
0.0
 11
208.2022492051
 21
105.7847684347
 31
0.0
  0
LINE
  5
DD
330
1F
100
AcDbEntity
  8
0
  6
Continuous
 62
     7
370
    15
100
AcDbLine
 10
206.2606577039
 20
106.8144619563
 30
0.0
 11
206.5451748878
 21
106.6919245855
 31
0.0
  0
LINE
  5
DE
330
1F
100
AcDbEntity
  8
0
  6
Continuous
 62
     7
370
    15
100
AcDbLine
 10
206.6608246625
 20
107.6087185279
 30
0.0
 11
206.2606577039
 21
106.8144619563
 31
0.0
  0
ARC
  5
DF
330
1F
100
AcDbEntity
  8
0
  6
Continuous
 62
     7
370
    15
100
AcDbCircle
 10
212.4183865638
 20
110.1699779298
 30
0.0
 40
6.854526791738166
100
AcDbArc
 50
268.9024760608
 51
333.0264190191
  0
ARC
  5
E0
330
1F
100
AcDbEntity
  8
0
  6
Continuous
 62
     7
370
    15
100
AcDbCircle
 10
212.1388250566
 20
110.3036711901
 30
0.0
 40
6.835746667589838
100
AcDbArc
 50
153.4402417582
 51
210.6928568186
  0
SPLINE
  5
E1
330
1F
100
AcDbEntity
  8
0
  6
Continuous
 62
     7
370
    15
100
AcDbSpline
210
0.0
220
0.0
230
1.0
 70
     8
 71
     3
 72
     9
 73
     5
 74
     0
 42
0.00000001
 43
0.00000001
 12
1.0
 22
0.0
 32
0.0
 13
1.0
 23
0.0
 33
0.0
 40
0.0
 40
0.0
 40
0.0
 40
0.0
 40
0.495226195337486
 40
1.0
 40
1.0
 40
1.0
 40
1.0
 10
201.486843472727
 20
106.6515233465487
 30
0.0
 10
201.3187923728055
 20
106.3407381863805
 30
0.0
 10
200.9794502671099
 20
105.7131761488827
 30
0.0
 10
200.7744488515828
 20
105.0299493638588
 30
0.0
 10
200.670969507106
 20
104.685074380135
 30
0.0
  0
SPLINE
  5
E2
330
1F
100
AcDbEntity
  8
0
  6
Continuous
 62
     7
370
    15
100
AcDbSpline
210
0.0
220
0.0
230
1.0
 70
     8
 71
     3
 72
    16
 73
    12
 74
     0
 42
0.00000001
 43
0.00000001
 12
1.0
 22
0.0
 32
0.0
 13
1.0
 23
0.0
 33
0.0
 40
0.0
 40
0.0
 40
0.0
 40
0.0
 40
0.0967398640545977
 40
0.1936257117575992
 40
0.3126069945616525
 40
0.4317664254847456
 40
0.5957972509477836
 40
0.760031921357146
 40
0.8792872321450853
 40
0.9985545142025387
 40
1.0
 40
1.0
 40
1.0
 40
1.0
 10
200.670969507106
 20
104.685074380135
 30
0.0
 10
200.5884209179148
 20
104.3074032413285
 30
0.0
 10
200.4231991709862
 20
103.5514910454996
 30
0.0
 10
200.3628620688228
 20
102.3303209076884
 30
0.0
 10
200.4581417560462
 20
101.0722942811477
 30
0.0
 10
200.762044614427
 20
99.65748185652501
 30
0.0
 10
201.3038283102467
 20
98.2286756419231
 30
0.0
 10
202.0312176869724
 20
96.98185349872604
 30
0.0
 10
202.8036425503224
 20
96.00728812372375
 30
0.0
 10
203.3165202916045
 20
95.50230790852254
 30
0.0
 10
203.5863947863419
 20
95.26890996094814
 30
0.0
 10
203.5896264225323
 20
95.26611511642282
 30
0.0
  0
SPLINE
  5
E3
330
1F
100
AcDbEntity
  8
0
  6
Continuous
 62
     7
370
    15
100
AcDbSpline
210
0.0
220
0.0
230
1.0
 70
     8
 71
     3
 72
    16
 73
    12
 74
     0
 42
0.00000001
 43
0.00000001
 12
1.0
 22
0.0
 32
0.0
 13
1.0
 23
0.0
 33
0.0
 40
0.0
 40
0.0
 40
0.0
 40
0.0
 40
0.0967397573052703
 40
0.193625777638475
 40
0.3126069851474836
 40
0.4317663748688094
 40
0.5957970754902563
 40
0.7600318825445573
 40
0.8792872469726928
 40
0.9985544634909861
 40
1.0
 40
1.0
 40
1.0
 40
1.0
 10
213.1115894973356
 20
97.39557859534567
 30
0.0
 10
212.8230986770913
 20
97.13857803574035
 30
0.0
 10
212.2456808608042
 20
96.62418835156868
 30
0.0
 10
211.2164299540307
 20
95.9707475078549
 30
0.0
 10
210.0825349860677
 20
95.4329468488355
 30
0.0
 10
208.7153343441336
 20
94.99730548069202
 30
0.0
 10
207.2247103048393
 20
94.75937665474873
 30
0.0
 10
205.8047540464719
 20
94.77077255914872
 30
0.0
 10
204.5993604628343
 20
94.95510611638765
 30
0.0
 10
203.9220204287585
 20
95.14750515908734
 30
0.0
 10
203.5935597427613
 20
95.26471156841713
 30
0.0
 10
203.5896264225323
 20
95.26611511642282
 30
0.0
  0
SPLINE
  5
E4
330
1F
100
AcDbEntity
  8
0
  6
Continuous
 62
     7
370
    15
100
AcDbSpline
210
0.0
220
0.0
230
1.0
 70
     8
 71
     3
 72
     9
 73
     5
 74
     0
 42
0.00000001
 43
0.00000001
 12
1.0
 22
0.0
 32
0.0
 13
1.0
 23
0.0
 33
0.0
 40
0.0
 40
0.0
 40
0.0
 40
0.0
 40
0.4952263142994702
 40
1.0
 40
1.0
 40
1.0
 40
1.0
 10
214.4277904391367
 20
99.06886351341551
 30
0.0
 10
214.238775495753
 20
98.7703619123402
 30
0.0
 10
213.8571016268048
 20
98.16760395611658
 30
0.0
 10
213.3616702296761
 20
97.65455314448474
 30
0.0
 10
213.1115894973356
 20
97.39557859534567
 30
0.0
  0
SPLINE
  5
E5
330
1F
100
AcDbEntity
  8
0
  6
Continuous
 62
     7
370
    15
100
AcDbSpline
210
0.0
220
0.0
230
1.0
 70
     8
 71
     3
 72
    10
 73
     6
 74
     0
 42
0.00000001
 43
0.00000001
 12
1.0
 22
0.0
 32
0.0
 13
1.0
 23
0.0
 33
0.0
 40
0.0
 40
0.0
 40
0.0
 40
0.0
 40
0.1480674186617708
 40
0.9078075844292386
 40
1.0
 40
1.0
 40
1.0
 40
1.0
 10
213.2310595572073
 20
96.97311298037117
 30
0.0
 10
213.258885584801
 20
97.01218820079512
 30
0.0
 10
213.4294881327645
 20
97.25176002412196
 30
0.0
 10
213.6486560657681
 20
97.57762921918683
 30
0.0
 10
213.8284950652786
 20
97.88476689811424
 30
0.0
 10
213.8479564547617
 20
97.91800399357622
 30
0.0
  0
ARC
  5
E6
330
1F
100
AcDbEntity
  8
0
  6
Continuous
 62
     7
370
    15
100
AcDbCircle
 10
207.3664910111
 20
101.6734467116
 30
0.0
 40
7.515736917733904
100
AcDbArc
 50
157.9757125441
 51
321.2885270832
  0
SPLINE
  5
E7
330
1F
100
AcDbEntity
  8
0
  6
Continuous
 62
     7
370
    15
100
AcDbSpline
210
0.0
220
0.0
230
1.0
 70
     8
 71
     3
 72
     9
 73
     5
 74
     0
 42
0.00000001
 43
0.00000001
 12
1.0
 22
0.0
 32
0.0
 13
1.0
 23
0.0
 33
0.0
 40
0.0
 40
0.0
 40
0.0
 40
0.0
 40
0.2820661792998169
 40
1.0
 40
1.0
 40
1.0
 40
1.0
 10
200.3992151677687
 20
104.4918449693376
 30
0.0
 10
200.4182763439955
 20
104.5353986871468
 30
0.0
 10
200.4858533086432
 20
104.6898082583943
 30
0.0
 10
200.582994865021
 20
104.8760357861259
 30
0.0
 10
200.6527360737402
 20
105.0097348266298
 30
0.0
  0
LWPOLYLINE
  5
E8
330
1F
100
AcDbEntity
  8
0
  6
Continuous
 62
     7
370
    15
100
AcDbPolyline
 90
        9
 70
   128
 43
0.0
 10
201.4868434727
 20
106.6515233465
 10
202.1939166099
 20
107.8573816554
 10
202.9006377071
 20
109.0616720826
 10
203.6064535588
 20
110.2634522463
 10
204.3108109593
 20
111.4617825001
 10
205.0131604284
 20
112.6557255262
 10
205.712950623
 20
113.8443473824
 10
206.4096357882
 20
115.0267189001
 10
207.1026720315
 20
116.2019145773
  0
SPLINE
  5
E9
330
1F
100
AcDbEntity
  8
0
  6
Continuous
 62
     7
370
    15
100
AcDbSpline
210
0.0
220
0.0
230
1.0
 70
     8
 71
     3
 72
    13
 73
     9
 74
     0
 42
0.00000001
 43
0.00000001
 12
1.0
 22
0.0
 32
0.0
 13
1.0
 23
0.0
 33
0.0
 40
0.0
 40
0.0
 40
0.0
 40
0.0
 40
0.1635392067253817
 40
0.3270849188899661
 40
0.4958210228916398
 40
0.6645722613146332
 40
0.8317544779095485
 40
1.0
 40
1.0
 40
1.0
 40
1.0
 10
207.1026720315296
 20
116.2019145772809
 30
0.0
 10
207.5772255807043
 20
116.968743267032
 30
0.0
 10
208.5263515563574
 20
118.502431150274
 30
0.0
 10
210.1448879478707
 20
120.6435657252625
 30
0.0
 10
211.8976295592689
 20
122.6500410194054
 30
0.0
 10
213.7803574590089
 20
124.4851658013432
 30
0.0
 10
215.7522238200532
 20
126.1461781914077
 30
0.0
 10
217.1295012221456
 20
127.0927556976818
 30
0.0
 10
217.8203229069788
 20
127.567544775551
 30
0.0
  0
SPLINE
  5
EA
330
1F
100
AcDbEntity
  8
0
  6
Continuous
 62
     7
370
    15
100
AcDbSpline
210
0.0
220
0.0
230
1.0
 70
     8
 71
     3
 72
    13
 73
     9
 74
     0
 42
0.00000001
 43
0.00000001
 12
1.0
 22
0.0
 32
0.0
 13
1.0
 23
0.0
 33
0.0
 40
0.0
 40
0.0
 40
0.0
 40
0.0
 40
0.1635392322476189
 40
0.3270848991957336
 40
0.4958211367559899
 40
0.6645723577983532
 40
0.8317545639002709
 40
1.0
 40
1.0
 40
1.0
 40
1.0
 10
220.0436208605844
 20
108.6192545113171
 30
0.0
 10
220.4855897553533
 20
109.4051760115325
 30
0.0
 10
221.3695449348313
 20
110.9770499352434
 30
0.0
 10
222.4653612170488
 20
113.4244683495612
 30
0.0
 10
223.381107748511
 20
115.9213774408873
 30
0.0
 10
224.0868825106012
 20
118.4461289915388
 30
0.0
 10
224.5995226677275
 20
120.9621650976479
 30
0.0
 10
224.7721079073739
 20
122.6146215077321
 30
0.0
 10
224.8586740553457
 20
123.4434686698968
 30
0.0
  0
LWPOLYLINE
  5
EB
330
1F
100
AcDbEntity
  8
0
  6
Continuous
 62
     7
370
    15
100
AcDbPolyline
 90
        9
 70
   128
 43
0.0
 10
214.4277904391
 20
99.0688635134
 10
215.1348654389
 20
100.2747213566
 10
215.8415865362
 20
101.4790117838
 10
216.5474023879
 20
102.6807922968
 10
217.251761651
 20
103.8791222596
 10
217.9541092575
 20
105.0730652274
 10
218.6539013147
 20
106.2616870836
 10
219.3505864799
 20
107.4440583684
 10
220.0436208606
 20
108.6192545113
  0
SPLINE
  5
EC
330
1F
100
AcDbEntity
  8
0
  6
Continuous
 62
     7
370
    15
100
AcDbSpline
210
0.0
220
0.0
230
1.0
 70
     8
 71
     3
 72
    10
 73
     6
 74
     0
 42
0.00000001
 43
0.00000001
 12
1.0
 22
0.0
 32
0.0
 13
1.0
 23
0.0
 33
0.0
 40
0.0
 40
0.0
 40
0.0
 40
0.0
 40
0.1467898571700722
 40
0.9235764520202651
 40
0.9999999999999999
 40
0.9999999999999999
 40
0.9999999999999999
 40
0.9999999999999999
 10
211.918799972542
 20
103.6840111115033
 30
0.0
 10
211.8443771032119
 20
103.6868412724688
 30
0.0
 10
211.3761212514101
 20
103.7046481569058
 30
0.0
 10
210.8685133678793
 20
103.8100106257862
 30
0.0
 10
210.4664894403515
 20
103.9711073223311
 30
0.0
 10
210.4304794430811
 20
103.9855370395834
 30
0.0
  0
SPLINE
  5
ED
330
1F
100
AcDbEntity
  8
0
  6
Continuous
 62
     7
370
    15
100
AcDbSpline
210
0.0
220
0.0
230
1.0
 70
     8
 71
     3
 72
     9
 73
     5
 74
     0
 42
0.00000001
 43
0.00000001
 12
1.0
 22
0.0
 32
0.0
 13
1.0
 23
0.0
 33
0.0
 40
0.0
 40
0.0
 40
0.0
 40
0.0
 40
0.2460870683705178
 40
1.0
 40
1.0
 40
1.0
 40
1.0
 10
207.7791735738594
 20
105.5401393310184
 30
0.0
 10
207.6829272534439
 20
105.6194946893643
 30
0.0
 10
207.2918204754536
 20
105.9419633134631
 30
0.0
 10
206.9927881145014
 20
106.3544132909643
 30
0.0
 10
206.7673437506039
 20
106.6653646626527
 30
0.0
  0
SPLINE
  5
EE
330
1F
100
AcDbEntity
  8
0
  6
Continuous
 62
     7
370
    15
100
AcDbSpline
210
0.0
220
0.0
230
1.0
 70
     8
 71
     3
 72
    17
 73
    13
 74
     0
 42
0.00000001
 43
0.00000001
 12
1.0
 22
0.0
 32
0.0
 13
1.0
 23
0.0
 33
0.0
 40
0.0
 40
0.0
 40
0.0
 40
0.0
 40
0.0543299973883665
 40
0.1637957666327702
 40
0.273501371823859
 40
0.3821579933086075
 40
0.4888258867094873
 40
0.5936818531241009
 40
0.6979994098151657
 40
0.8033366903614068
 40
0.9106159991647735
 40
1.0
 40
1.0
 40
1.0
 40
1.0
 10
209.5360595941622
 20
102.6359118619019
 30
0.0
 10
209.5009724066643
 20
102.5572183820446
 30
0.0
 10
209.3951904620397
 20
102.3199708303818
 30
0.0
 10
209.059456379669
 20
102.0242401292506
 30
0.0
 10
208.5870771338594
 20
101.8004528654952
 30
0.0
 10
208.0646708251565
 20
101.7544189961691
 30
0.0
 10
207.5666342585613
 20
101.883935870675
 30
0.0
 10
207.1468444278572
 20
102.1694233372008
 30
0.0
 10
206.8457727562331
 20
102.5763698945985
 30
0.0
 10
206.6971123887674
 20
103.0605917419232
 30
0.0
 10
206.6981156544666
 20
103.5512747262688
 30
0.0
 10
206.8267186767989
 20
103.8363201278033
 30
0.0
 10
206.8851690948088
 20
103.9658740260655
 30
0.0
  0
LINE
  5
EF
330
1F
100
AcDbEntity
  8
0
  6
Continuous
 62
     7
370
    15
100
AcDbLine
 10
219.4293428421
 20
107.4000319564
 30
0.0
 11
214.630133307
 21
99.2554837936
 31
0.0
  0
ARC
  5
F0
330
1F
100
AcDbEntity
  8
0
  6
Continuous
 62
     7
370
    15
100
AcDbCircle
 10
416.2578924434
 20
-19.5566974343
 30
0.0
 40
234.0300999070018
100
AcDbArc
 50
149.4906435877
 51
149.8699728866
  0
SPLINE
  5
F1
330
1F
100
AcDbEntity
  8
0
  6
Continuous
 62
     7
370
    15
100
AcDbSpline
210
0.0
220
0.0
230
1.0
 70
     8
 71
     3
 72
    13
 73
     9
 74
     0
 42
0.00000001
 43
0.00000001
 12
1.0
 22
0.0
 32
0.0
 13
1.0
 23
0.0
 33
0.0
 40
0.0
 40
0.0
 40
0.0
 40
0.0
 40
0.181488214724895
 40
0.3629329103966704
 40
0.5450608195705229
 40
0.7270575621807857
 40
0.8953897224568557
 40
1.0
 40
1.0
 40
1.0
 40
1.0
 10
224.8586740553457
 20
123.4434686698968
 30
0.0
 10
224.8774494032452
 20
123.7107422028753
 30
0.0
 10
224.9149955969042
 20
124.2452251793206
 30
0.0
 10
224.9257433833938
 20
124.9321221880561
 30
0.0
 10
224.9067806912809
 20
125.5033011258125
 30
0.0
 10
224.8620075155819
 20
125.9095428829834
 30
0.0
 10
224.8090293027484
 20
126.1371024368531
 30
0.0
 10
224.7702550589025
 20
126.156618551515
 30
0.0
 10
224.7553941071112
 20
126.1640984662825
 30
0.0
  0
LWPOLYLINE
  5
F2
330
1F
100
AcDbEntity
  8
0
  6
Continuous
 62
     7
370
    15
100
AcDbPolyline
 90
        3
 70
   128
 43
0.0
 10
220.6423793197
 20
109.6226279256
 10
220.1243031979
 20
108.6304993001
 10
219.4293428421
 20
107.4000319564
  0
SPLINE
  5
F3
330
1F
100
AcDbEntity
  8
0
  6
Continuous
 62
     7
370
    15
100
AcDbSpline
210
0.0
220
0.0
230
1.0
 70
     8
 71
     3
 72
    13
 73
     9
 74
     0
 42
0.00000001
 43
0.00000001
 12
1.0
 22
0.0
 32
0.0
 13
1.0
 23
0.0
 33
0.0
 40
0.0
 40
0.0
 40
0.0
 40
0.0
 40
0.1814878380649798
 40
0.3629325990986773
 40
0.545060505937444
 40
0.7270573965114255
 40
0.8953897144451006
 40
1.0
 40
1.0
 40
1.0
 40
1.0
 10
217.8203229069788
 20
127.567544775551
 30
0.0
 10
218.0479928709782
 20
127.7124168877355
 30
0.0
 10
218.5032787603911
 20
128.0021267259958
 30
0.0
 10
219.1116593108283
 20
128.338844380525
 30
0.0
 10
219.6357719768727
 20
128.5918129066296
 30
0.0
 10
220.0301496140621
 20
128.7407352602828
 30
0.0
 10
220.2711465715459
 20
128.7960461875856
 30
0.0
 10
220.3173980821659
 20
128.7657397445346
 30
0.0
 10
220.3351248264391
 20
128.7541242414171
 30
0.0
  0
LINE
  5
F4
330
1F
100
AcDbEntity
  8
0
  6
Continuous
 62
     7
370
    15
100
AcDbLine
 10
224.6667023957
 20
121.8598542833
 30
0.0
 11
225.7646609306
 21
123.2324337685
 31
0.0
  0
LINE
  5
F5
330
1F
100
AcDbEntity
  8
0
  6
Continuous
 62
     7
370
    15
100
AcDbLine
 10
216.5162626863
 20
126.7912473627
 30
0.0
 11
216.5078584313
 21
126.6328405687
 31
0.0
  0
ARC
  5
F6
330
1F
100
AcDbEntity
  8
0
  6
Continuous
 62
     7
370
    15
100
AcDbCircle
 10
216.9013751594
 20
126.7710317989
 30
0.0
 40
0.3856426921112994
100
AcDbArc
 50
141.351860803
 51
176.9951521522
  0
LINE
  5
F7
330
1F
100
AcDbEntity
  8
0
  6
Continuous
 62
     7
370
    15
100
AcDbLine
 10
225.9297322691
 20
138.6749187582
 30
0.0
 11
216.6001897514
 21
127.0118795433
 31
0.0
  0
ARC
  5
F8
330
1F
100
AcDbEntity
  8
0
  6
Continuous
 62
     7
370
    15
100
AcDbCircle
 10
226.2401605591
 20
138.4195948891
 30
0.0
 40
0.4019402957938853
100
AcDbArc
 50
357.3430771578
 51
140.5630775131
  0
LINE
  5
F9
330
1F
100
AcDbEntity
  8
0
  6
Continuous
 62
     7
370
    15
100
AcDbLine
 10
225.8485879958
 20
123.453065949
 30
0.0
 11
226.6416687727
 21
138.4009627723
 31
0.0
  0
ARC
  5
FA
330
1F
100
AcDbEntity
  8
0
  6
Continuous
 62
     7
370
    15
100
AcDbCircle
 10
225.4634755226
 20
123.4732815129
 30
0.0
 40
0.3856426921112757
100
AcDbArc
 50
321.351860803
 51
356.9951521522
  0
ARC
  5
FB
330
1F
100
AcDbEntity
  8
0
  6
Continuous
 62
     7
370
    15
100
AcDbCircle
 10
226.2403406107
 20
138.4199964735
 30
0.0
 40
0.3818418446605312
100
AcDbArc
 50
357.3431368074
 51
140.5631901376
  0
LINE
  5
FC
330
1F
100
AcDbEntity
  8
0
  6
Continuous
 62
     7
370
    15
100
AcDbLine
 10
225.9454343677
 20
138.6625526571
 30
0.0
 11
216.61589185
 21
126.9995143735
 31
0.0
  0
ARC
  5
FD
330
1F
100
AcDbEntity
  8
0
  6
Continuous
 62
     7
370
    15
100
AcDbCircle
 10
216.9019910446
 20
126.7707163479
 30
0.0
 40
0.3663349364787249
100
AcDbArc
 50
141.350124585
 51
176.996104645
  0
LINE
  5
FE
330
1F
100
AcDbEntity
  8
0
  6
Continuous
 62
     7
370
    15
100
AcDbLine
 10
216.5361594617
 20
126.7899137088
 30
0.0
 11
216.5286120236
 21
126.6476197266
 31
0.0
  0
LINE
  5
FF
330
1F
100
AcDbEntity
  8
0
  6
Continuous
 62
     7
370
    15
100
AcDbLine
 10
224.6712733269
 20
121.8975607404
 30
0.0
 11
225.748958832
 21
123.2447989383
 31
0.0
  0
ARC
  5
100
330
1F
100
AcDbEntity
  8
0
  6
Continuous
 62
     7
370
    15
100
AcDbCircle
 10
225.4628596374
 20
123.4735969639
 30
0.0
 40
0.3663349364787056
100
AcDbArc
 50
321.350124585
 51
356.996104645
  0
LINE
  5
101
330
1F
100
AcDbEntity
  8
0
  6
Continuous
 62
     7
370
    15
100
AcDbLine
 10
225.8286912203
 20
123.454399603
 30
0.0
 11
226.6217719972
 21
138.4022964262
 31
0.0
  0
LINE
  5
102
330
1F
100
AcDbEntity
  8
0
  6
Continuous
 62
     7
370
    15
100
AcDbLine
 10
225.0870306254
 20
123.5344104567
 30
0.0
 11
225.4315342963
 21
123.4417755255
 31
0.0
  0
LINE
  5
103
330
1F
100
AcDbEntity
  8
0
  6
Continuous
 62
     7
370
    15
100
AcDbLine
 10
222.4190373182
 20
131.0549529367
 30
0.0
 11
220.5125194252
 21
128.671579259
 31
0.0
  0
ARC
  5
104
330
1F
100
AcDbEntity
  8
0
  6
Continuous
 62
     7
370
    15
100
AcDbCircle
 10
223.1951090404
 20
130.4166431887
 30
0.0
 40
1.004851557410692
100
AcDbArc
 50
357.3431367794
 51
140.5631103141
  0
LINE
  5
105
330
1F
100
AcDbEntity
  8
0
  6
Continuous
 62
     7
370
    15
100
AcDbLine
 10
224.000333643
 20
126.6279194602
 30
0.0
 11
224.19888044
 21
130.3700639033
 31
0.0
  0
LINE
  5
106
330
1F
100
AcDbEntity
  8
0
  6
Continuous
 62
     7
370
    15
100
AcDbLine
 10
225.0072833359
 20
135.2220663899
 30
0.0
 11
226.2246150732
 21
138.3896714174
 31
0.0
  0
LINE
  5
107
330
1F
100
AcDbEntity
  8
0
  6
Continuous
 62
     7
370
    15
100
AcDbLine
 10
225.0072833359
 20
135.2220663899
 30
0.0
 11
223.3549010217
 21
133.1563910567
 31
0.0
  0
LINE
  5
108
330
1F
100
AcDbEntity
  8
0
  6
Continuous
 62
     7
370
    15
100
AcDbLine
 10
224.8668175399
 20
132.5746012949
 30
0.0
 11
225.0072833359
 21
135.2220663899
 31
0.0
  0
LWPOLYLINE
  5
109
330
1F
100
AcDbEntity
  8
0
  6
Continuous
 62
     7
370
    15
100
AcDbPolyline
 90
        3
 70
   128
 43
0.0
 10
225.3720935643
 20
122.4398940899
 10
225.3834631503
 20
122.4585466185
 10
225.3930147946
 20
122.4763292917
  0
SPLINE
  5
10A
330
1F
100
AcDbEntity
  8
0
  6
Continuous
 62
     7
370
    15
100
AcDbSpline
210
0.0
220
0.0
230
1.0
 70
     8
 71
     3
 72
     9
 73
     5
 74
     0
 42
0.00000001
 43
0.00000001
 12
1.0
 22
0.0
 32
0.0
 13
1.0
 23
0.0
 33
0.0
 40
0.0
 40
0.0
 40
0.0
 40
0.0
 40
0.9826882904622928
 40
1.0
 40
1.0
 40
1.0
 40
1.0
 10
225.0870306253511
 20
123.5344104566628
 30
0.0
 10
225.0163805592533
 20
123.5536539737488
 30
0.0
 10
224.9444858732339
 20
123.5732364978031
 30
0.0
 10
224.8698713079311
 20
123.6020353516357
 30
0.0
 10
224.8685796022493
 20
123.6025339090282
 30
0.0
  0
ARC
  5
10B
330
1F
100
AcDbEntity
  8
0
  6
Continuous
 62
     7
370
    15
100
AcDbCircle
 10
223.0942517562
 20
130.2188817305
 30
0.0
 40
2.429446561574019
100
AcDbArc
 50
59.1097485567
 51
78.7964487482
  0
SPLINE
  5
10C
330
1F
100
AcDbEntity
  8
0
  6
Continuous
 62
     7
370
    15
100
AcDbSpline
210
0.0
220
0.0
230
1.0
 70
     8
 71
     3
 72
    14
 73
    10
 74
     0
 42
0.00000001
 43
0.00000001
 12
1.0
 22
0.0
 32
0.0
 13
1.0
 23
0.0
 33
0.0
 40
0.0
 40
0.0
 40
0.0
 40
0.0
 40
0.223497726267952
 40
0.3567615424365344
 40
0.4531213662778901
 40
0.5344620576452459
 40
0.6157337862637965
 40
0.7396161671863809
 40
1.0
 40
1.0
 40
1.0
 40
1.0
 10
223.3549010217268
 20
133.1563910567219
 30
0.0
 10
223.3202628169679
 20
133.1089740858461
 30
0.0
 10
223.2649710716632
 20
133.0332840466237
 30
0.0
 10
223.2256253227637
 20
132.9198642802824
 30
0.0
 10
223.2224445871946
 20
132.8370817700684
 30
0.0
 10
223.2441532555471
 20
132.770793614711
 30
0.0
 10
223.2918576057025
 20
132.7099928318624
 30
0.0
 10
223.3978518605758
 20
132.6412609410052
 30
0.0
 10
223.4982502062973
 20
132.6178763281663
 30
0.0
 10
223.5662814438421
 20
132.6020306074078
 30
0.0
  0
SPLINE
  5
10D
330
1F
100
AcDbEntity
  8
0
  6
Continuous
 62
     7
370
    15
100
AcDbSpline
210
0.0
220
0.0
230
1.0
 70
     8
 71
     3
 72
    14
 73
    10
 74
     0
 42
0.00000001
 43
0.00000001
 12
1.0
 22
0.0
 32
0.0
 13
1.0
 23
0.0
 33
0.0
 40
0.0
 40
0.0
 40
0.0
 40
0.0
 40
0.2210606889712518
 40
0.3460779297725601
 40
0.4396011992241775
 40
0.533888052337937
 40
0.6146551886047326
 40
0.7517251286713975
 40
1.0
 40
1.0
 40
1.0
 40
1.0
 10
224.3415180802423
 20
132.3037168108875
 30
0.0
 10
224.3931997987121
 20
132.274992244639
 30
0.0
 10
224.4741092639742
 20
132.2300229718699
 30
0.0
 10
224.5891002724347
 20
132.2018615160426
 30
0.0
 10
224.6733371137956
 20
132.2059324682654
 30
0.0
 10
224.7392821259548
 20
132.2367000960207
 30
0.0
 10
224.7966625590857
 20
132.2962889185459
 30
0.0
 10
224.8502609502082
 20
132.4083146765121
 30
0.0
 10
224.8603300754592
 20
132.509444245815
 30
0.0
 10
224.8668175399382
 20
132.5746012949402
 30
0.0
  0
LINE
  5
10E
330
1F
100
AcDbEntity
  8
0
  6
Continuous
 62
     7
370
    15
100
AcDbLine
 10
225.3719222009
 20
122.4366698512
 30
0.0
 11
225.4271496296
 21
122.5057125189
 31
0.0
  0
LINE
  5
10F
330
1F
100
AcDbEntity
  8
0
  6
Continuous
 62
     7
370
    15
100
AcDbLine
 10
225.4271496296
 20
122.5057125189
 30
0.0
 11
225.429425782
 21
122.5485943356
 31
0.0
  0
LINE
  5
110
330
1F
100
AcDbEntity
  8
0
  6
Continuous
 62
     7
370
    15
100
AcDbLine
 10
225.3695156634
 20
122.3913172358
 30
0.0
 11
225.4271496296
 21
122.5057125189
 31
0.0
  0
SPLINE
  5
111
330
1F
100
AcDbEntity
  8
0
  6
HIDDEN
 62
     7
370
     0
100
AcDbSpline
210
0.0
220
0.0
230
1.0
 70
     8
 71
     3
 72
    12
 73
     8
 74
     0
 42
0.00000001
 43
0.00000001
 12
1.0
 22
0.0
 32
0.0
 13
1.0
 23
0.0
 33
0.0
 40
0.0
 40
0.0
 40
0.0
 40
0.0
 40
0.4999999999999976
 40
0.4999999999999976
 40
0.7499999999999988
 40
0.7499999999999988
 40
1.0
 40
1.0
 40
1.0
 40
1.0
 10
183.3143100261849
 20
130.8563501959677
 30
0.0
 10
183.3330032593153
 20
130.8781439495957
 30
0.0
 10
183.3586585567272
 20
130.8991641113053
 30
0.0
 10
183.4188191794136
 20
130.926869457269
 30
0.0
 10
183.442891491168
 20
130.9355046734624
 30
0.0
 10
183.5012730115185
 20
130.948719318689
 30
0.0
 10
183.5367418391716
 20
130.9532502930192
 30
0.0
 10
183.5741176473203
 20
130.9532502930192
 30
0.0
  0
LINE
  5
112
330
1F
100
AcDbEntity
  8
0
  6
HIDDEN
 62
     7
370
     0
100
AcDbLine
 10
183.5741175547
 20
130.9532506489
 30
0.0
 11
185.7103135645
 21
130.9532506489
 31
0.0
  0
SPLINE
  5
113
330
1F
100
AcDbEntity
  8
0
  6
HIDDEN
 62
     7
370
     0
100
AcDbSpline
210
0.0
220
0.0
230
1.0
 70
     8
 71
     3
 72
    12
 73
     8
 74
     0
 42
0.00000001
 43
0.00000001
 12
1.0
 22
0.0
 32
0.0
 13
1.0
 23
0.0
 33
0.0
 40
0.0
 40
0.0
 40
0.0
 40
0.0
 40
0.2500000000000027
 40
0.2500000000000027
 40
0.5000000000000053
 40
0.5000000000000053
 40
1.0
 40
1.0
 40
1.0
 40
1.0
 10
185.7103136433219
 20
130.9532502930192
 30
0.0
 10
185.7478255293665
 20
130.9532502930192
 30
0.0
 10
185.7831128770712
 20
130.9487467487566
 30
0.0
 10
185.8420427253096
 20
130.9353735493033
 30
0.0
 10
185.8655684517787
 20
130.9268886467322
 30
0.0
 10
185.9258272395467
 20
130.8991408428976
 30
0.0
 10
185.9514220018362
 20
130.8781509791573
 30
0.0
 10
185.9701212644572
 20
130.8563501959677
 30
0.0
  0
ELLIPSE
  5
114
330
1F
100
AcDbEntity
  8
0
  6
HIDDEN
 62
     7
370
     0
100
AcDbEllipse
 10
175.6932864729
 20
111.8215939128
 30
0.0
 11
9.367417879781785
 21
19.74174915274996
 31
0.0
210
0.0
220
0.0
230
1.0
 40
0.3419987131
 41
5.185211263708409
 42
6.132113578252568
  0
SPLINE
  5
115
330
1F
100
AcDbEntity
  8
0
  6
HIDDEN
 62
     7
370
     0
100
AcDbSpline
210
0.0
220
0.0
230
1.0
 70
     8
 71
     3
 72
    12
 73
     8
 74
     0
 42
0.00000001
 43
0.00000001
 12
1.0
 22
0.0
 32
0.0
 13
1.0
 23
0.0
 33
0.0
 40
0.0
 40
0.0
 40
0.0
 40
0.0
 40
0.5000000000000027
 40
0.5000000000000027
 40
0.7500000000000013
 40
0.7500000000000013
 40
1.0
 40
1.0
 40
1.0
 40
1.0
 10
185.9701212644572
 20
117.959839039845
 30
0.0
 10
185.9514280313267
 20
117.8922564034047
 30
0.0
 10
185.925772733915
 20
117.8257738339272
 30
0.0
 10
185.8656121112285
 20
117.7367787510297
 30
0.0
 10
185.8415397994742
 20
117.7087768540306
 30
0.0
 10
185.7831582791236
 20
117.6657004533654
 30
0.0
 10
185.7476894514706
 20
117.6508069084376
 30
0.0
 10
185.7103136433219
 20
117.6508069084376
 30
0.0
  0
LINE
  5
116
330
1F
100
AcDbEntity
  8
0
  6
HIDDEN
 62
     7
370
     0
100
AcDbLine
 10
185.7103135645
 20
117.6508070999
 30
0.0
 11
183.5741175547
 21
117.6508070999
 31
0.0
  0
SPLINE
  5
117
330
1F
100
AcDbEntity
  8
0
  6
HIDDEN
 62
     7
370
     0
100
AcDbSpline
210
0.0
220
0.0
230
1.0
 70
     8
 71
     3
 72
    12
 73
     8
 74
     0
 42
0.00000001
 43
0.00000001
 12
1.0
 22
0.0
 32
0.0
 13
1.0
 23
0.0
 33
0.0
 40
0.0
 40
0.0
 40
0.0
 40
0.0
 40
0.2499999999999966
 40
0.2499999999999966
 40
0.4999999999999931
 40
0.4999999999999931
 40
1.0
 40
1.0
 40
1.0
 40
1.0
 10
183.5741176473202
 20
117.6508069084376
 30
0.0
 10
183.5366057612756
 20
117.6508069084376
 30
0.0
 10
183.5013184135709
 20
117.6656117227245
 30
0.0
 10
183.4423885653324
 20
117.7092035958503
 30
0.0
 10
183.4188628388634
 20
117.7367170219363
 30
0.0
 10
183.3586040510953
 20
117.8258487540498
 30
0.0
 10
183.333009288806
 20
117.8922346046676
 30
0.0
 10
183.3143100261849
 20
117.959839039845
 30
0.0
  0
ELLIPSE
  5
118
330
1F
100
AcDbEntity
  8
0
  6
HIDDEN
 62
     7
370
     0
100
AcDbEllipse
 10
193.5911448178
 20
111.8215939128
 30
0.0
 11
-9.367417879781668
 21
19.74174915274997
 31
0.0
210
0.0
220
0.0
230
1.0
 40
0.3419987131
 41
0.1510717289270615
 42
1.097974043471191
  0
SPLINE
  5
119
330
1F
100
AcDbEntity
  8
0
  6
HIDDEN
 62
     7
370
     0
100
AcDbSpline
210
0.0
220
0.0
230
1.0
 70
     8
 71
     3
 72
    12
 73
     8
 74
     0
 42
0.00000001
 43
0.00000001
 12
1.0
 22
0.0
 32
0.0
 13
1.0
 23
0.0
 33
0.0
 40
0.0
 40
0.0
 40
0.0
 40
0.0
 40
0.5000000000000053
 40
0.5000000000000053
 40
0.7500000000000027
 40
0.7500000000000027
 40
1.0
 40
1.0
 40
1.0
 40
1.0
 10
183.3143100261849
 20
105.6833487857267
 30
0.0
 10
183.3330032593153
 20
105.750931422167
 30
0.0
 10
183.3586585567272
 20
105.8174139916445
 30
0.0
 10
183.4188191794136
 20
105.906409074542
 30
0.0
 10
183.442891491168
 20
105.9344109715411
 30
0.0
 10
183.5012730115185
 20
105.9774873722063
 30
0.0
 10
183.5367418391716
 20
105.992380917134
 30
0.0
 10
183.5741176473202
 20
105.992380917134
 30
0.0
  0
LINE
  5
11A
330
1F
100
AcDbEntity
  8
0
  6
HIDDEN
 62
     7
370
     0
100
AcDbLine
 10
183.5741175547
 20
105.9923807257
 30
0.0
 11
185.7103135645
 21
105.9923807257
 31
0.0
  0
SPLINE
  5
11B
330
1F
100
AcDbEntity
  8
0
  6
HIDDEN
 62
     7
370
     0
100
AcDbSpline
210
0.0
220
0.0
230
1.0
 70
     8
 71
     3
 72
    12
 73
     8
 74
     0
 42
0.00000001
 43
0.00000001
 12
1.0
 22
0.0
 32
0.0
 13
1.0
 23
0.0
 33
0.0
 40
0.0
 40
0.0
 40
0.0
 40
0.0
 40
0.2500000000000003
 40
0.2500000000000003
 40
0.5000000000000006
 40
0.5000000000000006
 40
1.0
 40
1.0
 40
1.0
 40
1.0
 10
185.7103136433219
 20
105.992380917134
 30
0.0
 10
185.7478255293665
 20
105.992380917134
 30
0.0
 10
185.7831128770712
 20
105.9775761028472
 30
0.0
 10
185.8420427253096
 20
105.9339842297214
 30
0.0
 10
185.8655684517787
 20
105.9064708036355
 30
0.0
 10
185.9258272395467
 20
105.8173390715218
 30
0.0
 10
185.9514220018361
 20
105.7509532209041
 30
0.0
 10
185.9701212644572
 20
105.6833487857267
 30
0.0
  0
ELLIPSE
  5
11C
330
1F
100
AcDbEntity
  8
0
  6
HIDDEN
 62
     7
370
     0
100
AcDbEllipse
 10
175.6932864729
 20
111.8215939128
 30
0.0
 11
-9.367417879781728
 21
19.74174915274996
 31
0.0
210
0.0
220
0.0
230
1.0
 40
0.3419987131
 41
3.292664382516903
 42
4.239566697061006
  0
SPLINE
  5
11D
330
1F
100
AcDbEntity
  8
0
  6
HIDDEN
 62
     7
370
     0
100
AcDbSpline
210
0.0
220
0.0
230
1.0
 70
     8
 71
     3
 72
    12
 73
     8
 74
     0
 42
0.00000001
 43
0.00000001
 12
1.0
 22
0.0
 32
0.0
 13
1.0
 23
0.0
 33
0.0
 40
0.0
 40
0.0
 40
0.0
 40
0.0
 40
0.5
 40
0.5
 40
0.75
 40
0.75
 40
1.0
 40
1.0
 40
1.0
 40
1.0
 10
185.9701212644572
 20
92.7868376296038
 30
0.0
 10
185.9514280313267
 20
92.76504387597583
 30
0.0
 10
185.925772733915
 20
92.7440237142662
 30
0.0
 10
185.8656121112285
 20
92.7163183683025
 30
0.0
 10
185.8415397994742
 20
92.70768315210911
 30
0.0
 10
185.7831582791236
 20
92.69446850688254
 30
0.0
 10
185.7476894514706
 20
92.68993753255234
 30
0.0
 10
185.7103136433219
 20
92.68993753255234
 30
0.0
  0
LINE
  5
11E
330
1F
100
AcDbEntity
  8
0
  6
HIDDEN
 62
     7
370
     0
100
AcDbLine
 10
185.7103135645
 20
92.6899371767
 30
0.0
 11
183.5741175547
 21
92.6899371767
 31
0.0
  0
SPLINE
  5
11F
330
1F
100
AcDbEntity
  8
0
  6
HIDDEN
 62
     7
370
     0
100
AcDbSpline
210
0.0
220
0.0
230
1.0
 70
     8
 71
     3
 72
    12
 73
     8
 74
     0
 42
0.00000001
 43
0.00000001
 12
1.0
 22
0.0
 32
0.0
 13
1.0
 23
0.0
 33
0.0
 40
0.0
 40
0.0
 40
0.0
 40
0.0
 40
0.2499999999999973
 40
0.2499999999999973
 40
0.4999999999999947
 40
0.4999999999999947
 40
1.0
 40
1.0
 40
1.0
 40
1.0
 10
183.5741176473202
 20
92.6899375325523
 30
0.0
 10
183.5366057612756
 20
92.6899375325523
 30
0.0
 10
183.5013184135708
 20
92.6944410768149
 30
0.0
 10
183.4423885653324
 20
92.70781427626818
 30
0.0
 10
183.4188628388634
 20
92.71629917883932
 30
0.0
 10
183.3586040510953
 20
92.7440469826739
 30
0.0
 10
183.333009288806
 20
92.76503684641426
 30
0.0
 10
183.3143100261849
 20
92.7868376296038
 30
0.0
  0
ELLIPSE
  5
120
330
1F
100
AcDbEntity
  8
0
  6
HIDDEN
 62
     7
370
     0
100
AcDbEllipse
 10
193.5911448178
 20
111.8215939128
 30
0.0
 11
9.367417879781584
 21
19.74174915274996
 31
0.0
210
0.0
220
0.0
230
1.0
 40
0.3419987131
 41
2.043618610118588
 42
2.990520924662721
  0
SPLINE
  5
121
330
1F
100
AcDbEntity
  8
0
  6
HIDDEN
 62
     7
370
     0
100
AcDbSpline
210
0.0
220
0.0
230
1.0
 70
     8
 71
     3
 72
    58
 73
    54
 74
     0
 42
0.00000001
 43
0.00000001
 12
1.0
 22
0.0
 32
0.0
 13
1.0
 23
0.0
 33
0.0
 40
-0.0625000000000002
 40
-0.0625000000000002
 40
0.0
 40
0.0
 40
0.03125
 40
0.03125
 40
0.0625
 40
0.0625
 40
0.09375
 40
0.09375
 40
0.1250000000000001
 40
0.1250000000000001
 40
0.1874999999999998
 40
0.1874999999999998
 40
0.2499999999999994
 40
0.2499999999999994
 40
0.2812499999999995
 40
0.2812499999999995
 40
0.3124999999999996
 40
0.3124999999999996
 40
0.3437499999999997
 40
0.3437499999999997
 40
0.3749999999999997
 40
0.3749999999999997
 40
0.4062499999999998
 40
0.4062499999999998
 40
0.4374999999999998
 40
0.4374999999999998
 40
0.4687499999999999
 40
0.4687499999999999
 40
0.5
 40
0.5
 40
0.5625000000000001
 40
0.5625000000000001
 40
0.6250000000000002
 40
0.6250000000000002
 40
0.6562500000000002
 40
0.6562500000000002
 40
0.6875000000000001
 40
0.6875000000000001
 40
0.71875
 40
0.71875
 40
0.7499999999999999
 40
0.7499999999999999
 40
0.7812499999999998
 40
0.7812499999999998
 40
0.8124999999999997
 40
0.8124999999999997
 40
0.8437499999999996
 40
0.8437499999999996
 40
0.8749999999999994
 40
0.8749999999999994
 40
0.9374999999999998
 40
0.9374999999999998
 40
1.0
 40
1.0
 40
1.03125
 40
1.03125
 10
190.642215645321
 20
111.5571577983377
 30
0.0
 10
190.642215645321
 20
111.9538119700097
 30
0.0
 10
190.6292336076489
 20
112.0838041308502
 30
0.0
 10
190.5783828053906
 20
112.3395237433025
 30
0.0
 10
190.5398909013376
 20
112.4665824271636
 30
0.0
 10
190.4394756156112
 20
112.7087456248225
 30
0.0
 10
190.3780394763381
 20
112.8235874092072
 30
0.0
 10
190.2329060000273
 20
113.0409296067774
 30
0.0
 10
190.1484843111762
 20
113.1437712546251
 30
0.0
 10
189.8718841370113
 20
113.4203147353767
 30
0.0
 10
189.6488852257442
 20
113.5692973715088
 30
0.0
 10
189.1676507081586
 20
113.7688404350635
 30
0.0
 10
188.9043512926496
 20
113.8214509080949
 30
0.0
 10
188.5127878526093
 20
113.8216649668475
 30
0.0
 10
188.3802002420046
 20
113.8086661174419
 30
0.0
 10
188.1236345364053
 20
113.7576160334155
 30
0.0
 10
187.9989247702248
 20
113.7198447946033
 30
0.0
 10
187.7566855851978
 20
113.6196528864908
 30
0.0
 10
187.6396689314241
 20
113.5570674926663
 30
0.0
 10
187.4230257265778
 20
113.4123624069558
 30
0.0
 10
187.3220189701194
 20
113.3297430655755
 30
0.0
 10
187.1352128744628
 20
113.1430990307855
 30
0.0
 10
187.0524993389309
 20
113.0421531828256
 30
0.0
 10
186.9076292095556
 20
112.8256719791439
 30
0.0
 10
186.8449589134589
 20
112.7087548141355
 30
0.0
 10
186.7445309754227
 20
112.466558344937
 30
0.0
 10
186.7066597964929
 20
112.3418973540335
 30
0.0
 10
186.6553973987172
 20
112.0854980049655
 30
0.0
 10
186.6422637580766
 20
111.9528870796677
 30
0.0
 10
186.6421198249378
 20
111.5612124673326
 30
0.0
 10
186.6944850822025
 20
111.297928447672
 30
0.0
 10
186.8936457455532
 20
110.8164157338122
 30
0.0
 10
187.0424434189152
 20
110.5932946467672
 30
0.0
 10
187.3187440775013
 20
110.3164624982597
 30
0.0
 10
187.4215091245611
 20
110.2319552839754
 30
0.0
 10
187.6387263983555
 20
110.0866343422895
 30
0.0
 10
187.7534960917932
 20
110.0251121190274
 30
0.0
 10
187.9954826289379
 20
109.9245157157554
 30
0.0
 10
188.1225652018293
 20
109.8858878276668
 30
0.0
 10
188.3782399018325
 20
109.8348097176006
 30
0.0
 10
188.5081804191767
 20
109.8217205778335
 30
0.0
 10
188.772443786938
 20
109.8214690594749
 30
0.0
 10
188.902654680585
 20
109.8343435295313
 30
0.0
 10
189.1584046260186
 20
109.8849624266633
 30
0.0
 10
189.2854220103859
 20
109.9233102454591
 30
0.0
 10
189.5277737381376
 20
110.0235443656525
 30
0.0
 10
189.6426765174239
 20
110.0848885526425
 30
0.0
 10
189.860098682573
 20
110.2297935571717
 30
0.0
 10
189.9630350800177
 20
110.3141324492936
 30
0.0
 10
190.2398722371746
 20
110.5905335623354
 30
0.0
 10
190.3890274782387
 20
110.8133771953779
 30
0.0
 10
190.588998063474
 20
111.2944404766284
 30
0.0
 10
190.642215645321
 20
111.5571577983377
 30
0.0
 10
190.642215645321
 20
111.9538119700097
 30
0.0
  0
LINE
  5
122
330
1F
100
AcDbEntity
  8
0
  6
HIDDEN
 62
     7
370
     0
100
AcDbLine
 10
176.6422156453
 20
131.5215939754
 30
0.0
 11
176.6422156453
 21
92.1215938502
 31
0.0
  0
LINE
  5
123
330
1F
100
AcDbEntity
  8
0
  6
HIDDEN
 62
     7
370
     0
100
AcDbLine
 10
176.6422156453
 20
96.0215946757
 30
0.0
 11
176.6422156453
 21
127.6084447377
 31
0.0
  0
SPLINE
  5
124
330
1F
100
AcDbEntity
  8
0
  6
HIDDEN
 62
     7
370
     0
100
AcDbSpline
210
0.0
220
0.0
230
1.0
 70
     8
 71
     3
 72
    18
 73
    14
 74
     0
 42
0.00000001
 43
0.00000001
 12
1.0
 22
0.0
 32
0.0
 13
1.0
 23
0.0
 33
0.0
 40
0.0
 40
0.0
 40
0.0
 40
0.0
 40
0.25
 40
0.25
 40
0.5
 40
0.5
 40
0.625
 40
0.625
 40
0.75
 40
0.75
 40
0.875
 40
0.875
 40
1.0
 40
1.0
 40
1.0
 40
1.0
 10
175.3861313277581
 20
121.646033830937
 30
0.0
 10
175.4204323722909
 20
121.5380236451394
 30
0.0
 10
175.4582526435876
 20
121.4307465571115
 30
0.0
 10
175.5448709640485
 20
121.2192498597949
 30
0.0
 10
175.593242298792
 20
121.1148635096253
 30
0.0
 10
175.6826452809104
 20
120.963988586981
 30
0.0
 10
175.7152425647877
 20
120.9146435839454
 30
0.0
 10
175.7916244687326
 20
120.8200379454751
 30
0.0
 10
175.8346629060734
 20
120.7750420107206
 30
0.0
 10
175.9404759389052
 20
120.7041142380627
 30
0.0
 10
176.0055143636362
 20
120.6801676941561
 30
0.0
 10
176.1386664354389
 20
120.692448358227
 30
0.0
 10
176.198035615902
 20
120.7257653162318
 30
0.0
 10
176.2472387564458
 20
120.7666002024565
 30
0.0
  0
SPLINE
  5
125
330
1F
100
AcDbEntity
  8
0
  6
HIDDEN
 62
     7
370
     0
100
AcDbSpline
210
0.0
220
0.0
230
1.0
 70
     8
 71
     3
 72
    16
 73
    12
 74
     0
 42
0.00000001
 43
0.00000001
 12
1.0
 22
0.0
 32
0.0
 13
1.0
 23
0.0
 33
0.0
 40
0.0
 40
0.0
 40
0.0
 40
0.0
 40
0.0624999999999978
 40
0.0624999999999978
 40
0.1249999999999956
 40
0.1249999999999956
 40
0.2499999999999911
 40
0.2499999999999911
 40
0.4999999999999909
 40
0.4999999999999909
 40
1.0
 40
1.0
 40
1.0
 40
1.0
 10
176.247238756415
 20
120.7666002024859
 30
0.0
 10
176.2593085896908
 20
120.7766172514663
 30
0.0
 10
176.2735842446241
 20
120.785576358522
 30
0.0
 10
176.3050486567486
 20
120.7934467539162
 30
0.0
 10
176.320549181559
 20
120.7910892632738
 30
0.0
 10
176.3559880781659
 20
120.7741135710958
 30
0.0
 10
176.3695806942692
 20
120.7535650799282
 30
0.0
 10
176.4025750126621
 20
120.6916227529145
 30
0.0
 10
176.4133624059808
 20
120.6452272027094
 30
0.0
 10
176.43841565326
 20
120.5022911740148
 30
0.0
 10
176.4422156453212
 20
120.4027284571294
 30
0.0
 10
176.4422156453212
 20
120.3009610524828
 30
0.0
  0
LINE
  5
126
330
1F
100
AcDbEntity
  8
0
  6
HIDDEN
 62
     7
370
     0
100
AcDbLine
 10
176.4422156504
 20
103.3422269025
 30
0.0
 11
176.4422156504
 21
120.3009609231
 31
0.0
  0
SPLINE
  5
127
330
1F
100
AcDbEntity
  8
0
  6
HIDDEN
 62
     7
370
     0
100
AcDbSpline
210
0.0
220
0.0
230
1.0
 70
     8
 71
     3
 72
    16
 73
    12
 74
     0
 42
0.00000001
 43
0.00000001
 12
1.0
 22
0.0
 32
0.0
 13
1.0
 23
0.0
 33
0.0
 40
0.0
 40
0.0
 40
0.0
 40
0.0
 40
0.5000000000000001
 40
0.5000000000000001
 40
0.7500000000000002
 40
0.7500000000000002
 40
0.8750000000000002
 40
0.8750000000000002
 40
0.9375000000000001
 40
0.9375000000000001
 40
1.0
 40
1.0
 40
1.0
 40
1.0
 10
176.4422156453211
 20
103.3422267730885
 30
0.0
 10
176.4422156453211
 20
103.2402166195084
 30
0.0
 10
176.4383322201621
 20
103.1406922442552
 30
0.0
 10
176.4135168948875
 20
102.9987071482445
 30
0.0
 10
176.402677447175
 20
102.951713847674
 30
0.0
 10
176.3694616651262
 20
102.8894211173124
 30
0.0
 10
176.3560799214974
 20
102.8691396850273
 30
0.0
 10
176.3205702716352
 20
102.8520979768268
 30
0.0
 10
176.3051533051344
 20
102.8497117218107
 30
0.0
 10
176.2734522829858
 20
102.8576476516687
 30
0.0
 10
176.2593059980349
 20
102.8665727250433
 30
0.0
 10
176.2472387564453
 20
102.8765876231152
 30
0.0
  0
SPLINE
  5
128
330
1F
100
AcDbEntity
  8
0
  6
HIDDEN
 62
     7
370
     0
100
AcDbSpline
210
0.0
220
0.0
230
1.0
 70
     8
 71
     3
 72
    18
 73
    14
 74
     0
 42
0.00000001
 43
0.00000001
 12
1.0
 22
0.0
 32
0.0
 13
1.0
 23
0.0
 33
0.0
 40
0.0
 40
0.0
 40
0.0
 40
0.0
 40
0.1250000000000006
 40
0.1250000000000006
 40
0.2500000000000013
 40
0.2500000000000013
 40
0.3750000000000019
 40
0.3750000000000019
 40
0.5000000000000026
 40
0.5000000000000026
 40
0.7500000000000012
 40
0.7500000000000012
 40
1.0
 40
1.0
 40
1.0
 40
1.0
 10
176.2472387564515
 20
102.8765876231226
 30
0.0
 10
176.1985332643093
 20
102.9170094988041
 30
0.0
 10
176.1400231559825
 20
102.9500416202718
 30
0.0
 10
176.0082940376904
 20
102.9633187722246
 30
0.0
 10
175.9435351013499
 20
102.9403651852445
 30
0.0
 10
175.8383241284903
 20
102.8713119883249
 30
0.0
 10
175.7951077530504
 20
102.826844336484
 30
0.0
 10
175.7189292479384
 20
102.733674677114
 30
0.0
 10
175.6860742865586
 20
102.6845323075532
 30
0.0
 10
175.5957060067248
 20
102.5333225726134
 30
0.0
 10
175.5462827723547
 20
102.4271678030851
 30
0.0
 10
175.4586343173065
 20
102.2135861874237
 30
0.0
 10
175.4205751451037
 20
102.1056137561884
 30
0.0
 10
175.3861313277581
 20
101.9971539946344
 30
0.0
  0
SPLINE
  5
129
330
1F
100
AcDbEntity
  8
0
  6
HIDDEN
 62
     7
370
     0
100
AcDbSpline
210
0.0
220
0.0
230
1.0
 70
     8
 71
     3
 72
     8
 73
     4
 74
     0
 42
0.00000001
 43
0.00000001
 12
1.0
 22
0.0
 32
0.0
 13
1.0
 23
0.0
 33
0.0
 40
0.0
 40
0.0
 40
0.0
 40
0.0
 40
1.0
 40
1.0
 40
1.0
 40
1.0
 10
175.3861313277575
 20
101.9971539946339
 30
0.0
 10
175.3618176238674
 20
101.9205928370838
 30
0.0
 10
175.3403209819113
 20
101.8441674659506
 30
0.0
 10
175.3208953017613
 20
101.7680745951789
 30
0.0
  0
SPLINE
  5
12A
330
1F
100
AcDbEntity
  8
0
  6
HIDDEN
 62
     7
370
     0
100
AcDbSpline
210
0.0
220
0.0
230
1.0
 70
     8
 71
     3
 72
     8
 73
     4
 74
     0
 42
0.00000001
 43
0.00000001
 12
1.0
 22
0.0
 32
0.0
 13
1.0
 23
0.0
 33
0.0
 40
0.0
 40
0.0
 40
0.0
 40
0.0
 40
1.0
 40
1.0
 40
1.0
 40
1.0
 10
175.3208953017614
 20
97.99652990478052
 30
0.0
 10
175.3403207286547
 20
97.99303270119323
 30
0.0
 10
175.3618172826237
 20
97.991016383551
 30
0.0
 10
175.3861313277581
 20
97.99040553010713
 30
0.0
  0
SPLINE
  5
12B
330
1F
100
AcDbEntity
  8
0
  6
HIDDEN
 62
     7
370
     0
100
AcDbSpline
210
0.0
220
0.0
230
1.0
 70
     8
 71
     3
 72
     8
 73
     4
 74
     0
 42
0.00000001
 43
0.00000001
 12
1.0
 22
0.0
 32
0.0
 13
1.0
 23
0.0
 33
0.0
 40
0.0
 40
0.0
 40
0.0
 40
0.0
 40
1.0
 40
1.0
 40
1.0
 40
1.0
 10
176.4193646322152
 20
97.90104713904883
 30
0.0
 10
176.4383015643809
 20
97.87309270164744
 30
0.0
 10
176.4422156453212
 20
97.85300885029116
 30
0.0
 10
176.4422156453212
 20
97.83678200612577
 30
0.0
  0
LINE
  5
12C
330
1F
100
AcDbEntity
  8
0
  6
HIDDEN
 62
     7
370
     0
100
AcDbLine
 10
176.4422156504
 20
97.7317739376
 30
0.0
 11
176.4422156504
 21
97.8367824205
 31
0.0
  0
LINE
  5
12D
330
1F
100
AcDbEntity
  8
0
  6
HIDDEN
 62
     7
370
     0
100
AcDbLine
 10
176.4422156504
 20
125.806405405
 30
0.0
 11
176.4422156504
 21
125.911413888
 31
0.0
  0
SPLINE
  5
12E
330
1F
100
AcDbEntity
  8
0
  6
HIDDEN
 62
     7
370
     0
100
AcDbSpline
210
0.0
220
0.0
230
1.0
 70
     8
 71
     3
 72
     8
 73
     4
 74
     0
 42
0.00000001
 43
0.00000001
 12
1.0
 22
0.0
 32
0.0
 13
1.0
 23
0.0
 33
0.0
 40
0.0
 40
0.0
 40
0.0
 40
0.0
 40
1.0
 40
1.0
 40
1.0
 40
1.0
 10
175.3861313277577
 20
125.6527822954643
 30
0.0
 10
175.3618172826235
 20
125.6521714420204
 30
0.0
 10
175.3403207286546
 20
125.6501551243782
 30
0.0
 10
175.3208953017614
 20
125.6466579207909
 30
0.0
  0
SPLINE
  5
12F
330
1F
100
AcDbEntity
  8
0
  6
HIDDEN
 62
     7
370
     0
100
AcDbSpline
210
0.0
220
0.0
230
1.0
 70
     8
 71
     3
 72
     8
 73
     4
 74
     0
 42
0.00000001
 43
0.00000001
 12
1.0
 22
0.0
 32
0.0
 13
1.0
 23
0.0
 33
0.0
 40
0.0
 40
0.0
 40
0.0
 40
0.0
 40
1.0
 40
1.0
 40
1.0
 40
1.0
 10
175.3208953017613
 20
121.8751132303925
 30
0.0
 10
175.3403209819113
 20
121.7990203596208
 30
0.0
 10
175.3618176238674
 20
121.7225949884876
 30
0.0
 10
175.3861313277575
 20
121.6460338309375
 30
0.0
  0
LINE
  5
130
330
1F
100
AcDbEntity
  8
0
  6
HIDDEN
 62
     7
370
     0
100
AcDbLine
 10
176.4422156504
 20
97.8367824205
 30
0.0
 11
176.4422156504
 21
106.3161489652
 31
0.0
  0
LINE
  5
131
330
1F
100
AcDbEntity
  8
0
  6
HIDDEN
 62
     7
370
     0
100
AcDbLine
 10
176.4422156504
 20
117.3270388604
 30
0.0
 11
176.4422156504
 21
125.806405405
 31
0.0
  0
CIRCLE
  5
132
330
1F
100
AcDbEntity
  8
0
  6
HIDDEN
 62
     7
370
     0
100
AcDbCircle
 10
165.1422156453
 20
111.8215939128
 30
0.0
 40
2.299999999999997
  0
LINE
  5
133
330
1F
100
AcDbEntity
  8
0
  6
HIDDEN
 62
     7
370
     0
100
AcDbLine
 10
153.6692481697
 20
121.3842874491
 30
0.0
 11
153.6692481697
 21
102.2589003765
 31
0.0
  0
LINE
  5
134
330
1F
100
AcDbEntity
  8
0
  6
HIDDEN
 62
     7
370
     0
100
AcDbLine
 10
152.6422154367
 20
101.6659431257
 30
0.0
 11
152.6422154367
 21
121.9637787067
 31
0.0
  0
CIRCLE
  5
135
330
1F
100
AcDbEntity
  8
0
  6
HIDDEN
 62
     7
370
     0
100
AcDbCircle
 10
211.4870866898
 20
108.7400434216
 30
0.0
 40
3.068386013969336
  0
ARC
  5
136
330
1F
100
AcDbEntity
  8
0
  6
HIDDEN
 62
     7
370
     0
100
AcDbCircle
 10
205.0860584431
 20
97.7982999286
 30
0.0
 40
2.5000677375242
100
AcDbArc
 50
150.4627913058
 51
328.8014498324
  0
LINE
  5
137
330
1F
100
AcDbEntity
  8
0
  6
HIDDEN
 62
     7
370
     0
100
AcDbLine
 10
208.718850112
 20
99.0391552546
 30
0.0
 11
207.2245598048
 21
96.5032514283
 31
0.0
  0
ARC
  5
138
330
1F
100
AcDbEntity
  8
0
  6
HIDDEN
 62
     7
370
     0
100
AcDbCircle
 10
206.5307113073
 20
100.28542826
 30
0.0
 40
2.481829187090363
100
AcDbArc
 50
64.6772578237
 51
148.9179790592
  0
ARC
  5
139
330
1F
100
AcDbEntity
  8
0
  6
HIDDEN
 62
     7
370
     0
100
AcDbCircle
 10
206.5764801868
 20
100.2728088881
 30
0.0
 40
2.472175192747025
100
AcDbArc
 50
330.065115495
 51
61.5435423134
  0
LINE
  5
13A
330
1F
100
AcDbEntity
  8
0
  6
HIDDEN
 62
     7
370
     0
100
AcDbLine
 10
202.9109101951
 20
99.0308050164
 30
0.0
 11
204.4052005023
 21
101.5667088428
 31
0.0
  0
LINE
  5
13B
330
1F
100
AcDbEntity
  8
0
  6
HIDDEN
 62
     7
370
     0
100
AcDbLine
 10
216.4901185989
 20
126.7393512749
 30
0.0
 11
215.6259220302
 21
110.4511790541
 31
0.0
  0
ARC
  5
13C
330
1F
100
AcDbEntity
  8
0
  6
HIDDEN
 62
     7
370
     0
100
AcDbCircle
 10
217.7164422541
 20
110.3317627521
 30
0.0
 40
2.093928141036366
100
AcDbArc
 50
176.7306593475
 51
355.603053679
  0
LINE
  5
13D
330
1F
100
AcDbEntity
  8
0
  6
HIDDEN
 62
     7
370
     0
100
AcDbLine
 10
219.804207629
 20
110.171229891
 30
0.0
 11
220.1219041109
 21
116.1591068008
 31
0.0
  0
LINE
  5
13E
330
1F
100
AcDbEntity
  8
0
  6
HIDDEN
 62
     7
370
     0
100
AcDbLine
 10
220.1219041109
 20
116.1591068008
 30
0.0
 11
224.6639568567
 21
121.8372138315
 31
0.0
  0
LINE
  5
13F
330
1F
100
AcDbEntity
  8
0
  6
HIDDEN
 62
     7
370
     0
100
AcDbLine
 10
199.7409135312
 20
91.3215933465
 30
0.0
 11
199.7409135312
 21
111.8215939128
 31
0.0
  0
SPLINE
  5
140
330
1F
100
AcDbEntity
  8
0
  6
HIDDEN
 62
     7
370
     0
100
AcDbSpline
210
0.0
220
0.0
230
1.0
 70
     8
 71
     3
 72
    10
 73
     6
 74
     0
 42
0.00000001
 43
0.00000001
 12
1.0
 22
0.0
 32
0.0
 13
1.0
 23
0.0
 33
0.0
 40
0.0
 40
0.0
 40
0.0
 40
0.0
 40
0.4999999999999999
 40
0.4999999999999999
 40
1.0
 40
1.0
 40
1.0
 40
1.0
 10
199.8408144836312
 20
114.9754149926508
 30
0.0
 10
199.8194037765437
 20
114.4499122506436
 30
0.0
 10
199.7929022597377
 20
113.9245529140748
 30
0.0
 10
199.7534567907608
 20
112.8734523314555
 30
0.0
 10
199.7409140611267
 20
112.3476997831767
 30
0.0
 10
199.7409140611267
 20
111.8215939127857
 30
0.0
  0
SPLINE
  5
141
330
1F
100
AcDbEntity
  8
0
  6
HIDDEN
 62
     7
370
     0
100
AcDbSpline
210
0.0
220
0.0
230
1.0
 70
     8
 71
     3
 72
    14
 73
    10
 74
     0
 42
0.00000001
 43
0.00000001
 12
1.0
 22
0.0
 32
0.0
 13
1.0
 23
0.0
 33
0.0
 40
0.0
 40
0.0
 40
0.0
 40
0.0
 40
0.2500000000000001
 40
0.2500000000000001
 40
0.5000000000000001
 40
0.5000000000000001
 40
0.7500000000000002
 40
0.7500000000000002
 40
1.0
 40
1.0
 40
1.0
 40
1.0
 10
199.8408144836312
 20
131.4624975663299
 30
0.0
 10
199.8193957395764
 20
131.553784413453
 30
0.0
 10
199.7928855681298
 20
131.6450351779686
 30
0.0
 10
199.7534339271774
 20
131.8276252746292
 30
0.0
 10
199.7408995928442
 20
131.9190039245948
 30
0.0
 10
199.7409285563352
 20
132.1016413575894
 30
0.0
 10
199.7534750031326
 20
132.1929064868105
 30
0.0
 10
199.7929160099489
 20
132.3753753920408
 30
0.0
 10
199.8194097227693
 20
132.4665808820916
 30
0.0
 10
199.8408144836312
 20
132.5578081327421
 30
0.0
  0
ELLIPSE
  5
142
330
1F
100
AcDbEntity
  8
0
  6
HIDDEN
 62
     7
370
     0
100
AcDbEllipse
 10
224.4530302522
 20
111.8215939128
 30
0.0
 11
1.381661975432763
 21
20.4997262438341
 31
0.0
210
0.0
220
0.0
230
1.0
 40
0.0766779737
 41
1.575964303001159
 42
1.800684395693911
  0
LINE
  5
143
330
1F
100
AcDbEntity
  8
0
  6
HIDDEN
 62
     7
370
     0
100
AcDbLine
 10
157.169247812
 20
121.0525335842
 30
0.0
 11
157.169247812
 21
102.5906542414
 31
0.0
  0
LINE
  5
144
330
1F
100
AcDbEntity
  8
0
  6
HIDDEN
 62
     7
370
     0
100
AcDbLine
 10
160.5692476243
 20
120.8215935254
 30
0.0
 11
160.5692476243
 21
102.8215943002
 31
0.0
  0
LINE
  5
145
330
1F
100
AcDbEntity
  8
0
  6
HIDDEN
 62
     7
370
     0
100
AcDbLine
 10
155.7692483276
 20
120.8215935254
 30
0.0
 11
155.7692483276
 21
102.8215943002
 31
0.0
  0
ARC
  5
146
330
1F
100
AcDbEntity
  8
0
  6
HIDDEN
 62
     7
370
     0
100
AcDbCircle
 10
205.0390765562
 20
97.7059976638
 30
0.0
 40
2.000062230621953
100
AcDbArc
 50
150.4776014465
 51
328.7866558789
  0
LINE
  5
147
330
1F
100
AcDbEntity
  8
0
  6
HIDDEN
 62
     7
370
     0
100
AcDbLine
 10
156.7692484915
 20
120.8215935254
 30
0.0
 11
156.7692484915
 21
102.8215943002
 31
0.0
  0
SPLINE
  5
148
330
1F
100
AcDbEntity
  8
0
  6
HIDDEN
 62
     7
370
     0
100
AcDbSpline
210
0.0
220
0.0
230
1.0
 70
     8
 71
     3
 72
    14
 73
    10
 74
     0
 42
0.00000001
 43
0.00000001
 12
1.0
 22
0.0
 32
0.0
 13
1.0
 23
0.0
 33
0.0
 40
0.0
 40
0.0
 40
0.0
 40
0.0
 40
0.2500000000000001
 40
0.2500000000000001
 40
0.5000000000000001
 40
0.5000000000000001
 40
0.7500000000000001
 40
0.7500000000000001
 40
1.0
 40
1.0
 40
1.0
 40
1.0
 10
167.1422156453211
 20
112.9573755819458
 30
0.0
 10
167.240439991824
 20
112.7844121521423
 30
0.0
 10
167.3157548298081
 20
112.5993795977179
 30
0.0
 10
167.4167215400025
 20
112.2163673835834
 30
0.0
 10
167.4420971262926
 20
112.0216488301178
 30
0.0
 10
167.4423333515589
 20
111.6242735288522
 30
0.0
 10
167.4166302822234
 20
111.4267811943768
 30
0.0
 10
167.316310168707
 20
111.0456093597457
 30
0.0
 10
167.2404183406193
 20
110.8587375477732
 30
0.0
 10
167.1422156453256
 20
110.6858122436233
 30
0.0
  0
LINE
  5
149
330
1F
100
AcDbEntity
  8
0
  6
HIDDEN
 62
     7
370
     0
100
AcDbLine
 10
167.6422160328
 20
120.3215943747
 30
0.0
 11
167.6422160328
 21
103.3215934508
 31
0.0
  0
SPLINE
  5
14A
330
1F
100
AcDbEntity
  8
0
  6
HIDDEN
 62
     7
370
     0
100
AcDbSpline
210
0.0
220
0.0
230
1.0
 70
     8
 71
     3
 72
    14
 73
    10
 74
     0
 42
0.00000001
 43
0.00000001
 12
1.0
 22
0.0
 32
0.0
 13
1.0
 23
0.0
 33
0.0
 40
0.0
 40
0.0
 40
0.0
 40
0.0
 40
0.25
 40
0.25
 40
0.5
 40
0.5
 40
0.75
 40
0.75
 40
1.0
 40
1.0
 40
1.0
 40
1.0
 10
167.1422156453211
 20
110.6858122436256
 30
0.0
 10
167.240439991824
 20
110.8587756734292
 30
0.0
 10
167.3157548298081
 20
111.0438082278536
 30
0.0
 10
167.4167215400025
 20
111.4268204419881
 30
0.0
 10
167.4420971262926
 20
111.6215389954537
 30
0.0
 10
167.4423333515589
 20
112.0189142967193
 30
0.0
 10
167.4166302822234
 20
112.2164066311947
 30
0.0
 10
167.316310168707
 20
112.5975784658257
 30
0.0
 10
167.2404183406193
 20
112.7844502777983
 30
0.0
 10
167.1422156453256
 20
112.9573755819482
 30
0.0
  0
SPLINE
  5
14B
330
1F
100
AcDbEntity
  8
0
  6
HIDDEN
 62
     7
370
     0
100
AcDbSpline
210
0.0
220
0.0
230
1.0
 70
     8
 71
     3
 72
    60
 73
    56
 74
     0
 42
0.00000001
 43
0.00000001
 12
1.0
 22
0.0
 32
0.0
 13
1.0
 23
0.0
 33
0.0
 40
0.0
 40
0.0
 40
0.0
 40
0.0
 40
0.0625000000000005
 40
0.0625000000000005
 40
0.125000000000001
 40
0.125000000000001
 40
0.1875000000000015
 40
0.1875000000000015
 40
0.2187500000000015
 40
0.2187500000000015
 40
0.2500000000000016
 40
0.2500000000000016
 40
0.3125000000000017
 40
0.3125000000000017
 40
0.3750000000000018
 40
0.3750000000000018
 40
0.4062500000000017
 40
0.4062500000000017
 40
0.4375000000000016
 40
0.4375000000000016
 40
0.4687500000000015
 40
0.4687500000000015
 40
0.5000000000000014
 40
0.5000000000000014
 40
0.5312500000000013
 40
0.5312500000000013
 40
0.5625000000000012
 40
0.5625000000000012
 40
0.5937500000000012
 40
0.5937500000000012
 40
0.6250000000000011
 40
0.6250000000000011
 40
0.656250000000001
 40
0.656250000000001
 40
0.6875000000000009
 40
0.6875000000000009
 40
0.7187500000000009
 40
0.7187500000000009
 40
0.7500000000000008
 40
0.7500000000000008
 40
0.7812500000000007
 40
0.7812500000000007
 40
0.8125000000000006
 40
0.8125000000000006
 40
0.8437500000000006
 40
0.8437500000000006
 40
0.8750000000000004
 40
0.8750000000000004
 40
0.9062500000000003
 40
0.9062500000000003
 40
0.9375000000000002
 40
0.9375000000000002
 40
0.9687500000000002
 40
0.9687500000000002
 40
1.0
 40
1.0
 40
1.0
 40
1.0
 10
167.142215645321
 20
110.6858122436256
 30
0.0
 10
167.0170257437423
 20
110.4653651190101
 30
0.0
 10
166.8601584251742
 20
110.2716313901897
 30
0.0
 10
166.4831209053554
 20
109.9359416914273
 30
0.0
 10
166.2714075989344
 20
109.8019643331146
 30
0.0
 10
165.8055176169857
 20
109.6048375884294
 30
0.0
 10
165.5596783859341
 20
109.5456201762076
 30
0.0
 10
165.1801973328395
 20
109.5184134403169
 30
0.0
 10
165.0524516041455
 20
109.5199067054588
 30
0.0
 10
164.8019853574774
 20
109.5434225112677
 30
0.0
 10
164.6781559746692
 20
109.5653417300719
 30
0.0
 10
164.3109363005705
 20
109.6621782949168
 30
0.0
 10
164.0801672824848
 20
109.7659794163686
 30
0.0
 10
163.6602783210653
 20
110.0446978972967
 30
0.0
 10
163.4760199461778
 20
110.2162601888004
 30
0.0
 10
163.2452715586944
 20
110.5149075500672
 30
0.0
 10
163.1762247089054
 20
110.6213750905694
 30
0.0
 10
163.0576600450999
 20
110.8416584389624
 30
0.0
 10
163.0074516763503
 20
110.9563199553638
 30
0.0
 10
162.9256198239925
 20
111.1950005921406
 30
0.0
 10
162.8942689251098
 20
111.3190462190187
 30
0.0
 10
162.8528745470713
 20
111.567161255127
 30
0.0
 10
162.842368772007
 20
111.6923989576155
 30
0.0
 10
162.8420658196712
 20
111.9452780132065
 30
0.0
 10
162.8525503492878
 20
112.0731576994431
 30
0.0
 10
162.8936904267492
 20
112.3215797606486
 30
0.0
 10
162.9242685472978
 20
112.443378687417
 30
0.0
 10
163.0055512556491
 20
112.6821582168913
 30
0.0
 10
163.056552142211
 20
112.799199779198
 30
0.0
 10
163.175119190574
 20
113.0200249771239
 30
0.0
 10
163.2430079438458
 20
113.1249633406866
 30
0.0
 10
163.3961583815834
 20
113.323940673916
 30
0.0
 10
163.4817145531559
 20
113.4179487991102
 30
0.0
 10
163.6644259241151
 20
113.5884414840469
 30
0.0
 10
163.762233223797
 20
113.6658796790963
 30
0.0
 10
163.971036335714
 20
113.8050455749846
 30
0.0
 10
164.0826185110019
 20
113.8668273839915
 30
0.0
 10
164.3112643105009
 20
113.9699062545924
 30
0.0
 10
164.429219121472
 20
114.011910289788
 30
0.0
 10
164.6725475664607
 20
114.0766464110848
 30
0.0
 10
164.7988914418038
 20
114.0993196736475
 30
0.0
 10
165.0499974228217
 20
114.1232024698286
 30
0.0
 10
165.1756794165446
 20
114.1248057710953
 30
0.0
 10
165.4273014863364
 20
114.1073390323244
 30
0.0
 10
165.5541991066222
 20
114.0879031416845
 30
0.0
 10
165.7993896728834
 20
114.0293099703608
 30
0.0
 10
165.9185788299168
 20
113.9902471192042
 30
0.0
 10
166.1502638542716
 20
113.8927373970804
 30
0.0
 10
166.2634386586221
 20
113.8337020427918
 30
0.0
 10
166.4755170755579
 20
113.6998983259523
 30
0.0
 10
166.5753058542587
 20
113.6249031098075
 30
0.0
 10
166.7625640412477
 20
113.4587080452867
 30
0.0
 10
166.850459078191
 20
113.3668138465452
 30
0.0
 10
167.0086801538229
 20
113.1714496488309
 30
0.0
 10
167.0796181101146
 20
113.0676036951584
 30
0.0
 10
167.142215645321
 20
112.9573755819458
 30
0.0
  0
SPLINE
  5
14C
330
1F
100
AcDbEntity
  8
0
  6
HIDDEN
 62
     7
370
     0
100
AcDbSpline
210
0.0
220
0.0
230
1.0
 70
     8
 71
     3
 72
    60
 73
    56
 74
     0
 42
0.00000001
 43
0.00000001
 12
1.0
 22
0.0
 32
0.0
 13
1.0
 23
0.0
 33
0.0
 40
0.0
 40
0.0
 40
0.0
 40
0.0
 40
0.0624999999999995
 40
0.0624999999999995
 40
0.1249999999999991
 40
0.1249999999999991
 40
0.1874999999999986
 40
0.1874999999999986
 40
0.2187499999999984
 40
0.2187499999999984
 40
0.2499999999999982
 40
0.2499999999999982
 40
0.3124999999999982
 40
0.3124999999999982
 40
0.3749999999999981
 40
0.3749999999999981
 40
0.4062499999999982
 40
0.4062499999999982
 40
0.4374999999999983
 40
0.4374999999999983
 40
0.4687499999999984
 40
0.4687499999999984
 40
0.4999999999999984
 40
0.4999999999999984
 40
0.5312499999999986
 40
0.5312499999999986
 40
0.5624999999999987
 40
0.5624999999999987
 40
0.5937499999999988
 40
0.5937499999999988
 40
0.6249999999999989
 40
0.6249999999999989
 40
0.656249999999999
 40
0.656249999999999
 40
0.6874999999999991
 40
0.6874999999999991
 40
0.7187499999999992
 40
0.7187499999999992
 40
0.7499999999999992
 40
0.7499999999999992
 40
0.7812499999999993
 40
0.7812499999999993
 40
0.8124999999999994
 40
0.8124999999999994
 40
0.8437499999999996
 40
0.8437499999999996
 40
0.8749999999999997
 40
0.8749999999999997
 40
0.9062499999999998
 40
0.9062499999999998
 40
0.9374999999999999
 40
0.9374999999999999
 40
0.96875
 40
0.96875
 40
1.0
 40
1.0
 40
1.0
 40
1.0
 10
167.142215645321
 20
112.9573755819458
 30
0.0
 10
167.0170257437424
 20
113.1778227065614
 30
0.0
 10
166.8601584251742
 20
113.3715564353817
 30
0.0
 10
166.4831209053554
 20
113.7072461341441
 30
0.0
 10
166.2714075989344
 20
113.8412234924569
 30
0.0
 10
165.8055176169857
 20
114.038350237142
 30
0.0
 10
165.5596783859341
 20
114.0975676493639
 30
0.0
 10
165.1801973328395
 20
114.1247743852545
 30
0.0
 10
165.0524516041455
 20
114.1232811201127
 30
0.0
 10
164.8019853574774
 20
114.0997653143037
 30
0.0
 10
164.6781559746692
 20
114.0778460954995
 30
0.0
 10
164.3109363005705
 20
113.9810095306546
 30
0.0
 10
164.0801672824848
 20
113.8772084092028
 30
0.0
 10
163.6602783210653
 20
113.5984899282748
 30
0.0
 10
163.4760199461778
 20
113.4269276367711
 30
0.0
 10
163.2452715586944
 20
113.1282802755043
 30
0.0
 10
163.1762247089055
 20
113.021812735002
 30
0.0
 10
163.0576600450999
 20
112.801529386609
 30
0.0
 10
163.0074516763503
 20
112.6868678702076
 30
0.0
 10
162.9256198239925
 20
112.4481872334308
 30
0.0
 10
162.8942689251099
 20
112.3241416065528
 30
0.0
 10
162.8528745470713
 20
112.0760265704444
 30
0.0
 10
162.842368772007
 20
111.9507888679559
 30
0.0
 10
162.8420658196712
 20
111.6979098123649
 30
0.0
 10
162.8525503492878
 20
111.5700301261283
 30
0.0
 10
162.8936904267492
 20
111.3216080649228
 30
0.0
 10
162.9242685472978
 20
111.1998091381544
 30
0.0
 10
163.0055512556491
 20
110.9610296086801
 30
0.0
 10
163.056552142211
 20
110.8439880463735
 30
0.0
 10
163.175119190574
 20
110.6231628484476
 30
0.0
 10
163.2430079438458
 20
110.5182244848848
 30
0.0
 10
163.3961583815834
 20
110.3192471516554
 30
0.0
 10
163.481714553156
 20
110.2252390264612
 30
0.0
 10
163.6644259241151
 20
110.0547463415245
 30
0.0
 10
163.762233223797
 20
109.9773081464752
 30
0.0
 10
163.971036335714
 20
109.8381422505869
 30
0.0
 10
164.0826185110019
 20
109.7763604415799
 30
0.0
 10
164.3112643105009
 20
109.6732815709791
 30
0.0
 10
164.429219121472
 20
109.6312775357834
 30
0.0
 10
164.6725475664608
 20
109.5665414144866
 30
0.0
 10
164.7988914418038
 20
109.5438681519239
 30
0.0
 10
165.0499974228217
 20
109.5199853557428
 30
0.0
 10
165.1756794165446
 20
109.5183820544761
 30
0.0
 10
165.4273014863364
 20
109.535848793247
 30
0.0
 10
165.5541991066222
 20
109.555284683887
 30
0.0
 10
165.7993896728834
 20
109.6138778552106
 30
0.0
 10
165.9185788299168
 20
109.6529407063672
 30
0.0
 10
166.1502638542717
 20
109.750450428491
 30
0.0
 10
166.2634386586222
 20
109.8094857827796
 30
0.0
 10
166.4755170755579
 20
109.9432894996191
 30
0.0
 10
166.5753058542587
 20
110.0182847157639
 30
0.0
 10
166.7625640412477
 20
110.1844797802847
 30
0.0
 10
166.850459078191
 20
110.2763739790262
 30
0.0
 10
167.0086801538229
 20
110.4717381767406
 30
0.0
 10
167.0796181101146
 20
110.575584130413
 30
0.0
 10
167.1422156453211
 20
110.6858122436256
 30
0.0
  0
LINE
  5
14D
330
1F
100
AcDbEntity
  8
0
  6
HIDDEN
 62
     7
370
     0
100
AcDbLine
 10
206.7496169567
 20
96.6695129969
 30
0.0
 11
208.2439091265
 21
99.2054168233
 31
0.0
  0
LINE
  5
14E
330
1F
100
AcDbEntity
  8
0
  6
HIDDEN
 62
     7
370
     0
100
AcDbLine
 10
204.7929883212
 20
101.2274596938
 30
0.0
 11
203.2986961514
 21
98.6915558674
 31
0.0
  0
ARC
  5
14F
330
1F
100
AcDbEntity
  8
0
  6
HIDDEN
 62
     7
370
     0
100
AcDbCircle
 10
204.7340317589
 20
97.100542632
 30
0.0
 40
2.000062012858779
100
AcDbArc
 50
150.4776472721
 51
328.7866330749
  0
LINE
  5
150
330
1F
100
AcDbEntity
  8
0
  6
HIDDEN
 62
     7
370
     0
100
AcDbLine
 10
204.4879429251
 20
100.6220040941
 30
0.0
 11
202.9936507553
 21
98.0860993364
 31
0.0
  0
ARC
  5
151
330
1F
100
AcDbEntity
  8
0
  6
HIDDEN
 62
     7
370
     0
100
AcDbCircle
 10
206.5035286409
 20
100.190974889
 30
0.0
 40
2.000062232980662
100
AcDbArc
 50
330.4776060252
 51
148.7866513002
  0
ARC
  5
152
330
1F
100
AcDbEntity
  8
0
  6
HIDDEN
 62
     7
370
     0
100
AcDbCircle
 10
206.1984830961
 20
99.5855190355
 30
0.0
 40
2.000062237320248
100
AcDbArc
 50
330.4776144491
 51
148.7866428763
  0
LINE
  5
153
330
1F
100
AcDbEntity
  8
0
  6
HIDDEN
 62
     7
370
     0
100
AcDbLine
 10
168.5422154352
 20
118.0715940059
 30
0.0
 11
168.5422154352
 21
105.5715938197
 31
0.0
  0
LINE
  5
154
330
1F
100
AcDbEntity
  8
0
  6
HIDDEN
 62
     7
370
     0
100
AcDbLine
 10
167.6422160328
 20
104.6715939515
 30
0.0
 11
167.6422160328
 21
118.958032886
 31
0.0
  0
CIRCLE
  5
155
330
1F
100
AcDbEntity
  8
0
  6
HIDDEN
 62
     7
370
     0
100
AcDbCircle
 10
211.1440106065
 20
108.0412411459
 30
0.0
 40
3.076070758229006
  0
SPLINE
  5
156
330
1F
100
AcDbEntity
  8
0
  6
HIDDEN
 62
     7
370
     0
100
AcDbSpline
210
0.0
220
0.0
230
1.0
 70
     8
 71
     3
 72
    58
 73
    54
 74
     0
 42
0.00000001
 43
0.00000001
 12
1.0
 22
0.0
 32
0.0
 13
1.0
 23
0.0
 33
0.0
 40
-0.0312499999999994
 40
-0.0312499999999994
 40
0.0
 40
0.0
 40
0.0312500000000002
 40
0.0312500000000002
 40
0.0625000000000004
 40
0.0625000000000004
 40
0.0937500000000007
 40
0.0937500000000007
 40
0.1250000000000009
 40
0.1250000000000009
 40
0.1875000000000014
 40
0.1875000000000014
 40
0.2500000000000019
 40
0.2500000000000019
 40
0.2812500000000021
 40
0.2812500000000021
 40
0.3125000000000023
 40
0.3125000000000023
 40
0.3437500000000026
 40
0.3437500000000026
 40
0.3750000000000028
 40
0.3750000000000028
 40
0.4062500000000029
 40
0.4062500000000029
 40
0.4375000000000032
 40
0.4375000000000032
 40
0.4687500000000034
 40
0.4687500000000034
 40
0.5000000000000036
 40
0.5000000000000036
 40
0.5625000000000037
 40
0.5625000000000037
 40
0.5937500000000036
 40
0.5937500000000036
 40
0.6250000000000034
 40
0.6250000000000034
 40
0.6562500000000033
 40
0.6562500000000033
 40
0.6875000000000032
 40
0.6875000000000032
 40
0.750000000000003
 40
0.750000000000003
 40
0.7812500000000028
 40
0.7812500000000028
 40
0.8125000000000026
 40
0.8125000000000026
 40
0.8750000000000018
 40
0.8750000000000018
 40
0.937500000000001
 40
0.937500000000001
 40
0.9687500000000006
 40
0.9687500000000006
 40
1.0
 40
1.0
 40
1.03125
 40
1.03125
 10
194.3733205145439
 20
111.3864675665429
 30
0.0
 10
194.2697814150023
 20
111.1761836126982
 30
0.0
 10
194.2225533750258
 20
111.0639443269222
 30
0.0
 10
194.1356863445429
 20
110.8260787801077
 30
0.0
 10
194.0956854267698
 20
110.698982141343
 30
0.0
 10
194.0249286800673
 20
110.4385379296685
 30
0.0
 10
193.9941852994787
 20
110.305779667703
 30
0.0
 10
193.9411552643342
 20
110.0353556944251
 30
0.0
 10
193.9188592764595
 20
109.896847786757
 30
0.0
 10
193.8670517092517
 20
109.4918035957807
 30
0.0
 10
193.85115814952
 20
109.2249071942896
 30
0.0
 10
193.8581638156663
 20
108.748671671265
 30
0.0
 10
193.881129572898
 20
108.5345271521336
 30
0.0
 10
193.9431448536586
 20
108.2794616979372
 30
0.0
 10
193.9688354625422
 20
108.2037557277581
 30
0.0
 10
194.0283946197962
 20
108.0781519039296
 30
0.0
 10
194.0623106400976
 20
108.0274652264746
 30
0.0
 10
194.1393306763685
 20
107.9503331571989
 30
0.0
 10
194.1823182121941
 20
107.9244273668174
 30
0.0
 10
194.2749132244685
 20
107.8990934127024
 30
0.0
 10
194.3250059688415
 20
107.8992304492115
 30
0.0
 10
194.4337323508076
 20
107.9259231243247
 30
0.0
 10
194.4907268938851
 20
107.9520289787149
 30
0.0
 10
194.6110050335257
 20
108.0285712895037
 30
0.0
 10
194.6750752289797
 20
108.0798148427229
 30
0.0
 10
194.806731177285
 20
108.2038810387388
 30
0.0
 10
194.8741545124364
 20
108.2762741514854
 30
0.0
 10
195.0130872127829
 20
108.4413499326124
 30
0.0
 10
195.0848668222133
 20
108.5345889622446
 30
0.0
 10
195.2974392402891
 20
108.8323054615482
 30
0.0
 10
195.4415975459182
 20
109.0623573437435
 30
0.0
 10
195.6362860775922
 20
109.4236307290698
 30
0.0
 10
195.698598673424
 20
109.548862944186
 30
0.0
 10
195.8105760083795
 20
109.8011457199355
 30
0.0
 10
195.8601105271047
 20
109.9276080914438
 30
0.0
 10
195.9422626588787
 20
110.1829727298183
 30
0.0
 10
195.9748378492797
 20
110.3130708799961
 30
0.0
 10
196.0152377255952
 20
110.5652042569711
 30
0.0
 10
196.0236005004621
 20
110.6885526273908
 30
0.0
 10
196.0101995289768
 20
111.050736125499
 30
0.0
 10
195.9482246694221
 20
111.272613690922
 30
0.0
 10
195.8062057706785
 20
111.5469203405492
 30
0.0
 10
195.7516321621493
 20
111.6278895833265
 30
0.0
 10
195.6318426673493
 20
111.7687192939693
 30
0.0
 10
195.5664020514521
 20
111.8283601532078
 30
0.0
 10
195.365225549984
 20
111.9670498541078
 30
0.0
 10
195.2195938763203
 20
112.0089516433025
 30
0.0
 10
194.9378068661254
 20
111.9793858196929
 30
0.0
 10
194.7982095382956
 20
111.9076082813436
 30
0.0
 10
194.6066290757481
 20
111.7248182251334
 30
0.0
 10
194.5444492675044
 20
111.6503245727778
 30
0.0
 10
194.4280677594598
 20
111.4813031051403
 30
0.0
 10
194.3733205145439
 20
111.3864675665429
 30
0.0
 10
194.2697814150023
 20
111.1761836126982
 30
0.0
  0
LINE
  5
157
330
1F
100
AcDbEntity
  8
0
  6
HIDDEN
 62
     7
370
     0
100
AcDbLine
 10
193.6422165692
 20
118.0715940059
 30
0.0
 11
193.6422165692
 21
105.5715938197
 31
0.0
  0
ARC
  5
158
330
1F
100
AcDbEntity
  8
0
  6
HIDDEN
 62
     7
370
     0
100
AcDbCircle
 10
217.0502140736
 20
109.0047866048
 30
0.0
 40
2.093882222083578
100
AcDbArc
 50
176.5838793992
 51
355.7498368058
  0
LINE
  5
159
330
1F
100
AcDbEntity
  8
0
  6
HIDDEN
 62
     7
370
     0
100
AcDbLine
 10
219.1383380652
 20
108.8496062071
 30
0.0
 11
219.4560345471
 21
114.8374830005
 31
0.0
  0
LINE
  5
15A
330
1F
100
AcDbEntity
  8
0
  6
HIDDEN
 62
     7
370
     0
100
AcDbLine
 10
219.4560345471
 20
114.8374830005
 30
0.0
 11
220.1219041109
 21
116.1591068008
 31
0.0
  0
LINE
  5
15B
330
1F
100
AcDbEntity
  8
0
  6
HIDDEN
 62
     7
370
     0
100
AcDbLine
 10
206.4445715606
 20
96.0640573972
 30
0.0
 11
207.9388637304
 21
98.5999612235
 31
0.0
  0
LINE
  5
15C
330
1F
100
AcDbEntity
  8
0
  6
HIDDEN
 62
     7
370
     0
100
AcDbLine
 10
225.3881495655
 20
122.7425413304
 30
0.0
 11
224.7222800016
 21
121.4209172972
 31
0.0
  0
LINE
  5
15D
330
1F
100
AcDbEntity
  8
0
  6
HIDDEN
 62
     7
370
     0
100
AcDbLine
 10
199.8408146411
 20
132.5578076863
 30
0.0
 11
199.8692963481
 21
132.6378176087
 31
0.0
  0
LINE
  5
15E
330
1F
100
AcDbEntity
  8
0
  6
HIDDEN
 62
     7
370
     0
100
AcDbLine
 10
216.1522384942
 20
131.5996350818
 30
0.0
 11
216.818108058
 21
132.9212600463
 31
0.0
  0
CIRCLE
  5
15F
330
1F
100
AcDbEntity
  8
0
  6
HIDDEN
 62
     7
370
     0
100
AcDbCircle
 10
211.1220353348
 20
107.9834628383
 30
0.0
 40
2.480524779411117
  0
SPLINE
  5
160
330
1F
100
AcDbEntity
  8
0
  6
HIDDEN
 62
     7
370
     0
100
AcDbSpline
210
0.0
220
0.0
230
1.0
 70
     8
 71
     3
 72
    52
 73
    48
 74
     0
 42
0.00000001
 43
0.00000001
 12
1.0
 22
0.0
 32
0.0
 13
1.0
 23
0.0
 33
0.0
 40
0.0
 40
0.0
 40
0.0
 40
0.0
 40
0.0312499999999996
 40
0.0312499999999996
 40
0.0624999999999993
 40
0.0624999999999993
 40
0.0937499999999989
 40
0.0937499999999989
 40
0.1249999999999985
 40
0.1249999999999985
 40
0.1874999999999985
 40
0.1874999999999985
 40
0.2499999999999985
 40
0.2499999999999985
 40
0.3124999999999984
 40
0.3124999999999984
 40
0.3749999999999986
 40
0.3749999999999986
 40
0.4374999999999987
 40
0.4374999999999987
 40
0.4687499999999988
 40
0.4687499999999988
 40
0.4999999999999988
 40
0.4999999999999988
 40
0.5312499999999988
 40
0.5312499999999988
 40
0.5624999999999987
 40
0.5624999999999987
 40
0.6249999999999987
 40
0.6249999999999987
 40
0.6874999999999988
 40
0.6874999999999988
 40
0.7499999999999988
 40
0.7499999999999988
 40
0.8124999999999988
 40
0.8124999999999988
 40
0.8437499999999984
 40
0.8437499999999984
 40
0.874999999999998
 40
0.874999999999998
 40
0.8906249999999981
 40
0.8906249999999981
 40
0.9062499999999981
 40
0.9062499999999981
 40
0.9374999999999982
 40
0.9374999999999982
 40
1.0
 40
1.0
 40
1.0
 40
1.0
 10
207.6141257272849
 20
104.8917620002297
 30
0.0
 10
207.6495663517952
 20
104.8195381843932
 30
0.0
 10
207.6880778427833
 20
104.7558751558865
 30
0.0
 10
207.7670213257853
 20
104.646077522955
 30
0.0
 10
207.8078366931948
 20
104.599620960779
 30
0.0
 10
207.8848386529178
 20
104.5280321206589
 30
0.0
 10
207.9205072942566
 20
104.5031745225358
 30
0.0
 10
207.9817332642214
 20
104.4753673524744
 30
0.0
 10
208.0074469532386
 20
104.4726528538218
 30
0.0
 10
208.0624209910827
 20
104.4971914947746
 30
0.0
 10
208.0697560540267
 20
104.5566689648644
 30
0.0
 10
208.0471674558083
 20
104.7286053295908
 30
0.0
 10
208.0185817352537
 20
104.8417983147469
 30
0.0
 10
207.9530983915761
 20
105.1066601088494
 30
0.0
 10
207.916321823832
 20
105.2570848622611
 30
0.0
 10
207.8521921428805
 20
105.5999168116089
 30
0.0
 10
207.8247840808738
 20
105.7923152622635
 30
0.0
 10
207.8025895240106
 20
106.2135535582931
 30
0.0
 10
207.8085161961534
 20
106.4450835443736
 30
0.0
 10
207.8608003731749
 20
106.7925937309369
 30
0.0
 10
207.8848703892402
 20
106.9058912766575
 30
0.0
 10
207.9474762176929
 20
107.1271133355436
 30
0.0
 10
207.9858558986611
 20
107.2335673878048
 30
0.0
 10
208.0721288692931
 20
107.4289219042572
 30
0.0
 10
208.1209337223663
 20
107.5199597043711
 30
0.0
 10
208.2233775800172
 20
107.6824864533055
 30
0.0
 10
208.2774469293462
 20
107.7551523398416
 30
0.0
 10
208.4467793534692
 20
107.952371100798
 30
0.0
 10
208.5657340992482
 20
108.0525543175593
 30
0.0
 10
208.8066340857622
 20
108.2086263373768
 30
0.0
 10
208.9303125213885
 20
108.2650338217926
 30
0.0
 10
209.1734754473364
 20
108.342594699663
 30
0.0
 10
209.2940775647075
 20
108.3643947651895
 30
0.0
 10
209.531858167339
 20
108.3809142514511
 30
0.0
 10
209.6498928617371
 20
108.3754741658544
 30
0.0
 10
209.8165727307747
 20
108.3491683615233
 30
0.0
 10
209.8704875510298
 20
108.3373636188525
 30
0.0
 10
209.9677369812802
 20
108.3081454941273
 30
0.0
 10
210.0130587340004
 20
108.2908366248556
 30
0.0
 10
210.0456609026526
 20
108.2613066530011
 30
0.0
 10
210.0494619183006
 20
108.2507734802225
 30
0.0
 10
210.0257295338989
 20
108.2304809600023
 30
0.0
 10
209.9976622687996
 20
108.2211058807146
 30
0.0
 10
209.8875875886337
 20
108.1942884340567
 30
0.0
 10
209.7885044318068
 20
108.1766832073234
 30
0.0
 10
209.4940882737473
 20
108.1089549450443
 30
0.0
 10
209.2863325333899
 20
108.0445300353532
 30
0.0
 10
209.0838583587609
 20
107.955014648959
 30
0.0
  0
ARC
  5
161
330
1F
100
AcDbEntity
  8
0
  6
HIDDEN
 62
     7
370
     0
100
AcDbCircle
 10
210.0031718041
 20
105.7045044702
 30
0.0
 40
2.523507131402039
100
AcDbArc
 50
198.7880759083
 51
305.8287776526
  0
SPLINE
  5
162
330
1F
100
AcDbEntity
  8
0
  6
HIDDEN
 62
     7
370
     0
100
AcDbSpline
210
0.0
220
0.0
230
1.0
 70
     8
 71
     3
 72
    38
 73
    34
 74
     0
 42
0.00000001
 43
0.00000001
 12
1.0
 22
0.0
 32
0.0
 13
1.0
 23
0.0
 33
0.0
 40
0.0
 40
0.0
 40
0.0
 40
0.0
 40
0.0312499999999998
 40
0.0312499999999998
 40
0.0624999999999996
 40
0.0624999999999996
 40
0.0937499999999994
 40
0.0937499999999994
 40
0.1249999999999992
 40
0.1249999999999992
 40
0.1874999999999992
 40
0.1874999999999992
 40
0.2499999999999992
 40
0.2499999999999992
 40
0.3124999999999992
 40
0.3124999999999992
 40
0.3749999999999993
 40
0.3749999999999993
 40
0.4374999999999993
 40
0.4374999999999993
 40
0.4999999999999993
 40
0.4999999999999993
 40
0.5624999999999993
 40
0.5624999999999993
 40
0.6249999999999993
 40
0.6249999999999993
 40
0.7499999999999998
 40
0.7499999999999998
 40
0.8750000000000001
 40
0.8750000000000001
 40
0.9375000000000001
 40
0.9375000000000001
 40
1.0
 40
1.0
 40
1.0
 40
1.0
 10
210.9346650145059
 20
107.899145370499
 30
0.0
 10
210.9033153973089
 20
107.926801471165
 30
0.0
 10
210.8733401210191
 20
107.9529804856716
 30
0.0
 10
210.8215869630728
 20
108.0016750865648
 30
0.0
 10
210.7991567079368
 20
108.0243363737536
 30
0.0
 10
210.7829742096465
 20
108.0612185213171
 30
0.0
 10
210.7942842032055
 20
108.0742319132169
 30
0.0
 10
210.8664174331097
 20
108.0782592310523
 30
0.0
 10
210.9208826399458
 20
108.0708032798172
 30
0.0
 10
211.0924137288014
 20
108.0343632155355
 30
0.0
 10
211.2156614521291
 20
107.992968460935
 30
0.0
 10
211.4552239742009
 20
107.8880292751586
 30
0.0
 10
211.5735148058025
 20
107.8231838679811
 30
0.0
 10
211.7955812327323
 20
107.6735896895545
 30
0.0
 10
211.9004046969484
 20
107.5884933016063
 30
0.0
 10
212.0957365536088
 20
107.3960835628487
 30
0.0
 10
212.1867570650847
 20
107.2877083379303
 30
0.0
 10
212.3452540105773
 20
107.0544430753494
 30
0.0
 10
212.4136965437658
 20
106.9289240139862
 30
0.0
 10
212.5263094119746
 20
106.6576000106806
 30
0.0
 10
212.5690738112792
 20
106.5143939934664
 30
0.0
 10
212.624489936904
 20
106.2200453842692
 30
0.0
 10
212.6375702138862
 20
106.0656965017037
 30
0.0
 10
212.631866488581
 20
105.7551850021207
 30
0.0
 10
212.6135636325608
 20
105.6014110055902
 30
0.0
 10
212.5153412933224
 20
105.1440597724251
 30
0.0
 10
212.3908838130506
 20
104.8535669083618
 30
0.0
 10
212.0925536138687
 20
104.3569514471525
 30
0.0
 10
211.9169237340181
 20
104.1472200708543
 30
0.0
 10
211.6978251796804
 20
103.9081367568106
 30
0.0
 10
211.6311808569041
 20
103.8391651436437
 30
0.0
 10
211.5311786594075
 20
103.7296770128606
 30
0.0
 10
211.4969654012329
 20
103.6879261957588
 30
0.0
 10
211.4803460903684
 20
103.6585210797787
 30
0.0
  0
ARC
  5
163
330
1F
100
AcDbEntity
  8
0
  6
HIDDEN
 62
     7
370
     0
100
AcDbCircle
 10
209.9385647492
 20
105.5851013106
 30
0.0
 40
2.519328039221826
100
AcDbArc
 50
66.7101437564
 51
109.8317893579
  0
SPLINE
  5
164
330
1F
100
AcDbEntity
  8
0
  6
HIDDEN
 62
     7
370
     0
100
AcDbSpline
210
0.0
220
0.0
230
1.0
 70
     8
 71
     3
 72
    24
 73
    20
 74
     0
 42
0.00000001
 43
0.00000001
 12
1.0
 22
0.0
 32
0.0
 13
1.0
 23
0.0
 33
0.0
 40
0.0
 40
0.0
 40
0.0
 40
0.0
 40
0.2500000000000058
 40
0.2500000000000058
 40
0.3750000000000088
 40
0.3750000000000088
 40
0.5000000000000117
 40
0.5000000000000117
 40
0.562500000000011
 40
0.562500000000011
 40
0.6250000000000103
 40
0.6250000000000103
 40
0.6875000000000097
 40
0.6875000000000097
 40
0.750000000000009
 40
0.750000000000009
 40
0.8750000000000046
 40
0.8750000000000046
 40
1.0
 40
1.0
 40
1.0
 40
1.0
 10
211.4803460903665
 20
103.6585210797795
 30
0.0
 10
211.1284600148476
 20
103.6865232326764
 30
0.0
 10
210.7784886430074
 20
103.7637511484501
 30
0.0
 10
210.2914771771603
 20
103.951179737695
 30
0.0
 10
210.1344458931227
 20
104.0258385881808
 30
0.0
 10
209.8289519089869
 20
104.2010012234374
 30
0.0
 10
209.6819054171674
 20
104.303372451719
 30
0.0
 10
209.4557503819194
 20
104.4629142709229
 30
0.0
 10
209.3778323984257
 20
104.5172879155966
 30
0.0
 10
209.2149497450449
 20
104.6111922684558
 30
0.0
 10
209.1282548604514
 20
104.6500450967076
 30
0.0
 10
208.9591781691289
 20
104.7063209151064
 30
0.0
 10
208.8750095659591
 20
104.7259033994188
 30
0.0
 10
208.7116186485041
 20
104.7575740226531
 30
0.0
 10
208.6314132012187
 20
104.7698402665163
 30
0.0
 10
208.3926782432646
 20
104.8030120720947
 30
0.0
 10
208.2360046810861
 20
104.8204267062706
 30
0.0
 10
207.9240079604382
 20
104.8558135523797
 30
0.0
 10
207.7688739830253
 20
104.8733484433001
 30
0.0
 10
207.6141257272849
 20
104.8917620002298
 30
0.0
  0
SPLINE
  5
165
330
1F
100
AcDbEntity
  8
0
  6
HIDDEN
 62
     7
370
     0
100
AcDbSpline
210
0.0
220
0.0
230
1.0
 70
     8
 71
     3
 72
    12
 73
     8
 74
     0
 42
0.00000001
 43
0.00000001
 12
1.0
 22
0.0
 32
0.0
 13
1.0
 23
0.0
 33
0.0
 40
0.0
 40
0.0
 40
0.0
 40
0.0
 40
0.25
 40
0.25
 40
0.5
 40
0.5
 40
1.0
 40
1.0
 40
1.0
 40
1.0
 10
209.0838583587607
 20
107.9550146489588
 30
0.0
 10
209.2299014412714
 20
107.9340319680681
 30
0.0
 10
209.3795574684326
 20
107.9190921303204
 30
0.0
 10
209.6877927473104
 20
107.9011838486159
 30
0.0
 10
209.8439763360276
 20
107.8983287504129
 30
0.0
 10
210.3106384268012
 20
107.8979615607165
 30
0.0
 10
210.6228701009152
 20
107.9067381327054
 30
0.0
 10
210.9346650145059
 20
107.899145370499
 30
0.0
  0
LWPOLYLINE
  5
166
330
1F
100
AcDbEntity
  8
0
  6
HIDDEN
 62
     7
370
     0
100
AcDbPolyline
 90
       31
 70
   128
 43
0.0
 10
214.2933335364
 20
105.7637894624
 10
214.2224785149
 20
105.3079866902
 10
214.1068715811
 20
104.8521843837
 10
213.9523130119
 20
104.4192371988
 10
213.7665514112
 20
104.0308561274
 10
213.5589000046
 20
103.7065155902
 10
213.339774704
 20
103.4624792733
 10
213.120157665
 20
103.3109847554
 10
212.9110682964
 20
103.2596288347
 10
212.7229895651
 20
103.3109847554
 10
212.5653464556
 20
103.4624792733
 10
212.4460514844
 20
103.7065155902
 10
212.3710837424
 20
104.0308561274
 10
212.3441983223
 20
104.4192371988
 10
212.3667512298
 20
104.8521843837
 10
212.3740118206
 20
104.9167543747
 10
212.4376062512
 20
105.3079866902
 10
212.5532131851
 20
105.7637894624
 10
212.6124229491
 20
105.9457778097
 10
212.7077717543
 20
106.1967361816
 10
212.893533355
 20
106.585117253
 10
213.1011847615
 20
106.9094577902
 10
213.3203100622
 20
107.1534941071
 10
213.5399271011
 20
107.304988625
 10
213.7490164697
 20
107.356345477
 10
213.937095201
 20
107.304988625
 10
214.0947383106
 20
107.1534941071
 10
214.2140332818
 20
106.9094577902
 10
214.2890010238
 20
106.585117253
 10
214.3158864439
 20
106.1967361816
 10
214.2933335364
 20
105.7637894624
  0
ARC
  5
167
330
1F
100
AcDbEntity
  8
0
  6
HIDDEN
 62
     7
370
     0
100
AcDbCircle
 10
217.9022786392
 20
138.4058626691
 30
0.0
 40
6.817825265927673
100
AcDbArc
 50
294.824957784
 51
321.2855597596
  0
LINE
  5
168
330
1F
100
AcDbEntity
  8
0
  6
HIDDEN
 62
     7
370
     0
100
AcDbLine
 10
225.2450611651
 20
136.6707442426
 30
0.0
 11
223.2220422685
 21
134.1417266154
 31
0.0
  0
LINE
  5
169
330
1F
100
AcDbEntity
  8
0
  6
HIDDEN
 62
     7
370
     0
100
AcDbLine
 10
225.5256537557
 20
136.5627722912
 30
0.0
 11
225.2450611651
 21
136.6707442426
 31
0.0
  0
CIRCLE
  5
16A
330
1F
100
AcDbEntity
  8
0
  6
HIDDEN
 62
     7
370
     0
100
AcDbCircle
 10
220.5225650454
 20
123.7716382615
 30
0.0
 40
2.386757174745932
  0
LINE
  5
16B
330
1F
100
AcDbEntity
  8
0
  6
HIDDEN
 62
     7
370
     0
100
AcDbLine
 10
216.7475063562
 20
131.5905919396
 30
0.0
 11
216.1522384942
 21
131.5996350818
 31
0.0
  0
LINE
  5
16C
330
1F
100
AcDbEntity
  8
0
  6
HIDDEN
 62
     7
370
     0
100
AcDbLine
 10
219.4560345471
 20
114.8374830005
 30
0.0
 11
224.7222800016
 21
121.4209172972
 31
0.0
  0
LINE
  5
16D
330
1F
100
AcDbEntity
  8
0
  6
HIDDEN
 62
     7
370
     0
100
AcDbLine
 10
224.7222800016
 20
121.4209172972
 30
0.0
 11
225.5256537557
 21
136.5627722912
 31
0.0
  0
LINE
  5
16E
330
1F
100
AcDbEntity
  8
0
  6
HIDDEN
 62
     7
370
     0
100
AcDbLine
 10
216.1522384942
 20
131.5996350818
 30
0.0
 11
214.9600524664
 21
109.1295552538
 31
0.0
  0
LINE
  5
16F
330
1F
100
AcDbEntity
  8
0
  6
HIDDEN
 62
     7
370
     0
100
AcDbLine
 10
174.9422156228
 20
125.8416922861
 30
0.0
 11
174.9422156228
 21
125.7418302917
 31
0.0
  0
SPLINE
  5
170
330
1F
100
AcDbEntity
  8
0
  6
HIDDEN
 62
     7
370
     0
100
AcDbSpline
210
0.0
220
0.0
230
1.0
 70
     8
 71
     3
 72
    24
 73
    20
 74
     0
 42
0.00000001
 43
0.00000001
 12
1.0
 22
0.0
 32
0.0
 13
1.0
 23
0.0
 33
0.0
 40
0.0
 40
0.0
 40
0.0
 40
0.0
 40
0.2500000000000001
 40
0.2500000000000001
 40
0.3749999999999997
 40
0.3749999999999997
 40
0.4375000000000007
 40
0.4375000000000007
 40
0.5000000000000017
 40
0.5000000000000017
 40
0.5312500000000017
 40
0.5312500000000017
 40
0.5625000000000017
 40
0.5625000000000017
 40
0.6250000000000014
 40
0.6250000000000014
 40
0.7500000000000011
 40
0.7500000000000011
 40
1.0
 40
1.0
 40
1.0
 40
1.0
 10
175.1471756673815
 20
125.5606784439457
 30
0.0
 10
175.1314090790831
 20
125.5464574729575
 30
0.0
 10
175.1147975461285
 20
125.5322271826226
 30
0.0
 10
175.0862711981705
 20
125.5134301274012
 30
0.0
 10
175.0761857643805
 20
125.5075417070599
 30
0.0
 10
175.0587029938457
 20
125.5010043122575
 30
0.0
 10
175.0524953374001
 20
125.4991930982564
 30
0.0
 10
175.038223837155
 20
125.4975872957499
 30
0.0
 10
175.0306537666519
 20
125.4970345183637
 30
0.0
 10
175.0132574372167
 20
125.5042332630764
 30
0.0
 10
175.0047981642567
 20
125.509325011824
 30
0.0
 10
174.988737199709
 20
125.5271399443031
 30
0.0
 10
174.9839039638627
 20
125.5356623591655
 30
0.0
 10
174.9724780441273
 20
125.5575587958143
 30
0.0
 10
174.9684566882449
 20
125.5692993186203
 30
0.0
 10
174.9576961932138
 20
125.6033495825737
 30
0.0
 10
174.9538218841528
 20
125.6229245716024
 30
0.0
 10
174.9446490120257
 20
125.6787728802836
 30
0.0
 10
174.9426166413109
 20
125.7115506413125
 30
0.0
 10
174.9422156453211
 20
125.7418303011004
 30
0.0
  0
SPLINE
  5
171
330
1F
100
AcDbEntity
  8
0
  6
HIDDEN
 62
     7
370
     0
100
AcDbSpline
210
0.0
220
0.0
230
1.0
 70
     8
 71
     3
 72
     8
 73
     4
 74
     0
 42
0.00000001
 43
0.00000001
 12
1.0
 22
0.0
 32
0.0
 13
1.0
 23
0.0
 33
0.0
 40
0.0
 40
0.0
 40
0.0
 40
0.0
 40
1.0
 40
1.0
 40
1.0
 40
1.0
 10
175.3208953017615
 20
125.6466579207909
 30
0.0
 10
175.2557901401474
 20
125.6349368911323
 30
0.0
 10
175.1979028105874
 20
125.6064327452695
 30
0.0
 10
175.1471756673814
 20
125.5606784439457
 30
0.0
  0
LINE
  5
172
330
1F
100
AcDbEntity
  8
0
  6
HIDDEN
 62
     7
370
     0
100
AcDbLine
 10
154.1422147513
 20
125.3191243955
 30
0.0
 11
154.1422147513
 21
121.4792050519
 31
0.0
  0
LINE
  5
173
330
1F
100
AcDbEntity
  8
0
  6
HIDDEN
 62
     7
370
     0
100
AcDbLine
 10
174.9422156228
 20
122.7956323051
 30
0.0
 11
174.9422156228
 21
121.7404894629
 31
0.0
  0
SPLINE
  5
174
330
1F
100
AcDbEntity
  8
0
  6
HIDDEN
 62
     7
370
     0
100
AcDbSpline
210
0.0
220
0.0
230
1.0
 70
     8
 71
     3
 72
    16
 73
    12
 74
     0
 42
0.00000001
 43
0.00000001
 12
1.0
 22
0.0
 32
0.0
 13
1.0
 23
0.0
 33
0.0
 40
0.0
 40
0.0
 40
0.0
 40
0.0
 40
0.2499999999999996
 40
0.2499999999999996
 40
0.3749999999999994
 40
0.3749999999999994
 40
0.4999999999999992
 40
0.4999999999999992
 40
0.7499999999999996
 40
0.7499999999999996
 40
1.0
 40
1.0
 40
1.0
 40
1.0
 10
174.9422156453209
 20
125.7418303011006
 30
0.0
 10
174.8616783134214
 20
125.6617616149481
 30
0.0
 10
174.801640969394
 20
125.5378971234574
 30
0.0
 10
174.7409032622404
 20
125.2872162995245
 30
0.0
 10
174.7255808871275
 20
125.1927776952147
 30
0.0
 10
174.7049980778234
 20
124.9814666275952
 30
0.0
 10
174.6997984807978
 20
124.8641771728412
 30
0.0
 10
174.699744827618
 20
124.4861415010847
 30
0.0
 10
174.7199423710959
 20
124.1973643473396
 30
0.0
 10
174.8006204594546
 20
123.5475244841984
 30
0.0
 10
174.8616666240625
 20
123.1846955503044
 30
0.0
 10
174.9422156453211
 20
122.7956319050314
 30
0.0
  0
LINE
  5
175
330
1F
100
AcDbEntity
  8
0
  6
HIDDEN
 62
     7
370
     0
100
AcDbLine
 10
152.6422154367
 20
124.4530987092
 30
0.0
 11
152.6422154367
 21
121.0461922088
 31
0.0
  0
LINE
  5
176
330
1F
100
AcDbEntity
  8
0
  6
HIDDEN
 62
     7
370
     0
100
AcDbLine
 10
154.1422147513
 20
102.1639827737
 30
0.0
 11
154.1422147513
 21
98.3240634301
 31
0.0
  0
LINE
  5
177
330
1F
100
AcDbEntity
  8
0
  6
HIDDEN
 62
     7
370
     0
100
AcDbLine
 10
152.6422154367
 20
102.5969956168
 30
0.0
 11
152.6422154367
 21
99.1900891163
 31
0.0
  0
LINE
  5
178
330
1F
100
AcDbEntity
  8
0
  6
HIDDEN
 62
     7
370
     0
100
AcDbLine
 10
174.9422156228
 20
101.9026983627
 30
0.0
 11
174.9422156228
 21
100.8475555205
 31
0.0
  0
LINE
  5
179
330
1F
100
AcDbEntity
  8
0
  6
HIDDEN
 62
     7
370
     0
100
AcDbLine
 10
174.9422156228
 20
97.9013575339
 30
0.0
 11
174.9422156228
 21
97.8014955395
 31
0.0
  0
SPLINE
  5
17A
330
1F
100
AcDbEntity
  8
0
  6
HIDDEN
 62
     7
370
     0
100
AcDbSpline
210
0.0
220
0.0
230
1.0
 70
     8
 71
     3
 72
    16
 73
    12
 74
     0
 42
0.00000001
 43
0.00000001
 12
1.0
 22
0.0
 32
0.0
 13
1.0
 23
0.0
 33
0.0
 40
0.0
 40
0.0
 40
0.0
 40
0.0
 40
0.2500000000000002
 40
0.2500000000000002
 40
0.3750000000000003
 40
0.3750000000000003
 40
0.5000000000000004
 40
0.5000000000000004
 40
0.7500000000000002
 40
0.7500000000000002
 40
1.0
 40
1.0
 40
1.0
 40
1.0
 10
174.9422156453209
 20
100.8475559205392
 30
0.0
 10
174.8616783134217
 20
100.4585487365953
 30
0.0
 10
174.8016409693945
 20
100.1020482949709
 30
0.0
 10
174.7409032622409
 20
99.61554590978359
 30
0.0
 10
174.7255808871279
 20
99.46146696893015
 30
0.0
 10
174.7049980778237
 20
99.1699974104375
 30
0.0
 10
174.6997984807979
 20
99.03242752653864
 30
0.0
 10
174.6997448276176
 20
98.65418269134939
 30
0.0
 10
174.7199423710951
 20
98.44430162279731
 30
0.0
 10
174.8006204594525
 20
98.10772232388548
 30
0.0
 10
174.8616666240596
 20
97.98143783196694
 30
0.0
 10
174.9422156453172
 20
97.90135752447448
 30
0.0
  0
SPLINE
  5
17B
330
1F
100
AcDbEntity
  8
0
  6
HIDDEN
 62
     7
370
     0
100
AcDbSpline
210
0.0
220
0.0
230
1.0
 70
     8
 71
     3
 72
    24
 73
    20
 74
     0
 42
0.00000001
 43
0.00000001
 12
1.0
 22
0.0
 32
0.0
 13
1.0
 23
0.0
 33
0.0
 40
0.0
 40
0.0
 40
0.0
 40
0.0
 40
0.250000000000006
 40
0.250000000000006
 40
0.3750000000000089
 40
0.3750000000000089
 40
0.4375000000000114
 40
0.4375000000000114
 40
0.4687500000000119
 40
0.4687500000000119
 40
0.5000000000000124
 40
0.5000000000000124
 40
0.562500000000011
 40
0.562500000000011
 40
0.6250000000000097
 40
0.6250000000000097
 40
0.7500000000000074
 40
0.7500000000000074
 40
1.0
 40
1.0
 40
1.0
 40
1.0
 10
174.942215645321
 20
97.90135752447829
 30
0.0
 10
174.9426185559568
 20
97.93178176131633
 30
0.0
 10
174.9446625352975
 20
97.96463986187048
 30
0.0
 10
174.9538997781235
 20
98.0206652290241
 30
0.0
 10
174.9577868411041
 20
98.04027628220952
 30
0.0
 10
174.9686907325107
 20
98.0745505656391
 30
0.0
 10
174.9728327782612
 20
98.08661299111132
 30
0.0
 10
174.984727852014
 20
98.10893215581086
 30
0.0
 10
174.9899749163228
 20
98.11789866817115
 30
0.0
 10
175.006841982702
 20
98.13554823269743
 30
0.0
 10
175.014664390227
 20
98.13969251683707
 30
0.0
 10
175.0316131908485
 20
98.14618005801107
 30
0.0
 10
175.0390695420666
 20
98.1455831766394
 30
0.0
 10
175.0531294452589
 20
98.14383691266737
 30
0.0
 10
175.0592618303949
 20
98.1420062247689
 30
0.0
 10
175.0765565929181
 20
98.13543981519605
 30
0.0
 10
175.086573911327
 20
98.12957460003737
 30
0.0
 10
175.1149452455698
 20
98.11082991600702
 30
0.0
 10
175.1314806832142
 20
98.09666576792038
 30
0.0
 10
175.1471756673787
 20
98.08250938162813
 30
0.0
  0
SPLINE
  5
17C
330
1F
100
AcDbEntity
  8
0
  6
HIDDEN
 62
     7
370
     0
100
AcDbSpline
210
0.0
220
0.0
230
1.0
 70
     8
 71
     3
 72
     8
 73
     4
 74
     0
 42
0.00000001
 43
0.00000001
 12
1.0
 22
0.0
 32
0.0
 13
1.0
 23
0.0
 33
0.0
 40
0.0
 40
0.0
 40
0.0
 40
0.0
 40
1.0
 40
1.0
 40
1.0
 40
1.0
 10
175.1471756673787
 20
98.0825093816281
 30
0.0
 10
175.1979028105854
 20
98.0367550803029
 30
0.0
 10
175.2557901401462
 20
98.00825093443936
 30
0.0
 10
175.3208953017615
 20
97.99652990478056
 30
0.0
  0
CIRCLE
  5
17D
330
1F
100
AcDbEntity
  8
0
  6
HIDDEN
 62
     7
370
     0
100
AcDbCircle
 10
220.446132564
 20
123.6335597225
 30
0.0
 40
1.639731558939181
  0
CIRCLE
  5
17E
330
1F
100
AcDbEntity
  8
0
  6
HIDDEN
 62
     7
370
     0
100
AcDbCircle
 10
219.5092111171
 20
121.7739454703
 30
0.0
 40
1.639731983290912
  0
SPLINE
  5
17F
330
1F
100
AcDbEntity
  8
0
  6
HIDDEN
 62
     7
370
     0
100
AcDbSpline
210
0.0
220
0.0
230
1.0
 70
     8
 71
     3
 72
     8
 73
     4
 74
     0
 42
0.00000001
 43
0.00000001
 12
1.0
 22
0.0
 32
0.0
 13
1.0
 23
0.0
 33
0.0
 40
0.0
 40
0.0
 40
0.0
 40
0.0
 40
1.0
 40
1.0
 40
1.0
 40
1.0
 10
200.8244662299478
 20
129.7083714274539
 30
0.0
 10
200.3372312757261
 20
130.2898980822805
 30
0.0
 10
199.9788946912481
 20
130.8739986902409
 30
0.0
 10
199.8408144836312
 20
131.4624975663299
 30
0.0
  0
LINE
  5
180
330
1F
100
AcDbEntity
  8
0
  6
HIDDEN
 62
     7
370
     0
100
AcDbLine
 10
225.2450611651
 20
136.6707442426
 30
0.0
 11
224.9616224527
 21
136.1081695282
 31
0.0
  0
LINE
  5
181
330
1F
100
AcDbEntity
  8
0
  6
HIDDEN
 62
     7
370
     0
100
AcDbLine
 10
225.2269860566
 20
135.9699742966
 30
0.0
 11
225.5256537557
 21
136.5627722912
 31
0.0
  0
LINE
  5
182
330
1F
100
AcDbEntity
  8
0
  6
HIDDEN
 62
     7
370
     0
100
AcDbLine
 10
152.6422154367
 20
121.0461922088
 30
0.0
 11
152.6422154367
 21
113.6718077683
 31
0.0
  0
LINE
  5
183
330
1F
100
AcDbEntity
  8
0
  6
HIDDEN
 62
     7
370
     0
100
AcDbLine
 10
152.6422154367
 20
109.9713800573
 30
0.0
 11
152.6422154367
 21
102.5969956168
 31
0.0
  0
SPLINE
  5
184
330
1F
100
AcDbEntity
  8
0
  6
HIDDEN
 62
     7
370
     0
100
AcDbSpline
210
0.0
220
0.0
230
1.0
 70
     8
 71
     3
 72
    24
 73
    20
 74
     0
 42
0.00000001
 43
0.00000001
 12
1.0
 22
0.0
 32
0.0
 13
1.0
 23
0.0
 33
0.0
 40
0.0
 40
0.0
 40
0.0
 40
0.0
 40
0.2499999999999938
 40
0.2499999999999938
 40
0.3749999999999925
 40
0.3749999999999925
 40
0.4374999999999936
 40
0.4374999999999936
 40
0.4999999999999947
 40
0.4999999999999947
 40
0.5312499999999946
 40
0.5312499999999946
 40
0.5624999999999944
 40
0.5624999999999944
 40
0.6249999999999943
 40
0.6249999999999943
 40
0.7499999999999941
 40
0.7499999999999941
 40
1.0
 40
1.0
 40
1.0
 40
1.0
 10
175.1471756673814
 20
101.0290001859875
 30
0.0
 10
175.131406790024
 20
100.9551414940579
 30
0.0
 10
175.114792808174
 20
100.8814301053222
 30
0.0
 10
175.0862611421689
 20
100.7698832817002
 30
0.0
 10
175.0761737273503
 20
100.7325117085717
 30
0.0
 10
175.058686166896
 20
100.675612210934
 30
0.0
 10
175.0524766051127
 20
100.6565091107888
 30
0.0
 10
175.0381990514601
 20
100.6176355965532
 30
0.0
 10
175.0306275036647
 20
100.5977109371199
 30
0.0
 10
175.0132099199865
 20
100.5676387190925
 30
0.0
 10
175.0047274233415
 20
100.5559573402894
 30
0.0
 10
174.9886891114697
 20
100.5486958295405
 30
0.0
 10
174.9838685632661
 20
100.5522740765503
 30
0.0
 10
174.9724593387181
 20
100.5640349317819
 30
0.0
 10
174.9684388582606
 20
100.5757005818324
 30
0.0
 10
174.9576850034402
 20
100.612235911946
 30
0.0
 10
174.9538123221581
 20
100.6396316452696
 30
0.0
 10
174.9446441723204
 20
100.7243576370256
 30
0.0
 10
174.9426156669513
 20
100.7851897591977
 30
0.0
 10
174.9422156453211
 20
100.8475559205393
 30
0.0
  0
SPLINE
  5
185
330
1F
100
AcDbEntity
  8
0
  6
HIDDEN
 62
     7
370
     0
100
AcDbSpline
210
0.0
220
0.0
230
1.0
 70
     8
 71
     3
 72
    24
 73
    20
 74
     0
 42
0.00000001
 43
0.00000001
 12
1.0
 22
0.0
 32
0.0
 13
1.0
 23
0.0
 33
0.0
 40
0.0
 40
0.0
 40
0.0
 40
0.0
 40
0.2500000000000133
 40
0.2500000000000133
 40
0.3750000000000186
 40
0.3750000000000186
 40
0.4375000000000213
 40
0.4375000000000213
 40
0.4687500000000206
 40
0.4687500000000206
 40
0.5000000000000199
 40
0.5000000000000199
 40
0.5625000000000201
 40
0.5625000000000201
 40
0.6250000000000203
 40
0.6250000000000203
 40
0.7500000000000144
 40
0.7500000000000144
 40
1.0
 40
1.0
 40
1.0
 40
1.0
 10
174.9422156453174
 20
122.7956319050343
 30
0.0
 10
174.942620314893
 20
122.8587227135279
 30
0.0
 10
174.9446637617073
 20
122.9199084360313
 30
0.0
 10
174.9540633269612
 20
123.0054081685346
 30
0.0
 10
174.9580142204898
 20
123.0329885519762
 30
0.0
 10
174.9691665287862
 20
123.0694426340888
 30
0.0
 10
174.9733880697127
 20
123.0813010557835
 30
0.0
 10
174.985595791275
 20
123.0919211071608
 30
0.0
 10
174.9913865615254
 20
123.0947544743849
 30
0.0
 10
175.0083080746351
 20
123.083439887392
 30
0.0
 10
175.0157141905864
 20
123.0716590016377
 30
0.0
 10
175.0321714438309
 20
123.0416181604076
 30
0.0
 10
175.039627961742
 20
123.0219052067942
 30
0.0
 10
175.053535891017
 20
122.9835031407337
 30
0.0
 10
175.0596278369121
 20
122.964621490822
 30
0.0
 10
175.0768221292635
 20
122.9083205802898
 30
0.0
 10
175.0868070794673
 20
122.8712445024797
 30
0.0
 10
175.1150531245665
 20
122.7605858315886
 30
0.0
 10
175.1315326615278
 20
122.6874567711794
 30
0.0
 10
175.1471756673877
 20
122.6141876395547
 30
0.0
  0
SPLINE
  5
186
330
1F
100
AcDbEntity
  8
0
  6
HIDDEN
 62
     7
370
     0
100
AcDbSpline
210
0.0
220
0.0
230
1.0
 70
     8
 71
     3
 72
     8
 73
     4
 74
     0
 42
0.00000001
 43
0.00000001
 12
1.0
 22
0.0
 32
0.0
 13
1.0
 23
0.0
 33
0.0
 40
0.0
 40
0.0
 40
0.0
 40
0.0
 40
1.0
 40
1.0
 40
1.0
 40
1.0
 10
175.3208953017615
 20
101.7680745951789
 30
0.0
 10
175.2557901401474
 20
101.5130493599732
 30
0.0
 10
175.1979028105874
 20
101.266597343832
 30
0.0
 10
175.1471756673814
 20
101.0290001859874
 30
0.0
  0
SPLINE
  5
187
330
1F
100
AcDbEntity
  8
0
  6
HIDDEN
 62
     7
370
     0
100
AcDbSpline
210
0.0
220
0.0
230
1.0
 70
     8
 71
     3
 72
     8
 73
     4
 74
     0
 42
0.00000001
 43
0.00000001
 12
1.0
 22
0.0
 32
0.0
 13
1.0
 23
0.0
 33
0.0
 40
0.0
 40
0.0
 40
0.0
 40
0.0
 40
1.0
 40
1.0
 40
1.0
 40
1.0
 10
175.1471756673876
 20
122.6141876395547
 30
0.0
 10
175.1979028105921
 20
122.3765904817192
 30
0.0
 10
175.2557901401501
 20
122.1301384655877
 30
0.0
 10
175.3208953017615
 20
121.8751132303925
 30
0.0
  0
LINE
  5
188
330
1F
100
AcDbEntity
  8
0
  6
HIDDEN
 62
     7
370
     0
100
AcDbLine
 10
154.1422147513
 20
109.2665656102
 30
0.0
 11
154.1422147513
 21
102.1639827737
 31
0.0
  0
LINE
  5
189
330
1F
100
AcDbEntity
  8
0
  6
HIDDEN
 62
     7
370
     0
100
AcDbLine
 10
154.1422147513
 20
121.4792050519
 30
0.0
 11
154.1422147513
 21
114.3766222154
 31
0.0
  0
LWPOLYLINE
  5
18A
330
1F
100
AcDbEntity
  8
0
  6
HIDDEN
 62
     7
370
     0
100
AcDbPolyline
 90
       33
 70
   128
 43
0.0
 10
214.6851632953
 20
105.7620111019
 10
214.6046783984
 20
105.2550139935
 10
214.4777577579
 20
104.748016885
 10
214.3099557817
 20
104.2631778033
 10
214.1085963905
 20
103.8216866651
 10
213.8824898958
 20
103.4428395429
 10
213.6415120423
 20
103.1431920924
 10
213.3961942256
 20
102.9358415031
 10
213.1572615564
 20
102.8298504748
 10
212.9351560235
 20
102.8298504748
 10
212.7395820081
 20
102.9358415031
 10
212.5790890515
 20
103.1431920924
 10
212.4606881499
 20
103.4428395429
 10
212.3895611823
 20
103.8216866651
 10
212.3688113153
 20
104.2631778033
 10
212.3993437946
 20
104.748016885
 10
212.4549512029
 20
105.1261222088
 10
212.4798286915
 20
105.2550139935
 10
212.5778708816
 20
105.6616112688
 10
212.606749332
 20
105.7620111019
 10
212.7745513082
 20
106.2468501837
 10
212.9759106994
 20
106.6883413219
 10
213.202017194
 20
107.0671889097
 10
213.4429950476
 20
107.3668358945
 10
213.6883128643
 20
107.5741864839
 10
213.9272455335
 20
107.6801775121
 10
214.1493510664
 20
107.6801775121
 10
214.3449250817
 20
107.5741864839
 10
214.5054180384
 20
107.3668358945
 10
214.6238189399
 20
107.0671889097
 10
214.6949459076
 20
106.6883413219
 10
214.7156957746
 20
106.2468501837
 10
214.6851632953
 20
105.7620111019
  0
LINE
  5
18B
330
1F
100
AcDbEntity
  8
0
  6
HIDDEN
 62
     7
370
     0
100
AcDbLine
 10
174.9422156228
 20
121.7404894629
 30
0.0
 11
174.9422156228
 21
101.9026983627
 31
0.0
  0
LINE
  5
18C
330
1F
100
AcDbEntity
  8
0
  6
HIDDEN
 62
     7
370
     0
100
AcDbLine
 10
176.4422156504
 20
120.3009609231
 30
0.0
 11
176.4422156504
 21
103.3422269025
 31
0.0
  0
ELLIPSE
  5
18D
330
1F
100
AcDbEntity
  8
0
  6
HIDDEN
 62
     7
370
     0
100
AcDbEllipse
 10
285.4182553949
 20
116.3215939128
 30
0.0
 11
67.13604924265117
 21
-24.58537079859908
 31
0.0
210
0.0
220
0.0
230
1.0
 40
0.0675384275
 41
3.616810119373184
 42
3.625801885694334
  0
ELLIPSE
  5
18E
330
1F
100
AcDbEntity
  8
0
  6
HIDDEN
 62
     7
370
     0
100
AcDbEllipse
 10
208.614312581
 20
116.3215939128
 30
0.0
 11
19.71328915065586
 21
24.99259776199092
 31
0.0
210
0.0
220
0.0
230
1.0
 40
0.0308585335
 41
5.459427823508402
 42
5.649923256879926
  0
SPLINE
  5
18F
330
1F
100
AcDbEntity
  8
0
  6
HIDDEN
 62
     7
370
     0
100
AcDbSpline
210
0.0
220
0.0
230
1.0
 70
     8
 71
     3
 72
    16
 73
    12
 74
     0
 42
0.00000001
 43
0.00000001
 12
1.0
 22
0.0
 32
0.0
 13
1.0
 23
0.0
 33
0.0
 40
0.0
 40
0.0
 40
0.0
 40
0.0
 40
0.2500000000000002
 40
0.2500000000000002
 40
0.3750000000000001
 40
0.3750000000000001
 40
0.5
 40
0.5
 40
0.75
 40
0.75
 40
1.0
 40
1.0
 40
1.0
 40
1.0
 10
200.8244662299478
 20
129.7083714274539
 30
0.0
 10
200.7443619311168
 20
128.7158532559915
 30
0.0
 10
200.6645143203701
 20
127.685000449086
 30
0.0
 10
200.5451580702311
 20
126.0815328053071
 30
0.0
 10
200.5054434511425
 20
125.5374772022334
 30
0.0
 10
200.426182536055
 20
124.4298513963027
 30
0.0
 10
200.386494568854
 20
123.8641768165437
 30
0.0
 10
200.2693164848291
 20
122.1599003446075
 30
0.0
 10
200.1934133061871
 20
121.0104753558861
 30
0.0
 10
200.0463920260399
 20
118.685718449372
 30
0.0
 10
199.9752706294815
 20
117.5103886362711
 30
0.0
 10
199.9069740617422
 20
116.3215939127857
 30
0.0
  0
SPLINE
  5
190
330
1F
100
AcDbEntity
  8
0
  6
HIDDEN
 62
     7
370
     0
100
AcDbSpline
210
0.0
220
0.0
230
1.0
 70
     8
 71
     3
 72
    18
 73
    14
 74
     0
 42
0.00000001
 43
0.00000001
 12
1.0
 22
0.0
 32
0.0
 13
1.0
 23
0.0
 33
0.0
 40
0.0
 40
0.0
 40
0.0
 40
0.0
 40
0.2499999999999999
 40
0.2499999999999999
 40
0.375
 40
0.375
 40
0.5000000000000001
 40
0.5000000000000001
 40
0.6250000000000002
 40
0.6250000000000002
 40
0.7500000000000002
 40
0.7500000000000002
 40
1.0
 40
1.0
 40
1.0
 40
1.0
 10
216.7861388254062
 20
129.7083714274539
 30
0.0
 10
217.4053857719476
 20
129.7083714274539
 30
0.0
 10
218.0046361306741
 20
129.7997594931282
 30
0.0
 10
218.8768822074317
 20
130.0555698018297
 30
0.0
 10
219.1592131864257
 20
130.16003903926
 30
0.0
 10
219.6982393208694
 20
130.398651892937
 30
0.0
 10
219.9567083616597
 20
130.5333370703761
 30
0.0
 10
220.4531721903101
 20
130.8298995766927
 30
0.0
 10
220.6902244550002
 20
130.9915121894969
 30
0.0
 10
221.1335219425109
 20
131.3292433847979
 30
0.0
 10
221.3415321972822
 20
131.5063954980934
 30
0.0
 10
221.9294365616092
 20
132.0575786474407
 30
0.0
 10
222.2748301400277
 20
132.4535466511512
 30
0.0
 10
222.5747422109693
 20
132.856963331444
 30
0.0
  0
LINE
  5
191
330
1F
100
AcDbEntity
  8
0
  6
HIDDEN
 62
     7
370
     0
100
AcDbLine
 10
200.8244663686
 20
129.7083722525
 30
0.0
 11
216.7861376166
 21
129.7083722525
 31
0.0
  0
ELLIPSE
  5
192
330
1F
100
AcDbEntity
  8
0
  6
HIDDEN
 62
     7
370
     0
100
AcDbEllipse
 10
225.1011437355
 20
116.3215939128
 30
0.0
 11
1.684953628576551
 21
24.99966615101721
 31
0.0
210
0.0
220
0.0
230
1.0
 40
0.0766779737
 41
0.6717571224140143
 42
1.575964303001159
  0
SPLINE
  5
193
330
1F
100
AcDbEntity
  8
0
  6
HIDDEN
 62
     7
370
     0
100
AcDbSpline
210
0.0
220
0.0
230
1.0
 70
     8
 71
     3
 72
    22
 73
    18
 74
     0
 42
0.00000001
 43
0.00000001
 12
1.0
 22
0.0
 32
0.0
 13
1.0
 23
0.0
 33
0.0
 40
0.0
 40
0.0
 40
0.0
 40
0.0
 40
0.1249999999999999
 40
0.1249999999999999
 40
0.2499999999999999
 40
0.2499999999999999
 40
0.3749999999999999
 40
0.3749999999999999
 40
0.5
 40
0.5
 40
0.625
 40
0.625
 40
0.75
 40
0.75
 40
0.8750000000000001
 40
0.8750000000000001
 40
1.0
 40
1.0
 40
1.0
 40
1.0
 10
156.8422156453211
 20
109.2286492329578
 30
0.0
 10
157.0231520033973
 20
109.4202690922643
 30
0.0
 10
157.2022474521741
 20
109.6139109566515
 30
0.0
 10
157.5530874406861
 20
110.0085662100357
 30
0.0
 10
157.7252805485908
 20
110.2095777407033
 30
0.0
 10
158.05101205421
 20
110.625788855937
 30
0.0
 10
158.2070882893784
 20
110.8418046962238
 30
0.0
 10
158.4584675032675
 20
111.3071274593885
 30
0.0
 10
158.5523326335862
 20
111.5626666524113
 30
0.0
 10
158.5486047167241
 20
112.096997287512
 30
0.0
 10
158.4512320742367
 20
112.3524181535127
 30
0.0
 10
158.1994112652428
 20
112.8124468694603
 30
0.0
 10
158.0444420097703
 20
113.0262838703889
 30
0.0
 10
157.719629252045
 20
113.4403224530827
 30
0.0
 10
157.5487361879171
 20
113.6396149251185
 30
0.0
 10
157.2001019483895
 20
114.0315898175527
 30
0.0
 10
157.022094097861
 20
114.2240391035421
 30
0.0
 10
156.8422156453211
 20
114.4145385926137
 30
0.0
  0
LINE
  5
194
330
1F
100
AcDbEntity
  8
0
  6
HIDDEN
 62
     7
370
     0
100
AcDbLine
 10
156.8422157526
 20
109.2286491399
 30
0.0
 11
156.8422157526
 21
114.4145386857
 31
0.0
  0
SPLINE
  5
195
330
1F
100
AcDbEntity
  8
0
  6
HIDDEN
 62
     7
370
     0
100
AcDbSpline
210
0.0
220
0.0
230
1.0
 70
     8
 71
     3
 72
     8
 73
     4
 74
     0
 42
0.00000001
 43
0.00000001
 12
1.0
 22
0.0
 32
0.0
 13
1.0
 23
0.0
 33
0.0
 40
0.0000137051794234
 40
0.0000137051794234
 40
0.0000137051794234
 40
0.0000137051794234
 40
0.0027147144718019
 40
0.0027147144718019
 40
0.0027147144718019
 40
0.0027147144718019
 10
154.1422156453211
 20
109.266565675724
 30
0.0
 10
155.0422117808158
 20
109.2535941085256
 30
0.0
 10
155.9422119594112
 20
109.2409592512136
 30
0.0
 10
156.8422156453211
 20
109.2286492329578
 30
0.0
  0
SPLINE
  5
196
330
1F
100
AcDbEntity
  8
0
  6
HIDDEN
 62
     7
370
     0
100
AcDbSpline
210
0.0
220
0.0
230
1.0
 70
     8
 71
     3
 72
     8
 73
     4
 74
     0
 42
0.00000001
 43
0.00000001
 12
1.0
 22
0.0
 32
0.0
 13
1.0
 23
0.0
 33
0.0
 40
0.0000137050638848
 40
0.0000137050638848
 40
0.0000137050638848
 40
0.0000137050638848
 40
0.0027147143562631
 40
0.0027147143562631
 40
0.0027147143562631
 40
0.0027147143562631
 10
156.8422156453211
 20
114.4145385926136
 30
0.0
 10
155.9422119594113
 20
114.4022285743579
 30
0.0
 10
155.0422117808159
 20
114.3895937170458
 30
0.0
 10
154.1422156453211
 20
114.3766221498474
 30
0.0
  0
SPLINE
  5
197
330
1F
100
AcDbEntity
  8
0
  6
HIDDEN
 62
     7
370
     0
100
AcDbSpline
210
0.0
220
0.0
230
1.0
 70
     8
 71
     3
 72
    10
 73
     6
 74
     0
 42
0.00000001
 43
0.00000001
 12
1.0
 22
0.0
 32
0.0
 13
1.0
 23
0.0
 33
0.0
 40
0.0
 40
0.0
 40
0.0
 40
0.0
 40
0.5
 40
0.5
 40
1.0
 40
1.0
 40
1.0
 40
1.0
 10
152.6422156453202
 20
109.9713800991357
 30
0.0
 10
152.8793576060361
 20
109.8157652846068
 30
0.0
 10
153.1247003647995
 20
109.6838562551875
 30
0.0
 10
153.6259639535326
 20
109.4521993785499
 30
0.0
 10
153.8819985227829
 20
109.3527537624271
 30
0.0
 10
154.1422156453211
 20
109.266565675724
 30
0.0
  0
SPLINE
  5
198
330
1F
100
AcDbEntity
  8
0
  6
HIDDEN
 62
     7
370
     0
100
AcDbSpline
210
0.0
220
0.0
230
1.0
 70
     8
 71
     3
 72
    10
 73
     6
 74
     0
 42
0.00000001
 43
0.00000001
 12
1.0
 22
0.0
 32
0.0
 13
1.0
 23
0.0
 33
0.0
 40
0.0
 40
0.0
 40
0.0
 40
0.0
 40
0.5
 40
0.5
 40
1.0
 40
1.0
 40
1.0
 40
1.0
 10
154.1422156453211
 20
114.3766221498474
 30
0.0
 10
153.8819985227831
 20
114.2904340631444
 30
0.0
 10
153.6259639535329
 20
114.1909884470216
 30
0.0
 10
153.1247003648002
 20
113.9593315703843
 30
0.0
 10
152.8793576060369
 20
113.8274225409651
 30
0.0
 10
152.6422156453211
 20
113.6718077264363
 30
0.0
  0
LINE
  5
199
330
1F
100
AcDbEntity
  8
0
  6
HIDDEN
 62
     7
370
     0
100
AcDbLine
 10
152.6422154367
 20
109.9713800573
 30
0.0
 11
152.6422154367
 21
113.6718077683
 31
0.0
  0
SPLINE
  5
19A
330
1F
100
AcDbEntity
  8
0
  6
HIDDEN
 62
     7
370
     0
100
AcDbSpline
210
0.0
220
0.0
230
1.0
 70
     8
 71
     3
 72
    62
 73
    58
 74
     0
 42
0.00000001
 43
0.00000001
 12
1.0
 22
0.0
 32
0.0
 13
1.0
 23
0.0
 33
0.0
 40
-0.03125
 40
-0.03125
 40
0.0
 40
0.0
 40
0.0312500000000001
 40
0.0312500000000001
 40
0.0625000000000002
 40
0.0625000000000002
 40
0.0937500000000002
 40
0.0937500000000002
 40
0.1250000000000003
 40
0.1250000000000003
 40
0.1875000000000004
 40
0.1875000000000004
 40
0.2500000000000005
 40
0.2500000000000005
 40
0.2812500000000005
 40
0.2812500000000005
 40
0.3125000000000004
 40
0.3125000000000004
 40
0.3437500000000003
 40
0.3437500000000003
 40
0.3750000000000002
 40
0.3750000000000002
 40
0.4375000000000002
 40
0.4375000000000002
 40
0.4687500000000001
 40
0.4687500000000001
 40
0.5000000000000001
 40
0.5000000000000001
 40
0.5625000000000003
 40
0.5625000000000003
 40
0.5937500000000002
 40
0.5937500000000002
 40
0.6250000000000002
 40
0.6250000000000002
 40
0.6562500000000002
 40
0.6562500000000002
 40
0.6875000000000002
 40
0.6875000000000002
 40
0.7187500000000002
 40
0.7187500000000002
 40
0.7500000000000001
 40
0.7500000000000001
 40
0.7812500000000001
 40
0.7812500000000001
 40
0.8125000000000001
 40
0.8125000000000001
 40
0.8437500000000001
 40
0.8437500000000001
 40
0.8750000000000001
 40
0.8750000000000001
 40
0.9062500000000001
 40
0.9062500000000001
 40
0.9375
 40
0.9375
 40
0.96875
 40
0.96875
 40
1.0
 40
1.0
 40
1.03125
 40
1.03125
 10
163.0959877732494
 20
113.3095729514421
 30
0.0
 10
163.3234881198376
 20
113.5589194933027
 30
0.0
 10
163.4479506487551
 20
113.6705171707595
 30
0.0
 10
163.7170449149069
 20
113.8691679665779
 30
0.0
 10
163.8628580064962
 20
113.9565082113667
 30
0.0
 10
164.1640248847855
 20
114.1007039640089
 30
0.0
 10
164.3203606118499
 20
114.1585236345231
 30
0.0
 10
164.6444839111843
 20
114.2457772465741
 30
0.0
 10
164.8111491228948
 20
114.2745792960559
 30
0.0
 10
165.3091653895267
 20
114.3153586013238
 30
0.0
 10
165.6498363383196
 20
114.2819153411826
 30
0.0
 10
166.2888472537411
 20
114.0994626967238
 30
0.0
 10
166.595301860805
 20
113.948038136411
 30
0.0
 10
166.9918577700673
 20
113.6475402308266
 30
0.0
 10
167.1162069609169
 20
113.5332790456313
 30
0.0
 10
167.338671054966
 20
113.2836191750588
 30
0.0
 10
167.4362363934433
 20
113.1494525670597
 30
0.0
 10
167.6034919970821
 20
112.861983472561
 30
0.0
 10
167.6735776526012
 20
112.7067166226611
 30
0.0
 10
167.7776330133227
 20
112.3897372025741
 30
0.0
 10
167.8126087759901
 20
112.2270844510696
 30
0.0
 10
167.8644732955142
 20
111.7261474308671
 30
0.0
 10
167.8251671877427
 20
111.3859928295568
 30
0.0
 10
167.6624473952819
 20
110.9094981974596
 30
0.0
 10
167.5921668973957
 20
110.7584308376322
 30
0.0
 10
167.4208337522656
 20
110.4711362671913
 30
0.0
 10
167.319441511084
 20
110.3352784888939
 30
0.0
 10
166.9828419238607
 20
109.9664700938957
 30
0.0
 10
166.7076091576961
 20
109.7640449845646
 30
0.0
 10
166.2578259303502
 20
109.5469682579559
 30
0.0
 10
166.0990261318466
 20
109.4876659858817
 30
0.0
 10
165.7764644109669
 20
109.3996934680812
 30
0.0
 10
165.6126052989997
 20
109.3705737042349
 30
0.0
 10
165.2797725256458
 20
109.3417170891247
 30
0.0
 10
165.109720234205
 20
109.3423406123387
 30
0.0
 10
164.7774445701853
 20
109.3735970561431
 30
0.0
 10
164.6137299584366
 20
109.4039157511949
 30
0.0
 10
164.2912644728622
 20
109.4946327901979
 30
0.0
 10
164.1327533743357
 20
109.5554016988997
 30
0.0
 10
163.8341996681378
 20
109.7029123736967
 30
0.0
 10
163.6923735389358
 20
109.7900474015606
 30
0.0
 10
163.4244518003774
 20
109.9926328681326
 30
0.0
 10
163.3003583699849
 20
110.1069710347748
 30
0.0
 10
163.0792241820668
 20
110.3551574727275
 30
0.0
 10
162.9807671799681
 20
110.4901900895813
 30
0.0
 10
162.8114086662331
 20
110.7821944876361
 30
0.0
 10
162.7432418285272
 20
110.9343302340716
 30
0.0
 10
162.6395078622007
 20
111.2507391825117
 30
0.0
 10
162.6038393003316
 20
111.4172356518659
 30
0.0
 10
162.5696255356791
 20
111.7504975279764
 30
0.0
 10
162.5704839385081
 20
111.9171599817983
 30
0.0
 10
162.6082807184577
 20
112.2505481810158
 30
0.0
 10
162.6456234739118
 20
112.4163037534953
 30
0.0
 10
162.7528730569802
 20
112.732195069958
 30
0.0
 10
162.8236342735193
 20
112.8854744030301
 30
0.0
 10
162.99575742362
 20
113.1748514455166
 30
0.0
 10
163.0959877732494
 20
113.3095729514421
 30
0.0
 10
163.3234881198376
 20
113.5589194933027
 30
0.0
  0
CIRCLE
  5
19B
330
1F
100
AcDbEntity
  8
0
  6
HIDDEN
 62
     7
370
     0
100
AcDbCircle
 10
165.1422156453
 20
111.8215939128
 30
0.0
 40
2.300000000000011
  0
CIRCLE
  5
19C
330
1F
100
AcDbEntity
  8
0
  6
HIDDEN
 62
     7
370
     0
100
AcDbCircle
 10
188.6422156453
 20
111.8215939128
 30
0.0
 40
2.0
  0
SPLINE
  5
19D
330
1F
100
AcDbEntity
  8
0
  6
HIDDEN
 62
     7
370
     0
100
AcDbSpline
210
0.0
220
0.0
230
1.0
 70
     8
 71
     3
 72
     8
 73
     4
 74
     0
 42
0.00000001
 43
0.00000001
 12
1.0
 22
0.0
 32
0.0
 13
1.0
 23
0.0
 33
0.0
 40
0.0
 40
0.0
 40
0.0
 40
0.0
 40
1.0
 40
1.0
 40
1.0
 40
1.0
 10
199.9069740617422
 20
116.3215939127857
 30
0.0
 10
199.881222747267
 20
115.8733572329007
 30
0.0
 10
199.859117297563
 20
115.4246378449524
 30
0.0
 10
199.8408144836312
 20
114.9754149926508
 30
0.0
  0
LINE
  5
19E
330
1F
100
AcDbEntity
  8
0
  6
HIDDEN
 62
     7
370
     0
100
AcDbLine
 10
223.1755394697
 20
116.3215937191
 30
0.0
 11
222.8740330994
 21
111.8215939128
 31
0.0
  0
LINE
  5
19F
330
1F
100
AcDbEntity
  8
0
  6
HIDDEN
 62
     7
370
     0
100
AcDbLine
 10
176.6422156453
 20
96.0215946757
 30
0.0
 11
176.7351088657
 21
96.114486652
 31
0.0
  0
LINE
  5
1A0
330
1F
100
AcDbEntity
  8
0
  6
HIDDEN
 62
     7
370
     0
100
AcDbLine
 10
176.7351088657
 20
127.5287011736
 30
0.0
 11
176.6422156453
 21
127.6215931498
 31
0.0
  0
ARC
  5
1A1
330
1F
100
AcDbEntity
  8
0
  6
HIDDEN
 62
     7
370
     0
100
AcDbCircle
 10
176.0280020829
 20
96.8215939128
 30
0.0
 40
1.0
100
AcDbArc
 50
315.0
 51
0.0
  0
ARC
  5
1A2
330
1F
100
AcDbEntity
  8
0
  6
HIDDEN
 62
     7
370
     0
100
AcDbCircle
 10
176.0280020829
 20
96.8215939128
 30
0.0
 40
1.00000000000001
100
AcDbArc
 50
0.0
 51
52.1052014664
  0
ARC
  5
1A3
330
1F
100
AcDbEntity
  8
0
  6
HIDDEN
 62
     7
370
     0
100
AcDbCircle
 10
176.0280020829
 20
126.8215939128
 30
0.0
 40
1.000000000000008
100
AcDbArc
 50
351.8087250651
 51
45.0
  0
ARC
  5
1A4
330
1F
100
AcDbEntity
  8
0
  6
HIDDEN
 62
     7
370
     0
100
AcDbCircle
 10
176.0280020829
 20
126.8215939128
 30
0.0
 40
1.000000000000002
100
AcDbArc
 50
307.8947985336
 51
351.8087250651
  0
LINE
  5
1A5
330
1F
100
AcDbEntity
  8
0
  6
HIDDEN
 62
     7
370
     0
100
AcDbLine
 10
177.0280020811
 20
96.8215942481
 30
0.0
 11
177.0280020811
 21
126.8215935775
 31
0.0
  0
LINE
  5
1A6
330
1F
100
AcDbEntity
  8
0
  6
HIDDEN
 62
     7
370
     0
100
AcDbLine
 10
177.0280020811
 20
96.8215942481
 30
0.0
 11
177.0280020811
 21
126.8215935775
 31
0.0
  0
LINE
  5
1A7
330
1F
100
AcDbEntity
  8
0
  6
HIDDEN
 62
     7
370
     0
100
AcDbLine
 10
152.6422154367
 20
101.6659431257
 30
0.0
 11
153.6692481697
 21
102.2589003765
 31
0.0
  0
LINE
  5
1A8
330
1F
100
AcDbEntity
  8
0
  6
HIDDEN
 62
     7
370
     0
100
AcDbLine
 10
153.6692481697
 20
121.3842874491
 30
0.0
 11
152.6422154367
 21
121.9772446998
 31
0.0
  0
LINE
  5
1A9
330
1F
100
AcDbEntity
  8
0
  6
HIDDEN
 62
     7
370
     0
100
AcDbLine
 10
158.1422154069
 20
101.8215941363
 30
0.0
 11
159.1550342947
 21
101.8215941363
 31
0.0
  0
LINE
  5
1AA
330
1F
100
AcDbEntity
  8
0
  6
HIDDEN
 62
     7
370
     0
100
AcDbLine
 10
159.1550342947
 20
121.8215936893
 30
0.0
 11
158.1422154069
 21
121.8215936893
 31
0.0
  0
ARC
  5
1AB
330
1F
100
AcDbEntity
  8
0
  6
HIDDEN
 62
     7
370
     0
100
AcDbCircle
 10
159.155034115
 20
102.8215939128
 30
0.0
 40
1.000000000000008
100
AcDbArc
 50
270.0
 51
315.0
  0
ARC
  5
1AC
330
1F
100
AcDbEntity
  8
0
  6
HIDDEN
 62
     7
370
     0
100
AcDbCircle
 10
159.155034115
 20
120.8215939128
 30
0.0
 40
1.0
100
AcDbArc
 50
45.0
 51
90.0
  0
ARC
  5
1AD
330
1F
100
AcDbEntity
  8
0
  6
HIDDEN
 62
     7
370
     0
100
AcDbCircle
 10
158.1422156453
 20
102.8215939128
 30
0.0
 40
1.000000000000004
100
AcDbArc
 50
193.3524261238
 51
270.0
  0
ARC
  5
1AE
330
1F
100
AcDbEntity
  8
0
  6
HIDDEN
 62
     7
370
     0
100
AcDbCircle
 10
158.1422156453
 20
120.8215939128
 30
0.0
 40
1.000000000000004
100
AcDbArc
 50
90.0
 51
166.6475738762
  0
LINE
  5
1AF
330
1F
100
AcDbEntity
  8
0
  6
HIDDEN
 62
     7
370
     0
100
AcDbLine
 10
159.8621409595
 20
102.1144867041
 30
0.0
 11
160.5692476243
 21
102.8215943002
 31
0.0
  0
LINE
  5
1B0
330
1F
100
AcDbEntity
  8
0
  6
HIDDEN
 62
     7
370
     0
100
AcDbLine
 10
160.5692476243
 20
120.8215935254
 30
0.0
 11
159.8621409595
 21
121.5287011215
 31
0.0
  0
LINE
  5
1B1
330
1F
100
AcDbEntity
  8
0
  6
HIDDEN
 62
     7
370
     0
100
AcDbLine
 10
153.6692481697
 20
102.2589003765
 30
0.0
 11
155.7692483276
 21
102.8215943002
 31
0.0
  0
LINE
  5
1B2
330
1F
100
AcDbEntity
  8
0
  6
HIDDEN
 62
     7
370
     0
100
AcDbLine
 10
155.7692483276
 20
120.8215935254
 30
0.0
 11
153.6692481697
 21
121.3842874491
 31
0.0
  0
LINE
  5
1B3
330
1F
100
AcDbEntity
  8
0
  6
HIDDEN
 62
     7
370
     0
100
AcDbLine
 10
157.169247812
 20
121.0525335842
 30
0.0
 11
156.7692484915
 21
120.8215935254
 31
0.0
  0
LINE
  5
1B4
330
1F
100
AcDbEntity
  8
0
  6
HIDDEN
 62
     7
370
     0
100
AcDbLine
 10
156.7692484915
 20
102.8215943002
 30
0.0
 11
157.169247812
 21
102.5906542414
 31
0.0
  0
ARC
  5
1B5
330
1F
100
AcDbEntity
  8
0
  6
HIDDEN
 62
     7
370
     0
100
AcDbCircle
 10
167.1422156453
 20
103.3215939128
 30
0.0
 40
0.5000000000000142
100
AcDbArc
 50
270.0
 51
360.0
  0
ARC
  5
1B6
330
1F
100
AcDbEntity
  8
0
  6
HIDDEN
 62
     7
370
     0
100
AcDbCircle
 10
167.1422156453
 20
120.3215939128
 30
0.0
 40
0.5000000000000142
100
AcDbArc
 50
0.0
 51
90.0
  0
LINE
  5
1B7
330
1F
100
AcDbEntity
  8
0
  6
HIDDEN
 62
     7
370
     0
100
AcDbLine
 10
160.5692476243
 20
102.8215943002
 30
0.0
 11
167.1422159508
 21
102.8215943002
 31
0.0
  0
LINE
  5
1B8
330
1F
100
AcDbEntity
  8
0
  6
HIDDEN
 62
     7
370
     0
100
AcDbLine
 10
167.1422159508
 20
120.8215935254
 30
0.0
 11
160.5692476243
 21
120.8215935254
 31
0.0
  0
LINE
  5
1B9
330
1F
100
AcDbEntity
  8
0
  6
HIDDEN
 62
     7
370
     0
100
AcDbLine
 10
155.7692483276
 20
102.8215943002
 30
0.0
 11
156.7692484915
 21
102.8215943002
 31
0.0
  0
LINE
  5
1BA
330
1F
100
AcDbEntity
  8
0
  6
HIDDEN
 62
     7
370
     0
100
AcDbLine
 10
156.7692484915
 20
120.8215935254
 30
0.0
 11
155.7692483276
 21
120.8215935254
 31
0.0
  0
LINE
  5
1BB
330
1F
100
AcDbEntity
  8
0
  6
HIDDEN
 62
     7
370
     0
100
AcDbLine
 10
203.2380447
 20
98.5804258012
 30
0.0
 11
202.9329993039
 21
97.9749702015
 31
0.0
  0
LINE
  5
1BC
330
1F
100
AcDbEntity
  8
0
  6
HIDDEN
 62
     7
370
     0
100
AcDbLine
 10
207.9995151818
 20
98.7110903584
 30
0.0
 11
208.3045605779
 21
99.3165468895
 31
0.0
  0
LINE
  5
1BD
330
1F
100
AcDbEntity
  8
0
  6
HIDDEN
 62
     7
370
     0
100
AcDbLine
 10
167.6422160328
 20
104.6715939515
 30
0.0
 11
168.5422154352
 21
105.5715938197
 31
0.0
  0
LINE
  5
1BE
330
1F
100
AcDbEntity
  8
0
  6
HIDDEN
 62
     7
370
     0
100
AcDbLine
 10
168.5422154352
 20
118.0715940059
 30
0.0
 11
167.6422160328
 21
118.971593874
 31
0.0
  0
LINE
  5
1BF
330
1F
100
AcDbEntity
  8
0
  6
HIDDEN
 62
     7
370
     0
100
AcDbLine
 10
213.9628481329
 20
106.6691635274
 30
0.0
 11
214.3114719749
 21
107.3611129173
 31
0.0
  0
LINE
  5
1C0
330
1F
100
AcDbEntity
  8
0
  6
HIDDEN
 62
     7
370
     0
100
AcDbLine
 10
208.7745283008
 20
110.1507769995
 30
0.0
 11
208.4259044588
 21
109.4588273768
 31
0.0
  0
LINE
  5
1C1
330
1F
100
AcDbEntity
  8
0
  6
HIDDEN
 62
     7
370
     0
100
AcDbLine
 10
193.6422165692
 20
105.5715938197
 30
0.0
 11
197.3975941748
 21
111.8215939128
 31
0.0
  0
LINE
  5
1C2
330
1F
100
AcDbEntity
  8
0
  6
HIDDEN
 62
     7
370
     0
100
AcDbLine
 10
197.3975941748
 20
111.8215939128
 30
0.0
 11
193.6422165692
 21
118.0715940059
 31
0.0
  0
LINE
  5
1C3
330
1F
100
AcDbEntity
  8
0
  6
HIDDEN
 62
     7
370
     0
100
AcDbLine
 10
168.5422154352
 20
105.5715938197
 30
0.0
 11
193.6422165692
 21
105.5715938197
 31
0.0
  0
LINE
  5
1C4
330
1F
100
AcDbEntity
  8
0
  6
HIDDEN
 62
     7
370
     0
100
AcDbLine
 10
193.6422165692
 20
118.0715940059
 30
0.0
 11
168.5422154352
 21
118.0715940059
 31
0.0
  0
LINE
  5
1C5
330
1F
100
AcDbEntity
  8
0
  6
HIDDEN
 62
     7
370
     0
100
AcDbLine
 10
218.9246144354
 20
108.0446946067
 30
0.0
 11
219.5904839993
 21
109.366318407
 31
0.0
  0
LINE
  5
1C6
330
1F
100
AcDbEntity
  8
0
  6
HIDDEN
 62
     7
370
     0
100
AcDbLine
 10
212.3495515645
 20
104.8005714179
 30
0.0
 11
213.3955944538
 21
106.8767660395
 31
0.0
  0
LINE
  5
1C7
330
1F
100
AcDbEntity
  8
0
  6
HIDDEN
 62
     7
370
     0
100
AcDbLine
 10
208.9303162158
 20
109.1264951606
 30
0.0
 11
208.075756973
 21
107.4303614073
 31
0.0
  0
LINE
  5
1C8
330
1F
100
AcDbEntity
  8
0
  6
HIDDEN
 62
     7
370
     0
100
AcDbLine
 10
209.8709929943
 20
108.33588169
 30
0.0
 11
195.2723942906
 21
111.9800195516
 31
0.0
  0
LINE
  5
1C9
330
1F
100
AcDbEntity
  8
0
  6
HIDDEN
 62
     7
370
     0
100
AcDbLine
 10
213.838643229
 20
107.3454671637
 30
0.0
 11
212.175651288
 21
107.7605869719
 31
0.0
  0
LINE
  5
1CA
330
1F
100
AcDbEntity
  8
0
  6
HIDDEN
 62
     7
370
     0
100
AcDbLine
 10
211.657765156
 20
107.8898633928
 30
0.0
 11
211.0327508509
 21
108.045880646
 31
0.0
  0
LINE
  5
1CB
330
1F
100
AcDbEntity
  8
0
  6
HIDDEN
 62
     7
370
     0
100
AcDbLine
 10
210.869739598
 20
103.757695491
 30
0.0
 11
212.8214415371
 21
103.2705066823
 31
0.0
  0
LINE
  5
1CC
330
1F
100
AcDbEntity
  8
0
  6
HIDDEN
 62
     7
370
     0
100
AcDbLine
 10
194.2355398297
 20
107.9099650593
 30
0.0
 11
207.9685542941
 21
104.4818961159
 31
0.0
  0
LINE
  5
1CD
330
1F
100
AcDbEntity
  8
0
  6
HIDDEN
 62
     7
370
     0
100
AcDbLine
 10
218.9514998555
 20
124.361306625
 30
0.0
 11
218.0145744443
 21
122.5016919994
 31
0.0
  0
LINE
  5
1CE
330
1F
100
AcDbEntity
  8
0
  6
HIDDEN
 62
     7
370
     0
100
AcDbLine
 10
220.96165905
 20
121.0168713802
 30
0.0
 11
221.8985844612
 21
122.8764860057
 31
0.0
  0
LINE
  5
1CF
330
1F
100
AcDbEntity
  8
0
  6
HIDDEN
 62
     7
370
     0
100
AcDbLine
 10
221.4666817546
 20
105.8536113338
 30
0.0
 11
214.1477305651
 21
107.6805858971
 31
0.0
  0
LINE
  5
1D0
330
1F
100
AcDbEntity
  8
0
  6
HIDDEN
 62
     7
370
     0
100
AcDbLine
 10
212.9367765248
 20
102.8294425556
 30
0.0
 11
218.3408614457
 21
101.4804609218
 31
0.0
  0
LINE
  5
1D1
330
1F
100
AcDbEntity
  8
0
  6
HIDDEN
 62
     7
370
     0
100
AcDbLine
 10
213.1749306083
 20
107.0271671847
 30
0.0
 11
213.0214896262
 21
106.796595464
 31
0.0
  0
LINE
  5
1D2
330
1F
100
AcDbEntity
  8
0
  6
HIDDEN
 62
     7
370
     0
100
AcDbLine
 10
212.3581011057
 20
104.1390180686
 30
0.0
 11
212.3851802409
 21
103.8633847707
 31
0.0
  0
LINE
  5
1D3
330
1F
100
AcDbEntity
  8
VERMASSUNG
  6
CENTERX2
100
AcDbLine
 10
150.8837714432
 20
111.8215939128
 30
0.0
 11
226.6422156453
 21
111.8215939128
 31
0.0
  0
LINE
  5
1D4
330
1F
100
AcDbEntity
  8
VERMASSUNG
  6
CENTERX2
100
AcDbLine
 10
226.6422156453
 20
138.8215939128
 30
0.0
 11
226.6422156453
 21
111.8215939128
 31
0.0
  0
LINE
  5
1D5
330
1F
100
AcDbEntity
  8
VERMASSUNG
  6
CENTERX2
100
AcDbLine
 10
226.6422156453
 20
138.8215939128
 30
0.0
 11
234.4260523173
 21
138.8215939128
 31
0.0
  0
DIMENSION
  5
1D6
330
1F
100
AcDbEntity
  8
VERMASSUNG
100
AcDbDimension
  2
_D
 10
244.8818601771
 20
111.8215939128
 30
0.0
 11
244.8818601771
 21
125.3215939128
 31
0.0
 70
   160
  1
<>
 71
     2
 42
-1.0
  3
SLDDIMSTYLE0
100
AcDbAlignedDimension
 13
226.6422156453
 23
138.8215939128
 33
0.0
 14
226.6422156453
 24
111.8215939128
 34
0.0
 50
90.0
100
AcDbRotatedDimension
  0
DIMENSION
  5
1E1
330
1F
100
AcDbEntity
  8
VERMASSUNG
100
AcDbDimension
  2
_D_1
 10
234.4260523173
 20
138.8215939128
 30
0.0
 11
234.4076597631
 21
130.6561773542
 31
0.0
 70
   162
  1
<>
 71
     1
 42
-1.0
  3
SLDDIMSTYLE1
100
AcDb2LineAngularDimension
 13
226.6416695452
 23
138.4009624773
 33
0.0
 14
225.8485867584
 24
123.4530660944
 34
0.0
 15
226.6422156453
 25
138.8215939128
 35
0.0
 16
234.4076597631
 26
130.6561773542
 36
0.0
  0
DIMENSION
  5
1EB
330
1F
100
AcDbEntity
  8
VERMASSUNG
100
AcDbDimension
  2
_D_2
 10
226.6422156453
 20
143.7791509462
 30
0.0
 11
201.6422156453
 21
143.7791509462
 31
0.0
 70
   160
  1
<>
 71
     2
 42
-1.0
  3
SLDDIMSTYLE0
100
AcDbAlignedDimension
 13
176.6422156453
 23
131.5215939128
 33
0.0
 14
226.6422156453
 24
138.8215939128
 34
0.0
100
AcDbRotatedDimension
  0
DIMENSION
  5
1F5
330
1F
100
AcDbEntity
  8
VERMASSUNG
100
AcDbDimension
  2
_D_3
 10
226.6422156453
 20
149.4289134808
 30
0.0
 11
189.6422156453
 21
149.4289134808
 31
0.0
 70
   160
  1
<>
 71
     2
 42
-1.0
  3
SLDDIMSTYLE0
100
AcDbAlignedDimension
 13
152.6422156453
 23
124.4530988948
 33
0.0
 14
226.6422156453
 24
138.8215939128
 34
0.0
 50
0.0
100
AcDbRotatedDimension
  0
DIMENSION
  5
1FF
330
1F
100
AcDbEntity
  8
VERMASSUNG
100
AcDbDimension
  2
_D_4
 10
147.0273683045
 20
91.8215939128
 30
0.0
 11
147.0273683045
 21
111.8215939128
 31
0.0
 70
   160
  1
PSC%%c<>
 71
     2
 42
-1.0
  3
SLDDIMSTYLE0
100
AcDbAlignedDimension
 13
176.9422156453
 23
131.8215939128
 33
0.0
 14
176.9422156453
 24
91.8215939128
 34
0.0
 50
90.0
100
AcDbRotatedDimension
  0
ARC
  5
20B
330
1F
100
AcDbEntity
  8
0
  6
Continuous
 62
     7
370
    15
100
AcDbCircle
 10
101.5265760483
 20
104.6405766967
 30
0.0
 40
2.000000000000003
100
AcDbArc
 50
259.4091755229
 51
35.4383976494
  0
LINE
  5
20C
330
1F
100
AcDbEntity
  8
0
  6
Continuous
 62
     7
370
    15
100
AcDbLine
 10
66.8351272794
 20
102.8750596666
 30
0.0
 11
67.0672035517
 21
102.7580073201
 31
0.0
  0
LINE
  5
20D
330
1F
100
AcDbEntity
  8
0
  6
Continuous
 62
     7
370
    15
100
AcDbLine
 10
67.0704929831
 20
102.7569027715
 30
0.0
 11
72.6000354366
 21
101.7818946489
 31
0.0
  0
SPLINE
  5
20E
330
1F
100
AcDbEntity
  8
0
  6
Continuous
 62
     7
370
    15
100
AcDbSpline
210
0.0
220
0.0
230
1.0
 70
     8
 71
     3
 72
    29
 73
    25
 74
     0
 42
0.00000001
 43
0.00000001
 12
1.0
 22
0.0
 32
0.0
 13
1.0
 23
0.0
 33
0.0
 40
0.0
 40
0.0
 40
0.0
 40
0.0
 40
0.0128816214281979
 40
0.0583920125316385
 40
0.1017305263870728
 40
0.1429964296904771
 40
0.1821901109313685
 40
0.2192105531414794
 40
0.2540039909365689
 40
0.2873930693970412
 40
0.3221270805293985
 40
0.3620768152487839
 40
0.4178268874992825
 40
0.4790601379507967
 40
0.5354806547608523
 40
0.594503616644606
 40
0.650997660643878
 40
0.7064473545535972
 40
0.7615708033758989
 40
0.8168085621620543
 40
0.8725615971393338
 40
0.9295450265646263
 40
0.9901441800068134
 40
1.0
 40
1.0
 40
1.0
 40
1.0
 10
66.96164745112041
 20
117.1768803247268
 30
0.0
 10
66.91750414485483
 20
117.1717251361924
 30
0.0
 10
66.71740383085195
 20
117.1483568176017
 30
0.0
 10
66.38257664553865
 20
117.0342643319334
 30
0.0
 10
65.97653484006317
 20
116.8463087866628
 30
0.0
 10
65.62260969124381
 20
116.6102157414235
 30
0.0
 10
65.32198322427443
 20
116.3466927727331
 30
0.0
 10
65.0752677324774
 20
116.0688461341681
 30
0.0
 10
64.87918426302244
 20
115.7911057011852
 30
0.0
 10
64.72490472759264
 20
115.5209408698297
 30
0.0
 10
64.59911747359001
 20
115.2533775926971
 30
0.0
 10
64.48057870445598
 20
114.9518225990061
 30
0.0
 10
64.36241724408585
 20
114.5929435340852
 30
0.0
 10
64.2403228749799
 20
114.159463023398
 30
0.0
 10
64.11744492682304
 20
113.6656915794464
 30
0.0
 10
63.99896495891472
 20
113.137965726817
 30
0.0
 10
63.88436013965094
 20
112.577422791265
 30
0.0
 10
63.77812018658955
 20
112.0098062421921
 30
0.0
 10
63.68114890537559
 20
111.4423347617141
 30
0.0
 10
63.59515209429836
 20
110.88523677514
 30
0.0
 10
63.52184090905952
 20
110.3480442238666
 30
0.0
 10
63.46260415390623
 20
109.8335639454084
 30
0.0
 10
63.4322225682338
 20
109.4900001124673
 30
0.0
 10
63.42068374814858
 20
109.3106913162604
 30
0.0
 10
63.41906960328202
 20
109.2856081300432
 30
0.0
  0
SPLINE
  5
20F
330
1F
100
AcDbEntity
  8
0
  6
Continuous
 62
     7
370
    15
100
AcDbSpline
210
0.0
220
0.0
230
1.0
 70
     8
 71
     3
 72
    17
 73
    13
 74
     0
 42
0.00000001
 43
0.00000001
 12
1.0
 22
0.0
 32
0.0
 13
1.0
 23
0.0
 33
0.0
 40
0.0
 40
0.0
 40
0.0
 40
0.0
 40
0.0724789655748358
 40
0.2079315820970343
 40
0.3262129499167413
 40
0.4103850551200841
 40
0.4999466058581382
 40
0.5970352909686047
 40
0.6998457025224151
 40
0.8069726843550333
 40
0.9171867353904378
 40
1.0
 40
1.0
 40
1.0
 40
1.0
 10
63.41906960328202
 20
109.2856081300432
 30
0.0
 10
63.41476129872317
 20
109.2075798312165
 30
0.0
 10
63.40240140125537
 20
108.9837280213197
 30
0.0
 10
63.39888431692865
 20
108.6495364213632
 30
0.0
 10
63.42324513154618
 20
108.2670744583167
 30
0.0
 10
63.48516421531866
 20
107.8938331209308
 30
0.0
 10
63.58572614609024
 20
107.5297679224615
 30
0.0
 10
63.74696208544248
 20
107.1435718389466
 30
0.0
 10
63.97728858042641
 20
106.755352404385
 30
0.0
 10
64.27932289766291
 20
106.3910185554153
 30
0.0
 10
64.60959396537227
 20
106.0893149574048
 30
0.0
 10
64.85672875280694
 20
105.9442018858602
 30
0.0
 10
64.96275539715866
 20
105.8819449604506
 30
0.0
  0
LINE
  5
210
330
1F
100
AcDbEntity
  8
0
  6
Continuous
 62
     7
370
    15
100
AcDbLine
 10
64.988623813
 20
105.8610987016
 30
0.0
 11
66.9507435264
 21
105.5151240067
 31
0.0
  0
LINE
  5
211
330
1F
100
AcDbEntity
  8
0
  6
Continuous
 62
     7
370
    15
100
AcDbLine
 10
68.9476984294
 20
116.8404130363
 30
0.0
 11
66.9855768534
 21
117.1863877312
 31
0.0
  0
SPLINE
  5
212
330
1F
100
AcDbEntity
  8
0
  6
Continuous
 62
     7
370
    15
100
AcDbSpline
210
0.0
220
0.0
230
1.0
 70
     8
 71
     3
 72
    10
 73
     6
 74
     0
 42
0.00000001
 43
0.00000001
 12
1.0
 22
0.0
 32
0.0
 13
1.0
 23
0.0
 33
0.0
 40
0.0
 40
0.0
 40
0.0
 40
0.0
 40
0.3436277628527341
 40
0.7810309586864134
 40
1.0
 40
1.0
 40
1.0
 40
1.0
 10
80.47182250042538
 20
105.8752915919775
 30
0.0
 10
80.52584717412661
 20
105.8858031049492
 30
0.0
 10
80.64863976324482
 20
105.9096947049332
 30
0.0
 10
80.8238789458705
 20
105.8484645738042
 30
0.0
 10
80.88958755210854
 20
105.7828628580421
 30
0.0
 10
80.91150826980451
 20
105.7609777995402
 30
0.0
  0
SPLINE
  5
213
330
1F
100
AcDbEntity
  8
0
  6
Continuous
 62
     7
370
    15
100
AcDbSpline
210
0.0
220
0.0
230
1.0
 70
     8
 71
     3
 72
     9
 73
     5
 74
     0
 42
0.00000001
 43
0.00000001
 12
1.0
 22
0.0
 32
0.0
 13
1.0
 23
0.0
 33
0.0
 40
0.0
 40
0.0
 40
0.0
 40
0.0
 40
0.2283498382981452
 40
1.0
 40
1.0
 40
1.0
 40
1.0
 10
81.97868659366945
 20
111.831386223961
 30
0.0
 10
81.96781782099767
 20
111.8249947468212
 30
0.0
 10
81.92022079726955
 20
111.7970048993687
 30
0.0
 10
81.84571245951837
 20
111.7960561194324
 30
0.0
 10
81.78821808864454
 20
111.7953239932411
 30
0.0
  0
LINE
  5
214
330
1F
100
AcDbEntity
  8
0
  6
Continuous
 62
     7
370
    15
100
AcDbLine
 10
80.9495430181
 20
105.7376383902
 30
0.0
 11
81.1457549894
 21
105.7030411535
 31
0.0
  0
LINE
  5
215
330
1F
100
AcDbEntity
  8
0
  6
Continuous
 62
     7
370
    15
100
AcDbLine
 10
82.2223736646
 20
111.8088490971
 30
0.0
 11
82.0261616932
 21
111.8434465766
 31
0.0
  0
LINE
  5
216
330
1F
100
AcDbEntity
  8
0
  6
Continuous
 62
     7
370
    15
100
AcDbLine
 10
70.0885927977
 20
117.8812703216
 30
0.0
 11
68.9420583399
 21
117.0719021098
 31
0.0
  0
LINE
  5
217
330
1F
100
AcDbEntity
  8
0
  6
Continuous
 62
     7
370
    15
100
AcDbLine
 10
66.8662707063
 20
105.299523762
 30
0.0
 11
67.2110016199
 21
104.8031665483
 31
0.0
  0
LINE
  5
218
330
1F
100
AcDbEntity
  8
0
  6
Continuous
 62
     7
370
    15
100
AcDbLine
 10
74.6502703728
 20
117.1041789562
 30
0.0
 11
70.1458188446
 21
117.8984355279
 31
0.0
  0
LINE
  5
219
330
1F
100
AcDbEntity
  8
0
  6
Continuous
 62
     7
370
    15
100
AcDbLine
 10
72.2510958763
 20
103.3203194016
 30
0.0
 11
72.698401727
 21
103.4842442819
 31
0.0
  0
LINE
  5
21A
330
1F
100
AcDbEntity
  8
0
  6
Continuous
 62
     7
370
    15
100
AcDbLine
 10
75.1266623588
 20
116.7127641016
 30
0.0
 11
74.6790668668
 21
117.0900279754
 31
0.0
  0
LINE
  5
21B
330
1F
100
AcDbEntity
  8
0
  6
Continuous
 62
     7
370
    15
100
AcDbLine
 10
72.6187177675
 20
102.5379311391
 30
0.0
 11
72.5437677207
 21
99.504865902
 31
0.0
  0
LINE
  5
21C
330
1F
100
AcDbEntity
  8
0
  6
Continuous
 62
     7
370
    15
100
AcDbLine
 10
74.910380386
 20
94.8422664874
 30
0.0
 11
78.7347913461
 21
94.1679200255
 31
0.0
  0
LINE
  5
21D
330
1F
100
AcDbEntity
  8
0
  6
Continuous
 62
     7
370
    15
100
AcDbLine
 10
92.65548547
 20
137.9981266432
 30
0.0
 11
87.985638616
 21
138.821548047
 31
0.0
  0
LINE
  5
21E
330
1F
100
AcDbEntity
  8
0
  6
Continuous
 62
     7
370
    15
100
AcDbLine
 10
86.7593714243
 20
131.8516826355
 30
0.0
 11
86.3957627185
 21
131.4124466949
 31
0.0
  0
LINE
  5
21F
330
1F
100
AcDbEntity
  8
0
  6
Continuous
 62
     7
370
    15
100
AcDbLine
 10
83.8190801183
 20
118.8364529149
 30
0.0
 11
83.9875638226
 21
118.3637843565
 31
0.0
  0
LINE
  5
220
330
1F
100
AcDbEntity
  8
0
  6
Continuous
 62
     7
370
    15
100
AcDbLine
 10
82.2552172208
 20
111.4227658759
 30
0.0
 11
82.8743437046
 21
111.313597146
 31
0.0
  0
LINE
  5
221
330
1F
100
AcDbEntity
  8
0
  6
Continuous
 62
     7
370
    15
100
AcDbLine
 10
95.4342176879
 20
137.2934078896
 30
0.0
 11
92.6490411835
 21
137.7845091843
 31
0.0
  0
LINE
  5
222
330
1F
100
AcDbEntity
  8
0
  6
Continuous
 62
     7
370
    15
100
AcDbLine
 10
95.6778102296
 20
136.9450504058
 30
0.0
 11
95.437639367
 21
137.2908579283
 31
0.0
  0
ARC
  5
223
330
1F
100
AcDbEntity
  8
0
  6
Continuous
 62
     7
370
    15
100
AcDbCircle
 10
102.2287302189
 20
103.7244625125
 30
0.0
 40
2.021348761894854
100
AcDbArc
 50
246.066103773
 51
277.1331413589
  0
ARC
  5
224
330
1F
100
AcDbEntity
  8
0
  6
Continuous
 62
     7
370
    15
100
AcDbCircle
 10
102.0984431421
 20
104.3249741972
 30
0.0
 40
2.633959358686213
100
AcDbArc
 50
278.3233157276
 51
34.5604166847
  0
ARC
  5
225
330
1F
100
AcDbEntity
  8
0
  6
Continuous
 62
     7
370
    15
100
AcDbCircle
 10
102.3035657601
 20
103.7021475268
 30
0.0
 40
1.89294723305989
100
AcDbArc
 50
206.2596769722
 51
277.0790259108
  0
ARC
  5
226
330
1F
100
AcDbEntity
  8
0
  6
Continuous
 62
     7
370
    15
100
AcDbCircle
 10
102.1915041004
 20
104.2697017241
 30
0.0
 40
2.470329951894582
100
AcDbArc
 50
278.0361083376
 51
39.4423058869
  0
ARC
  5
227
330
1F
100
AcDbEntity
  8
0
  6
Continuous
 62
     7
370
    15
100
AcDbCircle
 10
102.379592908
 20
103.8539733038
 30
0.0
 40
1.688450768436407
100
AcDbArc
 50
171.1694019016
 51
275.2638642543
  0
ARC
  5
228
330
1F
100
AcDbEntity
  8
0
  6
Continuous
 62
     7
370
    15
100
AcDbCircle
 10
102.280912475
 20
104.208676536
 30
0.0
 40
2.051764228514683
100
AcDbArc
 50
277.0994982573
 51
52.8623123342
  0
ARC
  5
229
330
1F
100
AcDbEntity
  8
0
  6
Continuous
 62
     7
370
    15
100
AcDbCircle
 10
88.0210469218
 20
111.8215939128
 30
0.0
 40
20.50000000000007
100
AcDbArc
 50
347.1244871169
 51
0.0
  0
LINE
  5
22A
330
1F
100
AcDbEntity
  8
0
  6
Continuous
 62
     7
370
    15
100
AcDbLine
 10
83.3627735006
 20
111.5987033332
 30
0.0
 11
108.0056051465
 21
107.2535069757
 31
0.0
  0
LINE
  5
22B
330
1F
100
AcDbEntity
  8
0
  6
Continuous
 62
     7
370
    15
100
AcDbLine
 10
85.3802584784
 20
122.7425413304
 30
0.0
 11
83.3627735006
 21
111.5987033332
 31
0.0
  0
LINE
  5
22C
330
1F
100
AcDbEntity
  8
0
  6
Continuous
 62
     7
370
    15
100
AcDbLine
 10
85.3802584784
 20
122.7425413304
 30
0.0
 11
92.8755588571
 21
121.4209172972
 31
0.0
  0
LINE
  5
22D
330
1F
100
AcDbEntity
  8
0
  6
Continuous
 62
     7
370
    15
100
AcDbLine
 10
92.8755588571
 20
121.4209172972
 30
0.0
 11
92.9686077612
 21
121.9348853552
 31
0.0
  0
LINE
  5
22E
330
1F
100
AcDbEntity
  8
0
  6
Continuous
 62
     7
370
    15
100
AcDbLine
 10
98.9787685426
 20
135.9699742966
 30
0.0
 11
95.6254414955
 21
136.5612560981
 31
0.0
  0
ARC
  5
22F
330
1F
100
AcDbEntity
  8
0
  6
Continuous
 62
     7
370
    15
100
AcDbCircle
 10
83.5210469218
 20
116.3215939128
 30
0.0
 40
25.0000000000001
100
AcDbArc
 50
0.0
 51
51.8072552531
  0
LINE
  5
230
330
1F
100
AcDbEntity
  8
0
  6
Continuous
 62
     7
370
    15
100
AcDbLine
 10
108.5210474881
 20
116.3215937191
 30
0.0
 11
108.5210474881
 21
111.8215939128
 31
0.0
  0
LINE
  5
231
330
1F
100
AcDbEntity
  8
0
  6
Continuous
 62
     7
370
    15
100
AcDbLine
 10
95.6442020575
 20
136.6648824983
 30
0.0
 11
98.8014726641
 21
136.1081695282
 31
0.0
  0
ARC
  5
232
330
1F
100
AcDbEntity
  8
0
  6
Continuous
 62
     7
370
    15
100
AcDbCircle
 10
83.5210469218
 20
116.3215939128
 30
0.0
 40
25.00000000000004
100
AcDbArc
 50
51.8072552531
 51
52.3224455136
  0
LWPOLYLINE
  5
233
330
1F
100
AcDbEntity
  8
0
  6
Continuous
 62
     7
370
    15
100
AcDbPolyline
 90
        3
 70
   128
 43
0.0
 10
82.2223736646
 20
111.8088490971
 10
82.2620996947
 20
111.7482466721
 10
82.2711228134
 20
111.7045259376
  0
ARC
  5
234
330
1F
100
AcDbEntity
  8
0
  6
Continuous
 62
     7
370
    15
100
AcDbCircle
 10
65.5354014589
 20
111.7833484618
 30
0.0
 40
16.7527094618051
100
AcDbArc
 50
338.7188486241
 51
358.7492461967
  0
LWPOLYLINE
  5
235
330
1F
100
AcDbEntity
  8
0
  6
Continuous
 62
     7
370
    15
100
AcDbPolyline
 90
       16
 70
   128
 43
0.0
 10
79.8798729407
 20
101.9698727974
 10
79.8820885571
 20
101.9784623855
 10
79.9761530684
 20
102.3169869655
 10
80.0603809508
 20
102.5674875923
 10
80.1310888233
 20
102.7190165692
 10
80.1851893516
 20
102.7649512612
 10
80.2203165108
 20
102.7032837369
 10
80.2349350156
 20
102.5367092439
 10
80.2284059787
 20
102.2725079306
 10
80.2010153161
 20
101.9222263345
 10
80.1539602431
 20
101.5011744672
 10
80.0892966541
 20
101.0277534002
 10
80.0098501818
 20
100.5226543271
 10
79.9190946596
 20
100.007952387
 10
79.8209956588
 20
99.5061418139
 10
79.8187185751
 20
99.4950851523
  0
LINE
  5
236
330
1F
100
AcDbEntity
  8
0
  6
Continuous
 62
     7
370
    15
100
AcDbLine
 10
86.4136931228
 20
132.9212600463
 30
0.0
 11
86.1550469158
 21
131.492594453
 31
0.0
  0
LINE
  5
237
330
1F
100
AcDbEntity
  8
0
  6
Continuous
 62
     7
370
    15
100
AcDbLine
 10
82.5133560898
 20
111.3772489985
 30
0.0
 11
82.3457003312
 21
110.4511790541
 31
0.0
  0
LWPOLYLINE
  5
238
330
1F
100
AcDbEntity
  8
0
  6
Continuous
 62
     7
370
    15
100
AcDbPolyline
 90
       15
 70
   128
 43
0.0
 10
82.3457003312
 20
110.4511790541
 10
82.266601708
 20
109.9884756473
 10
82.199539032
 20
109.5419553672
 10
82.1478739122
 20
109.1340081398
 10
82.1141977536
 20
108.7850906984
 10
82.1001990439
 20
108.5126991016
 10
82.1065800006
 20
108.3304918935
 10
82.1330197828
 20
108.2476058141
 10
82.1781935843
 20
108.2681973563
 10
82.2398354972
 20
108.3912336831
 10
82.3148549276
 20
108.6105452483
 10
82.3994902635
 20
108.9151352276
 10
82.4894970024
 20
109.2897299309
 10
82.5803619551
 20
109.7155455132
 10
82.6675290914
 20
110.171229891
  0
LINE
  5
239
330
1F
100
AcDbEntity
  8
0
  6
Continuous
 62
     7
370
    15
100
AcDbLine
 10
82.6675290914
 20
110.171229891
 30
0.0
 11
83.7515769268
 21
116.1591068008
 31
0.0
  0
LINE
  5
23A
330
1F
100
AcDbEntity
  8
0
  6
Continuous
 62
     7
370
    15
100
AcDbLine
 10
83.3627735006
 20
111.5987033332
 30
0.0
 11
78.9994676339
 21
93.413412767
 31
0.0
  0
ARC
  5
23B
330
1F
100
AcDbEntity
  8
0
  6
Continuous
 62
     7
370
    15
100
AcDbCircle
 10
88.0210469218
 20
111.8215939128
 30
0.0
 40
20.50000000000005
100
AcDbArc
 50
240.8025229548
 51
243.8912048011
  0
SPLINE
  5
23C
330
1F
100
AcDbEntity
  8
0
  6
Continuous
 62
     7
370
    15
100
AcDbSpline
210
0.0
220
0.0
230
1.0
 70
     8
 71
     3
 72
     9
 73
     5
 74
     0
 42
0.00000001
 43
0.00000001
 12
1.0
 22
0.0
 32
0.0
 13
1.0
 23
0.0
 33
0.0
 40
0.0
 40
0.0
 40
0.0
 40
0.0
 40
0.6637914629816022
 40
1.0
 40
1.0
 40
1.0
 40
1.0
 10
78.02071186919788
 20
93.92625113064592
 30
0.0
 10
78.03266945532032
 20
94.02349726084294
 30
0.0
 10
78.05068352568621
 20
94.16999828657204
 30
0.0
 10
78.0533733307008
 20
94.25824300003379
 30
0.0
 10
78.0542776661096
 20
94.28791162604635
 30
0.0
  0
SPLINE
  5
23D
330
1F
100
AcDbEntity
  8
0
  6
Continuous
 62
     7
370
    15
100
AcDbSpline
210
0.0
220
0.0
230
1.0
 70
     8
 71
     3
 72
    10
 73
     6
 74
     0
 42
0.00000001
 43
0.00000001
 12
1.0
 22
0.0
 32
0.0
 13
1.0
 23
0.0
 33
0.0
 40
0.0
 40
0.0
 40
0.0
 40
0.0
 40
0.5
 40
0.5
 40
1.0
 40
1.0
 40
1.0
 40
1.0
 10
84.58483168878865
 20
131.5310576913457
 30
0.0
 10
84.608011983526
 20
131.5593869470423
 30
0.0
 10
84.64139453655655
 20
131.6531098212177
 30
0.0
 10
84.717298527353
 20
131.9327174324014
 30
0.0
 10
84.75874786818831
 20
132.1145684687892
 30
0.0
 10
84.79781772825173
 20
132.3107954826276
 30
0.0
  0
SPLINE
  5
23E
330
1F
100
AcDbEntity
  8
0
  6
Continuous
 62
     7
370
    15
100
AcDbSpline
210
0.0
220
0.0
230
1.0
 70
     8
 71
     3
 72
     8
 73
     4
 74
     0
 42
0.00000001
 43
0.00000001
 12
1.0
 22
0.0
 32
0.0
 13
1.0
 23
0.0
 33
0.0
 40
0.0
 40
0.0
 40
0.0
 40
0.0
 40
1.0
 40
1.0
 40
1.0
 40
1.0
 10
84.79781772825173
 20
132.3107954826276
 30
0.0
 10
84.855236605886
 20
132.5991797992809
 30
0.0
 10
84.91266320736877
 20
132.8875142242403
 30
0.0
 10
84.97009667436464
 20
133.1758043018668
 30
0.0
  0
LINE
  5
23F
330
1F
100
AcDbEntity
  8
0
  6
Continuous
 62
     7
370
    15
100
AcDbLine
 10
84.970096566
 20
133.1758035445
 30
0.0
 11
86.4136931228
 21
132.9212600463
 31
0.0
  0
LINE
  5
240
330
1F
100
AcDbEntity
  8
0
  6
Continuous
 62
     7
370
    15
100
AcDbLine
 10
83.7515769268
 20
116.1591068008
 30
0.0
 11
85.3802584784
 21
122.7425413304
 31
0.0
  0
ELLIPSE
  5
241
330
1F
100
AcDbEntity
  8
0
  6
Continuous
 62
     7
370
    15
100
AcDbEllipse
 10
103.3575393059
 20
103.6670362636
 30
0.0
 11
2.768430518895997
 21
0.7441395482959052
 31
0.0
210
0.0
220
0.0
230
1.0
 40
0.742718918
 41
0.0
 42
6.283185307179586
  0
ARC
  5
242
330
1F
100
AcDbEntity
  8
0
  6
Continuous
 62
     7
370
    15
100
AcDbCircle
 10
88.0210469218
 20
111.8215939128
 30
0.0
 40
20.50000000000007
100
AcDbArc
 50
243.8912048011
 51
347.1244871169
  0
LINE
  5
243
330
1F
100
AcDbEntity
  8
0
  6
Continuous
 62
     7
370
    15
100
AcDbLine
 10
86.5045235001
 20
132.9052431607
 30
0.0
 11
86.4136931228
 21
132.9212600463
 31
0.0
  0
SPLINE
  5
244
330
1F
100
AcDbEntity
  8
0
  6
Continuous
 62
     7
370
    15
100
AcDbSpline
210
0.0
220
0.0
230
1.0
 70
     8
 71
     3
 72
     8
 73
     4
 74
     0
 42
0.00000001
 43
0.00000001
 12
1.0
 22
0.0
 32
0.0
 13
1.0
 23
0.0
 33
0.0
 40
0.0
 40
0.0
 40
0.0
 40
0.0
 40
1.0
 40
1.0
 40
1.0
 40
1.0
 10
84.55814337020892
 20
131.5195201739982
 30
0.0
 10
84.57150032323398
 20
131.5218683318425
 30
0.0
 10
84.58035264959058
 20
131.5255837382128
 30
0.0
 10
84.58483168879633
 20
131.5310576913428
 30
0.0
  0
SPLINE
  5
245
330
1F
100
AcDbEntity
  8
0
  6
Continuous
 62
     7
370
    15
100
AcDbSpline
210
0.0
220
0.0
230
1.0
 70
     8
 71
     3
 72
    10
 73
     6
 74
     0
 42
0.00000001
 43
0.00000001
 12
1.0
 22
0.0
 32
0.0
 13
1.0
 23
0.0
 33
0.0
 40
0.0
 40
0.0
 40
0.0
 40
0.0
 40
0.5
 40
0.5
 40
1.0
 40
1.0
 40
1.0
 40
1.0
 10
84.19660983934713
 20
131.4525307473411
 30
0.0
 10
84.27819914143839
 20
131.4684257173611
 30
0.0
 10
84.35427948343069
 20
131.4826949502238
 30
0.0
 10
84.47989877211188
 20
131.505707995807
 30
0.0
 10
84.52961596852094
 20
131.5145050450333
 30
0.0
 10
84.55814337020027
 20
131.5195201740008
 30
0.0
  0
ARC
  5
246
330
1F
100
AcDbEntity
  8
0
  6
Continuous
 62
     7
370
    15
100
AcDbCircle
 10
88.0210469218
 20
111.8215939128
 30
0.0
 40
20.00000000000006
100
AcDbArc
 50
208.9211429136
 51
219.2667342642
  0
ARC
  5
247
330
1F
100
AcDbEntity
  8
0
  6
Continuous
 62
     7
370
    15
100
AcDbCircle
 10
88.0210469218
 20
111.8215939128
 30
0.0
 40
20.00000000000006
100
AcDbArc
 50
101.0240987942
 51
165.3237149285
  0
ARC
  5
248
330
1F
100
AcDbEntity
  8
0
  6
Continuous
 62
     7
370
    15
100
AcDbCircle
 10
62.5143264102
 20
104.8160998949
 30
0.0
 40
4.996442265453214
100
AcDbArc
 50
335.6750241914
 51
355.4361678666
  0
ARC
  5
249
330
1F
100
AcDbEntity
  8
0
  6
Continuous
 62
     7
370
    15
100
AcDbCircle
 10
79.6197656309
 20
102.0828752179
 30
0.0
 40
12.85106249273436
100
AcDbArc
 50
167.0273838949
 51
175.1932406019
  0
LWPOLYLINE
  5
24A
330
1F
100
AcDbEntity
  8
0
  6
Continuous
 62
     7
370
    15
100
AcDbPolyline
 90
       10
 70
   128
 43
0.0
 10
67.2821993681
 20
104.7158615761
 10
67.2502661796
 20
104.5069533498
 10
67.1830135139
 20
104.1175147616
 10
67.1082637014
 20
103.7403915175
 10
67.031776041
 20
103.4046357595
 10
66.9594420793
 20
103.1361140409
 10
66.8968367132
 20
102.9555147612
 10
66.8487786057
 20
102.8767500171
 10
66.8189744206
 20
102.9058883064
 10
66.8097189369
 20
103.0406842106
  0
LINE
  5
24B
330
1F
100
AcDbEntity
  8
0
  6
Continuous
 62
     7
370
    15
100
AcDbLine
 10
66.8139005752
 20
103.1597351753
 30
0.0
 11
66.8342779132
 21
103.150729286
 31
0.0
  0
LINE
  5
24C
330
1F
100
AcDbEntity
  8
0
  6
Continuous
 62
     7
370
    15
100
AcDbLine
 10
66.8532955201
 20
103.2359490269
 30
0.0
 11
66.8097189369
 21
103.0406842106
 31
0.0
  0
ARC
  5
24D
330
1F
100
AcDbEntity
  8
0
  6
Continuous
 62
     7
370
    15
100
AcDbCircle
 10
77.7781403462
 20
102.4094230697
 30
0.0
 40
10.96057693490819
100
AcDbArc
 50
166.6380133705
 51
175.1495244001
  0
LWPOLYLINE
  5
24E
330
1F
100
AcDbEntity
  8
0
  6
Continuous
 62
     7
370
    15
100
AcDbPolyline
 90
       10
 70
   128
 43
0.0
 10
67.2638094725
 20
104.7360330918
 10
67.2620865258
 20
104.7235254296
 10
67.2082281413
 20
104.3727367283
 10
67.1429629179
 20
104.0130692632
 10
67.0723668041
 20
103.6780050122
 10
67.0030130746
 20
103.398735831
 10
66.9413557949
 20
103.201260055
 10
66.8931356372
 20
103.1039591976
 10
66.8628434392
 20
103.1158931651
 10
66.8532955201
 20
103.2359490269
  0
LINE
  5
24F
330
1F
100
AcDbEntity
  8
0
  6
Continuous
 62
     7
370
    15
100
AcDbLine
 10
66.8568159195
 20
103.3362021768
 30
0.0
 11
66.8139005752
 21
103.1597351753
 31
0.0
  0
LINE
  5
250
330
1F
100
AcDbEntity
  8
0
  6
Continuous
 62
     7
370
    15
100
AcDbLine
 10
66.9479067179
 20
103.2192671769
 30
0.0
 11
66.8532955201
 21
103.2359490269
 31
0.0
  0
LINE
  5
251
330
1F
100
AcDbEntity
  8
0
  6
Continuous
 62
     7
370
    15
100
AcDbLine
 10
66.978886232
 20
103.3146774494
 30
0.0
 11
66.8568159195
 21
103.3362021768
 31
0.0
  0
LWPOLYLINE
  5
252
330
1F
100
AcDbEntity
  8
0
  6
Continuous
 62
     7
370
    15
100
AcDbPolyline
 90
       26
 70
   128
 43
0.0
 10
64.9735196235
 20
105.8666805835
 10
65.0017331096
 20
105.860743402
 10
65.0816107841
 20
105.921603004
 10
65.1783547105
 20
106.0868191631
 10
65.2901655736
 20
106.3533152551
 10
65.4149572106
 20
106.7161268652
 10
65.5504087659
 20
107.1684949198
 10
65.6939944925
 20
107.7019932778
 10
65.843039632
 20
108.3066833303
 10
65.9947688433
 20
108.9713011966
 10
66.1463546308
 20
109.68346634
 10
66.2949750872
 20
110.4299121867
 10
66.4378585966
 20
111.1967342072
 10
66.5723471644
 20
111.9696477468
 10
66.6959318074
 20
112.7342549367
 10
66.8063140215
 20
113.4763125661
 10
66.9014337214
 20
114.1819974505
 10
66.9795232566
 20
114.8381642629
 10
67.0391241761
 20
115.4325895109
 10
67.0791300686
 20
115.9542004676
 10
67.0987921508
 20
116.3932804116
 10
67.0977453442
 20
116.7416500025
 10
67.076010138
 20
116.9928197847
 10
67.0339888634
 20
117.142111259
 10
66.9724675568
 20
117.1867430308
 10
66.9696270229
 20
117.1863346458
  0
LWPOLYLINE
  5
253
330
1F
100
AcDbEntity
  8
0
  6
Continuous
 62
     7
370
    15
100
AcDbPolyline
 90
       25
 70
   128
 43
0.0
 10
66.9507435264
 20
105.5151240067
 10
66.963852823
 20
105.5147687071
 10
67.0437304976
 20
105.5756278434
 10
67.1404762866
 20
105.7408444681
 10
67.252285287
 20
106.0073405602
 10
67.3770787867
 20
106.3701517046
 10
67.5125284793
 20
106.8225202248
 10
67.6561142059
 20
107.3560181172
 10
67.8051593455
 20
107.9607084026
 10
67.9568885567
 20
108.6253262688
 10
68.1084762069
 20
109.3374914122
 10
68.2570948007
 20
110.0839374918
 10
68.3999801727
 20
110.8507593959
 10
68.5344668778
 20
111.62367295
 10
68.6580533834
 20
112.3882801253
 10
68.768433735
 20
113.1303377547
 10
68.8635552975
 20
113.8360227556
 10
68.94164297
 20
114.492189568
 10
69.0012457522
 20
115.086614816
 10
69.041249782
 20
115.6082257726
 10
69.0609118642
 20
116.0473057167
 10
69.0598650577
 20
116.3956753076
 10
69.0381298514
 20
116.6468450897
 10
68.9961104395
 20
116.7961365641
 10
68.9476984294
 20
116.8404130363
  0
LWPOLYLINE
  5
254
330
1F
100
AcDbEntity
  8
0
  6
Continuous
 62
     7
370
    15
100
AcDbPolyline
 90
       31
 70
   128
 43
0.0
 10
63.5501849206
 20
109.9434324638
 10
63.5407543482
 20
109.666641532
 10
63.55248715
 20
109.4861356174
 10
63.5848710986
 20
109.4098037207
 10
63.636488721
 20
109.4409818393
 10
63.7050862165
 20
109.5783074484
 10
63.7876647266
 20
109.8157786396
 10
63.8806144448
 20
110.1430167542
 10
63.9798729422
 20
110.5457201698
 10
64.0811039807
 20
111.006288636
 10
64.1798819156
 20
111.5045930706
 10
64.2718891354
 20
112.0188552373
 10
64.3531060519
 20
112.5265993974
 10
64.4199824633
 20
113.0056347097
 10
64.4695940169
 20
113.4350250573
 10
64.4997744562
 20
113.7960038246
 10
64.5092050286
 20
114.0727947564
 10
64.4974722268
 20
114.253300671
 10
64.4650882783
 20
114.3296325677
 10
64.4134706559
 20
114.298454449
 10
64.3448731603
 20
114.1611290728
 10
64.2622965129
 20
113.9236576487
 10
64.1693467947
 20
113.5964195342
 10
64.0700864347
 20
113.1937161186
 10
63.9688553961
 20
112.7331477106
 10
63.8700774612
 20
112.2348432469
 10
63.7780702414
 20
111.7205810656
 10
63.696853325
 20
111.2128368909
 10
63.6299769135
 20
110.7338015786
 10
63.58036536
 20
110.3044113475
 10
63.5501849206
 20
109.9434324638
  0
LINE
  5
255
330
1F
100
AcDbEntity
  8
0
  6
Continuous
 62
     7
370
    15
100
AcDbLine
 10
64.2999647858
 20
113.2535660504
 30
0.0
 11
64.4553671332
 21
113.3350401283
 31
0.0
  0
SPLINE
  5
256
330
1F
100
AcDbEntity
  8
0
  6
Continuous
 62
     7
370
    15
100
AcDbSpline
210
0.0
220
0.0
230
1.0
 70
     8
 71
     3
 72
     9
 73
     5
 74
     0
 42
0.00000001
 43
0.00000001
 12
1.0
 22
0.0
 32
0.0
 13
1.0
 23
0.0
 33
0.0
 40
0.0
 40
0.0
 40
0.0
 40
0.0
 40
0.9539663743474132
 40
1.0
 40
1.0
 40
1.0
 40
1.0
 10
63.87613105793576
 20
111.0041279094311
 30
0.0
 10
63.98502594271288
 20
111.1416666162326
 30
0.0
 10
64.09917554767314
 20
111.2858422501963
 30
0.0
 10
64.16603612906421
 20
111.4539431017693
 30
0.0
 10
64.16911396403889
 20
111.4616813934425
 30
0.0
  0
LINE
  5
257
330
1F
100
AcDbEntity
  8
0
  6
Continuous
 62
     7
370
    15
100
AcDbLine
 10
64.3889414819
 20
112.8073217911
 30
0.0
 11
64.2999647858
 21
113.2535660504
 31
0.0
  0
SPLINE
  5
258
330
1F
100
AcDbEntity
  8
0
  6
Continuous
 62
     7
370
    15
100
AcDbSpline
210
0.0
220
0.0
230
1.0
 70
     8
 71
     3
 72
     9
 73
     5
 74
     0
 42
0.00000001
 43
0.00000001
 12
1.0
 22
0.0
 32
0.0
 13
1.0
 23
0.0
 33
0.0
 40
0.0
 40
0.0
 40
0.0
 40
0.0
 40
0.3640971145510755
 40
1.0
 40
1.0
 40
1.0
 40
1.0
 10
64.01378239710907
 20
110.7151639512757
 30
0.0
 10
64.00579899422215
 20
110.7505266081265
 30
0.0
 10
63.98387241867985
 20
110.8476508517349
 30
0.0
 10
63.91801193166535
 20
110.943302653005
 30
0.0
 10
63.87613105793576
 20
111.0041279094311
 30
0.0
  0
ARC
  5
259
330
1F
100
AcDbEntity
  8
0
  6
Continuous
 62
     7
370
    15
100
AcDbCircle
 10
61.5731059265
 20
112.0295016832
 30
0.0
 40
19.8548653937545
100
AcDbArc
 50
342.6712070307
 51
351.7655056453
  0
LWPOLYLINE
  5
25A
330
1F
100
AcDbEntity
  8
0
  6
Continuous
 62
     7
370
    15
100
AcDbPolyline
 90
       19
 70
   128
 43
0.0
 10
80.9343619945
 20
105.7461385713
 10
80.9731865043
 20
105.7440803484
 10
81.0387916604
 20
105.8333820761
 10
81.1196886676
 20
106.0233863168
 10
81.2131231392
 20
106.307622707
 10
81.3159132118
 20
106.6764115454
 10
81.4245585093
 20
107.1171948784
 10
81.535359353
 20
107.6149621145
 10
81.6445420237
 20
108.1527624843
 10
81.7483891474
 20
108.7122815293
 10
81.8433640266
 20
109.2744655539
 10
81.926232178
 20
109.8201702912
 10
81.9941721598
 20
110.3308121306
 10
82.0448696355
 20
110.7890021154
 10
82.0765988642
 20
111.1791368672
 10
82.0882785807
 20
111.4879308948
 10
82.0795120413
 20
111.7048686206
 10
82.0505968036
 20
111.822562472
 10
82.009300098
 20
111.8407946174
  0
LINE
  5
25B
330
1F
100
AcDbEntity
  8
0
  6
Continuous
 62
     7
370
    15
100
AcDbLine
 10
64.4470839502
 20
113.2276249914
 30
0.0
 11
64.2999647858
 21
113.2535660504
 31
0.0
  0
LINE
  5
25C
330
1F
100
AcDbEntity
  8
0
  6
Continuous
 62
     7
370
    15
100
AcDbLine
 10
64.0733684154
 20
110.9693496469
 30
0.0
 11
63.8761310579
 21
111.0041279094
 31
0.0
  0
LWPOLYLINE
  5
25D
330
1F
100
AcDbEntity
  8
0
  6
Continuous
 62
     7
370
    15
100
AcDbPolyline
 90
       19
 70
   128
 43
0.0
 10
67.879158512
 20
108.1661062413
 10
68.0344118478
 20
108.8706815713
 10
68.1881415399
 20
109.6164267142
 10
68.3376094999
 20
110.3900341182
 10
68.4801465573
 20
111.1776986141
 10
68.6132102015
 20
111.9653644196
 10
68.7344236972
 20
112.7389755198
 10
68.8416263761
 20
113.4847268327
 10
68.932903439
 20
114.1893104282
 10
69.0066250714
 20
114.8401531023
 10
69.061479971
 20
115.4256402147
 10
69.0964846613
 20
115.935323956
 10
69.1110170188
 20
116.3601094955
 10
69.1048162731
 20
116.6924156346
 10
69.0779960455
 20
116.9263126426
 10
69.0310313108
 20
117.0576267974
 10
68.9647621216
 20
117.0840148912
 10
68.8803693952
 20
117.0050061406
 10
68.8005904408
 20
116.8663522326
  0
LWPOLYLINE
  5
25E
330
1F
100
AcDbEntity
  8
0
  6
Continuous
 62
     7
370
    15
100
AcDbPolyline
 90
       12
 70
   128
 43
0.0
 10
66.8036355378
 20
105.541063203
 10
66.8044793161
 20
105.5335688503
 10
66.8414546849
 20
105.3505546511
 10
66.8981983068
 20
105.2715268084
 10
66.9736969026
 20
105.2978962758
 10
67.0666056426
 20
105.429191804
 10
67.1752630474
 20
105.6630711169
 10
67.297731966
 20
105.9953604923
 10
67.4318275156
 20
106.4201301993
 10
67.5751543345
 20
106.9297997379
 10
67.7251568737
 20
107.5152742774
 10
67.879158512
 20
108.1661062413
  0
LWPOLYLINE
  5
25F
330
1F
100
AcDbEntity
  8
0
  6
Continuous
 62
     7
370
    15
100
AcDbPolyline
 90
       27
 70
   128
 43
0.0
 10
67.7157132628
 20
104.1109652356
 10
67.8001842203
 20
104.152769512
 10
67.9022310974
 20
104.3011394427
 10
68.0202669205
 20
104.5537672103
 10
68.1524532588
 20
104.906723565
 10
68.29673934
 20
105.354519757
 10
68.4508769514
 20
105.8901913562
 10
68.612472594
 20
106.5054072165
 10
68.7790079715
 20
107.1905993954
 10
68.9478977325
 20
107.9351110016
 10
69.1165136846
 20
108.7273635999
 10
69.2822332235
 20
109.5550355599
 10
69.4424784483
 20
110.4052544902
 10
69.5947571399
 20
111.2647976475
 10
69.7367037388
 20
112.1202968566
 10
69.8661072852
 20
112.9584470396
 10
69.9809561225
 20
113.7662130273
 10
70.0794639738
 20
114.5310320058
 10
70.160099745
 20
115.2410094724
 10
70.2216098758
 20
115.8851028518
 10
70.2630369665
 20
116.4532957696
 10
70.2837346794
 20
116.9367509061
 10
70.2833826395
 20
117.3279496939
 10
70.2619882973
 20
117.6208078028
 10
70.2198813411
 20
117.8107705996
 10
70.1577192845
 20
117.8948834636
 10
70.0885927977
 20
117.8812703216
  0
SPLINE
  5
260
330
1F
100
AcDbEntity
  8
0
  6
Continuous
 62
     7
370
    15
100
AcDbSpline
210
0.0
220
0.0
230
1.0
 70
     8
 71
     3
 72
     9
 73
     5
 74
     0
 42
0.00000001
 43
0.00000001
 12
1.0
 22
0.0
 32
0.0
 13
1.0
 23
0.0
 33
0.0
 40
0.0
 40
0.0
 40
0.0
 40
0.0
 40
0.7503322499587574
 40
1.0
 40
1.0
 40
1.0
 40
1.0
 10
67.71571326275448
 20
104.1109652356262
 30
0.0
 10
67.56878323313614
 20
104.309142265936
 30
0.0
 10
67.37296327520895
 20
104.5732613016308
 30
0.0
 10
67.24418673660283
 20
104.7578101093503
 30
0.0
 10
67.21203538795093
 20
104.8038859949464
 30
0.0
  0
SPLINE
  5
261
330
1F
100
AcDbEntity
  8
0
  6
Continuous
 62
     7
370
    15
100
AcDbSpline
210
0.0
220
0.0
230
1.0
 70
    11
 71
     3
 72
    26
 73
    22
 74
     0
 42
0.00000001
 43
0.00000001
 12
1.0
 22
0.0
 32
0.0
 13
1.0
 23
0.0
 33
0.0
 40
0.0
 40
0.0
 40
0.0
 40
0.0
 40
0.0456335905682827
 40
0.0911468923223325
 40
0.1396867039358511
 40
0.1952356608682618
 40
0.2567873337412847
 40
0.3195028081269918
 40
0.378272409001613
 40
0.4320415277291458
 40
0.4825627283780929
 40
0.5316197871016137
 40
0.5803378023277188
 40
0.6295799794608777
 40
0.6804010163163304
 40
0.7342117424347386
 40
0.7923208481348774
 40
0.8544918211053905
 40
0.916815361748065
 40
0.963862920324042
 40
0.9999999999999999
 40
0.9999999999999999
 40
0.9999999999999999
 40
0.9999999999999999
 10
74.12872600575069
 20
116.2587750800902
 30
0.0
 10
74.11933543531943
 20
116.3100333004231
 30
0.0
 10
74.10057904772677
 20
116.4124146259145
 30
0.0
 10
73.94362571504055
 20
116.5606049532164
 30
0.0
 10
73.70558740592139
 20
116.6971107605216
 30
0.0
 10
73.37831269946685
 20
116.8180927985753
 30
0.0
 10
72.98748626209952
 20
116.9093285564117
 30
0.0
 10
72.59286822178693
 20
116.950400691974
 30
0.0
 10
72.26734840225643
 20
116.9268259226375
 30
0.0
 10
72.05256492206094
 20
116.8405783911447
 30
0.0
 10
71.9541077239588
 20
116.7042648827178
 30
0.0
 10
71.96580710809465
 20
116.5329721961411
 30
0.0
 10
72.08006020447732
 20
116.3448307030878
 30
0.0
 10
72.28637314769672
 20
116.1613559545882
 30
0.0
 10
72.57058423486951
 20
116.0045548199665
 30
0.0
 10
72.91551195137582
 20
115.8946492178984
 30
0.0
 10
73.29644565567573
 20
115.8502197237198
 30
0.0
 10
73.67050036946873
 20
115.8851853798486
 30
0.0
 10
73.95176306161473
 20
115.9923717995138
 30
0.0
 10
74.10365977250751
 20
116.1283307238956
 30
0.0
 10
74.12113459252254
 20
116.2192694630496
 30
0.0
 10
74.12872600575069
 20
116.2587750800902
 30
0.0
  0
LWPOLYLINE
  5
262
330
1F
100
AcDbEntity
  8
0
  6
Continuous
 62
     7
370
    15
100
AcDbPolyline
 90
       27
 70
   128
 43
0.0
 10
72.2201647909
 20
103.3167086639
 10
72.3046357485
 20
103.3585129404
 10
72.4066826256
 20
103.506882871
 10
72.5247175174
 20
103.7595106387
 10
72.6569057183
 20
104.1124674589
 10
72.8011908682
 20
104.560263651
 10
72.9553294109
 20
105.0959352502
 10
73.1169231908
 20
105.7111506448
 10
73.283460431
 20
106.3963428237
 10
73.452350192
 20
107.1408546628
 10
73.6209652128
 20
107.9331072611
 10
73.7866847517
 20
108.7607792211
 10
73.9469299765
 20
109.6109980349
 10
74.0992095994
 20
110.4705412504
 10
74.241155267
 20
111.3260404305
 10
74.3705588134
 20
112.1641907007
 10
74.4854076507
 20
112.9719566884
 10
74.5839164334
 20
113.7367756669
 10
74.6645522045
 20
114.4467529007
 10
74.7260623353
 20
115.0908465129
 10
74.7674875634
 20
115.6590394308
 10
74.7881862076
 20
116.1424948
 10
74.787835099
 20
116.5336931222
 10
74.7664407568
 20
116.8265512311
 10
74.7243338006
 20
117.016514028
 10
74.6621708127
 20
117.1006273576
 10
74.6502703728
 20
117.1041789562
  0
LINE
  5
263
330
1F
100
AcDbEntity
  8
0
  6
Continuous
 62
     7
370
    15
100
AcDbLine
 10
72.2201647909
 20
103.3167086639
 30
0.0
 11
67.7157132628
 21
104.1109652356
 31
0.0
  0
SPLINE
  5
264
330
1F
100
AcDbEntity
  8
0
  6
Continuous
 62
     7
370
    15
100
AcDbSpline
210
0.0
220
0.0
230
1.0
 70
     8
 71
     3
 72
    13
 73
     9
 74
     0
 42
0.00000001
 43
0.00000001
 12
1.0
 22
0.0
 32
0.0
 13
1.0
 23
0.0
 33
0.0
 40
0.0
 40
0.0
 40
0.0
 40
0.0
 40
0.1635392322476189
 40
0.3270848991957336
 40
0.4958211367559899
 40
0.6645723577983532
 40
0.8317545639002709
 40
1.0
 40
1.0
 40
1.0
 40
1.0
 10
73.9059378134189
 20
108.6192545113171
 30
0.0
 10
74.13753767679148
 20
109.4051760115325
 30
0.0
 10
74.60074651618648
 20
110.9770499352434
 30
0.0
 10
75.49280378938222
 20
113.4244683495612
 30
0.0
 10
76.52644735563443
 20
115.9213774408873
 30
0.0
 10
77.7043798932164
 20
118.4461289915388
 30
0.0
 10
78.9922471993153
 20
120.9621650976479
 30
0.0
 10
79.93263965163239
 20
122.6146215077321
 30
0.0
 10
80.40432629381398
 20
123.4434686698968
 30
0.0
  0
SPLINE
  5
265
330
1F
100
AcDbEntity
  8
0
  6
Continuous
 62
     7
370
    15
100
AcDbSpline
210
0.0
220
0.0
230
1.0
 70
     8
 71
     3
 72
    14
 73
    10
 74
     0
 42
0.00000001
 43
0.00000001
 12
1.0
 22
0.0
 32
0.0
 13
1.0
 23
0.0
 33
0.0
 40
0.0
 40
0.0
 40
0.0
 40
0.0
 40
0.1531034182691387
 40
0.3061701238745788
 40
0.4598131882410226
 40
0.6133456005230948
 40
0.755350574135079
 40
0.8972674478485704
 40
1.0
 40
1.0
 40
1.0
 40
1.0
 10
80.40432629381398
 20
123.4434686698968
 30
0.0
 10
80.57683019125304
 20
123.7107084710007
 30
0.0
 10
80.92179662142719
 20
124.2451239917853
 30
0.0
 10
81.594275020049
 20
124.9325274597971
 30
0.0
 10
82.36654052195034
 20
125.5017754171526
 30
0.0
 10
83.20888570213245
 20
125.9150530222617
 30
0.0
 10
84.08852263326911
 20
126.1500748301674
 30
0.0
 10
84.89347327952468
 20
126.2181589746543
 30
0.0
 10
85.39615625122453
 20
126.1516960421416
 30
0.0
 10
85.60724158045927
 20
126.1237870999629
 30
0.0
  0
ARC
  5
266
330
1F
100
AcDbEntity
  8
0
  6
Continuous
 62
     7
370
    15
100
AcDbCircle
 10
-359.0861860382
 20
205.2440599713
 30
0.0
 40
451.6771658457416
100
AcDbArc
 50
349.1122476286
 51
349.9114508904
  0
SPLINE
  5
267
330
1F
100
AcDbEntity
  8
0
  6
Continuous
 62
     7
370
    15
100
AcDbSpline
210
0.0
220
0.0
230
1.0
 70
     8
 71
     3
 72
    10
 73
     6
 74
     0
 42
0.00000001
 43
0.00000001
 12
1.0
 22
0.0
 32
0.0
 13
1.0
 23
0.0
 33
0.0
 40
0.0
 40
0.0
 40
0.0
 40
0.0
 40
0.4116163300056678
 40
0.8227989917526191
 40
1.0
 40
1.0
 40
1.0
 40
1.0
 10
84.46038954165856
 20
119.9287774139101
 30
0.0
 10
84.17819674746359
 20
119.7039616134307
 30
0.0
 10
83.61410847006147
 20
119.2545668725516
 30
0.0
 10
83.19333037555946
 20
118.4719740524664
 30
0.0
 10
83.07389017169798
 20
117.9863817603858
 30
0.0
 10
83.03791887332777
 20
117.8401379943842
 30
0.0
  0
ARC
  5
268
330
1F
100
AcDbEntity
  8
0
  6
Continuous
 62
     7
370
    15
100
AcDbCircle
 10
-276.0298798373
 20
188.6487927424
 30
0.0
 40
365.9829909410377
100
AcDbArc
 50
347.1733839862
 51
348.8443336579
  0
SPLINE
  5
269
330
1F
100
AcDbEntity
  8
0
  6
Continuous
 62
     7
370
    15
100
AcDbSpline
210
0.0
220
0.0
230
1.0
 70
     8
 71
     3
 72
    13
 73
     9
 74
     0
 42
0.00000001
 43
0.00000001
 12
1.0
 22
0.0
 32
0.0
 13
1.0
 23
0.0
 33
0.0
 40
0.0
 40
0.0
 40
0.0
 40
0.0
 40
0.1022823173888304
 40
0.2778050423101194
 40
0.4588982692433372
 40
0.6400077389433935
 40
0.8194332819719385
 40
1.0
 40
1.0
 40
1.0
 40
1.0
 10
74.39526959528307
 20
117.1491422788257
 30
0.0
 10
74.53142966171102
 20
117.5945442527521
 30
0.0
 10
74.90124874657947
 20
118.8042833100052
 30
0.0
 10
75.67361210362643
 20
120.6411477199391
 30
0.0
 10
76.6920650657127
 20
122.6506974905339
 30
0.0
 10
77.85378413945082
 20
124.4849925892796
 30
0.0
 10
79.12030571903013
 20
126.1462216460656
 30
0.0
 10
80.04328444735549
 20
127.0927702131469
 30
0.0
 10
80.50623673220257
 20
127.567544775551
 30
0.0
  0
ARC
  5
26A
330
1F
100
AcDbEntity
  8
0
  6
Continuous
 62
     7
370
    15
100
AcDbCircle
 10
109.990809321
 20
98.5679127628
 30
0.0
 40
37.45860945981351
100
AcDbArc
 50
164.434967716
 51
179.2337350531
  0
SPLINE
  5
26B
330
1F
100
AcDbEntity
  8
0
  6
Continuous
 62
     7
370
    15
100
AcDbSpline
210
0.0
220
0.0
230
1.0
 70
     8
 71
     3
 72
     9
 73
     5
 74
     0
 42
0.00000001
 43
0.00000001
 12
1.0
 22
0.0
 32
0.0
 13
1.0
 23
0.0
 33
0.0
 40
0.0
 40
0.0
 40
0.0
 40
0.0
 40
0.4952263142994702
 40
1.0
 40
1.0
 40
1.0
 40
1.0
 10
72.53554973025898
 20
99.06886351341551
 30
0.0
 10
72.53366598875687
 20
98.7703619123402
 30
0.0
 10
72.52986218946806
 20
98.16760395611658
 30
0.0
 10
72.54990624460795
 20
97.65455314448474
 30
0.0
 10
72.5600239561973
 20
97.39557859534567
 30
0.0
  0
SPLINE
  5
26C
330
1F
100
AcDbEntity
  8
0
  6
Continuous
 62
     7
370
    15
100
AcDbSpline
210
0.0
220
0.0
230
1.0
 70
     8
 71
     3
 72
    12
 73
     8
 74
     0
 42
0.00000001
 43
0.00000001
 12
1.0
 22
0.0
 32
0.0
 13
1.0
 23
0.0
 33
0.0
 40
0.0
 40
0.0
 40
0.0
 40
0.0
 40
0.2178201076148491
 40
0.4355946258419729
 40
0.6493839734703174
 40
0.8631387263805522
 40
1.0
 40
1.0
 40
1.0
 40
1.0
 10
74.59196492304186
 20
112.1227258623129
 30
0.0
 10
74.51267970439959
 20
111.7566838419965
 30
0.0
 10
74.35412586137998
 20
111.0246764133522
 30
0.0
 10
74.09507516701055
 20
109.8890651281971
 30
0.0
 10
73.83947448457738
 20
108.7726268200114
 30
0.0
 10
73.62129247393996
 20
107.8161410160966
 30
0.0
 10
73.50212792244554
 20
107.2760211470508
 30
0.0
 10
73.45561261494736
 20
107.0651879631931
 30
0.0
  0
SPLINE
  5
26D
330
1F
100
AcDbEntity
  8
0
  6
Continuous
 62
     7
370
    15
100
AcDbSpline
210
0.0
220
0.0
230
1.0
 70
     8
 71
     3
 72
    15
 73
    11
 74
     0
 42
0.00000001
 43
0.00000001
 12
1.0
 22
0.0
 32
0.0
 13
1.0
 23
0.0
 33
0.0
 40
0.0
 40
0.0
 40
0.0
 40
0.0
 40
0.0921635404710255
 40
0.2124092967918002
 40
0.3326635404879711
 40
0.4559900105936609
 40
0.5793167151428038
 40
0.703680810107067
 40
0.8280364817664494
 40
1.0
 40
1.0
 40
1.0
 40
1.0
 10
74.81233819593767
 20
116.9776979000325
 30
0.0
 10
74.8602054021873
 20
116.9989929233095
 30
0.0
 10
74.9705249446757
 20
117.0480715600059
 30
0.0
 10
75.09236879089251
 20
116.9037794802377
 30
0.0
 10
75.17712767510369
 20
116.5865726945843
 30
0.0
 10
75.19916363825621
 20
116.0802950326785
 30
0.0
 10
75.1596797872837
 20
115.4069098223738
 30
0.0
 10
75.05515082031823
 20
114.5777381978831
 30
0.0
 10
74.87719334754674
 20
113.5045902333132
 30
0.0
 10
74.6967075464521
 20
112.630176286672
 30
0.0
 10
74.59196585436443
 20
112.1227258623129
 30
0.0
  0
SPLINE
  5
26E
330
1F
100
AcDbEntity
  8
0
  6
Continuous
 62
     7
370
    15
100
AcDbSpline
210
0.0
220
0.0
230
1.0
 70
     8
 71
     3
 72
    10
 73
     6
 74
     0
 42
0.00000001
 43
0.00000001
 12
1.0
 22
0.0
 32
0.0
 13
1.0
 23
0.0
 33
0.0
 40
0.0
 40
0.0
 40
0.0
 40
0.0
 40
0.106667639610629
 40
0.6318063099146255
 40
1.0
 40
1.0
 40
1.0
 40
1.0
 10
72.64996363987306
 20
103.4664923422987
 30
0.0
 10
72.64861591045755
 20
103.433039671489
 30
0.0
 10
72.64063313375148
 20
103.2348951491369
 30
0.0
 10
72.6283261771649
 20
102.8993827373789
 30
0.0
 10
72.62207807499796
 20
102.6499396624635
 30
0.0
 10
72.61950287242512
 20
102.5471298121864
 30
0.0
  0
SPLINE
  5
26F
330
1F
100
AcDbEntity
  8
0
  6
Continuous
 62
     7
370
    15
100
AcDbSpline
210
0.0
220
0.0
230
1.0
 70
     8
 71
     3
 72
    14
 73
    10
 74
     0
 42
0.00000001
 43
0.00000001
 12
1.0
 22
0.0
 32
0.0
 13
1.0
 23
0.0
 33
0.0
 40
0.0
 40
0.0
 40
0.0
 40
0.0
 40
0.1531031031230542
 40
0.3061698664713171
 40
0.4598129314812051
 40
0.61334547119688
 40
0.7553505802241568
 40
0.8972674604800888
 40
1.0
 40
1.0
 40
1.0
 40
1.0
 10
80.50623673220257
 20
127.567544775551
 30
0.0
 10
80.67571634470802
 20
127.7123990875089
 30
0.0
 10
81.01463534289904
 20
128.0020733295412
 30
0.0
 10
81.678453898004
 20
128.3390582421651
 30
0.0
 10
82.44287904379651
 20
128.5910077912601
 30
0.0
 10
83.27878310376227
 20
128.7436429596724
 30
0.0
 10
84.15385188040175
 20
128.7938341462826
 30
0.0
 10
84.95630700566971
 20
128.7608931117332
 30
0.0
 10
85.45872569757451
 20
128.683739683616
 30
0.0
 10
85.66970003043393
 20
128.6513416194374
 30
0.0
  0
LINE
  5
270
330
1F
100
AcDbEntity
  8
0
  6
Continuous
 62
     7
370
    15
100
AcDbLine
 10
85.6697000304
 20
128.6513416194
 30
0.0
 11
85.6072415805
 21
126.1237871
 31
0.0
  0
ARC
  5
271
330
1F
100
AcDbEntity
  8
0
  6
Continuous
 62
     7
370
    15
100
AcDbCircle
 10
81.1584837135
 20
98.7543708937
 30
0.0
 40
2.256786382825231
100
AcDbArc
 50
167.1707017305
 51
201.7526766158
  0
LINE
  5
272
330
1F
100
AcDbEntity
  8
0
  6
Continuous
 62
     7
370
    15
100
AcDbLine
 10
80.8204929086
 20
107.4000319564
 30
0.0
 11
78.9580358865
 21
99.2554837936
 31
0.0
  0
LINE
  5
273
330
1F
100
AcDbEntity
  8
0
  6
Continuous
 62
     7
370
    15
100
AcDbLine
 10
79.8675552683
 20
101.4713851833
 30
0.0
 11
79.9163556399
 21
103.4462276944
 31
0.0
  0
SPLINE
  5
274
330
1F
100
AcDbEntity
  8
0
  6
Continuous
 62
     7
370
    15
100
AcDbSpline
210
0.0
220
0.0
230
1.0
 70
     8
 71
     3
 72
    13
 73
     9
 74
     0
 42
0.00000001
 43
0.00000001
 12
1.0
 22
0.0
 32
0.0
 13
1.0
 23
0.0
 33
0.0
 40
0.0
 40
0.0
 40
0.0
 40
0.0
 40
0.0349079816500293
 40
0.1421057528999637
 40
0.2791069588462494
 40
0.5027381555483018
 40
0.905862235750648
 40
1.0
 40
1.0
 40
1.0
 40
1.0
 10
80.08144839872698
 20
100.9967487403209
 30
0.0
 10
80.07503037481781
 20
101.0014902631614
 30
0.0
 10
80.0489034526461
 20
101.0207923723436
 30
0.0
 10
80.00340528984371
 20
101.0723589493801
 30
0.0
 10
79.94475809007298
 20
101.1588631642565
 30
0.0
 10
79.887217177854
 20
101.2928766001357
 30
0.0
 10
79.8675554620153
 20
101.3988770527418
 30
0.0
 10
79.8675552991397
 20
101.4598434893082
 30
0.0
 10
79.86755526830534
 20
101.4713851832802
 30
0.0
  0
SPLINE
  5
275
330
1F
100
AcDbEntity
  8
0
  6
Continuous
 62
     7
370
    15
100
AcDbSpline
210
0.0
220
0.0
230
1.0
 70
     8
 71
     3
 72
    11
 73
     7
 74
     0
 42
0.00000001
 43
0.00000001
 12
1.0
 22
0.0
 32
0.0
 13
1.0
 23
0.0
 33
0.0
 40
0.0
 40
0.0
 40
0.0
 40
0.0
 40
0.0150941673390094
 40
0.5714976385044823
 40
0.8657398175004289
 40
1.0
 40
1.0
 40
1.0
 40
1.0
 10
79.83103624750952
 20
99.99357276642864
 30
0.0
 10
79.8310731044895
 20
99.99490596887729
 30
0.0
 10
79.83246858901967
 20
100.0453838809037
 30
0.0
 10
79.8492967994089
 20
100.1086124278754
 30
0.0
 10
79.89363298869445
 20
100.1554702098204
 30
0.0
 10
79.9304407618949
 20
100.1551460958581
 30
0.0
 10
79.94197352995256
 20
100.1550445430929
 30
0.0
  0
LINE
  5
276
330
1F
100
AcDbEntity
  8
0
  6
Continuous
 62
     7
370
    15
100
AcDbLine
 10
79.7563981937
 20
96.9731129804
 30
0.0
 11
79.8310362475
 21
99.9935727664
 31
0.0
  0
SPLINE
  5
277
330
1F
100
AcDbEntity
  8
0
  6
Continuous
 62
     7
370
    15
100
AcDbSpline
210
0.0
220
0.0
230
1.0
 70
     8
 71
     3
 72
    10
 73
     6
 74
     0
 42
0.00000001
 43
0.00000001
 12
1.0
 22
0.0
 32
0.0
 13
1.0
 23
0.0
 33
0.0
 40
0.0
 40
0.0
 40
0.0
 40
0.0
 40
0.1480674186617708
 40
0.9078075844292386
 40
1.0
 40
1.0
 40
1.0
 40
1.0
 10
79.75639819373468
 20
96.97311298037117
 30
0.0
 10
79.71155547904668
 20
97.01218820079512
 30
0.0
 10
79.4366229053036
 20
97.25176002412196
 30
0.0
 10
79.202971307106
 20
97.57762921918683
 30
0.0
 10
79.07612480489146
 20
97.88476689811424
 30
0.0
 10
79.06239803155044
 20
97.91800399357622
 30
0.0
  0
SPLINE
  5
278
330
1F
100
AcDbEntity
  8
0
  6
Continuous
 62
     7
370
    15
100
AcDbSpline
210
0.0
220
0.0
230
1.0
 70
     8
 71
     3
 72
    14
 73
    10
 74
     0
 42
0.00000001
 43
0.00000001
 12
1.0
 22
0.0
 32
0.0
 13
1.0
 23
0.0
 33
0.0
 40
0.0
 40
0.0
 40
0.0
 40
0.0
 40
0.2331517360611313
 40
0.3470363811080469
 40
0.4619509609633063
 40
0.5617288870633841
 40
0.7193117897217219
 40
0.9602592034876902
 40
1.0
 40
1.0
 40
1.0
 40
1.0
 10
79.50207821299414
 20
101.6345892199332
 30
0.0
 10
79.6010435771716
 20
101.4398834435674
 30
0.0
 10
79.74834928640371
 20
101.150072228123
 30
0.0
 10
79.87920170316278
 20
100.8263799401605
 30
0.0
 10
79.89447340324443
 20
100.6472455865115
 30
0.0
 10
79.81447666104187
 20
100.5355580213641
 30
0.0
 10
79.6231696415841
 20
100.5266593052899
 30
0.0
 10
79.41143653005543
 20
100.5949921706304
 30
0.0
 10
79.31764191761593
 20
100.7482733458246
 30
0.0
 10
79.30436215569357
 20
100.7699754186923
 30
0.0
  0
SPLINE
  5
279
330
1F
100
AcDbEntity
  8
0
  6
Continuous
 62
     7
370
    15
100
AcDbSpline
210
0.0
220
0.0
230
1.0
 70
     8
 71
     3
 72
    12
 73
     8
 74
     0
 42
0.00000001
 43
0.00000001
 12
1.0
 22
0.0
 32
0.0
 13
1.0
 23
0.0
 33
0.0
 40
0.0
 40
0.0
 40
0.0
 40
0.0
 40
0.1711726019466658
 40
0.348463590042558
 40
0.5597072000201792
 40
0.7770162040593837
 40
1.0
 40
1.0
 40
1.0
 40
1.0
 10
72.5600239561973
 20
97.39557859534567
 30
0.0
 10
72.58948722633038
 20
97.14248730695688
 30
0.0
 10
72.64946690046168
 20
96.62725824601209
 30
0.0
 10
72.95967515831934
 20
95.97633022554642
 30
0.0
 10
73.44221323716957
 20
95.43806435456517
 30
0.0
 10
74.09524854180042
 20
95.02821304130319
 30
0.0
 10
74.63942695328343
 20
94.92274832027897
 30
0.0
 10
74.91502302904705
 20
94.8693363093788
 30
0.0
  0
ARC
  5
27A
330
1F
100
AcDbEntity
  8
0
  6
Continuous
 62
     7
370
    15
100
AcDbCircle
 10
73.8832843514
 20
97.5233850332
 30
0.0
 40
5.89883594764134
100
AcDbArc
 50
325.3309655351
 51
354.6473891936
  0
LINE
  5
27B
330
1F
100
AcDbEntity
  8
0
  6
Continuous
 62
     7
370
    15
100
AcDbLine
 10
82.3089675719
 20
111.5693952811
 30
0.0
 11
84.3526734712
 21
119.830435338
 31
0.0
  0
LINE
  5
27C
330
1F
100
AcDbEntity
  8
0
  6
Continuous
 62
     7
370
    15
100
AcDbLine
 10
84.740597496
 20
121.3984966376
 30
0.0
 11
85.1942968762
 21
123.2324337685
 31
0.0
  0
LWPOLYLINE
  5
27D
330
1F
100
AcDbEntity
  8
0
  6
Continuous
 62
     7
370
    15
100
AcDbPolyline
 90
        9
 70
   128
 43
0.0
 10
82.2940258982
 20
111.843350805
 10
82.2734092103
 20
111.7197483687
 10
82.2578803377
 20
111.605766309
 10
82.2489806192
 20
111.5127161825
 10
82.2475924829
 20
111.4498322345
 10
82.2538542302
 20
111.4233551412
 10
82.2671442034
 20
111.4359123963
 10
82.2861441152
 20
111.4862578611
 10
82.3089675719
 20
111.5693952811
  0
LINE
  5
27E
330
1F
100
AcDbEntity
  8
0
  6
Continuous
 62
     7
370
    15
100
AcDbLine
 10
83.6065611543
 20
119.0933070243
 30
0.0
 11
82.2940258982
 21
111.843350805
 31
0.0
  0
LINE
  5
27F
330
1F
100
AcDbEntity
  8
0
  6
Continuous
 62
     7
370
    15
100
AcDbLine
 10
87.9318882394
 20
138.6749187582
 30
0.0
 11
85.4593123982
 21
128.6803057515
 31
0.0
  0
LWPOLYLINE
  5
280
330
1F
100
AcDbEntity
  8
0
  6
Continuous
 62
     7
370
    15
100
AcDbPolyline
 90
        9
 70
   128
 43
0.0
 10
87.9468297385
 20
138.4009627723
 10
87.9674463973
 20
138.5245641791
 10
87.9829753208
 20
138.6385468864
 10
87.9918754249
 20
138.7315971875
 10
87.993263463
 20
138.7944819503
 10
87.9870016866
 20
138.8209575885
 10
87.9737115097
 20
138.8084014975
 10
87.9547118562
 20
138.7580560618
 10
87.9318882394
 20
138.6749187582
  0
LINE
  5
281
330
1F
100
AcDbEntity
  8
0
  6
Continuous
 62
     7
370
    15
100
AcDbLine
 10
85.2406562513
 20
123.453065949
 30
0.0
 11
87.9468297385
 21
138.4009627723
 31
0.0
  0
ARC
  5
282
330
1F
100
AcDbEntity
  8
0
  6
Continuous
 62
     7
370
    15
100
AcDbCircle
 10
81.6305124185
 20
124.0964450628
 30
0.0
 40
3.667025385432725
100
AcDbArc
 50
346.3720401942
 51
349.8951613961
  0
LWPOLYLINE
  5
283
330
1F
100
AcDbEntity
  8
0
  6
Continuous
 62
     7
370
    15
100
AcDbPolyline
 90
        9
 70
   128
 43
0.0
 10
87.9452972181
 20
138.4022964262
 10
87.9648830446
 20
138.5197175764
 10
87.9796355216
 20
138.6280005896
 10
87.988090621
 20
138.716398003
 10
87.9894092573
 20
138.7761386209
 10
87.983460569
 20
138.801291781
 10
87.9708349017
 20
138.7893615388
 10
87.9527852262
 20
138.7415343993
 10
87.9311027925
 20
138.6625526571
  0
LINE
  5
284
330
1F
100
AcDbEntity
  8
0
  6
Continuous
 62
     7
370
    15
100
AcDbLine
 10
87.9311027925
 20
138.6625526571
 30
0.0
 11
85.461511018
 21
128.6800021403
 31
0.0
  0
LINE
  5
285
330
1F
100
AcDbEntity
  8
0
  6
Continuous
 62
     7
370
    15
100
AcDbLine
 10
83.6092056448
 20
119.0981159084
 30
0.0
 11
82.2955583895
 21
111.8420177132
 31
0.0
  0
LWPOLYLINE
  5
286
330
1F
100
AcDbEntity
  8
0
  6
Continuous
 62
     7
370
    15
100
AcDbPolyline
 90
        9
 70
   128
 43
0.0
 10
82.2955583895
 20
111.8420177132
 10
82.2759726757
 20
111.7245954006
 10
82.2612205261
 20
111.6163124312
 10
82.2527650485
 20
111.527914814
 10
82.2514467614
 20
111.4681750983
 10
82.2573951187
 20
111.4430218218
 10
82.2700210588
 20
111.45495122
 10
82.288070556
 20
111.5027794363
 10
82.3097531425
 20
111.5817599562
  0
LINE
  5
287
330
1F
100
AcDbEntity
  8
0
  6
Continuous
 62
     7
370
    15
100
AcDbLine
 10
82.3097531425
 20
111.5817599562
 30
0.0
 11
84.3497365454
 21
119.8277540603
 31
0.0
  0
LINE
  5
288
330
1F
100
AcDbEntity
  8
0
  6
Continuous
 62
     7
370
    15
100
AcDbLine
 10
84.7479332911
 20
121.4373393082
 30
0.0
 11
85.1950822139
 21
123.2447989383
 31
0.0
  0
ARC
  5
289
330
1F
100
AcDbEntity
  8
0
  6
Continuous
 62
     7
370
    15
100
AcDbCircle
 10
81.8104188235
 20
124.0654120732
 30
0.0
 40
3.482721950406096
100
AcDbArc
 50
346.3715873495
 51
349.8956732508
  0
LINE
  5
28A
330
1F
100
AcDbEntity
  8
0
  6
Continuous
 62
     7
370
    15
100
AcDbLine
 10
85.2391235272
 20
123.454399603
 30
0.0
 11
87.9452972181
 21
138.4022964262
 31
0.0
  0
ARC
  5
28B
330
1F
100
AcDbEntity
  8
0
  6
Continuous
 62
     7
370
    15
100
AcDbCircle
 10
91.6047129686
 20
137.8830028233
 30
0.0
 40
1.05706023655862
100
AcDbArc
 50
343.2036478189
 51
6.2524523833
  0
LINE
  5
28C
330
1F
100
AcDbEntity
  8
0
  6
Continuous
 62
     7
370
    15
100
AcDbLine
 10
89.9105029853
 20
122.6296464079
 30
0.0
 11
92.6166767927
 21
137.5775432312
 31
0.0
  0
ARC
  5
28D
330
1F
100
AcDbEntity
  8
0
  6
Continuous
 62
     7
370
    15
100
AcDbCircle
 10
86.3010283319
 20
123.2728830332
 30
0.0
 40
3.666341586577509
100
AcDbArc
 50
346.3717406876
 51
349.8955188096
  0
LINE
  5
28E
330
1F
100
AcDbEntity
  8
0
  6
Continuous
 62
     7
370
    15
100
AcDbLine
 10
89.7557873719
 20
121.9710178771
 30
0.0
 11
89.8641437266
 21
122.4090142273
 31
0.0
  0
LWPOLYLINE
  5
28F
330
1F
100
AcDbEntity
  8
0
  6
Continuous
 62
     7
370
    15
100
AcDbPolyline
 90
        9
 70
   128
 43
0.0
 10
86.3137523152
 20
130.3700639033
 10
86.3652939184
 20
130.6790711456
 10
86.4041163327
 20
130.9640260511
 10
86.4263665604
 20
131.1966499412
 10
86.4298366683
 20
131.353860917
 10
86.4141821835
 20
131.4200537377
 10
86.380956785
 20
131.3886607164
 10
86.3334575875
 20
131.2627961957
 10
86.2763985966
 20
131.0549529367
  0
LINE
  5
290
330
1F
100
AcDbEntity
  8
0
  6
Continuous
 62
     7
370
    15
100
AcDbLine
 10
85.6170793736
 20
126.5219014236
 30
0.0
 11
86.3137523152
 21
130.3700639033
 31
0.0
  0
LINE
  5
291
330
1F
100
AcDbEntity
  8
0
  6
Continuous
 62
     7
370
    15
100
AcDbLine
 10
83.9644572439
 20
119.1893603751
 30
0.0
 11
84.0560588727
 21
119.5596314133
 31
0.0
  0
LWPOLYLINE
  5
292
330
1F
100
AcDbEntity
  8
0
  6
Continuous
 62
     7
370
    15
100
AcDbPolyline
 90
        8
 70
   128
 43
0.0
 10
83.846951809
 20
119.3627218814
 10
83.8367393913
 20
119.2802877263
 10
83.8144891637
 20
119.0476624393
 10
83.8110190557
 20
118.8904528604
 10
83.8266736569
 20
118.8242600397
 10
83.8598990554
 20
118.8556530611
 10
83.9073983694
 20
118.9815166504
 10
83.9644572439
 20
119.1893603751
  0
LINE
  5
293
330
1F
100
AcDbEntity
  8
0
  6
Continuous
 62
     7
370
    15
100
AcDbLine
 10
86.2763985966
 20
131.0549529367
 30
0.0
 11
85.6683607886
 21
128.5971516841
 31
0.0
  0
LINE
  5
294
330
1F
100
AcDbEntity
  8
0
  6
Continuous
 62
     7
370
    15
100
AcDbLine
 10
89.7557873719
 20
121.9710178771
 30
0.0
 11
89.8880660275
 21
122.5057125189
 31
0.0
  0
LINE
  5
295
330
1F
100
AcDbEntity
  8
0
  6
Continuous
 62
     7
370
    15
100
AcDbLine
 10
89.8880660275
 20
122.5057125189
 30
0.0
 11
92.5602530802
 21
137.2658798569
 31
0.0
  0
LINE
  5
296
330
1F
100
AcDbEntity
  8
0
  6
Continuous
 62
     7
370
    15
100
AcDbLine
 10
92.7135194393
 20
122.0075089582
 30
0.0
 11
95.3857069576
 21
136.7676762962
 31
0.0
  0
LINE
  5
297
330
1F
100
AcDbEntity
  8
0
  6
Continuous
 62
     7
370
    15
100
AcDbLine
 10
92.7135194393
 20
122.0075089582
 30
0.0
 11
89.8880660275
 21
122.5057125189
 31
0.0
  0
LINE
  5
298
330
1F
100
AcDbEntity
  8
0
  6
Continuous
 62
     7
370
    15
100
AcDbLine
 10
95.6570370795
 20
136.7357766354
 30
0.0
 11
93.0016776288
 21
122.0685590156
 31
0.0
  0
LINE
  5
299
330
1F
100
AcDbEntity
  8
0
  6
Continuous
 62
     7
370
    15
100
AcDbLine
 10
93.0016776288
 20
122.0685590156
 30
0.0
 11
92.7135194393
 21
122.0075089582
 31
0.0
  0
ARC
  5
29A
330
1F
100
AcDbEntity
  8
0
  6
Continuous
 62
     7
370
    15
100
AcDbCircle
 10
94.1207570294
 20
137.1495006851
 30
0.0
 40
1.321320621570051
100
AcDbArc
 50
343.2035912248
 51
6.2525805704
  0
ARC
  5
29B
330
1F
100
AcDbEntity
  8
0
  6
Continuous
 62
     7
370
    15
100
AcDbCircle
 10
94.9038937301
 20
136.9162038197
 30
0.0
 40
0.774453919623771
100
AcDbArc
 50
346.5278066658
 51
2.1346267449
  0
LINE
  5
29C
330
1F
100
AcDbEntity
  8
0
  6
Continuous
 62
     7
370
    15
100
AcDbLine
 10
92.5812409001
 20
121.4728133851
 30
0.0
 11
92.7135194393
 21
122.0075089582
 31
0.0
  0
LINE
  5
29D
330
1F
100
AcDbEntity
  8
0
  6
Continuous
 62
     7
370
    15
100
AcDbLine
 10
93.0016776288
 20
122.0685590156
 30
0.0
 11
92.8428824732
 21
121.42667939
 31
0.0
  0
CIRCLE
  5
29E
330
1F
100
AcDbEntity
  8
VERMASSUNG
  6
CENTERX2
100
AcDbCircle
 10
88.0210469218
 20
111.2838029499
 30
0.0
 40
27.5
  0
DIMENSION
  5
29F
330
1F
100
AcDbEntity
  8
VERMASSUNG
100
AcDbDimension
  2
_D_5
 10
104.778384156
 20
89.4791784675
 30
0.0
 11
65.086678895
 21
141.1259945342
 31
0.0
 70
   163
  1
<> min. 
 71
     1
 42
-1.0
  3
SLDDIMSTYLE2
100
AcDbDiametricDimension
 15
71.2637096876
 25
133.0884274323
 35
0.0
 40
0.0
  0
INSERT
  5
2B4
330
1F
100
AcDbEntity
  8
VERMASSUNG
100
AcDbBlockReference
  2
SW_CENTERMARKSYMBOL_0
 10
88.0210469218
 20
111.8215939128
 30
0.0
  0
OLE2FRAME
  5
2B5
330
1F
100
AcDbEntity
  8
0
100
AcDbOle2Frame
 70
     2
  3
Paintbrush-Bild
 10
13.8511154363
 20
38.264191557
 30
0.0
 11
51.6290888628
 21
31.9806341108
 31
0.0
 71
     2
 72
     0
 73
     1
 90
    12928
310
80552BED0767C5B32B40DDAF6807D121434000000000000000006FFBDDFB85D0
310
4940DDAF6807D121434000000000000000006FFBDDFB85D04940416F4BD60AFB
310
3F4000000000000000002BED0767C5B32B40416F4BD60AFB3F40000000000000
310
0000000000000100000000010000010000000100000000000100000000320000
310
D0CF11E0A1B11AE1000000000000000000000000000000003E000300FEFF0900
310
0600000000000000000000000100000001000000000000000010000002000000
310
01000000FEFFFFFF0000000000000000FFFFFFFFFFFFFFFFFFFFFFFFFFFFFFFF
310
FFFFFFFFFFFFFFFFFFFFFFFFFFFFFFFFFFFFFFFFFFFFFFFFFFFFFFFFFFFFFFFF
310
FFFFFFFFFFFFFFFFFFFFFFFFFFFFFFFFFFFFFFFFFFFFFFFFFFFFFFFFFFFFFFFF
310
FFFFFFFFFFFFFFFFFFFFFFFFFFFFFFFFFFFFFFFFFFFFFFFFFFFFFFFFFFFFFFFF
310
FFFFFFFFFFFFFFFFFFFFFFFFFFFFFFFFFFFFFFFFFFFFFFFFFFFFFFFFFFFFFFFF
310
FFFFFFFFFFFFFFFFFFFFFFFFFFFFFFFFFFFFFFFFFFFFFFFFFFFFFFFFFFFFFFFF
310
FFFFFFFFFFFFFFFFFFFFFFFFFFFFFFFFFFFFFFFFFFFFFFFFFFFFFFFFFFFFFFFF
310
FFFFFFFFFFFFFFFFFFFFFFFFFFFFFFFFFFFFFFFFFFFFFFFFFFFFFFFFFFFFFFFF
310
FFFFFFFFFFFFFFFFFFFFFFFFFFFFFFFFFFFFFFFFFFFFFFFFFFFFFFFFFFFFFFFF
310
FFFFFFFFFFFFFFFFFFFFFFFFFFFFFFFFFFFFFFFFFFFFFFFFFFFFFFFFFFFFFFFF
310
FFFFFFFFFFFFFFFFFFFFFFFFFFFFFFFFFFFFFFFFFFFFFFFFFFFFFFFFFFFFFFFF
310
FFFFFFFFFFFFFFFFFFFFFFFFFFFFFFFFFFFFFFFFFFFFFFFFFFFFFFFFFFFFFFFF
310
FFFFFFFFFFFFFFFFFFFFFFFFFFFFFFFFFFFFFFFFFFFFFFFFFFFFFFFFFFFFFFFF
310
FFFFFFFFFFFFFFFFFFFFFFFFFFFFFFFFFFFFFFFFFFFFFFFFFFFFFFFFFFFFFFFF
310
FDFFFFFFFEFFFFFFFEFFFFFFFEFFFFFF05000000060000000700000008000000
310
090000000A0000000B0000000C0000000D0000000E0000000F00000010000000
310
11000000120000001300000014000000150000001600000017000000FEFFFFFF
310
FFFFFFFFFFFFFFFFFFFFFFFFFFFFFFFFFFFFFFFFFFFFFFFFFFFFFFFFFFFFFFFF
310
FFFFFFFFFFFFFFFFFFFFFFFFFFFFFFFFFFFFFFFFFFFFFFFFFFFFFFFFFFFFFFFF
310
FFFFFFFFFFFFFFFFFFFFFFFFFFFFFFFFFFFFFFFFFFFFFFFFFFFFFFFFFFFFFFFF
310
FFFFFFFFFFFFFFFFFFFFFFFFFFFFFFFFFFFFFFFFFFFFFFFFFFFFFFFFFFFFFFFF
310
FFFFFFFFFFFFFFFFFFFFFFFFFFFFFFFFFFFFFFFFFFFFFFFFFFFFFFFFFFFFFFFF
310
FFFFFFFFFFFFFFFFFFFFFFFFFFFFFFFFFFFFFFFFFFFFFFFFFFFFFFFFFFFFFFFF
310
FFFFFFFFFFFFFFFFFFFFFFFFFFFFFFFFFFFFFFFFFFFFFFFFFFFFFFFFFFFFFFFF
310
FFFFFFFFFFFFFFFFFFFFFFFFFFFFFFFFFFFFFFFFFFFFFFFFFFFFFFFFFFFFFFFF
310
FFFFFFFFFFFFFFFFFFFFFFFFFFFFFFFFFFFFFFFFFFFFFFFFFFFFFFFFFFFFFFFF
310
FFFFFFFFFFFFFFFFFFFFFFFFFFFFFFFFFFFFFFFFFFFFFFFFFFFFFFFFFFFFFFFF
310
FFFFFFFFFFFFFFFFFFFFFFFFFFFFFFFFFFFFFFFFFFFFFFFFFFFFFFFFFFFFFFFF
310
FFFFFFFFFFFFFFFFFFFFFFFFFFFFFFFFFFFFFFFFFFFFFFFFFFFFFFFFFFFFFFFF
310
FFFFFFFFFFFFFFFFFFFFFFFFFFFFFFFFFFFFFFFFFFFFFFFFFFFFFFFFFFFFFFFF
310
52006F006F007400200045006E00740072007900000000000000000000000000
310
0000000000000000000000000000000000000000000000000000000000000000
310
16000500FFFFFFFFFFFFFFFF020000000A00030000000000C000000000000046
310
000000000000000000000000C03E34017C16CE0103000000C000000000000000
310
01004F006C006500000000000000000000000000000000000000000000000000
310
0000000000000000000000000000000000000000000000000000000000000000
310
0A000200FFFFFFFFFFFFFFFFFFFFFFFF00000000000000000000000000000000
310
0000000000000000000000000000000000000000000000001400000000000000
310
010043006F006D0070004F0062006A0000000000000000000000000000000000
310
0000000000000000000000000000000000000000000000000000000000000000
310
120002010100000003000000FFFFFFFF00000000000000000000000000000000
310
0000000000000000000000000000000000000000010000004D00000000000000
310
01004F006C006500310030004E00610074006900760065000000000000000000
310
0000000000000000000000000000000000000000000000000000000000000000
310
1A000200FFFFFFFFFFFFFFFFFFFFFFFF00000000000000000000000000000000
310
0000000000000000000000000000000000000000040000002426000000000000
310
FEFFFFFF02000000FEFFFFFFFFFFFFFFFFFFFFFFFFFFFFFFFFFFFFFFFFFFFFFF
310
FFFFFFFFFFFFFFFFFFFFFFFFFFFFFFFFFFFFFFFFFFFFFFFFFFFFFFFFFFFFFFFF
310
FFFFFFFFFFFFFFFFFFFFFFFFFFFFFFFFFFFFFFFFFFFFFFFFFFFFFFFFFFFFFFFF
310
FFFFFFFFFFFFFFFFFFFFFFFFFFFFFFFFFFFFFFFFFFFFFFFFFFFFFFFFFFFFFFFF
310
FFFFFFFFFFFFFFFFFFFFFFFFFFFFFFFFFFFFFFFFFFFFFFFFFFFFFFFFFFFFFFFF
310
FFFFFFFFFFFFFFFFFFFFFFFFFFFFFFFFFFFFFFFFFFFFFFFFFFFFFFFFFFFFFFFF
310
FFFFFFFFFFFFFFFFFFFFFFFFFFFFFFFFFFFFFFFFFFFFFFFFFFFFFFFFFFFFFFFF
310
FFFFFFFFFFFFFFFFFFFFFFFFFFFFFFFFFFFFFFFFFFFFFFFFFFFFFFFFFFFFFFFF
310
FFFFFFFFFFFFFFFFFFFFFFFFFFFFFFFFFFFFFFFFFFFFFFFFFFFFFFFFFFFFFFFF
310
FFFFFFFFFFFFFFFFFFFFFFFFFFFFFFFFFFFFFFFFFFFFFFFFFFFFFFFFFFFFFFFF
310
FFFFFFFFFFFFFFFFFFFFFFFFFFFFFFFFFFFFFFFFFFFFFFFFFFFFFFFFFFFFFFFF
310
FFFFFFFFFFFFFFFFFFFFFFFFFFFFFFFFFFFFFFFFFFFFFFFFFFFFFFFFFFFFFFFF
310
FFFFFFFFFFFFFFFFFFFFFFFFFFFFFFFFFFFFFFFFFFFFFFFFFFFFFFFFFFFFFFFF
310
FFFFFFFFFFFFFFFFFFFFFFFFFFFFFFFFFFFFFFFFFFFFFFFFFFFFFFFFFFFFFFFF
310
FFFFFFFFFFFFFFFFFFFFFFFFFFFFFFFFFFFFFFFFFFFFFFFFFFFFFFFFFFFFFFFF
310
FFFFFFFFFFFFFFFFFFFFFFFFFFFFFFFFFFFFFFFFFFFFFFFFFFFFFFFFFFFFFFFF
310
0100000200000000000000000000000000000000000000000000000000000000
310
0000000000000000000000000000000000000000000000000000000000000000
310
0100FEFF030A0000FFFFFFFF0A00030000000000C00000000000004607000000
310
5042727573680007000000504272757368000700000050427275736800F439B2
310
7100000000000000000000000000000000000000000000000000000000000000
310
0000000000000000000000000000000000000000000000000000000000000000
310
0000000000000000000000000000000000000000000000000000000000000000
310
0000000000000000000000000000000000000000000000000000000000000000
310
0000000000000000000000000000000000000000000000000000000000000000
310
0000000000000000000000000000000000000000000000000000000000000000
310
0000000000000000000000000000000000000000000000000000000000000000
310
0000000000000000000000000000000000000000000000000000000000000000
310
0000000000000000000000000000000000000000000000000000000000000000
310
0000000000000000000000000000000000000000000000000000000000000000
310
0000000000000000000000000000000000000000000000000000000000000000
310
0000000000000000000000000000000000000000000000000000000000000000
310
20260000424D0E260000000000003E00000028000000B40200006E0000000100
310
01000000000000000000130B0000130B00000200000002000000000000FFFFFF
310
FFFFFFFFFFFFFFFFFFFFFFFFFFFFFFFFFFFFFFFFFFFFFFFFFFFFFFFFFFFFFFFF
310
FFFFFFFFFFFFFFFFFFFFFFFFFFFFFFFFFFFFFFFFFFFFFFFFFFFFFFFFFFFFFFFF
310
FFFFFFFFFFFFFFFFFFFFFFFFFFFFFFFFFFFFFFFFFFFFFFFFF000FFFFFFFFFFFF
310
FFFFFFFFFFFFFFFFFFFFFFFFFFFFFFFFFFFFFFFFFFFFFFFFFFFFFFFFFFFFFFFF
310
FFFFFFFFFFFFFFFFFFFFFFFFFFFFFFFFFFFFFFFFFFFFFFFFFFFFFFFFFFFFFFFF
310
FFFFFFFFFFFFFFFFFFFFFFFFFFFFFFFFF000FFFFFFFFFFFFFFFFFFFFFFFFFFFF
310
FFFFFFFFFFFFFFFFFFFFFFFFFFFFFFFFFFFFFFFFFFFFFFFFFFFFFFFFFFFFFFFF
310
FFFFFFFFFFFFFFFFFFFFFFFFFFFFFFFFFFFFFFFFFFFFFFFFFFFFFFFFFFFFFFFF
310
FFFFFFFFFFFFFFFFF000FFFFFFFFFFFFFFFFFFFFFFFFFFFFFFFFFFFFFFFFFFFF
310
FFFFFFFFFFFFFFFFFFFFFFFFFFFFFFFFFFFFFFFFFFFFFFFFFFFFFFFFFFFFFFFF
310
FFFFFFFFFFFFFFFFFFFFFFFFFFFFFFFFFFFFFFFFFFFFFFFFFFFFFFFFFFFFFFFF
310
F000FFFFFFFFFFFFFFFFFFFFFFFFFFFFFFFFFFFFFFFFFFFFFFFFFFFFFFFFFFFF
310
FFFFFFFFFFFFFFFFFFFFFFFFFFFFFFFFFFFFFFFFFFFFFFFFFFFFFFFFFFFFFFFF
310
FFFFFFFFFFFFFFFFFFFFFFFFFFFFFFFFFFFFFFFFFFFFFFFFF000FFFFFFFFFFFF
310
FFFFFFFFFFFFFFFFFFFFFFFFFFFFFFFFFFFFFFFFFFFFFFFFFFFFFFFFFFFFFFFF
310
FFFFFFFFFFFFFFFFFFFFFFFFFFFFFFFFFFFFFFFFFFFFFFFFFFFFFFFFFFFFFFFF
310
FFFFFFFFFFFFFFFFFFFFFFFFFFFFFFFFF000FFFFFFFFFFFFFFFFFFFFFFFFFFFF
310
FFFFFFFFFFFFFFFFFFFFFFFFFFFFFFFFFFFFFFFFFFFFFFFFFFFFFFFFFFFFFFFF
310
FFFFFFFFFFFFFFFFFFFFFFFFFFFFFFFFFFFFFFFFFFFFFFFFFFFFFFFFFFFFFFFF
310
FFFFFFFFFFFFFFFFF000FFFFFFFFFFFFFFFFFFFFFFFFFFFFFFFFFFFFFFFFFFFF
310
FFFFFFFFFFFFFFFFFFFFFFFFFFFFFFFFFFFFFFFFFFFFFFFFFFFFFFFFFFFFFFFF
310
FFFFFFFFFFFFFFFFFFFFFFFFFFFFFFFFFFFFFFFFFFFFFFFFFFFFFFFFFFFFFFFF
310
F000FFFFFFFFFFFFFFFFFFFFFFFFFFFFFFFFFFFFFFFFFFFFFFFFFFFFFFFFFFFF
310
FFFFFFFFFFFFFFFFFFFFFFFFFFFFFFFFFFFFFFFFFFFFFFFFFFFFFFFFFFFFFFFF
310
FFFFFFFFFFFFFFFFFFFFFFFFFFFFFFFFFFFFFFFFFFFFFFFFF000FFFFFFFFFFFF
310
FFFFFFFFFFFFFFFFFFFFFFFFFFFFFFFFFFFFFFFFFFFFFFFFFFFFFFFFFFFFFFFF
310
FFFFFFFFFFFFFFFFFFFFFFFFFFFFFFFFFFFFFFFFFFFFFFFFFFFFFFFFFFFFFFFF
310
FFFFFFFFFFFFFFFFFFFFFFFFFFFFFFFFF000FFFFFFFFFFFFFFFFFFFFFFFFFFFF
310
FFFFFFFFFFFFFFFFFFFFFFFFFFFFFFFFFFFFFFFFFFFFFFFFFFFFFFFFFFFFFFFF
310
FFFFFFFFFFFFFFFFFFFFFFFFFFFFFFFFFFFFFFFFFFFFFFFFFFFFFFFFFFFFFFFF
310
FFFFFFFFFFFFFFFFF000FFFFFFFFFFFFFFFFFFFFFFFFFFFFFFFFFFFFFFFFFFFF
310
FFFFFFFFFFFFFFFFFFFFFFFFFFFFFFFFFFFFFFFFFFFFFFFFFFFFFFFFFFFFFFFF
310
FFFFFFFFFFFFFFFFFFFFFFFFFFFFFFFFFFFFFFFFFFFFFFFFFFFFFFFFFFFFFFFF
310
F000FFFFFFFFFFFFFFFFFFFFFFFFFFFFFFFFFFFFFFFFFFFFFFFFFFFFFFFFFFFF
310
FFFFFFFFFFFFFFFFFFFFFFFFFFFFFFFFFFFFFFFFFFFFFFFFFFFFFFFFFFFFFFFF
310
FFFFFFFFFFFFFFFFFFFFFFFFFFFFFFFFFFFFFFFFFFFFFFFFF000FFFFFFFFFFFF
310
FFFFFFFFFFFFFFFFFFFFFFFFFFFFFFFFFFFFFFFFFFFFFFFFFFFFFFFFFFFFFFFF
310
FFFFFFFFFFFFFFFFFFFFFFFFFFFFFFFFFFFFFFFFFFFFFFFFFFFFFFFFFFFFFFFF
310
FFFFFFFFFFFFFFFFFFFFFFFFFFFFFFFFF000FFFFFFFFFFFFFFFFFFFFFFFFFFFF
310
FFFFFFFFFFFFFFFFFFFFFFFFFFFFFFFFFFFFFFFFFFFFFFFFFFFFFFFFFFFFFFFF
310
FFFFFFFFFFFFFFFFFFFFFFFFFFFFFFFFFFFFFFFFFFFFFFFFFFFFFFFFFFFFFFFF
310
FFFFFFFFFFFFFFFFF000FFFFFFFFFFFFFFFFFFFFFFFFFFFFFFFFFFFFFFFFFFFF
310
FFFFFFFFFFFFFFFFFFFFFFFFFFFFFFFFFFFFFFFFFFFFFFFFFFFFFFFFFFFFFFFF
310
FFFFFFFFFFFFFFFFFFFFFFFFFFFFFFFFFFFFFFFFFFFFFFFFFFFFFFFFFFFFFFFF
310
F000FFFFFFFFFFFFFFFFFFFFFFFFFFFFFFFFFFFFFFFFFFFFFFFFFFFFFFFFFFFF
310
FFFFFFFFFFFFFFFFFFFFFFFFFFFFFFFFFFFFFFFFFFFFFFFFFFFFFFFFFFFFFFFF
310
FFFFFFFFFFFFFFFFFFFFFFFFFFFFFFFFFFFFFFFFFFFFFFFFF000FFFFFFFFFFFF
310
FFFFFFFFFFFFFFFFFFFFFFFFFFFFFFFFFFFFFFFFFFFFFFFFFFFFFFFFFFFFFFFF
310
FFFFFFFFFFFFFFFFFFFFFFFFFFFFFFFFFFFFFFFFFFFFFFFFFFFFFFFFFFFFFFFF
310
FFFFFFFFFFFFFFFFFFFFFFFFFFFFFFFFF000FFFFFFFFFFFFFFFFFFFFFFFFFFFF
310
FFFFFFFFFFFFFFFFFFFFFFFFFFFFFFFFFFFFFFFFFFFFFFFFFFFFFFFFFFFFFFFF
310
FFFFFFFFFFFFFFFFFFFFFFFFFFFFFFFFFFFFFFFFFFFFFFFFFFFFFFFFFFFFFFFF
310
FFFFFFFFFFFFFFFFF000FFFFF80003FFFFFFFFFFFFFFFFFFFFFFFFFFFFFFFFFF
310
FFFFF00007FFFFFFFFFF00007FFFFFF800000000000000007FFFFFFFFFFFFFFF
310
FFFFFFFC001FFFFFFFFFFFFFFC001FFFFFFFFFFFFFFFFFFFFFFFFFFE0007FFFF
310
F000FFFF8000007FFFFFFFF8000FFFFFC0007FFFFF80007FFFFF0000007FFFFF
310
FFF8000007FFFFF800000000000000007FFFFFF0001FFFFFFFFFFFC00001FFFF
310
FFFFFFFFC00001FFFFFFFF000000000003FFFFE000007FFFF000FFFE0000000F
310
FFFFFFF0000FFFFF80007FFFFF80007FFFFC0000001FFFFFFFC0000001FFFFF8
310
00000000000000007FFFFFF0001FFFFFFFFFFE0000003FFFFFFFFFFE0000003F
310
FFFFFF000000000003FFFF0000000FFFF000FFF800000003FFFFFFF00007FFFF
310
80007FFFFF80007FFFF000000007FFFFFF000000003FFFF80000000000000000
310
7FFFFFF0001FFFFFFFFFF80000000FFFFFFFFFF80000000FFFFFFF0000000000
310
03FFFC00000003FFF000FFE000000000FFFFFFF00007FFFF80003FFFFF80007F
310
FFC000000001FFFFFC000000001FFFF800000000000000007FFFFFF0001FFFFF
310
FFFFE000000003FFFFFFFFE000000003FFFFFF000000000003FFF000000000FF
310
F000FF80000000007FFFFFF00007FFFF80003FFFFF80007FFF8000000000FFFF
310
F80000000007FFF800000000000000007FFFFFF0001FFFFFFFFFC000000001FF
310
FFFFFFC000000001FFFFFF000000000003FFC0000000007FF000FF0000000000
310
3FFFFFE00007FFFF00003FFFFF80007FFE00000000003FFFF00000000003FFF8
310
00000000000000007FFFFFF0001FFFFFFFFF8000000000FFFFFFFF8000000000
310
FFFFFF000000000003FF80000000003FF000FE00000000001FFFFFE00003FFFF
310
00003FFFFF80007FFC00000000001FFFE00000000001FFF8000001FFFE000000
310
7FFFFFF0001FFFFFFFFE00000000003FFFFFFE00000000003FFFFF0000000000
310
03FF00000000001FF000FC00000000000FFFFFE00003FFFF00001FFFFF80007F
310
F800000000001FFFC00000000000FFF8000001FFFE0000007FFFFFF0001FFFFF
310
FFFC00000000001FFFFFFC00000000001FFFFF000000000003FE00000000000F
310
F000F8000000000007FFFFE00003FFFF00001FFFFF80007FF800000000000FFF
310
800000000000FFF8000001FFFE0000007FFFFFF0001FFFFFFFF800000000000F
310
FFFFF800000000000FFFFF000000000003FC000000000007F000F80000000000
310
03FFFFC00003FFFE00001FFFFF80007FF0000000000007FF0000000000007FF8
310
000001FFFE0000007FFFFFF0001FFFFFFFF0000000000007FFFFF00000000000
310
07FFFF000000000003F8000000000003F000F0000000000003FFFFC00001FFFE
310
00001FFFFF80007FE0000000000007FE0000000000003FF8000001FFFE000000
310
7FFFFFF0001FFFFFFFF0000000000007FFFFF0000000000007FFFF0000000000
310
03F800001F800003F000E00001FFF00001FFFFC00001FFFE00000FFFFF80007F
310
E00001FFE00003FE00001FFF00003FF8000001FFFE0000007FFFFFF0001FFFFF
310
FFE000003E000003FFFFE000003E000003FFFF000000000003F00001FFF80001
310
F000E00007FFFC0001FFFFC00001FFFE00000FFFFF80007FC0000FFFFC0003FC
310
0000FFFFC0001FF8000001FFFE0000007FFFFFF0001FFFFFFFC00003FFE00001
310
FFFFC00003FFE00001FFFF0001FFFFFFFFF00007FFFE0001F000E0000FFFFF00
310
00FFFF800001FFFC00000FFFFF80007FC0001FFFFE0001FC0001FFFFE0001FF8
310
000001FFFE0000007FFFFFF0001FFFFFFF80000FFFF80000FFFF80000FFFF800
310
00FFFF0003FFFFFFFFE0000FFFFF8000F000C0003FFFFF8000FFFF800000FFFC
310
000007FFFF80007F80003FFFFF0001FC0003FFFFF0001FF8000001FFFE000000
310
7FFFFFF0001FFFFFFF80003FFFFE0000FFFF80003FFFFE0000FFFF0003FFFFFF
310
FFE0003FFFFF8000F000C0003FFFFF8000FFFF800000FFFC000007FFFF80007F
310
80007FFFFF8001F80007FFFFF8000FF8000001FFFE0000007FFFFFF0001FFFFF
310
FF00007FFFFF00007FFF00007FFFFF00007FFF0003FFFFFFFFE0003FFFFFC000
310
F000C0007FFFFFC000FFFF000000FFFC000007FFFF80007F8000FFFFFF8000F8
310
000FFFFFF8000FF8000001FFFE0000007FFFFFF0001FFFFFFF0000FFFFFF8000
310
7FFF0000FFFFFF80007FFF0003FFFFFFFFC0007FFFFFC00070008000FFFFFFC0
310
00FFFF000000FFF8000007FFFF80007F8000FFFFFF8000F8000FFFFFF8000FF8
310
000001FFFE0000007FFFFFF0001FFFFFFE0001FFFFFFC0003FFE0001FFFFFFC0
310
003FFF0003FFFFFFFFC0007FFFFFE00070008000FFFFFFC0007FFF0000007FF8
310
000003FFFF80007F0001FFFFFF8000F8000FFFFFF8000FF8000001FFFE000000
310
7FFFFFF0001FFFFFFE0001FFFFFFC0003FFE0001FFFFFFC0003FFF0003FFFFFF
310
FFC000FFFFFFE00070008000FFFFFFC0007FFF0000007FF8000003FFFF80007F
310
0001FFFFFF8000F8001FFFFFF8000FF8000001FFFE0000007FFFFFF0001FFFFF
310
FE0003FFFFFFE0003FFE0003FFFFFFE0003FFF0003FFFFFFFFC000FFFFFFE000
310
70008000FFFFFFC0007FFE0000007FF8000003FFFF80007F0001FFFFFF8000F0
310
001FFFFFF8000FF8000001FFFE0000007FFFFFF0001FFFFFFC0003FFFFFFE000
310
1FFC0003FFFFFFE0001FFF0003FFFFFFFFC000FFFFFFC00070008000FFFFFF80
310
007FFE0000007FF0000003FFFF80007F0001FFFFFF0000F0001FFFFFF8000FF8
310
000001FFFE0000007FFFFFF0001FFFFFFC0007FFFFFFF0001FFC0007FFFFFFF0
310
001FFF0003FFFFFFFFC000FFFFFFC00070008001FFFFFF0000FFFE0000003FF0
310
000001FFFF80007F0001FFFFFF0000F8001FFFFFF0000FF8000001FFFE000000
310
7FFFFFF0001FFFFFFC0007FFFFFFF0001FFC0007FFFFFFF0001FFF0003FFFFFF
310
FFC001FFFFFF80007000FFFFFFFFFE0000FFFE0008003FF0008001FFFF80007F
310
FFFFFFFFFC0000FFFFFFFFFFE0000FF8000001FFFE0000007FFFFFF0001FFFFF
310
F8000FFFFFFFF8000FF8000FFFFFFFF8000FFF0003FFFFFFFFFFFFFFFFFF0000
310
7000FFFFFFFFFC0000FFFC0008003FF0008001FFFF80007FFFFFFFFFF80001FF
310
FFFFFFFF80000FF8000001FFFE0000007FFFFFF0001FFFFFF8000FFFFFFFF800
310
0FF8000FFFFFFFF8000FFF0003FFFFFFFFFFFFFFFFFE0000F000FFFFFFFFE000
310
00FFFC000C003FE000C001FFFF80007FFFFFFFFFC00001FFFFFFFFFE00001FF8
310
000001FFFE0000007FFFFFF0001FFFFFF8000FFFFFFFF8000FF8000FFFFFFFF8
310
000FFF0003FFFFFFFFFFFFFFFFF00000F000FFFFFFFE000001FFFC000C001FE0
310
00C000FFFF80007FFFFFFFFE000001FFFFFFFFE000001FF80FFFFFFFFFFFFFC0
310
7FFFFFF0001FFFFFF8000FFFFFFFF8000FF8000FFFFFFFF8000FFF0003FFFFFF
310
FFFFFFFFFF800000F000FFFFFFC0000001FFFC001C001FE001C000FFFF80007F
310
FFFFFF80000003FFFFFFF80000001FF80FFFFFFFFFFFFFC07FFFFFF0001FFFFF
310
F8001FFFFFFFFC000FF8001FFFFFFFFC000FFF0003FFFFFFFFFFFFFFF0000001
310
F000FFFFF800000001FFF8001C001FE001C000FFFF80007FFFFFF800000003FF
310
FFFF800000003FF80FFFFFFFFFFFFFC07FFFFFF0001FFFFFF8001FFFFFFFFC00
310
0FF8001FFFFFFFFC000FFF0003FFFFFFFFFFFFFE00000001F000FFFFC0000000
310
03FFF8001E001FC001E000FFFF80007FFFFF8000000007FFFFFC000000003FF8
310
0FFFFFFFFFFFFFC07FFFFFF0001FFFFFF8001FFFFFFFFC000FF8001FFFFFFFFC
310
000FFF0003FFFFFFFFFFFFE000000003F000FFFE0000000007FFF8001E000FC0
310
01E0007FFF80007FFFFE0000000007FFFFE0000000007FF80FFFFFFFFFFFFFC0
310
7FFFFFF0001FFFFFF0001FFFFFFFFC0007F0001FFFFFFFFC0007FF0003FFFFFF
310
FFFFFF0000000003F000FFF80000000007FFF8001E000FC003E0007FFF80007F
310
FFF0000000000FFFFF8000000000FFF80FFFFFFFFFFFFFC07FFFFFF0001FFFFF
310
F0001FFFFFFFFC0007F0001FFFFFFFFC0007FF0003FFFFFFFFFFFC0000000007
310
F000FFE0000000000FFFF0003E000FC003E0007FFF80007FFFC0000000001FFF
310
FE0000000001FFF80FFFFFFFFFFFFFC07FFFFFF0001FFFFFF0001FFFFFFFFC00
310
07F0001FFFFFFFFC0007FF0003FFFFFFFFFFF0000000000FF000FFC000000000
310
1FFFF0003F000F8003F0003FFF80007FFF80000000003FFFF80000000003FFF8
310
0FFFFFFFFFFFFFC07FFFFFF0001FFFFFF0001FFFFFFFFC0007F0001FFFFFFFFC
310
0007FF0003FFFFFFFFFFE0000000001FF000FF00000000007FFFF0003F000780
310
03F0003FFF80007FFF00000000007FFFF00000000007FFF80FFFFFFFFFFFFFC0
310
7FFFFFF0001FFFFFF0001FFFFFFFFC0007F0001FFFFFFFFC0007FF0003FFFFFF
310
FFFF80000000007FF000FE0000000000FFFFE0003F00078007F0003FFF80007F
310
FE0000000001FFFFE0000000001FFFF80FFFFFFFFFFFFFC07FFFFFF0001FFFFF
310
F0001FFFFFFFFC0007F0001FFFFFFFFC0007FF0003FFFFFFFFFF0000000000FF
310
F000FC0000000003FFFFE0007F00078007F0003FFF80007FFC0000000007FFFF
310
C0000000007FFFF80FFFFFFFFFFFFFC07FFFFFF0001FFFFFF8001FFFFFFFFC00
310
0FF8001FFFFFFFFC000FFF0003FFFFFFFFFE0000000003FFF000FC000000000F
310
FFFFE0007F80070007F8001FFF80007FF8000000001FFFFF8000000001FFFFF8
310
0FFFFFFFFFFFFFC07FFFFFF0001FFFFFF8001FFFFFFFFC000FF8001FFFFFFFFC
310
000FFF0003FFFFFFFFFC000000000FFFF000F8000000007FFFFFE0007F800700
310
07F8001FFF80007FF000000000FFFFFF800000000FFFFFF80FFFFFFFFFFFFFC0
310
7FFFFFF0001FFFFFF8000FFFFFFFF8000FF8000FFFFFFFF8000FFF0003FFFFFF
310
FFFC000000007FFFF000F800000007FFFFFFC0007F8003000FF8001FFF80007F
310
F000000007FFFFFF000000007FFFFFF80FFFFFFFFFFFFFC07FFFFFF0001FFFFF
310
F8000FFFFFFFF8000FF8000FFFFFFFF8000FFF0003FFFFFFFFF80000000FFFFF
310
F000F0000000FFFFFFFFC000FF8003000FF8001FFF80007FE0000000FFFFFFFF
310
0000000FFFFFFFF8000001FFFE0000007FFFFFF0001FFFFFF8000FFFFFFFF800
310
0FF8000FFFFFFFF8000FFF0003FFFFFFFFF8000000FFFFFFF000F000000FFFFF
310
FFFFC000FFC002000FF8000FFF80007FE000001FFFFFFFFE000001FFFFFFFFF8
310
000001FFFE0000007FFFFFF0001FFFFFF8000FFFFFFFF8000FF8000FFFFFFFF8
310
000FFF0003FFFFFFFFF000001FFFFFFFF000E00000FFFFFFFFFFC000FFC00200
310
0FFC000FFF80007FE00001FFFFFFFFFE00001FFFFFFFFFF8000001FFFE000000
310
7FFFFFF0001FFFFFFC000FFFFFFFF8001FFC000FFFFFFFF8001FFF0003FFFFFF
310
FFF00001FFFFFFFFF000E00007FFFFFFFFFF8000FFC000001FFC000FFF80007F
310
C0000FFFFFFFFFFE0000FFFFFFFFFFF8000001FFFE0000007FFFFFF0001FFFFF
310
FC0007FFFFFFF0001FFC0007FFFFFFF0001FFF0003FFFFFFFFF00007FFFFFFFF
310
F000E0001FFFFFFFFFFF8000FFC000001FFC000FFF80007FC0003FFFFFFFFFFE
310
0001FFFFFFFFFFF8000001FFFE0000007FFFFFF0001FFFFFFC0007FFFFFFF000
310
1FFC0007FFFFFFF0001FFF0003FFFFFFFFF0001FFFFFFFFFF000E0003FFFFF00
310
03FF8001FFE000001FFC0007FF80007FC0007FFFFF0007FC0003FFFFF0003FF8
310
000001FFFE0000007FFFFFF0001FFFFFFC0003FFFFFFE0001FFC0003FFFFFFE0
310
001FFF0003FFFFFFFFF0003FFFFFFFFFF000E0003FFFFF0001FF8001FFE00000
310
1FFE0007FF80007FC0007FFFFE0003FC0007FFFFE0003FF8000001FFFE000000
310
7FFFFFF0001FFFFFFE0003FFFFFFE0003FFE0003FFFFFFE0003FFF0003FFFFFF
310
FFF0003FFFFF8001F000E0003FFFFF0001FF0001FFE000001FFE0007FF80007F
310
C0007FFFFE0003FC0007FFFFE0003FF8000001FFFE0000007FFFFFF0001FFFFF
310
FE0001FFFFFFC0003FFE0001FFFFFFC0003FFF0003FFFFFFFFF0003FFFFF0001
310
F000E0003FFFFF0003FF0001FFE000003FFE0007FF80007FC0007FFFFE0003FC
310
0007FFFFE0003FF8000001FFFE0000007FFFFFF0001FFFFFFF0001FFFFFFC000
310
7FFF0001FFFFFFC0007FFF0003FFFFFFFFF0003FFFFF0001F000E0003FFFFE00
310
03FF0003FFF000003FFE0003FF80007FC0007FFFFC0003FE0007FFFFE0003FF8
310
000001FFFE0000007FFFFFF0001FFFFFFF0000FFFFFF80007FFF0000FFFFFF80
310
007FFF0003FFFFFFFFF0003FFFFF0001F000E0003FFFFE0003FF0003FFF00000
310
3FFF0003FF80007FC0007FFFFC0007FE0007FFFFC0003FF8000001FFFE000000
310
7FFFFFF0001FFFFFFF80007FFFFF0000FFFF80007FFFFF0000FFFF0003FFFFFF
310
FFF0003FFFFF0003F000E0003FFFFC0003FE0003FFF000003FFF0003FF80007F
310
E0003FFFF80007FE0003FFFFC0007FF8000001FFFE0000007FFFFFF0001FFFFF
310
FF80003FFFFE0000FFFF80003FFFFE0000FFFF0003FFFFFFFFF0001FFFFE0003
310
F000F0001FFFF80003FE0003FFF000007FFF0001FF80007FE0003FFFF00007FE
310
0001FFFF80007FF8000001FFFE0000007FFFFFF0001FFFFFFFC0000FFFF80001
310
FFFFC0000FFFF80001FFFF0003FFFFFFFFF0001FFFFC0003F000F0000FFFF000
310
07FE0007FFF800007FFF0001FF80007FE0001FFFE00007FF0000FFFE00007FF8
310
000001FFFE0000007FFFFFF0001FFFFFFFC00003FFE00001FFFFC00003FFE000
310
01FFFF0003FFFFFFFFF8000FFFF80003F000F00003FFC00007FC0007FFF80000
310
7FFF8001FF80007FF00007FF80000FFF00007FF80000FFF8000001FFFE000000
310
7F80000000000001FFE000003E000003FFFFE000003E000003FFFF0003FFFFFF
310
FFF80003FFE00007F000F800000000000FFC0007FFF800007FFF8001FF80007F
310
F000000000000FFF000000000000FFF8000001FFFE0000007F80000000000001
310
FFF0000000000007FFFFF0000000000007FFFF0003FFFFFFFFFC00007E000007
310
F000F800000000000FFC0007FFF80000FFFF8000FF80007FF800000000001FFF
310
800000000001FFF8000001FFFE0000007F80000000000001FFF800000000000F
310
FFFFF800000000000FFFFF0003FFFFFFFFFC00000000000FF000FC0000000000
310
1FFC0007FFFC0000FFFF8000FF80007FF800000000003FFFC00000000001FFF8
310
000001FFFE0000007F80000000000001FFF800000000000FFFFFF80000000000
310
0FFFFF0003FFFFFFFFFE00000000001FF000FE00000000003FF8000FFFFC0000
310
FFFF8000FF80007FFC00000000003FFFC00000000003FFF8000001FFFE000000
310
7F80000000000001FFFC00000000001FFFFFFC00000000001FFFFF0003FFFFFF
310
FFFF00000000001FF000FF00000000003FF8000FFFFC0000FFFFC000FF80007F
310
FE00000000007FFFE00000000007FFF8000001FFFE0000007F80000000000001
310
FFFE00000000003FFFFFFE00000000003FFFFF0003FFFFFFFFFF80000000003F
310
F000FF80000000007FF8000FFFFC0001FFFFC0007F80007FFF0000000000FFFF
310
F0000000000FFFF800000000000000007F80000000000001FFFF8000000000FF
310
FFFFFF8000000000FFFFFF0003FFFFFFFFFFC0000000007FF000FFC000000000
310
FFF8000FFFFE0001FFFFC0007F80007FFF8000000001FFFFF8000000001FFFF8
310
00000000000000007F80000000000001FFFFC000000001FFFFFFFFC000000001
310
FFFFFF0003FFFFFFFFFFE000000000FFF000FFE000000003FFF0001FFFFE0001
310
FFFFC0007F80007FFFC000000007FFFFFE000000003FFFF80000000000000000
310
7F80000000000001FFFFE000000003FFFFFFFFE000000003FFFFFF0003FFFFFF
310
FFFFF000000003FFF000FFF80000000FFFF0001FFFFE0001FFFFE0007F80007F
310
FFF00000000FFFFFFF00000000FFFFF800000000000000007F80000000000001
310
FFFFF80000000FFFFFFFFFF80000000FFFFFFF0003FFFFFFFFFFFC0000000FFF
310
F000FFFE0000003FFFF0001FFFFE0003FFFFE0003F80007FFFFC0000003FFFFF
310
FFC0000003FFFFF800000000000000007F80000000000001FFFFFE0000003FFF
310
FFFFFFFE0000003FFFFFFF0003FFFFFFFFFFFF0000003FFFF000FFFF800000FF
310
FFF0001FFFFF0003FFFFE0003F80007FFFFF000001FFFFFFFFF800001FFFFFF8
310
00000000000000007F80000000000001FFFFFFC00001FFFFFFFFFFFFC00001FF
310
FFFFFF0003FFFFFFFFFFFFC00000FFFFF000FFFFF8000FFFFFFFFFFFFFFFFFFF
310
FFFFFFFFFFFFFFFFFFFFF0001FFFFFFFFFFF0000FFFFFFF80000000000000000
310
7FFFFFFFFFFFFFFFFFFFFFFC001FFFFFFFFFFFFFFC001FFFFFFFFFFFFFFFFFFF
310
FFFFFFFC001FFFFFF000FFFFFFFFFFFFFFFFFFFFFFFFFFFFFFFFFFFFFFFFFFFF
310
FFFFFFFFFFFFFFFFFFFFFFFFFFFFFFFFFFFFFFFFFFFFFFFFFFFFFFFFFFFFFFFF
310
FFFFFFFFFFFFFFFFFFFFFFFFFFFFFFFFFFFFFFFFFFFFFFFFFFFFFFFFFFFFFFFF
310
F000FFFFFFFFFFFFFFFFFFFFFFFFFFFFFFFFFFFFFFFFFFFFFFFFFFFFFFFFFFFF
310
FFFFFFFFFFFFFFFFFFFFFFFFFFFFFFFFFFFFFFFFFFFFFFFFFFFFFFFFFFFFFFFF
310
FFFFFFFFFFFFFFFFFFFFFFFFFFFFFFFFFFFFFFFFFFFFFFFFF000FFFFFFFFFFFF
310
FFFFFFFFFFFFFFFFFFFFFFFFFFFFFFFFFFFFFFFFFFFFFFFFFFFFFFFFFFFFFFFF
310
FFFFFFFFFFFFFFFFFFFFFFFFFFFFFFFFFFFFFFFFFFFFFFFFFFFFFFFFFFFFFFFF
310
FFFFFFFFFFFFFFFFFFFFFFFFFFFFFFFFF000FFFFFFFFFFFFFFFFFFFFFFFFFFFF
310
FFFFFFFFFFFFFFFFFFFFFFFFFFFFFFFFFFFFFFFFFFFFFFFFFFFFFFFFFFFFFFFF
310
FFFFFFFFFFFFFFFFFFFFFFFFFFFFFFFFFFFFFFFFFFFFFFFFFFFFFFFFFFFFFFFF
310
FFFFFFFFFFFFFFFFF000FFFFFFFFFFFFFFFFFFFFFFFFFFFFFFFFFFFFFFFFFFFF
310
FFFFFFFFFFFFFFFFFFFFFFFFFFFFFFFFFFFFFFFFFFFFFFFFFFFFFFFFFFFFFFFF
310
FFFFFFFFFFFFFFFFFFFFFFFFFFFFFFFFFFFFFFFFFFFFFFFFFFFFFFFFFFFFFFFF
310
F000FFFFFFFFFFFFFFFFFFFFFFFFFFFFFFFFFFFFFFFFFFFFFFFFFFFFFFFFFFFF
310
FFFFFFFFFFFFFFFFFFFFFFFFFFFFFFFFFFFFFFFFFFFFFFFFFFFFFFFFFFFFFFFF
310
FFFFFFFFFFFFFFFFFFFFFFFFFFFFFFFFFFFFFFFFFFFFFFFFF000FFFFFFFFFFFF
310
FFFFFFFFFFFFFFFFFFFFFFFFFFFFFFFFFFFFFFFFFFFFFFFFFFFFFFFFFFFFFFFF
310
FFFFFFFFFFFFFFFFFFFFFFFFFFFFFFFFFFFFFFFFFFFFFFFFFFFFFFFFFFFFFFFF
310
FFFFFFFFFFFFFFFFFFFFFFFFFFFFFFFFF000FFFFFFFFFFFFFFFFFFFFFFFFFFFF
310
FFFFFFFFFFFFFFFFFFFFFFFFFFFFFFFFFFFFFFFFFFFFFFFFFFFFFFFFFFFFFFFF
310
FFFFFFFFFFFFFFFFFFFFFFFFFFFFFFFFFFFFFFFFFFFFFFFFFFFFFFFFFFFFFFFF
310
FFFFFFFFFFFFFFFFF000FFFFFFFFFFFFFFFFFFFFFFFFFFFFFFFFFFFFFFFFFFFF
310
FFFFFFFFFFFFFFFFFFFFFFFFFFFFFFFFFFFFFFFFFFFFFFFFFFFFFFFFFFFFFFFF
310
FFFFFFFFFFFFFFFFFFFFFFFFFFFFFFFFFFFFFFFFFFFFFFFFFFFFFFFFFFFFFFFF
310
F000FFFFFFFFFFFFFFFFFFFFFFFFFFFFFFFFFFFFFFFFFFFFFFFFFFFFFFFFFFFF
310
FFFFFFFFFFFFFFFFFFFFFFFFFFFFFFFFFFFFFFFFFFFFFFFFFFFFFFFFFFFFFFFF
310
FFFFFFFFFFFFFFFFFFFFFFFFFFFFFFFFFFFFFFFFFFFFFFFFF000FFFFFFFFFFFF
310
FFFFFFFFFFFFFFFFFFFFFFFFFFFFFFFFFFFFFFFFFFFFFFFFFFFFFFFFFFFFFFFF
310
FFFFFFFFFFFFFFFFFFFFFFFFFFFFFFFFFFFFFFFFFFFFFFFFFFFFFFFFFFFFFFFF
310
FFFFFFFFFFFFFFFFFFFFFFFFFFFFFFFFF000FFFFFFFFFFFFFFFFFFFFFFFFFFFF
310
FFFFFFFFFFFFFFFFFFFFFFFFFFFFFFFFFFFFFFFFFFFFFFFFFFFFFFFFFFFFFFFF
310
FFFFFFFFFFFFFFFFFFFFFFFFFFFFFFFFFFFFFFFFFFFFFFFFFFFFFFFFFFFFFFFF
310
FFFFFFFFFFFFFFFFF000FFFFFFFFFFFFFFFFFFFFFFFFFFFFFFFFFFFFFFFFFFFF
310
FFFFFFFFFFFFFFFFFFFFFFFFFFFFFFFFFFFFFFFFFFFFFFFFFFFFFFFFFFFFFFFF
310
FFFFFFFFFFFFFFFFFFFFFFFFFFFFFFFFFFFFFFFFFFFFFFFFFFFFFFFFFFFFFFFF
310
F000FFFFFFFFFFFFFFFFFFFFFFFFFFFFFFFFFFFFFFFFFFFFFFFFFFFFFFFFFFFF
310
FFFFFFFFFFFFFFFFFFFFFFFFFFFFFFFFFFFFFFFFFFFFFFFFFFFFFFFFFFFFFFFF
310
FFFFFFFFFFFFFFFFFFFFFFFFFFFFFFFFFFFFFFFFFFFFFFFFF000FFFFFFFFFFFF
310
FFFFFFFFFFFFFFFFFFFFFFFFFFFFFFFFFFFFFFFFFFFFFFFFFFFFFFFFFFFFFFFF
310
FFFFFFFFFFFFFFFFFFFFFFFFFFFFFFFFFFFFFFFFFFFFFFFFFFFFFFFFFFFFFFFF
310
FFFFFFFFFFFFFFFFFFFFFFFFFFFFFFFFF000FFFFFFFFFFFFFFFFFFFFFFFFFFFF
310
FFFFFFFFFFFFFFFFFFFFFFFFFFFFFFFFFFFFFFFFFFFFFFFFFFFFFFFFFFFFFFFF
310
FFFFFFFFFFFFFFFFFFFFFFFFFFFFFFFFFFFFFFFFFFFFFFFFFFFFFFFFFFFFFFFF
310
FFFFFFFFFFFFFFFFF000FFFFFFFFFFFFFFFFFFFFFFFFFFFFFFFFFFFFFFFFFFFF
310
FFFFFFFFFFFFFFFFFFFFFFFFFFFFFFFFFFFFFFFFFFFFFFFFFFFFFFFFFFFFFFFF
310
FFFFFFFFFFFFFFFFFFFFFFFFFFFFFFFFFFFFFFFFFFFFFFFFFFFFFFFFFFFFFFFF
310
F000FFFFFFFFFFFFFFFFFFFFFFFFFFFFFFFFFFFFFFFFFFFFFFFFFFFFFFFFFFFF
310
FFFFFFFFFFFFFFFFFFFFFFFFFFFFFFFFFFFFFFFFFFFFFFFFFFFFFFFFFFFFFFFF
310
FFFFFFFFFFFFFFFFFFFFFFFFFFFFFFFFFFFFFFFFFFFFFFFFF000FFFFFFFFFFFF
310
FFFFFFFFFFFFFFFFFFFFFFFFFFFFFFFFFFFFFFFFFFFFFFFFFFFFFFFFFFFFFFFF
310
FFFFFFFFFFFFFFFFFFFFFFFFFFFFFFFFFFFFFFFFFFFFFFFFFFFFFFFFFFFFFFFF
310
FFFFFFFFFFFFFFFFFFFFFFFFFFFFFFFFF000FFFFFFFFFFFFFFFFFFFFFFFFFFFF
310
FFFFFFFFFFFFFFFFFFFFFFFFFFFFFFFFFFFFFFFFFFFFFFFFFFFFFFFFFFFFFFFF
310
FFFFFFFFFFFFFFFFFFFFFFFFFFFFFFFFFFFFFFFFFFFFFFFFFFFFFFFFFFFFFFFF
310
FFFFFFFFFFFFFFFFF000FFFFFFFFFFFFFFFFFFFFFFFFFFFFFFFFFFFFFFFFFFFF
310
FFFFFFFFFFFFFFFFFFFFFFFFFFFFFFFFFFFFFFFFFFFFFFFFFFFFFFFFFFFFFFFF
310
FFFFFFFFFFFFFFFFFFFFFFFFFFFFFFFFFFFFFFFFFFFFFFFFFFFFFFFFFFFFFFFF
310
F000FFFFFFFFFFFFFFFFFFFFFFFFFFFFFFFFFFFFFFFFFFFFFFFFFFFFFFFFFFFF
310
FFFFFFFFFFFFFFFFFFFFFFFFFFFFFFFFFFFFFFFFFFFFFFFFFFFFFFFFFFFFFFFF
310
FFFFFFFFFFFFFFFFFFFFFFFFFFFFFFFFFFFFFFFFFFFFFFFFF000FFFFFFFFFFFF
310
FFFFFFFFFFFFFFFFFFFFFFFFFFFFFFFFFFFFFFFFFFFFFFFFFFFFFFFFFFFFFFFF
310
FFFFFFFFFFFFFFFFFFFFFFFFFFFFFFFFFFFFFFFFFFFFFFFFFFFFFFFFFFFFFFFF
310
FFFFFFFFFFFFFFFFFFFFFFFFFFFFFFFFF0000000000000000000000000000000
310
0000000000000000000000000000000000000000000000000000000000000000
310
0000000000000000000000000000000000000000000000000000000000000000
310
0000000000000000000000000000000000000000000000000000000000000000
310
0000000000000000000000000000000000000000000000000000000000000000
310
0000000000000000000000000000000000000000000000000000000000000000
310
0000000000000000000000000000000000000000000000000000000000000000
310
0000000000000000000000000000000000000000000000000000000000000000
310
0000000000000000000000000000000000000000000000000000000000000000
310
0000000000000000000000000000000000000000000000000000000000000000
310
0000000000000000000000000000000000000000000000000000000000000000
310
0000000000000000000000000000000000000000000000000000000000000000
310
0000000000000000000000000000000000000000000000000000000000000000
310
0000000000000000000000000000000000000000000000000000000000000000
310
0000000000000000000000000000000000000000000000000000000000000000
310
0000000000000000000000000000000000000000000000000000000000000000
  1
OLE
  0
ENDSEC
  0
SECTION
  2
OBJECTS
  0
DICTIONARY
  5
C
330
0
100
AcDbDictionary
281
     1
  3
ACAD_GROUP
350
D
  3
ACAD_LAYOUT
350
1A
  3
ACAD_MLINESTYLE
350
17
  3
ACAD_PLOTSETTINGS
350
19
  3
ACAD_PLOTSTYLENAME
350
E
  0
DICTIONARY
  5
D
102
{ACAD_REACTORS
330
C
102
}
330
C
100
AcDbDictionary
281
     1
  0
DICTIONARY
  5
1A
102
{ACAD_REACTORS
330
C
102
}
330
C
100
AcDbDictionary
281
     1
  3
Layout1
350
1E
  3
Layout2
350
26
  3
Model
350
22
  0
DICTIONARY
  5
17
102
{ACAD_REACTORS
330
C
102
}
330
C
100
AcDbDictionary
281
     1
  3
Standard
350
18
  0
DICTIONARY
  5
19
102
{ACAD_REACTORS
330
C
102
}
330
C
100
AcDbDictionary
281
     1
  0
ACDBDICTIONARYWDFLT
  5
E
102
{ACAD_REACTORS
330
C
102
}
330
C
100
AcDbDictionary
281
     1
  3
Normal
350
F
100
AcDbDictionaryWithDefault
340
F
  0
LAYOUT
  5
1E
102
{ACAD_REACTORS
330
1A
102
}
330
1A
100
AcDbPlotSettings
  1

  2
none_device
  4

  6

 40
0.0
 41
0.0
 42
0.0
 43
0.0
 44
0.0
 45
0.0
 46
0.0
 47
0.0
 48
0.0
 49
0.0
140
0.0
141
0.0
142
1.0
143
1.0
 70
   688
 72
     0
 73
     0
 74
     5
  7

 75
    16
147
1.0
148
0.0
149
0.0
100
AcDbLayout
  1
Layout1
 70
     1
 71
     1
 10
0.0
 20
0.0
 11
420.0
 21
297.0
 12
0.0
 22
0.0
 32
0.0
 14
1.0000000000E+20
 24
1.0000000000E+20
 34
1.0000000000E+20
 15
-1.0000000000E+20
 25
-1.0000000000E+20
 35
-1.0000000000E+20
146
0.0
 13
0.0
 23
0.0
 33
0.0
 16
1.0
 26
0.0
 36
0.0
 17
0.0
 27
1.0
 37
0.0
 76
     0
330
1B
  0
LAYOUT
  5
26
102
{ACAD_REACTORS
330
1A
102
}
330
1A
100
AcDbPlotSettings
  1

  2
none_device
  4

  6

 40
0.0
 41
0.0
 42
0.0
 43
0.0
 44
0.0
 45
0.0
 46
0.0
 47
0.0
 48
0.0
 49
0.0
140
0.0
141
0.0
142
1.0
143
1.0
 70
   688
 72
     0
 73
     0
 74
     5
  7

 75
    16
147
1.0
148
0.0
149
0.0
100
AcDbLayout
  1
Layout2
 70
     1
 71
     2
 10
0.0
 20
0.0
 11
0.0
 21
0.0
 12
0.0
 22
0.0
 32
0.0
 14
0.0
 24
0.0
 34
0.0
 15
0.0
 25
0.0
 35
0.0
146
0.0
 13
0.0
 23
0.0
 33
0.0
 16
1.0
 26
0.0
 36
0.0
 17
0.0
 27
1.0
 37
0.0
 76
     0
330
23
  0
LAYOUT
  5
22
102
{ACAD_REACTORS
330
1A
102
}
330
1A
100
AcDbPlotSettings
  1

  2
none_device
  4

  6

 40
0.0
 41
0.0
 42
0.0
 43
0.0
 44
0.0
 45
0.0
 46
0.0
 47
0.0
 48
0.0
 49
0.0
140
0.0
141
0.0
142
1.0
143
1.0
 70
  1712
 72
     0
 73
     0
 74
     0
  7

 75
     0
147
1.0
148
0.0
149
0.0
100
AcDbLayout
  1
Model
 70
     1
 71
     0
 10
0.0
 20
0.0
 11
297.0
 21
210.0
 12
0.0
 22
0.0
 32
0.0
 14
0.0
 24
0.0
 34
0.0
 15
297.0
 25
210.0
 35
0.0
146
0.0
 13
0.0
 23
0.0
 33
0.0
 16
1.0
 26
0.0
 36
0.0
 17
0.0
 27
1.0
 37
0.0
 76
     0
330
1F
331
29
  0
MLINESTYLE
  5
18
102
{ACAD_REACTORS
330
17
102
}
330
17
100
AcDbMlineStyle
  2
Standard
 70
     0
  3

 62
   256
 51
90.0
 52
90.0
 71
     2
 49
0.5
 62
   256
  6
BYLAYER
 49
-0.5
 62
   256
  6
BYLAYER
  0
ACDBPLACEHOLDER
  5
F
102
{ACAD_REACTORS
330
E
102
}
330
E
  0
ENDSEC
  0
EOF
