  0
SECTION
  2
HEADER
  9
$ACADVER
  1
AC1015
  9
$ACADMAINTVER
 70
     6
  9
$DWGCODEPAGE
  3
ANSI_1252
  9
$INSBASE
 10
0.0
 20
0.0
 30
0.0
  9
$EXTMIN
 10
0.0
 20
0.0
 30
0.0
  9
$EXTMAX
 10
297.0
 20
210.0
 30
0.0
  9
$LIMMIN
 10
0.0
 20
0.0
  9
$LIMMAX
 10
297.0
 20
210.0
  9
$ORTHOMODE
 70
     0
  9
$REGENMODE
 70
     1
  9
$FILLMODE
 70
     1
  9
$QTEXTMODE
 70
     0
  9
$MIRRTEXT
 70
     1
  9
$LTSCALE
 40
1.0
  9
$ATTMODE
 70
     1
  9
$TEXTSIZE
 40
2.0
  9
$TRACEWID
 40
1.0
  9
$TEXTSTYLE
  7
Standard
  9
$CLAYER
  8
0
  9
$CELTYPE
  6
ByLayer
  9
$CECOLOR
 62
   256
  9
$CELTSCALE
 40
1.0
  9
$DISPSILH
 70
     0
  9
$DIMSCALE
 40
1.0
  9
$DIMASZ
 40
3.0
  9
$DIMEXO
 40
0.0
  9
$DIMDLI
 40
3.75
  9
$DIMRND
 40
0.0
  9
$DIMDLE
 40
0.0
  9
$DIMEXE
 40
1.0
  9
$DIMTP
 40
0.0
  9
$DIMTM
 40
0.0
  9
$DIMTXT
 40
2.0
  9
$DIMCEN
 40
2.5
  9
$DIMTSZ
 40
0.0
  9
$DIMTOL
 70
     0
  9
$DIMLIM
 70
     0
  9
$DIMTIH
 70
     1
  9
$DIMTOH
 70
     1
  9
$DIMSE1
 70
     0
  9
$DIMSE2
 70
     0
  9
$DIMTAD
 70
     1
  9
$DIMZIN
 70
     0
  9
$DIMBLK
  1

  9
$DIMASO
 70
     1
  9
$DIMSHO
 70
     1
  9
$DIMPOST
  1

  9
$DIMAPOST
  1

  9
$DIMALT
 70
     0
  9
$DIMALTD
 70
     3
  9
$DIMALTF
 40
0.0393700787
  9
$DIMLFAC
 40
1.0
  9
$DIMTOFL
 70
     1
  9
$DIMTVP
 40
0.0
  9
$DIMTIX
 70
     0
  9
$DIMSOXD
 70
     0
  9
$DIMSAH
 70
     0
  9
$DIMBLK1
  1

  9
$DIMBLK2
  1

  9
$DIMSTYLE
  2
ISO-25
  9
$DIMCLRD
 70
     0
  9
$DIMCLRE
 70
     0
  9
$DIMCLRT
 70
     0
  9
$DIMTFAC
 40
1.0
  9
$DIMGAP
 40
1.524
  9
$DIMJUST
 70
     0
  9
$DIMSD1
 70
     0
  9
$DIMSD2
 70
     0
  9
$DIMTOLJ
 70
     0
  9
$DIMTZIN
 70
     0
  9
$DIMALTZ
 70
     0
  9
$DIMALTTZ
 70
     0
  9
$DIMUPT
 70
     0
  9
$DIMDEC
 70
     2
  9
$DIMTDEC
 70
     3
  9
$DIMALTU
 70
     2
  9
$DIMALTTD
 70
     3
  9
$DIMTXSTY
  7
Standard
  9
$DIMAUNIT
 70
     0
  9
$DIMADEC
 70
     2
  9
$DIMALTRND
 40
0.0
  9
$DIMAZIN
 70
     0
  9
$DIMDSEP
 70
    44
  9
$DIMATFIT
 70
     3
  9
$DIMFRAC
 70
     0
  9
$DIMLDRBLK
  1

  9
$DIMLUNIT
 70
     2
  9
$DIMLWD
 70
    -2
  9
$DIMLWE
 70
    -2
  9
$DIMTMOVE
 70
     0
  9
$LUNITS
 70
     2
  9
$LUPREC
 70
     2
  9
$SKETCHINC
 40
1.0
  9
$FILLETRAD
 40
10.0
  9
$AUNITS
 70
     0
  9
$AUPREC
 70
     2
  9
$MENU
  1
.
  9
$ELEVATION
 40
0.0
  9
$PELEVATION
 40
0.0
  9
$THICKNESS
 40
0.0
  9
$LIMCHECK
 70
     0
  9
$CHAMFERA
 40
10.0
  9
$CHAMFERB
 40
10.0
  9
$CHAMFERC
 40
20.0
  9
$CHAMFERD
 40
0.0
  9
$SKPOLY
 70
     0
  9
$TDCREATE
 40
2456045.482163935
  9
$TDUCREATE
 40
2456045.398830602
  9
$TDUPDATE
 40
2456045.482165197
  9
$TDUUPDATE
 40
2456045.398831863
  9
$TDINDWG
 40
0.0000000116
  9
$TDUSRTIMER
 40
0.0000000116
  9
$USRTIMER
 70
     1
  9
$ANGBASE
 50
0.0
  9
$ANGDIR
 70
     0
  9
$PDMODE
 70
     0
  9
$PDSIZE
 40
-1.0
  9
$PLINEWID
 40
0.0
  9
$SPLFRAME
 70
     0
  9
$SPLINETYPE
 70
     6
  9
$SPLINESEGS
 70
     8
  9
$HANDSEED
  5
20A
  9
$SURFTAB1
 70
     6
  9
$SURFTAB2
 70
     6
  9
$SURFTYPE
 70
     6
  9
$SURFU
 70
     6
  9
$SURFV
 70
     6
  9
$UCSBASE
  2

  9
$UCSNAME
  2

  9
$UCSORG
 10
0.0
 20
0.0
 30
0.0
  9
$UCSXDIR
 10
1.0
 20
0.0
 30
0.0
  9
$UCSYDIR
 10
0.0
 20
1.0
 30
0.0
  9
$UCSORTHOREF
  2

  9
$UCSORTHOVIEW
 70
     0
  9
$UCSORGTOP
 10
0.0
 20
0.0
 30
0.0
  9
$UCSORGBOTTOM
 10
0.0
 20
0.0
 30
0.0
  9
$UCSORGLEFT
 10
0.0
 20
0.0
 30
0.0
  9
$UCSORGRIGHT
 10
0.0
 20
0.0
 30
0.0
  9
$UCSORGFRONT
 10
0.0
 20
0.0
 30
0.0
  9
$UCSORGBACK
 10
0.0
 20
0.0
 30
0.0
  9
$PUCSBASE
  2

  9
$PUCSNAME
  2

  9
$PUCSORG
 10
0.0
 20
0.0
 30
0.0
  9
$PUCSXDIR
 10
1.0
 20
0.0
 30
0.0
  9
$PUCSYDIR
 10
0.0
 20
1.0
 30
0.0
  9
$PUCSORTHOREF
  2

  9
$PUCSORTHOVIEW
 70
     0
  9
$PUCSORGTOP
 10
0.0
 20
0.0
 30
0.0
  9
$PUCSORGBOTTOM
 10
0.0
 20
0.0
 30
0.0
  9
$PUCSORGLEFT
 10
0.0
 20
0.0
 30
0.0
  9
$PUCSORGRIGHT
 10
0.0
 20
0.0
 30
0.0
  9
$PUCSORGFRONT
 10
0.0
 20
0.0
 30
0.0
  9
$PUCSORGBACK
 10
0.0
 20
0.0
 30
0.0
  9
$USERI1
 70
     0
  9
$USERI2
 70
     0
  9
$USERI3
 70
     0
  9
$USERI4
 70
     0
  9
$USERI5
 70
     0
  9
$USERR1
 40
0.0
  9
$USERR2
 40
0.0
  9
$USERR3
 40
0.0
  9
$USERR4
 40
0.0
  9
$USERR5
 40
0.0
  9
$WORLDVIEW
 70
     1
  9
$SHADEDGE
 70
     3
  9
$SHADEDIF
 70
    70
  9
$TILEMODE
 70
     1
  9
$MAXACTVP
 70
    64
  9
$PINSBASE
 10
0.0
 20
0.0
 30
0.0
  9
$PLIMCHECK
 70
     0
  9
$PEXTMIN
 10
1.0000000000E+20
 20
1.0000000000E+20
 30
1.0000000000E+20
  9
$PEXTMAX
 10
-1.0000000000E+20
 20
-1.0000000000E+20
 30
-1.0000000000E+20
  9
$PLIMMIN
 10
0.0
 20
0.0
  9
$PLIMMAX
 10
420.0
 20
297.0
  9
$UNITMODE
 70
     0
  9
$VISRETAIN
 70
     1
  9
$PLINEGEN
 70
     0
  9
$PSLTSCALE
 70
     1
  9
$TREEDEPTH
 70
  3020
  9
$CMLSTYLE
  2
Standard
  9
$CMLJUST
 70
     0
  9
$CMLSCALE
 40
20.0
  9
$PROXYGRAPHICS
 70
     1
  9
$MEASUREMENT
 70
     1
  9
$CELWEIGHT
370
    -1
  9
$ENDCAPS
280
     0
  9
$JOINSTYLE
280
     0
  9
$LWDISPLAY
290
     1
  9
$INSUNITS
 70
     4
  9
$HYPERLINKBASE
  1

  9
$STYLESHEET
  1

  9
$XEDIT
290
     1
  9
$CEPSNTYPE
380
     0
  9
$PSTYLEMODE
290
     1
  9
$FINGERPRINTGUID
  2
{6701E8F0-ADA8-4853-A94C-51AB1E403E6F}
  9
$VERSIONGUID
  2
{FAEB1C32-E019-11D5-929B-00C0DF256EC4}
  9
$EXTNAMES
290
     1
  9
$PSVPSCALE
 40
0.0
  9
$OLESTARTUP
290
     0
  0
ENDSEC
  0
SECTION
  2
CLASSES
  0
CLASS
  1
ACDBDICTIONARYWDFLT
  2
AcDbDictionaryWithDefault
  3
ObjectDBX Classes
 90
        0
280
     0
281
     0
  0
CLASS
  1
VISUALSTYLE
  2
AcDbVisualStyle
  3
ObjectDBX Classes
 90
     4095
280
     0
281
     0
  0
CLASS
  1
MATERIAL
  2
AcDbMaterial
  3
ObjectDBX Classes
 90
     1153
280
     0
281
     0
  0
CLASS
  1
ACDBPLACEHOLDER
  2
AcDbPlaceHolder
  3
ObjectDBX Classes
 90
        0
280
     0
281
     0
  0
CLASS
  1
LAYOUT
  2
AcDbLayout
  3
ObjectDBX Classes
 90
        0
280
     0
281
     0
  0
ENDSEC
  0
SECTION
  2
TABLES
  0
TABLE
  2
VPORT
  5
8
330
0
100
AcDbSymbolTable
 70
     1
  0
VPORT
  5
29
330
8
100
AcDbSymbolTableRecord
100
AcDbViewportTableRecord
  2
*Active
 70
     0
 10
0.0
 20
0.0
 11
1.0
 21
1.0
 12
148.5
 22
105.0
 13
0.0
 23
0.0
 14
10.0
 24
10.0
 15
10.0
 25
10.0
 16
0.0
 26
0.0
 36
1.0
 17
0.0
 27
0.0
 37
0.0
 40
210.0
 41
1.4142857143
 42
50.0
 43
0.0
 44
0.0
 50
0.0
 51
0.0
 71
     0
 72
  2000
 73
     1
 74
     3
 75
     0
 76
     0
 77
     0
 78
     0
281
     0
 65
     1
110
0.0
120
0.0
130
0.0
111
1.0
121
0.0
131
0.0
112
0.0
122
1.0
132
0.0
 79
     0
146
0.0
  0
ENDTAB
  0
TABLE
  2
LTYPE
  5
5
330
0
100
AcDbSymbolTable
 70
     6
  0
LTYPE
  5
14
330
5
100
AcDbSymbolTableRecord
100
AcDbLinetypeTableRecord
  2
ByBlock
 70
     0
  3

 72
    65
 73
     0
 40
0.0
  0
LTYPE
  5
15
330
5
100
AcDbSymbolTableRecord
100
AcDbLinetypeTableRecord
  2
ByLayer
 70
     0
  3

 72
    65
 73
     0
 40
0.0
  0
LTYPE
  5
16
330
5
100
AcDbSymbolTableRecord
100
AcDbLinetypeTableRecord
  2
Continuous
 70
     0
  3
Solid line
 72
    65
 73
     0
 40
0.0
  0
LTYPE
  5
3F
330
5
100
AcDbSymbolTableRecord
100
AcDbLinetypeTableRecord
  2
HIDDEN
 70
     0
  3
Hidden __ __ __ __ __ __ __ __ __ __ __ __ __ __
 72
    65
 73
     2
 40
1.905
 49
1.27
 74
     0
 49
-0.635
 74
     0
  0
LTYPE
  5
40
330
5
100
AcDbSymbolTableRecord
100
AcDbLinetypeTableRecord
  2
PHANTOM
 70
     0
  3
Phantom ______  __  __  ______  __  __  ______
 72
    65
 73
     6
 40
12.7
 49
6.35
 74
     0
 49
-1.27
 74
     0
 49
1.27
 74
     0
 49
-1.27
 74
     0
 49
1.27
 74
     0
 49
-1.27
 74
     0
  0
LTYPE
  5
41
330
5
100
AcDbSymbolTableRecord
100
AcDbLinetypeTableRecord
  2
CENTER
 70
     0
  3
Center ____ _ ____ _ ____ _ ____ _ ____ _ ____
 72
    65
 73
     4
 40
10.16
 49
6.35
 74
     0
 49
-1.27
 74
     0
 49
1.27
 74
     0
 49
-1.27
 74
     0
  0
LTYPE
  5
42
330
5
100
AcDbSymbolTableRecord
100
AcDbLinetypeTableRecord
  2
CENTERX2
 70
     0
  3
Center (2x) ________  __  ________  __  _____
 72
    65
 73
     4
 40
20.32
 49
12.7
 74
     0
 49
-2.54
 74
     0
 49
2.54
 74
     0
 49
-2.54
 74
     0
  0
LTYPE
  5
43
330
5
100
AcDbSymbolTableRecord
100
AcDbLinetypeTableRecord
  2
DOT2
 70
     0
  3
Dot (.5x) ........................................
 72
    65
 73
     2
 40
0.635
 49
0.0
 74
     0
 49
-0.635
 74
     0
  0
ENDTAB
  0
TABLE
  2
LAYER
  5
2
330
0
100
AcDbSymbolTable
 70
     5
  0
LAYER
  5
10
330
2
100
AcDbSymbolTableRecord
100
AcDbLayerTableRecord
  2
0
 70
     0
 62
     7
  6
Continuous
370
    -3
390
F
  0
LAYER
  5
44
330
2
100
AcDbSymbolTableRecord
100
AcDbLayerTableRecord
  2
FORMAT
 70
     0
 62
     7
  6
Continuous
370
    -3
390
F
  0
LAYER
  5
45
330
2
100
AcDbSymbolTableRecord
100
AcDbLayerTableRecord
  2
VERMASSUNG
 70
     0
 62
     7
  6
Continuous
370
    -3
390
F
  0
LAYER
  5
46
330
2
100
AcDbSymbolTableRecord
100
AcDbLayerTableRecord
  2
KOPF_DÜNN
 70
     0
 62
     7
  6
Continuous
370
    -3
390
F
  0
LAYER
  5
47
330
2
100
AcDbSymbolTableRecord
100
AcDbLayerTableRecord
  2
KOPF_DICK
 70
     0
 62
     7
  6
Continuous
370
    15
390
F
  0
ENDTAB
  0
TABLE
  2
STYLE
  5
3
330
0
100
AcDbSymbolTable
 70
     2
  0
STYLE
  5
11
330
3
100
AcDbSymbolTableRecord
100
AcDbTextStyleTableRecord
  2
Standard
 70
     0
 40
0.0
 41
1.0
 50
0.0
 71
     0
 42
2.0
  3
txt
  4

  0
STYLE
  5
48
330
3
100
AcDbSymbolTableRecord
100
AcDbTextStyleTableRecord
  2
SLDTEXTSTYLE0
 70
     0
 40
0.0
 41
0.7
 50
0.0
 71
     0
 42
0.2
  3
TXT
  4

  0
ENDTAB
  0
TABLE
  2
VIEW
  5
6
330
0
100
AcDbSymbolTable
 70
     0
  0
ENDTAB
  0
TABLE
  2
UCS
  5
7
330
0
100
AcDbSymbolTable
 70
     0
  0
ENDTAB
  0
TABLE
  2
APPID
  5
9
330
0
100
AcDbSymbolTable
 70
     1
  0
APPID
  5
12
330
9
100
AcDbSymbolTableRecord
100
AcDbRegAppTableRecord
  2
ACAD
 70
     0
  0
ENDTAB
  0
TABLE
  2
DIMSTYLE
  5
A
330
0
100
AcDbSymbolTable
 70
     5
100
AcDbDimStyleTable
  0
DIMSTYLE
105
27
330
A
100
AcDbSymbolTableRecord
100
AcDbDimStyleTableRecord
  2
ISO-25
 70
     0
 41
2.5
 42
0.625
 43
3.75
 44
1.25
 73
     0
 74
     0
 77
     1
 78
     8
140
2.5
141
2.5
143
0.0393700787
147
0.625
171
     3
172
     1
178
     0
271
     2
272
     2
274
     3
278
    44
283
     0
284
     8
340
11
  0
DIMSTYLE
105
190
102
{ACAD_REACTORS
330
18F
330
1BC
102
}
330
A
100
AcDbSymbolTableRecord
100
AcDbDimStyleTableRecord
  2
SLDDIMSTYLE0
 70
     0
 41
3.0
 44
0.0
 45
0.000000001
 73
     0
 74
     0
 77
     1
 78
    12
 79
     3
140
2.0
147
0.5
173
     1
178
     0
271
     2
272
     3
276
     2
284
    12
340
48
  0
DIMSTYLE
105
19B
102
{ACAD_REACTORS
330
19A
330
1A7
102
}
330
A
100
AcDbSymbolTableRecord
100
AcDbDimStyleTableRecord
  2
SLDDIMSTYLE1
 70
     0
 41
3.0
 44
0.0
 45
0.000000001
 47
0.1
 48
0.1
 71
     1
 73
     0
 74
     0
 77
     1
 78
    12
 79
     3
140
2.0
147
0.5
173
     1
178
     0
271
     2
272
     1
276
     2
284
     8
340
48
  0
DIMSTYLE
105
1B4
102
{ACAD_REACTORS
330
1B3
102
}
330
A
100
AcDbSymbolTableRecord
100
AcDbDimStyleTableRecord
  2
SLDDIMSTYLE2
 70
     0
 41
3.0
 44
0.0
 73
     0
 74
     0
 77
     1
 78
    12
 79
     3
140
2.0
147
0.5
173
     1
178
     0
179
     2
272
     3
276
     2
284
    12
340
48
  0
DIMSTYLE
105
1EF
102
{ACAD_REACTORS
330
1EE
102
}
330
A
100
AcDbSymbolTableRecord
100
AcDbDimStyleTableRecord
  2
SLDDIMSTYLE3
 70
     0
 41
3.0
 44
0.0
 45
0.000000001
 73
     0
 74
     0
 77
     1
 78
    12
 79
     3
140
2.0
147
0.5
172
     1
173
     1
178
     0
271
     2
272
     3
276
     2
284
    12
289
     0
340
48
  0
ENDTAB
  0
TABLE
  2
BLOCK_RECORD
  5
1
330
0
100
AcDbSymbolTable
 70
     8
  0
BLOCK_RECORD
  5
1F
330
1
100
AcDbSymbolTableRecord
100
AcDbBlockTableRecord
  2
*Model_Space
340
22
  0
BLOCK_RECORD
  5
1B
330
1
100
AcDbSymbolTableRecord
100
AcDbBlockTableRecord
  2
*Paper_Space
340
1E
  0
BLOCK_RECORD
  5
23
330
1
100
AcDbSymbolTableRecord
100
AcDbBlockTableRecord
  2
*Paper_Space0
340
26
  0
BLOCK_RECORD
  5
191
330
1
100
AcDbSymbolTableRecord
100
AcDbBlockTableRecord
  2
_D
340
0
  0
BLOCK_RECORD
  5
19C
330
1
100
AcDbSymbolTableRecord
100
AcDbBlockTableRecord
  2
_D_1
340
0
  0
BLOCK_RECORD
  5
1A8
330
1
100
AcDbSymbolTableRecord
100
AcDbBlockTableRecord
  2
_D_2
340
0
  0
BLOCK_RECORD
  5
1B5
330
1
100
AcDbSymbolTableRecord
100
AcDbBlockTableRecord
  2
_D_3
340
0
  0
BLOCK_RECORD
  5
1BD
330
1
100
AcDbSymbolTableRecord
100
AcDbBlockTableRecord
  2
_D_4
340
0
  0
BLOCK_RECORD
  5
1F0
330
1
100
AcDbSymbolTableRecord
100
AcDbBlockTableRecord
  2
_D_5
340
0
  0
BLOCK_RECORD
  5
1FD
330
1
100
AcDbSymbolTableRecord
100
AcDbBlockTableRecord
  2
SW_CENTERMARKSYMBOL_0
340
0
102
{BLKREFS
331
208
102
}
  0
ENDTAB
  0
ENDSEC
  0
SECTION
  2
BLOCKS
  0
BLOCK
  5
20
330
1F
100
AcDbEntity
  8
0
100
AcDbBlockBegin
  2
*Model_Space
 70
     0
 10
0.0
 20
0.0
 30
0.0
  3
*Model_Space
  1

  0
ENDBLK
  5
21
330
1F
100
AcDbEntity
  8
0
100
AcDbBlockEnd
  0
BLOCK
  5
1C
330
1B
100
AcDbEntity
 67
     1
  8
0
100
AcDbBlockBegin
  2
*Paper_Space
 70
     0
 10
0.0
 20
0.0
 30
0.0
  3
*Paper_Space
  1

  0
ENDBLK
  5
1D
330
1B
100
AcDbEntity
 67
     1
  8
0
100
AcDbBlockEnd
  0
BLOCK
  5
24
330
23
100
AcDbEntity
  8
0
100
AcDbBlockBegin
  2
*Paper_Space0
 70
     0
 10
0.0
 20
0.0
 30
0.0
  3
*Paper_Space0
  1

  0
ENDBLK
  5
25
330
23
100
AcDbEntity
  8
0
100
AcDbBlockEnd
  0
BLOCK
  5
192
330
191
100
AcDbEntity
  8
0
100
AcDbBlockBegin
  2
_D
 70
     0
 10
0.0
 20
0.0
 30
0.0
  3
_D
  1

  0
SOLID
  5
194
330
191
100
AcDbEntity
  8
VERMASSUNG
100
AcDbTrace
 10
225.5137286716
 20
154.0044811255
 30
0.0
 11
222.5137286716
 21
154.4544811255
 31
0.0
 12
222.5137286716
 22
153.5544811255
 32
0.0
 13
222.5137286716
 23
153.5544811255
 33
0.0
  0
SOLID
  5
195
330
191
100
AcDbEntity
  8
VERMASSUNG
100
AcDbTrace
 10
151.5137286716
 20
154.0044811255
 30
0.0
 11
154.5137286716
 21
153.5544811255
 31
0.0
 12
154.5137286716
 22
154.4544811255
 32
0.0
 13
154.5137286716
 23
154.4544811255
 33
0.0
  0
LINE
  5
196
330
191
100
AcDbEntity
  8
VERMASSUNG
100
AcDbLine
 10
225.5137286716
 20
143.4486822863
 30
0.0
 11
225.5137286716
 21
155.0044811255
 31
0.0
  0
LINE
  5
197
330
191
100
AcDbEntity
  8
VERMASSUNG
100
AcDbLine
 10
151.5137286716
 20
129.0801872684
 30
0.0
 11
151.5137286716
 21
155.0044811255
 31
0.0
  0
LINE
  5
198
330
191
100
AcDbEntity
  8
VERMASSUNG
100
AcDbLine
 10
225.5137286716
 20
154.0044811255
 30
0.0
 11
151.5137286716
 21
154.0044811255
 31
0.0
  0
MTEXT
  5
199
330
191
100
AcDbEntity
  8
VERMASSUNG
100
AcDbMText
 10
186.1137285576
 20
156.5826164886
 30
0.1
 40
2.0
 41
0.0
 71
     1
 72
     1
  1
74
  7
SLDTEXTSTYLE0
 73
     1
 44
1.0
  0
ENDBLK
  5
193
330
191
100
AcDbEntity
  8
0
100
AcDbBlockEnd
  0
BLOCK
  5
19D
330
19C
100
AcDbEntity
  8
0
100
AcDbBlockBegin
  2
_D_1
 70
     0
 10
0.0
 20
0.0
 30
0.0
  3
_D_1
  1

  0
SOLID
  5
19F
330
19C
100
AcDbEntity
  8
VERMASSUNG
100
AcDbTrace
 10
225.5137286716
 20
148.982726484
 30
0.0
 11
222.5137286716
 21
149.432726484
 31
0.0
 12
222.5137286716
 22
148.532726484
 32
0.0
 13
222.5137286716
 23
148.532726484
 33
0.0
  0
SOLID
  5
1A0
330
19C
100
AcDbEntity
  8
VERMASSUNG
100
AcDbTrace
 10
175.5137286716
 20
148.982726484
 30
0.0
 11
178.5137286716
 21
148.532726484
 31
0.0
 12
178.5137286716
 22
149.432726484
 32
0.0
 13
178.5137286716
 23
149.432726484
 33
0.0
  0
LINE
  5
1A1
330
19C
100
AcDbEntity
  8
VERMASSUNG
100
AcDbLine
 10
225.5137286716
 20
143.4486822863
 30
0.0
 11
225.5137286716
 21
149.982726484
 31
0.0
  0
LINE
  5
1A2
330
19C
100
AcDbEntity
  8
VERMASSUNG
100
AcDbLine
 10
175.5137286716
 20
136.1486822863
 30
0.0
 11
175.5137286716
 21
149.982726484
 31
0.0
  0
LINE
  5
1A3
330
19C
100
AcDbEntity
  8
VERMASSUNG
100
AcDbLine
 10
225.5137286716
 20
148.982726484
 30
0.0
 11
175.5137286716
 21
148.982726484
 31
0.0
  0
MTEXT
  5
1A4
330
19C
100
AcDbEntity
  8
VERMASSUNG
100
AcDbMText
 10
195.9637284846
 20
151.5608618471
 30
0.1
 40
2.0
 41
0.0
 71
     1
 72
     1
  1
50
  7
SLDTEXTSTYLE0
 73
     1
 44
1.0
  0
MTEXT
  5
1A5
330
19C
100
AcDbEntity
  8
VERMASSUNG
100
AcDbMText
 10
201.7512285867
 20
151.5608618471
 30
0.1
 40
2.0
 41
0.0
 71
     1
 72
     1
  1

  7
SLDTEXTSTYLE0
 73
     1
 44
1.0
  0
MTEXT
  5
1A6
330
19C
100
AcDbEntity
  8
VERMASSUNG
100
AcDbMText
 10
201.7637288765
 20
151.0663279843
 30
0.1
 40
1.5
 41
0.0
 71
     1
 72
     1
  1
±0.1
  7
SLDTEXTSTYLE0
 73
     1
 44
1.0
  0
ENDBLK
  5
19E
330
19C
100
AcDbEntity
  8
0
100
AcDbBlockEnd
  0
BLOCK
  5
1A9
330
1A8
100
AcDbEntity
  8
0
100
AcDbBlockBegin
  2
_D_2
 70
     0
 10
0.0
 20
0.0
 30
0.0
  3
_D_2
  1

  0
SOLID
  5
1AB
330
1A8
100
AcDbEntity
  8
VERMASSUNG
100
AcDbTrace
 10
243.5055918955
 20
143.4486822863
 30
0.0
 11
243.0555918955
 21
140.4486822863
 31
0.0
 12
243.9555918955
 22
140.4486822863
 32
0.0
 13
243.9555918955
 23
140.4486822863
 33
0.0
  0
SOLID
  5
1AC
330
1A8
100
AcDbEntity
  8
VERMASSUNG
100
AcDbTrace
 10
243.5055918955
 20
116.4486822863
 30
0.0
 11
243.9555918955
 21
119.4486822863
 31
0.0
 12
243.0555918955
 22
119.4486822863
 32
0.0
 13
243.0555918955
 23
119.4486822863
 33
0.0
  0
LINE
  5
1AD
330
1A8
100
AcDbEntity
  8
VERMASSUNG
100
AcDbLine
 10
225.5137286716
 20
143.4486822863
 30
0.0
 11
244.5055918955
 21
143.4486822863
 31
0.0
  0
LINE
  5
1AE
330
1A8
100
AcDbEntity
  8
VERMASSUNG
100
AcDbLine
 10
225.5137286716
 20
116.4486822863
 30
0.0
 11
244.5055918955
 21
116.4486822863
 31
0.0
  0
LINE
  5
1AF
330
1A8
100
AcDbEntity
  8
VERMASSUNG
100
AcDbLine
 10
243.5055918955
 20
143.4486822863
 30
0.0
 11
243.5055918955
 21
116.4486822863
 31
0.0
  0
MTEXT
  5
1B0
330
1A8
100
AcDbEntity
  8
VERMASSUNG
100
AcDbMText
 10
240.9274565324
 20
125.3986820993
 30
0.1
 40
2.0
 41
0.0
 71
     1
 72
     1
  1
27
  7
SLDTEXTSTYLE0
 11
-7.932373437343760E-15
 21
1.0
 31
0.0
 73
     1
 44
1.0
  0
MTEXT
  5
1B1
330
1A8
100
AcDbEntity
  8
VERMASSUNG
100
AcDbMText
 10
240.9274565324
 20
131.1861822014
 30
0.1
 40
2.0
 41
0.0
 71
     1
 72
     1
  1

  7
SLDTEXTSTYLE0
 11
-7.932373437343760E-15
 21
1.0
 31
0.0
 73
     1
 44
1.0
  0
MTEXT
  5
1B2
330
1A8
100
AcDbEntity
  8
VERMASSUNG
100
AcDbMText
 10
241.4219903952
 20
131.1986824912
 30
0.1
 40
1.5
 41
0.0
 71
     1
 72
     1
  1
±0.1
  7
SLDTEXTSTYLE0
 11
-7.932373437343760E-15
 21
1.0
 31
0.0
 73
     1
 44
1.0
  0
ENDBLK
  5
1AA
330
1A8
100
AcDbEntity
  8
0
100
AcDbBlockEnd
  0
BLOCK
  5
1B6
330
1B5
100
AcDbEntity
  8
0
100
AcDbBlockBegin
  2
_D_3
 70
     0
 10
0.0
 20
0.0
 30
0.0
  3
_D_3
  1

  0
ARC
  5
1B8
330
1B5
100
AcDbEntity
  8
VERMASSUNG
100
AcDbCircle
 10
225.5352407217
 20
143.4486822863
 30
0.0
 40
8.998490763979106
100
AcDbArc
 50
267.0
 51
0.0
  0
SOLID
  5
1B9
330
1B5
100
AcDbEntity
  8
VERMASSUNG
100
AcDbTrace
 10
225.0642961028
 20
134.4625236412
 30
0.0
 11
228.0953892694
 21
134.3401544643
 31
0.0
 12
227.9978944632
 22
135.2348581933
 32
0.0
 13
227.9978944632
 23
135.2348581933
 33
0.0
  0
SOLID
  5
1BA
330
1B5
100
AcDbEntity
  8
VERMASSUNG
100
AcDbTrace
 10
234.5337314857
 20
143.4486822863
 30
0.0
 11
233.6089227158
 21
140.5595251879
 31
0.0
 12
234.4972978006
 22
140.4153388197
 32
0.0
 13
234.4972978006
 23
140.4153388197
 33
0.0
  0
MTEXT
  5
1BB
330
1B5
100
AcDbEntity
  8
VERMASSUNG
100
AcDbMText
 10
227.8511359214
 20
136.7952926214
 30
0.1
 40
2.0
 41
0.0
 71
     1
 72
     1
  1
93°
  7
SLDTEXTSTYLE0
 11
0.7253743710122853
 21
0.6883545756937565
 31
0.0
 73
     1
 44
1.0
  0
ENDBLK
  5
1B7
330
1B5
100
AcDbEntity
  8
0
100
AcDbBlockEnd
  0
BLOCK
  5
1BE
330
1BD
100
AcDbEntity
  8
0
100
AcDbBlockBegin
  2
_D_4
 70
     0
 10
0.0
 20
0.0
 30
0.0
  3
_D_4
  1

  0
SOLID
  5
1C0
330
1BD
100
AcDbEntity
  8
VERMASSUNG
100
AcDbTrace
 10
142.8221329677
 20
136.4486822863
 30
0.0
 11
142.3721329677
 21
133.4486822863
 31
0.0
 12
143.2721329677
 22
133.4486822863
 32
0.0
 13
143.2721329677
 23
133.4486822863
 33
0.0
  0
SOLID
  5
1C1
330
1BD
100
AcDbEntity
  8
VERMASSUNG
100
AcDbTrace
 10
142.8221329677
 20
96.4486822863
 30
0.0
 11
143.2721329677
 21
99.4486822863
 31
0.0
 12
142.3721329677
 22
99.4486822863
 32
0.0
 13
142.3721329677
 23
99.4486822863
 33
0.0
  0
LINE
  5
1C2
330
1BD
100
AcDbEntity
  8
VERMASSUNG
100
AcDbLine
 10
175.8137286716
 20
136.4486822863
 30
0.0
 11
141.8221329677
 21
136.4486822863
 31
0.0
  0
LINE
  5
1C3
330
1BD
100
AcDbEntity
  8
VERMASSUNG
100
AcDbLine
 10
175.8137286716
 20
96.4486822863
 30
0.0
 11
141.8221329677
 21
96.4486822863
 31
0.0
  0
LINE
  5
1C4
330
1BD
100
AcDbEntity
  8
VERMASSUNG
100
AcDbLine
 10
142.8221329677
 20
136.4486822863
 30
0.0
 11
142.8221329677
 21
96.4486822863
 31
0.0
  0
MTEXT
  5
1C5
330
1BD
100
AcDbEntity
  8
VERMASSUNG
100
AcDbMText
 10
140.0439974787
 20
109.943682347
 30
0.35
 40
2.0
 41
0.0
 71
     1
 72
     1
  1
PSC
  7
SLDTEXTSTYLE0
 11
-7.044195017643634E-15
 21
1.0
 31
0.0
 73
     1
 44
1.0
  0
MTEXT
  5
1C6
330
1BD
100
AcDbEntity
  8
VERMASSUNG
100
AcDbMText
 10
140.2439974882
 20
114.543682449
 30
0.35
 40
2.0
 41
0.0
 71
     1
 72
     1
  1
%%c
  7
SLDTEXTSTYLE0
 11
-7.044195017643634E-15
 21
1.0
 31
0.0
 73
     1
 44
1.0
  0
MTEXT
  5
1C7
330
1BD
100
AcDbEntity
  8
VERMASSUNG
100
AcDbMText
 10
140.0439974787
 20
118.153682929
 30
0.35
 40
2.0
 41
0.0
 71
     1
 72
     1
  1
40
  7
SLDTEXTSTYLE0
 11
-7.044195017643634E-15
 21
1.0
 31
0.0
 73
     1
 44
1.0
  0
ENDBLK
  5
1BF
330
1BD
100
AcDbEntity
  8
0
100
AcDbBlockEnd
  0
BLOCK
  5
1F1
330
1F0
100
AcDbEntity
  8
0
100
AcDbBlockBegin
  2
_D_5
 70
     0
 10
0.0
 20
0.0
 30
0.0
  3
_D_5
  1

  0
SOLID
  5
1F3
330
1F0
100
AcDbEntity
  8
VERMASSUNG
100
AcDbTrace
 10
101.8906274445
 20
102.1805022449
 30
0.0
 11
103.9146522993
 21
99.920895335
 31
0.0
 12
104.4885407634
 22
100.6141860611
 32
0.0
 13
104.4885407634
 23
100.6141860611
 33
0.0
  0
SOLID
  5
1F4
330
1F0
100
AcDbEntity
  8
VERMASSUNG
100
AcDbTrace
 10
63.3744759971
 20
134.063194692
 30
0.0
 11
61.3504511423
 21
136.3228016019
 31
0.0
 12
60.7765626782
 22
135.6295108758
 32
0.0
 13
60.7765626782
 23
135.6295108758
 33
0.0
  0
LINE
  5
1F5
330
1F0
100
AcDbEntity
  8
VERMASSUNG
100
AcDbLine
 10
101.8906274445
 20
102.1805022449
 30
0.0
 11
102.5282812935
 21
102.9508252738
 31
0.0
  0
LINE
  5
1F6
330
1F0
100
AcDbEntity
  8
VERMASSUNG
100
AcDbLine
 10
63.3744759971
 20
134.063194692
 30
0.0
 11
64.012129846
 21
134.833517721
 31
0.0
  0
LINE
  5
1F7
330
1F0
100
AcDbEntity
  8
VERMASSUNG
100
AcDbLine
 10
101.8906274445
 20
102.1805022449
 30
0.0
 11
106.5125656182
 21
98.3545791512
 31
0.0
  0
LINE
  5
1F8
330
1F0
100
AcDbEntity
  8
VERMASSUNG
100
AcDbLine
 10
101.8906274445
 20
102.1805022449
 30
0.0
 11
63.3744759971
 21
134.063194692
 31
0.0
  0
LINE
  5
1F9
330
1F0
100
AcDbEntity
  8
VERMASSUNG
100
AcDbLine
 10
63.3744759971
 20
134.063194692
 30
0.0
 11
48.052237577
 21
146.7465547057
 31
0.0
  0
MTEXT
  5
1FA
330
1F0
100
AcDbEntity
  8
VERMASSUNG
100
AcDbMText
 10
49.6961955886
 20
148.7325518374
 30
0.1
 40
2.0
 41
0.0
 71
     1
 72
     1
  1
%%c
  7
SLDTEXTSTYLE0
 11
0.7703230289484448
 21
-0.6376538489428989
 31
0.0
 73
     1
 44
1.0
  0
MTEXT
  5
1FB
330
1F0
100
AcDbEntity
  8
VERMASSUNG
100
AcDbMText
 10
52.60459251
 20
146.5846860467
 30
0.1
 40
2.0
 41
0.0
 71
     1
 72
     1
  1
50
  7
SLDTEXTSTYLE0
 11
0.7703230289484448
 21
-0.6376538489428989
 31
0.0
 73
     1
 44
1.0
  0
MTEXT
  5
1FC
330
1F0
100
AcDbEntity
  8
VERMASSUNG
100
AcDbMText
 10
57.0628374774
 20
142.8942640339
 30
0.1
 40
2.0
 41
0.0
 71
     1
 72
     1
  1
min.
  7
SLDTEXTSTYLE0
 11
0.7703230289484448
 21
-0.6376538489428989
 31
0.0
 73
     1
 44
1.0
  0
ENDBLK
  5
1F2
330
1F0
100
AcDbEntity
  8
0
100
AcDbBlockEnd
  0
BLOCK
  5
1FE
330
1FD
100
AcDbEntity
  8
0
100
AcDbBlockBegin
  2
SW_CENTERMARKSYMBOL_0
 70
     0
 10
0.0
 20
0.0
 30
0.0
  3
SW_CENTERMARKSYMBOL_0
  1

  0
LINE
  5
200
330
1FD
100
AcDbEntity
  8
VERMASSUNG
 62
     0
100
AcDbLine
 10
0.0
 20
0.0
 30
0.0
 11
0.0
 21
2.5
 31
0.0
  0
LINE
  5
201
330
1FD
100
AcDbEntity
  8
VERMASSUNG
 62
     0
100
AcDbLine
 10
0.0
 20
0.0
 30
0.0
 11
-2.5
 21
0.0
 31
0.0
  0
LINE
  5
202
330
1FD
100
AcDbEntity
  8
VERMASSUNG
 62
     0
100
AcDbLine
 10
0.0
 20
0.0
 30
0.0
 11
0.0
 21
-2.5
 31
0.0
  0
LINE
  5
203
330
1FD
100
AcDbEntity
  8
VERMASSUNG
 62
     0
100
AcDbLine
 10
0.0
 20
0.0
 30
0.0
 11
2.5
 21
0.0
 31
0.0
  0
LINE
  5
204
330
1FD
100
AcDbEntity
  8
VERMASSUNG
 62
     0
100
AcDbLine
 10
0.0
 20
5.0
 30
0.0
 11
0.0
 21
22.5
 31
0.0
  0
LINE
  5
205
330
1FD
100
AcDbEntity
  8
VERMASSUNG
 62
     0
100
AcDbLine
 10
-5.0
 20
0.0
 30
0.0
 11
-22.5
 21
0.0
 31
0.0
  0
LINE
  5
206
330
1FD
100
AcDbEntity
  8
VERMASSUNG
 62
     0
100
AcDbLine
 10
0.0
 20
-5.0
 30
0.0
 11
0.0
 21
-22.5
 31
0.0
  0
LINE
  5
207
330
1FD
100
AcDbEntity
  8
VERMASSUNG
 62
     0
100
AcDbLine
 10
5.0
 20
0.0
 30
0.0
 11
22.5
 21
0.0
 31
0.0
  0
ENDBLK
  5
1FF
330
1FD
100
AcDbEntity
  8
0
100
AcDbBlockEnd
  0
ENDSEC
  0
SECTION
  2
ENTITIES
  0
MTEXT
  5
49
330
1F
100
AcDbEntity
  8
KOPF_DÜNN
100
AcDbMText
 10
13.8892156294
 20
23.8442973028
 30
0.0
 40
3.0
 41
0.0
 71
     1
 72
     1
  1
PS4.KDB.RUA.050
  7
SLDTEXTSTYLE0
 73
     1
 44
1.0
  0
MTEXT
  5
4A
330
1F
100
AcDbEntity
  8
VERMASSUNG
100
AcDbMText
 10
13.9329988022
 20
28.8834360957
 30
0.0
 40
3.0
 41
0.0
 71
     1
 72
     1
  1
Klemmhalter rechts_Turning tool right 93° /55°
  7
SLDTEXTSTYLE0
 73
     1
 44
1.0
  0
MTEXT
  5
4B
330
1F
100
AcDbEntity
  8
VERMASSUNG
100
AcDbMText
 10
98.8601118557
 20
13.8365368179
 30
0.0
 40
2.0
 41
0.0
 71
     1
 72
     1
  1
Datum: 27.04.2012
  7
SLDTEXTSTYLE0
 73
     1
 44
1.0
  0
MTEXT
  5
4C
330
1F
100
AcDbEntity
  8
VERMASSUNG
100
AcDbMText
 10
13.933048693
 20
18.0482802738
 30
0.0
 40
2.0
 41
0.0
 71
     1
 72
     1
  1
PSC ø40 / DC..11 T3..
  7
SLDTEXTSTYLE0
 73
     1
 44
1.0
  0
MTEXT
  5
4D
330
1F
100
AcDbEntity
  8
VERMASSUNG
100
AcDbMText
 10
13.9808475933
 20
13.9090973692
 30
0.0
 40
2.0
 41
0.0
 71
     1
 72
     1
  1
Gewicht: 369g
  7
SLDTEXTSTYLE0
 73
     1
 44
1.0
  0
LINE
  5
4E
330
1F
100
AcDbEntity
  8
0
  6
Continuous
 62
     7
370
    15
100
AcDbLine
 10
197.5141048067
 20
136.4486818393
 30
0.0
 11
175.8137286859
 21
136.4486818393
 31
0.0
  0
LINE
  5
4F
330
1F
100
AcDbEntity
  8
0
  6
Continuous
 62
     7
370
    15
100
AcDbLine
 10
175.8137286859
 20
96.4486827334
 30
0.0
 11
197.5111338877
 21
96.4486827334
 31
0.0
  0
ARC
  5
50
330
1F
100
AcDbEntity
  8
0
  6
Continuous
 62
     7
370
    15
100
AcDbCircle
 10
175.8137286716
 20
96.7486822863
 30
0.0
 40
0.3000000000000114
100
AcDbArc
 50
180.0
 51
270.0
  0
ARC
  5
51
330
1F
100
AcDbEntity
  8
0
  6
Continuous
 62
     7
370
    15
100
AcDbCircle
 10
175.8137286716
 20
136.1486822863
 30
0.0
 40
0.3000000000000398
100
AcDbArc
 50
90.0
 51
180.0
  0
LWPOLYLINE
  5
52
330
1F
100
AcDbEntity
  8
0
  6
Continuous
 62
     7
370
    15
100
AcDbPolyline
 90
        3
 70
   128
 43
0.0
 10
175.3137286767
 20
102.3588623111
 10
175.4391836118
 20
102.2905600448
 10
175.5137286716
 20
102.2378220414
  0
LWPOLYLINE
  5
53
330
1F
100
AcDbEntity
  8
0
  6
Continuous
 62
     7
370
    15
100
AcDbPolyline
 90
        3
 70
   128
 43
0.0
 10
175.5137286716
 20
130.6595425313
 10
175.4391836118
 20
130.6068045278
 10
175.3137286767
 20
130.5385022615
  0
LINE
  5
54
330
1F
100
AcDbEntity
  8
0
  6
Continuous
 62
     7
370
    15
100
AcDbLine
 10
224.9123595291
 20
143.3709399034
 30
0.0
 11
215.8795810872
 21
137.7266333629
 31
0.0
  0
LINE
  5
55
330
1F
100
AcDbEntity
  8
0
  6
Continuous
 62
     7
370
    15
100
AcDbLine
 10
224.0948669248
 20
141.318997853
 30
0.0
 11
225.1137300962
 21
143.0486818035
 31
0.0
  0
LINE
  5
56
330
1F
100
AcDbEntity
  8
0
  6
Continuous
 62
     7
370
    15
100
AcDbLine
 10
216.2951185935
 20
137.2782201697
 30
0.0
 11
216.080947929
 21
137.404375263
 31
0.0
  0
SPLINE
  5
57
330
1F
100
AcDbEntity
  8
0
  6
Continuous
 62
     7
370
    15
100
AcDbSpline
210
0.0
220
0.0
230
1.0
 70
     8
 71
     3
 72
    11
 73
     7
 74
     0
 42
0.00000001
 43
0.00000001
 12
1.0
 22
0.0
 32
0.0
 13
1.0
 23
0.0
 33
0.0
 40
0.0
 40
0.0
 40
0.0
 40
0.0
 40
0.3277700638032682
 40
0.6551522203296861
 40
0.9907877806205145
 40
1.0
 40
1.0
 40
1.0
 40
1.0
 10
216.2951185935128
 20
137.2782201697225
 30
0.0
 10
216.359164032393
 20
137.2404949541045
 30
0.0
 10
216.4871791140555
 20
137.1650891696721
 30
0.0
 10
216.6982610542475
 20
137.040752057079
 30
0.0
 10
216.8313952250839
 20
136.9623223909812
 30
0.0
 10
216.893535790277
 20
136.9257255068688
 30
0.0
 10
216.8951958053697
 20
136.924747862398
 30
0.0
  0
LINE
  5
58
330
1F
100
AcDbEntity
  8
0
  6
Continuous
 62
     7
370
    15
100
AcDbLine
 10
215.7248735064
 20
126.4454559614
 30
0.0
 11
224.7576556736
 21
132.0897625019
 31
0.0
  0
LINE
  5
59
330
1F
100
AcDbEntity
  8
0
  6
Continuous
 62
     7
370
    15
100
AcDbLine
 10
216.5423661106
 20
128.4973989432
 30
0.0
 11
215.5235066646
 21
126.7677140613
 31
0.0
  0
LINE
  5
5A
330
1F
100
AcDbEntity
  8
0
  6
Continuous
 62
     7
370
    15
100
AcDbLine
 10
224.3421144419
 20
132.5381756951
 30
0.0
 11
224.5562851065
 21
132.4120206018
 31
0.0
  0
SPLINE
  5
5B
330
1F
100
AcDbEntity
  8
0
  6
Continuous
 62
     7
370
    15
100
AcDbSpline
210
0.0
220
0.0
230
1.0
 70
     8
 71
     3
 72
    11
 73
     7
 74
     0
 42
0.00000001
 43
0.00000001
 12
1.0
 22
0.0
 32
0.0
 13
1.0
 23
0.0
 33
0.0
 40
0.0
 40
0.0
 40
0.0
 40
0.0
 40
0.0092133424251244
 40
0.3448484748035796
 40
0.6722333430710616
 40
1.0
 40
1.0
 40
1.0
 40
1.0
 10
223.7420372300733
 20
132.8916498650903
 30
0.0
 10
223.7436972417683
 20
132.8906715924288
 30
0.0
 10
223.8058302305099
 20
132.8540555827672
 30
0.0
 10
223.9389749981729
 20
132.7756499759957
 30
0.0
 10
224.1500567347945
 20
132.6513091424195
 30
0.0
 10
224.2780703396334
 20
132.5759014921223
 30
0.0
 10
224.3421144419301
 20
132.5381756951207
 30
0.0
  0
LINE
  5
5C
330
1F
100
AcDbEntity
  8
0
  6
Continuous
 62
     7
370
    15
100
AcDbLine
 10
224.9091297024
 20
143.3925074716
 30
0.0
 11
215.8676601582
 21
137.7427694579
 31
0.0
  0
LINE
  5
5D
330
1F
100
AcDbEntity
  8
0
  6
Continuous
 62
     7
370
    15
100
AcDbLine
 10
224.9556548529
 20
132.3895310243
 30
0.0
 11
225.5136362844
 21
143.0364274611
 31
0.0
  0
LINE
  5
5E
330
1F
100
AcDbEntity
  8
0
  6
Continuous
 62
     7
370
    15
100
AcDbLine
 10
215.7281033331
 20
126.4238893245
 30
0.0
 11
224.7695728772
 21
132.0736273383
 31
0.0
  0
LINE
  5
5F
330
1F
100
AcDbEntity
  8
0
  6
Continuous
 62
     7
370
    15
100
AcDbLine
 10
215.6815781825
 20
137.4268648406
 30
0.0
 11
215.1236004763
 21
126.7799693351
 31
0.0
  0
ARC
  5
60
330
1F
100
AcDbEntity
  8
0
  6
Continuous
 62
     7
370
    15
100
AcDbCircle
 10
225.1137286716
 20
143.0486822863
 30
0.0
 40
0.3799999999999887
100
AcDbArc
 50
357.0
 51
122.0
  0
ARC
  5
61
330
1F
100
AcDbEntity
  8
0
  6
Continuous
 62
     7
370
    15
100
AcDbCircle
 10
216.0809493597
 20
137.4043753317
 30
0.0
 40
0.3800000000000054
100
AcDbArc
 50
122.0
 51
177.0
  0
LINE
  5
62
330
1F
100
AcDbEntity
  8
0
  6
Continuous
 62
     7
370
    15
100
AcDbLine
 10
215.7014712327
 20
137.4242627253
 30
0.0
 11
215.144026243
 21
126.7876015236
 31
0.0
  0
ARC
  5
63
330
1F
100
AcDbEntity
  8
0
  6
Continuous
 62
     7
370
    15
100
AcDbCircle
 10
215.5235055721
 20
126.7677142241
 30
0.0
 40
0.3799999999999977
100
AcDbArc
 50
177.0
 51
302.0
  0
ARC
  5
64
330
1F
100
AcDbEntity
  8
0
  6
Continuous
 62
     7
370
    15
100
AcDbCircle
 10
224.556284884
 20
132.4120211787
 30
0.0
 40
0.380000000000052
100
AcDbArc
 50
302.0
 51
357.0
  0
LINE
  5
65
330
1F
100
AcDbEntity
  8
0
  6
Continuous
 62
     7
370
    15
100
AcDbLine
 10
224.935765528
 20
132.3921331396
 30
0.0
 11
225.4932067924
 21
143.0287943413
 31
0.0
  0
SPLINE
  5
66
330
1F
100
AcDbEntity
  8
0
  6
Continuous
 62
     7
370
    15
100
AcDbSpline
210
0.0
220
0.0
230
1.0
 70
     8
 71
     3
 72
    10
 73
     6
 74
     0
 42
0.00000001
 43
0.00000001
 12
1.0
 22
0.0
 32
0.0
 13
1.0
 23
0.0
 33
0.0
 40
0.0
 40
0.0
 40
0.0
 40
0.0
 40
0.3518028043001692
 40
0.7034214825201235
 40
1.0
 40
1.0
 40
1.0
 40
1.0
 10
215.8676601582158
 20
137.7427694578761
 30
0.0
 10
215.8322217209092
 20
137.7153534325534
 30
0.0
 10
215.7613633940178
 20
137.6605357308706
 30
0.0
 10
215.6980375713406
 20
137.5456973049128
 30
0.0
 10
215.6867450184846
 20
137.4641680392122
 30
0.0
 10
215.6815781825173
 20
137.4268648405665
 30
0.0
  0
SPLINE
  5
67
330
1F
100
AcDbEntity
  8
0
  6
Continuous
 62
     7
370
    15
100
AcDbSpline
210
0.0
220
0.0
230
1.0
 70
     8
 71
     3
 72
    10
 73
     6
 74
     0
 42
0.00000001
 43
0.00000001
 12
1.0
 22
0.0
 32
0.0
 13
1.0
 23
0.0
 33
0.0
 40
0.0
 40
0.0
 40
0.0
 40
0.0
 40
0.3518009244976427
 40
0.7034284034055045
 40
1.0
 40
1.0
 40
1.0
 40
1.0
 10
224.7695728772271
 20
132.0736273382896
 30
0.0
 10
224.8050109699341
 20
132.1010431994679
 30
0.0
 10
224.8758696835892
 20
132.1558614052021
 30
0.0
 10
224.9392001728995
 20
132.270698044073
 30
0.0
 10
224.9504895880937
 20
132.3522283351607
 30
0.0
 10
224.9556548529256
 20
132.3895310242766
 30
0.0
  0
SPLINE
  5
68
330
1F
100
AcDbEntity
  8
0
  6
Continuous
 62
     7
370
    15
100
AcDbSpline
210
0.0
220
0.0
230
1.0
 70
     8
 71
     3
 72
    14
 73
    10
 74
     0
 42
0.00000001
 43
0.00000001
 12
1.0
 22
0.0
 32
0.0
 13
1.0
 23
0.0
 33
0.0
 40
0.0
 40
0.0
 40
0.0
 40
0.0
 40
0.1588501490312587
 40
0.3173311037055501
 40
0.4720144469266528
 40
0.6236451042392247
 40
0.774663508697389
 40
0.927740653598006
 40
0.9999999999999999
 40
0.9999999999999999
 40
0.9999999999999999
 40
0.9999999999999999
 10
215.1236004763234
 20
126.7799693350786
 30
0.0
 10
215.1256633338756
 20
126.7339227777728
 30
0.0
 10
215.1297842545533
 20
126.6419366830741
 30
0.0
 10
215.1934474908725
 20
126.5175746011815
 30
0.0
 10
215.2907898641175
 20
126.4230002275102
 30
0.0
 10
215.4131310493422
 20
126.3677076052414
 30
0.0
 10
215.545719383856
 20
126.3563384950752
 30
0.0
 10
215.653460199908
 20
126.381879699087
 30
0.0
 10
215.7099792085503
 20
126.4136889531234
 30
0.0
 10
215.7281033330548
 20
126.4238893245453
 30
0.0
  0
SPLINE
  5
69
330
1F
100
AcDbEntity
  8
0
  6
Continuous
 62
     7
370
    15
100
AcDbSpline
210
0.0
220
0.0
230
1.0
 70
     8
 71
     3
 72
    14
 73
    10
 74
     0
 42
0.00000001
 43
0.00000001
 12
1.0
 22
0.0
 32
0.0
 13
1.0
 23
0.0
 33
0.0
 40
0.0
 40
0.0
 40
0.0
 40
0.0
 40
0.1588506412916253
 40
0.3173315872200095
 40
0.4720149219047796
 40
0.6236411892720033
 40
0.7746595853960877
 40
0.9277406575856998
 40
1.0
 40
1.0
 40
1.0
 40
1.0
 10
225.5136362844098
 20
143.0364274610871
 30
0.0
 10
225.5115718706109
 20
143.0824739792177
 30
0.0
 10
225.5074478475528
 20
143.1744598507603
 30
0.0
 10
225.4437858110743
 20
143.2988222732643
 30
0.0
 10
225.3464439999228
 20
143.3933954974221
 30
0.0
 10
225.2241045519102
 20
143.4486889382441
 30
0.0
 10
225.0915163674194
 20
143.4600565826262
 30
0.0
 10
224.9837737841367
 20
143.4345178679183
 30
0.0
 10
224.9272538175296
 20
143.4027078953085
 30
0.0
 10
224.9091297023881
 20
143.3925074716205
 30
0.0
  0
ARC
  5
6A
330
1F
100
AcDbEntity
  8
0
  6
Continuous
 62
     7
370
    15
100
AcDbCircle
 10
222.6735802153
 20
138.9061322464
 30
0.0
 40
1.000000000295391
100
AcDbArc
 50
357.0
 51
122.0
  0
LINE
  5
6B
330
1F
100
AcDbEntity
  8
0
  6
Continuous
 62
     7
370
    15
100
AcDbLine
 10
223.3984388047
 20
133.6299465229
 30
0.0
 11
223.6722103887
 21
138.8537963112
 31
0.0
  0
ARC
  5
6C
330
1F
100
AcDbEntity
  8
0
  6
Continuous
 62
     7
370
    15
100
AcDbCircle
 10
222.3998098279
 20
133.6822820635
 30
0.0
 40
0.9999999999999944
100
AcDbArc
 50
302.0
 51
357.0
  0
LINE
  5
6D
330
1F
100
AcDbEntity
  8
0
  6
Continuous
 62
     7
370
    15
100
AcDbLine
 10
218.4935725861
 20
130.0622164463
 30
0.0
 11
222.9297302299
 21
132.8342338284
 31
0.0
  0
ARC
  5
6E
330
1F
100
AcDbEntity
  8
0
  6
Continuous
 62
     7
370
    15
100
AcDbCircle
 10
217.9636540283
 20
130.910264264
 30
0.0
 40
1.000000000000024
100
AcDbArc
 50
177.0
 51
302.0
  0
LINE
  5
6F
330
1F
100
AcDbEntity
  8
0
  6
Continuous
 62
     7
370
    15
100
AcDbLine
 10
217.2387942308
 20
136.1864512046
 30
0.0
 11
216.9650226467
 21
130.962600485
 31
0.0
  0
ARC
  5
70
330
1F
100
AcDbEntity
  8
0
  6
Continuous
 62
     7
370
    15
100
AcDbCircle
 10
218.2374244157
 20
136.134114447
 30
0.0
 40
1.00000000000003
100
AcDbArc
 50
122.0
 51
177.0
  0
LINE
  5
71
330
1F
100
AcDbEntity
  8
0
  6
Continuous
 62
     7
370
    15
100
AcDbLine
 10
222.1436604493
 20
139.7541803499
 30
0.0
 11
217.7075065308
 21
136.9821620365
 31
0.0
  0
CIRCLE
  5
72
330
1F
100
AcDbEntity
  8
0
  6
Continuous
 62
     7
370
    15
100
AcDbCircle
 10
220.3186171218
 20
134.9081982552
 30
0.0
 40
3.050000000000016
  0
SPLINE
  5
73
330
1F
100
AcDbEntity
  8
0
  6
Continuous
 62
     7
370
    15
100
AcDbSpline
210
0.0
220
0.0
230
1.0
 70
     8
 71
     3
 72
    11
 73
     7
 74
     0
 42
0.00000001
 43
0.00000001
 12
1.0
 22
0.0
 32
0.0
 13
1.0
 23
0.0
 33
0.0
 40
0.0
 40
0.0
 40
0.0
 40
0.0
 40
0.0073011038849192
 40
0.1268485783002136
 40
0.5874314278120872
 40
0.9999999999999999
 40
0.9999999999999999
 40
0.9999999999999999
 40
0.9999999999999999
 10
223.7459078066934
 20
140.7265854259128
 30
0.0
 10
223.7466699345205
 20
140.7278781556963
 30
0.0
 10
223.7599110598184
 20
140.7503379012029
 30
0.0
 10
223.822550909297
 20
140.856725279846
 30
0.0
 10
223.9401357266384
 20
141.0563061169224
 30
0.0
 10
224.0452159667505
 20
141.2347039515196
 30
0.0
 10
224.0948669248212
 20
141.3189978529805
 30
0.0
  0
SPLINE
  5
74
330
1F
100
AcDbEntity
  8
0
  6
Continuous
 62
     7
370
    15
100
AcDbSpline
210
0.0
220
0.0
230
1.0
 70
     8
 71
     3
 72
    11
 73
     7
 74
     0
 42
0.00000001
 43
0.00000001
 12
1.0
 22
0.0
 32
0.0
 13
1.0
 23
0.0
 33
0.0
 40
0.0
 40
0.0
 40
0.0
 40
0.0
 40
0.4125710811335542
 40
0.8731537710223191
 40
0.9927012040063279
 40
1.0
 40
1.0
 40
1.0
 40
1.0
 10
216.5423661106217
 20
128.4973989431852
 30
0.0
 10
216.5920215105731
 20
128.5816914994599
 30
0.0
 10
216.697110795067
 20
128.7600858822608
 30
0.0
 10
216.8146569772393
 20
128.9596832940973
 30
0.0
 10
216.8773414129114
 20
129.066051974402
 30
0.0
 10
216.8905643729591
 20
129.0885186276911
 30
0.0
 10
216.8913252287496
 20
129.089811370253
 30
0.0
  0
ARC
  5
75
330
1F
100
AcDbEntity
  8
0
  6
Continuous
 62
     7
370
    15
100
AcDbCircle
 10
220.2535221668
 20
134.7976889507
 30
0.0
 40
1.675000000000023
100
AcDbArc
 50
149.07804828
 51
207.6779814073
  0
ARC
  5
76
330
1F
100
AcDbEntity
  8
0
  6
Continuous
 62
     7
370
    15
100
AcDbCircle
 10
220.2535221668
 20
134.7976889507
 30
0.0
 40
1.674999999999999
100
AcDbArc
 50
207.6779814073
 51
267.784823142
  0
ARC
  5
77
330
1F
100
AcDbEntity
  8
0
  6
Continuous
 62
     7
370
    15
100
AcDbCircle
 10
220.2535221668
 20
134.7976889507
 30
0.0
 40
1.674999999999977
100
AcDbArc
 50
267.784823142
 51
326.3847562692
  0
LINE
  5
78
330
1F
100
AcDbEntity
  8
0
  6
Continuous
 62
     7
370
    15
100
AcDbLine
 10
221.6936453813
 20
133.9423139771
 30
0.0
 11
221.648420357
 21
133.870386072
 31
0.0
  0
ARC
  5
79
330
1F
100
AcDbEntity
  8
0
  6
Continuous
 62
     7
370
    15
100
AcDbCircle
 10
220.2535221668
 20
134.7976889507
 30
0.0
 40
1.674999999999985
100
AcDbArc
 50
329.2913870411
 51
25.7351052074
  0
LINE
  5
7A
330
1F
100
AcDbEntity
  8
0
  6
Continuous
 62
     7
370
    15
100
AcDbLine
 10
221.7065311604
 20
135.6309880694
 30
0.0
 11
221.7623807126
 21
135.5249923845
 31
0.0
  0
ARC
  5
7B
330
1F
100
AcDbEntity
  8
0
  6
Continuous
 62
     7
370
    15
100
AcDbCircle
 10
220.2535221668
 20
134.7976889507
 30
0.0
 40
1.675000000000035
100
AcDbArc
 50
29.8341971076
 51
85.6286074416
  0
LINE
  5
7C
330
1F
100
AcDbEntity
  8
0
  6
Continuous
 62
     7
370
    15
100
AcDbLine
 10
220.2614836031
 20
136.4726708462
 30
0.0
 11
220.3811920815
 21
136.4678167929
 31
0.0
  0
ARC
  5
7D
330
1F
100
AcDbEntity
  8
0
  6
Continuous
 62
     7
370
    15
100
AcDbCircle
 10
220.2535221668
 20
134.7976889507
 30
0.0
 40
1.675000000000036
100
AcDbArc
 50
89.7276993419
 51
146.1714175082
  0
LINE
  5
7E
330
1F
100
AcDbEntity
  8
0
  6
Continuous
 62
     7
370
    15
100
AcDbLine
 10
218.8165925079
 20
135.6584211071
 30
0.0
 11
218.8620894783
 21
135.7301776488
 31
0.0
  0
CIRCLE
  5
7F
330
1F
100
AcDbEntity
  8
0
  6
Continuous
 62
     7
370
    15
100
AcDbCircle
 10
220.2535221668
 20
134.7976889507
 30
0.0
 40
1.8
  0
SPLINE
  5
80
330
1F
100
AcDbEntity
  8
0
  6
Continuous
 62
     7
370
    15
100
AcDbSpline
210
0.0
220
0.0
230
1.0
 70
     8
 71
     3
 72
    11
 73
     7
 74
     0
 42
0.00000001
 43
0.00000001
 12
1.0
 22
0.0
 32
0.0
 13
1.0
 23
0.0
 33
0.0
 40
0.0
 40
0.0
 40
0.0
 40
0.0
 40
0.2668941802024538
 40
0.5546120187013963
 40
0.84390340318569
 40
0.9999999999999999
 40
0.9999999999999999
 40
0.9999999999999999
 40
0.9999999999999999
 10
221.7065311604131
 20
135.6309880693549
 30
0.0
 10
221.6826294796255
 20
135.6563804254173
 30
0.0
 10
221.6329612574788
 20
135.7091463038066
 30
0.0
 10
221.5304648210546
 20
135.753585286578
 30
0.0
 10
221.4347845351541
 20
135.7640032295472
 30
0.0
 10
221.3787025098701
 20
135.7526671851799
 30
0.0
 10
221.3590472572434
 20
135.7486942042703
 30
0.0
  0
SPLINE
  5
81
330
1F
100
AcDbEntity
  8
0
  6
Continuous
 62
     7
370
    15
100
AcDbSpline
210
0.0
220
0.0
230
1.0
 70
     8
 71
     3
 72
    12
 73
     8
 74
     0
 42
0.00000001
 43
0.00000001
 12
1.0
 22
0.0
 32
0.0
 13
1.0
 23
0.0
 33
0.0
 40
0.0
 40
0.0
 40
0.0
 40
0.0
 40
0.2058376128693254
 40
0.4120615758345891
 40
0.6141378537815295
 40
0.813277555515949
 40
1.0
 40
1.0
 40
1.0
 40
1.0
 10
221.3590472572434
 20
135.7486942042703
 30
0.0
 10
221.2942766625819
 20
135.7384905420298
 30
0.0
 10
221.1646139010877
 20
135.7180640656268
 30
0.0
 10
220.9702331803411
 20
135.7707830575616
 30
0.0
 10
220.8065602769921
 20
135.8791844772632
 30
0.0
 10
220.6870605561622
 20
136.0296979377422
 30
0.0
 10
220.6532297909384
 20
136.1476244432335
 30
0.0
 10
220.6368587546933
 20
136.2046902258986
 30
0.0
  0
SPLINE
  5
82
330
1F
100
AcDbEntity
  8
0
  6
Continuous
 62
     7
370
    15
100
AcDbSpline
210
0.0
220
0.0
230
1.0
 70
     8
 71
     3
 72
    11
 73
     7
 74
     0
 42
0.00000001
 43
0.00000001
 12
1.0
 22
0.0
 32
0.0
 13
1.0
 23
0.0
 33
0.0
 40
0.0
 40
0.0
 40
0.0
 40
0.0
 40
0.2929013971830771
 40
0.5864368184357412
 40
0.8775147681344597
 40
0.9999999999999999
 40
0.9999999999999999
 40
0.9999999999999999
 40
0.9999999999999999
 10
220.6368587546933
 20
136.2046902258986
 30
0.0
 10
220.6260493098869
 20
136.2410236642982
 30
0.0
 10
220.6044070217915
 20
136.3137691896618
 30
0.0
 10
220.5280891391006
 20
136.4012472493179
 30
0.0
 10
220.4483443866134
 20
136.4497153145431
 30
0.0
 10
220.3965361539012
 20
136.4636806669156
 30
0.0
 10
220.3811920815099
 20
136.4678167929048
 30
0.0
  0
SPLINE
  5
83
330
1F
100
AcDbEntity
  8
0
  6
Continuous
 62
     7
370
    15
100
AcDbSpline
210
0.0
220
0.0
230
1.0
 70
     8
 71
     3
 72
    12
 73
     8
 74
     0
 42
0.00000001
 43
0.00000001
 12
1.0
 22
0.0
 32
0.0
 13
1.0
 23
0.0
 33
0.0
 40
0.0
 40
0.0
 40
0.0
 40
0.0
 40
0.2057886711562708
 40
0.4120345519735847
 40
0.6141287846188864
 40
0.8132621709477393
 40
1.0
 40
1.0
 40
1.0
 40
1.0
 10
219.9851862722028
 20
136.230506487667
 30
0.0
 10
219.9616458817186
 20
136.1693269473253
 30
0.0
 10
219.9145128000386
 20
136.0468319413902
 30
0.0
 10
219.771679603514
 20
135.9048515320806
 30
0.0
 10
219.5959608787806
 20
135.8172855664382
 30
0.0
 10
219.4058478429228
 20
135.7890523762497
 30
0.0
 10
219.2867992156557
 20
135.8187151951242
 30
0.0
 10
219.2291870349038
 20
135.8330701668853
 30
0.0
  0
SPLINE
  5
84
330
1F
100
AcDbEntity
  8
0
  6
Continuous
 62
     7
370
    15
100
AcDbSpline
210
0.0
220
0.0
230
1.0
 70
     8
 71
     3
 72
    11
 73
     7
 74
     0
 42
0.00000001
 43
0.00000001
 12
1.0
 22
0.0
 32
0.0
 13
1.0
 23
0.0
 33
0.0
 40
0.0
 40
0.0
 40
0.0
 40
0.0
 40
0.2802336258137214
 40
0.5612839426564232
 40
0.8399893804359454
 40
1.0
 40
1.0
 40
1.0
 40
1.0
 10
219.2291870349038
 20
135.8330701668853
 30
0.0
 10
219.1923421253943
 20
135.8418743718145
 30
0.0
 10
219.1185449284439
 20
135.8595084399614
 30
0.0
 10
219.0047140576172
 20
135.8371515418868
 30
0.0
 10
218.9174891476001
 20
135.7896477848105
 30
0.0
 10
218.8768951246089
 20
135.7460711335802
 30
0.0
 10
218.8620894783128
 20
135.7301776488418
 30
0.0
  0
SPLINE
  5
85
330
1F
100
AcDbEntity
  8
0
  6
Continuous
 62
     7
370
    15
100
AcDbSpline
210
0.0
220
0.0
230
1.0
 70
     8
 71
     3
 72
    11
 73
     7
 74
     0
 42
0.00000001
 43
0.00000001
 12
1.0
 22
0.0
 32
0.0
 13
1.0
 23
0.0
 33
0.0
 40
0.0
 40
0.0
 40
0.0
 40
0.0
 40
0.2657614112732182
 40
0.55300197990294
 40
0.8418173051659779
 40
1.0
 40
1.0
 40
1.0
 40
1.0
 10
220.2614836030591
 20
136.4726708461637
 30
0.0
 10
220.22761644283
 20
136.4647593267581
 30
0.0
 10
220.1571449376907
 20
136.4482968694195
 30
0.0
 10
220.0673124904713
 20
136.3820522322219
 30
0.0
 10
220.0100491413885
 20
136.3043067648602
 30
0.0
 10
219.9916849519394
 20
136.2497964723574
 30
0.0
 10
219.9851862722028
 20
136.230506487667
 30
0.0
  0
SPLINE
  5
86
330
1F
100
AcDbEntity
  8
0
  6
Continuous
 62
     7
370
    15
100
AcDbSpline
210
0.0
220
0.0
230
1.0
 70
     8
 71
     3
 72
    11
 73
     7
 74
     0
 42
0.00000001
 43
0.00000001
 12
1.0
 22
0.0
 32
0.0
 13
1.0
 23
0.0
 33
0.0
 40
0.0
 40
0.0
 40
0.0
 40
0.0
 40
0.243107028035973
 40
0.5182768829996705
 40
0.7947749037966952
 40
1.0
 40
1.0
 40
1.0
 40
1.0
 10
221.6936453812707
 20
133.9423139770621
 30
0.0
 10
221.7049526402415
 20
133.9734843931429
 30
0.0
 10
221.729058446569
 20
134.0399362198081
 30
0.0
 10
221.7238381201391
 20
134.1496747786419
 30
0.0
 10
221.6885622745224
 20
134.2475521481014
 30
0.0
 10
221.6465959243389
 20
134.2969460706891
 30
0.0
 10
221.6287172966588
 20
134.3179890145654
 30
0.0
  0
SPLINE
  5
87
330
1F
100
AcDbEntity
  8
0
  6
Continuous
 62
     7
370
    15
100
AcDbSpline
210
0.0
220
0.0
230
1.0
 70
     8
 71
     3
 72
    12
 73
     8
 74
     0
 42
0.00000001
 43
0.00000001
 12
1.0
 22
0.0
 32
0.0
 13
1.0
 23
0.0
 33
0.0
 40
0.0
 40
0.0
 40
0.0
 40
0.0
 40
0.2058177307244582
 40
0.4120215671805672
 40
0.6140767203463043
 40
0.8132133242558595
 40
1.0
 40
1.0
 40
1.0
 40
1.0
 10
221.6287172966588
 20
134.3179890145654
 30
0.0
 10
221.587498510862
 20
134.368976373769
 30
0.0
 10
221.5049836144946
 20
134.4710467423982
 30
0.0
 10
221.4534438313304
 20
134.6657274095061
 30
0.0
 10
221.465471149919
 20
134.8616601369314
 30
0.0
 10
221.5360597757716
 20
135.0404200904132
 30
0.0
 10
221.6212810008038
 20
135.1286971611924
 30
0.0
 10
221.6625280314076
 20
135.1714232196206
 30
0.0
  0
SPLINE
  5
88
330
1F
100
AcDbEntity
  8
0
  6
Continuous
 62
     7
370
    15
100
AcDbSpline
210
0.0
220
0.0
230
1.0
 70
     8
 71
     3
 72
    11
 73
     7
 74
     0
 42
0.00000001
 43
0.00000001
 12
1.0
 22
0.0
 32
0.0
 13
1.0
 23
0.0
 33
0.0
 40
0.0
 40
0.0
 40
0.0
 40
0.0
 40
0.2908627374774575
 40
0.5839563262163671
 40
0.8745989373117721
 40
0.9999999999999999
 40
0.9999999999999999
 40
0.9999999999999999
 40
0.9999999999999999
 10
221.6625280314076
 20
135.1714232196206
 30
0.0
 10
221.6884605214799
 20
135.1987870988225
 30
0.0
 10
221.7405243979446
 20
135.2537247319768
 30
0.0
 10
221.7782545491667
 20
135.3632892468812
 30
0.0
 10
221.7805468594926
 20
135.4570072673119
 30
0.0
 10
221.7665880747893
 20
135.509246722254
 30
0.0
 10
221.7623807125676
 20
135.5249923844928
 30
0.0
  0
SPLINE
  5
89
330
1F
100
AcDbEntity
  8
0
  6
Continuous
 62
     7
370
    15
100
AcDbSpline
210
0.0
220
0.0
230
1.0
 70
     8
 71
     3
 72
    12
 73
     8
 74
     0
 42
0.00000001
 43
0.00000001
 12
1.0
 22
0.0
 32
0.0
 13
1.0
 23
0.0
 33
0.0
 40
0.0
 40
0.0
 40
0.0
 40
0.0
 40
0.2058583947842011
 40
0.4121021026001509
 40
0.6141924131876163
 40
0.8133167712244629
 40
1.0
 40
1.0
 40
1.0
 40
1.0
 10
218.8809953265775
 20
135.281615444004
 30
0.0
 10
218.9222191497112
 20
135.230619202145
 30
0.0
 10
219.0047439561851
 20
135.1285312668107
 30
0.0
 10
219.0562749371448
 20
134.93381825764
 30
0.0
 10
219.0442251624955
 20
134.7378631899516
 30
0.0
 10
218.9736139457281
 20
134.5591308350651
 30
0.0
 10
218.8884118733069
 20
134.4708812685765
 30
0.0
 10
218.8471845918286
 20
134.4281793763036
 30
0.0
  0
SPLINE
  5
8A
330
1F
100
AcDbEntity
  8
0
  6
Continuous
 62
     7
370
    15
100
AcDbSpline
210
0.0
220
0.0
230
1.0
 70
     8
 71
     3
 72
    11
 73
     7
 74
     0
 42
0.00000001
 43
0.00000001
 12
1.0
 22
0.0
 32
0.0
 13
1.0
 23
0.0
 33
0.0
 40
0.0
 40
0.0
 40
0.0
 40
0.0
 40
0.2524739299579616
 40
0.5068909285804694
 40
0.7591794479753498
 40
1.0
 40
1.0
 40
1.0
 40
1.0
 10
218.8471845918286
 20
134.4281793763036
 30
0.0
 10
218.821242462572
 20
134.4008090973915
 30
0.0
 10
218.7691585504214
 20
134.3458578947244
 30
0.0
 10
218.7315963976181
 20
134.2364216421215
 30
0.0
 10
218.7281657180023
 20
134.1221675507997
 30
0.0
 10
218.7564009846672
 20
134.0532879794641
 30
0.0
 10
218.77019029194
 20
134.019649141013
 30
0.0
  0
SPLINE
  5
8B
330
1F
100
AcDbEntity
  8
0
  6
Continuous
 62
     7
370
    15
100
AcDbSpline
210
0.0
220
0.0
230
1.0
 70
     8
 71
     3
 72
    11
 73
     7
 74
     0
 42
0.00000001
 43
0.00000001
 12
1.0
 22
0.0
 32
0.0
 13
1.0
 23
0.0
 33
0.0
 40
0.0
 40
0.0
 40
0.0
 40
0.0
 40
0.2423607932470405
 40
0.5166850235687886
 40
0.7923349015699873
 40
1.0
 40
1.0
 40
1.0
 40
1.0
 10
218.8165925078977
 20
135.6584211071128
 30
0.0
 10
218.8051680040294
 20
135.6272928249639
 30
0.0
 10
218.7808122905025
 20
135.5609309477795
 30
0.0
 10
218.7856341244182
 20
135.4511762177067
 30
0.0
 10
218.8206798435334
 20
135.3527577353145
 30
0.0
 10
218.8628682905328
 20
135.3029963368329
 30
0.0
 10
218.8809953265775
 20
135.281615444004
 30
0.0
  0
SPLINE
  5
8C
330
1F
100
AcDbEntity
  8
0
  6
Continuous
 62
     7
370
    15
100
AcDbSpline
210
0.0
220
0.0
230
1.0
 70
     8
 71
     3
 72
    12
 73
     8
 74
     0
 42
0.00000001
 43
0.00000001
 12
1.0
 22
0.0
 32
0.0
 13
1.0
 23
0.0
 33
0.0
 40
0.0
 40
0.0
 40
0.0
 40
0.0
 40
0.0091729907397747
 40
0.2576779145968592
 40
0.5061872860334292
 40
0.756035530363524
 40
0.9999999999999999
 40
0.9999999999999999
 40
0.9999999999999999
 40
0.9999999999999999
 10
220.1887808375943
 20
133.1239403416509
 30
0.0
 10
220.1901515100354
 20
133.1238927285865
 30
0.0
 10
220.2286549846618
 20
133.1225552329437
 30
0.0
 10
220.3053819214076
 20
133.1334584673364
 30
0.0
 10
220.405676656652
 20
133.1854860721645
 30
0.0
 10
220.4852717366647
 20
133.2663076060982
 30
0.0
 10
220.5115458314565
 20
133.3351065203826
 30
0.0
 10
220.5245263510335
 20
133.3690961082572
 30
0.0
  0
SPLINE
  5
8D
330
1F
100
AcDbEntity
  8
0
  6
Continuous
 62
     7
370
    15
100
AcDbSpline
210
0.0
220
0.0
230
1.0
 70
     8
 71
     3
 72
    12
 73
     8
 74
     0
 42
0.00000001
 43
0.00000001
 12
1.0
 22
0.0
 32
0.0
 13
1.0
 23
0.0
 33
0.0
 40
0.0
 40
0.0
 40
0.0
 40
0.0
 40
0.2057533248601675
 40
0.4119615222954858
 40
0.6140151209187609
 40
0.813141305789455
 40
1.0
 40
1.0
 40
1.0
 40
1.0
 10
220.5245263510335
 20
133.3690961082572
 30
0.0
 10
220.5480627125631
 20
133.4302678819923
 30
0.0
 10
220.5951874690239
 20
133.5527466659757
 30
0.0
 10
220.7379895257022
 20
133.6947190230864
 30
0.0
 10
220.9136739689652
 20
133.782289865914
 30
0.0
 10
221.1037959848825
 20
133.8105608701738
 30
0.0
 10
221.2228772800182
 20
133.7808955402879
 30
0.0
 10
221.2805255883325
 20
133.7665342916841
 30
0.0
  0
SPLINE
  5
8E
330
1F
100
AcDbEntity
  8
0
  6
Continuous
 62
     7
370
    15
100
AcDbSpline
210
0.0
220
0.0
230
1.0
 70
     8
 71
     3
 72
    11
 73
     7
 74
     0
 42
0.00000001
 43
0.00000001
 12
1.0
 22
0.0
 32
0.0
 13
1.0
 23
0.0
 33
0.0
 40
0.0
 40
0.0
 40
0.0
 40
0.0
 40
0.279408388015698
 40
0.5596242961124575
 40
0.8374997206870052
 40
0.9999999999999999
 40
0.9999999999999999
 40
0.9999999999999999
 40
0.9999999999999999
 10
221.2805255883325
 20
133.7665342916841
 30
0.0
 10
221.3173745205389
 20
133.7577295261039
 30
0.0
 10
221.3911788823013
 20
133.7400945482307
 30
0.0
 10
221.5050142330874
 20
133.7624588458009
 30
0.0
 10
221.5926159058997
 20
133.8101626205345
 30
0.0
 10
221.6333787246867
 20
133.8541533343125
 30
0.0
 10
221.6484203570474
 20
133.8703860719794
 30
0.0
  0
SPLINE
  5
8F
330
1F
100
AcDbEntity
  8
0
  6
Continuous
 62
     7
370
    15
100
AcDbSpline
210
0.0
220
0.0
230
1.0
 70
     8
 71
     3
 72
    12
 73
     8
 74
     0
 42
0.00000001
 43
0.00000001
 12
1.0
 22
0.0
 32
0.0
 13
1.0
 23
0.0
 33
0.0
 40
0.0
 40
0.0
 40
0.0
 40
0.0
 40
0.2058454436167274
 40
0.4120686000758951
 40
0.6141411956018903
 40
0.8132618898902277
 40
1.0
 40
1.0
 40
1.0
 40
1.0
 10
219.1506616407025
 20
133.8509083916539
 30
0.0
 10
219.2154347424834
 20
133.8611125112207
 30
0.0
 10
219.3450998004243
 20
133.8815394742422
 30
0.0
 10
219.5394812177878
 20
133.8288171173101
 30
0.0
 10
219.7031536035615
 20
133.7204218421192
 30
0.0
 10
219.8226485464594
 20
133.569907219943
 30
0.0
 10
219.8564806630195
 20
133.4519825475354
 30
0.0
 10
219.872853868543
 20
133.3949123700255
 30
0.0
  0
SPLINE
  5
90
330
1F
100
AcDbEntity
  8
0
  6
Continuous
 62
     7
370
    15
100
AcDbSpline
210
0.0
220
0.0
230
1.0
 70
     8
 71
     3
 72
    11
 73
     7
 74
     0
 42
0.00000001
 43
0.00000001
 12
1.0
 22
0.0
 32
0.0
 13
1.0
 23
0.0
 33
0.0
 40
0.0
 40
0.0
 40
0.0
 40
0.0
 40
0.2535066492419559
 40
0.5075671059544018
 40
0.7595035152105655
 40
0.9999999999999999
 40
0.9999999999999999
 40
0.9999999999999999
 40
0.9999999999999999
 10
219.872853868543
 20
133.3949123700255
 30
0.0
 10
219.8836643779279
 20
133.3585638480782
 30
0.0
 10
219.905309013202
 20
133.2857873976548
 30
0.0
 10
219.9816126733866
 20
133.1985231257862
 30
0.0
 10
220.0789543979608
 20
133.1386053297546
 30
0.0
 10
220.1527434328572
 20
133.1287523715548
 30
0.0
 10
220.1887808375944
 20
133.1239403416509
 30
0.0
  0
SPLINE
  5
91
330
1F
100
AcDbEntity
  8
0
  6
Continuous
 62
     7
370
    15
100
AcDbSpline
210
0.0
220
0.0
230
1.0
 70
     8
 71
     3
 72
    12
 73
     8
 74
     0
 42
0.00000001
 43
0.00000001
 12
1.0
 22
0.0
 32
0.0
 13
1.0
 23
0.0
 33
0.0
 40
0.0
 40
0.0
 40
0.0
 40
0.0
 40
0.0091671191619294
 40
0.2573295370153417
 40
0.5054928286174114
 40
0.7549970177160327
 40
1.0
 40
1.0
 40
1.0
 40
1.0
 10
218.7701902919401
 20
134.019649141013
 30
0.0
 10
218.7708321133792
 20
134.0184359254235
 30
0.0
 10
218.7888486364398
 20
133.9843798386143
 30
0.0
 10
218.836563178096
 20
133.9233061359323
 30
0.0
 10
218.9316438998927
 20
133.8622788519796
 30
0.0
 10
219.0415922337993
 20
133.8334992835184
 30
0.0
 10
219.1145264641471
 20
133.8451406771865
 30
0.0
 10
219.1506616407025
 20
133.8509083916539
 30
0.0
  0
CIRCLE
  5
92
330
1F
100
AcDbEntity
  8
0
  6
Continuous
 62
     7
370
    15
100
AcDbCircle
 10
220.2535221668
 20
134.7976889507
 30
0.0
 40
2.625000000000007
  0
ELLIPSE
  5
93
330
1F
100
AcDbEntity
  8
0
  6
Continuous
 62
     7
370
    15
100
AcDbEllipse
 10
194.9168346204
 20
124.1927605761
 30
0.0
 11
0.2087075081668388
 21
2.574926492787625
 31
0.0
210
0.0
220
0.0
230
1.0
 40
0.2355197223
 41
0.0
 42
6.283185307179586
  0
ELLIPSE
  5
94
330
1F
100
AcDbEntity
  8
0
  6
Continuous
 62
     7
370
    15
100
AcDbEllipse
 10
197.4333439139
 20
116.4486822863
 30
0.0
 11
0.0
 21
20.00000000000003
 31
0.0
210
0.0
220
0.0
230
1.0
 40
0.2679491924
 41
0.0146477619867433
 42
3.12694489160305
  0
SPLINE
  5
95
330
1F
100
AcDbEntity
  8
0
  6
Continuous
 62
     7
370
    15
100
AcDbSpline
210
0.0
220
0.0
230
1.0
 70
     8
 71
     3
 72
    12
 73
     8
 74
     0
 42
0.00000001
 43
0.00000001
 12
1.0
 22
0.0
 32
0.0
 13
1.0
 23
0.0
 33
0.0
 40
0.0
 40
0.0
 40
0.0
 40
0.0
 40
0.5000000000000053
 40
0.5000000000000053
 40
0.7500000000000027
 40
0.7500000000000027
 40
1.0
 40
1.0
 40
1.0
 40
1.0
 10
182.1858230524731
 20
122.5869274133805
 30
0.0
 10
182.2045162856035
 20
122.5193447769401
 30
0.0
 10
182.2301715830153
 20
122.4528622074627
 30
0.0
 10
182.2903322057018
 20
122.3638671245652
 30
0.0
 10
182.3144045174561
 20
122.335865227566
 30
0.0
 10
182.3727860378067
 20
122.2927888269008
 30
0.0
 10
182.4082548654597
 20
122.2778952819731
 30
0.0
 10
182.4456306736084
 20
122.2778952819731
 30
0.0
  0
LINE
  5
96
330
1F
100
AcDbEntity
  8
0
  6
Continuous
 62
     7
370
    15
100
AcDbLine
 10
182.445630581
 20
122.2778954734
 30
0.0
 11
184.5818265908
 21
122.2778954734
 31
0.0
  0
SPLINE
  5
97
330
1F
100
AcDbEntity
  8
0
  6
Continuous
 62
     7
370
    15
100
AcDbSpline
210
0.0
220
0.0
230
1.0
 70
     8
 71
     3
 72
    12
 73
     8
 74
     0
 42
0.00000001
 43
0.00000001
 12
1.0
 22
0.0
 32
0.0
 13
1.0
 23
0.0
 33
0.0
 40
0.0
 40
0.0
 40
0.0
 40
0.0
 40
0.25
 40
0.25
 40
0.5
 40
0.5
 40
1.0
 40
1.0
 40
1.0
 40
1.0
 10
184.5818266696101
 20
122.2778952819731
 30
0.0
 10
184.6193385556547
 20
122.2778952819731
 30
0.0
 10
184.6546259033594
 20
122.2927000962599
 30
0.0
 10
184.7135557515979
 20
122.3362919693857
 30
0.0
 10
184.7370814780669
 20
122.3638053954717
 30
0.0
 10
184.797340265835
 20
122.4529371275853
 30
0.0
 10
184.8229350281243
 20
122.5193229782031
 30
0.0
 10
184.8416342907454
 20
122.5869274133805
 30
0.0
  0
ELLIPSE
  5
98
330
1F
100
AcDbEntity
  8
0
  6
Continuous
 62
     7
370
    15
100
AcDbEllipse
 10
174.5647994992
 20
116.4486822863
 30
0.0
 11
9.367417879781724
 21
19.74174915274994
 31
0.0
210
0.0
220
0.0
230
1.0
 40
0.3419987131
 41
5.185211263708393
 42
6.132113578252552
  0
SPLINE
  5
99
330
1F
100
AcDbEntity
  8
0
  6
Continuous
 62
     7
370
    15
100
AcDbSpline
210
0.0
220
0.0
230
1.0
 70
     8
 71
     3
 72
    12
 73
     8
 74
     0
 42
0.00000001
 43
0.00000001
 12
1.0
 22
0.0
 32
0.0
 13
1.0
 23
0.0
 33
0.0
 40
0.0
 40
0.0
 40
0.0
 40
0.0
 40
0.4999999999999947
 40
0.4999999999999947
 40
0.7499999999999973
 40
0.7499999999999973
 40
1.0
 40
1.0
 40
1.0
 40
1.0
 10
184.8416342907454
 20
135.4834385695034
 30
0.0
 10
184.8229410576149
 20
135.5052323231314
 30
0.0
 10
184.7972857602032
 20
135.526252484841
 30
0.0
 10
184.7371251375167
 20
135.5539578308047
 30
0.0
 10
184.7130528257623
 20
135.5625930469981
 30
0.0
 10
184.6546713054118
 20
135.5758076922247
 30
0.0
 10
184.6192024777588
 20
135.5803386665549
 30
0.0
 10
184.5818266696101
 20
135.5803386665549
 30
0.0
  0
LINE
  5
9A
330
1F
100
AcDbEntity
  8
0
  6
Continuous
 62
     7
370
    15
100
AcDbLine
 10
184.5818265908
 20
135.5803390225
 30
0.0
 11
182.445630581
 21
135.5803390225
 31
0.0
  0
SPLINE
  5
9B
330
1F
100
AcDbEntity
  8
0
  6
Continuous
 62
     7
370
    15
100
AcDbSpline
210
0.0
220
0.0
230
1.0
 70
     8
 71
     3
 72
    12
 73
     8
 74
     0
 42
0.00000001
 43
0.00000001
 12
1.0
 22
0.0
 32
0.0
 13
1.0
 23
0.0
 33
0.0
 40
0.0
 40
0.0
 40
0.0
 40
0.0
 40
0.249999999999998
 40
0.249999999999998
 40
0.499999999999996
 40
0.499999999999996
 40
1.0
 40
1.0
 40
1.0
 40
1.0
 10
182.4456306736084
 20
135.5803386665549
 30
0.0
 10
182.4081187875638
 20
135.5803386665549
 30
0.0
 10
182.3728314398591
 20
135.5758351222923
 30
0.0
 10
182.3139015916206
 20
135.562461922839
 30
0.0
 10
182.2903758651516
 20
135.5539770202679
 30
0.0
 10
182.2301170773835
 20
135.5262292164333
 30
0.0
 10
182.2045223150942
 20
135.5052393526929
 30
0.0
 10
182.1858230524731
 20
135.4834385695034
 30
0.0
  0
ELLIPSE
  5
9C
330
1F
100
AcDbEntity
  8
0
  6
Continuous
 62
     7
370
    15
100
AcDbEllipse
 10
192.462657844
 20
116.4486822863
 30
0.0
 11
-9.367417879781586
 21
19.74174915274995
 31
0.0
210
0.0
220
0.0
230
1.0
 40
0.3419987131
 41
0.1510717289270785
 42
1.097974043471209
  0
SPLINE
  5
9D
330
1F
100
AcDbEntity
  8
0
  6
Continuous
 62
     7
370
    15
100
AcDbSpline
210
0.0
220
0.0
230
1.0
 70
     8
 71
     3
 72
    12
 73
     8
 74
     0
 42
0.00000001
 43
0.00000001
 12
1.0
 22
0.0
 32
0.0
 13
1.0
 23
0.0
 33
0.0
 40
0.0
 40
0.0
 40
0.0
 40
0.0
 40
0.500000000000001
 40
0.500000000000001
 40
0.7500000000000004
 40
0.7500000000000004
 40
1.0
 40
1.0
 40
1.0
 40
1.0
 10
182.1858230524731
 20
97.4139260031396
 30
0.0
 10
182.2046262853248
 20
97.39200400487852
 30
0.0
 10
182.230162944344
 20
97.37111019686859
 30
0.0
 10
182.2903891182924
 20
97.34338347075082
 30
0.0
 10
182.3143151956924
 20
97.33481033737536
 30
0.0
 10
182.3723761158737
 20
97.32163123156784
 30
0.0
 10
182.4081778144997
 20
97.31702590608816
 30
0.0
 10
182.4456306736084
 20
97.31702590608815
 30
0.0
  0
LINE
  5
9E
330
1F
100
AcDbEntity
  8
0
  6
Continuous
 62
     7
370
    15
100
AcDbLine
 10
182.445630581
 20
97.3170255502
 30
0.0
 11
184.5818265908
 21
97.3170255502
 31
0.0
  0
SPLINE
  5
9F
330
1F
100
AcDbEntity
  8
0
  6
Continuous
 62
     7
370
    15
100
AcDbSpline
210
0.0
220
0.0
230
1.0
 70
     8
 71
     3
 72
    12
 73
     8
 74
     0
 42
0.00000001
 43
0.00000001
 12
1.0
 22
0.0
 32
0.0
 13
1.0
 23
0.0
 33
0.0
 40
0.0
 40
0.0
 40
0.0
 40
0.0
 40
0.25
 40
0.25
 40
0.5
 40
0.5
 40
1.0
 40
1.0
 40
1.0
 40
1.0
 10
184.5818266696101
 20
97.31702590608813
 30
0.0
 10
184.6193274924878
 20
97.31702590608813
 30
0.0
 10
184.6546058965238
 20
97.32152687395129
 30
0.0
 10
184.7135236165762
 20
97.33489339516859
 30
0.0
 10
184.7370469979746
 20
97.34337465541347
 30
0.0
 10
184.7973025824405
 20
97.37111205109137
 30
0.0
 10
184.8228242348516
 20
97.39199605014443
 30
0.0
 10
184.8416342907454
 20
97.41392600313958
 30
0.0
  0
ELLIPSE
  5
A0
330
1F
100
AcDbEntity
  8
0
  6
Continuous
 62
     7
370
    15
100
AcDbEllipse
 10
174.5647994992
 20
116.4486822863
 30
0.0
 11
-9.367417879781783
 21
19.74174915274995
 31
0.0
210
0.0
220
0.0
230
1.0
 40
0.3419987131
 41
3.292664382516898
 42
4.239566697061001
  0
SPLINE
  5
A1
330
1F
100
AcDbEntity
  8
0
  6
Continuous
 62
     7
370
    15
100
AcDbSpline
210
0.0
220
0.0
230
1.0
 70
     8
 71
     3
 72
    12
 73
     8
 74
     0
 42
0.00000001
 43
0.00000001
 12
1.0
 22
0.0
 32
0.0
 13
1.0
 23
0.0
 33
0.0
 40
0.0
 40
0.0
 40
0.0
 40
0.0
 40
0.4999999999999969
 40
0.4999999999999969
 40
0.7499999999999984
 40
0.7499999999999984
 40
1.0
 40
1.0
 40
1.0
 40
1.0
 10
184.8416342907454
 20
110.3104371592624
 30
0.0
 10
184.8228310578937
 20
110.3784174835248
 30
0.0
 10
184.7972943988745
 20
110.4445078713216
 30
0.0
 10
184.737068224926
 20
110.5335724837688
 30
0.0
 10
184.7131421475261
 20
110.5613735707887
 30
0.0
 10
184.6550812273448
 20
110.6043326440136
 30
0.0
 10
184.6192795287188
 20
110.6194692906698
 30
0.0
 10
184.5818266696101
 20
110.6194692906698
 30
0.0
  0
LINE
  5
A2
330
1F
100
AcDbEntity
  8
0
  6
Continuous
 62
     7
370
    15
100
AcDbLine
 10
184.5818265908
 20
110.6194690992
 30
0.0
 11
182.445630581
 21
110.6194690992
 31
0.0
  0
SPLINE
  5
A3
330
1F
100
AcDbEntity
  8
0
  6
Continuous
 62
     7
370
    15
100
AcDbSpline
210
0.0
220
0.0
230
1.0
 70
     8
 71
     3
 72
    12
 73
     8
 74
     0
 42
0.00000001
 43
0.00000001
 12
1.0
 22
0.0
 32
0.0
 13
1.0
 23
0.0
 33
0.0
 40
0.0
 40
0.0
 40
0.0
 40
0.0
 40
0.2499999999999997
 40
0.2499999999999997
 40
0.4999999999999993
 40
0.4999999999999993
 40
1.0
 40
1.0
 40
1.0
 40
1.0
 10
182.4456306736084
 20
110.6194692906698
 30
0.0
 10
182.4081298507307
 20
110.6194692906698
 30
0.0
 10
182.3728514466947
 20
110.6046729529167
 30
0.0
 10
182.3139337266423
 20
110.5611026917576
 30
0.0
 10
182.2904103452439
 20
110.533600893256
 30
0.0
 10
182.230154760778
 20
110.444501730013
 30
0.0
 10
182.2046331083669
 20
110.3784421512306
 30
0.0
 10
182.1858230524731
 20
110.3104371592624
 30
0.0
  0
ELLIPSE
  5
A4
330
1F
100
AcDbEntity
  8
0
  6
Continuous
 62
     7
370
    15
100
AcDbEllipse
 10
192.462657844
 20
116.4486822863
 30
0.0
 11
9.367417879781641
 21
19.74174915274995
 31
0.0
210
0.0
220
0.0
230
1.0
 40
0.3419987131
 41
2.043618610118596
 42
2.990520924662723
  0
SPLINE
  5
A5
330
1F
100
AcDbEntity
  8
0
  6
Continuous
 62
     7
370
    15
100
AcDbSpline
210
0.0
220
0.0
230
1.0
 70
     8
 71
     3
 72
     8
 73
     4
 74
     0
 42
0.00000001
 43
0.00000001
 12
1.0
 22
0.0
 32
0.0
 13
1.0
 23
0.0
 33
0.0
 40
0.0
 40
0.0
 40
0.0
 40
0.0
 40
1.0
 40
1.0
 40
1.0
 40
1.0
 10
197.3548496009611
 20
136.4465367553713
 30
0.0
 10
197.411373453996
 20
136.4496269201797
 30
0.0
 10
197.5543801152484
 20
136.4487066754117
 30
0.0
 10
197.7464016836302
 20
136.4476485220826
 30
0.0
  0
SPLINE
  5
A6
330
1F
100
AcDbEntity
  8
0
  6
Continuous
 62
     7
370
    15
100
AcDbSpline
210
0.0
220
0.0
230
1.0
 70
     8
 71
     3
 72
     8
 73
     4
 74
     0
 42
0.00000001
 43
0.00000001
 12
1.0
 22
0.0
 32
0.0
 13
1.0
 23
0.0
 33
0.0
 40
0.0
 40
0.0
 40
0.0
 40
0.0
 40
1.0
 40
1.0
 40
1.0
 40
1.0
 10
197.7464016836303
 20
96.44971605056051
 30
0.0
 10
197.5543792393802
 20
96.44865789240487
 30
0.0
 10
197.411373718348
 20
96.4477376380112
 30
0.0
 10
197.3548496009611
 20
96.45082781727181
 30
0.0
  0
LINE
  5
A7
330
1F
100
AcDbEntity
  8
0
  6
Continuous
 62
     7
370
    15
100
AcDbLine
 10
175.5137286716
 20
96.7486822237
 30
0.0
 11
175.5137286716
 21
136.1486823489
 31
0.0
  0
SPLINE
  5
A8
330
1F
100
AcDbEntity
  8
0
  6
Continuous
 62
     7
370
    15
100
AcDbSpline
210
0.0
220
0.0
230
1.0
 70
     8
 71
     3
 72
    18
 73
    14
 74
     0
 42
0.00000001
 43
0.00000001
 12
1.0
 22
0.0
 32
0.0
 13
1.0
 23
0.0
 33
0.0
 40
0.0
 40
0.0
 40
0.0
 40
0.0
 40
0.2500000000000003
 40
0.2500000000000003
 40
0.5000000000000007
 40
0.5000000000000007
 40
0.6250000000000004
 40
0.6250000000000004
 40
0.7500000000000003
 40
0.7500000000000003
 40
0.8750000000000001
 40
0.8750000000000001
 40
1.0
 40
1.0
 40
1.0
 40
1.0
 10
174.2576443540452
 20
102.6174939036427
 30
0.0
 10
174.291941173497
 20
102.6166322481608
 30
0.0
 10
174.3297524534742
 20
102.6168838512558
 30
0.0
 10
174.4163248206542
 20
102.6192823638676
 30
0.0
 10
174.4646639507371
 20
102.6214533485995
 30
0.0
 10
174.5539363080595
 20
102.6255482268948
 30
0.0
 10
174.5864777738355
 20
102.6270528448444
 30
0.0
 10
174.6626539736889
 20
102.6300159028125
 30
0.0
 10
174.7058700336835
 20
102.6315032410683
 30
0.0
 10
174.8115593356494
 20
102.633128652392
 30
0.0
 10
174.876530394364
 20
102.6330864113181
 30
0.0
 10
175.0101907827218
 20
102.629064237997
 30
0.0
 10
175.069497236058
 20
102.6255230111736
 30
0.0
 10
175.1187517827339
 20
102.6219563037375
 30
0.0
  0
SPLINE
  5
A9
330
1F
100
AcDbEntity
  8
0
  6
Continuous
 62
     7
370
    15
100
AcDbSpline
210
0.0
220
0.0
230
1.0
 70
     8
 71
     3
 72
    14
 73
    10
 74
     0
 42
0.00000001
 43
0.00000001
 12
1.0
 22
0.0
 32
0.0
 13
1.0
 23
0.0
 33
0.0
 40
0.0
 40
0.0
 40
0.0
 40
0.0
 40
0.1250000000000007
 40
0.1250000000000007
 40
0.2500000000000014
 40
0.2500000000000014
 40
0.5000000000000012
 40
0.5000000000000012
 40
1.0
 40
1.0
 40
1.0
 40
1.0
 10
175.1187517827031
 20
102.6219563037564
 30
0.0
 10
175.1302785604205
 20
102.6211216063224
 30
0.0
 10
175.143631368073
 20
102.6193811920422
 30
0.0
 10
175.1737739406732
 20
102.6121336020419
 30
0.0
 10
175.1888344662877
 20
102.606786567814
 30
0.0
 10
175.224180820216
 20
102.5910392975855
 30
0.0
 10
175.237912919945
 20
102.5812010234242
 30
0.0
 10
175.271284165636
 20
102.5549970374737
 30
0.0
 10
175.28222453349
 20
102.5409091360731
 30
0.0
 10
175.2908776585033
 20
102.5281355125848
 30
0.0
  0
LINE
  5
AA
330
1F
100
AcDbEntity
  8
0
  6
Continuous
 62
     7
370
    15
100
AcDbLine
 10
175.3137286767
 20
110.9432373387
 30
0.0
 11
175.3137286767
 21
102.3588623111
 31
0.0
  0
SPLINE
  5
AB
330
1F
100
AcDbEntity
  8
0
  6
Continuous
 62
     7
370
    15
100
AcDbSpline
210
0.0
220
0.0
230
1.0
 70
     8
 71
     3
 72
    16
 73
    12
 74
     0
 42
0.00000001
 43
0.00000001
 12
1.0
 22
0.0
 32
0.0
 13
1.0
 23
0.0
 33
0.0
 40
0.0
 40
0.0
 40
0.0
 40
0.0
 40
0.4999999999999997
 40
0.4999999999999997
 40
0.7499999999999996
 40
0.7499999999999996
 40
0.8749999999999988
 40
0.8749999999999988
 40
0.9374999999999993
 40
0.9374999999999993
 40
1.0
 40
1.0
 40
1.0
 40
1.0
 10
175.3137286716092
 20
110.9432375193587
 30
0.0
 10
175.3137286716092
 20
111.0608129003782
 30
0.0
 10
175.3098452464503
 20
111.1795086534794
 30
0.0
 10
175.2850299211756
 20
111.3602661314719
 30
0.0
 10
175.2741904734632
 20
111.4219102082448
 30
0.0
 10
175.2409746914143
 20
111.5112471825861
 30
0.0
 10
175.2275929477855
 20
111.5415067140112
 30
0.0
 10
175.1920832979233
 20
111.5750229579987
 30
0.0
 10
175.1766663314225
 20
111.5831613038048
 30
0.0
 10
175.1449653092739
 20
111.5831458943734
 30
0.0
 10
175.1308190243231
 20
111.5761036570175
 30
0.0
 10
175.1187517827335
 20
111.5669625934079
 30
0.0
  0
SPLINE
  5
AC
330
1F
100
AcDbEntity
  8
0
  6
Continuous
 62
     7
370
    15
100
AcDbSpline
210
0.0
220
0.0
230
1.0
 70
     8
 71
     3
 72
    18
 73
    14
 74
     0
 42
0.00000001
 43
0.00000001
 12
1.0
 22
0.0
 32
0.0
 13
1.0
 23
0.0
 33
0.0
 40
0.0
 40
0.0
 40
0.0
 40
0.0
 40
0.1249999999999993
 40
0.1249999999999993
 40
0.2499999999999987
 40
0.2499999999999987
 40
0.374999999999998
 40
0.374999999999998
 40
0.4999999999999973
 40
0.4999999999999973
 40
0.7499999999999987
 40
0.7499999999999987
 40
1.0
 40
1.0
 40
1.0
 40
1.0
 10
175.1187517827397
 20
111.5669625934007
 30
0.0
 10
175.0700471990517
 20
111.5300683542101
 30
0.0
 10
175.0115387162761
 20
111.5005370497842
 30
0.0
 10
174.8798119010063
 20
111.4913010765053
 30
0.0
 10
174.8150538295088
 20
111.5143642510623
 30
0.0
 10
174.7098432273581
 20
111.5818823727097
 30
0.0
 10
174.666627078838
 20
111.6248934693603
 30
0.0
 10
174.5904487627541
 20
111.7151354913564
 30
0.0
 10
174.5575939304628
 20
111.7627663728317
 30
0.0
 10
174.4672260245019
 20
111.9098306721812
 30
0.0
 10
174.4178033666623
 20
112.0137439974858
 30
0.0
 10
174.3301522410707
 20
112.2248779611261
 30
0.0
 10
174.2920906936802
 20
112.3326007058849
 30
0.0
 10
174.2576443540462
 20
112.4419338217943
 30
0.0
  0
SPLINE
  5
AD
330
1F
100
AcDbEntity
  8
0
  6
Continuous
 62
     7
370
    15
100
AcDbSpline
210
0.0
220
0.0
230
1.0
 70
     8
 71
     3
 72
     8
 73
     4
 74
     0
 42
0.00000001
 43
0.00000001
 12
1.0
 22
0.0
 32
0.0
 13
1.0
 23
0.0
 33
0.0
 40
0.0
 40
0.0
 40
0.0
 40
0.0
 40
1.0
 40
1.0
 40
1.0
 40
1.0
 10
174.1924083280495
 20
112.6771375959231
 30
0.0
 10
174.2118345333484
 20
112.5975453243504
 30
0.0
 10
174.2333313577769
 20
112.5191035782176
 30
0.0
 10
174.2576443540462
 20
112.4419338217943
 30
0.0
  0
SPLINE
  5
AE
330
1F
100
AcDbEntity
  8
0
  6
Continuous
 62
     7
370
    15
100
AcDbSpline
210
0.0
220
0.0
230
1.0
 70
     8
 71
     3
 72
     8
 73
     4
 74
     0
 42
0.00000001
 43
0.00000001
 12
1.0
 22
0.0
 32
0.0
 13
1.0
 23
0.0
 33
0.0
 40
0.0
 40
0.0
 40
0.0
 40
0.0
 40
1.0
 40
1.0
 40
1.0
 40
1.0
 10
174.2576443540462
 20
120.4554307508488
 30
0.0
 10
174.2333313577769
 20
120.3782609944255
 30
0.0
 10
174.2118345333484
 20
120.2998192482927
 30
0.0
 10
174.1924083280495
 20
120.22022697672
 30
0.0
  0
SPLINE
  5
AF
330
1F
100
AcDbEntity
  8
0
  6
Continuous
 62
     7
370
    15
100
AcDbSpline
210
0.0
220
0.0
230
1.0
 70
     8
 71
     3
 72
    18
 73
    14
 74
     0
 42
0.00000001
 43
0.00000001
 12
1.0
 22
0.0
 32
0.0
 13
1.0
 23
0.0
 33
0.0
 40
0.0
 40
0.0
 40
0.0
 40
0.0
 40
0.2500000000000001
 40
0.2500000000000001
 40
0.5000000000000002
 40
0.5000000000000002
 40
0.6250000000000001
 40
0.6250000000000001
 40
0.7500000000000001
 40
0.7500000000000001
 40
0.875
 40
0.875
 40
1.0
 40
1.0
 40
1.0
 40
1.0
 10
174.2576443540462
 20
120.4554307508488
 30
0.0
 10
174.2919426730589
 20
120.5642940474418
 30
0.0
 10
174.3297570703708
 20
120.6713014706781
 30
0.0
 10
174.4163451314444
 20
120.8803362948165
 30
0.0
 10
174.4646952371231
 20
120.982506388806
 30
0.0
 10
174.5540118259229
 20
121.1291871603707
 30
0.0
 10
174.5865721814112
 20
121.1769888589063
 30
0.0
 10
174.6628178151401
 20
121.2685443969316
 30
0.0
 10
174.7059771849201
 20
121.3122237889236
 30
0.0
 10
174.8117060089382
 20
121.3815780062502
 30
0.0
 10
174.8767031859929
 20
121.4056943199161
 30
0.0
 10
175.0101876759471
 20
121.3974900978779
 30
0.0
 10
175.0695150693926
 20
121.3676993122859
 30
0.0
 10
175.1187517827339
 20
121.3304019792349
 30
0.0
  0
SPLINE
  5
B0
330
1F
100
AcDbEntity
  8
0
  6
Continuous
 62
     7
370
    15
100
AcDbSpline
210
0.0
220
0.0
230
1.0
 70
     8
 71
     3
 72
    16
 73
    12
 74
     0
 42
0.00000001
 43
0.00000001
 12
1.0
 22
0.0
 32
0.0
 13
1.0
 23
0.0
 33
0.0
 40
0.0
 40
0.0
 40
0.0
 40
0.0
 40
0.0625000000000001
 40
0.0625000000000001
 40
0.1250000000000003
 40
0.1250000000000003
 40
0.2500000000000006
 40
0.2500000000000006
 40
0.5000000000000011
 40
0.5000000000000011
 40
1.0
 40
1.0
 40
1.0
 40
1.0
 10
175.1187517827032
 20
121.3304019791865
 30
0.0
 10
175.130821615979
 20
121.3212589523407
 30
0.0
 10
175.1450972709123
 20
121.3142145046494
 30
0.0
 10
175.1765616830367
 20
121.3142074327508
 30
0.0
 10
175.1920622078471
 20
121.3223354015478
 30
0.0
 10
175.227501104454
 20
121.355743862555
 30
0.0
 10
175.2410937205574
 20
121.3864110290172
 30
0.0
 10
175.2740880389502
 20
121.475232023099
 30
0.0
 10
175.284875432269
 20
121.5361346686468
 30
0.0
 10
175.3099286795481
 20
121.7181427460252
 30
0.0
 10
175.3137286716093
 20
121.8368314610638
 30
0.0
 10
175.3137286716094
 20
121.9541270532844
 30
0.0
  0
LINE
  5
B1
330
1F
100
AcDbEntity
  8
0
  6
Continuous
 62
     7
370
    15
100
AcDbLine
 10
175.3137286767
 20
130.5385022615
 30
0.0
 11
175.3137286767
 21
121.954127234
 31
0.0
  0
SPLINE
  5
B2
330
1F
100
AcDbEntity
  8
0
  6
Continuous
 62
     7
370
    15
100
AcDbSpline
210
0.0
220
0.0
230
1.0
 70
     8
 71
     3
 72
    16
 73
    12
 74
     0
 42
0.00000001
 43
0.00000001
 12
1.0
 22
0.0
 32
0.0
 13
1.0
 23
0.0
 33
0.0
 40
0.0
 40
0.0
 40
0.0
 40
0.0
 40
0.5
 40
0.5
 40
0.75
 40
0.75
 40
0.875
 40
0.875
 40
0.9375
 40
0.9375
 40
1.0
 40
1.0
 40
1.0
 40
1.0
 10
175.3137286716092
 20
130.4334941929817
 30
0.0
 10
175.3137286716092
 20
130.4179289655422
 30
0.0
 10
175.3098452464503
 20
130.3987575876943
 30
0.0
 10
175.2850299211756
 20
130.3599852057124
 30
0.0
 10
175.2741904734631
 20
130.3453344295099
 30
0.0
 10
175.2409746914143
 20
130.3182901855303
 30
0.0
 10
175.2275929477855
 20
130.3083120863902
 30
0.0
 10
175.1920832979233
 20
130.2918375506032
 30
0.0
 10
175.1766663314225
 20
130.2860854598133
 30
0.0
 10
175.1449653092739
 20
130.2781649393866
 30
0.0
 10
175.1308190243232
 20
130.2762821033679
 30
0.0
 10
175.1187517827335
 20
130.2754082689056
 30
0.0
  0
SPLINE
  5
B3
330
1F
100
AcDbEntity
  8
0
  6
Continuous
 62
     7
370
    15
100
AcDbSpline
210
0.0
220
0.0
230
1.0
 70
     8
 71
     3
 72
    18
 73
    14
 74
     0
 42
0.00000001
 43
0.00000001
 12
1.0
 22
0.0
 32
0.0
 13
1.0
 23
0.0
 33
0.0
 40
0.0
 40
0.0
 40
0.0
 40
0.0
 40
0.1249999999999998
 40
0.1249999999999998
 40
0.2499999999999997
 40
0.2499999999999997
 40
0.3749999999999995
 40
0.3749999999999995
 40
0.4999999999999993
 40
0.4999999999999993
 40
0.7499999999999997
 40
0.7499999999999997
 40
1.0
 40
1.0
 40
1.0
 40
1.0
 10
175.1187517827397
 20
130.2754082689054
 30
0.0
 10
175.0700476537229
 20
130.2718814192873
 30
0.0
 10
175.0115399845184
 20
130.2683811460896
 30
0.0
 10
174.8798143218875
 20
130.2643381622017
 30
0.0
 10
174.8150566832672
 20
130.2642265875711
 30
0.0
 10
174.7098462666481
 20
130.2657587723326
 30
0.0
 10
174.6666302317079
 20
130.2672139245477
 30
0.0
 10
174.5904520102269
 20
130.2701391860774
 30
0.0
 10
174.5575972425428
 20
130.2716495165856
 30
0.0
 10
174.467229523701
 20
130.275791509274
 30
0.0
 10
174.4178071545116
 20
130.2780295942605
 30
0.0
 10
174.3301546924235
 20
130.280480877307
 30
0.0
 10
174.2920919561891
 20
130.280736112668
 30
0.0
 10
174.2576443540458
 20
130.2798706690001
 30
0.0
  0
SPLINE
  5
B4
330
1F
100
AcDbEntity
  8
0
  6
Continuous
 62
     7
370
    15
100
AcDbSpline
210
0.0
220
0.0
230
1.0
 70
     8
 71
     3
 72
     8
 73
     4
 74
     0
 42
0.00000001
 43
0.00000001
 12
1.0
 22
0.0
 32
0.0
 13
1.0
 23
0.0
 33
0.0
 40
0.0
 40
0.0
 40
0.0
 40
0.0
 40
1.0
 40
1.0
 40
1.0
 40
1.0
 10
174.0186886936699
 20
113.5021914819578
 30
0.0
 10
174.0694157763923
 20
113.2188403606386
 30
0.0
 10
174.1273030893794
 20
112.9438841764988
 30
0.0
 10
174.1924083280496
 20
112.6771375959232
 30
0.0
  0
SPLINE
  5
B5
330
1F
100
AcDbEntity
  8
0
  6
Continuous
 62
     7
370
    15
100
AcDbSpline
210
0.0
220
0.0
230
1.0
 70
     8
 71
     3
 72
    24
 73
    20
 74
     0
 42
0.00000001
 43
0.00000001
 12
1.0
 22
0.0
 32
0.0
 13
1.0
 23
0.0
 33
0.0
 40
0.0
 40
0.0
 40
0.0
 40
0.0
 40
0.2499999999999905
 40
0.2499999999999905
 40
0.3749999999999863
 40
0.3749999999999863
 40
0.4374999999999836
 40
0.4374999999999836
 40
0.4687499999999828
 40
0.4687499999999828
 40
0.4999999999999821
 40
0.4999999999999821
 40
0.5624999999999836
 40
0.5624999999999836
 40
0.6249999999999849
 40
0.6249999999999849
 40
0.7499999999999896
 40
0.7499999999999896
 40
1.0
 40
1.0
 40
1.0
 40
1.0
 10
173.813728671601
 20
113.502483890251
 30
0.0
 10
173.8141317009749
 20
113.5957521828806
 30
0.0
 10
173.81616144069
 20
113.6895097417296
 30
0.0
 10
173.8254701521097
 20
113.8310996273691
 30
0.0
 10
173.8293961452243
 20
113.8782800459783
 30
0.0
 10
173.8403255051403
 20
113.9488760926637
 30
0.0
 10
173.8444471332347
 20
113.9726560064285
 30
0.0
 10
173.856341654417
 20
114.0061071534757
 30
0.0
 10
173.8616284663708
 20
114.0182621055453
 30
0.0
 10
173.8781963978857
 20
114.0261447445135
 30
0.0
 10
173.8861231066531
 20
114.0185811454115
 30
0.0
 10
173.9031154448782
 20
113.9947887141848
 30
0.0
 10
173.9105131456692
 20
113.9746002363402
 30
0.0
 10
173.924615536011
 20
113.9341506117205
 30
0.0
 10
173.9307686933033
 20
113.913294937323
 30
0.0
 10
173.9480824267644
 20
113.8501699020219
 30
0.0
 10
173.9580874676529
 20
113.8071907901204
 30
0.0
 10
173.9864439238837
 20
113.6774651458315
 30
0.0
 10
174.00299246323
 20
113.5898674186955
 30
0.0
 10
174.01868869367
 20
113.5021914819578
 30
0.0
  0
SPLINE
  5
B6
330
1F
100
AcDbEntity
  8
0
  6
Continuous
 62
     7
370
    15
100
AcDbSpline
210
0.0
220
0.0
230
1.0
 70
     8
 71
     3
 72
    16
 73
    12
 74
     0
 42
0.00000001
 43
0.00000001
 12
1.0
 22
0.0
 32
0.0
 13
1.0
 23
0.0
 33
0.0
 40
0.0
 40
0.0
 40
0.0
 40
0.0
 40
0.2500000000000001
 40
0.2500000000000001
 40
0.3750000000000001
 40
0.3750000000000001
 40
0.5000000000000001
 40
0.5000000000000001
 40
0.7500000000000001
 40
0.7500000000000001
 40
1.0
 40
1.0
 40
1.0
 40
1.0
 10
173.8137286716092
 20
119.3948806823908
 30
0.0
 10
173.7331918622137
 20
118.9258078555277
 30
0.0
 10
173.6731544534115
 20
118.4454442053478
 30
0.0
 10
173.6124165061643
 20
117.7082599262069
 30
0.0
 10
173.5970940251214
 20
117.4597415229798
 30
0.0
 10
173.5765110733435
 20
116.9569580777661
 30
0.0
 10
173.5713115263069
 20
116.7020995247414
 30
0.0
 10
173.5712578157667
 20
115.9458221850207
 30
0.0
 10
173.5914551530358
 20
115.4471639857109
 30
0.0
 10
173.6721334601088
 20
114.4607410149667
 30
0.0
 10
173.73317980845
 20
113.9716269221937
 30
0.0
 10
173.8137286716093
 20
113.5024838902523
 30
0.0
  0
SPLINE
  5
B7
330
1F
100
AcDbEntity
  8
0
  6
Continuous
 62
     7
370
    15
100
AcDbSpline
210
0.0
220
0.0
230
1.0
 70
     8
 71
     3
 72
    24
 73
    20
 74
     0
 42
0.00000001
 43
0.00000001
 12
1.0
 22
0.0
 32
0.0
 13
1.0
 23
0.0
 33
0.0
 40
0.0
 40
0.0
 40
0.0
 40
0.0
 40
0.2500000000000024
 40
0.2500000000000024
 40
0.3750000000000037
 40
0.3750000000000037
 40
0.4375000000000039
 40
0.4375000000000039
 40
0.5000000000000041
 40
0.5000000000000041
 40
0.531250000000004
 40
0.531250000000004
 40
0.5625000000000038
 40
0.5625000000000038
 40
0.6250000000000032
 40
0.6250000000000032
 40
0.750000000000002
 40
0.750000000000002
 40
1.0
 40
1.0
 40
1.0
 40
1.0
 10
174.018688693665
 20
119.3951730906572
 30
0.0
 10
174.0029196487555
 20
119.3070904271686
 30
0.0
 10
173.9863054841951
 20
119.2191456106616
 30
0.0
 10
173.9577733567018
 20
119.0887982434023
 30
0.0
 10
173.9476857231479
 20
119.0455370656014
 30
0.0
 10
173.9301979002987
 20
118.9821012897681
 30
0.0
 10
173.9239880923723
 20
118.961187166225
 30
0.0
 10
173.9097102327894
 20
118.9207123745418
 30
0.0
 10
173.9021390704375
 20
118.9002347310829
 30
0.0
 10
173.8847192452601
 20
118.8773883515514
 30
0.0
 10
173.8762351628021
 20
118.870836554515
 30
0.0
 10
173.8601990891891
 20
118.8814079297558
 30
0.0
 10
173.8553787169134
 20
118.8934989700389
 30
0.0
 10
173.8439718163104
 20
118.9271422132586
 30
0.0
 10
173.8399508546013
 20
118.9505498925548
 30
0.0
 10
173.8291968428232
 20
119.0211384956142
 30
0.0
 10
173.8253249572008
 20
119.0681035231353
 30
0.0
 10
173.8161569924005
 20
119.2086803877377
 30
0.0
 10
173.8141286578874
 20
119.3023166173547
 30
0.0
 10
173.8137286716093
 20
119.3948806823908
 30
0.0
  0
SPLINE
  5
B8
330
1F
100
AcDbEntity
  8
0
  6
Continuous
 62
     7
370
    15
100
AcDbSpline
210
0.0
220
0.0
230
1.0
 70
     8
 71
     3
 72
     8
 73
     4
 74
     0
 42
0.00000001
 43
0.00000001
 12
1.0
 22
0.0
 32
0.0
 13
1.0
 23
0.0
 33
0.0
 40
0.0
 40
0.0
 40
0.0
 40
0.0
 40
1.0
 40
1.0
 40
1.0
 40
1.0
 10
174.1924083280496
 20
120.2202269767199
 30
0.0
 10
174.1273030893773
 20
119.9534803961355
 30
0.0
 10
174.0694157763885
 20
119.6785242119863
 30
0.0
 10
174.0186886936649
 20
119.3951730906572
 30
0.0
  0
LINE
  5
B9
330
1F
100
AcDbEntity
  8
0
  6
Continuous
 62
     7
370
    15
100
AcDbLine
 10
173.8137286491
 20
113.5024838341
 30
0.0
 11
173.8137286491
 21
112.3474785318
 31
0.0
  0
LINE
  5
BA
330
1F
100
AcDbEntity
  8
0
  6
Continuous
 62
     7
370
    15
100
AcDbLine
 10
153.0137277775
 20
120.2886018627
 30
0.0
 11
153.0137277775
 21
112.6087627099
 31
0.0
  0
LINE
  5
BB
330
1F
100
AcDbEntity
  8
0
  6
Continuous
 62
     7
370
    15
100
AcDbLine
 10
173.8137286491
 20
120.5498860409
 30
0.0
 11
173.8137286491
 21
119.3948807386
 31
0.0
  0
LINE
  5
BC
330
1F
100
AcDbEntity
  8
0
  6
Continuous
 62
     7
370
    15
100
AcDbLine
 10
151.513728463
 20
119.8555890196
 30
0.0
 11
151.513728463
 21
113.041775553
 31
0.0
  0
LINE
  5
BD
330
1F
100
AcDbEntity
  8
0
  6
Continuous
 62
     7
370
    15
100
AcDbLine
 10
174.0186886498
 20
130.2738669519
 30
0.0
 11
174.2576443692
 21
130.2798702573
 31
0.0
  0
LINE
  5
BE
330
1F
100
AcDbEntity
  8
0
  6
Continuous
 62
     7
370
    15
100
AcDbLine
 10
173.8137286491
 20
120.5498860409
 30
0.0
 11
173.8137286491
 21
130.4687806596
 31
0.0
  0
ARC
  5
BF
330
1F
100
AcDbEntity
  8
0
  6
Continuous
 62
     7
370
    15
100
AcDbCircle
 10
174.0136655825
 20
130.473804182
 30
0.0
 40
0.2000000000000059
100
AcDbArc
 50
181.4391666667
 51
271.4391666667
  0
LINE
  5
C0
330
1F
100
AcDbEntity
  8
0
  6
Continuous
 62
     7
370
    15
100
AcDbLine
 10
153.0137277775
 20
120.2886018627
 30
0.0
 11
153.0137277775
 21
129.946212769
 31
0.0
  0
LINE
  5
C1
330
1F
100
AcDbEntity
  8
0
  6
Continuous
 62
     7
370
    15
100
AcDbLine
 10
153.0137277775
 20
129.946212769
 30
0.0
 11
173.8137286491
 21
130.4687806596
 31
0.0
  0
LINE
  5
C2
330
1F
100
AcDbEntity
  8
0
  6
Continuous
 62
     7
370
    15
100
AcDbLine
 10
173.8137286491
 20
102.428583913
 30
0.0
 11
173.8137286491
 21
112.3474785318
 31
0.0
  0
ARC
  5
C3
330
1F
100
AcDbEntity
  8
0
  6
Continuous
 62
     7
370
    15
100
AcDbCircle
 10
174.0136655825
 20
102.4235603906
 30
0.0
 40
0.2000000000000063
100
AcDbArc
 50
88.5608333333
 51
178.5608333333
  0
LINE
  5
C4
330
1F
100
AcDbEntity
  8
0
  6
Continuous
 62
     7
370
    15
100
AcDbLine
 10
153.0137277775
 20
102.9511518036
 30
0.0
 11
153.0137277775
 21
112.6087627099
 31
0.0
  0
LINE
  5
C5
330
1F
100
AcDbEntity
  8
0
  6
Continuous
 62
     7
370
    15
100
AcDbLine
 10
153.0137277775
 20
102.9511518036
 30
0.0
 11
173.8137286491
 21
102.428583913
 31
0.0
  0
LINE
  5
C6
330
1F
100
AcDbEntity
  8
0
  6
Continuous
 62
     7
370
    15
100
AcDbLine
 10
174.0186886498
 20
102.6234976207
 30
0.0
 11
174.2576443692
 21
102.6174943154
 31
0.0
  0
LINE
  5
C7
330
1F
100
AcDbEntity
  8
0
  6
Continuous
 62
     7
370
    15
100
AcDbLine
 10
151.513728463
 20
129.0801870828
 30
0.0
 11
153.0137277775
 21
129.946212769
 31
0.0
  0
LINE
  5
C8
330
1F
100
AcDbEntity
  8
0
  6
Continuous
 62
     7
370
    15
100
AcDbLine
 10
151.513728463
 20
119.8555890196
 30
0.0
 11
151.513728463
 21
129.0801870828
 31
0.0
  0
LINE
  5
C9
330
1F
100
AcDbEntity
  8
0
  6
Continuous
 62
     7
370
    15
100
AcDbLine
 10
151.513728463
 20
103.8171774899
 30
0.0
 11
153.0137277775
 21
102.9511518036
 31
0.0
  0
LINE
  5
CA
330
1F
100
AcDbEntity
  8
0
  6
Continuous
 62
     7
370
    15
100
AcDbLine
 10
151.513728463
 20
103.8171774899
 30
0.0
 11
151.513728463
 21
113.041775553
 31
0.0
  0
SPLINE
  5
CB
330
1F
100
AcDbEntity
  8
0
  6
Continuous
 62
     7
370
    15
100
AcDbSpline
210
0.0
220
0.0
230
1.0
 70
     8
 71
     3
 72
     8
 73
     4
 74
     0
 42
0.00000001
 43
0.00000001
 12
1.0
 22
0.0
 32
0.0
 13
1.0
 23
0.0
 33
0.0
 40
0.0
 40
0.0
 40
0.0
 40
0.0
 40
1.0
 40
1.0
 40
1.0
 40
1.0
 10
197.7464016836302
 20
136.4476485220826
 30
0.0
 10
197.8666121469603
 20
136.4469860907576
 30
0.0
 10
198.0011554704983
 20
136.4698059234693
 30
0.0
 10
198.1275902619925
 20
136.521943317846
 30
0.0
  0
SPLINE
  5
CC
330
1F
100
AcDbEntity
  8
0
  6
Continuous
 62
     7
370
    15
100
AcDbSpline
210
0.0
220
0.0
230
1.0
 70
     8
 71
     3
 72
     8
 73
     4
 74
     0
 42
0.00000001
 43
0.00000001
 12
1.0
 22
0.0
 32
0.0
 13
1.0
 23
0.0
 33
0.0
 40
0.0
 40
0.0
 40
0.0
 40
0.0
 40
1.0
 40
1.0
 40
1.0
 40
1.0
 10
198.1275902619924
 20
96.37542125478647
 30
0.0
 10
198.0011783057484
 20
96.42754923268565
 30
0.0
 10
197.8666376518969
 20
96.45037862244169
 30
0.0
 10
197.7464016836259
 20
96.44971605056874
 30
0.0
  0
LINE
  5
CD
330
1F
100
AcDbEntity
  8
0
  6
Continuous
 62
     7
370
    15
100
AcDbLine
 10
215.7421178752
 20
137.8781893482
 30
0.0
 11
215.7264418536
 21
137.5790839275
 31
0.0
  0
LINE
  5
CE
330
1F
100
AcDbEntity
  8
0
  6
Continuous
 62
     7
370
    15
100
AcDbLine
 10
215.2799658113
 20
129.7636092831
 30
0.0
 11
213.3171327048
 21
128.5370965679
 31
0.0
  0
ARC
  5
CF
330
1F
100
AcDbEntity
  8
0
  6
Continuous
 62
     7
370
    15
100
AcDbCircle
 10
214.1207253645
 20
127.2510802169
 30
0.0
 40
1.516442497159177
100
AcDbArc
 50
122.0
 51
302.0
  0
LINE
  5
D0
330
1F
100
AcDbEntity
  8
0
  6
Continuous
 62
     7
370
    15
100
AcDbLine
 10
214.9243160718
 20
125.9650639449
 30
0.0
 11
215.5727736288
 21
126.370264702
 31
0.0
  0
LINE
  5
D1
330
1F
100
AcDbEntity
  8
0
  6
Continuous
 62
     7
370
    15
100
AcDbLine
 10
224.6996491783
 20
132.0299334084
 30
0.0
 11
224.151319974
 21
121.567180865
 31
0.0
  0
LINE
  5
D2
330
1F
100
AcDbEntity
  8
0
  6
Continuous
 62
     7
370
    15
100
AcDbLine
 10
206.2145910793
 20
95.9508777787
 30
0.0
 11
198.6124265575
 21
95.9508777787
 31
0.0
  0
LINE
  5
D3
330
1F
100
AcDbEntity
  8
0
  6
Continuous
 62
     7
370
    15
100
AcDbLine
 10
210.568606072
 20
137.065798529
 30
0.0
 11
198.6710998797
 21
137.065798529
 31
0.0
  0
ELLIPSE
  5
D4
330
1F
100
AcDbEntity
  8
0
  6
Continuous
 62
     7
370
    15
100
AcDbEllipse
 10
210.5686066633
 20
154.1934653728
 30
0.0
 11
-1.023181539494544E-12
 21
-17.12766703280042
 31
0.0
210
0.0
220
0.0
230
1.0
 40
0.9925461516
 41
0.0
 42
0.3092288858231815
  0
LINE
  5
D5
330
1F
100
AcDbEntity
  8
0
  6
Continuous
 62
     7
370
    15
100
AcDbLine
 10
224.151319974
 20
121.567180865
 30
0.0
 11
206.2145910793
 21
95.9508777787
 31
0.0
  0
SPLINE
  5
D6
330
1F
100
AcDbEntity
  8
0
  6
Continuous
 62
     7
370
    15
100
AcDbSpline
210
0.0
220
0.0
230
1.0
 70
     8
 71
     3
 72
    10
 73
     6
 74
     0
 42
0.00000001
 43
0.00000001
 12
1.0
 22
0.0
 32
0.0
 13
1.0
 23
0.0
 33
0.0
 40
0.0
 40
0.0
 40
0.0
 40
0.0
 40
0.5
 40
0.5
 40
1.0
 40
1.0
 40
1.0
 40
1.0
 10
198.6124270874147
 20
95.95087752581122
 30
0.0
 10
198.5573704794913
 20
96.0462485808224
 30
0.0
 10
198.488467950258
 20
96.13019080622097
 30
0.0
 10
198.3230474014595
 20
96.27528062121092
 30
0.0
 10
198.2281599415829
 20
96.33394975010619
 30
0.0
 10
198.1275902619924
 20
96.3754212547865
 30
0.0
  0
SPLINE
  5
D7
330
1F
100
AcDbEntity
  8
0
  6
Continuous
 62
     7
370
    15
100
AcDbSpline
210
0.0
220
0.0
230
1.0
 70
     8
 71
     3
 72
    10
 73
     6
 74
     0
 42
0.00000001
 43
0.00000001
 12
1.0
 22
0.0
 32
0.0
 13
1.0
 23
0.0
 33
0.0
 40
0.0
 40
0.0
 40
0.0
 40
0.0
 40
0.5
 40
0.5
 40
1.0
 40
1.0
 40
1.0
 40
1.0
 10
198.1275902619896
 20
136.5219433178555
 30
0.0
 10
198.2489761926996
 20
136.5719987342993
 30
0.0
 10
198.3604329804733
 20
136.6462129674785
 30
0.0
 10
198.5470331572461
 20
136.8329521501767
 30
0.0
 10
198.6207336399269
 20
136.9434496091597
 30
0.0
 10
198.6710997083345
 20
137.0657983399533
 30
0.0
  0
ELLIPSE
  5
D8
330
1F
100
AcDbEntity
  8
0
  6
Continuous
 62
     7
370
    15
100
AcDbEllipse
 10
210.5686066633
 20
160.546240612
 30
0.0
 11
-14.22716407804071
 21
24.88519423683448
 31
0.0
210
0.0
220
0.0
230
1.0
 40
0.373927429
 41
2.45924128382899
 42
2.469163504243151
  0
LINE
  5
D9
330
1F
100
AcDbEntity
  8
0
  6
Continuous
 62
     7
370
    15
100
AcDbLine
 10
213.4583249324
 20
128.3111400162
 30
0.0
 11
215.2629412346
 21
129.4387891148
 31
0.0
  0
LINE
  5
DA
330
1F
100
AcDbEntity
  8
0
  6
Continuous
 62
     7
370
    15
100
AcDbLine
 10
214.7831238442
 20
126.1910204967
 30
0.0
 11
215.2439422541
 21
126.4789714669
 31
0.0
  0
ARC
  5
DB
330
1F
100
AcDbEntity
  8
0
  6
Continuous
 62
     7
370
    15
100
AcDbCircle
 10
214.1207253645
 20
127.2510802169
 30
0.0
 40
1.249999999999964
100
AcDbArc
 50
122.0
 51
302.0
  0
SPLINE
  5
DC
330
1F
100
AcDbEntity
  8
0
  6
HIDDEN
 62
     7
370
     0
100
AcDbSpline
210
0.0
220
0.0
230
1.0
 70
     8
 71
     3
 72
    68
 73
    64
 74
     0
 42
0.00000001
 43
0.00000001
 12
1.0
 22
0.0
 32
0.0
 13
1.0
 23
0.0
 33
0.0
 40
-0.0625000000000002
 40
-0.0625000000000002
 40
0.0
 40
0.0
 40
0.03125
 40
0.03125
 40
0.0625
 40
0.0625
 40
0.0937499999999999
 40
0.0937499999999999
 40
0.1249999999999999
 40
0.1249999999999999
 40
0.1562499999999999
 40
0.1562499999999999
 40
0.1874999999999999
 40
0.1874999999999999
 40
0.2187499999999999
 40
0.2187499999999999
 40
0.2499999999999998
 40
0.2499999999999998
 40
0.2812499999999998
 40
0.2812499999999998
 40
0.3124999999999998
 40
0.3124999999999998
 40
0.3437499999999998
 40
0.3437499999999998
 40
0.3749999999999998
 40
0.3749999999999998
 40
0.4062499999999997
 40
0.4062499999999997
 40
0.4374999999999997
 40
0.4374999999999997
 40
0.4687499999999997
 40
0.4687499999999997
 40
0.4999999999999997
 40
0.4999999999999997
 40
0.5312499999999997
 40
0.5312499999999997
 40
0.5624999999999997
 40
0.5624999999999997
 40
0.5937499999999996
 40
0.5937499999999996
 40
0.6249999999999996
 40
0.6249999999999996
 40
0.6562499999999996
 40
0.6562499999999996
 40
0.6874999999999996
 40
0.6874999999999996
 40
0.7187499999999996
 40
0.7187499999999996
 40
0.7499999999999996
 40
0.7499999999999996
 40
0.7812499999999994
 40
0.7812499999999994
 40
0.8124999999999994
 40
0.8124999999999994
 40
0.8437499999999996
 40
0.8437499999999996
 40
0.8749999999999997
 40
0.8749999999999997
 40
0.9062499999999998
 40
0.9062499999999998
 40
0.9374999999999998
 40
0.9374999999999998
 40
1.0
 40
1.0
 40
1.03125
 40
1.03125
 10
189.1830581589326
 20
107.3126989147488
 30
0.0
 10
189.6790639279476
 20
107.3126989147488
 30
0.0
 10
189.8416036703702
 20
107.3272528627566
 30
0.0
 10
190.1613308800676
 20
107.3843297212606
 30
0.0
 10
190.3201874566529
 20
107.427557253986
 30
0.0
 10
190.6228593548819
 20
107.5405330980151
 30
0.0
 10
190.7663871704779
 20
107.6097444368229
 30
0.0
 10
191.0380189494252
 20
107.7737323241334
 30
0.0
 10
191.1665035817483
 20
107.869304901861
 30
0.0
 10
191.3968603377087
 20
108.0788231707415
 30
0.0
 10
191.5002878376716
 20
108.1935137833857
 30
0.0
 10
191.6830529142269
 20
108.4437420261882
 30
0.0
 10
191.7606192899483
 20
108.5772780651538
 30
0.0
 10
191.8853544829446
 20
108.8549551175692
 30
0.0
 10
191.9334348262873
 20
109.0011545996393
 30
0.0
 10
191.9977183350987
 20
109.301769121865
 30
0.0
 10
192.013637662655
 20
109.4536061994967
 30
0.0
 10
192.0138189098413
 20
109.7603439096188
 30
0.0
 10
191.9975548805607
 20
109.9168559623061
 30
0.0
 10
191.9337146627616
 20
110.2209402216875
 30
0.0
 10
191.8864811181745
 20
110.3694143919492
 30
0.0
 10
191.7611759519462
 20
110.65897742567
 30
0.0
 10
191.682968174321
 20
110.7993356206212
 30
0.0
 10
191.5021162918228
 20
111.0601766846062
 30
0.0
 10
191.3987441281631
 20
111.1823877745725
 30
0.0
 10
191.1656075922859
 20
111.4087114060598
 30
0.0
 10
191.0395175553015
 20
111.5092920923766
 30
0.0
 10
190.7689754189784
 20
111.6859109515805
 30
0.0
 10
190.6227804583913
 20
111.7625703418019
 30
0.0
 10
190.3201551094415
 20
111.8855007989053
 30
0.0
 10
190.1643326108925
 20
111.931986929459
 30
0.0
 10
189.843699438614
 20
111.9949546174878
 30
0.0
 10
189.677894258006
 20
112.0111016136315
 30
0.0
 10
189.3514404418961
 20
112.0112220773462
 30
0.0
 10
189.1891008396076
 20
111.995716433734
 30
0.0
 10
188.866238851953
 20
111.932878522087
 30
0.0
 10
188.7084981415277
 20
111.8858345443153
 30
0.0
 10
188.4075458088553
 20
111.7638857451
 30
0.0
 10
188.2620263309155
 20
111.68802019772
 30
0.0
 10
187.9888230750248
 20
111.5100700999481
 30
0.0
 10
187.8629924270936
 20
111.4095225028077
 30
0.0
 10
187.6323126035177
 20
111.1861740945966
 30
0.0
 10
187.5266951255787
 20
111.0619266936696
 30
0.0
 10
187.3451507382548
 20
110.8004905141591
 30
0.0
 10
187.2682322812613
 20
110.6627637264716
 30
0.0
 10
187.1424044861367
 20
110.3734176742454
 30
0.0
 10
187.0941442168509
 20
110.2222324034512
 30
0.0
 10
187.0302694480528
 20
109.9192169753665
 30
0.0
 10
187.013879287587
 20
109.7657601131152
 30
0.0
 10
187.0135801026265
 20
109.4550503335
 30
0.0
 10
187.0296694715414
 20
109.3029934099957
 30
0.0
 10
187.0929848784559
 20
109.0051234316772
 30
0.0
 10
187.1409985459466
 20
108.8577694820944
 30
0.0
 10
187.2662540849565
 20
108.5782268027258
 30
0.0
 10
187.342924532605
 20
108.4462191902311
 30
0.0
 10
187.5241343168198
 20
108.1972294209971
 30
0.0
 10
187.629497362907
 20
108.0799672054286
 30
0.0
 10
187.8596789812213
 20
107.8703219713982
 30
0.0
 10
187.9853443210971
 20
107.776498852627
 30
0.0
 10
188.2584725555424
 20
107.6110249079725
 30
0.0
 10
188.4035922902623
 20
107.5410494465992
 30
0.0
 10
188.8545425405153
 20
107.3723069134384
 30
0.0
 10
189.1830581589326
 20
107.3126989147488
 30
0.0
 10
189.6790639279476
 20
107.3126989147488
 30
0.0
  0
SPLINE
  5
DD
330
1F
100
AcDbEntity
  8
0
  6
HIDDEN
 62
     7
370
     0
100
AcDbSpline
210
0.0
220
0.0
230
1.0
 70
     8
 71
     3
 72
    58
 73
    54
 74
     0
 42
0.00000001
 43
0.00000001
 12
1.0
 22
0.0
 32
0.0
 13
1.0
 23
0.0
 33
0.0
 40
-0.0625000000000001
 40
-0.0625000000000001
 40
0.0
 40
0.0
 40
0.0312499999999999
 40
0.0312499999999999
 40
0.0624999999999998
 40
0.0624999999999998
 40
0.0937499999999997
 40
0.0937499999999997
 40
0.1249999999999996
 40
0.1249999999999996
 40
0.1874999999999994
 40
0.1874999999999994
 40
0.2499999999999992
 40
0.2499999999999992
 40
0.2812499999999993
 40
0.2812499999999993
 40
0.3124999999999994
 40
0.3124999999999994
 40
0.3437499999999996
 40
0.3437499999999996
 40
0.3749999999999997
 40
0.3749999999999997
 40
0.4062499999999998
 40
0.4062499999999998
 40
0.4374999999999999
 40
0.4374999999999999
 40
0.4687500000000001
 40
0.4687500000000001
 40
0.5000000000000001
 40
0.5000000000000001
 40
0.5625000000000002
 40
0.5625000000000002
 40
0.6250000000000004
 40
0.6250000000000004
 40
0.6562500000000004
 40
0.6562500000000004
 40
0.6875000000000003
 40
0.6875000000000003
 40
0.7187500000000002
 40
0.7187500000000002
 40
0.7500000000000001
 40
0.7500000000000001
 40
0.78125
 40
0.78125
 40
0.8124999999999999
 40
0.8124999999999999
 40
0.8437499999999998
 40
0.8437499999999998
 40
0.8749999999999997
 40
0.8749999999999997
 40
0.9374999999999999
 40
0.9374999999999999
 40
1.0
 40
1.0
 40
1.03125
 40
1.03125
 10
189.5137286716092
 20
116.1842461718735
 30
0.0
 10
189.5137286716092
 20
116.5809003435456
 30
0.0
 10
189.500746633937
 20
116.7108925043861
 30
0.0
 10
189.4498958316788
 20
116.9666121168383
 30
0.0
 10
189.4114039276258
 20
117.0936708006995
 30
0.0
 10
189.3109886418993
 20
117.3358339983583
 30
0.0
 10
189.2495525026263
 20
117.450675782743
 30
0.0
 10
189.1044190263155
 20
117.6680179803132
 30
0.0
 10
189.0199973374644
 20
117.7708596281609
 30
0.0
 10
188.7433971632995
 20
118.0474031089125
 30
0.0
 10
188.5203982520325
 20
118.1963857450447
 30
0.0
 10
188.0391637344468
 20
118.3959288085994
 30
0.0
 10
187.7758643189377
 20
118.4485392816308
 30
0.0
 10
187.3843008788975
 20
118.4487533403833
 30
0.0
 10
187.2517132682928
 20
118.4357544909777
 30
0.0
 10
186.9951475626935
 20
118.3847044069514
 30
0.0
 10
186.870437796513
 20
118.3469331681392
 30
0.0
 10
186.628198611486
 20
118.2467412600267
 30
0.0
 10
186.5111819577123
 20
118.1841558662021
 30
0.0
 10
186.294538752866
 20
118.0394507804916
 30
0.0
 10
186.1935319964076
 20
117.9568314391114
 30
0.0
 10
186.006725900751
 20
117.7701874043214
 30
0.0
 10
185.9240123652191
 20
117.6692415563615
 30
0.0
 10
185.7791422358438
 20
117.4527603526798
 30
0.0
 10
185.7164719397471
 20
117.3358431876713
 30
0.0
 10
185.6160440017108
 20
117.0936467184729
 30
0.0
 10
185.5781728227811
 20
116.9689857275694
 30
0.0
 10
185.5269104250054
 20
116.7125863785014
 30
0.0
 10
185.5137767843647
 20
116.5799754532035
 30
0.0
 10
185.513632851226
 20
116.1883008408684
 30
0.0
 10
185.5659981084907
 20
115.9250168212078
 30
0.0
 10
185.7651587718414
 20
115.443504107348
 30
0.0
 10
185.9139564452033
 20
115.2203830203031
 30
0.0
 10
186.1902571037895
 20
114.9435508717956
 30
0.0
 10
186.2930221508493
 20
114.8590436575113
 30
0.0
 10
186.5102394246437
 20
114.7137227158254
 30
0.0
 10
186.6250091180814
 20
114.6522004925633
 30
0.0
 10
186.866995655226
 20
114.5516040892913
 30
0.0
 10
186.9940782281174
 20
114.5129762012027
 30
0.0
 10
187.2497529281206
 20
114.4618980911365
 30
0.0
 10
187.3796934454649
 20
114.4488089513693
 30
0.0
 10
187.6439568132262
 20
114.4485574330108
 30
0.0
 10
187.7741677068731
 20
114.4614319030671
 30
0.0
 10
188.0299176523068
 20
114.5120508001992
 30
0.0
 10
188.1569350366741
 20
114.550398618995
 30
0.0
 10
188.3992867644258
 20
114.6506327391884
 30
0.0
 10
188.5141895437121
 20
114.7119769261784
 30
0.0
 10
188.7316117088611
 20
114.8568819307075
 30
0.0
 10
188.8345481063058
 20
114.9412208228295
 30
0.0
 10
189.1113852634628
 20
115.2176219358713
 30
0.0
 10
189.2605405045269
 20
115.4404655689137
 30
0.0
 10
189.4605110897622
 20
115.9215288501643
 30
0.0
 10
189.5137286716092
 20
116.1842461718735
 30
0.0
 10
189.5137286716092
 20
116.5809003435456
 30
0.0
  0
SPLINE
  5
DE
330
1F
100
AcDbEntity
  8
0
  6
HIDDEN
 62
     7
370
     0
100
AcDbSpline
210
0.0
220
0.0
230
1.0
 70
     8
 71
     3
 72
    12
 73
     8
 74
     0
 42
0.00000001
 43
0.00000001
 12
1.0
 22
0.0
 32
0.0
 13
1.0
 23
0.0
 33
0.0
 40
0.0
 40
0.0
 40
0.0
 40
0.0
 40
0.500000000000001
 40
0.500000000000001
 40
0.7500000000000004
 40
0.7500000000000004
 40
1.0
 40
1.0
 40
1.0
 40
1.0
 10
182.1858230524731
 20
110.3104371592625
 30
0.0
 10
182.2045162856035
 20
110.3780197957029
 30
0.0
 10
182.2301715830153
 20
110.4445023651803
 30
0.0
 10
182.2903322057017
 20
110.5334974480778
 30
0.0
 10
182.3144045174561
 20
110.561499345077
 30
0.0
 10
182.3727860378066
 20
110.6045757457422
 30
0.0
 10
182.4082548654597
 20
110.6194692906699
 30
0.0
 10
182.4456306736084
 20
110.6194692906699
 30
0.0
  0
LINE
  5
DF
330
1F
100
AcDbEntity
  8
0
  6
HIDDEN
 62
     7
370
     0
100
AcDbLine
 10
182.445630581
 20
110.6194690992
 30
0.0
 11
184.5818265908
 21
110.6194690992
 31
0.0
  0
SPLINE
  5
E0
330
1F
100
AcDbEntity
  8
0
  6
HIDDEN
 62
     7
370
     0
100
AcDbSpline
210
0.0
220
0.0
230
1.0
 70
     8
 71
     3
 72
    12
 73
     8
 74
     0
 42
0.00000001
 43
0.00000001
 12
1.0
 22
0.0
 32
0.0
 13
1.0
 23
0.0
 33
0.0
 40
0.0
 40
0.0
 40
0.0
 40
0.0
 40
0.2499999999999958
 40
0.2499999999999958
 40
0.4999999999999916
 40
0.4999999999999916
 40
1.0
 40
1.0
 40
1.0
 40
1.0
 10
184.5818266696101
 20
110.6194692906699
 30
0.0
 10
184.6193385556547
 20
110.6194692906699
 30
0.0
 10
184.6546259033595
 20
110.6046644763832
 30
0.0
 10
184.7135557515979
 20
110.5610726032573
 30
0.0
 10
184.737081478067
 20
110.5335591771713
 30
0.0
 10
184.797340265835
 20
110.4444274450577
 30
0.0
 10
184.8229350281244
 20
110.3780415944399
 30
0.0
 10
184.8416342907454
 20
110.3104371592625
 30
0.0
  0
ELLIPSE
  5
E1
330
1F
100
AcDbEntity
  8
0
  6
HIDDEN
 62
     7
370
     0
100
AcDbEllipse
 10
174.5647994992
 20
116.4486822863
 30
0.0
 11
-9.367417879781756
 21
19.74174915274992
 31
0.0
210
0.0
220
0.0
230
1.0
 40
0.3419987131
 41
3.292664382516899
 42
4.239566697061003
  0
SPLINE
  5
E2
330
1F
100
AcDbEntity
  8
0
  6
HIDDEN
 62
     7
370
     0
100
AcDbSpline
210
0.0
220
0.0
230
1.0
 70
     8
 71
     3
 72
    12
 73
     8
 74
     0
 42
0.00000001
 43
0.00000001
 12
1.0
 22
0.0
 32
0.0
 13
1.0
 23
0.0
 33
0.0
 40
0.0
 40
0.0
 40
0.0
 40
0.0
 40
0.4999999999999977
 40
0.4999999999999977
 40
0.7499999999999988
 40
0.7499999999999988
 40
1.0
 40
1.0
 40
1.0
 40
1.0
 10
184.8416342907454
 20
97.41392600313964
 30
0.0
 10
184.822941057615
 20
97.39213224951166
 30
0.0
 10
184.7972857602032
 20
97.37111208780203
 30
0.0
 10
184.7371251375168
 20
97.34340674183832
 30
0.0
 10
184.7130528257624
 20
97.33477152564492
 30
0.0
 10
184.6546713054119
 20
97.32155688041836
 30
0.0
 10
184.6192024777588
 20
97.31702590608818
 30
0.0
 10
184.5818266696101
 20
97.31702590608818
 30
0.0
  0
LINE
  5
E3
330
1F
100
AcDbEntity
  8
0
  6
HIDDEN
 62
     7
370
     0
100
AcDbLine
 10
184.5818265908
 20
97.3170255502
 30
0.0
 11
182.445630581
 21
97.3170255502
 31
0.0
  0
SPLINE
  5
E4
330
1F
100
AcDbEntity
  8
0
  6
HIDDEN
 62
     7
370
     0
100
AcDbSpline
210
0.0
220
0.0
230
1.0
 70
     8
 71
     3
 72
    12
 73
     8
 74
     0
 42
0.00000001
 43
0.00000001
 12
1.0
 22
0.0
 32
0.0
 13
1.0
 23
0.0
 33
0.0
 40
0.0
 40
0.0
 40
0.0
 40
0.0
 40
0.2500000000000014
 40
0.2500000000000014
 40
0.5000000000000029
 40
0.5000000000000029
 40
1.0
 40
1.0
 40
1.0
 40
1.0
 10
182.4456306736084
 20
97.3170259060882
 30
0.0
 10
182.4081187875638
 20
97.31702590608819
 30
0.0
 10
182.372831439859
 20
97.32152945035072
 30
0.0
 10
182.3139015916206
 20
97.33490264980402
 30
0.0
 10
182.2903758651515
 20
97.34338755237515
 30
0.0
 10
182.2301170773835
 20
97.37113535620973
 30
0.0
 10
182.2045223150941
 20
97.39212521995012
 30
0.0
 10
182.1858230524731
 20
97.41392600313964
 30
0.0
  0
ELLIPSE
  5
E5
330
1F
100
AcDbEntity
  8
0
  6
HIDDEN
 62
     7
370
     0
100
AcDbEllipse
 10
192.462657844
 20
116.4486822863
 30
0.0
 11
9.367417879781614
 21
19.74174915274995
 31
0.0
210
0.0
220
0.0
230
1.0
 40
0.3419987131
 41
2.04361861011859
 42
2.990520924662718
  0
SPLINE
  5
E6
330
1F
100
AcDbEntity
  8
0
  6
HIDDEN
 62
     7
370
     0
100
AcDbSpline
210
0.0
220
0.0
230
1.0
 70
     8
 71
     3
 72
    12
 73
     8
 74
     0
 42
0.00000001
 43
0.00000001
 12
1.0
 22
0.0
 32
0.0
 13
1.0
 23
0.0
 33
0.0
 40
0.0
 40
0.0
 40
0.0
 40
0.0
 40
0.4999999999999971
 40
0.4999999999999971
 40
0.7499999999999986
 40
0.7499999999999986
 40
1.0
 40
1.0
 40
1.0
 40
1.0
 10
182.1858230524731
 20
135.4834385695035
 30
0.0
 10
182.2045162856035
 20
135.5052323231315
 30
0.0
 10
182.2301715830153
 20
135.5262524848411
 30
0.0
 10
182.2903322057018
 20
135.5539578308048
 30
0.0
 10
182.3144045174561
 20
135.5625930469982
 30
0.0
 10
182.3727860378067
 20
135.5758076922248
 30
0.0
 10
182.4082548654597
 20
135.580338666555
 30
0.0
 10
182.4456306736084
 20
135.580338666555
 30
0.0
  0
LINE
  5
E7
330
1F
100
AcDbEntity
  8
0
  6
HIDDEN
 62
     7
370
     0
100
AcDbLine
 10
182.445630581
 20
135.5803390225
 30
0.0
 11
184.5818265908
 21
135.5803390225
 31
0.0
  0
SPLINE
  5
E8
330
1F
100
AcDbEntity
  8
0
  6
HIDDEN
 62
     7
370
     0
100
AcDbSpline
210
0.0
220
0.0
230
1.0
 70
     8
 71
     3
 72
    12
 73
     8
 74
     0
 42
0.00000001
 43
0.00000001
 12
1.0
 22
0.0
 32
0.0
 13
1.0
 23
0.0
 33
0.0
 40
0.0
 40
0.0
 40
0.0
 40
0.0
 40
0.2499999999999996
 40
0.2499999999999996
 40
0.4999999999999992
 40
0.4999999999999992
 40
1.0
 40
1.0
 40
1.0
 40
1.0
 10
184.5818266696101
 20
135.580338666555
 30
0.0
 10
184.6193385556547
 20
135.580338666555
 30
0.0
 10
184.6546259033594
 20
135.5758351222924
 30
0.0
 10
184.7135557515979
 20
135.5624619228392
 30
0.0
 10
184.7370814780669
 20
135.553977020268
 30
0.0
 10
184.797340265835
 20
135.5262292164334
 30
0.0
 10
184.8229350281243
 20
135.5052393526931
 30
0.0
 10
184.8416342907454
 20
135.4834385695035
 30
0.0
  0
ELLIPSE
  5
E9
330
1F
100
AcDbEntity
  8
0
  6
HIDDEN
 62
     7
370
     0
100
AcDbEllipse
 10
174.5647994992
 20
116.4486822863
 30
0.0
 11
9.36741787978184
 21
19.74174915274995
 31
0.0
210
0.0
220
0.0
230
1.0
 40
0.3419987131
 41
5.185211263708411
 42
6.132113578252568
  0
SPLINE
  5
EA
330
1F
100
AcDbEntity
  8
0
  6
HIDDEN
 62
     7
370
     0
100
AcDbSpline
210
0.0
220
0.0
230
1.0
 70
     8
 71
     3
 72
    12
 73
     8
 74
     0
 42
0.00000001
 43
0.00000001
 12
1.0
 22
0.0
 32
0.0
 13
1.0
 23
0.0
 33
0.0
 40
0.0
 40
0.0
 40
0.0
 40
0.0
 40
0.4999999999999939
 40
0.4999999999999939
 40
0.7499999999999969
 40
0.7499999999999969
 40
1.0
 40
1.0
 40
1.0
 40
1.0
 10
184.8416342907454
 20
122.5869274133809
 30
0.0
 10
184.822941057615
 20
122.5193447769405
 30
0.0
 10
184.7972857602032
 20
122.4528622074631
 30
0.0
 10
184.7371251375167
 20
122.3638671245656
 30
0.0
 10
184.7130528257624
 20
122.3358652275664
 30
0.0
 10
184.6546713054118
 20
122.2927888269012
 30
0.0
 10
184.6192024777588
 20
122.2778952819735
 30
0.0
 10
184.5818266696101
 20
122.2778952819735
 30
0.0
  0
LINE
  5
EB
330
1F
100
AcDbEntity
  8
0
  6
HIDDEN
 62
     7
370
     0
100
AcDbLine
 10
184.5818265908
 20
122.2778954734
 30
0.0
 11
182.445630581
 21
122.2778954734
 31
0.0
  0
SPLINE
  5
EC
330
1F
100
AcDbEntity
  8
0
  6
HIDDEN
 62
     7
370
     0
100
AcDbSpline
210
0.0
220
0.0
230
1.0
 70
     8
 71
     3
 72
    12
 73
     8
 74
     0
 42
0.00000001
 43
0.00000001
 12
1.0
 22
0.0
 32
0.0
 13
1.0
 23
0.0
 33
0.0
 40
0.0
 40
0.0
 40
0.0
 40
0.0
 40
0.2499999999999997
 40
0.2499999999999997
 40
0.4999999999999994
 40
0.4999999999999994
 40
1.0
 40
1.0
 40
1.0
 40
1.0
 10
182.4456306736084
 20
122.2778952819735
 30
0.0
 10
182.4081187875638
 20
122.2778952819735
 30
0.0
 10
182.372831439859
 20
122.2927000962602
 30
0.0
 10
182.3139015916206
 20
122.3362919693861
 30
0.0
 10
182.2903758651515
 20
122.3638053954721
 30
0.0
 10
182.2301170773835
 20
122.4529371275857
 30
0.0
 10
182.2045223150941
 20
122.5193229782035
 30
0.0
 10
182.1858230524731
 20
122.5869274133809
 30
0.0
  0
ELLIPSE
  5
ED
330
1F
100
AcDbEntity
  8
0
  6
HIDDEN
 62
     7
370
     0
100
AcDbEllipse
 10
192.462657844
 20
116.4486822863
 30
0.0
 11
-9.367417879781698
 21
19.74174915274995
 31
0.0
210
0.0
220
0.0
230
1.0
 40
0.3419987131
 41
0.1510717289270592
 42
1.097974043471189
  0
LINE
  5
EE
330
1F
100
AcDbEntity
  8
0
  6
HIDDEN
 62
     7
370
     0
100
AcDbLine
 10
175.5137286716
 20
136.1486823489
 30
0.0
 11
175.5137286716
 21
96.7486822237
 31
0.0
  0
LINE
  5
EF
330
1F
100
AcDbEntity
  8
0
  6
HIDDEN
 62
     7
370
     0
100
AcDbLine
 10
175.5137286716
 20
100.6486830493
 30
0.0
 11
175.5137286716
 21
132.2486815234
 31
0.0
  0
SPLINE
  5
F0
330
1F
100
AcDbEntity
  8
0
  6
HIDDEN
 62
     7
370
     0
100
AcDbSpline
210
0.0
220
0.0
230
1.0
 70
     8
 71
     3
 72
    18
 73
    14
 74
     0
 42
0.00000001
 43
0.00000001
 12
1.0
 22
0.0
 32
0.0
 13
1.0
 23
0.0
 33
0.0
 40
0.0
 40
0.0
 40
0.0
 40
0.0
 40
0.249999999999998
 40
0.249999999999998
 40
0.499999999999996
 40
0.499999999999996
 40
0.624999999999997
 40
0.624999999999997
 40
0.749999999999998
 40
0.749999999999998
 40
0.874999999999999
 40
0.874999999999999
 40
1.0
 40
1.0
 40
1.0
 40
1.0
 10
174.2576443540462
 20
126.2731222044728
 30
0.0
 10
174.291945398579
 20
126.1651120186753
 30
0.0
 10
174.3297656698758
 20
126.0578349306473
 30
0.0
 10
174.4163839903366
 20
125.8463382333307
 30
0.0
 10
174.4647553250801
 20
125.7419518831611
 30
0.0
 10
174.5541583071985
 20
125.5910769605168
 30
0.0
 10
174.5867555910758
 20
125.5417319574812
 30
0.0
 10
174.6631374950207
 20
125.447126319011
 30
0.0
 10
174.7061759323615
 20
125.4021303842564
 30
0.0
 10
174.8119889651933
 20
125.3312026115985
 30
0.0
 10
174.8770273899244
 20
125.3072560676919
 30
0.0
 10
175.010179461727
 20
125.3195367317627
 30
0.0
 10
175.0695486421902
 20
125.3528536897676
 30
0.0
 10
175.1187517827339
 20
125.3936885759923
 30
0.0
  0
SPLINE
  5
F1
330
1F
100
AcDbEntity
  8
0
  6
HIDDEN
 62
     7
370
     0
100
AcDbSpline
210
0.0
220
0.0
230
1.0
 70
     8
 71
     3
 72
    16
 73
    12
 74
     0
 42
0.00000001
 43
0.00000001
 12
1.0
 22
0.0
 32
0.0
 13
1.0
 23
0.0
 33
0.0
 40
0.0
 40
0.0
 40
0.0
 40
0.0
 40
0.062499999999998
 40
0.062499999999998
 40
0.1249999999999961
 40
0.1249999999999961
 40
0.2499999999999959
 40
0.2499999999999959
 40
0.4999999999999956
 40
0.4999999999999956
 40
1.0
 40
1.0
 40
1.0
 40
1.0
 10
175.1187517827031
 20
125.3936885760218
 30
0.0
 10
175.130821615979
 20
125.4037056250021
 30
0.0
 10
175.1450972709123
 20
125.4126647320577
 30
0.0
 10
175.1765616830367
 20
125.4205351274519
 30
0.0
 10
175.1920622078471
 20
125.4181776368096
 30
0.0
 10
175.227501104454
 20
125.4012019446316
 30
0.0
 10
175.2410937205574
 20
125.380653453464
 30
0.0
 10
175.2740880389502
 20
125.3187111264504
 30
0.0
 10
175.284875432269
 20
125.2723155762452
 30
0.0
 10
175.3099286795481
 20
125.1293795475507
 30
0.0
 10
175.3137286716093
 20
125.0298168306652
 30
0.0
 10
175.3137286716094
 20
124.9280494260187
 30
0.0
  0
LINE
  5
F2
330
1F
100
AcDbEntity
  8
0
  6
HIDDEN
 62
     7
370
     0
100
AcDbLine
 10
175.3137286767
 20
107.969315276
 30
0.0
 11
175.3137286767
 21
124.9280492966
 31
0.0
  0
SPLINE
  5
F3
330
1F
100
AcDbEntity
  8
0
  6
HIDDEN
 62
     7
370
     0
100
AcDbSpline
210
0.0
220
0.0
230
1.0
 70
     8
 71
     3
 72
    16
 73
    12
 74
     0
 42
0.00000001
 43
0.00000001
 12
1.0
 22
0.0
 32
0.0
 13
1.0
 23
0.0
 33
0.0
 40
0.0
 40
0.0
 40
0.0
 40
0.0
 40
0.4999999999999921
 40
0.4999999999999921
 40
0.7499999999999903
 40
0.7499999999999903
 40
0.874999999999994
 40
0.874999999999994
 40
0.937499999999997
 40
0.937499999999997
 40
1.0
 40
1.0
 40
1.0
 40
1.0
 10
175.3137286716092
 20
107.9693151466243
 30
0.0
 10
175.3137286716092
 20
107.8673049930442
 30
0.0
 10
175.3098452464503
 20
107.767780617791
 30
0.0
 10
175.2850299211756
 20
107.6257955217803
 30
0.0
 10
175.2741904734631
 20
107.5788022212099
 30
0.0
 10
175.2409746914143
 20
107.5165094908483
 30
0.0
 10
175.2275929477855
 20
107.4962280585632
 30
0.0
 10
175.1920832979233
 20
107.4791863503627
 30
0.0
 10
175.1766663314225
 20
107.4768000953466
 30
0.0
 10
175.1449653092739
 20
107.4847360252046
 30
0.0
 10
175.1308190243232
 20
107.4936610985792
 30
0.0
 10
175.1187517827335
 20
107.5036759966511
 30
0.0
  0
SPLINE
  5
F4
330
1F
100
AcDbEntity
  8
0
  6
HIDDEN
 62
     7
370
     0
100
AcDbSpline
210
0.0
220
0.0
230
1.0
 70
     8
 71
     3
 72
    18
 73
    14
 74
     0
 42
0.00000001
 43
0.00000001
 12
1.0
 22
0.0
 32
0.0
 13
1.0
 23
0.0
 33
0.0
 40
0.0
 40
0.0
 40
0.0
 40
0.0
 40
0.1250000000000002
 40
0.1250000000000002
 40
0.2500000000000005
 40
0.2500000000000005
 40
0.3750000000000008
 40
0.3750000000000008
 40
0.500000000000001
 40
0.500000000000001
 40
0.7500000000000004
 40
0.7500000000000004
 40
1.0
 40
1.0
 40
1.0
 40
1.0
 10
175.1187517827397
 20
107.5036759966585
 30
0.0
 10
175.0700462905975
 20
107.5440978723399
 30
0.0
 10
175.0115361822707
 20
107.5771299938077
 30
0.0
 10
174.8798070639786
 20
107.5904071457606
 30
0.0
 10
174.815048127638
 20
107.5674535587804
 30
0.0
 10
174.7098371547785
 20
107.4984003618608
 30
0.0
 10
174.6666207793385
 20
107.4539327100199
 30
0.0
 10
174.5904422742266
 20
107.3607630506499
 30
0.0
 10
174.5575873128467
 20
107.3116206810891
 30
0.0
 10
174.4672190330129
 20
107.1604109461492
 30
0.0
 10
174.4177957986428
 20
107.054256176621
 30
0.0
 10
174.3301473435946
 20
106.8406745609595
 30
0.0
 10
174.2920881713919
 20
106.7327021297242
 30
0.0
 10
174.2576443540462
 20
106.6242423681703
 30
0.0
  0
SPLINE
  5
F5
330
1F
100
AcDbEntity
  8
0
  6
HIDDEN
 62
     7
370
     0
100
AcDbSpline
210
0.0
220
0.0
230
1.0
 70
     8
 71
     3
 72
     8
 73
     4
 74
     0
 42
0.00000001
 43
0.00000001
 12
1.0
 22
0.0
 32
0.0
 13
1.0
 23
0.0
 33
0.0
 40
0.0
 40
0.0
 40
0.0
 40
0.0
 40
1.0
 40
1.0
 40
1.0
 40
1.0
 10
174.2576443540457
 20
106.6242423681697
 30
0.0
 10
174.2333306501556
 20
106.5476812106197
 30
0.0
 10
174.2118340081994
 20
106.4712558394865
 30
0.0
 10
174.1924083280495
 20
106.3951629687147
 30
0.0
  0
SPLINE
  5
F6
330
1F
100
AcDbEntity
  8
0
  6
HIDDEN
 62
     7
370
     0
100
AcDbSpline
210
0.0
220
0.0
230
1.0
 70
     8
 71
     3
 72
     8
 73
     4
 74
     0
 42
0.00000001
 43
0.00000001
 12
1.0
 22
0.0
 32
0.0
 13
1.0
 23
0.0
 33
0.0
 40
0.0
 40
0.0
 40
0.0
 40
0.0
 40
1.0
 40
1.0
 40
1.0
 40
1.0
 10
174.1924083280495
 20
102.6236182783164
 30
0.0
 10
174.2118337549429
 20
102.6201210747291
 30
0.0
 10
174.2333303089119
 20
102.6181047570869
 30
0.0
 10
174.2576443540462
 20
102.617493903643
 30
0.0
  0
SPLINE
  5
F7
330
1F
100
AcDbEntity
  8
0
  6
HIDDEN
 62
     7
370
     0
100
AcDbSpline
210
0.0
220
0.0
230
1.0
 70
     8
 71
     3
 72
     8
 73
     4
 74
     0
 42
0.00000001
 43
0.00000001
 12
1.0
 22
0.0
 32
0.0
 13
1.0
 23
0.0
 33
0.0
 40
0.0
 40
0.0
 40
0.0
 40
0.0
 40
1.0
 40
1.0
 40
1.0
 40
1.0
 10
175.2908776585033
 20
102.5281355125848
 30
0.0
 10
175.3098145906691
 20
102.5001810751833
 30
0.0
 10
175.3137286716093
 20
102.480097223827
 30
0.0
 10
175.3137286716094
 20
102.4638703796616
 30
0.0
  0
LINE
  5
F8
330
1F
100
AcDbEntity
  8
0
  6
HIDDEN
 62
     7
370
     0
100
AcDbLine
 10
175.3137286767
 20
102.3588623111
 30
0.0
 11
175.3137286767
 21
102.4638707941
 31
0.0
  0
LINE
  5
F9
330
1F
100
AcDbEntity
  8
0
  6
HIDDEN
 62
     7
370
     0
100
AcDbLine
 10
175.3137286767
 20
130.4334937786
 30
0.0
 11
175.3137286767
 21
130.5385022615
 31
0.0
  0
SPLINE
  5
FA
330
1F
100
AcDbEntity
  8
0
  6
HIDDEN
 62
     7
370
     0
100
AcDbSpline
210
0.0
220
0.0
230
1.0
 70
     8
 71
     3
 72
     8
 73
     4
 74
     0
 42
0.00000001
 43
0.00000001
 12
1.0
 22
0.0
 32
0.0
 13
1.0
 23
0.0
 33
0.0
 40
0.0
 40
0.0
 40
0.0
 40
0.0
 40
1.0
 40
1.0
 40
1.0
 40
1.0
 10
174.2576443540459
 20
130.2798706690001
 30
0.0
 10
174.2333303089117
 20
130.2792598155562
 30
0.0
 10
174.2118337549427
 20
130.277243497914
 30
0.0
 10
174.1924083280495
 20
130.2737462943267
 30
0.0
  0
SPLINE
  5
FB
330
1F
100
AcDbEntity
  8
0
  6
HIDDEN
 62
     7
370
     0
100
AcDbSpline
210
0.0
220
0.0
230
1.0
 70
     8
 71
     3
 72
     8
 73
     4
 74
     0
 42
0.00000001
 43
0.00000001
 12
1.0
 22
0.0
 32
0.0
 13
1.0
 23
0.0
 33
0.0
 40
0.0
 40
0.0
 40
0.0
 40
0.0
 40
1.0
 40
1.0
 40
1.0
 40
1.0
 10
174.1924083280495
 20
126.5022016039284
 30
0.0
 10
174.2118340081994
 20
126.4261087331567
 30
0.0
 10
174.2333306501556
 20
126.3496833620235
 30
0.0
 10
174.2576443540457
 20
126.2731222044734
 30
0.0
  0
SPLINE
  5
FC
330
1F
100
AcDbEntity
  8
0
  6
HIDDEN
 62
     7
370
     0
100
AcDbSpline
210
0.0
220
0.0
230
1.0
 70
     8
 71
     3
 72
    16
 73
    12
 74
     0
 42
0.00000001
 43
0.00000001
 12
1.0
 22
0.0
 32
0.0
 13
1.0
 23
0.0
 33
0.0
 40
0.0
 40
0.0
 40
0.0
 40
0.0
 40
0.2500000000000004
 40
0.2500000000000004
 40
0.3749999999999998
 40
0.3749999999999998
 40
0.4999999999999991
 40
0.4999999999999991
 40
0.7499999999999996
 40
0.7499999999999996
 40
1.0
 40
1.0
 40
1.0
 40
1.0
 10
187.7053927865056
 20
121.0929911294685
 30
0.0
 10
187.6620213823186
 20
121.0933609791805
 30
0.0
 10
187.6246329544049
 20
121.0930807477574
 30
0.0
 10
187.5847063873341
 20
121.1174702140765
 30
0.0
 10
187.5742459300835
 20
121.130121192755
 30
0.0
 10
187.5617134532614
 20
121.1752739062565
 30
0.0
 10
187.5598851329676
 20
121.2091971334044
 30
0.0
 10
187.5707655124049
 20
121.3462797416184
 30
0.0
 10
187.5995640819418
 20
121.484749281637
 30
0.0
 10
187.6807726135989
 20
121.7724180062276
 30
0.0
 10
187.7328435259206
 20
121.9223002767326
 30
0.0
 10
187.7925835599941
 20
122.0687561179324
 30
0.0
  0
SPLINE
  5
FD
330
1F
100
AcDbEntity
  8
0
  6
HIDDEN
 62
     7
370
     0
100
AcDbSpline
210
0.0
220
0.0
230
1.0
 70
     8
 71
     3
 72
    68
 73
    64
 74
     0
 42
0.00000001
 43
0.00000001
 12
1.0
 22
0.0
 32
0.0
 13
1.0
 23
0.0
 33
0.0
 40
0.0
 40
0.0
 40
0.0
 40
0.0
 40
0.0312500000000007
 40
0.0312500000000007
 40
0.0468750000000008
 40
0.0468750000000008
 40
0.062500000000001
 40
0.062500000000001
 40
0.0937500000000012
 40
0.0937500000000012
 40
0.1250000000000014
 40
0.1250000000000014
 40
0.1562500000000017
 40
0.1562500000000017
 40
0.1875000000000019
 40
0.1875000000000019
 40
0.2187500000000021
 40
0.2187500000000021
 40
0.2500000000000023
 40
0.2500000000000023
 40
0.2812500000000026
 40
0.2812500000000026
 40
0.3125000000000028
 40
0.3125000000000028
 40
0.3750000000000031
 40
0.3750000000000031
 40
0.4062500000000032
 40
0.4062500000000032
 40
0.4375000000000033
 40
0.4375000000000033
 40
0.4687500000000033
 40
0.4687500000000033
 40
0.4843750000000034
 40
0.4843750000000034
 40
0.5000000000000033
 40
0.5000000000000033
 40
0.5312500000000031
 40
0.5312500000000031
 40
0.5625000000000029
 40
0.5625000000000029
 40
0.6250000000000026
 40
0.6250000000000026
 40
0.6562500000000023
 40
0.6562500000000023
 40
0.6875000000000021
 40
0.6875000000000021
 40
0.718750000000002
 40
0.718750000000002
 40
0.7500000000000018
 40
0.7500000000000018
 40
0.8125000000000012
 40
0.8125000000000012
 40
0.8437500000000011
 40
0.8437500000000011
 40
0.8750000000000009
 40
0.8750000000000009
 40
0.9062500000000007
 40
0.9062500000000007
 40
0.9375000000000004
 40
0.9375000000000004
 40
0.9687500000000003
 40
0.9687500000000003
 40
1.0
 40
1.0
 40
1.0
 40
1.0
 10
187.7925835599942
 20
122.0687561179324
 30
0.0
 10
187.8735828182492
 20
122.1509216522728
 30
0.0
 10
187.9679626231263
 20
122.2306530345407
 30
0.0
 10
188.1366064303749
 20
122.3539278074899
 30
0.0
 10
188.1964271721153
 20
122.3949733733558
 30
0.0
 10
188.3244659774956
 20
122.4780021180486
 30
0.0
 10
188.3928178948468
 20
122.5199943850135
 30
0.0
 10
188.5995141727807
 20
122.6400855277942
 30
0.0
 10
188.7440306402039
 20
122.7148886962707
 30
0.0
 10
189.0270549225563
 20
122.8388456169513
 30
0.0
 10
189.1699872524669
 20
122.8900743079101
 30
0.0
 10
189.452849835451
 20
122.9654037729651
 30
0.0
 10
189.5935879218356
 20
122.9901108126804
 30
0.0
 10
189.8777755298919
 20
123.010360208141
 30
0.0
 10
190.0218753434321
 20
123.0054802659705
 30
0.0
 10
190.3026590864561
 20
122.9609603213055
 30
0.0
 10
190.4422613361417
 20
122.9210050420564
 30
0.0
 10
190.7103564612036
 20
122.8010187935112
 30
0.0
 10
190.8364816200584
 20
122.7225164602128
 30
0.0
 10
191.0714568483364
 20
122.5225460373207
 30
0.0
 10
191.1739451783928
 20
122.406404117212
 30
0.0
 10
191.3500771720738
 20
122.1425092597192
 30
0.0
 10
191.421439389554
 20
121.9971084697934
 30
0.0
 10
191.5830791214537
 20
121.5440634594652
 30
0.0
 10
191.6206850640245
 20
121.2190142987219
 30
0.0
 10
191.6086265221623
 20
120.7651447964113
 30
0.0
 10
191.5936836086313
 20
120.6182108441505
 30
0.0
 10
191.5491178616536
 20
120.3338005976641
 30
0.0
 10
191.519512851469
 20
120.1980576952548
 30
0.0
 10
191.4584467522446
 20
119.9487905736668
 30
0.0
 10
191.4261787680141
 20
119.8326837773371
 30
0.0
 10
191.3955143525157
 20
119.6942638870494
 30
0.0
 10
191.3883128773189
 20
119.653515950681
 30
0.0
 10
191.383141011322
 20
119.5892472872766
 30
0.0
 10
191.3850419261639
 20
119.5654333787326
 30
0.0
 10
191.4027214321428
 20
119.5171380771772
 30
0.0
 10
191.4295557490772
 20
119.5168239198139
 30
0.0
 10
191.487256997764
 20
119.5530961524746
 30
0.0
 10
191.517830761085
 20
119.5893890500081
 30
0.0
 10
191.5943044364452
 20
119.7322831603988
 30
0.0
 10
191.6263885211681
 20
119.8755777013734
 30
0.0
 10
191.6000283324978
 20
120.1405177550015
 30
0.0
 10
191.5785792698236
 20
120.2393703091848
 30
0.0
 10
191.5043593780682
 20
120.4491218566939
 30
0.0
 10
191.4507802383708
 20
120.5621578268307
 30
0.0
 10
191.3087329571037
 20
120.792791385173
 30
0.0
 10
191.221813871203
 20
120.9086201335464
 30
0.0
 10
191.0127138175253
 20
121.1388843540468
 30
0.0
 10
190.8967192883794
 20
121.2465612835782
 30
0.0
 10
190.5163987819422
 20
121.5475296640628
 30
0.0
 10
190.237461013426
 20
121.7039369792859
 30
0.0
 10
189.8264899935019
 20
121.8661949964346
 30
0.0
 10
189.6880996565536
 20
121.9093047305016
 30
0.0
 10
189.4147886509669
 20
121.9711038489121
 30
0.0
 10
189.279994381423
 20
121.9901443120281
 30
0.0
 10
189.0089980642142
 20
122.000664767067
 30
0.0
 10
188.8726344108073
 20
121.992154823423
 30
0.0
 10
188.5992400506516
 20
121.9334547156274
 30
0.0
 10
188.4609745088959
 20
121.8821687705504
 30
0.0
 10
188.1948981772589
 20
121.7194340889391
 30
0.0
 10
188.0731471114597
 20
121.6107561827917
 30
0.0
 10
187.8652773859481
 20
121.3668491328088
 30
0.0
 10
187.7790239603342
 20
121.2341870540699
 30
0.0
 10
187.7053927865056
 20
121.0929911294684
 30
0.0
  0
SPLINE
  5
FE
330
1F
100
AcDbEntity
  8
0
  6
HIDDEN
 62
     7
370
     0
100
AcDbSpline
210
0.0
220
0.0
230
1.0
 70
     8
 71
     3
 72
    62
 73
    58
 74
     0
 42
0.00000001
 43
0.00000001
 12
1.0
 22
0.0
 32
0.0
 13
1.0
 23
0.0
 33
0.0
 40
-0.0312500000000001
 40
-0.0312500000000001
 40
0.0
 40
0.0
 40
0.03125
 40
0.03125
 40
0.0625
 40
0.0625
 40
0.09375
 40
0.09375
 40
0.125
 40
0.125
 40
0.1874999999999998
 40
0.1874999999999998
 40
0.2187499999999997
 40
0.2187499999999997
 40
0.2499999999999996
 40
0.2499999999999996
 40
0.2812499999999996
 40
0.2812499999999996
 40
0.3124999999999995
 40
0.3124999999999995
 40
0.3437499999999994
 40
0.3437499999999994
 40
0.3749999999999994
 40
0.3749999999999994
 40
0.4062499999999993
 40
0.4062499999999993
 40
0.4374999999999992
 40
0.4374999999999992
 40
0.4687499999999992
 40
0.4687499999999992
 40
0.4999999999999991
 40
0.4999999999999991
 40
0.5624999999999986
 40
0.5624999999999986
 40
0.5937499999999984
 40
0.5937499999999984
 40
0.6249999999999983
 40
0.6249999999999983
 40
0.6874999999999984
 40
0.6874999999999984
 40
0.7187499999999986
 40
0.7187499999999986
 40
0.7499999999999987
 40
0.7499999999999987
 40
0.7812499999999987
 40
0.7812499999999987
 40
0.8124999999999988
 40
0.8124999999999988
 40
0.8749999999999992
 40
0.8749999999999992
 40
0.9062499999999994
 40
0.9062499999999994
 40
0.9374999999999997
 40
0.9374999999999997
 40
0.9687499999999999
 40
0.9687499999999999
 40
1.0
 40
1.0
 40
1.03125
 40
1.03125
 10
189.6535702174111
 20
116.4886763534383
 30
0.0
 10
189.3738871258077
 20
116.4886763534383
 30
0.0
 10
189.2366031688502
 20
116.5033737110095
 30
0.0
 10
188.9668674139987
 20
116.5605275708114
 30
0.0
 10
188.8329853949032
 20
116.6037345306202
 30
0.0
 10
188.5792388365052
 20
116.7148713218037
 30
0.0
 10
188.4590531747626
 20
116.7824625382378
 30
0.0
 10
188.2315905832487
 20
116.9407312837463
 30
0.0
 10
188.1247753777872
 20
117.0315014894441
 30
0.0
 10
187.8365307804625
 20
117.3265180118431
 30
0.0
 10
187.6804100815613
 20
117.5610274529787
 30
0.0
 10
187.522694620719
 20
117.9335898023884
 30
0.0
 10
187.4817853916114
 20
118.0635607770351
 30
0.0
 10
187.4274084865891
 20
118.3249069395412
 30
0.0
 10
187.4138210186996
 20
118.4551847498383
 30
0.0
 10
187.4136372537119
 20
118.7148062112459
 30
0.0
 10
187.4275232899181
 20
118.8450159902678
 30
0.0
 10
187.4816103744688
 20
119.0928495617224
 30
0.0
 10
187.5216191305138
 20
119.2119158137479
 30
0.0
 10
187.6279654050961
 20
119.4407735687296
 30
0.0
 10
187.6931646800136
 20
119.5478366438088
 30
0.0
 10
187.8448720840518
 20
119.745902477067
 30
0.0
 10
187.9326727586917
 20
119.8382423238587
 30
0.0
 10
188.1260106680551
 20
120.0036209074225
 30
0.0
 10
188.2309590540667
 20
120.0765905483688
 30
0.0
 10
188.4576870640127
 20
120.2043183202832
 30
0.0
 10
188.5804588149948
 20
120.2591711847586
 30
0.0
 10
188.8331372872201
 20
120.3462583783461
 30
0.0
 10
188.9641182587208
 20
120.379275593582
 30
0.0
 10
189.2359066299696
 20
120.4240796710873
 30
0.0
 10
189.3751402403038
 20
120.4353390700518
 30
0.0
 10
189.7883240231022
 20
120.4354775096386
 30
0.0
 10
190.0663997678169
 20
120.3902324985745
 30
0.0
 10
190.4464685958482
 20
120.2594107295795
 30
0.0
 10
190.5692368377903
 20
120.2045731199754
 30
0.0
 10
190.7959230036766
 20
120.076960129571
 30
0.0
 10
190.901091112222
 20
120.0039255581179
 30
0.0
 10
191.1921776079522
 20
119.7549326595085
 30
0.0
 10
191.3461081301803
 20
119.5554312258019
 30
0.0
 10
191.5055397329301
 20
119.2126700099656
 30
0.0
 10
191.5455409304855
 20
119.0938194006682
 30
0.0
 10
191.5997001514149
 20
118.8465159254324
 30
0.0
 10
191.6137230579643
 20
118.7164294338479
 30
0.0
 10
191.6137342818011
 20
118.456346977527
 30
0.0
 10
191.600193328602
 20
118.325963450474
 30
0.0
 10
191.5459752419922
 20
118.0646592750703
 30
0.0
 10
191.5050952873859
 20
117.9344792642934
 30
0.0
 10
191.3471272102101
 20
117.561009318553
 30
0.0
 10
191.1910992528551
 20
117.3266535712714
 30
0.0
 10
190.9023521335299
 20
117.0311845285376
 30
0.0
 10
190.795137298801
 20
116.9401835777934
 30
0.0
 10
190.5682838918511
 20
116.7824191462932
 30
0.0
 10
190.4482663796112
 20
116.7148932456444
 30
0.0
 10
190.194448172157
 20
116.603723160843
 30
0.0
 10
190.0605811281056
 20
116.5605275330664
 30
0.0
 10
189.7909138862114
 20
116.5033845364888
 30
0.0
 10
189.6535702174111
 20
116.4886763534383
 30
0.0
 10
189.3738871258077
 20
116.4886763534383
 30
0.0
  0
LWPOLYLINE
  5
FF
330
1F
100
AcDbEntity
  8
0
  6
HIDDEN
 62
     7
370
     0
100
AcDbPolyline
 90
       30
 70
   128
 43
0.0
 10
189.5137291037
 20
119.6056299568
 10
189.9651663014
 20
119.6517658145
 10
190.3954960042
 20
119.7880164445
 10
190.7845941939
 20
120.0080106692
 10
191.1142693468
 20
120.3014617977
 10
191.369104349
 20
120.6546486546
 10
191.5371838593
 20
121.0510563296
 10
191.6106484466
 20
121.4721491751
 10
191.5860652559
 20
121.8982376349
 10
191.464579814
 20
122.3093983908
 10
191.2518750512
 20
122.6864056853
 10
190.9578974926
 20
123.0116309789
 10
190.5963915967
 20
123.2698671711
 10
190.1842617997
 20
123.4490401303
 10
189.7407790282
 20
123.5407712129
 10
189.2866791793
 20
123.5407712129
 10
188.8431954765
 20
123.4490401303
 10
188.4310656794
 20
123.2698671711
 10
188.0695597836
 20
123.0116309789
 10
187.775582225
 20
122.6864056853
 10
187.5628774621
 20
122.3093983908
 10
187.4413929515
 20
121.8982376349
 10
187.4168088295
 20
121.4721491751
 10
187.4902734169
 20
121.0510563296
 10
187.6583529272
 20
120.6546486546
 10
187.9131879293
 20
120.3014617977
 10
188.2428630822
 20
120.0080106692
 10
188.631961272
 20
119.7880164445
 10
189.0622909748
 20
119.6517658145
 10
189.5137291037
 20
119.6056299568
  0
LINE
  5
100
330
1F
100
AcDbEntity
  8
0
  6
HIDDEN
 62
     7
370
     0
100
AcDbLine
 10
175.3137286767
 20
102.4638707941
 30
0.0
 11
175.3137286767
 21
110.9432373387
 31
0.0
  0
LINE
  5
101
330
1F
100
AcDbEntity
  8
0
  6
HIDDEN
 62
     7
370
     0
100
AcDbLine
 10
175.3137286767
 20
121.954127234
 30
0.0
 11
175.3137286767
 21
130.4334937786
 31
0.0
  0
LWPOLYLINE
  5
102
330
1F
100
AcDbEntity
  8
0
  6
HIDDEN
 62
     7
370
     0
100
AcDbPolyline
 90
        9
 70
   128
 43
0.0
 10
187.7925835186
 20
122.0687562791
 10
187.6825961851
 20
122.091034912
 10
187.5985163831
 20
122.0682915491
 10
187.5424470388
 20
122.0010947627
 10
187.5157925867
 20
121.8911255901
 10
187.5192179912
 20
121.7411360894
 10
187.5526394331
 20
121.5548780938
 10
187.6152196535
 20
121.3370128726
 10
187.7053930991
 20
121.0929909912
  0
CIRCLE
  5
103
330
1F
100
AcDbEntity
  8
0
  6
HIDDEN
 62
     7
370
     0
100
AcDbCircle
 10
164.0137286716
 20
116.4486822863
 30
0.0
 40
2.299999999999997
  0
LINE
  5
104
330
1F
100
AcDbEntity
  8
0
  6
HIDDEN
 62
     7
370
     0
100
AcDbLine
 10
152.540761196
 20
126.0113758226
 30
0.0
 11
152.540761196
 21
106.88598875
 31
0.0
  0
LINE
  5
105
330
1F
100
AcDbEntity
  8
0
  6
HIDDEN
 62
     7
370
     0
100
AcDbLine
 10
151.513728463
 20
106.2930314993
 30
0.0
 11
151.513728463
 21
126.6043330734
 31
0.0
  0
LINE
  5
106
330
1F
100
AcDbEntity
  8
0
  6
HIDDEN
 62
     7
370
     0
100
AcDbLine
 10
156.0407608383
 20
125.6796219577
 30
0.0
 11
156.0407608383
 21
107.2177426149
 31
0.0
  0
LINE
  5
107
330
1F
100
AcDbEntity
  8
0
  6
HIDDEN
 62
     7
370
     0
100
AcDbLine
 10
159.4407606506
 20
125.4486818989
 30
0.0
 11
159.4407606506
 21
107.4486826738
 31
0.0
  0
LINE
  5
108
330
1F
100
AcDbEntity
  8
0
  6
HIDDEN
 62
     7
370
     0
100
AcDbLine
 10
154.6407613539
 20
125.4486818989
 30
0.0
 11
154.6407613539
 21
107.4486826738
 31
0.0
  0
LINE
  5
109
330
1F
100
AcDbEntity
  8
0
  6
HIDDEN
 62
     7
370
     0
100
AcDbLine
 10
155.6407615178
 20
125.4486818989
 30
0.0
 11
155.6407615178
 21
107.4486826738
 31
0.0
  0
SPLINE
  5
10A
330
1F
100
AcDbEntity
  8
0
  6
HIDDEN
 62
     7
370
     0
100
AcDbSpline
210
0.0
220
0.0
230
1.0
 70
     8
 71
     3
 72
    14
 73
    10
 74
     0
 42
0.00000001
 43
0.00000001
 12
1.0
 22
0.0
 32
0.0
 13
1.0
 23
0.0
 33
0.0
 40
0.0
 40
0.0
 40
0.0
 40
0.0
 40
0.25
 40
0.25
 40
0.5
 40
0.5
 40
0.75
 40
0.75
 40
1.0
 40
1.0
 40
1.0
 40
1.0
 10
166.0137286716092
 20
117.5844639554816
 30
0.0
 10
166.1119530181122
 20
117.4115005256781
 30
0.0
 10
166.1872678560962
 20
117.2264679712537
 30
0.0
 10
166.2882345662906
 20
116.8434557571192
 30
0.0
 10
166.3136101525808
 20
116.6487372036536
 30
0.0
 10
166.3138463778471
 20
116.251361902388
 30
0.0
 10
166.2881433085115
 20
116.0538695679126
 30
0.0
 10
166.187823194995
 20
115.6726977332816
 30
0.0
 10
166.1119313669074
 20
115.485825921309
 30
0.0
 10
166.0137286716138
 20
115.3129006171591
 30
0.0
  0
LINE
  5
10B
330
1F
100
AcDbEntity
  8
0
  6
HIDDEN
 62
     7
370
     0
100
AcDbLine
 10
166.513729059
 20
124.9486827483
 30
0.0
 11
166.513729059
 21
107.9486818244
 31
0.0
  0
SPLINE
  5
10C
330
1F
100
AcDbEntity
  8
0
  6
HIDDEN
 62
     7
370
     0
100
AcDbSpline
210
0.0
220
0.0
230
1.0
 70
     8
 71
     3
 72
    14
 73
    10
 74
     0
 42
0.00000001
 43
0.00000001
 12
1.0
 22
0.0
 32
0.0
 13
1.0
 23
0.0
 33
0.0
 40
0.0
 40
0.0
 40
0.0
 40
0.0
 40
0.2500000000000001
 40
0.2500000000000001
 40
0.5000000000000001
 40
0.5000000000000001
 40
0.7500000000000002
 40
0.7500000000000002
 40
1.0
 40
1.0
 40
1.0
 40
1.0
 10
166.0137286716092
 20
115.3129006171615
 30
0.0
 10
166.1119530181122
 20
115.485864046965
 30
0.0
 10
166.1872678560962
 20
115.6708966013894
 30
0.0
 10
166.2882345662906
 20
116.0539088155239
 30
0.0
 10
166.3136101525808
 20
116.2486273689895
 30
0.0
 10
166.3138463778471
 20
116.6460026702551
 30
0.0
 10
166.2881433085115
 20
116.8434950047305
 30
0.0
 10
166.187823194995
 20
117.2246668393615
 30
0.0
 10
166.1119313669074
 20
117.4115386513341
 30
0.0
 10
166.0137286716138
 20
117.584463955484
 30
0.0
  0
SPLINE
  5
10D
330
1F
100
AcDbEntity
  8
0
  6
HIDDEN
 62
     7
370
     0
100
AcDbSpline
210
0.0
220
0.0
230
1.0
 70
     8
 71
     3
 72
    60
 73
    56
 74
     0
 42
0.00000001
 43
0.00000001
 12
1.0
 22
0.0
 32
0.0
 13
1.0
 23
0.0
 33
0.0
 40
0.0
 40
0.0
 40
0.0
 40
0.0
 40
0.0625
 40
0.0625
 40
0.125
 40
0.125
 40
0.1874999999999999
 40
0.1874999999999999
 40
0.2187500000000002
 40
0.2187500000000002
 40
0.2500000000000004
 40
0.2500000000000004
 40
0.3125000000000004
 40
0.3125000000000004
 40
0.3750000000000003
 40
0.3750000000000003
 40
0.4062500000000003
 40
0.4062500000000003
 40
0.4375000000000002
 40
0.4375000000000002
 40
0.4687500000000002
 40
0.4687500000000002
 40
0.5000000000000001
 40
0.5000000000000001
 40
0.5312500000000001
 40
0.5312500000000001
 40
0.5625000000000001
 40
0.5625000000000001
 40
0.5937500000000001
 40
0.5937500000000001
 40
0.6250000000000001
 40
0.6250000000000001
 40
0.6562500000000001
 40
0.6562500000000001
 40
0.6875000000000001
 40
0.6875000000000001
 40
0.7187500000000001
 40
0.7187500000000001
 40
0.75
 40
0.75
 40
0.78125
 40
0.78125
 40
0.8125
 40
0.8125
 40
0.84375
 40
0.84375
 40
0.875
 40
0.875
 40
0.90625
 40
0.90625
 40
0.9375
 40
0.9375
 40
0.96875
 40
0.96875
 40
1.0
 40
1.0
 40
1.0
 40
1.0
 10
166.0137286716092
 20
115.3129006171615
 30
0.0
 10
165.8885387700305
 20
115.0924534925459
 30
0.0
 10
165.7316714514623
 20
114.8987197637256
 30
0.0
 10
165.3546339316435
 20
114.5630300649631
 30
0.0
 10
165.1429206252225
 20
114.4290527066504
 30
0.0
 10
164.6770306432738
 20
114.2319259619653
 30
0.0
 10
164.4311914122222
 20
114.1727085497434
 30
0.0
 10
164.0517103591276
 20
114.1455018138527
 30
0.0
 10
163.9239646304337
 20
114.1469950789946
 30
0.0
 10
163.6734983837655
 20
114.1705108848035
 30
0.0
 10
163.5496690009573
 20
114.1924301036078
 30
0.0
 10
163.1824493268587
 20
114.2892666684527
 30
0.0
 10
162.951680308773
 20
114.3930677899045
 30
0.0
 10
162.5317913473534
 20
114.6717862708325
 30
0.0
 10
162.3475329724659
 20
114.8433485623362
 30
0.0
 10
162.1167845849826
 20
115.141995923603
 30
0.0
 10
162.0477377351936
 20
115.2484634641053
 30
0.0
 10
161.9291730713881
 20
115.4687468124983
 30
0.0
 10
161.8789647026385
 20
115.5834083288997
 30
0.0
 10
161.7971328502807
 20
115.8220889656764
 30
0.0
 10
161.765781951398
 20
115.9461345925545
 30
0.0
 10
161.7243875733594
 20
116.1942496286629
 30
0.0
 10
161.7138817982951
 20
116.3194873311513
 30
0.0
 10
161.7135788459593
 20
116.5723663867424
 30
0.0
 10
161.7240633755759
 20
116.700246072979
 30
0.0
 10
161.7652034530373
 20
116.9486681341844
 30
0.0
 10
161.7957815735859
 20
117.0704670609528
 30
0.0
 10
161.8770642819372
 20
117.3092465904272
 30
0.0
 10
161.9280651684991
 20
117.4262881527338
 30
0.0
 10
162.0466322168622
 20
117.6471133506597
 30
0.0
 10
162.114520970134
 20
117.7520517142225
 30
0.0
 10
162.2676714078716
 20
117.9510290474519
 30
0.0
 10
162.3532275794441
 20
118.045037172646
 30
0.0
 10
162.5359389504033
 20
118.2155298575828
 30
0.0
 10
162.6337462500852
 20
118.2929680526321
 30
0.0
 10
162.8425493620022
 20
118.4321339485204
 30
0.0
 10
162.95413153729
 20
118.4939157575274
 30
0.0
 10
163.182777336789
 20
118.5969946281282
 30
0.0
 10
163.3007321477602
 20
118.6389986633238
 30
0.0
 10
163.5440605927489
 20
118.7037347846206
 30
0.0
 10
163.6704044680919
 20
118.7264080471833
 30
0.0
 10
163.9215104491098
 20
118.7502908433645
 30
0.0
 10
164.0471924428327
 20
118.7518941446311
 30
0.0
 10
164.2988145126245
 20
118.7344274058602
 30
0.0
 10
164.4257121329103
 20
118.7149915152203
 30
0.0
 10
164.6709026991715
 20
118.6563983438966
 30
0.0
 10
164.790091856205
 20
118.61733549274
 30
0.0
 10
165.0217768805598
 20
118.5198257706162
 30
0.0
 10
165.1349516849103
 20
118.4607904163276
 30
0.0
 10
165.347030101846
 20
118.3269866994881
 30
0.0
 10
165.4468188805468
 20
118.2519914833434
 30
0.0
 10
165.6340770675358
 20
118.0857964188226
 30
0.0
 10
165.7219721044791
 20
117.9939022200811
 30
0.0
 10
165.880193180111
 20
117.7985380223667
 30
0.0
 10
165.9511311364027
 20
117.6946920686942
 30
0.0
 10
166.0137286716092
 20
117.5844639554816
 30
0.0
  0
SPLINE
  5
10E
330
1F
100
AcDbEntity
  8
0
  6
HIDDEN
 62
     7
370
     0
100
AcDbSpline
210
0.0
220
0.0
230
1.0
 70
     8
 71
     3
 72
    60
 73
    56
 74
     0
 42
0.00000001
 43
0.00000001
 12
1.0
 22
0.0
 32
0.0
 13
1.0
 23
0.0
 33
0.0
 40
0.0
 40
0.0
 40
0.0
 40
0.0
 40
0.0625000000000002
 40
0.0625000000000002
 40
0.1250000000000003
 40
0.1250000000000003
 40
0.1875000000000004
 40
0.1875000000000004
 40
0.2187500000000003
 40
0.2187500000000003
 40
0.2500000000000002
 40
0.2500000000000002
 40
0.3124999999999999
 40
0.3124999999999999
 40
0.3749999999999996
 40
0.3749999999999996
 40
0.4062499999999997
 40
0.4062499999999997
 40
0.4374999999999996
 40
0.4374999999999996
 40
0.4687499999999996
 40
0.4687499999999996
 40
0.4999999999999996
 40
0.4999999999999996
 40
0.5312499999999996
 40
0.5312499999999996
 40
0.5624999999999994
 40
0.5624999999999994
 40
0.5937499999999994
 40
0.5937499999999994
 40
0.6249999999999994
 40
0.6249999999999994
 40
0.6562499999999993
 40
0.6562499999999993
 40
0.6874999999999993
 40
0.6874999999999993
 40
0.7187499999999994
 40
0.7187499999999994
 40
0.7499999999999994
 40
0.7499999999999994
 40
0.7812499999999996
 40
0.7812499999999996
 40
0.8124999999999997
 40
0.8124999999999997
 40
0.8437499999999998
 40
0.8437499999999998
 40
0.8749999999999998
 40
0.8749999999999998
 40
0.9062499999999999
 40
0.9062499999999999
 40
0.9375
 40
0.9375
 40
0.96875
 40
0.96875
 40
1.0
 40
1.0
 40
1.0
 40
1.0
 10
166.0137286716092
 20
117.5844639554816
 30
0.0
 10
165.8885387700305
 20
117.8049110800972
 30
0.0
 10
165.7316714514623
 20
117.9986448089175
 30
0.0
 10
165.3546339316435
 20
118.33433450768
 30
0.0
 10
165.1429206252225
 20
118.4683118659927
 30
0.0
 10
164.6770306432738
 20
118.6654386106778
 30
0.0
 10
164.4311914122222
 20
118.7246560228997
 30
0.0
 10
164.0517103591276
 20
118.7518627587904
 30
0.0
 10
163.9239646304337
 20
118.7503694936485
 30
0.0
 10
163.6734983837655
 20
118.7268536878396
 30
0.0
 10
163.5496690009573
 20
118.7049344690353
 30
0.0
 10
163.1824493268587
 20
118.6080979041904
 30
0.0
 10
162.951680308773
 20
118.5042967827386
 30
0.0
 10
162.5317913473534
 20
118.2255783018106
 30
0.0
 10
162.3475329724659
 20
118.0540160103069
 30
0.0
 10
162.1167845849826
 20
117.7553686490401
 30
0.0
 10
162.0477377351936
 20
117.6489011085378
 30
0.0
 10
161.9291730713881
 20
117.4286177601449
 30
0.0
 10
161.8789647026385
 20
117.3139562437434
 30
0.0
 10
161.7971328502807
 20
117.0752756069667
 30
0.0
 10
161.765781951398
 20
116.9512299800886
 30
0.0
 10
161.7243875733594
 20
116.7031149439802
 30
0.0
 10
161.7138817982951
 20
116.5778772414918
 30
0.0
 10
161.7135788459593
 20
116.3249981859008
 30
0.0
 10
161.7240633755759
 20
116.1971184996641
 30
0.0
 10
161.7652034530373
 20
115.9486964384587
 30
0.0
 10
161.7957815735859
 20
115.8268975116903
 30
0.0
 10
161.8770642819372
 20
115.5881179822159
 30
0.0
 10
161.9280651684991
 20
115.4710764199093
 30
0.0
 10
162.0466322168622
 20
115.2502512219834
 30
0.0
 10
162.114520970134
 20
115.1453128584206
 30
0.0
 10
162.2676714078716
 20
114.9463355251912
 30
0.0
 10
162.3532275794441
 20
114.8523273999971
 30
0.0
 10
162.5359389504033
 20
114.6818347150603
 30
0.0
 10
162.6337462500852
 20
114.604396520011
 30
0.0
 10
162.8425493620022
 20
114.4652306241227
 30
0.0
 10
162.95413153729
 20
114.4034488151157
 30
0.0
 10
163.182777336789
 20
114.3003699445149
 30
0.0
 10
163.3007321477602
 20
114.2583659093193
 30
0.0
 10
163.5440605927489
 20
114.1936297880225
 30
0.0
 10
163.670404468092
 20
114.1709565254598
 30
0.0
 10
163.9215104491098
 20
114.1470737292786
 30
0.0
 10
164.0471924428327
 20
114.145470428012
 30
0.0
 10
164.2988145126246
 20
114.1629371667829
 30
0.0
 10
164.4257121329103
 20
114.1823730574228
 30
0.0
 10
164.6709026991715
 20
114.2409662287465
 30
0.0
 10
164.790091856205
 20
114.2800290799031
 30
0.0
 10
165.0217768805598
 20
114.3775388020269
 30
0.0
 10
165.1349516849103
 20
114.4365741563155
 30
0.0
 10
165.347030101846
 20
114.570377873155
 30
0.0
 10
165.4468188805469
 20
114.6453730892997
 30
0.0
 10
165.6340770675358
 20
114.8115681538205
 30
0.0
 10
165.7219721044791
 20
114.9034623525621
 30
0.0
 10
165.880193180111
 20
115.0988265502764
 30
0.0
 10
165.9511311364027
 20
115.2026725039489
 30
0.0
 10
166.0137286716092
 20
115.3129006171615
 30
0.0
  0
LINE
  5
10F
330
1F
100
AcDbEntity
  8
0
  6
HIDDEN
 62
     7
370
     0
100
AcDbLine
 10
167.4137284615
 20
122.6986823795
 30
0.0
 11
167.4137284615
 21
110.1986821932
 31
0.0
  0
LINE
  5
110
330
1F
100
AcDbEntity
  8
0
  6
HIDDEN
 62
     7
370
     0
100
AcDbLine
 10
166.513729059
 20
109.2986823251
 30
0.0
 11
166.513729059
 21
123.5861247596
 31
0.0
  0
SPLINE
  5
111
330
1F
100
AcDbEntity
  8
0
  6
HIDDEN
 62
     7
370
     0
100
AcDbSpline
210
0.0
220
0.0
230
1.0
 70
     8
 71
     3
 72
    62
 73
    58
 74
     0
 42
0.00000001
 43
0.00000001
 12
1.0
 22
0.0
 32
0.0
 13
1.0
 23
0.0
 33
0.0
 40
-0.0312500000000001
 40
-0.0312500000000001
 40
0.0
 40
0.0
 40
0.0312499999999999
 40
0.0312499999999999
 40
0.0624999999999998
 40
0.0624999999999998
 40
0.0937499999999998
 40
0.0937499999999998
 40
0.1249999999999997
 40
0.1249999999999997
 40
0.1874999999999993
 40
0.1874999999999993
 40
0.2187499999999992
 40
0.2187499999999992
 40
0.2499999999999991
 40
0.2499999999999991
 40
0.2812499999999991
 40
0.2812499999999991
 40
0.3124999999999989
 40
0.3124999999999989
 40
0.3437499999999989
 40
0.3437499999999989
 40
0.3749999999999988
 40
0.3749999999999988
 40
0.4062499999999987
 40
0.4062499999999987
 40
0.4374999999999987
 40
0.4374999999999987
 40
0.4687499999999986
 40
0.4687499999999986
 40
0.4999999999999985
 40
0.4999999999999985
 40
0.5624999999999984
 40
0.5624999999999984
 40
0.5937499999999986
 40
0.5937499999999986
 40
0.6249999999999987
 40
0.6249999999999987
 40
0.687499999999999
 40
0.687499999999999
 40
0.718749999999999
 40
0.718749999999999
 40
0.749999999999999
 40
0.749999999999999
 40
0.7812499999999992
 40
0.7812499999999992
 40
0.8124999999999993
 40
0.8124999999999993
 40
0.8749999999999997
 40
0.8749999999999997
 40
0.9062499999999997
 40
0.9062499999999997
 40
0.9374999999999997
 40
0.9374999999999997
 40
0.9687499999999999
 40
0.9687499999999999
 40
1.0
 40
1.0
 40
1.03125
 40
1.03125
 10
189.3738871258076
 20
112.461979211904
 30
0.0
 10
189.653570217411
 20
112.461979211904
 30
0.0
 10
189.7908541743686
 20
112.4732676017486
 30
0.0
 10
190.06058992922
 20
112.5175394971887
 30
0.0
 10
190.1944719483155
 20
112.5511140842689
 30
0.0
 10
190.4482185067135
 20
112.638658562652
 30
0.0
 10
190.5684041684562
 20
112.6923594383374
 30
0.0
 10
190.79586675997
 20
112.8203361870533
 30
0.0
 10
190.9026819654316
 20
112.8947251168845
 30
0.0
 10
191.1909265627562
 20
113.1415119323727
 30
0.0
 10
191.3470472616575
 20
113.3441211189301
 30
0.0
 10
191.5047627224997
 20
113.682939949342
 30
0.0
 10
191.5456719516073
 20
113.8037614796384
 30
0.0
 10
191.6000488566296
 20
114.0528262602675
 30
0.0
 10
191.6136363245191
 20
114.1799541830909
 30
0.0
 10
191.6138200895068
 20
114.4395334084148
 30
0.0
 10
191.5999340533006
 20
114.5729611604679
 30
0.0
 10
191.5458469687499
 20
114.8330108150772
 30
0.0
 10
191.505838212705
 20
114.9610333358531
 30
0.0
 10
191.3994919381227
 20
115.2126490969848
 30
0.0
 10
191.3342926632052
 20
115.3332566502534
 30
0.0
 10
191.182585259167
 20
115.5608115608452
 30
0.0
 10
191.094784584527
 20
115.6693295396074
 30
0.0
 10
190.9014466751636
 20
115.8670445694983
 30
0.0
 10
190.7964982891521
 20
115.9560988779391
 30
0.0
 10
190.569770279206
 20
116.1140456519571
 30
0.0
 10
190.446998528224
 20
116.1830816202198
 30
0.0
 10
190.1943200559986
 20
116.2936422351282
 30
0.0
 10
190.0633390844979
 20
116.3361290490537
 30
0.0
 10
189.7915507132491
 20
116.3939671318531
 30
0.0
 10
189.6523171029149
 20
116.4086281137451
 30
0.0
 10
189.2391333201165
 20
116.4088078685835
 30
0.0
 10
188.9610575754018
 20
116.3494746933696
 30
0.0
 10
188.5809887473705
 20
116.183382954136
 30
0.0
 10
188.4582205054284
 20
116.1143646437784
 30
0.0
 10
188.2315343395421
 20
115.9565520078233
 30
0.0
 10
188.1263662309967
 20
115.8674087336942
 30
0.0
 10
187.8352797352665
 20
115.5697304603507
 30
0.0
 10
187.6813492130385
 20
115.338727987805
 30
0.0
 10
187.5219176102887
 20
114.9618528273869
 30
0.0
 10
187.4819164127332
 20
114.834049057651
 30
0.0
 10
187.4277571918038
 20
114.5745146355068
 30
0.0
 10
187.4137342852544
 20
114.4411789325033
 30
0.0
 10
187.4137230614176
 20
114.1810938965234
 30
0.0
 10
187.4272640146167
 20
114.0538495456873
 30
0.0
 10
187.4814821012265
 20
113.8047920682129
 30
0.0
 10
187.5223620558329
 20
113.683756953123
 30
0.0
 10
187.6803301330087
 20
113.3440884806328
 30
0.0
 10
187.8363580903636
 20
113.1416219055913
 30
0.0
 10
188.1251052096888
 20
112.8944616877341
 30
0.0
 10
188.2323200444177
 20
112.8198909008433
 30
0.0
 10
188.4591734513676
 20
112.6923267694358
 30
0.0
 10
188.5791909636075
 20
112.6386758626815
 30
0.0
 10
188.8330091710617
 20
112.5511050978706
 30
0.0
 10
188.9668762151131
 20
112.5175394838065
 30
0.0
 10
189.2365434570073
 20
112.4732759714101
 30
0.0
 10
189.3738871258076
 20
112.461979211904
 30
0.0
 10
189.653570217411
 20
112.461979211904
 30
0.0
  0
LINE
  5
112
330
1F
100
AcDbEntity
  8
0
  6
HIDDEN
 62
     7
370
     0
100
AcDbLine
 10
192.5137295955
 20
110.1986821932
 30
0.0
 11
192.5137295955
 21
122.6986823795
 31
0.0
  0
LINE
  5
113
330
1F
100
AcDbEntity
  8
0
  6
HIDDEN
 62
     7
370
     0
100
AcDbLine
 10
215.7264418536
 20
137.5790839275
 30
0.0
 11
215.3180978828
 21
129.7874390339
 31
0.0
  0
LINE
  5
114
330
1F
100
AcDbEntity
  8
0
  6
HIDDEN
 62
     7
370
     0
100
AcDbLine
 10
215.3180978828
 20
129.7874390339
 30
0.0
 11
215.2799658113
 21
129.7636092831
 31
0.0
  0
LINE
  5
115
330
1F
100
AcDbEntity
  8
0
  6
HIDDEN
 62
     7
370
     0
100
AcDbLine
 10
215.5727736288
 20
126.370264702
 30
0.0
 11
224.7020035618
 21
132.074838989
 31
0.0
  0
LINE
  5
116
330
1F
100
AcDbEntity
  8
0
  6
HIDDEN
 62
     7
370
     0
100
AcDbLine
 10
224.7020035618
 20
132.074838989
 30
0.0
 11
224.6996491783
 21
132.0299334084
 31
0.0
  0
LINE
  5
117
330
1F
100
AcDbEntity
  8
0
  6
HIDDEN
 62
     7
370
     0
100
AcDbLine
 10
224.151319974
 20
121.567180865
 30
0.0
 11
221.7116906875
 21
122.4072119412
 31
0.0
  0
LINE
  5
118
330
1F
100
AcDbEntity
  8
0
  6
HIDDEN
 62
     7
370
     0
100
AcDbLine
 10
215.9994236761
 20
137.6968478044
 30
0.0
 11
215.5769161516
 21
129.634983391
 31
0.0
  0
LINE
  5
119
330
1F
100
AcDbEntity
  8
0
  6
HIDDEN
 62
     7
370
     0
100
AcDbLine
 10
215.3180978828
 20
129.7874390339
 30
0.0
 11
215.5769161516
 21
129.634983391
 31
0.0
  0
ELLIPSE
  5
11A
330
1F
100
AcDbEntity
  8
0
  6
HIDDEN
 62
     7
370
     0
100
AcDbEllipse
 10
210.5686066633
 20
160.546240612
 30
0.0
 11
-14.22716407804071
 21
24.88519423683448
 31
0.0
210
0.0
220
0.0
230
1.0
 40
0.373927429
 41
2.469163504243151
 42
2.475171701480193
  0
LINE
  5
11B
330
1F
100
AcDbEntity
  8
0
  6
HIDDEN
 62
     7
370
     0
100
AcDbLine
 10
215.2629412346
 20
129.4387891148
 30
0.0
 11
215.5769161516
 21
129.634983391
 31
0.0
  0
LINE
  5
11C
330
1F
100
AcDbEntity
  8
0
  6
HIDDEN
 62
     7
370
     0
100
AcDbLine
 10
215.2439422541
 20
126.4789714669
 30
0.0
 11
224.443185293
 21
132.2272946318
 31
0.0
  0
LINE
  5
11D
330
1F
100
AcDbEntity
  8
0
  6
HIDDEN
 62
     7
370
     0
100
AcDbLine
 10
224.7020035618
 20
132.074838989
 30
0.0
 11
224.443185293
 21
132.2272946318
 31
0.0
  0
ELLIPSE
  5
11E
330
1F
100
AcDbEntity
  8
0
  6
HIDDEN
 62
     7
370
     0
100
AcDbEllipse
 10
220.6122759041
 20
116.4486822863
 30
0.0
 11
14.5361213873791
 21
20.44831832899453
 31
0.0
210
0.0
220
0.0
230
1.0
 40
0.1000778042
 41
1.641819099524552
 42
3.197980757590609
  0
LINE
  5
11F
330
1F
100
AcDbEntity
  8
0
  6
HIDDEN
 62
     7
370
     0
100
AcDbLine
 10
198.6124265575
 20
95.9508777787
 30
0.0
 11
198.6124265575
 21
116.4486822863
 31
0.0
  0
SPLINE
  5
120
330
1F
100
AcDbEntity
  8
0
  6
HIDDEN
 62
     7
370
     0
100
AcDbSpline
210
0.0
220
0.0
230
1.0
 70
     8
 71
     3
 72
    12
 73
     8
 74
     0
 42
0.00000001
 43
0.00000001
 12
1.0
 22
0.0
 32
0.0
 13
1.0
 23
0.0
 33
0.0
 40
0.0
 40
0.0
 40
0.0
 40
0.0
 40
0.2499999999999999
 40
0.2499999999999999
 40
0.4999999999999999
 40
0.4999999999999999
 40
1.0
 40
1.0
 40
1.0
 40
1.0
 10
198.6710997083347
 20
137.0657983399533
 30
0.0
 10
198.6513201127813
 20
137.011290282382
 30
0.0
 10
198.633340013619
 20
136.9567753185166
 30
0.0
 10
198.6124286284156
 20
136.8476876348865
 30
0.0
 10
198.6096779008917
 20
136.7931087214389
 30
0.0
 10
198.6271985783078
 20
136.6294962802053
 30
0.0
 10
198.6758839312191
 20
136.5205325652124
 30
0.0
 10
198.7123275099183
 20
136.4115242907514
 30
0.0
  0
LINE
  5
121
330
1F
100
AcDbEntity
  8
0
  6
HIDDEN
 62
     7
370
     0
100
AcDbLine
 10
215.9994236761
 20
137.6968478044
 30
0.0
 11
215.9895963603
 21
137.5093371798
 31
0.0
  0
LINE
  5
122
330
1F
100
AcDbEntity
  8
0
  6
HIDDEN
 62
     7
370
     0
100
AcDbLine
 10
224.443185293
 20
132.2272946318
 30
0.0
 11
224.2525100344
 21
132.1081486722
 31
0.0
  0
LINE
  5
123
330
1F
100
AcDbEntity
  8
0
  6
HIDDEN
 62
     7
370
     0
100
AcDbLine
 10
173.8137286491
 20
130.4687806596
 30
0.0
 11
173.8137286491
 21
130.3689186652
 31
0.0
  0
LINE
  5
124
330
1F
100
AcDbEntity
  8
0
  6
HIDDEN
 62
     7
370
     0
100
AcDbLine
 10
153.0137277775
 20
129.946212769
 30
0.0
 11
153.0137277775
 21
126.1062934254
 31
0.0
  0
LINE
  5
125
330
1F
100
AcDbEntity
  8
0
  6
HIDDEN
 62
     7
370
     0
100
AcDbLine
 10
173.8137286491
 20
127.4227206786
 30
0.0
 11
173.8137286491
 21
126.3675778364
 31
0.0
  0
SPLINE
  5
126
330
1F
100
AcDbEntity
  8
0
  6
HIDDEN
 62
     7
370
     0
100
AcDbSpline
210
0.0
220
0.0
230
1.0
 70
     8
 71
     3
 72
    16
 73
    12
 74
     0
 42
0.00000001
 43
0.00000001
 12
1.0
 22
0.0
 32
0.0
 13
1.0
 23
0.0
 33
0.0
 40
0.0
 40
0.0
 40
0.0
 40
0.0
 40
0.2499999999999998
 40
0.2499999999999998
 40
0.3749999999999998
 40
0.3749999999999998
 40
0.4999999999999997
 40
0.4999999999999997
 40
0.7499999999999998
 40
0.7499999999999998
 40
1.0
 40
1.0
 40
1.0
 40
1.0
 10
173.8137286716091
 20
130.3689186746364
 30
0.0
 10
173.7331913397098
 20
130.2888499884841
 30
0.0
 10
173.6731539956825
 20
130.1649854969937
 30
0.0
 10
173.6124162885289
 20
129.9143046730617
 30
0.0
 10
173.5970939134159
 20
129.8198660687522
 30
0.0
 10
173.5765111041117
 20
129.6085550011335
 30
0.0
 10
173.5713115070861
 20
129.4912655463799
 30
0.0
 10
173.571257853906
 20
129.1132298746246
 30
0.0
 10
173.5914553973837
 20
128.8244527208806
 30
0.0
 10
173.6721334857417
 20
128.1746128577417
 30
0.0
 10
173.7331796503491
 20
127.8117839238491
 30
0.0
 10
173.8137286716071
 20
127.4227202785774
 30
0.0
  0
SPLINE
  5
127
330
1F
100
AcDbEntity
  8
0
  6
HIDDEN
 62
     7
370
     0
100
AcDbSpline
210
0.0
220
0.0
230
1.0
 70
     8
 71
     3
 72
    24
 73
    20
 74
     0
 42
0.00000001
 43
0.00000001
 12
1.0
 22
0.0
 32
0.0
 13
1.0
 23
0.0
 33
0.0
 40
0.0
 40
0.0
 40
0.0
 40
0.0
 40
0.2499999999999992
 40
0.2499999999999992
 40
0.3749999999999988
 40
0.3749999999999988
 40
0.4374999999999998
 40
0.4374999999999998
 40
0.5000000000000009
 40
0.5000000000000009
 40
0.5312499999999999
 40
0.5312499999999999
 40
0.5624999999999989
 40
0.5624999999999989
 40
0.6249999999999987
 40
0.6249999999999987
 40
0.7499999999999984
 40
0.7499999999999984
 40
1.0
 40
1.0
 40
1.0
 40
1.0
 10
174.0186886936696
 20
130.1877668174815
 30
0.0
 10
174.0029221053713
 20
130.1735458464933
 30
0.0
 10
173.9863105724166
 20
130.1593155561584
 30
0.0
 10
173.9577842244587
 20
130.1405185009369
 30
0.0
 10
173.9476987906687
 20
130.1346300805957
 30
0.0
 10
173.9302160201337
 20
130.1280926857933
 30
0.0
 10
173.9240083636882
 20
130.1262814717922
 30
0.0
 10
173.909736863443
 20
130.1246756692856
 30
0.0
 10
173.90216679294
 20
130.1241228918996
 30
0.0
 10
173.8847704635047
 20
130.1313216366123
 30
0.0
 10
173.8763111905447
 20
130.13641338536
 30
0.0
 10
173.8602502259971
 20
130.1542283178391
 30
0.0
 10
173.8554169901508
 20
130.1627507327015
 30
0.0
 10
173.8439910704155
 20
130.1846471693503
 30
0.0
 10
173.839969714533
 20
130.1963876921562
 30
0.0
 10
173.8292092195019
 20
130.2304379561096
 30
0.0
 10
173.825334910441
 20
130.2500129451383
 30
0.0
 10
173.8161620383138
 20
130.3058612538195
 30
0.0
 10
173.8141296675991
 20
130.3386390148483
 30
0.0
 10
173.8137286716093
 20
130.3689186746363
 30
0.0
  0
SPLINE
  5
128
330
1F
100
AcDbEntity
  8
0
  6
HIDDEN
 62
     7
370
     0
100
AcDbSpline
210
0.0
220
0.0
230
1.0
 70
     8
 71
     3
 72
     8
 73
     4
 74
     0
 42
0.00000001
 43
0.00000001
 12
1.0
 22
0.0
 32
0.0
 13
1.0
 23
0.0
 33
0.0
 40
0.0
 40
0.0
 40
0.0
 40
0.0
 40
1.0
 40
1.0
 40
1.0
 40
1.0
 10
174.0186886936669
 20
102.709597755164
 30
0.0
 10
174.0694158368735
 20
102.6638434538388
 30
0.0
 10
174.1273031664344
 20
102.6353393079752
 30
0.0
 10
174.1924083280496
 20
102.6236182783164
 30
0.0
  0
LINE
  5
129
330
1F
100
AcDbEntity
  8
0
  6
HIDDEN
 62
     7
370
     0
100
AcDbLine
 10
153.0137277775
 20
106.7910711472
 30
0.0
 11
153.0137277775
 21
102.9511518036
 31
0.0
  0
LINE
  5
12A
330
1F
100
AcDbEntity
  8
0
  6
HIDDEN
 62
     7
370
     0
100
AcDbLine
 10
151.513728463
 20
107.2240839903
 30
0.0
 11
151.513728463
 21
103.8171774899
 31
0.0
  0
LINE
  5
12B
330
1F
100
AcDbEntity
  8
0
  6
HIDDEN
 62
     7
370
     0
100
AcDbLine
 10
173.8137286491
 20
106.5297867362
 30
0.0
 11
173.8137286491
 21
105.474643894
 31
0.0
  0
LINE
  5
12C
330
1F
100
AcDbEntity
  8
0
  6
HIDDEN
 62
     7
370
     0
100
AcDbLine
 10
173.8137286491
 20
102.5284459074
 30
0.0
 11
173.8137286491
 21
102.428583913
 31
0.0
  0
SPLINE
  5
12D
330
1F
100
AcDbEntity
  8
0
  6
HIDDEN
 62
     7
370
     0
100
AcDbSpline
210
0.0
220
0.0
230
1.0
 70
     8
 71
     3
 72
    16
 73
    12
 74
     0
 42
0.00000001
 43
0.00000001
 12
1.0
 22
0.0
 32
0.0
 13
1.0
 23
0.0
 33
0.0
 40
0.0
 40
0.0
 40
0.0
 40
0.0
 40
0.2499999999999996
 40
0.2499999999999996
 40
0.3749999999999994
 40
0.3749999999999994
 40
0.4999999999999992
 40
0.4999999999999992
 40
0.7499999999999996
 40
0.7499999999999996
 40
1.0
 40
1.0
 40
1.0
 40
1.0
 10
173.8137286716091
 20
105.474644294075
 30
0.0
 10
173.7331913397096
 20
105.0856371101295
 30
0.0
 10
173.6731539956822
 20
104.7291366685039
 30
0.0
 10
173.6124162885286
 20
104.242634283315
 30
0.0
 10
173.5970939134157
 20
104.0885553424612
 30
0.0
 10
173.5765111041116
 20
103.7970857839678
 30
0.0
 10
173.571311507086
 20
103.6595159000686
 30
0.0
 10
173.5712578539062
 20
103.2812710648789
 30
0.0
 10
173.5914553973841
 20
103.0713899963268
 30
0.0
 10
173.6721334857428
 20
102.7348106974157
 30
0.0
 10
173.7331796503506
 20
102.6085262054979
 30
0.0
 10
173.8137286716093
 20
102.5284458980065
 30
0.0
  0
SPLINE
  5
12E
330
1F
100
AcDbEntity
  8
0
  6
HIDDEN
 62
     7
370
     0
100
AcDbSpline
210
0.0
220
0.0
230
1.0
 70
     8
 71
     3
 72
    24
 73
    20
 74
     0
 42
0.00000001
 43
0.00000001
 12
1.0
 22
0.0
 32
0.0
 13
1.0
 23
0.0
 33
0.0
 40
0.0
 40
0.0
 40
0.0
 40
0.0
 40
0.2500000000000072
 40
0.2500000000000072
 40
0.3750000000000108
 40
0.3750000000000108
 40
0.4375000000000125
 40
0.4375000000000125
 40
0.4687500000000135
 40
0.4687500000000135
 40
0.5000000000000144
 40
0.5000000000000144
 40
0.5625000000000135
 40
0.5625000000000135
 40
0.6250000000000127
 40
0.6250000000000127
 40
0.7500000000000092
 40
0.7500000000000092
 40
1.0
 40
1.0
 40
1.0
 40
1.0
 10
173.8137286716091
 20
102.5284458980064
 30
0.0
 10
173.8141315822445
 20
102.5588701348446
 30
0.0
 10
173.8161755615849
 20
102.591728235399
 30
0.0
 10
173.8254128044103
 20
102.6477536025529
 30
0.0
 10
173.8292998673906
 20
102.6673646557384
 30
0.0
 10
173.8402037587962
 20
102.7016389391674
 30
0.0
 10
173.8443458045465
 20
102.7137013646397
 30
0.0
 10
173.8562408782966
 20
102.7360205293375
 30
0.0
 10
173.8614879426036
 20
102.7449870416964
 30
0.0
 10
173.878355008979
 20
102.7626366062246
 30
0.0
 10
173.8861774165083
 20
102.7667808903695
 30
0.0
 10
173.903126217133
 20
102.7732684315471
 30
0.0
 10
173.9105825683511
 20
102.7726715501754
 30
0.0
 10
173.9246424715444
 20
102.7709252862039
 30
0.0
 10
173.9307748566806
 20
102.7690945983056
 30
0.0
 10
173.9480696192045
 20
102.7625281887329
 30
0.0
 10
173.9580869376137
 20
102.7566629735741
 30
0.0
 10
173.9864582718573
 20
102.7379182895435
 30
0.0
 10
174.0029937095021
 20
102.7237541414565
 30
0.0
 10
174.0186886936669
 20
102.709597755164
 30
0.0
  0
LINE
  5
12F
330
1F
100
AcDbEntity
  8
0
  6
HIDDEN
 62
     7
370
     0
100
AcDbLine
 10
151.513728463
 20
129.0801870828
 30
0.0
 11
151.513728463
 21
125.6732805823
 31
0.0
  0
SPLINE
  5
130
330
1F
100
AcDbEntity
  8
0
  6
HIDDEN
 62
     7
370
     0
100
AcDbSpline
210
0.0
220
0.0
230
1.0
 70
     8
 71
     3
 72
     8
 73
     4
 74
     0
 42
0.00000001
 43
0.00000001
 12
1.0
 22
0.0
 32
0.0
 13
1.0
 23
0.0
 33
0.0
 40
0.0
 40
0.0
 40
0.0
 40
0.0
 40
1.0
 40
1.0
 40
1.0
 40
1.0
 10
174.1924083280496
 20
130.2737462943267
 30
0.0
 10
174.1273031664356
 20
130.2620252646681
 30
0.0
 10
174.0694158368755
 20
130.2335211188054
 30
0.0
 10
174.0186886936695
 20
130.1877668174816
 30
0.0
  0
LINE
  5
131
330
1F
100
AcDbEntity
  8
0
  6
HIDDEN
 62
     7
370
     0
100
AcDbLine
 10
224.361698293
 20
142.2073119511
 30
0.0
 11
219.5287897819
 21
139.1873755683
 31
0.0
  0
LINE
  5
132
330
1F
100
AcDbEntity
  8
0
  6
HIDDEN
 62
     7
370
     0
100
AcDbLine
 10
224.7692599528
 20
141.9683383037
 30
0.0
 11
224.361698293
 21
142.2073119511
 31
0.0
  0
CIRCLE
  5
133
330
1F
100
AcDbEntity
  8
0
  6
HIDDEN
 62
     7
370
     0
100
AcDbCircle
 10
220.2535221668
 20
134.7976889507
 30
0.0
 40
2.399999999999977
  0
LINE
  5
134
330
1F
100
AcDbEntity
  8
0
  6
HIDDEN
 62
     7
370
     0
100
AcDbLine
 10
214.7831238442
 20
126.1910204967
 30
0.0
 11
224.2525100344
 21
132.1081486722
 31
0.0
  0
ARC
  5
135
330
1F
100
AcDbEntity
  8
0
  6
HIDDEN
 62
     7
370
     0
100
AcDbCircle
 10
214.1207253645
 20
127.2510802169
 30
0.0
 40
1.249999999999964
100
AcDbArc
 50
122.0
 51
302.0
  0
LINE
  5
136
330
1F
100
AcDbEntity
  8
0
  6
HIDDEN
 62
     7
370
     0
100
AcDbLine
 10
215.9895963603
 20
137.5093371798
 30
0.0
 11
215.5769161516
 21
129.634983391
 31
0.0
  0
LINE
  5
137
330
1F
100
AcDbEntity
  8
0
  6
HIDDEN
 62
     7
370
     0
100
AcDbLine
 10
215.5769161516
 20
129.634983391
 30
0.0
 11
213.4583249324
 21
128.3111400162
 31
0.0
  0
ELLIPSE
  5
138
330
1F
100
AcDbEntity
  8
0
  6
HIDDEN
 62
     7
370
     0
100
AcDbEllipse
 10
210.5686066633
 20
153.7428460342
 30
0.0
 11
-9.947598300641403E-13
 21
-17.12766703280045
 31
0.0
210
0.0
220
0.0
230
1.0
 40
0.9925461516
 41
0.3245493387973603
 42
0.5551486097793488
  0
LINE
  5
139
330
1F
100
AcDbEntity
  8
0
  6
HIDDEN
 62
     7
370
     0
100
AcDbLine
 10
224.7692599528
 20
141.9683383037
 30
0.0
 11
224.2525100344
 21
132.1081486722
 31
0.0
  0
LINE
  5
13A
330
1F
100
AcDbEntity
  8
0
  6
HIDDEN
 62
     7
370
     0
100
AcDbLine
 10
224.0244887405
 20
140.8193339785
 30
0.0
 11
224.7692599528
 21
141.9683383037
 31
0.0
  0
LINE
  5
13B
330
1F
100
AcDbEntity
  8
0
  6
HIDDEN
 62
     7
370
     0
100
AcDbLine
 10
224.361698293
 20
142.2073119511
 30
0.0
 11
223.7551353508
 21
141.2715357919
 31
0.0
  0
CIRCLE
  5
13C
330
1F
100
AcDbEntity
  8
0
  6
HIDDEN
 62
     7
370
     0
100
AcDbCircle
 10
220.2535221668
 20
134.7976889507
 30
0.0
 40
1.649999999999977
  0
LWPOLYLINE
  5
13D
330
1F
100
AcDbEntity
  8
0
  6
HIDDEN
 62
     7
370
     0
100
AcDbPolyline
 90
       30
 70
   128
 43
0.0
 10
189.5137291037
 20
109.7692484227
 10
189.9651663014
 20
109.8153842804
 10
190.3954960042
 20
109.9516349104
 10
190.7845941939
 20
110.171629135
 10
191.1142693468
 20
110.4650800307
 10
191.369104349
 20
110.8182668877
 10
191.5371838593
 20
111.2146745627
 10
191.6106484466
 20
111.6357674082
 10
191.5860652559
 20
112.061855868
 10
191.464579814
 20
112.4730166239
 10
191.2518750512
 20
112.8500239183
 10
190.9578974926
 20
113.175249212
 10
190.5963915967
 20
113.4334858698
 10
190.1842617997
 20
113.6126585961
 10
189.7407790282
 20
113.704389446
 10
189.2866791793
 20
113.704389446
 10
188.8431954765
 20
113.6126585961
 10
188.4310656794
 20
113.4334858698
 10
188.0695597836
 20
113.175249212
 10
187.775582225
 20
112.8500239183
 10
187.5628774621
 20
112.4730166239
 10
187.4413929515
 20
112.061855868
 10
187.4168088295
 20
111.6357674082
 10
187.4902734169
 20
111.2146745627
 10
187.6583529272
 20
110.8182668877
 10
187.9131879293
 20
110.4650800307
 10
188.2428630822
 20
110.171629135
 10
188.631961272
 20
109.9516349104
 10
189.0622909748
 20
109.8153842804
 10
189.5137291037
 20
109.7692484227
  0
SPLINE
  5
13E
330
1F
100
AcDbEntity
  8
0
  6
HIDDEN
 62
     7
370
     0
100
AcDbSpline
210
0.0
220
0.0
230
1.0
 70
     8
 71
     3
 72
     8
 73
     4
 74
     0
 42
0.00000001
 43
0.00000001
 12
1.0
 22
0.0
 32
0.0
 13
1.0
 23
0.0
 33
0.0
 40
0.0
 40
0.0
 40
0.0
 40
0.0
 40
1.0
 40
1.0
 40
1.0
 40
1.0
 10
198.7123275099183
 20
136.4115242907514
 30
0.0
 10
198.8758429558262
 20
135.9224247774021
 30
0.0
 10
199.3490848011002
 20
135.4366808232672
 30
0.0
 10
199.9808953086644
 20
134.9526547935228
 30
0.0
  0
SPLINE
  5
13F
330
1F
100
AcDbEntity
  8
0
  6
HIDDEN
 62
     7
370
     0
100
AcDbSpline
210
0.0
220
0.0
230
1.0
 70
     8
 71
     3
 72
     8
 73
     4
 74
     0
 42
0.00000001
 43
0.00000001
 12
1.0
 22
0.0
 32
0.0
 13
1.0
 23
0.0
 33
0.0
 40
0.0
 40
0.0
 40
0.0
 40
0.0
 40
1.0
 40
1.0
 40
1.0
 40
1.0
 10
199.9808953086644
 20
134.9526547935228
 30
0.0
 10
199.9469003300677
 20
133.7132661586134
 30
0.0
 10
199.9120547589949
 20
132.3659379582377
 30
0.0
 10
199.8762918014296
 20
130.9060331084946
 30
0.0
  0
ELLIPSE
  5
140
330
1F
100
AcDbEntity
  8
0
  6
HIDDEN
 62
     7
370
     0
100
AcDbEllipse
 10
184.8832553532
 20
118.1486822863
 30
0.0
 11
40.28575363917037
 21
24.90250970901522
 31
0.0
210
0.0
220
0.0
230
1.0
 40
0.0547507893
 41
5.712853592909756
 42
5.9815405959012
  0
ELLIPSE
  5
141
330
1F
100
AcDbEntity
  8
0
  6
HIDDEN
 62
     7
370
     0
100
AcDbEllipse
 10
267.8073395469
 20
118.1486822863
 30
0.0
 11
44.23730811207685
 21
-24.44088137389446
 31
0.0
210
0.0
220
0.0
230
1.0
 40
0.1188519716
 41
3.31968966171705
 42
3.364807391491329
  0
LINE
  5
142
330
1F
100
AcDbEntity
  8
0
  6
HIDDEN
 62
     7
370
     0
100
AcDbLine
 10
210.568606072
 20
134.9526555468
 30
0.0
 11
199.9808951848
 21
134.9526555468
 31
0.0
  0
SPLINE
  5
143
330
1F
100
AcDbEntity
  8
0
  6
HIDDEN
 62
     7
370
     0
100
AcDbSpline
210
0.0
220
0.0
230
1.0
 70
     8
 71
     3
 72
    18
 73
    14
 74
     0
 42
0.00000001
 43
0.00000001
 12
1.0
 22
0.0
 32
0.0
 13
1.0
 23
0.0
 33
0.0
 40
0.0
 40
0.0
 40
0.0
 40
0.0
 40
0.2500000000000009
 40
0.2500000000000009
 40
0.3750000000000016
 40
0.3750000000000016
 40
0.5000000000000022
 40
0.5000000000000022
 40
0.7500000000000021
 40
0.7500000000000021
 40
0.8750000000000011
 40
0.8750000000000011
 40
1.0
 40
1.0
 40
1.0
 40
1.0
 10
219.5287898276292
 20
137.9188008895756
 30
0.0
 10
218.9785182876601
 20
137.5101198681111
 30
0.0
 10
218.3734979848568
 20
137.118970905375
 30
0.0
 10
217.3760876063815
 20
136.5801437870647
 30
0.0
 10
217.028586599894
 20
136.4085319436764
 30
0.0
 10
216.3012880726351
 20
136.0854014076781
 30
0.0
 10
215.9266958452385
 20
135.9362977700908
 30
0.0
 10
214.7777770808887
 20
135.5325960495406
 30
0.0
 10
213.9754748409375
 20
135.3198843359101
 30
0.0
 10
212.7143498512457
 20
135.1008568585081
 30
0.0
 10
212.2877774659921
 20
135.0453570164107
 30
0.0
 10
211.4322727435709
 20
134.9713958332703
 30
0.0
 10
211.0018170462303
 20
134.9526547935227
 30
0.0
 10
210.5686066633131
 20
134.9526547935227
 30
0.0
  0
ELLIPSE
  5
144
330
1F
100
AcDbEntity
  8
0
  6
HIDDEN
 62
     7
370
     0
100
AcDbEllipse
 10
224.1320025005
 20
118.1486822863
 30
0.0
 11
1.330220222934486
 21
24.99946796325216
 31
0.0
210
0.0
220
0.0
230
1.0
 40
0.1226111485
 41
0.4416284158881441
 42
1.041793711934384
  0
LINE
  5
145
330
1F
100
AcDbEntity
  8
0
  6
HIDDEN
 62
     7
370
     0
100
AcDbLine
 10
151.513728463
 20
125.6732805823
 30
0.0
 11
151.513728463
 21
118.2988961418
 31
0.0
  0
LINE
  5
146
330
1F
100
AcDbEntity
  8
0
  6
HIDDEN
 62
     7
370
     0
100
AcDbLine
 10
151.513728463
 20
114.5984684308
 30
0.0
 11
151.513728463
 21
107.2240839903
 31
0.0
  0
SPLINE
  5
147
330
1F
100
AcDbEntity
  8
0
  6
HIDDEN
 62
     7
370
     0
100
AcDbSpline
210
0.0
220
0.0
230
1.0
 70
     8
 71
     3
 72
    24
 73
    20
 74
     0
 42
0.00000001
 43
0.00000001
 12
1.0
 22
0.0
 32
0.0
 13
1.0
 23
0.0
 33
0.0
 40
0.0
 40
0.0
 40
0.0
 40
0.0
 40
0.250000000000008
 40
0.250000000000008
 40
0.3750000000000135
 40
0.3750000000000135
 40
0.4375000000000131
 40
0.4375000000000131
 40
0.5000000000000127
 40
0.5000000000000127
 40
0.5312500000000123
 40
0.5312500000000123
 40
0.562500000000012
 40
0.562500000000012
 40
0.6250000000000113
 40
0.6250000000000113
 40
0.7500000000000084
 40
0.7500000000000084
 40
1.0
 40
1.0
 40
1.0
 40
1.0
 10
174.0186886936696
 20
105.6560885595232
 30
0.0
 10
174.0029198163122
 20
105.5822298675936
 30
0.0
 10
173.9863058344622
 20
105.5085184788579
 30
0.0
 10
173.9577741684571
 20
105.3969716552358
 30
0.0
 10
173.9476867536384
 20
105.3596000821073
 30
0.0
 10
173.9301991931841
 20
105.3027005844696
 30
0.0
 10
173.9239896314008
 20
105.2835974843243
 30
0.0
 10
173.9097120777482
 20
105.2447239700887
 30
0.0
 10
173.9021405299528
 20
105.2247993106553
 30
0.0
 10
173.8847229462745
 20
105.1947270926279
 30
0.0
 10
173.8762404496293
 20
105.1830457138248
 30
0.0
 10
173.8602021377576
 20
105.1757842030763
 30
0.0
 10
173.8553815895541
 20
105.1793624500861
 30
0.0
 10
173.8439723650062
 20
105.1911233053178
 30
0.0
 10
173.8399518845486
 20
105.2027889553683
 30
0.0
 10
173.8291980297284
 20
105.2393242854819
 30
0.0
 10
173.8253253484462
 20
105.2667200188055
 30
0.0
 10
173.8161571986086
 20
105.3514460105614
 30
0.0
 10
173.8141286932394
 20
105.4122781327335
 30
0.0
 10
173.8137286716093
 20
105.4746442940751
 30
0.0
  0
SPLINE
  5
148
330
1F
100
AcDbEntity
  8
0
  6
HIDDEN
 62
     7
370
     0
100
AcDbSpline
210
0.0
220
0.0
230
1.0
 70
     8
 71
     3
 72
    24
 73
    20
 74
     0
 42
0.00000001
 43
0.00000001
 12
1.0
 22
0.0
 32
0.0
 13
1.0
 23
0.0
 33
0.0
 40
0.0
 40
0.0
 40
0.0
 40
0.0
 40
0.2499999999999896
 40
0.2499999999999896
 40
0.3749999999999861
 40
0.3749999999999861
 40
0.4374999999999863
 40
0.4374999999999863
 40
0.4687499999999877
 40
0.4687499999999877
 40
0.4999999999999891
 40
0.4999999999999891
 40
0.5624999999999881
 40
0.5624999999999881
 40
0.6249999999999872
 40
0.6249999999999872
 40
0.7499999999999916
 40
0.7499999999999916
 40
1.0
 40
1.0
 40
1.0
 40
1.0
 10
173.8137286716056
 20
127.4227202785789
 30
0.0
 10
173.8141333411814
 20
127.4858110870714
 30
0.0
 10
173.8161767879958
 20
127.5469968095739
 30
0.0
 10
173.8255763532501
 20
127.6324965420755
 30
0.0
 10
173.8295272467788
 20
127.6600769255166
 30
0.0
 10
173.8406795550757
 20
127.6965310076282
 30
0.0
 10
173.8449010960022
 20
127.7083894293226
 30
0.0
 10
173.8571088175657
 20
127.719009480698
 30
0.0
 10
173.8628995878178
 20
127.7218428479204
 30
0.0
 10
173.8798211009276
 20
127.7105282609226
 30
0.0
 10
173.8872272168775
 20
127.6987473751688
 30
0.0
 10
173.9036844701208
 20
127.668706533939
 30
0.0
 10
173.9111409880318
 20
127.6489935803259
 30
0.0
 10
173.9250489173064
 20
127.6105915142658
 30
0.0
 10
173.9311408632014
 20
127.5917098643544
 30
0.0
 10
173.9483351555525
 20
127.5354089538228
 30
0.0
 10
173.9583201057561
 20
127.4983328760131
 30
0.0
 10
173.986566150855
 20
127.3876742051231
 30
0.0
 10
174.0030456878162
 20
127.3145451447146
 30
0.0
 10
174.0186886936758
 20
127.2412760130907
 30
0.0
  0
SPLINE
  5
149
330
1F
100
AcDbEntity
  8
0
  6
HIDDEN
 62
     7
370
     0
100
AcDbSpline
210
0.0
220
0.0
230
1.0
 70
     8
 71
     3
 72
     8
 73
     4
 74
     0
 42
0.00000001
 43
0.00000001
 12
1.0
 22
0.0
 32
0.0
 13
1.0
 23
0.0
 33
0.0
 40
0.0
 40
0.0
 40
0.0
 40
0.0
 40
1.0
 40
1.0
 40
1.0
 40
1.0
 10
174.1924083280496
 20
106.3951629687147
 30
0.0
 10
174.1273031664356
 20
106.1401377335091
 30
0.0
 10
174.0694158368756
 20
105.8936857173678
 30
0.0
 10
174.0186886936696
 20
105.6560885595232
 30
0.0
  0
SPLINE
  5
14A
330
1F
100
AcDbEntity
  8
0
  6
HIDDEN
 62
     7
370
     0
100
AcDbSpline
210
0.0
220
0.0
230
1.0
 70
     8
 71
     3
 72
     8
 73
     4
 74
     0
 42
0.00000001
 43
0.00000001
 12
1.0
 22
0.0
 32
0.0
 13
1.0
 23
0.0
 33
0.0
 40
0.0
 40
0.0
 40
0.0
 40
0.0
 40
1.0
 40
1.0
 40
1.0
 40
1.0
 10
174.0186886936758
 20
127.2412760130907
 30
0.0
 10
174.0694158368803
 20
127.0036788552551
 30
0.0
 10
174.1273031664382
 20
126.7572268391236
 30
0.0
 10
174.1924083280496
 20
126.5022016039284
 30
0.0
  0
LINE
  5
14B
330
1F
100
AcDbEntity
  8
0
  6
HIDDEN
 62
     7
370
     0
100
AcDbLine
 10
153.0137277775
 20
113.8936539837
 30
0.0
 11
153.0137277775
 21
106.7910711472
 31
0.0
  0
LINE
  5
14C
330
1F
100
AcDbEntity
  8
0
  6
HIDDEN
 62
     7
370
     0
100
AcDbLine
 10
153.0137277775
 20
126.1062934254
 30
0.0
 11
153.0137277775
 21
119.0037105889
 31
0.0
  0
LINE
  5
14D
330
1F
100
AcDbEntity
  8
0
  6
HIDDEN
 62
     7
370
     0
100
AcDbLine
 10
173.8137286491
 20
126.3675778364
 30
0.0
 11
173.8137286491
 21
106.5297867362
 31
0.0
  0
LINE
  5
14E
330
1F
100
AcDbEntity
  8
0
  6
HIDDEN
 62
     7
370
     0
100
AcDbLine
 10
175.3137286767
 20
124.9280492966
 30
0.0
 11
175.3137286767
 21
107.969315276
 31
0.0
  0
SPLINE
  5
14F
330
1F
100
AcDbEntity
  8
0
  6
HIDDEN
 62
     7
370
     0
100
AcDbSpline
210
0.0
220
0.0
230
1.0
 70
     8
 71
     3
 72
     8
 73
     4
 74
     0
 42
0.00000001
 43
0.00000001
 12
1.0
 22
0.0
 32
0.0
 13
1.0
 23
0.0
 33
0.0
 40
0.0000137051794235
 40
0.0000137051794235
 40
0.0000137051794235
 40
0.0000137051794235
 40
0.0027147144718019
 40
0.0027147144718019
 40
0.0027147144718019
 40
0.0027147144718019
 10
153.0137286716092
 20
113.8936540492598
 30
0.0
 10
153.913724807104
 20
113.8806824820614
 30
0.0
 10
154.8137249856994
 20
113.8680476247494
 30
0.0
 10
155.7137286716092
 20
113.8557376064936
 30
0.0
  0
SPLINE
  5
150
330
1F
100
AcDbEntity
  8
0
  6
HIDDEN
 62
     7
370
     0
100
AcDbSpline
210
0.0
220
0.0
230
1.0
 70
     8
 71
     3
 72
     8
 73
     4
 74
     0
 42
0.00000001
 43
0.00000001
 12
1.0
 22
0.0
 32
0.0
 13
1.0
 23
0.0
 33
0.0
 40
0.0000137050638847
 40
0.0000137050638847
 40
0.0000137050638847
 40
0.0000137050638847
 40
0.0027147143562631
 40
0.0027147143562631
 40
0.0027147143562631
 40
0.0027147143562631
 10
155.7137286716092
 20
119.0416269661495
 30
0.0
 10
154.8137249856994
 20
119.0293169478937
 30
0.0
 10
153.913724807104
 20
119.0166820905817
 30
0.0
 10
153.0137286716092
 20
119.0037105233833
 30
0.0
  0
SPLINE
  5
151
330
1F
100
AcDbEntity
  8
0
  6
HIDDEN
 62
     7
370
     0
100
AcDbSpline
210
0.0
220
0.0
230
1.0
 70
     8
 71
     3
 72
    10
 73
     6
 74
     0
 42
0.00000001
 43
0.00000001
 12
1.0
 22
0.0
 32
0.0
 13
1.0
 23
0.0
 33
0.0
 40
0.0
 40
0.0
 40
0.0
 40
0.0
 40
0.5
 40
0.5
 40
1.0
 40
1.0
 40
1.0
 40
1.0
 10
151.5137286716083
 20
114.5984684726714
 30
0.0
 10
151.7508706323242
 20
114.4428536581426
 30
0.0
 10
151.9962133910877
 20
114.3109446287233
 30
0.0
 10
152.4974769798207
 20
114.0792877520857
 30
0.0
 10
152.753511549071
 20
113.9798421359629
 30
0.0
 10
153.0137286716092
 20
113.8936540492598
 30
0.0
  0
SPLINE
  5
152
330
1F
100
AcDbEntity
  8
0
  6
HIDDEN
 62
     7
370
     0
100
AcDbSpline
210
0.0
220
0.0
230
1.0
 70
     8
 71
     3
 72
    10
 73
     6
 74
     0
 42
0.00000001
 43
0.00000001
 12
1.0
 22
0.0
 32
0.0
 13
1.0
 23
0.0
 33
0.0
 40
0.0
 40
0.0
 40
0.0
 40
0.0
 40
0.5
 40
0.5
 40
1.0
 40
1.0
 40
1.0
 40
1.0
 10
153.0137286716092
 20
119.0037105233833
 30
0.0
 10
152.7535115490712
 20
118.9175224366802
 30
0.0
 10
152.497476979821
 20
118.8180768205575
 30
0.0
 10
151.9962133910883
 20
118.5864199439201
 30
0.0
 10
151.750870632325
 20
118.454510914501
 30
0.0
 10
151.5137286716092
 20
118.2988960999723
 30
0.0
  0
LINE
  5
153
330
1F
100
AcDbEntity
  8
0
  6
HIDDEN
 62
     7
370
     0
100
AcDbLine
 10
151.513728463
 20
114.5984684308
 30
0.0
 11
151.513728463
 21
118.2988961418
 31
0.0
  0
LINE
  5
154
330
1F
100
AcDbEntity
  8
0
  6
HIDDEN
 62
     7
370
     0
100
AcDbLine
 10
155.7137287789
 20
113.8557375134
 30
0.0
 11
155.7137287789
 21
119.0416270592
 31
0.0
  0
SPLINE
  5
155
330
1F
100
AcDbEntity
  8
0
  6
HIDDEN
 62
     7
370
     0
100
AcDbSpline
210
0.0
220
0.0
230
1.0
 70
     8
 71
     3
 72
    22
 73
    18
 74
     0
 42
0.00000001
 43
0.00000001
 12
1.0
 22
0.0
 32
0.0
 13
1.0
 23
0.0
 33
0.0
 40
0.0
 40
0.0
 40
0.0
 40
0.0
 40
0.125
 40
0.125
 40
0.2500000000000001
 40
0.2500000000000001
 40
0.3750000000000001
 40
0.3750000000000001
 40
0.5
 40
0.5
 40
0.625
 40
0.625
 40
0.75
 40
0.75
 40
0.8750000000000001
 40
0.8750000000000001
 40
1.0
 40
1.0
 40
1.0
 40
1.0
 10
155.7137286716093
 20
113.8557376064936
 30
0.0
 10
155.8946650296854
 20
114.0473574658001
 30
0.0
 10
156.0737604784623
 20
114.2409993301873
 30
0.0
 10
156.4246004669743
 20
114.6356545835715
 30
0.0
 10
156.596793574879
 20
114.8366661142391
 30
0.0
 10
156.9225250804982
 20
115.2528772294728
 30
0.0
 10
157.0786013156666
 20
115.4688930697596
 30
0.0
 10
157.3299805295557
 20
115.9342158329243
 30
0.0
 10
157.4238456598744
 20
116.1897550259472
 30
0.0
 10
157.4201177430123
 20
116.7240856610478
 30
0.0
 10
157.3227451005249
 20
116.9795065270485
 30
0.0
 10
157.070924291531
 20
117.4395352429962
 30
0.0
 10
156.9159550360585
 20
117.6533722439248
 30
0.0
 10
156.5911422783332
 20
118.0674108266185
 30
0.0
 10
156.4202492142053
 20
118.2667032986543
 30
0.0
 10
156.0716149746777
 20
118.6586781910885
 30
0.0
 10
155.8936071241492
 20
118.8511274770779
 30
0.0
 10
155.7137286716093
 20
119.0416269661495
 30
0.0
  0
LWPOLYLINE
  5
156
330
1F
100
AcDbEntity
  8
0
  6
HIDDEN
 62
     7
370
     0
100
AcDbPolyline
 90
       32
 70
   128
 43
0.0
 10
189.5137291037
 20
109.3111685668
 10
190.0169748449
 20
109.359257408
 10
190.499617868
 20
109.5015555811
 10
190.9418992334
 20
109.7322367323
 10
191.3257103049
 20
110.0418572505
 10
191.6353396707
 20
110.4177413699
 10
191.8581083053
 20
110.8444999163
 10
191.9848985606
 20
111.3046612782
 10
192.0105192446
 20
111.7793871281
 10
191.9339216881
 20
112.2492412296
 10
191.758240723
 20
112.6949880463
 10
191.490668022
 20
113.0983790108
 10
191.142159664
 20
113.4428987471
 10
190.7269835108
 20
113.7144428403
 10
190.2621361994
 20
113.9018943259
 10
189.7666493067
 20
113.99757864
 10
189.2608079695
 20
113.99757864
 10
188.7653210767
 20
113.9018943259
 10
188.3004737654
 20
113.7144428403
 10
187.8852976122
 20
113.4428987471
 10
187.5367892542
 20
113.0983790108
 10
187.2692174845
 20
112.6949880463
 10
187.093535588
 20
112.2492412296
 10
187.0169371002
 20
111.7793871281
 10
187.0425577843
 20
111.3046612782
 10
187.1693480396
 20
110.8444999163
 10
187.3921176054
 20
110.4177413699
 10
187.7017469712
 20
110.0418572505
 10
188.0855580428
 20
109.7322367323
 10
188.5278394082
 20
109.5015555811
 10
189.0104824313
 20
109.359257408
 10
189.5137291037
 20
109.3111685668
  0
SPLINE
  5
157
330
1F
100
AcDbEntity
  8
0
  6
HIDDEN
 62
     7
370
     0
100
AcDbSpline
210
0.0
220
0.0
230
1.0
 70
     8
 71
     3
 72
    62
 73
    58
 74
     0
 42
0.00000001
 43
0.00000001
 12
1.0
 22
0.0
 32
0.0
 13
1.0
 23
0.0
 33
0.0
 40
-0.0312500000000001
 40
-0.0312500000000001
 40
0.0
 40
0.0
 40
0.0312499999999998
 40
0.0312499999999998
 40
0.0624999999999996
 40
0.0624999999999996
 40
0.0937499999999994
 40
0.0937499999999994
 40
0.1249999999999993
 40
0.1249999999999993
 40
0.1874999999999992
 40
0.1874999999999992
 40
0.2499999999999992
 40
0.2499999999999992
 40
0.2812499999999992
 40
0.2812499999999992
 40
0.3124999999999991
 40
0.3124999999999991
 40
0.3437499999999991
 40
0.3437499999999991
 40
0.3749999999999991
 40
0.3749999999999991
 40
0.4374999999999991
 40
0.4374999999999991
 40
0.4687499999999991
 40
0.4687499999999991
 40
0.4999999999999992
 40
0.4999999999999992
 40
0.5624999999999994
 40
0.5624999999999994
 40
0.5937499999999994
 40
0.5937499999999994
 40
0.6249999999999994
 40
0.6249999999999994
 40
0.6562499999999996
 40
0.6562499999999996
 40
0.6874999999999996
 40
0.6874999999999996
 40
0.7187499999999996
 40
0.7187499999999996
 40
0.7499999999999996
 40
0.7499999999999996
 40
0.7812499999999997
 40
0.7812499999999997
 40
0.8124999999999997
 40
0.8124999999999997
 40
0.8437499999999997
 40
0.8437499999999997
 40
0.8749999999999998
 40
0.8749999999999998
 40
0.9062499999999998
 40
0.9062499999999998
 40
0.9374999999999998
 40
0.9374999999999998
 40
0.9687499999999999
 40
0.9687499999999999
 40
1.0
 40
1.0
 40
1.03125
 40
1.03125
 10
161.9675007995375
 20
117.9366613249779
 30
0.0
 10
162.1950011461257
 20
118.1860078668385
 30
0.0
 10
162.3194636750432
 20
118.2976055442954
 30
0.0
 10
162.588557941195
 20
118.4962563401138
 30
0.0
 10
162.7343710327843
 20
118.5835965849025
 30
0.0
 10
163.0355379110737
 20
118.7277923375448
 30
0.0
 10
163.191873638138
 20
118.785612008059
 30
0.0
 10
163.5159969374725
 20
118.87286562011
 30
0.0
 10
163.682662149183
 20
118.9016676695918
 30
0.0
 10
164.1806784158148
 20
118.9424469748597
 30
0.0
 10
164.5213493646078
 20
118.9090037147185
 30
0.0
 10
165.1603602800293
 20
118.7265510702596
 30
0.0
 10
165.4668148870931
 20
118.5751265099469
 30
0.0
 10
165.8633707963555
 20
118.2746286043625
 30
0.0
 10
165.9877199872051
 20
118.1603674191672
 30
0.0
 10
166.2101840812542
 20
117.9107075485946
 30
0.0
 10
166.3077494197315
 20
117.7765409405956
 30
0.0
 10
166.4750050233703
 20
117.4890718460968
 30
0.0
 10
166.5450906788894
 20
117.333804996197
 30
0.0
 10
166.6491460396109
 20
117.0168255761099
 30
0.0
 10
166.6841218022783
 20
116.8541728246055
 30
0.0
 10
166.7359863218024
 20
116.3532358044029
 30
0.0
 10
166.6966802140309
 20
116.0130812030926
 30
0.0
 10
166.5339604215701
 20
115.5365865709955
 30
0.0
 10
166.4636799236839
 20
115.385519211168
 30
0.0
 10
166.2923467785538
 20
115.0982246407271
 30
0.0
 10
166.1909545373721
 20
114.9623668624297
 30
0.0
 10
165.854354950149
 20
114.5935584674315
 30
0.0
 10
165.5791221839843
 20
114.3911333581005
 30
0.0
 10
165.1293389566384
 20
114.1740566314917
 30
0.0
 10
164.9705391581348
 20
114.1147543594175
 30
0.0
 10
164.6479774372551
 20
114.026781841617
 30
0.0
 10
164.4841183252879
 20
113.9976620777707
 30
0.0
 10
164.151285551934
 20
113.9688054626605
 30
0.0
 10
163.9812332604931
 20
113.9694289858745
 30
0.0
 10
163.6489575964735
 20
114.0006854296789
 30
0.0
 10
163.4852429847247
 20
114.0310041247307
 30
0.0
 10
163.1627774991504
 20
114.1217211637337
 30
0.0
 10
163.0042664006239
 20
114.1824900724355
 30
0.0
 10
162.7057126944259
 20
114.3300007472325
 30
0.0
 10
162.5638865652239
 20
114.4171357750964
 30
0.0
 10
162.2959648266656
 20
114.6197212416684
 30
0.0
 10
162.171871396273
 20
114.7340594083106
 30
0.0
 10
161.9507372083548
 20
114.9822458462634
 30
0.0
 10
161.8522802062562
 20
115.1172784631172
 30
0.0
 10
161.6829216925212
 20
115.4092828611719
 30
0.0
 10
161.6147548548153
 20
115.5614186076075
 30
0.0
 10
161.5110208884889
 20
115.8778275560475
 30
0.0
 10
161.4753523266197
 20
116.0443240254017
 30
0.0
 10
161.4411385619672
 20
116.3775859015122
 30
0.0
 10
161.4419969647963
 20
116.5442483553341
 30
0.0
 10
161.4797937447458
 20
116.8776365545516
 30
0.0
 10
161.5171365001999
 20
117.0433921270312
 30
0.0
 10
161.6243860832683
 20
117.3592834434939
 30
0.0
 10
161.6951472998074
 20
117.512562776566
 30
0.0
 10
161.8672704499081
 20
117.8019398190524
 30
0.0
 10
161.9675007995375
 20
117.9366613249779
 30
0.0
 10
162.1950011461257
 20
118.1860078668385
 30
0.0
  0
CIRCLE
  5
158
330
1F
100
AcDbEntity
  8
0
  6
HIDDEN
 62
     7
370
     0
100
AcDbCircle
 10
164.0137286716
 20
116.4486822863
 30
0.0
 40
2.299999999999997
  0
CIRCLE
  5
159
330
1F
100
AcDbEntity
  8
0
  6
HIDDEN
 62
     7
370
     0
100
AcDbCircle
 10
220.2535221668
 20
134.7976889507
 30
0.0
 40
1.649999999999977
  0
CIRCLE
  5
15A
330
1F
100
AcDbEntity
  8
0
  6
HIDDEN
 62
     7
370
     0
100
AcDbCircle
 10
187.5137286716
 20
116.4486822863
 30
0.0
 40
2.0
  0
LINE
  5
15B
330
1F
100
AcDbEntity
  8
0
  6
HIDDEN
 62
     7
370
     0
100
AcDbLine
 10
199.8762908959
 20
130.9060328831
 30
0.0
 11
222.1570975714
 21
130.9060328831
 31
0.0
  0
SPLINE
  5
15C
330
1F
100
AcDbEntity
  8
0
  6
HIDDEN
 62
     7
370
     0
100
AcDbSpline
210
0.0
220
0.0
230
1.0
 70
     8
 71
     3
 72
     8
 73
     4
 74
     0
 42
0.00000001
 43
0.00000001
 12
1.0
 22
0.0
 32
0.0
 13
1.0
 23
0.0
 33
0.0
 40
0.0
 40
0.0
 40
0.0
 40
0.0
 40
1.0
 40
1.0
 40
1.0
 40
1.0
 10
199.8762918014296
 20
130.9060331084946
 30
0.0
 10
199.2986824412509
 20
127.165703836654
 30
0.0
 10
198.8672198385677
 20
123.4041687239954
 30
0.0
 10
198.7123275099193
 20
119.6025033661868
 30
0.0
  0
LINE
  5
15D
330
1F
100
AcDbEntity
  8
0
  6
HIDDEN
 62
     7
370
     0
100
AcDbLine
 10
222.1570975714
 20
130.9060328831
 30
0.0
 11
221.7116906875
 21
122.4072119412
 31
0.0
  0
LINE
  5
15E
330
1F
100
AcDbEntity
  8
0
  6
HIDDEN
 62
     7
370
     0
100
AcDbLine
 10
221.7116906875
 20
122.4072119412
 30
0.0
 11
217.5394847625
 21
116.4486822863
 31
0.0
  0
SPLINE
  5
15F
330
1F
100
AcDbEntity
  8
0
  6
HIDDEN
 62
     7
370
     0
100
AcDbSpline
210
0.0
220
0.0
230
1.0
 70
     8
 71
     3
 72
    10
 73
     6
 74
     0
 42
0.00000001
 43
0.00000001
 12
1.0
 22
0.0
 32
0.0
 13
1.0
 23
0.0
 33
0.0
 40
0.0
 40
0.0
 40
0.0
 40
0.0
 40
0.5
 40
0.5
 40
1.0
 40
1.0
 40
1.0
 40
1.0
 10
198.7123275099194
 20
119.6025033661868
 30
0.0
 10
198.6909160924866
 20
119.0769831895189
 30
0.0
 10
198.6644127494609
 20
118.551587783181
 30
0.0
 10
198.6249674922456
 20
117.5004646671516
 30
0.0
 10
198.6124270874147
 20
116.9747271190493
 30
0.0
 10
198.6124270874147
 20
116.4486822863216
 30
0.0
  0
LINE
  5
160
330
1F
100
AcDbEntity
  8
0
  6
HIDDEN
 62
     7
370
     0
100
AcDbLine
 10
175.5137286716
 20
100.6486830493
 30
0.0
 11
175.606621892
 21
100.7415750255
 31
0.0
  0
LINE
  5
161
330
1F
100
AcDbEntity
  8
0
  6
HIDDEN
 62
     7
370
     0
100
AcDbLine
 10
175.606621892
 20
132.1557895471
 30
0.0
 11
175.5137286716
 21
132.2486815234
 31
0.0
  0
ARC
  5
162
330
1F
100
AcDbEntity
  8
0
  6
HIDDEN
 62
     7
370
     0
100
AcDbCircle
 10
174.8995151092
 20
101.4486822863
 30
0.0
 40
1.000000000000018
100
AcDbArc
 50
315.0
 51
0.0
  0
ARC
  5
163
330
1F
100
AcDbEntity
  8
0
  6
HIDDEN
 62
     7
370
     0
100
AcDbCircle
 10
174.8995151092
 20
101.4486822863
 30
0.0
 40
1.0
100
AcDbArc
 50
0.0
 51
52.1052014664
  0
ARC
  5
164
330
1F
100
AcDbEntity
  8
0
  6
HIDDEN
 62
     7
370
     0
100
AcDbCircle
 10
174.8995151092
 20
131.4486822863
 30
0.0
 40
1.000000000000006
100
AcDbArc
 50
351.8087250651
 51
45.0
  0
ARC
  5
165
330
1F
100
AcDbEntity
  8
0
  6
HIDDEN
 62
     7
370
     0
100
AcDbCircle
 10
174.8995151092
 20
131.4486822863
 30
0.0
 40
1.000000000000021
100
AcDbArc
 50
307.8947985336
 51
351.8087250651
  0
LINE
  5
166
330
1F
100
AcDbEntity
  8
0
  6
HIDDEN
 62
     7
370
     0
100
AcDbLine
 10
175.8995151074
 20
101.4486826216
 30
0.0
 11
175.8995151074
 21
131.448681951
 31
0.0
  0
LINE
  5
167
330
1F
100
AcDbEntity
  8
0
  6
HIDDEN
 62
     7
370
     0
100
AcDbLine
 10
175.8995151074
 20
101.4486826216
 30
0.0
 11
175.8995151074
 21
131.448681951
 31
0.0
  0
LINE
  5
168
330
1F
100
AcDbEntity
  8
0
  6
HIDDEN
 62
     7
370
     0
100
AcDbLine
 10
187.4137289458
 20
121.5789844473
 30
0.0
 11
187.4137289458
 21
118.583707158
 31
0.0
  0
LINE
  5
169
330
1F
100
AcDbEntity
  8
0
  6
HIDDEN
 62
     7
370
     0
100
AcDbLine
 10
191.6137292617
 20
120.9896002156
 30
0.0
 11
191.6137292617
 21
121.5789844473
 31
0.0
  0
LINE
  5
16A
330
1F
100
AcDbEntity
  8
0
  6
HIDDEN
 62
     7
370
     0
100
AcDbLine
 10
191.6137292617
 20
118.5840454609
 30
0.0
 11
191.6137292617
 21
119.9645239585
 31
0.0
  0
LINE
  5
16B
330
1F
100
AcDbEntity
  8
0
  6
HIDDEN
 62
     7
370
     0
100
AcDbLine
 10
191.4632685118
 20
119.5380201289
 30
0.0
 11
194.8165922993
 21
121.6484089573
 31
0.0
  0
LINE
  5
16C
330
1F
100
AcDbEntity
  8
0
  6
HIDDEN
 62
     7
370
     0
100
AcDbLine
 10
195.0170762473
 20
126.7371117328
 30
0.0
 11
187.599506379
 21
122.0689211232
 31
0.0
  0
LINE
  5
16D
330
1F
100
AcDbEntity
  8
0
  6
HIDDEN
 62
     7
370
     0
100
AcDbLine
 10
187.5162405529
 20
121.7726180521
 30
0.0
 11
187.562172451
 21
121.1905330611
 31
0.0
  0
LINE
  5
16E
330
1F
100
AcDbEntity
  8
0
  6
HIDDEN
 62
     7
370
     0
100
AcDbLine
 10
151.513728463
 20
106.2930314993
 30
0.0
 11
152.540761196
 21
106.88598875
 31
0.0
  0
LINE
  5
16F
330
1F
100
AcDbEntity
  8
0
  6
HIDDEN
 62
     7
370
     0
100
AcDbLine
 10
152.540761196
 20
126.0113758226
 30
0.0
 11
151.513728463
 21
126.6043330734
 31
0.0
  0
ARC
  5
170
330
1F
100
AcDbEntity
  8
0
  6
HIDDEN
 62
     7
370
     0
100
AcDbCircle
 10
158.0265471413
 20
107.4486822863
 30
0.0
 40
1.000000000000008
100
AcDbArc
 50
270.0
 51
315.0
  0
ARC
  5
171
330
1F
100
AcDbEntity
  8
0
  6
HIDDEN
 62
     7
370
     0
100
AcDbCircle
 10
158.0265471413
 20
125.4486822863
 30
0.0
 40
1.0
100
AcDbArc
 50
45.0
 51
90.0
  0
LINE
  5
172
330
1F
100
AcDbEntity
  8
0
  6
HIDDEN
 62
     7
370
     0
100
AcDbLine
 10
157.0137284332
 20
106.4486825098
 30
0.0
 11
158.026547321
 21
106.4486825098
 31
0.0
  0
LINE
  5
173
330
1F
100
AcDbEntity
  8
0
  6
HIDDEN
 62
     7
370
     0
100
AcDbLine
 10
158.026547321
 20
126.4486820628
 30
0.0
 11
157.0137284332
 21
126.4486820628
 31
0.0
  0
ARC
  5
174
330
1F
100
AcDbEntity
  8
0
  6
HIDDEN
 62
     7
370
     0
100
AcDbCircle
 10
157.0137286716
 20
107.4486822863
 30
0.0
 40
1.000000000000008
100
AcDbArc
 50
193.3524261238
 51
270.0
  0
ARC
  5
175
330
1F
100
AcDbEntity
  8
0
  6
HIDDEN
 62
     7
370
     0
100
AcDbCircle
 10
157.0137286716
 20
125.4486822863
 30
0.0
 40
1.000000000000004
100
AcDbArc
 50
90.0
 51
166.6475738762
  0
LINE
  5
176
330
1F
100
AcDbEntity
  8
0
  6
HIDDEN
 62
     7
370
     0
100
AcDbLine
 10
158.7336539858
 20
106.7415750777
 30
0.0
 11
159.4407606506
 21
107.4486826738
 31
0.0
  0
LINE
  5
177
330
1F
100
AcDbEntity
  8
0
  6
HIDDEN
 62
     7
370
     0
100
AcDbLine
 10
159.4407606506
 20
125.4486818989
 30
0.0
 11
158.7336539858
 21
126.155789495
 31
0.0
  0
LINE
  5
178
330
1F
100
AcDbEntity
  8
0
  6
HIDDEN
 62
     7
370
     0
100
AcDbLine
 10
152.540761196
 20
106.88598875
 30
0.0
 11
154.6407613539
 21
107.4486826738
 31
0.0
  0
LINE
  5
179
330
1F
100
AcDbEntity
  8
0
  6
HIDDEN
 62
     7
370
     0
100
AcDbLine
 10
154.6407613539
 20
125.4486818989
 30
0.0
 11
152.540761196
 21
126.0113758226
 31
0.0
  0
LINE
  5
17A
330
1F
100
AcDbEntity
  8
0
  6
HIDDEN
 62
     7
370
     0
100
AcDbLine
 10
156.0407608383
 20
125.6796219577
 30
0.0
 11
155.6407615178
 21
125.4486818989
 31
0.0
  0
LINE
  5
17B
330
1F
100
AcDbEntity
  8
0
  6
HIDDEN
 62
     7
370
     0
100
AcDbLine
 10
155.6407615178
 20
107.4486826738
 30
0.0
 11
156.0407608383
 21
107.2177426149
 31
0.0
  0
ARC
  5
17C
330
1F
100
AcDbEntity
  8
0
  6
HIDDEN
 62
     7
370
     0
100
AcDbCircle
 10
166.0137286716
 20
107.9486822863
 30
0.0
 40
0.5
100
AcDbArc
 50
270.0
 51
0.0
  0
ARC
  5
17D
330
1F
100
AcDbEntity
  8
0
  6
HIDDEN
 62
     7
370
     0
100
AcDbCircle
 10
166.0137286716
 20
124.9486822863
 30
0.0
 40
0.5
100
AcDbArc
 50
0.0
 51
90.0
  0
LINE
  5
17E
330
1F
100
AcDbEntity
  8
0
  6
HIDDEN
 62
     7
370
     0
100
AcDbLine
 10
154.6407613539
 20
107.4486826738
 30
0.0
 11
155.6407615178
 21
107.4486826738
 31
0.0
  0
LINE
  5
17F
330
1F
100
AcDbEntity
  8
0
  6
HIDDEN
 62
     7
370
     0
100
AcDbLine
 10
155.6407615178
 20
125.4486818989
 30
0.0
 11
154.6407613539
 21
125.4486818989
 31
0.0
  0
LINE
  5
180
330
1F
100
AcDbEntity
  8
0
  6
HIDDEN
 62
     7
370
     0
100
AcDbLine
 10
159.4407606506
 20
107.4486826738
 30
0.0
 11
166.0137289771
 21
107.4486826738
 31
0.0
  0
LINE
  5
181
330
1F
100
AcDbEntity
  8
0
  6
HIDDEN
 62
     7
370
     0
100
AcDbLine
 10
166.0137289771
 20
125.4486818989
 30
0.0
 11
159.4407606506
 21
125.4486818989
 31
0.0
  0
LINE
  5
182
330
1F
100
AcDbEntity
  8
0
  6
HIDDEN
 62
     7
370
     0
100
AcDbLine
 10
166.513729059
 20
109.2986823251
 30
0.0
 11
167.4137284615
 21
110.1986821932
 31
0.0
  0
LINE
  5
183
330
1F
100
AcDbEntity
  8
0
  6
HIDDEN
 62
     7
370
     0
100
AcDbLine
 10
167.4137284615
 20
122.6986823795
 30
0.0
 11
166.513729059
 21
123.5986822476
 31
0.0
  0
LINE
  5
184
330
1F
100
AcDbEntity
  8
0
  6
HIDDEN
 62
     7
370
     0
100
AcDbLine
 10
167.4137284615
 20
110.1986821932
 30
0.0
 11
192.5137295955
 21
110.1986821932
 31
0.0
  0
LINE
  5
185
330
1F
100
AcDbEntity
  8
0
  6
HIDDEN
 62
     7
370
     0
100
AcDbLine
 10
192.5137295955
 20
122.6986823795
 30
0.0
 11
167.4137284615
 21
122.6986823795
 31
0.0
  0
LINE
  5
186
330
1F
100
AcDbEntity
  8
0
  6
HIDDEN
 62
     7
370
     0
100
AcDbLine
 10
192.5137295955
 20
110.1986821932
 30
0.0
 11
196.269107201
 21
116.4486822863
 31
0.0
  0
LINE
  5
187
330
1F
100
AcDbEntity
  8
0
  6
HIDDEN
 62
     7
370
     0
100
AcDbLine
 10
196.269107201
 20
116.4486822863
 30
0.0
 11
192.5137295955
 21
122.6986823795
 31
0.0
  0
LINE
  5
188
330
1F
100
AcDbEntity
  8
0
  6
HIDDEN
 62
     7
370
     0
100
AcDbLine
 10
187.4137289458
 20
114.3133191117
 30
0.0
 11
187.4137289458
 21
111.7426026804
 31
0.0
  0
LINE
  5
189
330
1F
100
AcDbEntity
  8
0
  6
HIDDEN
 62
     7
370
     0
100
AcDbLine
 10
191.6137292617
 20
111.7426026804
 30
0.0
 11
191.6137292617
 21
114.3136574146
 31
0.0
  0
LINE
  5
18A
330
1F
100
AcDbEntity
  8
0
  6
HIDDEN
 62
     7
370
     0
100
AcDbLine
 10
187.013728694
 20
111.6604004246
 30
0.0
 11
187.013728694
 21
109.6083051716
 31
0.0
  0
LINE
  5
18B
330
1F
100
AcDbEntity
  8
0
  6
HIDDEN
 62
     7
370
     0
100
AcDbLine
 10
192.0137285822
 20
109.6096085576
 30
0.0
 11
192.0137285822
 21
111.6604004246
 31
0.0
  0
LINE
  5
18C
330
1F
100
AcDbEntity
  8
VERMASSUNG
  6
CENTERX2
100
AcDbLine
 10
148.8431921893
 20
116.4486822863
 30
0.0
 11
225.5137286716
 21
116.4486822863
 31
0.0
  0
LINE
  5
18D
330
1F
100
AcDbEntity
  8
VERMASSUNG
  6
CENTERX2
100
AcDbLine
 10
225.5137286716
 20
143.4486822863
 30
0.0
 11
236.8359469023
 21
143.4486822863
 31
0.0
  0
LINE
  5
18E
330
1F
100
AcDbEntity
  8
VERMASSUNG
  6
CENTERX2
100
AcDbLine
 10
225.5137286716
 20
143.4486822863
 30
0.0
 11
225.5137286716
 21
116.4486822863
 31
0.0
  0
DIMENSION
  5
18F
330
1F
100
AcDbEntity
  8
VERMASSUNG
100
AcDbDimension
  2
_D
 10
151.5137286716
 20
154.0044811255
 30
0.0
 11
188.5137286716
 21
154.0044811255
 31
0.0
 70
   160
  1
<>
 71
     2
 42
-1.0
  3
SLDDIMSTYLE0
100
AcDbAlignedDimension
 13
225.5137286716
 23
143.4486822863
 33
0.0
 14
151.5137286716
 24
129.0801872684
 34
0.0
 50
0.0
100
AcDbRotatedDimension
  0
DIMENSION
  5
19A
330
1F
100
AcDbEntity
  8
VERMASSUNG
100
AcDbDimension
  2
_D_1
 10
175.5137286716
 20
148.982726484
 30
0.0
 11
200.5137286716
 21
148.982726484
 31
0.0
 70
   160
  1
<>
 71
     2
 42
-1.0
  3
SLDDIMSTYLE1
100
AcDbAlignedDimension
 13
225.5137286716
 23
143.4486822863
 33
0.0
 14
175.5137286716
 24
136.1486822863
 34
0.0
 50
0.0
100
AcDbRotatedDimension
  0
DIMENSION
  5
1A7
330
1F
100
AcDbEntity
  8
VERMASSUNG
100
AcDbDimension
  2
_D_2
 10
243.5055918955
 20
116.4486822863
 30
0.0
 11
243.5055918955
 21
129.9486822863
 31
0.0
 70
   160
  1
<>
 71
     2
 42
-1.0
  3
SLDDIMSTYLE1
100
AcDbAlignedDimension
 13
225.5137286716
 23
143.4486822863
 33
0.0
 14
225.5137286716
 24
116.4486822863
 34
0.0
 50
90.0
100
AcDbRotatedDimension
  0
DIMENSION
  5
1B3
330
1F
100
AcDbEntity
  8
VERMASSUNG
100
AcDbDimension
  2
_D_3
 10
236.8359469023
 20
143.4486822863
 30
0.0
 11
231.7293930134
 21
136.9214077083
 31
0.0
 70
   162
  1
<>
 71
     1
 42
-1.0
  3
SLDDIMSTYLE2
100
AcDb2LineAngularDimension
 13
224.9556552088
 23
132.3895318929
 33
0.0
 14
225.5136353464
 24
143.0364271673
 34
0.0
 15
225.5137286716
 25
143.4486822863
 35
0.0
 16
231.7293930134
 26
136.9214077083
 36
0.0
  0
DIMENSION
  5
1BC
330
1F
100
AcDbEntity
  8
VERMASSUNG
100
AcDbDimension
  2
_D_4
 10
142.8221329677
 20
96.4486822863
 30
0.0
 11
142.8221329677
 21
116.4486822863
 31
0.0
 70
   160
  1
PSC%%c<>
 71
     2
 42
-1.0
  3
SLDDIMSTYLE0
100
AcDbAlignedDimension
 13
175.8137286716
 23
136.4486822863
 33
0.0
 14
175.8137286716
 24
96.4486822863
 34
0.0
 50
90.0
100
AcDbRotatedDimension
  0
SPLINE
  5
1C8
330
1F
100
AcDbEntity
  8
0
  6
Continuous
 62
     7
370
    15
100
AcDbSpline
210
0.0
220
0.0
230
1.0
 70
     8
 71
     3
 72
    10
 73
     6
 74
     0
 42
0.00000001
 43
0.00000001
 12
1.0
 22
0.0
 32
0.0
 13
1.0
 23
0.0
 33
0.0
 40
0.0
 40
0.0
 40
0.0
 40
0.0
 40
0.3323651497171568
 40
0.6672486815020894
 40
1.0
 40
1.0
 40
1.0
 40
1.0
 10
86.63589722148241
 20
142.7924283971185
 30
0.0
 10
86.19135826963546
 20
142.8807264970565
 30
0.0
 10
85.29891202565165
 20
143.0579917452719
 30
0.0
 10
83.93635569254067
 20
143.2113620502581
 30
0.0
 10
83.04072114597727
 20
143.3789882089621
 30
0.0
 10
82.59433405858213
 20
143.4625336160058
 30
0.0
  0
LINE
  5
1C9
330
1F
100
AcDbEntity
  8
0
  6
Continuous
 62
     7
370
    15
100
AcDbLine
 10
82.5943340586
 20
126.3538622488
 30
0.0
 11
82.9325517351
 21
126.412916482
 31
0.0
  0
SPLINE
  5
1CA
330
1F
100
AcDbEntity
  8
0
  6
Continuous
 62
     7
370
    15
100
AcDbSpline
210
0.0
220
0.0
230
1.0
 70
     8
 71
     3
 72
    11
 73
     7
 74
     0
 42
0.00000001
 43
0.00000001
 12
1.0
 22
0.0
 32
0.0
 13
1.0
 23
0.0
 33
0.0
 40
0.0
 40
0.0
 40
0.0
 40
0.0
 40
0.2779887174303838
 40
0.5599335682523275
 40
0.7812666225378216
 40
1.0
 40
1.0
 40
1.0
 40
1.0
 10
86.60255168235959
 20
142.6950846989745
 30
0.0
 10
86.23756574966842
 20
142.7566737611977
 30
0.0
 10
85.50239966975423
 20
142.8807283764163
 30
0.0
 10
84.46105345462257
 20
142.8873474722747
 30
0.0
 10
83.50002045224414
 20
142.9097271672152
 30
0.0
 10
82.92056693091533
 20
142.9943606862997
 30
0.0
 10
82.63255172080433
 20
143.0364274610871
 30
0.0
  0
SPLINE
  5
1CB
330
1F
100
AcDbEntity
  8
0
  6
Continuous
 62
     7
370
    15
100
AcDbSpline
210
0.0
220
0.0
230
1.0
 70
    24
 71
     3
 72
    14
 73
    10
 74
     0
 42
0.00000001
 43
0.00000001
 12
1.0
 22
0.0
 32
0.0
 13
1.0
 23
0.0
 33
0.0
 40
0.0
 40
0.0
 40
0.0
 40
0.0
 40
0.158330194740276
 40
0.3167999057285785
 40
0.4713763800477412
 40
0.6221293973916262
 40
0.7721237034909775
 40
0.9245849831504209
 40
1.0
 40
1.0
 40
1.0
 40
1.0
 10
86.60255168235959
 20
142.7844525505895
 30
0.0
 10
86.60255168235959
 20
142.7896085865413
 30
0.0
 10
86.60255168235959
 20
142.7999252018031
 30
0.0
 10
86.60255168235959
 20
142.80124643755
 30
0.0
 10
86.60255168235959
 20
142.7914865697797
 30
0.0
 10
86.60255168235959
 20
142.7714666757601
 30
0.0
 10
86.60255168235959
 20
142.7438947840524
 30
0.0
 10
86.60255168235959
 20
142.7170240486116
 30
0.0
 10
86.60255168235959
 20
142.7005400363009
 30
0.0
 10
86.60255168235959
 20
142.6950846989745
 30
0.0
  0
SPLINE
  5
1CC
330
1F
100
AcDbEntity
  8
0
  6
Continuous
 62
     7
370
    15
100
AcDbSpline
210
0.0
220
0.0
230
1.0
 70
    24
 71
     3
 72
    12
 73
     8
 74
     0
 42
0.00000001
 43
0.00000001
 12
1.0
 22
0.0
 32
0.0
 13
1.0
 23
0.0
 33
0.0
 40
0.0
 40
0.0
 40
0.0
 40
0.0
 40
0.2134913819807075
 40
0.4264859024230012
 40
0.634376526110253
 40
0.8381585259913669
 40
1.0
 40
1.0
 40
1.0
 40
1.0
 10
82.6325517208042
 20
143.0364274610871
 30
0.0
 10
82.6325517208042
 20
143.082454896754
 30
0.0
 10
82.63255172080419
 20
143.1744026477801
 30
0.0
 10
82.63255172080432
 20
143.2990481862344
 30
0.0
 10
82.63255172080386
 20
143.3925777606593
 30
0.0
 10
82.63255172080429
 20
143.4477182415204
 30
0.0
 10
82.63255172080423
 20
143.4497852707956
 30
0.0
 10
82.63255172080422
 20
143.4507002313727
 30
0.0
  0
LINE
  5
1CD
330
1F
100
AcDbEntity
  8
0
  6
Continuous
 62
     7
370
    15
100
AcDbLine
 10
86.6025516824
 20
132.5136595597
 30
0.0
 11
86.6025516824
 21
142.695084699
 31
0.0
  0
SPLINE
  5
1CE
330
1F
100
AcDbEntity
  8
0
  6
Continuous
 62
     7
370
    15
100
AcDbSpline
210
0.0
220
0.0
230
1.0
 70
     8
 71
     3
 72
     9
 73
     5
 74
     0
 42
0.00000001
 43
0.00000001
 12
1.0
 22
0.0
 32
0.0
 13
1.0
 23
0.0
 33
0.0
 40
0.0
 40
0.0
 40
0.0
 40
0.0
 40
0.5600479772348902
 40
1.0
 40
1.0
 40
1.0
 40
1.0
 10
82.63255172080422
 20
132.3895310242766
 30
0.0
 10
83.37374953238974
 20
132.4099804548071
 30
0.0
 10
84.6972036679533
 20
132.4464941667776
 30
0.0
 10
86.02040609712
 20
132.4931383547971
 30
0.0
 10
86.60255168235959
 20
132.5136595596665
 30
0.0
  0
LINE
  5
1CF
330
1F
100
AcDbEntity
  8
0
  6
Continuous
 62
     7
370
    15
100
AcDbLine
 10
82.6325517208
 20
132.3895310243
 30
0.0
 11
82.6325517208
 21
143.0364274611
 31
0.0
  0
SPLINE
  5
1D0
330
1F
100
AcDbEntity
  8
0
  6
Continuous
 62
     7
370
    15
100
AcDbSpline
210
0.0
220
0.0
230
1.0
 70
     8
 71
     3
 72
     9
 73
     5
 74
     0
 42
0.00000001
 43
0.00000001
 12
1.0
 22
0.0
 32
0.0
 13
1.0
 23
0.0
 33
0.0
 40
0.0
 40
0.0
 40
0.0
 40
0.0
 40
0.5600391040947506
 40
1.0
 40
1.0
 40
1.0
 40
1.0
 10
86.60255168235959
 20
132.434681542694
 30
0.0
 10
85.86137821337262
 20
132.3660970634084
 30
0.0
 10
84.53794657517474
 20
132.2436333304581
 30
0.0
 10
83.21471977103805
 20
132.1255704076024
 30
0.0
 10
82.63255172080422
 20
132.0736273382896
 30
0.0
  0
SPLINE
  5
1D1
330
1F
100
AcDbEntity
  8
0
  6
Continuous
 62
     7
370
    15
100
AcDbSpline
210
0.0
220
0.0
230
1.0
 70
    24
 71
     3
 72
    10
 73
     6
 74
     0
 42
0.00000001
 43
0.00000001
 12
1.0
 22
0.0
 32
0.0
 13
1.0
 23
0.0
 33
0.0
 40
0.0
 40
0.0
 40
0.0
 40
0.0
 40
0.2657181795336233
 40
0.61652099718965
 40
0.9999999999999999
 40
0.9999999999999999
 40
0.9999999999999999
 40
0.9999999999999999
 10
86.60255168235959
 20
132.5136595596665
 30
0.0
 10
86.60255168235959
 20
132.5053078840522
 30
0.0
 10
86.60255168235959
 20
132.4859302735816
 30
0.0
 10
86.60255168235959
 20
132.4567330315146
 30
0.0
 10
86.60255168235959
 20
132.4422469205166
 30
0.0
 10
86.60255168235959
 20
132.434681542694
 30
0.0
  0
SPLINE
  5
1D2
330
1F
100
AcDbEntity
  8
0
  6
Continuous
 62
     7
370
    15
100
AcDbSpline
210
0.0
220
0.0
230
1.0
 70
    24
 71
     3
 72
    10
 73
     6
 74
     0
 42
0.00000001
 43
0.00000001
 12
1.0
 22
0.0
 32
0.0
 13
1.0
 23
0.0
 33
0.0
 40
0.0
 40
0.0
 40
0.0
 40
0.0
 40
0.3518009244976427
 40
0.7034284034055045
 40
1.0
 40
1.0
 40
1.0
 40
1.0
 10
82.63255172080422
 20
132.0736273382896
 30
0.0
 10
82.63255172080422
 20
132.1010431994679
 30
0.0
 10
82.63255172080422
 20
132.1558614052021
 30
0.0
 10
82.63255172080422
 20
132.270698044073
 30
0.0
 10
82.63255172080422
 20
132.3522283351607
 30
0.0
 10
82.63255172080422
 20
132.3895310242766
 30
0.0
  0
LINE
  5
1D3
330
1F
100
AcDbEntity
  8
0
  6
Continuous
 62
     7
370
    15
100
AcDbLine
 10
86.6025516824
 20
132.332679369
 30
0.0
 11
86.6025516824
 21
132.4346815427
 31
0.0
  0
LINE
  5
1D4
330
1F
100
AcDbEntity
  8
0
  6
Continuous
 62
     7
370
    15
100
AcDbLine
 10
82.6325517208
 20
126.4238893245
 30
0.0
 11
82.6325517208
 21
132.0736273383
 31
0.0
  0
SPLINE
  5
1D5
330
1F
100
AcDbEntity
  8
0
  6
Continuous
 62
     7
370
    15
100
AcDbSpline
210
0.0
220
0.0
230
1.0
 70
    24
 71
     3
 72
    10
 73
     6
 74
     0
 42
0.00000001
 43
0.00000001
 12
1.0
 22
0.0
 32
0.0
 13
1.0
 23
0.0
 33
0.0
 40
0.0
 40
0.0
 40
0.0
 40
0.0
 40
0.1195703690061667
 40
0.7176699196796892
 40
1.0
 40
1.0
 40
1.0
 40
1.0
 10
82.63255172080429
 20
126.3656956334704
 30
0.0
 10
82.63255172080429
 20
126.3646985099317
 30
0.0
 10
82.63255172080427
 20
126.3587137030276
 30
0.0
 10
82.63255172080429
 20
126.3828168116894
 30
0.0
 10
82.63255172080429
 20
126.4139164937526
 30
0.0
 10
82.63255172080429
 20
126.4238893245453
 30
0.0
  0
LINE
  5
1D6
330
1F
100
AcDbEntity
  8
0
  6
Continuous
 62
     7
370
    15
100
AcDbLine
 10
82.9325517351
 20
121.567180865
 30
0.0
 11
103.132552287
 21
122.4072119412
 31
0.0
  0
LINE
  5
1D7
330
1F
100
AcDbEntity
  8
0
  6
Continuous
 62
     7
370
    15
100
AcDbLine
 10
82.9325517351
 20
132.074838989
 30
0.0
 11
82.9325517351
 21
121.567180865
 31
0.0
  0
LINE
  5
1D8
330
1F
100
AcDbEntity
  8
0
  6
Continuous
 62
     7
370
    15
100
AcDbLine
 10
85.1025516693
 20
132.2272946318
 30
0.0
 11
86.6025516824
 21
132.1081486722
 31
0.0
  0
LINE
  5
1D9
330
1F
100
AcDbEntity
  8
0
  6
Continuous
 62
     7
370
    15
100
AcDbLine
 10
86.6025516824
 20
132.5136595597
 30
0.0
 11
86.6025516824
 21
132.5012599309
 31
0.0
  0
LINE
  5
1DA
330
1F
100
AcDbEntity
  8
0
  6
Continuous
 62
     7
370
    15
100
AcDbLine
 10
86.6025516824
 20
132.332679369
 30
0.0
 11
86.6025516824
 21
132.1081486722
 31
0.0
  0
LINE
  5
1DB
330
1F
100
AcDbEntity
  8
0
  6
Continuous
 62
     7
370
    15
100
AcDbLine
 10
92.1701777787
 20
140.8193339785
 30
0.0
 11
86.6025516824
 21
141.9683383037
 31
0.0
  0
ARC
  5
1DC
330
1F
100
AcDbEntity
  8
0
  6
Continuous
 62
     7
370
    15
100
AcDbCircle
 10
81.6325517208
 20
118.1486822863
 30
0.0
 40
25.0
100
AcDbArc
 50
30.683417109
 51
65.0703555826
  0
LINE
  5
1DD
330
1F
100
AcDbEntity
  8
0
  6
Continuous
 62
     7
370
    15
100
AcDbLine
 10
103.132552287
 20
130.9060328831
 30
0.0
 11
103.132552287
 21
122.4072119412
 31
0.0
  0
LINE
  5
1DE
330
1F
100
AcDbEntity
  8
0
  6
Continuous
 62
     7
370
    15
100
AcDbLine
 10
86.6025516824
 20
142.2073119511
 30
0.0
 11
91.1369536132
 21
141.2715357919
 31
0.0
  0
ARC
  5
1DF
330
1F
100
AcDbEntity
  8
0
  6
Continuous
 62
     7
370
    15
100
AcDbCircle
 10
81.6325517208
 20
118.1486822863
 30
0.0
 40
24.99999999999999
100
AcDbArc
 50
65.0703555826
 51
67.6554110799
  0
LINE
  5
1E0
330
1F
100
AcDbEntity
  8
0
  6
Continuous
 62
     7
370
    15
100
AcDbLine
 10
103.132552287
 20
122.4072119412
 30
0.0
 11
103.132552287
 21
116.4486822863
 31
0.0
  0
ARC
  5
1E1
330
1F
100
AcDbEntity
  8
0
  6
Continuous
 62
     7
370
    15
100
AcDbCircle
 10
82.6325517208
 20
116.4486822863
 30
0.0
 40
20.50000000000001
100
AcDbArc
 50
270.8385047527
 51
0.0
  0
LINE
  5
1E2
330
1F
100
AcDbEntity
  8
0
  6
Continuous
 62
     7
370
    15
100
AcDbLine
 10
82.9325517351
 20
121.567180865
 30
0.0
 11
82.9325517351
 21
95.9508777787
 31
0.0
  0
SPLINE
  5
1E3
330
1F
100
AcDbEntity
  8
0
  6
Continuous
 62
     7
370
    15
100
AcDbSpline
210
0.0
220
0.0
230
1.0
 70
     8
 71
     3
 72
     8
 73
     4
 74
     0
 42
0.00000001
 43
0.00000001
 12
1.0
 22
0.0
 32
0.0
 13
1.0
 23
0.0
 33
0.0
 40
0.0
 40
0.0
 40
0.0
 40
0.0
 40
1.0
 40
1.0
 40
1.0
 40
1.0
 10
82.93255172080478
 20
96.37542125478647
 30
0.0
 10
82.93255172080478
 20
96.42754923268565
 30
0.0
 10
82.9010611382703
 20
96.45037862244169
 30
0.0
 10
82.83589748765351
 20
96.44971605056874
 30
0.0
  0
SPLINE
  5
1E4
330
1F
100
AcDbEntity
  8
0
  6
Continuous
 62
     7
370
    15
100
AcDbSpline
210
0.0
220
0.0
230
1.0
 70
     8
 71
     3
 72
     8
 73
     4
 74
     0
 42
0.00000001
 43
0.00000001
 12
1.0
 22
0.0
 32
0.0
 13
1.0
 23
0.0
 33
0.0
 40
0.0
 40
0.0
 40
0.0
 40
0.0
 40
1.0
 40
1.0
 40
1.0
 40
1.0
 10
82.83589748764088
 20
96.44971605056051
 30
0.0
 10
82.73182810101962
 20
96.44865789240487
 30
0.0
 10
82.55055783482771
 20
96.4477376380112
 30
0.0
 10
82.3396069568868
 20
96.45082781727181
 30
0.0
  0
LINE
  5
1E5
330
1F
100
AcDbEntity
  8
0
  6
Continuous
 62
     7
370
    15
100
AcDbLine
 10
82.3396069698
 20
96.4508285006
 30
0.0
 11
82.3396069698
 21
136.4465360721
 31
0.0
  0
SPLINE
  5
1E6
330
1F
100
AcDbEntity
  8
0
  6
Continuous
 62
     7
370
    15
100
AcDbSpline
210
0.0
220
0.0
230
1.0
 70
     8
 71
     3
 72
     9
 73
     5
 74
     0
 42
0.00000001
 43
0.00000001
 12
1.0
 22
0.0
 32
0.0
 13
1.0
 23
0.0
 33
0.0
 40
0.0
 40
0.0
 40
0.0
 40
0.0
 40
0.7978727750964987
 40
1.0
 40
1.0
 40
1.0
 40
1.0
 10
82.33960696982318
 20
136.4465360720748
 30
0.0
 10
82.42769561588194
 20
136.4475704723156
 30
0.0
 10
82.53809999212864
 20
136.4488669199112
 30
0.0
 10
82.61667048503513
 20
136.4485657605113
 30
0.0
 10
82.63255172072562
 20
136.4485048879975
 30
0.0
  0
ELLIPSE
  5
1E7
330
1F
100
AcDbEntity
  8
0
  6
Continuous
 62
     7
370
    15
100
AcDbEllipse
 10
73.2408111798
 20
124.1927605761
 30
0.0
 11
1.766764322878629
 21
2.237622363123421
 31
0.0
210
0.0
220
0.0
230
1.0
 40
0.7216768204
 41
0.0
 42
6.283185307179586
  0
ARC
  5
1E8
330
1F
100
AcDbEntity
  8
0
  6
Continuous
 62
     7
370
    15
100
AcDbCircle
 10
82.6325517208
 20
116.4486822863
 30
0.0
 40
20.00000000000002
100
AcDbArc
 50
90.8392549412
 51
269.1607450588
  0
SPLINE
  5
1E9
330
1F
100
AcDbEntity
  8
0
  6
Continuous
 62
     7
370
    15
100
AcDbSpline
210
0.0
220
0.0
230
1.0
 70
     8
 71
     3
 72
    11
 73
     7
 74
     0
 42
0.00000001
 43
0.00000001
 12
1.0
 22
0.0
 32
0.0
 13
1.0
 23
0.0
 33
0.0
 40
0.0
 40
0.0
 40
0.0
 40
0.0
 40
0.0351507923315994
 40
0.2978722644439051
 40
0.688448263986865
 40
1.0
 40
1.0
 40
1.0
 40
1.0
 10
71.11074105507792
 20
122.4531242814952
 30
0.0
 10
71.11752306582802
 20
122.4615602466738
 30
0.0
 10
71.17499468355307
 20
122.5330476836231
 30
0.0
 10
71.16153933050559
 20
122.6928382808162
 30
0.0
 10
71.05162328599788
 20
122.8888959773375
 30
0.0
 10
70.90318595630092
 20
122.9225346081626
 30
0.0
 10
70.83732057965459
 20
122.9374609147305
 30
0.0
  0
SPLINE
  5
1EA
330
1F
100
AcDbEntity
  8
0
  6
Continuous
 62
     7
370
    15
100
AcDbSpline
210
0.0
220
0.0
230
1.0
 70
     8
 71
     3
 72
    11
 73
     7
 74
     0
 42
0.00000001
 43
0.00000001
 12
1.0
 22
0.0
 32
0.0
 13
1.0
 23
0.0
 33
0.0
 40
0.0
 40
0.0
 40
0.0
 40
0.0
 40
0.3739395458190296
 40
0.6565213011455568
 40
0.8850789739733312
 40
1.0
 40
1.0
 40
1.0
 40
1.0
 10
73.65595996982516
 20
121.9291212228233
 30
0.0
 10
73.55455202973295
 20
121.9634385111156
 30
0.0
 10
73.37651129154355
 20
122.0236889740939
 30
0.0
 10
73.12752067546472
 20
121.953408937885
 30
0.0
 10
72.98780194971657
 20
121.8364656207649
 30
0.0
 10
72.97193322533809
 20
121.7133330118779
 30
0.0
 10
72.9666238710946
 20
121.6721353312129
 30
0.0
  0
ARC
  5
1EB
330
1F
100
AcDbEntity
  8
0
  6
Continuous
 62
     7
370
    15
100
AcDbCircle
 10
70.9815123704
 20
119.5589720026
 30
0.0
 40
2.535183252465859
100
AcDbArc
 50
54.3041502548
 51
81.7074752198
  0
LINE
  5
1EC
330
1F
100
AcDbEntity
  8
0
  6
Continuous
 62
     8
370
    15
100
AcDbLine
 10
82.6325517208
 20
126.4238893245
 30
0.0
 11
82.9325517351
 21
126.473881789
 31
0.0
  0
CIRCLE
  5
1ED
330
1F
100
AcDbEntity
  8
VERMASSUNG
  6
CENTERX2
100
AcDbCircle
 10
82.6325517208
 20
118.1218484685
 30
0.0
 40
25.0
  0
DIMENSION
  5
1EE
330
1F
100
AcDbEntity
  8
VERMASSUNG
100
AcDbDimension
  2
_D_5
 10
63.3744759971
 20
134.063194692
 30
0.0
 11
53.3713178804
 21
142.3435550538
 31
0.0
 70
   160
  1
%%c<> min. 
 71
     2
 42
-1.0
  3
SLDDIMSTYLE3
100
AcDbAlignedDimension
 13
101.8906274445
 23
102.1805022449
 33
0.0
 14
63.3744759971
 24
134.063194692
 34
0.0
 50
-39.6170945633
100
AcDbRotatedDimension
  0
INSERT
  5
208
330
1F
100
AcDbEntity
  8
VERMASSUNG
100
AcDbBlockReference
  2
SW_CENTERMARKSYMBOL_0
 10
82.6325517208
 20
116.4486822863
 30
0.0
  0
OLE2FRAME
  5
209
330
1F
100
AcDbEntity
  8
0
100
AcDbOle2Frame
 70
     2
  3
Paintbrush-Bild
 10
13.8511154363
 20
38.264191557
 30
0.0
 11
51.6290888628
 21
31.9806341108
 31
0.0
 71
     2
 72
     0
 73
     1
 90
    12928
310
80552BED0767C5B32B40DDAF6807D121434000000000000000006FFBDDFB85D0
310
4940DDAF6807D121434000000000000000006FFBDDFB85D04940416F4BD60AFB
310
3F4000000000000000002BED0767C5B32B40416F4BD60AFB3F40000000000000
310
0000000000000100000000010000010000000100000000000100000000320000
310
D0CF11E0A1B11AE1000000000000000000000000000000003E000300FEFF0900
310
0600000000000000000000000100000001000000000000000010000002000000
310
01000000FEFFFFFF0000000000000000FFFFFFFFFFFFFFFFFFFFFFFFFFFFFFFF
310
FFFFFFFFFFFFFFFFFFFFFFFFFFFFFFFFFFFFFFFFFFFFFFFFFFFFFFFFFFFFFFFF
310
FFFFFFFFFFFFFFFFFFFFFFFFFFFFFFFFFFFFFFFFFFFFFFFFFFFFFFFFFFFFFFFF
310
FFFFFFFFFFFFFFFFFFFFFFFFFFFFFFFFFFFFFFFFFFFFFFFFFFFFFFFFFFFFFFFF
310
FFFFFFFFFFFFFFFFFFFFFFFFFFFFFFFFFFFFFFFFFFFFFFFFFFFFFFFFFFFFFFFF
310
FFFFFFFFFFFFFFFFFFFFFFFFFFFFFFFFFFFFFFFFFFFFFFFFFFFFFFFFFFFFFFFF
310
FFFFFFFFFFFFFFFFFFFFFFFFFFFFFFFFFFFFFFFFFFFFFFFFFFFFFFFFFFFFFFFF
310
FFFFFFFFFFFFFFFFFFFFFFFFFFFFFFFFFFFFFFFFFFFFFFFFFFFFFFFFFFFFFFFF
310
FFFFFFFFFFFFFFFFFFFFFFFFFFFFFFFFFFFFFFFFFFFFFFFFFFFFFFFFFFFFFFFF
310
FFFFFFFFFFFFFFFFFFFFFFFFFFFFFFFFFFFFFFFFFFFFFFFFFFFFFFFFFFFFFFFF
310
FFFFFFFFFFFFFFFFFFFFFFFFFFFFFFFFFFFFFFFFFFFFFFFFFFFFFFFFFFFFFFFF
310
FFFFFFFFFFFFFFFFFFFFFFFFFFFFFFFFFFFFFFFFFFFFFFFFFFFFFFFFFFFFFFFF
310
FFFFFFFFFFFFFFFFFFFFFFFFFFFFFFFFFFFFFFFFFFFFFFFFFFFFFFFFFFFFFFFF
310
FFFFFFFFFFFFFFFFFFFFFFFFFFFFFFFFFFFFFFFFFFFFFFFFFFFFFFFFFFFFFFFF
310
FDFFFFFFFEFFFFFFFEFFFFFFFEFFFFFF05000000060000000700000008000000
310
090000000A0000000B0000000C0000000D0000000E0000000F00000010000000
310
11000000120000001300000014000000150000001600000017000000FEFFFFFF
310
FFFFFFFFFFFFFFFFFFFFFFFFFFFFFFFFFFFFFFFFFFFFFFFFFFFFFFFFFFFFFFFF
310
FFFFFFFFFFFFFFFFFFFFFFFFFFFFFFFFFFFFFFFFFFFFFFFFFFFFFFFFFFFFFFFF
310
FFFFFFFFFFFFFFFFFFFFFFFFFFFFFFFFFFFFFFFFFFFFFFFFFFFFFFFFFFFFFFFF
310
FFFFFFFFFFFFFFFFFFFFFFFFFFFFFFFFFFFFFFFFFFFFFFFFFFFFFFFFFFFFFFFF
310
FFFFFFFFFFFFFFFFFFFFFFFFFFFFFFFFFFFFFFFFFFFFFFFFFFFFFFFFFFFFFFFF
310
FFFFFFFFFFFFFFFFFFFFFFFFFFFFFFFFFFFFFFFFFFFFFFFFFFFFFFFFFFFFFFFF
310
FFFFFFFFFFFFFFFFFFFFFFFFFFFFFFFFFFFFFFFFFFFFFFFFFFFFFFFFFFFFFFFF
310
FFFFFFFFFFFFFFFFFFFFFFFFFFFFFFFFFFFFFFFFFFFFFFFFFFFFFFFFFFFFFFFF
310
FFFFFFFFFFFFFFFFFFFFFFFFFFFFFFFFFFFFFFFFFFFFFFFFFFFFFFFFFFFFFFFF
310
FFFFFFFFFFFFFFFFFFFFFFFFFFFFFFFFFFFFFFFFFFFFFFFFFFFFFFFFFFFFFFFF
310
FFFFFFFFFFFFFFFFFFFFFFFFFFFFFFFFFFFFFFFFFFFFFFFFFFFFFFFFFFFFFFFF
310
FFFFFFFFFFFFFFFFFFFFFFFFFFFFFFFFFFFFFFFFFFFFFFFFFFFFFFFFFFFFFFFF
310
FFFFFFFFFFFFFFFFFFFFFFFFFFFFFFFFFFFFFFFFFFFFFFFFFFFFFFFFFFFFFFFF
310
52006F006F007400200045006E00740072007900000000000000000000000000
310
0000000000000000000000000000000000000000000000000000000000000000
310
16000500FFFFFFFFFFFFFFFF020000000A00030000000000C000000000000046
310
000000000000000000000000108385EB5824CD0103000000C000000000000000
310
01004F006C006500000000000000000000000000000000000000000000000000
310
0000000000000000000000000000000000000000000000000000000000000000
310
0A000200FFFFFFFFFFFFFFFFFFFFFFFF00000000000000000000000000000000
310
0000000000000000000000000000000000000000000000001400000000000000
310
010043006F006D0070004F0062006A0000000000000000000000000000000000
310
0000000000000000000000000000000000000000000000000000000000000000
310
120002010100000003000000FFFFFFFF00000000000000000000000000000000
310
0000000000000000000000000000000000000000010000004D00000000000000
310
01004F006C006500310030004E00610074006900760065000000000000000000
310
0000000000000000000000000000000000000000000000000000000000000000
310
1A000200FFFFFFFFFFFFFFFFFFFFFFFF00000000000000000000000000000000
310
0000000000000000000000000000000000000000040000002426000000000000
310
FEFFFFFF02000000FEFFFFFFFFFFFFFFFFFFFFFFFFFFFFFFFFFFFFFFFFFFFFFF
310
FFFFFFFFFFFFFFFFFFFFFFFFFFFFFFFFFFFFFFFFFFFFFFFFFFFFFFFFFFFFFFFF
310
FFFFFFFFFFFFFFFFFFFFFFFFFFFFFFFFFFFFFFFFFFFFFFFFFFFFFFFFFFFFFFFF
310
FFFFFFFFFFFFFFFFFFFFFFFFFFFFFFFFFFFFFFFFFFFFFFFFFFFFFFFFFFFFFFFF
310
FFFFFFFFFFFFFFFFFFFFFFFFFFFFFFFFFFFFFFFFFFFFFFFFFFFFFFFFFFFFFFFF
310
FFFFFFFFFFFFFFFFFFFFFFFFFFFFFFFFFFFFFFFFFFFFFFFFFFFFFFFFFFFFFFFF
310
FFFFFFFFFFFFFFFFFFFFFFFFFFFFFFFFFFFFFFFFFFFFFFFFFFFFFFFFFFFFFFFF
310
FFFFFFFFFFFFFFFFFFFFFFFFFFFFFFFFFFFFFFFFFFFFFFFFFFFFFFFFFFFFFFFF
310
FFFFFFFFFFFFFFFFFFFFFFFFFFFFFFFFFFFFFFFFFFFFFFFFFFFFFFFFFFFFFFFF
310
FFFFFFFFFFFFFFFFFFFFFFFFFFFFFFFFFFFFFFFFFFFFFFFFFFFFFFFFFFFFFFFF
310
FFFFFFFFFFFFFFFFFFFFFFFFFFFFFFFFFFFFFFFFFFFFFFFFFFFFFFFFFFFFFFFF
310
FFFFFFFFFFFFFFFFFFFFFFFFFFFFFFFFFFFFFFFFFFFFFFFFFFFFFFFFFFFFFFFF
310
FFFFFFFFFFFFFFFFFFFFFFFFFFFFFFFFFFFFFFFFFFFFFFFFFFFFFFFFFFFFFFFF
310
FFFFFFFFFFFFFFFFFFFFFFFFFFFFFFFFFFFFFFFFFFFFFFFFFFFFFFFFFFFFFFFF
310
FFFFFFFFFFFFFFFFFFFFFFFFFFFFFFFFFFFFFFFFFFFFFFFFFFFFFFFFFFFFFFFF
310
FFFFFFFFFFFFFFFFFFFFFFFFFFFFFFFFFFFFFFFFFFFFFFFFFFFFFFFFFFFFFFFF
310
0100000200000000000000000000000000000000000000000000000000000000
310
0000000000000000000000000000000000000000000000000000000000000000
310
0100FEFF030A0000FFFFFFFF0A00030000000000C00000000000004607000000
310
5042727573680007000000504272757368000700000050427275736800F439B2
310
7100000000000000000000000000000000000000000000000000000000000000
310
0000000000000000000000000000000000000000000000000000000000000000
310
0000000000000000000000000000000000000000000000000000000000000000
310
0000000000000000000000000000000000000000000000000000000000000000
310
0000000000000000000000000000000000000000000000000000000000000000
310
0000000000000000000000000000000000000000000000000000000000000000
310
0000000000000000000000000000000000000000000000000000000000000000
310
0000000000000000000000000000000000000000000000000000000000000000
310
0000000000000000000000000000000000000000000000000000000000000000
310
0000000000000000000000000000000000000000000000000000000000000000
310
0000000000000000000000000000000000000000000000000000000000000000
310
0000000000000000000000000000000000000000000000000000000000000000
310
20260000424D0E260000000000003E00000028000000B40200006E0000000100
310
01000000000000000000130B0000130B00000200000002000000000000FFFFFF
310
FFFFFFFFFFFFFFFFFFFFFFFFFFFFFFFFFFFFFFFFFFFFFFFFFFFFFFFFFFFFFFFF
310
FFFFFFFFFFFFFFFFFFFFFFFFFFFFFFFFFFFFFFFFFFFFFFFFFFFFFFFFFFFFFFFF
310
FFFFFFFFFFFFFFFFFFFFFFFFFFFFFFFFFFFFFFFFFFFFFFFFF000FFFFFFFFFFFF
310
FFFFFFFFFFFFFFFFFFFFFFFFFFFFFFFFFFFFFFFFFFFFFFFFFFFFFFFFFFFFFFFF
310
FFFFFFFFFFFFFFFFFFFFFFFFFFFFFFFFFFFFFFFFFFFFFFFFFFFFFFFFFFFFFFFF
310
FFFFFFFFFFFFFFFFFFFFFFFFFFFFFFFFF000FFFFFFFFFFFFFFFFFFFFFFFFFFFF
310
FFFFFFFFFFFFFFFFFFFFFFFFFFFFFFFFFFFFFFFFFFFFFFFFFFFFFFFFFFFFFFFF
310
FFFFFFFFFFFFFFFFFFFFFFFFFFFFFFFFFFFFFFFFFFFFFFFFFFFFFFFFFFFFFFFF
310
FFFFFFFFFFFFFFFFF000FFFFFFFFFFFFFFFFFFFFFFFFFFFFFFFFFFFFFFFFFFFF
310
FFFFFFFFFFFFFFFFFFFFFFFFFFFFFFFFFFFFFFFFFFFFFFFFFFFFFFFFFFFFFFFF
310
FFFFFFFFFFFFFFFFFFFFFFFFFFFFFFFFFFFFFFFFFFFFFFFFFFFFFFFFFFFFFFFF
310
F000FFFFFFFFFFFFFFFFFFFFFFFFFFFFFFFFFFFFFFFFFFFFFFFFFFFFFFFFFFFF
310
FFFFFFFFFFFFFFFFFFFFFFFFFFFFFFFFFFFFFFFFFFFFFFFFFFFFFFFFFFFFFFFF
310
FFFFFFFFFFFFFFFFFFFFFFFFFFFFFFFFFFFFFFFFFFFFFFFFF000FFFFFFFFFFFF
310
FFFFFFFFFFFFFFFFFFFFFFFFFFFFFFFFFFFFFFFFFFFFFFFFFFFFFFFFFFFFFFFF
310
FFFFFFFFFFFFFFFFFFFFFFFFFFFFFFFFFFFFFFFFFFFFFFFFFFFFFFFFFFFFFFFF
310
FFFFFFFFFFFFFFFFFFFFFFFFFFFFFFFFF000FFFFFFFFFFFFFFFFFFFFFFFFFFFF
310
FFFFFFFFFFFFFFFFFFFFFFFFFFFFFFFFFFFFFFFFFFFFFFFFFFFFFFFFFFFFFFFF
310
FFFFFFFFFFFFFFFFFFFFFFFFFFFFFFFFFFFFFFFFFFFFFFFFFFFFFFFFFFFFFFFF
310
FFFFFFFFFFFFFFFFF000FFFFFFFFFFFFFFFFFFFFFFFFFFFFFFFFFFFFFFFFFFFF
310
FFFFFFFFFFFFFFFFFFFFFFFFFFFFFFFFFFFFFFFFFFFFFFFFFFFFFFFFFFFFFFFF
310
FFFFFFFFFFFFFFFFFFFFFFFFFFFFFFFFFFFFFFFFFFFFFFFFFFFFFFFFFFFFFFFF
310
F000FFFFFFFFFFFFFFFFFFFFFFFFFFFFFFFFFFFFFFFFFFFFFFFFFFFFFFFFFFFF
310
FFFFFFFFFFFFFFFFFFFFFFFFFFFFFFFFFFFFFFFFFFFFFFFFFFFFFFFFFFFFFFFF
310
FFFFFFFFFFFFFFFFFFFFFFFFFFFFFFFFFFFFFFFFFFFFFFFFF000FFFFFFFFFFFF
310
FFFFFFFFFFFFFFFFFFFFFFFFFFFFFFFFFFFFFFFFFFFFFFFFFFFFFFFFFFFFFFFF
310
FFFFFFFFFFFFFFFFFFFFFFFFFFFFFFFFFFFFFFFFFFFFFFFFFFFFFFFFFFFFFFFF
310
FFFFFFFFFFFFFFFFFFFFFFFFFFFFFFFFF000FFFFFFFFFFFFFFFFFFFFFFFFFFFF
310
FFFFFFFFFFFFFFFFFFFFFFFFFFFFFFFFFFFFFFFFFFFFFFFFFFFFFFFFFFFFFFFF
310
FFFFFFFFFFFFFFFFFFFFFFFFFFFFFFFFFFFFFFFFFFFFFFFFFFFFFFFFFFFFFFFF
310
FFFFFFFFFFFFFFFFF000FFFFFFFFFFFFFFFFFFFFFFFFFFFFFFFFFFFFFFFFFFFF
310
FFFFFFFFFFFFFFFFFFFFFFFFFFFFFFFFFFFFFFFFFFFFFFFFFFFFFFFFFFFFFFFF
310
FFFFFFFFFFFFFFFFFFFFFFFFFFFFFFFFFFFFFFFFFFFFFFFFFFFFFFFFFFFFFFFF
310
F000FFFFFFFFFFFFFFFFFFFFFFFFFFFFFFFFFFFFFFFFFFFFFFFFFFFFFFFFFFFF
310
FFFFFFFFFFFFFFFFFFFFFFFFFFFFFFFFFFFFFFFFFFFFFFFFFFFFFFFFFFFFFFFF
310
FFFFFFFFFFFFFFFFFFFFFFFFFFFFFFFFFFFFFFFFFFFFFFFFF000FFFFFFFFFFFF
310
FFFFFFFFFFFFFFFFFFFFFFFFFFFFFFFFFFFFFFFFFFFFFFFFFFFFFFFFFFFFFFFF
310
FFFFFFFFFFFFFFFFFFFFFFFFFFFFFFFFFFFFFFFFFFFFFFFFFFFFFFFFFFFFFFFF
310
FFFFFFFFFFFFFFFFFFFFFFFFFFFFFFFFF000FFFFFFFFFFFFFFFFFFFFFFFFFFFF
310
FFFFFFFFFFFFFFFFFFFFFFFFFFFFFFFFFFFFFFFFFFFFFFFFFFFFFFFFFFFFFFFF
310
FFFFFFFFFFFFFFFFFFFFFFFFFFFFFFFFFFFFFFFFFFFFFFFFFFFFFFFFFFFFFFFF
310
FFFFFFFFFFFFFFFFF000FFFFFFFFFFFFFFFFFFFFFFFFFFFFFFFFFFFFFFFFFFFF
310
FFFFFFFFFFFFFFFFFFFFFFFFFFFFFFFFFFFFFFFFFFFFFFFFFFFFFFFFFFFFFFFF
310
FFFFFFFFFFFFFFFFFFFFFFFFFFFFFFFFFFFFFFFFFFFFFFFFFFFFFFFFFFFFFFFF
310
F000FFFFFFFFFFFFFFFFFFFFFFFFFFFFFFFFFFFFFFFFFFFFFFFFFFFFFFFFFFFF
310
FFFFFFFFFFFFFFFFFFFFFFFFFFFFFFFFFFFFFFFFFFFFFFFFFFFFFFFFFFFFFFFF
310
FFFFFFFFFFFFFFFFFFFFFFFFFFFFFFFFFFFFFFFFFFFFFFFFF000FFFFFFFFFFFF
310
FFFFFFFFFFFFFFFFFFFFFFFFFFFFFFFFFFFFFFFFFFFFFFFFFFFFFFFFFFFFFFFF
310
FFFFFFFFFFFFFFFFFFFFFFFFFFFFFFFFFFFFFFFFFFFFFFFFFFFFFFFFFFFFFFFF
310
FFFFFFFFFFFFFFFFFFFFFFFFFFFFFFFFF000FFFFFFFFFFFFFFFFFFFFFFFFFFFF
310
FFFFFFFFFFFFFFFFFFFFFFFFFFFFFFFFFFFFFFFFFFFFFFFFFFFFFFFFFFFFFFFF
310
FFFFFFFFFFFFFFFFFFFFFFFFFFFFFFFFFFFFFFFFFFFFFFFFFFFFFFFFFFFFFFFF
310
FFFFFFFFFFFFFFFFF000FFFFF80003FFFFFFFFFFFFFFFFFFFFFFFFFFFFFFFFFF
310
FFFFF00007FFFFFFFFFF00007FFFFFF800000000000000007FFFFFFFFFFFFFFF
310
FFFFFFFC001FFFFFFFFFFFFFFC001FFFFFFFFFFFFFFFFFFFFFFFFFFE0007FFFF
310
F000FFFF8000007FFFFFFFF8000FFFFFC0007FFFFF80007FFFFF0000007FFFFF
310
FFF8000007FFFFF800000000000000007FFFFFF0001FFFFFFFFFFFC00001FFFF
310
FFFFFFFFC00001FFFFFFFF000000000003FFFFE000007FFFF000FFFE0000000F
310
FFFFFFF0000FFFFF80007FFFFF80007FFFFC0000001FFFFFFFC0000001FFFFF8
310
00000000000000007FFFFFF0001FFFFFFFFFFE0000003FFFFFFFFFFE0000003F
310
FFFFFF000000000003FFFF0000000FFFF000FFF800000003FFFFFFF00007FFFF
310
80007FFFFF80007FFFF000000007FFFFFF000000003FFFF80000000000000000
310
7FFFFFF0001FFFFFFFFFF80000000FFFFFFFFFF80000000FFFFFFF0000000000
310
03FFFC00000003FFF000FFE000000000FFFFFFF00007FFFF80003FFFFF80007F
310
FFC000000001FFFFFC000000001FFFF800000000000000007FFFFFF0001FFFFF
310
FFFFE000000003FFFFFFFFE000000003FFFFFF000000000003FFF000000000FF
310
F000FF80000000007FFFFFF00007FFFF80003FFFFF80007FFF8000000000FFFF
310
F80000000007FFF800000000000000007FFFFFF0001FFFFFFFFFC000000001FF
310
FFFFFFC000000001FFFFFF000000000003FFC0000000007FF000FF0000000000
310
3FFFFFE00007FFFF00003FFFFF80007FFE00000000003FFFF00000000003FFF8
310
00000000000000007FFFFFF0001FFFFFFFFF8000000000FFFFFFFF8000000000
310
FFFFFF000000000003FF80000000003FF000FE00000000001FFFFFE00003FFFF
310
00003FFFFF80007FFC00000000001FFFE00000000001FFF8000001FFFE000000
310
7FFFFFF0001FFFFFFFFE00000000003FFFFFFE00000000003FFFFF0000000000
310
03FF00000000001FF000FC00000000000FFFFFE00003FFFF00001FFFFF80007F
310
F800000000001FFFC00000000000FFF8000001FFFE0000007FFFFFF0001FFFFF
310
FFFC00000000001FFFFFFC00000000001FFFFF000000000003FE00000000000F
310
F000F8000000000007FFFFE00003FFFF00001FFFFF80007FF800000000000FFF
310
800000000000FFF8000001FFFE0000007FFFFFF0001FFFFFFFF800000000000F
310
FFFFF800000000000FFFFF000000000003FC000000000007F000F80000000000
310
03FFFFC00003FFFE00001FFFFF80007FF0000000000007FF0000000000007FF8
310
000001FFFE0000007FFFFFF0001FFFFFFFF0000000000007FFFFF00000000000
310
07FFFF000000000003F8000000000003F000F0000000000003FFFFC00001FFFE
310
00001FFFFF80007FE0000000000007FE0000000000003FF8000001FFFE000000
310
7FFFFFF0001FFFFFFFF0000000000007FFFFF0000000000007FFFF0000000000
310
03F800001F800003F000E00001FFF00001FFFFC00001FFFE00000FFFFF80007F
310
E00001FFE00003FE00001FFF00003FF8000001FFFE0000007FFFFFF0001FFFFF
310
FFE000003E000003FFFFE000003E000003FFFF000000000003F00001FFF80001
310
F000E00007FFFC0001FFFFC00001FFFE00000FFFFF80007FC0000FFFFC0003FC
310
0000FFFFC0001FF8000001FFFE0000007FFFFFF0001FFFFFFFC00003FFE00001
310
FFFFC00003FFE00001FFFF0001FFFFFFFFF00007FFFE0001F000E0000FFFFF00
310
00FFFF800001FFFC00000FFFFF80007FC0001FFFFE0001FC0001FFFFE0001FF8
310
000001FFFE0000007FFFFFF0001FFFFFFF80000FFFF80000FFFF80000FFFF800
310
00FFFF0003FFFFFFFFE0000FFFFF8000F000C0003FFFFF8000FFFF800000FFFC
310
000007FFFF80007F80003FFFFF0001FC0003FFFFF0001FF8000001FFFE000000
310
7FFFFFF0001FFFFFFF80003FFFFE0000FFFF80003FFFFE0000FFFF0003FFFFFF
310
FFE0003FFFFF8000F000C0003FFFFF8000FFFF800000FFFC000007FFFF80007F
310
80007FFFFF8001F80007FFFFF8000FF8000001FFFE0000007FFFFFF0001FFFFF
310
FF00007FFFFF00007FFF00007FFFFF00007FFF0003FFFFFFFFE0003FFFFFC000
310
F000C0007FFFFFC000FFFF000000FFFC000007FFFF80007F8000FFFFFF8000F8
310
000FFFFFF8000FF8000001FFFE0000007FFFFFF0001FFFFFFF0000FFFFFF8000
310
7FFF0000FFFFFF80007FFF0003FFFFFFFFC0007FFFFFC00070008000FFFFFFC0
310
00FFFF000000FFF8000007FFFF80007F8000FFFFFF8000F8000FFFFFF8000FF8
310
000001FFFE0000007FFFFFF0001FFFFFFE0001FFFFFFC0003FFE0001FFFFFFC0
310
003FFF0003FFFFFFFFC0007FFFFFE00070008000FFFFFFC0007FFF0000007FF8
310
000003FFFF80007F0001FFFFFF8000F8000FFFFFF8000FF8000001FFFE000000
310
7FFFFFF0001FFFFFFE0001FFFFFFC0003FFE0001FFFFFFC0003FFF0003FFFFFF
310
FFC000FFFFFFE00070008000FFFFFFC0007FFF0000007FF8000003FFFF80007F
310
0001FFFFFF8000F8001FFFFFF8000FF8000001FFFE0000007FFFFFF0001FFFFF
310
FE0003FFFFFFE0003FFE0003FFFFFFE0003FFF0003FFFFFFFFC000FFFFFFE000
310
70008000FFFFFFC0007FFE0000007FF8000003FFFF80007F0001FFFFFF8000F0
310
001FFFFFF8000FF8000001FFFE0000007FFFFFF0001FFFFFFC0003FFFFFFE000
310
1FFC0003FFFFFFE0001FFF0003FFFFFFFFC000FFFFFFC00070008000FFFFFF80
310
007FFE0000007FF0000003FFFF80007F0001FFFFFF0000F0001FFFFFF8000FF8
310
000001FFFE0000007FFFFFF0001FFFFFFC0007FFFFFFF0001FFC0007FFFFFFF0
310
001FFF0003FFFFFFFFC000FFFFFFC00070008001FFFFFF0000FFFE0000003FF0
310
000001FFFF80007F0001FFFFFF0000F8001FFFFFF0000FF8000001FFFE000000
310
7FFFFFF0001FFFFFFC0007FFFFFFF0001FFC0007FFFFFFF0001FFF0003FFFFFF
310
FFC001FFFFFF80007000FFFFFFFFFE0000FFFE0008003FF0008001FFFF80007F
310
FFFFFFFFFC0000FFFFFFFFFFE0000FF8000001FFFE0000007FFFFFF0001FFFFF
310
F8000FFFFFFFF8000FF8000FFFFFFFF8000FFF0003FFFFFFFFFFFFFFFFFF0000
310
7000FFFFFFFFFC0000FFFC0008003FF0008001FFFF80007FFFFFFFFFF80001FF
310
FFFFFFFF80000FF8000001FFFE0000007FFFFFF0001FFFFFF8000FFFFFFFF800
310
0FF8000FFFFFFFF8000FFF0003FFFFFFFFFFFFFFFFFE0000F000FFFFFFFFE000
310
00FFFC000C003FE000C001FFFF80007FFFFFFFFFC00001FFFFFFFFFE00001FF8
310
000001FFFE0000007FFFFFF0001FFFFFF8000FFFFFFFF8000FF8000FFFFFFFF8
310
000FFF0003FFFFFFFFFFFFFFFFF00000F000FFFFFFFE000001FFFC000C001FE0
310
00C000FFFF80007FFFFFFFFE000001FFFFFFFFE000001FF80FFFFFFFFFFFFFC0
310
7FFFFFF0001FFFFFF8000FFFFFFFF8000FF8000FFFFFFFF8000FFF0003FFFFFF
310
FFFFFFFFFF800000F000FFFFFFC0000001FFFC001C001FE001C000FFFF80007F
310
FFFFFF80000003FFFFFFF80000001FF80FFFFFFFFFFFFFC07FFFFFF0001FFFFF
310
F8001FFFFFFFFC000FF8001FFFFFFFFC000FFF0003FFFFFFFFFFFFFFF0000001
310
F000FFFFF800000001FFF8001C001FE001C000FFFF80007FFFFFF800000003FF
310
FFFF800000003FF80FFFFFFFFFFFFFC07FFFFFF0001FFFFFF8001FFFFFFFFC00
310
0FF8001FFFFFFFFC000FFF0003FFFFFFFFFFFFFE00000001F000FFFFC0000000
310
03FFF8001E001FC001E000FFFF80007FFFFF8000000007FFFFFC000000003FF8
310
0FFFFFFFFFFFFFC07FFFFFF0001FFFFFF8001FFFFFFFFC000FF8001FFFFFFFFC
310
000FFF0003FFFFFFFFFFFFE000000003F000FFFE0000000007FFF8001E000FC0
310
01E0007FFF80007FFFFE0000000007FFFFE0000000007FF80FFFFFFFFFFFFFC0
310
7FFFFFF0001FFFFFF0001FFFFFFFFC0007F0001FFFFFFFFC0007FF0003FFFFFF
310
FFFFFF0000000003F000FFF80000000007FFF8001E000FC003E0007FFF80007F
310
FFF0000000000FFFFF8000000000FFF80FFFFFFFFFFFFFC07FFFFFF0001FFFFF
310
F0001FFFFFFFFC0007F0001FFFFFFFFC0007FF0003FFFFFFFFFFFC0000000007
310
F000FFE0000000000FFFF0003E000FC003E0007FFF80007FFFC0000000001FFF
310
FE0000000001FFF80FFFFFFFFFFFFFC07FFFFFF0001FFFFFF0001FFFFFFFFC00
310
07F0001FFFFFFFFC0007FF0003FFFFFFFFFFF0000000000FF000FFC000000000
310
1FFFF0003F000F8003F0003FFF80007FFF80000000003FFFF80000000003FFF8
310
0FFFFFFFFFFFFFC07FFFFFF0001FFFFFF0001FFFFFFFFC0007F0001FFFFFFFFC
310
0007FF0003FFFFFFFFFFE0000000001FF000FF00000000007FFFF0003F000780
310
03F0003FFF80007FFF00000000007FFFF00000000007FFF80FFFFFFFFFFFFFC0
310
7FFFFFF0001FFFFFF0001FFFFFFFFC0007F0001FFFFFFFFC0007FF0003FFFFFF
310
FFFF80000000007FF000FE0000000000FFFFE0003F00078007F0003FFF80007F
310
FE0000000001FFFFE0000000001FFFF80FFFFFFFFFFFFFC07FFFFFF0001FFFFF
310
F0001FFFFFFFFC0007F0001FFFFFFFFC0007FF0003FFFFFFFFFF0000000000FF
310
F000FC0000000003FFFFE0007F00078007F0003FFF80007FFC0000000007FFFF
310
C0000000007FFFF80FFFFFFFFFFFFFC07FFFFFF0001FFFFFF8001FFFFFFFFC00
310
0FF8001FFFFFFFFC000FFF0003FFFFFFFFFE0000000003FFF000FC000000000F
310
FFFFE0007F80070007F8001FFF80007FF8000000001FFFFF8000000001FFFFF8
310
0FFFFFFFFFFFFFC07FFFFFF0001FFFFFF8001FFFFFFFFC000FF8001FFFFFFFFC
310
000FFF0003FFFFFFFFFC000000000FFFF000F8000000007FFFFFE0007F800700
310
07F8001FFF80007FF000000000FFFFFF800000000FFFFFF80FFFFFFFFFFFFFC0
310
7FFFFFF0001FFFFFF8000FFFFFFFF8000FF8000FFFFFFFF8000FFF0003FFFFFF
310
FFFC000000007FFFF000F800000007FFFFFFC0007F8003000FF8001FFF80007F
310
F000000007FFFFFF000000007FFFFFF80FFFFFFFFFFFFFC07FFFFFF0001FFFFF
310
F8000FFFFFFFF8000FF8000FFFFFFFF8000FFF0003FFFFFFFFF80000000FFFFF
310
F000F0000000FFFFFFFFC000FF8003000FF8001FFF80007FE0000000FFFFFFFF
310
0000000FFFFFFFF8000001FFFE0000007FFFFFF0001FFFFFF8000FFFFFFFF800
310
0FF8000FFFFFFFF8000FFF0003FFFFFFFFF8000000FFFFFFF000F000000FFFFF
310
FFFFC000FFC002000FF8000FFF80007FE000001FFFFFFFFE000001FFFFFFFFF8
310
000001FFFE0000007FFFFFF0001FFFFFF8000FFFFFFFF8000FF8000FFFFFFFF8
310
000FFF0003FFFFFFFFF000001FFFFFFFF000E00000FFFFFFFFFFC000FFC00200
310
0FFC000FFF80007FE00001FFFFFFFFFE00001FFFFFFFFFF8000001FFFE000000
310
7FFFFFF0001FFFFFFC000FFFFFFFF8001FFC000FFFFFFFF8001FFF0003FFFFFF
310
FFF00001FFFFFFFFF000E00007FFFFFFFFFF8000FFC000001FFC000FFF80007F
310
C0000FFFFFFFFFFE0000FFFFFFFFFFF8000001FFFE0000007FFFFFF0001FFFFF
310
FC0007FFFFFFF0001FFC0007FFFFFFF0001FFF0003FFFFFFFFF00007FFFFFFFF
310
F000E0001FFFFFFFFFFF8000FFC000001FFC000FFF80007FC0003FFFFFFFFFFE
310
0001FFFFFFFFFFF8000001FFFE0000007FFFFFF0001FFFFFFC0007FFFFFFF000
310
1FFC0007FFFFFFF0001FFF0003FFFFFFFFF0001FFFFFFFFFF000E0003FFFFF00
310
03FF8001FFE000001FFC0007FF80007FC0007FFFFF0007FC0003FFFFF0003FF8
310
000001FFFE0000007FFFFFF0001FFFFFFC0003FFFFFFE0001FFC0003FFFFFFE0
310
001FFF0003FFFFFFFFF0003FFFFFFFFFF000E0003FFFFF0001FF8001FFE00000
310
1FFE0007FF80007FC0007FFFFE0003FC0007FFFFE0003FF8000001FFFE000000
310
7FFFFFF0001FFFFFFE0003FFFFFFE0003FFE0003FFFFFFE0003FFF0003FFFFFF
310
FFF0003FFFFF8001F000E0003FFFFF0001FF0001FFE000001FFE0007FF80007F
310
C0007FFFFE0003FC0007FFFFE0003FF8000001FFFE0000007FFFFFF0001FFFFF
310
FE0001FFFFFFC0003FFE0001FFFFFFC0003FFF0003FFFFFFFFF0003FFFFF0001
310
F000E0003FFFFF0003FF0001FFE000003FFE0007FF80007FC0007FFFFE0003FC
310
0007FFFFE0003FF8000001FFFE0000007FFFFFF0001FFFFFFF0001FFFFFFC000
310
7FFF0001FFFFFFC0007FFF0003FFFFFFFFF0003FFFFF0001F000E0003FFFFE00
310
03FF0003FFF000003FFE0003FF80007FC0007FFFFC0003FE0007FFFFE0003FF8
310
000001FFFE0000007FFFFFF0001FFFFFFF0000FFFFFF80007FFF0000FFFFFF80
310
007FFF0003FFFFFFFFF0003FFFFF0001F000E0003FFFFE0003FF0003FFF00000
310
3FFF0003FF80007FC0007FFFFC0007FE0007FFFFC0003FF8000001FFFE000000
310
7FFFFFF0001FFFFFFF80007FFFFF0000FFFF80007FFFFF0000FFFF0003FFFFFF
310
FFF0003FFFFF0003F000E0003FFFFC0003FE0003FFF000003FFF0003FF80007F
310
E0003FFFF80007FE0003FFFFC0007FF8000001FFFE0000007FFFFFF0001FFFFF
310
FF80003FFFFE0000FFFF80003FFFFE0000FFFF0003FFFFFFFFF0001FFFFE0003
310
F000F0001FFFF80003FE0003FFF000007FFF0001FF80007FE0003FFFF00007FE
310
0001FFFF80007FF8000001FFFE0000007FFFFFF0001FFFFFFFC0000FFFF80001
310
FFFFC0000FFFF80001FFFF0003FFFFFFFFF0001FFFFC0003F000F0000FFFF000
310
07FE0007FFF800007FFF0001FF80007FE0001FFFE00007FF0000FFFE00007FF8
310
000001FFFE0000007FFFFFF0001FFFFFFFC00003FFE00001FFFFC00003FFE000
310
01FFFF0003FFFFFFFFF8000FFFF80003F000F00003FFC00007FC0007FFF80000
310
7FFF8001FF80007FF00007FF80000FFF00007FF80000FFF8000001FFFE000000
310
7F80000000000001FFE000003E000003FFFFE000003E000003FFFF0003FFFFFF
310
FFF80003FFE00007F000F800000000000FFC0007FFF800007FFF8001FF80007F
310
F000000000000FFF000000000000FFF8000001FFFE0000007F80000000000001
310
FFF0000000000007FFFFF0000000000007FFFF0003FFFFFFFFFC00007E000007
310
F000F800000000000FFC0007FFF80000FFFF8000FF80007FF800000000001FFF
310
800000000001FFF8000001FFFE0000007F80000000000001FFF800000000000F
310
FFFFF800000000000FFFFF0003FFFFFFFFFC00000000000FF000FC0000000000
310
1FFC0007FFFC0000FFFF8000FF80007FF800000000003FFFC00000000001FFF8
310
000001FFFE0000007F80000000000001FFF800000000000FFFFFF80000000000
310
0FFFFF0003FFFFFFFFFE00000000001FF000FE00000000003FF8000FFFFC0000
310
FFFF8000FF80007FFC00000000003FFFC00000000003FFF8000001FFFE000000
310
7F80000000000001FFFC00000000001FFFFFFC00000000001FFFFF0003FFFFFF
310
FFFF00000000001FF000FF00000000003FF8000FFFFC0000FFFFC000FF80007F
310
FE00000000007FFFE00000000007FFF8000001FFFE0000007F80000000000001
310
FFFE00000000003FFFFFFE00000000003FFFFF0003FFFFFFFFFF80000000003F
310
F000FF80000000007FF8000FFFFC0001FFFFC0007F80007FFF0000000000FFFF
310
F0000000000FFFF800000000000000007F80000000000001FFFF8000000000FF
310
FFFFFF8000000000FFFFFF0003FFFFFFFFFFC0000000007FF000FFC000000000
310
FFF8000FFFFE0001FFFFC0007F80007FFF8000000001FFFFF8000000001FFFF8
310
00000000000000007F80000000000001FFFFC000000001FFFFFFFFC000000001
310
FFFFFF0003FFFFFFFFFFE000000000FFF000FFE000000003FFF0001FFFFE0001
310
FFFFC0007F80007FFFC000000007FFFFFE000000003FFFF80000000000000000
310
7F80000000000001FFFFE000000003FFFFFFFFE000000003FFFFFF0003FFFFFF
310
FFFFF000000003FFF000FFF80000000FFFF0001FFFFE0001FFFFE0007F80007F
310
FFF00000000FFFFFFF00000000FFFFF800000000000000007F80000000000001
310
FFFFF80000000FFFFFFFFFF80000000FFFFFFF0003FFFFFFFFFFFC0000000FFF
310
F000FFFE0000003FFFF0001FFFFE0003FFFFE0003F80007FFFFC0000003FFFFF
310
FFC0000003FFFFF800000000000000007F80000000000001FFFFFE0000003FFF
310
FFFFFFFE0000003FFFFFFF0003FFFFFFFFFFFF0000003FFFF000FFFF800000FF
310
FFF0001FFFFF0003FFFFE0003F80007FFFFF000001FFFFFFFFF800001FFFFFF8
310
00000000000000007F80000000000001FFFFFFC00001FFFFFFFFFFFFC00001FF
310
FFFFFF0003FFFFFFFFFFFFC00000FFFFF000FFFFF8000FFFFFFFFFFFFFFFFFFF
310
FFFFFFFFFFFFFFFFFFFFF0001FFFFFFFFFFF0000FFFFFFF80000000000000000
310
7FFFFFFFFFFFFFFFFFFFFFFC001FFFFFFFFFFFFFFC001FFFFFFFFFFFFFFFFFFF
310
FFFFFFFC001FFFFFF000FFFFFFFFFFFFFFFFFFFFFFFFFFFFFFFFFFFFFFFFFFFF
310
FFFFFFFFFFFFFFFFFFFFFFFFFFFFFFFFFFFFFFFFFFFFFFFFFFFFFFFFFFFFFFFF
310
FFFFFFFFFFFFFFFFFFFFFFFFFFFFFFFFFFFFFFFFFFFFFFFFFFFFFFFFFFFFFFFF
310
F000FFFFFFFFFFFFFFFFFFFFFFFFFFFFFFFFFFFFFFFFFFFFFFFFFFFFFFFFFFFF
310
FFFFFFFFFFFFFFFFFFFFFFFFFFFFFFFFFFFFFFFFFFFFFFFFFFFFFFFFFFFFFFFF
310
FFFFFFFFFFFFFFFFFFFFFFFFFFFFFFFFFFFFFFFFFFFFFFFFF000FFFFFFFFFFFF
310
FFFFFFFFFFFFFFFFFFFFFFFFFFFFFFFFFFFFFFFFFFFFFFFFFFFFFFFFFFFFFFFF
310
FFFFFFFFFFFFFFFFFFFFFFFFFFFFFFFFFFFFFFFFFFFFFFFFFFFFFFFFFFFFFFFF
310
FFFFFFFFFFFFFFFFFFFFFFFFFFFFFFFFF000FFFFFFFFFFFFFFFFFFFFFFFFFFFF
310
FFFFFFFFFFFFFFFFFFFFFFFFFFFFFFFFFFFFFFFFFFFFFFFFFFFFFFFFFFFFFFFF
310
FFFFFFFFFFFFFFFFFFFFFFFFFFFFFFFFFFFFFFFFFFFFFFFFFFFFFFFFFFFFFFFF
310
FFFFFFFFFFFFFFFFF000FFFFFFFFFFFFFFFFFFFFFFFFFFFFFFFFFFFFFFFFFFFF
310
FFFFFFFFFFFFFFFFFFFFFFFFFFFFFFFFFFFFFFFFFFFFFFFFFFFFFFFFFFFFFFFF
310
FFFFFFFFFFFFFFFFFFFFFFFFFFFFFFFFFFFFFFFFFFFFFFFFFFFFFFFFFFFFFFFF
310
F000FFFFFFFFFFFFFFFFFFFFFFFFFFFFFFFFFFFFFFFFFFFFFFFFFFFFFFFFFFFF
310
FFFFFFFFFFFFFFFFFFFFFFFFFFFFFFFFFFFFFFFFFFFFFFFFFFFFFFFFFFFFFFFF
310
FFFFFFFFFFFFFFFFFFFFFFFFFFFFFFFFFFFFFFFFFFFFFFFFF000FFFFFFFFFFFF
310
FFFFFFFFFFFFFFFFFFFFFFFFFFFFFFFFFFFFFFFFFFFFFFFFFFFFFFFFFFFFFFFF
310
FFFFFFFFFFFFFFFFFFFFFFFFFFFFFFFFFFFFFFFFFFFFFFFFFFFFFFFFFFFFFFFF
310
FFFFFFFFFFFFFFFFFFFFFFFFFFFFFFFFF000FFFFFFFFFFFFFFFFFFFFFFFFFFFF
310
FFFFFFFFFFFFFFFFFFFFFFFFFFFFFFFFFFFFFFFFFFFFFFFFFFFFFFFFFFFFFFFF
310
FFFFFFFFFFFFFFFFFFFFFFFFFFFFFFFFFFFFFFFFFFFFFFFFFFFFFFFFFFFFFFFF
310
FFFFFFFFFFFFFFFFF000FFFFFFFFFFFFFFFFFFFFFFFFFFFFFFFFFFFFFFFFFFFF
310
FFFFFFFFFFFFFFFFFFFFFFFFFFFFFFFFFFFFFFFFFFFFFFFFFFFFFFFFFFFFFFFF
310
FFFFFFFFFFFFFFFFFFFFFFFFFFFFFFFFFFFFFFFFFFFFFFFFFFFFFFFFFFFFFFFF
310
F000FFFFFFFFFFFFFFFFFFFFFFFFFFFFFFFFFFFFFFFFFFFFFFFFFFFFFFFFFFFF
310
FFFFFFFFFFFFFFFFFFFFFFFFFFFFFFFFFFFFFFFFFFFFFFFFFFFFFFFFFFFFFFFF
310
FFFFFFFFFFFFFFFFFFFFFFFFFFFFFFFFFFFFFFFFFFFFFFFFF000FFFFFFFFFFFF
310
FFFFFFFFFFFFFFFFFFFFFFFFFFFFFFFFFFFFFFFFFFFFFFFFFFFFFFFFFFFFFFFF
310
FFFFFFFFFFFFFFFFFFFFFFFFFFFFFFFFFFFFFFFFFFFFFFFFFFFFFFFFFFFFFFFF
310
FFFFFFFFFFFFFFFFFFFFFFFFFFFFFFFFF000FFFFFFFFFFFFFFFFFFFFFFFFFFFF
310
FFFFFFFFFFFFFFFFFFFFFFFFFFFFFFFFFFFFFFFFFFFFFFFFFFFFFFFFFFFFFFFF
310
FFFFFFFFFFFFFFFFFFFFFFFFFFFFFFFFFFFFFFFFFFFFFFFFFFFFFFFFFFFFFFFF
310
FFFFFFFFFFFFFFFFF000FFFFFFFFFFFFFFFFFFFFFFFFFFFFFFFFFFFFFFFFFFFF
310
FFFFFFFFFFFFFFFFFFFFFFFFFFFFFFFFFFFFFFFFFFFFFFFFFFFFFFFFFFFFFFFF
310
FFFFFFFFFFFFFFFFFFFFFFFFFFFFFFFFFFFFFFFFFFFFFFFFFFFFFFFFFFFFFFFF
310
F000FFFFFFFFFFFFFFFFFFFFFFFFFFFFFFFFFFFFFFFFFFFFFFFFFFFFFFFFFFFF
310
FFFFFFFFFFFFFFFFFFFFFFFFFFFFFFFFFFFFFFFFFFFFFFFFFFFFFFFFFFFFFFFF
310
FFFFFFFFFFFFFFFFFFFFFFFFFFFFFFFFFFFFFFFFFFFFFFFFF000FFFFFFFFFFFF
310
FFFFFFFFFFFFFFFFFFFFFFFFFFFFFFFFFFFFFFFFFFFFFFFFFFFFFFFFFFFFFFFF
310
FFFFFFFFFFFFFFFFFFFFFFFFFFFFFFFFFFFFFFFFFFFFFFFFFFFFFFFFFFFFFFFF
310
FFFFFFFFFFFFFFFFFFFFFFFFFFFFFFFFF000FFFFFFFFFFFFFFFFFFFFFFFFFFFF
310
FFFFFFFFFFFFFFFFFFFFFFFFFFFFFFFFFFFFFFFFFFFFFFFFFFFFFFFFFFFFFFFF
310
FFFFFFFFFFFFFFFFFFFFFFFFFFFFFFFFFFFFFFFFFFFFFFFFFFFFFFFFFFFFFFFF
310
FFFFFFFFFFFFFFFFF000FFFFFFFFFFFFFFFFFFFFFFFFFFFFFFFFFFFFFFFFFFFF
310
FFFFFFFFFFFFFFFFFFFFFFFFFFFFFFFFFFFFFFFFFFFFFFFFFFFFFFFFFFFFFFFF
310
FFFFFFFFFFFFFFFFFFFFFFFFFFFFFFFFFFFFFFFFFFFFFFFFFFFFFFFFFFFFFFFF
310
F000FFFFFFFFFFFFFFFFFFFFFFFFFFFFFFFFFFFFFFFFFFFFFFFFFFFFFFFFFFFF
310
FFFFFFFFFFFFFFFFFFFFFFFFFFFFFFFFFFFFFFFFFFFFFFFFFFFFFFFFFFFFFFFF
310
FFFFFFFFFFFFFFFFFFFFFFFFFFFFFFFFFFFFFFFFFFFFFFFFF000FFFFFFFFFFFF
310
FFFFFFFFFFFFFFFFFFFFFFFFFFFFFFFFFFFFFFFFFFFFFFFFFFFFFFFFFFFFFFFF
310
FFFFFFFFFFFFFFFFFFFFFFFFFFFFFFFFFFFFFFFFFFFFFFFFFFFFFFFFFFFFFFFF
310
FFFFFFFFFFFFFFFFFFFFFFFFFFFFFFFFF000FFFFFFFFFFFFFFFFFFFFFFFFFFFF
310
FFFFFFFFFFFFFFFFFFFFFFFFFFFFFFFFFFFFFFFFFFFFFFFFFFFFFFFFFFFFFFFF
310
FFFFFFFFFFFFFFFFFFFFFFFFFFFFFFFFFFFFFFFFFFFFFFFFFFFFFFFFFFFFFFFF
310
FFFFFFFFFFFFFFFFF000FFFFFFFFFFFFFFFFFFFFFFFFFFFFFFFFFFFFFFFFFFFF
310
FFFFFFFFFFFFFFFFFFFFFFFFFFFFFFFFFFFFFFFFFFFFFFFFFFFFFFFFFFFFFFFF
310
FFFFFFFFFFFFFFFFFFFFFFFFFFFFFFFFFFFFFFFFFFFFFFFFFFFFFFFFFFFFFFFF
310
F000FFFFFFFFFFFFFFFFFFFFFFFFFFFFFFFFFFFFFFFFFFFFFFFFFFFFFFFFFFFF
310
FFFFFFFFFFFFFFFFFFFFFFFFFFFFFFFFFFFFFFFFFFFFFFFFFFFFFFFFFFFFFFFF
310
FFFFFFFFFFFFFFFFFFFFFFFFFFFFFFFFFFFFFFFFFFFFFFFFF000FFFFFFFFFFFF
310
FFFFFFFFFFFFFFFFFFFFFFFFFFFFFFFFFFFFFFFFFFFFFFFFFFFFFFFFFFFFFFFF
310
FFFFFFFFFFFFFFFFFFFFFFFFFFFFFFFFFFFFFFFFFFFFFFFFFFFFFFFFFFFFFFFF
310
FFFFFFFFFFFFFFFFFFFFFFFFFFFFFFFFF0000000000000000000000000000000
310
0000000000000000000000000000000000000000000000000000000000000000
310
0000000000000000000000000000000000000000000000000000000000000000
310
0000000000000000000000000000000000000000000000000000000000000000
310
0000000000000000000000000000000000000000000000000000000000000000
310
0000000000000000000000000000000000000000000000000000000000000000
310
0000000000000000000000000000000000000000000000000000000000000000
310
0000000000000000000000000000000000000000000000000000000000000000
310
0000000000000000000000000000000000000000000000000000000000000000
310
0000000000000000000000000000000000000000000000000000000000000000
310
0000000000000000000000000000000000000000000000000000000000000000
310
0000000000000000000000000000000000000000000000000000000000000000
310
0000000000000000000000000000000000000000000000000000000000000000
310
0000000000000000000000000000000000000000000000000000000000000000
310
0000000000000000000000000000000000000000000000000000000000000000
310
0000000000000000000000000000000000000000000000000000000000000000
  1
OLE
  0
ENDSEC
  0
SECTION
  2
OBJECTS
  0
DICTIONARY
  5
C
330
0
100
AcDbDictionary
281
     1
  3
ACAD_GROUP
350
D
  3
ACAD_LAYOUT
350
1A
  3
ACAD_MLINESTYLE
350
17
  3
ACAD_PLOTSETTINGS
350
19
  3
ACAD_PLOTSTYLENAME
350
E
  0
DICTIONARY
  5
D
102
{ACAD_REACTORS
330
C
102
}
330
C
100
AcDbDictionary
281
     1
  0
DICTIONARY
  5
1A
102
{ACAD_REACTORS
330
C
102
}
330
C
100
AcDbDictionary
281
     1
  3
Layout1
350
1E
  3
Layout2
350
26
  3
Model
350
22
  0
DICTIONARY
  5
17
102
{ACAD_REACTORS
330
C
102
}
330
C
100
AcDbDictionary
281
     1
  3
Standard
350
18
  0
DICTIONARY
  5
19
102
{ACAD_REACTORS
330
C
102
}
330
C
100
AcDbDictionary
281
     1
  0
ACDBDICTIONARYWDFLT
  5
E
102
{ACAD_REACTORS
330
C
102
}
330
C
100
AcDbDictionary
281
     1
  3
Normal
350
F
100
AcDbDictionaryWithDefault
340
F
  0
LAYOUT
  5
1E
102
{ACAD_REACTORS
330
1A
102
}
330
1A
100
AcDbPlotSettings
  1

  2
none_device
  4

  6

 40
0.0
 41
0.0
 42
0.0
 43
0.0
 44
0.0
 45
0.0
 46
0.0
 47
0.0
 48
0.0
 49
0.0
140
0.0
141
0.0
142
1.0
143
1.0
 70
   688
 72
     0
 73
     0
 74
     5
  7

 75
    16
147
1.0
148
0.0
149
0.0
100
AcDbLayout
  1
Layout1
 70
     1
 71
     1
 10
0.0
 20
0.0
 11
420.0
 21
297.0
 12
0.0
 22
0.0
 32
0.0
 14
1.0000000000E+20
 24
1.0000000000E+20
 34
1.0000000000E+20
 15
-1.0000000000E+20
 25
-1.0000000000E+20
 35
-1.0000000000E+20
146
0.0
 13
0.0
 23
0.0
 33
0.0
 16
1.0
 26
0.0
 36
0.0
 17
0.0
 27
1.0
 37
0.0
 76
     0
330
1B
  0
LAYOUT
  5
26
102
{ACAD_REACTORS
330
1A
102
}
330
1A
100
AcDbPlotSettings
  1

  2
none_device
  4

  6

 40
0.0
 41
0.0
 42
0.0
 43
0.0
 44
0.0
 45
0.0
 46
0.0
 47
0.0
 48
0.0
 49
0.0
140
0.0
141
0.0
142
1.0
143
1.0
 70
   688
 72
     0
 73
     0
 74
     5
  7

 75
    16
147
1.0
148
0.0
149
0.0
100
AcDbLayout
  1
Layout2
 70
     1
 71
     2
 10
0.0
 20
0.0
 11
0.0
 21
0.0
 12
0.0
 22
0.0
 32
0.0
 14
0.0
 24
0.0
 34
0.0
 15
0.0
 25
0.0
 35
0.0
146
0.0
 13
0.0
 23
0.0
 33
0.0
 16
1.0
 26
0.0
 36
0.0
 17
0.0
 27
1.0
 37
0.0
 76
     0
330
23
  0
LAYOUT
  5
22
102
{ACAD_REACTORS
330
1A
102
}
330
1A
100
AcDbPlotSettings
  1

  2
none_device
  4

  6

 40
0.0
 41
0.0
 42
0.0
 43
0.0
 44
0.0
 45
0.0
 46
0.0
 47
0.0
 48
0.0
 49
0.0
140
0.0
141
0.0
142
1.0
143
1.0
 70
  1712
 72
     0
 73
     0
 74
     0
  7

 75
     0
147
1.0
148
0.0
149
0.0
100
AcDbLayout
  1
Model
 70
     1
 71
     0
 10
0.0
 20
0.0
 11
297.0
 21
210.0
 12
0.0
 22
0.0
 32
0.0
 14
0.0
 24
0.0
 34
0.0
 15
297.0
 25
210.0
 35
0.0
146
0.0
 13
0.0
 23
0.0
 33
0.0
 16
1.0
 26
0.0
 36
0.0
 17
0.0
 27
1.0
 37
0.0
 76
     0
330
1F
331
29
  0
MLINESTYLE
  5
18
102
{ACAD_REACTORS
330
17
102
}
330
17
100
AcDbMlineStyle
  2
Standard
 70
     0
  3

 62
   256
 51
90.0
 52
90.0
 71
     2
 49
0.5
 62
   256
  6
BYLAYER
 49
-0.5
 62
   256
  6
BYLAYER
  0
ACDBPLACEHOLDER
  5
F
102
{ACAD_REACTORS
330
E
102
}
330
E
  0
ENDSEC
  0
EOF
