  0
SECTION
  2
HEADER
  9
$ACADVER
  1
AC1015
  9
$ACADMAINTVER
 70
     6
  9
$DWGCODEPAGE
  3
ANSI_1252
  9
$INSBASE
 10
0.0
 20
0.0
 30
0.0
  9
$EXTMIN
 10
0.0
 20
0.0
 30
0.0
  9
$EXTMAX
 10
297.0
 20
210.0
 30
0.0
  9
$LIMMIN
 10
0.0
 20
0.0
  9
$LIMMAX
 10
297.0
 20
210.0
  9
$ORTHOMODE
 70
     0
  9
$REGENMODE
 70
     1
  9
$FILLMODE
 70
     1
  9
$QTEXTMODE
 70
     0
  9
$MIRRTEXT
 70
     1
  9
$LTSCALE
 40
1.0
  9
$ATTMODE
 70
     1
  9
$TEXTSIZE
 40
2.0
  9
$TRACEWID
 40
1.0
  9
$TEXTSTYLE
  7
Standard
  9
$CLAYER
  8
0
  9
$CELTYPE
  6
ByLayer
  9
$CECOLOR
 62
   256
  9
$CELTSCALE
 40
1.0
  9
$DISPSILH
 70
     0
  9
$DIMSCALE
 40
1.0
  9
$DIMASZ
 40
3.0
  9
$DIMEXO
 40
0.0
  9
$DIMDLI
 40
3.75
  9
$DIMRND
 40
0.0
  9
$DIMDLE
 40
0.0
  9
$DIMEXE
 40
1.0
  9
$DIMTP
 40
0.0
  9
$DIMTM
 40
0.0
  9
$DIMTXT
 40
2.0
  9
$DIMCEN
 40
2.5
  9
$DIMTSZ
 40
0.0
  9
$DIMTOL
 70
     0
  9
$DIMLIM
 70
     0
  9
$DIMTIH
 70
     1
  9
$DIMTOH
 70
     1
  9
$DIMSE1
 70
     0
  9
$DIMSE2
 70
     0
  9
$DIMTAD
 70
     1
  9
$DIMZIN
 70
     0
  9
$DIMBLK
  1

  9
$DIMASO
 70
     1
  9
$DIMSHO
 70
     1
  9
$DIMPOST
  1

  9
$DIMAPOST
  1

  9
$DIMALT
 70
     0
  9
$DIMALTD
 70
     3
  9
$DIMALTF
 40
0.0393700787
  9
$DIMLFAC
 40
1.0
  9
$DIMTOFL
 70
     1
  9
$DIMTVP
 40
0.0
  9
$DIMTIX
 70
     0
  9
$DIMSOXD
 70
     0
  9
$DIMSAH
 70
     0
  9
$DIMBLK1
  1

  9
$DIMBLK2
  1

  9
$DIMSTYLE
  2
ISO-25
  9
$DIMCLRD
 70
     0
  9
$DIMCLRE
 70
     0
  9
$DIMCLRT
 70
     0
  9
$DIMTFAC
 40
1.0
  9
$DIMGAP
 40
1.524
  9
$DIMJUST
 70
     0
  9
$DIMSD1
 70
     0
  9
$DIMSD2
 70
     0
  9
$DIMTOLJ
 70
     0
  9
$DIMTZIN
 70
     0
  9
$DIMALTZ
 70
     0
  9
$DIMALTTZ
 70
     0
  9
$DIMUPT
 70
     0
  9
$DIMDEC
 70
     2
  9
$DIMTDEC
 70
     3
  9
$DIMALTU
 70
     2
  9
$DIMALTTD
 70
     3
  9
$DIMTXSTY
  7
Standard
  9
$DIMAUNIT
 70
     0
  9
$DIMADEC
 70
     2
  9
$DIMALTRND
 40
0.0
  9
$DIMAZIN
 70
     0
  9
$DIMDSEP
 70
    44
  9
$DIMATFIT
 70
     3
  9
$DIMFRAC
 70
     0
  9
$DIMLDRBLK
  1

  9
$DIMLUNIT
 70
     2
  9
$DIMLWD
 70
    -2
  9
$DIMLWE
 70
    -2
  9
$DIMTMOVE
 70
     0
  9
$LUNITS
 70
     2
  9
$LUPREC
 70
     2
  9
$SKETCHINC
 40
1.0
  9
$FILLETRAD
 40
10.0
  9
$AUNITS
 70
     0
  9
$AUPREC
 70
     2
  9
$MENU
  1
.
  9
$ELEVATION
 40
0.0
  9
$PELEVATION
 40
0.0
  9
$THICKNESS
 40
0.0
  9
$LIMCHECK
 70
     0
  9
$CHAMFERA
 40
10.0
  9
$CHAMFERB
 40
10.0
  9
$CHAMFERC
 40
20.0
  9
$CHAMFERD
 40
0.0
  9
$SKPOLY
 70
     0
  9
$TDCREATE
 40
2456071.477590914
  9
$TDUCREATE
 40
2456071.394257581
  9
$TDUPDATE
 40
2456071.477592176
  9
$TDUUPDATE
 40
2456071.394258843
  9
$TDINDWG
 40
0.0000000116
  9
$TDUSRTIMER
 40
0.0000000116
  9
$USRTIMER
 70
     1
  9
$ANGBASE
 50
0.0
  9
$ANGDIR
 70
     0
  9
$PDMODE
 70
     0
  9
$PDSIZE
 40
-1.0
  9
$PLINEWID
 40
0.0
  9
$SPLFRAME
 70
     0
  9
$SPLINETYPE
 70
     6
  9
$SPLINESEGS
 70
     8
  9
$HANDSEED
  5
207
  9
$SURFTAB1
 70
     6
  9
$SURFTAB2
 70
     6
  9
$SURFTYPE
 70
     6
  9
$SURFU
 70
     6
  9
$SURFV
 70
     6
  9
$UCSBASE
  2

  9
$UCSNAME
  2

  9
$UCSORG
 10
0.0
 20
0.0
 30
0.0
  9
$UCSXDIR
 10
1.0
 20
0.0
 30
0.0
  9
$UCSYDIR
 10
0.0
 20
1.0
 30
0.0
  9
$UCSORTHOREF
  2

  9
$UCSORTHOVIEW
 70
     0
  9
$UCSORGTOP
 10
0.0
 20
0.0
 30
0.0
  9
$UCSORGBOTTOM
 10
0.0
 20
0.0
 30
0.0
  9
$UCSORGLEFT
 10
0.0
 20
0.0
 30
0.0
  9
$UCSORGRIGHT
 10
0.0
 20
0.0
 30
0.0
  9
$UCSORGFRONT
 10
0.0
 20
0.0
 30
0.0
  9
$UCSORGBACK
 10
0.0
 20
0.0
 30
0.0
  9
$PUCSBASE
  2

  9
$PUCSNAME
  2

  9
$PUCSORG
 10
0.0
 20
0.0
 30
0.0
  9
$PUCSXDIR
 10
1.0
 20
0.0
 30
0.0
  9
$PUCSYDIR
 10
0.0
 20
1.0
 30
0.0
  9
$PUCSORTHOREF
  2

  9
$PUCSORTHOVIEW
 70
     0
  9
$PUCSORGTOP
 10
0.0
 20
0.0
 30
0.0
  9
$PUCSORGBOTTOM
 10
0.0
 20
0.0
 30
0.0
  9
$PUCSORGLEFT
 10
0.0
 20
0.0
 30
0.0
  9
$PUCSORGRIGHT
 10
0.0
 20
0.0
 30
0.0
  9
$PUCSORGFRONT
 10
0.0
 20
0.0
 30
0.0
  9
$PUCSORGBACK
 10
0.0
 20
0.0
 30
0.0
  9
$USERI1
 70
     0
  9
$USERI2
 70
     0
  9
$USERI3
 70
     0
  9
$USERI4
 70
     0
  9
$USERI5
 70
     0
  9
$USERR1
 40
0.0
  9
$USERR2
 40
0.0
  9
$USERR3
 40
0.0
  9
$USERR4
 40
0.0
  9
$USERR5
 40
0.0
  9
$WORLDVIEW
 70
     1
  9
$SHADEDGE
 70
     3
  9
$SHADEDIF
 70
    70
  9
$TILEMODE
 70
     1
  9
$MAXACTVP
 70
    64
  9
$PINSBASE
 10
0.0
 20
0.0
 30
0.0
  9
$PLIMCHECK
 70
     0
  9
$PEXTMIN
 10
1.0000000000E+20
 20
1.0000000000E+20
 30
1.0000000000E+20
  9
$PEXTMAX
 10
-1.0000000000E+20
 20
-1.0000000000E+20
 30
-1.0000000000E+20
  9
$PLIMMIN
 10
0.0
 20
0.0
  9
$PLIMMAX
 10
420.0
 20
297.0
  9
$UNITMODE
 70
     0
  9
$VISRETAIN
 70
     1
  9
$PLINEGEN
 70
     0
  9
$PSLTSCALE
 70
     1
  9
$TREEDEPTH
 70
  3020
  9
$CMLSTYLE
  2
Standard
  9
$CMLJUST
 70
     0
  9
$CMLSCALE
 40
20.0
  9
$PROXYGRAPHICS
 70
     1
  9
$MEASUREMENT
 70
     1
  9
$CELWEIGHT
370
    -1
  9
$ENDCAPS
280
     0
  9
$JOINSTYLE
280
     0
  9
$LWDISPLAY
290
     1
  9
$INSUNITS
 70
     4
  9
$HYPERLINKBASE
  1

  9
$STYLESHEET
  1

  9
$XEDIT
290
     1
  9
$CEPSNTYPE
380
     0
  9
$PSTYLEMODE
290
     1
  9
$FINGERPRINTGUID
  2
{F171B7C4-3700-4B32-8042-305906A80B4D}
  9
$VERSIONGUID
  2
{FAEB1C32-E019-11D5-929B-00C0DF256EC4}
  9
$EXTNAMES
290
     1
  9
$PSVPSCALE
 40
0.0
  9
$OLESTARTUP
290
     0
  0
ENDSEC
  0
SECTION
  2
CLASSES
  0
CLASS
  1
ACDBDICTIONARYWDFLT
  2
AcDbDictionaryWithDefault
  3
ObjectDBX Classes
 90
        0
280
     0
281
     0
  0
CLASS
  1
VISUALSTYLE
  2
AcDbVisualStyle
  3
ObjectDBX Classes
 90
     4095
280
     0
281
     0
  0
CLASS
  1
MATERIAL
  2
AcDbMaterial
  3
ObjectDBX Classes
 90
     1153
280
     0
281
     0
  0
CLASS
  1
ACDBPLACEHOLDER
  2
AcDbPlaceHolder
  3
ObjectDBX Classes
 90
        0
280
     0
281
     0
  0
CLASS
  1
LAYOUT
  2
AcDbLayout
  3
ObjectDBX Classes
 90
        0
280
     0
281
     0
  0
ENDSEC
  0
SECTION
  2
TABLES
  0
TABLE
  2
VPORT
  5
8
330
0
100
AcDbSymbolTable
 70
     1
  0
VPORT
  5
29
330
8
100
AcDbSymbolTableRecord
100
AcDbViewportTableRecord
  2
*Active
 70
     0
 10
0.0
 20
0.0
 11
1.0
 21
1.0
 12
148.5
 22
105.0
 13
0.0
 23
0.0
 14
10.0
 24
10.0
 15
10.0
 25
10.0
 16
0.0
 26
0.0
 36
1.0
 17
0.0
 27
0.0
 37
0.0
 40
210.0
 41
1.4142857143
 42
50.0
 43
0.0
 44
0.0
 50
0.0
 51
0.0
 71
     0
 72
  2000
 73
     1
 74
     3
 75
     0
 76
     0
 77
     0
 78
     0
281
     0
 65
     1
110
0.0
120
0.0
130
0.0
111
1.0
121
0.0
131
0.0
112
0.0
122
1.0
132
0.0
 79
     0
146
0.0
  0
ENDTAB
  0
TABLE
  2
LTYPE
  5
5
330
0
100
AcDbSymbolTable
 70
     6
  0
LTYPE
  5
14
330
5
100
AcDbSymbolTableRecord
100
AcDbLinetypeTableRecord
  2
ByBlock
 70
     0
  3

 72
    65
 73
     0
 40
0.0
  0
LTYPE
  5
15
330
5
100
AcDbSymbolTableRecord
100
AcDbLinetypeTableRecord
  2
ByLayer
 70
     0
  3

 72
    65
 73
     0
 40
0.0
  0
LTYPE
  5
16
330
5
100
AcDbSymbolTableRecord
100
AcDbLinetypeTableRecord
  2
Continuous
 70
     0
  3
Solid line
 72
    65
 73
     0
 40
0.0
  0
LTYPE
  5
3F
330
5
100
AcDbSymbolTableRecord
100
AcDbLinetypeTableRecord
  2
HIDDEN
 70
     0
  3
Hidden __ __ __ __ __ __ __ __ __ __ __ __ __ __
 72
    65
 73
     2
 40
1.905
 49
1.27
 74
     0
 49
-0.635
 74
     0
  0
LTYPE
  5
40
330
5
100
AcDbSymbolTableRecord
100
AcDbLinetypeTableRecord
  2
PHANTOM
 70
     0
  3
Phantom ______  __  __  ______  __  __  ______
 72
    65
 73
     6
 40
12.7
 49
6.35
 74
     0
 49
-1.27
 74
     0
 49
1.27
 74
     0
 49
-1.27
 74
     0
 49
1.27
 74
     0
 49
-1.27
 74
     0
  0
LTYPE
  5
41
330
5
100
AcDbSymbolTableRecord
100
AcDbLinetypeTableRecord
  2
CENTER
 70
     0
  3
Center ____ _ ____ _ ____ _ ____ _ ____ _ ____
 72
    65
 73
     4
 40
10.16
 49
6.35
 74
     0
 49
-1.27
 74
     0
 49
1.27
 74
     0
 49
-1.27
 74
     0
  0
LTYPE
  5
42
330
5
100
AcDbSymbolTableRecord
100
AcDbLinetypeTableRecord
  2
CENTERX2
 70
     0
  3
Center (2x) ________  __  ________  __  _____
 72
    65
 73
     4
 40
20.32
 49
12.7
 74
     0
 49
-2.54
 74
     0
 49
2.54
 74
     0
 49
-2.54
 74
     0
  0
LTYPE
  5
43
330
5
100
AcDbSymbolTableRecord
100
AcDbLinetypeTableRecord
  2
DOT2
 70
     0
  3
Dot (.5x) ........................................
 72
    65
 73
     2
 40
0.635
 49
0.0
 74
     0
 49
-0.635
 74
     0
  0
ENDTAB
  0
TABLE
  2
LAYER
  5
2
330
0
100
AcDbSymbolTable
 70
     5
  0
LAYER
  5
10
330
2
100
AcDbSymbolTableRecord
100
AcDbLayerTableRecord
  2
0
 70
     0
 62
     7
  6
Continuous
370
    -3
390
F
  0
LAYER
  5
44
330
2
100
AcDbSymbolTableRecord
100
AcDbLayerTableRecord
  2
FORMAT
 70
     0
 62
     7
  6
Continuous
370
    -3
390
F
  0
LAYER
  5
45
330
2
100
AcDbSymbolTableRecord
100
AcDbLayerTableRecord
  2
VERMASSUNG
 70
     0
 62
     7
  6
Continuous
370
    -3
390
F
  0
LAYER
  5
46
330
2
100
AcDbSymbolTableRecord
100
AcDbLayerTableRecord
  2
KOPF_DÜNN
 70
     0
 62
     7
  6
Continuous
370
    -3
390
F
  0
LAYER
  5
47
330
2
100
AcDbSymbolTableRecord
100
AcDbLayerTableRecord
  2
KOPF_DICK
 70
     0
 62
     7
  6
Continuous
370
    15
390
F
  0
ENDTAB
  0
TABLE
  2
STYLE
  5
3
330
0
100
AcDbSymbolTable
 70
     2
  0
STYLE
  5
11
330
3
100
AcDbSymbolTableRecord
100
AcDbTextStyleTableRecord
  2
Standard
 70
     0
 40
0.0
 41
1.0
 50
0.0
 71
     0
 42
2.0
  3
txt
  4

  0
STYLE
  5
48
330
3
100
AcDbSymbolTableRecord
100
AcDbTextStyleTableRecord
  2
SLDTEXTSTYLE0
 70
     0
 40
0.0
 41
0.7
 50
0.0
 71
     0
 42
0.2
  3
TXT
  4

  0
ENDTAB
  0
TABLE
  2
VIEW
  5
6
330
0
100
AcDbSymbolTable
 70
     0
  0
ENDTAB
  0
TABLE
  2
UCS
  5
7
330
0
100
AcDbSymbolTable
 70
     0
  0
ENDTAB
  0
TABLE
  2
APPID
  5
9
330
0
100
AcDbSymbolTable
 70
     1
  0
APPID
  5
12
330
9
100
AcDbSymbolTableRecord
100
AcDbRegAppTableRecord
  2
ACAD
 70
     0
  0
ENDTAB
  0
TABLE
  2
DIMSTYLE
  5
A
330
0
100
AcDbSymbolTable
 70
     5
100
AcDbDimStyleTable
  0
DIMSTYLE
105
27
330
A
100
AcDbSymbolTableRecord
100
AcDbDimStyleTableRecord
  2
ISO-25
 70
     0
 41
2.5
 42
0.625
 43
3.75
 44
1.25
 73
     0
 74
     0
 77
     1
 78
     8
140
2.5
141
2.5
143
0.0393700787
147
0.625
171
     3
172
     1
178
     0
271
     2
272
     2
274
     3
278
    44
283
     0
284
     8
340
11
  0
DIMSTYLE
105
195
102
{ACAD_REACTORS
330
194
102
}
330
A
100
AcDbSymbolTableRecord
100
AcDbDimStyleTableRecord
  2
SLDDIMSTYLE0
 70
     0
 41
3.0
 44
0.0
 73
     0
 74
     0
 77
     1
 78
    12
 79
     3
140
2.0
147
0.5
173
     1
178
     0
179
     2
272
     3
276
     2
284
    12
340
48
  0
DIMSTYLE
105
19E
102
{ACAD_REACTORS
330
19D
330
1AA
102
}
330
A
100
AcDbSymbolTableRecord
100
AcDbDimStyleTableRecord
  2
SLDDIMSTYLE1
 70
     0
 41
3.0
 44
0.0
 45
0.000000001
 47
0.1
 48
0.1
 71
     1
 73
     0
 74
     0
 77
     1
 78
    12
 79
     3
140
2.0
147
0.5
173
     1
178
     0
271
     2
272
     1
276
     2
284
     8
340
48
  0
DIMSTYLE
105
1B7
102
{ACAD_REACTORS
330
1B6
330
1C1
102
}
330
A
100
AcDbSymbolTableRecord
100
AcDbDimStyleTableRecord
  2
SLDDIMSTYLE2
 70
     0
 41
3.0
 44
0.0
 45
0.000000001
 73
     0
 74
     0
 77
     1
 78
    12
 79
     3
140
2.0
147
0.5
173
     1
178
     0
271
     2
272
     3
276
     2
284
    12
340
48
  0
DIMSTYLE
105
1EC
102
{ACAD_REACTORS
330
1EB
102
}
330
A
100
AcDbSymbolTableRecord
100
AcDbDimStyleTableRecord
  2
SLDDIMSTYLE3
 70
     0
 41
3.0
 44
0.0
 45
0.000000001
 73
     0
 74
     0
 77
     1
 78
    12
 79
     3
140
2.0
147
0.5
172
     1
173
     1
178
     0
271
     2
272
     3
276
     2
284
    12
289
     0
340
48
  0
ENDTAB
  0
TABLE
  2
BLOCK_RECORD
  5
1
330
0
100
AcDbSymbolTable
 70
     8
  0
BLOCK_RECORD
  5
1F
330
1
100
AcDbSymbolTableRecord
100
AcDbBlockTableRecord
  2
*Model_Space
340
22
  0
BLOCK_RECORD
  5
1B
330
1
100
AcDbSymbolTableRecord
100
AcDbBlockTableRecord
  2
*Paper_Space
340
1E
  0
BLOCK_RECORD
  5
23
330
1
100
AcDbSymbolTableRecord
100
AcDbBlockTableRecord
  2
*Paper_Space0
340
26
  0
BLOCK_RECORD
  5
196
330
1
100
AcDbSymbolTableRecord
100
AcDbBlockTableRecord
  2
_D
340
0
  0
BLOCK_RECORD
  5
19F
330
1
100
AcDbSymbolTableRecord
100
AcDbBlockTableRecord
  2
_D_1
340
0
  0
BLOCK_RECORD
  5
1AB
330
1
100
AcDbSymbolTableRecord
100
AcDbBlockTableRecord
  2
_D_2
340
0
  0
BLOCK_RECORD
  5
1B8
330
1
100
AcDbSymbolTableRecord
100
AcDbBlockTableRecord
  2
_D_3
340
0
  0
BLOCK_RECORD
  5
1C2
330
1
100
AcDbSymbolTableRecord
100
AcDbBlockTableRecord
  2
_D_4
340
0
  0
BLOCK_RECORD
  5
1ED
330
1
100
AcDbSymbolTableRecord
100
AcDbBlockTableRecord
  2
_D_5
340
0
  0
BLOCK_RECORD
  5
1FA
330
1
100
AcDbSymbolTableRecord
100
AcDbBlockTableRecord
  2
SW_CENTERMARKSYMBOL_0
340
0
102
{BLKREFS
331
205
102
}
  0
ENDTAB
  0
ENDSEC
  0
SECTION
  2
BLOCKS
  0
BLOCK
  5
20
330
1F
100
AcDbEntity
  8
0
100
AcDbBlockBegin
  2
*Model_Space
 70
     0
 10
0.0
 20
0.0
 30
0.0
  3
*Model_Space
  1

  0
ENDBLK
  5
21
330
1F
100
AcDbEntity
  8
0
100
AcDbBlockEnd
  0
BLOCK
  5
1C
330
1B
100
AcDbEntity
 67
     1
  8
0
100
AcDbBlockBegin
  2
*Paper_Space
 70
     0
 10
0.0
 20
0.0
 30
0.0
  3
*Paper_Space
  1

  0
ENDBLK
  5
1D
330
1B
100
AcDbEntity
 67
     1
  8
0
100
AcDbBlockEnd
  0
BLOCK
  5
24
330
23
100
AcDbEntity
  8
0
100
AcDbBlockBegin
  2
*Paper_Space0
 70
     0
 10
0.0
 20
0.0
 30
0.0
  3
*Paper_Space0
  1

  0
ENDBLK
  5
25
330
23
100
AcDbEntity
  8
0
100
AcDbBlockEnd
  0
BLOCK
  5
197
330
196
100
AcDbEntity
  8
0
100
AcDbBlockBegin
  2
_D
 70
     0
 10
0.0
 20
0.0
 30
0.0
  3
_D
  1

  0
ARC
  5
199
330
196
100
AcDbEntity
  8
VERMASSUNG
100
AcDbCircle
 10
233.7664145914
 20
144.1122411083
 30
0.0
 40
10.1296919013869
100
AcDbArc
 50
252.5
 51
0.0
  0
SOLID
  5
19A
330
196
100
AcDbEntity
  8
VERMASSUNG
100
AcDbTrace
 10
230.7203574895
 20
134.4513822361
 30
0.0
 11
233.6089892523
 21
133.5249338895
 31
0.0
 12
233.7536797898
 22
134.413226999
 32
0.0
 13
233.7536797898
 23
134.413226999
 33
0.0
  0
SOLID
  5
19B
330
196
100
AcDbEntity
  8
VERMASSUNG
100
AcDbTrace
 10
243.8961064928
 20
144.1122411083
 30
0.0
 11
243.0203581817
 21
141.2078367123
 31
0.0
 12
243.9110476612
 22
141.0787156409
 32
0.0
 13
243.9110476612
 23
141.0787156409
 33
0.0
  0
MTEXT
  5
19C
330
196
100
AcDbEntity
  8
VERMASSUNG
100
AcDbMText
 10
234.6833665931
 20
135.4205666455
 30
0.1
 40
2.0
 41
0.0
 71
     1
 72
     1
  1
107.5°
  7
SLDTEXTSTYLE0
 11
0.8064446042674818
 21
0.5913096483635834
 31
0.0
 73
     1
 44
1.0
  0
ENDBLK
  5
198
330
196
100
AcDbEntity
  8
0
100
AcDbBlockEnd
  0
BLOCK
  5
1A0
330
19F
100
AcDbEntity
  8
0
100
AcDbBlockBegin
  2
_D_1
 70
     0
 10
0.0
 20
0.0
 30
0.0
  3
_D_1
  1

  0
SOLID
  5
1A2
330
19F
100
AcDbEntity
  8
VERMASSUNG
100
AcDbTrace
 10
251.5516687524
 20
144.1122411083
 30
0.0
 11
251.1016687524
 21
141.1122411083
 31
0.0
 12
252.0016687524
 22
141.1122411083
 32
0.0
 13
252.0016687524
 23
141.1122411083
 33
0.0
  0
SOLID
  5
1A3
330
19F
100
AcDbEntity
  8
VERMASSUNG
100
AcDbTrace
 10
251.5516687524
 20
117.1122411083
 30
0.0
 11
252.0016687524
 21
120.1122411083
 31
0.0
 12
251.1016687524
 22
120.1122411083
 32
0.0
 13
251.1016687524
 23
120.1122411083
 33
0.0
  0
LINE
  5
1A4
330
19F
100
AcDbEntity
  8
VERMASSUNG
100
AcDbLine
 10
233.6208834258
 20
144.1122411083
 30
0.0
 11
252.5516687524
 21
144.1122411083
 31
0.0
  0
LINE
  5
1A5
330
19F
100
AcDbEntity
  8
VERMASSUNG
100
AcDbLine
 10
233.6208834258
 20
117.1122411083
 30
0.0
 11
252.5516687524
 21
117.1122411083
 31
0.0
  0
LINE
  5
1A6
330
19F
100
AcDbEntity
  8
VERMASSUNG
100
AcDbLine
 10
251.5516687524
 20
144.1122411083
 30
0.0
 11
251.5516687524
 21
117.1122411083
 31
0.0
  0
MTEXT
  5
1A7
330
19F
100
AcDbEntity
  8
VERMASSUNG
100
AcDbMText
 10
248.9735333893
 20
126.0622409213
 30
0.1
 40
2.0
 41
0.0
 71
     1
 72
     1
  1
27
  7
SLDTEXTSTYLE0
 11
-7.044195017643634E-15
 21
1.0
 31
0.0
 73
     1
 44
1.0
  0
MTEXT
  5
1A8
330
19F
100
AcDbEntity
  8
VERMASSUNG
100
AcDbMText
 10
248.9735333893
 20
131.8497410234
 30
0.1
 40
2.0
 41
0.0
 71
     1
 72
     1
  1

  7
SLDTEXTSTYLE0
 11
-7.044195017643634E-15
 21
1.0
 31
0.0
 73
     1
 44
1.0
  0
MTEXT
  5
1A9
330
19F
100
AcDbEntity
  8
VERMASSUNG
100
AcDbMText
 10
249.4680672521
 20
131.8622413132
 30
0.1
 40
1.5
 41
0.0
 71
     1
 72
     1
  1
±0.1
  7
SLDTEXTSTYLE0
 11
-7.044195017643634E-15
 21
1.0
 31
0.0
 73
     1
 44
1.0
  0
ENDBLK
  5
1A1
330
19F
100
AcDbEntity
  8
0
100
AcDbBlockEnd
  0
BLOCK
  5
1AC
330
1AB
100
AcDbEntity
  8
0
100
AcDbBlockBegin
  2
_D_2
 70
     0
 10
0.0
 20
0.0
 30
0.0
  3
_D_2
  1

  0
SOLID
  5
1AE
330
1AB
100
AcDbEntity
  8
VERMASSUNG
100
AcDbTrace
 10
183.6208834258
 20
152.4631852551
 30
0.0
 11
186.6208834258
 21
152.0131852551
 31
0.0
 12
186.6208834258
 22
152.9131852551
 32
0.0
 13
186.6208834258
 23
152.9131852551
 33
0.0
  0
SOLID
  5
1AF
330
1AB
100
AcDbEntity
  8
VERMASSUNG
100
AcDbTrace
 10
233.6208834258
 20
152.4631852551
 30
0.0
 11
230.6208834258
 21
152.9131852551
 31
0.0
 12
230.6208834258
 22
152.0131852551
 32
0.0
 13
230.6208834258
 23
152.0131852551
 33
0.0
  0
LINE
  5
1B0
330
1AB
100
AcDbEntity
  8
VERMASSUNG
100
AcDbLine
 10
183.6208834258
 20
136.8122411083
 30
0.0
 11
183.6208834258
 21
153.4631852551
 31
0.0
  0
LINE
  5
1B1
330
1AB
100
AcDbEntity
  8
VERMASSUNG
100
AcDbLine
 10
233.6208834258
 20
144.1122411083
 30
0.0
 11
233.6208834258
 21
153.4631852551
 31
0.0
  0
LINE
  5
1B2
330
1AB
100
AcDbEntity
  8
VERMASSUNG
100
AcDbLine
 10
183.6208834258
 20
152.4631852551
 30
0.0
 11
233.6208834258
 21
152.4631852551
 31
0.0
  0
MTEXT
  5
1B3
330
1AB
100
AcDbEntity
  8
VERMASSUNG
100
AcDbMText
 10
204.0708832388
 20
155.0413206183
 30
0.1
 40
2.0
 41
0.0
 71
     1
 72
     1
  1
50
  7
SLDTEXTSTYLE0
 73
     1
 44
1.0
  0
MTEXT
  5
1B4
330
1AB
100
AcDbEntity
  8
VERMASSUNG
100
AcDbMText
 10
209.8583833409
 20
155.0413206183
 30
0.1
 40
2.0
 41
0.0
 71
     1
 72
     1
  1

  7
SLDTEXTSTYLE0
 73
     1
 44
1.0
  0
MTEXT
  5
1B5
330
1AB
100
AcDbEntity
  8
VERMASSUNG
100
AcDbMText
 10
209.8708836307
 20
154.5467867555
 30
0.1
 40
1.5
 41
0.0
 71
     1
 72
     1
  1
±0.1
  7
SLDTEXTSTYLE0
 73
     1
 44
1.0
  0
ENDBLK
  5
1AD
330
1AB
100
AcDbEntity
  8
0
100
AcDbBlockEnd
  0
BLOCK
  5
1B9
330
1B8
100
AcDbEntity
  8
0
100
AcDbBlockBegin
  2
_D_3
 70
     0
 10
0.0
 20
0.0
 30
0.0
  3
_D_3
  1

  0
SOLID
  5
1BB
330
1B8
100
AcDbEntity
  8
VERMASSUNG
100
AcDbTrace
 10
233.6208834258
 20
159.6347205082
 30
0.0
 11
230.6208834258
 21
160.0847205082
 31
0.0
 12
230.6208834258
 22
159.1847205082
 32
0.0
 13
230.6208834258
 23
159.1847205082
 33
0.0
  0
SOLID
  5
1BC
330
1B8
100
AcDbEntity
  8
VERMASSUNG
100
AcDbTrace
 10
159.6208834258
 20
159.6347205082
 30
0.0
 11
162.6208834258
 21
159.1847205082
 31
0.0
 12
162.6208834258
 22
160.0847205082
 32
0.0
 13
162.6208834258
 23
160.0847205082
 33
0.0
  0
LINE
  5
1BD
330
1B8
100
AcDbEntity
  8
VERMASSUNG
100
AcDbLine
 10
233.6208834258
 20
144.1122411083
 30
0.0
 11
233.6208834258
 21
160.6347205082
 31
0.0
  0
LINE
  5
1BE
330
1B8
100
AcDbEntity
  8
VERMASSUNG
100
AcDbLine
 10
159.6208834258
 20
129.7437460904
 30
0.0
 11
159.6208834258
 21
160.6347205082
 31
0.0
  0
LINE
  5
1BF
330
1B8
100
AcDbEntity
  8
VERMASSUNG
100
AcDbLine
 10
233.6208834258
 20
159.6347205082
 30
0.0
 11
159.6208834258
 21
159.6347205082
 31
0.0
  0
MTEXT
  5
1C0
330
1B8
100
AcDbEntity
  8
VERMASSUNG
100
AcDbMText
 10
194.2208833118
 20
162.2128558714
 30
0.1
 40
2.0
 41
0.0
 71
     1
 72
     1
  1
74
  7
SLDTEXTSTYLE0
 73
     1
 44
1.0
  0
ENDBLK
  5
1BA
330
1B8
100
AcDbEntity
  8
0
100
AcDbBlockEnd
  0
BLOCK
  5
1C3
330
1C2
100
AcDbEntity
  8
0
100
AcDbBlockBegin
  2
_D_4
 70
     0
 10
0.0
 20
0.0
 30
0.0
  3
_D_4
  1

  0
SOLID
  5
1C5
330
1C2
100
AcDbEntity
  8
VERMASSUNG
100
AcDbTrace
 10
152.6389530972
 20
137.1122411083
 30
0.0
 11
152.1889530972
 21
134.1122411083
 31
0.0
 12
153.0889530972
 22
134.1122411083
 32
0.0
 13
153.0889530972
 23
134.1122411083
 33
0.0
  0
SOLID
  5
1C6
330
1C2
100
AcDbEntity
  8
VERMASSUNG
100
AcDbTrace
 10
152.6389530972
 20
97.1122411083
 30
0.0
 11
153.0889530972
 21
100.1122411083
 31
0.0
 12
152.1889530972
 22
100.1122411083
 32
0.0
 13
152.1889530972
 23
100.1122411083
 33
0.0
  0
LINE
  5
1C7
330
1C2
100
AcDbEntity
  8
VERMASSUNG
100
AcDbLine
 10
183.9208834258
 20
137.1122411083
 30
0.0
 11
151.6389530972
 21
137.1122411083
 31
0.0
  0
LINE
  5
1C8
330
1C2
100
AcDbEntity
  8
VERMASSUNG
100
AcDbLine
 10
183.9208834258
 20
97.1122411083
 30
0.0
 11
151.6389530972
 21
97.1122411083
 31
0.0
  0
LINE
  5
1C9
330
1C2
100
AcDbEntity
  8
VERMASSUNG
100
AcDbLine
 10
152.6389530972
 20
137.1122411083
 30
0.0
 11
152.6389530972
 21
97.1122411083
 31
0.0
  0
MTEXT
  5
1CA
330
1C2
100
AcDbEntity
  8
VERMASSUNG
100
AcDbMText
 10
149.8608176082
 20
110.6072411689
 30
0.35
 40
2.0
 41
0.0
 71
     1
 72
     1
  1
PSC
  7
SLDTEXTSTYLE0
 11
-7.044195017643634E-15
 21
1.0
 31
0.0
 73
     1
 44
1.0
  0
MTEXT
  5
1CB
330
1C2
100
AcDbEntity
  8
VERMASSUNG
100
AcDbMText
 10
150.0608176177
 20
115.207241271
 30
0.35
 40
2.0
 41
0.0
 71
     1
 72
     1
  1
%%c
  7
SLDTEXTSTYLE0
 11
-7.044195017643634E-15
 21
1.0
 31
0.0
 73
     1
 44
1.0
  0
MTEXT
  5
1CC
330
1C2
100
AcDbEntity
  8
VERMASSUNG
100
AcDbMText
 10
149.8608176082
 20
118.817241751
 30
0.35
 40
2.0
 41
0.0
 71
     1
 72
     1
  1
40
  7
SLDTEXTSTYLE0
 11
-7.044195017643634E-15
 21
1.0
 31
0.0
 73
     1
 44
1.0
  0
ENDBLK
  5
1C4
330
1C2
100
AcDbEntity
  8
0
100
AcDbBlockEnd
  0
BLOCK
  5
1EE
330
1ED
100
AcDbEntity
  8
0
100
AcDbBlockBegin
  2
_D_5
 70
     0
 10
0.0
 20
0.0
 30
0.0
  3
_D_5
  1

  0
SOLID
  5
1F0
330
1ED
100
AcDbEntity
  8
VERMASSUNG
100
AcDbTrace
 10
109.2252812822
 20
101.2648039554
 30
0.0
 11
111.0284035742
 21
98.8252855603
 31
0.0
 12
111.6647996773
 22
99.4616816633
 32
0.0
 13
111.6647996773
 23
99.4616816633
 33
0.0
  0
SOLID
  5
1F1
330
1ED
100
AcDbEntity
  8
VERMASSUNG
100
AcDbTrace
 10
73.8699422229
 20
136.6201430147
 30
0.0
 11
72.0668199308
 21
139.0596614098
 31
0.0
 12
71.4304238278
 22
138.4232653067
 32
0.0
 13
71.4304238278
 23
138.4232653067
 33
0.0
  0
LINE
  5
1F2
330
1ED
100
AcDbEntity
  8
VERMASSUNG
100
AcDbLine
 10
109.2252812822
 20
101.2648039554
 30
0.0
 11
108.518174501
 21
100.5576971742
 31
0.0
  0
LINE
  5
1F3
330
1ED
100
AcDbEntity
  8
VERMASSUNG
100
AcDbLine
 10
73.8699422229
 20
136.6201430147
 30
0.0
 11
73.1628354417
 21
135.9130362335
 31
0.0
  0
LINE
  5
1F4
330
1ED
100
AcDbEntity
  8
VERMASSUNG
100
AcDbLine
 10
109.2252812822
 20
101.2648039554
 30
0.0
 11
113.4679219693
 21
97.0221632682
 31
0.0
  0
LINE
  5
1F5
330
1ED
100
AcDbEntity
  8
VERMASSUNG
100
AcDbLine
 10
109.2252812822
 20
101.2648039554
 30
0.0
 11
73.8699422229
 21
136.6201430147
 31
0.0
  0
LINE
  5
1F6
330
1ED
100
AcDbEntity
  8
VERMASSUNG
100
AcDbLine
 10
73.8699422229
 20
136.6201430147
 30
0.0
 11
61.8220011018
 21
148.6680841358
 31
0.0
  0
MTEXT
  5
1F7
330
1ED
100
AcDbEntity
  8
VERMASSUNG
100
AcDbMText
 10
63.6450181822
 20
150.4911012162
 30
0.1
 40
2.0
 41
0.0
 71
     1
 72
     1
  1
%%c
  7
SLDTEXTSTYLE0
 11
0.7071067811865464
 21
-0.7071067811865488
 31
0.0
 73
     1
 44
1.0
  0
MTEXT
  5
1F8
330
1ED
100
AcDbEntity
  8
VERMASSUNG
100
AcDbMText
 10
66.3390950353
 20
148.0798670889
 30
0.1
 40
2.0
 41
0.0
 71
     1
 72
     1
  1
50
  7
SLDTEXTSTYLE0
 11
0.7071067811865464
 21
-0.7071067811865488
 31
0.0
 73
     1
 44
1.0
  0
MTEXT
  5
1F9
330
1ED
100
AcDbEntity
  8
VERMASSUNG
100
AcDbMText
 10
70.4314759329
 20
143.9874861914
 30
0.1
 40
2.0
 41
0.0
 71
     1
 72
     1
  1
min.
  7
SLDTEXTSTYLE0
 11
0.7071067811865464
 21
-0.7071067811865488
 31
0.0
 73
     1
 44
1.0
  0
ENDBLK
  5
1EF
330
1ED
100
AcDbEntity
  8
0
100
AcDbBlockEnd
  0
BLOCK
  5
1FB
330
1FA
100
AcDbEntity
  8
0
100
AcDbBlockBegin
  2
SW_CENTERMARKSYMBOL_0
 70
     0
 10
0.0
 20
0.0
 30
0.0
  3
SW_CENTERMARKSYMBOL_0
  1

  0
LINE
  5
1FD
330
1FA
100
AcDbEntity
  8
VERMASSUNG
 62
     0
100
AcDbLine
 10
0.0
 20
0.0
 30
0.0
 11
0.0
 21
2.5
 31
0.0
  0
LINE
  5
1FE
330
1FA
100
AcDbEntity
  8
VERMASSUNG
 62
     0
100
AcDbLine
 10
0.0
 20
0.0
 30
0.0
 11
-2.5
 21
0.0
 31
0.0
  0
LINE
  5
1FF
330
1FA
100
AcDbEntity
  8
VERMASSUNG
 62
     0
100
AcDbLine
 10
0.0
 20
0.0
 30
0.0
 11
0.0
 21
-2.5
 31
0.0
  0
LINE
  5
200
330
1FA
100
AcDbEntity
  8
VERMASSUNG
 62
     0
100
AcDbLine
 10
0.0
 20
0.0
 30
0.0
 11
2.5
 21
0.0
 31
0.0
  0
LINE
  5
201
330
1FA
100
AcDbEntity
  8
VERMASSUNG
 62
     0
100
AcDbLine
 10
0.0
 20
5.0
 30
0.0
 11
0.0
 21
22.5
 31
0.0
  0
LINE
  5
202
330
1FA
100
AcDbEntity
  8
VERMASSUNG
 62
     0
100
AcDbLine
 10
-5.0
 20
0.0
 30
0.0
 11
-22.5
 21
0.0
 31
0.0
  0
LINE
  5
203
330
1FA
100
AcDbEntity
  8
VERMASSUNG
 62
     0
100
AcDbLine
 10
0.0
 20
-5.0
 30
0.0
 11
0.0
 21
-22.5
 31
0.0
  0
LINE
  5
204
330
1FA
100
AcDbEntity
  8
VERMASSUNG
 62
     0
100
AcDbLine
 10
5.0
 20
0.0
 30
0.0
 11
22.5
 21
0.0
 31
0.0
  0
ENDBLK
  5
1FC
330
1FA
100
AcDbEntity
  8
0
100
AcDbBlockEnd
  0
ENDSEC
  0
SECTION
  2
ENTITIES
  0
MTEXT
  5
49
330
1F
100
AcDbEntity
  8
KOPF_DÜNN
100
AcDbMText
 10
13.8892156294
 20
23.8442973028
 30
0.0
 40
3.0
 41
0.0
 71
     1
 72
     1
  1
PS4.KDB.RHA.050
  7
SLDTEXTSTYLE0
 73
     1
 44
1.0
  0
MTEXT
  5
4A
330
1F
100
AcDbEntity
  8
VERMASSUNG
100
AcDbMText
 10
13.9329988022
 20
28.8834360957
 30
0.0
 40
3.0
 41
0.0
 71
     1
 72
     1
  1
Klemmhalter rechts_Turning tool right 107.5° /55°
  7
SLDTEXTSTYLE0
 73
     1
 44
1.0
  0
MTEXT
  5
4B
330
1F
100
AcDbEntity
  8
VERMASSUNG
100
AcDbMText
 10
98.8601118557
 20
13.8365368179
 30
0.0
 40
2.0
 41
0.0
 71
     1
 72
     1
  1
Datum: 23.05.2012
  7
SLDTEXTSTYLE0
 73
     1
 44
1.0
  0
MTEXT
  5
4C
330
1F
100
AcDbEntity
  8
VERMASSUNG
100
AcDbMText
 10
13.933048693
 20
18.0482802738
 30
0.0
 40
2.0
 41
0.0
 71
     1
 72
     1
  1
PSC ø40 / DC..11 T3..
  7
SLDTEXTSTYLE0
 73
     1
 44
1.0
  0
MTEXT
  5
4D
330
1F
100
AcDbEntity
  8
VERMASSUNG
100
AcDbMText
 10
13.9808475933
 20
13.9090973692
 30
0.0
 40
2.0
 41
0.0
 71
     1
 72
     1
  1
Gewicht: 359g
  7
SLDTEXTSTYLE0
 73
     1
 44
1.0
  0
ARC
  5
4E
330
1F
100
AcDbEntity
  8
0
  6
Continuous
 62
     7
370
    15
100
AcDbCircle
 10
183.9208834258
 20
97.4122411083
 30
0.0
 40
0.3000000000000114
100
AcDbArc
 50
180.0
 51
270.0
  0
ARC
  5
4F
330
1F
100
AcDbEntity
  8
0
  6
Continuous
 62
     7
370
    15
100
AcDbCircle
 10
183.9208834258
 20
136.8122411083
 30
0.0
 40
0.3000000000000114
100
AcDbArc
 50
90.0
 51
180.0
  0
LINE
  5
50
330
1F
100
AcDbEntity
  8
0
  6
Continuous
 62
     7
370
    15
100
AcDbLine
 10
205.6212593834
 20
137.1122411083
 30
0.0
 11
183.9208834258
 21
137.1122411083
 31
0.0
  0
LINE
  5
51
330
1F
100
AcDbEntity
  8
0
  6
Continuous
 62
     7
370
    15
100
AcDbLine
 10
183.9208834258
 20
97.1122411083
 30
0.0
 11
205.6182880902
 21
97.1122411083
 31
0.0
  0
LWPOLYLINE
  5
52
330
1F
100
AcDbEntity
  8
0
  6
Continuous
 62
     7
370
    15
100
AcDbPolyline
 90
        3
 70
   128
 43
0.0
 10
183.4208834258
 20
103.0224208294
 10
183.5463383693
 20
102.9541187145
 10
183.6208834258
 20
102.9013809564
  0
LWPOLYLINE
  5
53
330
1F
100
AcDbEntity
  8
0
  6
Continuous
 62
     7
370
    15
100
AcDbPolyline
 90
        3
 70
   128
 43
0.0
 10
183.6208834258
 20
131.3231012602
 10
183.5463383693
 20
131.2703635021
 10
183.4208834258
 20
131.2020613872
  0
ARC
  5
54
330
1F
100
AcDbEntity
  8
0
  6
Continuous
 62
     7
370
    15
100
AcDbCircle
 10
226.4496022216
 20
136.9409599041
 30
0.0
 40
1.674999999999998
100
AcDbArc
 50
321.8568829838
 51
20.456816111
  0
ARC
  5
55
330
1F
100
AcDbEntity
  8
0
  6
Continuous
 62
     7
370
    15
100
AcDbCircle
 10
226.4496022216
 20
136.9409599041
 30
0.0
 40
1.674999999999995
100
AcDbArc
 50
20.456816111
 51
80.5636578458
  0
ARC
  5
56
330
1F
100
AcDbEntity
  8
0
  6
Continuous
 62
     7
370
    15
100
AcDbCircle
 10
226.4496022216
 20
136.9409599041
 30
0.0
 40
1.675000000000004
100
AcDbArc
 50
80.5636578458
 51
139.163590973
  0
LINE
  5
57
330
1F
100
AcDbEntity
  8
0
  6
Continuous
 62
     7
370
    15
100
AcDbLine
 10
225.1284213211
 20
137.9705744088
 30
0.0
 11
225.1823312544
 21
138.0362449336
 31
0.0
  0
ARC
  5
58
330
1F
100
AcDbEntity
  8
0
  6
Continuous
 62
     7
370
    15
100
AcDbCircle
 10
226.4496022216
 20
136.9409599041
 30
0.0
 40
1.674999999999992
100
AcDbArc
 50
142.0702217449
 51
198.5139399112
  0
LINE
  5
59
330
1F
100
AcDbEntity
  8
0
  6
Continuous
 62
     7
370
    15
100
AcDbLine
 10
224.903371555
 20
136.2969135349
 30
0.0
 11
224.8612894551
 21
136.4090881566
 31
0.0
  0
ARC
  5
5A
330
1F
100
AcDbEntity
  8
0
  6
Continuous
 62
     7
370
    15
100
AcDbCircle
 10
226.4496022216
 20
136.9409599041
 30
0.0
 40
1.675000000000016
100
AcDbArc
 50
202.6130318114
 51
258.4074421454
  0
LINE
  5
5B
330
1F
100
AcDbEntity
  8
0
  6
Continuous
 62
     7
370
    15
100
AcDbLine
 10
226.2311602349
 20
135.2802648392
 30
0.0
 11
226.1130098284
 21
135.3001276272
 31
0.0
  0
ARC
  5
5C
330
1F
100
AcDbEntity
  8
0
  6
Continuous
 62
     7
370
    15
100
AcDbCircle
 10
226.4496022216
 20
136.9409599041
 30
0.0
 40
1.675000000000009
100
AcDbArc
 50
262.5065340457
 51
318.950252212
  0
LINE
  5
5D
330
1F
100
AcDbEntity
  8
0
  6
Continuous
 62
     7
370
    15
100
AcDbLine
 10
227.76694024
 20
135.9064331789
 30
0.0
 11
227.7127861592
 21
135.8409638405
 31
0.0
  0
CIRCLE
  5
5E
330
1F
100
AcDbEntity
  8
0
  6
Continuous
 62
     7
370
    15
100
AcDbCircle
 10
226.4496022216
 20
136.9409599041
 30
0.0
 40
1.80000000000001
  0
SPLINE
  5
5F
330
1F
100
AcDbEntity
  8
0
  6
Continuous
 62
     7
370
    15
100
AcDbSpline
210
0.0
220
0.0
230
1.0
 70
     8
 71
     3
 72
    11
 73
     7
 74
     0
 42
0.00000001
 43
0.00000001
 12
1.0
 22
0.0
 32
0.0
 13
1.0
 23
0.0
 33
0.0
 40
0.0
 40
0.0
 40
0.0
 40
0.0
 40
0.2669010467950367
 40
0.5546143410792455
 40
0.8439070439786241
 40
1.0
 40
1.0
 40
1.0
 40
1.0
 10
224.9033715549718
 20
136.2969135348626
 30
0.0
 10
224.9238928477498
 20
136.268717973351
 30
0.0
 10
224.9665356301925
 20
136.2101282339817
 30
0.0
 10
225.0626316168398
 20
136.153155412012
 30
0.0
 10
225.1562430581662
 20
136.1307949655416
 30
0.0
 10
225.2133046776869
 20
136.1349913007838
 30
0.0
 10
225.2333028897712
 20
136.1364619776215
 30
0.0
  0
SPLINE
  5
60
330
1F
100
AcDbEntity
  8
0
  6
Continuous
 62
     7
370
    15
100
AcDbSpline
210
0.0
220
0.0
230
1.0
 70
     8
 71
     3
 72
    12
 73
     8
 74
     0
 42
0.00000001
 43
0.00000001
 12
1.0
 22
0.0
 32
0.0
 13
1.0
 23
0.0
 33
0.0
 40
0.0
 40
0.0
 40
0.0
 40
0.0
 40
0.2058401281338197
 40
0.4120619935510029
 40
0.614138733096949
 40
0.8132772113524618
 40
0.9999999999999999
 40
0.9999999999999999
 40
0.9999999999999999
 40
0.9999999999999999
 10
225.2333028897712
 20
136.1364619776215
 30
0.0
 10
225.2988433999492
 20
136.138442890118
 30
0.0
 10
225.4300459673355
 20
136.1424083887783
 30
0.0
 10
225.6162576901397
 20
136.0656725586828
 30
0.0
 10
225.7650092441208
 20
135.9375604755649
 30
0.0
 10
225.8646369094031
 20
135.773216658557
 30
0.0
 10
225.8833783649901
 20
135.6519736902283
 30
0.0
 10
225.8924475749645
 20
135.5933027971067
 30
0.0
  0
SPLINE
  5
61
330
1F
100
AcDbEntity
  8
0
  6
Continuous
 62
     7
370
    15
100
AcDbSpline
210
0.0
220
0.0
230
1.0
 70
     8
 71
     3
 72
    11
 73
     7
 74
     0
 42
0.00000001
 43
0.00000001
 12
1.0
 22
0.0
 32
0.0
 13
1.0
 23
0.0
 33
0.0
 40
0.0
 40
0.0
 40
0.0
 40
0.0
 40
0.2928993220619636
 40
0.5864344719079502
 40
0.8775178868032973
 40
1.0
 40
1.0
 40
1.0
 40
1.0
 10
225.8924475749645
 20
135.5933027971067
 30
0.0
 10
225.8986036688234
 20
135.5558991928591
 30
0.0
 10
225.9109292202305
 20
135.4810107883726
 30
0.0
 10
225.9756441852174
 20
135.3846317570208
 30
0.0
 10
226.0486662841246
 20
135.3265272381513
 30
0.0
 10
226.0983079014411
 20
135.3061597032358
 30
0.0
 10
226.1130098284113
 20
135.300127627186
 30
0.0
  0
SPLINE
  5
62
330
1F
100
AcDbEntity
  8
0
  6
Continuous
 62
     7
370
    15
100
AcDbSpline
210
0.0
220
0.0
230
1.0
 70
     8
 71
     3
 72
    12
 73
     8
 74
     0
 42
0.00000001
 43
0.00000001
 12
1.0
 22
0.0
 32
0.0
 13
1.0
 23
0.0
 33
0.0
 40
0.0
 40
0.0
 40
0.0
 40
0.0
 40
0.2057904614204237
 40
0.4120344203360191
 40
0.6141302471428017
 40
0.813263324211302
 40
1.0
 40
1.0
 40
1.0
 40
1.0
 10
226.5357036411858
 20
135.4857767934963
 30
0.0
 10
226.5667485948873
 20
135.54351209332
 30
0.0
 10
226.6289069156107
 20
135.6591099234213
 30
0.0
 10
226.7884519880711
 20
135.7820139602126
 30
0.0
 10
226.9737856129653
 20
135.8467940241294
 30
0.0
 10
227.1659395218415
 20
135.8509081692875
 30
0.0
 10
227.2803150668248
 20
135.8065161762295
 30
0.0
 10
227.335665632407
 20
135.7850332453859
 30
0.0
  0
SPLINE
  5
63
330
1F
100
AcDbEntity
  8
0
  6
Continuous
 62
     7
370
    15
100
AcDbSpline
210
0.0
220
0.0
230
1.0
 70
     8
 71
     3
 72
    11
 73
     7
 74
     0
 42
0.00000001
 43
0.00000001
 12
1.0
 22
0.0
 32
0.0
 13
1.0
 23
0.0
 33
0.0
 40
0.0
 40
0.0
 40
0.0
 40
0.0
 40
0.2802371411013376
 40
0.5612869875923989
 40
0.8399906057824511
 40
1.0
 40
1.0
 40
1.0
 40
1.0
 10
227.335665632407
 20
135.7850332453859
 30
0.0
 10
227.3711120693827
 20
135.7716672123358
 30
0.0
 10
227.4421077402376
 20
135.7448963838964
 30
0.0
 10
227.5578464058486
 20
135.7527676014185
 30
0.0
 10
227.6503497373634
 20
135.7889309879637
 30
0.0
 10
227.6960999387654
 20
135.8270579884557
 30
0.0
 10
227.7127861591524
 20
135.8409638405264
 30
0.0
  0
SPLINE
  5
64
330
1F
100
AcDbEntity
  8
0
  6
Continuous
 62
     7
370
    15
100
AcDbSpline
210
0.0
220
0.0
230
1.0
 70
     8
 71
     3
 72
    11
 73
     7
 74
     0
 42
0.00000001
 43
0.00000001
 12
1.0
 22
0.0
 32
0.0
 13
1.0
 23
0.0
 33
0.0
 40
0.0
 40
0.0
 40
0.0
 40
0.0
 40
0.2657596322624838
 40
0.5530029385954188
 40
0.8418208483438422
 40
1.0
 40
1.0
 40
1.0
 40
1.0
 10
226.2311602348526
 20
135.2802648392149
 30
0.0
 10
226.265752782232
 20
135.2838566727469
 30
0.0
 10
226.3377342949676
 20
135.2913306991112
 30
0.0
 10
226.4351825886534
 20
135.3457551310441
 30
0.0
 10
226.5017641622591
 20
135.4156867936596
 30
0.0
 10
226.5268326415192
 20
135.4674568786112
 30
0.0
 10
226.5357036411858
 20
135.4857767934963
 30
0.0
  0
SPLINE
  5
65
330
1F
100
AcDbEntity
  8
0
  6
Continuous
 62
     7
370
    15
100
AcDbSpline
210
0.0
220
0.0
230
1.0
 70
     8
 71
     3
 72
    11
 73
     7
 74
     0
 42
0.00000001
 43
0.00000001
 12
1.0
 22
0.0
 32
0.0
 13
1.0
 23
0.0
 33
0.0
 40
0.0
 40
0.0
 40
0.0
 40
0.0
 40
0.2431090893442918
 40
0.5182793655622236
 40
0.7947794085752009
 40
1.0
 40
1.0
 40
1.0
 40
1.0
 10
225.1284213211063
 20
137.9705744087622
 30
0.0
 10
225.11328529159
 20
137.9410723243348
 30
0.0
 10
225.0810170954647
 20
137.8781774254191
 30
0.0
 10
225.0724033938544
 20
137.7686518825142
 30
0.0
 10
225.0950980950821
 20
137.6671175526936
 30
0.0
 10
225.1305214887345
 20
137.6128398599031
 30
0.0
 10
225.1456124133824
 20
137.5897167063171
 30
0.0
  0
SPLINE
  5
66
330
1F
100
AcDbEntity
  8
0
  6
Continuous
 62
     7
370
    15
100
AcDbSpline
210
0.0
220
0.0
230
1.0
 70
     8
 71
     3
 72
    12
 73
     8
 74
     0
 42
0.00000001
 43
0.00000001
 12
1.0
 22
0.0
 32
0.0
 13
1.0
 23
0.0
 33
0.0
 40
0.0
 40
0.0
 40
0.0
 40
0.0
 40
0.2058179564998902
 40
0.4120215045907285
 40
0.6140779969167817
 40
0.8132130006453928
 40
1.0
 40
1.0
 40
1.0
 40
1.0
 10
225.1456124133824
 20
137.5897167063171
 30
0.0
 10
225.180095624571
 20
137.5339526930856
 30
0.0
 10
225.2491266498454
 20
137.4223201950063
 30
0.0
 10
225.275783332974
 20
137.2227046476014
 30
0.0
 10
225.2392257567073
 20
137.0298375785546
 30
0.0
 10
225.1467252203103
 20
136.8613695827153
 30
0.0
 10
225.0510851076937
 20
136.7845041113879
 30
0.0
 10
225.0047951073545
 20
136.7473010739127
 30
0.0
  0
SPLINE
  5
67
330
1F
100
AcDbEntity
  8
0
  6
Continuous
 62
     7
370
    15
100
AcDbSpline
210
0.0
220
0.0
230
1.0
 70
     8
 71
     3
 72
    11
 73
     7
 74
     0
 42
0.00000001
 43
0.00000001
 12
1.0
 22
0.0
 32
0.0
 13
1.0
 23
0.0
 33
0.0
 40
0.0
 40
0.0
 40
0.0
 40
0.0
 40
0.2908641666076665
 40
0.5839560789892017
 40
0.8745988053617747
 40
1.0
 40
1.0
 40
1.0
 40
1.0
 10
225.0047951073545
 20
136.7473010739127
 30
0.0
 10
224.9756284632307
 20
136.7234138858696
 30
0.0
 10
224.917071785939
 20
136.6754565564041
 30
0.0
 10
224.8658668648469
 20
136.5715043845802
 30
0.0
 10
224.8518135681904
 20
136.4788176782097
 30
0.0
 10
224.8590947958118
 20
136.4252378364983
 30
0.0
 10
224.8612894550679
 20
136.4090881565731
 30
0.0
  0
SPLINE
  5
68
330
1F
100
AcDbEntity
  8
0
  6
Continuous
 62
     7
370
    15
100
AcDbSpline
210
0.0
220
0.0
230
1.0
 70
     8
 71
     3
 72
    12
 73
     8
 74
     0
 42
0.00000001
 43
0.00000001
 12
1.0
 22
0.0
 32
0.0
 13
1.0
 23
0.0
 33
0.0
 40
0.0
 40
0.0
 40
0.0
 40
0.0
 40
0.2058585741213974
 40
0.412102696145705
 40
0.6141937841967334
 40
0.8133180967416346
 40
1.0
 40
1.0
 40
1.0
 40
1.0
 10
227.7504139162116
 20
136.2883463380668
 30
0.0
 10
227.7159263041986
 20
136.3441194234161
 30
0.0
 10
227.6468864890982
 20
136.4557700502746
 30
0.0
 10
227.6202406840787
 20
136.6554168137777
 30
0.0
 10
227.6568267309115
 20
136.8483032480514
 30
0.0
 10
227.7493464749333
 20
137.016740417684
 30
0.0
 10
227.8449642102465
 20
137.0935808311985
 30
0.0
 10
227.8912312222394
 20
137.1307619704711
 30
0.0
  0
SPLINE
  5
69
330
1F
100
AcDbEntity
  8
0
  6
Continuous
 62
     7
370
    15
100
AcDbSpline
210
0.0
220
0.0
230
1.0
 70
     8
 71
     3
 72
    11
 73
     7
 74
     0
 42
0.00000001
 43
0.00000001
 12
1.0
 22
0.0
 32
0.0
 13
1.0
 23
0.0
 33
0.0
 40
0.0
 40
0.0
 40
0.0
 40
0.0
 40
0.2524782265335556
 40
0.5068902417933365
 40
0.7591786113117057
 40
0.9999999999999999
 40
0.9999999999999999
 40
0.9999999999999999
 40
0.9999999999999999
 10
227.8912312222394
 20
137.1307619704711
 30
0.0
 10
227.9204089705079
 20
137.1546543610087
 30
0.0
 10
227.9789879461204
 20
137.2026221393907
 30
0.0
 10
228.0300058209097
 20
137.3064701871689
 30
0.0
 10
228.0477713491963
 20
137.4193857045385
 30
0.0
 10
228.028420325417
 20
137.4912688350374
 30
0.0
 10
228.0189698119328
 20
137.5263746000763
 30
0.0
  0
SPLINE
  5
6A
330
1F
100
AcDbEntity
  8
0
  6
Continuous
 62
     7
370
    15
100
AcDbSpline
210
0.0
220
0.0
230
1.0
 70
     8
 71
     3
 72
    11
 73
     7
 74
     0
 42
0.00000001
 43
0.00000001
 12
1.0
 22
0.0
 32
0.0
 13
1.0
 23
0.0
 33
0.0
 40
0.0
 40
0.0
 40
0.0
 40
0.0
 40
0.2423611237745362
 40
0.5166847928458224
 40
0.7923341374633434
 40
1.0
 40
1.0
 40
1.0
 40
1.0
 10
227.7669402400039
 20
135.9064331788638
 30
0.0
 10
227.78218614547
 20
135.9358788718527
 30
0.0
 10
227.8146885839173
 20
135.9986535509978
 30
0.0
 10
227.8237077252296
 20
136.108143238502
 30
0.0
 10
227.8013085500369
 20
136.2101865563558
 30
0.0
 10
227.7657096724854
 20
136.2648563769135
 30
0.0
 10
227.7504139162116
 20
136.2883463380668
 30
0.0
  0
SPLINE
  5
6B
330
1F
100
AcDbEntity
  8
0
  6
Continuous
 62
     7
370
    15
100
AcDbSpline
210
0.0
220
0.0
230
1.0
 70
     8
 71
     3
 72
    12
 73
     8
 74
     0
 42
0.00000001
 43
0.00000001
 12
1.0
 22
0.0
 32
0.0
 13
1.0
 23
0.0
 33
0.0
 40
0.0
 40
0.0
 40
0.0
 40
0.0
 40
0.0091735205189732
 40
0.2576775215524867
 40
0.5061895192299238
 40
0.7560357430219012
 40
1.0
 40
1.0
 40
1.0
 40
1.0
 10
226.7242213231601
 20
138.5932944189446
 30
0.0
 10
226.7228674096983
 20
138.5935138542402
 30
0.0
 10
226.6848369649518
 20
138.5996776321464
 30
0.0
 10
226.6073482942623
 20
138.5985093762581
 30
0.0
 10
226.5013085759097
 20
138.5595007354104
 30
0.0
 10
226.4121845677967
 20
138.4893262774228
 30
0.0
 10
226.3774721572408
 20
138.4243750399982
 30
0.0
 10
226.3603226884082
 20
138.3922862508875
 30
0.0
  0
SPLINE
  5
6C
330
1F
100
AcDbEntity
  8
0
  6
Continuous
 62
     7
370
    15
100
AcDbSpline
210
0.0
220
0.0
230
1.0
 70
     8
 71
     3
 72
    12
 73
     8
 74
     0
 42
0.00000001
 43
0.00000001
 12
1.0
 22
0.0
 32
0.0
 13
1.0
 23
0.0
 33
0.0
 40
0.0
 40
0.0
 40
0.0
 40
0.0
 40
0.2057532787804194
 40
0.4119604088044429
 40
0.6140154573248994
 40
0.8131414684041093
 40
1.0
 40
1.0
 40
1.0
 40
1.0
 10
226.3603226884082
 20
138.3922862508875
 30
0.0
 10
226.3292830226634
 20
138.33455872126
 30
0.0
 10
226.2671352237795
 20
138.2189763264347
 30
0.0
 10
226.1076213634664
 20
138.096078845296
 30
0.0
 10
225.9223222361136
 20
138.0312866145104
 30
0.0
 10
225.7301545079257
 20
138.0271386655957
 30
0.0
 10
225.6157465848301
 20
138.071536442465
 30
0.0
 10
225.560360697187
 20
138.0930297989979
 30
0.0
  0
SPLINE
  5
6D
330
1F
100
AcDbEntity
  8
0
  6
Continuous
 62
     7
370
    15
100
AcDbSpline
210
0.0
220
0.0
230
1.0
 70
     8
 71
     3
 72
    11
 73
     7
 74
     0
 42
0.00000001
 43
0.00000001
 12
1.0
 22
0.0
 32
0.0
 13
1.0
 23
0.0
 33
0.0
 40
0.0
 40
0.0
 40
0.0
 40
0.0
 40
0.2794069064555921
 40
0.5596240257155656
 40
0.8375007392219723
 40
0.9999999999999999
 40
0.9999999999999999
 40
0.9999999999999999
 40
0.9999999999999999
 10
225.560360697187
 20
138.0930297989979
 30
0.0
 10
225.5249110830889
 20
138.1063967932
 30
0.0
 10
225.4539090595408
 20
138.1331695426713
 30
0.0
 10
225.3381656437553
 20
138.1252902797011
 30
0.0
 10
225.2452617648269
 20
138.0889775727942
 30
0.0
 10
225.1992935723622
 20
138.0504585127447
 30
0.0
 10
225.1823312544089
 20
138.0362449335546
 30
0.0
  0
SPLINE
  5
6E
330
1F
100
AcDbEntity
  8
0
  6
Continuous
 62
     7
370
    15
100
AcDbSpline
210
0.0
220
0.0
230
1.0
 70
     8
 71
     3
 72
    12
 73
     8
 74
     0
 42
0.00000001
 43
0.00000001
 12
1.0
 22
0.0
 32
0.0
 13
1.0
 23
0.0
 33
0.0
 40
0.0
 40
0.0
 40
0.0
 40
0.0
 40
0.205843556409514
 40
0.412069162055312
 40
0.6141397217727037
 40
0.8132604579561306
 40
0.9999999999999999
 40
0.9999999999999999
 40
0.9999999999999999
 40
0.9999999999999999
 10
227.6627234398228
 20
137.7416010667623
 30
0.0
 10
227.5971822468728
 20
137.7396201840064
 30
0.0
 10
227.4659782153736
 20
137.7356547419413
 30
0.0
 10
227.2797661804902
 20
137.8123918415631
 30
0.0
 10
227.1310187970301
 20
137.9405023015318
 30
0.0
 10
227.0313912462995
 20
138.1048424140124
 30
0.0
 10
227.0126491241505
 20
138.2260844101567
 30
0.0
 10
227.0035787546294
 20
138.2847602472771
 30
0.0
  0
SPLINE
  5
6F
330
1F
100
AcDbEntity
  8
0
  6
Continuous
 62
     7
370
    15
100
AcDbSpline
210
0.0
220
0.0
230
1.0
 70
     8
 71
     3
 72
    11
 73
     7
 74
     0
 42
0.00000001
 43
0.00000001
 12
1.0
 22
0.0
 32
0.0
 13
1.0
 23
0.0
 33
0.0
 40
0.0
 40
0.0
 40
0.0
 40
0.0
 40
0.2535086227483968
 40
0.5075674742604547
 40
0.7595056251924512
 40
1.0
 40
1.0
 40
1.0
 40
1.0
 10
227.0035787546294
 20
138.2847602472771
 30
0.0
 10
226.9974229802668
 20
138.3221794719243
 30
0.0
 10
226.9850980707174
 20
138.3970991379184
 30
0.0
 10
226.920370056834
 20
138.4932631527826
 30
0.0
 10
226.8313326989593
 20
138.5649415255033
 30
0.0
 10
226.7593676431251
 20
138.5839910199603
 30
0.0
 10
226.7242213231601
 20
138.5932944189446
 30
0.0
  0
SPLINE
  5
70
330
1F
100
AcDbEntity
  8
0
  6
Continuous
 62
     7
370
    15
100
AcDbSpline
210
0.0
220
0.0
230
1.0
 70
     8
 71
     3
 72
    12
 73
     8
 74
     0
 42
0.00000001
 43
0.00000001
 12
1.0
 22
0.0
 32
0.0
 13
1.0
 23
0.0
 33
0.0
 40
0.0
 40
0.0
 40
0.0
 40
0.0
 40
0.0091681771491553
 40
0.2573268097002605
 40
0.505493468742945
 40
0.7549925359452896
 40
0.9999999999999999
 40
0.9999999999999999
 40
0.9999999999999999
 40
0.9999999999999999
 10
228.0189698119328
 20
137.5263746000763
 30
0.0
 10
228.0184848878997
 20
137.5276587824465
 30
0.0
 10
228.0048743356211
 20
137.5637024307119
 30
0.0
 10
227.9652409064381
 20
137.630300364365
 30
0.0
 10
227.8785736275595
 20
137.7027884859594
 30
0.0
 10
227.7731181245399
 20
137.7451647275412
 30
0.0
 10
227.6992981658174
 20
137.7427817387925
 30
0.0
 10
227.6627234398228
 20
137.7416010667623
 30
0.0
  0
CIRCLE
  5
71
330
1F
100
AcDbEntity
  8
0
  6
Continuous
 62
     7
370
    15
100
AcDbCircle
 10
226.4496022216
 20
136.9409599041
 30
0.0
 40
2.62499999999999
  0
LINE
  5
72
330
1F
100
AcDbEntity
  8
0
  6
Continuous
 62
     7
370
    15
100
AcDbLine
 10
230.0179882869
 20
133.5539555332
 30
0.0
 11
230.1322564906
 21
133.1915430922
 31
0.0
  0
LINE
  5
73
330
1F
100
AcDbEntity
  8
0
  6
Continuous
 62
     7
370
    15
100
AcDbLine
 10
219.9739709156
 20
129.9886479531
 30
0.0
 11
230.1322564906
 21
133.1915430922
 31
0.0
  0
LINE
  5
74
330
1F
100
AcDbEntity
  8
0
  6
Continuous
 62
     7
370
    15
100
AcDbLine
 10
219.8597027118
 20
130.3510603943
 30
0.0
 11
219.9739709156
 21
129.9886479531
 31
0.0
  0
LINE
  5
75
330
1F
100
AcDbEntity
  8
0
  6
Continuous
 62
     7
370
    15
100
AcDbLine
 10
221.2791898434
 20
131.7705475259
 30
0.0
 11
219.8597027118
 21
130.3510603943
 31
0.0
  0
LINE
  5
76
330
1F
100
AcDbEntity
  8
0
  6
Continuous
 62
     7
370
    15
100
AcDbLine
 10
229.8422277103
 20
133.7297161098
 30
0.0
 11
230.0179882869
 21
133.5539555332
 31
0.0
  0
SPLINE
  5
77
330
1F
100
AcDbEntity
  8
0
  6
Continuous
 62
     7
370
    15
100
AcDbSpline
210
0.0
220
0.0
230
1.0
 70
    24
 71
     3
 72
    11
 73
     7
 74
     0
 42
0.00000001
 43
0.00000001
 12
1.0
 22
0.0
 32
0.0
 13
1.0
 23
0.0
 33
0.0
 40
0.0
 40
0.0
 40
0.0
 40
0.0
 40
0.3277695037502226
 40
0.655150956890987
 40
0.9907861901609726
 40
1.0
 40
1.0
 40
1.0
 40
1.0
 10
229.8422277103226
 20
133.7297161098124
 30
0.0
 10
229.789668310064
 20
133.7822755100711
 30
0.0
 10
229.6846117353091
 20
133.8873320848259
 30
0.0
 10
229.5113831157103
 20
134.0605607044248
 30
0.0
 10
229.4021259774368
 20
134.1698178426982
 30
0.0
 10
229.3511287677479
 20
134.2208150523871
 30
0.0
 10
229.3497662046155
 20
134.2221776155196
 30
0.0
  0
LINE
  5
78
330
1F
100
AcDbEntity
  8
0
  6
Continuous
 62
     7
370
    15
100
AcDbLine
 10
223.0625978507
 20
140.5093459694
 30
0.0
 11
222.9483296469
 21
140.8717584107
 31
0.0
  0
LINE
  5
79
330
1F
100
AcDbEntity
  8
0
  6
Continuous
 62
     7
370
    15
100
AcDbLine
 10
233.106615222
 20
144.0746535496
 30
0.0
 11
222.9483296469
 21
140.8717584107
 31
0.0
  0
LINE
  5
7A
330
1F
100
AcDbEntity
  8
0
  6
Continuous
 62
     7
370
    15
100
AcDbLine
 10
233.2208834258
 20
143.7122411083
 30
0.0
 11
233.106615222
 21
144.0746535496
 31
0.0
  0
LINE
  5
7B
330
1F
100
AcDbEntity
  8
0
  6
Continuous
 62
     7
370
    15
100
AcDbLine
 10
231.8013962942
 20
142.2927539767
 30
0.0
 11
233.2208834258
 21
143.7122411083
 31
0.0
  0
LINE
  5
7C
330
1F
100
AcDbEntity
  8
0
  6
Continuous
 62
     7
370
    15
100
AcDbLine
 10
223.2383584273
 20
140.3335853928
 30
0.0
 11
223.0625978507
 21
140.5093459694
 31
0.0
  0
SPLINE
  5
7D
330
1F
100
AcDbEntity
  8
0
  6
Continuous
 62
     7
370
    15
100
AcDbSpline
210
0.0
220
0.0
230
1.0
 70
    24
 71
     3
 72
    11
 73
     7
 74
     0
 42
0.00000001
 43
0.00000001
 12
1.0
 22
0.0
 32
0.0
 13
1.0
 23
0.0
 33
0.0
 40
0.0
 40
0.0
 40
0.0
 40
0.0
 40
0.0092138098390039
 40
0.3448490431109701
 40
0.6722304962507475
 40
0.9999999999999999
 40
0.9999999999999999
 40
0.9999999999999999
 40
0.9999999999999999
 10
223.7308199330105
 20
139.8411238871247
 30
0.0
 10
223.729457369878
 20
139.8424864502571
 30
0.0
 10
223.6784601601885
 20
139.8934836599466
 30
0.0
 10
223.5692030219148
 20
140.0027407982204
 30
0.0
 10
223.3959744023153
 20
140.1759694178199
 30
0.0
 10
223.2909178275606
 20
140.2810259925745
 30
0.0
 10
223.238358427302
 20
140.3335853928331
 30
0.0
  0
LINE
  5
7E
330
1F
100
AcDbEntity
  8
0
  6
Continuous
 62
     7
370
    15
100
AcDbLine
 10
219.9716961112
 20
129.9669601275
 30
0.0
 11
230.1397555794
 21
133.172936963
 31
0.0
  0
LINE
  5
7F
330
1F
100
AcDbEntity
  8
0
  6
Continuous
 62
     7
370
    15
100
AcDbLine
 10
222.6815792805
 20
140.6311132619
 30
0.0
 11
219.475602445
 21
130.4630537938
 31
0.0
  0
LINE
  5
80
330
1F
100
AcDbEntity
  8
0
  6
Continuous
 62
     7
370
    15
100
AcDbLine
 10
233.1088900264
 20
144.0963413752
 30
0.0
 11
222.9408305582
 21
140.8903645396
 31
0.0
  0
LINE
  5
81
330
1F
100
AcDbEntity
  8
0
  6
Continuous
 62
     7
370
    15
100
AcDbLine
 10
230.3990068571
 20
133.4321882408
 30
0.0
 11
233.6049836927
 21
143.6002477089
 31
0.0
  0
ARC
  5
82
330
1F
100
AcDbEntity
  8
0
  6
Continuous
 62
     7
370
    15
100
AcDbCircle
 10
219.8597027118
 20
130.3510603943
 30
0.0
 40
0.3800000000000021
100
AcDbArc
 50
162.5
 51
287.5
  0
ARC
  5
83
330
1F
100
AcDbEntity
  8
0
  6
Continuous
 62
     7
370
    15
100
AcDbCircle
 10
230.0179882869
 20
133.5539555332
 30
0.0
 40
0.3800000000000106
100
AcDbArc
 50
287.5
 51
342.5
  0
LINE
  5
84
330
1F
100
AcDbEntity
  8
0
  6
Continuous
 62
     7
370
    15
100
AcDbLine
 10
230.3804007282
 20
133.4396873294
 30
0.0
 11
233.5832958671
 21
143.5979729045
 31
0.0
  0
ARC
  5
85
330
1F
100
AcDbEntity
  8
0
  6
Continuous
 62
     7
370
    15
100
AcDbCircle
 10
233.2208834258
 20
143.7122411083
 30
0.0
 40
0.3800000000000021
100
AcDbArc
 50
342.5
 51
107.5
  0
ARC
  5
86
330
1F
100
AcDbEntity
  8
0
  6
Continuous
 62
     7
370
    15
100
AcDbCircle
 10
223.0625978507
 20
140.5093459694
 30
0.0
 40
0.3800000000000192
100
AcDbArc
 50
107.5
 51
162.5
  0
LINE
  5
87
330
1F
100
AcDbEntity
  8
0
  6
Continuous
 62
     7
370
    15
100
AcDbLine
 10
222.7001854095
 20
140.6236141732
 30
0.0
 11
219.4972902705
 21
130.4653285982
 31
0.0
  0
SPLINE
  5
88
330
1F
100
AcDbEntity
  8
0
  6
Continuous
 62
     7
370
    15
100
AcDbSpline
210
0.0
220
0.0
230
1.0
 70
     8
 71
     3
 72
    10
 73
     6
 74
     0
 42
0.00000001
 43
0.00000001
 12
1.0
 22
0.0
 32
0.0
 13
1.0
 23
0.0
 33
0.0
 40
0.0
 40
0.0
 40
0.0
 40
0.0
 40
0.3518022785810625
 40
0.7034245935031853
 40
1.0
 40
1.0
 40
1.0
 40
1.0
 10
222.9408305582485
 20
140.890364539609
 30
0.0
 10
222.8996565007062
 20
140.8726949010988
 30
0.0
 10
222.8173294481175
 20
140.8373646629421
 30
0.0
 10
222.7272657583737
 20
140.7420404366439
 30
0.0
 10
222.6959208037328
 20
140.6659346078512
 30
0.0
 10
222.6815792805262
 20
140.6311132618866
 30
0.0
  0
SPLINE
  5
89
330
1F
100
AcDbEntity
  8
0
  6
Continuous
 62
     7
370
    15
100
AcDbSpline
210
0.0
220
0.0
230
1.0
 70
     8
 71
     3
 72
    10
 73
     6
 74
     0
 42
0.00000001
 43
0.00000001
 12
1.0
 22
0.0
 32
0.0
 13
1.0
 23
0.0
 33
0.0
 40
0.0
 40
0.0
 40
0.0
 40
0.0
 40
0.3518022785810058
 40
0.7034245935032281
 40
1.0
 40
1.0
 40
1.0
 40
1.0
 10
230.1397555793774
 20
133.1729369630353
 30
0.0
 10
230.1809296369197
 20
133.1906066015455
 30
0.0
 10
230.2632566895084
 20
133.2259368397022
 30
0.0
 10
230.3533203792522
 20
133.3212610660003
 30
0.0
 10
230.3846653338931
 20
133.397366894793
 30
0.0
 10
230.3990068570997
 20
133.4321882407576
 30
0.0
  0
SPLINE
  5
8A
330
1F
100
AcDbEntity
  8
0
  6
Continuous
 62
     7
370
    15
100
AcDbSpline
210
0.0
220
0.0
230
1.0
 70
     8
 71
     3
 72
    14
 73
    10
 74
     0
 42
0.00000001
 43
0.00000001
 12
1.0
 22
0.0
 32
0.0
 13
1.0
 23
0.0
 33
0.0
 40
0.0
 40
0.0
 40
0.0
 40
0.0
 40
0.1588501103508066
 40
0.3173321153184953
 40
0.4720153553660866
 40
0.6236441635915791
 40
0.774661834164437
 40
0.9277417761108017
 40
1.0
 40
1.0
 40
1.0
 40
1.0
 10
219.4756024449756
 20
130.4630537937577
 30
0.0
 10
219.4660712010944
 20
130.4179573639216
 30
0.0
 10
219.4470308002049
 20
130.3278690067803
 30
0.0
 10
219.477528118493
 20
130.1915280899896
 30
0.0
 10
219.5480902248587
 20
130.0755937623522
 30
0.0
 10
219.652689584107
 20
129.9914310777836
 30
0.0
 10
219.7782077812407
 20
129.9472260216216
 30
0.0
 10
219.8889121695445
 20
129.9449773365976
 30
0.0
 10
219.9515956637948
 20
129.9616225713837
 30
0.0
 10
219.9716961112485
 20
129.9669601274848
 30
0.0
  0
SPLINE
  5
8B
330
1F
100
AcDbEntity
  8
0
  6
Continuous
 62
     7
370
    15
100
AcDbSpline
210
0.0
220
0.0
230
1.0
 70
     8
 71
     3
 72
    14
 73
    10
 74
     0
 42
0.00000001
 43
0.00000001
 12
1.0
 22
0.0
 32
0.0
 13
1.0
 23
0.0
 33
0.0
 40
0.0
 40
0.0
 40
0.0
 40
0.0
 40
0.1588501103507924
 40
0.3173321153185022
 40
0.4720153553660882
 40
0.6236441635915826
 40
0.7746618341644326
 40
0.9277417761107829
 40
1.0
 40
1.0
 40
1.0
 40
1.0
 10
233.6049836926504
 20
143.6002477088865
 30
0.0
 10
233.6145149365315
 20
143.6453441387227
 30
0.0
 10
233.633555337421
 20
143.735432495864
 30
0.0
 10
233.603058019133
 20
143.8717734126547
 30
0.0
 10
233.5324959127672
 20
143.987707740292
 30
0.0
 10
233.4278965535189
 20
144.0718704248607
 30
0.0
 10
233.3023783563852
 20
144.1160754810226
 30
0.0
 10
233.1916739680814
 20
144.1183241660466
 30
0.0
 10
233.1289904738312
 20
144.1016789312606
 30
0.0
 10
233.1088900263775
 20
144.0963413751595
 30
0.0
  0
LINE
  5
8C
330
1F
100
AcDbEntity
  8
0
  6
Continuous
 62
     7
370
    15
100
AcDbLine
 10
233.2208834258
 20
143.7122411083
 30
0.0
 11
233.5832958671
 21
143.5979729045
 31
0.0
  0
LINE
  5
8D
330
1F
100
AcDbEntity
  8
0
  6
Continuous
 62
     7
370
    15
100
AcDbLine
 10
230.0179882869
 20
133.5539555332
 30
0.0
 11
230.3804007282
 21
133.4396873294
 31
0.0
  0
ARC
  5
8E
330
1F
100
AcDbEntity
  8
0
  6
Continuous
 62
     7
370
    15
100
AcDbCircle
 10
229.8212477599
 20
140.3126054424
 30
0.0
 40
1.000000000000021
100
AcDbArc
 50
342.5
 51
107.5
  0
LINE
  5
8F
330
1F
100
AcDbEntity
  8
0
  6
Continuous
 62
     7
370
    15
100
AcDbLine
 10
229.2019669261
 20
135.0229880453
 30
0.0
 11
230.7749647106
 21
140.0118996429
 31
0.0
  0
LINE
  5
90
330
1F
100
AcDbEntity
  8
0
  6
Continuous
 62
     7
370
    15
100
AcDbLine
 10
229.5205419604
 20
141.2663223931
 30
0.0
 11
224.5316303628
 21
139.6933246086
 31
0.0
  0
ARC
  5
91
330
1F
100
AcDbEntity
  8
0
  6
Continuous
 62
     7
370
    15
100
AcDbCircle
 10
228.2482499753
 20
135.3236938448
 30
0.0
 40
1.000000000000003
100
AcDbArc
 50
287.5
 51
342.5
  0
LINE
  5
92
330
1F
100
AcDbEntity
  8
0
  6
Continuous
 62
     7
370
    15
100
AcDbLine
 10
223.5600441772
 20
132.7969791095
 30
0.0
 11
228.5489557748
 21
134.369976894
 31
0.0
  0
ARC
  5
93
330
1F
100
AcDbEntity
  8
0
  6
Continuous
 62
     7
370
    15
100
AcDbCircle
 10
223.2593383777
 20
133.7506960602
 30
0.0
 40
1.000000000295361
100
AcDbArc
 50
162.5
 51
287.5
  0
LINE
  5
94
330
1F
100
AcDbEntity
  8
0
  6
Continuous
 62
     7
370
    15
100
AcDbLine
 10
223.8786192115
 20
139.0403134574
 30
0.0
 11
222.3056214267
 21
134.0514018598
 31
0.0
  0
ARC
  5
95
330
1F
100
AcDbEntity
  8
0
  6
Continuous
 62
     7
370
    15
100
AcDbCircle
 10
224.8323361623
 20
138.7396076579
 30
0.0
 40
1.000000000000003
100
AcDbArc
 50
107.5
 51
162.5
  0
CIRCLE
  5
96
330
1F
100
AcDbEntity
  8
0
  6
Continuous
 62
     7
370
    15
100
AcDbCircle
 10
226.5402930688
 20
137.0316507513
 30
0.0
 40
3.049999999999998
  0
LINE
  5
97
330
1F
100
AcDbEntity
  8
0
  6
Continuous
 62
     7
370
    15
100
AcDbLine
 10
219.8597027118
 20
130.3510603943
 30
0.0
 11
219.4972902705
 21
130.4653285982
 31
0.0
  0
LINE
  5
98
330
1F
100
AcDbEntity
  8
0
  6
Continuous
 62
     7
370
    15
100
AcDbLine
 10
223.0625978507
 20
140.5093459694
 30
0.0
 11
222.7001854095
 21
140.6236141732
 31
0.0
  0
SPLINE
  5
99
330
1F
100
AcDbEntity
  8
0
  6
Continuous
 62
     7
370
    15
100
AcDbSpline
210
0.0
220
0.0
230
1.0
 70
    24
 71
     3
 72
    11
 73
     7
 74
     0
 42
0.00000001
 43
0.00000001
 12
1.0
 22
0.0
 32
0.0
 13
1.0
 23
0.0
 33
0.0
 40
0.0
 40
0.0
 40
0.0
 40
0.0
 40
0.4125701671612936
 40
0.8731537903910336
 40
0.9927012761302825
 40
1.0
 40
1.0
 40
1.0
 40
1.0
 10
231.8013962942085
 20
142.2927539767176
 30
0.0
 10
231.7322196127435
 20
142.2235772952525
 30
0.0
 10
231.585815712424
 20
142.0771733949329
 30
0.0
 10
231.4220228848282
 20
141.9133805673377
 30
0.0
 10
231.3347199168635
 20
141.8260775993724
 30
0.0
 10
231.3162863042167
 20
141.8076439867257
 30
0.0
 10
231.3152256351668
 20
141.8065833176758
 30
0.0
  0
SPLINE
  5
9A
330
1F
100
AcDbEntity
  8
0
  6
Continuous
 62
     7
370
    15
100
AcDbSpline
210
0.0
220
0.0
230
1.0
 70
    24
 71
     3
 72
    11
 73
     7
 74
     0
 42
0.00000001
 43
0.00000001
 12
1.0
 22
0.0
 32
0.0
 13
1.0
 23
0.0
 33
0.0
 40
0.0
 40
0.0
 40
0.0
 40
0.0
 40
0.0072987238691214
 40
0.1268462096078976
 40
0.5874298328382912
 40
0.9999999999999999
 40
0.9999999999999999
 40
0.9999999999999999
 40
0.9999999999999999
 10
221.765360502459
 20
132.2567181849682
 30
0.0
 10
221.7642998334092
 20
132.2556575159184
 30
0.0
 10
221.7458662207619
 20
132.2372239032711
 30
0.0
 10
221.6585632527988
 20
132.1499209353081
 30
0.0
 10
221.4947704252021
 20
131.986128107711
 30
0.0
 10
221.3483665248823
 20
131.8397242073922
 30
0.0
 10
221.2791898434172
 20
131.7705475259275
 30
0.0
  0
LINE
  5
9B
330
1F
100
AcDbEntity
  8
0
  6
Continuous
 62
     7
370
    15
100
AcDbLine
 10
183.6208834258
 20
97.4122411083
 30
0.0
 11
183.6208834258
 21
136.8122411033
 31
0.0
  0
SPLINE
  5
9C
330
1F
100
AcDbEntity
  8
0
  6
Continuous
 62
     7
370
    15
100
AcDbSpline
210
0.0
220
0.0
230
1.0
 70
     8
 71
     3
 72
    12
 73
     8
 74
     0
 42
0.00000001
 43
0.00000001
 12
1.0
 22
0.0
 32
0.0
 13
1.0
 23
0.0
 33
0.0
 40
0.0
 40
0.0
 40
0.0
 40
0.0
 40
0.4999999999999971
 40
0.4999999999999971
 40
0.7499999999999986
 40
0.7499999999999986
 40
1.0
 40
1.0
 40
1.0
 40
1.0
 10
190.2929778066556
 20
123.2504862353599
 30
0.0
 10
190.311671039786
 20
123.1829035989195
 30
0.0
 10
190.3373263371978
 20
123.1164210294421
 30
0.0
 10
190.3974869598843
 20
123.0274259465446
 30
0.0
 10
190.4215592716386
 20
122.9994240495454
 30
0.0
 10
190.4799407919892
 20
122.9563476488802
 30
0.0
 10
190.5154096196422
 20
122.9414541039525
 30
0.0
 10
190.552785427791
 20
122.9414541039525
 30
0.0
  0
LINE
  5
9D
330
1F
100
AcDbEntity
  8
0
  6
Continuous
 62
     7
370
    15
100
AcDbLine
 10
190.5527854278
 20
122.941454104
 30
0.0
 11
192.6889814238
 21
122.941454104
 31
0.0
  0
SPLINE
  5
9E
330
1F
100
AcDbEntity
  8
0
  6
Continuous
 62
     7
370
    15
100
AcDbSpline
210
0.0
220
0.0
230
1.0
 70
     8
 71
     3
 72
    12
 73
     8
 74
     0
 42
0.00000001
 43
0.00000001
 12
1.0
 22
0.0
 32
0.0
 13
1.0
 23
0.0
 33
0.0
 40
0.0
 40
0.0
 40
0.0
 40
0.0
 40
0.2500000000000016
 40
0.2500000000000016
 40
0.5000000000000032
 40
0.5000000000000032
 40
1.0
 40
1.0
 40
1.0
 40
1.0
 10
192.6889814237926
 20
122.9414541039525
 30
0.0
 10
192.7264933098372
 20
122.9414541039525
 30
0.0
 10
192.7617806575419
 20
122.9562589182393
 30
0.0
 10
192.8207105057804
 20
122.9998507913651
 30
0.0
 10
192.8442362322494
 20
123.0273642174511
 30
0.0
 10
192.9044950200175
 20
123.1164959495647
 30
0.0
 10
192.9300897823069
 20
123.1828818001825
 30
0.0
 10
192.9487890449279
 20
123.2504862353599
 30
0.0
  0
ELLIPSE
  5
9F
330
1F
100
AcDbEntity
  8
0
  6
Continuous
 62
     7
370
    15
100
AcDbEllipse
 10
182.6719542534
 20
117.1122411083
 30
0.0
 11
9.367417879781669
 21
19.74174915274991
 31
0.0
210
0.0
220
0.0
230
1.0
 40
0.3419987131
 41
5.185211263708394
 42
6.13211357825255
  0
SPLINE
  5
A0
330
1F
100
AcDbEntity
  8
0
  6
Continuous
 62
     7
370
    15
100
AcDbSpline
210
0.0
220
0.0
230
1.0
 70
     8
 71
     3
 72
    12
 73
     8
 74
     0
 42
0.00000001
 43
0.00000001
 12
1.0
 22
0.0
 32
0.0
 13
1.0
 23
0.0
 33
0.0
 40
0.0
 40
0.0
 40
0.0
 40
0.0
 40
0.5
 40
0.5
 40
0.75
 40
0.75
 40
1.0
 40
1.0
 40
1.0
 40
1.0
 10
192.9487890449279
 20
136.1469973914828
 30
0.0
 10
192.9300958117975
 20
136.1687911451108
 30
0.0
 10
192.9044405143857
 20
136.1898113068204
 30
0.0
 10
192.8442798916992
 20
136.2175166527841
 30
0.0
 10
192.8202075799449
 20
136.2261518689775
 30
0.0
 10
192.7618260595943
 20
136.2393665142041
 30
0.0
 10
192.7263572319413
 20
136.2438974885342
 30
0.0
 10
192.6889814237926
 20
136.2438974885342
 30
0.0
  0
LINE
  5
A1
330
1F
100
AcDbEntity
  8
0
  6
Continuous
 62
     7
370
    15
100
AcDbLine
 10
192.6889814238
 20
136.2438974885
 30
0.0
 11
190.5527854278
 21
136.2438974885
 31
0.0
  0
SPLINE
  5
A2
330
1F
100
AcDbEntity
  8
0
  6
Continuous
 62
     7
370
    15
100
AcDbSpline
210
0.0
220
0.0
230
1.0
 70
     8
 71
     3
 72
    12
 73
     8
 74
     0
 42
0.00000001
 43
0.00000001
 12
1.0
 22
0.0
 32
0.0
 13
1.0
 23
0.0
 33
0.0
 40
0.0
 40
0.0
 40
0.0
 40
0.0
 40
0.2499999999999973
 40
0.2499999999999973
 40
0.4999999999999947
 40
0.4999999999999947
 40
1.0
 40
1.0
 40
1.0
 40
1.0
 10
190.552785427791
 20
136.2438974885342
 30
0.0
 10
190.5152735417463
 20
136.2438974885342
 30
0.0
 10
190.4799861940415
 20
136.2393939442717
 30
0.0
 10
190.4210563458032
 20
136.2260207448184
 30
0.0
 10
190.3975306193341
 20
136.2175358422473
 30
0.0
 10
190.337271831566
 20
136.1897880384127
 30
0.0
 10
190.3116770692767
 20
136.1687981746723
 30
0.0
 10
190.2929778066556
 20
136.1469973914828
 30
0.0
  0
ELLIPSE
  5
A3
330
1F
100
AcDbEntity
  8
0
  6
Continuous
 62
     7
370
    15
100
AcDbEllipse
 10
200.5698125982
 20
117.1122411083
 30
0.0
 11
-9.367417879781556
 21
19.74174915274992
 31
0.0
210
0.0
220
0.0
230
1.0
 40
0.3419987131
 41
0.1510717289270748
 42
1.097974043471207
  0
SPLINE
  5
A4
330
1F
100
AcDbEntity
  8
0
  6
Continuous
 62
     7
370
    15
100
AcDbSpline
210
0.0
220
0.0
230
1.0
 70
     8
 71
     3
 72
    12
 73
     8
 74
     0
 42
0.00000001
 43
0.00000001
 12
1.0
 22
0.0
 32
0.0
 13
1.0
 23
0.0
 33
0.0
 40
0.0
 40
0.0
 40
0.0
 40
0.0
 40
0.5
 40
0.5
 40
0.75
 40
0.75
 40
1.0
 40
1.0
 40
1.0
 40
1.0
 10
190.2929778066556
 20
98.07748482511899
 30
0.0
 10
190.3117810395073
 20
98.05556282685794
 30
0.0
 10
190.3373176985265
 20
98.03466901884799
 30
0.0
 10
190.397543872475
 20
98.00694229273024
 30
0.0
 10
190.4214699498749
 20
97.99836915935478
 30
0.0
 10
190.4795308700562
 20
97.98519005354723
 30
0.0
 10
190.5153325686822
 20
97.98058472806756
 30
0.0
 10
190.552785427791
 20
97.98058472806756
 30
0.0
  0
LINE
  5
A5
330
1F
100
AcDbEntity
  8
0
  6
Continuous
 62
     7
370
    15
100
AcDbLine
 10
190.5527854278
 20
97.9805847281
 30
0.0
 11
192.6889814238
 21
97.9805847281
 31
0.0
  0
SPLINE
  5
A6
330
1F
100
AcDbEntity
  8
0
  6
Continuous
 62
     7
370
    15
100
AcDbSpline
210
0.0
220
0.0
230
1.0
 70
     8
 71
     3
 72
    12
 73
     8
 74
     0
 42
0.00000001
 43
0.00000001
 12
1.0
 22
0.0
 32
0.0
 13
1.0
 23
0.0
 33
0.0
 40
0.0
 40
0.0
 40
0.0
 40
0.0
 40
0.2500000000000012
 40
0.2500000000000012
 40
0.5000000000000023
 40
0.5000000000000023
 40
1.0
 40
1.0
 40
1.0
 40
1.0
 10
192.6889814237926
 20
97.98058472806756
 30
0.0
 10
192.7264822466703
 20
97.98058472806756
 30
0.0
 10
192.7617606507063
 20
97.98508569593072
 30
0.0
 10
192.8206783707587
 20
97.99845221714804
 30
0.0
 10
192.8442017521571
 20
98.00693347739288
 30
0.0
 10
192.904457336623
 20
98.03467087307078
 30
0.0
 10
192.9299789890341
 20
98.05555487212384
 30
0.0
 10
192.9487890449279
 20
98.07748482511899
 30
0.0
  0
ELLIPSE
  5
A7
330
1F
100
AcDbEntity
  8
0
  6
Continuous
 62
     7
370
    15
100
AcDbEllipse
 10
182.6719542534
 20
117.1122411083
 30
0.0
 11
-9.367417879781813
 21
19.74174915274992
 31
0.0
210
0.0
220
0.0
230
1.0
 40
0.3419987131
 41
3.292664382516889
 42
4.239566697060996
  0
SPLINE
  5
A8
330
1F
100
AcDbEntity
  8
0
  6
Continuous
 62
     7
370
    15
100
AcDbSpline
210
0.0
220
0.0
230
1.0
 70
     8
 71
     3
 72
    12
 73
     8
 74
     0
 42
0.00000001
 43
0.00000001
 12
1.0
 22
0.0
 32
0.0
 13
1.0
 23
0.0
 33
0.0
 40
0.0
 40
0.0
 40
0.0
 40
0.0
 40
0.4999999999999977
 40
0.4999999999999977
 40
0.7499999999999988
 40
0.7499999999999988
 40
1.0
 40
1.0
 40
1.0
 40
1.0
 10
192.9487890449279
 20
110.9739959812418
 30
0.0
 10
192.9299858120762
 20
111.0419763055042
 30
0.0
 10
192.904449153057
 20
111.108066693301
 30
0.0
 10
192.8442229791086
 20
111.1971313057481
 30
0.0
 10
192.8202969017086
 20
111.2249323927681
 30
0.0
 10
192.7622359815273
 20
111.2678914659929
 30
0.0
 10
192.7264342829013
 20
111.2830281126492
 30
0.0
 10
192.6889814237926
 20
111.2830281126492
 30
0.0
  0
LINE
  5
A9
330
1F
100
AcDbEntity
  8
0
  6
Continuous
 62
     7
370
    15
100
AcDbLine
 10
192.6889814238
 20
111.2830281126
 30
0.0
 11
190.5527854278
 21
111.2830281126
 31
0.0
  0
SPLINE
  5
AA
330
1F
100
AcDbEntity
  8
0
  6
Continuous
 62
     7
370
    15
100
AcDbSpline
210
0.0
220
0.0
230
1.0
 70
     8
 71
     3
 72
    12
 73
     8
 74
     0
 42
0.00000001
 43
0.00000001
 12
1.0
 22
0.0
 32
0.0
 13
1.0
 23
0.0
 33
0.0
 40
0.0
 40
0.0
 40
0.0
 40
0.0
 40
0.2499999999999997
 40
0.2499999999999997
 40
0.4999999999999993
 40
0.4999999999999993
 40
1.0
 40
1.0
 40
1.0
 40
1.0
 10
190.552785427791
 20
111.2830281126492
 30
0.0
 10
190.5152846049132
 20
111.2830281126492
 30
0.0
 10
190.4800062008772
 20
111.2682317748961
 30
0.0
 10
190.4210884808248
 20
111.224661513737
 30
0.0
 10
190.3975650994265
 20
111.1971597152354
 30
0.0
 10
190.3373095149605
 20
111.1080605519924
 30
0.0
 10
190.3117878625494
 20
111.04200097321
 30
0.0
 10
190.2929778066556
 20
110.9739959812418
 30
0.0
  0
ELLIPSE
  5
AB
330
1F
100
AcDbEntity
  8
0
  6
Continuous
 62
     7
370
    15
100
AcDbEllipse
 10
200.5698125982
 20
117.1122411083
 30
0.0
 11
9.367417879781669
 21
19.74174915274991
 31
0.0
210
0.0
220
0.0
230
1.0
 40
0.3419987131
 41
2.0436186101186
 42
2.990520924662737
  0
SPLINE
  5
AC
330
1F
100
AcDbEntity
  8
0
  6
Continuous
 62
     7
370
    15
100
AcDbSpline
210
0.0
220
0.0
230
1.0
 70
     8
 71
     3
 72
     8
 73
     4
 74
     0
 42
0.00000001
 43
0.00000001
 12
1.0
 22
0.0
 32
0.0
 13
1.0
 23
0.0
 33
0.0
 40
0.0
 40
0.0
 40
0.0
 40
0.0
 40
1.0
 40
1.0
 40
1.0
 40
1.0
 10
205.4620043551437
 20
137.1100955773507
 30
0.0
 10
205.5185282081785
 20
137.1131857421591
 30
0.0
 10
205.6615348694309
 20
137.1122654973911
 30
0.0
 10
205.8535564378128
 20
137.111207344062
 30
0.0
  0
ELLIPSE
  5
AD
330
1F
100
AcDbEntity
  8
0
  6
Continuous
 62
     7
370
    15
100
AcDbEllipse
 10
205.5404986681
 20
117.1122411083
 30
0.0
 11
0.0
 21
19.99999999999997
 31
0.0
210
0.0
220
0.0
230
1.0
 40
0.2679491924
 41
0.0146477619867487
 42
3.126944891603044
  0
SPLINE
  5
AE
330
1F
100
AcDbEntity
  8
0
  6
Continuous
 62
     7
370
    15
100
AcDbSpline
210
0.0
220
0.0
230
1.0
 70
     8
 71
     3
 72
     8
 73
     4
 74
     0
 42
0.00000001
 43
0.00000001
 12
1.0
 22
0.0
 32
0.0
 13
1.0
 23
0.0
 33
0.0
 40
0.0
 40
0.0
 40
0.0
 40
0.0
 40
1.0
 40
1.0
 40
1.0
 40
1.0
 10
205.8535564378128
 20
97.11327487253993
 30
0.0
 10
205.6615339935628
 20
97.1122167143843
 30
0.0
 10
205.5185284725306
 20
97.11129645999061
 30
0.0
 10
205.4620043551437
 20
97.11438663925121
 30
0.0
  0
ELLIPSE
  5
AF
330
1F
100
AcDbEntity
  8
0
  6
Continuous
 62
     7
370
    15
100
AcDbEllipse
 10
203.0239893746
 20
124.8563193981
 30
0.0
 11
0.2087075081668388
 21
2.574926492787668
 31
0.0
210
0.0
220
0.0
230
1.0
 40
0.2355197223
 41
0.0
 42
6.283185307179586
  0
SPLINE
  5
B0
330
1F
100
AcDbEntity
  8
0
  6
Continuous
 62
     7
370
    15
100
AcDbSpline
210
0.0
220
0.0
230
1.0
 70
     8
 71
     3
 72
    18
 73
    14
 74
     0
 42
0.00000001
 43
0.00000001
 12
1.0
 22
0.0
 32
0.0
 13
1.0
 23
0.0
 33
0.0
 40
0.0
 40
0.0
 40
0.0
 40
0.0
 40
0.25
 40
0.25
 40
0.5
 40
0.5
 40
0.625
 40
0.625
 40
0.75
 40
0.75
 40
0.875
 40
0.875
 40
1.0
 40
1.0
 40
1.0
 40
1.0
 10
182.3647991082277
 20
103.2810527256221
 30
0.0
 10
182.3990959276796
 20
103.2801910701402
 30
0.0
 10
182.4369072076567
 20
103.2804426732352
 30
0.0
 10
182.5234795748367
 20
103.282841185847
 30
0.0
 10
182.5718187049196
 20
103.2850121705789
 30
0.0
 10
182.6610910622421
 20
103.2891070488742
 30
0.0
 10
182.693632528018
 20
103.2906116668238
 30
0.0
 10
182.7698087278714
 20
103.2935747247919
 30
0.0
 10
182.813024787866
 20
103.2950620630477
 30
0.0
 10
182.918714089832
 20
103.2966874743714
 30
0.0
 10
182.9836851485465
 20
103.2966452332975
 30
0.0
 10
183.1173455369043
 20
103.2926230599764
 30
0.0
 10
183.1766519902405
 20
103.2890818331529
 30
0.0
 10
183.2259065369165
 20
103.2855151257168
 30
0.0
  0
SPLINE
  5
B1
330
1F
100
AcDbEntity
  8
0
  6
Continuous
 62
     7
370
    15
100
AcDbSpline
210
0.0
220
0.0
230
1.0
 70
     8
 71
     3
 72
    14
 73
    10
 74
     0
 42
0.00000001
 43
0.00000001
 12
1.0
 22
0.0
 32
0.0
 13
1.0
 23
0.0
 33
0.0
 40
0.0
 40
0.0
 40
0.0
 40
0.0
 40
0.1249999999999991
 40
0.1249999999999991
 40
0.2499999999999981
 40
0.2499999999999981
 40
0.4999999999999984
 40
0.4999999999999984
 40
1.0
 40
1.0
 40
1.0
 40
1.0
 10
183.2259065368857
 20
103.2855151257358
 30
0.0
 10
183.237433314603
 20
103.2846804283018
 30
0.0
 10
183.2507861222554
 20
103.2829400140216
 30
0.0
 10
183.2809286948556
 20
103.2756924240213
 30
0.0
 10
183.2959892204701
 20
103.2703453897934
 30
0.0
 10
183.3313355743984
 20
103.254598119565
 30
0.0
 10
183.3450676741274
 20
103.2447598454037
 30
0.0
 10
183.3784389198185
 20
103.2185558594532
 30
0.0
 10
183.3893792876725
 20
103.2044679580526
 30
0.0
 10
183.3980324126857
 20
103.1916943345643
 30
0.0
  0
LINE
  5
B2
330
1F
100
AcDbEntity
  8
0
  6
Continuous
 62
     7
370
    15
100
AcDbLine
 10
183.4208834258
 20
111.6067963413
 30
0.0
 11
183.4208834258
 21
103.0224208294
 31
0.0
  0
SPLINE
  5
B3
330
1F
100
AcDbEntity
  8
0
  6
Continuous
 62
     7
370
    15
100
AcDbSpline
210
0.0
220
0.0
230
1.0
 70
     8
 71
     3
 72
    16
 73
    12
 74
     0
 42
0.00000001
 43
0.00000001
 12
1.0
 22
0.0
 32
0.0
 13
1.0
 23
0.0
 33
0.0
 40
0.0
 40
0.0
 40
0.0
 40
0.0
 40
0.4999999999999983
 40
0.4999999999999983
 40
0.749999999999999
 40
0.749999999999999
 40
0.8749999999999996
 40
0.8749999999999996
 40
0.9374999999999998
 40
0.9374999999999998
 40
1.0
 40
1.0
 40
1.0
 40
1.0
 10
183.4208834257918
 20
111.606796341338
 30
0.0
 10
183.4208834257918
 20
111.7243717223575
 30
0.0
 10
183.4170000006328
 20
111.8430674754588
 30
0.0
 10
183.3921846753582
 20
112.0238249534512
 30
0.0
 10
183.3813452276457
 20
112.0854690302242
 30
0.0
 10
183.3481294455969
 20
112.1748060045655
 30
0.0
 10
183.3347477019681
 20
112.2050655359906
 30
0.0
 10
183.2992380521058
 20
112.238581779978
 30
0.0
 10
183.2838210856051
 20
112.2467201257841
 30
0.0
 10
183.2521200634565
 20
112.2467047163528
 30
0.0
 10
183.2379737785056
 20
112.2396624789969
 30
0.0
 10
183.225906536916
 20
112.2305214153873
 30
0.0
  0
SPLINE
  5
B4
330
1F
100
AcDbEntity
  8
0
  6
Continuous
 62
     7
370
    15
100
AcDbSpline
210
0.0
220
0.0
230
1.0
 70
     8
 71
     3
 72
    18
 73
    14
 74
     0
 42
0.00000001
 43
0.00000001
 12
1.0
 22
0.0
 32
0.0
 13
1.0
 23
0.0
 33
0.0
 40
0.0
 40
0.0
 40
0.0
 40
0.0
 40
0.125
 40
0.125
 40
0.25
 40
0.25
 40
0.375
 40
0.375
 40
0.5
 40
0.5
 40
0.75
 40
0.75
 40
1.0
 40
1.0
 40
1.0
 40
1.0
 10
183.2259065369222
 20
112.2305214153801
 30
0.0
 10
183.1772019532342
 20
112.1936271761895
 30
0.0
 10
183.1186934704587
 20
112.1640958717635
 30
0.0
 10
182.9869666551889
 20
112.1548598984847
 30
0.0
 10
182.9222085836914
 20
112.1779230730417
 30
0.0
 10
182.8169979815407
 20
112.2454411946891
 30
0.0
 10
182.7737818330205
 20
112.2884522913396
 30
0.0
 10
182.6976035169366
 20
112.3786943133357
 30
0.0
 10
182.6647486846454
 20
112.426325194811
 30
0.0
 10
182.5743807786844
 20
112.5733894941606
 30
0.0
 10
182.5249581208448
 20
112.6773028194651
 30
0.0
 10
182.4373069952532
 20
112.8884367831055
 30
0.0
 10
182.3992454478627
 20
112.9961595278643
 30
0.0
 10
182.3647991082288
 20
113.1054926437737
 30
0.0
  0
SPLINE
  5
B5
330
1F
100
AcDbEntity
  8
0
  6
Continuous
 62
     7
370
    15
100
AcDbSpline
210
0.0
220
0.0
230
1.0
 70
     8
 71
     3
 72
     8
 73
     4
 74
     0
 42
0.00000001
 43
0.00000001
 12
1.0
 22
0.0
 32
0.0
 13
1.0
 23
0.0
 33
0.0
 40
0.0
 40
0.0
 40
0.0
 40
0.0
 40
1.0
 40
1.0
 40
1.0
 40
1.0
 10
182.2995630822321
 20
113.3406964179025
 30
0.0
 10
182.318989287531
 20
113.2611041463297
 30
0.0
 10
182.3404861119594
 20
113.182662400197
 30
0.0
 10
182.3647991082288
 20
113.1054926437737
 30
0.0
  0
SPLINE
  5
B6
330
1F
100
AcDbEntity
  8
0
  6
Continuous
 62
     7
370
    15
100
AcDbSpline
210
0.0
220
0.0
230
1.0
 70
     8
 71
     3
 72
     8
 73
     4
 74
     0
 42
0.00000001
 43
0.00000001
 12
1.0
 22
0.0
 32
0.0
 13
1.0
 23
0.0
 33
0.0
 40
0.0
 40
0.0
 40
0.0
 40
0.0
 40
1.0
 40
1.0
 40
1.0
 40
1.0
 10
182.3647991082288
 20
121.1189895728282
 30
0.0
 10
182.3404861119594
 20
121.0418198164049
 30
0.0
 10
182.318989287531
 20
120.9633780702721
 30
0.0
 10
182.2995630822321
 20
120.8837857986994
 30
0.0
  0
SPLINE
  5
B7
330
1F
100
AcDbEntity
  8
0
  6
Continuous
 62
     7
370
    15
100
AcDbSpline
210
0.0
220
0.0
230
1.0
 70
     8
 71
     3
 72
    18
 73
    14
 74
     0
 42
0.00000001
 43
0.00000001
 12
1.0
 22
0.0
 32
0.0
 13
1.0
 23
0.0
 33
0.0
 40
0.0
 40
0.0
 40
0.0
 40
0.0
 40
0.2499999999999999
 40
0.2499999999999999
 40
0.4999999999999998
 40
0.4999999999999998
 40
0.6249999999999998
 40
0.6249999999999998
 40
0.7499999999999999
 40
0.7499999999999999
 40
0.8749999999999999
 40
0.8749999999999999
 40
1.0
 40
1.0
 40
1.0
 40
1.0
 10
182.3647991082288
 20
121.1189895728282
 30
0.0
 10
182.3990974272415
 20
121.2278528694212
 30
0.0
 10
182.4369118245534
 20
121.3348602926575
 30
0.0
 10
182.523499885627
 20
121.5438951167959
 30
0.0
 10
182.5718499913056
 20
121.6460652107854
 30
0.0
 10
182.6611665801054
 20
121.7927459823501
 30
0.0
 10
182.6937269355937
 20
121.8405476808857
 30
0.0
 10
182.7699725693226
 20
121.9321032189111
 30
0.0
 10
182.8131319391026
 20
121.975782610903
 30
0.0
 10
182.9188607631207
 20
122.0451368282296
 30
0.0
 10
182.9838579401754
 20
122.0692531418955
 30
0.0
 10
183.1173424301296
 20
122.0610489198573
 30
0.0
 10
183.1766698235751
 20
122.0312581342653
 30
0.0
 10
183.2259065369165
 20
121.9939608012143
 30
0.0
  0
SPLINE
  5
B8
330
1F
100
AcDbEntity
  8
0
  6
Continuous
 62
     7
370
    15
100
AcDbSpline
210
0.0
220
0.0
230
1.0
 70
     8
 71
     3
 72
    16
 73
    12
 74
     0
 42
0.00000001
 43
0.00000001
 12
1.0
 22
0.0
 32
0.0
 13
1.0
 23
0.0
 33
0.0
 40
0.0
 40
0.0
 40
0.0
 40
0.0
 40
0.0625000000000005
 40
0.0625000000000005
 40
0.125000000000001
 40
0.125000000000001
 40
0.2500000000000022
 40
0.2500000000000022
 40
0.5000000000000014
 40
0.5000000000000014
 40
1.0
 40
1.0
 40
1.0
 40
1.0
 10
183.2259065368857
 20
121.9939608011659
 30
0.0
 10
183.2379763701615
 20
121.9848177743201
 30
0.0
 10
183.2522520250948
 20
121.9777733266288
 30
0.0
 10
183.2837164372193
 20
121.9777662547303
 30
0.0
 10
183.2992169620296
 20
121.9858942235272
 30
0.0
 10
183.3346558586366
 20
122.0193026845344
 30
0.0
 10
183.3482484747399
 20
122.0499698509965
 30
0.0
 10
183.3812427931327
 20
122.1387908450784
 30
0.0
 10
183.3920301864515
 20
122.1996934906262
 30
0.0
 10
183.4170834337307
 20
122.3817015680046
 30
0.0
 10
183.4208834257919
 20
122.5003902830432
 30
0.0
 10
183.4208834257919
 20
122.6176858752638
 30
0.0
  0
LINE
  5
B9
330
1F
100
AcDbEntity
  8
0
  6
Continuous
 62
     7
370
    15
100
AcDbLine
 10
183.4208834258
 20
131.2020613872
 30
0.0
 11
183.4208834258
 21
122.6176858753
 31
0.0
  0
SPLINE
  5
BA
330
1F
100
AcDbEntity
  8
0
  6
Continuous
 62
     7
370
    15
100
AcDbSpline
210
0.0
220
0.0
230
1.0
 70
     8
 71
     3
 72
    14
 73
    10
 74
     0
 42
0.00000001
 43
0.00000001
 12
1.0
 22
0.0
 32
0.0
 13
1.0
 23
0.0
 33
0.0
 40
0.0
 40
0.0
 40
0.0
 40
0.0
 40
0.5000000000000016
 40
0.5000000000000016
 40
0.7500000000000023
 40
0.7500000000000023
 40
0.8750000000000011
 40
0.8750000000000011
 40
1.0
 40
1.0
 40
1.0
 40
1.0
 10
183.4133475575605
 20
131.0613368761128
 30
0.0
 10
183.4075676570003
 20
131.0468182303291
 30
0.0
 10
183.3989771486638
 20
131.0301405493252
 30
0.0
 10
183.3682753330704
 20
130.9979548735429
 30
0.0
 10
183.355857798578
 20
130.9861427189836
 30
0.0
 10
183.3208329694504
 20
130.9652422842022
 30
0.0
 10
183.3051561724579
 20
130.9571703694985
 30
0.0
 10
183.2637041982565
 20
130.9436600477393
 30
0.0
 10
183.2422206706302
 20
130.9401484588187
 30
0.0
 10
183.225906536916
 20
130.938967090885
 30
0.0
  0
SPLINE
  5
BB
330
1F
100
AcDbEntity
  8
0
  6
Continuous
 62
     7
370
    15
100
AcDbSpline
210
0.0
220
0.0
230
1.0
 70
     8
 71
     3
 72
    18
 73
    14
 74
     0
 42
0.00000001
 43
0.00000001
 12
1.0
 22
0.0
 32
0.0
 13
1.0
 23
0.0
 33
0.0
 40
0.0
 40
0.0
 40
0.0
 40
0.0
 40
0.125
 40
0.125
 40
0.2500000000000001
 40
0.2500000000000001
 40
0.3750000000000001
 40
0.3750000000000001
 40
0.5000000000000001
 40
0.5000000000000001
 40
0.75
 40
0.75
 40
1.0
 40
1.0
 40
1.0
 40
1.0
 10
183.2259065369222
 20
130.9389670908849
 30
0.0
 10
183.1772024079054
 20
130.9354402412667
 30
0.0
 10
183.1186947387009
 20
130.931939968069
 30
0.0
 10
182.98696907607
 20
130.9278969841811
 30
0.0
 10
182.9222114374497
 20
130.9277854095505
 30
0.0
 10
182.8170010208306
 20
130.929317594312
 30
0.0
 10
182.7737849858904
 20
130.9307727465271
 30
0.0
 10
182.6976067644095
 20
130.9336980080568
 30
0.0
 10
182.6647519967254
 20
130.935208338565
 30
0.0
 10
182.5743842778835
 20
130.9393503312534
 30
0.0
 10
182.5249619086941
 20
130.9415884162399
 30
0.0
 10
182.4373094466061
 20
130.9440396992863
 30
0.0
 10
182.3992467103717
 20
130.9442949346474
 30
0.0
 10
182.3647991082283
 20
130.9434294909795
 30
0.0
  0
SPLINE
  5
BC
330
1F
100
AcDbEntity
  8
0
  6
Continuous
 62
     7
370
    15
100
AcDbSpline
210
0.0
220
0.0
230
1.0
 70
     8
 71
     3
 72
     8
 73
     4
 74
     0
 42
0.00000001
 43
0.00000001
 12
1.0
 22
0.0
 32
0.0
 13
1.0
 23
0.0
 33
0.0
 40
0.0
 40
0.0
 40
0.0
 40
0.0
 40
1.0
 40
1.0
 40
1.0
 40
1.0
 10
182.1258434478524
 20
114.1657503039371
 30
0.0
 10
182.1765705305749
 20
113.8823991826179
 30
0.0
 10
182.234457843562
 20
113.6074429984782
 30
0.0
 10
182.2995630822322
 20
113.3406964179026
 30
0.0
  0
SPLINE
  5
BD
330
1F
100
AcDbEntity
  8
0
  6
Continuous
 62
     7
370
    15
100
AcDbSpline
210
0.0
220
0.0
230
1.0
 70
     8
 71
     3
 72
    24
 73
    20
 74
     0
 42
0.00000001
 43
0.00000001
 12
1.0
 22
0.0
 32
0.0
 13
1.0
 23
0.0
 33
0.0
 40
0.0
 40
0.0
 40
0.0
 40
0.0
 40
0.2499999999999891
 40
0.2499999999999891
 40
0.3749999999999842
 40
0.3749999999999842
 40
0.4374999999999818
 40
0.4374999999999818
 40
0.4687499999999812
 40
0.4687499999999812
 40
0.4999999999999807
 40
0.4999999999999807
 40
0.5624999999999829
 40
0.5624999999999829
 40
0.6249999999999852
 40
0.6249999999999852
 40
0.7499999999999898
 40
0.7499999999999898
 40
1.0
 40
1.0
 40
1.0
 40
1.0
 10
181.9208834257835
 20
114.1660427122304
 30
0.0
 10
181.9212864551574
 20
114.25931100486
 30
0.0
 10
181.9233161948725
 20
114.3530685637089
 30
0.0
 10
181.9326249062923
 20
114.4946584493485
 30
0.0
 10
181.9365508994069
 20
114.5418388679577
 30
0.0
 10
181.9474802593228
 20
114.6124349146431
 30
0.0
 10
181.9516018874172
 20
114.6362148284079
 30
0.0
 10
181.9634964085996
 20
114.6696659754551
 30
0.0
 10
181.9687832205534
 20
114.6818209275247
 30
0.0
 10
181.9853511520683
 20
114.6897035664928
 30
0.0
 10
181.9932778608357
 20
114.6821399673907
 30
0.0
 10
182.0102701990608
 20
114.658347536164
 30
0.0
 10
182.0176678998518
 20
114.6381590583195
 30
0.0
 10
182.0317702901936
 20
114.5977094336997
 30
0.0
 10
182.0379234474859
 20
114.5768537593022
 30
0.0
 10
182.055237180947
 20
114.5137287240012
 30
0.0
 10
182.0652422218355
 20
114.4707496120997
 30
0.0
 10
182.0935986780662
 20
114.3410239678108
 30
0.0
 10
182.1101472174125
 20
114.2534262406748
 30
0.0
 10
182.1258434478525
 20
114.1657503039371
 30
0.0
  0
SPLINE
  5
BE
330
1F
100
AcDbEntity
  8
0
  6
Continuous
 62
     7
370
    15
100
AcDbSpline
210
0.0
220
0.0
230
1.0
 70
     8
 71
     3
 72
    16
 73
    12
 74
     0
 42
0.00000001
 43
0.00000001
 12
1.0
 22
0.0
 32
0.0
 13
1.0
 23
0.0
 33
0.0
 40
0.0
 40
0.0
 40
0.0
 40
0.0
 40
0.25
 40
0.25
 40
0.375
 40
0.375
 40
0.5
 40
0.5
 40
0.75
 40
0.75
 40
1.0
 40
1.0
 40
1.0
 40
1.0
 10
181.9208834257918
 20
120.0584395043703
 30
0.0
 10
181.8403466163963
 20
119.5893666775072
 30
0.0
 10
181.7803092075941
 20
119.1090030273272
 30
0.0
 10
181.7195712603468
 20
118.3718187481863
 30
0.0
 10
181.7042487793039
 20
118.1233003449592
 30
0.0
 10
181.683665827526
 20
117.6205168997455
 30
0.0
 10
181.6784662804895
 20
117.3656583467208
 30
0.0
 10
181.6784125699492
 20
116.6093810070001
 30
0.0
 10
181.6986099072183
 20
116.1107228076903
 30
0.0
 10
181.7792882142913
 20
115.124299836946
 30
0.0
 10
181.8403345626326
 20
114.6351857441731
 30
0.0
 10
181.9208834257918
 20
114.1660427122316
 30
0.0
  0
SPLINE
  5
BF
330
1F
100
AcDbEntity
  8
0
  6
Continuous
 62
     7
370
    15
100
AcDbSpline
210
0.0
220
0.0
230
1.0
 70
     8
 71
     3
 72
    24
 73
    20
 74
     0
 42
0.00000001
 43
0.00000001
 12
1.0
 22
0.0
 32
0.0
 13
1.0
 23
0.0
 33
0.0
 40
0.0
 40
0.0
 40
0.0
 40
0.0
 40
0.2500000000000045
 40
0.2500000000000045
 40
0.3750000000000067
 40
0.3750000000000067
 40
0.4375000000000087
 40
0.4375000000000087
 40
0.5000000000000105
 40
0.5000000000000105
 40
0.53125000000001
 40
0.53125000000001
 40
0.5625000000000094
 40
0.5625000000000094
 40
0.6250000000000082
 40
0.6250000000000082
 40
0.7500000000000057
 40
0.7500000000000057
 40
1.0
 40
1.0
 40
1.0
 40
1.0
 10
182.1258434478526
 20
120.0587319126648
 30
0.0
 10
182.1100744029428
 20
119.9706492491738
 30
0.0
 10
182.0934602383822
 20
119.8827044326643
 30
0.0
 10
182.0649281108888
 20
119.7523570654013
 30
0.0
 10
182.0548404773349
 20
119.7090958875991
 30
0.0
 10
182.037352654486
 20
119.6456601117637
 30
0.0
 10
182.0311428465597
 20
119.62474598822
 30
0.0
 10
182.0168649869773
 20
119.5842711965349
 30
0.0
 10
182.0092938246255
 20
119.5637935530757
 30
0.0
 10
181.9918739994511
 20
119.5409471735388
 30
0.0
 10
181.9833899169964
 20
119.5343953764952
 30
0.0
 10
181.967353843379
 20
119.5449667517219
 30
0.0
 10
181.9625334711012
 20
119.5570577920058
 30
0.0
 10
181.9511265704953
 20
119.5907010352257
 30
0.0
 10
181.9471056087859
 20
119.6141087145225
 30
0.0
 10
181.9363515970066
 20
119.6846973175836
 30
0.0
 10
181.932479711384
 20
119.7316623451061
 30
0.0
 10
181.9233117465831
 20
119.8722392097122
 30
0.0
 10
181.92128341207
 20
119.9658754393317
 30
0.0
 10
181.9208834257918
 20
120.0584395043703
 30
0.0
  0
SPLINE
  5
C0
330
1F
100
AcDbEntity
  8
0
  6
Continuous
 62
     7
370
    15
100
AcDbSpline
210
0.0
220
0.0
230
1.0
 70
     8
 71
     3
 72
     8
 73
     4
 74
     0
 42
0.00000001
 43
0.00000001
 12
1.0
 22
0.0
 32
0.0
 13
1.0
 23
0.0
 33
0.0
 40
0.0
 40
0.0
 40
0.0
 40
0.0
 40
1.0
 40
1.0
 40
1.0
 40
1.0
 10
182.2995630822322
 20
120.8837857986993
 30
0.0
 10
182.234457843562
 20
120.6170392181237
 30
0.0
 10
182.1765705305749
 20
120.342083033984
 30
0.0
 10
182.1258434478524
 20
120.0587319126648
 30
0.0
  0
LINE
  5
C1
330
1F
100
AcDbEntity
  8
0
  6
Continuous
 62
     7
370
    15
100
AcDbLine
 10
181.9208834258
 20
114.1660427122
 30
0.0
 11
181.9208834258
 21
113.0110374428
 31
0.0
  0
LINE
  5
C2
330
1F
100
AcDbEntity
  8
0
  6
Continuous
 62
     7
370
    15
100
AcDbLine
 10
161.1208834258
 20
120.9521605744
 30
0.0
 11
161.1208834258
 21
113.2723216422
 31
0.0
  0
LINE
  5
C3
330
1F
100
AcDbEntity
  8
0
  6
Continuous
 62
     7
370
    15
100
AcDbLine
 10
181.9208834258
 20
121.2134447738
 30
0.0
 11
181.9208834258
 21
120.0584395044
 31
0.0
  0
LINE
  5
C4
330
1F
100
AcDbEntity
  8
0
  6
Continuous
 62
     7
370
    15
100
AcDbLine
 10
159.6208834258
 20
120.5191478725
 30
0.0
 11
159.6208834258
 21
113.7053343441
 31
0.0
  0
LINE
  5
C5
330
1F
100
AcDbEntity
  8
0
  6
Continuous
 62
     7
370
    15
100
AcDbLine
 10
182.1258434479
 20
130.9374260931
 30
0.0
 11
182.3647991082
 21
130.943429491
 31
0.0
  0
LINE
  5
C6
330
1F
100
AcDbEntity
  8
0
  6
Continuous
 62
     7
370
    15
100
AcDbLine
 10
161.1208834258
 20
103.6147107225
 30
0.0
 11
161.1208834258
 21
113.2723216422
 31
0.0
  0
LINE
  5
C7
330
1F
100
AcDbEntity
  8
0
  6
Continuous
 62
     7
370
    15
100
AcDbLine
 10
181.9208834258
 20
103.0921423237
 30
0.0
 11
181.9208834258
 21
113.0110374428
 31
0.0
  0
LINE
  5
C8
330
1F
100
AcDbEntity
  8
0
  6
Continuous
 62
     7
370
    15
100
AcDbLine
 10
161.1208834258
 20
103.6147107225
 30
0.0
 11
181.9208834258
 21
103.0921423237
 31
0.0
  0
ARC
  5
C9
330
1F
100
AcDbEntity
  8
0
  6
Continuous
 62
     7
370
    15
100
AcDbCircle
 10
182.1208203367
 20
103.0871192126
 30
0.0
 40
0.2000000000000059
100
AcDbArc
 50
88.5608333333
 51
178.5608333333
  0
LINE
  5
CA
330
1F
100
AcDbEntity
  8
0
  6
Continuous
 62
     7
370
    15
100
AcDbLine
 10
181.9208834258
 20
121.2134447738
 30
0.0
 11
181.9208834258
 21
131.1323398929
 31
0.0
  0
ARC
  5
CB
330
1F
100
AcDbEntity
  8
0
  6
Continuous
 62
     7
370
    15
100
AcDbCircle
 10
182.1208203367
 20
131.137363004
 30
0.0
 40
0.2000000000000336
100
AcDbArc
 50
181.4391666667
 51
271.4391666667
  0
LINE
  5
CC
330
1F
100
AcDbEntity
  8
0
  6
Continuous
 62
     7
370
    15
100
AcDbLine
 10
161.1208834258
 20
120.9521605744
 30
0.0
 11
161.1208834258
 21
130.6097714941
 31
0.0
  0
LINE
  5
CD
330
1F
100
AcDbEntity
  8
0
  6
Continuous
 62
     7
370
    15
100
AcDbLine
 10
161.1208834258
 20
130.6097714941
 30
0.0
 11
181.9208834258
 21
131.1323398929
 31
0.0
  0
LINE
  5
CE
330
1F
100
AcDbEntity
  8
0
  6
Continuous
 62
     7
370
    15
100
AcDbLine
 10
182.1258434479
 20
103.2870561235
 30
0.0
 11
182.3647991082
 21
103.2810527256
 31
0.0
  0
LINE
  5
CF
330
1F
100
AcDbEntity
  8
0
  6
Continuous
 62
     7
370
    15
100
AcDbLine
 10
159.6208834258
 20
104.4807361262
 30
0.0
 11
161.1208834258
 21
103.6147107225
 31
0.0
  0
LINE
  5
D0
330
1F
100
AcDbEntity
  8
0
  6
Continuous
 62
     7
370
    15
100
AcDbLine
 10
159.6208834258
 20
104.4807361262
 30
0.0
 11
159.6208834258
 21
113.7053343441
 31
0.0
  0
LINE
  5
D1
330
1F
100
AcDbEntity
  8
0
  6
Continuous
 62
     7
370
    15
100
AcDbLine
 10
159.6208834258
 20
129.7437460904
 30
0.0
 11
161.1208834258
 21
130.6097714941
 31
0.0
  0
LINE
  5
D2
330
1F
100
AcDbEntity
  8
0
  6
Continuous
 62
     7
370
    15
100
AcDbLine
 10
159.6208834258
 20
120.5191478725
 30
0.0
 11
159.6208834258
 21
129.7437460904
 31
0.0
  0
SPLINE
  5
D3
330
1F
100
AcDbEntity
  8
0
  6
Continuous
 62
     7
370
    15
100
AcDbSpline
210
0.0
220
0.0
230
1.0
 70
     8
 71
     3
 72
     8
 73
     4
 74
     0
 42
0.00000001
 43
0.00000001
 12
1.0
 22
0.0
 32
0.0
 13
1.0
 23
0.0
 33
0.0
 40
0.0
 40
0.0
 40
0.0
 40
0.0
 40
1.0
 40
1.0
 40
1.0
 40
1.0
 10
205.8535564378128
 20
137.111207344062
 30
0.0
 10
205.9737669011428
 20
137.110544912737
 30
0.0
 10
206.1083102246809
 20
137.1333647454487
 30
0.0
 10
206.234745016175
 20
137.1855021398254
 30
0.0
  0
SPLINE
  5
D4
330
1F
100
AcDbEntity
  8
0
  6
Continuous
 62
     7
370
    15
100
AcDbSpline
210
0.0
220
0.0
230
1.0
 70
     8
 71
     3
 72
     8
 73
     4
 74
     0
 42
0.00000001
 43
0.00000001
 12
1.0
 22
0.0
 32
0.0
 13
1.0
 23
0.0
 33
0.0
 40
0.0
 40
0.0
 40
0.0
 40
0.0
 40
1.0
 40
1.0
 40
1.0
 40
1.0
 10
206.2347450161749
 20
97.03898007676588
 30
0.0
 10
206.1083330599309
 20
97.09110805466506
 30
0.0
 10
205.9737924060794
 20
97.11393744442108
 30
0.0
 10
205.8535564378084
 20
97.11327487254815
 30
0.0
  0
LINE
  5
D5
330
1F
100
AcDbEntity
  8
0
  6
Continuous
 62
     7
370
    15
100
AcDbLine
 10
220.3740316679
 20
133.3125072474
 30
0.0
 11
218.1666264896
 21
132.6165150682
 31
0.0
  0
ARC
  5
D6
330
1F
100
AcDbEntity
  8
0
  6
Continuous
 62
     7
370
    15
100
AcDbCircle
 10
218.6226295431
 20
131.1702581538
 30
0.0
 40
1.516442497159277
100
AcDbArc
 50
107.5
 51
287.5
  0
LINE
  5
D7
330
1F
100
AcDbEntity
  8
0
  6
Continuous
 62
     7
370
    15
100
AcDbLine
 10
219.0786325966
 20
129.7240012394
 30
0.0
 11
219.8078879603
 21
129.9539345724
 31
0.0
  0
LINE
  5
D8
330
1F
100
AcDbEntity
  8
0
  6
Continuous
 62
     7
370
    15
100
AcDbLine
 10
230.0611189309
 20
133.148142923
 30
0.0
 11
218.5420854945
 21
96.6144363478
 31
0.0
  0
LINE
  5
D9
330
1F
100
AcDbEntity
  8
0
  6
Continuous
 62
     7
370
    15
100
AcDbLine
 10
218.5420854945
 20
96.6144363478
 30
0.0
 11
206.7195818416
 21
96.6144363478
 31
0.0
  0
LINE
  5
DA
330
1F
100
AcDbEntity
  8
0
  6
Continuous
 62
     7
370
    15
100
AcDbLine
 10
206.7782544625
 20
137.7293571619
 30
0.0
 11
211.1039293339
 21
137.7293571619
 31
0.0
  0
ELLIPSE
  5
DB
330
1F
100
AcDbEntity
  8
0
  6
Continuous
 62
     7
370
    15
100
AcDbEllipse
 10
211.1039293339
 20
154.8570241947
 30
0.0
 11
9.947598300641403E-13
 21
17.12766703280042
 31
0.0
210
-7.220939532589563E-15
220
4.193858141091951E-28
230
1.0
 40
0.9925461516
 41
3.141592653589866
 42
3.444886158282798
  0
LINE
  5
DC
330
1F
100
AcDbEntity
  8
0
  6
Continuous
 62
     7
370
    15
100
AcDbLine
 10
216.1812343918
 20
138.5110979291
 30
0.0
 11
222.6569094068
 21
140.5528704185
 31
0.0
  0
SPLINE
  5
DD
330
1F
100
AcDbEntity
  8
0
  6
Continuous
 62
     7
370
    15
100
AcDbSpline
210
0.0
220
0.0
230
1.0
 70
     8
 71
     3
 72
    10
 73
     6
 74
     0
 42
0.00000001
 43
0.00000001
 12
1.0
 22
0.0
 32
0.0
 13
1.0
 23
0.0
 33
0.0
 40
0.0
 40
0.0
 40
0.0
 40
0.0
 40
0.5
 40
0.5
 40
1.0
 40
1.0
 40
1.0
 40
1.0
 10
206.2347450161722
 20
137.1855021398349
 30
0.0
 10
206.3561309468828
 20
137.2355575562789
 30
0.0
 10
206.467587734657
 20
137.3097717894586
 30
0.0
 10
206.6541879114304
 20
137.4965109721582
 30
0.0
 10
206.7278883941112
 20
137.6070084311419
 30
0.0
 10
206.7782544625186
 20
137.7293571619365
 30
0.0
  0
SPLINE
  5
DE
330
1F
100
AcDbEntity
  8
0
  6
Continuous
 62
     7
370
    15
100
AcDbSpline
210
0.0
220
0.0
230
1.0
 70
     8
 71
     3
 72
    10
 73
     6
 74
     0
 42
0.00000001
 43
0.00000001
 12
1.0
 22
0.0
 32
0.0
 13
1.0
 23
0.0
 33
0.0
 40
0.0
 40
0.0
 40
0.0
 40
0.0
 40
0.5
 40
0.5
 40
1.0
 40
1.0
 40
1.0
 40
1.0
 10
206.7195818415973
 20
96.61443634779063
 30
0.0
 10
206.6645252336739
 20
96.7098074028018
 30
0.0
 10
206.5956227044406
 20
96.79374962820037
 30
0.0
 10
206.430202155642
 20
96.93883944319032
 30
0.0
 10
206.3353146957654
 20
96.9975085720856
 30
0.0
 10
206.2347450161749
 20
97.0389800767659
 30
0.0
  0
LINE
  5
DF
330
1F
100
AcDbEntity
  8
0
  6
Continuous
 62
     7
370
    15
100
AcDbLine
 10
218.9985117925
 20
129.9781119653
 30
0.0
 11
219.5167500372
 21
130.1415118563
 31
0.0
  0
LINE
  5
E0
330
1F
100
AcDbEntity
  8
0
  6
Continuous
 62
     7
370
    15
100
AcDbLine
 10
218.2467472937
 20
132.3624043422
 30
0.0
 11
220.2762222262
 21
133.0022953305
 31
0.0
  0
ARC
  5
E1
330
1F
100
AcDbEntity
  8
0
  6
Continuous
 62
     7
370
    15
100
AcDbCircle
 10
218.6226295431
 20
131.1702581538
 30
0.0
 40
1.250000000000012
100
AcDbArc
 50
107.5
 51
287.5
  0
LINE
  5
E2
330
1F
100
AcDbEntity
  8
0
  6
HIDDEN
 62
     7
370
     0
100
AcDbLine
 10
183.6208834258
 20
97.4122411083
 30
0.0
 11
183.6208834258
 21
136.8122411083
 31
0.0
  0
SPLINE
  5
E3
330
1F
100
AcDbEntity
  8
0
  6
HIDDEN
 62
     7
370
     0
100
AcDbSpline
210
0.0
220
0.0
230
1.0
 70
     8
 71
     3
 72
    68
 73
    64
 74
     0
 42
0.00000001
 43
0.00000001
 12
1.0
 22
0.0
 32
0.0
 13
1.0
 23
0.0
 33
0.0
 40
-0.0624999999999994
 40
-0.0624999999999994
 40
0.0
 40
0.0
 40
0.0312500000000003
 40
0.0312500000000003
 40
0.0625000000000006
 40
0.0625000000000006
 40
0.0937500000000009
 40
0.0937500000000009
 40
0.1250000000000011
 40
0.1250000000000011
 40
0.1562500000000014
 40
0.1562500000000014
 40
0.1875000000000017
 40
0.1875000000000017
 40
0.218750000000002
 40
0.218750000000002
 40
0.2500000000000023
 40
0.2500000000000023
 40
0.2812500000000026
 40
0.2812500000000026
 40
0.3125000000000028
 40
0.3125000000000028
 40
0.3437500000000031
 40
0.3437500000000031
 40
0.3750000000000034
 40
0.3750000000000034
 40
0.4062500000000033
 40
0.4062500000000033
 40
0.4375000000000031
 40
0.4375000000000031
 40
0.4687500000000029
 40
0.4687500000000029
 40
0.5000000000000028
 40
0.5000000000000028
 40
0.5312500000000027
 40
0.5312500000000027
 40
0.5625000000000024
 40
0.5625000000000024
 40
0.5937500000000023
 40
0.5937500000000023
 40
0.6250000000000021
 40
0.6250000000000021
 40
0.656250000000002
 40
0.656250000000002
 40
0.6875000000000018
 40
0.6875000000000018
 40
0.7187500000000017
 40
0.7187500000000017
 40
0.7500000000000014
 40
0.7500000000000014
 40
0.7812500000000013
 40
0.7812500000000013
 40
0.8125000000000012
 40
0.8125000000000012
 40
0.843750000000001
 40
0.843750000000001
 40
0.8750000000000009
 40
0.8750000000000009
 40
0.9062500000000007
 40
0.9062500000000007
 40
0.9375000000000006
 40
0.9375000000000006
 40
1.0
 40
1.0
 40
1.03125
 40
1.03125
 10
197.2902129131151
 20
107.9762577367285
 30
0.0
 10
197.7862186821301
 20
107.9762577367285
 30
0.0
 10
197.9487584245527
 20
107.9908116847364
 30
0.0
 10
198.2684856342501
 20
108.0478885432403
 30
0.0
 10
198.4273422108354
 20
108.0911160759658
 30
0.0
 10
198.7300141090644
 20
108.2040919199948
 30
0.0
 10
198.8735419246605
 20
108.2733032588026
 30
0.0
 10
199.1451737036077
 20
108.4372911461132
 30
0.0
 10
199.2736583359308
 20
108.5328637238407
 30
0.0
 10
199.5040150918913
 20
108.7423819927213
 30
0.0
 10
199.6074425918542
 20
108.8570726053654
 30
0.0
 10
199.7902076684094
 20
109.107300848168
 30
0.0
 10
199.8677740441308
 20
109.2408368871335
 30
0.0
 10
199.9925092371271
 20
109.518513939549
 30
0.0
 10
200.0405895804698
 20
109.6647134216191
 30
0.0
 10
200.1048730892812
 20
109.9653279438448
 30
0.0
 10
200.1207924168376
 20
110.1171650214765
 30
0.0
 10
200.1209736640238
 20
110.4239027315986
 30
0.0
 10
200.1047096347433
 20
110.5804147842859
 30
0.0
 10
200.0408694169441
 20
110.8844990436673
 30
0.0
 10
199.9936358723571
 20
111.032973213929
 30
0.0
 10
199.8683307061287
 20
111.3225362476498
 30
0.0
 10
199.7901229285036
 20
111.462894442601
 30
0.0
 10
199.6092710460054
 20
111.723735506586
 30
0.0
 10
199.5058988823456
 20
111.8459465965523
 30
0.0
 10
199.2727623464684
 20
112.0722702280396
 30
0.0
 10
199.146672309484
 20
112.1728509143564
 30
0.0
 10
198.8761301731609
 20
112.3494697735603
 30
0.0
 10
198.7299352125738
 20
112.4261291637817
 30
0.0
 10
198.4273098636241
 20
112.5490596208851
 30
0.0
 10
198.271487365075
 20
112.5955457514388
 30
0.0
 10
197.9508541927965
 20
112.6585134394675
 30
0.0
 10
197.7850490121886
 20
112.6746604356113
 30
0.0
 10
197.4585951960787
 20
112.674780899326
 30
0.0
 10
197.2962555937901
 20
112.6592752557138
 30
0.0
 10
196.9733936061355
 20
112.5964373440668
 30
0.0
 10
196.8156528957103
 20
112.5493933662951
 30
0.0
 10
196.5147005630378
 20
112.4274445670797
 30
0.0
 10
196.369181085098
 20
112.3515790196998
 30
0.0
 10
196.0959778292074
 20
112.1736289219279
 30
0.0
 10
195.9701471812761
 20
112.0730813247875
 30
0.0
 10
195.7394673577002
 20
111.8497329165764
 30
0.0
 10
195.6338498797612
 20
111.7254855156494
 30
0.0
 10
195.4523054924373
 20
111.4640493361389
 30
0.0
 10
195.3753870354438
 20
111.3263225484514
 30
0.0
 10
195.2495592403193
 20
111.0369764962252
 30
0.0
 10
195.2012989710335
 20
110.885791225431
 30
0.0
 10
195.1374242022353
 20
110.5827757973463
 30
0.0
 10
195.1210340417695
 20
110.429318935095
 30
0.0
 10
195.1207348568091
 20
110.1186091554798
 30
0.0
 10
195.1368242257239
 20
109.9665522319755
 30
0.0
 10
195.2001396326385
 20
109.668682253657
 30
0.0
 10
195.2481533001292
 20
109.5213283040741
 30
0.0
 10
195.3734088391391
 20
109.2417856247055
 30
0.0
 10
195.4500792867875
 20
109.1097780122109
 30
0.0
 10
195.6312890710023
 20
108.8607882429769
 30
0.0
 10
195.7366521170896
 20
108.7435260274083
 30
0.0
 10
195.9668337354038
 20
108.533880793378
 30
0.0
 10
196.0924990752796
 20
108.4400576746068
 30
0.0
 10
196.3656273097249
 20
108.2745837299522
 30
0.0
 10
196.5107470444448
 20
108.204608268579
 30
0.0
 10
196.9616972946978
 20
108.0358657354181
 30
0.0
 10
197.2902129131151
 20
107.9762577367285
 30
0.0
 10
197.7862186821301
 20
107.9762577367285
 30
0.0
  0
SPLINE
  5
E4
330
1F
100
AcDbEntity
  8
0
  6
HIDDEN
 62
     7
370
     0
100
AcDbSpline
210
0.0
220
0.0
230
1.0
 70
     8
 71
     3
 72
    58
 73
    54
 74
     0
 42
0.00000001
 43
0.00000001
 12
1.0
 22
0.0
 32
0.0
 13
1.0
 23
0.0
 33
0.0
 40
-0.0625000000000003
 40
-0.0625000000000003
 40
0.0
 40
0.0
 40
0.0312500000000001
 40
0.0312500000000001
 40
0.0625000000000002
 40
0.0625000000000002
 40
0.0937500000000002
 40
0.0937500000000002
 40
0.1250000000000002
 40
0.1250000000000002
 40
0.1875
 40
0.1875
 40
0.2499999999999998
 40
0.2499999999999998
 40
0.2812499999999997
 40
0.2812499999999997
 40
0.3124999999999997
 40
0.3124999999999997
 40
0.3437499999999996
 40
0.3437499999999996
 40
0.3749999999999994
 40
0.3749999999999994
 40
0.4062499999999994
 40
0.4062499999999994
 40
0.4374999999999993
 40
0.4374999999999993
 40
0.4687499999999992
 40
0.4687499999999992
 40
0.4999999999999991
 40
0.4999999999999991
 40
0.5624999999999989
 40
0.5624999999999989
 40
0.6249999999999988
 40
0.6249999999999988
 40
0.6562499999999988
 40
0.6562499999999988
 40
0.6874999999999989
 40
0.6874999999999989
 40
0.718749999999999
 40
0.718749999999999
 40
0.749999999999999
 40
0.749999999999999
 40
0.7812499999999991
 40
0.7812499999999991
 40
0.8124999999999992
 40
0.8124999999999992
 40
0.8437499999999993
 40
0.8437499999999993
 40
0.8749999999999993
 40
0.8749999999999993
 40
0.9374999999999997
 40
0.9374999999999997
 40
1.0
 40
1.0
 40
1.03125
 40
1.03125
 10
197.6208834257918
 20
116.8478049938529
 30
0.0
 10
197.6208834257918
 20
117.244459165525
 30
0.0
 10
197.6079013881196
 20
117.3744513263655
 30
0.0
 10
197.5570505858612
 20
117.6301709388177
 30
0.0
 10
197.5185586818083
 20
117.7572296226789
 30
0.0
 10
197.4181433960819
 20
117.9993928203377
 30
0.0
 10
197.3567072568088
 20
118.1142346047224
 30
0.0
 10
197.211573780498
 20
118.3315768022926
 30
0.0
 10
197.1271520916469
 20
118.4344184501403
 30
0.0
 10
196.8505519174821
 20
118.7109619308919
 30
0.0
 10
196.627553006215
 20
118.8599445670241
 30
0.0
 10
196.1463184886293
 20
119.0594876305788
 30
0.0
 10
195.8830190731203
 20
119.1120981036102
 30
0.0
 10
195.4914556330801
 20
119.1123121623627
 30
0.0
 10
195.3588680224753
 20
119.0993133129571
 30
0.0
 10
195.1023023168761
 20
119.0482632289308
 30
0.0
 10
194.9775925506956
 20
119.0104919901186
 30
0.0
 10
194.7353533656685
 20
118.9103000820061
 30
0.0
 10
194.6183367118948
 20
118.8477146881816
 30
0.0
 10
194.4016935070485
 20
118.703009602471
 30
0.0
 10
194.3006867505901
 20
118.6203902610908
 30
0.0
 10
194.1138806549335
 20
118.4337462263008
 30
0.0
 10
194.0311671194016
 20
118.3328003783409
 30
0.0
 10
193.8862969900263
 20
118.1163191746592
 30
0.0
 10
193.8236266939296
 20
117.9994020096507
 30
0.0
 10
193.7231987558934
 20
117.7572055404523
 30
0.0
 10
193.6853275769637
 20
117.6325445495488
 30
0.0
 10
193.634065179188
 20
117.3761452004808
 30
0.0
 10
193.6209315385473
 20
117.2435342751829
 30
0.0
 10
193.6207876054085
 20
116.8518596628478
 30
0.0
 10
193.6731528626732
 20
116.5885756431872
 30
0.0
 10
193.8723135260239
 20
116.1070629293274
 30
0.0
 10
194.0211111993859
 20
115.8839418422825
 30
0.0
 10
194.297411857972
 20
115.6071096937749
 30
0.0
 10
194.4001769050318
 20
115.5226024794907
 30
0.0
 10
194.6173941788262
 20
115.3772815378048
 30
0.0
 10
194.732163872264
 20
115.3157593145427
 30
0.0
 10
194.9741504094086
 20
115.2151629112707
 30
0.0
 10
195.1012329823
 20
115.1765350231821
 30
0.0
 10
195.3569076823032
 20
115.1254569131159
 30
0.0
 10
195.4868481996474
 20
115.1123677733487
 30
0.0
 10
195.7511115674087
 20
115.1121162549902
 30
0.0
 10
195.8813224610556
 20
115.1249907250465
 30
0.0
 10
196.1370724064893
 20
115.1756096221786
 30
0.0
 10
196.2640897908566
 20
115.2139574409744
 30
0.0
 10
196.5064415186083
 20
115.3141915611677
 30
0.0
 10
196.6213442978947
 20
115.3755357481578
 30
0.0
 10
196.8387664630437
 20
115.5204407526869
 30
0.0
 10
196.9417028604884
 20
115.6047796448089
 30
0.0
 10
197.2185400176453
 20
115.8811807578507
 30
0.0
 10
197.3676952587094
 20
116.1040243908931
 30
0.0
 10
197.5676658439447
 20
116.5850876721437
 30
0.0
 10
197.6208834257918
 20
116.8478049938529
 30
0.0
 10
197.6208834257918
 20
117.244459165525
 30
0.0
  0
SPLINE
  5
E5
330
1F
100
AcDbEntity
  8
0
  6
HIDDEN
 62
     7
370
     0
100
AcDbSpline
210
0.0
220
0.0
230
1.0
 70
     8
 71
     3
 72
    12
 73
     8
 74
     0
 42
0.00000001
 43
0.00000001
 12
1.0
 22
0.0
 32
0.0
 13
1.0
 23
0.0
 33
0.0
 40
0.0
 40
0.0
 40
0.0
 40
0.0
 40
0.5000000000000021
 40
0.5000000000000021
 40
0.750000000000001
 40
0.750000000000001
 40
1.0
 40
1.0
 40
1.0
 40
1.0
 10
190.2929778066556
 20
110.9739959812419
 30
0.0
 10
190.311671039786
 20
111.0415786176822
 30
0.0
 10
190.3373263371978
 20
111.1080611871597
 30
0.0
 10
190.3974869598843
 20
111.1970562700572
 30
0.0
 10
190.4215592716386
 20
111.2250581670564
 30
0.0
 10
190.4799407919892
 20
111.2681345677216
 30
0.0
 10
190.5154096196422
 20
111.2830281126493
 30
0.0
 10
190.552785427791
 20
111.2830281126493
 30
0.0
  0
LINE
  5
E6
330
1F
100
AcDbEntity
  8
0
  6
HIDDEN
 62
     7
370
     0
100
AcDbLine
 10
190.5527854278
 20
111.2830281126
 30
0.0
 11
192.6889814238
 21
111.2830281126
 31
0.0
  0
SPLINE
  5
E7
330
1F
100
AcDbEntity
  8
0
  6
HIDDEN
 62
     7
370
     0
100
AcDbSpline
210
0.0
220
0.0
230
1.0
 70
     8
 71
     3
 72
    12
 73
     8
 74
     0
 42
0.00000001
 43
0.00000001
 12
1.0
 22
0.0
 32
0.0
 13
1.0
 23
0.0
 33
0.0
 40
0.0
 40
0.0
 40
0.0
 40
0.0
 40
0.2500000000000012
 40
0.2500000000000012
 40
0.5000000000000023
 40
0.5000000000000023
 40
1.0
 40
1.0
 40
1.0
 40
1.0
 10
192.6889814237926
 20
111.2830281126493
 30
0.0
 10
192.7264933098372
 20
111.2830281126493
 30
0.0
 10
192.7617806575419
 20
111.2682232983625
 30
0.0
 10
192.8207105057804
 20
111.2246314252367
 30
0.0
 10
192.8442362322494
 20
111.1971179991507
 30
0.0
 10
192.9044950200175
 20
111.1079862670371
 30
0.0
 10
192.9300897823069
 20
111.0416004164193
 30
0.0
 10
192.9487890449279
 20
110.9739959812419
 30
0.0
  0
ELLIPSE
  5
E8
330
1F
100
AcDbEntity
  8
0
  6
HIDDEN
 62
     7
370
     0
100
AcDbEllipse
 10
182.6719542534
 20
117.1122411083
 30
0.0
 11
-9.367417879781781
 21
19.74174915274992
 31
0.0
210
0.0
220
0.0
230
1.0
 40
0.3419987131
 41
3.292664382516894
 42
4.239566697061003
  0
SPLINE
  5
E9
330
1F
100
AcDbEntity
  8
0
  6
HIDDEN
 62
     7
370
     0
100
AcDbSpline
210
0.0
220
0.0
230
1.0
 70
     8
 71
     3
 72
    12
 73
     8
 74
     0
 42
0.00000001
 43
0.00000001
 12
1.0
 22
0.0
 32
0.0
 13
1.0
 23
0.0
 33
0.0
 40
0.0
 40
0.0
 40
0.0
 40
0.0
 40
0.4999999999999962
 40
0.4999999999999962
 40
0.7499999999999981
 40
0.7499999999999981
 40
1.0
 40
1.0
 40
1.0
 40
1.0
 10
192.9487890449279
 20
98.07748482511904
 30
0.0
 10
192.9300958117975
 20
98.0556910714911
 30
0.0
 10
192.9044405143857
 20
98.03467090978145
 30
0.0
 10
192.8442798916992
 20
98.00696556381774
 30
0.0
 10
192.8202075799449
 20
97.99833034762436
 30
0.0
 10
192.7618260595943
 20
97.98511570239778
 30
0.0
 10
192.7263572319413
 20
97.9805847280676
 30
0.0
 10
192.6889814237926
 20
97.9805847280676
 30
0.0
  0
LINE
  5
EA
330
1F
100
AcDbEntity
  8
0
  6
HIDDEN
 62
     7
370
     0
100
AcDbLine
 10
192.6889814238
 20
97.9805847281
 30
0.0
 11
190.5527854278
 21
97.9805847281
 31
0.0
  0
SPLINE
  5
EB
330
1F
100
AcDbEntity
  8
0
  6
HIDDEN
 62
     7
370
     0
100
AcDbSpline
210
0.0
220
0.0
230
1.0
 70
     8
 71
     3
 72
    12
 73
     8
 74
     0
 42
0.00000001
 43
0.00000001
 12
1.0
 22
0.0
 32
0.0
 13
1.0
 23
0.0
 33
0.0
 40
0.0
 40
0.0
 40
0.0
 40
0.0
 40
0.2499999999999993
 40
0.2499999999999993
 40
0.4999999999999987
 40
0.4999999999999987
 40
1.0
 40
1.0
 40
1.0
 40
1.0
 10
190.552785427791
 20
97.9805847280676
 30
0.0
 10
190.5152735417463
 20
97.9805847280676
 30
0.0
 10
190.4799861940415
 20
97.98508827233015
 30
0.0
 10
190.4210563458032
 20
97.99846147178344
 30
0.0
 10
190.3975306193341
 20
98.00694637435456
 30
0.0
 10
190.337271831566
 20
98.03469417818914
 30
0.0
 10
190.3116770692767
 20
98.05568404192952
 30
0.0
 10
190.2929778066556
 20
98.07748482511904
 30
0.0
  0
ELLIPSE
  5
EC
330
1F
100
AcDbEntity
  8
0
  6
HIDDEN
 62
     7
370
     0
100
AcDbEllipse
 10
200.5698125982
 20
117.1122411083
 30
0.0
 11
9.367417879781613
 21
19.74174915274992
 31
0.0
210
0.0
220
0.0
230
1.0
 40
0.3419987131
 41
2.043618610118596
 42
2.990520924662728
  0
SPLINE
  5
ED
330
1F
100
AcDbEntity
  8
0
  6
HIDDEN
 62
     7
370
     0
100
AcDbSpline
210
0.0
220
0.0
230
1.0
 70
     8
 71
     3
 72
    12
 73
     8
 74
     0
 42
0.00000001
 43
0.00000001
 12
1.0
 22
0.0
 32
0.0
 13
1.0
 23
0.0
 33
0.0
 40
0.0
 40
0.0
 40
0.0
 40
0.0
 40
0.500000000000001
 40
0.500000000000001
 40
0.7500000000000004
 40
0.7500000000000004
 40
1.0
 40
1.0
 40
1.0
 40
1.0
 10
190.2929778066556
 20
136.146997391483
 30
0.0
 10
190.3116710397861
 20
136.1687911451109
 30
0.0
 10
190.3373263371978
 20
136.1898113068205
 30
0.0
 10
190.3974869598843
 20
136.2175166527842
 30
0.0
 10
190.4215592716386
 20
136.2261518689776
 30
0.0
 10
190.4799407919892
 20
136.2393665142042
 30
0.0
 10
190.5154096196422
 20
136.2438974885344
 30
0.0
 10
190.552785427791
 20
136.2438974885344
 30
0.0
  0
LINE
  5
EE
330
1F
100
AcDbEntity
  8
0
  6
HIDDEN
 62
     7
370
     0
100
AcDbLine
 10
190.5527854278
 20
136.2438974885
 30
0.0
 11
192.6889814238
 21
136.2438974885
 31
0.0
  0
SPLINE
  5
EF
330
1F
100
AcDbEntity
  8
0
  6
HIDDEN
 62
     7
370
     0
100
AcDbSpline
210
0.0
220
0.0
230
1.0
 70
     8
 71
     3
 72
    12
 73
     8
 74
     0
 42
0.00000001
 43
0.00000001
 12
1.0
 22
0.0
 32
0.0
 13
1.0
 23
0.0
 33
0.0
 40
0.0
 40
0.0
 40
0.0
 40
0.0
 40
0.2499999999999984
 40
0.2499999999999984
 40
0.4999999999999969
 40
0.4999999999999969
 40
1.0
 40
1.0
 40
1.0
 40
1.0
 10
192.6889814237926
 20
136.2438974885344
 30
0.0
 10
192.7264933098372
 20
136.2438974885344
 30
0.0
 10
192.7617806575419
 20
136.2393939442719
 30
0.0
 10
192.8207105057804
 20
136.2260207448186
 30
0.0
 10
192.8442362322494
 20
136.2175358422474
 30
0.0
 10
192.9044950200175
 20
136.1897880384128
 30
0.0
 10
192.9300897823069
 20
136.1687981746725
 30
0.0
 10
192.9487890449279
 20
136.146997391483
 30
0.0
  0
ELLIPSE
  5
F0
330
1F
100
AcDbEntity
  8
0
  6
HIDDEN
 62
     7
370
     0
100
AcDbEllipse
 10
182.6719542534
 20
117.1122411083
 30
0.0
 11
9.367417879781813
 21
19.74174915274992
 31
0.0
210
0.0
220
0.0
230
1.0
 40
0.3419987131
 41
5.185211263708414
 42
6.132113578252572
  0
SPLINE
  5
F1
330
1F
100
AcDbEntity
  8
0
  6
HIDDEN
 62
     7
370
     0
100
AcDbSpline
210
0.0
220
0.0
230
1.0
 70
     8
 71
     3
 72
    12
 73
     8
 74
     0
 42
0.00000001
 43
0.00000001
 12
1.0
 22
0.0
 32
0.0
 13
1.0
 23
0.0
 33
0.0
 40
0.0
 40
0.0
 40
0.0
 40
0.0
 40
0.5000000000000029
 40
0.5000000000000029
 40
0.7500000000000014
 40
0.7500000000000014
 40
1.0
 40
1.0
 40
1.0
 40
1.0
 10
192.9487890449279
 20
123.2504862353603
 30
0.0
 10
192.9300958117975
 20
123.1829035989199
 30
0.0
 10
192.9044405143857
 20
123.1164210294425
 30
0.0
 10
192.8442798916992
 20
123.027425946545
 30
0.0
 10
192.8202075799449
 20
122.9994240495458
 30
0.0
 10
192.7618260595943
 20
122.9563476488806
 30
0.0
 10
192.7263572319413
 20
122.9414541039529
 30
0.0
 10
192.6889814237926
 20
122.9414541039529
 30
0.0
  0
LINE
  5
F2
330
1F
100
AcDbEntity
  8
0
  6
HIDDEN
 62
     7
370
     0
100
AcDbLine
 10
192.6889814238
 20
122.941454104
 30
0.0
 11
190.5527854278
 21
122.941454104
 31
0.0
  0
SPLINE
  5
F3
330
1F
100
AcDbEntity
  8
0
  6
HIDDEN
 62
     7
370
     0
100
AcDbSpline
210
0.0
220
0.0
230
1.0
 70
     8
 71
     3
 72
    12
 73
     8
 74
     0
 42
0.00000001
 43
0.00000001
 12
1.0
 22
0.0
 32
0.0
 13
1.0
 23
0.0
 33
0.0
 40
0.0
 40
0.0
 40
0.0
 40
0.0
 40
0.2500000000000011
 40
0.2500000000000011
 40
0.5000000000000022
 40
0.5000000000000022
 40
1.0
 40
1.0
 40
1.0
 40
1.0
 10
190.552785427791
 20
122.9414541039529
 30
0.0
 10
190.5152735417463
 20
122.9414541039529
 30
0.0
 10
190.4799861940415
 20
122.9562589182397
 30
0.0
 10
190.4210563458032
 20
122.9998507913655
 30
0.0
 10
190.3975306193341
 20
123.0273642174515
 30
0.0
 10
190.337271831566
 20
123.1164959495651
 30
0.0
 10
190.3116770692766
 20
123.1828818001829
 30
0.0
 10
190.2929778066556
 20
123.2504862353603
 30
0.0
  0
ELLIPSE
  5
F4
330
1F
100
AcDbEntity
  8
0
  6
HIDDEN
 62
     7
370
     0
100
AcDbEllipse
 10
200.5698125982
 20
117.1122411083
 30
0.0
 11
-9.367417879781669
 21
19.74174915274991
 31
0.0
210
0.0
220
0.0
230
1.0
 40
0.3419987131
 41
0.1510717289270562
 42
1.097974043471188
  0
LINE
  5
F5
330
1F
100
AcDbEntity
  8
0
  6
HIDDEN
 62
     7
370
     0
100
AcDbLine
 10
183.6208834258
 20
101.3122411083
 30
0.0
 11
183.6208834258
 21
132.8997495845
 31
0.0
  0
SPLINE
  5
F6
330
1F
100
AcDbEntity
  8
0
  6
HIDDEN
 62
     7
370
     0
100
AcDbSpline
210
0.0
220
0.0
230
1.0
 70
     8
 71
     3
 72
    18
 73
    14
 74
     0
 42
0.00000001
 43
0.00000001
 12
1.0
 22
0.0
 32
0.0
 13
1.0
 23
0.0
 33
0.0
 40
0.0
 40
0.0
 40
0.0
 40
0.0
 40
0.2500000000000007
 40
0.2500000000000007
 40
0.5000000000000013
 40
0.5000000000000013
 40
0.625000000000001
 40
0.625000000000001
 40
0.7500000000000007
 40
0.7500000000000007
 40
0.8750000000000003
 40
0.8750000000000003
 40
1.0
 40
1.0
 40
1.0
 40
1.0
 10
182.3647991082288
 20
126.9366810264522
 30
0.0
 10
182.3991001527615
 20
126.8286708406547
 30
0.0
 10
182.4369204240583
 20
126.7213937526267
 30
0.0
 10
182.5235387445192
 20
126.5098970553101
 30
0.0
 10
182.5719100792626
 20
126.4055107051404
 30
0.0
 10
182.6613130613811
 20
126.2546357824962
 30
0.0
 10
182.6939103452583
 20
126.2052907794606
 30
0.0
 10
182.7702922492032
 20
126.1106851409903
 30
0.0
 10
182.813330686544
 20
126.0656892062357
 30
0.0
 10
182.9191437193759
 20
125.9947614335778
 30
0.0
 10
182.984182144107
 20
125.9708148896713
 30
0.0
 10
183.1173342159096
 20
125.9830955537421
 30
0.0
 10
183.1767033963727
 20
126.016412511747
 30
0.0
 10
183.2259065369165
 20
126.0572473979717
 30
0.0
  0
SPLINE
  5
F7
330
1F
100
AcDbEntity
  8
0
  6
HIDDEN
 62
     7
370
     0
100
AcDbSpline
210
0.0
220
0.0
230
1.0
 70
     8
 71
     3
 72
    16
 73
    12
 74
     0
 42
0.00000001
 43
0.00000001
 12
1.0
 22
0.0
 32
0.0
 13
1.0
 23
0.0
 33
0.0
 40
0.0
 40
0.0
 40
0.0
 40
0.0
 40
0.0624999999999969
 40
0.0624999999999969
 40
0.1249999999999938
 40
0.1249999999999938
 40
0.249999999999994
 40
0.249999999999994
 40
0.4999999999999943
 40
0.4999999999999943
 40
1.0
 40
1.0
 40
1.0
 40
1.0
 10
183.2259065368857
 20
126.0572473980011
 30
0.0
 10
183.2379763701615
 20
126.0672644469814
 30
0.0
 10
183.2522520250948
 20
126.0762235540371
 30
0.0
 10
183.2837164372193
 20
126.0840939494313
 30
0.0
 10
183.2992169620297
 20
126.081736458789
 30
0.0
 10
183.3346558586366
 20
126.064760766611
 30
0.0
 10
183.3482484747399
 20
126.0442122754434
 30
0.0
 10
183.3812427931327
 20
125.9822699484297
 30
0.0
 10
183.3920301864515
 20
125.9358743982246
 30
0.0
 10
183.4170834337307
 20
125.7929383695301
 30
0.0
 10
183.4208834257919
 20
125.6933756526446
 30
0.0
 10
183.4208834257919
 20
125.591608247998
 30
0.0
  0
LINE
  5
F8
330
1F
100
AcDbEntity
  8
0
  6
HIDDEN
 62
     7
370
     0
100
AcDbLine
 10
183.4208834258
 20
108.6328739686
 30
0.0
 11
183.4208834258
 21
125.591608248
 31
0.0
  0
SPLINE
  5
F9
330
1F
100
AcDbEntity
  8
0
  6
HIDDEN
 62
     7
370
     0
100
AcDbSpline
210
0.0
220
0.0
230
1.0
 70
     8
 71
     3
 72
    16
 73
    12
 74
     0
 42
0.00000001
 43
0.00000001
 12
1.0
 22
0.0
 32
0.0
 13
1.0
 23
0.0
 33
0.0
 40
0.0
 40
0.0
 40
0.0
 40
0.0
 40
0.5000000000000044
 40
0.5000000000000044
 40
0.7500000000000042
 40
0.7500000000000042
 40
0.875000000000004
 40
0.875000000000004
 40
0.937500000000002
 40
0.937500000000002
 40
1.0
 40
1.0
 40
1.0
 40
1.0
 10
183.4208834257918
 20
108.6328739686037
 30
0.0
 10
183.4208834257918
 20
108.5308638150237
 30
0.0
 10
183.4170000006328
 20
108.4313394397704
 30
0.0
 10
183.3921846753582
 20
108.2893543437598
 30
0.0
 10
183.3813452276457
 20
108.2423610431893
 30
0.0
 10
183.3481294455969
 20
108.1800683128277
 30
0.0
 10
183.3347477019681
 20
108.1597868805426
 30
0.0
 10
183.2992380521059
 20
108.1427451723422
 30
0.0
 10
183.2838210856051
 20
108.140358917326
 30
0.0
 10
183.2521200634565
 20
108.148294847184
 30
0.0
 10
183.2379737785057
 20
108.1572199205586
 30
0.0
 10
183.225906536916
 20
108.1672348186305
 30
0.0
  0
SPLINE
  5
FA
330
1F
100
AcDbEntity
  8
0
  6
HIDDEN
 62
     7
370
     0
100
AcDbSpline
210
0.0
220
0.0
230
1.0
 70
     8
 71
     3
 72
    18
 73
    14
 74
     0
 42
0.00000001
 43
0.00000001
 12
1.0
 22
0.0
 32
0.0
 13
1.0
 23
0.0
 33
0.0
 40
0.0
 40
0.0
 40
0.0
 40
0.0
 40
0.1249999999999994
 40
0.1249999999999994
 40
0.2499999999999987
 40
0.2499999999999987
 40
0.3749999999999981
 40
0.3749999999999981
 40
0.4999999999999974
 40
0.4999999999999974
 40
0.7499999999999987
 40
0.7499999999999987
 40
1.0
 40
1.0
 40
1.0
 40
1.0
 10
183.2259065369222
 20
108.1672348186379
 30
0.0
 10
183.17720104478
 20
108.2076566943194
 30
0.0
 10
183.1186909364532
 20
108.2406888157872
 30
0.0
 10
182.9869618181611
 20
108.25396596774
 30
0.0
 10
182.9222028818205
 20
108.2310123807598
 30
0.0
 10
182.816991908961
 20
108.1619591838402
 30
0.0
 10
182.773775533521
 20
108.1174915319993
 30
0.0
 10
182.6975970284091
 20
108.0243218726293
 30
0.0
 10
182.6647420670292
 20
107.9751795030685
 30
0.0
 10
182.5743737871954
 20
107.8239697681286
 30
0.0
 10
182.5249505528254
 20
107.7178149986004
 30
0.0
 10
182.4373020977772
 20
107.5042333829389
 30
0.0
 10
182.3992429255744
 20
107.3962609517036
 30
0.0
 10
182.3647991082288
 20
107.2878011901497
 30
0.0
  0
SPLINE
  5
FB
330
1F
100
AcDbEntity
  8
0
  6
HIDDEN
 62
     7
370
     0
100
AcDbSpline
210
0.0
220
0.0
230
1.0
 70
     8
 71
     3
 72
     8
 73
     4
 74
     0
 42
0.00000001
 43
0.00000001
 12
1.0
 22
0.0
 32
0.0
 13
1.0
 23
0.0
 33
0.0
 40
0.0
 40
0.0
 40
0.0
 40
0.0
 40
1.0
 40
1.0
 40
1.0
 40
1.0
 10
182.3647991082282
 20
107.2878011901492
 30
0.0
 10
182.3404854043381
 20
107.2112400325991
 30
0.0
 10
182.318988762382
 20
107.1348146614659
 30
0.0
 10
182.2995630822321
 20
107.0587217906942
 30
0.0
  0
SPLINE
  5
FC
330
1F
100
AcDbEntity
  8
0
  6
HIDDEN
 62
     7
370
     0
100
AcDbSpline
210
0.0
220
0.0
230
1.0
 70
     8
 71
     3
 72
     8
 73
     4
 74
     0
 42
0.00000001
 43
0.00000001
 12
1.0
 22
0.0
 32
0.0
 13
1.0
 23
0.0
 33
0.0
 40
0.0
 40
0.0
 40
0.0
 40
0.0
 40
1.0
 40
1.0
 40
1.0
 40
1.0
 10
182.2995630822321
 20
103.2871771002958
 30
0.0
 10
182.3189885091254
 20
103.2836798967085
 30
0.0
 10
182.3404850630944
 20
103.2816635790662
 30
0.0
 10
182.3647991082288
 20
103.2810527256224
 30
0.0
  0
SPLINE
  5
FD
330
1F
100
AcDbEntity
  8
0
  6
HIDDEN
 62
     7
370
     0
100
AcDbSpline
210
0.0
220
0.0
230
1.0
 70
     8
 71
     3
 72
     8
 73
     4
 74
     0
 42
0.00000001
 43
0.00000001
 12
1.0
 22
0.0
 32
0.0
 13
1.0
 23
0.0
 33
0.0
 40
0.0
 40
0.0
 40
0.0
 40
0.0
 40
1.0
 40
1.0
 40
1.0
 40
1.0
 10
183.3980324126857
 20
103.1916943345643
 30
0.0
 10
183.4169693448516
 20
103.1637398971628
 30
0.0
 10
183.4208834257919
 20
103.1436560458064
 30
0.0
 10
183.4208834257919
 20
103.127429201641
 30
0.0
  0
LINE
  5
FE
330
1F
100
AcDbEntity
  8
0
  6
HIDDEN
 62
     7
370
     0
100
AcDbLine
 10
183.4208834258
 20
103.0224208294
 30
0.0
 11
183.4208834258
 21
103.1274292016
 31
0.0
  0
LINE
  5
FF
330
1F
100
AcDbEntity
  8
0
  6
HIDDEN
 62
     7
370
     0
100
AcDbLine
 10
183.4208834258
 20
131.097053015
 30
0.0
 11
183.4208834258
 21
131.2020613872
 31
0.0
  0
SPLINE
  5
100
330
1F
100
AcDbEntity
  8
0
  6
HIDDEN
 62
     7
370
     0
100
AcDbSpline
210
0.0
220
0.0
230
1.0
 70
     8
 71
     3
 72
     8
 73
     4
 74
     0
 42
0.00000001
 43
0.00000001
 12
1.0
 22
0.0
 32
0.0
 13
1.0
 23
0.0
 33
0.0
 40
0.0
 40
0.0
 40
0.0
 40
0.0
 40
1.0
 40
1.0
 40
1.0
 40
1.0
 10
183.4208834257918
 20
131.0970530149611
 30
0.0
 10
183.4208834257918
 20
131.0869657454574
 30
0.0
 10
183.4188888683095
 20
131.0752562034616
 30
0.0
 10
183.4133475575605
 20
131.0613368761128
 30
0.0
  0
SPLINE
  5
101
330
1F
100
AcDbEntity
  8
0
  6
HIDDEN
 62
     7
370
     0
100
AcDbSpline
210
0.0
220
0.0
230
1.0
 70
     8
 71
     3
 72
     8
 73
     4
 74
     0
 42
0.00000001
 43
0.00000001
 12
1.0
 22
0.0
 32
0.0
 13
1.0
 23
0.0
 33
0.0
 40
0.0
 40
0.0
 40
0.0
 40
0.0
 40
1.0
 40
1.0
 40
1.0
 40
1.0
 10
182.3647991082284
 20
130.9434294909795
 30
0.0
 10
182.3404850630942
 20
130.9428186375357
 30
0.0
 10
182.3189885091253
 20
130.9408023198934
 30
0.0
 10
182.2995630822321
 20
130.9373051163062
 30
0.0
  0
SPLINE
  5
102
330
1F
100
AcDbEntity
  8
0
  6
HIDDEN
 62
     7
370
     0
100
AcDbSpline
210
0.0
220
0.0
230
1.0
 70
     8
 71
     3
 72
     8
 73
     4
 74
     0
 42
0.00000001
 43
0.00000001
 12
1.0
 22
0.0
 32
0.0
 13
1.0
 23
0.0
 33
0.0
 40
0.0
 40
0.0
 40
0.0
 40
0.0
 40
1.0
 40
1.0
 40
1.0
 40
1.0
 10
182.2995630822321
 20
127.1657604259077
 30
0.0
 10
182.318988762382
 20
127.089667555136
 30
0.0
 10
182.3404854043381
 20
127.0132421840028
 30
0.0
 10
182.3647991082282
 20
126.9366810264527
 30
0.0
  0
SPLINE
  5
103
330
1F
100
AcDbEntity
  8
0
  6
HIDDEN
 62
     7
370
     0
100
AcDbSpline
210
0.0
220
0.0
230
1.0
 70
     8
 71
     3
 72
    62
 73
    58
 74
     0
 42
0.00000001
 43
0.00000001
 12
1.0
 22
0.0
 32
0.0
 13
1.0
 23
0.0
 33
0.0
 40
-0.0312500000000006
 40
-0.0312500000000006
 40
0.0
 40
0.0
 40
0.0312499999999998
 40
0.0312499999999998
 40
0.0624999999999995
 40
0.0624999999999995
 40
0.0937499999999993
 40
0.0937499999999993
 40
0.1249999999999991
 40
0.1249999999999991
 40
0.1874999999999986
 40
0.1874999999999986
 40
0.2187499999999983
 40
0.2187499999999983
 40
0.2499999999999981
 40
0.2499999999999981
 40
0.2812499999999979
 40
0.2812499999999979
 40
0.3124999999999977
 40
0.3124999999999977
 40
0.3437499999999974
 40
0.3437499999999974
 40
0.3749999999999972
 40
0.3749999999999972
 40
0.4062499999999969
 40
0.4062499999999969
 40
0.4374999999999967
 40
0.4374999999999967
 40
0.4687499999999964
 40
0.4687499999999964
 40
0.4999999999999962
 40
0.4999999999999962
 40
0.5624999999999958
 40
0.5624999999999958
 40
0.5937499999999958
 40
0.5937499999999958
 40
0.6249999999999957
 40
0.6249999999999957
 40
0.6874999999999959
 40
0.6874999999999959
 40
0.7187499999999961
 40
0.7187499999999961
 40
0.7499999999999963
 40
0.7499999999999963
 40
0.7812499999999967
 40
0.7812499999999967
 40
0.812499999999997
 40
0.812499999999997
 40
0.8749999999999978
 40
0.8749999999999978
 40
0.9062499999999983
 40
0.9062499999999983
 40
0.9374999999999989
 40
0.9374999999999989
 40
0.9687499999999994
 40
0.9687499999999994
 40
1.0
 40
1.0
 40
1.03125
 40
1.03125
 10
197.7607249715939
 20
117.1522351754175
 30
0.0
 10
197.4810418799904
 20
117.1522351754175
 30
0.0
 10
197.3437579230329
 20
117.1669325329888
 30
0.0
 10
197.0740221681814
 20
117.2240863927906
 30
0.0
 10
196.9401401490859
 20
117.2672933525995
 30
0.0
 10
196.6863935906879
 20
117.378430143783
 30
0.0
 10
196.5662079289453
 20
117.446021360217
 30
0.0
 10
196.3387453374314
 20
117.6042901057256
 30
0.0
 10
196.2319301319698
 20
117.6950603114233
 30
0.0
 10
195.9436855346452
 20
117.9900768338224
 30
0.0
 10
195.787564835744
 20
118.224586274958
 30
0.0
 10
195.6298493749017
 20
118.5971486243677
 30
0.0
 10
195.5889401457941
 20
118.7271195990144
 30
0.0
 10
195.5345632407719
 20
118.9884657615205
 30
0.0
 10
195.5209757728823
 20
119.1187435718176
 30
0.0
 10
195.5207920078947
 20
119.3783650332252
 30
0.0
 10
195.5346780441008
 20
119.508574812247
 30
0.0
 10
195.5887651286515
 20
119.7564083837017
 30
0.0
 10
195.6287738846965
 20
119.8754746357272
 30
0.0
 10
195.7351201592788
 20
120.1043323907089
 30
0.0
 10
195.8003194341963
 20
120.2113954657881
 30
0.0
 10
195.9520268382345
 20
120.4094612990463
 30
0.0
 10
196.0398275128744
 20
120.501801145838
 30
0.0
 10
196.2331654222378
 20
120.6671797294018
 30
0.0
 10
196.3381138082494
 20
120.7401493703481
 30
0.0
 10
196.5648418181954
 20
120.8678771422625
 30
0.0
 10
196.6876135691775
 20
120.9227300067379
 30
0.0
 10
196.9402920414028
 20
121.0098172003254
 30
0.0
 10
197.0712730129035
 20
121.0428344155613
 30
0.0
 10
197.3430613841523
 20
121.0876384930666
 30
0.0
 10
197.4822949944866
 20
121.0988978920311
 30
0.0
 10
197.8954787772849
 20
121.0990363316179
 30
0.0
 10
198.1735545219997
 20
121.0537913205538
 30
0.0
 10
198.5536233500309
 20
120.9229695515588
 30
0.0
 10
198.6763915919731
 20
120.8681319419547
 30
0.0
 10
198.9030777578594
 20
120.7405189515502
 30
0.0
 10
199.0082458664048
 20
120.6674843800971
 30
0.0
 10
199.2993323621349
 20
120.4184914814878
 30
0.0
 10
199.453262884363
 20
120.2189900477812
 30
0.0
 10
199.6126944871127
 20
119.8762288319449
 30
0.0
 10
199.6526956846683
 20
119.7573782226475
 30
0.0
 10
199.7068549055977
 20
119.5100747474116
 30
0.0
 10
199.7208778121471
 20
119.3799882558272
 30
0.0
 10
199.7208890359838
 20
119.1199057995062
 30
0.0
 10
199.7073480827848
 20
118.9895222724533
 30
0.0
 10
199.6531299961749
 20
118.7282180970496
 30
0.0
 10
199.6122500415686
 20
118.5980380862727
 30
0.0
 10
199.4542819643928
 20
118.2245681405322
 30
0.0
 10
199.2982540070379
 20
117.9902123932507
 30
0.0
 10
199.0095068877127
 20
117.6947433505168
 30
0.0
 10
198.9022920529837
 20
117.6037423997727
 30
0.0
 10
198.6754386460338
 20
117.4459779682725
 30
0.0
 10
198.5554211337939
 20
117.3784520676237
 30
0.0
 10
198.3016029263398
 20
117.2672819828222
 30
0.0
 10
198.1677358822884
 20
117.2240863550457
 30
0.0
 10
197.8980686403941
 20
117.166943358468
 30
0.0
 10
197.7607249715939
 20
117.1522351754175
 30
0.0
 10
197.4810418799904
 20
117.1522351754175
 30
0.0
  0
SPLINE
  5
104
330
1F
100
AcDbEntity
  8
0
  6
HIDDEN
 62
     7
370
     0
100
AcDbSpline
210
0.0
220
0.0
230
1.0
 70
     8
 71
     3
 72
    16
 73
    12
 74
     0
 42
0.00000001
 43
0.00000001
 12
1.0
 22
0.0
 32
0.0
 13
1.0
 23
0.0
 33
0.0
 40
0.0
 40
0.0
 40
0.0
 40
0.0
 40
0.25
 40
0.25
 40
0.375
 40
0.375
 40
0.5
 40
0.5
 40
0.75
 40
0.75
 40
1.0
 40
1.0
 40
1.0
 40
1.0
 10
195.8125475406883
 20
121.7565499514475
 30
0.0
 10
195.7691761365012
 20
121.7569198011595
 30
0.0
 10
195.7317877085876
 20
121.7566395697364
 30
0.0
 10
195.6918611415167
 20
121.7810290360554
 30
0.0
 10
195.6814006842661
 20
121.7936800147339
 30
0.0
 10
195.668868207444
 20
121.8388327282353
 30
0.0
 10
195.6670398871502
 20
121.8727559553832
 30
0.0
 10
195.6779202665875
 20
122.0098385635973
 30
0.0
 10
195.7067188361244
 20
122.1483081036161
 30
0.0
 10
195.7879273677816
 20
122.4359768282068
 30
0.0
 10
195.8399982801034
 20
122.5858590987119
 30
0.0
 10
195.8997383141769
 20
122.7323149399118
 30
0.0
  0
SPLINE
  5
105
330
1F
100
AcDbEntity
  8
0
  6
HIDDEN
 62
     7
370
     0
100
AcDbSpline
210
0.0
220
0.0
230
1.0
 70
     8
 71
     3
 72
    68
 73
    64
 74
     0
 42
0.00000001
 43
0.00000001
 12
1.0
 22
0.0
 32
0.0
 13
1.0
 23
0.0
 33
0.0
 40
0.0
 40
0.0
 40
0.0
 40
0.0
 40
0.0312500000000003
 40
0.0312500000000003
 40
0.0468750000000003
 40
0.0468750000000003
 40
0.0625000000000004
 40
0.0625000000000004
 40
0.0937500000000003
 40
0.0937500000000003
 40
0.1250000000000003
 40
0.1250000000000003
 40
0.1562500000000003
 40
0.1562500000000003
 40
0.1875000000000003
 40
0.1875000000000003
 40
0.2187500000000003
 40
0.2187500000000003
 40
0.2500000000000003
 40
0.2500000000000003
 40
0.2812500000000002
 40
0.2812500000000002
 40
0.3125000000000002
 40
0.3125000000000002
 40
0.3750000000000002
 40
0.3750000000000002
 40
0.4062500000000002
 40
0.4062500000000002
 40
0.4375000000000002
 40
0.4375000000000002
 40
0.4687500000000002
 40
0.4687500000000002
 40
0.4843750000000003
 40
0.4843750000000003
 40
0.5000000000000004
 40
0.5000000000000004
 40
0.5312500000000006
 40
0.5312500000000006
 40
0.5625000000000006
 40
0.5625000000000006
 40
0.6250000000000007
 40
0.6250000000000007
 40
0.6562500000000007
 40
0.6562500000000007
 40
0.6875000000000007
 40
0.6875000000000007
 40
0.7187500000000007
 40
0.7187500000000007
 40
0.7500000000000003
 40
0.7500000000000003
 40
0.8125000000000003
 40
0.8125000000000003
 40
0.8437500000000003
 40
0.8437500000000003
 40
0.8750000000000002
 40
0.8750000000000002
 40
0.9062500000000002
 40
0.9062500000000002
 40
0.9375000000000002
 40
0.9375000000000002
 40
0.9687500000000001
 40
0.9687500000000001
 40
1.0
 40
1.0
 40
1.0
 40
1.0
 10
195.8997383141769
 20
122.7323149399118
 30
0.0
 10
195.9807375724319
 20
122.8144804742522
 30
0.0
 10
196.0751173773091
 20
122.8942118565201
 30
0.0
 10
196.2437611845577
 20
123.0174866294692
 30
0.0
 10
196.303581926298
 20
123.0585321953352
 30
0.0
 10
196.4316207316783
 20
123.1415609400279
 30
0.0
 10
196.4999726490296
 20
123.1835532069928
 30
0.0
 10
196.7066689269634
 20
123.3036443497736
 30
0.0
 10
196.8511853943866
 20
123.37844751825
 30
0.0
 10
197.134209676739
 20
123.5024044389306
 30
0.0
 10
197.2771420066496
 20
123.5536331298893
 30
0.0
 10
197.5600045896336
 20
123.6289625949444
 30
0.0
 10
197.7007426760183
 20
123.6536696346597
 30
0.0
 10
197.9849302840746
 20
123.6739190301202
 30
0.0
 10
198.1290300976148
 20
123.6690390879498
 30
0.0
 10
198.4098138406388
 20
123.6245191432847
 30
0.0
 10
198.5494160903243
 20
123.5845638640357
 30
0.0
 10
198.8175112153863
 20
123.4645776154904
 30
0.0
 10
198.943636374241
 20
123.3860752821921
 30
0.0
 10
199.1786116025191
 20
123.1861048593
 30
0.0
 10
199.2810999325754
 20
123.0699629391913
 30
0.0
 10
199.4572319262564
 20
122.8060680816986
 30
0.0
 10
199.5285941437367
 20
122.6606672917728
 30
0.0
 10
199.6902338756364
 20
122.2076222814447
 30
0.0
 10
199.7278398182072
 20
121.8825731207013
 30
0.0
 10
199.7157812763451
 20
121.4287036183908
 30
0.0
 10
199.7008383628141
 20
121.28176966613
 30
0.0
 10
199.6562726158365
 20
120.9973594196437
 30
0.0
 10
199.6266676056519
 20
120.8616165172344
 30
0.0
 10
199.5656015064276
 20
120.6123493956464
 30
0.0
 10
199.5333335221971
 20
120.4962425993168
 30
0.0
 10
199.5026691066987
 20
120.3578227090291
 30
0.0
 10
199.495467631502
 20
120.3170747726607
 30
0.0
 10
199.490295765505
 20
120.2528061092563
 30
0.0
 10
199.4921966803469
 20
120.2289922007123
 30
0.0
 10
199.5098761863258
 20
120.1806968991569
 30
0.0
 10
199.5367105032602
 20
120.1803827417936
 30
0.0
 10
199.5944117519469
 20
120.2166549744542
 30
0.0
 10
199.6249855152679
 20
120.2529478719877
 30
0.0
 10
199.701459190628
 20
120.3958419823783
 30
0.0
 10
199.7335432753509
 20
120.5391365233529
 30
0.0
 10
199.7071830866806
 20
120.804076576981
 30
0.0
 10
199.6857340240063
 20
120.9029291311642
 30
0.0
 10
199.6115141322509
 20
121.1126806786733
 30
0.0
 10
199.5579349925535
 20
121.2257166488101
 30
0.0
 10
199.4158877112864
 20
121.4563502071523
 30
0.0
 10
199.3289686253857
 20
121.5721789555257
 30
0.0
 10
199.119868571708
 20
121.8024431760261
 30
0.0
 10
199.0038740425621
 20
121.9101201055574
 30
0.0
 10
198.6235535361249
 20
122.211088486042
 30
0.0
 10
198.3446157676087
 20
122.3674958012651
 30
0.0
 10
197.9336447476846
 20
122.5297538184138
 30
0.0
 10
197.7952544107363
 20
122.5728635524808
 30
0.0
 10
197.5219434051497
 20
122.6346626708912
 30
0.0
 10
197.3871491356057
 20
122.6537031340072
 30
0.0
 10
197.116152818397
 20
122.6642235890461
 30
0.0
 10
196.97978916499
 20
122.655713645402
 30
0.0
 10
196.7063948048343
 20
122.5970135376064
 30
0.0
 10
196.5681292630787
 20
122.5457275925294
 30
0.0
 10
196.3020529314417
 20
122.3829929109182
 30
0.0
 10
196.1803018656424
 20
122.2743150047707
 30
0.0
 10
195.9724321401309
 20
122.0304079547879
 30
0.0
 10
195.8861787145169
 20
121.8977458760489
 30
0.0
 10
195.8125475406883
 20
121.7565499514474
 30
0.0
  0
LWPOLYLINE
  5
106
330
1F
100
AcDbEntity
  8
0
  6
HIDDEN
 62
     7
370
     0
100
AcDbPolyline
 90
       29
 70
   128
 43
0.0
 10
197.6208834258
 20
120.2691887545
 10
198.0881773871
 20
120.3186648719
 10
198.5320392779
 20
120.4646122851
 10
198.9302120097
 20
120.6997125812
 10
199.262729539
 20
121.0121768497
 10
199.5129180484
 20
121.3863368275
 10
199.6682320414
 20
121.803430571
 10
199.7208834258
 20
122.2425432582
 10
199.6682320414
 20
122.6816559454
 10
199.5129180484
 20
123.0987496888
 10
199.262729539
 20
123.4729096667
 10
198.9302120097
 20
123.7853739352
 10
198.5320392779
 20
124.0204742313
 10
198.0881773871
 20
124.1664216444
 10
197.6208834258
 20
124.2158977618
 10
197.1535894645
 20
124.1664216444
 10
196.7097275736
 20
124.0204742313
 10
196.3115548419
 20
123.7853739352
 10
195.9790373126
 20
123.4729096667
 10
195.7288488032
 20
123.0987496888
 10
195.5735348102
 20
122.6816559454
 10
195.5208834258
 20
122.2425432582
 10
195.5735348102
 20
121.803430571
 10
195.7288488032
 20
121.3863368275
 10
195.9790373126
 20
121.0121768497
 10
196.3115548419
 20
120.6997125812
 10
196.7097275736
 20
120.4646122851
 10
197.1535894645
 20
120.3186648719
 10
197.6208834258
 20
120.2691887545
  0
LINE
  5
107
330
1F
100
AcDbEntity
  8
0
  6
HIDDEN
 62
     7
370
     0
100
AcDbLine
 10
183.4208834258
 20
103.1274292016
 30
0.0
 11
183.4208834258
 21
111.6067963413
 31
0.0
  0
LINE
  5
108
330
1F
100
AcDbEntity
  8
0
  6
HIDDEN
 62
     7
370
     0
100
AcDbLine
 10
183.4208834258
 20
122.6176858753
 30
0.0
 11
183.4208834258
 21
131.097053015
 31
0.0
  0
LWPOLYLINE
  5
109
330
1F
100
AcDbEntity
  8
0
  6
HIDDEN
 62
     7
370
     0
100
AcDbPolyline
 90
        9
 70
   128
 43
0.0
 10
195.8997383142
 20
122.7323149399
 10
195.7897508641
 20
122.7545939663
 10
195.7056708213
 20
122.7318504969
 10
195.6496019001
 20
122.6646535816
 10
195.6229469658
 20
122.5546845125
 10
195.6263729348
 20
122.4046947571
 10
195.6597940883
 20
122.2184371152
 10
195.7223742163
 20
122.0005718228
 10
195.8125475407
 20
121.7565499514
  0
CIRCLE
  5
10A
330
1F
100
AcDbEntity
  8
0
  6
HIDDEN
 62
     7
370
     0
100
AcDbCircle
 10
172.1208834258
 20
117.1122411083
 30
0.0
 40
2.299999999999983
  0
LINE
  5
10B
330
1F
100
AcDbEntity
  8
0
  6
HIDDEN
 62
     7
370
     0
100
AcDbLine
 10
160.6479154578
 20
126.6749344124
 30
0.0
 11
160.6479154578
 21
107.5495478042
 31
0.0
  0
LINE
  5
10C
330
1F
100
AcDbEntity
  8
0
  6
HIDDEN
 62
     7
370
     0
100
AcDbLine
 10
159.6208834258
 20
106.956590584
 30
0.0
 11
159.6208834258
 21
127.2552673589
 31
0.0
  0
LINE
  5
10D
330
1F
100
AcDbEntity
  8
0
  6
HIDDEN
 62
     7
370
     0
100
AcDbLine
 10
164.1479154578
 20
126.343181216
 30
0.0
 11
164.1479154578
 21
107.8813010006
 31
0.0
  0
LINE
  5
10E
330
1F
100
AcDbEntity
  8
0
  6
HIDDEN
 62
     7
370
     0
100
AcDbLine
 10
167.5479154578
 20
126.1122411083
 30
0.0
 11
167.5479154578
 21
108.1122411083
 31
0.0
  0
LINE
  5
10F
330
1F
100
AcDbEntity
  8
0
  6
HIDDEN
 62
     7
370
     0
100
AcDbLine
 10
162.7479154578
 20
126.1122411083
 30
0.0
 11
162.7479154578
 21
108.1122411083
 31
0.0
  0
LINE
  5
110
330
1F
100
AcDbEntity
  8
0
  6
HIDDEN
 62
     7
370
     0
100
AcDbLine
 10
163.7479154578
 20
126.1122411083
 30
0.0
 11
163.7479154578
 21
108.1122411083
 31
0.0
  0
SPLINE
  5
111
330
1F
100
AcDbEntity
  8
0
  6
HIDDEN
 62
     7
370
     0
100
AcDbSpline
210
0.0
220
0.0
230
1.0
 70
     8
 71
     3
 72
    14
 73
    10
 74
     0
 42
0.00000001
 43
0.00000001
 12
1.0
 22
0.0
 32
0.0
 13
1.0
 23
0.0
 33
0.0
 40
0.0
 40
0.0
 40
0.0
 40
0.0
 40
0.25
 40
0.25
 40
0.5
 40
0.5
 40
0.75
 40
0.75
 40
1.0
 40
1.0
 40
1.0
 40
1.0
 10
174.1208834257918
 20
118.248022777461
 30
0.0
 10
174.2191077722947
 20
118.0750593476575
 30
0.0
 10
174.2944226102788
 20
117.8900267932331
 30
0.0
 10
174.3953893204731
 20
117.5070145790986
 30
0.0
 10
174.4207649067633
 20
117.312296025633
 30
0.0
 10
174.4210011320296
 20
116.9149207243674
 30
0.0
 10
174.3952980626941
 20
116.717428389892
 30
0.0
 10
174.2949779491776
 20
116.336256555261
 30
0.0
 10
174.21908612109
 20
116.1493847432884
 30
0.0
 10
174.1208834257963
 20
115.9764594391385
 30
0.0
  0
LINE
  5
112
330
1F
100
AcDbEntity
  8
0
  6
HIDDEN
 62
     7
370
     0
100
AcDbLine
 10
174.6208834258
 20
125.6122411083
 30
0.0
 11
174.6208834258
 21
108.6122411083
 31
0.0
  0
SPLINE
  5
113
330
1F
100
AcDbEntity
  8
0
  6
HIDDEN
 62
     7
370
     0
100
AcDbSpline
210
0.0
220
0.0
230
1.0
 70
     8
 71
     3
 72
    14
 73
    10
 74
     0
 42
0.00000001
 43
0.00000001
 12
1.0
 22
0.0
 32
0.0
 13
1.0
 23
0.0
 33
0.0
 40
0.0
 40
0.0
 40
0.0
 40
0.0
 40
0.25
 40
0.25
 40
0.5
 40
0.5
 40
0.75
 40
0.75
 40
1.0
 40
1.0
 40
1.0
 40
1.0
 10
174.1208834257918
 20
115.9764594391409
 30
0.0
 10
174.2191077722947
 20
116.1494228689444
 30
0.0
 10
174.2944226102788
 20
116.3344554233688
 30
0.0
 10
174.3953893204731
 20
116.7174676375033
 30
0.0
 10
174.4207649067633
 20
116.9121861909689
 30
0.0
 10
174.4210011320296
 20
117.3095614922345
 30
0.0
 10
174.3952980626941
 20
117.5070538267099
 30
0.0
 10
174.2949779491776
 20
117.8882256613409
 30
0.0
 10
174.21908612109
 20
118.0750974733135
 30
0.0
 10
174.1208834257963
 20
118.2480227774634
 30
0.0
  0
SPLINE
  5
114
330
1F
100
AcDbEntity
  8
0
  6
HIDDEN
 62
     7
370
     0
100
AcDbSpline
210
0.0
220
0.0
230
1.0
 70
     8
 71
     3
 72
    60
 73
    56
 74
     0
 42
0.00000001
 43
0.00000001
 12
1.0
 22
0.0
 32
0.0
 13
1.0
 23
0.0
 33
0.0
 40
0.0
 40
0.0
 40
0.0
 40
0.0
 40
0.0624999999999997
 40
0.0624999999999997
 40
0.1249999999999993
 40
0.1249999999999993
 40
0.187499999999999
 40
0.187499999999999
 40
0.2187499999999988
 40
0.2187499999999988
 40
0.2499999999999987
 40
0.2499999999999987
 40
0.3124999999999988
 40
0.3124999999999988
 40
0.3749999999999989
 40
0.3749999999999989
 40
0.4062499999999989
 40
0.4062499999999989
 40
0.437499999999999
 40
0.437499999999999
 40
0.4687499999999991
 40
0.4687499999999991
 40
0.4999999999999991
 40
0.4999999999999991
 40
0.5312499999999991
 40
0.5312499999999991
 40
0.5624999999999992
 40
0.5624999999999992
 40
0.5937499999999992
 40
0.5937499999999992
 40
0.6249999999999993
 40
0.6249999999999993
 40
0.6562499999999993
 40
0.6562499999999993
 40
0.6874999999999994
 40
0.6874999999999994
 40
0.7187499999999994
 40
0.7187499999999994
 40
0.7499999999999996
 40
0.7499999999999996
 40
0.7812499999999996
 40
0.7812499999999996
 40
0.8124999999999997
 40
0.8124999999999997
 40
0.8437499999999997
 40
0.8437499999999997
 40
0.8749999999999998
 40
0.8749999999999998
 40
0.9062499999999998
 40
0.9062499999999998
 40
0.9374999999999999
 40
0.9374999999999999
 40
0.9687499999999999
 40
0.9687499999999999
 40
1.0
 40
1.0
 40
1.0
 40
1.0
 10
174.1208834257918
 20
115.9764594391409
 30
0.0
 10
173.9956935242131
 20
115.7560123145253
 30
0.0
 10
173.8388262056449
 20
115.562278585705
 30
0.0
 10
173.4617886858261
 20
115.2265888869425
 30
0.0
 10
173.2500753794051
 20
115.0926115286298
 30
0.0
 10
172.7841853974563
 20
114.8954847839447
 30
0.0
 10
172.5383461664047
 20
114.8362673717228
 30
0.0
 10
172.1588651133102
 20
114.8090606358321
 30
0.0
 10
172.0311193846162
 20
114.810553900974
 30
0.0
 10
171.7806531379481
 20
114.8340697067829
 30
0.0
 10
171.6568237551398
 20
114.8559889255872
 30
0.0
 10
171.2896040810412
 20
114.9528254904321
 30
0.0
 10
171.0588350629555
 20
115.0566266118839
 30
0.0
 10
170.638946101536
 20
115.3353450928119
 30
0.0
 10
170.4546877266484
 20
115.5069073843156
 30
0.0
 10
170.2239393391651
 20
115.8055547455824
 30
0.0
 10
170.1548924893761
 20
115.9120222860847
 30
0.0
 10
170.0363278255706
 20
116.1323056344777
 30
0.0
 10
169.986119456821
 20
116.2469671508791
 30
0.0
 10
169.9042876044632
 20
116.4856477876558
 30
0.0
 10
169.8729367055805
 20
116.6096934145339
 30
0.0
 10
169.8315423275419
 20
116.8578084506423
 30
0.0
 10
169.8210365524776
 20
116.9830461531307
 30
0.0
 10
169.8207336001419
 20
117.2359252087218
 30
0.0
 10
169.8312181297584
 20
117.3638048949584
 30
0.0
 10
169.8723582072199
 20
117.6122269561638
 30
0.0
 10
169.9029363277685
 20
117.7340258829322
 30
0.0
 10
169.9842190361197
 20
117.9728054124065
 30
0.0
 10
170.0352199226817
 20
118.0898469747132
 30
0.0
 10
170.1537869710447
 20
118.3106721726391
 30
0.0
 10
170.2216757243165
 20
118.4156105362019
 30
0.0
 10
170.3748261620541
 20
118.6145878694313
 30
0.0
 10
170.4603823336266
 20
118.7085959946254
 30
0.0
 10
170.6430937045858
 20
118.8790886795622
 30
0.0
 10
170.7409010042677
 20
118.9565268746115
 30
0.0
 10
170.9497041161847
 20
119.0956927704998
 30
0.0
 10
171.0612862914726
 20
119.1574745795068
 30
0.0
 10
171.2899320909716
 20
119.2605534501076
 30
0.0
 10
171.4078869019427
 20
119.3025574853032
 30
0.0
 10
171.6512153469315
 20
119.3672936066
 30
0.0
 10
171.7775592222745
 20
119.3899668691627
 30
0.0
 10
172.0286652032923
 20
119.4138496653439
 30
0.0
 10
172.1543471970153
 20
119.4154529666105
 30
0.0
 10
172.4059692668071
 20
119.3979862278397
 30
0.0
 10
172.5328668870928
 20
119.3785503371997
 30
0.0
 10
172.778057453354
 20
119.319957165876
 30
0.0
 10
172.8972466103875
 20
119.2808943147194
 30
0.0
 10
173.1289316347423
 20
119.1833845925956
 30
0.0
 10
173.2421064390929
 20
119.124349238307
 30
0.0
 10
173.4541848560285
 20
118.9905455214675
 30
0.0
 10
173.5539736347294
 20
118.9155503053228
 30
0.0
 10
173.7412318217183
 20
118.749355240802
 30
0.0
 10
173.8291268586617
 20
118.6574610420604
 30
0.0
 10
173.9873479342936
 20
118.4620968443461
 30
0.0
 10
174.0582858905852
 20
118.3582508906736
 30
0.0
 10
174.1208834257918
 20
118.248022777461
 30
0.0
  0
SPLINE
  5
115
330
1F
100
AcDbEntity
  8
0
  6
HIDDEN
 62
     7
370
     0
100
AcDbSpline
210
0.0
220
0.0
230
1.0
 70
     8
 71
     3
 72
    60
 73
    56
 74
     0
 42
0.00000001
 43
0.00000001
 12
1.0
 22
0.0
 32
0.0
 13
1.0
 23
0.0
 33
0.0
 40
0.0
 40
0.0
 40
0.0
 40
0.0
 40
0.0624999999999997
 40
0.0624999999999997
 40
0.1249999999999993
 40
0.1249999999999993
 40
0.187499999999999
 40
0.187499999999999
 40
0.2187499999999988
 40
0.2187499999999988
 40
0.2499999999999987
 40
0.2499999999999987
 40
0.3124999999999988
 40
0.3124999999999988
 40
0.3749999999999989
 40
0.3749999999999989
 40
0.4062499999999989
 40
0.4062499999999989
 40
0.437499999999999
 40
0.437499999999999
 40
0.4687499999999991
 40
0.4687499999999991
 40
0.4999999999999991
 40
0.4999999999999991
 40
0.5312499999999991
 40
0.5312499999999991
 40
0.5624999999999992
 40
0.5624999999999992
 40
0.5937499999999992
 40
0.5937499999999992
 40
0.6249999999999993
 40
0.6249999999999993
 40
0.6562499999999993
 40
0.6562499999999993
 40
0.6874999999999994
 40
0.6874999999999994
 40
0.7187499999999994
 40
0.7187499999999994
 40
0.7499999999999996
 40
0.7499999999999996
 40
0.7812499999999996
 40
0.7812499999999996
 40
0.8124999999999997
 40
0.8124999999999997
 40
0.8437499999999997
 40
0.8437499999999997
 40
0.8749999999999998
 40
0.8749999999999998
 40
0.9062499999999998
 40
0.9062499999999998
 40
0.9374999999999999
 40
0.9374999999999999
 40
0.9687499999999999
 40
0.9687499999999999
 40
1.0
 40
1.0
 40
1.0
 40
1.0
 10
174.1208834257918
 20
118.248022777461
 30
0.0
 10
173.9956935242131
 20
118.4684699020766
 30
0.0
 10
173.8388262056449
 20
118.6622036308969
 30
0.0
 10
173.4617886858261
 20
118.9978933296594
 30
0.0
 10
173.2500753794051
 20
119.1318706879721
 30
0.0
 10
172.7841853974563
 20
119.3289974326572
 30
0.0
 10
172.5383461664047
 20
119.3882148448791
 30
0.0
 10
172.1588651133102
 20
119.4154215807698
 30
0.0
 10
172.0311193846162
 20
119.4139283156279
 30
0.0
 10
171.7806531379481
 20
119.390412509819
 30
0.0
 10
171.6568237551398
 20
119.3684932910147
 30
0.0
 10
171.2896040810412
 20
119.2716567261698
 30
0.0
 10
171.0588350629555
 20
119.167855604718
 30
0.0
 10
170.638946101536
 20
118.88913712379
 30
0.0
 10
170.4546877266484
 20
118.7175748322863
 30
0.0
 10
170.2239393391651
 20
118.4189274710195
 30
0.0
 10
170.1548924893761
 20
118.3124599305172
 30
0.0
 10
170.0363278255706
 20
118.0921765821242
 30
0.0
 10
169.986119456821
 20
117.9775150657229
 30
0.0
 10
169.9042876044632
 20
117.7388344289461
 30
0.0
 10
169.8729367055805
 20
117.614788802068
 30
0.0
 10
169.8315423275419
 20
117.3666737659596
 30
0.0
 10
169.8210365524776
 20
117.2414360634712
 30
0.0
 10
169.8207336001419
 20
116.9885570078801
 30
0.0
 10
169.8312181297584
 20
116.8606773216435
 30
0.0
 10
169.8723582072199
 20
116.6122552604381
 30
0.0
 10
169.9029363277685
 20
116.4904563336697
 30
0.0
 10
169.9842190361197
 20
116.2516768041954
 30
0.0
 10
170.0352199226817
 20
116.1346352418887
 30
0.0
 10
170.1537869710447
 20
115.9138100439628
 30
0.0
 10
170.2216757243165
 20
115.8088716804
 30
0.0
 10
170.3748261620541
 20
115.6098943471706
 30
0.0
 10
170.4603823336266
 20
115.5158862219764
 30
0.0
 10
170.6430937045858
 20
115.3453935370397
 30
0.0
 10
170.7409010042677
 20
115.2679553419904
 30
0.0
 10
170.9497041161847
 20
115.1287894461021
 30
0.0
 10
171.0612862914726
 20
115.0670076370951
 30
0.0
 10
171.2899320909716
 20
114.9639287664943
 30
0.0
 10
171.4078869019427
 20
114.9219247312987
 30
0.0
 10
171.6512153469315
 20
114.8571886100019
 30
0.0
 10
171.7775592222745
 20
114.8345153474392
 30
0.0
 10
172.0286652032923
 20
114.810632551258
 30
0.0
 10
172.1543471970153
 20
114.8090292499914
 30
0.0
 10
172.4059692668071
 20
114.8264959887622
 30
0.0
 10
172.5328668870928
 20
114.8459318794022
 30
0.0
 10
172.778057453354
 20
114.9045250507259
 30
0.0
 10
172.8972466103875
 20
114.9435879018825
 30
0.0
 10
173.1289316347423
 20
115.0410976240063
 30
0.0
 10
173.2421064390929
 20
115.1001329782949
 30
0.0
 10
173.4541848560285
 20
115.2339366951344
 30
0.0
 10
173.5539736347294
 20
115.3089319112791
 30
0.0
 10
173.7412318217183
 20
115.4751269757999
 30
0.0
 10
173.8291268586617
 20
115.5670211745415
 30
0.0
 10
173.9873479342936
 20
115.7623853722558
 30
0.0
 10
174.0582858905852
 20
115.8662313259283
 30
0.0
 10
174.1208834257918
 20
115.9764594391409
 30
0.0
  0
LINE
  5
116
330
1F
100
AcDbEntity
  8
0
  6
HIDDEN
 62
     7
370
     0
100
AcDbLine
 10
175.5208834258
 20
123.3622411083
 30
0.0
 11
175.5208834258
 21
110.8622411083
 31
0.0
  0
LINE
  5
117
330
1F
100
AcDbEntity
  8
0
  6
HIDDEN
 62
     7
370
     0
100
AcDbLine
 10
174.6208834258
 20
109.9622411083
 30
0.0
 11
174.6208834258
 21
124.2496837904
 31
0.0
  0
LINE
  5
118
330
1F
100
AcDbEntity
  8
0
  6
HIDDEN
 62
     7
370
     0
100
AcDbLine
 10
200.6055045569
 20
110.8622411083
 30
0.0
 11
200.6055045569
 21
123.3622411083
 31
0.0
  0
SPLINE
  5
119
330
1F
100
AcDbEntity
  8
0
  6
HIDDEN
 62
     7
370
     0
100
AcDbSpline
210
0.0
220
0.0
230
1.0
 70
     8
 71
     3
 72
    62
 73
    58
 74
     0
 42
0.00000001
 43
0.00000001
 12
1.0
 22
0.0
 32
0.0
 13
1.0
 23
0.0
 33
0.0
 40
-0.0312500000000003
 40
-0.0312500000000003
 40
0.0
 40
0.0
 40
0.0312499999999996
 40
0.0312499999999996
 40
0.0624999999999992
 40
0.0624999999999992
 40
0.0937499999999988
 40
0.0937499999999988
 40
0.1249999999999983
 40
0.1249999999999983
 40
0.1874999999999975
 40
0.1874999999999975
 40
0.2187499999999971
 40
0.2187499999999971
 40
0.2499999999999967
 40
0.2499999999999967
 40
0.2812499999999964
 40
0.2812499999999964
 40
0.312499999999996
 40
0.312499999999996
 40
0.3437499999999957
 40
0.3437499999999957
 40
0.3749999999999953
 40
0.3749999999999953
 40
0.4062499999999953
 40
0.4062499999999953
 40
0.4374999999999952
 40
0.4374999999999952
 40
0.4687499999999951
 40
0.4687499999999951
 40
0.499999999999995
 40
0.499999999999995
 40
0.5624999999999952
 40
0.5624999999999952
 40
0.5937499999999954
 40
0.5937499999999954
 40
0.6249999999999957
 40
0.6249999999999957
 40
0.6874999999999962
 40
0.6874999999999962
 40
0.7187499999999967
 40
0.7187499999999967
 40
0.749999999999997
 40
0.749999999999997
 40
0.7812499999999973
 40
0.7812499999999973
 40
0.8124999999999978
 40
0.8124999999999978
 40
0.8749999999999984
 40
0.8749999999999984
 40
0.9062499999999989
 40
0.9062499999999989
 40
0.9374999999999992
 40
0.9374999999999992
 40
0.9687499999999997
 40
0.9687499999999997
 40
1.0
 40
1.0
 40
1.03125
 40
1.03125
 10
197.4810418799902
 20
113.1255380338835
 30
0.0
 10
197.7607249715937
 20
113.1255380338835
 30
0.0
 10
197.8980089285512
 20
113.1368264237281
 30
0.0
 10
198.1677446834026
 20
113.1810983191681
 30
0.0
 10
198.3016267024981
 20
113.2146729062484
 30
0.0
 10
198.5553732608962
 20
113.3022173846315
 30
0.0
 10
198.6755589226388
 20
113.3559182603169
 30
0.0
 10
198.9030215141526
 20
113.4838950090328
 30
0.0
 10
199.0098367196142
 20
113.558283938864
 30
0.0
 10
199.2980813169389
 20
113.8050707543521
 30
0.0
 10
199.4542020158401
 20
114.0076799409096
 30
0.0
 10
199.6119174766823
 20
114.3464987713215
 30
0.0
 10
199.6528267057899
 20
114.4673203016179
 30
0.0
 10
199.7072036108122
 20
114.716385082247
 30
0.0
 10
199.7207910787018
 20
114.8435130050704
 30
0.0
 10
199.7209748436894
 20
115.1030922303943
 30
0.0
 10
199.7070888074832
 20
115.2365199824474
 30
0.0
 10
199.6530017229326
 20
115.4965696370567
 30
0.0
 10
199.6129929668876
 20
115.6245921578327
 30
0.0
 10
199.5066466923053
 20
115.8762079189643
 30
0.0
 10
199.4414474173878
 20
115.996815472233
 30
0.0
 10
199.2897400133496
 20
116.2243703828247
 30
0.0
 10
199.2019393387096
 20
116.3328883615869
 30
0.0
 10
199.0086014293463
 20
116.5306033914778
 30
0.0
 10
198.9036530433347
 20
116.6196576999186
 30
0.0
 10
198.6769250333887
 20
116.7776044739366
 30
0.0
 10
198.5541532824066
 20
116.8466404421993
 30
0.0
 10
198.3014748101812
 20
116.9572010571077
 30
0.0
 10
198.1704938386806
 20
116.9996878710332
 30
0.0
 10
197.8987054674318
 20
117.0575259538326
 30
0.0
 10
197.7594718570975
 20
117.0721869357246
 30
0.0
 10
197.3462880742992
 20
117.072366690563
 30
0.0
 10
197.0682123295844
 20
117.0130335153492
 30
0.0
 10
196.6881435015532
 20
116.8469417761155
 30
0.0
 10
196.565375259611
 20
116.7779234657579
 30
0.0
 10
196.3386890937247
 20
116.6201108298028
 30
0.0
 10
196.2335209851793
 20
116.5309675556737
 30
0.0
 10
195.9424344894492
 20
116.2332892823302
 30
0.0
 10
195.7885039672211
 20
116.0022868097846
 30
0.0
 10
195.6290723644713
 20
115.6254116493665
 30
0.0
 10
195.5890711669159
 20
115.4976078796305
 30
0.0
 10
195.5349119459864
 20
115.2380734574863
 30
0.0
 10
195.520889039437
 20
115.1047377544828
 30
0.0
 10
195.5208778156003
 20
114.8446527185029
 30
0.0
 10
195.5344187687993
 20
114.7174083676668
 30
0.0
 10
195.5886368554092
 20
114.4683508901924
 30
0.0
 10
195.6295168100155
 20
114.3473157751025
 30
0.0
 10
195.7874848871913
 20
114.0076473026123
 30
0.0
 10
195.9435128445462
 20
113.8051807275708
 30
0.0
 10
196.2322599638715
 20
113.5580205097136
 30
0.0
 10
196.3394747986004
 20
113.4834497228229
 30
0.0
 10
196.5663282055503
 20
113.3558855914153
 30
0.0
 10
196.6863457177902
 20
113.302234684661
 30
0.0
 10
196.9401639252443
 20
113.2146639198502
 30
0.0
 10
197.0740309692957
 20
113.181098305786
 30
0.0
 10
197.34369821119
 20
113.1368347933896
 30
0.0
 10
197.4810418799902
 20
113.1255380338835
 30
0.0
 10
197.7607249715937
 20
113.1255380338835
 30
0.0
  0
LINE
  5
11A
330
1F
100
AcDbEntity
  8
0
  6
HIDDEN
 62
     7
370
     0
100
AcDbLine
 10
222.6997958469
 20
140.5663924611
 30
0.0
 11
220.416918108
 21
133.3260292901
 31
0.0
  0
LINE
  5
11B
330
1F
100
AcDbEntity
  8
0
  6
HIDDEN
 62
     7
370
     0
100
AcDbLine
 10
220.416918108
 20
133.3260292901
 30
0.0
 11
220.3740316679
 21
133.3125072474
 31
0.0
  0
LINE
  5
11C
330
1F
100
AcDbEntity
  8
0
  6
HIDDEN
 62
     7
370
     0
100
AcDbLine
 10
219.8078879603
 20
129.9539345724
 30
0.0
 11
230.0746409736
 21
133.1910293632
 31
0.0
  0
LINE
  5
11D
330
1F
100
AcDbEntity
  8
0
  6
HIDDEN
 62
     7
370
     0
100
AcDbLine
 10
230.0746409736
 20
133.1910293632
 30
0.0
 11
230.0611189309
 21
133.148142923
 31
0.0
  0
LINE
  5
11E
330
1F
100
AcDbEntity
  8
0
  6
HIDDEN
 62
     7
370
     0
100
AcDbLine
 10
222.6569094068
 20
140.5528704185
 30
0.0
 11
222.6997958469
 21
140.5663924611
 31
0.0
  0
LINE
  5
11F
330
1F
100
AcDbEntity
  8
0
  6
HIDDEN
 62
     7
370
     0
100
AcDbLine
 10
219.5167500372
 20
130.1415118563
 30
0.0
 11
229.8622384983
 21
133.4034318384
 31
0.0
  0
LINE
  5
120
330
1F
100
AcDbEntity
  8
0
  6
HIDDEN
 62
     7
370
     0
100
AcDbLine
 10
230.0746409736
 20
133.1910293632
 30
0.0
 11
229.8622384983
 21
133.4034318384
 31
0.0
  0
LINE
  5
121
330
1F
100
AcDbEntity
  8
0
  6
HIDDEN
 62
     7
370
     0
100
AcDbLine
 10
220.416918108
 20
133.3260292901
 30
0.0
 11
220.6293205833
 21
133.1136268148
 31
0.0
  0
LINE
  5
122
330
1F
100
AcDbEntity
  8
0
  6
HIDDEN
 62
     7
370
     0
100
AcDbLine
 10
222.9167252413
 20
140.3683475393
 30
0.0
 11
222.6997958469
 21
140.5663924611
 31
0.0
  0
LINE
  5
123
330
1F
100
AcDbEntity
  8
0
  6
HIDDEN
 62
     7
370
     0
100
AcDbLine
 10
222.9167252413
 20
140.3683475393
 30
0.0
 11
220.6293205833
 21
133.1136268148
 31
0.0
  0
LINE
  5
124
330
1F
100
AcDbEntity
  8
0
  6
HIDDEN
 62
     7
370
     0
100
AcDbLine
 10
220.2762222262
 20
133.0022953305
 30
0.0
 11
220.6293205833
 21
133.1136268148
 31
0.0
  0
ELLIPSE
  5
125
330
1F
100
AcDbEntity
  8
0
  6
HIDDEN
 62
     7
370
     0
100
AcDbEllipse
 10
225.0436414666
 20
117.1122411083
 30
0.0
 11
6.557830727603489
 21
20.48565120641979
 31
0.0
210
0.0
220
0.0
230
1.0
 40
0.1169400867
 41
1.608213510505991
 42
3.164375168572015
  0
LINE
  5
126
330
1F
100
AcDbEntity
  8
0
  6
HIDDEN
 62
     7
370
     0
100
AcDbLine
 10
206.7195818416
 20
96.6144363478
 30
0.0
 11
206.7195818416
 21
117.1122411083
 31
0.0
  0
SPLINE
  5
127
330
1F
100
AcDbEntity
  8
0
  6
HIDDEN
 62
     7
370
     0
100
AcDbSpline
210
0.0
220
0.0
230
1.0
 70
     8
 71
     3
 72
    12
 73
     8
 74
     0
 42
0.00000001
 43
0.00000001
 12
1.0
 22
0.0
 32
0.0
 13
1.0
 23
0.0
 33
0.0
 40
0.0
 40
0.0
 40
0.0
 40
0.0
 40
0.5
 40
0.5
 40
0.75
 40
0.75
 40
1.0
 40
1.0
 40
1.0
 40
1.0
 10
206.8194822641019
 20
137.0750831127276
 30
0.0
 10
206.7830293535171
 20
137.1841193002758
 30
0.0
 10
206.7343251141208
 20
137.2931235134732
 30
0.0
 10
206.7168298147704
 20
137.4567917580097
 30
0.0
 10
206.7195940950574
 20
137.5113274364496
 30
0.0
 10
206.7405049780912
 20
137.6203622827513
 30
0.0
 10
206.7584794953232
 20
137.6748618590651
 30
0.0
 10
206.7782544625186
 20
137.7293571619365
 30
0.0
  0
LINE
  5
128
330
1F
100
AcDbEntity
  8
0
  6
HIDDEN
 62
     7
370
     0
100
AcDbLine
 10
229.8622384983
 20
133.4034318384
 30
0.0
 11
229.6478062977
 21
133.3358216252
 31
0.0
  0
LINE
  5
129
330
1F
100
AcDbEntity
  8
0
  6
HIDDEN
 62
     7
370
     0
100
AcDbLine
 10
222.852244235
 20
140.1638399147
 30
0.0
 11
222.9167252413
 21
140.3683475393
 31
0.0
  0
LINE
  5
12A
330
1F
100
AcDbEntity
  8
0
  6
HIDDEN
 62
     7
370
     0
100
AcDbLine
 10
161.1208834258
 20
130.6097714941
 30
0.0
 11
161.1208834258
 21
126.769852028
 31
0.0
  0
LINE
  5
12B
330
1F
100
AcDbEntity
  8
0
  6
HIDDEN
 62
     7
370
     0
100
AcDbLine
 10
159.6208834258
 20
129.7437460904
 30
0.0
 11
159.6208834258
 21
126.3368393261
 31
0.0
  0
LINE
  5
12C
330
1F
100
AcDbEntity
  8
0
  6
HIDDEN
 62
     7
370
     0
100
AcDbLine
 10
181.9208834258
 20
131.1323398929
 30
0.0
 11
181.9208834258
 21
131.0324774966
 31
0.0
  0
SPLINE
  5
12D
330
1F
100
AcDbEntity
  8
0
  6
HIDDEN
 62
     7
370
     0
100
AcDbSpline
210
0.0
220
0.0
230
1.0
 70
     8
 71
     3
 72
    24
 73
    20
 74
     0
 42
0.00000001
 43
0.00000001
 12
1.0
 22
0.0
 32
0.0
 13
1.0
 23
0.0
 33
0.0
 40
0.0
 40
0.0
 40
0.0
 40
0.0
 40
0.2499999999999932
 40
0.2499999999999932
 40
0.3749999999999887
 40
0.3749999999999887
 40
0.4374999999999851
 40
0.4374999999999851
 40
0.4999999999999815
 40
0.4999999999999815
 40
0.5312499999999811
 40
0.5312499999999811
 40
0.5624999999999808
 40
0.5624999999999808
 40
0.624999999999983
 40
0.624999999999983
 40
0.7499999999999893
 40
0.7499999999999893
 40
1.0
 40
1.0
 40
1.0
 40
1.0
 10
182.1258434478522
 20
130.8513256394609
 30
0.0
 10
182.1100768595538
 20
130.8371046684727
 30
0.0
 10
182.0934653265992
 20
130.8228743781378
 30
0.0
 10
182.0649389786412
 20
130.8040773229164
 30
0.0
 10
182.0548535448512
 20
130.7981889025751
 30
0.0
 10
182.0373707743163
 20
130.7916515077727
 30
0.0
 10
182.0311631178707
 20
130.7898402937716
 30
0.0
 10
182.0168916176256
 20
130.7882344912651
 30
0.0
 10
182.0093215471225
 20
130.787681713879
 30
0.0
 10
181.9919252176872
 20
130.7948804585918
 30
0.0
 10
181.9834659447272
 20
130.7999722073394
 30
0.0
 10
181.9674049801796
 20
130.8177871398186
 30
0.0
 10
181.9625717443333
 20
130.826309554681
 30
0.0
 10
181.951145824598
 20
130.8482059913297
 30
0.0
 10
181.9471244687155
 20
130.8599465141356
 30
0.0
 10
181.9363639736844
 20
130.893996778089
 30
0.0
 10
181.9324896646235
 20
130.9135717671177
 30
0.0
 10
181.9233167924964
 20
130.9694200757989
 30
0.0
 10
181.9212844217816
 20
131.0021978368277
 30
0.0
 10
181.9208834257918
 20
131.0324774966157
 30
0.0
  0
SPLINE
  5
12E
330
1F
100
AcDbEntity
  8
0
  6
HIDDEN
 62
     7
370
     0
100
AcDbSpline
210
0.0
220
0.0
230
1.0
 70
     8
 71
     3
 72
     8
 73
     4
 74
     0
 42
0.00000001
 43
0.00000001
 12
1.0
 22
0.0
 32
0.0
 13
1.0
 23
0.0
 33
0.0
 40
0.0
 40
0.0
 40
0.0
 40
0.0
 40
1.0
 40
1.0
 40
1.0
 40
1.0
 10
182.2995630822322
 20
130.9373051163061
 30
0.0
 10
182.2344579206181
 20
130.9255840866475
 30
0.0
 10
182.1765705910581
 20
130.8970799407847
 30
0.0
 10
182.1258434478521
 20
130.851325639461
 30
0.0
  0
LINE
  5
12F
330
1F
100
AcDbEntity
  8
0
  6
HIDDEN
 62
     7
370
     0
100
AcDbLine
 10
181.9208834258
 20
128.0862791005
 30
0.0
 11
181.9208834258
 21
127.0311362274
 31
0.0
  0
SPLINE
  5
130
330
1F
100
AcDbEntity
  8
0
  6
HIDDEN
 62
     7
370
     0
100
AcDbSpline
210
0.0
220
0.0
230
1.0
 70
     8
 71
     3
 72
    16
 73
    12
 74
     0
 42
0.00000001
 43
0.00000001
 12
1.0
 22
0.0
 32
0.0
 13
1.0
 23
0.0
 33
0.0
 40
0.0
 40
0.0
 40
0.0
 40
0.0
 40
0.25
 40
0.25
 40
0.375
 40
0.375
 40
0.5
 40
0.5
 40
0.75
 40
0.75
 40
1.0
 40
1.0
 40
1.0
 40
1.0
 10
181.9208834257916
 20
131.0324774966159
 30
0.0
 10
181.8403460938921
 20
130.9524088104633
 30
0.0
 10
181.7803087498647
 20
130.8285443189726
 30
0.0
 10
181.7195710427111
 20
130.5778634950397
 30
0.0
 10
181.7042486675982
 20
130.4834248907299
 30
0.0
 10
181.6836658582941
 20
130.2721138231105
 30
0.0
 10
181.6784662612685
 20
130.1548243683564
 30
0.0
 10
181.6784126080887
 20
129.7767886965999
 30
0.0
 10
181.6986101515666
 20
129.4880115428548
 30
0.0
 10
181.7792882399253
 20
128.8381716797136
 30
0.0
 10
181.8403344045332
 20
128.4753427458197
 30
0.0
 10
181.9208834257918
 20
128.0862791005466
 30
0.0
  0
LINE
  5
131
330
1F
100
AcDbEntity
  8
0
  6
HIDDEN
 62
     7
370
     0
100
AcDbLine
 10
161.1208834258
 20
107.4546301886
 30
0.0
 11
161.1208834258
 21
103.6147107225
 31
0.0
  0
LINE
  5
132
330
1F
100
AcDbEntity
  8
0
  6
HIDDEN
 62
     7
370
     0
100
AcDbLine
 10
159.6208834258
 20
107.8876428905
 30
0.0
 11
159.6208834258
 21
104.4807361262
 31
0.0
  0
LINE
  5
133
330
1F
100
AcDbEntity
  8
0
  6
HIDDEN
 62
     7
370
     0
100
AcDbLine
 10
181.9208834258
 20
107.1933459892
 30
0.0
 11
181.9208834258
 21
106.1382031161
 31
0.0
  0
LINE
  5
134
330
1F
100
AcDbEntity
  8
0
  6
HIDDEN
 62
     7
370
     0
100
AcDbLine
 10
181.9208834258
 20
103.19200472
 30
0.0
 11
181.9208834258
 21
103.0921423237
 31
0.0
  0
SPLINE
  5
135
330
1F
100
AcDbEntity
  8
0
  6
HIDDEN
 62
     7
370
     0
100
AcDbSpline
210
0.0
220
0.0
230
1.0
 70
     8
 71
     3
 72
    16
 73
    12
 74
     0
 42
0.00000001
 43
0.00000001
 12
1.0
 22
0.0
 32
0.0
 13
1.0
 23
0.0
 33
0.0
 40
0.0
 40
0.0
 40
0.0
 40
0.0
 40
0.2500000000000003
 40
0.2500000000000003
 40
0.3750000000000003
 40
0.3750000000000003
 40
0.5000000000000004
 40
0.5000000000000004
 40
0.7500000000000001
 40
0.7500000000000001
 40
1.0
 40
1.0
 40
1.0
 40
1.0
 10
181.9208834257916
 20
106.1382031160545
 30
0.0
 10
181.8403460938925
 20
105.7491959321105
 30
0.0
 10
181.7803087498652
 20
105.3926954904862
 30
0.0
 10
181.7195710427116
 20
104.9061931052988
 30
0.0
 10
181.7042486675986
 20
104.7521141644454
 30
0.0
 10
181.6836658582944
 20
104.4606446059528
 30
0.0
 10
181.6784662612687
 20
104.3230747220539
 30
0.0
 10
181.6784126080883
 20
103.9448298868646
 30
0.0
 10
181.6986101515658
 20
103.7349488183125
 30
0.0
 10
181.7792882399232
 20
103.3983695194007
 30
0.0
 10
181.8403344045303
 20
103.2720850274822
 30
0.0
 10
181.9208834257879
 20
103.1920047199897
 30
0.0
  0
SPLINE
  5
136
330
1F
100
AcDbEntity
  8
0
  6
HIDDEN
 62
     7
370
     0
100
AcDbSpline
210
0.0
220
0.0
230
1.0
 70
     8
 71
     3
 72
    24
 73
    20
 74
     0
 42
0.00000001
 43
0.00000001
 12
1.0
 22
0.0
 32
0.0
 13
1.0
 23
0.0
 33
0.0
 40
0.0
 40
0.0
 40
0.0
 40
0.0
 40
0.2500000000000016
 40
0.2500000000000016
 40
0.3750000000000013
 40
0.3750000000000013
 40
0.4374999999999992
 40
0.4374999999999992
 40
0.4687499999999981
 40
0.4687499999999981
 40
0.499999999999997
 40
0.499999999999997
 40
0.5624999999999978
 40
0.5624999999999978
 40
0.6249999999999987
 40
0.6249999999999987
 40
0.7499999999999999
 40
0.7499999999999999
 40
1.0
 40
1.0
 40
1.0
 40
1.0
 10
181.9208834257917
 20
103.1920047199935
 30
0.0
 10
181.9212863364275
 20
103.2224289568315
 30
0.0
 10
181.9233303157681
 20
103.2552870573857
 30
0.0
 10
181.9325675585942
 20
103.3113124245393
 30
0.0
 10
181.9364546215748
 20
103.3309234777247
 30
0.0
 10
181.9473585129814
 20
103.3651977611542
 30
0.0
 10
181.9515005587318
 20
103.3772601866264
 30
0.0
 10
181.9633956324845
 20
103.3995793513259
 30
0.0
 10
181.9686426967934
 20
103.4085458636862
 30
0.0
 10
181.9855097631724
 20
103.4261954282125
 30
0.0
 10
181.9933321706976
 20
103.4303397123523
 30
0.0
 10
182.0102809713192
 20
103.4368272535263
 30
0.0
 10
182.0177373225372
 20
103.4362303721547
 30
0.0
 10
182.0317972257295
 20
103.4344841081826
 30
0.0
 10
182.0379296108655
 20
103.4326534202842
 30
0.0
 10
182.0552243733887
 20
103.4260870107113
 30
0.0
 10
182.0652416917977
 20
103.4202217955526
 30
0.0
 10
182.0936130260405
 20
103.4014771115223
 30
0.0
 10
182.1101484636849
 20
103.3873129634356
 30
0.0
 10
182.1258434478494
 20
103.3731565771434
 30
0.0
  0
SPLINE
  5
137
330
1F
100
AcDbEntity
  8
0
  6
HIDDEN
 62
     7
370
     0
100
AcDbSpline
210
0.0
220
0.0
230
1.0
 70
     8
 71
     3
 72
     8
 73
     4
 74
     0
 42
0.00000001
 43
0.00000001
 12
1.0
 22
0.0
 32
0.0
 13
1.0
 23
0.0
 33
0.0
 40
0.0
 40
0.0
 40
0.0
 40
0.0
 40
1.0
 40
1.0
 40
1.0
 40
1.0
 10
182.1258434478494
 20
103.3731565771434
 30
0.0
 10
182.176570591056
 20
103.3274022758181
 30
0.0
 10
182.2344579206169
 20
103.2988981299546
 30
0.0
 10
182.2995630822322
 20
103.2871771002958
 30
0.0
  0
LINE
  5
138
330
1F
100
AcDbEntity
  8
0
  6
HIDDEN
 62
     7
370
     0
100
AcDbLine
 10
232.2991225114
 20
143.142429194
 30
0.0
 11
231.861454944
 21
142.715424846
 31
0.0
  0
LINE
  5
139
330
1F
100
AcDbEntity
  8
0
  6
HIDDEN
 62
     7
370
     0
100
AcDbLine
 10
231.8326600345
 20
142.0256155133
 30
0.0
 11
232.6342795083
 21
142.8077045375
 31
0.0
  0
CIRCLE
  5
13A
330
1F
100
AcDbEntity
  8
0
  6
HIDDEN
 62
     7
370
     0
100
AcDbCircle
 10
226.4496022216
 20
136.9409599041
 30
0.0
 40
2.400000000000006
  0
LINE
  5
13B
330
1F
100
AcDbEntity
  8
0
  6
HIDDEN
 62
     7
370
     0
100
AcDbLine
 10
232.6342795083
 20
142.8077045375
 30
0.0
 11
232.2991225114
 21
143.142429194
 31
0.0
  0
LINE
  5
13C
330
1F
100
AcDbEntity
  8
0
  6
HIDDEN
 62
     7
370
     0
100
AcDbLine
 10
220.6293205833
 20
133.1136268148
 30
0.0
 11
218.2467472937
 21
132.3624043422
 31
0.0
  0
ARC
  5
13D
330
1F
100
AcDbEntity
  8
0
  6
HIDDEN
 62
     7
370
     0
100
AcDbCircle
 10
218.6226295431
 20
131.1702581538
 30
0.0
 40
1.250000000000039
100
AcDbArc
 50
107.5
 51
287.5
  0
LINE
  5
13E
330
1F
100
AcDbEntity
  8
0
  6
HIDDEN
 62
     7
370
     0
100
AcDbLine
 10
222.852244235
 20
140.1638399147
 30
0.0
 11
220.6293205833
 21
133.1136268148
 31
0.0
  0
LINE
  5
13F
330
1F
100
AcDbEntity
  8
0
  6
HIDDEN
 62
     7
370
     0
100
AcDbLine
 10
218.9985117925
 20
129.9781119653
 30
0.0
 11
229.6478062977
 21
133.3358216252
 31
0.0
  0
LINE
  5
140
330
1F
100
AcDbEntity
  8
0
  6
HIDDEN
 62
     7
370
     0
100
AcDbLine
 10
222.852244235
 20
140.1638399147
 30
0.0
 11
232.2991225114
 21
143.142429194
 31
0.0
  0
LINE
  5
141
330
1F
100
AcDbEntity
  8
0
  6
HIDDEN
 62
     7
370
     0
100
AcDbLine
 10
232.6342795083
 20
142.8077045375
 30
0.0
 11
229.6478062977
 21
133.3358216252
 31
0.0
  0
CIRCLE
  5
142
330
1F
100
AcDbEntity
  8
0
  6
HIDDEN
 62
     7
370
     0
100
AcDbCircle
 10
226.4496022216
 20
136.9409599041
 30
0.0
 40
1.650000000000006
  0
LWPOLYLINE
  5
143
330
1F
100
AcDbEntity
  8
0
  6
HIDDEN
 62
     7
370
     0
100
AcDbPolyline
 90
       29
 70
   128
 43
0.0
 10
197.6208834258
 20
110.4328071721
 10
198.0881773871
 20
110.4822832895
 10
198.5320392779
 20
110.6282307026
 10
198.9302120097
 20
110.8633309987
 10
199.262729539
 20
111.1757952673
 10
199.5129180484
 20
111.5499552451
 10
199.6682320414
 20
111.9670489886
 10
199.7208834258
 20
112.4061616758
 10
199.6682320414
 20
112.8452743629
 10
199.5129180484
 20
113.2623681064
 10
199.262729539
 20
113.6365280842
 10
198.9302120097
 20
113.9489923528
 10
198.5320392779
 20
114.1840926489
 10
198.0881773871
 20
114.330040062
 10
197.6208834258
 20
114.3795161794
 10
197.1535894645
 20
114.330040062
 10
196.7097275736
 20
114.1840926489
 10
196.3115548419
 20
113.9489923528
 10
195.9790373126
 20
113.6365280842
 10
195.7288488032
 20
113.2623681064
 10
195.5735348102
 20
112.8452743629
 10
195.5208834258
 20
112.4061616758
 10
195.5735348102
 20
111.9670489886
 10
195.7288488032
 20
111.5499552451
 10
195.9790373126
 20
111.1757952673
 10
196.3115548419
 20
110.8633309987
 10
196.7097275736
 20
110.6282307026
 10
197.1535894645
 20
110.4822832895
 10
197.6208834258
 20
110.4328071721
  0
SPLINE
  5
144
330
1F
100
AcDbEntity
  8
0
  6
HIDDEN
 62
     7
370
     0
100
AcDbSpline
210
0.0
220
0.0
230
1.0
 70
     8
 71
     3
 72
     8
 73
     4
 74
     0
 42
0.00000001
 43
0.00000001
 12
1.0
 22
0.0
 32
0.0
 13
1.0
 23
0.0
 33
0.0
 40
0.0
 40
0.0
 40
0.0
 40
0.0
 40
1.0
 40
1.0
 40
1.0
 40
1.0
 10
208.0880500628469
 20
135.6162136155022
 30
0.0
 10
207.4569182728722
 20
136.0997196839984
 30
0.0
 10
206.9832162476837
 20
136.5853299200352
 30
0.0
 10
206.8194822641019
 20
137.0750831127276
 30
0.0
  0
SPLINE
  5
145
330
1F
100
AcDbEntity
  8
0
  6
HIDDEN
 62
     7
370
     0
100
AcDbSpline
210
0.0
220
0.0
230
1.0
 70
     8
 71
     3
 72
     8
 73
     4
 74
     0
 42
0.00000001
 43
0.00000001
 12
1.0
 22
0.0
 32
0.0
 13
1.0
 23
0.0
 33
0.0
 40
0.0
 40
0.0
 40
0.0
 40
0.0
 40
1.0
 40
1.0
 40
1.0
 40
1.0
 10
208.0880500628469
 20
135.6162136155022
 30
0.0
 10
208.0540550842503
 20
134.3768249805927
 30
0.0
 10
208.0192095131775
 20
133.029496780217
 30
0.0
 10
207.9834465556121
 20
131.569591930474
 30
0.0
  0
ELLIPSE
  5
146
330
1F
100
AcDbEntity
  8
0
  6
HIDDEN
 62
     7
370
     0
100
AcDbEllipse
 10
258.4876502753
 20
118.8122411083
 30
0.0
 11
26.3076033853078
 21
-24.5607056464941
 31
0.0
210
0.0
220
0.0
230
1.0
 40
0.1773639145
 41
3.251163083371852
 42
3.33420033581164
  0
LINE
  5
147
330
1F
100
AcDbEntity
  8
0
  6
HIDDEN
 62
     7
370
     0
100
AcDbLine
 10
208.0880500628
 20
135.6162136155
 30
0.0
 11
211.1039293339
 21
135.6162136155
 31
0.0
  0
SPLINE
  5
148
330
1F
100
AcDbEntity
  8
0
  6
HIDDEN
 62
     7
370
     0
100
AcDbSpline
210
0.0
220
0.0
230
1.0
 70
     8
 71
     3
 72
    12
 73
     8
 74
     0
 42
0.00000001
 43
0.00000001
 12
1.0
 22
0.0
 32
0.0
 13
1.0
 23
0.0
 33
0.0
 40
0.0
 40
0.0
 40
0.0
 40
0.0
 40
0.5000000000000002
 40
0.5000000000000002
 40
0.7500000000000001
 40
0.7500000000000001
 40
1.0
 40
1.0
 40
1.0
 40
1.0
 10
211.1039293339024
 20
135.6162136155022
 30
0.0
 10
211.98900186868
 20
135.6162136155022
 30
0.0
 10
212.8561637901752
 20
135.6939779244976
 30
0.0
 10
214.13115160517
 20
135.9186231591325
 30
0.0
 10
214.5530041137654
 20
136.0119418432348
 30
0.0
 10
215.3824043144687
 20
136.2330184528951
 30
0.0
 10
215.7868621281501
 20
136.3598344026286
 30
0.0
 10
216.1812343917935
 20
136.5016104784542
 30
0.0
  0
ELLIPSE
  5
149
330
1F
100
AcDbEntity
  8
0
  6
HIDDEN
 62
     7
370
     0
100
AcDbEllipse
 10
153.1981927488
 20
118.8122411083
 30
0.0
 11
79.88064978145732
 21
24.84515740113774
 31
0.0
210
0.0
220
0.0
230
1.0
 40
0.0347788424
 41
5.609805464809067
 42
6.097229410209199
  0
ELLIPSE
  5
14A
330
1F
100
AcDbEntity
  8
0
  6
HIDDEN
 62
     7
370
     0
100
AcDbEllipse
 10
225.708392596
 20
118.8122411083
 30
0.0
 11
7.997354545857918
 21
24.98250147124365
 31
0.0
210
0.0
220
0.0
230
1.0
 40
0.1169400867
 41
0.4177665920129241
 42
1.072686856191601
  0
LINE
  5
14B
330
1F
100
AcDbEntity
  8
0
  6
HIDDEN
 62
     7
370
     0
100
AcDbLine
 10
159.6208834258
 20
126.3368393261
 30
0.0
 11
159.6208834258
 21
118.962454922
 31
0.0
  0
LINE
  5
14C
330
1F
100
AcDbEntity
  8
0
  6
HIDDEN
 62
     7
370
     0
100
AcDbLine
 10
159.6208834258
 20
115.2620272947
 30
0.0
 11
159.6208834258
 21
107.8876428905
 31
0.0
  0
SPLINE
  5
14D
330
1F
100
AcDbEntity
  8
0
  6
HIDDEN
 62
     7
370
     0
100
AcDbSpline
210
0.0
220
0.0
230
1.0
 70
     8
 71
     3
 72
    24
 73
    20
 74
     0
 42
0.00000001
 43
0.00000001
 12
1.0
 22
0.0
 32
0.0
 13
1.0
 23
0.0
 33
0.0
 40
0.0
 40
0.0
 40
0.0
 40
0.0
 40
0.2499999999999877
 40
0.2499999999999877
 40
0.3749999999999785
 40
0.3749999999999785
 40
0.4374999999999755
 40
0.4374999999999755
 40
0.4999999999999725
 40
0.4999999999999725
 40
0.5312499999999715
 40
0.5312499999999715
 40
0.5624999999999704
 40
0.5624999999999704
 40
0.6249999999999724
 40
0.6249999999999724
 40
0.7499999999999825
 40
0.7499999999999825
 40
1.0
 40
1.0
 40
1.0
 40
1.0
 10
182.1258434478522
 20
106.3196473815027
 30
0.0
 10
182.1100745704947
 20
106.2457886895731
 30
0.0
 10
182.0934605886447
 20
106.1720773008373
 30
0.0
 10
182.0649289226396
 20
106.0605304772153
 30
0.0
 10
182.0548415078209
 20
106.0231589040868
 30
0.0
 10
182.0373539473666
 20
105.9662594064491
 30
0.0
 10
182.0311443855834
 20
105.9471563063038
 30
0.0
 10
182.0168668319307
 20
105.9082827920683
 30
0.0
 10
182.0092952841353
 20
105.8883581326349
 30
0.0
 10
181.991877700457
 20
105.8582859146075
 30
0.0
 10
181.983395203812
 20
105.8466045358044
 30
0.0
 10
181.9673568919402
 20
105.8393430250558
 30
0.0
 10
181.9625363437366
 20
105.8429212720656
 30
0.0
 10
181.9511271191887
 20
105.8546821272972
 30
0.0
 10
181.9471066387312
 20
105.8663477773478
 30
0.0
 10
181.9363527839109
 20
105.9028831074614
 30
0.0
 10
181.9324801026287
 20
105.9302788407849
 30
0.0
 10
181.9233119527911
 20
106.0150048325409
 30
0.0
 10
181.921283447422
 20
106.075836954713
 30
0.0
 10
181.9208834257918
 20
106.1382031160546
 30
0.0
  0
SPLINE
  5
14E
330
1F
100
AcDbEntity
  8
0
  6
HIDDEN
 62
     7
370
     0
100
AcDbSpline
210
0.0
220
0.0
230
1.0
 70
     8
 71
     3
 72
    24
 73
    20
 74
     0
 42
0.00000001
 43
0.00000001
 12
1.0
 22
0.0
 32
0.0
 13
1.0
 23
0.0
 33
0.0
 40
0.0
 40
0.0
 40
0.0
 40
0.0
 40
0.2499999999999938
 40
0.2499999999999938
 40
0.3749999999999939
 40
0.3749999999999939
 40
0.437499999999994
 40
0.437499999999994
 40
0.4687499999999941
 40
0.4687499999999941
 40
0.4999999999999942
 40
0.4999999999999942
 40
0.5624999999999944
 40
0.5624999999999944
 40
0.6249999999999947
 40
0.6249999999999947
 40
0.7499999999999952
 40
0.7499999999999952
 40
1.0
 40
1.0
 40
1.0
 40
1.0
 10
181.9208834257881
 20
128.0862791005495
 30
0.0
 10
181.9212880953638
 20
128.149369909043
 30
0.0
 10
181.923331542178
 20
128.2105556315464
 30
0.0
 10
181.9327311074319
 20
128.2960553640495
 30
0.0
 10
181.9366820009605
 20
128.3236357474911
 30
0.0
 10
181.9478343092568
 20
128.3600898296038
 30
0.0
 10
181.9520558501832
 20
128.3719482512984
 30
0.0
 10
181.9642635717454
 20
128.3825683026759
 30
0.0
 10
181.9700543419956
 20
128.3854016699002
 30
0.0
 10
181.9869758551053
 20
128.3740870829078
 30
0.0
 10
181.9943819710567
 20
128.3623061971536
 30
0.0
 10
182.0108392243013
 20
128.3322653559234
 30
0.0
 10
182.0182957422124
 20
128.31255240231
 30
0.0
 10
182.0322036714876
 20
128.2741503362494
 30
0.0
 10
182.0382956173827
 20
128.2552686863376
 30
0.0
 10
182.0554899097341
 20
128.1989677758054
 30
0.0
 10
182.0654748599379
 20
128.1618916979953
 30
0.0
 10
182.0937209050372
 20
128.051233027104
 30
0.0
 10
182.1102004419985
 20
127.9781039666947
 30
0.0
 10
182.1258434478584
 20
127.9048348350699
 30
0.0
  0
SPLINE
  5
14F
330
1F
100
AcDbEntity
  8
0
  6
HIDDEN
 62
     7
370
     0
100
AcDbSpline
210
0.0
220
0.0
230
1.0
 70
     8
 71
     3
 72
     8
 73
     4
 74
     0
 42
0.00000001
 43
0.00000001
 12
1.0
 22
0.0
 32
0.0
 13
1.0
 23
0.0
 33
0.0
 40
0.0
 40
0.0
 40
0.0
 40
0.0
 40
1.0
 40
1.0
 40
1.0
 40
1.0
 10
182.2995630822322
 20
107.0587217906942
 30
0.0
 10
182.2344579206181
 20
106.8036965554885
 30
0.0
 10
182.1765705910581
 20
106.5572445393473
 30
0.0
 10
182.1258434478521
 20
106.3196473815027
 30
0.0
  0
SPLINE
  5
150
330
1F
100
AcDbEntity
  8
0
  6
HIDDEN
 62
     7
370
     0
100
AcDbSpline
210
0.0
220
0.0
230
1.0
 70
     8
 71
     3
 72
     8
 73
     4
 74
     0
 42
0.00000001
 43
0.00000001
 12
1.0
 22
0.0
 32
0.0
 13
1.0
 23
0.0
 33
0.0
 40
0.0
 40
0.0
 40
0.0
 40
0.0
 40
1.0
 40
1.0
 40
1.0
 40
1.0
 10
182.1258434478583
 20
127.90483483507
 30
0.0
 10
182.1765705910628
 20
127.6672376772344
 30
0.0
 10
182.2344579206208
 20
127.4207856611029
 30
0.0
 10
182.2995630822321
 20
127.1657604259077
 30
0.0
  0
LINE
  5
151
330
1F
100
AcDbEntity
  8
0
  6
HIDDEN
 62
     7
370
     0
100
AcDbLine
 10
161.1208834258
 20
114.5572128712
 30
0.0
 11
161.1208834258
 21
107.4546301886
 31
0.0
  0
LINE
  5
152
330
1F
100
AcDbEntity
  8
0
  6
HIDDEN
 62
     7
370
     0
100
AcDbLine
 10
161.1208834258
 20
126.769852028
 30
0.0
 11
161.1208834258
 21
119.6672693454
 31
0.0
  0
LINE
  5
153
330
1F
100
AcDbEntity
  8
0
  6
HIDDEN
 62
     7
370
     0
100
AcDbLine
 10
181.9208834258
 20
127.0311362274
 30
0.0
 11
181.9208834258
 21
107.1933459892
 31
0.0
  0
LINE
  5
154
330
1F
100
AcDbEntity
  8
0
  6
HIDDEN
 62
     7
370
     0
100
AcDbLine
 10
183.4208834258
 20
125.591608248
 30
0.0
 11
183.4208834258
 21
108.6328739686
 31
0.0
  0
SPLINE
  5
155
330
1F
100
AcDbEntity
  8
0
  6
HIDDEN
 62
     7
370
     0
100
AcDbSpline
210
0.0
220
0.0
230
1.0
 70
     8
 71
     3
 72
     8
 73
     4
 74
     0
 42
0.00000001
 43
0.00000001
 12
1.0
 22
0.0
 32
0.0
 13
1.0
 23
0.0
 33
0.0
 40
0.0000137051794235
 40
0.0000137051794235
 40
0.0000137051794235
 40
0.0000137051794235
 40
0.0027147144718019
 40
0.0027147144718019
 40
0.0027147144718019
 40
0.0027147144718019
 10
161.1208834257918
 20
114.5572128712392
 30
0.0
 10
162.0208795612865
 20
114.5442413040408
 30
0.0
 10
162.9208797398819
 20
114.5316064467288
 30
0.0
 10
163.8208834257918
 20
114.519296428473
 30
0.0
  0
SPLINE
  5
156
330
1F
100
AcDbEntity
  8
0
  6
HIDDEN
 62
     7
370
     0
100
AcDbSpline
210
0.0
220
0.0
230
1.0
 70
     8
 71
     3
 72
     8
 73
     4
 74
     0
 42
0.00000001
 43
0.00000001
 12
1.0
 22
0.0
 32
0.0
 13
1.0
 23
0.0
 33
0.0
 40
0.0000137050638847
 40
0.0000137050638847
 40
0.0000137050638847
 40
0.0000137050638847
 40
0.0027147143562631
 40
0.0027147143562631
 40
0.0027147143562631
 40
0.0027147143562631
 10
163.8208834257918
 20
119.7051857881289
 30
0.0
 10
162.9208797398819
 20
119.6928757698731
 30
0.0
 10
162.0208795612865
 20
119.6802409125611
 30
0.0
 10
161.1208834257918
 20
119.6672693453627
 30
0.0
  0
SPLINE
  5
157
330
1F
100
AcDbEntity
  8
0
  6
HIDDEN
 62
     7
370
     0
100
AcDbSpline
210
0.0
220
0.0
230
1.0
 70
     8
 71
     3
 72
    10
 73
     6
 74
     0
 42
0.00000001
 43
0.00000001
 12
1.0
 22
0.0
 32
0.0
 13
1.0
 23
0.0
 33
0.0
 40
0.0
 40
0.0
 40
0.0
 40
0.0
 40
0.5
 40
0.5
 40
1.0
 40
1.0
 40
1.0
 40
1.0
 10
159.6208834257909
 20
115.2620272946508
 30
0.0
 10
159.8580253865067
 20
115.106412480122
 30
0.0
 10
160.1033681452702
 20
114.9745034507027
 30
0.0
 10
160.6046317340032
 20
114.7428465740651
 30
0.0
 10
160.8606663032536
 20
114.6434009579423
 30
0.0
 10
161.1208834257918
 20
114.5572128712392
 30
0.0
  0
SPLINE
  5
158
330
1F
100
AcDbEntity
  8
0
  6
HIDDEN
 62
     7
370
     0
100
AcDbSpline
210
0.0
220
0.0
230
1.0
 70
     8
 71
     3
 72
    10
 73
     6
 74
     0
 42
0.00000001
 43
0.00000001
 12
1.0
 22
0.0
 32
0.0
 13
1.0
 23
0.0
 33
0.0
 40
0.0
 40
0.0
 40
0.0
 40
0.0
 40
0.5
 40
0.5
 40
1.0
 40
1.0
 40
1.0
 40
1.0
 10
161.1208834257918
 20
119.6672693453627
 30
0.0
 10
160.8606663032537
 20
119.5810812586596
 30
0.0
 10
160.6046317340036
 20
119.4816356425369
 30
0.0
 10
160.1033681452708
 20
119.2499787658995
 30
0.0
 10
159.8580253865075
 20
119.1180697364804
 30
0.0
 10
159.6208834257918
 20
118.9624549219516
 30
0.0
  0
LINE
  5
159
330
1F
100
AcDbEntity
  8
0
  6
HIDDEN
 62
     7
370
     0
100
AcDbLine
 10
159.6208834258
 20
115.2620272947
 30
0.0
 11
159.6208834258
 21
118.962454922
 31
0.0
  0
LINE
  5
15A
330
1F
100
AcDbEntity
  8
0
  6
HIDDEN
 62
     7
370
     0
100
AcDbLine
 10
163.8208834258
 20
114.5192964285
 30
0.0
 11
163.8208834258
 21
119.7051857881
 31
0.0
  0
SPLINE
  5
15B
330
1F
100
AcDbEntity
  8
0
  6
HIDDEN
 62
     7
370
     0
100
AcDbSpline
210
0.0
220
0.0
230
1.0
 70
     8
 71
     3
 72
    22
 73
    18
 74
     0
 42
0.00000001
 43
0.00000001
 12
1.0
 22
0.0
 32
0.0
 13
1.0
 23
0.0
 33
0.0
 40
0.0
 40
0.0
 40
0.0
 40
0.0
 40
0.1250000000000001
 40
0.1250000000000001
 40
0.2500000000000002
 40
0.2500000000000002
 40
0.3750000000000002
 40
0.3750000000000002
 40
0.5000000000000002
 40
0.5000000000000002
 40
0.6250000000000003
 40
0.6250000000000003
 40
0.7500000000000002
 40
0.7500000000000002
 40
0.8750000000000002
 40
0.8750000000000002
 40
1.0
 40
1.0
 40
1.0
 40
1.0
 10
163.8208834257918
 20
114.519296428473
 30
0.0
 10
164.0018197838679
 20
114.7109162877795
 30
0.0
 10
164.1809152326448
 20
114.9045581521667
 30
0.0
 10
164.5317552211568
 20
115.2992134055509
 30
0.0
 10
164.7039483290615
 20
115.5002249362185
 30
0.0
 10
165.0296798346807
 20
115.9164360514523
 30
0.0
 10
165.1857560698491
 20
116.132451891739
 30
0.0
 10
165.4371352837381
 20
116.5977746549038
 30
0.0
 10
165.5310004140569
 20
116.8533138479266
 30
0.0
 10
165.5272724971948
 20
117.3876444830272
 30
0.0
 10
165.4298998547075
 20
117.6430653490279
 30
0.0
 10
165.1780790457136
 20
118.1030940649756
 30
0.0
 10
165.023109790241
 20
118.3169310659042
 30
0.0
 10
164.6982970325157
 20
118.7309696485979
 30
0.0
 10
164.5274039683878
 20
118.9302621206337
 30
0.0
 10
164.1787697288602
 20
119.3222370130679
 30
0.0
 10
164.0007618783317
 20
119.5146862990573
 30
0.0
 10
163.8208834257918
 20
119.7051857881289
 30
0.0
  0
LWPOLYLINE
  5
15C
330
1F
100
AcDbEntity
  8
0
  6
HIDDEN
 62
     7
370
     0
100
AcDbPolyline
 90
       32
 70
   128
 43
0.0
 10
197.6208834258
 20
109.9747275498
 10
198.124129726
 20
110.0228164577
 10
198.6067730636
 20
110.1651144158
 10
199.0490539635
 20
110.395795729
 10
199.4328653939
 20
110.7054162772
 10
199.7424940695
 20
111.0813001588
 10
199.9652637562
 20
111.5080586436
 10
200.0920542366
 20
111.968220189
 10
200.1176746937
 20
112.4429457273
 10
200.041076223
 20
112.9127999391
 10
199.8653947747
 20
113.3585469379
 10
199.5978227681
 20
113.7619377891
 10
199.2493146326
 20
114.1064576239
 10
198.8341383321
 20
114.3780017597
 10
198.3692912332
 20
114.5654531478
 10
197.8738042308
 20
114.6611375063
 10
197.3679626208
 20
114.6611375063
 10
196.8724756184
 20
114.5654531478
 10
196.4076285195
 20
114.3780017597
 10
195.992452219
 20
114.1064576239
 10
195.6439440834
 20
113.7619377891
 10
195.3763720769
 20
113.3585469379
 10
195.2006906286
 20
112.9127999391
 10
195.1240921579
 20
112.4429457273
 10
195.149712615
 20
111.968220189
 10
195.2765030954
 20
111.5080586436
 10
195.4992727821
 20
111.0813001588
 10
195.8089014577
 20
110.7054162772
 10
196.1927128881
 20
110.395795729
 10
196.634993788
 20
110.1651144158
 10
197.1176371256
 20
110.0228164577
 10
197.6208834258
 20
109.9747275498
  0
SPLINE
  5
15D
330
1F
100
AcDbEntity
  8
0
  6
HIDDEN
 62
     7
370
     0
100
AcDbSpline
210
0.0
220
0.0
230
1.0
 70
     8
 71
     3
 72
    62
 73
    58
 74
     0
 42
0.00000001
 43
0.00000001
 12
1.0
 22
0.0
 32
0.0
 13
1.0
 23
0.0
 33
0.0
 40
-0.0312500000000001
 40
-0.0312500000000001
 40
0.0
 40
0.0
 40
0.0312499999999999
 40
0.0312499999999999
 40
0.0624999999999998
 40
0.0624999999999998
 40
0.0937499999999997
 40
0.0937499999999997
 40
0.1249999999999996
 40
0.1249999999999996
 40
0.1874999999999993
 40
0.1874999999999993
 40
0.2499999999999991
 40
0.2499999999999991
 40
0.2812499999999989
 40
0.2812499999999989
 40
0.3124999999999989
 40
0.3124999999999989
 40
0.3437499999999988
 40
0.3437499999999988
 40
0.3749999999999987
 40
0.3749999999999987
 40
0.4374999999999984
 40
0.4374999999999984
 40
0.4687499999999983
 40
0.4687499999999983
 40
0.4999999999999982
 40
0.4999999999999982
 40
0.5624999999999982
 40
0.5624999999999982
 40
0.5937499999999983
 40
0.5937499999999983
 40
0.6249999999999984
 40
0.6249999999999984
 40
0.6562499999999987
 40
0.6562499999999987
 40
0.6874999999999988
 40
0.6874999999999988
 40
0.7187499999999989
 40
0.7187499999999989
 40
0.749999999999999
 40
0.749999999999999
 40
0.7812499999999991
 40
0.7812499999999991
 40
0.8124999999999992
 40
0.8124999999999992
 40
0.8437499999999993
 40
0.8437499999999993
 40
0.8749999999999994
 40
0.8749999999999994
 40
0.9062499999999997
 40
0.9062499999999997
 40
0.9374999999999998
 40
0.9374999999999998
 40
0.9687499999999999
 40
0.9687499999999999
 40
1.0
 40
1.0
 40
1.03125
 40
1.03125
 10
170.07465555372
 20
118.6002201469573
 30
0.0
 10
170.3021559003083
 20
118.8495666888179
 30
0.0
 10
170.4266184292257
 20
118.9611643662748
 30
0.0
 10
170.6957126953775
 20
119.1598151620932
 30
0.0
 10
170.8415257869668
 20
119.247155406882
 30
0.0
 10
171.1426926652562
 20
119.3913511595242
 30
0.0
 10
171.2990283923206
 20
119.4491708300384
 30
0.0
 10
171.623151691655
 20
119.5364244420894
 30
0.0
 10
171.7898169033655
 20
119.5652264915712
 30
0.0
 10
172.2878331699974
 20
119.6060057968391
 30
0.0
 10
172.6285041187903
 20
119.5725625366979
 30
0.0
 10
173.2675150342118
 20
119.3901098922391
 30
0.0
 10
173.5739696412757
 20
119.2386853319263
 30
0.0
 10
173.970525550538
 20
118.938187426342
 30
0.0
 10
174.0948747413876
 20
118.8239262411466
 30
0.0
 10
174.3173388354368
 20
118.574266370574
 30
0.0
 10
174.414904173914
 20
118.440099762575
 30
0.0
 10
174.5821597775528
 20
118.1526306680762
 30
0.0
 10
174.6522454330719
 20
117.9973638181764
 30
0.0
 10
174.7563007937935
 20
117.6803843980893
 30
0.0
 10
174.7912765564608
 20
117.5177316465849
 30
0.0
 10
174.8431410759849
 20
117.0167946263823
 30
0.0
 10
174.8038349682135
 20
116.676640025072
 30
0.0
 10
174.6411151757527
 20
116.2001453929748
 30
0.0
 10
174.5708346778664
 20
116.0490780331474
 30
0.0
 10
174.3995015327364
 20
115.7617834627065
 30
0.0
 10
174.2981092915547
 20
115.6259256844091
 30
0.0
 10
173.9615097043315
 20
115.2571172894109
 30
0.0
 10
173.6862769381669
 20
115.0546921800798
 30
0.0
 10
173.2364937108209
 20
114.8376154534711
 30
0.0
 10
173.0776939123172
 20
114.7783131813969
 30
0.0
 10
172.7551321914376
 20
114.6903406635963
 30
0.0
 10
172.5912730794704
 20
114.6612208997501
 30
0.0
 10
172.2584403061165
 20
114.6323642846398
 30
0.0
 10
172.0883880146757
 20
114.6329878078539
 30
0.0
 10
171.756112350656
 20
114.6642442516582
 30
0.0
 10
171.5923977389072
 20
114.6945629467101
 30
0.0
 10
171.2699322533329
 20
114.7852799857131
 30
0.0
 10
171.1114211548064
 20
114.8460488944149
 30
0.0
 10
170.8128674486085
 20
114.9935595692119
 30
0.0
 10
170.6710413194064
 20
115.0806945970758
 30
0.0
 10
170.4031195808481
 20
115.2832800636478
 30
0.0
 10
170.2790261504556
 20
115.39761823029
 30
0.0
 10
170.0578919625374
 20
115.6458046682427
 30
0.0
 10
169.9594349604388
 20
115.7808372850966
 30
0.0
 10
169.7900764467038
 20
116.0728416831513
 30
0.0
 10
169.7219096089978
 20
116.2249774295868
 30
0.0
 10
169.6181756426714
 20
116.5413863780269
 30
0.0
 10
169.5825070808022
 20
116.7078828473811
 30
0.0
 10
169.5482933161497
 20
117.0411447234916
 30
0.0
 10
169.5491517189788
 20
117.2078071773135
 30
0.0
 10
169.5869484989284
 20
117.5411953765311
 30
0.0
 10
169.6242912543824
 20
117.7069509490106
 30
0.0
 10
169.7315408374508
 20
118.0228422654732
 30
0.0
 10
169.80230205399
 20
118.1761215985454
 30
0.0
 10
169.9744252040907
 20
118.4654986410319
 30
0.0
 10
170.07465555372
 20
118.6002201469573
 30
0.0
 10
170.3021559003083
 20
118.8495666888179
 30
0.0
  0
CIRCLE
  5
15E
330
1F
100
AcDbEntity
  8
0
  6
HIDDEN
 62
     7
370
     0
100
AcDbCircle
 10
172.1208834258
 20
117.1122411083
 30
0.0
 40
2.299999999999983
  0
CIRCLE
  5
15F
330
1F
100
AcDbEntity
  8
0
  6
HIDDEN
 62
     7
370
     0
100
AcDbCircle
 10
226.4496022216
 20
136.9409599041
 30
0.0
 40
1.650000000000006
  0
CIRCLE
  5
160
330
1F
100
AcDbEntity
  8
0
  6
HIDDEN
 62
     7
370
     0
100
AcDbCircle
 10
195.6208834258
 20
117.1122411083
 30
0.0
 40
2.000000000000014
  0
LINE
  5
161
330
1F
100
AcDbEntity
  8
0
  6
HIDDEN
 62
     7
370
     0
100
AcDbLine
 10
207.9834465556
 20
131.5695919305
 30
0.0
 11
226.9627913127
 21
131.5695919305
 31
0.0
  0
SPLINE
  5
162
330
1F
100
AcDbEntity
  8
0
  6
HIDDEN
 62
     7
370
     0
100
AcDbSpline
210
0.0
220
0.0
230
1.0
 70
     8
 71
     3
 72
     8
 73
     4
 74
     0
 42
0.00000001
 43
0.00000001
 12
1.0
 22
0.0
 32
0.0
 13
1.0
 23
0.0
 33
0.0
 40
0.0
 40
0.0
 40
0.0
 40
0.0
 40
1.0
 40
1.0
 40
1.0
 40
1.0
 10
207.9834465556121
 20
131.569591930474
 30
0.0
 10
207.4058371954334
 20
127.8292626586334
 30
0.0
 10
206.9743745927502
 20
124.0677275459747
 30
0.0
 10
206.8194822641019
 20
120.266062188166
 30
0.0
  0
LINE
  5
163
330
1F
100
AcDbEntity
  8
0
  6
HIDDEN
 62
     7
370
     0
100
AcDbLine
 10
226.9627913127
 20
131.5695919305
 30
0.0
 11
222.404406108
 21
117.1122411083
 31
0.0
  0
SPLINE
  5
164
330
1F
100
AcDbEntity
  8
0
  6
HIDDEN
 62
     7
370
     0
100
AcDbSpline
210
0.0
220
0.0
230
1.0
 70
     8
 71
     3
 72
    10
 73
     6
 74
     0
 42
0.00000001
 43
0.00000001
 12
1.0
 22
0.0
 32
0.0
 13
1.0
 23
0.0
 33
0.0
 40
0.0
 40
0.0
 40
0.0
 40
0.0
 40
0.5
 40
0.5
 40
1.0
 40
1.0
 40
1.0
 40
1.0
 10
206.8194822641019
 20
120.266062188166
 30
0.0
 10
206.7980708466691
 20
119.7405420114982
 30
0.0
 10
206.7715675036434
 20
119.2151466051603
 30
0.0
 10
206.7321222464281
 20
118.1640234891309
 30
0.0
 10
206.7195818415973
 20
117.6382859410287
 30
0.0
 10
206.7195818415973
 20
117.1122411083009
 30
0.0
  0
LINE
  5
165
330
1F
100
AcDbEntity
  8
0
  6
HIDDEN
 62
     7
370
     0
100
AcDbLine
 10
183.6208834258
 20
101.3122411083
 30
0.0
 11
183.7137766446
 21
101.4051343271
 31
0.0
  0
LINE
  5
166
330
1F
100
AcDbEntity
  8
0
  6
HIDDEN
 62
     7
370
     0
100
AcDbLine
 10
183.7137766446
 20
132.8193478895
 30
0.0
 11
183.6208834258
 21
132.9122411083
 31
0.0
  0
ARC
  5
167
330
1F
100
AcDbEntity
  8
0
  6
HIDDEN
 62
     7
370
     0
100
AcDbCircle
 10
183.0066698634
 20
102.1122411083
 30
0.0
 40
1.0
100
AcDbArc
 50
315.0
 51
0.0
  0
ARC
  5
168
330
1F
100
AcDbEntity
  8
0
  6
HIDDEN
 62
     7
370
     0
100
AcDbCircle
 10
183.0066698634
 20
102.1122411083
 30
0.0
 40
1.0
100
AcDbArc
 50
0.0
 51
52.1052014664
  0
ARC
  5
169
330
1F
100
AcDbEntity
  8
0
  6
HIDDEN
 62
     7
370
     0
100
AcDbCircle
 10
183.0066698634
 20
132.1122411083
 30
0.0
 40
0.999999999999988
100
AcDbArc
 50
351.8087250651
 51
45.0
  0
ARC
  5
16A
330
1F
100
AcDbEntity
  8
0
  6
HIDDEN
 62
     7
370
     0
100
AcDbCircle
 10
183.0066698634
 20
132.1122411083
 30
0.0
 40
0.9999999999999815
100
AcDbArc
 50
307.8947985336
 51
351.8087250651
  0
LINE
  5
16B
330
1F
100
AcDbEntity
  8
0
  6
HIDDEN
 62
     7
370
     0
100
AcDbLine
 10
184.0066698634
 20
102.1122411083
 30
0.0
 11
184.0066698634
 21
132.1122411083
 31
0.0
  0
LINE
  5
16C
330
1F
100
AcDbEntity
  8
0
  6
HIDDEN
 62
     7
370
     0
100
AcDbLine
 10
184.0066698634
 20
102.1122411083
 30
0.0
 11
184.0066698634
 21
132.1122411083
 31
0.0
  0
LINE
  5
16D
330
1F
100
AcDbEntity
  8
0
  6
HIDDEN
 62
     7
370
     0
100
AcDbLine
 10
195.5208834258
 20
122.2425432582
 30
0.0
 11
195.5208834258
 21
119.2497847267
 31
0.0
  0
LINE
  5
16E
330
1F
100
AcDbEntity
  8
0
  6
HIDDEN
 62
     7
370
     0
100
AcDbLine
 10
199.7208834258
 20
121.6609743659
 30
0.0
 11
199.7208834258
 21
122.2425432582
 31
0.0
  0
LINE
  5
16F
330
1F
100
AcDbEntity
  8
0
  6
HIDDEN
 62
     7
370
     0
100
AcDbLine
 10
199.7208834258
 20
119.2498339897
 30
0.0
 11
199.7208834258
 21
120.6194360817
 31
0.0
  0
LINE
  5
170
330
1F
100
AcDbEntity
  8
0
  6
HIDDEN
 62
     7
370
     0
100
AcDbLine
 10
199.5673852933
 20
120.1996668642
 30
0.0
 11
202.9237478026
 21
122.3119679887
 31
0.0
  0
LINE
  5
171
330
1F
100
AcDbEntity
  8
0
  6
HIDDEN
 62
     7
370
     0
100
AcDbLine
 10
203.1242309465
 20
127.4006708074
 30
0.0
 11
195.7066610317
 21
122.7324798034
 31
0.0
  0
LINE
  5
172
330
1F
100
AcDbEntity
  8
0
  6
HIDDEN
 62
     7
370
     0
100
AcDbLine
 10
195.6233956496
 20
122.436176871
 30
0.0
 11
195.6693274323
 21
121.8540917294
 31
0.0
  0
LINE
  5
173
330
1F
100
AcDbEntity
  8
0
  6
HIDDEN
 62
     7
370
     0
100
AcDbLine
 10
159.6208834258
 20
106.956590584
 30
0.0
 11
160.6479154578
 21
107.5495478042
 31
0.0
  0
LINE
  5
174
330
1F
100
AcDbEntity
  8
0
  6
HIDDEN
 62
     7
370
     0
100
AcDbLine
 10
160.6479154578
 20
126.6749344124
 30
0.0
 11
159.6208834258
 21
127.2678916326
 31
0.0
  0
ARC
  5
175
330
1F
100
AcDbEntity
  8
0
  6
HIDDEN
 62
     7
370
     0
100
AcDbCircle
 10
166.1337018955
 20
108.1122411083
 30
0.0
 40
1.0
100
AcDbArc
 50
270.0
 51
315.0
  0
ARC
  5
176
330
1F
100
AcDbEntity
  8
0
  6
HIDDEN
 62
     7
370
     0
100
AcDbCircle
 10
166.1337018955
 20
126.1122411083
 30
0.0
 40
1.000000000000008
100
AcDbArc
 50
45.0
 51
90.0
  0
ARC
  5
177
330
1F
100
AcDbEntity
  8
0
  6
HIDDEN
 62
     7
370
     0
100
AcDbCircle
 10
165.1208834258
 20
108.1122411083
 30
0.0
 40
1.000000000000001
100
AcDbArc
 50
193.3524261238
 51
270.0
  0
ARC
  5
178
330
1F
100
AcDbEntity
  8
0
  6
HIDDEN
 62
     7
370
     0
100
AcDbCircle
 10
165.1208834258
 20
126.1122411083
 30
0.0
 40
1.000000000000004
100
AcDbArc
 50
90.0
 51
166.6475738762
  0
LINE
  5
179
330
1F
100
AcDbEntity
  8
0
  6
HIDDEN
 62
     7
370
     0
100
AcDbLine
 10
165.1208834258
 20
107.1122411083
 30
0.0
 11
166.1337018955
 21
107.1122411083
 31
0.0
  0
LINE
  5
17A
330
1F
100
AcDbEntity
  8
0
  6
HIDDEN
 62
     7
370
     0
100
AcDbLine
 10
166.1337018955
 20
127.1122411083
 30
0.0
 11
165.1208834258
 21
127.1122411083
 31
0.0
  0
LINE
  5
17B
330
1F
100
AcDbEntity
  8
0
  6
HIDDEN
 62
     7
370
     0
100
AcDbLine
 10
166.8408086767
 20
107.4051343271
 30
0.0
 11
167.5479154578
 21
108.1122411083
 31
0.0
  0
LINE
  5
17C
330
1F
100
AcDbEntity
  8
0
  6
HIDDEN
 62
     7
370
     0
100
AcDbLine
 10
167.5479154578
 20
126.1122411083
 30
0.0
 11
166.8408086767
 21
126.8193478895
 31
0.0
  0
LINE
  5
17D
330
1F
100
AcDbEntity
  8
0
  6
HIDDEN
 62
     7
370
     0
100
AcDbLine
 10
160.6479154578
 20
107.5495478042
 30
0.0
 11
162.7479154578
 21
108.1122411083
 31
0.0
  0
LINE
  5
17E
330
1F
100
AcDbEntity
  8
0
  6
HIDDEN
 62
     7
370
     0
100
AcDbLine
 10
162.7479154578
 20
126.1122411083
 30
0.0
 11
160.6479154578
 21
126.6749344124
 31
0.0
  0
LINE
  5
17F
330
1F
100
AcDbEntity
  8
0
  6
HIDDEN
 62
     7
370
     0
100
AcDbLine
 10
164.1479154578
 20
126.343181216
 30
0.0
 11
163.7479154578
 21
126.1122411083
 31
0.0
  0
LINE
  5
180
330
1F
100
AcDbEntity
  8
0
  6
HIDDEN
 62
     7
370
     0
100
AcDbLine
 10
163.7479154578
 20
108.1122411083
 30
0.0
 11
164.1479154578
 21
107.8813010006
 31
0.0
  0
ARC
  5
181
330
1F
100
AcDbEntity
  8
0
  6
HIDDEN
 62
     7
370
     0
100
AcDbCircle
 10
174.1208834258
 20
108.6122411083
 30
0.0
 40
0.5
100
AcDbArc
 50
270.0
 51
0.0
  0
ARC
  5
182
330
1F
100
AcDbEntity
  8
0
  6
HIDDEN
 62
     7
370
     0
100
AcDbCircle
 10
174.1208834258
 20
125.6122411083
 30
0.0
 40
0.5
100
AcDbArc
 50
0.0
 51
90.0
  0
LINE
  5
183
330
1F
100
AcDbEntity
  8
0
  6
HIDDEN
 62
     7
370
     0
100
AcDbLine
 10
162.7479154578
 20
108.1122411083
 30
0.0
 11
163.7479154578
 21
108.1122411083
 31
0.0
  0
LINE
  5
184
330
1F
100
AcDbEntity
  8
0
  6
HIDDEN
 62
     7
370
     0
100
AcDbLine
 10
163.7479154578
 20
126.1122411083
 30
0.0
 11
162.7479154578
 21
126.1122411083
 31
0.0
  0
LINE
  5
185
330
1F
100
AcDbEntity
  8
0
  6
HIDDEN
 62
     7
370
     0
100
AcDbLine
 10
167.5479154578
 20
108.1122411083
 30
0.0
 11
174.1208834258
 21
108.1122411083
 31
0.0
  0
LINE
  5
186
330
1F
100
AcDbEntity
  8
0
  6
HIDDEN
 62
     7
370
     0
100
AcDbLine
 10
174.1208834258
 20
126.1122411083
 30
0.0
 11
167.5479154578
 21
126.1122411083
 31
0.0
  0
LINE
  5
187
330
1F
100
AcDbEntity
  8
0
  6
HIDDEN
 62
     7
370
     0
100
AcDbLine
 10
174.6208834258
 20
109.9622411083
 30
0.0
 11
175.5208834258
 21
110.8622411083
 31
0.0
  0
LINE
  5
188
330
1F
100
AcDbEntity
  8
0
  6
HIDDEN
 62
     7
370
     0
100
AcDbLine
 10
175.5208834258
 20
123.3622411083
 30
0.0
 11
174.6208834258
 21
124.2622411083
 31
0.0
  0
LINE
  5
189
330
1F
100
AcDbEntity
  8
0
  6
HIDDEN
 62
     7
370
     0
100
AcDbLine
 10
200.6055045569
 20
110.8622411083
 30
0.0
 11
204.3608834258
 21
117.1122411083
 31
0.0
  0
LINE
  5
18A
330
1F
100
AcDbEntity
  8
0
  6
HIDDEN
 62
     7
370
     0
100
AcDbLine
 10
204.3608834258
 20
117.1122411083
 30
0.0
 11
200.6055045569
 21
123.3622411083
 31
0.0
  0
LINE
  5
18B
330
1F
100
AcDbEntity
  8
0
  6
HIDDEN
 62
     7
370
     0
100
AcDbLine
 10
175.5208834258
 20
110.8622411083
 30
0.0
 11
200.6055045569
 21
110.8622411083
 31
0.0
  0
LINE
  5
18C
330
1F
100
AcDbEntity
  8
0
  6
HIDDEN
 62
     7
370
     0
100
AcDbLine
 10
200.6055045569
 20
123.3622411083
 30
0.0
 11
175.5208834258
 21
123.3622411083
 31
0.0
  0
LINE
  5
18D
330
1F
100
AcDbEntity
  8
0
  6
HIDDEN
 62
     7
370
     0
100
AcDbLine
 10
195.5208834258
 20
114.9753909086
 30
0.0
 11
195.5208834258
 21
112.4061616758
 31
0.0
  0
LINE
  5
18E
330
1F
100
AcDbEntity
  8
0
  6
HIDDEN
 62
     7
370
     0
100
AcDbLine
 10
199.7208834258
 20
112.4061616758
 30
0.0
 11
199.7208834258
 21
114.9754810256
 31
0.0
  0
LINE
  5
18F
330
1F
100
AcDbEntity
  8
0
  6
HIDDEN
 62
     7
370
     0
100
AcDbLine
 10
195.1208834258
 20
112.3239591017
 30
0.0
 11
195.1208834258
 21
110.2718447957
 31
0.0
  0
LINE
  5
190
330
1F
100
AcDbEntity
  8
0
  6
HIDDEN
 62
     7
370
     0
100
AcDbLine
 10
200.1208834258
 20
110.2720380574
 30
0.0
 11
200.1208834258
 21
112.3239591017
 31
0.0
  0
LINE
  5
191
330
1F
100
AcDbEntity
  8
VERMASSUNG
  6
CENTERX2
100
AcDbLine
 10
233.6208834258
 20
144.1122411083
 30
0.0
 11
233.6208834258
 21
117.1122411083
 31
0.0
  0
LINE
  5
192
330
1F
100
AcDbEntity
  8
VERMASSUNG
  6
CENTERX2
100
AcDbLine
 10
155.8625925718
 20
117.1122411083
 30
0.0
 11
233.6208834258
 21
117.1122411083
 31
0.0
  0
LINE
  5
193
330
1F
100
AcDbEntity
  8
VERMASSUNG
  6
CENTERX2
100
AcDbLine
 10
233.6208834258
 20
144.1122411083
 30
0.0
 11
247.5735815578
 21
144.1122411083
 31
0.0
  0
DIMENSION
  5
194
330
1F
100
AcDbEntity
  8
VERMASSUNG
100
AcDbDimension
  2
_D
 10
233.6208834258
 20
144.1122411083
 30
0.0
 11
239.7561991476
 21
135.9432057315
 31
0.0
 70
   162
  1
<>
 71
     1
 42
-1.0
  3
SLDDIMSTYLE0
100
AcDb2LineAngularDimension
 13
230.3990068571
 23
133.4321882408
 33
0.0
 14
233.6049836927
 24
143.6002477089
 34
0.0
 15
247.5735815578
 25
144.1122411083
 35
0.0
 16
239.7561991476
 26
135.9432057315
 36
0.0
  0
DIMENSION
  5
19D
330
1F
100
AcDbEntity
  8
VERMASSUNG
100
AcDbDimension
  2
_D_1
 10
251.5516687524
 20
117.1122411083
 30
0.0
 11
251.5516687524
 21
130.6122411083
 31
0.0
 70
   160
  1
<>
 71
     2
 42
-1.0
  3
SLDDIMSTYLE1
100
AcDbAlignedDimension
 13
233.6208834258
 23
144.1122411083
 33
0.0
 14
233.6208834258
 24
117.1122411083
 34
0.0
 50
90.0
100
AcDbRotatedDimension
  0
DIMENSION
  5
1AA
330
1F
100
AcDbEntity
  8
VERMASSUNG
100
AcDbDimension
  2
_D_2
 10
233.6208834258
 20
152.4631852551
 30
0.0
 11
208.6208834258
 21
152.4631852551
 31
0.0
 70
   160
  1
<>
 71
     2
 42
-1.0
  3
SLDDIMSTYLE1
100
AcDbAlignedDimension
 13
183.6208834258
 23
136.8122411083
 33
0.0
 14
233.6208834258
 24
144.1122411083
 34
0.0
100
AcDbRotatedDimension
  0
DIMENSION
  5
1B6
330
1F
100
AcDbEntity
  8
VERMASSUNG
100
AcDbDimension
  2
_D_3
 10
159.6208834258
 20
159.6347205082
 30
0.0
 11
196.6208834258
 21
159.6347205082
 31
0.0
 70
   160
  1
<>
 71
     2
 42
-1.0
  3
SLDDIMSTYLE2
100
AcDbAlignedDimension
 13
233.6208834258
 23
144.1122411083
 33
0.0
 14
159.6208834258
 24
129.7437460904
 34
0.0
100
AcDbRotatedDimension
  0
DIMENSION
  5
1C1
330
1F
100
AcDbEntity
  8
VERMASSUNG
100
AcDbDimension
  2
_D_4
 10
152.6389530972
 20
97.1122411083
 30
0.0
 11
152.6389530972
 21
117.1122411083
 31
0.0
 70
   160
  1
PSC%%c<>
 71
     2
 42
-1.0
  3
SLDDIMSTYLE2
100
AcDbAlignedDimension
 13
183.9208834258
 23
137.1122411083
 33
0.0
 14
183.9208834258
 24
97.1122411083
 34
0.0
 50
90.0
100
AcDbRotatedDimension
  0
LINE
  5
1CD
330
1F
100
AcDbEntity
  8
0
  6
Continuous
 62
     7
370
    15
100
AcDbLine
 10
91.547406732
 20
135.2802360247
 30
0.0
 11
91.5476117524
 21
135.2802360247
 31
0.0
  0
SPLINE
  5
1CE
330
1F
100
AcDbEntity
  8
0
  6
Continuous
 62
     7
370
    15
100
AcDbSpline
210
0.0
220
0.0
230
1.0
 70
     8
 71
     3
 72
    10
 73
     6
 74
     0
 42
0.00000001
 43
0.00000001
 12
1.0
 22
0.0
 32
0.0
 13
1.0
 23
0.0
 33
0.0
 40
0.0
 40
0.0
 40
0.0
 40
0.0
 40
0.3321547248177574
 40
0.6673755699322524
 40
1.0
 40
1.0
 40
1.0
 40
1.0
 10
95.54851346277002
 20
143.5197157602337
 30
0.0
 10
95.10334800639181
 20
143.5950286833532
 30
0.0
 10
94.20890777126472
 20
143.7463497431927
 30
0.0
 10
92.8445453892138
 20
143.904867300164
 30
0.0
 10
91.94678036865282
 20
144.0504134420215
 30
0.0
 10
91.49964300106814
 20
144.1229035894897
 30
0.0
  0
LINE
  5
1CF
330
1F
100
AcDbEntity
  8
0
  6
Continuous
 62
     7
370
    15
100
AcDbLine
 10
91.4996430011
 20
129.9403974603
 30
0.0
 11
91.8476117668
 21
129.994123597
 31
0.0
  0
SPLINE
  5
1D0
330
1F
100
AcDbEntity
  8
0
  6
Continuous
 62
     7
370
    15
100
AcDbSpline
210
0.0
220
0.0
230
1.0
 70
    24
 71
     3
 72
    13
 73
     9
 74
     0
 42
0.00000001
 43
0.00000001
 12
1.0
 22
0.0
 32
0.0
 13
1.0
 23
0.0
 33
0.0
 40
0.0
 40
0.0
 40
0.0
 40
0.0
 40
0.1940412779676905
 40
0.3876291962095688
 40
0.5765837385197995
 40
0.7618024333600165
 40
0.946274861582167
 40
1.0
 40
1.0
 40
1.0
 40
1.0
 10
91.54761175252763
 20
143.6002472232607
 30
0.0
 10
91.54761175252763
 20
143.6453573498234
 30
0.0
 10
91.54761175252762
 20
143.7354722072577
 30
0.0
 10
91.54761175252771
 20
143.8716160074134
 30
0.0
 10
91.54761175252727
 20
143.9882820730534
 30
0.0
 10
91.54761175252771
 20
144.0697739071759
 30
0.0
 10
91.54761175252763
 20
144.1109576193943
 30
0.0
 10
91.54761175252763
 20
144.109740897384
 30
0.0
 10
91.54761175252763
 20
144.1094664673832
 30
0.0
  0
SPLINE
  5
1D1
330
1F
100
AcDbEntity
  8
0
  6
Continuous
 62
     7
370
    15
100
AcDbSpline
210
0.0
220
0.0
230
1.0
 70
    24
 71
     3
 72
    14
 73
    10
 74
     0
 42
0.00000001
 43
0.00000001
 12
1.0
 22
0.0
 32
0.0
 13
1.0
 23
0.0
 33
0.0
 40
0.0
 40
0.0
 40
0.0
 40
0.0
 40
0.1583105769610716
 40
0.3167925225689248
 40
0.4713695749887986
 40
0.622124257745518
 40
0.7721214003551863
 40
0.9245931749119394
 40
1.0
 40
1.0
 40
1.0
 40
1.0
 10
95.51761171408299
 20
143.52098049629
 30
0.0
 10
95.51761171408299
 20
143.5233869088959
 30
0.0
 10
95.51761171408299
 20
143.5282023390106
 30
0.0
 10
95.51761171408299
 20
143.5207091371267
 30
0.0
 10
95.51761171408299
 20
143.5030956754346
 30
0.0
 10
95.51761171408299
 20
143.4769583678302
 30
0.0
 10
95.51761171408299
 20
143.4456080614879
 30
0.0
 10
95.51761171408299
 20
143.4176848330787
 30
0.0
 10
95.51761171408299
 20
143.4017476000005
 30
0.0
 10
95.51761171408299
 20
143.3964738439348
 30
0.0
  0
LINE
  5
1D2
330
1F
100
AcDbEntity
  8
0
  6
Continuous
 62
     7
370
    15
100
AcDbLine
 10
95.5176117141
 20
133.6729502122
 30
0.0
 11
95.5176117141
 21
143.3964738439
 31
0.0
  0
LINE
  5
1D3
330
1F
100
AcDbEntity
  8
0
  6
Continuous
 62
     7
370
    15
100
AcDbLine
 10
91.5476117525
 20
133.4321884255
 30
0.0
 11
91.5476117525
 21
143.6002472233
 31
0.0
  0
SPLINE
  5
1D4
330
1F
100
AcDbEntity
  8
0
  6
Continuous
 62
     7
370
    15
100
AcDbSpline
210
0.0
220
0.0
230
1.0
 70
    24
 71
     3
 72
    10
 73
     6
 74
     0
 42
0.00000001
 43
0.00000001
 12
1.0
 22
0.0
 32
0.0
 13
1.0
 23
0.0
 33
0.0
 40
0.0
 40
0.0
 40
0.0
 40
0.0
 40
0.2657053483434731
 40
0.6165094856168037
 40
1.0
 40
1.0
 40
1.0
 40
1.0
 10
95.51761171408299
 20
133.6729502122429
 30
0.0
 10
95.51761171408299
 20
133.6651368774722
 30
0.0
 10
95.51761171408299
 20
133.6470077918876
 30
0.0
 10
95.51761171408299
 20
133.6224693570026
 30
0.0
 10
95.51761171408299
 20
133.613053333221
 30
0.0
 10
95.51761171408299
 20
133.6081357489851
 30
0.0
  0
SPLINE
  5
1D5
330
1F
100
AcDbEntity
  8
0
  6
Continuous
 62
     7
370
    15
100
AcDbSpline
210
0.0
220
0.0
230
1.0
 70
    24
 71
     3
 72
    10
 73
     6
 74
     0
 42
0.00000001
 43
0.00000001
 12
1.0
 22
0.0
 32
0.0
 13
1.0
 23
0.0
 33
0.0
 40
0.0
 40
0.0
 40
0.0
 40
0.0
 40
0.3517966326380413
 40
0.703420180310174
 40
1.0
 40
1.0
 40
1.0
 40
1.0
 10
91.54761175252766
 20
133.1729361604479
 30
0.0
 10
91.54761175252766
 20
133.1906059945943
 30
0.0
 10
91.54761175252766
 20
133.2259369692775
 30
0.0
 10
91.54761175252766
 20
133.3212610732958
 30
0.0
 10
91.54761175252766
 20
133.3973668764525
 30
0.0
 10
91.54761175252766
 20
133.4321884255436
 30
0.0
  0
LINE
  5
1D6
330
1F
100
AcDbEntity
  8
0
  6
Continuous
 62
     7
370
    15
100
AcDbLine
 10
95.5176117141
 20
133.550254051
 30
0.0
 11
95.5176117141
 21
133.608135749
 31
0.0
  0
LINE
  5
1D7
330
1F
100
AcDbEntity
  8
0
  6
Continuous
 62
     7
370
    15
100
AcDbLine
 10
91.5476117525
 20
129.9669597115
 30
0.0
 11
91.5476117525
 21
133.1729361604
 31
0.0
  0
LINE
  5
1D8
330
1F
100
AcDbEntity
  8
0
  6
Continuous
 62
     7
370
    15
100
AcDbLine
 10
112.0476123188
 20
131.5695917051
 30
0.0
 11
112.0476123188
 21
117.1122411083
 31
0.0
  0
ARC
  5
1D9
330
1F
100
AcDbEntity
  8
0
  6
Continuous
 62
     7
370
    15
100
AcDbCircle
 10
91.5476117525
 20
117.1122411083
 30
0.0
 40
20.50000000000001
100
AcDbArc
 50
270.8385047527
 51
0.0
  0
LINE
  5
1DA
330
1F
100
AcDbEntity
  8
0
  6
Continuous
 62
     7
370
    15
100
AcDbLine
 10
91.8476117668
 20
133.1910298954
 30
0.0
 11
91.8476117668
 21
96.6144366007
 31
0.0
  0
LINE
  5
1DB
330
1F
100
AcDbEntity
  8
0
  6
Continuous
 62
     7
370
    15
100
AcDbLine
 10
94.017611701
 20
133.4034310471
 30
0.0
 11
95.5176117141
 21
133.3358207535
 31
0.0
  0
LINE
  5
1DC
330
1F
100
AcDbEntity
  8
0
  6
Continuous
 62
     7
370
    15
100
AcDbLine
 10
95.5176117141
 20
133.6729502122
 30
0.0
 11
95.5176117141
 21
133.6567545127
 31
0.0
  0
LINE
  5
1DD
330
1F
100
AcDbEntity
  8
0
  6
Continuous
 62
     7
370
    15
100
AcDbLine
 10
95.5176117141
 20
133.550254051
 30
0.0
 11
95.5176117141
 21
133.3358207535
 31
0.0
  0
LINE
  5
1DE
330
1F
100
AcDbEntity
  8
0
  6
Continuous
 62
     7
370
    15
100
AcDbLine
 10
99.8287346456
 20
142.0256154429
 30
0.0
 11
95.5176117141
 21
142.8077047508
 31
0.0
  0
ARC
  5
1DF
330
1F
100
AcDbEntity
  8
0
  6
Continuous
 62
     7
370
    15
100
AcDbCircle
 10
90.5476117525
 20
118.8122411083
 30
0.0
 40
25.00000000000001
100
AcDbArc
 50
30.683417109
 51
68.207584164
  0
LINE
  5
1E0
330
1F
100
AcDbEntity
  8
0
  6
Continuous
 62
     7
370
    15
100
AcDbLine
 10
95.5176117141
 20
143.1424295347
 30
0.0
 11
97.871395411
 21
142.7154255848
 31
0.0
  0
ARC
  5
1E1
330
1F
100
AcDbEntity
  8
0
  6
Continuous
 62
     7
370
    15
100
AcDbCircle
 10
90.5476117525
 20
118.8122411083
 30
0.0
 40
25.00000000000001
100
AcDbArc
 50
68.207584164
 51
72.9652682712
  0
SPLINE
  5
1E2
330
1F
100
AcDbEntity
  8
0
  6
Continuous
 62
     7
370
    15
100
AcDbSpline
210
0.0
220
0.0
230
1.0
 70
     8
 71
     3
 72
     8
 73
     4
 74
     0
 42
0.00000001
 43
0.00000001
 12
1.0
 22
0.0
 32
0.0
 13
1.0
 23
0.0
 33
0.0
 40
0.0
 40
0.0
 40
0.0
 40
0.0
 40
1.0
 40
1.0
 40
1.0
 40
1.0
 10
91.8476117525282
 20
97.03898007676588
 30
0.0
 10
91.8476117525282
 20
97.09110805466506
 30
0.0
 10
91.81612116999372
 20
97.11393744442108
 30
0.0
 10
91.75095751937691
 20
97.11327487254815
 30
0.0
  0
SPLINE
  5
1E3
330
1F
100
AcDbEntity
  8
0
  6
Continuous
 62
     7
370
    15
100
AcDbSpline
210
0.0
220
0.0
230
1.0
 70
     8
 71
     3
 72
     8
 73
     4
 74
     0
 42
0.00000001
 43
0.00000001
 12
1.0
 22
0.0
 32
0.0
 13
1.0
 23
0.0
 33
0.0
 40
0.0
 40
0.0
 40
0.0
 40
0.0
 40
1.0
 40
1.0
 40
1.0
 40
1.0
 10
91.75095751936429
 20
97.11327487253993
 30
0.0
 10
91.64688813274303
 20
97.1122167143843
 30
0.0
 10
91.46561786655116
 20
97.11129645999061
 30
0.0
 10
91.25466698861021
 20
97.11438663925121
 30
0.0
  0
SPLINE
  5
1E4
330
1F
100
AcDbEntity
  8
0
  6
Continuous
 62
     7
370
    15
100
AcDbSpline
210
0.0
220
0.0
230
1.0
 70
     8
 71
     3
 72
     9
 73
     5
 74
     0
 42
0.00000001
 43
0.00000001
 12
1.0
 22
0.0
 32
0.0
 13
1.0
 23
0.0
 33
0.0
 40
0.0
 40
0.0
 40
0.0
 40
0.0
 40
0.7978727752534304
 40
1.0
 40
1.0
 40
1.0
 40
1.0
 10
91.25466700154658
 20
137.1100948940542
 30
0.0
 10
91.34275564762994
 20
137.1111292942952
 30
0.0
 10
91.45316002388579
 20
137.1124257418907
 30
0.0
 10
91.53173051669793
 20
137.1121245824907
 30
0.0
 10
91.54761175235704
 20
137.112063709977
 30
0.0
  0
ELLIPSE
  5
1E5
330
1F
100
AcDbEntity
  8
0
  6
Continuous
 62
     7
370
    15
100
AcDbEllipse
 10
82.1558712116
 20
124.8563193981
 30
0.0
 11
1.766764322878657
 21
2.237622363123435
 31
0.0
210
0.0
220
0.0
230
1.0
 40
0.7216768204
 41
0.0
 42
6.283185307179586
  0
ARC
  5
1E6
330
1F
100
AcDbEntity
  8
0
  6
Continuous
 62
     7
370
    15
100
AcDbCircle
 10
91.5476117525
 20
117.1122411083
 30
0.0
 40
20.0
100
AcDbArc
 50
90.8392549412
 51
269.1607450588
  0
ARC
  5
1E7
330
1F
100
AcDbEntity
  8
0
  6
Continuous
 62
     7
370
    15
100
AcDbCircle
 10
79.8965724022
 20
120.2225308245
 30
0.0
 40
2.535183252465859
100
AcDbArc
 50
54.3041502548
 51
81.7074752198
  0
SPLINE
  5
1E8
330
1F
100
AcDbEntity
  8
0
  6
Continuous
 62
     7
370
    15
100
AcDbSpline
210
0.0
220
0.0
230
1.0
 70
     8
 71
     3
 72
    11
 73
     7
 74
     0
 42
0.00000001
 43
0.00000001
 12
1.0
 22
0.0
 32
0.0
 13
1.0
 23
0.0
 33
0.0
 40
0.0
 40
0.0
 40
0.0
 40
0.0
 40
0.0334052327454928
 40
0.2966020081284825
 40
0.6878846193105327
 40
1.0
 40
1.0
 40
1.0
 40
1.0
 10
80.02680132724646
 20
123.117981832805
 30
0.0
 10
80.03322229366222
 20
123.1259838579381
 30
0.0
 10
80.09023346755669
 20
123.1970331076672
 30
0.0
 10
80.07646097674716
 20
123.3563922853246
 30
0.0
 10
79.9667141837069
 20
123.5524558738226
 30
0.0
 10
79.81825547460433
 20
123.5860937603886
 30
0.0
 10
79.75238061137799
 20
123.6010197367099
 30
0.0
  0
SPLINE
  5
1E9
330
1F
100
AcDbEntity
  8
0
  6
Continuous
 62
     7
370
    15
100
AcDbSpline
210
0.0
220
0.0
230
1.0
 70
     8
 71
     3
 72
    11
 73
     7
 74
     0
 42
0.00000001
 43
0.00000001
 12
1.0
 22
0.0
 32
0.0
 13
1.0
 23
0.0
 33
0.0
 40
0.0
 40
0.0
 40
0.0
 40
0.0
 40
0.3768466558967004
 40
0.6616252804173547
 40
0.8919598241897394
 40
1.0
 40
1.0
 40
1.0
 40
1.0
 10
82.57102000154856
 20
122.5926800448027
 30
0.0
 10
82.46958133222634
 20
122.6270271431367
 30
0.0
 10
82.29148664308607
 20
122.6873299432576
 30
0.0
 10
82.04280638402261
 20
122.61674883359
 30
0.0
 10
81.90405787161153
 20
122.5019754117752
 30
0.0
 10
81.88825580595324
 20
122.3818894829243
 30
0.0
 10
81.88321034051779
 20
122.3435470651415
 30
0.0
  0
CIRCLE
  5
1EA
330
1F
100
AcDbEntity
  8
VERMASSUNG
  6
CENTERX2
100
AcDbCircle
 10
91.5476117525
 20
118.942473485
 30
0.0
 40
25.00000000000001
  0
DIMENSION
  5
1EB
330
1F
100
AcDbEntity
  8
VERMASSUNG
100
AcDbDimension
  2
_D_5
 10
73.8699422229
 20
136.6201430147
 30
0.0
 11
66.7045732318
 21
143.7855120058
 31
0.0
 70
   160
  1
%%c<> min. 
 71
     2
 42
-1.0
  3
SLDDIMSTYLE3
100
AcDbAlignedDimension
 13
109.2252812822
 23
101.2648039554
 33
0.0
 14
73.8699422229
 24
136.6201430147
 34
0.0
 50
-45.0
100
AcDbRotatedDimension
  0
INSERT
  5
205
330
1F
100
AcDbEntity
  8
VERMASSUNG
100
AcDbBlockReference
  2
SW_CENTERMARKSYMBOL_0
 10
91.5476117525
 20
117.1122411083
 30
0.0
  0
OLE2FRAME
  5
206
330
1F
100
AcDbEntity
  8
0
100
AcDbOle2Frame
 70
     2
  3
Paintbrush-Bild
 10
13.8511154363
 20
38.264191557
 30
0.0
 11
51.6290888628
 21
31.9806341108
 31
0.0
 71
     2
 72
     0
 73
     1
 90
    12928
310
80552BED0767C5B32B40DDAF6807D121434000000000000000006FFBDDFB85D0
310
4940DDAF6807D121434000000000000000006FFBDDFB85D04940416F4BD60AFB
310
3F4000000000000000002BED0767C5B32B40416F4BD60AFB3F40000000000000
310
0000000000000100000000010000010000000100000000000100000000320000
310
D0CF11E0A1B11AE1000000000000000000000000000000003E000300FEFF0900
310
0600000000000000000000000100000001000000000000000010000002000000
310
01000000FEFFFFFF0000000000000000FFFFFFFFFFFFFFFFFFFFFFFFFFFFFFFF
310
FFFFFFFFFFFFFFFFFFFFFFFFFFFFFFFFFFFFFFFFFFFFFFFFFFFFFFFFFFFFFFFF
310
FFFFFFFFFFFFFFFFFFFFFFFFFFFFFFFFFFFFFFFFFFFFFFFFFFFFFFFFFFFFFFFF
310
FFFFFFFFFFFFFFFFFFFFFFFFFFFFFFFFFFFFFFFFFFFFFFFFFFFFFFFFFFFFFFFF
310
FFFFFFFFFFFFFFFFFFFFFFFFFFFFFFFFFFFFFFFFFFFFFFFFFFFFFFFFFFFFFFFF
310
FFFFFFFFFFFFFFFFFFFFFFFFFFFFFFFFFFFFFFFFFFFFFFFFFFFFFFFFFFFFFFFF
310
FFFFFFFFFFFFFFFFFFFFFFFFFFFFFFFFFFFFFFFFFFFFFFFFFFFFFFFFFFFFFFFF
310
FFFFFFFFFFFFFFFFFFFFFFFFFFFFFFFFFFFFFFFFFFFFFFFFFFFFFFFFFFFFFFFF
310
FFFFFFFFFFFFFFFFFFFFFFFFFFFFFFFFFFFFFFFFFFFFFFFFFFFFFFFFFFFFFFFF
310
FFFFFFFFFFFFFFFFFFFFFFFFFFFFFFFFFFFFFFFFFFFFFFFFFFFFFFFFFFFFFFFF
310
FFFFFFFFFFFFFFFFFFFFFFFFFFFFFFFFFFFFFFFFFFFFFFFFFFFFFFFFFFFFFFFF
310
FFFFFFFFFFFFFFFFFFFFFFFFFFFFFFFFFFFFFFFFFFFFFFFFFFFFFFFFFFFFFFFF
310
FFFFFFFFFFFFFFFFFFFFFFFFFFFFFFFFFFFFFFFFFFFFFFFFFFFFFFFFFFFFFFFF
310
FFFFFFFFFFFFFFFFFFFFFFFFFFFFFFFFFFFFFFFFFFFFFFFFFFFFFFFFFFFFFFFF
310
FDFFFFFFFEFFFFFFFEFFFFFFFEFFFFFF05000000060000000700000008000000
310
090000000A0000000B0000000C0000000D0000000E0000000F00000010000000
310
11000000120000001300000014000000150000001600000017000000FEFFFFFF
310
FFFFFFFFFFFFFFFFFFFFFFFFFFFFFFFFFFFFFFFFFFFFFFFFFFFFFFFFFFFFFFFF
310
FFFFFFFFFFFFFFFFFFFFFFFFFFFFFFFFFFFFFFFFFFFFFFFFFFFFFFFFFFFFFFFF
310
FFFFFFFFFFFFFFFFFFFFFFFFFFFFFFFFFFFFFFFFFFFFFFFFFFFFFFFFFFFFFFFF
310
FFFFFFFFFFFFFFFFFFFFFFFFFFFFFFFFFFFFFFFFFFFFFFFFFFFFFFFFFFFFFFFF
310
FFFFFFFFFFFFFFFFFFFFFFFFFFFFFFFFFFFFFFFFFFFFFFFFFFFFFFFFFFFFFFFF
310
FFFFFFFFFFFFFFFFFFFFFFFFFFFFFFFFFFFFFFFFFFFFFFFFFFFFFFFFFFFFFFFF
310
FFFFFFFFFFFFFFFFFFFFFFFFFFFFFFFFFFFFFFFFFFFFFFFFFFFFFFFFFFFFFFFF
310
FFFFFFFFFFFFFFFFFFFFFFFFFFFFFFFFFFFFFFFFFFFFFFFFFFFFFFFFFFFFFFFF
310
FFFFFFFFFFFFFFFFFFFFFFFFFFFFFFFFFFFFFFFFFFFFFFFFFFFFFFFFFFFFFFFF
310
FFFFFFFFFFFFFFFFFFFFFFFFFFFFFFFFFFFFFFFFFFFFFFFFFFFFFFFFFFFFFFFF
310
FFFFFFFFFFFFFFFFFFFFFFFFFFFFFFFFFFFFFFFFFFFFFFFFFFFFFFFFFFFFFFFF
310
FFFFFFFFFFFFFFFFFFFFFFFFFFFFFFFFFFFFFFFFFFFFFFFFFFFFFFFFFFFFFFFF
310
FFFFFFFFFFFFFFFFFFFFFFFFFFFFFFFFFFFFFFFFFFFFFFFFFFFFFFFFFFFFFFFF
310
52006F006F007400200045006E00740072007900000000000000000000000000
310
0000000000000000000000000000000000000000000000000000000000000000
310
16000500FFFFFFFFFFFFFFFF020000000A00030000000000C000000000000046
310
000000000000000000000000C029C24EC638CD0103000000C000000000000000
310
01004F006C006500000000000000000000000000000000000000000000000000
310
0000000000000000000000000000000000000000000000000000000000000000
310
0A000200FFFFFFFFFFFFFFFFFFFFFFFF00000000000000000000000000000000
310
0000000000000000000000000000000000000000000000001400000000000000
310
010043006F006D0070004F0062006A0000000000000000000000000000000000
310
0000000000000000000000000000000000000000000000000000000000000000
310
120002010100000003000000FFFFFFFF00000000000000000000000000000000
310
0000000000000000000000000000000000000000010000004D00000000000000
310
01004F006C006500310030004E00610074006900760065000000000000000000
310
0000000000000000000000000000000000000000000000000000000000000000
310
1A000200FFFFFFFFFFFFFFFFFFFFFFFF00000000000000000000000000000000
310
0000000000000000000000000000000000000000040000002426000000000000
310
FEFFFFFF02000000FEFFFFFFFFFFFFFFFFFFFFFFFFFFFFFFFFFFFFFFFFFFFFFF
310
FFFFFFFFFFFFFFFFFFFFFFFFFFFFFFFFFFFFFFFFFFFFFFFFFFFFFFFFFFFFFFFF
310
FFFFFFFFFFFFFFFFFFFFFFFFFFFFFFFFFFFFFFFFFFFFFFFFFFFFFFFFFFFFFFFF
310
FFFFFFFFFFFFFFFFFFFFFFFFFFFFFFFFFFFFFFFFFFFFFFFFFFFFFFFFFFFFFFFF
310
FFFFFFFFFFFFFFFFFFFFFFFFFFFFFFFFFFFFFFFFFFFFFFFFFFFFFFFFFFFFFFFF
310
FFFFFFFFFFFFFFFFFFFFFFFFFFFFFFFFFFFFFFFFFFFFFFFFFFFFFFFFFFFFFFFF
310
FFFFFFFFFFFFFFFFFFFFFFFFFFFFFFFFFFFFFFFFFFFFFFFFFFFFFFFFFFFFFFFF
310
FFFFFFFFFFFFFFFFFFFFFFFFFFFFFFFFFFFFFFFFFFFFFFFFFFFFFFFFFFFFFFFF
310
FFFFFFFFFFFFFFFFFFFFFFFFFFFFFFFFFFFFFFFFFFFFFFFFFFFFFFFFFFFFFFFF
310
FFFFFFFFFFFFFFFFFFFFFFFFFFFFFFFFFFFFFFFFFFFFFFFFFFFFFFFFFFFFFFFF
310
FFFFFFFFFFFFFFFFFFFFFFFFFFFFFFFFFFFFFFFFFFFFFFFFFFFFFFFFFFFFFFFF
310
FFFFFFFFFFFFFFFFFFFFFFFFFFFFFFFFFFFFFFFFFFFFFFFFFFFFFFFFFFFFFFFF
310
FFFFFFFFFFFFFFFFFFFFFFFFFFFFFFFFFFFFFFFFFFFFFFFFFFFFFFFFFFFFFFFF
310
FFFFFFFFFFFFFFFFFFFFFFFFFFFFFFFFFFFFFFFFFFFFFFFFFFFFFFFFFFFFFFFF
310
FFFFFFFFFFFFFFFFFFFFFFFFFFFFFFFFFFFFFFFFFFFFFFFFFFFFFFFFFFFFFFFF
310
FFFFFFFFFFFFFFFFFFFFFFFFFFFFFFFFFFFFFFFFFFFFFFFFFFFFFFFFFFFFFFFF
310
0100000200000000000000000000000000000000000000000000000000000000
310
0000000000000000000000000000000000000000000000000000000000000000
310
0100FEFF030A0000FFFFFFFF0A00030000000000C00000000000004607000000
310
5042727573680007000000504272757368000700000050427275736800F439B2
310
7100000000000000000000000000000000000000000000000000000000000000
310
0000000000000000000000000000000000000000000000000000000000000000
310
0000000000000000000000000000000000000000000000000000000000000000
310
0000000000000000000000000000000000000000000000000000000000000000
310
0000000000000000000000000000000000000000000000000000000000000000
310
0000000000000000000000000000000000000000000000000000000000000000
310
0000000000000000000000000000000000000000000000000000000000000000
310
0000000000000000000000000000000000000000000000000000000000000000
310
0000000000000000000000000000000000000000000000000000000000000000
310
0000000000000000000000000000000000000000000000000000000000000000
310
0000000000000000000000000000000000000000000000000000000000000000
310
0000000000000000000000000000000000000000000000000000000000000000
310
20260000424D0E260000000000003E00000028000000B40200006E0000000100
310
01000000000000000000130B0000130B00000200000002000000000000FFFFFF
310
FFFFFFFFFFFFFFFFFFFFFFFFFFFFFFFFFFFFFFFFFFFFFFFFFFFFFFFFFFFFFFFF
310
FFFFFFFFFFFFFFFFFFFFFFFFFFFFFFFFFFFFFFFFFFFFFFFFFFFFFFFFFFFFFFFF
310
FFFFFFFFFFFFFFFFFFFFFFFFFFFFFFFFFFFFFFFFFFFFFFFFF000FFFFFFFFFFFF
310
FFFFFFFFFFFFFFFFFFFFFFFFFFFFFFFFFFFFFFFFFFFFFFFFFFFFFFFFFFFFFFFF
310
FFFFFFFFFFFFFFFFFFFFFFFFFFFFFFFFFFFFFFFFFFFFFFFFFFFFFFFFFFFFFFFF
310
FFFFFFFFFFFFFFFFFFFFFFFFFFFFFFFFF000FFFFFFFFFFFFFFFFFFFFFFFFFFFF
310
FFFFFFFFFFFFFFFFFFFFFFFFFFFFFFFFFFFFFFFFFFFFFFFFFFFFFFFFFFFFFFFF
310
FFFFFFFFFFFFFFFFFFFFFFFFFFFFFFFFFFFFFFFFFFFFFFFFFFFFFFFFFFFFFFFF
310
FFFFFFFFFFFFFFFFF000FFFFFFFFFFFFFFFFFFFFFFFFFFFFFFFFFFFFFFFFFFFF
310
FFFFFFFFFFFFFFFFFFFFFFFFFFFFFFFFFFFFFFFFFFFFFFFFFFFFFFFFFFFFFFFF
310
FFFFFFFFFFFFFFFFFFFFFFFFFFFFFFFFFFFFFFFFFFFFFFFFFFFFFFFFFFFFFFFF
310
F000FFFFFFFFFFFFFFFFFFFFFFFFFFFFFFFFFFFFFFFFFFFFFFFFFFFFFFFFFFFF
310
FFFFFFFFFFFFFFFFFFFFFFFFFFFFFFFFFFFFFFFFFFFFFFFFFFFFFFFFFFFFFFFF
310
FFFFFFFFFFFFFFFFFFFFFFFFFFFFFFFFFFFFFFFFFFFFFFFFF000FFFFFFFFFFFF
310
FFFFFFFFFFFFFFFFFFFFFFFFFFFFFFFFFFFFFFFFFFFFFFFFFFFFFFFFFFFFFFFF
310
FFFFFFFFFFFFFFFFFFFFFFFFFFFFFFFFFFFFFFFFFFFFFFFFFFFFFFFFFFFFFFFF
310
FFFFFFFFFFFFFFFFFFFFFFFFFFFFFFFFF000FFFFFFFFFFFFFFFFFFFFFFFFFFFF
310
FFFFFFFFFFFFFFFFFFFFFFFFFFFFFFFFFFFFFFFFFFFFFFFFFFFFFFFFFFFFFFFF
310
FFFFFFFFFFFFFFFFFFFFFFFFFFFFFFFFFFFFFFFFFFFFFFFFFFFFFFFFFFFFFFFF
310
FFFFFFFFFFFFFFFFF000FFFFFFFFFFFFFFFFFFFFFFFFFFFFFFFFFFFFFFFFFFFF
310
FFFFFFFFFFFFFFFFFFFFFFFFFFFFFFFFFFFFFFFFFFFFFFFFFFFFFFFFFFFFFFFF
310
FFFFFFFFFFFFFFFFFFFFFFFFFFFFFFFFFFFFFFFFFFFFFFFFFFFFFFFFFFFFFFFF
310
F000FFFFFFFFFFFFFFFFFFFFFFFFFFFFFFFFFFFFFFFFFFFFFFFFFFFFFFFFFFFF
310
FFFFFFFFFFFFFFFFFFFFFFFFFFFFFFFFFFFFFFFFFFFFFFFFFFFFFFFFFFFFFFFF
310
FFFFFFFFFFFFFFFFFFFFFFFFFFFFFFFFFFFFFFFFFFFFFFFFF000FFFFFFFFFFFF
310
FFFFFFFFFFFFFFFFFFFFFFFFFFFFFFFFFFFFFFFFFFFFFFFFFFFFFFFFFFFFFFFF
310
FFFFFFFFFFFFFFFFFFFFFFFFFFFFFFFFFFFFFFFFFFFFFFFFFFFFFFFFFFFFFFFF
310
FFFFFFFFFFFFFFFFFFFFFFFFFFFFFFFFF000FFFFFFFFFFFFFFFFFFFFFFFFFFFF
310
FFFFFFFFFFFFFFFFFFFFFFFFFFFFFFFFFFFFFFFFFFFFFFFFFFFFFFFFFFFFFFFF
310
FFFFFFFFFFFFFFFFFFFFFFFFFFFFFFFFFFFFFFFFFFFFFFFFFFFFFFFFFFFFFFFF
310
FFFFFFFFFFFFFFFFF000FFFFFFFFFFFFFFFFFFFFFFFFFFFFFFFFFFFFFFFFFFFF
310
FFFFFFFFFFFFFFFFFFFFFFFFFFFFFFFFFFFFFFFFFFFFFFFFFFFFFFFFFFFFFFFF
310
FFFFFFFFFFFFFFFFFFFFFFFFFFFFFFFFFFFFFFFFFFFFFFFFFFFFFFFFFFFFFFFF
310
F000FFFFFFFFFFFFFFFFFFFFFFFFFFFFFFFFFFFFFFFFFFFFFFFFFFFFFFFFFFFF
310
FFFFFFFFFFFFFFFFFFFFFFFFFFFFFFFFFFFFFFFFFFFFFFFFFFFFFFFFFFFFFFFF
310
FFFFFFFFFFFFFFFFFFFFFFFFFFFFFFFFFFFFFFFFFFFFFFFFF000FFFFFFFFFFFF
310
FFFFFFFFFFFFFFFFFFFFFFFFFFFFFFFFFFFFFFFFFFFFFFFFFFFFFFFFFFFFFFFF
310
FFFFFFFFFFFFFFFFFFFFFFFFFFFFFFFFFFFFFFFFFFFFFFFFFFFFFFFFFFFFFFFF
310
FFFFFFFFFFFFFFFFFFFFFFFFFFFFFFFFF000FFFFFFFFFFFFFFFFFFFFFFFFFFFF
310
FFFFFFFFFFFFFFFFFFFFFFFFFFFFFFFFFFFFFFFFFFFFFFFFFFFFFFFFFFFFFFFF
310
FFFFFFFFFFFFFFFFFFFFFFFFFFFFFFFFFFFFFFFFFFFFFFFFFFFFFFFFFFFFFFFF
310
FFFFFFFFFFFFFFFFF000FFFFFFFFFFFFFFFFFFFFFFFFFFFFFFFFFFFFFFFFFFFF
310
FFFFFFFFFFFFFFFFFFFFFFFFFFFFFFFFFFFFFFFFFFFFFFFFFFFFFFFFFFFFFFFF
310
FFFFFFFFFFFFFFFFFFFFFFFFFFFFFFFFFFFFFFFFFFFFFFFFFFFFFFFFFFFFFFFF
310
F000FFFFFFFFFFFFFFFFFFFFFFFFFFFFFFFFFFFFFFFFFFFFFFFFFFFFFFFFFFFF
310
FFFFFFFFFFFFFFFFFFFFFFFFFFFFFFFFFFFFFFFFFFFFFFFFFFFFFFFFFFFFFFFF
310
FFFFFFFFFFFFFFFFFFFFFFFFFFFFFFFFFFFFFFFFFFFFFFFFF000FFFFFFFFFFFF
310
FFFFFFFFFFFFFFFFFFFFFFFFFFFFFFFFFFFFFFFFFFFFFFFFFFFFFFFFFFFFFFFF
310
FFFFFFFFFFFFFFFFFFFFFFFFFFFFFFFFFFFFFFFFFFFFFFFFFFFFFFFFFFFFFFFF
310
FFFFFFFFFFFFFFFFFFFFFFFFFFFFFFFFF000FFFFFFFFFFFFFFFFFFFFFFFFFFFF
310
FFFFFFFFFFFFFFFFFFFFFFFFFFFFFFFFFFFFFFFFFFFFFFFFFFFFFFFFFFFFFFFF
310
FFFFFFFFFFFFFFFFFFFFFFFFFFFFFFFFFFFFFFFFFFFFFFFFFFFFFFFFFFFFFFFF
310
FFFFFFFFFFFFFFFFF000FFFFF80003FFFFFFFFFFFFFFFFFFFFFFFFFFFFFFFFFF
310
FFFFF00007FFFFFFFFFF00007FFFFFF800000000000000007FFFFFFFFFFFFFFF
310
FFFFFFFC001FFFFFFFFFFFFFFC001FFFFFFFFFFFFFFFFFFFFFFFFFFE0007FFFF
310
F000FFFF8000007FFFFFFFF8000FFFFFC0007FFFFF80007FFFFF0000007FFFFF
310
FFF8000007FFFFF800000000000000007FFFFFF0001FFFFFFFFFFFC00001FFFF
310
FFFFFFFFC00001FFFFFFFF000000000003FFFFE000007FFFF000FFFE0000000F
310
FFFFFFF0000FFFFF80007FFFFF80007FFFFC0000001FFFFFFFC0000001FFFFF8
310
00000000000000007FFFFFF0001FFFFFFFFFFE0000003FFFFFFFFFFE0000003F
310
FFFFFF000000000003FFFF0000000FFFF000FFF800000003FFFFFFF00007FFFF
310
80007FFFFF80007FFFF000000007FFFFFF000000003FFFF80000000000000000
310
7FFFFFF0001FFFFFFFFFF80000000FFFFFFFFFF80000000FFFFFFF0000000000
310
03FFFC00000003FFF000FFE000000000FFFFFFF00007FFFF80003FFFFF80007F
310
FFC000000001FFFFFC000000001FFFF800000000000000007FFFFFF0001FFFFF
310
FFFFE000000003FFFFFFFFE000000003FFFFFF000000000003FFF000000000FF
310
F000FF80000000007FFFFFF00007FFFF80003FFFFF80007FFF8000000000FFFF
310
F80000000007FFF800000000000000007FFFFFF0001FFFFFFFFFC000000001FF
310
FFFFFFC000000001FFFFFF000000000003FFC0000000007FF000FF0000000000
310
3FFFFFE00007FFFF00003FFFFF80007FFE00000000003FFFF00000000003FFF8
310
00000000000000007FFFFFF0001FFFFFFFFF8000000000FFFFFFFF8000000000
310
FFFFFF000000000003FF80000000003FF000FE00000000001FFFFFE00003FFFF
310
00003FFFFF80007FFC00000000001FFFE00000000001FFF8000001FFFE000000
310
7FFFFFF0001FFFFFFFFE00000000003FFFFFFE00000000003FFFFF0000000000
310
03FF00000000001FF000FC00000000000FFFFFE00003FFFF00001FFFFF80007F
310
F800000000001FFFC00000000000FFF8000001FFFE0000007FFFFFF0001FFFFF
310
FFFC00000000001FFFFFFC00000000001FFFFF000000000003FE00000000000F
310
F000F8000000000007FFFFE00003FFFF00001FFFFF80007FF800000000000FFF
310
800000000000FFF8000001FFFE0000007FFFFFF0001FFFFFFFF800000000000F
310
FFFFF800000000000FFFFF000000000003FC000000000007F000F80000000000
310
03FFFFC00003FFFE00001FFFFF80007FF0000000000007FF0000000000007FF8
310
000001FFFE0000007FFFFFF0001FFFFFFFF0000000000007FFFFF00000000000
310
07FFFF000000000003F8000000000003F000F0000000000003FFFFC00001FFFE
310
00001FFFFF80007FE0000000000007FE0000000000003FF8000001FFFE000000
310
7FFFFFF0001FFFFFFFF0000000000007FFFFF0000000000007FFFF0000000000
310
03F800001F800003F000E00001FFF00001FFFFC00001FFFE00000FFFFF80007F
310
E00001FFE00003FE00001FFF00003FF8000001FFFE0000007FFFFFF0001FFFFF
310
FFE000003E000003FFFFE000003E000003FFFF000000000003F00001FFF80001
310
F000E00007FFFC0001FFFFC00001FFFE00000FFFFF80007FC0000FFFFC0003FC
310
0000FFFFC0001FF8000001FFFE0000007FFFFFF0001FFFFFFFC00003FFE00001
310
FFFFC00003FFE00001FFFF0001FFFFFFFFF00007FFFE0001F000E0000FFFFF00
310
00FFFF800001FFFC00000FFFFF80007FC0001FFFFE0001FC0001FFFFE0001FF8
310
000001FFFE0000007FFFFFF0001FFFFFFF80000FFFF80000FFFF80000FFFF800
310
00FFFF0003FFFFFFFFE0000FFFFF8000F000C0003FFFFF8000FFFF800000FFFC
310
000007FFFF80007F80003FFFFF0001FC0003FFFFF0001FF8000001FFFE000000
310
7FFFFFF0001FFFFFFF80003FFFFE0000FFFF80003FFFFE0000FFFF0003FFFFFF
310
FFE0003FFFFF8000F000C0003FFFFF8000FFFF800000FFFC000007FFFF80007F
310
80007FFFFF8001F80007FFFFF8000FF8000001FFFE0000007FFFFFF0001FFFFF
310
FF00007FFFFF00007FFF00007FFFFF00007FFF0003FFFFFFFFE0003FFFFFC000
310
F000C0007FFFFFC000FFFF000000FFFC000007FFFF80007F8000FFFFFF8000F8
310
000FFFFFF8000FF8000001FFFE0000007FFFFFF0001FFFFFFF0000FFFFFF8000
310
7FFF0000FFFFFF80007FFF0003FFFFFFFFC0007FFFFFC00070008000FFFFFFC0
310
00FFFF000000FFF8000007FFFF80007F8000FFFFFF8000F8000FFFFFF8000FF8
310
000001FFFE0000007FFFFFF0001FFFFFFE0001FFFFFFC0003FFE0001FFFFFFC0
310
003FFF0003FFFFFFFFC0007FFFFFE00070008000FFFFFFC0007FFF0000007FF8
310
000003FFFF80007F0001FFFFFF8000F8000FFFFFF8000FF8000001FFFE000000
310
7FFFFFF0001FFFFFFE0001FFFFFFC0003FFE0001FFFFFFC0003FFF0003FFFFFF
310
FFC000FFFFFFE00070008000FFFFFFC0007FFF0000007FF8000003FFFF80007F
310
0001FFFFFF8000F8001FFFFFF8000FF8000001FFFE0000007FFFFFF0001FFFFF
310
FE0003FFFFFFE0003FFE0003FFFFFFE0003FFF0003FFFFFFFFC000FFFFFFE000
310
70008000FFFFFFC0007FFE0000007FF8000003FFFF80007F0001FFFFFF8000F0
310
001FFFFFF8000FF8000001FFFE0000007FFFFFF0001FFFFFFC0003FFFFFFE000
310
1FFC0003FFFFFFE0001FFF0003FFFFFFFFC000FFFFFFC00070008000FFFFFF80
310
007FFE0000007FF0000003FFFF80007F0001FFFFFF0000F0001FFFFFF8000FF8
310
000001FFFE0000007FFFFFF0001FFFFFFC0007FFFFFFF0001FFC0007FFFFFFF0
310
001FFF0003FFFFFFFFC000FFFFFFC00070008001FFFFFF0000FFFE0000003FF0
310
000001FFFF80007F0001FFFFFF0000F8001FFFFFF0000FF8000001FFFE000000
310
7FFFFFF0001FFFFFFC0007FFFFFFF0001FFC0007FFFFFFF0001FFF0003FFFFFF
310
FFC001FFFFFF80007000FFFFFFFFFE0000FFFE0008003FF0008001FFFF80007F
310
FFFFFFFFFC0000FFFFFFFFFFE0000FF8000001FFFE0000007FFFFFF0001FFFFF
310
F8000FFFFFFFF8000FF8000FFFFFFFF8000FFF0003FFFFFFFFFFFFFFFFFF0000
310
7000FFFFFFFFFC0000FFFC0008003FF0008001FFFF80007FFFFFFFFFF80001FF
310
FFFFFFFF80000FF8000001FFFE0000007FFFFFF0001FFFFFF8000FFFFFFFF800
310
0FF8000FFFFFFFF8000FFF0003FFFFFFFFFFFFFFFFFE0000F000FFFFFFFFE000
310
00FFFC000C003FE000C001FFFF80007FFFFFFFFFC00001FFFFFFFFFE00001FF8
310
000001FFFE0000007FFFFFF0001FFFFFF8000FFFFFFFF8000FF8000FFFFFFFF8
310
000FFF0003FFFFFFFFFFFFFFFFF00000F000FFFFFFFE000001FFFC000C001FE0
310
00C000FFFF80007FFFFFFFFE000001FFFFFFFFE000001FF80FFFFFFFFFFFFFC0
310
7FFFFFF0001FFFFFF8000FFFFFFFF8000FF8000FFFFFFFF8000FFF0003FFFFFF
310
FFFFFFFFFF800000F000FFFFFFC0000001FFFC001C001FE001C000FFFF80007F
310
FFFFFF80000003FFFFFFF80000001FF80FFFFFFFFFFFFFC07FFFFFF0001FFFFF
310
F8001FFFFFFFFC000FF8001FFFFFFFFC000FFF0003FFFFFFFFFFFFFFF0000001
310
F000FFFFF800000001FFF8001C001FE001C000FFFF80007FFFFFF800000003FF
310
FFFF800000003FF80FFFFFFFFFFFFFC07FFFFFF0001FFFFFF8001FFFFFFFFC00
310
0FF8001FFFFFFFFC000FFF0003FFFFFFFFFFFFFE00000001F000FFFFC0000000
310
03FFF8001E001FC001E000FFFF80007FFFFF8000000007FFFFFC000000003FF8
310
0FFFFFFFFFFFFFC07FFFFFF0001FFFFFF8001FFFFFFFFC000FF8001FFFFFFFFC
310
000FFF0003FFFFFFFFFFFFE000000003F000FFFE0000000007FFF8001E000FC0
310
01E0007FFF80007FFFFE0000000007FFFFE0000000007FF80FFFFFFFFFFFFFC0
310
7FFFFFF0001FFFFFF0001FFFFFFFFC0007F0001FFFFFFFFC0007FF0003FFFFFF
310
FFFFFF0000000003F000FFF80000000007FFF8001E000FC003E0007FFF80007F
310
FFF0000000000FFFFF8000000000FFF80FFFFFFFFFFFFFC07FFFFFF0001FFFFF
310
F0001FFFFFFFFC0007F0001FFFFFFFFC0007FF0003FFFFFFFFFFFC0000000007
310
F000FFE0000000000FFFF0003E000FC003E0007FFF80007FFFC0000000001FFF
310
FE0000000001FFF80FFFFFFFFFFFFFC07FFFFFF0001FFFFFF0001FFFFFFFFC00
310
07F0001FFFFFFFFC0007FF0003FFFFFFFFFFF0000000000FF000FFC000000000
310
1FFFF0003F000F8003F0003FFF80007FFF80000000003FFFF80000000003FFF8
310
0FFFFFFFFFFFFFC07FFFFFF0001FFFFFF0001FFFFFFFFC0007F0001FFFFFFFFC
310
0007FF0003FFFFFFFFFFE0000000001FF000FF00000000007FFFF0003F000780
310
03F0003FFF80007FFF00000000007FFFF00000000007FFF80FFFFFFFFFFFFFC0
310
7FFFFFF0001FFFFFF0001FFFFFFFFC0007F0001FFFFFFFFC0007FF0003FFFFFF
310
FFFF80000000007FF000FE0000000000FFFFE0003F00078007F0003FFF80007F
310
FE0000000001FFFFE0000000001FFFF80FFFFFFFFFFFFFC07FFFFFF0001FFFFF
310
F0001FFFFFFFFC0007F0001FFFFFFFFC0007FF0003FFFFFFFFFF0000000000FF
310
F000FC0000000003FFFFE0007F00078007F0003FFF80007FFC0000000007FFFF
310
C0000000007FFFF80FFFFFFFFFFFFFC07FFFFFF0001FFFFFF8001FFFFFFFFC00
310
0FF8001FFFFFFFFC000FFF0003FFFFFFFFFE0000000003FFF000FC000000000F
310
FFFFE0007F80070007F8001FFF80007FF8000000001FFFFF8000000001FFFFF8
310
0FFFFFFFFFFFFFC07FFFFFF0001FFFFFF8001FFFFFFFFC000FF8001FFFFFFFFC
310
000FFF0003FFFFFFFFFC000000000FFFF000F8000000007FFFFFE0007F800700
310
07F8001FFF80007FF000000000FFFFFF800000000FFFFFF80FFFFFFFFFFFFFC0
310
7FFFFFF0001FFFFFF8000FFFFFFFF8000FF8000FFFFFFFF8000FFF0003FFFFFF
310
FFFC000000007FFFF000F800000007FFFFFFC0007F8003000FF8001FFF80007F
310
F000000007FFFFFF000000007FFFFFF80FFFFFFFFFFFFFC07FFFFFF0001FFFFF
310
F8000FFFFFFFF8000FF8000FFFFFFFF8000FFF0003FFFFFFFFF80000000FFFFF
310
F000F0000000FFFFFFFFC000FF8003000FF8001FFF80007FE0000000FFFFFFFF
310
0000000FFFFFFFF8000001FFFE0000007FFFFFF0001FFFFFF8000FFFFFFFF800
310
0FF8000FFFFFFFF8000FFF0003FFFFFFFFF8000000FFFFFFF000F000000FFFFF
310
FFFFC000FFC002000FF8000FFF80007FE000001FFFFFFFFE000001FFFFFFFFF8
310
000001FFFE0000007FFFFFF0001FFFFFF8000FFFFFFFF8000FF8000FFFFFFFF8
310
000FFF0003FFFFFFFFF000001FFFFFFFF000E00000FFFFFFFFFFC000FFC00200
310
0FFC000FFF80007FE00001FFFFFFFFFE00001FFFFFFFFFF8000001FFFE000000
310
7FFFFFF0001FFFFFFC000FFFFFFFF8001FFC000FFFFFFFF8001FFF0003FFFFFF
310
FFF00001FFFFFFFFF000E00007FFFFFFFFFF8000FFC000001FFC000FFF80007F
310
C0000FFFFFFFFFFE0000FFFFFFFFFFF8000001FFFE0000007FFFFFF0001FFFFF
310
FC0007FFFFFFF0001FFC0007FFFFFFF0001FFF0003FFFFFFFFF00007FFFFFFFF
310
F000E0001FFFFFFFFFFF8000FFC000001FFC000FFF80007FC0003FFFFFFFFFFE
310
0001FFFFFFFFFFF8000001FFFE0000007FFFFFF0001FFFFFFC0007FFFFFFF000
310
1FFC0007FFFFFFF0001FFF0003FFFFFFFFF0001FFFFFFFFFF000E0003FFFFF00
310
03FF8001FFE000001FFC0007FF80007FC0007FFFFF0007FC0003FFFFF0003FF8
310
000001FFFE0000007FFFFFF0001FFFFFFC0003FFFFFFE0001FFC0003FFFFFFE0
310
001FFF0003FFFFFFFFF0003FFFFFFFFFF000E0003FFFFF0001FF8001FFE00000
310
1FFE0007FF80007FC0007FFFFE0003FC0007FFFFE0003FF8000001FFFE000000
310
7FFFFFF0001FFFFFFE0003FFFFFFE0003FFE0003FFFFFFE0003FFF0003FFFFFF
310
FFF0003FFFFF8001F000E0003FFFFF0001FF0001FFE000001FFE0007FF80007F
310
C0007FFFFE0003FC0007FFFFE0003FF8000001FFFE0000007FFFFFF0001FFFFF
310
FE0001FFFFFFC0003FFE0001FFFFFFC0003FFF0003FFFFFFFFF0003FFFFF0001
310
F000E0003FFFFF0003FF0001FFE000003FFE0007FF80007FC0007FFFFE0003FC
310
0007FFFFE0003FF8000001FFFE0000007FFFFFF0001FFFFFFF0001FFFFFFC000
310
7FFF0001FFFFFFC0007FFF0003FFFFFFFFF0003FFFFF0001F000E0003FFFFE00
310
03FF0003FFF000003FFE0003FF80007FC0007FFFFC0003FE0007FFFFE0003FF8
310
000001FFFE0000007FFFFFF0001FFFFFFF0000FFFFFF80007FFF0000FFFFFF80
310
007FFF0003FFFFFFFFF0003FFFFF0001F000E0003FFFFE0003FF0003FFF00000
310
3FFF0003FF80007FC0007FFFFC0007FE0007FFFFC0003FF8000001FFFE000000
310
7FFFFFF0001FFFFFFF80007FFFFF0000FFFF80007FFFFF0000FFFF0003FFFFFF
310
FFF0003FFFFF0003F000E0003FFFFC0003FE0003FFF000003FFF0003FF80007F
310
E0003FFFF80007FE0003FFFFC0007FF8000001FFFE0000007FFFFFF0001FFFFF
310
FF80003FFFFE0000FFFF80003FFFFE0000FFFF0003FFFFFFFFF0001FFFFE0003
310
F000F0001FFFF80003FE0003FFF000007FFF0001FF80007FE0003FFFF00007FE
310
0001FFFF80007FF8000001FFFE0000007FFFFFF0001FFFFFFFC0000FFFF80001
310
FFFFC0000FFFF80001FFFF0003FFFFFFFFF0001FFFFC0003F000F0000FFFF000
310
07FE0007FFF800007FFF0001FF80007FE0001FFFE00007FF0000FFFE00007FF8
310
000001FFFE0000007FFFFFF0001FFFFFFFC00003FFE00001FFFFC00003FFE000
310
01FFFF0003FFFFFFFFF8000FFFF80003F000F00003FFC00007FC0007FFF80000
310
7FFF8001FF80007FF00007FF80000FFF00007FF80000FFF8000001FFFE000000
310
7F80000000000001FFE000003E000003FFFFE000003E000003FFFF0003FFFFFF
310
FFF80003FFE00007F000F800000000000FFC0007FFF800007FFF8001FF80007F
310
F000000000000FFF000000000000FFF8000001FFFE0000007F80000000000001
310
FFF0000000000007FFFFF0000000000007FFFF0003FFFFFFFFFC00007E000007
310
F000F800000000000FFC0007FFF80000FFFF8000FF80007FF800000000001FFF
310
800000000001FFF8000001FFFE0000007F80000000000001FFF800000000000F
310
FFFFF800000000000FFFFF0003FFFFFFFFFC00000000000FF000FC0000000000
310
1FFC0007FFFC0000FFFF8000FF80007FF800000000003FFFC00000000001FFF8
310
000001FFFE0000007F80000000000001FFF800000000000FFFFFF80000000000
310
0FFFFF0003FFFFFFFFFE00000000001FF000FE00000000003FF8000FFFFC0000
310
FFFF8000FF80007FFC00000000003FFFC00000000003FFF8000001FFFE000000
310
7F80000000000001FFFC00000000001FFFFFFC00000000001FFFFF0003FFFFFF
310
FFFF00000000001FF000FF00000000003FF8000FFFFC0000FFFFC000FF80007F
310
FE00000000007FFFE00000000007FFF8000001FFFE0000007F80000000000001
310
FFFE00000000003FFFFFFE00000000003FFFFF0003FFFFFFFFFF80000000003F
310
F000FF80000000007FF8000FFFFC0001FFFFC0007F80007FFF0000000000FFFF
310
F0000000000FFFF800000000000000007F80000000000001FFFF8000000000FF
310
FFFFFF8000000000FFFFFF0003FFFFFFFFFFC0000000007FF000FFC000000000
310
FFF8000FFFFE0001FFFFC0007F80007FFF8000000001FFFFF8000000001FFFF8
310
00000000000000007F80000000000001FFFFC000000001FFFFFFFFC000000001
310
FFFFFF0003FFFFFFFFFFE000000000FFF000FFE000000003FFF0001FFFFE0001
310
FFFFC0007F80007FFFC000000007FFFFFE000000003FFFF80000000000000000
310
7F80000000000001FFFFE000000003FFFFFFFFE000000003FFFFFF0003FFFFFF
310
FFFFF000000003FFF000FFF80000000FFFF0001FFFFE0001FFFFE0007F80007F
310
FFF00000000FFFFFFF00000000FFFFF800000000000000007F80000000000001
310
FFFFF80000000FFFFFFFFFF80000000FFFFFFF0003FFFFFFFFFFFC0000000FFF
310
F000FFFE0000003FFFF0001FFFFE0003FFFFE0003F80007FFFFC0000003FFFFF
310
FFC0000003FFFFF800000000000000007F80000000000001FFFFFE0000003FFF
310
FFFFFFFE0000003FFFFFFF0003FFFFFFFFFFFF0000003FFFF000FFFF800000FF
310
FFF0001FFFFF0003FFFFE0003F80007FFFFF000001FFFFFFFFF800001FFFFFF8
310
00000000000000007F80000000000001FFFFFFC00001FFFFFFFFFFFFC00001FF
310
FFFFFF0003FFFFFFFFFFFFC00000FFFFF000FFFFF8000FFFFFFFFFFFFFFFFFFF
310
FFFFFFFFFFFFFFFFFFFFF0001FFFFFFFFFFF0000FFFFFFF80000000000000000
310
7FFFFFFFFFFFFFFFFFFFFFFC001FFFFFFFFFFFFFFC001FFFFFFFFFFFFFFFFFFF
310
FFFFFFFC001FFFFFF000FFFFFFFFFFFFFFFFFFFFFFFFFFFFFFFFFFFFFFFFFFFF
310
FFFFFFFFFFFFFFFFFFFFFFFFFFFFFFFFFFFFFFFFFFFFFFFFFFFFFFFFFFFFFFFF
310
FFFFFFFFFFFFFFFFFFFFFFFFFFFFFFFFFFFFFFFFFFFFFFFFFFFFFFFFFFFFFFFF
310
F000FFFFFFFFFFFFFFFFFFFFFFFFFFFFFFFFFFFFFFFFFFFFFFFFFFFFFFFFFFFF
310
FFFFFFFFFFFFFFFFFFFFFFFFFFFFFFFFFFFFFFFFFFFFFFFFFFFFFFFFFFFFFFFF
310
FFFFFFFFFFFFFFFFFFFFFFFFFFFFFFFFFFFFFFFFFFFFFFFFF000FFFFFFFFFFFF
310
FFFFFFFFFFFFFFFFFFFFFFFFFFFFFFFFFFFFFFFFFFFFFFFFFFFFFFFFFFFFFFFF
310
FFFFFFFFFFFFFFFFFFFFFFFFFFFFFFFFFFFFFFFFFFFFFFFFFFFFFFFFFFFFFFFF
310
FFFFFFFFFFFFFFFFFFFFFFFFFFFFFFFFF000FFFFFFFFFFFFFFFFFFFFFFFFFFFF
310
FFFFFFFFFFFFFFFFFFFFFFFFFFFFFFFFFFFFFFFFFFFFFFFFFFFFFFFFFFFFFFFF
310
FFFFFFFFFFFFFFFFFFFFFFFFFFFFFFFFFFFFFFFFFFFFFFFFFFFFFFFFFFFFFFFF
310
FFFFFFFFFFFFFFFFF000FFFFFFFFFFFFFFFFFFFFFFFFFFFFFFFFFFFFFFFFFFFF
310
FFFFFFFFFFFFFFFFFFFFFFFFFFFFFFFFFFFFFFFFFFFFFFFFFFFFFFFFFFFFFFFF
310
FFFFFFFFFFFFFFFFFFFFFFFFFFFFFFFFFFFFFFFFFFFFFFFFFFFFFFFFFFFFFFFF
310
F000FFFFFFFFFFFFFFFFFFFFFFFFFFFFFFFFFFFFFFFFFFFFFFFFFFFFFFFFFFFF
310
FFFFFFFFFFFFFFFFFFFFFFFFFFFFFFFFFFFFFFFFFFFFFFFFFFFFFFFFFFFFFFFF
310
FFFFFFFFFFFFFFFFFFFFFFFFFFFFFFFFFFFFFFFFFFFFFFFFF000FFFFFFFFFFFF
310
FFFFFFFFFFFFFFFFFFFFFFFFFFFFFFFFFFFFFFFFFFFFFFFFFFFFFFFFFFFFFFFF
310
FFFFFFFFFFFFFFFFFFFFFFFFFFFFFFFFFFFFFFFFFFFFFFFFFFFFFFFFFFFFFFFF
310
FFFFFFFFFFFFFFFFFFFFFFFFFFFFFFFFF000FFFFFFFFFFFFFFFFFFFFFFFFFFFF
310
FFFFFFFFFFFFFFFFFFFFFFFFFFFFFFFFFFFFFFFFFFFFFFFFFFFFFFFFFFFFFFFF
310
FFFFFFFFFFFFFFFFFFFFFFFFFFFFFFFFFFFFFFFFFFFFFFFFFFFFFFFFFFFFFFFF
310
FFFFFFFFFFFFFFFFF000FFFFFFFFFFFFFFFFFFFFFFFFFFFFFFFFFFFFFFFFFFFF
310
FFFFFFFFFFFFFFFFFFFFFFFFFFFFFFFFFFFFFFFFFFFFFFFFFFFFFFFFFFFFFFFF
310
FFFFFFFFFFFFFFFFFFFFFFFFFFFFFFFFFFFFFFFFFFFFFFFFFFFFFFFFFFFFFFFF
310
F000FFFFFFFFFFFFFFFFFFFFFFFFFFFFFFFFFFFFFFFFFFFFFFFFFFFFFFFFFFFF
310
FFFFFFFFFFFFFFFFFFFFFFFFFFFFFFFFFFFFFFFFFFFFFFFFFFFFFFFFFFFFFFFF
310
FFFFFFFFFFFFFFFFFFFFFFFFFFFFFFFFFFFFFFFFFFFFFFFFF000FFFFFFFFFFFF
310
FFFFFFFFFFFFFFFFFFFFFFFFFFFFFFFFFFFFFFFFFFFFFFFFFFFFFFFFFFFFFFFF
310
FFFFFFFFFFFFFFFFFFFFFFFFFFFFFFFFFFFFFFFFFFFFFFFFFFFFFFFFFFFFFFFF
310
FFFFFFFFFFFFFFFFFFFFFFFFFFFFFFFFF000FFFFFFFFFFFFFFFFFFFFFFFFFFFF
310
FFFFFFFFFFFFFFFFFFFFFFFFFFFFFFFFFFFFFFFFFFFFFFFFFFFFFFFFFFFFFFFF
310
FFFFFFFFFFFFFFFFFFFFFFFFFFFFFFFFFFFFFFFFFFFFFFFFFFFFFFFFFFFFFFFF
310
FFFFFFFFFFFFFFFFF000FFFFFFFFFFFFFFFFFFFFFFFFFFFFFFFFFFFFFFFFFFFF
310
FFFFFFFFFFFFFFFFFFFFFFFFFFFFFFFFFFFFFFFFFFFFFFFFFFFFFFFFFFFFFFFF
310
FFFFFFFFFFFFFFFFFFFFFFFFFFFFFFFFFFFFFFFFFFFFFFFFFFFFFFFFFFFFFFFF
310
F000FFFFFFFFFFFFFFFFFFFFFFFFFFFFFFFFFFFFFFFFFFFFFFFFFFFFFFFFFFFF
310
FFFFFFFFFFFFFFFFFFFFFFFFFFFFFFFFFFFFFFFFFFFFFFFFFFFFFFFFFFFFFFFF
310
FFFFFFFFFFFFFFFFFFFFFFFFFFFFFFFFFFFFFFFFFFFFFFFFF000FFFFFFFFFFFF
310
FFFFFFFFFFFFFFFFFFFFFFFFFFFFFFFFFFFFFFFFFFFFFFFFFFFFFFFFFFFFFFFF
310
FFFFFFFFFFFFFFFFFFFFFFFFFFFFFFFFFFFFFFFFFFFFFFFFFFFFFFFFFFFFFFFF
310
FFFFFFFFFFFFFFFFFFFFFFFFFFFFFFFFF000FFFFFFFFFFFFFFFFFFFFFFFFFFFF
310
FFFFFFFFFFFFFFFFFFFFFFFFFFFFFFFFFFFFFFFFFFFFFFFFFFFFFFFFFFFFFFFF
310
FFFFFFFFFFFFFFFFFFFFFFFFFFFFFFFFFFFFFFFFFFFFFFFFFFFFFFFFFFFFFFFF
310
FFFFFFFFFFFFFFFFF000FFFFFFFFFFFFFFFFFFFFFFFFFFFFFFFFFFFFFFFFFFFF
310
FFFFFFFFFFFFFFFFFFFFFFFFFFFFFFFFFFFFFFFFFFFFFFFFFFFFFFFFFFFFFFFF
310
FFFFFFFFFFFFFFFFFFFFFFFFFFFFFFFFFFFFFFFFFFFFFFFFFFFFFFFFFFFFFFFF
310
F000FFFFFFFFFFFFFFFFFFFFFFFFFFFFFFFFFFFFFFFFFFFFFFFFFFFFFFFFFFFF
310
FFFFFFFFFFFFFFFFFFFFFFFFFFFFFFFFFFFFFFFFFFFFFFFFFFFFFFFFFFFFFFFF
310
FFFFFFFFFFFFFFFFFFFFFFFFFFFFFFFFFFFFFFFFFFFFFFFFF000FFFFFFFFFFFF
310
FFFFFFFFFFFFFFFFFFFFFFFFFFFFFFFFFFFFFFFFFFFFFFFFFFFFFFFFFFFFFFFF
310
FFFFFFFFFFFFFFFFFFFFFFFFFFFFFFFFFFFFFFFFFFFFFFFFFFFFFFFFFFFFFFFF
310
FFFFFFFFFFFFFFFFFFFFFFFFFFFFFFFFF000FFFFFFFFFFFFFFFFFFFFFFFFFFFF
310
FFFFFFFFFFFFFFFFFFFFFFFFFFFFFFFFFFFFFFFFFFFFFFFFFFFFFFFFFFFFFFFF
310
FFFFFFFFFFFFFFFFFFFFFFFFFFFFFFFFFFFFFFFFFFFFFFFFFFFFFFFFFFFFFFFF
310
FFFFFFFFFFFFFFFFF000FFFFFFFFFFFFFFFFFFFFFFFFFFFFFFFFFFFFFFFFFFFF
310
FFFFFFFFFFFFFFFFFFFFFFFFFFFFFFFFFFFFFFFFFFFFFFFFFFFFFFFFFFFFFFFF
310
FFFFFFFFFFFFFFFFFFFFFFFFFFFFFFFFFFFFFFFFFFFFFFFFFFFFFFFFFFFFFFFF
310
F000FFFFFFFFFFFFFFFFFFFFFFFFFFFFFFFFFFFFFFFFFFFFFFFFFFFFFFFFFFFF
310
FFFFFFFFFFFFFFFFFFFFFFFFFFFFFFFFFFFFFFFFFFFFFFFFFFFFFFFFFFFFFFFF
310
FFFFFFFFFFFFFFFFFFFFFFFFFFFFFFFFFFFFFFFFFFFFFFFFF000FFFFFFFFFFFF
310
FFFFFFFFFFFFFFFFFFFFFFFFFFFFFFFFFFFFFFFFFFFFFFFFFFFFFFFFFFFFFFFF
310
FFFFFFFFFFFFFFFFFFFFFFFFFFFFFFFFFFFFFFFFFFFFFFFFFFFFFFFFFFFFFFFF
310
FFFFFFFFFFFFFFFFFFFFFFFFFFFFFFFFF0000000000000000000000000000000
310
0000000000000000000000000000000000000000000000000000000000000000
310
0000000000000000000000000000000000000000000000000000000000000000
310
0000000000000000000000000000000000000000000000000000000000000000
310
0000000000000000000000000000000000000000000000000000000000000000
310
0000000000000000000000000000000000000000000000000000000000000000
310
0000000000000000000000000000000000000000000000000000000000000000
310
0000000000000000000000000000000000000000000000000000000000000000
310
0000000000000000000000000000000000000000000000000000000000000000
310
0000000000000000000000000000000000000000000000000000000000000000
310
0000000000000000000000000000000000000000000000000000000000000000
310
0000000000000000000000000000000000000000000000000000000000000000
310
0000000000000000000000000000000000000000000000000000000000000000
310
0000000000000000000000000000000000000000000000000000000000000000
310
0000000000000000000000000000000000000000000000000000000000000000
310
0000000000000000000000000000000000000000000000000000000000000000
  1
OLE
  0
ENDSEC
  0
SECTION
  2
OBJECTS
  0
DICTIONARY
  5
C
330
0
100
AcDbDictionary
281
     1
  3
ACAD_GROUP
350
D
  3
ACAD_LAYOUT
350
1A
  3
ACAD_MLINESTYLE
350
17
  3
ACAD_PLOTSETTINGS
350
19
  3
ACAD_PLOTSTYLENAME
350
E
  0
DICTIONARY
  5
D
102
{ACAD_REACTORS
330
C
102
}
330
C
100
AcDbDictionary
281
     1
  0
DICTIONARY
  5
1A
102
{ACAD_REACTORS
330
C
102
}
330
C
100
AcDbDictionary
281
     1
  3
Layout1
350
1E
  3
Layout2
350
26
  3
Model
350
22
  0
DICTIONARY
  5
17
102
{ACAD_REACTORS
330
C
102
}
330
C
100
AcDbDictionary
281
     1
  3
Standard
350
18
  0
DICTIONARY
  5
19
102
{ACAD_REACTORS
330
C
102
}
330
C
100
AcDbDictionary
281
     1
  0
ACDBDICTIONARYWDFLT
  5
E
102
{ACAD_REACTORS
330
C
102
}
330
C
100
AcDbDictionary
281
     1
  3
Normal
350
F
100
AcDbDictionaryWithDefault
340
F
  0
LAYOUT
  5
1E
102
{ACAD_REACTORS
330
1A
102
}
330
1A
100
AcDbPlotSettings
  1

  2
none_device
  4

  6

 40
0.0
 41
0.0
 42
0.0
 43
0.0
 44
0.0
 45
0.0
 46
0.0
 47
0.0
 48
0.0
 49
0.0
140
0.0
141
0.0
142
1.0
143
1.0
 70
   688
 72
     0
 73
     0
 74
     5
  7

 75
    16
147
1.0
148
0.0
149
0.0
100
AcDbLayout
  1
Layout1
 70
     1
 71
     1
 10
0.0
 20
0.0
 11
420.0
 21
297.0
 12
0.0
 22
0.0
 32
0.0
 14
1.0000000000E+20
 24
1.0000000000E+20
 34
1.0000000000E+20
 15
-1.0000000000E+20
 25
-1.0000000000E+20
 35
-1.0000000000E+20
146
0.0
 13
0.0
 23
0.0
 33
0.0
 16
1.0
 26
0.0
 36
0.0
 17
0.0
 27
1.0
 37
0.0
 76
     0
330
1B
  0
LAYOUT
  5
26
102
{ACAD_REACTORS
330
1A
102
}
330
1A
100
AcDbPlotSettings
  1

  2
none_device
  4

  6

 40
0.0
 41
0.0
 42
0.0
 43
0.0
 44
0.0
 45
0.0
 46
0.0
 47
0.0
 48
0.0
 49
0.0
140
0.0
141
0.0
142
1.0
143
1.0
 70
   688
 72
     0
 73
     0
 74
     5
  7

 75
    16
147
1.0
148
0.0
149
0.0
100
AcDbLayout
  1
Layout2
 70
     1
 71
     2
 10
0.0
 20
0.0
 11
0.0
 21
0.0
 12
0.0
 22
0.0
 32
0.0
 14
0.0
 24
0.0
 34
0.0
 15
0.0
 25
0.0
 35
0.0
146
0.0
 13
0.0
 23
0.0
 33
0.0
 16
1.0
 26
0.0
 36
0.0
 17
0.0
 27
1.0
 37
0.0
 76
     0
330
23
  0
LAYOUT
  5
22
102
{ACAD_REACTORS
330
1A
102
}
330
1A
100
AcDbPlotSettings
  1

  2
none_device
  4

  6

 40
0.0
 41
0.0
 42
0.0
 43
0.0
 44
0.0
 45
0.0
 46
0.0
 47
0.0
 48
0.0
 49
0.0
140
0.0
141
0.0
142
1.0
143
1.0
 70
  1712
 72
     0
 73
     0
 74
     0
  7

 75
     0
147
1.0
148
0.0
149
0.0
100
AcDbLayout
  1
Model
 70
     1
 71
     0
 10
0.0
 20
0.0
 11
297.0
 21
210.0
 12
0.0
 22
0.0
 32
0.0
 14
0.0
 24
0.0
 34
0.0
 15
297.0
 25
210.0
 35
0.0
146
0.0
 13
0.0
 23
0.0
 33
0.0
 16
1.0
 26
0.0
 36
0.0
 17
0.0
 27
1.0
 37
0.0
 76
     0
330
1F
331
29
  0
MLINESTYLE
  5
18
102
{ACAD_REACTORS
330
17
102
}
330
17
100
AcDbMlineStyle
  2
Standard
 70
     0
  3

 62
   256
 51
90.0
 52
90.0
 71
     2
 49
0.5
 62
   256
  6
BYLAYER
 49
-0.5
 62
   256
  6
BYLAYER
  0
ACDBPLACEHOLDER
  5
F
102
{ACAD_REACTORS
330
E
102
}
330
E
  0
ENDSEC
  0
EOF
