  0
SECTION
  2
HEADER
  9
$ACADVER
  1
AC1015
  9
$ACADMAINTVER
 70
     6
  9
$DWGCODEPAGE
  3
ANSI_1252
  9
$INSBASE
 10
0.0
 20
0.0
 30
0.0
  9
$EXTMIN
 10
0.0
 20
0.0
 30
0.0
  9
$EXTMAX
 10
297.0
 20
210.0
 30
0.0
  9
$LIMMIN
 10
0.0
 20
0.0
  9
$LIMMAX
 10
297.0
 20
210.0
  9
$ORTHOMODE
 70
     0
  9
$REGENMODE
 70
     1
  9
$FILLMODE
 70
     1
  9
$QTEXTMODE
 70
     0
  9
$MIRRTEXT
 70
     1
  9
$LTSCALE
 40
1.0
  9
$ATTMODE
 70
     1
  9
$TEXTSIZE
 40
2.0
  9
$TRACEWID
 40
1.0
  9
$TEXTSTYLE
  7
Standard
  9
$CLAYER
  8
0
  9
$CELTYPE
  6
ByLayer
  9
$CECOLOR
 62
   256
  9
$CELTSCALE
 40
1.0
  9
$DISPSILH
 70
     0
  9
$DIMSCALE
 40
1.0
  9
$DIMASZ
 40
3.0
  9
$DIMEXO
 40
0.0
  9
$DIMDLI
 40
3.75
  9
$DIMRND
 40
0.0
  9
$DIMDLE
 40
0.0
  9
$DIMEXE
 40
1.0
  9
$DIMTP
 40
0.0
  9
$DIMTM
 40
0.0
  9
$DIMTXT
 40
2.0
  9
$DIMCEN
 40
2.5
  9
$DIMTSZ
 40
0.0
  9
$DIMTOL
 70
     0
  9
$DIMLIM
 70
     0
  9
$DIMTIH
 70
     1
  9
$DIMTOH
 70
     1
  9
$DIMSE1
 70
     0
  9
$DIMSE2
 70
     0
  9
$DIMTAD
 70
     1
  9
$DIMZIN
 70
     0
  9
$DIMBLK
  1

  9
$DIMASO
 70
     1
  9
$DIMSHO
 70
     1
  9
$DIMPOST
  1

  9
$DIMAPOST
  1

  9
$DIMALT
 70
     0
  9
$DIMALTD
 70
     3
  9
$DIMALTF
 40
0.0393700787
  9
$DIMLFAC
 40
1.0
  9
$DIMTOFL
 70
     1
  9
$DIMTVP
 40
0.0
  9
$DIMTIX
 70
     0
  9
$DIMSOXD
 70
     0
  9
$DIMSAH
 70
     0
  9
$DIMBLK1
  1

  9
$DIMBLK2
  1

  9
$DIMSTYLE
  2
ISO-25
  9
$DIMCLRD
 70
     0
  9
$DIMCLRE
 70
     0
  9
$DIMCLRT
 70
     0
  9
$DIMTFAC
 40
1.0
  9
$DIMGAP
 40
1.524
  9
$DIMJUST
 70
     0
  9
$DIMSD1
 70
     0
  9
$DIMSD2
 70
     0
  9
$DIMTOLJ
 70
     0
  9
$DIMTZIN
 70
     0
  9
$DIMALTZ
 70
     0
  9
$DIMALTTZ
 70
     0
  9
$DIMUPT
 70
     0
  9
$DIMDEC
 70
     2
  9
$DIMTDEC
 70
     3
  9
$DIMALTU
 70
     2
  9
$DIMALTTD
 70
     3
  9
$DIMTXSTY
  7
Standard
  9
$DIMAUNIT
 70
     0
  9
$DIMADEC
 70
     2
  9
$DIMALTRND
 40
0.0
  9
$DIMAZIN
 70
     0
  9
$DIMDSEP
 70
    44
  9
$DIMATFIT
 70
     3
  9
$DIMFRAC
 70
     0
  9
$DIMLDRBLK
  1

  9
$DIMLUNIT
 70
     2
  9
$DIMLWD
 70
    -2
  9
$DIMLWE
 70
    -2
  9
$DIMTMOVE
 70
     0
  9
$LUNITS
 70
     2
  9
$LUPREC
 70
     2
  9
$SKETCHINC
 40
1.0
  9
$FILLETRAD
 40
10.0
  9
$AUNITS
 70
     0
  9
$AUPREC
 70
     2
  9
$MENU
  1
.
  9
$ELEVATION
 40
0.0
  9
$PELEVATION
 40
0.0
  9
$THICKNESS
 40
0.0
  9
$LIMCHECK
 70
     0
  9
$CHAMFERA
 40
10.0
  9
$CHAMFERB
 40
10.0
  9
$CHAMFERC
 40
20.0
  9
$CHAMFERD
 40
0.0
  9
$SKPOLY
 70
     0
  9
$TDCREATE
 40
2456045.601704676
  9
$TDUCREATE
 40
2456045.518371343
  9
$TDUPDATE
 40
2456045.601706655
  9
$TDUUPDATE
 40
2456045.518373322
  9
$TDINDWG
 40
0.0000000116
  9
$TDUSRTIMER
 40
0.0000000116
  9
$USRTIMER
 70
     1
  9
$ANGBASE
 50
0.0
  9
$ANGDIR
 70
     0
  9
$PDMODE
 70
     0
  9
$PDSIZE
 40
-1.0
  9
$PLINEWID
 40
0.0
  9
$SPLFRAME
 70
     0
  9
$SPLINETYPE
 70
     6
  9
$SPLINESEGS
 70
     8
  9
$HANDSEED
  5
217
  9
$SURFTAB1
 70
     6
  9
$SURFTAB2
 70
     6
  9
$SURFTYPE
 70
     6
  9
$SURFU
 70
     6
  9
$SURFV
 70
     6
  9
$UCSBASE
  2

  9
$UCSNAME
  2

  9
$UCSORG
 10
0.0
 20
0.0
 30
0.0
  9
$UCSXDIR
 10
1.0
 20
0.0
 30
0.0
  9
$UCSYDIR
 10
0.0
 20
1.0
 30
0.0
  9
$UCSORTHOREF
  2

  9
$UCSORTHOVIEW
 70
     0
  9
$UCSORGTOP
 10
0.0
 20
0.0
 30
0.0
  9
$UCSORGBOTTOM
 10
0.0
 20
0.0
 30
0.0
  9
$UCSORGLEFT
 10
0.0
 20
0.0
 30
0.0
  9
$UCSORGRIGHT
 10
0.0
 20
0.0
 30
0.0
  9
$UCSORGFRONT
 10
0.0
 20
0.0
 30
0.0
  9
$UCSORGBACK
 10
0.0
 20
0.0
 30
0.0
  9
$PUCSBASE
  2

  9
$PUCSNAME
  2

  9
$PUCSORG
 10
0.0
 20
0.0
 30
0.0
  9
$PUCSXDIR
 10
1.0
 20
0.0
 30
0.0
  9
$PUCSYDIR
 10
0.0
 20
1.0
 30
0.0
  9
$PUCSORTHOREF
  2

  9
$PUCSORTHOVIEW
 70
     0
  9
$PUCSORGTOP
 10
0.0
 20
0.0
 30
0.0
  9
$PUCSORGBOTTOM
 10
0.0
 20
0.0
 30
0.0
  9
$PUCSORGLEFT
 10
0.0
 20
0.0
 30
0.0
  9
$PUCSORGRIGHT
 10
0.0
 20
0.0
 30
0.0
  9
$PUCSORGFRONT
 10
0.0
 20
0.0
 30
0.0
  9
$PUCSORGBACK
 10
0.0
 20
0.0
 30
0.0
  9
$USERI1
 70
     0
  9
$USERI2
 70
     0
  9
$USERI3
 70
     0
  9
$USERI4
 70
     0
  9
$USERI5
 70
     0
  9
$USERR1
 40
0.0
  9
$USERR2
 40
0.0
  9
$USERR3
 40
0.0
  9
$USERR4
 40
0.0
  9
$USERR5
 40
0.0
  9
$WORLDVIEW
 70
     1
  9
$SHADEDGE
 70
     3
  9
$SHADEDIF
 70
    70
  9
$TILEMODE
 70
     1
  9
$MAXACTVP
 70
    64
  9
$PINSBASE
 10
0.0
 20
0.0
 30
0.0
  9
$PLIMCHECK
 70
     0
  9
$PEXTMIN
 10
1.0000000000E+20
 20
1.0000000000E+20
 30
1.0000000000E+20
  9
$PEXTMAX
 10
-1.0000000000E+20
 20
-1.0000000000E+20
 30
-1.0000000000E+20
  9
$PLIMMIN
 10
0.0
 20
0.0
  9
$PLIMMAX
 10
420.0
 20
297.0
  9
$UNITMODE
 70
     0
  9
$VISRETAIN
 70
     1
  9
$PLINEGEN
 70
     0
  9
$PSLTSCALE
 70
     1
  9
$TREEDEPTH
 70
  3020
  9
$CMLSTYLE
  2
Standard
  9
$CMLJUST
 70
     0
  9
$CMLSCALE
 40
20.0
  9
$PROXYGRAPHICS
 70
     1
  9
$MEASUREMENT
 70
     1
  9
$CELWEIGHT
370
    -1
  9
$ENDCAPS
280
     0
  9
$JOINSTYLE
280
     0
  9
$LWDISPLAY
290
     1
  9
$INSUNITS
 70
     4
  9
$HYPERLINKBASE
  1

  9
$STYLESHEET
  1

  9
$XEDIT
290
     1
  9
$CEPSNTYPE
380
     0
  9
$PSTYLEMODE
290
     1
  9
$FINGERPRINTGUID
  2
{D43ACBAA-59EC-4CD2-993C-4A76CE623DB1}
  9
$VERSIONGUID
  2
{FAEB1C32-E019-11D5-929B-00C0DF256EC4}
  9
$EXTNAMES
290
     1
  9
$PSVPSCALE
 40
0.0
  9
$OLESTARTUP
290
     0
  0
ENDSEC
  0
SECTION
  2
CLASSES
  0
CLASS
  1
ACDBDICTIONARYWDFLT
  2
AcDbDictionaryWithDefault
  3
ObjectDBX Classes
 90
        0
280
     0
281
     0
  0
CLASS
  1
VISUALSTYLE
  2
AcDbVisualStyle
  3
ObjectDBX Classes
 90
     4095
280
     0
281
     0
  0
CLASS
  1
MATERIAL
  2
AcDbMaterial
  3
ObjectDBX Classes
 90
     1153
280
     0
281
     0
  0
CLASS
  1
ACDBPLACEHOLDER
  2
AcDbPlaceHolder
  3
ObjectDBX Classes
 90
        0
280
     0
281
     0
  0
CLASS
  1
LAYOUT
  2
AcDbLayout
  3
ObjectDBX Classes
 90
        0
280
     0
281
     0
  0
ENDSEC
  0
SECTION
  2
TABLES
  0
TABLE
  2
VPORT
  5
8
330
0
100
AcDbSymbolTable
 70
     1
  0
VPORT
  5
29
330
8
100
AcDbSymbolTableRecord
100
AcDbViewportTableRecord
  2
*Active
 70
     0
 10
0.0
 20
0.0
 11
1.0
 21
1.0
 12
148.5
 22
105.0
 13
0.0
 23
0.0
 14
10.0
 24
10.0
 15
10.0
 25
10.0
 16
0.0
 26
0.0
 36
1.0
 17
0.0
 27
0.0
 37
0.0
 40
210.0
 41
1.4142857143
 42
50.0
 43
0.0
 44
0.0
 50
0.0
 51
0.0
 71
     0
 72
  2000
 73
     1
 74
     3
 75
     0
 76
     0
 77
     0
 78
     0
281
     0
 65
     1
110
0.0
120
0.0
130
0.0
111
1.0
121
0.0
131
0.0
112
0.0
122
1.0
132
0.0
 79
     0
146
0.0
  0
ENDTAB
  0
TABLE
  2
LTYPE
  5
5
330
0
100
AcDbSymbolTable
 70
     6
  0
LTYPE
  5
14
330
5
100
AcDbSymbolTableRecord
100
AcDbLinetypeTableRecord
  2
ByBlock
 70
     0
  3

 72
    65
 73
     0
 40
0.0
  0
LTYPE
  5
15
330
5
100
AcDbSymbolTableRecord
100
AcDbLinetypeTableRecord
  2
ByLayer
 70
     0
  3

 72
    65
 73
     0
 40
0.0
  0
LTYPE
  5
16
330
5
100
AcDbSymbolTableRecord
100
AcDbLinetypeTableRecord
  2
Continuous
 70
     0
  3
Solid line
 72
    65
 73
     0
 40
0.0
  0
LTYPE
  5
3F
330
5
100
AcDbSymbolTableRecord
100
AcDbLinetypeTableRecord
  2
HIDDEN
 70
     0
  3
Hidden __ __ __ __ __ __ __ __ __ __ __ __ __ __
 72
    65
 73
     2
 40
1.905
 49
1.27
 74
     0
 49
-0.635
 74
     0
  0
LTYPE
  5
40
330
5
100
AcDbSymbolTableRecord
100
AcDbLinetypeTableRecord
  2
PHANTOM
 70
     0
  3
Phantom ______  __  __  ______  __  __  ______
 72
    65
 73
     6
 40
12.7
 49
6.35
 74
     0
 49
-1.27
 74
     0
 49
1.27
 74
     0
 49
-1.27
 74
     0
 49
1.27
 74
     0
 49
-1.27
 74
     0
  0
LTYPE
  5
41
330
5
100
AcDbSymbolTableRecord
100
AcDbLinetypeTableRecord
  2
CENTER
 70
     0
  3
Center ____ _ ____ _ ____ _ ____ _ ____ _ ____
 72
    65
 73
     4
 40
10.16
 49
6.35
 74
     0
 49
-1.27
 74
     0
 49
1.27
 74
     0
 49
-1.27
 74
     0
  0
LTYPE
  5
42
330
5
100
AcDbSymbolTableRecord
100
AcDbLinetypeTableRecord
  2
CENTERX2
 70
     0
  3
Center (2x) ________  __  ________  __  _____
 72
    65
 73
     4
 40
20.32
 49
12.7
 74
     0
 49
-2.54
 74
     0
 49
2.54
 74
     0
 49
-2.54
 74
     0
  0
LTYPE
  5
43
330
5
100
AcDbSymbolTableRecord
100
AcDbLinetypeTableRecord
  2
DOT2
 70
     0
  3
Dot (.5x) ........................................
 72
    65
 73
     2
 40
0.635
 49
0.0
 74
     0
 49
-0.635
 74
     0
  0
ENDTAB
  0
TABLE
  2
LAYER
  5
2
330
0
100
AcDbSymbolTable
 70
     5
  0
LAYER
  5
10
330
2
100
AcDbSymbolTableRecord
100
AcDbLayerTableRecord
  2
0
 70
     0
 62
     7
  6
Continuous
370
    -3
390
F
  0
LAYER
  5
44
330
2
100
AcDbSymbolTableRecord
100
AcDbLayerTableRecord
  2
FORMAT
 70
     0
 62
     7
  6
Continuous
370
    -3
390
F
  0
LAYER
  5
45
330
2
100
AcDbSymbolTableRecord
100
AcDbLayerTableRecord
  2
VERMASSUNG
 70
     0
 62
     7
  6
Continuous
370
    -3
390
F
  0
LAYER
  5
46
330
2
100
AcDbSymbolTableRecord
100
AcDbLayerTableRecord
  2
KOPF_DÜNN
 70
     0
 62
     7
  6
Continuous
370
    -3
390
F
  0
LAYER
  5
47
330
2
100
AcDbSymbolTableRecord
100
AcDbLayerTableRecord
  2
KOPF_DICK
 70
     0
 62
     7
  6
Continuous
370
    15
390
F
  0
ENDTAB
  0
TABLE
  2
STYLE
  5
3
330
0
100
AcDbSymbolTable
 70
     2
  0
STYLE
  5
11
330
3
100
AcDbSymbolTableRecord
100
AcDbTextStyleTableRecord
  2
Standard
 70
     0
 40
0.0
 41
1.0
 50
0.0
 71
     0
 42
2.0
  3
txt
  4

  0
STYLE
  5
48
330
3
100
AcDbSymbolTableRecord
100
AcDbTextStyleTableRecord
  2
SLDTEXTSTYLE0
 70
     0
 40
0.0
 41
0.7
 50
0.0
 71
     0
 42
0.2
  3
TXT
  4

  0
ENDTAB
  0
TABLE
  2
VIEW
  5
6
330
0
100
AcDbSymbolTable
 70
     0
  0
ENDTAB
  0
TABLE
  2
UCS
  5
7
330
0
100
AcDbSymbolTable
 70
     0
  0
ENDTAB
  0
TABLE
  2
APPID
  5
9
330
0
100
AcDbSymbolTable
 70
     1
  0
APPID
  5
12
330
9
100
AcDbSymbolTableRecord
100
AcDbRegAppTableRecord
  2
ACAD
 70
     0
  0
ENDTAB
  0
TABLE
  2
DIMSTYLE
  5
A
330
0
100
AcDbSymbolTable
 70
     5
100
AcDbDimStyleTable
  0
DIMSTYLE
105
27
330
A
100
AcDbSymbolTableRecord
100
AcDbDimStyleTableRecord
  2
ISO-25
 70
     0
 41
2.5
 42
0.625
 43
3.75
 44
1.25
 73
     0
 74
     0
 77
     1
 78
     8
140
2.5
141
2.5
143
0.0393700787
147
0.625
171
     3
172
     1
178
     0
271
     2
272
     2
274
     3
278
    44
283
     0
284
     8
340
11
  0
DIMSTYLE
105
199
102
{ACAD_REACTORS
330
198
330
1C5
102
}
330
A
100
AcDbSymbolTableRecord
100
AcDbDimStyleTableRecord
  2
SLDDIMSTYLE0
 70
     0
 41
3.0
 44
0.0
 45
0.000000001
 73
     0
 74
     0
 77
     1
 78
    12
 79
     3
140
2.0
147
0.5
173
     1
178
     0
271
     2
272
     3
276
     2
284
    12
340
48
  0
DIMSTYLE
105
1A4
102
{ACAD_REACTORS
330
1A3
330
1B0
102
}
330
A
100
AcDbSymbolTableRecord
100
AcDbDimStyleTableRecord
  2
SLDDIMSTYLE1
 70
     0
 41
3.0
 44
0.0
 45
0.000000001
 47
0.1
 48
0.1
 71
     1
 73
     0
 74
     0
 77
     1
 78
    12
 79
     3
140
2.0
147
0.5
173
     1
178
     0
271
     2
272
     1
276
     2
284
     8
340
48
  0
DIMSTYLE
105
1BD
102
{ACAD_REACTORS
330
1BC
102
}
330
A
100
AcDbSymbolTableRecord
100
AcDbDimStyleTableRecord
  2
SLDDIMSTYLE2
 70
     0
 41
3.0
 44
0.0
 73
     0
 74
     0
 77
     1
 78
    12
 79
     3
140
2.0
147
0.5
173
     1
178
     0
179
     2
272
     3
276
     2
284
    12
340
48
  0
DIMSTYLE
105
1FC
102
{ACAD_REACTORS
330
1FB
102
}
330
A
100
AcDbSymbolTableRecord
100
AcDbDimStyleTableRecord
  2
SLDDIMSTYLE3
 70
     0
 41
3.0
 44
0.0
 45
0.000000001
 73
     0
 74
     0
 77
     1
 78
    12
 79
     3
140
2.0
147
0.5
172
     1
173
     1
178
     0
271
     2
272
     3
276
     2
284
    12
289
     0
340
48
  0
ENDTAB
  0
TABLE
  2
BLOCK_RECORD
  5
1
330
0
100
AcDbSymbolTable
 70
     8
  0
BLOCK_RECORD
  5
1F
330
1
100
AcDbSymbolTableRecord
100
AcDbBlockTableRecord
  2
*Model_Space
340
22
  0
BLOCK_RECORD
  5
1B
330
1
100
AcDbSymbolTableRecord
100
AcDbBlockTableRecord
  2
*Paper_Space
340
1E
  0
BLOCK_RECORD
  5
23
330
1
100
AcDbSymbolTableRecord
100
AcDbBlockTableRecord
  2
*Paper_Space0
340
26
  0
BLOCK_RECORD
  5
19A
330
1
100
AcDbSymbolTableRecord
100
AcDbBlockTableRecord
  2
_D
340
0
  0
BLOCK_RECORD
  5
1A5
330
1
100
AcDbSymbolTableRecord
100
AcDbBlockTableRecord
  2
_D_1
340
0
  0
BLOCK_RECORD
  5
1B1
330
1
100
AcDbSymbolTableRecord
100
AcDbBlockTableRecord
  2
_D_2
340
0
  0
BLOCK_RECORD
  5
1BE
330
1
100
AcDbSymbolTableRecord
100
AcDbBlockTableRecord
  2
_D_3
340
0
  0
BLOCK_RECORD
  5
1C6
330
1
100
AcDbSymbolTableRecord
100
AcDbBlockTableRecord
  2
_D_4
340
0
  0
BLOCK_RECORD
  5
1FD
330
1
100
AcDbSymbolTableRecord
100
AcDbBlockTableRecord
  2
_D_5
340
0
  0
BLOCK_RECORD
  5
20A
330
1
100
AcDbSymbolTableRecord
100
AcDbBlockTableRecord
  2
SW_CENTERMARKSYMBOL_0
340
0
102
{BLKREFS
331
215
102
}
  0
ENDTAB
  0
ENDSEC
  0
SECTION
  2
BLOCKS
  0
BLOCK
  5
20
330
1F
100
AcDbEntity
  8
0
100
AcDbBlockBegin
  2
*Model_Space
 70
     0
 10
0.0
 20
0.0
 30
0.0
  3
*Model_Space
  1

  0
ENDBLK
  5
21
330
1F
100
AcDbEntity
  8
0
100
AcDbBlockEnd
  0
BLOCK
  5
1C
330
1B
100
AcDbEntity
 67
     1
  8
0
100
AcDbBlockBegin
  2
*Paper_Space
 70
     0
 10
0.0
 20
0.0
 30
0.0
  3
*Paper_Space
  1

  0
ENDBLK
  5
1D
330
1B
100
AcDbEntity
 67
     1
  8
0
100
AcDbBlockEnd
  0
BLOCK
  5
24
330
23
100
AcDbEntity
  8
0
100
AcDbBlockBegin
  2
*Paper_Space0
 70
     0
 10
0.0
 20
0.0
 30
0.0
  3
*Paper_Space0
  1

  0
ENDBLK
  5
25
330
23
100
AcDbEntity
  8
0
100
AcDbBlockEnd
  0
BLOCK
  5
19B
330
19A
100
AcDbEntity
  8
0
100
AcDbBlockBegin
  2
_D
 70
     0
 10
0.0
 20
0.0
 30
0.0
  3
_D
  1

  0
SOLID
  5
19D
330
19A
100
AcDbEntity
  8
VERMASSUNG
100
AcDbTrace
 10
151.0562289064
 20
81.3974351949
 30
0.0
 11
154.0562289064
 21
80.9474351949
 31
0.0
 12
154.0562289064
 22
81.8474351949
 32
0.0
 13
154.0562289064
 23
81.8474351949
 33
0.0
  0
SOLID
  5
19E
330
19A
100
AcDbEntity
  8
VERMASSUNG
100
AcDbTrace
 10
225.0562289064
 20
81.3974351949
 30
0.0
 11
222.0562289064
 21
81.8474351949
 31
0.0
 12
222.0562289064
 22
80.9474351949
 32
0.0
 13
222.0562289064
 23
80.9474351949
 33
0.0
  0
LINE
  5
19F
330
19A
100
AcDbEntity
  8
VERMASSUNG
100
AcDbLine
 10
151.0562289064
 20
111.9782933659
 30
0.0
 11
151.0562289064
 21
80.3974351949
 31
0.0
  0
LINE
  5
1A0
330
19A
100
AcDbEntity
  8
VERMASSUNG
100
AcDbLine
 10
225.0562289064
 20
97.6097983479
 30
0.0
 11
225.0562289064
 21
80.3974351949
 31
0.0
  0
LINE
  5
1A1
330
19A
100
AcDbEntity
  8
VERMASSUNG
100
AcDbLine
 10
151.0562289064
 20
81.3974351949
 30
0.0
 11
225.0562289064
 21
81.3974351949
 31
0.0
  0
MTEXT
  5
1A2
330
19A
100
AcDbEntity
  8
VERMASSUNG
100
AcDbMText
 10
185.6562287924
 20
83.9755705581
 30
0.1
 40
2.0
 41
0.0
 71
     1
 72
     1
  1
74
  7
SLDTEXTSTYLE0
 73
     1
 44
1.0
  0
ENDBLK
  5
19C
330
19A
100
AcDbEntity
  8
0
100
AcDbBlockEnd
  0
BLOCK
  5
1A6
330
1A5
100
AcDbEntity
  8
0
100
AcDbBlockBegin
  2
_D_1
 70
     0
 10
0.0
 20
0.0
 30
0.0
  3
_D_1
  1

  0
SOLID
  5
1A8
330
1A5
100
AcDbEntity
  8
VERMASSUNG
100
AcDbTrace
 10
241.7560168113
 20
124.6097983479
 30
0.0
 11
241.3060168113
 21
121.6097983479
 31
0.0
 12
242.2060168113
 22
121.6097983479
 32
0.0
 13
242.2060168113
 23
121.6097983479
 33
0.0
  0
SOLID
  5
1A9
330
1A5
100
AcDbEntity
  8
VERMASSUNG
100
AcDbTrace
 10
241.7560168113
 20
97.6097983479
 30
0.0
 11
242.2060168113
 21
100.6097983479
 31
0.0
 12
241.3060168113
 22
100.6097983479
 32
0.0
 13
241.3060168113
 23
100.6097983479
 33
0.0
  0
LINE
  5
1AA
330
1A5
100
AcDbEntity
  8
VERMASSUNG
100
AcDbLine
 10
225.0562289064
 20
124.6097983479
 30
0.0
 11
242.7560168113
 21
124.6097983479
 31
0.0
  0
LINE
  5
1AB
330
1A5
100
AcDbEntity
  8
VERMASSUNG
100
AcDbLine
 10
234.7974423448
 20
97.6097983479
 30
0.0
 11
242.7560168113
 21
97.6097983479
 31
0.0
  0
LINE
  5
1AC
330
1A5
100
AcDbEntity
  8
VERMASSUNG
100
AcDbLine
 10
241.7560168113
 20
124.6097983479
 30
0.0
 11
241.7560168113
 21
97.6097983479
 31
0.0
  0
MTEXT
  5
1AD
330
1A5
100
AcDbEntity
  8
VERMASSUNG
100
AcDbMText
 10
239.1778814481
 20
106.5597981609
 30
0.1
 40
2.0
 41
0.0
 71
     1
 72
     1
  1
27
  7
SLDTEXTSTYLE0
 11
-7.044195017643634E-15
 21
1.0
 31
0.0
 73
     1
 44
1.0
  0
MTEXT
  5
1AE
330
1A5
100
AcDbEntity
  8
VERMASSUNG
100
AcDbMText
 10
239.1778814481
 20
112.347298263
 30
0.1
 40
2.0
 41
0.0
 71
     1
 72
     1
  1

  7
SLDTEXTSTYLE0
 11
-7.044195017643634E-15
 21
1.0
 31
0.0
 73
     1
 44
1.0
  0
MTEXT
  5
1AF
330
1A5
100
AcDbEntity
  8
VERMASSUNG
100
AcDbMText
 10
239.6724153109
 20
112.3597985528
 30
0.1
 40
1.5
 41
0.0
 71
     1
 72
     1
  1
±0.1
  7
SLDTEXTSTYLE0
 11
-7.044195017643634E-15
 21
1.0
 31
0.0
 73
     1
 44
1.0
  0
ENDBLK
  5
1A7
330
1A5
100
AcDbEntity
  8
0
100
AcDbBlockEnd
  0
BLOCK
  5
1B2
330
1B1
100
AcDbEntity
  8
0
100
AcDbBlockBegin
  2
_D_2
 70
     0
 10
0.0
 20
0.0
 30
0.0
  3
_D_2
  1

  0
SOLID
  5
1B4
330
1B1
100
AcDbEntity
  8
VERMASSUNG
100
AcDbTrace
 10
225.0562289064
 20
89.3736380009
 30
0.0
 11
222.0562289064
 21
89.8236380009
 31
0.0
 12
222.0562289064
 22
88.9236380009
 32
0.0
 13
222.0562289064
 23
88.9236380009
 33
0.0
  0
SOLID
  5
1B5
330
1B1
100
AcDbEntity
  8
VERMASSUNG
100
AcDbTrace
 10
175.0562289064
 20
89.3736380009
 30
0.0
 11
178.0562289064
 21
88.9236380009
 31
0.0
 12
178.0562289064
 22
89.8236380009
 32
0.0
 13
178.0562289064
 23
89.8236380009
 33
0.0
  0
LINE
  5
1B6
330
1B1
100
AcDbEntity
  8
VERMASSUNG
100
AcDbLine
 10
225.0562289064
 20
97.6097983479
 30
0.0
 11
225.0562289064
 21
88.3736380009
 31
0.0
  0
LINE
  5
1B7
330
1B1
100
AcDbEntity
  8
VERMASSUNG
100
AcDbLine
 10
175.0562289064
 20
104.9097983479
 30
0.0
 11
175.0562289064
 21
88.3736380009
 31
0.0
  0
LINE
  5
1B8
330
1B1
100
AcDbEntity
  8
VERMASSUNG
100
AcDbLine
 10
225.0562289064
 20
89.3736380009
 30
0.0
 11
175.0562289064
 21
89.3736380009
 31
0.0
  0
MTEXT
  5
1B9
330
1B1
100
AcDbEntity
  8
VERMASSUNG
100
AcDbMText
 10
195.5062287194
 20
91.951773364
 30
0.1
 40
2.0
 41
0.0
 71
     1
 72
     1
  1
50
  7
SLDTEXTSTYLE0
 73
     1
 44
1.0
  0
MTEXT
  5
1BA
330
1B1
100
AcDbEntity
  8
VERMASSUNG
100
AcDbMText
 10
201.2937288215
 20
91.951773364
 30
0.1
 40
2.0
 41
0.0
 71
     1
 72
     1
  1

  7
SLDTEXTSTYLE0
 73
     1
 44
1.0
  0
MTEXT
  5
1BB
330
1B1
100
AcDbEntity
  8
VERMASSUNG
100
AcDbMText
 10
201.3062291113
 20
91.4572395012
 30
0.1
 40
1.5
 41
0.0
 71
     1
 72
     1
  1
±0.1
  7
SLDTEXTSTYLE0
 73
     1
 44
1.0
  0
ENDBLK
  5
1B3
330
1B1
100
AcDbEntity
  8
0
100
AcDbBlockEnd
  0
BLOCK
  5
1BF
330
1BE
100
AcDbEntity
  8
0
100
AcDbBlockBegin
  2
_D_3
 70
     0
 10
0.0
 20
0.0
 30
0.0
  3
_D_3
  1

  0
ARC
  5
1C1
330
1BE
100
AcDbEntity
  8
VERMASSUNG
100
AcDbCircle
 10
225.0777409565
 20
97.6097983479
 30
0.0
 40
9.148088981911156
100
AcDbArc
 50
0.0
 51
93.0
  0
SOLID
  5
1C2
330
1BE
100
AcDbEntity
  8
VERMASSUNG
100
AcDbTrace
 10
234.2258299384
 20
97.6097983479
 30
0.0
 11
234.1968501029
 21
100.643222184
 31
0.0
 12
233.3081233956
 22
100.5012192272
 32
0.0
 13
233.3081233956
 23
100.5012192272
 33
0.0
  0
SOLID
  5
1C3
330
1BE
100
AcDbEntity
  8
VERMASSUNG
100
AcDbTrace
 10
224.5989669719
 20
106.7453501918
 30
0.0
 11
227.5344543088
 21
105.9802266105
 31
0.0
 12
227.6297502934
 22
106.8751672093
 32
0.0
 13
227.6297502934
 23
106.8751672093
 33
0.0
  0
MTEXT
  5
1C4
330
1BE
100
AcDbEntity
  8
VERMASSUNG
100
AcDbMText
 10
231.045955322
 20
108.1119293609
 30
0.1
 40
2.0
 41
0.0
 71
     1
 72
     1
  1
93°
  7
SLDTEXTSTYLE0
 11
0.7253743710122853
 21
-0.6883545756937565
 31
0.0
 73
     1
 44
1.0
  0
ENDBLK
  5
1C0
330
1BE
100
AcDbEntity
  8
0
100
AcDbBlockEnd
  0
BLOCK
  5
1C7
330
1C6
100
AcDbEntity
  8
0
100
AcDbBlockBegin
  2
_D_4
 70
     0
 10
0.0
 20
0.0
 30
0.0
  3
_D_4
  1

  0
SOLID
  5
1C9
330
1C6
100
AcDbEntity
  8
VERMASSUNG
100
AcDbTrace
 10
141.0562289064
 20
144.6097983479
 30
0.0
 11
140.6062289064
 21
141.6097983479
 31
0.0
 12
141.5062289064
 22
141.6097983479
 32
0.0
 13
141.5062289064
 23
141.6097983479
 33
0.0
  0
SOLID
  5
1CA
330
1C6
100
AcDbEntity
  8
VERMASSUNG
100
AcDbTrace
 10
141.0562289064
 20
104.6097983479
 30
0.0
 11
141.5062289064
 21
107.6097983479
 31
0.0
 12
140.6062289064
 22
107.6097983479
 32
0.0
 13
140.6062289064
 23
107.6097983479
 33
0.0
  0
LINE
  5
1CB
330
1C6
100
AcDbEntity
  8
VERMASSUNG
100
AcDbLine
 10
175.3562289064
 20
144.6097983479
 30
0.0
 11
140.0562289064
 21
144.6097983479
 31
0.0
  0
LINE
  5
1CC
330
1C6
100
AcDbEntity
  8
VERMASSUNG
100
AcDbLine
 10
175.3562289064
 20
104.6097983479
 30
0.0
 11
140.0562289064
 21
104.6097983479
 31
0.0
  0
LINE
  5
1CD
330
1C6
100
AcDbEntity
  8
VERMASSUNG
100
AcDbLine
 10
141.0562289064
 20
144.6097983479
 30
0.0
 11
141.0562289064
 21
104.6097983479
 31
0.0
  0
MTEXT
  5
1CE
330
1C6
100
AcDbEntity
  8
VERMASSUNG
100
AcDbMText
 10
138.2780934174
 20
118.1047984086
 30
0.3686188086
 40
2.0
 41
0.0
 71
     1
 72
     1
  1
PSC
  7
SLDTEXTSTYLE0
 11
-7.044195017643634E-15
 21
1.0
 31
0.0
 73
     1
 44
1.0
  0
MTEXT
  5
1CF
330
1C6
100
AcDbEntity
  8
VERMASSUNG
100
AcDbMText
 10
138.4780934269
 20
122.7047985106
 30
0.3686188086
 40
2.0
 41
0.0
 71
     1
 72
     1
  1
%%c
  7
SLDTEXTSTYLE0
 11
-7.044195017643634E-15
 21
1.0
 31
0.0
 73
     1
 44
1.0
  0
MTEXT
  5
1D0
330
1C6
100
AcDbEntity
  8
VERMASSUNG
100
AcDbMText
 10
138.2780934174
 20
126.3147989906
 30
0.3686188086
 40
2.0
 41
0.0
 71
     1
 72
     1
  1
40
  7
SLDTEXTSTYLE0
 11
-7.044195017643634E-15
 21
1.0
 31
0.0
 73
     1
 44
1.0
  0
ENDBLK
  5
1C8
330
1C6
100
AcDbEntity
  8
0
100
AcDbBlockEnd
  0
BLOCK
  5
1FE
330
1FD
100
AcDbEntity
  8
0
100
AcDbBlockBegin
  2
_D_5
 70
     0
 10
0.0
 20
0.0
 30
0.0
  3
_D_5
  1

  0
SOLID
  5
200
330
1FD
100
AcDbEntity
  8
VERMASSUNG
100
AcDbTrace
 10
97.2661667462
 20
105.2353790681
 30
0.0
 11
99.0692890382
 21
102.795860673
 31
0.0
 12
99.7056851413
 22
103.432256776
 32
0.0
 13
99.7056851413
 23
103.432256776
 33
0.0
  0
SOLID
  5
201
330
1FD
100
AcDbEntity
  8
VERMASSUNG
100
AcDbTrace
 10
61.9108276869
 20
140.5907181274
 30
0.0
 11
60.1077053948
 21
143.0302365225
 31
0.0
 12
59.4713092918
 22
142.3938404194
 32
0.0
 13
59.4713092918
 23
142.3938404194
 33
0.0
  0
LINE
  5
202
330
1FD
100
AcDbEntity
  8
VERMASSUNG
100
AcDbLine
 10
97.2661667462
 20
105.2353790681
 30
0.0
 11
97.9732735274
 21
105.9424858492
 31
0.0
  0
LINE
  5
203
330
1FD
100
AcDbEntity
  8
VERMASSUNG
100
AcDbLine
 10
61.9108276869
 20
140.5907181274
 30
0.0
 11
62.6179344681
 21
141.2978249086
 31
0.0
  0
LINE
  5
204
330
1FD
100
AcDbEntity
  8
VERMASSUNG
100
AcDbLine
 10
97.2661667462
 20
105.2353790681
 30
0.0
 11
101.5088074333
 21
100.9927383809
 31
0.0
  0
LINE
  5
205
330
1FD
100
AcDbEntity
  8
VERMASSUNG
100
AcDbLine
 10
97.2661667462
 20
105.2353790681
 30
0.0
 11
61.9108276869
 21
140.5907181274
 31
0.0
  0
LINE
  5
206
330
1FD
100
AcDbEntity
  8
VERMASSUNG
100
AcDbLine
 10
61.9108276869
 20
140.5907181274
 30
0.0
 11
50.825307406
 21
151.6762384083
 31
0.0
  0
MTEXT
  5
207
330
1FD
100
AcDbEntity
  8
VERMASSUNG
100
AcDbMText
 10
52.6483244864
 20
153.4992554887
 30
0.1
 40
2.0
 41
0.0
 71
     1
 72
     1
  1
%%c
  7
SLDTEXTSTYLE0
 11
0.7071067811865464
 21
-0.7071067811865488
 31
0.0
 73
     1
 44
1.0
  0
MTEXT
  5
208
330
1FD
100
AcDbEntity
  8
VERMASSUNG
100
AcDbMText
 10
55.3424013395
 20
151.0880213615
 30
0.1
 40
2.0
 41
0.0
 71
     1
 72
     1
  1
50
  7
SLDTEXTSTYLE0
 11
0.7071067811865464
 21
-0.7071067811865488
 31
0.0
 73
     1
 44
1.0
  0
MTEXT
  5
209
330
1FD
100
AcDbEntity
  8
VERMASSUNG
100
AcDbMText
 10
59.4347822371
 20
146.9956404639
 30
0.1
 40
2.0
 41
0.0
 71
     1
 72
     1
  1
min.
  7
SLDTEXTSTYLE0
 11
0.7071067811865464
 21
-0.7071067811865488
 31
0.0
 73
     1
 44
1.0
  0
ENDBLK
  5
1FF
330
1FD
100
AcDbEntity
  8
0
100
AcDbBlockEnd
  0
BLOCK
  5
20B
330
20A
100
AcDbEntity
  8
0
100
AcDbBlockBegin
  2
SW_CENTERMARKSYMBOL_0
 70
     0
 10
0.0
 20
0.0
 30
0.0
  3
SW_CENTERMARKSYMBOL_0
  1

  0
LINE
  5
20D
330
20A
100
AcDbEntity
  8
VERMASSUNG
 62
     0
100
AcDbLine
 10
0.0
 20
0.0
 30
0.0
 11
0.0
 21
2.5
 31
0.0
  0
LINE
  5
20E
330
20A
100
AcDbEntity
  8
VERMASSUNG
 62
     0
100
AcDbLine
 10
0.0
 20
0.0
 30
0.0
 11
-2.5
 21
0.0
 31
0.0
  0
LINE
  5
20F
330
20A
100
AcDbEntity
  8
VERMASSUNG
 62
     0
100
AcDbLine
 10
0.0
 20
0.0
 30
0.0
 11
0.0
 21
-2.5
 31
0.0
  0
LINE
  5
210
330
20A
100
AcDbEntity
  8
VERMASSUNG
 62
     0
100
AcDbLine
 10
0.0
 20
0.0
 30
0.0
 11
2.5
 21
0.0
 31
0.0
  0
LINE
  5
211
330
20A
100
AcDbEntity
  8
VERMASSUNG
 62
     0
100
AcDbLine
 10
0.0
 20
5.0
 30
0.0
 11
0.0
 21
22.5
 31
0.0
  0
LINE
  5
212
330
20A
100
AcDbEntity
  8
VERMASSUNG
 62
     0
100
AcDbLine
 10
-5.0
 20
0.0
 30
0.0
 11
-22.5
 21
0.0
 31
0.0
  0
LINE
  5
213
330
20A
100
AcDbEntity
  8
VERMASSUNG
 62
     0
100
AcDbLine
 10
0.0
 20
-5.0
 30
0.0
 11
0.0
 21
-22.5
 31
0.0
  0
LINE
  5
214
330
20A
100
AcDbEntity
  8
VERMASSUNG
 62
     0
100
AcDbLine
 10
5.0
 20
0.0
 30
0.0
 11
22.5
 21
0.0
 31
0.0
  0
ENDBLK
  5
20C
330
20A
100
AcDbEntity
  8
0
100
AcDbBlockEnd
  0
ENDSEC
  0
SECTION
  2
ENTITIES
  0
MTEXT
  5
49
330
1F
100
AcDbEntity
  8
KOPF_DÜNN
100
AcDbMText
 10
13.8892156294
 20
23.8442973028
 30
0.0
 40
3.0
 41
0.0
 71
     1
 72
     1
  1
PS4.KDB.LUA.050
  7
SLDTEXTSTYLE0
 73
     1
 44
1.0
  0
MTEXT
  5
4A
330
1F
100
AcDbEntity
  8
VERMASSUNG
100
AcDbMText
 10
13.9329988022
 20
28.8834360957
 30
0.0
 40
3.0
 41
0.0
 71
     1
 72
     1
  1
Klemmhalter links_Turning tool left 93° /55°
  7
SLDTEXTSTYLE0
 73
     1
 44
1.0
  0
MTEXT
  5
4B
330
1F
100
AcDbEntity
  8
VERMASSUNG
100
AcDbMText
 10
98.8601118557
 20
13.8365368179
 30
0.0
 40
2.0
 41
0.0
 71
     1
 72
     1
  1
Datum: 27.04.2012
  7
SLDTEXTSTYLE0
 73
     1
 44
1.0
  0
MTEXT
  5
4C
330
1F
100
AcDbEntity
  8
VERMASSUNG
100
AcDbMText
 10
13.933048693
 20
18.0482802738
 30
0.0
 40
2.0
 41
0.0
 71
     1
 72
     1
  1
PSC ø40 / DC..11 T3..
  7
SLDTEXTSTYLE0
 73
     1
 44
1.0
  0
MTEXT
  5
4D
330
1F
100
AcDbEntity
  8
VERMASSUNG
100
AcDbMText
 10
13.9808475933
 20
13.9090973692
 30
0.0
 40
2.0
 41
0.0
 71
     1
 72
     1
  1
Gewicht: 369g
  7
SLDTEXTSTYLE0
 73
     1
 44
1.0
  0
LINE
  5
4E
330
1F
100
AcDbEntity
  8
0
  6
Continuous
 62
     7
370
    15
100
AcDbLine
 10
197.0536341225
 20
144.6097979009
 30
0.0
 11
175.3562289207
 21
144.6097979009
 31
0.0
  0
LINE
  5
4F
330
1F
100
AcDbEntity
  8
0
  6
Continuous
 62
     7
370
    15
100
AcDbLine
 10
175.3562289207
 20
104.609798795
 30
0.0
 11
197.0566050415
 21
104.609798795
 31
0.0
  0
ARC
  5
50
330
1F
100
AcDbEntity
  8
0
  6
Continuous
 62
     7
370
    15
100
AcDbCircle
 10
175.3562289064
 20
104.9097983479
 30
0.0
 40
0.3000000000000114
100
AcDbArc
 50
180.0
 51
270.0
  0
ARC
  5
51
330
1F
100
AcDbEntity
  8
0
  6
Continuous
 62
     7
370
    15
100
AcDbCircle
 10
175.3562289064
 20
144.3097983479
 30
0.0
 40
0.3000000000000114
100
AcDbArc
 50
90.0
 51
180.0
  0
LWPOLYLINE
  5
52
330
1F
100
AcDbEntity
  8
0
  6
Continuous
 62
     7
370
    15
100
AcDbPolyline
 90
        3
 70
   128
 43
0.0
 10
174.8562289115
 20
110.5199783727
 10
174.9816838466
 20
110.4516761064
 10
175.0562289064
 20
110.398938103
  0
LWPOLYLINE
  5
53
330
1F
100
AcDbEntity
  8
0
  6
Continuous
 62
     7
370
    15
100
AcDbPolyline
 90
        3
 70
   128
 43
0.0
 10
175.0562289064
 20
138.8206585928
 10
174.9816838466
 20
138.7679205894
 10
174.8562289115
 20
138.6996183231
  0
ELLIPSE
  5
54
330
1F
100
AcDbEntity
  8
0
  6
Continuous
 62
     7
370
    15
100
AcDbEllipse
 10
196.9758441487
 20
124.6097983479
 30
0.0
 11
0.0
 21
20.0
 31
0.0
210
0.0
220
0.0
230
1.0
 40
0.2679491924
 41
0.0146477619867486
 42
3.126944891603044
  0
SPLINE
  5
55
330
1F
100
AcDbEntity
  8
0
  6
Continuous
 62
     7
370
    15
100
AcDbSpline
210
0.0
220
0.0
230
1.0
 70
     8
 71
     3
 72
     8
 73
     4
 74
     0
 42
0.00000001
 43
0.00000001
 12
1.0
 22
0.0
 32
0.0
 13
1.0
 23
0.0
 33
0.0
 40
0.0
 40
0.0
 40
0.0
 40
0.0
 40
1.0
 40
1.0
 40
1.0
 40
1.0
 10
196.8973498357559
 20
104.611943878869
 30
0.0
 10
196.9538736887907
 20
104.6088537140606
 30
0.0
 10
197.0968803500431
 20
104.6097739588286
 30
0.0
 10
197.288901918425
 20
104.6108321121577
 30
0.0
  0
SPLINE
  5
56
330
1F
100
AcDbEntity
  8
0
  6
Continuous
 62
     7
370
    15
100
AcDbSpline
210
0.0
220
0.0
230
1.0
 70
     8
 71
     3
 72
     8
 73
     4
 74
     0
 42
0.00000001
 43
0.00000001
 12
1.0
 22
0.0
 32
0.0
 13
1.0
 23
0.0
 33
0.0
 40
0.0
 40
0.0
 40
0.0
 40
0.0
 40
1.0
 40
1.0
 40
1.0
 40
1.0
 10
197.288901918425
 20
144.6087645836798
 30
0.0
 10
197.096879474175
 20
144.6098227418354
 30
0.0
 10
196.9538739531428
 20
144.6107429962291
 30
0.0
 10
196.8973498357559
 20
144.6076528169685
 30
0.0
  0
SPLINE
  5
57
330
1F
100
AcDbEntity
  8
0
  6
Continuous
 62
     7
370
    15
100
AcDbSpline
210
0.0
220
0.0
230
1.0
 70
     8
 71
     3
 72
    12
 73
     8
 74
     0
 42
0.00000001
 43
0.00000001
 12
1.0
 22
0.0
 32
0.0
 13
1.0
 23
0.0
 33
0.0
 40
0.0
 40
0.0
 40
0.0
 40
0.0
 40
0.5
 40
0.5
 40
0.75
 40
0.75
 40
1.0
 40
1.0
 40
1.0
 40
1.0
 10
181.7283232872678
 20
105.5750420647368
 30
0.0
 10
181.7471265201195
 20
105.5531200664757
 30
0.0
 10
181.7726631791387
 20
105.5322262584658
 30
0.0
 10
181.8328893530872
 20
105.504499532348
 30
0.0
 10
181.8568154304872
 20
105.4959263989726
 30
0.0
 10
181.9148763506684
 20
105.482747293165
 30
0.0
 10
181.9506780492944
 20
105.4781419676853
 30
0.0
 10
181.9881309084031
 20
105.4781419676853
 30
0.0
  0
LINE
  5
58
330
1F
100
AcDbEntity
  8
0
  6
Continuous
 62
     7
370
    15
100
AcDbLine
 10
181.9881308158
 20
105.4781416118
 30
0.0
 11
184.1243268256
 21
105.4781416118
 31
0.0
  0
SPLINE
  5
59
330
1F
100
AcDbEntity
  8
0
  6
Continuous
 62
     7
370
    15
100
AcDbSpline
210
0.0
220
0.0
230
1.0
 70
     8
 71
     3
 72
    12
 73
     8
 74
     0
 42
0.00000001
 43
0.00000001
 12
1.0
 22
0.0
 32
0.0
 13
1.0
 23
0.0
 33
0.0
 40
0.0
 40
0.0
 40
0.0
 40
0.0
 40
0.2499999999999988
 40
0.2499999999999988
 40
0.4999999999999977
 40
0.4999999999999977
 40
1.0
 40
1.0
 40
1.0
 40
1.0
 10
184.1243269044048
 20
105.4781419676853
 30
0.0
 10
184.1618277272825
 20
105.4781419676853
 30
0.0
 10
184.1971061313185
 20
105.4826429355485
 30
0.0
 10
184.2560238513709
 20
105.4960094567658
 30
0.0
 10
184.2795472327693
 20
105.5044907170107
 30
0.0
 10
184.3398028172352
 20
105.5322281126886
 30
0.0
 10
184.3653244696463
 20
105.5531121117416
 30
0.0
 10
184.3841345255401
 20
105.5750420647368
 30
0.0
  0
ELLIPSE
  5
5A
330
1F
100
AcDbEntity
  8
0
  6
Continuous
 62
     7
370
    15
100
AcDbEllipse
 10
174.107299734
 20
124.6097983479
 30
0.0
 11
-9.367417879781781
 21
19.74174915274992
 31
0.0
210
0.0
220
0.0
230
1.0
 40
0.3419987131
 41
3.292664382516894
 42
4.239566697060996
  0
SPLINE
  5
5B
330
1F
100
AcDbEntity
  8
0
  6
Continuous
 62
     7
370
    15
100
AcDbSpline
210
0.0
220
0.0
230
1.0
 70
     8
 71
     3
 72
    12
 73
     8
 74
     0
 42
0.00000001
 43
0.00000001
 12
1.0
 22
0.0
 32
0.0
 13
1.0
 23
0.0
 33
0.0
 40
0.0
 40
0.0
 40
0.0
 40
0.0
 40
0.5
 40
0.5
 40
0.75
 40
0.75
 40
1.0
 40
1.0
 40
1.0
 40
1.0
 10
184.3841345255401
 20
118.4715532208595
 30
0.0
 10
184.3653312926884
 20
118.539533545122
 30
0.0
 10
184.3397946336692
 20
118.6056239329188
 30
0.0
 10
184.2795684597208
 20
118.6946885453659
 30
0.0
 10
184.2556423823208
 20
118.7224896323859
 30
0.0
 10
184.1975814621395
 20
118.7654487056108
 30
0.0
 10
184.1617797635135
 20
118.780585352267
 30
0.0
 10
184.1243269044048
 20
118.780585352267
 30
0.0
  0
LINE
  5
5C
330
1F
100
AcDbEntity
  8
0
  6
Continuous
 62
     7
370
    15
100
AcDbLine
 10
184.1243268256
 20
118.7805851608
 30
0.0
 11
181.9881308158
 21
118.7805851608
 31
0.0
  0
SPLINE
  5
5D
330
1F
100
AcDbEntity
  8
0
  6
Continuous
 62
     7
370
    15
100
AcDbSpline
210
0.0
220
0.0
230
1.0
 70
     8
 71
     3
 72
    12
 73
     8
 74
     0
 42
0.00000001
 43
0.00000001
 12
1.0
 22
0.0
 32
0.0
 13
1.0
 23
0.0
 33
0.0
 40
0.0
 40
0.0
 40
0.0
 40
0.0
 40
0.2500000000000023
 40
0.2500000000000023
 40
0.5000000000000046
 40
0.5000000000000046
 40
1.0
 40
1.0
 40
1.0
 40
1.0
 10
181.9881309084031
 20
118.780585352267
 30
0.0
 10
181.9506300855254
 20
118.780585352267
 30
0.0
 10
181.9153516814894
 20
118.7657890145139
 30
0.0
 10
181.8564339614371
 20
118.7222187533548
 30
0.0
 10
181.8329105800387
 20
118.6947169548532
 30
0.0
 10
181.7726549955727
 20
118.6056177916101
 30
0.0
 10
181.7471333431616
 20
118.5395582128278
 30
0.0
 10
181.7283232872678
 20
118.4715532208595
 30
0.0
  0
ELLIPSE
  5
5E
330
1F
100
AcDbEntity
  8
0
  6
Continuous
 62
     7
370
    15
100
AcDbEllipse
 10
192.0051580788
 20
124.6097983479
 30
0.0
 11
9.367417879781641
 21
19.74174915274995
 31
0.0
210
0.0
220
0.0
230
1.0
 40
0.3419987131
 41
2.043618610118596
 42
2.990520924662724
  0
SPLINE
  5
5F
330
1F
100
AcDbEntity
  8
0
  6
Continuous
 62
     7
370
    15
100
AcDbSpline
210
0.0
220
0.0
230
1.0
 70
     8
 71
     3
 72
    12
 73
     8
 74
     0
 42
0.00000001
 43
0.00000001
 12
1.0
 22
0.0
 32
0.0
 13
1.0
 23
0.0
 33
0.0
 40
0.0
 40
0.0
 40
0.0
 40
0.0
 40
0.4999999999999962
 40
0.4999999999999962
 40
0.7499999999999981
 40
0.7499999999999981
 40
1.0
 40
1.0
 40
1.0
 40
1.0
 10
181.7283232872678
 20
130.7480434749777
 30
0.0
 10
181.7470165203982
 20
130.6804608385373
 30
0.0
 10
181.77267181781
 20
130.6139782690599
 30
0.0
 10
181.8328324404965
 20
130.5249831861624
 30
0.0
 10
181.8569047522508
 20
130.4969812891632
 30
0.0
 10
181.9152862726014
 20
130.453904888498
 30
0.0
 10
181.9507551002544
 20
130.4390113435703
 30
0.0
 10
181.9881309084031
 20
130.4390113435703
 30
0.0
  0
LINE
  5
60
330
1F
100
AcDbEntity
  8
0
  6
Continuous
 62
     7
370
    15
100
AcDbLine
 10
181.9881308158
 20
130.439011535
 30
0.0
 11
184.1243268256
 21
130.439011535
 31
0.0
  0
SPLINE
  5
61
330
1F
100
AcDbEntity
  8
0
  6
Continuous
 62
     7
370
    15
100
AcDbSpline
210
0.0
220
0.0
230
1.0
 70
     8
 71
     3
 72
    12
 73
     8
 74
     0
 42
0.00000001
 43
0.00000001
 12
1.0
 22
0.0
 32
0.0
 13
1.0
 23
0.0
 33
0.0
 40
0.0
 40
0.0
 40
0.0
 40
0.0
 40
0.2500000000000016
 40
0.2500000000000016
 40
0.5000000000000032
 40
0.5000000000000032
 40
1.0
 40
1.0
 40
1.0
 40
1.0
 10
184.1243269044048
 20
130.4390113435703
 30
0.0
 10
184.1618387904495
 20
130.4390113435703
 30
0.0
 10
184.1971261381542
 20
130.453816157857
 30
0.0
 10
184.2560559863926
 20
130.4974080309829
 30
0.0
 10
184.2795817128617
 20
130.5249214570689
 30
0.0
 10
184.3398405006297
 20
130.6140531891825
 30
0.0
 10
184.3654352629191
 20
130.6804390398003
 30
0.0
 10
184.3841345255401
 20
130.7480434749776
 30
0.0
  0
ELLIPSE
  5
62
330
1F
100
AcDbEntity
  8
0
  6
Continuous
 62
     7
370
    15
100
AcDbEllipse
 10
174.107299734
 20
124.6097983479
 30
0.0
 11
9.367417879781728
 21
19.74174915274992
 31
0.0
210
0.0
220
0.0
230
1.0
 40
0.3419987131
 41
5.185211263708394
 42
6.132113578252555
  0
SPLINE
  5
63
330
1F
100
AcDbEntity
  8
0
  6
Continuous
 62
     7
370
    15
100
AcDbSpline
210
0.0
220
0.0
230
1.0
 70
     8
 71
     3
 72
    12
 73
     8
 74
     0
 42
0.00000001
 43
0.00000001
 12
1.0
 22
0.0
 32
0.0
 13
1.0
 23
0.0
 33
0.0
 40
0.0
 40
0.0
 40
0.0
 40
0.0
 40
0.4999999999999968
 40
0.4999999999999968
 40
0.7499999999999983
 40
0.7499999999999983
 40
1.0
 40
1.0
 40
1.0
 40
1.0
 10
184.3841345255401
 20
143.6445546311006
 30
0.0
 10
184.3654412924097
 20
143.6663483847286
 30
0.0
 10
184.3397859949979
 20
143.6873685464382
 30
0.0
 10
184.2796253723114
 20
143.7150738924019
 30
0.0
 10
184.2555530605571
 20
143.7237091085953
 30
0.0
 10
184.1971715402066
 20
143.7369237538219
 30
0.0
 10
184.1617027125535
 20
143.741454728152
 30
0.0
 10
184.1243269044048
 20
143.741454728152
 30
0.0
  0
LINE
  5
64
330
1F
100
AcDbEntity
  8
0
  6
Continuous
 62
     7
370
    15
100
AcDbLine
 10
184.1243268256
 20
143.7414550841
 30
0.0
 11
181.9881308158
 21
143.7414550841
 31
0.0
  0
SPLINE
  5
65
330
1F
100
AcDbEntity
  8
0
  6
Continuous
 62
     7
370
    15
100
AcDbSpline
210
0.0
220
0.0
230
1.0
 70
     8
 71
     3
 72
    12
 73
     8
 74
     0
 42
0.00000001
 43
0.00000001
 12
1.0
 22
0.0
 32
0.0
 13
1.0
 23
0.0
 33
0.0
 40
0.0
 40
0.0
 40
0.0
 40
0.0
 40
0.2499999999999986
 40
0.2499999999999986
 40
0.4999999999999971
 40
0.4999999999999971
 40
1.0
 40
1.0
 40
1.0
 40
1.0
 10
181.9881309084031
 20
143.741454728152
 30
0.0
 10
181.9506190223585
 20
143.741454728152
 30
0.0
 10
181.9153316746538
 20
143.7369511838895
 30
0.0
 10
181.8564018264154
 20
143.7235779844362
 30
0.0
 10
181.8328760999463
 20
143.7150930818651
 30
0.0
 10
181.7726173121782
 20
143.6873452780305
 30
0.0
 10
181.7470225498889
 20
143.6663554142901
 30
0.0
 10
181.7283232872678
 20
143.6445546311006
 30
0.0
  0
ELLIPSE
  5
66
330
1F
100
AcDbEntity
  8
0
  6
Continuous
 62
     7
370
    15
100
AcDbEllipse
 10
192.0051580788
 20
124.6097983479
 30
0.0
 11
-9.367417879781584
 21
19.74174915274992
 31
0.0
210
0.0
220
0.0
230
1.0
 40
0.3419987131
 41
0.1510717289270785
 42
1.097974043471208
  0
LINE
  5
67
330
1F
100
AcDbEntity
  8
0
  6
Continuous
 62
     7
370
    15
100
AcDbLine
 10
175.0562289064
 20
104.9097982853
 30
0.0
 11
175.0562289064
 21
144.3097984105
 31
0.0
  0
ELLIPSE
  5
68
330
1F
100
AcDbEntity
  8
0
  6
Continuous
 62
     7
370
    15
100
AcDbEllipse
 10
194.4593348552
 20
116.8657200582
 30
0.0
 11
-0.2087075081668104
 21
2.57492649278764
 31
0.0
210
0.0
220
0.0
230
1.0
 40
0.2355197223
 41
0.0
 42
6.283185307179586
  0
SPLINE
  5
69
330
1F
100
AcDbEntity
  8
0
  6
Continuous
 62
     7
370
    15
100
AcDbSpline
210
0.0
220
0.0
230
1.0
 70
     8
 71
     3
 72
    18
 73
    14
 74
     0
 42
0.00000001
 43
0.00000001
 12
1.0
 22
0.0
 32
0.0
 13
1.0
 23
0.0
 33
0.0
 40
0.0
 40
0.0
 40
0.0
 40
0.0
 40
0.25
 40
0.25
 40
0.5
 40
0.5
 40
0.625
 40
0.625
 40
0.75
 40
0.75
 40
0.875
 40
0.875
 40
1.0
 40
1.0
 40
1.0
 40
1.0
 10
173.80014458884
 20
110.7786099652399
 30
0.0
 10
173.8344414082918
 20
110.777748309758
 30
0.0
 10
173.872252688269
 20
110.777999912853
 30
0.0
 10
173.9588250554489
 20
110.7803984254648
 30
0.0
 10
174.0071641855318
 20
110.7825694101967
 30
0.0
 10
174.0964365428543
 20
110.786664288492
 30
0.0
 10
174.1289780086302
 20
110.7881689064416
 30
0.0
 10
174.2051542084836
 20
110.7911319644097
 30
0.0
 10
174.2483702684782
 20
110.7926193026655
 30
0.0
 10
174.3540595704442
 20
110.7942447139892
 30
0.0
 10
174.4190306291587
 20
110.7942024729153
 30
0.0
 10
174.5526910175165
 20
110.7901802995942
 30
0.0
 10
174.6119974708528
 20
110.7866390727708
 30
0.0
 10
174.6612520175287
 20
110.7830723653346
 30
0.0
  0
SPLINE
  5
6A
330
1F
100
AcDbEntity
  8
0
  6
Continuous
 62
     7
370
    15
100
AcDbSpline
210
0.0
220
0.0
230
1.0
 70
     8
 71
     3
 72
    14
 73
    10
 74
     0
 42
0.00000001
 43
0.00000001
 12
1.0
 22
0.0
 32
0.0
 13
1.0
 23
0.0
 33
0.0
 40
0.0
 40
0.0
 40
0.0
 40
0.0
 40
0.1249999999999995
 40
0.1249999999999995
 40
0.249999999999999
 40
0.249999999999999
 40
0.4999999999999996
 40
0.4999999999999996
 40
1.0
 40
1.0
 40
1.0
 40
1.0
 10
174.6612520174979
 20
110.7830723653536
 30
0.0
 10
174.6727787952152
 20
110.7822376679196
 30
0.0
 10
174.6861316028677
 20
110.7804972536394
 30
0.0
 10
174.7162741754679
 20
110.7732496636391
 30
0.0
 10
174.7313347010824
 20
110.7679026294112
 30
0.0
 10
174.7666810550107
 20
110.7521553591827
 30
0.0
 10
174.7804131547397
 20
110.7423170850214
 30
0.0
 10
174.8137844004308
 20
110.716113099071
 30
0.0
 10
174.8247247682847
 20
110.7020251976704
 30
0.0
 10
174.833377893298
 20
110.689251574182
 30
0.0
  0
LINE
  5
6B
330
1F
100
AcDbEntity
  8
0
  6
Continuous
 62
     7
370
    15
100
AcDbLine
 10
174.8562289115
 20
119.1043534003
 30
0.0
 11
174.8562289115
 21
110.5199783727
 31
0.0
  0
SPLINE
  5
6C
330
1F
100
AcDbEntity
  8
0
  6
Continuous
 62
     7
370
    15
100
AcDbSpline
210
0.0
220
0.0
230
1.0
 70
     8
 71
     3
 72
    16
 73
    12
 74
     0
 42
0.00000001
 43
0.00000001
 12
1.0
 22
0.0
 32
0.0
 13
1.0
 23
0.0
 33
0.0
 40
0.0
 40
0.0
 40
0.0
 40
0.0
 40
0.4999999999999988
 40
0.4999999999999988
 40
0.7499999999999992
 40
0.7499999999999992
 40
0.8749999999999996
 40
0.8749999999999996
 40
0.9374999999999997
 40
0.9374999999999997
 40
1.0
 40
1.0
 40
1.0
 40
1.0
 10
174.8562289064039
 20
119.1043535809558
 30
0.0
 10
174.8562289064039
 20
119.2219289619753
 30
0.0
 10
174.852345481245
 20
119.3406247150766
 30
0.0
 10
174.8275301559704
 20
119.5213821930691
 30
0.0
 10
174.8166907082579
 20
119.583026269842
 30
0.0
 10
174.7834749262091
 20
119.6723632441833
 30
0.0
 10
174.7700931825803
 20
119.7026227756084
 30
0.0
 10
174.734583532718
 20
119.7361390195959
 30
0.0
 10
174.7191665662172
 20
119.7442773654019
 30
0.0
 10
174.6874655440687
 20
119.7442619559706
 30
0.0
 10
174.6733192591178
 20
119.7372197186147
 30
0.0
 10
174.6612520175282
 20
119.7280786550051
 30
0.0
  0
SPLINE
  5
6D
330
1F
100
AcDbEntity
  8
0
  6
Continuous
 62
     7
370
    15
100
AcDbSpline
210
0.0
220
0.0
230
1.0
 70
     8
 71
     3
 72
    18
 73
    14
 74
     0
 42
0.00000001
 43
0.00000001
 12
1.0
 22
0.0
 32
0.0
 13
1.0
 23
0.0
 33
0.0
 40
0.0
 40
0.0
 40
0.0
 40
0.0
 40
0.1249999999999997
 40
0.1249999999999997
 40
0.2499999999999993
 40
0.2499999999999993
 40
0.374999999999999
 40
0.374999999999999
 40
0.4999999999999987
 40
0.4999999999999987
 40
0.7499999999999993
 40
0.7499999999999993
 40
1.0
 40
1.0
 40
1.0
 40
1.0
 10
174.6612520175344
 20
119.7280786549978
 30
0.0
 10
174.6125474338464
 20
119.6911844158073
 30
0.0
 10
174.5540389510709
 20
119.6616531113813
 30
0.0
 10
174.4223121358011
 20
119.6524171381025
 30
0.0
 10
174.3575540643036
 20
119.6754803126595
 30
0.0
 10
174.2523434621529
 20
119.7429984343069
 30
0.0
 10
174.2091273136327
 20
119.7860095309574
 30
0.0
 10
174.1329489975488
 20
119.8762515529535
 30
0.0
 10
174.1000941652576
 20
119.9238824344288
 30
0.0
 10
174.0097262592966
 20
120.0709467337784
 30
0.0
 10
173.960303601457
 20
120.1748600590829
 30
0.0
 10
173.8726524758654
 20
120.3859940227233
 30
0.0
 10
173.8345909284749
 20
120.4937167674821
 30
0.0
 10
173.800144588841
 20
120.6030498833915
 30
0.0
  0
SPLINE
  5
6E
330
1F
100
AcDbEntity
  8
0
  6
Continuous
 62
     7
370
    15
100
AcDbSpline
210
0.0
220
0.0
230
1.0
 70
     8
 71
     3
 72
     8
 73
     4
 74
     0
 42
0.00000001
 43
0.00000001
 12
1.0
 22
0.0
 32
0.0
 13
1.0
 23
0.0
 33
0.0
 40
0.0
 40
0.0
 40
0.0
 40
0.0
 40
1.0
 40
1.0
 40
1.0
 40
1.0
 10
173.7349085628442
 20
120.8382536575203
 30
0.0
 10
173.7543347681432
 20
120.7586613859475
 30
0.0
 10
173.7758315925716
 20
120.6802196398148
 30
0.0
 10
173.800144588841
 20
120.6030498833915
 30
0.0
  0
SPLINE
  5
6F
330
1F
100
AcDbEntity
  8
0
  6
Continuous
 62
     7
370
    15
100
AcDbSpline
210
0.0
220
0.0
230
1.0
 70
     8
 71
     3
 72
     8
 73
     4
 74
     0
 42
0.00000001
 43
0.00000001
 12
1.0
 22
0.0
 32
0.0
 13
1.0
 23
0.0
 33
0.0
 40
0.0
 40
0.0
 40
0.0
 40
0.0
 40
1.0
 40
1.0
 40
1.0
 40
1.0
 10
173.800144588841
 20
128.616546812446
 30
0.0
 10
173.7758315925716
 20
128.5393770560227
 30
0.0
 10
173.7543347681432
 20
128.4609353098899
 30
0.0
 10
173.7349085628442
 20
128.3813430383172
 30
0.0
  0
SPLINE
  5
70
330
1F
100
AcDbEntity
  8
0
  6
Continuous
 62
     7
370
    15
100
AcDbSpline
210
0.0
220
0.0
230
1.0
 70
     8
 71
     3
 72
    18
 73
    14
 74
     0
 42
0.00000001
 43
0.00000001
 12
1.0
 22
0.0
 32
0.0
 13
1.0
 23
0.0
 33
0.0
 40
0.0
 40
0.0
 40
0.0
 40
0.0
 40
0.2499999999999992
 40
0.2499999999999992
 40
0.4999999999999984
 40
0.4999999999999984
 40
0.6249999999999988
 40
0.6249999999999988
 40
0.7499999999999992
 40
0.7499999999999992
 40
0.8749999999999996
 40
0.8749999999999996
 40
1.0
 40
1.0
 40
1.0
 40
1.0
 10
173.800144588841
 20
128.616546812446
 30
0.0
 10
173.8344429078536
 20
128.725410109039
 30
0.0
 10
173.8722573051656
 20
128.8324175322753
 30
0.0
 10
173.9588453662392
 20
129.0414523564137
 30
0.0
 10
174.0071954719178
 20
129.1436224504032
 30
0.0
 10
174.0965120607176
 20
129.2903032219679
 30
0.0
 10
174.1290724162059
 20
129.3381049205035
 30
0.0
 10
174.2053180499348
 20
129.4296604585288
 30
0.0
 10
174.2484774197148
 20
129.4733398505208
 30
0.0
 10
174.3542062437329
 20
129.5426940678474
 30
0.0
 10
174.4192034207876
 20
129.5668103815133
 30
0.0
 10
174.5526879107418
 20
129.5586061594751
 30
0.0
 10
174.6120153041873
 20
129.5288153738831
 30
0.0
 10
174.6612520175287
 20
129.4915180408321
 30
0.0
  0
SPLINE
  5
71
330
1F
100
AcDbEntity
  8
0
  6
Continuous
 62
     7
370
    15
100
AcDbSpline
210
0.0
220
0.0
230
1.0
 70
     8
 71
     3
 72
    16
 73
    12
 74
     0
 42
0.00000001
 43
0.00000001
 12
1.0
 22
0.0
 32
0.0
 13
1.0
 23
0.0
 33
0.0
 40
0.0
 40
0.0
 40
0.0
 40
0.0
 40
0.0625000000000008
 40
0.0625000000000008
 40
0.1250000000000017
 40
0.1250000000000017
 40
0.2500000000000011
 40
0.2500000000000011
 40
0.5
 40
0.5
 40
1.0
 40
1.0
 40
1.0
 40
1.0
 10
174.6612520174979
 20
129.4915180407837
 30
0.0
 10
174.6733218507737
 20
129.4823750139379
 30
0.0
 10
174.6875975057071
 20
129.4753305662467
 30
0.0
 10
174.7190619178315
 20
129.475323494348
 30
0.0
 10
174.7345624426419
 20
129.483451463145
 30
0.0
 10
174.7700013392488
 20
129.5168599241522
 30
0.0
 10
174.7835939553522
 20
129.5475270906144
 30
0.0
 10
174.8165882737449
 20
129.6363480846962
 30
0.0
 10
174.8273756670637
 20
129.697250730244
 30
0.0
 10
174.8524289143429
 20
129.8792588076224
 30
0.0
 10
174.8562289064041
 20
129.997947522661
 30
0.0
 10
174.8562289064041
 20
130.1152431148816
 30
0.0
  0
LINE
  5
72
330
1F
100
AcDbEntity
  8
0
  6
Continuous
 62
     7
370
    15
100
AcDbLine
 10
174.8562289115
 20
138.6996183231
 30
0.0
 11
174.8562289115
 21
130.1152432955
 31
0.0
  0
SPLINE
  5
73
330
1F
100
AcDbEntity
  8
0
  6
Continuous
 62
     7
370
    15
100
AcDbSpline
210
0.0
220
0.0
230
1.0
 70
     8
 71
     3
 72
    12
 73
     8
 74
     0
 42
0.00000001
 43
0.00000001
 12
1.0
 22
0.0
 32
0.0
 13
1.0
 23
0.0
 33
0.0
 40
0.0
 40
0.0
 40
0.0
 40
0.0
 40
0.5
 40
0.5
 40
0.75
 40
0.75
 40
1.0
 40
1.0
 40
1.0
 40
1.0
 10
174.8158895765363
 20
138.5084058507894
 30
0.0
 10
174.8057667244553
 20
138.4974721061518
 30
0.0
 10
174.7934039401091
 20
138.4854068193293
 30
0.0
 10
174.7585693369358
 20
138.4640574789851
 30
0.0
 10
174.7432121156928
 20
138.455837802756
 30
0.0
 10
174.700543073553
 20
138.4414985031264
 30
0.0
 10
174.6781188591933
 20
138.4377457221032
 30
0.0
 10
174.6612520175282
 20
138.4365243305028
 30
0.0
  0
SPLINE
  5
74
330
1F
100
AcDbEntity
  8
0
  6
Continuous
 62
     7
370
    15
100
AcDbSpline
210
0.0
220
0.0
230
1.0
 70
     8
 71
     3
 72
    18
 73
    14
 74
     0
 42
0.00000001
 43
0.00000001
 12
1.0
 22
0.0
 32
0.0
 13
1.0
 23
0.0
 33
0.0
 40
0.0
 40
0.0
 40
0.0
 40
0.0
 40
0.1250000000000001
 40
0.1250000000000001
 40
0.2500000000000001
 40
0.2500000000000001
 40
0.3750000000000002
 40
0.3750000000000002
 40
0.5000000000000002
 40
0.5000000000000002
 40
0.7500000000000001
 40
0.7500000000000001
 40
1.0
 40
1.0
 40
1.0
 40
1.0
 10
174.6612520175344
 20
138.4365243305026
 30
0.0
 10
174.6125478885176
 20
138.4329974808845
 30
0.0
 10
174.5540402193131
 20
138.4294972076868
 30
0.0
 10
174.4223145566822
 20
138.4254542237989
 30
0.0
 10
174.3575569180619
 20
138.4253426491683
 30
0.0
 10
174.2523465014428
 20
138.4268748339297
 30
0.0
 10
174.2091304665026
 20
138.4283299861449
 30
0.0
 10
174.1329522450217
 20
138.4312552476746
 30
0.0
 10
174.1000974773375
 20
138.4327655781828
 30
0.0
 10
174.0097297584957
 20
138.4369075708711
 30
0.0
 10
173.9603073893063
 20
138.4391456558577
 30
0.0
 10
173.8726549272183
 20
138.4415969389042
 30
0.0
 10
173.8345921909838
 20
138.4418521742652
 30
0.0
 10
173.8001445888405
 20
138.4409867305973
 30
0.0
  0
SPLINE
  5
75
330
1F
100
AcDbEntity
  8
0
  6
Continuous
 62
     7
370
    15
100
AcDbSpline
210
0.0
220
0.0
230
1.0
 70
     8
 71
     3
 72
     8
 73
     4
 74
     0
 42
0.00000001
 43
0.00000001
 12
1.0
 22
0.0
 32
0.0
 13
1.0
 23
0.0
 33
0.0
 40
0.0
 40
0.0
 40
0.0
 40
0.0
 40
1.0
 40
1.0
 40
1.0
 40
1.0
 10
173.5611889284647
 20
121.6633075435549
 30
0.0
 10
173.6119160111871
 20
121.3799564222358
 30
0.0
 10
173.6698033241742
 20
121.105000238096
 30
0.0
 10
173.7349085628443
 20
120.8382536575204
 30
0.0
  0
SPLINE
  5
76
330
1F
100
AcDbEntity
  8
0
  6
Continuous
 62
     7
370
    15
100
AcDbSpline
210
0.0
220
0.0
230
1.0
 70
     8
 71
     3
 72
    24
 73
    20
 74
     0
 42
0.00000001
 43
0.00000001
 12
1.0
 22
0.0
 32
0.0
 13
1.0
 23
0.0
 33
0.0
 40
0.0
 40
0.0
 40
0.0
 40
0.0
 40
0.2500000000000014
 40
0.2500000000000014
 40
0.3750000000000022
 40
0.3750000000000022
 40
0.4375000000000031
 40
0.4375000000000031
 40
0.4687500000000039
 40
0.4687500000000039
 40
0.5000000000000048
 40
0.5000000000000048
 40
0.5625000000000041
 40
0.5625000000000041
 40
0.6250000000000034
 40
0.6250000000000034
 40
0.750000000000002
 40
0.750000000000002
 40
1.0
 40
1.0
 40
1.0
 40
1.0
 10
173.3562289063957
 20
121.6635999518482
 30
0.0
 10
173.3566319357696
 20
121.7568682444777
 30
0.0
 10
173.3586616754847
 20
121.8506258033267
 30
0.0
 10
173.3679703869045
 20
121.9922156889662
 30
0.0
 10
173.3718963800191
 20
122.0393961075754
 30
0.0
 10
173.382825739935
 20
122.1099921542608
 30
0.0
 10
173.3869473680294
 20
122.1337720680256
 30
0.0
 10
173.3988418892118
 20
122.1672232150728
 30
0.0
 10
173.4041287011655
 20
122.1793781671424
 30
0.0
 10
173.4206966326804
 20
122.1872608061106
 30
0.0
 10
173.4286233414478
 20
122.1796972070086
 30
0.0
 10
173.445615679673
 20
122.1559047757819
 30
0.0
 10
173.4530133804639
 20
122.1357162979374
 30
0.0
 10
173.4671157708057
 20
122.0952666733176
 30
0.0
 10
173.473268928098
 20
122.0744109989201
 30
0.0
 10
173.4905826615591
 20
122.0112859636191
 30
0.0
 10
173.5005877024477
 20
121.9683068517175
 30
0.0
 10
173.5289441586784
 20
121.8385812074286
 30
0.0
 10
173.5454926980247
 20
121.7509834802927
 30
0.0
 10
173.5611889284647
 20
121.6633075435549
 30
0.0
  0
SPLINE
  5
77
330
1F
100
AcDbEntity
  8
0
  6
Continuous
 62
     7
370
    15
100
AcDbSpline
210
0.0
220
0.0
230
1.0
 70
     8
 71
     3
 72
    16
 73
    12
 74
     0
 42
0.00000001
 43
0.00000001
 12
1.0
 22
0.0
 32
0.0
 13
1.0
 23
0.0
 33
0.0
 40
0.0
 40
0.0
 40
0.0
 40
0.0
 40
0.25
 40
0.25
 40
0.375
 40
0.375
 40
0.5
 40
0.5
 40
0.75
 40
0.75
 40
1.0
 40
1.0
 40
1.0
 40
1.0
 10
173.3562289064039
 20
127.555996743988
 30
0.0
 10
173.2756920970085
 20
127.0869239171249
 30
0.0
 10
173.2156546882063
 20
126.606560266945
 30
0.0
 10
173.154916740959
 20
125.8693759878041
 30
0.0
 10
173.1395942599161
 20
125.620857584577
 30
0.0
 10
173.1190113081382
 20
125.1180741393633
 30
0.0
 10
173.1138117611017
 20
124.8632155863386
 30
0.0
 10
173.1137580505614
 20
124.1069382466179
 30
0.0
 10
173.1339553878306
 20
123.6082800473081
 30
0.0
 10
173.2146336949035
 20
122.6218570765638
 30
0.0
 10
173.2756800432448
 20
122.1327429837909
 30
0.0
 10
173.3562289064039
 20
121.6635999518494
 30
0.0
  0
SPLINE
  5
78
330
1F
100
AcDbEntity
  8
0
  6
Continuous
 62
     7
370
    15
100
AcDbSpline
210
0.0
220
0.0
230
1.0
 70
     8
 71
     3
 72
    24
 73
    20
 74
     0
 42
0.00000001
 43
0.00000001
 12
1.0
 22
0.0
 32
0.0
 13
1.0
 23
0.0
 33
0.0
 40
0.0
 40
0.0
 40
0.0
 40
0.0
 40
0.2500000000000009
 40
0.2500000000000009
 40
0.3750000000000001
 40
0.3750000000000001
 40
0.4375000000000001
 40
0.4375000000000001
 40
0.5000000000000001
 40
0.5000000000000001
 40
0.5312500000000002
 40
0.5312500000000002
 40
0.5625000000000002
 40
0.5625000000000002
 40
0.6250000000000001
 40
0.6250000000000001
 40
0.7499999999999999
 40
0.7499999999999999
 40
1.0
 40
1.0
 40
1.0
 40
1.0
 10
173.5611889284598
 20
127.5562891522544
 30
0.0
 10
173.5454198835502
 20
127.4682064887659
 30
0.0
 10
173.5288057189898
 20
127.3802616722589
 30
0.0
 10
173.5002735914965
 20
127.2499143049996
 30
0.0
 10
173.4901859579427
 20
127.2066531271987
 30
0.0
 10
173.4726981350935
 20
127.1432173513654
 30
0.0
 10
173.4664883271671
 20
127.1223032278224
 30
0.0
 10
173.4522104675841
 20
127.0818284361392
 30
0.0
 10
173.4446393052323
 20
127.0613507926803
 30
0.0
 10
173.4272194800549
 20
127.0385044131487
 30
0.0
 10
173.4187353975969
 20
127.0319526161123
 30
0.0
 10
173.4026993239839
 20
127.0425239913529
 30
0.0
 10
173.3978789517082
 20
127.0546150316361
 30
0.0
 10
173.3864720511052
 20
127.0882582748558
 30
0.0
 10
173.382451089396
 20
127.111665954152
 30
0.0
 10
173.371697077618
 20
127.1822545572114
 30
0.0
 10
173.3678251919955
 20
127.2292195847325
 30
0.0
 10
173.3586572271952
 20
127.3697964493349
 30
0.0
 10
173.3566288926822
 20
127.4634326789519
 30
0.0
 10
173.3562289064039
 20
127.555996743988
 30
0.0
  0
SPLINE
  5
79
330
1F
100
AcDbEntity
  8
0
  6
Continuous
 62
     7
370
    15
100
AcDbSpline
210
0.0
220
0.0
230
1.0
 70
     8
 71
     3
 72
     8
 73
     4
 74
     0
 42
0.00000001
 43
0.00000001
 12
1.0
 22
0.0
 32
0.0
 13
1.0
 23
0.0
 33
0.0
 40
0.0
 40
0.0
 40
0.0
 40
0.0
 40
1.0
 40
1.0
 40
1.0
 40
1.0
 10
173.7349085628443
 20
128.3813430383171
 30
0.0
 10
173.669803324172
 20
128.1145964577327
 30
0.0
 10
173.6119160111832
 20
127.8396402735836
 30
0.0
 10
173.5611889284596
 20
127.5562891522545
 30
0.0
  0
LINE
  5
7A
330
1F
100
AcDbEntity
  8
0
  6
Continuous
 62
     7
370
    15
100
AcDbLine
 10
173.3562288839
 20
121.6635998957
 30
0.0
 11
173.3562288839
 21
120.5085945934
 31
0.0
  0
LINE
  5
7B
330
1F
100
AcDbEntity
  8
0
  6
Continuous
 62
     7
370
    15
100
AcDbLine
 10
152.5562280123
 20
128.4497179243
 30
0.0
 11
152.5562280123
 21
120.7698787715
 31
0.0
  0
LINE
  5
7C
330
1F
100
AcDbEntity
  8
0
  6
Continuous
 62
     7
370
    15
100
AcDbLine
 10
173.3562288839
 20
128.7110021025
 30
0.0
 11
173.3562288839
 21
127.5559968002
 31
0.0
  0
LINE
  5
7D
330
1F
100
AcDbEntity
  8
0
  6
Continuous
 62
     7
370
    15
100
AcDbLine
 10
151.0562286978
 20
128.0167050812
 30
0.0
 11
151.0562286978
 21
121.2028916146
 31
0.0
  0
LINE
  5
7E
330
1F
100
AcDbEntity
  8
0
  6
Continuous
 62
     7
370
    15
100
AcDbLine
 10
173.5611888846
 20
138.4349830135
 30
0.0
 11
173.800144604
 21
138.4409863189
 31
0.0
  0
LINE
  5
7F
330
1F
100
AcDbEntity
  8
0
  6
Continuous
 62
     7
370
    15
100
AcDbLine
 10
173.3562288839
 20
128.7110021025
 30
0.0
 11
173.3562288839
 21
138.6298967212
 31
0.0
  0
ARC
  5
80
330
1F
100
AcDbEntity
  8
0
  6
Continuous
 62
     7
370
    15
100
AcDbCircle
 10
173.5561658173
 20
138.6349202436
 30
0.0
 40
0.2000000000000066
100
AcDbArc
 50
181.4391666667
 51
271.4391666667
  0
LINE
  5
81
330
1F
100
AcDbEntity
  8
0
  6
Continuous
 62
     7
370
    15
100
AcDbLine
 10
152.5562280123
 20
128.4497179243
 30
0.0
 11
152.5562280123
 21
138.1073288306
 31
0.0
  0
LINE
  5
82
330
1F
100
AcDbEntity
  8
0
  6
Continuous
 62
     7
370
    15
100
AcDbLine
 10
152.5562280123
 20
138.1073288306
 30
0.0
 11
173.3562288839
 21
138.6298967212
 31
0.0
  0
LINE
  5
83
330
1F
100
AcDbEntity
  8
0
  6
Continuous
 62
     7
370
    15
100
AcDbLine
 10
173.3562288839
 20
110.5896999746
 30
0.0
 11
173.3562288839
 21
120.5085945934
 31
0.0
  0
ARC
  5
84
330
1F
100
AcDbEntity
  8
0
  6
Continuous
 62
     7
370
    15
100
AcDbCircle
 10
173.5561658173
 20
110.5846764522
 30
0.0
 40
0.2000000000000059
100
AcDbArc
 50
88.5608333333
 51
178.5608333333
  0
LINE
  5
85
330
1F
100
AcDbEntity
  8
0
  6
Continuous
 62
     7
370
    15
100
AcDbLine
 10
152.5562280123
 20
111.1122678652
 30
0.0
 11
152.5562280123
 21
120.7698787715
 31
0.0
  0
LINE
  5
86
330
1F
100
AcDbEntity
  8
0
  6
Continuous
 62
     7
370
    15
100
AcDbLine
 10
152.5562280123
 20
111.1122678652
 30
0.0
 11
173.3562288839
 21
110.5896999746
 31
0.0
  0
LINE
  5
87
330
1F
100
AcDbEntity
  8
0
  6
Continuous
 62
     7
370
    15
100
AcDbLine
 10
173.5611888846
 20
110.7846136823
 30
0.0
 11
173.800144604
 21
110.778610377
 31
0.0
  0
LINE
  5
88
330
1F
100
AcDbEntity
  8
0
  6
Continuous
 62
     7
370
    15
100
AcDbLine
 10
151.0562286978
 20
137.2413031444
 30
0.0
 11
152.5562280123
 21
138.1073288306
 31
0.0
  0
LINE
  5
89
330
1F
100
AcDbEntity
  8
0
  6
Continuous
 62
     7
370
    15
100
AcDbLine
 10
151.0562286978
 20
128.0167050812
 30
0.0
 11
151.0562286978
 21
137.2413031444
 31
0.0
  0
LINE
  5
8A
330
1F
100
AcDbEntity
  8
0
  6
Continuous
 62
     7
370
    15
100
AcDbLine
 10
151.0562286978
 20
111.9782935515
 30
0.0
 11
152.5562280123
 21
111.1122678652
 31
0.0
  0
LINE
  5
8B
330
1F
100
AcDbEntity
  8
0
  6
Continuous
 62
     7
370
    15
100
AcDbLine
 10
151.0562286978
 20
111.9782935515
 30
0.0
 11
151.0562286978
 21
121.2028916146
 31
0.0
  0
SPLINE
  5
8C
330
1F
100
AcDbEntity
  8
0
  6
Continuous
 62
     7
370
    15
100
AcDbSpline
210
0.0
220
0.0
230
1.0
 70
     8
 71
     3
 72
     8
 73
     4
 74
     0
 42
0.00000001
 43
0.00000001
 12
1.0
 22
0.0
 32
0.0
 13
1.0
 23
0.0
 33
0.0
 40
0.0
 40
0.0
 40
0.0
 40
0.0
 40
1.0
 40
1.0
 40
1.0
 40
1.0
 10
197.6700904967841
 20
144.6830593794525
 30
0.0
 10
197.543678540541
 20
144.6309314015542
 30
0.0
 10
197.4091378866907
 20
144.6081020117986
 30
0.0
 10
197.2889019184206
 20
144.6087645836716
 30
0.0
  0
SPLINE
  5
8D
330
1F
100
AcDbEntity
  8
0
  6
Continuous
 62
     7
370
    15
100
AcDbSpline
210
0.0
220
0.0
230
1.0
 70
     8
 71
     3
 72
     8
 73
     4
 74
     0
 42
0.00000001
 43
0.00000001
 12
1.0
 22
0.0
 32
0.0
 13
1.0
 23
0.0
 33
0.0
 40
0.0
 40
0.0
 40
0.0
 40
0.0
 40
1.0
 40
1.0
 40
1.0
 40
1.0
 10
197.288901918425
 20
104.6108321121577
 30
0.0
 10
197.4091123817556
 20
104.6114945434827
 30
0.0
 10
197.5436557052943
 20
104.5886747107707
 30
0.0
 10
197.670090496789
 20
104.5365373163935
 30
0.0
  0
LINE
  5
8E
330
1F
100
AcDbEntity
  8
0
  6
Continuous
 62
     7
370
    15
100
AcDbLine
 10
198.1549267923
 20
145.1076028555
 30
0.0
 11
205.7570913141
 21
145.1076028555
 31
0.0
  0
LINE
  5
8F
330
1F
100
AcDbEntity
  8
0
  6
Continuous
 62
     7
370
    15
100
AcDbLine
 10
223.6938202088
 20
119.4912997693
 30
0.0
 11
205.7570913141
 21
145.1076028555
 31
0.0
  0
LINE
  5
90
330
1F
100
AcDbEntity
  8
0
  6
Continuous
 62
     7
370
    15
100
AcDbLine
 10
224.2421494131
 20
109.0285472259
 30
0.0
 11
223.6938202088
 21
119.4912997693
 31
0.0
  0
LINE
  5
91
330
1F
100
AcDbEntity
  8
0
  6
Continuous
 62
     7
370
    15
100
AcDbLine
 10
217.6832133238
 20
115.3626899853
 30
0.0
 11
217.8043448632
 21
113.0513326883
 31
0.0
  0
ARC
  5
92
330
1F
100
AcDbEntity
  8
0
  6
Continuous
 62
     7
370
    15
100
AcDbCircle
 10
216.1688485696
 20
115.2833251411
 30
0.0
 40
1.5164424971593
100
AcDbArc
 50
3.0
 51
183.0
  0
LINE
  5
93
330
1F
100
AcDbEntity
  8
0
  6
Continuous
 62
     7
370
    15
100
AcDbLine
 10
215.28461811
 20
103.1802912861
 30
0.0
 11
215.2691134517
 21
103.4761594295
 31
0.0
  0
LINE
  5
94
330
1F
100
AcDbEntity
  8
0
  6
Continuous
 62
     7
370
    15
100
AcDbLine
 10
214.6945023244
 20
114.4403630554
 30
0.0
 11
214.654485256
 21
115.2039609536
 31
0.0
  0
ELLIPSE
  5
95
330
1F
100
AcDbEntity
  8
0
  6
Continuous
 62
     7
370
    15
100
AcDbEllipse
 10
210.1111068981
 20
86.8650152615
 30
0.0
 11
-1.023181539494544E-12
 21
17.12766703280043
 31
0.0
210
0.0
220
0.0
230
1.0
 40
0.9925461516
 41
5.97395642135642
 42
6.283185307179586
  0
LINE
  5
96
330
1F
100
AcDbEntity
  8
0
  6
Continuous
 62
     7
370
    15
100
AcDbLine
 10
198.2136001145
 20
103.9926821053
 30
0.0
 11
210.1111063068
 21
103.9926821053
 31
0.0
  0
SPLINE
  5
97
330
1F
100
AcDbEntity
  8
0
  6
Continuous
 62
     7
370
    15
100
AcDbSpline
210
0.0
220
0.0
230
1.0
 70
     8
 71
     3
 72
    10
 73
     6
 74
     0
 42
0.00000001
 43
0.00000001
 12
1.0
 22
0.0
 32
0.0
 13
1.0
 23
0.0
 33
0.0
 40
0.0
 40
0.0
 40
0.0
 40
0.0
 40
0.5
 40
0.5
 40
1.0
 40
1.0
 40
1.0
 40
1.0
 10
198.1549273222094
 20
145.1076031084291
 30
0.0
 10
198.0999477062948
 20
145.0123654217707
 30
0.0
 10
198.0290263816855
 20
144.9263886450964
 30
0.0
 10
197.8654152399959
 20
144.783284450482
 30
0.0
 10
197.7705978032492
 20
144.7245051635835
 30
0.0
 10
197.6700904967834
 20
144.6830593794523
 30
0.0
  0
SPLINE
  5
98
330
1F
100
AcDbEntity
  8
0
  6
Continuous
 62
     7
370
    15
100
AcDbSpline
210
0.0
220
0.0
230
1.0
 70
     8
 71
     3
 72
    10
 73
     6
 74
     0
 42
0.00000001
 43
0.00000001
 12
1.0
 22
0.0
 32
0.0
 13
1.0
 23
0.0
 33
0.0
 40
0.0
 40
0.0
 40
0.0
 40
0.0
 40
0.5
 40
0.5
 40
1.0
 40
1.0
 40
1.0
 40
1.0
 10
197.6700904967871
 20
104.5365373163837
 30
0.0
 10
197.7920763683473
 20
104.4862345048013
 30
0.0
 10
197.903125220537
 20
104.4120680406176
 30
0.0
 10
198.0892846445369
 20
104.2257848924334
 30
0.0
 10
198.163127128738
 20
104.1152903313167
 30
0.0
 10
198.2135999431293
 20
103.992682294287
 30
0.0
  0
LINE
  5
99
330
1F
100
AcDbEntity
  8
0
  6
Continuous
 62
     7
370
    15
100
AcDbLine
 10
217.4171344643
 20
115.3487452924
 30
0.0
 11
217.528505743
 21
113.2236981451
 31
0.0
  0
ARC
  5
9A
330
1F
100
AcDbEntity
  8
0
  6
Continuous
 62
     7
370
    15
100
AcDbCircle
 10
216.1688485696
 20
115.2833251411
 30
0.0
 40
1.25000000000001
100
AcDbArc
 50
3.0
 51
183.0
  0
LINE
  5
9B
330
1F
100
AcDbEntity
  8
0
  6
Continuous
 62
     7
370
    15
100
AcDbLine
 10
214.9205603902
 20
115.2179056465
 30
0.0
 11
214.9489992564
 21
114.6752621665
 31
0.0
  0
ELLIPSE
  5
9C
330
1F
100
AcDbEntity
  8
0
  6
Continuous
 62
     7
370
    15
100
AcDbEllipse
 10
210.1111068981
 20
80.5122400222
 30
0.0
 11
14.22716407804074
 21
24.88519423683426
 31
0.0
210
0.0
220
0.0
230
1.0
 40
0.373927429
 41
0.6724291493466206
 42
0.6823513697608135
  0
LINE
  5
9D
330
1F
100
AcDbEntity
  8
0
  6
Continuous
 62
     7
370
    15
100
AcDbLine
 10
224.0987853413
 20
108.6464600324
 30
0.0
 11
224.4782657628
 21
108.6663474947
 31
0.0
  0
LINE
  5
9E
330
1F
100
AcDbEntity
  8
0
  6
Continuous
 62
     7
370
    15
100
AcDbLine
 10
225.0357070272
 20
98.029686293
 30
0.0
 11
224.4782657628
 21
108.6663474947
 31
0.0
  0
LINE
  5
9F
330
1F
100
AcDbEntity
  8
0
  6
Continuous
 62
     7
370
    15
100
AcDbLine
 10
224.656230331
 20
98.0097988307
 30
0.0
 11
225.0357070272
 21
98.029686293
 31
0.0
  0
LINE
  5
A0
330
1F
100
AcDbEntity
  8
0
  6
Continuous
 62
     7
370
    15
100
AcDbLine
 10
223.6373671596
 20
99.7394827813
 30
0.0
 11
224.656230331
 21
98.0097988307
 31
0.0
  0
LINE
  5
A1
330
1F
100
AcDbEntity
  8
0
  6
Continuous
 62
     7
370
    15
100
AcDbLine
 10
223.8846146767
 20
108.5203049391
 30
0.0
 11
224.0987853413
 21
108.6464600324
 31
0.0
  0
SPLINE
  5
A2
330
1F
100
AcDbEntity
  8
0
  6
Continuous
 62
     7
370
    15
100
AcDbSpline
210
0.0
220
0.0
230
1.0
 70
     8
 71
     3
 72
    11
 73
     7
 74
     0
 42
0.00000001
 43
0.00000001
 12
1.0
 22
0.0
 32
0.0
 13
1.0
 23
0.0
 33
0.0
 40
0.0
 40
0.0
 40
0.0
 40
0.0
 40
0.3277666569289385
 40
0.6551515251964205
 40
0.9907866575748757
 40
1.0
 40
1.0
 40
1.0
 40
1.0
 10
223.8846146767249
 20
108.5203049391196
 30
0.0
 10
223.8205705744282
 20
108.4825791421181
 30
0.0
 10
223.6925569695892
 20
108.4071714918208
 30
0.0
 10
223.4814752329675
 20
108.2828306582446
 30
0.0
 10
223.3483304653049
 20
108.2044250514731
 30
0.0
 10
223.286197476563
 20
108.1678090418115
 30
0.0
 10
223.284537464868
 20
108.16683076915
 30
0.0
  0
LINE
  5
A3
330
1F
100
AcDbEntity
  8
0
  6
Continuous
 62
     7
370
    15
100
AcDbLine
 10
215.6234481638
 20
103.6541053712
 30
0.0
 11
215.2439714675
 21
103.6342179089
 31
0.0
  0
LINE
  5
A4
330
1F
100
AcDbEntity
  8
0
  6
Continuous
 62
     7
370
    15
100
AcDbLine
 10
214.6865264778
 20
114.2708791107
 30
0.0
 11
215.2439714675
 21
103.6342179089
 31
0.0
  0
LINE
  5
A5
330
1F
100
AcDbEntity
  8
0
  6
Continuous
 62
     7
370
    15
100
AcDbLine
 10
215.0660068994
 20
114.2907665729
 30
0.0
 11
214.6865264778
 21
114.2708791107
 31
0.0
  0
LINE
  5
A6
330
1F
100
AcDbEntity
  8
0
  6
Continuous
 62
     7
370
    15
100
AcDbLine
 10
216.0848663454
 20
112.5610816911
 30
0.0
 11
215.0660068994
 21
114.2907665729
 31
0.0
  0
LINE
  5
A7
330
1F
100
AcDbEntity
  8
0
  6
Continuous
 62
     7
370
    15
100
AcDbLine
 10
215.8376188283
 20
103.7802604645
 30
0.0
 11
215.6234481638
 21
103.6541053712
 31
0.0
  0
SPLINE
  5
A8
330
1F
100
AcDbEntity
  8
0
  6
Continuous
 62
     7
370
    15
100
AcDbSpline
210
0.0
220
0.0
230
1.0
 70
     8
 71
     3
 72
    11
 73
     7
 74
     0
 42
0.00000001
 43
0.00000001
 12
1.0
 22
0.0
 32
0.0
 13
1.0
 23
0.0
 33
0.0
 40
0.0
 40
0.0
 40
0.0
 40
0.0
 40
0.0092122193794856
 40
0.344847779670314
 40
0.6722299361967318
 40
1.0
 40
1.0
 40
1.0
 40
1.0
 10
216.4376960401644
 20
104.1337327718422
 30
0.0
 10
216.4360360250718
 20
104.1327551273715
 30
0.0
 10
216.3738954598787
 20
104.0961582432592
 30
0.0
 10
216.2407612890422
 20
104.0177285771613
 30
0.0
 10
216.0296793488503
 20
103.8933914645681
 30
0.0
 10
215.9016642671877
 20
103.8179856801358
 30
0.0
 10
215.8376188283076
 20
103.7802604645178
 30
0.0
  0
LINE
  5
A9
330
1F
100
AcDbEntity
  8
0
  6
Continuous
 62
     7
370
    15
100
AcDbLine
 10
225.0561365192
 20
98.0220531732
 30
0.0
 11
224.4981550877
 21
108.66894961
 31
0.0
  0
LINE
  5
AA
330
1F
100
AcDbEntity
  8
0
  6
Continuous
 62
     7
370
    15
100
AcDbLine
 10
215.410160393
 20
103.3157111764
 30
0.0
 11
224.4516299372
 21
97.6659731626
 31
0.0
  0
LINE
  5
AB
330
1F
100
AcDbEntity
  8
0
  6
Continuous
 62
     7
370
    15
100
AcDbLine
 10
214.6661007111
 20
114.2785112992
 30
0.0
 11
215.2240784173
 21
103.6316157937
 31
0.0
  0
LINE
  5
AC
330
1F
100
AcDbEntity
  8
0
  6
Continuous
 62
     7
370
    15
100
AcDbLine
 10
224.312073112
 20
108.984853296
 30
0.0
 11
215.2706035678
 21
114.6345913097
 31
0.0
  0
ARC
  5
AD
330
1F
100
AcDbEntity
  8
0
  6
Continuous
 62
     7
370
    15
100
AcDbCircle
 10
224.6562289064
 20
98.0097983479
 30
0.0
 40
0.3799999999999233
100
AcDbArc
 50
238.0
 51
3.0
  0
ARC
  5
AE
330
1F
100
AcDbEntity
  8
0
  6
Continuous
 62
     7
370
    15
100
AcDbCircle
 10
224.0987851188
 20
108.6464594556
 30
0.0
 40
0.3799999999999796
100
AcDbArc
 50
3.0
 51
58.0
  0
LINE
  5
AF
330
1F
100
AcDbEntity
  8
0
  6
Continuous
 62
     7
370
    15
100
AcDbLine
 10
224.3001559084
 20
108.9687181323
 30
0.0
 11
215.2673737412
 21
114.6130246728
 31
0.0
  0
ARC
  5
B0
330
1F
100
AcDbEntity
  8
0
  6
Continuous
 62
     7
370
    15
100
AcDbCircle
 10
215.0660058069
 20
114.2907664101
 30
0.0
 40
0.3799999999999778
100
AcDbArc
 50
58.0
 51
183.0
  0
ARC
  5
B1
330
1F
100
AcDbEntity
  8
0
  6
Continuous
 62
     7
370
    15
100
AcDbCircle
 10
215.6234495945
 20
103.6541053025
 30
0.0
 40
0.3799999999999144
100
AcDbArc
 50
183.0
 51
238.0
  0
LINE
  5
B2
330
1F
100
AcDbEntity
  8
0
  6
Continuous
 62
     7
370
    15
100
AcDbLine
 10
215.422081322
 20
103.3318472713
 30
0.0
 11
224.4548597639
 21
97.6875407308
 31
0.0
  0
SPLINE
  5
B3
330
1F
100
AcDbEntity
  8
0
  6
Continuous
 62
     7
370
    15
100
AcDbSpline
210
0.0
220
0.0
230
1.0
 70
     8
 71
     3
 72
    10
 73
     6
 74
     0
 42
0.00000001
 43
0.00000001
 12
1.0
 22
0.0
 32
0.0
 13
1.0
 23
0.0
 33
0.0
 40
0.0
 40
0.0
 40
0.0
 40
0.0
 40
0.3518029185862367
 40
0.7034275162206223
 40
1.0
 40
1.0
 40
1.0
 40
1.0
 10
215.2240784173121
 20
103.6316157936737
 30
0.0
 10
215.2308771742383
 20
103.5873294784958
 30
0.0
 10
215.2444712419542
 20
103.4987792958727
 30
0.0
 10
215.3142076751608
 20
103.387717551014
 30
0.0
 10
215.3800398885971
 20
103.3383146874896
 30
0.0
 10
215.4101603930106
 20
103.3157111763642
 30
0.0
  0
SPLINE
  5
B4
330
1F
100
AcDbEntity
  8
0
  6
Continuous
 62
     7
370
    15
100
AcDbSpline
210
0.0
220
0.0
230
1.0
 70
     8
 71
     3
 72
    10
 73
     6
 74
     0
 42
0.00000001
 43
0.00000001
 12
1.0
 22
0.0
 32
0.0
 13
1.0
 23
0.0
 33
0.0
 40
0.0
 40
0.0
 40
0.0
 40
0.0
 40
0.3517994396354202
 40
0.7034227109851233
 40
1.0
 40
1.0
 40
1.0
 40
1.0
 10
224.4981550877203
 20
108.6689496099636
 30
0.0
 10
224.4913578104187
 20
108.7132359255608
 30
0.0
 10
224.477766659643
 20
108.8017863797889
 30
0.0
 10
224.4080295327946
 20
108.9128491716593
 30
0.0
 10
224.3421950027447
 20
108.962250323205
 30
0.0
 10
224.3120731120219
 20
108.9848532959506
 30
0.0
  0
SPLINE
  5
B5
330
1F
100
AcDbEntity
  8
0
  6
Continuous
 62
     7
370
    15
100
AcDbSpline
210
0.0
220
0.0
230
1.0
 70
     8
 71
     3
 72
    14
 73
    10
 74
     0
 42
0.00000001
 43
0.00000001
 12
1.0
 22
0.0
 32
0.0
 13
1.0
 23
0.0
 33
0.0
 40
0.0
 40
0.0
 40
0.0
 40
0.0
 40
0.1588488597759129
 40
0.3173316046704149
 40
0.4720137161853435
 40
0.6236447319220672
 40
0.7746628120904779
 40
0.9277418043937511
 40
1.0
 40
1.0
 40
1.0
 40
1.0
 10
215.2706035678496
 20
114.634591309695
 30
0.0
 10
215.2293303099588
 20
114.655109992533
 30
0.0
 10
215.1468789207896
 20
114.6961000667449
 30
0.0
 10
215.0072451868215
 20
114.700712357283
 30
0.0
 10
214.8773359606745
 20
114.6614241825581
 30
0.0
 10
214.7696639609876
 20
114.581229721928
 30
0.0
 10
214.6954367593027
 20
114.4707783536705
 30
0.0
 10
214.665545233612
 20
114.3641620995778
 30
0.0
 10
214.6659658373785
 20
114.2993078996236
 30
0.0
 10
214.6661007111182
 20
114.2785112991617
 30
0.0
  0
SPLINE
  5
B6
330
1F
100
AcDbEntity
  8
0
  6
Continuous
 62
     7
370
    15
100
AcDbSpline
210
0.0
220
0.0
230
1.0
 70
     8
 71
     3
 72
    14
 73
    10
 74
     0
 42
0.00000001
 43
0.00000001
 12
1.0
 22
0.0
 32
0.0
 13
1.0
 23
0.0
 33
0.0
 40
0.0
 40
0.0
 40
0.0
 40
0.0
 40
0.1588522912705331
 40
0.3173349339581196
 40
0.4720172120955094
 40
0.6236439694717835
 40
0.7746619030336096
 40
0.9277418745411616
 40
1.0
 40
1.0
 40
1.0
 40
1.0
 10
224.4516299371828
 20
97.66597316261982
 30
0.0
 10
224.4929044867879
 20
97.6454549945588
 30
0.0
 10
224.5753575403025
 20
97.60446640412357
 30
0.0
 10
224.7149920520202
 20
97.59985144374535
 30
0.0
 10
224.8449002655838
 20
97.63914073217036
 30
0.0
 10
224.9525703684751
 20
97.71933586593279
 30
0.0
 10
225.0267956091134
 20
97.82978670793196
 30
0.0
 10
225.0566924818698
 20
97.93640192011074
 30
0.0
 10
225.0562715102326
 20
98.0012565416045
 30
0.0
 10
225.0561365192046
 20
98.02205317315315
 30
0.0
  0
LINE
  5
B7
330
1F
100
AcDbEntity
  8
0
  6
Continuous
 62
     7
370
    15
100
AcDbLine
 10
223.2147106235
 20
102.204684323
 30
0.0
 11
222.9409390395
 21
107.4285341113
 31
0.0
  0
LINE
  5
B8
330
1F
100
AcDbEntity
  8
0
  6
Continuous
 62
     7
370
    15
100
AcDbLine
 10
216.5075228815
 20
110.0958801493
 30
0.0
 11
216.7812944656
 21
104.8720294296
 31
0.0
  0
ARC
  5
B9
330
1F
100
AcDbEntity
  8
0
  6
Continuous
 62
     7
370
    15
100
AcDbCircle
 10
217.5061542631
 20
110.1482163702
 30
0.0
 40
1.000000000000053
100
AcDbArc
 50
58.0
 51
183.0
  0
LINE
  5
BA
330
1F
100
AcDbEntity
  8
0
  6
Continuous
 62
     7
370
    15
100
AcDbLine
 10
222.4722304647
 20
108.2242468059
 30
0.0
 11
218.0360728209
 21
110.996264188
 31
0.0
  0
ARC
  5
BB
330
1F
100
AcDbEntity
  8
0
  6
Continuous
 62
     7
370
    15
100
AcDbCircle
 10
221.9423100627
 20
107.3761985708
 30
0.0
 40
1.000000000000058
100
AcDbArc
 50
3.0
 51
58.0
  0
ARC
  5
BC
330
1F
100
AcDbEntity
  8
0
  6
Continuous
 62
     7
370
    15
100
AcDbCircle
 10
222.2160804501
 20
102.1523483878
 30
0.0
 40
1.00000000029541
100
AcDbArc
 50
238.0
 51
3.0
  0
LINE
  5
BD
330
1F
100
AcDbEntity
  8
0
  6
Continuous
 62
     7
370
    15
100
AcDbLine
 10
217.2500067656
 20
104.0763185978
 30
0.0
 11
221.6861606841
 21
101.3043002844
 31
0.0
  0
ARC
  5
BE
330
1F
100
AcDbEntity
  8
0
  6
Continuous
 62
     7
370
    15
100
AcDbCircle
 10
217.7799246505
 20
104.9243661873
 30
0.0
 40
1.000000000000021
100
AcDbArc
 50
183.0
 51
238.0
  0
CIRCLE
  5
BF
330
1F
100
AcDbEntity
  8
0
  6
Continuous
 62
     7
370
    15
100
AcDbCircle
 10
219.8611173566
 20
106.150282379
 30
0.0
 40
3.049999999999992
  0
LINE
  5
C0
330
1F
100
AcDbEntity
  8
0
  6
Continuous
 62
     7
370
    15
100
AcDbLine
 10
224.656230331
 20
98.0097988307
 30
0.0
 11
224.4548597639
 21
97.6875407308
 31
0.0
  0
LINE
  5
C1
330
1F
100
AcDbEntity
  8
0
  6
Continuous
 62
     7
370
    15
100
AcDbLine
 10
215.6234481638
 20
103.6541053712
 30
0.0
 11
215.422081322
 21
103.3318472713
 31
0.0
  0
LINE
  5
C2
330
1F
100
AcDbEntity
  8
0
  6
Continuous
 62
     7
370
    15
100
AcDbLine
 10
224.0987853413
 20
108.6464600324
 30
0.0
 11
224.3001559084
 21
108.9687181323
 31
0.0
  0
LINE
  5
C3
330
1F
100
AcDbEntity
  8
0
  6
Continuous
 62
     7
370
    15
100
AcDbLine
 10
215.0660068994
 20
114.2907665729
 30
0.0
 11
215.2673737412
 21
114.6130246728
 31
0.0
  0
SPLINE
  5
C4
330
1F
100
AcDbEntity
  8
0
  6
Continuous
 62
     7
370
    15
100
AcDbSpline
210
0.0
220
0.0
230
1.0
 70
     8
 71
     3
 72
    11
 73
     7
 74
     0
 42
0.00000001
 43
0.00000001
 12
1.0
 22
0.0
 32
0.0
 13
1.0
 23
0.0
 33
0.0
 40
0.0
 40
0.0
 40
0.0
 40
0.0
 40
0.0073011038849192
 40
0.1268485783002136
 40
0.5874314278120872
 40
0.9999999999999999
 40
0.9999999999999999
 40
0.9999999999999999
 40
0.9999999999999999
 10
223.2884080414881
 20
100.3318952083275
 30
0.0
 10
223.2891701693152
 20
100.330602478544
 30
0.0
 10
223.3024112946132
 20
100.3081427330374
 30
0.0
 10
223.3650511440917
 20
100.2017553543943
 30
0.0
 10
223.4826359614331
 20
100.0021745173179
 30
0.0
 10
223.5877162015452
 20
99.82377668272066
 30
0.0
 10
223.6373671596159
 20
99.73948278125977
 30
0.0
  0
SPLINE
  5
C5
330
1F
100
AcDbEntity
  8
0
  6
Continuous
 62
     7
370
    15
100
AcDbSpline
210
0.0
220
0.0
230
1.0
 70
     8
 71
     3
 72
    11
 73
     7
 74
     0
 42
0.00000001
 43
0.00000001
 12
1.0
 22
0.0
 32
0.0
 13
1.0
 23
0.0
 33
0.0
 40
0.0
 40
0.0
 40
0.0
 40
0.0
 40
0.4125710811335542
 40
0.8731537710223191
 40
0.9927012040063279
 40
1.0
 40
1.0
 40
1.0
 40
1.0
 10
216.0848663454165
 20
112.5610816910551
 30
0.0
 10
216.1345217453679
 20
112.4767891347804
 30
0.0
 10
216.2396110298617
 20
112.2983947519795
 30
0.0
 10
216.357157212034
 20
112.098797340143
 30
0.0
 10
216.4198416477061
 20
111.9924286598383
 30
0.0
 10
216.4330646077538
 20
111.9699620065492
 30
0.0
 10
216.4338254635443
 20
111.9686692639873
 30
0.0
  0
ARC
  5
C6
330
1F
100
AcDbEntity
  8
0
  6
Continuous
 62
     7
370
    15
100
AcDbCircle
 10
219.7960224016
 20
106.2607916835
 30
0.0
 40
1.675000000000044
100
AcDbArc
 50
149.07804828
 51
207.6779814073
  0
ARC
  5
C7
330
1F
100
AcDbEntity
  8
0
  6
Continuous
 62
     7
370
    15
100
AcDbCircle
 10
219.7960224016
 20
106.2607916835
 30
0.0
 40
1.675000000000044
100
AcDbArc
 50
207.6779814073
 51
267.784823142
  0
ARC
  5
C8
330
1F
100
AcDbEntity
  8
0
  6
Continuous
 62
     7
370
    15
100
AcDbCircle
 10
219.7960224016
 20
106.2607916835
 30
0.0
 40
1.67500000000001
100
AcDbArc
 50
267.784823142
 51
326.3847562692
  0
LINE
  5
C9
330
1F
100
AcDbEntity
  8
0
  6
Continuous
 62
     7
370
    15
100
AcDbLine
 10
221.2361456161
 20
105.4054164946
 30
0.0
 11
221.1909205918
 21
105.3334904521
 31
0.0
  0
ARC
  5
CA
330
1F
100
AcDbEntity
  8
0
  6
Continuous
 62
     7
370
    15
100
AcDbCircle
 10
219.7960224016
 20
106.2607916835
 30
0.0
 40
1.675000000000007
100
AcDbArc
 50
329.2913870411
 51
25.7351052074
  0
LINE
  5
CB
330
1F
100
AcDbEntity
  8
0
  6
Continuous
 62
     7
370
    15
100
AcDbLine
 10
221.2490313952
 20
107.0940905869
 30
0.0
 11
221.3048809474
 21
106.988094902
 31
0.0
  0
ARC
  5
CC
330
1F
100
AcDbEntity
  8
0
  6
Continuous
 62
     7
370
    15
100
AcDbCircle
 10
219.7960224016
 20
106.2607916835
 30
0.0
 40
1.67499999999999
100
AcDbArc
 50
29.8341971076
 51
85.6286074416
  0
LINE
  5
CD
330
1F
100
AcDbEntity
  8
0
  6
Continuous
 62
     7
370
    15
100
AcDbLine
 10
219.8039838379
 20
107.9357733637
 30
0.0
 11
219.9236923163
 21
107.9309193104
 31
0.0
  0
ARC
  5
CE
330
1F
100
AcDbEntity
  8
0
  6
Continuous
 62
     7
370
    15
100
AcDbCircle
 10
219.7960224016
 20
106.2607916835
 30
0.0
 40
1.675000000000005
100
AcDbArc
 50
89.7276993419
 51
146.1714175082
  0
LINE
  5
CF
330
1F
100
AcDbEntity
  8
0
  6
Continuous
 62
     7
370
    15
100
AcDbLine
 10
218.3590927427
 20
107.1215236246
 30
0.0
 11
218.4045897131
 21
107.1932801664
 31
0.0
  0
CIRCLE
  5
D0
330
1F
100
AcDbEntity
  8
0
  6
Continuous
 62
     7
370
    15
100
AcDbCircle
 10
219.7960224016
 20
106.2607916835
 30
0.0
 40
1.800000000000013
  0
SPLINE
  5
D1
330
1F
100
AcDbEntity
  8
0
  6
Continuous
 62
     7
370
    15
100
AcDbSpline
210
0.0
220
0.0
230
1.0
 70
     8
 71
     3
 72
    11
 73
     7
 74
     0
 42
0.00000001
 43
0.00000001
 12
1.0
 22
0.0
 32
0.0
 13
1.0
 23
0.0
 33
0.0
 40
0.0
 40
0.0
 40
0.0
 40
0.0
 40
0.2668941802024541
 40
0.5546120187013966
 40
0.8439034031856901
 40
1.0
 40
1.0
 40
1.0
 40
1.0
 10
221.2490313952078
 20
107.0940905868695
 30
0.0
 10
221.2251297144203
 20
107.1194829429319
 30
0.0
 10
221.1754614922736
 20
107.1722488213211
 30
0.0
 10
221.0729650558494
 20
107.2166878040926
 30
0.0
 10
220.9772847699489
 20
107.2271057470617
 30
0.0
 10
220.9212027446648
 20
107.2157697026944
 30
0.0
 10
220.9015474920382
 20
107.2117967217848
 30
0.0
  0
SPLINE
  5
D2
330
1F
100
AcDbEntity
  8
0
  6
Continuous
 62
     7
370
    15
100
AcDbSpline
210
0.0
220
0.0
230
1.0
 70
     8
 71
     3
 72
    12
 73
     8
 74
     0
 42
0.00000001
 43
0.00000001
 12
1.0
 22
0.0
 32
0.0
 13
1.0
 23
0.0
 33
0.0
 40
0.0
 40
0.0
 40
0.0
 40
0.0
 40
0.205837387309293
 40
0.4120612893178581
 40
0.614136433509421
 40
0.8132776107082924
 40
0.9999999999999999
 40
0.9999999999999999
 40
0.9999999999999999
 40
0.9999999999999999
 10
220.9015474920382
 20
107.2117967217848
 30
0.0
 10
220.8367768514246
 20
107.2015938080057
 30
0.0
 10
220.7071139460112
 20
107.1811688217505
 30
0.0
 10
220.5127341476219
 20
107.2338877299259
 30
0.0
 10
220.3490592593961
 20
107.3422868634703
 30
0.0
 10
220.2295613289593
 20
107.4928022000346
 30
0.0
 10
220.1957301573092
 20
107.6107289378723
 30
0.0
 10
220.1793589894881
 20
107.6677946060584
 30
0.0
  0
SPLINE
  5
D3
330
1F
100
AcDbEntity
  8
0
  6
Continuous
 62
     7
370
    15
100
AcDbSpline
210
0.0
220
0.0
230
1.0
 70
     8
 71
     3
 72
    11
 73
     7
 74
     0
 42
0.00000001
 43
0.00000001
 12
1.0
 22
0.0
 32
0.0
 13
1.0
 23
0.0
 33
0.0
 40
0.0
 40
0.0
 40
0.0
 40
0.0
 40
0.2928982597370412
 40
0.5864349834269327
 40
0.8775142246589052
 40
1.0
 40
1.0
 40
1.0
 40
1.0
 10
220.1793589894881
 20
107.6677946060584
 30
0.0
 10
220.168549436716
 20
107.7041273735122
 30
0.0
 10
220.1469067683492
 20
107.7768721071229
 30
0.0
 10
220.0705894017177
 20
107.8643497783524
 30
0.0
 10
219.9908446188885
 20
107.9128178310143
 30
0.0
 10
219.9390363881202
 20
107.9267831841918
 30
0.0
 10
219.9236923163046
 20
107.9309193104193
 30
0.0
  0
SPLINE
  5
D4
330
1F
100
AcDbEntity
  8
0
  6
Continuous
 62
     7
370
    15
100
AcDbSpline
210
0.0
220
0.0
230
1.0
 70
     8
 71
     3
 72
    12
 73
     8
 74
     0
 42
0.00000001
 43
0.00000001
 12
1.0
 22
0.0
 32
0.0
 13
1.0
 23
0.0
 33
0.0
 40
0.0
 40
0.0
 40
0.0
 40
0.0
 40
0.2057886711562708
 40
0.4120345519735847
 40
0.6141287846188864
 40
0.8132621709477393
 40
1.0
 40
1.0
 40
1.0
 40
1.0
 10
219.5276865069975
 20
107.6936090051815
 30
0.0
 10
219.5041461165134
 20
107.6324294648398
 30
0.0
 10
219.4570130348334
 20
107.5099344589047
 30
0.0
 10
219.3141798383087
 20
107.3679540495952
 30
0.0
 10
219.1384611135754
 20
107.2803880839527
 30
0.0
 10
218.9483480777176
 20
107.2521548937642
 30
0.0
 10
218.8292994504505
 20
107.2818177126388
 30
0.0
 10
218.7716872696986
 20
107.2961726843998
 30
0.0
  0
SPLINE
  5
D5
330
1F
100
AcDbEntity
  8
0
  6
Continuous
 62
     7
370
    15
100
AcDbSpline
210
0.0
220
0.0
230
1.0
 70
     8
 71
     3
 72
    11
 73
     7
 74
     0
 42
0.00000001
 43
0.00000001
 12
1.0
 22
0.0
 32
0.0
 13
1.0
 23
0.0
 33
0.0
 40
0.0
 40
0.0
 40
0.0
 40
0.0
 40
0.2802336258137214
 40
0.5612839426564231
 40
0.8399893804359453
 40
1.0
 40
1.0
 40
1.0
 40
1.0
 10
218.7716872696986
 20
107.2961726843998
 30
0.0
 10
218.7348423601891
 20
107.3049768893291
 30
0.0
 10
218.6610451632386
 20
107.3226109574759
 30
0.0
 10
218.5472142924119
 20
107.3002540594013
 30
0.0
 10
218.4599893823949
 20
107.2527503023251
 30
0.0
 10
218.4193953594036
 20
107.2091736510947
 30
0.0
 10
218.4045897131075
 20
107.1932801663563
 30
0.0
  0
SPLINE
  5
D6
330
1F
100
AcDbEntity
  8
0
  6
Continuous
 62
     7
370
    15
100
AcDbSpline
210
0.0
220
0.0
230
1.0
 70
     8
 71
     3
 72
    11
 73
     7
 74
     0
 42
0.00000001
 43
0.00000001
 12
1.0
 22
0.0
 32
0.0
 13
1.0
 23
0.0
 33
0.0
 40
0.0
 40
0.0
 40
0.0
 40
0.0
 40
0.2657611170070719
 40
0.5529986145004445
 40
0.8418174803148525
 40
1.0
 40
1.0
 40
1.0
 40
1.0
 10
219.8039838378538
 20
107.9357733636782
 30
0.0
 10
219.7701167824001
 20
107.9278617127924
 30
0.0
 10
219.699645846117
 20
107.9113990638257
 30
0.0
 10
219.6098114540184
 20
107.8451567278619
 30
0.0
 10
219.5525497516018
 20
107.7674095683055
 30
0.0
 10
219.534185243407
 20
107.7128989415614
 30
0.0
 10
219.5276865069975
 20
107.6936090051815
 30
0.0
  0
SPLINE
  5
D7
330
1F
100
AcDbEntity
  8
0
  6
Continuous
 62
     7
370
    15
100
AcDbSpline
210
0.0
220
0.0
230
1.0
 70
     8
 71
     3
 72
    11
 73
     7
 74
     0
 42
0.00000001
 43
0.00000001
 12
1.0
 22
0.0
 32
0.0
 13
1.0
 23
0.0
 33
0.0
 40
0.0
 40
0.0
 40
0.0
 40
0.0
 40
0.2431070280359733
 40
0.5182768829996707
 40
0.7947749037966954
 40
1.0
 40
1.0
 40
1.0
 40
1.0
 10
221.2361456160654
 20
105.4054164945767
 30
0.0
 10
221.2474528750363
 20
105.4365869106575
 30
0.0
 10
221.2715586813638
 20
105.5030387373227
 30
0.0
 10
221.2663383549338
 20
105.6127772961564
 30
0.0
 10
221.2310625093171
 20
105.7106546656159
 30
0.0
 10
221.1890961591336
 20
105.7600485882037
 30
0.0
 10
221.1712175314536
 20
105.7810915320799
 30
0.0
  0
SPLINE
  5
D8
330
1F
100
AcDbEntity
  8
0
  6
Continuous
 62
     7
370
    15
100
AcDbSpline
210
0.0
220
0.0
230
1.0
 70
     8
 71
     3
 72
    12
 73
     8
 74
     0
 42
0.00000001
 43
0.00000001
 12
1.0
 22
0.0
 32
0.0
 13
1.0
 23
0.0
 33
0.0
 40
0.0
 40
0.0
 40
0.0
 40
0.0
 40
0.2058177001094489
 40
0.412021505893116
 40
0.614078570742574
 40
0.8132133520400342
 40
1.0
 40
1.0
 40
1.0
 40
1.0
 10
221.1712175314536
 20
105.7810915320799
 30
0.0
 10
221.1299987299054
 20
105.8320788942723
 30
0.0
 10
221.0474838020058
 20
105.9341492688845
 30
0.0
 10
220.9959440911135
 20
106.1288305069458
 30
0.0
 10
221.0079708395568
 20
106.3247634639842
 30
0.0
 10
221.0785605559064
 20
106.5035229629583
 30
0.0
 10
221.1637812843261
 20
106.5917996607354
 30
0.0
 10
221.2050282662024
 20
106.6345257371352
 30
0.0
  0
SPLINE
  5
D9
330
1F
100
AcDbEntity
  8
0
  6
Continuous
 62
     7
370
    15
100
AcDbSpline
210
0.0
220
0.0
230
1.0
 70
     8
 71
     3
 72
    11
 73
     7
 74
     0
 42
0.00000001
 43
0.00000001
 12
1.0
 22
0.0
 32
0.0
 13
1.0
 23
0.0
 33
0.0
 40
0.0
 40
0.0
 40
0.0
 40
0.0
 40
0.2908627374774574
 40
0.5839563262163668
 40
0.8745989373117717
 40
1.0
 40
1.0
 40
1.0
 40
1.0
 10
221.2050282662024
 20
106.6345257371352
 30
0.0
 10
221.2309607562746
 20
106.6618896163371
 30
0.0
 10
221.2830246327394
 20
106.7168272494914
 30
0.0
 10
221.3207547839615
 20
106.8263917643958
 30
0.0
 10
221.3230470942873
 20
106.9201097848264
 30
0.0
 10
221.309088309584
 20
106.9723492397685
 30
0.0
 10
221.3048809473624
 20
106.9880949020073
 30
0.0
  0
SPLINE
  5
DA
330
1F
100
AcDbEntity
  8
0
  6
Continuous
 62
     7
370
    15
100
AcDbSpline
210
0.0
220
0.0
230
1.0
 70
     8
 71
     3
 72
    12
 73
     8
 74
     0
 42
0.00000001
 43
0.00000001
 12
1.0
 22
0.0
 32
0.0
 13
1.0
 23
0.0
 33
0.0
 40
0.0
 40
0.0
 40
0.0
 40
0.0
 40
0.2058583947842011
 40
0.4121021026001509
 40
0.6141924131876163
 40
0.8133167712244629
 40
1.0
 40
1.0
 40
1.0
 40
1.0
 10
218.4234955613722
 20
106.7447179615185
 30
0.0
 10
218.4647193845059
 20
106.6937217196596
 30
0.0
 10
218.5472441909799
 20
106.5916337843253
 30
0.0
 10
218.5987751719396
 20
106.3969207751546
 30
0.0
 10
218.5867253972903
 20
106.2009657074661
 30
0.0
 10
218.5161141805229
 20
106.0222333525796
 30
0.0
 10
218.4309121081016
 20
105.933983786091
 30
0.0
 10
218.3896848266234
 20
105.8912818938181
 30
0.0
  0
SPLINE
  5
DB
330
1F
100
AcDbEntity
  8
0
  6
Continuous
 62
     7
370
    15
100
AcDbSpline
210
0.0
220
0.0
230
1.0
 70
     8
 71
     3
 72
    11
 73
     7
 74
     0
 42
0.00000001
 43
0.00000001
 12
1.0
 22
0.0
 32
0.0
 13
1.0
 23
0.0
 33
0.0
 40
0.0
 40
0.0
 40
0.0
 40
0.0
 40
0.2524739145227845
 40
0.5068870193904859
 40
0.7591755233615244
 40
1.0
 40
1.0
 40
1.0
 40
1.0
 10
218.3896848266234
 20
105.8912818938181
 30
0.0
 10
218.3637427493179
 20
105.8639116010844
 30
0.0
 10
218.3116593399602
 20
105.8089607910972
 30
0.0
 10
218.2740962849296
 20
105.6995255139087
 30
0.0
 10
218.270666222375
 20
105.5852713715033
 30
0.0
 10
218.2989012303805
 20
105.516391113741
 30
0.0
 10
218.3126905267348
 20
105.4827516585276
 30
0.0
  0
SPLINE
  5
DC
330
1F
100
AcDbEntity
  8
0
  6
Continuous
 62
     7
370
    15
100
AcDbSpline
210
0.0
220
0.0
230
1.0
 70
     8
 71
     3
 72
    11
 73
     7
 74
     0
 42
0.00000001
 43
0.00000001
 12
1.0
 22
0.0
 32
0.0
 13
1.0
 23
0.0
 33
0.0
 40
0.0
 40
0.0
 40
0.0
 40
0.0
 40
0.2423607932470409
 40
0.5166850235687889
 40
0.7923349015699874
 40
1.0
 40
1.0
 40
1.0
 40
1.0
 10
218.3590927426924
 20
107.1215236246273
 30
0.0
 10
218.3476682388241
 20
107.0903953424784
 30
0.0
 10
218.3233125252973
 20
107.0240334652941
 30
0.0
 10
218.328134359213
 20
106.9142787352213
 30
0.0
 10
218.3631800783281
 20
106.815860252829
 30
0.0
 10
218.4053685253275
 20
106.7660988543474
 30
0.0
 10
218.4234955613722
 20
106.7447179615185
 30
0.0
  0
SPLINE
  5
DD
330
1F
100
AcDbEntity
  8
0
  6
Continuous
 62
     7
370
    15
100
AcDbSpline
210
0.0
220
0.0
230
1.0
 70
     8
 71
     3
 72
    12
 73
     8
 74
     0
 42
0.00000001
 43
0.00000001
 12
1.0
 22
0.0
 32
0.0
 13
1.0
 23
0.0
 33
0.0
 40
0.0
 40
0.0
 40
0.0
 40
0.0
 40
0.0091729907397747
 40
0.2576779145968592
 40
0.5061872860334292
 40
0.756035530363524
 40
0.9999999999999999
 40
0.9999999999999999
 40
0.9999999999999999
 40
0.9999999999999999
 10
219.7312810723891
 20
104.5870428591654
 30
0.0
 10
219.7326517448301
 20
104.586995246101
 30
0.0
 10
219.7711552194567
 20
104.5856577504582
 30
0.0
 10
219.8478821562023
 20
104.596560984851
 30
0.0
 10
219.9481768914468
 20
104.6485885896791
 30
0.0
 10
220.0277719714594
 20
104.7294101236127
 30
0.0
 10
220.0540460662512
 20
104.7982090378972
 30
0.0
 10
220.0670265858282
 20
104.8321986257718
 30
0.0
  0
SPLINE
  5
DE
330
1F
100
AcDbEntity
  8
0
  6
Continuous
 62
     7
370
    15
100
AcDbSpline
210
0.0
220
0.0
230
1.0
 70
     8
 71
     3
 72
    12
 73
     8
 74
     0
 42
0.00000001
 43
0.00000001
 12
1.0
 22
0.0
 32
0.0
 13
1.0
 23
0.0
 33
0.0
 40
0.0
 40
0.0
 40
0.0
 40
0.0
 40
0.2057533248601675
 40
0.4119615222954858
 40
0.6140151209187609
 40
0.813141305789455
 40
1.0
 40
1.0
 40
1.0
 40
1.0
 10
220.0670265858282
 20
104.8321986257718
 30
0.0
 10
220.0905629473579
 20
104.8933703995069
 30
0.0
 10
220.1376877038187
 20
105.0158491834903
 30
0.0
 10
220.2804897604969
 20
105.1578215406009
 30
0.0
 10
220.4561742037599
 20
105.2453923834286
 30
0.0
 10
220.6462962196773
 20
105.2736633876884
 30
0.0
 10
220.7653775148129
 20
105.2439980578024
 30
0.0
 10
220.8230258231272
 20
105.2296368091986
 30
0.0
  0
SPLINE
  5
DF
330
1F
100
AcDbEntity
  8
0
  6
Continuous
 62
     7
370
    15
100
AcDbSpline
210
0.0
220
0.0
230
1.0
 70
     8
 71
     3
 72
    11
 73
     7
 74
     0
 42
0.00000001
 43
0.00000001
 12
1.0
 22
0.0
 32
0.0
 13
1.0
 23
0.0
 33
0.0
 40
0.0
 40
0.0
 40
0.0
 40
0.0
 40
0.2794074866229249
 40
0.5596224907217898
 40
0.8374970188490215
 40
1.0
 40
1.0
 40
1.0
 40
1.0
 10
220.8230258231272
 20
105.2296368091986
 30
0.0
 10
220.8598747667019
 20
105.2208320323239
 30
0.0
 10
220.9336791512336
 20
105.2031970318291
 30
0.0
 10
221.0475143313481
 20
105.2255614989638
 30
0.0
 10
221.1351169512289
 20
105.2732649359904
 30
0.0
 10
221.1758790403196
 20
105.3172570094073
 30
0.0
 10
221.1909205918421
 20
105.3334904521391
 30
0.0
  0
SPLINE
  5
E0
330
1F
100
AcDbEntity
  8
0
  6
Continuous
 62
     7
370
    15
100
AcDbSpline
210
0.0
220
0.0
230
1.0
 70
     8
 71
     3
 72
    12
 73
     8
 74
     0
 42
0.00000001
 43
0.00000001
 12
1.0
 22
0.0
 32
0.0
 13
1.0
 23
0.0
 33
0.0
 40
0.0
 40
0.0
 40
0.0
 40
0.0
 40
0.2058453128138542
 40
0.4120685032394346
 40
0.6141411320482157
 40
0.8132618591331401
 40
1.0
 40
1.0
 40
1.0
 40
1.0
 10
218.6931618754973
 20
105.3140127718136
 30
0.0
 10
218.7579349912508
 20
105.3242160999137
 30
0.0
 10
218.8876001290859
 20
105.3446414867286
 30
0.0
 10
219.081981441638
 20
105.291919763553
 30
0.0
 10
219.2456538412087
 20
105.183524326084
 30
0.0
 10
219.3651487805967
 20
105.0330097451912
 30
0.0
 10
219.3989808975998
 20
104.915085067572
 30
0.0
 10
219.4153541033377
 20
104.8580148875401
 30
0.0
  0
SPLINE
  5
E1
330
1F
100
AcDbEntity
  8
0
  6
Continuous
 62
     7
370
    15
100
AcDbSpline
210
0.0
220
0.0
230
1.0
 70
     8
 71
     3
 72
    11
 73
     7
 74
     0
 42
0.00000001
 43
0.00000001
 12
1.0
 22
0.0
 32
0.0
 13
1.0
 23
0.0
 33
0.0
 40
0.0
 40
0.0
 40
0.0
 40
0.0
 40
0.2535066492419559
 40
0.5075671059544017
 40
0.7595035152105652
 40
0.9999999999999999
 40
0.9999999999999999
 40
0.9999999999999999
 40
0.9999999999999999
 10
219.4153541033377
 20
104.8580148875401
 30
0.0
 10
219.4261646127227
 20
104.8216663655927
 30
0.0
 10
219.4478092479968
 20
104.7488899151693
 30
0.0
 10
219.5241129081814
 20
104.6616256433007
 30
0.0
 10
219.6214546327556
 20
104.6017078472692
 30
0.0
 10
219.695243667652
 20
104.5918548890694
 30
0.0
 10
219.7312810723891
 20
104.5870428591654
 30
0.0
  0
SPLINE
  5
E2
330
1F
100
AcDbEntity
  8
0
  6
Continuous
 62
     7
370
    15
100
AcDbSpline
210
0.0
220
0.0
230
1.0
 70
     8
 71
     3
 72
    12
 73
     8
 74
     0
 42
0.00000001
 43
0.00000001
 12
1.0
 22
0.0
 32
0.0
 13
1.0
 23
0.0
 33
0.0
 40
0.0
 40
0.0
 40
0.0
 40
0.0
 40
0.009167115797117
 40
0.2573294425619386
 40
0.5054926430750969
 40
0.7549967405926271
 40
1.0
 40
1.0
 40
1.0
 40
1.0
 10
218.3126905267348
 20
105.4827516585276
 30
0.0
 10
218.3133323481732
 20
105.4815384429464
 30
0.0
 10
218.3313488712129
 20
105.4474823563723
 30
0.0
 10
218.3790634162855
 20
105.3864086152673
 30
0.0
 10
218.4741441227176
 20
105.3253815041137
 30
0.0
 10
218.5840925673362
 20
105.2966012874396
 30
0.0
 10
218.6570267133906
 20
105.3082442671721
 30
0.0
 10
218.6931618754973
 20
105.3140127718136
 30
0.0
  0
CIRCLE
  5
E3
330
1F
100
AcDbEntity
  8
0
  6
Continuous
 62
     7
370
    15
100
AcDbCircle
 10
219.7960224016
 20
106.2607916835
 30
0.0
 40
2.62500000000002
  0
SPLINE
  5
E4
330
1F
100
AcDbEntity
  8
0
  6
HIDDEN
 62
     7
370
     0
100
AcDbSpline
210
0.0
220
0.0
230
1.0
 70
     8
 71
     3
 72
    68
 73
    64
 74
     0
 42
0.00000001
 43
0.00000001
 12
1.0
 22
0.0
 32
0.0
 13
1.0
 23
0.0
 33
0.0
 40
-0.0625
 40
-0.0625
 40
0.0
 40
0.0
 40
0.03125
 40
0.03125
 40
0.0625
 40
0.0625
 40
0.09375
 40
0.09375
 40
0.125
 40
0.125
 40
0.15625
 40
0.15625
 40
0.1875
 40
0.1875
 40
0.21875
 40
0.21875
 40
0.25
 40
0.25
 40
0.28125
 40
0.28125
 40
0.3125
 40
0.3125
 40
0.34375
 40
0.34375
 40
0.375
 40
0.375
 40
0.40625
 40
0.40625
 40
0.4375
 40
0.4375
 40
0.46875
 40
0.46875
 40
0.5
 40
0.5
 40
0.53125
 40
0.53125
 40
0.5625
 40
0.5625
 40
0.59375
 40
0.59375
 40
0.625
 40
0.625
 40
0.65625
 40
0.65625
 40
0.6875
 40
0.6875
 40
0.71875
 40
0.71875
 40
0.75
 40
0.75
 40
0.78125
 40
0.78125
 40
0.8125
 40
0.8125
 40
0.84375
 40
0.84375
 40
0.875
 40
0.875
 40
0.90625
 40
0.90625
 40
0.9375
 40
0.9375
 40
1.0
 40
1.0
 40
1.03125
 40
1.03125
 10
188.7255583937273
 20
129.047318615562
 30
0.0
 10
189.2215641627423
 20
129.047318615562
 30
0.0
 10
189.3841039051649
 20
129.0632851871163
 30
0.0
 10
189.7038311148623
 20
129.1257361608284
 30
0.0
 10
189.8626876914476
 20
129.1729888168561
 30
0.0
 10
190.1653595896766
 20
129.2959465011228
 30
0.0
 10
190.3088874052727
 20
129.3710677139153
 30
0.0
 10
190.5805191842199
 20
129.5480252810706
 30
0.0
 10
190.709003816543
 20
129.6507006581573
 30
0.0
 10
190.9393605725035
 20
129.8742027587406
 30
0.0
 10
191.0427880724663
 20
129.9958434469306
 30
0.0
 10
191.2255531490216
 20
130.2590922509995
 30
0.0
 10
191.303119524743
 20
130.3985721177287
 30
0.0
 10
191.4278547177393
 20
130.6861122317188
 30
0.0
 10
191.475935061082
 20
130.8363020395894
 30
0.0
 10
191.5402185698934
 20
131.1423088645525
 30
0.0
 10
191.5561378974498
 20
131.2955202123982
 30
0.0
 10
191.5563191446361
 20
131.6022734200651
 30
0.0
 10
191.5400551153555
 20
131.7573820565626
 30
0.0
 10
191.4762148975563
 20
132.0561110726652
 30
0.0
 10
191.4289813529693
 20
132.2006623848226
 30
0.0
 10
191.3036761867409
 20
132.4803137251361
 30
0.0
 10
191.2254684091158
 20
132.6146824949101
 30
0.0
 10
191.0446165266176
 20
132.8626339502536
 30
0.0
 10
190.9412443629578
 20
132.9778836837062
 30
0.0
 10
190.7081078270807
 20
133.1900508140972
 30
0.0
 10
190.5820177900962
 20
133.2836661342034
 30
0.0
 10
190.3114756537731
 20
133.4473484228731
 30
0.0
 10
190.165280693186
 20
133.5179808539105
 30
0.0
 10
189.8626553442363
 20
133.6309315841661
 30
0.0
 10
189.7068328456873
 20
133.6734580081339
 30
0.0
 10
189.3861996734088
 20
133.7310082074745
 30
0.0
 10
189.2203944928007
 20
133.7457266114075
 30
0.0
 10
188.8939406766909
 20
133.745836511571
 30
0.0
 10
188.7316010744023
 20
133.7317035662608
 30
0.0
 10
188.4087390867477
 20
133.6742737817852
 30
0.0
 10
188.2509983763225
 20
133.6312364689171
 30
0.0
 10
187.9500460436501
 20
133.5191912131289
 30
0.0
 10
187.8045265657102
 20
133.4492986179995
 30
0.0
 10
187.5313233098196
 20
133.2843916405359
 30
0.0
 10
187.4054926618883
 20
133.1908019373573
 30
0.0
 10
187.1748128383125
 20
132.9814422214006
 30
0.0
 10
187.0691953603734
 20
132.8642905718847
 30
0.0
 10
186.8876509730495
 20
132.6157871521231
 30
0.0
 10
186.810732516056
 20
132.4839493490461
 30
0.0
 10
186.6849047209315
 20
132.2045491481241
 30
0.0
 10
186.6366444516457
 20
132.0573699875441
 30
0.0
 10
186.5727696828475
 20
131.7597118739537
 30
0.0
 10
186.5563795223817
 20
131.60766902932
 30
0.0
 10
186.5560803374213
 20
131.2969848315153
 30
0.0
 10
186.5721697063361
 20
131.1435395813537
 30
0.0
 10
186.6354851132507
 20
130.8403573266067
 30
0.0
 10
186.6834987807414
 20
130.6890157146487
 30
0.0
 10
186.8087543197513
 20
130.3995652568595
 30
0.0
 10
186.8854247673997
 20
130.2616818689311
 30
0.0
 10
187.0666345516145
 20
129.9997684674713
 30
0.0
 10
187.1719975977018
 20
129.8754182259947
 30
0.0
 10
187.402179216016
 20
129.6517904827374
 30
0.0
 10
187.5278445558918
 20
129.5510031179149
 30
0.0
 10
187.8009727903372
 20
129.3724567698216
 30
0.0
 10
187.946092525057
 20
129.296506543055
 30
0.0
 10
188.39704277531
 20
129.1128607184903
 30
0.0
 10
188.7255583937273
 20
129.047318615562
 30
0.0
 10
189.2215641627423
 20
129.047318615562
 30
0.0
  0
SPLINE
  5
E5
330
1F
100
AcDbEntity
  8
0
  6
HIDDEN
 62
     7
370
     0
100
AcDbSpline
210
0.0
220
0.0
230
1.0
 70
     8
 71
     3
 72
    12
 73
     8
 74
     0
 42
0.00000001
 43
0.00000001
 12
1.0
 22
0.0
 32
0.0
 13
1.0
 23
0.0
 33
0.0
 40
0.0
 40
0.0
 40
0.0
 40
0.0
 40
0.5000000000000029
 40
0.5000000000000029
 40
0.7500000000000014
 40
0.7500000000000014
 40
1.0
 40
1.0
 40
1.0
 40
1.0
 10
181.7283232872678
 20
143.6445546311007
 30
0.0
 10
181.7470165203982
 20
143.6663483847287
 30
0.0
 10
181.77267181781
 20
143.6873685464383
 30
0.0
 10
181.8328324404965
 20
143.715073892402
 30
0.0
 10
181.8569047522508
 20
143.7237091085954
 30
0.0
 10
181.9152862726014
 20
143.736923753822
 30
0.0
 10
181.9507551002544
 20
143.7414547281521
 30
0.0
 10
181.9881309084031
 20
143.7414547281521
 30
0.0
  0
LINE
  5
E6
330
1F
100
AcDbEntity
  8
0
  6
HIDDEN
 62
     7
370
     0
100
AcDbLine
 10
181.9881308158
 20
143.7414550841
 30
0.0
 11
184.1243268256
 21
143.7414550841
 31
0.0
  0
SPLINE
  5
E7
330
1F
100
AcDbEntity
  8
0
  6
HIDDEN
 62
     7
370
     0
100
AcDbSpline
210
0.0
220
0.0
230
1.0
 70
     8
 71
     3
 72
    12
 73
     8
 74
     0
 42
0.00000001
 43
0.00000001
 12
1.0
 22
0.0
 32
0.0
 13
1.0
 23
0.0
 33
0.0
 40
0.0
 40
0.0
 40
0.0
 40
0.0
 40
0.2499999999999984
 40
0.2499999999999984
 40
0.4999999999999969
 40
0.4999999999999969
 40
1.0
 40
1.0
 40
1.0
 40
1.0
 10
184.1243269044048
 20
143.7414547281522
 30
0.0
 10
184.1618387904495
 20
143.7414547281522
 30
0.0
 10
184.1971261381542
 20
143.7369511838896
 30
0.0
 10
184.2560559863926
 20
143.7235779844363
 30
0.0
 10
184.2795817128617
 20
143.7150930818652
 30
0.0
 10
184.3398405006297
 20
143.6873452780306
 30
0.0
 10
184.3654352629191
 20
143.6663554142903
 30
0.0
 10
184.3841345255401
 20
143.6445546311007
 30
0.0
  0
ELLIPSE
  5
E8
330
1F
100
AcDbEntity
  8
0
  6
HIDDEN
 62
     7
370
     0
100
AcDbEllipse
 10
174.107299734
 20
124.6097983479
 30
0.0
 11
9.367417879781813
 21
19.74174915274992
 31
0.0
210
0.0
220
0.0
230
1.0
 40
0.3419987131
 41
5.185211263708413
 42
6.132113578252571
  0
SPLINE
  5
E9
330
1F
100
AcDbEntity
  8
0
  6
HIDDEN
 62
     7
370
     0
100
AcDbSpline
210
0.0
220
0.0
230
1.0
 70
     8
 71
     3
 72
    12
 73
     8
 74
     0
 42
0.00000001
 43
0.00000001
 12
1.0
 22
0.0
 32
0.0
 13
1.0
 23
0.0
 33
0.0
 40
0.0
 40
0.0
 40
0.0
 40
0.0
 40
0.4999999999999916
 40
0.4999999999999916
 40
0.7499999999999958
 40
0.7499999999999958
 40
1.0
 40
1.0
 40
1.0
 40
1.0
 10
184.3841345255401
 20
130.7480434749781
 30
0.0
 10
184.3654412924097
 20
130.6804608385377
 30
0.0
 10
184.3397859949979
 20
130.6139782690603
 30
0.0
 10
184.2796253723114
 20
130.5249831861627
 30
0.0
 10
184.2555530605571
 20
130.4969812891636
 30
0.0
 10
184.1971715402066
 20
130.4539048884984
 30
0.0
 10
184.1617027125535
 20
130.4390113435707
 30
0.0
 10
184.1243269044048
 20
130.4390113435707
 30
0.0
  0
LINE
  5
EA
330
1F
100
AcDbEntity
  8
0
  6
HIDDEN
 62
     7
370
     0
100
AcDbLine
 10
184.1243268256
 20
130.439011535
 30
0.0
 11
181.9881308158
 21
130.439011535
 31
0.0
  0
SPLINE
  5
EB
330
1F
100
AcDbEntity
  8
0
  6
HIDDEN
 62
     7
370
     0
100
AcDbSpline
210
0.0
220
0.0
230
1.0
 70
     8
 71
     3
 72
    12
 73
     8
 74
     0
 42
0.00000001
 43
0.00000001
 12
1.0
 22
0.0
 32
0.0
 13
1.0
 23
0.0
 33
0.0
 40
0.0
 40
0.0
 40
0.0
 40
0.0
 40
0.2500000000000023
 40
0.2500000000000023
 40
0.5000000000000046
 40
0.5000000000000046
 40
1.0
 40
1.0
 40
1.0
 40
1.0
 10
181.9881309084031
 20
130.4390113435707
 30
0.0
 10
181.9506190223585
 20
130.4390113435707
 30
0.0
 10
181.9153316746538
 20
130.4538161578575
 30
0.0
 10
181.8564018264154
 20
130.4974080309833
 30
0.0
 10
181.8328760999463
 20
130.5249214570693
 30
0.0
 10
181.7726173121782
 20
130.6140531891829
 30
0.0
 10
181.7470225498889
 20
130.6804390398007
 30
0.0
 10
181.7283232872678
 20
130.7480434749781
 30
0.0
  0
ELLIPSE
  5
EC
330
1F
100
AcDbEntity
  8
0
  6
HIDDEN
 62
     7
370
     0
100
AcDbEllipse
 10
192.0051580788
 20
124.6097983479
 30
0.0
 11
-9.367417879781698
 21
19.74174915274995
 31
0.0
210
0.0
220
0.0
230
1.0
 40
0.3419987131
 41
0.1510717289270616
 42
1.097974043471191
  0
SPLINE
  5
ED
330
1F
100
AcDbEntity
  8
0
  6
HIDDEN
 62
     7
370
     0
100
AcDbSpline
210
0.0
220
0.0
230
1.0
 70
     8
 71
     3
 72
    12
 73
     8
 74
     0
 42
0.00000001
 43
0.00000001
 12
1.0
 22
0.0
 32
0.0
 13
1.0
 23
0.0
 33
0.0
 40
0.0
 40
0.0
 40
0.0
 40
0.0
 40
0.5000000000000029
 40
0.5000000000000029
 40
0.7500000000000014
 40
0.7500000000000014
 40
1.0
 40
1.0
 40
1.0
 40
1.0
 10
181.7283232872678
 20
118.4715532208597
 30
0.0
 10
181.7470165203982
 20
118.5391358573001
 30
0.0
 10
181.77267181781
 20
118.6056184267775
 30
0.0
 10
181.8328324404965
 20
118.694613509675
 30
0.0
 10
181.8569047522508
 20
118.7226154066742
 30
0.0
 10
181.9152862726014
 20
118.7656918073393
 30
0.0
 10
181.9507551002544
 20
118.7805853522671
 30
0.0
 10
181.9881309084031
 20
118.7805853522671
 30
0.0
  0
LINE
  5
EE
330
1F
100
AcDbEntity
  8
0
  6
HIDDEN
 62
     7
370
     0
100
AcDbLine
 10
181.9881308158
 20
118.7805851608
 30
0.0
 11
184.1243268256
 21
118.7805851608
 31
0.0
  0
SPLINE
  5
EF
330
1F
100
AcDbEntity
  8
0
  6
HIDDEN
 62
     7
370
     0
100
AcDbSpline
210
0.0
220
0.0
230
1.0
 70
     8
 71
     3
 72
    12
 73
     8
 74
     0
 42
0.00000001
 43
0.00000001
 12
1.0
 22
0.0
 32
0.0
 13
1.0
 23
0.0
 33
0.0
 40
0.0
 40
0.0
 40
0.0
 40
0.0
 40
0.2500000000000016
 40
0.2500000000000016
 40
0.5000000000000032
 40
0.5000000000000032
 40
1.0
 40
1.0
 40
1.0
 40
1.0
 10
184.1243269044048
 20
118.7805853522671
 30
0.0
 10
184.1618387904495
 20
118.7805853522671
 30
0.0
 10
184.1971261381542
 20
118.7657805379803
 30
0.0
 10
184.2560559863926
 20
118.7221886648545
 30
0.0
 10
184.2795817128617
 20
118.6946752387685
 30
0.0
 10
184.3398405006297
 20
118.6055435066549
 30
0.0
 10
184.3654352629191
 20
118.5391576560371
 30
0.0
 10
184.3841345255401
 20
118.4715532208597
 30
0.0
  0
ELLIPSE
  5
F0
330
1F
100
AcDbEntity
  8
0
  6
HIDDEN
 62
     7
370
     0
100
AcDbEllipse
 10
174.107299734
 20
124.6097983479
 30
0.0
 11
-9.367417879781756
 21
19.74174915274992
 31
0.0
210
0.0
220
0.0
230
1.0
 40
0.3419987131
 41
3.292664382516898
 42
4.239566697061003
  0
SPLINE
  5
F1
330
1F
100
AcDbEntity
  8
0
  6
HIDDEN
 62
     7
370
     0
100
AcDbSpline
210
0.0
220
0.0
230
1.0
 70
     8
 71
     3
 72
    12
 73
     8
 74
     0
 42
0.00000001
 43
0.00000001
 12
1.0
 22
0.0
 32
0.0
 13
1.0
 23
0.0
 33
0.0
 40
0.0
 40
0.0
 40
0.0
 40
0.0
 40
0.4999999999999938
 40
0.4999999999999938
 40
0.7499999999999969
 40
0.7499999999999969
 40
1.0
 40
1.0
 40
1.0
 40
1.0
 10
184.3841345255401
 20
105.5750420647368
 30
0.0
 10
184.3654412924097
 20
105.5532483111089
 30
0.0
 10
184.3397859949979
 20
105.5322281493992
 30
0.0
 10
184.2796253723114
 20
105.5045228034355
 30
0.0
 10
184.2555530605571
 20
105.4958875872422
 30
0.0
 10
184.1971715402066
 20
105.4826729420156
 30
0.0
 10
184.1617027125535
 20
105.4781419676854
 30
0.0
 10
184.1243269044048
 20
105.4781419676854
 30
0.0
  0
LINE
  5
F2
330
1F
100
AcDbEntity
  8
0
  6
HIDDEN
 62
     7
370
     0
100
AcDbLine
 10
184.1243268256
 20
105.4781416118
 30
0.0
 11
181.9881308158
 21
105.4781416118
 31
0.0
  0
SPLINE
  5
F3
330
1F
100
AcDbEntity
  8
0
  6
HIDDEN
 62
     7
370
     0
100
AcDbSpline
210
0.0
220
0.0
230
1.0
 70
     8
 71
     3
 72
    12
 73
     8
 74
     0
 42
0.00000001
 43
0.00000001
 12
1.0
 22
0.0
 32
0.0
 13
1.0
 23
0.0
 33
0.0
 40
0.0
 40
0.0
 40
0.0
 40
0.0
 40
0.2499999999999993
 40
0.2499999999999993
 40
0.4999999999999987
 40
0.4999999999999987
 40
1.0
 40
1.0
 40
1.0
 40
1.0
 10
181.9881309084031
 20
105.4781419676854
 30
0.0
 10
181.9506190223585
 20
105.4781419676854
 30
0.0
 10
181.9153316746538
 20
105.4826455119479
 30
0.0
 10
181.8564018264154
 20
105.4960187114012
 30
0.0
 10
181.8328760999463
 20
105.5045036139723
 30
0.0
 10
181.7726173121782
 20
105.5322514178069
 30
0.0
 10
181.7470225498889
 20
105.5532412815473
 30
0.0
 10
181.7283232872678
 20
105.5750420647368
 30
0.0
  0
ELLIPSE
  5
F4
330
1F
100
AcDbEntity
  8
0
  6
HIDDEN
 62
     7
370
     0
100
AcDbEllipse
 10
192.0051580788
 20
124.6097983479
 30
0.0
 11
9.367417879781614
 21
19.74174915274995
 31
0.0
210
0.0
220
0.0
230
1.0
 40
0.3419987131
 41
2.043618610118589
 42
2.990520924662718
  0
SPLINE
  5
F5
330
1F
100
AcDbEntity
  8
0
  6
HIDDEN
 62
     7
370
     0
100
AcDbSpline
210
0.0
220
0.0
230
1.0
 70
     8
 71
     3
 72
    58
 73
    54
 74
     0
 42
0.00000001
 43
0.00000001
 12
1.0
 22
0.0
 32
0.0
 13
1.0
 23
0.0
 33
0.0
 40
-0.0625000000000001
 40
-0.0625000000000001
 40
0.0
 40
0.0
 40
0.03125
 40
0.03125
 40
0.0625
 40
0.0625
 40
0.09375
 40
0.09375
 40
0.125
 40
0.125
 40
0.1874999999999999
 40
0.1874999999999999
 40
0.2499999999999999
 40
0.2499999999999999
 40
0.2812499999999999
 40
0.2812499999999999
 40
0.3124999999999999
 40
0.3124999999999999
 40
0.3437499999999999
 40
0.3437499999999999
 40
0.3749999999999999
 40
0.3749999999999999
 40
0.4062499999999999
 40
0.4062499999999999
 40
0.4374999999999999
 40
0.4374999999999999
 40
0.4687499999999999
 40
0.4687499999999999
 40
0.4999999999999999
 40
0.4999999999999999
 40
0.5624999999999999
 40
0.5624999999999999
 40
0.625
 40
0.625
 40
0.65625
 40
0.65625
 40
0.6875
 40
0.6875
 40
0.71875
 40
0.71875
 40
0.7499999999999999
 40
0.7499999999999999
 40
0.7812499999999999
 40
0.7812499999999999
 40
0.8124999999999999
 40
0.8124999999999999
 40
0.8437499999999999
 40
0.8437499999999999
 40
0.8749999999999999
 40
0.8749999999999999
 40
0.9374999999999999
 40
0.9374999999999999
 40
1.0
 40
1.0
 40
1.03125
 40
1.03125
 10
189.0562289064039
 20
124.3453622334707
 30
0.0
 10
189.056228906404
 20
124.7420164051427
 30
0.0
 10
189.0432468687318
 20
124.8720085659832
 30
0.0
 10
188.9923960664735
 20
125.1277281784355
 30
0.0
 10
188.9539041624205
 20
125.2547868622967
 30
0.0
 10
188.8534888766941
 20
125.4969500599555
 30
0.0
 10
188.792052737421
 20
125.6117918443402
 30
0.0
 10
188.6469192611102
 20
125.8291340419104
 30
0.0
 10
188.5624975722591
 20
125.9319756897581
 30
0.0
 10
188.2858973980942
 20
126.2085191705097
 30
0.0
 10
188.0628984868272
 20
126.3575018066418
 30
0.0
 10
187.5816639692415
 20
126.5570448701966
 30
0.0
 10
187.3183645537325
 20
126.609655343228
 30
0.0
 10
186.9268011136922
 20
126.6098694019805
 30
0.0
 10
186.7942135030875
 20
126.5968705525749
 30
0.0
 10
186.5376477974883
 20
126.5458204685486
 30
0.0
 10
186.4129380313077
 20
126.5080492297364
 30
0.0
 10
186.1706988462807
 20
126.4078573216239
 30
0.0
 10
186.053682192507
 20
126.3452719277993
 30
0.0
 10
185.8370389876607
 20
126.2005668420888
 30
0.0
 10
185.7360322312023
 20
126.1179475007086
 30
0.0
 10
185.5492261355457
 20
125.9313034659186
 30
0.0
 10
185.4665126000138
 20
125.8303576179587
 30
0.0
 10
185.3216424706385
 20
125.613876414277
 30
0.0
 10
185.2589721745418
 20
125.4969592492685
 30
0.0
 10
185.1585442365056
 20
125.2547627800701
 30
0.0
 10
185.1206730575759
 20
125.1301017891666
 30
0.0
 10
185.0694106598002
 20
124.8737024400986
 30
0.0
 10
185.0562770191595
 20
124.7410915148007
 30
0.0
 10
185.0561330860207
 20
124.3494169024656
 30
0.0
 10
185.1084983432854
 20
124.086132882805
 30
0.0
 10
185.3076590066361
 20
123.6046201689452
 30
0.0
 10
185.4564566799981
 20
123.3814990819003
 30
0.0
 10
185.7327573385842
 20
123.1046669333927
 30
0.0
 10
185.835522385644
 20
123.0201597191085
 30
0.0
 10
186.0527396594384
 20
122.8748387774226
 30
0.0
 10
186.1675093528762
 20
122.8133165541605
 30
0.0
 10
186.4094958900208
 20
122.7127201508885
 30
0.0
 10
186.5365784629122
 20
122.6740922627999
 30
0.0
 10
186.7922531629154
 20
122.6230141527337
 30
0.0
 10
186.9221936802596
 20
122.6099250129665
 30
0.0
 10
187.1864570480209
 20
122.6096734946079
 30
0.0
 10
187.3166679416678
 20
122.6225479646643
 30
0.0
 10
187.5724178871015
 20
122.6731668617964
 30
0.0
 10
187.6994352714688
 20
122.7115146805921
 30
0.0
 10
187.9417869992205
 20
122.8117488007856
 30
0.0
 10
188.0566897785068
 20
122.8730929877756
 30
0.0
 10
188.2741119436559
 20
123.0179979923047
 30
0.0
 10
188.3770483411006
 20
123.1023368844267
 30
0.0
 10
188.6538854982575
 20
123.3787379974684
 30
0.0
 10
188.8030407393216
 20
123.6015816305109
 30
0.0
 10
189.0030113245569
 20
124.0826449117615
 30
0.0
 10
189.0562289064039
 20
124.3453622334707
 30
0.0
 10
189.056228906404
 20
124.7420164051427
 30
0.0
  0
LINE
  5
F6
330
1F
100
AcDbEntity
  8
0
  6
HIDDEN
 62
     7
370
     0
100
AcDbLine
 10
175.0562289064
 20
144.3097984105
 30
0.0
 11
175.0562289064
 21
104.9097982853
 31
0.0
  0
LINE
  5
F7
330
1F
100
AcDbEntity
  8
0
  6
HIDDEN
 62
     7
370
     0
100
AcDbLine
 10
175.0562289064
 20
108.8097991109
 30
0.0
 11
175.0562289064
 21
140.409797585
 31
0.0
  0
SPLINE
  5
F8
330
1F
100
AcDbEntity
  8
0
  6
HIDDEN
 62
     7
370
     0
100
AcDbSpline
210
0.0
220
0.0
230
1.0
 70
     8
 71
     3
 72
    18
 73
    14
 74
     0
 42
0.00000001
 43
0.00000001
 12
1.0
 22
0.0
 32
0.0
 13
1.0
 23
0.0
 33
0.0
 40
0.0
 40
0.0
 40
0.0
 40
0.0
 40
0.249999999999998
 40
0.249999999999998
 40
0.499999999999996
 40
0.499999999999996
 40
0.624999999999997
 40
0.624999999999997
 40
0.749999999999998
 40
0.749999999999998
 40
0.874999999999999
 40
0.874999999999999
 40
1.0
 40
1.0
 40
1.0
 40
1.0
 10
173.800144588841
 20
134.43423826607
 30
0.0
 10
173.8344456333737
 20
134.3262280802725
 30
0.0
 10
173.8722659046705
 20
134.2189509922445
 30
0.0
 10
173.9588842251313
 20
134.0074542949279
 30
0.0
 10
174.0072555598748
 20
133.9030679447582
 30
0.0
 10
174.0966585419933
 20
133.752193022114
 30
0.0
 10
174.1292558258706
 20
133.7028480190784
 30
0.0
 10
174.2056377298154
 20
133.6082423806081
 30
0.0
 10
174.2486761671562
 20
133.5632464458535
 30
0.0
 10
174.354489199988
 20
133.4923186731957
 30
0.0
 10
174.4195276247192
 20
133.4683721292891
 30
0.0
 10
174.5526796965218
 20
133.4806527933599
 30
0.0
 10
174.6120488769849
 20
133.5139697513648
 30
0.0
 10
174.6612520175287
 20
133.5548046375895
 30
0.0
  0
SPLINE
  5
F9
330
1F
100
AcDbEntity
  8
0
  6
HIDDEN
 62
     7
370
     0
100
AcDbSpline
210
0.0
220
0.0
230
1.0
 70
     8
 71
     3
 72
    16
 73
    12
 74
     0
 42
0.00000001
 43
0.00000001
 12
1.0
 22
0.0
 32
0.0
 13
1.0
 23
0.0
 33
0.0
 40
0.0
 40
0.0
 40
0.0
 40
0.0
 40
0.0625000000000027
 40
0.0625000000000027
 40
0.1250000000000055
 40
0.1250000000000055
 40
0.2500000000000047
 40
0.2500000000000047
 40
0.5000000000000031
 40
0.5000000000000031
 40
1.0
 40
1.0
 40
1.0
 40
1.0
 10
174.6612520174979
 20
133.5548046376189
 30
0.0
 10
174.6733218507737
 20
133.5648216865993
 30
0.0
 10
174.687597505707
 20
133.5737807936549
 30
0.0
 10
174.7190619178315
 20
133.5816511890491
 30
0.0
 10
174.7345624426418
 20
133.5792936984068
 30
0.0
 10
174.7700013392488
 20
133.5623180062288
 30
0.0
 10
174.7835939553521
 20
133.5417695150612
 30
0.0
 10
174.8165882737449
 20
133.4798271880476
 30
0.0
 10
174.8273756670637
 20
133.4334316378424
 30
0.0
 10
174.8524289143429
 20
133.2904956091479
 30
0.0
 10
174.8562289064041
 20
133.1909328922624
 30
0.0
 10
174.8562289064041
 20
133.0891654876158
 30
0.0
  0
LINE
  5
FA
330
1F
100
AcDbEntity
  8
0
  6
HIDDEN
 62
     7
370
     0
100
AcDbLine
 10
174.8562289115
 20
116.1304313376
 30
0.0
 11
174.8562289115
 21
133.0891653582
 31
0.0
  0
SPLINE
  5
FB
330
1F
100
AcDbEntity
  8
0
  6
HIDDEN
 62
     7
370
     0
100
AcDbSpline
210
0.0
220
0.0
230
1.0
 70
     8
 71
     3
 72
    16
 73
    12
 74
     0
 42
0.00000001
 43
0.00000001
 12
1.0
 22
0.0
 32
0.0
 13
1.0
 23
0.0
 33
0.0
 40
0.0
 40
0.0
 40
0.0
 40
0.0
 40
0.4999999999999989
 40
0.4999999999999989
 40
0.7499999999999983
 40
0.7499999999999983
 40
0.874999999999998
 40
0.874999999999998
 40
0.937499999999999
 40
0.937499999999999
 40
1.0
 40
1.0
 40
1.0
 40
1.0
 10
174.8562289064039
 20
116.1304312082215
 30
0.0
 10
174.8562289064039
 20
116.0284210546415
 30
0.0
 10
174.852345481245
 20
115.9288966793882
 30
0.0
 10
174.8275301559704
 20
115.7869115833775
 30
0.0
 10
174.8166907082579
 20
115.7399182828071
 30
0.0
 10
174.783474926209
 20
115.6776255524455
 30
0.0
 10
174.7700931825803
 20
115.6573441201604
 30
0.0
 10
174.734583532718
 20
115.6403024119599
 30
0.0
 10
174.7191665662172
 20
115.6379161569438
 30
0.0
 10
174.6874655440687
 20
115.6458520868018
 30
0.0
 10
174.6733192591179
 20
115.6547771601764
 30
0.0
 10
174.6612520175282
 20
115.6647920582483
 30
0.0
  0
SPLINE
  5
FC
330
1F
100
AcDbEntity
  8
0
  6
HIDDEN
 62
     7
370
     0
100
AcDbSpline
210
0.0
220
0.0
230
1.0
 70
     8
 71
     3
 72
    18
 73
    14
 74
     0
 42
0.00000001
 43
0.00000001
 12
1.0
 22
0.0
 32
0.0
 13
1.0
 23
0.0
 33
0.0
 40
0.0
 40
0.0
 40
0.0
 40
0.0
 40
0.125
 40
0.125
 40
0.25
 40
0.25
 40
0.375
 40
0.375
 40
0.5
 40
0.5
 40
0.75
 40
0.75
 40
1.0
 40
1.0
 40
1.0
 40
1.0
 10
174.6612520175344
 20
115.6647920582557
 30
0.0
 10
174.6125465253923
 20
115.7052139339372
 30
0.0
 10
174.5540364170654
 20
115.7382460554049
 30
0.0
 10
174.4223072987733
 20
115.7515232073578
 30
0.0
 10
174.3575483624327
 20
115.7285696203776
 30
0.0
 10
174.2523373895732
 20
115.659516423458
 30
0.0
 10
174.2091210141332
 20
115.6150487716171
 30
0.0
 10
174.1329425090213
 20
115.5218791122471
 30
0.0
 10
174.1000875476414
 20
115.4727367426863
 30
0.0
 10
174.0097192678076
 20
115.3215270077464
 30
0.0
 10
173.9602960334376
 20
115.2153722382182
 30
0.0
 10
173.8726475783894
 20
115.0017906225567
 30
0.0
 10
173.8345884061866
 20
114.8938181913214
 30
0.0
 10
173.800144588841
 20
114.7853584297675
 30
0.0
  0
SPLINE
  5
FD
330
1F
100
AcDbEntity
  8
0
  6
HIDDEN
 62
     7
370
     0
100
AcDbSpline
210
0.0
220
0.0
230
1.0
 70
     8
 71
     3
 72
     8
 73
     4
 74
     0
 42
0.00000001
 43
0.00000001
 12
1.0
 22
0.0
 32
0.0
 13
1.0
 23
0.0
 33
0.0
 40
0.0
 40
0.0
 40
0.0
 40
0.0
 40
1.0
 40
1.0
 40
1.0
 40
1.0
 10
173.8001445888404
 20
114.7853584297669
 30
0.0
 10
173.7758308849503
 20
114.7087972722169
 30
0.0
 10
173.7543342429942
 20
114.6323719010837
 30
0.0
 10
173.7349085628443
 20
114.5562790303119
 30
0.0
  0
SPLINE
  5
FE
330
1F
100
AcDbEntity
  8
0
  6
HIDDEN
 62
     7
370
     0
100
AcDbSpline
210
0.0
220
0.0
230
1.0
 70
     8
 71
     3
 72
     8
 73
     4
 74
     0
 42
0.00000001
 43
0.00000001
 12
1.0
 22
0.0
 32
0.0
 13
1.0
 23
0.0
 33
0.0
 40
0.0
 40
0.0
 40
0.0
 40
0.0
 40
1.0
 40
1.0
 40
1.0
 40
1.0
 10
173.7349085628443
 20
110.7847343399136
 30
0.0
 10
173.7543339897376
 20
110.7812371363263
 30
0.0
 10
173.7758305437066
 20
110.779220818684
 30
0.0
 10
173.800144588841
 20
110.7786099652402
 30
0.0
  0
SPLINE
  5
FF
330
1F
100
AcDbEntity
  8
0
  6
HIDDEN
 62
     7
370
     0
100
AcDbSpline
210
0.0
220
0.0
230
1.0
 70
     8
 71
     3
 72
     8
 73
     4
 74
     0
 42
0.00000001
 43
0.00000001
 12
1.0
 22
0.0
 32
0.0
 13
1.0
 23
0.0
 33
0.0
 40
0.0
 40
0.0
 40
0.0
 40
0.0
 40
1.0
 40
1.0
 40
1.0
 40
1.0
 10
174.833377893298
 20
110.689251574182
 30
0.0
 10
174.8523148254638
 20
110.6612971367805
 30
0.0
 10
174.8562289064041
 20
110.6412132854242
 30
0.0
 10
174.8562289064041
 20
110.6249864412588
 30
0.0
  0
LINE
  5
100
330
1F
100
AcDbEntity
  8
0
  6
HIDDEN
 62
     7
370
     0
100
AcDbLine
 10
174.8562289115
 20
110.5199783727
 30
0.0
 11
174.8562289115
 21
110.6249868557
 31
0.0
  0
LINE
  5
101
330
1F
100
AcDbEntity
  8
0
  6
HIDDEN
 62
     7
370
     0
100
AcDbLine
 10
174.8562289115
 20
138.5946098402
 30
0.0
 11
174.8562289115
 21
138.6996183231
 31
0.0
  0
SPLINE
  5
102
330
1F
100
AcDbEntity
  8
0
  6
HIDDEN
 62
     7
370
     0
100
AcDbSpline
210
0.0
220
0.0
230
1.0
 70
     8
 71
     3
 72
    10
 73
     6
 74
     0
 42
0.00000001
 43
0.00000001
 12
1.0
 22
0.0
 32
0.0
 13
1.0
 23
0.0
 33
0.0
 40
0.0
 40
0.0
 40
0.0
 40
0.0
 40
0.5
 40
0.5
 40
1.0
 40
1.0
 40
1.0
 40
1.0
 10
174.8562289064039
 20
138.5946102545789
 30
0.0
 10
174.8562289064039
 20
138.5844840544588
 30
0.0
 10
174.8542203273585
 20
138.572723461905
 30
0.0
 10
174.843037099453
 20
138.5447422471547
 30
0.0
 10
174.8347359657785
 20
138.528761932817
 30
0.0
 10
174.8158895765363
 20
138.5084058507894
 30
0.0
  0
SPLINE
  5
103
330
1F
100
AcDbEntity
  8
0
  6
HIDDEN
 62
     7
370
     0
100
AcDbSpline
210
0.0
220
0.0
230
1.0
 70
     8
 71
     3
 72
     8
 73
     4
 74
     0
 42
0.00000001
 43
0.00000001
 12
1.0
 22
0.0
 32
0.0
 13
1.0
 23
0.0
 33
0.0
 40
0.0
 40
0.0
 40
0.0
 40
0.0
 40
1.0
 40
1.0
 40
1.0
 40
1.0
 10
173.8001445888406
 20
138.4409867305973
 30
0.0
 10
173.7758305437064
 20
138.4403758771534
 30
0.0
 10
173.7543339897375
 20
138.4383595595112
 30
0.0
 10
173.7349085628443
 20
138.4348623559239
 30
0.0
  0
SPLINE
  5
104
330
1F
100
AcDbEntity
  8
0
  6
HIDDEN
 62
     7
370
     0
100
AcDbSpline
210
0.0
220
0.0
230
1.0
 70
     8
 71
     3
 72
     8
 73
     4
 74
     0
 42
0.00000001
 43
0.00000001
 12
1.0
 22
0.0
 32
0.0
 13
1.0
 23
0.0
 33
0.0
 40
0.0
 40
0.0
 40
0.0
 40
0.0
 40
1.0
 40
1.0
 40
1.0
 40
1.0
 10
173.7349085628443
 20
134.6633176655255
 30
0.0
 10
173.7543342429942
 20
134.5872247947538
 30
0.0
 10
173.7758308849503
 20
134.5107994236206
 30
0.0
 10
173.8001445888404
 20
134.4342382660706
 30
0.0
  0
SPLINE
  5
105
330
1F
100
AcDbEntity
  8
0
  6
HIDDEN
 62
     7
370
     0
100
AcDbSpline
210
0.0
220
0.0
230
1.0
 70
     8
 71
     3
 72
    62
 73
    58
 74
     0
 42
0.00000001
 43
0.00000001
 12
1.0
 22
0.0
 32
0.0
 13
1.0
 23
0.0
 33
0.0
 40
-0.03125
 40
-0.03125
 40
0.0
 40
0.0
 40
0.0312499999999999
 40
0.0312499999999999
 40
0.0624999999999998
 40
0.0624999999999998
 40
0.0937499999999997
 40
0.0937499999999997
 40
0.1249999999999996
 40
0.1249999999999996
 40
0.1874999999999994
 40
0.1874999999999994
 40
0.2187499999999994
 40
0.2187499999999994
 40
0.2499999999999993
 40
0.2499999999999993
 40
0.2812499999999993
 40
0.2812499999999993
 40
0.3124999999999992
 40
0.3124999999999992
 40
0.3437499999999992
 40
0.3437499999999992
 40
0.3749999999999992
 40
0.3749999999999992
 40
0.4062499999999991
 40
0.4062499999999991
 40
0.4374999999999991
 40
0.4374999999999991
 40
0.4687499999999991
 40
0.4687499999999991
 40
0.499999999999999
 40
0.499999999999999
 40
0.5624999999999989
 40
0.5624999999999989
 40
0.593749999999999
 40
0.593749999999999
 40
0.6249999999999991
 40
0.6249999999999991
 40
0.6874999999999994
 40
0.6874999999999994
 40
0.7187499999999994
 40
0.7187499999999994
 40
0.7499999999999994
 40
0.7499999999999994
 40
0.7812499999999994
 40
0.7812499999999994
 40
0.8124999999999994
 40
0.8124999999999994
 40
0.8749999999999996
 40
0.8749999999999996
 40
0.9062499999999998
 40
0.9062499999999998
 40
0.9374999999999999
 40
0.9374999999999999
 40
0.96875
 40
0.96875
 40
1.0
 40
1.0
 40
1.03125
 40
1.03125
 10
189.1960704522059
 20
120.6230952735012
 30
0.0
 10
188.9163873606024
 20
120.6230952735012
 30
0.0
 10
188.7791034036449
 20
120.6343836633458
 30
0.0
 10
188.5093676487935
 20
120.6786555587858
 30
0.0
 10
188.3754856296979
 20
120.7122301458661
 30
0.0
 10
188.1217390712999
 20
120.7997746242492
 30
0.0
 10
188.0015534095573
 20
120.8534754999346
 30
0.0
 10
187.7740908180435
 20
120.9814522486505
 30
0.0
 10
187.6672756125819
 20
121.0558411784817
 30
0.0
 10
187.3790310152573
 20
121.3026279939698
 30
0.0
 10
187.222910316356
 20
121.5052371805273
 30
0.0
 10
187.0651948555138
 20
121.8440560109392
 30
0.0
 10
187.0242856264062
 20
121.9648775412356
 30
0.0
 10
186.9699087213839
 20
122.2139423218647
 30
0.0
 10
186.9563212534943
 20
122.3410702446881
 30
0.0
 10
186.9561374885067
 20
122.600649470012
 30
0.0
 10
186.9700235247129
 20
122.734077222065
 30
0.0
 10
187.0241106092635
 20
122.9941268766744
 30
0.0
 10
187.0641193653085
 20
123.1221493974503
 30
0.0
 10
187.1704656398908
 20
123.3737651585819
 30
0.0
 10
187.2356649148083
 20
123.4943727118506
 30
0.0
 10
187.3873723188465
 20
123.7219276224424
 30
0.0
 10
187.4751729934865
 20
123.8304456012046
 30
0.0
 10
187.6685109028498
 20
124.0281606310954
 30
0.0
 10
187.7734592888614
 20
124.1172149395362
 30
0.0
 10
188.0001872988075
 20
124.2751617135543
 30
0.0
 10
188.1229590497895
 20
124.344197681817
 30
0.0
 10
188.3756375220149
 20
124.4547582967253
 30
0.0
 10
188.5066184935156
 20
124.4972451106509
 30
0.0
 10
188.7784068647643
 20
124.5550831934503
 30
0.0
 10
188.9176404750986
 20
124.5697441753423
 30
0.0
 10
189.3308242578969
 20
124.5699239301807
 30
0.0
 10
189.6089000026117
 20
124.5105907549668
 30
0.0
 10
189.988968830643
 20
124.3444990157332
 30
0.0
 10
190.1117370725851
 20
124.2754807053755
 30
0.0
 10
190.3384232384714
 20
124.1176680694205
 30
0.0
 10
190.4435913470168
 20
124.0285247952913
 30
0.0
 10
190.7346778427469
 20
123.7308465219479
 30
0.0
 10
190.888608364975
 20
123.4998440494022
 30
0.0
 10
191.0480399677248
 20
123.1229688889841
 30
0.0
 10
191.0880411652803
 20
122.9951651192482
 30
0.0
 10
191.1422003862097
 20
122.735630697104
 30
0.0
 10
191.1562232927591
 20
122.6022949941005
 30
0.0
 10
191.1562345165958
 20
122.3422099581206
 30
0.0
 10
191.1426935633968
 20
122.2149656072845
 30
0.0
 10
191.088475476787
 20
121.9659081298101
 30
0.0
 10
191.0475955221806
 20
121.8448730147202
 30
0.0
 10
190.8896274450048
 20
121.50520454223
 30
0.0
 10
190.7335994876499
 20
121.3027379671885
 30
0.0
 10
190.4448523683247
 20
121.0555777493312
 30
0.0
 10
190.3376375335957
 20
120.9810069624405
 30
0.0
 10
190.1107841266458
 20
120.853442831033
 30
0.0
 10
189.9907666144059
 20
120.7997919242787
 30
0.0
 10
189.7369484069518
 20
120.7122211594678
 30
0.0
 10
189.6030813629004
 20
120.6786555454037
 30
0.0
 10
189.3334141210061
 20
120.6343920330073
 30
0.0
 10
189.1960704522059
 20
120.6230952735012
 30
0.0
 10
188.9163873606024
 20
120.6230952735012
 30
0.0
  0
SPLINE
  5
106
330
1F
100
AcDbEntity
  8
0
  6
HIDDEN
 62
     7
370
     0
100
AcDbSpline
210
0.0
220
0.0
230
1.0
 70
     8
 71
     3
 72
    16
 73
    12
 74
     0
 42
0.00000001
 43
0.00000001
 12
1.0
 22
0.0
 32
0.0
 13
1.0
 23
0.0
 33
0.0
 40
0.0
 40
0.0
 40
0.0
 40
0.0
 40
0.2499999999999986
 40
0.2499999999999986
 40
0.3749999999999988
 40
0.3749999999999988
 40
0.4999999999999991
 40
0.4999999999999991
 40
0.7499999999999996
 40
0.7499999999999996
 40
1.0
 40
1.0
 40
1.0
 40
1.0
 10
187.2478930213005
 20
119.9654895047717
 30
0.0
 10
187.2045216171134
 20
119.9651196550596
 30
0.0
 10
187.1671331891997
 20
119.9653998864826
 30
0.0
 10
187.1272066221289
 20
119.9410104201636
 30
0.0
 10
187.1167461648783
 20
119.928359441485
 30
0.0
 10
187.1042136880563
 20
119.8832067279836
 30
0.0
 10
187.1023853677624
 20
119.8492835008357
 30
0.0
 10
187.1132657471997
 20
119.7122008926218
 30
0.0
 10
187.1420643167365
 20
119.5737313526032
 30
0.0
 10
187.2232728483936
 20
119.2860626280128
 30
0.0
 10
187.2753437607153
 20
119.1361803575078
 30
0.0
 10
187.3350837947888
 20
118.989724516308
 30
0.0
  0
SPLINE
  5
107
330
1F
100
AcDbEntity
  8
0
  6
HIDDEN
 62
     7
370
     0
100
AcDbSpline
210
0.0
220
0.0
230
1.0
 70
     8
 71
     3
 72
    68
 73
    64
 74
     0
 42
0.00000001
 43
0.00000001
 12
1.0
 22
0.0
 32
0.0
 13
1.0
 23
0.0
 33
0.0
 40
0.0
 40
0.0
 40
0.0
 40
0.0
 40
0.0312499999999996
 40
0.0312499999999996
 40
0.0468749999999994
 40
0.0468749999999994
 40
0.0624999999999992
 40
0.0624999999999992
 40
0.0937499999999991
 40
0.0937499999999991
 40
0.1249999999999989
 40
0.1249999999999989
 40
0.1562499999999987
 40
0.1562499999999987
 40
0.1874999999999986
 40
0.1874999999999986
 40
0.2187499999999984
 40
0.2187499999999984
 40
0.2499999999999983
 40
0.2499999999999983
 40
0.2812499999999981
 40
0.2812499999999981
 40
0.3124999999999979
 40
0.3124999999999979
 40
0.3749999999999978
 40
0.3749999999999978
 40
0.4062499999999977
 40
0.4062499999999977
 40
0.4374999999999976
 40
0.4374999999999976
 40
0.4687499999999974
 40
0.4687499999999974
 40
0.4843749999999974
 40
0.4843749999999974
 40
0.4999999999999974
 40
0.4999999999999974
 40
0.5312499999999976
 40
0.5312499999999976
 40
0.5624999999999977
 40
0.5624999999999977
 40
0.6249999999999977
 40
0.6249999999999977
 40
0.6562499999999978
 40
0.6562499999999978
 40
0.6874999999999978
 40
0.6874999999999978
 40
0.7187499999999978
 40
0.7187499999999978
 40
0.749999999999998
 40
0.749999999999998
 40
0.8124999999999987
 40
0.8124999999999987
 40
0.8437499999999989
 40
0.8437499999999989
 40
0.8749999999999991
 40
0.8749999999999991
 40
0.9062499999999994
 40
0.9062499999999994
 40
0.9374999999999997
 40
0.9374999999999997
 40
0.9687499999999999
 40
0.9687499999999999
 40
1.0
 40
1.0
 40
1.0
 40
1.0
 10
187.3350837947888
 20
118.9897245163079
 30
0.0
 10
187.4160830530438
 20
118.9075589819675
 30
0.0
 10
187.510462857921
 20
118.8278275996996
 30
0.0
 10
187.6791066651697
 20
118.7045528267505
 30
0.0
 10
187.73892740691
 20
118.6635072608846
 30
0.0
 10
187.8669662122904
 20
118.5804785161918
 30
0.0
 10
187.9353181296416
 20
118.5384862492269
 30
0.0
 10
188.1420144075755
 20
118.4183951064461
 30
0.0
 10
188.2865308749987
 20
118.3435919379697
 30
0.0
 10
188.5695551573511
 20
118.2196350172891
 30
0.0
 10
188.7124874872617
 20
118.1684063263303
 30
0.0
 10
188.9953500702457
 20
118.0930768612752
 30
0.0
 10
189.1360881566304
 20
118.0683698215599
 30
0.0
 10
189.4202757646867
 20
118.0481204260993
 30
0.0
 10
189.5643755782269
 20
118.0530003682697
 30
0.0
 10
189.8451593212509
 20
118.0975203129347
 30
0.0
 10
189.9847615709364
 20
118.1374755921838
 30
0.0
 10
190.2528566959984
 20
118.2574618407291
 30
0.0
 10
190.3789818548531
 20
118.3359641740274
 30
0.0
 10
190.6139570831313
 20
118.5359345969196
 30
0.0
 10
190.7164454131876
 20
118.6520765170282
 30
0.0
 10
190.8925774068686
 20
118.9159713745211
 30
0.0
 10
190.9639396243489
 20
119.0613721644469
 30
0.0
 10
191.1255793562485
 20
119.5144171747751
 30
0.0
 10
191.1631852988193
 20
119.8394663355186
 30
0.0
 10
191.151126756957
 20
120.2933358378292
 30
0.0
 10
191.136183843426
 20
120.44026979009
 30
0.0
 10
191.0916180964483
 20
120.7246800365764
 30
0.0
 10
191.0620130862636
 20
120.8604229389858
 30
0.0
 10
191.0009469870392
 20
121.1096900605738
 30
0.0
 10
190.9686790028086
 20
121.2257968569035
 30
0.0
 10
190.9380145873102
 20
121.3642167471913
 30
0.0
 10
190.9308131121134
 20
121.4049646835597
 30
0.0
 10
190.9256412461165
 20
121.4692333469641
 30
0.0
 10
190.9275421609583
 20
121.4930472555081
 30
0.0
 10
190.9452216669372
 20
121.5413425570635
 30
0.0
 10
190.9720559838717
 20
121.5416567144268
 30
0.0
 10
191.0297572325586
 20
121.505384481766
 30
0.0
 10
191.0603309958796
 20
121.4690915842325
 30
0.0
 10
191.1368046712399
 20
121.3261974738418
 30
0.0
 10
191.1688887559629
 20
121.1829029328672
 30
0.0
 10
191.1425285672926
 20
120.917962879239
 30
0.0
 10
191.1210795046184
 20
120.8191103250558
 30
0.0
 10
191.0468596128631
 20
120.6093587775466
 30
0.0
 10
190.9932804731657
 20
120.4963228074097
 30
0.0
 10
190.8512331918986
 20
120.2656892490675
 30
0.0
 10
190.7643141059979
 20
120.149860500694
 30
0.0
 10
190.5552140523203
 20
119.9195962801936
 30
0.0
 10
190.4392195231743
 20
119.8119193506622
 30
0.0
 10
190.0588990167371
 20
119.5109509701774
 30
0.0
 10
189.7799612482209
 20
119.3545436549543
 30
0.0
 10
189.3689902282968
 20
119.1922856378055
 30
0.0
 10
189.2305998913485
 20
119.1491759037385
 30
0.0
 10
188.9572888857618
 20
119.0873767853281
 30
0.0
 10
188.8224946162179
 20
119.068336322212
 30
0.0
 10
188.5514982990091
 20
119.057815867173
 30
0.0
 10
188.4151346456022
 20
119.0663258108171
 30
0.0
 10
188.1417402854465
 20
119.1250259186125
 30
0.0
 10
188.0034747436909
 20
119.1763118636895
 30
0.0
 10
187.7373984120537
 20
119.3390465453008
 30
0.0
 10
187.6156473462545
 20
119.4477244514482
 30
0.0
 10
187.407777620743
 20
119.6916315014311
 30
0.0
 10
187.3215241951289
 20
119.8242935801701
 30
0.0
 10
187.2478930213003
 20
119.9654895047716
 30
0.0
  0
LWPOLYLINE
  5
108
330
1F
100
AcDbEntity
  8
0
  6
HIDDEN
 62
     7
370
     0
100
AcDbPolyline
 90
       29
 70
   128
 43
0.0
 10
189.0562293385
 20
117.5061414636
 10
189.5235232343
 20
117.5556179754
 10
189.9673850541
 20
117.7015650704
 10
190.3655571197
 20
117.9366653472
 10
190.6980746691
 20
118.2491296589
 10
190.9482633029
 20
118.6232899002
 10
191.1035781061
 20
119.0403836466
 10
191.1562294965
 20
119.4794961869
 10
191.1035781061
 20
119.9186087273
 10
190.9482633029
 20
120.3357024736
 10
190.6980746691
 20
120.709862715
 10
190.3655571197
 20
121.0223267939
 10
189.9673850541
 20
121.2574270706
 10
189.5235232343
 20
121.4033746313
 10
189.0562293385
 20
121.4528506774
 10
188.5889345114
 20
121.4033746313
 10
188.1450726916
 20
121.2574270706
 10
187.746900626
 20
121.0223267939
 10
187.4143830766
 20
120.709862715
 10
187.1641944428
 20
120.3357024736
 10
187.008880571
 20
119.9186087273
 10
186.9562291806
 20
119.4794961869
 10
187.008880571
 20
119.0403836466
 10
187.1641944428
 20
118.6232899002
 10
187.4143830766
 20
118.2491296589
 10
187.746900626
 20
117.9366653472
 10
188.1450726916
 20
117.7015650704
 10
188.5889345114
 20
117.5556179754
 10
189.0562293385
 20
117.5061414636
  0
LINE
  5
109
330
1F
100
AcDbEntity
  8
0
  6
HIDDEN
 62
     7
370
     0
100
AcDbLine
 10
174.8562289115
 20
110.6249868557
 30
0.0
 11
174.8562289115
 21
119.1043534003
 31
0.0
  0
LINE
  5
10A
330
1F
100
AcDbEntity
  8
0
  6
HIDDEN
 62
     7
370
     0
100
AcDbLine
 10
174.8562289115
 20
130.1152432955
 30
0.0
 11
174.8562289115
 21
138.5946098402
 31
0.0
  0
LWPOLYLINE
  5
10B
330
1F
100
AcDbEntity
  8
0
  6
HIDDEN
 62
     7
370
     0
100
AcDbPolyline
 90
        9
 70
   128
 43
0.0
 10
187.3350837534
 20
118.9897243552
 10
187.2250964199
 20
118.9674457222
 10
187.1410166179
 20
118.9901890851
 10
187.0849472736
 20
119.0573858715
 10
187.0582928215
 20
119.1673550442
 10
187.061718226
 20
119.3173445448
 10
187.0951396679
 20
119.5036025405
 10
187.1577198883
 20
119.7214677617
 10
187.2478933339
 20
119.965489643
  0
CIRCLE
  5
10C
330
1F
100
AcDbEntity
  8
0
  6
HIDDEN
 62
     7
370
     0
100
AcDbCircle
 10
163.5562289064
 20
124.6097983479
 30
0.0
 40
2.299999999999997
  0
LINE
  5
10D
330
1F
100
AcDbEntity
  8
0
  6
HIDDEN
 62
     7
370
     0
100
AcDbLine
 10
152.0832614308
 20
134.1724918842
 30
0.0
 11
152.0832614308
 21
115.0471048116
 31
0.0
  0
LINE
  5
10E
330
1F
100
AcDbEntity
  8
0
  6
HIDDEN
 62
     7
370
     0
100
AcDbLine
 10
151.0562286978
 20
114.4541475609
 30
0.0
 11
151.0562286978
 21
134.7528250575
 31
0.0
  0
LINE
  5
10F
330
1F
100
AcDbEntity
  8
0
  6
HIDDEN
 62
     7
370
     0
100
AcDbLine
 10
155.5832610731
 20
133.8407380193
 30
0.0
 11
155.5832610731
 21
115.3788586765
 31
0.0
  0
LINE
  5
110
330
1F
100
AcDbEntity
  8
0
  6
HIDDEN
 62
     7
370
     0
100
AcDbLine
 10
158.9832608854
 20
133.6097979605
 30
0.0
 11
158.9832608854
 21
115.6097987353
 31
0.0
  0
LINE
  5
111
330
1F
100
AcDbEntity
  8
0
  6
HIDDEN
 62
     7
370
     0
100
AcDbLine
 10
154.1832615887
 20
133.6097979605
 30
0.0
 11
154.1832615887
 21
115.6097987353
 31
0.0
  0
LINE
  5
112
330
1F
100
AcDbEntity
  8
0
  6
HIDDEN
 62
     7
370
     0
100
AcDbLine
 10
155.1832617526
 20
133.6097979605
 30
0.0
 11
155.1832617526
 21
115.6097987353
 31
0.0
  0
SPLINE
  5
113
330
1F
100
AcDbEntity
  8
0
  6
HIDDEN
 62
     7
370
     0
100
AcDbSpline
210
0.0
220
0.0
230
1.0
 70
     8
 71
     3
 72
    14
 73
    10
 74
     0
 42
0.00000001
 43
0.00000001
 12
1.0
 22
0.0
 32
0.0
 13
1.0
 23
0.0
 33
0.0
 40
0.0
 40
0.0
 40
0.0
 40
0.0
 40
0.25
 40
0.25
 40
0.5
 40
0.5
 40
0.75
 40
0.75
 40
1.0
 40
1.0
 40
1.0
 40
1.0
 10
165.556228906404
 20
125.7455800170788
 30
0.0
 10
165.6544532529069
 20
125.5726165872753
 30
0.0
 10
165.729768090891
 20
125.3875840328509
 30
0.0
 10
165.8307348010854
 20
125.0045718187164
 30
0.0
 10
165.8561103873755
 20
124.8098532652508
 30
0.0
 10
165.8563466126418
 20
124.4124779639852
 30
0.0
 10
165.8306435433063
 20
124.2149856295098
 30
0.0
 10
165.7303234297898
 20
123.8338137948788
 30
0.0
 10
165.6544316017022
 20
123.6469419829062
 30
0.0
 10
165.5562289064085
 20
123.4740166787563
 30
0.0
  0
LINE
  5
114
330
1F
100
AcDbEntity
  8
0
  6
HIDDEN
 62
     7
370
     0
100
AcDbLine
 10
166.0562292938
 20
133.1097978785
 30
0.0
 11
166.0562292938
 21
116.109797886
 31
0.0
  0
SPLINE
  5
115
330
1F
100
AcDbEntity
  8
0
  6
HIDDEN
 62
     7
370
     0
100
AcDbSpline
210
0.0
220
0.0
230
1.0
 70
     8
 71
     3
 72
    14
 73
    10
 74
     0
 42
0.00000001
 43
0.00000001
 12
1.0
 22
0.0
 32
0.0
 13
1.0
 23
0.0
 33
0.0
 40
0.0
 40
0.0
 40
0.0
 40
0.0
 40
0.25
 40
0.25
 40
0.5
 40
0.5
 40
0.75
 40
0.75
 40
1.0
 40
1.0
 40
1.0
 40
1.0
 10
165.556228906404
 20
123.4740166787587
 30
0.0
 10
165.6544532529069
 20
123.6469801085622
 30
0.0
 10
165.729768090891
 20
123.8320126629866
 30
0.0
 10
165.8307348010854
 20
124.2150248771211
 30
0.0
 10
165.8561103873755
 20
124.4097434305867
 30
0.0
 10
165.8563466126418
 20
124.8071187318523
 30
0.0
 10
165.8306435433063
 20
125.0046110663277
 30
0.0
 10
165.7303234297898
 20
125.3857829009587
 30
0.0
 10
165.6544316017022
 20
125.5726547129313
 30
0.0
 10
165.5562289064085
 20
125.7455800170812
 30
0.0
  0
SPLINE
  5
116
330
1F
100
AcDbEntity
  8
0
  6
HIDDEN
 62
     7
370
     0
100
AcDbSpline
210
0.0
220
0.0
230
1.0
 70
     8
 71
     3
 72
    60
 73
    56
 74
     0
 42
0.00000001
 43
0.00000001
 12
1.0
 22
0.0
 32
0.0
 13
1.0
 23
0.0
 33
0.0
 40
0.0
 40
0.0
 40
0.0
 40
0.0
 40
0.0625000000000004
 40
0.0625000000000004
 40
0.1250000000000009
 40
0.1250000000000009
 40
0.1875000000000013
 40
0.1875000000000013
 40
0.2187500000000013
 40
0.2187500000000013
 40
0.2500000000000013
 40
0.2500000000000013
 40
0.3125000000000009
 40
0.3125000000000009
 40
0.3750000000000004
 40
0.3750000000000004
 40
0.4062500000000003
 40
0.4062500000000003
 40
0.4375000000000003
 40
0.4375000000000003
 40
0.4687500000000002
 40
0.4687500000000002
 40
0.5000000000000001
 40
0.5000000000000001
 40
0.5312500000000001
 40
0.5312500000000001
 40
0.5625000000000001
 40
0.5625000000000001
 40
0.5937500000000001
 40
0.5937500000000001
 40
0.6250000000000001
 40
0.6250000000000001
 40
0.6562500000000001
 40
0.6562500000000001
 40
0.6875000000000001
 40
0.6875000000000001
 40
0.7187500000000001
 40
0.7187500000000001
 40
0.75
 40
0.75
 40
0.78125
 40
0.78125
 40
0.8125
 40
0.8125
 40
0.84375
 40
0.84375
 40
0.875
 40
0.875
 40
0.90625
 40
0.90625
 40
0.9375
 40
0.9375
 40
0.96875
 40
0.96875
 40
1.0
 40
1.0
 40
1.0
 40
1.0
 10
165.556228906404
 20
123.4740166787587
 30
0.0
 10
165.4310390048253
 20
123.2535695541431
 30
0.0
 10
165.2741716862571
 20
123.0598358253228
 30
0.0
 10
164.8971341664383
 20
122.7241461265603
 30
0.0
 10
164.6854208600172
 20
122.5901687682476
 30
0.0
 10
164.2195308780685
 20
122.3930420235625
 30
0.0
 10
163.9736916470169
 20
122.3338246113406
 30
0.0
 10
163.5942105939224
 20
122.3066178754499
 30
0.0
 10
163.4664648652284
 20
122.3081111405918
 30
0.0
 10
163.2159986185603
 20
122.3316269464007
 30
0.0
 10
163.0921692357521
 20
122.353546165205
 30
0.0
 10
162.7249495616535
 20
122.4503827300499
 30
0.0
 10
162.4941805435677
 20
122.5541838515017
 30
0.0
 10
162.0742915821482
 20
122.8329023324297
 30
0.0
 10
161.8900332072606
 20
123.0044646239334
 30
0.0
 10
161.6592848197773
 20
123.3031119852002
 30
0.0
 10
161.5902379699884
 20
123.4095795257025
 30
0.0
 10
161.4716733061828
 20
123.6298628740954
 30
0.0
 10
161.4214649374332
 20
123.7445243904968
 30
0.0
 10
161.3396330850754
 20
123.9832050272736
 30
0.0
 10
161.3082821861927
 20
124.1072506541517
 30
0.0
 10
161.2668878081541
 20
124.3553656902601
 30
0.0
 10
161.2563820330898
 20
124.4806033927485
 30
0.0
 10
161.2560790807541
 20
124.7334824483396
 30
0.0
 10
161.2665636103706
 20
124.8613621345762
 30
0.0
 10
161.3077036878321
 20
125.1097841957816
 30
0.0
 10
161.3382818083807
 20
125.23158312255
 30
0.0
 10
161.419564516732
 20
125.4703626520243
 30
0.0
 10
161.4705654032939
 20
125.587404214331
 30
0.0
 10
161.5891324516569
 20
125.8082294122569
 30
0.0
 10
161.6570212049287
 20
125.9131677758197
 30
0.0
 10
161.8101716426663
 20
126.1121451090491
 30
0.0
 10
161.8957278142388
 20
126.2061532342432
 30
0.0
 10
162.078439185198
 20
126.37664591918
 30
0.0
 10
162.1762464848799
 20
126.4540841142293
 30
0.0
 10
162.3850495967969
 20
126.5932500101176
 30
0.0
 10
162.4966317720848
 20
126.6550318191246
 30
0.0
 10
162.7252775715838
 20
126.7581106897254
 30
0.0
 10
162.8432323825549
 20
126.800114724921
 30
0.0
 10
163.0865608275437
 20
126.8648508462178
 30
0.0
 10
163.2129047028867
 20
126.8875241087805
 30
0.0
 10
163.4640106839045
 20
126.9114069049616
 30
0.0
 10
163.5896926776275
 20
126.9130102062283
 30
0.0
 10
163.8413147474193
 20
126.8955434674574
 30
0.0
 10
163.9682123677051
 20
126.8761075768175
 30
0.0
 10
164.2134029339663
 20
126.8175144054938
 30
0.0
 10
164.3325920909997
 20
126.7784515543372
 30
0.0
 10
164.5642771153545
 20
126.6809418322134
 30
0.0
 10
164.677451919705
 20
126.6219064779248
 30
0.0
 10
164.8895303366407
 20
126.4881027610853
 30
0.0
 10
164.9893191153416
 20
126.4131075449406
 30
0.0
 10
165.1765773023305
 20
126.2469124804198
 30
0.0
 10
165.2644723392739
 20
126.1550182816782
 30
0.0
 10
165.4226934149058
 20
125.9596540839639
 30
0.0
 10
165.4936313711975
 20
125.8558081302914
 30
0.0
 10
165.556228906404
 20
125.7455800170788
 30
0.0
  0
SPLINE
  5
117
330
1F
100
AcDbEntity
  8
0
  6
HIDDEN
 62
     7
370
     0
100
AcDbSpline
210
0.0
220
0.0
230
1.0
 70
     8
 71
     3
 72
    60
 73
    56
 74
     0
 42
0.00000001
 43
0.00000001
 12
1.0
 22
0.0
 32
0.0
 13
1.0
 23
0.0
 33
0.0
 40
0.0
 40
0.0
 40
0.0
 40
0.0
 40
0.0625000000000004
 40
0.0625000000000004
 40
0.1250000000000009
 40
0.1250000000000009
 40
0.1875000000000013
 40
0.1875000000000013
 40
0.2187500000000013
 40
0.2187500000000013
 40
0.2500000000000013
 40
0.2500000000000013
 40
0.3125000000000009
 40
0.3125000000000009
 40
0.3750000000000004
 40
0.3750000000000004
 40
0.4062500000000003
 40
0.4062500000000003
 40
0.4375000000000003
 40
0.4375000000000003
 40
0.4687500000000002
 40
0.4687500000000002
 40
0.5000000000000001
 40
0.5000000000000001
 40
0.5312500000000001
 40
0.5312500000000001
 40
0.5625000000000001
 40
0.5625000000000001
 40
0.5937500000000001
 40
0.5937500000000001
 40
0.6250000000000001
 40
0.6250000000000001
 40
0.6562500000000001
 40
0.6562500000000001
 40
0.6875000000000001
 40
0.6875000000000001
 40
0.7187500000000001
 40
0.7187500000000001
 40
0.75
 40
0.75
 40
0.78125
 40
0.78125
 40
0.8125
 40
0.8125
 40
0.84375
 40
0.84375
 40
0.875
 40
0.875
 40
0.90625
 40
0.90625
 40
0.9375
 40
0.9375
 40
0.96875
 40
0.96875
 40
1.0
 40
1.0
 40
1.0
 40
1.0
 10
165.556228906404
 20
125.7455800170788
 30
0.0
 10
165.4310390048253
 20
125.9660271416944
 30
0.0
 10
165.2741716862571
 20
126.1597608705147
 30
0.0
 10
164.8971341664383
 20
126.4954505692772
 30
0.0
 10
164.6854208600172
 20
126.6294279275899
 30
0.0
 10
164.2195308780685
 20
126.826554672275
 30
0.0
 10
163.9736916470169
 20
126.8857720844969
 30
0.0
 10
163.5942105939224
 20
126.9129788203876
 30
0.0
 10
163.4664648652284
 20
126.9114855552457
 30
0.0
 10
163.2159986185603
 20
126.8879697494367
 30
0.0
 10
163.0921692357521
 20
126.8660505306325
 30
0.0
 10
162.7249495616535
 20
126.7692139657876
 30
0.0
 10
162.4941805435677
 20
126.6654128443358
 30
0.0
 10
162.0742915821482
 20
126.3866943634078
 30
0.0
 10
161.8900332072606
 20
126.2151320719041
 30
0.0
 10
161.6592848197773
 20
125.9164847106373
 30
0.0
 10
161.5902379699884
 20
125.810017170135
 30
0.0
 10
161.4716733061828
 20
125.589733821742
 30
0.0
 10
161.4214649374332
 20
125.4750723053406
 30
0.0
 10
161.3396330850754
 20
125.2363916685639
 30
0.0
 10
161.3082821861927
 20
125.1123460416858
 30
0.0
 10
161.2668878081541
 20
124.8642310055774
 30
0.0
 10
161.2563820330898
 20
124.738993303089
 30
0.0
 10
161.2560790807541
 20
124.4861142474979
 30
0.0
 10
161.2665636103706
 20
124.3582345612613
 30
0.0
 10
161.3077036878321
 20
124.1098125000559
 30
0.0
 10
161.3382818083807
 20
123.9880135732875
 30
0.0
 10
161.419564516732
 20
123.7492340438131
 30
0.0
 10
161.4705654032939
 20
123.6321924815065
 30
0.0
 10
161.5891324516569
 20
123.4113672835806
 30
0.0
 10
161.6570212049287
 20
123.3064289200178
 30
0.0
 10
161.8101716426663
 20
123.1074515867884
 30
0.0
 10
161.8957278142388
 20
123.0134434615942
 30
0.0
 10
162.078439185198
 20
122.8429507766575
 30
0.0
 10
162.1762464848799
 20
122.7655125816082
 30
0.0
 10
162.3850495967969
 20
122.6263466857199
 30
0.0
 10
162.4966317720848
 20
122.5645648767129
 30
0.0
 10
162.7252775715838
 20
122.4614860061121
 30
0.0
 10
162.8432323825549
 20
122.4194819709164
 30
0.0
 10
163.0865608275437
 20
122.3547458496196
 30
0.0
 10
163.2129047028867
 20
122.332072587057
 30
0.0
 10
163.4640106839045
 20
122.3081897908758
 30
0.0
 10
163.5896926776275
 20
122.3065864896092
 30
0.0
 10
163.8413147474193
 20
122.32405322838
 30
0.0
 10
163.9682123677051
 20
122.34348911902
 30
0.0
 10
164.2134029339663
 20
122.4020822903436
 30
0.0
 10
164.3325920909997
 20
122.4411451415003
 30
0.0
 10
164.5642771153545
 20
122.5386548636241
 30
0.0
 10
164.677451919705
 20
122.5976902179127
 30
0.0
 10
164.8895303366407
 20
122.7314939347522
 30
0.0
 10
164.9893191153416
 20
122.8064891508969
 30
0.0
 10
165.1765773023305
 20
122.9726842154177
 30
0.0
 10
165.2644723392739
 20
123.0645784141592
 30
0.0
 10
165.4226934149058
 20
123.2599426118736
 30
0.0
 10
165.4936313711975
 20
123.3637885655461
 30
0.0
 10
165.556228906404
 20
123.4740166787587
 30
0.0
  0
LINE
  5
118
330
1F
100
AcDbEntity
  8
0
  6
HIDDEN
 62
     7
370
     0
100
AcDbLine
 10
166.9562286963
 20
130.8597984411
 30
0.0
 11
166.9562286963
 21
118.3597982548
 31
0.0
  0
LINE
  5
119
330
1F
100
AcDbEntity
  8
0
  6
HIDDEN
 62
     7
370
     0
100
AcDbLine
 10
166.0562292938
 20
117.4597983867
 30
0.0
 11
166.0562292938
 21
131.7597983092
 31
0.0
  0
SPLINE
  5
11A
330
1F
100
AcDbEntity
  8
0
  6
HIDDEN
 62
     7
370
     0
100
AcDbSpline
210
0.0
220
0.0
230
1.0
 70
     8
 71
     3
 72
    62
 73
    58
 74
     0
 42
0.00000001
 43
0.00000001
 12
1.0
 22
0.0
 32
0.0
 13
1.0
 23
0.0
 33
0.0
 40
-0.03125
 40
-0.03125
 40
0.0
 40
0.0
 40
0.0312499999999999
 40
0.0312499999999999
 40
0.0624999999999997
 40
0.0624999999999997
 40
0.0937499999999996
 40
0.0937499999999996
 40
0.1249999999999994
 40
0.1249999999999994
 40
0.1874999999999994
 40
0.1874999999999994
 40
0.2187499999999993
 40
0.2187499999999993
 40
0.2499999999999991
 40
0.2499999999999991
 40
0.2812499999999989
 40
0.2812499999999989
 40
0.3124999999999989
 40
0.3124999999999989
 40
0.3437499999999988
 40
0.3437499999999988
 40
0.3749999999999987
 40
0.3749999999999987
 40
0.4062499999999989
 40
0.4062499999999989
 40
0.4374999999999991
 40
0.4374999999999991
 40
0.4687499999999993
 40
0.4687499999999993
 40
0.4999999999999994
 40
0.4999999999999994
 40
0.5624999999999993
 40
0.5624999999999993
 40
0.5937499999999993
 40
0.5937499999999993
 40
0.6249999999999993
 40
0.6249999999999993
 40
0.6874999999999993
 40
0.6874999999999993
 40
0.7187499999999994
 40
0.7187499999999994
 40
0.7499999999999996
 40
0.7499999999999996
 40
0.7812499999999997
 40
0.7812499999999997
 40
0.8124999999999997
 40
0.8124999999999997
 40
0.8749999999999998
 40
0.8749999999999998
 40
0.9062499999999999
 40
0.9062499999999999
 40
0.9374999999999999
 40
0.9374999999999999
 40
0.96875
 40
0.96875
 40
1.0
 40
1.0
 40
1.03125
 40
1.03125
 10
188.9163873606024
 20
124.6497924150354
 30
0.0
 10
189.1960704522058
 20
124.6497924150354
 30
0.0
 10
189.3333544091633
 20
124.6644897726067
 30
0.0
 10
189.6030901640148
 20
124.7216436324085
 30
0.0
 10
189.7369721831103
 20
124.7648505922174
 30
0.0
 10
189.9907187415083
 20
124.8759873834009
 30
0.0
 10
190.1109044032509
 20
124.943578599835
 30
0.0
 10
190.3383669947647
 20
125.1018473453435
 30
0.0
 10
190.4451822002264
 20
125.1926175510413
 30
0.0
 10
190.733426797551
 20
125.4876340734403
 30
0.0
 10
190.8895474964523
 20
125.7221435145759
 30
0.0
 10
191.0472629572944
 20
126.0947058639856
 30
0.0
 10
191.0881721864021
 20
126.2246768386323
 30
0.0
 10
191.1425490914243
 20
126.4860230011384
 30
0.0
 10
191.1561365593139
 20
126.6163008114355
 30
0.0
 10
191.1563203243016
 20
126.8759222728431
 30
0.0
 10
191.1424342880954
 20
127.006132051865
 30
0.0
 10
191.0883472035447
 20
127.2539656233196
 30
0.0
 10
191.0483384474997
 20
127.3730318753451
 30
0.0
 10
190.9419921729174
 20
127.6018896303268
 30
0.0
 10
190.8767928979999
 20
127.708952705406
 30
0.0
 10
190.7250854939617
 20
127.9070185386642
 30
0.0
 10
190.6372848193218
 20
127.9993583854559
 30
0.0
 10
190.4439469099584
 20
128.1647369690197
 30
0.0
 10
190.3389985239468
 20
128.237706609966
 30
0.0
 10
190.1122705140008
 20
128.3654343818804
 30
0.0
 10
189.9894987630187
 20
128.4202872463558
 30
0.0
 10
189.7368202907934
 20
128.5073744399433
 30
0.0
 10
189.6058393192927
 20
128.5403916551792
 30
0.0
 10
189.3340509480439
 20
128.5851957326845
 30
0.0
 10
189.1948173377097
 20
128.596455131649
 30
0.0
 10
188.7816335549113
 20
128.5965935712358
 30
0.0
 10
188.5035578101965
 20
128.5513485601717
 30
0.0
 10
188.1234889821653
 20
128.4205267911767
 30
0.0
 10
188.0007207402231
 20
128.3656891815726
 30
0.0
 10
187.7740345743368
 20
128.2380761911681
 30
0.0
 10
187.6688664657914
 20
128.165041619715
 30
0.0
 10
187.3777799700613
 20
127.9160487211057
 30
0.0
 10
187.2238494478332
 20
127.7165472873991
 30
0.0
 10
187.0644178450834
 20
127.3737860715628
 30
0.0
 10
187.0244166475279
 20
127.2549354622654
 30
0.0
 10
186.9702574265985
 20
127.0076319870296
 30
0.0
 10
186.9562345200491
 20
126.8775454954451
 30
0.0
 10
186.9562232962124
 20
126.6174630391241
 30
0.0
 10
186.9697642494114
 20
126.4870795120712
 30
0.0
 10
187.0239823360213
 20
126.2257753366675
 30
0.0
 10
187.0648622906276
 20
126.0955953258906
 30
0.0
 10
187.2228303678034
 20
125.7221253801501
 30
0.0
 10
187.3788583251583
 20
125.4877696328686
 30
0.0
 10
187.6676054444835
 20
125.1923005901347
 30
0.0
 10
187.7748202792125
 20
125.1012996393906
 30
0.0
 10
188.0016736861624
 20
124.9435352078904
 30
0.0
 10
188.1216911984023
 20
124.8760093072416
 30
0.0
 10
188.3755094058564
 20
124.7648392224401
 30
0.0
 10
188.5093764499078
 20
124.7216435946636
 30
0.0
 10
188.7790436918021
 20
124.6645005980859
 30
0.0
 10
188.9163873606024
 20
124.6497924150354
 30
0.0
 10
189.1960704522058
 20
124.6497924150354
 30
0.0
  0
LINE
  5
11B
330
1F
100
AcDbEntity
  8
0
  6
HIDDEN
 62
     7
370
     0
100
AcDbLine
 10
192.0562298303
 20
118.3597982548
 30
0.0
 11
192.0562298303
 21
130.8597984411
 31
0.0
  0
LINE
  5
11C
330
1F
100
AcDbEntity
  8
0
  6
HIDDEN
 62
     7
370
     0
100
AcDbLine
 10
224.2445037966
 20
108.9836416453
 30
0.0
 11
224.2421494131
 21
109.0285472259
 31
0.0
  0
LINE
  5
11D
330
1F
100
AcDbEntity
  8
0
  6
HIDDEN
 62
     7
370
     0
100
AcDbLine
 10
217.8066992467
 20
113.0064271077
 30
0.0
 11
224.2445037966
 21
108.9836416453
 31
0.0
  0
LINE
  5
11E
330
1F
100
AcDbEntity
  8
0
  6
HIDDEN
 62
     7
370
     0
100
AcDbLine
 10
217.8043448632
 20
113.0513326883
 30
0.0
 11
217.8066992467
 21
113.0064271077
 31
0.0
  0
LINE
  5
11F
330
1F
100
AcDbEntity
  8
0
  6
HIDDEN
 62
     7
370
     0
100
AcDbLine
 10
215.2691134517
 20
103.4761594295
 30
0.0
 11
214.6945023244
 21
114.4403630554
 31
0.0
  0
LINE
  5
120
330
1F
100
AcDbEntity
  8
0
  6
HIDDEN
 62
     7
370
     0
100
AcDbLine
 10
217.8066992467
 20
113.0064271077
 30
0.0
 11
217.5478809779
 21
112.8539714649
 31
0.0
  0
LINE
  5
121
330
1F
100
AcDbEntity
  8
0
  6
HIDDEN
 62
     7
370
     0
100
AcDbLine
 10
223.9856855278
 20
108.8311860025
 30
0.0
 11
224.2445037966
 21
108.9836416453
 31
0.0
  0
LINE
  5
122
330
1F
100
AcDbEntity
  8
0
  6
HIDDEN
 62
     7
370
     0
100
AcDbLine
 10
223.9856855278
 20
108.8311860025
 30
0.0
 11
217.5478809779
 21
112.8539714649
 31
0.0
  0
LINE
  5
123
330
1F
100
AcDbEntity
  8
0
  6
HIDDEN
 62
     7
370
     0
100
AcDbLine
 10
217.528505743
 20
113.2236981451
 30
0.0
 11
217.5478809779
 21
112.8539714649
 31
0.0
  0
LINE
  5
124
330
1F
100
AcDbEntity
  8
0
  6
HIDDEN
 62
     7
370
     0
100
AcDbLine
 10
221.2541909223
 20
118.651268693
 30
0.0
 11
223.6938202088
 21
119.4912997693
 31
0.0
  0
LINE
  5
125
330
1F
100
AcDbEntity
  8
0
  6
HIDDEN
 62
     7
370
     0
100
AcDbLine
 10
214.9489992564
 20
114.6752621665
 30
0.0
 11
215.5419239109
 21
103.3616328299
 31
0.0
  0
ELLIPSE
  5
126
330
1F
100
AcDbEntity
  8
0
  6
HIDDEN
 62
     7
370
     0
100
AcDbEllipse
 10
210.1111068981
 20
80.5122400222
 30
0.0
 11
14.22716407804074
 21
24.88519423683426
 31
0.0
210
0.0
220
0.0
230
1.0
 40
0.373927429
 41
0.6664209521096093
 42
0.6724291493466206
  0
ELLIPSE
  5
127
330
1F
100
AcDbEntity
  8
0
  6
HIDDEN
 62
     7
370
     0
100
AcDbEllipse
 10
220.1547761389
 20
124.6097983479
 30
0.0
 11
-14.53612138737915
 21
20.44831832899459
 31
0.0
210
0.0
220
0.0
230
1.0
 40
0.1000778042
 41
6.22679720317905
 42
7.782958861244826
  0
LINE
  5
128
330
1F
100
AcDbEntity
  8
0
  6
HIDDEN
 62
     7
370
     0
100
AcDbLine
 10
198.1549267923
 20
145.1076028555
 30
0.0
 11
198.1549267923
 21
124.6097983479
 31
0.0
  0
SPLINE
  5
129
330
1F
100
AcDbEntity
  8
0
  6
HIDDEN
 62
     7
370
     0
100
AcDbSpline
210
0.0
220
0.0
230
1.0
 70
     8
 71
     3
 72
    12
 73
     8
 74
     0
 42
0.00000001
 43
0.00000001
 12
1.0
 22
0.0
 32
0.0
 13
1.0
 23
0.0
 33
0.0
 40
0.0
 40
0.0
 40
0.0
 40
0.0
 40
0.25
 40
0.25
 40
0.5
 40
0.5
 40
1.0
 40
1.0
 40
1.0
 40
1.0
 10
198.2135999431294
 20
103.992682294287
 30
0.0
 10
198.193820347576
 20
104.0471903518585
 30
0.0
 10
198.1758402484136
 20
104.1017053157243
 30
0.0
 10
198.1549288632102
 20
104.2107929993549
 30
0.0
 10
198.1521781356865
 20
104.2653719128027
 30
0.0
 10
198.1696988131031
 20
104.4289843540372
 30
0.0
 10
198.2183841660151
 20
104.5379480690305
 30
0.0
 10
198.254827744714
 20
104.6469563434921
 30
0.0
  0
LINE
  5
12A
330
1F
100
AcDbEntity
  8
0
  6
HIDDEN
 62
     7
370
     0
100
AcDbLine
 10
223.7950102692
 20
108.9503319621
 30
0.0
 11
223.9856855278
 21
108.8311860025
 31
0.0
  0
LINE
  5
12B
330
1F
100
AcDbEntity
  8
0
  6
HIDDEN
 62
     7
370
     0
100
AcDbLine
 10
215.5419239109
 20
103.3616328299
 30
0.0
 11
215.5320965951
 21
103.5491434544
 31
0.0
  0
SPLINE
  5
12C
330
1F
100
AcDbEntity
  8
0
  6
HIDDEN
 62
     7
370
     0
100
AcDbSpline
210
0.0
220
0.0
230
1.0
 70
     8
 71
     3
 72
     8
 73
     4
 74
     0
 42
0.00000001
 43
0.00000001
 12
1.0
 22
0.0
 32
0.0
 13
1.0
 23
0.0
 33
0.0
 40
0.0
 40
0.0
 40
0.0
 40
0.0
 40
1.0
 40
1.0
 40
1.0
 40
1.0
 10
173.5611889284616
 20
110.8707138167612
 30
0.0
 10
173.6119160716682
 20
110.8249595154359
 30
0.0
 10
173.6698034012291
 20
110.7964553695724
 30
0.0
 10
173.7349085628443
 20
110.7847343399136
 30
0.0
  0
LINE
  5
12D
330
1F
100
AcDbEntity
  8
0
  6
HIDDEN
 62
     7
370
     0
100
AcDbLine
 10
152.5562280123
 20
114.9521872088
 30
0.0
 11
152.5562280123
 21
111.1122678652
 31
0.0
  0
LINE
  5
12E
330
1F
100
AcDbEntity
  8
0
  6
HIDDEN
 62
     7
370
     0
100
AcDbLine
 10
151.0562286978
 20
115.3852000519
 30
0.0
 11
151.0562286978
 21
111.9782935515
 31
0.0
  0
LINE
  5
12F
330
1F
100
AcDbEntity
  8
0
  6
HIDDEN
 62
     7
370
     0
100
AcDbLine
 10
173.3562288839
 20
110.689561969
 30
0.0
 11
173.3562288839
 21
110.5896999746
 31
0.0
  0
SPLINE
  5
130
330
1F
100
AcDbEntity
  8
0
  6
HIDDEN
 62
     7
370
     0
100
AcDbSpline
210
0.0
220
0.0
230
1.0
 70
     8
 71
     3
 72
    24
 73
    20
 74
     0
 42
0.00000001
 43
0.00000001
 12
1.0
 22
0.0
 32
0.0
 13
1.0
 23
0.0
 33
0.0
 40
0.0
 40
0.0
 40
0.0
 40
0.0
 40
0.2499999999999905
 40
0.2499999999999905
 40
0.3749999999999876
 40
0.3749999999999876
 40
0.4374999999999873
 40
0.4374999999999873
 40
0.4687499999999871
 40
0.4687499999999871
 40
0.4999999999999869
 40
0.4999999999999869
 40
0.5624999999999883
 40
0.5624999999999883
 40
0.6249999999999899
 40
0.6249999999999899
 40
0.7499999999999923
 40
0.7499999999999923
 40
1.0
 40
1.0
 40
1.0
 40
1.0
 10
173.3562289064038
 20
110.6895619596036
 30
0.0
 10
173.3566318170393
 20
110.7199861964418
 30
0.0
 10
173.3586757963796
 20
110.7528442969962
 30
0.0
 10
173.367913039205
 20
110.80886966415
 30
0.0
 10
173.3718001021854
 20
110.8284807173355
 30
0.0
 10
173.3827039935909
 20
110.8627550007646
 30
0.0
 10
173.3868460393412
 20
110.8748174262368
 30
0.0
 10
173.3987411130913
 20
110.8971365909346
 30
0.0
 10
173.4039881773983
 20
110.9061031032935
 30
0.0
 10
173.4208552437736
 20
110.9237526678217
 30
0.0
 10
173.428677651303
 20
110.9278969519667
 30
0.0
 10
173.4456264519276
 20
110.9343844931443
 30
0.0
 10
173.4530828031458
 20
110.9337876117726
 30
0.0
 10
173.4671427063391
 20
110.9320413478011
 30
0.0
 10
173.4732750914753
 20
110.9302106599027
 30
0.0
 10
173.4905698539992
 20
110.9236442503301
 30
0.0
 10
173.5005871724084
 20
110.9177790351713
 30
0.0
 10
173.528958506652
 20
110.8990343511407
 30
0.0
 10
173.5454939442968
 20
110.8848702030538
 30
0.0
 10
173.5611889284616
 20
110.8707138167612
 30
0.0
  0
LINE
  5
131
330
1F
100
AcDbEntity
  8
0
  6
HIDDEN
 62
     7
370
     0
100
AcDbLine
 10
173.3562288839
 20
114.6909027978
 30
0.0
 11
173.3562288839
 21
113.6357599556
 31
0.0
  0
SPLINE
  5
132
330
1F
100
AcDbEntity
  8
0
  6
HIDDEN
 62
     7
370
     0
100
AcDbSpline
210
0.0
220
0.0
230
1.0
 70
     8
 71
     3
 72
    16
 73
    12
 74
     0
 42
0.00000001
 43
0.00000001
 12
1.0
 22
0.0
 32
0.0
 13
1.0
 23
0.0
 33
0.0
 40
0.0
 40
0.0
 40
0.0
 40
0.0
 40
0.2499999999999993
 40
0.2499999999999993
 40
0.3749999999999993
 40
0.3749999999999993
 40
0.4999999999999993
 40
0.4999999999999993
 40
0.7499999999999997
 40
0.7499999999999997
 40
1.0
 40
1.0
 40
1.0
 40
1.0
 10
173.3562289064038
 20
113.6357603556722
 30
0.0
 10
173.2756915745044
 20
113.2467531717267
 30
0.0
 10
173.2156542304769
 20
112.8902527301011
 30
0.0
 10
173.1549165233233
 20
112.4037503449123
 30
0.0
 10
173.1395941482104
 20
112.2496714040584
 30
0.0
 10
173.1190113389063
 20
111.9582018455649
 30
0.0
 10
173.1138117418807
 20
111.8206319616658
 30
0.0
 10
173.1137580887009
 20
111.4423871264761
 30
0.0
 10
173.1339556321788
 20
111.232506057924
 30
0.0
 10
173.2146337205375
 20
110.8959267590128
 30
0.0
 10
173.2756798851454
 20
110.7696422670951
 30
0.0
 10
173.3562289064039
 20
110.6895619596037
 30
0.0
  0
LINE
  5
133
330
1F
100
AcDbEntity
  8
0
  6
HIDDEN
 62
     7
370
     0
100
AcDbLine
 10
173.3562288839
 20
138.6298967212
 30
0.0
 11
173.3562288839
 21
138.5300347268
 31
0.0
  0
LINE
  5
134
330
1F
100
AcDbEntity
  8
0
  6
HIDDEN
 62
     7
370
     0
100
AcDbLine
 10
152.5562280123
 20
138.1073288306
 30
0.0
 11
152.5562280123
 21
134.267409487
 31
0.0
  0
LINE
  5
135
330
1F
100
AcDbEntity
  8
0
  6
HIDDEN
 62
     7
370
     0
100
AcDbLine
 10
173.3562288839
 20
135.5838367402
 30
0.0
 11
173.3562288839
 21
134.528693898
 31
0.0
  0
SPLINE
  5
136
330
1F
100
AcDbEntity
  8
0
  6
HIDDEN
 62
     7
370
     0
100
AcDbSpline
210
0.0
220
0.0
230
1.0
 70
     8
 71
     3
 72
    16
 73
    12
 74
     0
 42
0.00000001
 43
0.00000001
 12
1.0
 22
0.0
 32
0.0
 13
1.0
 23
0.0
 33
0.0
 40
0.0
 40
0.0
 40
0.0
 40
0.0
 40
0.25
 40
0.25
 40
0.375
 40
0.375
 40
0.5
 40
0.5
 40
0.75
 40
0.75
 40
1.0
 40
1.0
 40
1.0
 40
1.0
 10
173.3562289064038
 20
138.5300347362336
 30
0.0
 10
173.2756915745045
 20
138.4499660500813
 30
0.0
 10
173.2156542304772
 20
138.3261015585909
 30
0.0
 10
173.1549165233236
 20
138.0754207346589
 30
0.0
 10
173.1395941482106
 20
137.9809821303494
 30
0.0
 10
173.1190113389065
 20
137.7696710627307
 30
0.0
 10
173.1138117418808
 20
137.652381607977
 30
0.0
 10
173.1137580887007
 20
137.2743459362218
 30
0.0
 10
173.1339556321784
 20
136.9855687824777
 30
0.0
 10
173.2146337205364
 20
136.3357289193389
 30
0.0
 10
173.2756798851438
 20
135.9728999854462
 30
0.0
 10
173.3562289064019
 20
135.5838363401746
 30
0.0
  0
SPLINE
  5
137
330
1F
100
AcDbEntity
  8
0
  6
HIDDEN
 62
     7
370
     0
100
AcDbSpline
210
0.0
220
0.0
230
1.0
 70
     8
 71
     3
 72
    24
 73
    20
 74
     0
 42
0.00000001
 43
0.00000001
 12
1.0
 22
0.0
 32
0.0
 13
1.0
 23
0.0
 33
0.0
 40
0.0
 40
0.0
 40
0.0
 40
0.0
 40
0.2500000000000046
 40
0.2500000000000046
 40
0.3750000000000076
 40
0.3750000000000076
 40
0.4375000000000092
 40
0.4375000000000092
 40
0.5000000000000107
 40
0.5000000000000107
 40
0.5312500000000099
 40
0.5312500000000099
 40
0.5625000000000091
 40
0.5625000000000091
 40
0.6250000000000074
 40
0.6250000000000074
 40
0.7500000000000043
 40
0.7500000000000043
 40
1.0
 40
1.0
 40
1.0
 40
1.0
 10
173.5611889284644
 20
138.3488828790787
 30
0.0
 10
173.545422340166
 20
138.3346619080905
 30
0.0
 10
173.5288108072114
 20
138.3204316177556
 30
0.0
 10
173.5002844592534
 20
138.3016345625341
 30
0.0
 10
173.4901990254634
 20
138.2957461421929
 30
0.0
 10
173.4727162549285
 20
138.2892087473905
 30
0.0
 10
173.4665085984829
 20
138.2873975333894
 30
0.0
 10
173.4522370982378
 20
138.2857917308829
 30
0.0
 10
173.4446670277347
 20
138.2852389534968
 30
0.0
 10
173.4272706982994
 20
138.2924376982096
 30
0.0
 10
173.4188114253394
 20
138.2975294469572
 30
0.0
 10
173.4027504607918
 20
138.3153443794364
 30
0.0
 10
173.3979172249455
 20
138.3238667942988
 30
0.0
 10
173.3864913052102
 20
138.3457632309475
 30
0.0
 10
173.3824699493277
 20
138.3575037537534
 30
0.0
 10
173.3717094542966
 20
138.3915540177068
 30
0.0
 10
173.3678351452357
 20
138.4111290067355
 30
0.0
 10
173.3586622731086
 20
138.4669773154167
 30
0.0
 10
173.3566299023938
 20
138.4997550764456
 30
0.0
 10
173.356228906404
 20
138.5300347362335
 30
0.0
  0
LINE
  5
138
330
1F
100
AcDbEntity
  8
0
  6
HIDDEN
 62
     7
370
     0
100
AcDbLine
 10
151.0562286978
 20
137.2413031444
 30
0.0
 11
151.0562286978
 21
133.8343966439
 31
0.0
  0
SPLINE
  5
139
330
1F
100
AcDbEntity
  8
0
  6
HIDDEN
 62
     7
370
     0
100
AcDbSpline
210
0.0
220
0.0
230
1.0
 70
     8
 71
     3
 72
     8
 73
     4
 74
     0
 42
0.00000001
 43
0.00000001
 12
1.0
 22
0.0
 32
0.0
 13
1.0
 23
0.0
 33
0.0
 40
0.0
 40
0.0
 40
0.0
 40
0.0
 40
1.0
 40
1.0
 40
1.0
 40
1.0
 10
173.7349085628443
 20
138.4348623559239
 30
0.0
 10
173.6698034012303
 20
138.4231413262653
 30
0.0
 10
173.6119160716703
 20
138.3946371804026
 30
0.0
 10
173.5611889284643
 20
138.3488828790788
 30
0.0
  0
CIRCLE
  5
13A
330
1F
100
AcDbEntity
  8
0
  6
HIDDEN
 62
     7
370
     0
100
AcDbCircle
 10
219.7960224016
 20
106.2607916835
 30
0.0
 40
2.400000000000006
  0
LINE
  5
13B
330
1F
100
AcDbEntity
  8
0
  6
HIDDEN
 62
     7
370
     0
100
AcDbLine
 10
223.9041985278
 20
98.8511686831
 30
0.0
 11
224.3117601876
 21
99.0901423305
 31
0.0
  0
LINE
  5
13C
330
1F
100
AcDbEntity
  8
0
  6
HIDDEN
 62
     7
370
     0
100
AcDbLine
 10
223.9041985278
 20
98.8511686831
 30
0.0
 11
219.0712900167
 21
101.8711050659
 31
0.0
  0
LINE
  5
13D
330
1F
100
AcDbEntity
  8
0
  6
HIDDEN
 62
     7
370
     0
100
AcDbLine
 10
214.9205603902
 20
115.2179056465
 30
0.0
 11
215.5320965951
 21
103.5491434544
 31
0.0
  0
ARC
  5
13E
330
1F
100
AcDbEntity
  8
0
  6
HIDDEN
 62
     7
370
     0
100
AcDbCircle
 10
216.1688485696
 20
115.2833251411
 30
0.0
 40
1.25000000000001
100
AcDbArc
 50
3.0
 51
183.0
  0
LINE
  5
13F
330
1F
100
AcDbEntity
  8
0
  6
HIDDEN
 62
     7
370
     0
100
AcDbLine
 10
217.5478809779
 20
112.8539714649
 30
0.0
 11
217.4171344643
 21
115.3487452924
 31
0.0
  0
LINE
  5
140
330
1F
100
AcDbEntity
  8
0
  6
HIDDEN
 62
     7
370
     0
100
AcDbLine
 10
223.7950102692
 20
108.9503319621
 30
0.0
 11
217.5478809779
 21
112.8539714649
 31
0.0
  0
ELLIPSE
  5
141
330
1F
100
AcDbEntity
  8
0
  6
HIDDEN
 62
     7
370
     0
100
AcDbEllipse
 10
210.1111068981
 20
87.3156346
 30
0.0
 11
-1.023181539494544E-12
 21
17.12766703280043
 31
0.0
210
-7.236041831086303E-15
220
-4.322704549544983E-28
230
1.0
 40
0.9925461516
 41
5.728036697400245
 42
5.958635968382242
  0
LINE
  5
142
330
1F
100
AcDbEntity
  8
0
  6
HIDDEN
 62
     7
370
     0
100
AcDbLine
 10
223.7950102692
 20
108.9503319621
 30
0.0
 11
224.3117601876
 21
99.0901423305
 31
0.0
  0
LINE
  5
143
330
1F
100
AcDbEntity
  8
0
  6
HIDDEN
 62
     7
370
     0
100
AcDbLine
 10
224.3117601876
 20
99.0901423305
 30
0.0
 11
223.5669889753
 21
100.2391466558
 31
0.0
  0
LINE
  5
144
330
1F
100
AcDbEntity
  8
0
  6
HIDDEN
 62
     7
370
     0
100
AcDbLine
 10
223.2976355856
 20
99.7869448423
 30
0.0
 11
223.9041985278
 21
98.8511686831
 31
0.0
  0
CIRCLE
  5
145
330
1F
100
AcDbEntity
  8
0
  6
HIDDEN
 62
     7
370
     0
100
AcDbCircle
 10
219.7960224016
 20
106.2607916835
 30
0.0
 40
1.650000000000006
  0
LWPOLYLINE
  5
146
330
1F
100
AcDbEntity
  8
0
  6
HIDDEN
 62
     7
370
     0
100
AcDbPolyline
 90
       29
 70
   128
 43
0.0
 10
189.0562293385
 20
127.3425232306
 10
189.5235232343
 20
127.3919995095
 10
189.9673850541
 20
127.5379468374
 10
190.3655571197
 20
127.7730471141
 10
190.6980746691
 20
128.0855114259
 10
190.9482633029
 20
128.4596714344
 10
191.1035781061
 20
128.8767649479
 10
191.1562294965
 20
129.3158779539
 10
191.1035781061
 20
129.7549904942
 10
190.9482633029
 20
130.1720842406
 10
190.6980746691
 20
130.5462440163
 10
190.3655571197
 20
130.858708328
 10
189.9673850541
 20
131.0938086047
 10
189.5235232343
 20
131.2397561654
 10
189.0562293385
 20
131.2892322115
 10
188.5889345114
 20
131.2397561654
 10
188.1450726916
 20
131.0938086047
 10
187.746900626
 20
130.858708328
 10
187.4143830766
 20
130.5462440163
 10
187.1641944428
 20
130.1720842406
 10
187.008880571
 20
129.7549904942
 10
186.9562291806
 20
129.3158779539
 10
187.008880571
 20
128.8767649479
 10
187.1641944428
 20
128.4596714344
 10
187.4143830766
 20
128.0855114259
 10
187.746900626
 20
127.7730471141
 10
188.1450726916
 20
127.5379468374
 10
188.5889345114
 20
127.3919995095
 10
189.0562293385
 20
127.3425232306
  0
SPLINE
  5
147
330
1F
100
AcDbEntity
  8
0
  6
HIDDEN
 62
     7
370
     0
100
AcDbSpline
210
0.0
220
0.0
230
1.0
 70
     8
 71
     3
 72
     8
 73
     4
 74
     0
 42
0.00000001
 43
0.00000001
 12
1.0
 22
0.0
 32
0.0
 13
1.0
 23
0.0
 33
0.0
 40
0.0
 40
0.0
 40
0.0
 40
0.0
 40
1.0
 40
1.0
 40
1.0
 40
1.0
 10
198.254827744714
 20
104.6469563434921
 30
0.0
 10
198.418343190623
 20
105.1360558568404
 30
0.0
 10
198.8915850358963
 20
105.6217998109742
 30
0.0
 10
199.5233955434591
 20
106.1058258407176
 30
0.0
  0
SPLINE
  5
148
330
1F
100
AcDbEntity
  8
0
  6
HIDDEN
 62
     7
370
     0
100
AcDbSpline
210
0.0
220
0.0
230
1.0
 70
     8
 71
     3
 72
     8
 73
     4
 74
     0
 42
0.00000001
 43
0.00000001
 12
1.0
 22
0.0
 32
0.0
 13
1.0
 23
0.0
 33
0.0
 40
0.0
 40
0.0
 40
0.0
 40
0.0
 40
1.0
 40
1.0
 40
1.0
 40
1.0
 10
199.4187920362243
 20
110.1524475257457
 30
0.0
 10
199.4545549937896
 20
108.6925426760027
 30
0.0
 10
199.4894005648625
 20
107.345214475627
 30
0.0
 10
199.5233955434591
 20
106.1058258407176
 30
0.0
  0
ELLIPSE
  5
149
330
1F
100
AcDbEntity
  8
0
  6
HIDDEN
 62
     7
370
     0
100
AcDbEllipse
 10
184.425755588
 20
122.9097983479
 30
0.0
 11
40.28575363916984
 21
-24.90250970901533
 31
0.0
210
0.0
220
0.0
230
1.0
 40
0.0547507893
 41
0.3016447112786032
 42
0.57033171427
  0
ELLIPSE
  5
14A
330
1F
100
AcDbEntity
  8
0
  6
HIDDEN
 62
     7
370
     0
100
AcDbEllipse
 10
267.3498397817
 20
122.9097983479
 30
0.0
 11
44.23730811207372
 21
24.4408813738945
 31
0.0
210
0.0
220
0.0
230
1.0
 40
0.1188519716
 41
2.91837791568838
 42
2.963495645462662
  0
LINE
  5
14B
330
1F
100
AcDbEntity
  8
0
  6
HIDDEN
 62
     7
370
     0
100
AcDbLine
 10
210.1111063068
 20
106.1058250874
 30
0.0
 11
199.5233954196
 21
106.1058250874
 31
0.0
  0
SPLINE
  5
14C
330
1F
100
AcDbEntity
  8
0
  6
HIDDEN
 62
     7
370
     0
100
AcDbSpline
210
0.0
220
0.0
230
1.0
 70
     8
 71
     3
 72
    18
 73
    14
 74
     0
 42
0.00000001
 43
0.00000001
 12
1.0
 22
0.0
 32
0.0
 13
1.0
 23
0.0
 33
0.0
 40
0.0
 40
0.0
 40
0.0
 40
0.0
 40
0.2499999999999987
 40
0.2499999999999987
 40
0.3749999999999991
 40
0.3749999999999991
 40
0.4999999999999996
 40
0.4999999999999996
 40
0.7500000000000008
 40
0.7500000000000008
 40
0.8750000000000004
 40
0.8750000000000004
 40
1.0
 40
1.0
 40
1.0
 40
1.0
 10
219.0712900624241
 20
103.1396797446646
 30
0.0
 10
218.5210185224549
 20
103.5483607661291
 30
0.0
 10
217.9159982196516
 20
103.9395097288653
 30
0.0
 10
216.9185878411763
 20
104.4783368471756
 30
0.0
 10
216.5710868346889
 20
104.6499486905639
 30
0.0
 10
215.8437883074299
 20
104.9730792265622
 30
0.0
 10
215.4691960800333
 20
105.1221828641495
 30
0.0
 10
214.3202773156835
 20
105.5258845846997
 30
0.0
 10
213.5179750757323
 20
105.7385962983302
 30
0.0
 10
212.2568500860405
 20
105.9576237757321
 30
0.0
 10
211.8302777007869
 20
106.0131236178296
 30
0.0
 10
210.9747729783656
 20
106.08708480097
 30
0.0
 10
210.544317281025
 20
106.1058258407175
 30
0.0
 10
210.1111068981079
 20
106.1058258407175
 30
0.0
  0
ELLIPSE
  5
14D
330
1F
100
AcDbEntity
  8
0
  6
HIDDEN
 62
     7
370
     0
100
AcDbEllipse
 10
223.6745027353
 20
122.9097983479
 30
0.0
 11
-1.330220222934287
 21
24.99946796325215
 31
0.0
210
0.0
220
0.0
230
1.0
 40
0.1226111485
 41
2.099798941655399
 42
2.699964237701664
  0
LINE
  5
14E
330
1F
100
AcDbEntity
  8
0
  6
HIDDEN
 62
     7
370
     0
100
AcDbLine
 10
151.0562286978
 20
133.8343966439
 30
0.0
 11
151.0562286978
 21
126.4600122034
 31
0.0
  0
LINE
  5
14F
330
1F
100
AcDbEntity
  8
0
  6
HIDDEN
 62
     7
370
     0
100
AcDbLine
 10
151.0562286978
 20
122.7595844924
 30
0.0
 11
151.0562286978
 21
115.3852000519
 31
0.0
  0
SPLINE
  5
150
330
1F
100
AcDbEntity
  8
0
  6
HIDDEN
 62
     7
370
     0
100
AcDbSpline
210
0.0
220
0.0
230
1.0
 70
     8
 71
     3
 72
    24
 73
    20
 74
     0
 42
0.00000001
 43
0.00000001
 12
1.0
 22
0.0
 32
0.0
 13
1.0
 23
0.0
 33
0.0
 40
0.0
 40
0.0
 40
0.0
 40
0.0
 40
0.2500000000000077
 40
0.2500000000000077
 40
0.3750000000000097
 40
0.3750000000000097
 40
0.4375000000000089
 40
0.4375000000000089
 40
0.5000000000000082
 40
0.5000000000000082
 40
0.5312500000000056
 40
0.5312500000000056
 40
0.5625000000000028
 40
0.5625000000000028
 40
0.6250000000000013
 40
0.6250000000000013
 40
0.750000000000001
 40
0.750000000000001
 40
1.0
 40
1.0
 40
1.0
 40
1.0
 10
173.5611889284644
 20
113.8172046211205
 30
0.0
 10
173.5454200511069
 20
113.7433459291909
 30
0.0
 10
173.5288060692569
 20
113.6696345404551
 30
0.0
 10
173.5002744032518
 20
113.558087716833
 30
0.0
 10
173.4901869884331
 20
113.5207161437045
 30
0.0
 10
173.4726994279788
 20
113.4638166460668
 30
0.0
 10
173.4664898661955
 20
113.4447135459215
 30
0.0
 10
173.4522123125429
 20
113.405840031686
 30
0.0
 10
173.4446407647475
 20
113.3859153722526
 30
0.0
 10
173.4272231810692
 20
113.3558431542252
 30
0.0
 10
173.4187406844241
 20
113.3441617754221
 30
0.0
 10
173.4027023725523
 20
113.3369002646735
 30
0.0
 10
173.3978818243488
 20
113.3404785116834
 30
0.0
 10
173.3864725998009
 20
113.352239366915
 30
0.0
 10
173.3824521193434
 20
113.3639050169656
 30
0.0
 10
173.3716982645231
 20
113.4004403470792
 30
0.0
 10
173.3678255832409
 20
113.4278360804027
 30
0.0
 10
173.3586574334033
 20
113.5125620721587
 30
0.0
 10
173.3566289280342
 20
113.5733941943308
 30
0.0
 10
173.356228906404
 20
113.6357603556724
 30
0.0
  0
SPLINE
  5
151
330
1F
100
AcDbEntity
  8
0
  6
HIDDEN
 62
     7
370
     0
100
AcDbSpline
210
0.0
220
0.0
230
1.0
 70
     8
 71
     3
 72
    24
 73
    20
 74
     0
 42
0.00000001
 43
0.00000001
 12
1.0
 22
0.0
 32
0.0
 13
1.0
 23
0.0
 33
0.0
 40
0.0
 40
0.0
 40
0.0
 40
0.0
 40
0.2500000000000028
 40
0.2500000000000028
 40
0.375000000000001
 40
0.375000000000001
 40
0.4375000000000001
 40
0.4375000000000001
 40
0.4687500000000017
 40
0.4687500000000017
 40
0.5000000000000032
 40
0.5000000000000032
 40
0.5625000000000039
 40
0.5625000000000039
 40
0.6250000000000047
 40
0.6250000000000047
 40
0.7500000000000022
 40
0.7500000000000022
 40
1.0
 40
1.0
 40
1.0
 40
1.0
 10
173.3562289064003
 20
135.583836340176
 30
0.0
 10
173.3566335759762
 20
135.6469271486686
 30
0.0
 10
173.3586770227906
 20
135.7081128711711
 30
0.0
 10
173.3680765880449
 20
135.7936126036728
 30
0.0
 10
173.3720274815736
 20
135.8211929871139
 30
0.0
 10
173.3831797898705
 20
135.8576470692255
 30
0.0
 10
173.387401330797
 20
135.8695054909199
 30
0.0
 10
173.3996090523607
 20
135.8801255422952
 30
0.0
 10
173.4053998226129
 20
135.8829589095176
 30
0.0
 10
173.4223213357227
 20
135.8716443225193
 30
0.0
 10
173.4297274516725
 20
135.8598634367655
 30
0.0
 10
173.4461847049157
 20
135.8298225955358
 30
0.0
 10
173.4536412228266
 20
135.8101096419227
 30
0.0
 10
173.4675491521013
 20
135.7717075758627
 30
0.0
 10
173.4736410979962
 20
135.7528259259512
 30
0.0
 10
173.4908353903473
 20
135.6965250154197
 30
0.0
 10
173.5008203405509
 20
135.6594489376101
 30
0.0
 10
173.5290663856498
 20
135.5487902667201
 30
0.0
 10
173.5455459226109
 20
135.4756612063117
 30
0.0
 10
173.5611889284706
 20
135.4023920746878
 30
0.0
  0
SPLINE
  5
152
330
1F
100
AcDbEntity
  8
0
  6
HIDDEN
 62
     7
370
     0
100
AcDbSpline
210
0.0
220
0.0
230
1.0
 70
     8
 71
     3
 72
     8
 73
     4
 74
     0
 42
0.00000001
 43
0.00000001
 12
1.0
 22
0.0
 32
0.0
 13
1.0
 23
0.0
 33
0.0
 40
0.0
 40
0.0
 40
0.0
 40
0.0
 40
1.0
 40
1.0
 40
1.0
 40
1.0
 10
173.7349085628443
 20
114.556279030312
 30
0.0
 10
173.6698034012303
 20
114.3012537951063
 30
0.0
 10
173.6119160716703
 20
114.054801778965
 30
0.0
 10
173.5611889284643
 20
113.8172046211205
 30
0.0
  0
SPLINE
  5
153
330
1F
100
AcDbEntity
  8
0
  6
HIDDEN
 62
     7
370
     0
100
AcDbSpline
210
0.0
220
0.0
230
1.0
 70
     8
 71
     3
 72
     8
 73
     4
 74
     0
 42
0.00000001
 43
0.00000001
 12
1.0
 22
0.0
 32
0.0
 13
1.0
 23
0.0
 33
0.0
 40
0.0
 40
0.0
 40
0.0
 40
0.0
 40
1.0
 40
1.0
 40
1.0
 40
1.0
 10
173.5611889284705
 20
135.4023920746878
 30
0.0
 10
173.611916071675
 20
135.1647949168523
 30
0.0
 10
173.6698034012329
 20
134.9183429007207
 30
0.0
 10
173.7349085628443
 20
134.6633176655255
 30
0.0
  0
LINE
  5
154
330
1F
100
AcDbEntity
  8
0
  6
HIDDEN
 62
     7
370
     0
100
AcDbLine
 10
152.5562280123
 20
122.0547700453
 30
0.0
 11
152.5562280123
 21
114.9521872088
 31
0.0
  0
LINE
  5
155
330
1F
100
AcDbEntity
  8
0
  6
HIDDEN
 62
     7
370
     0
100
AcDbLine
 10
152.5562280123
 20
134.267409487
 30
0.0
 11
152.5562280123
 21
127.1648266505
 31
0.0
  0
LINE
  5
156
330
1F
100
AcDbEntity
  8
0
  6
HIDDEN
 62
     7
370
     0
100
AcDbLine
 10
173.3562288839
 20
134.528693898
 30
0.0
 11
173.3562288839
 21
114.6909027978
 31
0.0
  0
LINE
  5
157
330
1F
100
AcDbEntity
  8
0
  6
HIDDEN
 62
     7
370
     0
100
AcDbLine
 10
174.8562289115
 20
133.0891653582
 30
0.0
 11
174.8562289115
 21
116.1304313376
 31
0.0
  0
SPLINE
  5
158
330
1F
100
AcDbEntity
  8
0
  6
HIDDEN
 62
     7
370
     0
100
AcDbSpline
210
0.0
220
0.0
230
1.0
 70
     8
 71
     3
 72
    22
 73
    18
 74
     0
 42
0.00000001
 43
0.00000001
 12
1.0
 22
0.0
 32
0.0
 13
1.0
 23
0.0
 33
0.0
 40
0.0
 40
0.0
 40
0.0
 40
0.0
 40
0.1249999999999999
 40
0.1249999999999999
 40
0.2499999999999999
 40
0.2499999999999999
 40
0.3749999999999998
 40
0.3749999999999998
 40
0.4999999999999998
 40
0.4999999999999998
 40
0.6249999999999998
 40
0.6249999999999998
 40
0.7499999999999999
 40
0.7499999999999999
 40
0.8749999999999999
 40
0.8749999999999999
 40
1.0
 40
1.0
 40
1.0
 40
1.0
 10
155.256228906404
 20
122.0168536680908
 30
0.0
 10
155.4371652644801
 20
122.2084735273973
 30
0.0
 10
155.616260713257
 20
122.4021153917845
 30
0.0
 10
155.967100701769
 20
122.7967706451687
 30
0.0
 10
156.1392938096737
 20
122.9977821758363
 30
0.0
 10
156.4650253152929
 20
123.4139932910701
 30
0.0
 10
156.6211015504613
 20
123.6300091313568
 30
0.0
 10
156.8724807643503
 20
124.0953318945215
 30
0.0
 10
156.9663458946692
 20
124.3508710875444
 30
0.0
 10
156.962617977807
 20
124.885201722645
 30
0.0
 10
156.8652453353197
 20
125.1406225886457
 30
0.0
 10
156.6134245263258
 20
125.6006513045934
 30
0.0
 10
156.4584552708532
 20
125.814488305522
 30
0.0
 10
156.1336425131279
 20
126.2285268882157
 30
0.0
 10
155.962749449
 20
126.4278193602515
 30
0.0
 10
155.6141152094724
 20
126.8197942526857
 30
0.0
 10
155.4361073589439
 20
127.0122435386751
 30
0.0
 10
155.256228906404
 20
127.2027430277467
 30
0.0
  0
LINE
  5
159
330
1F
100
AcDbEntity
  8
0
  6
HIDDEN
 62
     7
370
     0
100
AcDbLine
 10
155.2562290137
 20
122.016853575
 30
0.0
 11
155.2562290137
 21
127.2027431208
 31
0.0
  0
SPLINE
  5
15A
330
1F
100
AcDbEntity
  8
0
  6
HIDDEN
 62
     7
370
     0
100
AcDbSpline
210
0.0
220
0.0
230
1.0
 70
     8
 71
     3
 72
     8
 73
     4
 74
     0
 42
0.00000001
 43
0.00000001
 12
1.0
 22
0.0
 32
0.0
 13
1.0
 23
0.0
 33
0.0
 40
0.0000137051794235
 40
0.0000137051794235
 40
0.0000137051794235
 40
0.0000137051794235
 40
0.0027147144718019
 40
0.0027147144718019
 40
0.0027147144718019
 40
0.0027147144718019
 10
152.556228906404
 20
122.054770110857
 30
0.0
 10
153.4562250418987
 20
122.0417985436586
 30
0.0
 10
154.3562252204941
 20
122.0291636863466
 30
0.0
 10
155.256228906404
 20
122.0168536680908
 30
0.0
  0
SPLINE
  5
15B
330
1F
100
AcDbEntity
  8
0
  6
HIDDEN
 62
     7
370
     0
100
AcDbSpline
210
0.0
220
0.0
230
1.0
 70
     8
 71
     3
 72
     8
 73
     4
 74
     0
 42
0.00000001
 43
0.00000001
 12
1.0
 22
0.0
 32
0.0
 13
1.0
 23
0.0
 33
0.0
 40
0.0000137050638847
 40
0.0000137050638847
 40
0.0000137050638847
 40
0.0000137050638847
 40
0.0027147143562631
 40
0.0027147143562631
 40
0.0027147143562631
 40
0.0027147143562631
 10
155.256228906404
 20
127.2027430277467
 30
0.0
 10
154.3562252204941
 20
127.1904330094909
 30
0.0
 10
153.4562250418987
 20
127.1777981521789
 30
0.0
 10
152.556228906404
 20
127.1648265849805
 30
0.0
  0
SPLINE
  5
15C
330
1F
100
AcDbEntity
  8
0
  6
HIDDEN
 62
     7
370
     0
100
AcDbSpline
210
0.0
220
0.0
230
1.0
 70
     8
 71
     3
 72
    10
 73
     6
 74
     0
 42
0.00000001
 43
0.00000001
 12
1.0
 22
0.0
 32
0.0
 13
1.0
 23
0.0
 33
0.0
 40
0.0
 40
0.0
 40
0.0
 40
0.0
 40
0.5
 40
0.5
 40
1.0
 40
1.0
 40
1.0
 40
1.0
 10
151.0562289064031
 20
122.7595845342686
 30
0.0
 10
151.293370867119
 20
122.6039697197398
 30
0.0
 10
151.5387136258824
 20
122.4720606903205
 30
0.0
 10
152.0399772146154
 20
122.2404038136829
 30
0.0
 10
152.2960117838658
 20
122.1409581975601
 30
0.0
 10
152.556228906404
 20
122.054770110857
 30
0.0
  0
SPLINE
  5
15D
330
1F
100
AcDbEntity
  8
0
  6
HIDDEN
 62
     7
370
     0
100
AcDbSpline
210
0.0
220
0.0
230
1.0
 70
     8
 71
     3
 72
    10
 73
     6
 74
     0
 42
0.00000001
 43
0.00000001
 12
1.0
 22
0.0
 32
0.0
 13
1.0
 23
0.0
 33
0.0
 40
0.0
 40
0.0
 40
0.0
 40
0.0
 40
0.5
 40
0.5
 40
1.0
 40
1.0
 40
1.0
 40
1.0
 10
152.556228906404
 20
127.1648265849805
 30
0.0
 10
152.296011783866
 20
127.0786384982774
 30
0.0
 10
152.0399772146158
 20
126.9791928821547
 30
0.0
 10
151.538713625883
 20
126.7475360055173
 30
0.0
 10
151.2933708671197
 20
126.6156269760982
 30
0.0
 10
151.056228906404
 20
126.4600121615694
 30
0.0
  0
LINE
  5
15E
330
1F
100
AcDbEntity
  8
0
  6
HIDDEN
 62
     7
370
     0
100
AcDbLine
 10
151.0562286978
 20
122.7595844924
 30
0.0
 11
151.0562286978
 21
126.4600122034
 31
0.0
  0
LWPOLYLINE
  5
15F
330
1F
100
AcDbEntity
  8
0
  6
HIDDEN
 62
     7
370
     0
100
AcDbPolyline
 90
       32
 70
   128
 43
0.0
 10
189.0562293385
 20
127.0488488175
 10
189.5594750797
 20
127.0969376586
 10
190.0421181028
 20
127.2392355989
 10
190.4843994682
 20
127.4699169829
 10
190.8682105397
 20
127.7795375012
 10
191.1778399055
 20
128.1554213877
 10
191.4006085401
 20
128.5821797013
 10
191.5273987954
 20
129.0423415288
 10
191.5530194794
 20
129.5170669131
 10
191.4764219229
 20
129.9869210146
 10
191.3007409577
 20
130.432668297
 10
191.0331682568
 20
130.8360590286
 10
190.6846598988
 20
131.1805789977
 10
190.2694837456
 20
131.4521228581
 10
189.8046364342
 20
131.6395743437
 10
189.3091495414
 20
131.7352588907
 10
188.8033082043
 20
131.7352588907
 10
188.3078213115
 20
131.6395743437
 10
187.8429740002
 20
131.4521228581
 10
187.427797847
 20
131.1805789977
 10
187.079289489
 20
130.8360590286
 10
186.8117177193
 20
130.432668297
 10
186.6360358228
 20
129.9869210146
 10
186.559437335
 20
129.5170669131
 10
186.5850580191
 20
129.0423415288
 10
186.7118482744
 20
128.5821797013
 10
186.9346178402
 20
128.1554213877
 10
187.244247206
 20
127.7795375012
 10
187.6280582776
 20
127.4699169829
 10
188.070339643
 20
127.2392355989
 10
188.5529826661
 20
127.0969376586
 10
189.0562293385
 20
127.0488488175
  0
SPLINE
  5
160
330
1F
100
AcDbEntity
  8
0
  6
HIDDEN
 62
     7
370
     0
100
AcDbSpline
210
0.0
220
0.0
230
1.0
 70
     8
 71
     3
 72
    62
 73
    58
 74
     0
 42
0.00000001
 43
0.00000001
 12
1.0
 22
0.0
 32
0.0
 13
1.0
 23
0.0
 33
0.0
 40
-0.0312499999999998
 40
-0.0312499999999998
 40
0.0
 40
0.0
 40
0.0312500000000002
 40
0.0312500000000002
 40
0.0625000000000003
 40
0.0625000000000003
 40
0.0937500000000005
 40
0.0937500000000005
 40
0.1250000000000007
 40
0.1250000000000007
 40
0.1875000000000007
 40
0.1875000000000007
 40
0.2500000000000008
 40
0.2500000000000008
 40
0.2812500000000008
 40
0.2812500000000008
 40
0.3125000000000009
 40
0.3125000000000009
 40
0.3437500000000009
 40
0.3437500000000009
 40
0.3750000000000009
 40
0.3750000000000009
 40
0.437500000000001
 40
0.437500000000001
 40
0.4687500000000011
 40
0.4687500000000011
 40
0.5000000000000011
 40
0.5000000000000011
 40
0.562500000000001
 40
0.562500000000001
 40
0.5937500000000009
 40
0.5937500000000009
 40
0.6250000000000009
 40
0.6250000000000009
 40
0.6562500000000008
 40
0.6562500000000008
 40
0.6875000000000008
 40
0.6875000000000008
 40
0.7187500000000007
 40
0.7187500000000007
 40
0.7500000000000006
 40
0.7500000000000006
 40
0.7812500000000006
 40
0.7812500000000006
 40
0.8125000000000004
 40
0.8125000000000004
 40
0.8437500000000004
 40
0.8437500000000004
 40
0.8750000000000003
 40
0.8750000000000003
 40
0.9062500000000003
 40
0.9062500000000003
 40
0.9375000000000002
 40
0.9375000000000002
 40
0.9687500000000002
 40
0.9687500000000002
 40
1.0
 40
1.0
 40
1.03125
 40
1.03125
 10
161.5100010343323
 20
126.0977773865751
 30
0.0
 10
161.7375013809205
 20
126.3471239284357
 30
0.0
 10
161.8619639098379
 20
126.4587216058926
 30
0.0
 10
162.1310581759898
 20
126.657372401711
 30
0.0
 10
162.276871267579
 20
126.7447126464997
 30
0.0
 10
162.5780381458684
 20
126.888908399142
 30
0.0
 10
162.7343738729328
 20
126.9467280696562
 30
0.0
 10
163.0584971722672
 20
127.0339816817072
 30
0.0
 10
163.2251623839777
 20
127.062783731189
 30
0.0
 10
163.7231786506096
 20
127.1035630364569
 30
0.0
 10
164.0638495994026
 20
127.0701197763156
 30
0.0
 10
164.702860514824
 20
126.8876671318568
 30
0.0
 10
165.0093151218879
 20
126.7362425715441
 30
0.0
 10
165.4058710311503
 20
126.4357446659597
 30
0.0
 10
165.5302202219998
 20
126.3214834807644
 30
0.0
 10
165.7526843160489
 20
126.0718236101918
 30
0.0
 10
165.8502496545262
 20
125.9376570021927
 30
0.0
 10
166.017505258165
 20
125.650187907694
 30
0.0
 10
166.0875909136841
 20
125.4949210577941
 30
0.0
 10
166.1916462744057
 20
125.1779416377071
 30
0.0
 10
166.226622037073
 20
125.0152888862027
 30
0.0
 10
166.2784865565971
 20
124.5143518660001
 30
0.0
 10
166.2391804488257
 20
124.1741972646898
 30
0.0
 10
166.0764606563649
 20
123.6977026325927
 30
0.0
 10
166.0061801584786
 20
123.5466352727652
 30
0.0
 10
165.8348470133486
 20
123.2593407023243
 30
0.0
 10
165.7334547721669
 20
123.1234829240269
 30
0.0
 10
165.3968551849437
 20
122.7546745290287
 30
0.0
 10
165.121622418779
 20
122.5522494196976
 30
0.0
 10
164.6718391914331
 20
122.3351726930889
 30
0.0
 10
164.5130393929295
 20
122.2758704210147
 30
0.0
 10
164.1904776720498
 20
122.1878979032141
 30
0.0
 10
164.0266185600826
 20
122.1587781393679
 30
0.0
 10
163.6937857867287
 20
122.1299215242577
 30
0.0
 10
163.5237334952879
 20
122.1305450474717
 30
0.0
 10
163.1914578312682
 20
122.1618014912761
 30
0.0
 10
163.0277432195194
 20
122.1921201863279
 30
0.0
 10
162.7052777339451
 20
122.2828372253309
 30
0.0
 10
162.5467666354186
 20
122.3436061340327
 30
0.0
 10
162.2482129292207
 20
122.4911168088297
 30
0.0
 10
162.1063868000186
 20
122.5782518366936
 30
0.0
 10
161.8384650614603
 20
122.7808373032656
 30
0.0
 10
161.7143716310678
 20
122.8951754699078
 30
0.0
 10
161.4932374431496
 20
123.1433619078605
 30
0.0
 10
161.394780441051
 20
123.2783945247144
 30
0.0
 10
161.2254219273159
 20
123.5703989227691
 30
0.0
 10
161.15725508961
 20
123.7225346692046
 30
0.0
 10
161.0535211232836
 20
124.0389436176447
 30
0.0
 10
161.0178525614144
 20
124.2054400869989
 30
0.0
 10
160.9836387967619
 20
124.5387019631094
 30
0.0
 10
160.984497199591
 20
124.7053644169313
 30
0.0
 10
161.0222939795406
 20
125.0387526161488
 30
0.0
 10
161.0596367349946
 20
125.2045081886284
 30
0.0
 10
161.1668863180631
 20
125.520399505091
 30
0.0
 10
161.2376475346022
 20
125.6736788381632
 30
0.0
 10
161.4097706847029
 20
125.9630558806496
 30
0.0
 10
161.5100010343323
 20
126.0977773865751
 30
0.0
 10
161.7375013809205
 20
126.3471239284357
 30
0.0
  0
CIRCLE
  5
161
330
1F
100
AcDbEntity
  8
0
  6
HIDDEN
 62
     7
370
     0
100
AcDbCircle
 10
163.5562289064
 20
124.6097983479
 30
0.0
 40
2.299999999999997
  0
CIRCLE
  5
162
330
1F
100
AcDbEntity
  8
0
  6
HIDDEN
 62
     7
370
     0
100
AcDbCircle
 10
219.7960224016
 20
106.2607916835
 30
0.0
 40
1.650000000000006
  0
CIRCLE
  5
163
330
1F
100
AcDbEntity
  8
0
  6
HIDDEN
 62
     7
370
     0
100
AcDbCircle
 10
187.0562289064
 20
124.6097983479
 30
0.0
 40
2.0
  0
LINE
  5
164
330
1F
100
AcDbEntity
  8
0
  6
HIDDEN
 62
     7
370
     0
100
AcDbLine
 10
199.4187911307
 20
110.1524477511
 30
0.0
 11
221.6995978062
 21
110.1524477511
 31
0.0
  0
SPLINE
  5
165
330
1F
100
AcDbEntity
  8
0
  6
HIDDEN
 62
     7
370
     0
100
AcDbSpline
210
0.0
220
0.0
230
1.0
 70
     8
 71
     3
 72
     8
 73
     4
 74
     0
 42
0.00000001
 43
0.00000001
 12
1.0
 22
0.0
 32
0.0
 13
1.0
 23
0.0
 33
0.0
 40
0.0
 40
0.0
 40
0.0
 40
0.0
 40
1.0
 40
1.0
 40
1.0
 40
1.0
 10
199.4187920362243
 20
110.1524475257457
 30
0.0
 10
198.8411826760456
 20
113.8927767975863
 30
0.0
 10
198.4097200733625
 20
117.6543119102449
 30
0.0
 10
198.254827744714
 20
121.4559772680536
 30
0.0
  0
LINE
  5
166
330
1F
100
AcDbEntity
  8
0
  6
HIDDEN
 62
     7
370
     0
100
AcDbLine
 10
221.2541909223
 20
118.651268693
 30
0.0
 11
217.0819849973
 21
124.6097983479
 31
0.0
  0
LINE
  5
167
330
1F
100
AcDbEntity
  8
0
  6
HIDDEN
 62
     7
370
     0
100
AcDbLine
 10
221.6995978062
 20
110.1524477511
 30
0.0
 11
221.2541909223
 21
118.651268693
 31
0.0
  0
SPLINE
  5
168
330
1F
100
AcDbEntity
  8
0
  6
HIDDEN
 62
     7
370
     0
100
AcDbSpline
210
0.0
220
0.0
230
1.0
 70
     8
 71
     3
 72
    10
 73
     6
 74
     0
 42
0.00000001
 43
0.00000001
 12
1.0
 22
0.0
 32
0.0
 13
1.0
 23
0.0
 33
0.0
 40
0.0
 40
0.0
 40
0.0
 40
0.0
 40
0.4999999999999999
 40
0.4999999999999999
 40
1.0
 40
1.0
 40
1.0
 40
1.0
 10
198.2548277447141
 20
121.4559772680536
 30
0.0
 10
198.2334163272813
 20
121.9814974447215
 30
0.0
 10
198.2069129842556
 20
122.5068928510593
 30
0.0
 10
198.1674677270403
 20
123.5580159670887
 30
0.0
 10
198.1549273222095
 20
124.0837535151909
 30
0.0
 10
198.1549273222094
 20
124.6097983479187
 30
0.0
  0
LINE
  5
169
330
1F
100
AcDbEntity
  8
0
  6
HIDDEN
 62
     7
370
     0
100
AcDbLine
 10
175.0562289064
 20
108.8097991109
 30
0.0
 11
175.1491221268
 21
108.9026910871
 31
0.0
  0
LINE
  5
16A
330
1F
100
AcDbEntity
  8
0
  6
HIDDEN
 62
     7
370
     0
100
AcDbLine
 10
175.1491221268
 20
140.3169056087
 30
0.0
 11
175.0562289064
 21
140.409797585
 31
0.0
  0
ARC
  5
16B
330
1F
100
AcDbEntity
  8
0
  6
HIDDEN
 62
     7
370
     0
100
AcDbCircle
 10
174.442015344
 20
109.6097983479
 30
0.0
 40
1.000000000000018
100
AcDbArc
 50
315.0
 51
0.0
  0
ARC
  5
16C
330
1F
100
AcDbEntity
  8
0
  6
HIDDEN
 62
     7
370
     0
100
AcDbCircle
 10
174.442015344
 20
109.6097983479
 30
0.0
 40
1.00000000000001
100
AcDbArc
 50
0.0
 51
52.1052014664
  0
ARC
  5
16D
330
1F
100
AcDbEntity
  8
0
  6
HIDDEN
 62
     7
370
     0
100
AcDbCircle
 10
174.442015344
 20
139.6097983479
 30
0.0
 40
1.00000000000001
100
AcDbArc
 50
351.8087250651
 51
45.0
  0
ARC
  5
16E
330
1F
100
AcDbEntity
  8
0
  6
HIDDEN
 62
     7
370
     0
100
AcDbCircle
 10
174.442015344
 20
139.6097983479
 30
0.0
 40
1.000000000000044
100
AcDbArc
 50
307.8947985336
 51
351.8087250651
  0
LINE
  5
16F
330
1F
100
AcDbEntity
  8
0
  6
HIDDEN
 62
     7
370
     0
100
AcDbLine
 10
175.4420153422
 20
109.6097986832
 30
0.0
 11
175.4420153422
 21
139.6097980126
 31
0.0
  0
LINE
  5
170
330
1F
100
AcDbEntity
  8
0
  6
HIDDEN
 62
     7
370
     0
100
AcDbLine
 10
175.4420153422
 20
109.6097986832
 30
0.0
 11
175.4420153422
 21
139.6097980126
 31
0.0
  0
LINE
  5
171
330
1F
100
AcDbEntity
  8
0
  6
HIDDEN
 62
     7
370
     0
100
AcDbLine
 10
191.1562294965
 20
121.1026033073
 30
0.0
 11
191.1562294965
 21
122.4722053542
 31
0.0
  0
LINE
  5
172
330
1F
100
AcDbEntity
  8
0
  6
HIDDEN
 62
     7
370
     0
100
AcDbLine
 10
191.1562294965
 20
119.4794961869
 30
0.0
 11
191.1562294965
 21
120.0610652253
 31
0.0
  0
LINE
  5
173
330
1F
100
AcDbEntity
  8
0
  6
HIDDEN
 62
     7
370
     0
100
AcDbLine
 10
186.9562291806
 20
122.4722547143
 30
0.0
 11
186.9562291806
 21
119.4794961869
 31
0.0
  0
LINE
  5
174
330
1F
100
AcDbEntity
  8
0
  6
HIDDEN
 62
     7
370
     0
100
AcDbLine
 10
194.3590925341
 20
119.4100716769
 30
0.0
 11
191.0027307724
 21
121.5223725106
 31
0.0
  0
LINE
  5
175
330
1F
100
AcDbEntity
  8
0
  6
HIDDEN
 62
     7
370
     0
100
AcDbLine
 10
187.1420066138
 20
118.9895595111
 30
0.0
 11
194.5595764821
 21
114.3213689014
 31
0.0
  0
LINE
  5
176
330
1F
100
AcDbEntity
  8
0
  6
HIDDEN
 62
     7
370
     0
100
AcDbLine
 10
187.1046726858
 20
119.8679475732
 30
0.0
 11
187.0587407877
 21
119.2858625821
 31
0.0
  0
LINE
  5
177
330
1F
100
AcDbEntity
  8
0
  6
HIDDEN
 62
     7
370
     0
100
AcDbLine
 10
151.0562286978
 20
114.4541475609
 30
0.0
 11
152.0832614308
 21
115.0471048116
 31
0.0
  0
LINE
  5
178
330
1F
100
AcDbEntity
  8
0
  6
HIDDEN
 62
     7
370
     0
100
AcDbLine
 10
152.0832614308
 20
134.1724918842
 30
0.0
 11
151.0562286978
 21
134.765449135
 31
0.0
  0
ARC
  5
179
330
1F
100
AcDbEntity
  8
0
  6
HIDDEN
 62
     7
370
     0
100
AcDbCircle
 10
157.5690473761
 20
115.6097983479
 30
0.0
 40
1.000000000000008
100
AcDbArc
 50
270.0
 51
315.0
  0
ARC
  5
17A
330
1F
100
AcDbEntity
  8
0
  6
HIDDEN
 62
     7
370
     0
100
AcDbCircle
 10
157.5690473761
 20
133.6097983479
 30
0.0
 40
1.000000000000008
100
AcDbArc
 50
45.0
 51
90.0
  0
LINE
  5
17B
330
1F
100
AcDbEntity
  8
0
  6
HIDDEN
 62
     7
370
     0
100
AcDbLine
 10
156.556228668
 20
114.6097985714
 30
0.0
 11
157.5690475558
 21
114.6097985714
 31
0.0
  0
LINE
  5
17C
330
1F
100
AcDbEntity
  8
0
  6
HIDDEN
 62
     7
370
     0
100
AcDbLine
 10
157.5690475558
 20
134.6097981244
 30
0.0
 11
156.556228668
 21
134.6097981244
 31
0.0
  0
ARC
  5
17D
330
1F
100
AcDbEntity
  8
0
  6
HIDDEN
 62
     7
370
     0
100
AcDbCircle
 10
156.5562289064
 20
115.6097983479
 30
0.0
 40
1.0
100
AcDbArc
 50
193.3524261238
 51
270.0
  0
ARC
  5
17E
330
1F
100
AcDbEntity
  8
0
  6
HIDDEN
 62
     7
370
     0
100
AcDbCircle
 10
156.5562289064
 20
133.6097983479
 30
0.0
 40
1.0
100
AcDbArc
 50
90.0
 51
166.6475738762
  0
LINE
  5
17F
330
1F
100
AcDbEntity
  8
0
  6
HIDDEN
 62
     7
370
     0
100
AcDbLine
 10
158.2761542206
 20
114.9026911392
 30
0.0
 11
158.9832608854
 21
115.6097987353
 31
0.0
  0
LINE
  5
180
330
1F
100
AcDbEntity
  8
0
  6
HIDDEN
 62
     7
370
     0
100
AcDbLine
 10
158.9832608854
 20
133.6097979605
 30
0.0
 11
158.2761542206
 21
134.3169055566
 31
0.0
  0
LINE
  5
181
330
1F
100
AcDbEntity
  8
0
  6
HIDDEN
 62
     7
370
     0
100
AcDbLine
 10
152.0832614308
 20
115.0471048116
 30
0.0
 11
154.1832615887
 21
115.6097987353
 31
0.0
  0
LINE
  5
182
330
1F
100
AcDbEntity
  8
0
  6
HIDDEN
 62
     7
370
     0
100
AcDbLine
 10
154.1832615887
 20
133.6097979605
 30
0.0
 11
152.0832614308
 21
134.1724918842
 31
0.0
  0
LINE
  5
183
330
1F
100
AcDbEntity
  8
0
  6
HIDDEN
 62
     7
370
     0
100
AcDbLine
 10
155.5832610731
 20
133.8407380193
 30
0.0
 11
155.1832617526
 21
133.6097979605
 31
0.0
  0
LINE
  5
184
330
1F
100
AcDbEntity
  8
0
  6
HIDDEN
 62
     7
370
     0
100
AcDbLine
 10
155.1832617526
 20
115.6097987353
 30
0.0
 11
155.5832610731
 21
115.3788586765
 31
0.0
  0
ARC
  5
185
330
1F
100
AcDbEntity
  8
0
  6
HIDDEN
 62
     7
370
     0
100
AcDbCircle
 10
165.5562289064
 20
116.1097983479
 30
0.0
 40
0.5
100
AcDbArc
 50
270.0
 51
0.0
  0
ARC
  5
186
330
1F
100
AcDbEntity
  8
0
  6
HIDDEN
 62
     7
370
     0
100
AcDbCircle
 10
165.5562289064
 20
133.1097983479
 30
0.0
 40
0.5
100
AcDbArc
 50
0.0
 51
90.0
  0
LINE
  5
187
330
1F
100
AcDbEntity
  8
0
  6
HIDDEN
 62
     7
370
     0
100
AcDbLine
 10
154.1832615887
 20
115.6097987353
 30
0.0
 11
155.1832617526
 21
115.6097987353
 31
0.0
  0
LINE
  5
188
330
1F
100
AcDbEntity
  8
0
  6
HIDDEN
 62
     7
370
     0
100
AcDbLine
 10
155.1832617526
 20
133.6097979605
 30
0.0
 11
154.1832615887
 21
133.6097979605
 31
0.0
  0
LINE
  5
189
330
1F
100
AcDbEntity
  8
0
  6
HIDDEN
 62
     7
370
     0
100
AcDbLine
 10
158.9832608854
 20
115.6097987353
 30
0.0
 11
165.5562292119
 21
115.6097987353
 31
0.0
  0
LINE
  5
18A
330
1F
100
AcDbEntity
  8
0
  6
HIDDEN
 62
     7
370
     0
100
AcDbLine
 10
165.5562292119
 20
133.6097979605
 30
0.0
 11
158.9832608854
 21
133.6097979605
 31
0.0
  0
LINE
  5
18B
330
1F
100
AcDbEntity
  8
0
  6
HIDDEN
 62
     7
370
     0
100
AcDbLine
 10
166.0562292938
 20
117.4597983867
 30
0.0
 11
166.9562286963
 21
118.3597982548
 31
0.0
  0
LINE
  5
18C
330
1F
100
AcDbEntity
  8
0
  6
HIDDEN
 62
     7
370
     0
100
AcDbLine
 10
166.9562286963
 20
130.8597984411
 30
0.0
 11
166.0562292938
 21
131.7597983092
 31
0.0
  0
LINE
  5
18D
330
1F
100
AcDbEntity
  8
0
  6
HIDDEN
 62
     7
370
     0
100
AcDbLine
 10
166.9562286963
 20
118.3597982548
 30
0.0
 11
192.0562298303
 21
118.3597982548
 31
0.0
  0
LINE
  5
18E
330
1F
100
AcDbEntity
  8
0
  6
HIDDEN
 62
     7
370
     0
100
AcDbLine
 10
192.0562298303
 20
130.8597984411
 30
0.0
 11
166.9562286963
 21
130.8597984411
 31
0.0
  0
LINE
  5
18F
330
1F
100
AcDbEntity
  8
0
  6
HIDDEN
 62
     7
370
     0
100
AcDbLine
 10
192.0562298303
 20
118.3597982548
 30
0.0
 11
195.8116074358
 21
124.6097983479
 31
0.0
  0
LINE
  5
190
330
1F
100
AcDbEntity
  8
0
  6
HIDDEN
 62
     7
370
     0
100
AcDbLine
 10
195.8116074358
 20
124.6097983479
 30
0.0
 11
192.0562298303
 21
130.8597984411
 31
0.0
  0
LINE
  5
191
330
1F
100
AcDbEntity
  8
0
  6
HIDDEN
 62
     7
370
     0
100
AcDbLine
 10
191.1562294965
 20
126.7473419815
 30
0.0
 11
191.1562294965
 21
129.3158779539
 31
0.0
  0
LINE
  5
192
330
1F
100
AcDbEntity
  8
0
  6
HIDDEN
 62
     7
370
     0
100
AcDbLine
 10
186.9562291806
 20
129.3158779539
 30
0.0
 11
186.9562291806
 21
126.7473913416
 31
0.0
  0
LINE
  5
193
330
1F
100
AcDbEntity
  8
0
  6
HIDDEN
 62
     7
370
     0
100
AcDbLine
 10
191.556228817
 20
129.3980802096
 30
0.0
 11
191.556228817
 21
131.4498508967
 31
0.0
  0
LINE
  5
194
330
1F
100
AcDbEntity
  8
0
  6
HIDDEN
 62
     7
370
     0
100
AcDbLine
 10
186.5562289288
 20
131.4501880355
 30
0.0
 11
186.5562289288
 21
129.3980802096
 31
0.0
  0
LINE
  5
195
330
1F
100
AcDbEntity
  8
VERMASSUNG
  6
CENTERX2
100
AcDbLine
 10
148.2691999867
 20
124.6097983479
 30
0.0
 11
225.0562289064
 21
124.6097983479
 31
0.0
  0
LINE
  5
196
330
1F
100
AcDbEntity
  8
VERMASSUNG
  6
CENTERX2
100
AcDbLine
 10
225.0562289064
 20
97.6097983479
 30
0.0
 11
225.0562289064
 21
124.6097983479
 31
0.0
  0
LINE
  5
197
330
1F
100
AcDbEntity
  8
VERMASSUNG
  6
CENTERX2
100
AcDbLine
 10
225.0562289064
 20
97.6097983479
 30
0.0
 11
234.7974423448
 21
97.6097983479
 31
0.0
  0
DIMENSION
  5
198
330
1F
100
AcDbEntity
  8
VERMASSUNG
100
AcDbDimension
  2
_D
 10
225.0562289064
 20
81.3974351949
 30
0.0
 11
188.0562289064
 21
81.3974351949
 31
0.0
 70
   160
  1
<>
 71
     2
 42
-1.0
  3
SLDDIMSTYLE0
100
AcDbAlignedDimension
 13
151.0562289064
 23
111.9782933659
 33
0.0
 14
225.0562289064
 24
97.6097983479
 34
0.0
100
AcDbRotatedDimension
  0
DIMENSION
  5
1A3
330
1F
100
AcDbEntity
  8
VERMASSUNG
100
AcDbDimension
  2
_D_1
 10
241.7560168113
 20
97.6097983479
 30
0.0
 11
241.7560168113
 21
111.1097983479
 31
0.0
 70
   160
  1
<>
 71
     2
 42
-1.0
  3
SLDDIMSTYLE1
100
AcDbAlignedDimension
 13
225.0562289064
 23
124.6097983479
 33
0.0
 14
234.7974423448
 24
97.6097983479
 34
0.0
 50
90.0
100
AcDbRotatedDimension
  0
DIMENSION
  5
1B0
330
1F
100
AcDbEntity
  8
VERMASSUNG
100
AcDbDimension
  2
_D_2
 10
175.0562289064
 20
89.3736380009
 30
0.0
 11
200.0562289064
 21
89.3736380009
 31
0.0
 70
   160
  1
<>
 71
     2
 42
-1.0
  3
SLDDIMSTYLE1
100
AcDbAlignedDimension
 13
225.0562289064
 23
97.6097983479
 33
0.0
 14
175.0562289064
 24
104.9097983479
 34
0.0
100
AcDbRotatedDimension
  0
DIMENSION
  5
1BC
330
1F
100
AcDbEntity
  8
VERMASSUNG
100
AcDbDimension
  2
_D_3
 10
225.0561355812
 20
98.0220534669
 30
0.0
 11
231.3748698661
 21
104.2455876391
 31
0.0
 70
   162
  1
<>
 71
     1
 42
-1.0
  3
SLDDIMSTYLE2
100
AcDb2LineAngularDimension
 13
234.7974423448
 23
97.6097983479
 33
0.0
 14
225.0562289064
 24
97.6097983479
 34
0.0
 15
224.4981554436
 25
108.6689487413
 35
0.0
 16
231.3748698661
 26
104.2455876391
 36
0.0
  0
DIMENSION
  5
1C5
330
1F
100
AcDbEntity
  8
VERMASSUNG
100
AcDbDimension
  2
_D_4
 10
141.0562289064
 20
104.6097983479
 30
0.0
 11
141.0562289064
 21
124.6097983479
 31
0.0
 70
   160
  1
PSC%%c<>
 71
     2
 42
-1.0
  3
SLDDIMSTYLE0
100
AcDbAlignedDimension
 13
175.3562289064
 23
144.6097983479
 33
0.0
 14
175.3562289064
 24
104.6097983479
 34
0.0
 50
90.0
100
AcDbRotatedDimension
  0
LINE
  5
1D1
330
1F
100
AcDbEntity
  8
0
  6
Continuous
 62
     7
370
    15
100
AcDbLine
 10
99.7360573809
 20
128.7503774896
 30
0.0
 11
99.8197311263
 21
128.9298172727
 31
0.0
  0
LINE
  5
1D2
330
1F
100
AcDbEntity
  8
0
  6
Continuous
 62
     7
370
    15
100
AcDbLine
 10
97.8633762996
 20
134.3048588991
 30
0.0
 11
97.6839365165
 21
134.3885326445
 31
0.0
  0
LINE
  5
1D3
330
1F
100
AcDbEntity
  8
0
  6
Continuous
 62
     7
370
    15
100
AcDbLine
 10
99.6708666633
 20
128.7266497187
 30
0.0
 11
99.7360573809
 21
128.7503774896
 31
0.0
  0
LINE
  5
1D4
330
1F
100
AcDbEntity
  8
0
  6
Continuous
 62
     7
370
    15
100
AcDbLine
 10
97.6839365165
 20
134.3885326445
 30
0.0
 11
97.6187457989
 21
134.3648053392
 31
0.0
  0
SPLINE
  5
1D5
330
1F
100
AcDbEntity
  8
0
  6
Continuous
 62
     7
370
    15
100
AcDbSpline
210
0.0
220
0.0
230
1.0
 70
     8
 71
     3
 72
    10
 73
     6
 74
     0
 42
0.00000001
 43
0.00000001
 12
1.0
 22
0.0
 32
0.0
 13
1.0
 23
0.0
 33
0.0
 40
0.0
 40
0.0
 40
0.0
 40
0.0
 40
0.3327513184979107
 40
0.6676348502828433
 40
1.0
 40
1.0
 40
1.0
 40
1.0
 10
79.5502795543058
 20
97.59594701823448
 30
0.0
 10
79.99666664170094
 20
97.67949242527826
 30
0.0
 10
80.89230118826434
 20
97.84711858398221
 30
0.0
 10
82.25485752137531
 20
98.00048888896839
 30
0.0
 10
83.14730376535913
 20
98.17775413718381
 30
0.0
 10
83.59184271720608
 20
98.26605223712181
 30
0.0
  0
LINE
  5
1D6
330
1F
100
AcDbEntity
  8
0
  6
Continuous
 62
     7
370
    15
100
AcDbLine
 10
79.8884972308
 20
114.6455641523
 30
0.0
 11
79.5502795543
 21
114.7046183854
 31
0.0
  0
LINE
  5
1D7
330
1F
100
AcDbEntity
  8
0
  6
Continuous
 62
     7
370
    15
100
AcDbLine
 10
83.5584971781
 20
108.9503319621
 30
0.0
 11
83.5584971781
 21
108.7258012652
 31
0.0
  0
LINE
  5
1D8
330
1F
100
AcDbEntity
  8
0
  6
Continuous
 62
     7
370
    15
100
AcDbLine
 10
83.5584971781
 20
108.6237990915
 30
0.0
 11
83.5584971781
 21
108.6145305693
 31
0.0
  0
LINE
  5
1D9
330
1F
100
AcDbEntity
  8
0
  6
Continuous
 62
     7
370
    15
100
AcDbLine
 10
83.5584971781
 20
108.9503319621
 30
0.0
 11
82.058497165
 21
108.8311860025
 31
0.0
  0
LINE
  5
1DA
330
1F
100
AcDbEntity
  8
0
  6
Continuous
 62
     7
370
    15
100
AcDbLine
 10
79.8884972308
 20
108.9836416453
 30
0.0
 11
79.8884972308
 21
119.4912997693
 31
0.0
  0
LINE
  5
1DB
330
1F
100
AcDbEntity
  8
0
  6
Continuous
 62
     7
370
    15
100
AcDbLine
 10
100.0884977828
 20
118.651268693
 30
0.0
 11
79.8884972308
 21
119.4912997693
 31
0.0
  0
LINE
  5
1DC
330
1F
100
AcDbEntity
  8
0
  6
Continuous
 62
     7
370
    15
100
AcDbLine
 10
100.0884977828
 20
110.1524477511
 30
0.0
 11
100.0884977828
 21
118.651268693
 31
0.0
  0
ARC
  5
1DD
330
1F
100
AcDbEntity
  8
0
  6
Continuous
 62
     7
370
    15
100
AcDbCircle
 10
78.5884972165
 20
122.9097983479
 30
0.0
 40
25.00000000000001
100
AcDbArc
 50
294.9296444174
 51
329.316582891
  0
LINE
  5
1DE
330
1F
100
AcDbEntity
  8
0
  6
Continuous
 62
     7
370
    15
100
AcDbLine
 10
83.5584971781
 20
99.0901423305
 30
0.0
 11
89.1261232744
 21
100.2391466558
 31
0.0
  0
LINE
  5
1DF
330
1F
100
AcDbEntity
  8
0
  6
Continuous
 62
     7
370
    15
100
AcDbLine
 10
88.092899109
 20
99.7869448423
 30
0.0
 11
83.5584971781
 21
98.8511686831
 31
0.0
  0
ARC
  5
1E0
330
1F
100
AcDbEntity
  8
0
  6
Continuous
 62
     7
370
    15
100
AcDbCircle
 10
78.5884972165
 20
122.9097983479
 30
0.0
 40
25.00000000000001
100
AcDbArc
 50
292.3445889201
 51
294.9296444174
  0
LINE
  5
1E1
330
1F
100
AcDbEntity
  8
0
  6
Continuous
 62
     7
370
    15
100
AcDbLine
 10
100.0884977828
 20
118.651268693
 30
0.0
 11
100.0884977828
 21
124.6097983479
 31
0.0
  0
ARC
  5
1E2
330
1F
100
AcDbEntity
  8
0
  6
Continuous
 62
     7
370
    15
100
AcDbCircle
 10
79.5884972165
 20
124.6097983479
 30
0.0
 40
20.5
100
AcDbArc
 50
0.0
 51
89.1614952473
  0
LINE
  5
1E3
330
1F
100
AcDbEntity
  8
0
  6
Continuous
 62
     7
370
    15
100
AcDbLine
 10
79.8884972308
 20
119.4912997693
 30
0.0
 11
79.8884972308
 21
145.1076028555
 31
0.0
  0
SPLINE
  5
1E4
330
1F
100
AcDbEntity
  8
0
  6
Continuous
 62
     7
370
    15
100
AcDbSpline
210
0.0
220
0.0
230
1.0
 70
     8
 71
     3
 72
     8
 73
     4
 74
     0
 42
0.00000001
 43
0.00000001
 12
1.0
 22
0.0
 32
0.0
 13
1.0
 23
0.0
 33
0.0
 40
0.0
 40
0.0
 40
0.0
 40
0.0
 40
1.0
 40
1.0
 40
1.0
 40
1.0
 10
79.88849721652845
 20
144.6830593794525
 30
0.0
 10
79.88849721652797
 20
144.6309314015542
 30
0.0
 10
79.85700663399344
 20
144.6081020117986
 30
0.0
 10
79.79184298337715
 20
144.6087645836716
 30
0.0
  0
SPLINE
  5
1E5
330
1F
100
AcDbEntity
  8
0
  6
Continuous
 62
     7
370
    15
100
AcDbSpline
210
0.0
220
0.0
230
1.0
 70
     8
 71
     3
 72
     9
 73
     5
 74
     0
 42
0.00000001
 43
0.00000001
 12
1.0
 22
0.0
 32
0.0
 13
1.0
 23
0.0
 33
0.0
 40
0.0
 40
0.0
 40
0.0
 40
0.0
 40
0.8520079880869857
 40
1.0
 40
1.0
 40
1.0
 40
1.0
 10
79.29555246554685
 20
104.6119445621655
 30
0.0
 10
79.38409981035801
 20
104.6108874586328
 30
0.0
 10
79.48802764442675
 20
104.6096467384195
 30
0.0
 10
79.56214276040158
 20
104.6099008821045
 30
0.0
 10
79.57311120552788
 20
104.6099384933398
 30
0.0
  0
SPLINE
  5
1E6
330
1F
100
AcDbEntity
  8
0
  6
Continuous
 62
     7
370
    15
100
AcDbSpline
210
0.0
220
0.0
230
1.0
 70
     8
 71
     3
 72
     8
 73
     4
 74
     0
 42
0.00000001
 43
0.00000001
 12
1.0
 22
0.0
 32
0.0
 13
1.0
 23
0.0
 33
0.0
 40
0.0
 40
0.0
 40
0.0
 40
0.0
 40
1.0
 40
1.0
 40
1.0
 40
1.0
 10
79.79184298336455
 20
144.6087645836798
 30
0.0
 10
79.68777359674328
 20
144.6098227418354
 30
0.0
 10
79.5065033305514
 20
144.6107429962291
 30
0.0
 10
79.29555245261047
 20
144.6076528169685
 30
0.0
  0
ELLIPSE
  5
1E7
330
1F
100
AcDbEntity
  8
0
  6
Continuous
 62
     7
370
    15
100
AcDbEllipse
 10
70.1967566756
 20
116.8657200582
 30
0.0
 11
-1.766764322878657
 21
2.237622363123421
 31
0.0
210
0.0
220
0.0
230
1.0
 40
0.7216768204
 41
0.0
 42
6.283185307179586
  0
ARC
  5
1E8
330
1F
100
AcDbEntity
  8
0
  6
Continuous
 62
     7
370
    15
100
AcDbCircle
 10
79.5884972165
 20
124.6097983479
 30
0.0
 40
19.99999999999999
100
AcDbArc
 50
90.8392549412
 51
269.1607450588
  0
ARC
  5
1E9
330
1F
100
AcDbEntity
  8
0
  6
Continuous
 62
     7
370
    15
100
AcDbCircle
 10
67.9374578662
 20
121.4995086317
 30
0.0
 40
2.535183252465861
100
AcDbArc
 50
278.2925247802
 51
305.6958497452
  0
SPLINE
  5
1EA
330
1F
100
AcDbEntity
  8
0
  6
Continuous
 62
     7
370
    15
100
AcDbSpline
210
0.0
220
0.0
230
1.0
 70
     8
 71
     3
 72
    11
 73
     7
 74
     0
 42
0.00000001
 43
0.00000001
 12
1.0
 22
0.0
 32
0.0
 13
1.0
 23
0.0
 33
0.0
 40
0.0
 40
0.0
 40
0.0
 40
0.0
 40
0.0409968434320016
 40
0.3021264780437585
 40
0.690335965562071
 40
1.0
 40
1.0
 40
1.0
 40
1.0
 10
68.06331050646861
 20
118.6097396224425
 30
0.0
 10
68.07131965223839
 20
118.5998387885117
 30
0.0
 10
68.13034309894785
 20
118.5268745348082
 30
0.0
 10
68.11793926641793
 20
118.3656254156719
 30
0.0
 10
68.00746742178013
 20
118.1695884347587
 30
0.0
 10
67.85910029931152
 20
118.1359471871918
 30
0.0
 10
67.79326607537826
 20
118.1210197195098
 30
0.0
  0
SPLINE
  5
1EB
330
1F
100
AcDbEntity
  8
0
  6
Continuous
 62
     7
370
    15
100
AcDbSpline
210
0.0
220
0.0
230
1.0
 70
     8
 71
     3
 72
    11
 73
     7
 74
     0
 42
0.00000001
 43
0.00000001
 12
1.0
 22
0.0
 32
0.0
 13
1.0
 23
0.0
 33
0.0
 40
0.0
 40
0.0
 40
0.0
 40
0.0
 40
0.3891062311982084
 40
0.683149273850061
 40
0.9209770609343623
 40
1.0
 40
1.0
 40
1.0
 40
1.0
 10
70.61190546554883
 20
119.129359411417
 30
0.0
 10
70.51032484470504
 20
119.0948745921484
 30
0.0
 10
70.33198093293326
 20
119.0343299969882
 30
0.0
 10
70.08473434632275
 20
119.1063020513104
 30
0.0
 10
69.94970550977986
 20
119.2120751421286
 30
0.0
 10
69.93415748247861
 20
119.319798561788
 30
0.0
 10
69.93027978641351
 20
119.346664907752
 30
0.0
  0
LWPOLYLINE
  5
1EC
330
1F
100
AcDbEntity
  8
0
  6
Continuous
 62
     7
370
    15
100
AcDbPolyline
 90
        6
 70
   128
 43
0.0
 10
97.8596510093
 20
133.9057620302
 10
97.8507661919
 20
133.9301729262
 10
97.762344564
 20
134.1731074884
 10
97.706195126
 20
134.3273773476
 10
97.6842289518
 20
134.3877298444
 10
97.6839365165
 20
134.3885326445
  0
LWPOLYLINE
  5
1ED
330
1F
100
AcDbEntity
  8
0
  6
Continuous
 62
     7
370
    15
100
AcDbPolyline
 90
        5
 70
   128
 43
0.0
 10
99.7360573809
 20
128.7503774896
 10
99.7228009353
 20
128.7868010498
 10
99.6753463249
 20
128.9171820193
 10
99.5950178902
 20
129.1378821864
 10
99.5603428881
 20
129.2331481039
  0
LINE
  5
1EE
330
1F
100
AcDbEntity
  8
0
  6
Continuous
 62
     7
370
    15
100
AcDbLine
 10
99.1316290299
 20
130.8203648463
 30
0.0
 11
99.0745780717
 21
130.9771106265
 31
0.0
  0
LWPOLYLINE
  5
1EF
330
1F
100
AcDbEntity
  8
0
  6
Continuous
 62
     7
370
    15
100
AcDbPolyline
 90
        9
 70
   128
 43
0.0
 10
98.6085312168
 20
132.2575655453
 10
98.580526347
 20
132.3345076911
 10
98.4068346868
 20
132.8117206379
 10
98.2488544385
 20
133.2457653865
 10
98.112296472
 20
133.6209542736
 10
98.0020967971
 20
133.9237272426
 10
97.9222358863
 20
134.1431421846
 10
97.8756027023
 20
134.2712670251
 10
97.8633762996
 20
134.3048588991
  0
LWPOLYLINE
  5
1F0
330
1F
100
AcDbEntity
  8
0
  6
Continuous
 62
     7
370
    15
100
AcDbPolyline
 90
        8
 70
   128
 43
0.0
 10
99.8197311263
 20
128.9298172727
 10
99.8118130217
 20
128.9515725024
 10
99.7707733612
 20
129.0643309861
 10
99.6961464832
 20
129.2693621166
 10
99.5906350861
 20
129.55925536
 10
99.4580482791
 20
129.9235328719
 10
99.3031805108
 20
130.3490285448
 10
99.1316290299
 20
130.8203648463
  0
LINE
  5
1F1
330
1F
100
AcDbEntity
  8
0
  6
Continuous
 62
     7
370
    15
100
AcDbLine
 10
83.5584971781
 20
98.3633959353
 30
0.0
 11
83.5584971781
 21
108.5448210746
 31
0.0
  0
LINE
  5
1F2
330
1F
100
AcDbEntity
  8
0
  6
Continuous
 62
     7
370
    15
100
AcDbLine
 10
79.5884972165
 20
98.0220531732
 30
0.0
 11
79.5884972165
 21
108.66894961
 31
0.0
  0
SPLINE
  5
1F3
330
1F
100
AcDbEntity
  8
0
  6
Continuous
 62
     7
370
    15
100
AcDbSpline
210
0.0
220
0.0
230
1.0
 70
    24
 71
     3
 72
    14
 73
    10
 74
     0
 42
0.00000001
 43
0.00000001
 12
1.0
 22
0.0
 32
0.0
 13
1.0
 23
0.0
 33
0.0
 40
0.0
 40
0.0
 40
0.0
 40
0.0
 40
0.1583212770479821
 40
0.3168008925131005
 40
0.4713833388619733
 40
0.6221281237308371
 40
0.7721334814006039
 40
0.9245826256225326
 40
1.0
 40
1.0
 40
1.0
 40
1.0
 10
83.55849717808326
 20
98.36339593526577
 30
0.0
 10
83.55849717808326
 20
98.35186428689502
 30
0.0
 10
83.55849717808326
 20
98.32878945725672
 30
0.0
 10
83.55849717808326
 20
98.29750724482261
 30
0.0
 10
83.55849717808326
 20
98.2737118868677
 30
0.0
 10
83.55849717808326
 20
98.2598277192627
 30
0.0
 10
83.55849717808326
 20
98.2569335782183
 30
0.0
 10
83.55849717808326
 20
98.26329206109833
 30
0.0
 10
83.55849717808326
 20
98.27135836511016
 30
0.0
 10
83.55849717808326
 20
98.27402808365082
 30
0.0
  0
SPLINE
  5
1F4
330
1F
100
AcDbEntity
  8
0
  6
Continuous
 62
     7
370
    15
100
AcDbSpline
210
0.0
220
0.0
230
1.0
 70
    24
 71
     3
 72
    13
 73
     9
 74
     0
 42
0.00000001
 43
0.00000001
 12
1.0
 22
0.0
 32
0.0
 13
1.0
 23
0.0
 33
0.0
 40
0.0
 40
0.0
 40
0.0
 40
0.0
 40
0.0823978803693234
 40
0.2903135821513495
 40
0.4941222152309568
 40
0.6971124996789894
 40
0.9028744660013088
 40
1.0
 40
1.0
 40
1.0
 40
1.0
 10
79.58849721652788
 20
97.60990568098282
 30
0.0
 10
79.58849721652788
 20
97.60830654396244
 30
0.0
 10
79.58849721652791
 20
97.6026722825633
 30
0.0
 10
79.58849721652751
 20
97.64104021687837
 30
0.0
 10
79.58849721652797
 20
97.71883297452236
 30
0.0
 10
79.58849721652784
 20
97.82992592423132
 30
0.0
 10
79.58849721652787
 20
97.93638736819318
 30
0.0
 10
79.58849721652787
 20
98.00125300831274
 30
0.0
 10
79.58849721652787
 20
98.02205317315315
 30
0.0
  0
SPLINE
  5
1F5
330
1F
100
AcDbEntity
  8
0
  6
Continuous
 62
     7
370
    15
100
AcDbSpline
210
0.0
220
0.0
230
1.0
 70
    24
 71
     3
 72
    10
 73
     6
 74
     0
 42
0.00000001
 43
0.00000001
 12
1.0
 22
0.0
 32
0.0
 13
1.0
 23
0.0
 33
0.0
 40
0.0
 40
0.0
 40
0.0
 40
0.0
 40
0.2657151038723661
 40
0.6165070279031162
 40
0.9999999999999999
 40
0.9999999999999999
 40
0.9999999999999999
 40
0.9999999999999999
 10
83.55849717808326
 20
108.6237990915463
 30
0.0
 10
83.55849717808326
 20
108.6188003478038
 30
0.0
 10
83.55849717808326
 20
108.6072023595711
 30
0.0
 10
83.55849717808326
 20
108.5800144768271
 30
0.0
 10
83.55849717808326
 20
108.5568954077771
 30
0.0
 10
83.55849717808326
 20
108.5448210745737
 30
0.0
  0
SPLINE
  5
1F6
330
1F
100
AcDbEntity
  8
0
  6
Continuous
 62
     7
370
    15
100
AcDbSpline
210
0.0
220
0.0
230
1.0
 70
    24
 71
     3
 72
    10
 73
     6
 74
     0
 42
0.00000001
 43
0.00000001
 12
1.0
 22
0.0
 32
0.0
 13
1.0
 23
0.0
 33
0.0
 40
0.0
 40
0.0
 40
0.0
 40
0.0
 40
0.3517994396354202
 40
0.7034227109851233
 40
1.0
 40
1.0
 40
1.0
 40
1.0
 10
79.58849721652787
 20
108.6689496099636
 30
0.0
 10
79.58849721652787
 20
108.7132359255608
 30
0.0
 10
79.58849721652788
 20
108.8017863797889
 30
0.0
 10
79.58849721652787
 20
108.9128491716593
 30
0.0
 10
79.58849721652788
 20
108.962250323205
 30
0.0
 10
79.58849721652788
 20
108.9848532959506
 30
0.0
  0
LINE
  5
1F7
330
1F
100
AcDbEntity
  8
0
  6
Continuous
 62
     7
370
    15
100
AcDbLine
 10
83.5584971781
 20
108.6237990915
 30
0.0
 11
83.5584971781
 21
108.7258012652
 31
0.0
  0
LINE
  5
1F8
330
1F
100
AcDbEntity
  8
0
  6
Continuous
 62
     7
370
    15
100
AcDbLine
 10
79.5884972165
 20
108.984853296
 30
0.0
 11
79.5884972165
 21
114.6345913097
 31
0.0
  0
SPLINE
  5
1F9
330
1F
100
AcDbEntity
  8
0
  6
Continuous
 62
     7
370
    15
100
AcDbSpline
210
0.0
220
0.0
230
1.0
 70
    24
 71
     3
 72
     9
 73
     5
 74
     0
 42
0.00000001
 43
0.00000001
 12
1.0
 22
0.0
 32
0.0
 13
1.0
 23
0.0
 33
0.0
 40
0.0
 40
0.0
 40
0.0
 40
0.0
 40
0.6204299299364704
 40
1.0
 40
1.0
 40
1.0
 40
1.0
 10
79.58849721652794
 20
114.634591309695
 30
0.0
 10
79.58849721652794
 20
114.6566516843443
 30
0.0
 10
79.58849721652794
 20
114.692208277579
 30
0.0
 10
79.58849721652794
 20
114.691085111543
 30
0.0
 10
79.58849721652794
 20
114.690658791332
 30
0.0
  0
CIRCLE
  5
1FA
330
1F
100
AcDbEntity
  8
VERMASSUNG
  6
CENTERX2
100
AcDbCircle
 10
79.5884972165
 20
122.9130485977
 30
0.0
 40
25.0
  0
DIMENSION
  5
1FB
330
1F
100
AcDbEntity
  8
VERMASSUNG
100
AcDbDimension
  2
_D_5
 10
61.9108276869
 20
140.5907181274
 30
0.0
 11
55.707879536
 21
146.7936662783
 31
0.0
 70
   160
  1
%%c<> min. 
 71
     2
 42
-1.0
  3
SLDDIMSTYLE3
100
AcDbAlignedDimension
 13
97.2661667462
 23
105.2353790681
 33
0.0
 14
61.9108276869
 24
140.5907181274
 34
0.0
 50
-45.0
100
AcDbRotatedDimension
  0
INSERT
  5
215
330
1F
100
AcDbEntity
  8
VERMASSUNG
100
AcDbBlockReference
  2
SW_CENTERMARKSYMBOL_0
 10
79.5884972165
 20
124.6097983479
 30
0.0
  0
OLE2FRAME
  5
216
330
1F
100
AcDbEntity
  8
0
100
AcDbOle2Frame
 70
     2
  3
Paintbrush-Bild
 10
13.8511154363
 20
38.264191557
 30
0.0
 11
51.6290888628
 21
31.9806341108
 31
0.0
 71
     2
 72
     0
 73
     1
 90
    12928
310
80552BED0767C5B32B40DDAF6807D121434000000000000000006FFBDDFB85D0
310
4940DDAF6807D121434000000000000000006FFBDDFB85D04940416F4BD60AFB
310
3F4000000000000000002BED0767C5B32B40416F4BD60AFB3F40000000000000
310
0000000000000100000000010000010000000100000000000100000000320000
310
D0CF11E0A1B11AE1000000000000000000000000000000003E000300FEFF0900
310
0600000000000000000000000100000001000000000000000010000002000000
310
01000000FEFFFFFF0000000000000000FFFFFFFFFFFFFFFFFFFFFFFFFFFFFFFF
310
FFFFFFFFFFFFFFFFFFFFFFFFFFFFFFFFFFFFFFFFFFFFFFFFFFFFFFFFFFFFFFFF
310
FFFFFFFFFFFFFFFFFFFFFFFFFFFFFFFFFFFFFFFFFFFFFFFFFFFFFFFFFFFFFFFF
310
FFFFFFFFFFFFFFFFFFFFFFFFFFFFFFFFFFFFFFFFFFFFFFFFFFFFFFFFFFFFFFFF
310
FFFFFFFFFFFFFFFFFFFFFFFFFFFFFFFFFFFFFFFFFFFFFFFFFFFFFFFFFFFFFFFF
310
FFFFFFFFFFFFFFFFFFFFFFFFFFFFFFFFFFFFFFFFFFFFFFFFFFFFFFFFFFFFFFFF
310
FFFFFFFFFFFFFFFFFFFFFFFFFFFFFFFFFFFFFFFFFFFFFFFFFFFFFFFFFFFFFFFF
310
FFFFFFFFFFFFFFFFFFFFFFFFFFFFFFFFFFFFFFFFFFFFFFFFFFFFFFFFFFFFFFFF
310
FFFFFFFFFFFFFFFFFFFFFFFFFFFFFFFFFFFFFFFFFFFFFFFFFFFFFFFFFFFFFFFF
310
FFFFFFFFFFFFFFFFFFFFFFFFFFFFFFFFFFFFFFFFFFFFFFFFFFFFFFFFFFFFFFFF
310
FFFFFFFFFFFFFFFFFFFFFFFFFFFFFFFFFFFFFFFFFFFFFFFFFFFFFFFFFFFFFFFF
310
FFFFFFFFFFFFFFFFFFFFFFFFFFFFFFFFFFFFFFFFFFFFFFFFFFFFFFFFFFFFFFFF
310
FFFFFFFFFFFFFFFFFFFFFFFFFFFFFFFFFFFFFFFFFFFFFFFFFFFFFFFFFFFFFFFF
310
FFFFFFFFFFFFFFFFFFFFFFFFFFFFFFFFFFFFFFFFFFFFFFFFFFFFFFFFFFFFFFFF
310
FDFFFFFFFEFFFFFFFEFFFFFFFEFFFFFF05000000060000000700000008000000
310
090000000A0000000B0000000C0000000D0000000E0000000F00000010000000
310
11000000120000001300000014000000150000001600000017000000FEFFFFFF
310
FFFFFFFFFFFFFFFFFFFFFFFFFFFFFFFFFFFFFFFFFFFFFFFFFFFFFFFFFFFFFFFF
310
FFFFFFFFFFFFFFFFFFFFFFFFFFFFFFFFFFFFFFFFFFFFFFFFFFFFFFFFFFFFFFFF
310
FFFFFFFFFFFFFFFFFFFFFFFFFFFFFFFFFFFFFFFFFFFFFFFFFFFFFFFFFFFFFFFF
310
FFFFFFFFFFFFFFFFFFFFFFFFFFFFFFFFFFFFFFFFFFFFFFFFFFFFFFFFFFFFFFFF
310
FFFFFFFFFFFFFFFFFFFFFFFFFFFFFFFFFFFFFFFFFFFFFFFFFFFFFFFFFFFFFFFF
310
FFFFFFFFFFFFFFFFFFFFFFFFFFFFFFFFFFFFFFFFFFFFFFFFFFFFFFFFFFFFFFFF
310
FFFFFFFFFFFFFFFFFFFFFFFFFFFFFFFFFFFFFFFFFFFFFFFFFFFFFFFFFFFFFFFF
310
FFFFFFFFFFFFFFFFFFFFFFFFFFFFFFFFFFFFFFFFFFFFFFFFFFFFFFFFFFFFFFFF
310
FFFFFFFFFFFFFFFFFFFFFFFFFFFFFFFFFFFFFFFFFFFFFFFFFFFFFFFFFFFFFFFF
310
FFFFFFFFFFFFFFFFFFFFFFFFFFFFFFFFFFFFFFFFFFFFFFFFFFFFFFFFFFFFFFFF
310
FFFFFFFFFFFFFFFFFFFFFFFFFFFFFFFFFFFFFFFFFFFFFFFFFFFFFFFFFFFFFFFF
310
FFFFFFFFFFFFFFFFFFFFFFFFFFFFFFFFFFFFFFFFFFFFFFFFFFFFFFFFFFFFFFFF
310
FFFFFFFFFFFFFFFFFFFFFFFFFFFFFFFFFFFFFFFFFFFFFFFFFFFFFFFFFFFFFFFF
310
52006F006F007400200045006E00740072007900000000000000000000000000
310
0000000000000000000000000000000000000000000000000000000000000000
310
16000500FFFFFFFFFFFFFFFF020000000A00030000000000C000000000000046
310
000000000000000000000000003FB5F77024CD0103000000C000000000000000
310
01004F006C006500000000000000000000000000000000000000000000000000
310
0000000000000000000000000000000000000000000000000000000000000000
310
0A000200FFFFFFFFFFFFFFFFFFFFFFFF00000000000000000000000000000000
310
0000000000000000000000000000000000000000000000001400000000000000
310
010043006F006D0070004F0062006A0000000000000000000000000000000000
310
0000000000000000000000000000000000000000000000000000000000000000
310
120002010100000003000000FFFFFFFF00000000000000000000000000000000
310
0000000000000000000000000000000000000000010000004D00000000000000
310
01004F006C006500310030004E00610074006900760065000000000000000000
310
0000000000000000000000000000000000000000000000000000000000000000
310
1A000200FFFFFFFFFFFFFFFFFFFFFFFF00000000000000000000000000000000
310
0000000000000000000000000000000000000000040000002426000000000000
310
FEFFFFFF02000000FEFFFFFFFFFFFFFFFFFFFFFFFFFFFFFFFFFFFFFFFFFFFFFF
310
FFFFFFFFFFFFFFFFFFFFFFFFFFFFFFFFFFFFFFFFFFFFFFFFFFFFFFFFFFFFFFFF
310
FFFFFFFFFFFFFFFFFFFFFFFFFFFFFFFFFFFFFFFFFFFFFFFFFFFFFFFFFFFFFFFF
310
FFFFFFFFFFFFFFFFFFFFFFFFFFFFFFFFFFFFFFFFFFFFFFFFFFFFFFFFFFFFFFFF
310
FFFFFFFFFFFFFFFFFFFFFFFFFFFFFFFFFFFFFFFFFFFFFFFFFFFFFFFFFFFFFFFF
310
FFFFFFFFFFFFFFFFFFFFFFFFFFFFFFFFFFFFFFFFFFFFFFFFFFFFFFFFFFFFFFFF
310
FFFFFFFFFFFFFFFFFFFFFFFFFFFFFFFFFFFFFFFFFFFFFFFFFFFFFFFFFFFFFFFF
310
FFFFFFFFFFFFFFFFFFFFFFFFFFFFFFFFFFFFFFFFFFFFFFFFFFFFFFFFFFFFFFFF
310
FFFFFFFFFFFFFFFFFFFFFFFFFFFFFFFFFFFFFFFFFFFFFFFFFFFFFFFFFFFFFFFF
310
FFFFFFFFFFFFFFFFFFFFFFFFFFFFFFFFFFFFFFFFFFFFFFFFFFFFFFFFFFFFFFFF
310
FFFFFFFFFFFFFFFFFFFFFFFFFFFFFFFFFFFFFFFFFFFFFFFFFFFFFFFFFFFFFFFF
310
FFFFFFFFFFFFFFFFFFFFFFFFFFFFFFFFFFFFFFFFFFFFFFFFFFFFFFFFFFFFFFFF
310
FFFFFFFFFFFFFFFFFFFFFFFFFFFFFFFFFFFFFFFFFFFFFFFFFFFFFFFFFFFFFFFF
310
FFFFFFFFFFFFFFFFFFFFFFFFFFFFFFFFFFFFFFFFFFFFFFFFFFFFFFFFFFFFFFFF
310
FFFFFFFFFFFFFFFFFFFFFFFFFFFFFFFFFFFFFFFFFFFFFFFFFFFFFFFFFFFFFFFF
310
FFFFFFFFFFFFFFFFFFFFFFFFFFFFFFFFFFFFFFFFFFFFFFFFFFFFFFFFFFFFFFFF
310
0100000200000000000000000000000000000000000000000000000000000000
310
0000000000000000000000000000000000000000000000000000000000000000
310
0100FEFF030A0000FFFFFFFF0A00030000000000C00000000000004607000000
310
5042727573680007000000504272757368000700000050427275736800F439B2
310
7100000000000000000000000000000000000000000000000000000000000000
310
0000000000000000000000000000000000000000000000000000000000000000
310
0000000000000000000000000000000000000000000000000000000000000000
310
0000000000000000000000000000000000000000000000000000000000000000
310
0000000000000000000000000000000000000000000000000000000000000000
310
0000000000000000000000000000000000000000000000000000000000000000
310
0000000000000000000000000000000000000000000000000000000000000000
310
0000000000000000000000000000000000000000000000000000000000000000
310
0000000000000000000000000000000000000000000000000000000000000000
310
0000000000000000000000000000000000000000000000000000000000000000
310
0000000000000000000000000000000000000000000000000000000000000000
310
0000000000000000000000000000000000000000000000000000000000000000
310
20260000424D0E260000000000003E00000028000000B40200006E0000000100
310
01000000000000000000130B0000130B00000200000002000000000000FFFFFF
310
FFFFFFFFFFFFFFFFFFFFFFFFFFFFFFFFFFFFFFFFFFFFFFFFFFFFFFFFFFFFFFFF
310
FFFFFFFFFFFFFFFFFFFFFFFFFFFFFFFFFFFFFFFFFFFFFFFFFFFFFFFFFFFFFFFF
310
FFFFFFFFFFFFFFFFFFFFFFFFFFFFFFFFFFFFFFFFFFFFFFFFF000FFFFFFFFFFFF
310
FFFFFFFFFFFFFFFFFFFFFFFFFFFFFFFFFFFFFFFFFFFFFFFFFFFFFFFFFFFFFFFF
310
FFFFFFFFFFFFFFFFFFFFFFFFFFFFFFFFFFFFFFFFFFFFFFFFFFFFFFFFFFFFFFFF
310
FFFFFFFFFFFFFFFFFFFFFFFFFFFFFFFFF000FFFFFFFFFFFFFFFFFFFFFFFFFFFF
310
FFFFFFFFFFFFFFFFFFFFFFFFFFFFFFFFFFFFFFFFFFFFFFFFFFFFFFFFFFFFFFFF
310
FFFFFFFFFFFFFFFFFFFFFFFFFFFFFFFFFFFFFFFFFFFFFFFFFFFFFFFFFFFFFFFF
310
FFFFFFFFFFFFFFFFF000FFFFFFFFFFFFFFFFFFFFFFFFFFFFFFFFFFFFFFFFFFFF
310
FFFFFFFFFFFFFFFFFFFFFFFFFFFFFFFFFFFFFFFFFFFFFFFFFFFFFFFFFFFFFFFF
310
FFFFFFFFFFFFFFFFFFFFFFFFFFFFFFFFFFFFFFFFFFFFFFFFFFFFFFFFFFFFFFFF
310
F000FFFFFFFFFFFFFFFFFFFFFFFFFFFFFFFFFFFFFFFFFFFFFFFFFFFFFFFFFFFF
310
FFFFFFFFFFFFFFFFFFFFFFFFFFFFFFFFFFFFFFFFFFFFFFFFFFFFFFFFFFFFFFFF
310
FFFFFFFFFFFFFFFFFFFFFFFFFFFFFFFFFFFFFFFFFFFFFFFFF000FFFFFFFFFFFF
310
FFFFFFFFFFFFFFFFFFFFFFFFFFFFFFFFFFFFFFFFFFFFFFFFFFFFFFFFFFFFFFFF
310
FFFFFFFFFFFFFFFFFFFFFFFFFFFFFFFFFFFFFFFFFFFFFFFFFFFFFFFFFFFFFFFF
310
FFFFFFFFFFFFFFFFFFFFFFFFFFFFFFFFF000FFFFFFFFFFFFFFFFFFFFFFFFFFFF
310
FFFFFFFFFFFFFFFFFFFFFFFFFFFFFFFFFFFFFFFFFFFFFFFFFFFFFFFFFFFFFFFF
310
FFFFFFFFFFFFFFFFFFFFFFFFFFFFFFFFFFFFFFFFFFFFFFFFFFFFFFFFFFFFFFFF
310
FFFFFFFFFFFFFFFFF000FFFFFFFFFFFFFFFFFFFFFFFFFFFFFFFFFFFFFFFFFFFF
310
FFFFFFFFFFFFFFFFFFFFFFFFFFFFFFFFFFFFFFFFFFFFFFFFFFFFFFFFFFFFFFFF
310
FFFFFFFFFFFFFFFFFFFFFFFFFFFFFFFFFFFFFFFFFFFFFFFFFFFFFFFFFFFFFFFF
310
F000FFFFFFFFFFFFFFFFFFFFFFFFFFFFFFFFFFFFFFFFFFFFFFFFFFFFFFFFFFFF
310
FFFFFFFFFFFFFFFFFFFFFFFFFFFFFFFFFFFFFFFFFFFFFFFFFFFFFFFFFFFFFFFF
310
FFFFFFFFFFFFFFFFFFFFFFFFFFFFFFFFFFFFFFFFFFFFFFFFF000FFFFFFFFFFFF
310
FFFFFFFFFFFFFFFFFFFFFFFFFFFFFFFFFFFFFFFFFFFFFFFFFFFFFFFFFFFFFFFF
310
FFFFFFFFFFFFFFFFFFFFFFFFFFFFFFFFFFFFFFFFFFFFFFFFFFFFFFFFFFFFFFFF
310
FFFFFFFFFFFFFFFFFFFFFFFFFFFFFFFFF000FFFFFFFFFFFFFFFFFFFFFFFFFFFF
310
FFFFFFFFFFFFFFFFFFFFFFFFFFFFFFFFFFFFFFFFFFFFFFFFFFFFFFFFFFFFFFFF
310
FFFFFFFFFFFFFFFFFFFFFFFFFFFFFFFFFFFFFFFFFFFFFFFFFFFFFFFFFFFFFFFF
310
FFFFFFFFFFFFFFFFF000FFFFFFFFFFFFFFFFFFFFFFFFFFFFFFFFFFFFFFFFFFFF
310
FFFFFFFFFFFFFFFFFFFFFFFFFFFFFFFFFFFFFFFFFFFFFFFFFFFFFFFFFFFFFFFF
310
FFFFFFFFFFFFFFFFFFFFFFFFFFFFFFFFFFFFFFFFFFFFFFFFFFFFFFFFFFFFFFFF
310
F000FFFFFFFFFFFFFFFFFFFFFFFFFFFFFFFFFFFFFFFFFFFFFFFFFFFFFFFFFFFF
310
FFFFFFFFFFFFFFFFFFFFFFFFFFFFFFFFFFFFFFFFFFFFFFFFFFFFFFFFFFFFFFFF
310
FFFFFFFFFFFFFFFFFFFFFFFFFFFFFFFFFFFFFFFFFFFFFFFFF000FFFFFFFFFFFF
310
FFFFFFFFFFFFFFFFFFFFFFFFFFFFFFFFFFFFFFFFFFFFFFFFFFFFFFFFFFFFFFFF
310
FFFFFFFFFFFFFFFFFFFFFFFFFFFFFFFFFFFFFFFFFFFFFFFFFFFFFFFFFFFFFFFF
310
FFFFFFFFFFFFFFFFFFFFFFFFFFFFFFFFF000FFFFFFFFFFFFFFFFFFFFFFFFFFFF
310
FFFFFFFFFFFFFFFFFFFFFFFFFFFFFFFFFFFFFFFFFFFFFFFFFFFFFFFFFFFFFFFF
310
FFFFFFFFFFFFFFFFFFFFFFFFFFFFFFFFFFFFFFFFFFFFFFFFFFFFFFFFFFFFFFFF
310
FFFFFFFFFFFFFFFFF000FFFFFFFFFFFFFFFFFFFFFFFFFFFFFFFFFFFFFFFFFFFF
310
FFFFFFFFFFFFFFFFFFFFFFFFFFFFFFFFFFFFFFFFFFFFFFFFFFFFFFFFFFFFFFFF
310
FFFFFFFFFFFFFFFFFFFFFFFFFFFFFFFFFFFFFFFFFFFFFFFFFFFFFFFFFFFFFFFF
310
F000FFFFFFFFFFFFFFFFFFFFFFFFFFFFFFFFFFFFFFFFFFFFFFFFFFFFFFFFFFFF
310
FFFFFFFFFFFFFFFFFFFFFFFFFFFFFFFFFFFFFFFFFFFFFFFFFFFFFFFFFFFFFFFF
310
FFFFFFFFFFFFFFFFFFFFFFFFFFFFFFFFFFFFFFFFFFFFFFFFF000FFFFFFFFFFFF
310
FFFFFFFFFFFFFFFFFFFFFFFFFFFFFFFFFFFFFFFFFFFFFFFFFFFFFFFFFFFFFFFF
310
FFFFFFFFFFFFFFFFFFFFFFFFFFFFFFFFFFFFFFFFFFFFFFFFFFFFFFFFFFFFFFFF
310
FFFFFFFFFFFFFFFFFFFFFFFFFFFFFFFFF000FFFFFFFFFFFFFFFFFFFFFFFFFFFF
310
FFFFFFFFFFFFFFFFFFFFFFFFFFFFFFFFFFFFFFFFFFFFFFFFFFFFFFFFFFFFFFFF
310
FFFFFFFFFFFFFFFFFFFFFFFFFFFFFFFFFFFFFFFFFFFFFFFFFFFFFFFFFFFFFFFF
310
FFFFFFFFFFFFFFFFF000FFFFF80003FFFFFFFFFFFFFFFFFFFFFFFFFFFFFFFFFF
310
FFFFF00007FFFFFFFFFF00007FFFFFF800000000000000007FFFFFFFFFFFFFFF
310
FFFFFFFC001FFFFFFFFFFFFFFC001FFFFFFFFFFFFFFFFFFFFFFFFFFE0007FFFF
310
F000FFFF8000007FFFFFFFF8000FFFFFC0007FFFFF80007FFFFF0000007FFFFF
310
FFF8000007FFFFF800000000000000007FFFFFF0001FFFFFFFFFFFC00001FFFF
310
FFFFFFFFC00001FFFFFFFF000000000003FFFFE000007FFFF000FFFE0000000F
310
FFFFFFF0000FFFFF80007FFFFF80007FFFFC0000001FFFFFFFC0000001FFFFF8
310
00000000000000007FFFFFF0001FFFFFFFFFFE0000003FFFFFFFFFFE0000003F
310
FFFFFF000000000003FFFF0000000FFFF000FFF800000003FFFFFFF00007FFFF
310
80007FFFFF80007FFFF000000007FFFFFF000000003FFFF80000000000000000
310
7FFFFFF0001FFFFFFFFFF80000000FFFFFFFFFF80000000FFFFFFF0000000000
310
03FFFC00000003FFF000FFE000000000FFFFFFF00007FFFF80003FFFFF80007F
310
FFC000000001FFFFFC000000001FFFF800000000000000007FFFFFF0001FFFFF
310
FFFFE000000003FFFFFFFFE000000003FFFFFF000000000003FFF000000000FF
310
F000FF80000000007FFFFFF00007FFFF80003FFFFF80007FFF8000000000FFFF
310
F80000000007FFF800000000000000007FFFFFF0001FFFFFFFFFC000000001FF
310
FFFFFFC000000001FFFFFF000000000003FFC0000000007FF000FF0000000000
310
3FFFFFE00007FFFF00003FFFFF80007FFE00000000003FFFF00000000003FFF8
310
00000000000000007FFFFFF0001FFFFFFFFF8000000000FFFFFFFF8000000000
310
FFFFFF000000000003FF80000000003FF000FE00000000001FFFFFE00003FFFF
310
00003FFFFF80007FFC00000000001FFFE00000000001FFF8000001FFFE000000
310
7FFFFFF0001FFFFFFFFE00000000003FFFFFFE00000000003FFFFF0000000000
310
03FF00000000001FF000FC00000000000FFFFFE00003FFFF00001FFFFF80007F
310
F800000000001FFFC00000000000FFF8000001FFFE0000007FFFFFF0001FFFFF
310
FFFC00000000001FFFFFFC00000000001FFFFF000000000003FE00000000000F
310
F000F8000000000007FFFFE00003FFFF00001FFFFF80007FF800000000000FFF
310
800000000000FFF8000001FFFE0000007FFFFFF0001FFFFFFFF800000000000F
310
FFFFF800000000000FFFFF000000000003FC000000000007F000F80000000000
310
03FFFFC00003FFFE00001FFFFF80007FF0000000000007FF0000000000007FF8
310
000001FFFE0000007FFFFFF0001FFFFFFFF0000000000007FFFFF00000000000
310
07FFFF000000000003F8000000000003F000F0000000000003FFFFC00001FFFE
310
00001FFFFF80007FE0000000000007FE0000000000003FF8000001FFFE000000
310
7FFFFFF0001FFFFFFFF0000000000007FFFFF0000000000007FFFF0000000000
310
03F800001F800003F000E00001FFF00001FFFFC00001FFFE00000FFFFF80007F
310
E00001FFE00003FE00001FFF00003FF8000001FFFE0000007FFFFFF0001FFFFF
310
FFE000003E000003FFFFE000003E000003FFFF000000000003F00001FFF80001
310
F000E00007FFFC0001FFFFC00001FFFE00000FFFFF80007FC0000FFFFC0003FC
310
0000FFFFC0001FF8000001FFFE0000007FFFFFF0001FFFFFFFC00003FFE00001
310
FFFFC00003FFE00001FFFF0001FFFFFFFFF00007FFFE0001F000E0000FFFFF00
310
00FFFF800001FFFC00000FFFFF80007FC0001FFFFE0001FC0001FFFFE0001FF8
310
000001FFFE0000007FFFFFF0001FFFFFFF80000FFFF80000FFFF80000FFFF800
310
00FFFF0003FFFFFFFFE0000FFFFF8000F000C0003FFFFF8000FFFF800000FFFC
310
000007FFFF80007F80003FFFFF0001FC0003FFFFF0001FF8000001FFFE000000
310
7FFFFFF0001FFFFFFF80003FFFFE0000FFFF80003FFFFE0000FFFF0003FFFFFF
310
FFE0003FFFFF8000F000C0003FFFFF8000FFFF800000FFFC000007FFFF80007F
310
80007FFFFF8001F80007FFFFF8000FF8000001FFFE0000007FFFFFF0001FFFFF
310
FF00007FFFFF00007FFF00007FFFFF00007FFF0003FFFFFFFFE0003FFFFFC000
310
F000C0007FFFFFC000FFFF000000FFFC000007FFFF80007F8000FFFFFF8000F8
310
000FFFFFF8000FF8000001FFFE0000007FFFFFF0001FFFFFFF0000FFFFFF8000
310
7FFF0000FFFFFF80007FFF0003FFFFFFFFC0007FFFFFC00070008000FFFFFFC0
310
00FFFF000000FFF8000007FFFF80007F8000FFFFFF8000F8000FFFFFF8000FF8
310
000001FFFE0000007FFFFFF0001FFFFFFE0001FFFFFFC0003FFE0001FFFFFFC0
310
003FFF0003FFFFFFFFC0007FFFFFE00070008000FFFFFFC0007FFF0000007FF8
310
000003FFFF80007F0001FFFFFF8000F8000FFFFFF8000FF8000001FFFE000000
310
7FFFFFF0001FFFFFFE0001FFFFFFC0003FFE0001FFFFFFC0003FFF0003FFFFFF
310
FFC000FFFFFFE00070008000FFFFFFC0007FFF0000007FF8000003FFFF80007F
310
0001FFFFFF8000F8001FFFFFF8000FF8000001FFFE0000007FFFFFF0001FFFFF
310
FE0003FFFFFFE0003FFE0003FFFFFFE0003FFF0003FFFFFFFFC000FFFFFFE000
310
70008000FFFFFFC0007FFE0000007FF8000003FFFF80007F0001FFFFFF8000F0
310
001FFFFFF8000FF8000001FFFE0000007FFFFFF0001FFFFFFC0003FFFFFFE000
310
1FFC0003FFFFFFE0001FFF0003FFFFFFFFC000FFFFFFC00070008000FFFFFF80
310
007FFE0000007FF0000003FFFF80007F0001FFFFFF0000F0001FFFFFF8000FF8
310
000001FFFE0000007FFFFFF0001FFFFFFC0007FFFFFFF0001FFC0007FFFFFFF0
310
001FFF0003FFFFFFFFC000FFFFFFC00070008001FFFFFF0000FFFE0000003FF0
310
000001FFFF80007F0001FFFFFF0000F8001FFFFFF0000FF8000001FFFE000000
310
7FFFFFF0001FFFFFFC0007FFFFFFF0001FFC0007FFFFFFF0001FFF0003FFFFFF
310
FFC001FFFFFF80007000FFFFFFFFFE0000FFFE0008003FF0008001FFFF80007F
310
FFFFFFFFFC0000FFFFFFFFFFE0000FF8000001FFFE0000007FFFFFF0001FFFFF
310
F8000FFFFFFFF8000FF8000FFFFFFFF8000FFF0003FFFFFFFFFFFFFFFFFF0000
310
7000FFFFFFFFFC0000FFFC0008003FF0008001FFFF80007FFFFFFFFFF80001FF
310
FFFFFFFF80000FF8000001FFFE0000007FFFFFF0001FFFFFF8000FFFFFFFF800
310
0FF8000FFFFFFFF8000FFF0003FFFFFFFFFFFFFFFFFE0000F000FFFFFFFFE000
310
00FFFC000C003FE000C001FFFF80007FFFFFFFFFC00001FFFFFFFFFE00001FF8
310
000001FFFE0000007FFFFFF0001FFFFFF8000FFFFFFFF8000FF8000FFFFFFFF8
310
000FFF0003FFFFFFFFFFFFFFFFF00000F000FFFFFFFE000001FFFC000C001FE0
310
00C000FFFF80007FFFFFFFFE000001FFFFFFFFE000001FF80FFFFFFFFFFFFFC0
310
7FFFFFF0001FFFFFF8000FFFFFFFF8000FF8000FFFFFFFF8000FFF0003FFFFFF
310
FFFFFFFFFF800000F000FFFFFFC0000001FFFC001C001FE001C000FFFF80007F
310
FFFFFF80000003FFFFFFF80000001FF80FFFFFFFFFFFFFC07FFFFFF0001FFFFF
310
F8001FFFFFFFFC000FF8001FFFFFFFFC000FFF0003FFFFFFFFFFFFFFF0000001
310
F000FFFFF800000001FFF8001C001FE001C000FFFF80007FFFFFF800000003FF
310
FFFF800000003FF80FFFFFFFFFFFFFC07FFFFFF0001FFFFFF8001FFFFFFFFC00
310
0FF8001FFFFFFFFC000FFF0003FFFFFFFFFFFFFE00000001F000FFFFC0000000
310
03FFF8001E001FC001E000FFFF80007FFFFF8000000007FFFFFC000000003FF8
310
0FFFFFFFFFFFFFC07FFFFFF0001FFFFFF8001FFFFFFFFC000FF8001FFFFFFFFC
310
000FFF0003FFFFFFFFFFFFE000000003F000FFFE0000000007FFF8001E000FC0
310
01E0007FFF80007FFFFE0000000007FFFFE0000000007FF80FFFFFFFFFFFFFC0
310
7FFFFFF0001FFFFFF0001FFFFFFFFC0007F0001FFFFFFFFC0007FF0003FFFFFF
310
FFFFFF0000000003F000FFF80000000007FFF8001E000FC003E0007FFF80007F
310
FFF0000000000FFFFF8000000000FFF80FFFFFFFFFFFFFC07FFFFFF0001FFFFF
310
F0001FFFFFFFFC0007F0001FFFFFFFFC0007FF0003FFFFFFFFFFFC0000000007
310
F000FFE0000000000FFFF0003E000FC003E0007FFF80007FFFC0000000001FFF
310
FE0000000001FFF80FFFFFFFFFFFFFC07FFFFFF0001FFFFFF0001FFFFFFFFC00
310
07F0001FFFFFFFFC0007FF0003FFFFFFFFFFF0000000000FF000FFC000000000
310
1FFFF0003F000F8003F0003FFF80007FFF80000000003FFFF80000000003FFF8
310
0FFFFFFFFFFFFFC07FFFFFF0001FFFFFF0001FFFFFFFFC0007F0001FFFFFFFFC
310
0007FF0003FFFFFFFFFFE0000000001FF000FF00000000007FFFF0003F000780
310
03F0003FFF80007FFF00000000007FFFF00000000007FFF80FFFFFFFFFFFFFC0
310
7FFFFFF0001FFFFFF0001FFFFFFFFC0007F0001FFFFFFFFC0007FF0003FFFFFF
310
FFFF80000000007FF000FE0000000000FFFFE0003F00078007F0003FFF80007F
310
FE0000000001FFFFE0000000001FFFF80FFFFFFFFFFFFFC07FFFFFF0001FFFFF
310
F0001FFFFFFFFC0007F0001FFFFFFFFC0007FF0003FFFFFFFFFF0000000000FF
310
F000FC0000000003FFFFE0007F00078007F0003FFF80007FFC0000000007FFFF
310
C0000000007FFFF80FFFFFFFFFFFFFC07FFFFFF0001FFFFFF8001FFFFFFFFC00
310
0FF8001FFFFFFFFC000FFF0003FFFFFFFFFE0000000003FFF000FC000000000F
310
FFFFE0007F80070007F8001FFF80007FF8000000001FFFFF8000000001FFFFF8
310
0FFFFFFFFFFFFFC07FFFFFF0001FFFFFF8001FFFFFFFFC000FF8001FFFFFFFFC
310
000FFF0003FFFFFFFFFC000000000FFFF000F8000000007FFFFFE0007F800700
310
07F8001FFF80007FF000000000FFFFFF800000000FFFFFF80FFFFFFFFFFFFFC0
310
7FFFFFF0001FFFFFF8000FFFFFFFF8000FF8000FFFFFFFF8000FFF0003FFFFFF
310
FFFC000000007FFFF000F800000007FFFFFFC0007F8003000FF8001FFF80007F
310
F000000007FFFFFF000000007FFFFFF80FFFFFFFFFFFFFC07FFFFFF0001FFFFF
310
F8000FFFFFFFF8000FF8000FFFFFFFF8000FFF0003FFFFFFFFF80000000FFFFF
310
F000F0000000FFFFFFFFC000FF8003000FF8001FFF80007FE0000000FFFFFFFF
310
0000000FFFFFFFF8000001FFFE0000007FFFFFF0001FFFFFF8000FFFFFFFF800
310
0FF8000FFFFFFFF8000FFF0003FFFFFFFFF8000000FFFFFFF000F000000FFFFF
310
FFFFC000FFC002000FF8000FFF80007FE000001FFFFFFFFE000001FFFFFFFFF8
310
000001FFFE0000007FFFFFF0001FFFFFF8000FFFFFFFF8000FF8000FFFFFFFF8
310
000FFF0003FFFFFFFFF000001FFFFFFFF000E00000FFFFFFFFFFC000FFC00200
310
0FFC000FFF80007FE00001FFFFFFFFFE00001FFFFFFFFFF8000001FFFE000000
310
7FFFFFF0001FFFFFFC000FFFFFFFF8001FFC000FFFFFFFF8001FFF0003FFFFFF
310
FFF00001FFFFFFFFF000E00007FFFFFFFFFF8000FFC000001FFC000FFF80007F
310
C0000FFFFFFFFFFE0000FFFFFFFFFFF8000001FFFE0000007FFFFFF0001FFFFF
310
FC0007FFFFFFF0001FFC0007FFFFFFF0001FFF0003FFFFFFFFF00007FFFFFFFF
310
F000E0001FFFFFFFFFFF8000FFC000001FFC000FFF80007FC0003FFFFFFFFFFE
310
0001FFFFFFFFFFF8000001FFFE0000007FFFFFF0001FFFFFFC0007FFFFFFF000
310
1FFC0007FFFFFFF0001FFF0003FFFFFFFFF0001FFFFFFFFFF000E0003FFFFF00
310
03FF8001FFE000001FFC0007FF80007FC0007FFFFF0007FC0003FFFFF0003FF8
310
000001FFFE0000007FFFFFF0001FFFFFFC0003FFFFFFE0001FFC0003FFFFFFE0
310
001FFF0003FFFFFFFFF0003FFFFFFFFFF000E0003FFFFF0001FF8001FFE00000
310
1FFE0007FF80007FC0007FFFFE0003FC0007FFFFE0003FF8000001FFFE000000
310
7FFFFFF0001FFFFFFE0003FFFFFFE0003FFE0003FFFFFFE0003FFF0003FFFFFF
310
FFF0003FFFFF8001F000E0003FFFFF0001FF0001FFE000001FFE0007FF80007F
310
C0007FFFFE0003FC0007FFFFE0003FF8000001FFFE0000007FFFFFF0001FFFFF
310
FE0001FFFFFFC0003FFE0001FFFFFFC0003FFF0003FFFFFFFFF0003FFFFF0001
310
F000E0003FFFFF0003FF0001FFE000003FFE0007FF80007FC0007FFFFE0003FC
310
0007FFFFE0003FF8000001FFFE0000007FFFFFF0001FFFFFFF0001FFFFFFC000
310
7FFF0001FFFFFFC0007FFF0003FFFFFFFFF0003FFFFF0001F000E0003FFFFE00
310
03FF0003FFF000003FFE0003FF80007FC0007FFFFC0003FE0007FFFFE0003FF8
310
000001FFFE0000007FFFFFF0001FFFFFFF0000FFFFFF80007FFF0000FFFFFF80
310
007FFF0003FFFFFFFFF0003FFFFF0001F000E0003FFFFE0003FF0003FFF00000
310
3FFF0003FF80007FC0007FFFFC0007FE0007FFFFC0003FF8000001FFFE000000
310
7FFFFFF0001FFFFFFF80007FFFFF0000FFFF80007FFFFF0000FFFF0003FFFFFF
310
FFF0003FFFFF0003F000E0003FFFFC0003FE0003FFF000003FFF0003FF80007F
310
E0003FFFF80007FE0003FFFFC0007FF8000001FFFE0000007FFFFFF0001FFFFF
310
FF80003FFFFE0000FFFF80003FFFFE0000FFFF0003FFFFFFFFF0001FFFFE0003
310
F000F0001FFFF80003FE0003FFF000007FFF0001FF80007FE0003FFFF00007FE
310
0001FFFF80007FF8000001FFFE0000007FFFFFF0001FFFFFFFC0000FFFF80001
310
FFFFC0000FFFF80001FFFF0003FFFFFFFFF0001FFFFC0003F000F0000FFFF000
310
07FE0007FFF800007FFF0001FF80007FE0001FFFE00007FF0000FFFE00007FF8
310
000001FFFE0000007FFFFFF0001FFFFFFFC00003FFE00001FFFFC00003FFE000
310
01FFFF0003FFFFFFFFF8000FFFF80003F000F00003FFC00007FC0007FFF80000
310
7FFF8001FF80007FF00007FF80000FFF00007FF80000FFF8000001FFFE000000
310
7F80000000000001FFE000003E000003FFFFE000003E000003FFFF0003FFFFFF
310
FFF80003FFE00007F000F800000000000FFC0007FFF800007FFF8001FF80007F
310
F000000000000FFF000000000000FFF8000001FFFE0000007F80000000000001
310
FFF0000000000007FFFFF0000000000007FFFF0003FFFFFFFFFC00007E000007
310
F000F800000000000FFC0007FFF80000FFFF8000FF80007FF800000000001FFF
310
800000000001FFF8000001FFFE0000007F80000000000001FFF800000000000F
310
FFFFF800000000000FFFFF0003FFFFFFFFFC00000000000FF000FC0000000000
310
1FFC0007FFFC0000FFFF8000FF80007FF800000000003FFFC00000000001FFF8
310
000001FFFE0000007F80000000000001FFF800000000000FFFFFF80000000000
310
0FFFFF0003FFFFFFFFFE00000000001FF000FE00000000003FF8000FFFFC0000
310
FFFF8000FF80007FFC00000000003FFFC00000000003FFF8000001FFFE000000
310
7F80000000000001FFFC00000000001FFFFFFC00000000001FFFFF0003FFFFFF
310
FFFF00000000001FF000FF00000000003FF8000FFFFC0000FFFFC000FF80007F
310
FE00000000007FFFE00000000007FFF8000001FFFE0000007F80000000000001
310
FFFE00000000003FFFFFFE00000000003FFFFF0003FFFFFFFFFF80000000003F
310
F000FF80000000007FF8000FFFFC0001FFFFC0007F80007FFF0000000000FFFF
310
F0000000000FFFF800000000000000007F80000000000001FFFF8000000000FF
310
FFFFFF8000000000FFFFFF0003FFFFFFFFFFC0000000007FF000FFC000000000
310
FFF8000FFFFE0001FFFFC0007F80007FFF8000000001FFFFF8000000001FFFF8
310
00000000000000007F80000000000001FFFFC000000001FFFFFFFFC000000001
310
FFFFFF0003FFFFFFFFFFE000000000FFF000FFE000000003FFF0001FFFFE0001
310
FFFFC0007F80007FFFC000000007FFFFFE000000003FFFF80000000000000000
310
7F80000000000001FFFFE000000003FFFFFFFFE000000003FFFFFF0003FFFFFF
310
FFFFF000000003FFF000FFF80000000FFFF0001FFFFE0001FFFFE0007F80007F
310
FFF00000000FFFFFFF00000000FFFFF800000000000000007F80000000000001
310
FFFFF80000000FFFFFFFFFF80000000FFFFFFF0003FFFFFFFFFFFC0000000FFF
310
F000FFFE0000003FFFF0001FFFFE0003FFFFE0003F80007FFFFC0000003FFFFF
310
FFC0000003FFFFF800000000000000007F80000000000001FFFFFE0000003FFF
310
FFFFFFFE0000003FFFFFFF0003FFFFFFFFFFFF0000003FFFF000FFFF800000FF
310
FFF0001FFFFF0003FFFFE0003F80007FFFFF000001FFFFFFFFF800001FFFFFF8
310
00000000000000007F80000000000001FFFFFFC00001FFFFFFFFFFFFC00001FF
310
FFFFFF0003FFFFFFFFFFFFC00000FFFFF000FFFFF8000FFFFFFFFFFFFFFFFFFF
310
FFFFFFFFFFFFFFFFFFFFF0001FFFFFFFFFFF0000FFFFFFF80000000000000000
310
7FFFFFFFFFFFFFFFFFFFFFFC001FFFFFFFFFFFFFFC001FFFFFFFFFFFFFFFFFFF
310
FFFFFFFC001FFFFFF000FFFFFFFFFFFFFFFFFFFFFFFFFFFFFFFFFFFFFFFFFFFF
310
FFFFFFFFFFFFFFFFFFFFFFFFFFFFFFFFFFFFFFFFFFFFFFFFFFFFFFFFFFFFFFFF
310
FFFFFFFFFFFFFFFFFFFFFFFFFFFFFFFFFFFFFFFFFFFFFFFFFFFFFFFFFFFFFFFF
310
F000FFFFFFFFFFFFFFFFFFFFFFFFFFFFFFFFFFFFFFFFFFFFFFFFFFFFFFFFFFFF
310
FFFFFFFFFFFFFFFFFFFFFFFFFFFFFFFFFFFFFFFFFFFFFFFFFFFFFFFFFFFFFFFF
310
FFFFFFFFFFFFFFFFFFFFFFFFFFFFFFFFFFFFFFFFFFFFFFFFF000FFFFFFFFFFFF
310
FFFFFFFFFFFFFFFFFFFFFFFFFFFFFFFFFFFFFFFFFFFFFFFFFFFFFFFFFFFFFFFF
310
FFFFFFFFFFFFFFFFFFFFFFFFFFFFFFFFFFFFFFFFFFFFFFFFFFFFFFFFFFFFFFFF
310
FFFFFFFFFFFFFFFFFFFFFFFFFFFFFFFFF000FFFFFFFFFFFFFFFFFFFFFFFFFFFF
310
FFFFFFFFFFFFFFFFFFFFFFFFFFFFFFFFFFFFFFFFFFFFFFFFFFFFFFFFFFFFFFFF
310
FFFFFFFFFFFFFFFFFFFFFFFFFFFFFFFFFFFFFFFFFFFFFFFFFFFFFFFFFFFFFFFF
310
FFFFFFFFFFFFFFFFF000FFFFFFFFFFFFFFFFFFFFFFFFFFFFFFFFFFFFFFFFFFFF
310
FFFFFFFFFFFFFFFFFFFFFFFFFFFFFFFFFFFFFFFFFFFFFFFFFFFFFFFFFFFFFFFF
310
FFFFFFFFFFFFFFFFFFFFFFFFFFFFFFFFFFFFFFFFFFFFFFFFFFFFFFFFFFFFFFFF
310
F000FFFFFFFFFFFFFFFFFFFFFFFFFFFFFFFFFFFFFFFFFFFFFFFFFFFFFFFFFFFF
310
FFFFFFFFFFFFFFFFFFFFFFFFFFFFFFFFFFFFFFFFFFFFFFFFFFFFFFFFFFFFFFFF
310
FFFFFFFFFFFFFFFFFFFFFFFFFFFFFFFFFFFFFFFFFFFFFFFFF000FFFFFFFFFFFF
310
FFFFFFFFFFFFFFFFFFFFFFFFFFFFFFFFFFFFFFFFFFFFFFFFFFFFFFFFFFFFFFFF
310
FFFFFFFFFFFFFFFFFFFFFFFFFFFFFFFFFFFFFFFFFFFFFFFFFFFFFFFFFFFFFFFF
310
FFFFFFFFFFFFFFFFFFFFFFFFFFFFFFFFF000FFFFFFFFFFFFFFFFFFFFFFFFFFFF
310
FFFFFFFFFFFFFFFFFFFFFFFFFFFFFFFFFFFFFFFFFFFFFFFFFFFFFFFFFFFFFFFF
310
FFFFFFFFFFFFFFFFFFFFFFFFFFFFFFFFFFFFFFFFFFFFFFFFFFFFFFFFFFFFFFFF
310
FFFFFFFFFFFFFFFFF000FFFFFFFFFFFFFFFFFFFFFFFFFFFFFFFFFFFFFFFFFFFF
310
FFFFFFFFFFFFFFFFFFFFFFFFFFFFFFFFFFFFFFFFFFFFFFFFFFFFFFFFFFFFFFFF
310
FFFFFFFFFFFFFFFFFFFFFFFFFFFFFFFFFFFFFFFFFFFFFFFFFFFFFFFFFFFFFFFF
310
F000FFFFFFFFFFFFFFFFFFFFFFFFFFFFFFFFFFFFFFFFFFFFFFFFFFFFFFFFFFFF
310
FFFFFFFFFFFFFFFFFFFFFFFFFFFFFFFFFFFFFFFFFFFFFFFFFFFFFFFFFFFFFFFF
310
FFFFFFFFFFFFFFFFFFFFFFFFFFFFFFFFFFFFFFFFFFFFFFFFF000FFFFFFFFFFFF
310
FFFFFFFFFFFFFFFFFFFFFFFFFFFFFFFFFFFFFFFFFFFFFFFFFFFFFFFFFFFFFFFF
310
FFFFFFFFFFFFFFFFFFFFFFFFFFFFFFFFFFFFFFFFFFFFFFFFFFFFFFFFFFFFFFFF
310
FFFFFFFFFFFFFFFFFFFFFFFFFFFFFFFFF000FFFFFFFFFFFFFFFFFFFFFFFFFFFF
310
FFFFFFFFFFFFFFFFFFFFFFFFFFFFFFFFFFFFFFFFFFFFFFFFFFFFFFFFFFFFFFFF
310
FFFFFFFFFFFFFFFFFFFFFFFFFFFFFFFFFFFFFFFFFFFFFFFFFFFFFFFFFFFFFFFF
310
FFFFFFFFFFFFFFFFF000FFFFFFFFFFFFFFFFFFFFFFFFFFFFFFFFFFFFFFFFFFFF
310
FFFFFFFFFFFFFFFFFFFFFFFFFFFFFFFFFFFFFFFFFFFFFFFFFFFFFFFFFFFFFFFF
310
FFFFFFFFFFFFFFFFFFFFFFFFFFFFFFFFFFFFFFFFFFFFFFFFFFFFFFFFFFFFFFFF
310
F000FFFFFFFFFFFFFFFFFFFFFFFFFFFFFFFFFFFFFFFFFFFFFFFFFFFFFFFFFFFF
310
FFFFFFFFFFFFFFFFFFFFFFFFFFFFFFFFFFFFFFFFFFFFFFFFFFFFFFFFFFFFFFFF
310
FFFFFFFFFFFFFFFFFFFFFFFFFFFFFFFFFFFFFFFFFFFFFFFFF000FFFFFFFFFFFF
310
FFFFFFFFFFFFFFFFFFFFFFFFFFFFFFFFFFFFFFFFFFFFFFFFFFFFFFFFFFFFFFFF
310
FFFFFFFFFFFFFFFFFFFFFFFFFFFFFFFFFFFFFFFFFFFFFFFFFFFFFFFFFFFFFFFF
310
FFFFFFFFFFFFFFFFFFFFFFFFFFFFFFFFF000FFFFFFFFFFFFFFFFFFFFFFFFFFFF
310
FFFFFFFFFFFFFFFFFFFFFFFFFFFFFFFFFFFFFFFFFFFFFFFFFFFFFFFFFFFFFFFF
310
FFFFFFFFFFFFFFFFFFFFFFFFFFFFFFFFFFFFFFFFFFFFFFFFFFFFFFFFFFFFFFFF
310
FFFFFFFFFFFFFFFFF000FFFFFFFFFFFFFFFFFFFFFFFFFFFFFFFFFFFFFFFFFFFF
310
FFFFFFFFFFFFFFFFFFFFFFFFFFFFFFFFFFFFFFFFFFFFFFFFFFFFFFFFFFFFFFFF
310
FFFFFFFFFFFFFFFFFFFFFFFFFFFFFFFFFFFFFFFFFFFFFFFFFFFFFFFFFFFFFFFF
310
F000FFFFFFFFFFFFFFFFFFFFFFFFFFFFFFFFFFFFFFFFFFFFFFFFFFFFFFFFFFFF
310
FFFFFFFFFFFFFFFFFFFFFFFFFFFFFFFFFFFFFFFFFFFFFFFFFFFFFFFFFFFFFFFF
310
FFFFFFFFFFFFFFFFFFFFFFFFFFFFFFFFFFFFFFFFFFFFFFFFF000FFFFFFFFFFFF
310
FFFFFFFFFFFFFFFFFFFFFFFFFFFFFFFFFFFFFFFFFFFFFFFFFFFFFFFFFFFFFFFF
310
FFFFFFFFFFFFFFFFFFFFFFFFFFFFFFFFFFFFFFFFFFFFFFFFFFFFFFFFFFFFFFFF
310
FFFFFFFFFFFFFFFFFFFFFFFFFFFFFFFFF000FFFFFFFFFFFFFFFFFFFFFFFFFFFF
310
FFFFFFFFFFFFFFFFFFFFFFFFFFFFFFFFFFFFFFFFFFFFFFFFFFFFFFFFFFFFFFFF
310
FFFFFFFFFFFFFFFFFFFFFFFFFFFFFFFFFFFFFFFFFFFFFFFFFFFFFFFFFFFFFFFF
310
FFFFFFFFFFFFFFFFF000FFFFFFFFFFFFFFFFFFFFFFFFFFFFFFFFFFFFFFFFFFFF
310
FFFFFFFFFFFFFFFFFFFFFFFFFFFFFFFFFFFFFFFFFFFFFFFFFFFFFFFFFFFFFFFF
310
FFFFFFFFFFFFFFFFFFFFFFFFFFFFFFFFFFFFFFFFFFFFFFFFFFFFFFFFFFFFFFFF
310
F000FFFFFFFFFFFFFFFFFFFFFFFFFFFFFFFFFFFFFFFFFFFFFFFFFFFFFFFFFFFF
310
FFFFFFFFFFFFFFFFFFFFFFFFFFFFFFFFFFFFFFFFFFFFFFFFFFFFFFFFFFFFFFFF
310
FFFFFFFFFFFFFFFFFFFFFFFFFFFFFFFFFFFFFFFFFFFFFFFFF000FFFFFFFFFFFF
310
FFFFFFFFFFFFFFFFFFFFFFFFFFFFFFFFFFFFFFFFFFFFFFFFFFFFFFFFFFFFFFFF
310
FFFFFFFFFFFFFFFFFFFFFFFFFFFFFFFFFFFFFFFFFFFFFFFFFFFFFFFFFFFFFFFF
310
FFFFFFFFFFFFFFFFFFFFFFFFFFFFFFFFF0000000000000000000000000000000
310
0000000000000000000000000000000000000000000000000000000000000000
310
0000000000000000000000000000000000000000000000000000000000000000
310
0000000000000000000000000000000000000000000000000000000000000000
310
0000000000000000000000000000000000000000000000000000000000000000
310
0000000000000000000000000000000000000000000000000000000000000000
310
0000000000000000000000000000000000000000000000000000000000000000
310
0000000000000000000000000000000000000000000000000000000000000000
310
0000000000000000000000000000000000000000000000000000000000000000
310
0000000000000000000000000000000000000000000000000000000000000000
310
0000000000000000000000000000000000000000000000000000000000000000
310
0000000000000000000000000000000000000000000000000000000000000000
310
0000000000000000000000000000000000000000000000000000000000000000
310
0000000000000000000000000000000000000000000000000000000000000000
310
0000000000000000000000000000000000000000000000000000000000000000
310
0000000000000000000000000000000000000000000000000000000000000000
  1
OLE
  0
ENDSEC
  0
SECTION
  2
OBJECTS
  0
DICTIONARY
  5
C
330
0
100
AcDbDictionary
281
     1
  3
ACAD_GROUP
350
D
  3
ACAD_LAYOUT
350
1A
  3
ACAD_MLINESTYLE
350
17
  3
ACAD_PLOTSETTINGS
350
19
  3
ACAD_PLOTSTYLENAME
350
E
  0
DICTIONARY
  5
D
102
{ACAD_REACTORS
330
C
102
}
330
C
100
AcDbDictionary
281
     1
  0
DICTIONARY
  5
1A
102
{ACAD_REACTORS
330
C
102
}
330
C
100
AcDbDictionary
281
     1
  3
Layout1
350
1E
  3
Layout2
350
26
  3
Model
350
22
  0
DICTIONARY
  5
17
102
{ACAD_REACTORS
330
C
102
}
330
C
100
AcDbDictionary
281
     1
  3
Standard
350
18
  0
DICTIONARY
  5
19
102
{ACAD_REACTORS
330
C
102
}
330
C
100
AcDbDictionary
281
     1
  0
ACDBDICTIONARYWDFLT
  5
E
102
{ACAD_REACTORS
330
C
102
}
330
C
100
AcDbDictionary
281
     1
  3
Normal
350
F
100
AcDbDictionaryWithDefault
340
F
  0
LAYOUT
  5
1E
102
{ACAD_REACTORS
330
1A
102
}
330
1A
100
AcDbPlotSettings
  1

  2
none_device
  4

  6

 40
0.0
 41
0.0
 42
0.0
 43
0.0
 44
0.0
 45
0.0
 46
0.0
 47
0.0
 48
0.0
 49
0.0
140
0.0
141
0.0
142
1.0
143
1.0
 70
   688
 72
     0
 73
     0
 74
     5
  7

 75
    16
147
1.0
148
0.0
149
0.0
100
AcDbLayout
  1
Layout1
 70
     1
 71
     1
 10
0.0
 20
0.0
 11
420.0
 21
297.0
 12
0.0
 22
0.0
 32
0.0
 14
1.0000000000E+20
 24
1.0000000000E+20
 34
1.0000000000E+20
 15
-1.0000000000E+20
 25
-1.0000000000E+20
 35
-1.0000000000E+20
146
0.0
 13
0.0
 23
0.0
 33
0.0
 16
1.0
 26
0.0
 36
0.0
 17
0.0
 27
1.0
 37
0.0
 76
     0
330
1B
  0
LAYOUT
  5
26
102
{ACAD_REACTORS
330
1A
102
}
330
1A
100
AcDbPlotSettings
  1

  2
none_device
  4

  6

 40
0.0
 41
0.0
 42
0.0
 43
0.0
 44
0.0
 45
0.0
 46
0.0
 47
0.0
 48
0.0
 49
0.0
140
0.0
141
0.0
142
1.0
143
1.0
 70
   688
 72
     0
 73
     0
 74
     5
  7

 75
    16
147
1.0
148
0.0
149
0.0
100
AcDbLayout
  1
Layout2
 70
     1
 71
     2
 10
0.0
 20
0.0
 11
0.0
 21
0.0
 12
0.0
 22
0.0
 32
0.0
 14
0.0
 24
0.0
 34
0.0
 15
0.0
 25
0.0
 35
0.0
146
0.0
 13
0.0
 23
0.0
 33
0.0
 16
1.0
 26
0.0
 36
0.0
 17
0.0
 27
1.0
 37
0.0
 76
     0
330
23
  0
LAYOUT
  5
22
102
{ACAD_REACTORS
330
1A
102
}
330
1A
100
AcDbPlotSettings
  1

  2
none_device
  4

  6

 40
0.0
 41
0.0
 42
0.0
 43
0.0
 44
0.0
 45
0.0
 46
0.0
 47
0.0
 48
0.0
 49
0.0
140
0.0
141
0.0
142
1.0
143
1.0
 70
  1712
 72
     0
 73
     0
 74
     0
  7

 75
     0
147
1.0
148
0.0
149
0.0
100
AcDbLayout
  1
Model
 70
     1
 71
     0
 10
0.0
 20
0.0
 11
297.0
 21
210.0
 12
0.0
 22
0.0
 32
0.0
 14
0.0
 24
0.0
 34
0.0
 15
297.0
 25
210.0
 35
0.0
146
0.0
 13
0.0
 23
0.0
 33
0.0
 16
1.0
 26
0.0
 36
0.0
 17
0.0
 27
1.0
 37
0.0
 76
     0
330
1F
331
29
  0
MLINESTYLE
  5
18
102
{ACAD_REACTORS
330
17
102
}
330
17
100
AcDbMlineStyle
  2
Standard
 70
     0
  3

 62
   256
 51
90.0
 52
90.0
 71
     2
 49
0.5
 62
   256
  6
BYLAYER
 49
-0.5
 62
   256
  6
BYLAYER
  0
ACDBPLACEHOLDER
  5
F
102
{ACAD_REACTORS
330
E
102
}
330
E
  0
ENDSEC
  0
EOF
