  0
SECTION
  2
HEADER
  9
$ACADVER
  1
AC1015
  9
$ACADMAINTVER
 70
     6
  9
$DWGCODEPAGE
  3
ANSI_1252
  9
$INSBASE
 10
0.0
 20
0.0
 30
0.0
  9
$EXTMIN
 10
0.0
 20
0.0
 30
0.0
  9
$EXTMAX
 10
297.0
 20
210.0
 30
0.0
  9
$LIMMIN
 10
0.0
 20
0.0
  9
$LIMMAX
 10
297.0
 20
210.0
  9
$ORTHOMODE
 70
     0
  9
$REGENMODE
 70
     1
  9
$FILLMODE
 70
     1
  9
$QTEXTMODE
 70
     0
  9
$MIRRTEXT
 70
     1
  9
$LTSCALE
 40
1.0
  9
$ATTMODE
 70
     1
  9
$TEXTSIZE
 40
2.0
  9
$TRACEWID
 40
1.0
  9
$TEXTSTYLE
  7
Standard
  9
$CLAYER
  8
0
  9
$CELTYPE
  6
ByLayer
  9
$CECOLOR
 62
   256
  9
$CELTSCALE
 40
1.0
  9
$DISPSILH
 70
     0
  9
$DIMSCALE
 40
1.0
  9
$DIMASZ
 40
3.0
  9
$DIMEXO
 40
0.0
  9
$DIMDLI
 40
3.75
  9
$DIMRND
 40
0.0
  9
$DIMDLE
 40
0.0
  9
$DIMEXE
 40
1.0
  9
$DIMTP
 40
0.0
  9
$DIMTM
 40
0.0
  9
$DIMTXT
 40
2.0
  9
$DIMCEN
 40
2.5
  9
$DIMTSZ
 40
0.0
  9
$DIMTOL
 70
     0
  9
$DIMLIM
 70
     0
  9
$DIMTIH
 70
     1
  9
$DIMTOH
 70
     1
  9
$DIMSE1
 70
     0
  9
$DIMSE2
 70
     0
  9
$DIMTAD
 70
     1
  9
$DIMZIN
 70
     0
  9
$DIMBLK
  1

  9
$DIMASO
 70
     1
  9
$DIMSHO
 70
     1
  9
$DIMPOST
  1

  9
$DIMAPOST
  1

  9
$DIMALT
 70
     0
  9
$DIMALTD
 70
     3
  9
$DIMALTF
 40
0.0393700787
  9
$DIMLFAC
 40
1.0
  9
$DIMTOFL
 70
     1
  9
$DIMTVP
 40
0.0
  9
$DIMTIX
 70
     0
  9
$DIMSOXD
 70
     0
  9
$DIMSAH
 70
     0
  9
$DIMBLK1
  1

  9
$DIMBLK2
  1

  9
$DIMSTYLE
  2
ISO-25
  9
$DIMCLRD
 70
     0
  9
$DIMCLRE
 70
     0
  9
$DIMCLRT
 70
     0
  9
$DIMTFAC
 40
1.0
  9
$DIMGAP
 40
1.524
  9
$DIMJUST
 70
     0
  9
$DIMSD1
 70
     0
  9
$DIMSD2
 70
     0
  9
$DIMTOLJ
 70
     0
  9
$DIMTZIN
 70
     0
  9
$DIMALTZ
 70
     0
  9
$DIMALTTZ
 70
     0
  9
$DIMUPT
 70
     0
  9
$DIMDEC
 70
     2
  9
$DIMTDEC
 70
     3
  9
$DIMALTU
 70
     2
  9
$DIMALTTD
 70
     3
  9
$DIMTXSTY
  7
Standard
  9
$DIMAUNIT
 70
     0
  9
$DIMADEC
 70
     2
  9
$DIMALTRND
 40
0.0
  9
$DIMAZIN
 70
     0
  9
$DIMDSEP
 70
    44
  9
$DIMATFIT
 70
     3
  9
$DIMFRAC
 70
     0
  9
$DIMLDRBLK
  1

  9
$DIMLUNIT
 70
     2
  9
$DIMLWD
 70
    -2
  9
$DIMLWE
 70
    -2
  9
$DIMTMOVE
 70
     0
  9
$LUNITS
 70
     2
  9
$LUPREC
 70
     2
  9
$SKETCHINC
 40
1.0
  9
$FILLETRAD
 40
10.0
  9
$AUNITS
 70
     0
  9
$AUPREC
 70
     2
  9
$MENU
  1
.
  9
$ELEVATION
 40
0.0
  9
$PELEVATION
 40
0.0
  9
$THICKNESS
 40
0.0
  9
$LIMCHECK
 70
     0
  9
$CHAMFERA
 40
10.0
  9
$CHAMFERB
 40
10.0
  9
$CHAMFERC
 40
20.0
  9
$CHAMFERD
 40
0.0
  9
$SKPOLY
 70
     0
  9
$TDCREATE
 40
2456070.667106991
  9
$TDUCREATE
 40
2456070.583773657
  9
$TDUPDATE
 40
2456070.667108438
  9
$TDUUPDATE
 40
2456070.583775104
  9
$TDINDWG
 40
0.0000000116
  9
$TDUSRTIMER
 40
0.0000000116
  9
$USRTIMER
 70
     1
  9
$ANGBASE
 50
0.0
  9
$ANGDIR
 70
     0
  9
$PDMODE
 70
     0
  9
$PDSIZE
 40
-1.0
  9
$PLINEWID
 40
0.0
  9
$SPLFRAME
 70
     0
  9
$SPLINETYPE
 70
     6
  9
$SPLINESEGS
 70
     8
  9
$HANDSEED
  5
211
  9
$SURFTAB1
 70
     6
  9
$SURFTAB2
 70
     6
  9
$SURFTYPE
 70
     6
  9
$SURFU
 70
     6
  9
$SURFV
 70
     6
  9
$UCSBASE
  2

  9
$UCSNAME
  2

  9
$UCSORG
 10
0.0
 20
0.0
 30
0.0
  9
$UCSXDIR
 10
1.0
 20
0.0
 30
0.0
  9
$UCSYDIR
 10
0.0
 20
1.0
 30
0.0
  9
$UCSORTHOREF
  2

  9
$UCSORTHOVIEW
 70
     0
  9
$UCSORGTOP
 10
0.0
 20
0.0
 30
0.0
  9
$UCSORGBOTTOM
 10
0.0
 20
0.0
 30
0.0
  9
$UCSORGLEFT
 10
0.0
 20
0.0
 30
0.0
  9
$UCSORGRIGHT
 10
0.0
 20
0.0
 30
0.0
  9
$UCSORGFRONT
 10
0.0
 20
0.0
 30
0.0
  9
$UCSORGBACK
 10
0.0
 20
0.0
 30
0.0
  9
$PUCSBASE
  2

  9
$PUCSNAME
  2

  9
$PUCSORG
 10
0.0
 20
0.0
 30
0.0
  9
$PUCSXDIR
 10
1.0
 20
0.0
 30
0.0
  9
$PUCSYDIR
 10
0.0
 20
1.0
 30
0.0
  9
$PUCSORTHOREF
  2

  9
$PUCSORTHOVIEW
 70
     0
  9
$PUCSORGTOP
 10
0.0
 20
0.0
 30
0.0
  9
$PUCSORGBOTTOM
 10
0.0
 20
0.0
 30
0.0
  9
$PUCSORGLEFT
 10
0.0
 20
0.0
 30
0.0
  9
$PUCSORGRIGHT
 10
0.0
 20
0.0
 30
0.0
  9
$PUCSORGFRONT
 10
0.0
 20
0.0
 30
0.0
  9
$PUCSORGBACK
 10
0.0
 20
0.0
 30
0.0
  9
$USERI1
 70
     0
  9
$USERI2
 70
     0
  9
$USERI3
 70
     0
  9
$USERI4
 70
     0
  9
$USERI5
 70
     0
  9
$USERR1
 40
0.0
  9
$USERR2
 40
0.0
  9
$USERR3
 40
0.0
  9
$USERR4
 40
0.0
  9
$USERR5
 40
0.0
  9
$WORLDVIEW
 70
     1
  9
$SHADEDGE
 70
     3
  9
$SHADEDIF
 70
    70
  9
$TILEMODE
 70
     1
  9
$MAXACTVP
 70
    64
  9
$PINSBASE
 10
0.0
 20
0.0
 30
0.0
  9
$PLIMCHECK
 70
     0
  9
$PEXTMIN
 10
1.0000000000E+20
 20
1.0000000000E+20
 30
1.0000000000E+20
  9
$PEXTMAX
 10
-1.0000000000E+20
 20
-1.0000000000E+20
 30
-1.0000000000E+20
  9
$PLIMMIN
 10
0.0
 20
0.0
  9
$PLIMMAX
 10
420.0
 20
297.0
  9
$UNITMODE
 70
     0
  9
$VISRETAIN
 70
     1
  9
$PLINEGEN
 70
     0
  9
$PSLTSCALE
 70
     1
  9
$TREEDEPTH
 70
  3020
  9
$CMLSTYLE
  2
Standard
  9
$CMLJUST
 70
     0
  9
$CMLSCALE
 40
20.0
  9
$PROXYGRAPHICS
 70
     1
  9
$MEASUREMENT
 70
     1
  9
$CELWEIGHT
370
    -1
  9
$ENDCAPS
280
     0
  9
$JOINSTYLE
280
     0
  9
$LWDISPLAY
290
     1
  9
$INSUNITS
 70
     4
  9
$HYPERLINKBASE
  1

  9
$STYLESHEET
  1

  9
$XEDIT
290
     1
  9
$CEPSNTYPE
380
     0
  9
$PSTYLEMODE
290
     1
  9
$FINGERPRINTGUID
  2
{36CB5736-AB44-4AA6-94BE-EC7D30B4BA1F}
  9
$VERSIONGUID
  2
{FAEB1C32-E019-11D5-929B-00C0DF256EC4}
  9
$EXTNAMES
290
     1
  9
$PSVPSCALE
 40
0.0
  9
$OLESTARTUP
290
     0
  0
ENDSEC
  0
SECTION
  2
CLASSES
  0
CLASS
  1
ACDBDICTIONARYWDFLT
  2
AcDbDictionaryWithDefault
  3
ObjectDBX Classes
 90
        0
280
     0
281
     0
  0
CLASS
  1
VISUALSTYLE
  2
AcDbVisualStyle
  3
ObjectDBX Classes
 90
     4095
280
     0
281
     0
  0
CLASS
  1
MATERIAL
  2
AcDbMaterial
  3
ObjectDBX Classes
 90
     1153
280
     0
281
     0
  0
CLASS
  1
ACDBPLACEHOLDER
  2
AcDbPlaceHolder
  3
ObjectDBX Classes
 90
        0
280
     0
281
     0
  0
CLASS
  1
LAYOUT
  2
AcDbLayout
  3
ObjectDBX Classes
 90
        0
280
     0
281
     0
  0
ENDSEC
  0
SECTION
  2
TABLES
  0
TABLE
  2
VPORT
  5
8
330
0
100
AcDbSymbolTable
 70
     1
  0
VPORT
  5
29
330
8
100
AcDbSymbolTableRecord
100
AcDbViewportTableRecord
  2
*Active
 70
     0
 10
0.0
 20
0.0
 11
1.0
 21
1.0
 12
148.5
 22
105.0
 13
0.0
 23
0.0
 14
10.0
 24
10.0
 15
10.0
 25
10.0
 16
0.0
 26
0.0
 36
1.0
 17
0.0
 27
0.0
 37
0.0
 40
210.0
 41
1.4142857143
 42
50.0
 43
0.0
 44
0.0
 50
0.0
 51
0.0
 71
     0
 72
  2000
 73
     1
 74
     3
 75
     0
 76
     0
 77
     0
 78
     0
281
     0
 65
     1
110
0.0
120
0.0
130
0.0
111
1.0
121
0.0
131
0.0
112
0.0
122
1.0
132
0.0
 79
     0
146
0.0
  0
ENDTAB
  0
TABLE
  2
LTYPE
  5
5
330
0
100
AcDbSymbolTable
 70
     6
  0
LTYPE
  5
14
330
5
100
AcDbSymbolTableRecord
100
AcDbLinetypeTableRecord
  2
ByBlock
 70
     0
  3

 72
    65
 73
     0
 40
0.0
  0
LTYPE
  5
15
330
5
100
AcDbSymbolTableRecord
100
AcDbLinetypeTableRecord
  2
ByLayer
 70
     0
  3

 72
    65
 73
     0
 40
0.0
  0
LTYPE
  5
16
330
5
100
AcDbSymbolTableRecord
100
AcDbLinetypeTableRecord
  2
Continuous
 70
     0
  3
Solid line
 72
    65
 73
     0
 40
0.0
  0
LTYPE
  5
3F
330
5
100
AcDbSymbolTableRecord
100
AcDbLinetypeTableRecord
  2
HIDDEN
 70
     0
  3
Hidden __ __ __ __ __ __ __ __ __ __ __ __ __ __
 72
    65
 73
     2
 40
1.905
 49
1.27
 74
     0
 49
-0.635
 74
     0
  0
LTYPE
  5
40
330
5
100
AcDbSymbolTableRecord
100
AcDbLinetypeTableRecord
  2
PHANTOM
 70
     0
  3
Phantom ______  __  __  ______  __  __  ______
 72
    65
 73
     6
 40
12.7
 49
6.35
 74
     0
 49
-1.27
 74
     0
 49
1.27
 74
     0
 49
-1.27
 74
     0
 49
1.27
 74
     0
 49
-1.27
 74
     0
  0
LTYPE
  5
41
330
5
100
AcDbSymbolTableRecord
100
AcDbLinetypeTableRecord
  2
CENTER
 70
     0
  3
Center ____ _ ____ _ ____ _ ____ _ ____ _ ____
 72
    65
 73
     4
 40
10.16
 49
6.35
 74
     0
 49
-1.27
 74
     0
 49
1.27
 74
     0
 49
-1.27
 74
     0
  0
LTYPE
  5
42
330
5
100
AcDbSymbolTableRecord
100
AcDbLinetypeTableRecord
  2
CENTERX2
 70
     0
  3
Center (2x) ________  __  ________  __  _____
 72
    65
 73
     4
 40
20.32
 49
12.7
 74
     0
 49
-2.54
 74
     0
 49
2.54
 74
     0
 49
-2.54
 74
     0
  0
LTYPE
  5
43
330
5
100
AcDbSymbolTableRecord
100
AcDbLinetypeTableRecord
  2
DOT2
 70
     0
  3
Dot (.5x) ........................................
 72
    65
 73
     2
 40
0.635
 49
0.0
 74
     0
 49
-0.635
 74
     0
  0
ENDTAB
  0
TABLE
  2
LAYER
  5
2
330
0
100
AcDbSymbolTable
 70
     5
  0
LAYER
  5
10
330
2
100
AcDbSymbolTableRecord
100
AcDbLayerTableRecord
  2
0
 70
     0
 62
     7
  6
Continuous
370
    -3
390
F
  0
LAYER
  5
44
330
2
100
AcDbSymbolTableRecord
100
AcDbLayerTableRecord
  2
FORMAT
 70
     0
 62
     7
  6
Continuous
370
    -3
390
F
  0
LAYER
  5
45
330
2
100
AcDbSymbolTableRecord
100
AcDbLayerTableRecord
  2
VERMASSUNG
 70
     0
 62
     7
  6
Continuous
370
    -3
390
F
  0
LAYER
  5
46
330
2
100
AcDbSymbolTableRecord
100
AcDbLayerTableRecord
  2
KOPF_DÜNN
 70
     0
 62
     7
  6
Continuous
370
    -3
390
F
  0
LAYER
  5
47
330
2
100
AcDbSymbolTableRecord
100
AcDbLayerTableRecord
  2
KOPF_DICK
 70
     0
 62
     7
  6
Continuous
370
    15
390
F
  0
ENDTAB
  0
TABLE
  2
STYLE
  5
3
330
0
100
AcDbSymbolTable
 70
     2
  0
STYLE
  5
11
330
3
100
AcDbSymbolTableRecord
100
AcDbTextStyleTableRecord
  2
Standard
 70
     0
 40
0.0
 41
1.0
 50
0.0
 71
     0
 42
2.0
  3
txt
  4

  0
STYLE
  5
48
330
3
100
AcDbSymbolTableRecord
100
AcDbTextStyleTableRecord
  2
SLDTEXTSTYLE0
 70
     0
 40
0.0
 41
0.7
 50
0.0
 71
     0
 42
0.2
  3
TXT
  4

  0
ENDTAB
  0
TABLE
  2
VIEW
  5
6
330
0
100
AcDbSymbolTable
 70
     0
  0
ENDTAB
  0
TABLE
  2
UCS
  5
7
330
0
100
AcDbSymbolTable
 70
     0
  0
ENDTAB
  0
TABLE
  2
APPID
  5
9
330
0
100
AcDbSymbolTable
 70
     1
  0
APPID
  5
12
330
9
100
AcDbSymbolTableRecord
100
AcDbRegAppTableRecord
  2
ACAD
 70
     0
  0
ENDTAB
  0
TABLE
  2
DIMSTYLE
  5
A
330
0
100
AcDbSymbolTable
 70
     5
100
AcDbDimStyleTable
  0
DIMSTYLE
105
27
330
A
100
AcDbSymbolTableRecord
100
AcDbDimStyleTableRecord
  2
ISO-25
 70
     0
 41
2.5
 42
0.625
 43
3.75
 44
1.25
 73
     0
 74
     0
 77
     1
 78
     8
140
2.5
141
2.5
143
0.0393700787
147
0.625
171
     3
172
     1
178
     0
271
     2
272
     2
274
     3
278
    44
283
     0
284
     8
340
11
  0
DIMSTYLE
105
199
102
{ACAD_REACTORS
330
198
102
}
330
A
100
AcDbSymbolTableRecord
100
AcDbDimStyleTableRecord
  2
SLDDIMSTYLE0
 70
     0
 41
3.0
 44
0.0
 73
     0
 74
     0
 77
     1
 78
    12
 79
     3
140
2.0
147
0.5
173
     1
178
     0
179
     2
272
     3
276
     2
284
    12
340
48
  0
DIMSTYLE
105
1A2
102
{ACAD_REACTORS
330
1A1
330
1AE
102
}
330
A
100
AcDbSymbolTableRecord
100
AcDbDimStyleTableRecord
  2
SLDDIMSTYLE1
 70
     0
 41
3.0
 44
0.0
 45
0.000000001
 47
0.1
 48
0.1
 71
     1
 73
     0
 74
     0
 77
     1
 78
    12
 79
     3
140
2.0
147
0.5
173
     1
178
     0
271
     2
272
     1
276
     2
284
     8
340
48
  0
DIMSTYLE
105
1BB
102
{ACAD_REACTORS
330
1BA
330
1C5
102
}
330
A
100
AcDbSymbolTableRecord
100
AcDbDimStyleTableRecord
  2
SLDDIMSTYLE2
 70
     0
 41
3.0
 44
0.0
 45
0.000000001
 73
     0
 74
     0
 77
     1
 78
    12
 79
     3
140
2.0
147
0.5
173
     1
178
     0
271
     2
272
     3
276
     2
284
    12
340
48
  0
DIMSTYLE
105
1F6
102
{ACAD_REACTORS
330
1F5
102
}
330
A
100
AcDbSymbolTableRecord
100
AcDbDimStyleTableRecord
  2
SLDDIMSTYLE3
 70
     0
 41
3.0
 44
0.0
 45
0.000000001
 73
     0
 74
     0
 77
     1
 78
    12
 79
     3
140
2.0
147
0.5
172
     1
173
     1
178
     0
271
     2
272
     3
276
     2
284
    12
289
     0
340
48
  0
ENDTAB
  0
TABLE
  2
BLOCK_RECORD
  5
1
330
0
100
AcDbSymbolTable
 70
     8
  0
BLOCK_RECORD
  5
1F
330
1
100
AcDbSymbolTableRecord
100
AcDbBlockTableRecord
  2
*Model_Space
340
22
  0
BLOCK_RECORD
  5
1B
330
1
100
AcDbSymbolTableRecord
100
AcDbBlockTableRecord
  2
*Paper_Space
340
1E
  0
BLOCK_RECORD
  5
23
330
1
100
AcDbSymbolTableRecord
100
AcDbBlockTableRecord
  2
*Paper_Space0
340
26
  0
BLOCK_RECORD
  5
19A
330
1
100
AcDbSymbolTableRecord
100
AcDbBlockTableRecord
  2
_D
340
0
  0
BLOCK_RECORD
  5
1A3
330
1
100
AcDbSymbolTableRecord
100
AcDbBlockTableRecord
  2
_D_1
340
0
  0
BLOCK_RECORD
  5
1AF
330
1
100
AcDbSymbolTableRecord
100
AcDbBlockTableRecord
  2
_D_2
340
0
  0
BLOCK_RECORD
  5
1BC
330
1
100
AcDbSymbolTableRecord
100
AcDbBlockTableRecord
  2
_D_3
340
0
  0
BLOCK_RECORD
  5
1C6
330
1
100
AcDbSymbolTableRecord
100
AcDbBlockTableRecord
  2
_D_4
340
0
  0
BLOCK_RECORD
  5
1F7
330
1
100
AcDbSymbolTableRecord
100
AcDbBlockTableRecord
  2
_D_5
340
0
  0
BLOCK_RECORD
  5
204
330
1
100
AcDbSymbolTableRecord
100
AcDbBlockTableRecord
  2
SW_CENTERMARKSYMBOL_0
340
0
102
{BLKREFS
331
20F
102
}
  0
ENDTAB
  0
ENDSEC
  0
SECTION
  2
BLOCKS
  0
BLOCK
  5
20
330
1F
100
AcDbEntity
  8
0
100
AcDbBlockBegin
  2
*Model_Space
 70
     0
 10
0.0
 20
0.0
 30
0.0
  3
*Model_Space
  1

  0
ENDBLK
  5
21
330
1F
100
AcDbEntity
  8
0
100
AcDbBlockEnd
  0
BLOCK
  5
1C
330
1B
100
AcDbEntity
 67
     1
  8
0
100
AcDbBlockBegin
  2
*Paper_Space
 70
     0
 10
0.0
 20
0.0
 30
0.0
  3
*Paper_Space
  1

  0
ENDBLK
  5
1D
330
1B
100
AcDbEntity
 67
     1
  8
0
100
AcDbBlockEnd
  0
BLOCK
  5
24
330
23
100
AcDbEntity
  8
0
100
AcDbBlockBegin
  2
*Paper_Space0
 70
     0
 10
0.0
 20
0.0
 30
0.0
  3
*Paper_Space0
  1

  0
ENDBLK
  5
25
330
23
100
AcDbEntity
  8
0
100
AcDbBlockEnd
  0
BLOCK
  5
19B
330
19A
100
AcDbEntity
  8
0
100
AcDbBlockBegin
  2
_D
 70
     0
 10
0.0
 20
0.0
 30
0.0
  3
_D
  1

  0
ARC
  5
19D
330
19A
100
AcDbEntity
  8
VERMASSUNG
100
AcDbCircle
 10
234.7027286522
 20
92.912577695
 30
0.0
 40
9.458020448519585
100
AcDbArc
 50
177.0
 51
270.0
  0
SOLID
  5
19E
330
19A
100
AcDbEntity
  8
VERMASSUNG
100
AcDbTrace
 10
225.257670092
 20
93.4075722393
 30
0.0
 11
225.1131047047
 21
90.3774565899
 31
0.0
 12
226.008498482
 22
90.4683960403
 32
0.0
 13
226.008498482
 23
90.4683960403
 33
0.0
  0
SOLID
  5
19F
330
19A
100
AcDbEntity
  8
VERMASSUNG
100
AcDbTrace
 10
234.7027286522
 20
83.4545572464
 30
0.0
 11
231.8068758138
 21
84.3581812492
 31
0.0
 12
231.6691997032
 22
83.468773981
 32
0.0
 13
231.6691997032
 23
83.468773981
 33
0.0
  0
MTEXT
  5
1A0
330
19A
100
AcDbEntity
  8
VERMASSUNG
100
AcDbMText
 10
227.7160079313
 20
90.2803631343
 30
0.1
 40
2.0
 41
0.0
 71
     1
 72
     1
  1
93°
  7
SLDTEXTSTYLE0
 11
0.6883545756937659
 21
-0.7253743710122763
 31
0.0
 73
     1
 44
1.0
  0
ENDBLK
  5
19C
330
19A
100
AcDbEntity
  8
0
100
AcDbBlockEnd
  0
BLOCK
  5
1A4
330
1A3
100
AcDbEntity
  8
0
100
AcDbBlockBegin
  2
_D_1
 70
     0
 10
0.0
 20
0.0
 30
0.0
  3
_D_1
  1

  0
SOLID
  5
1A6
330
1A3
100
AcDbEntity
  8
VERMASSUNG
100
AcDbTrace
 10
184.7027286522
 20
76.8860565608
 30
0.0
 11
187.7027286522
 21
76.4360565608
 31
0.0
 12
187.7027286522
 22
77.3360565608
 32
0.0
 13
187.7027286522
 23
77.3360565608
 33
0.0
  0
SOLID
  5
1A7
330
1A3
100
AcDbEntity
  8
VERMASSUNG
100
AcDbTrace
 10
234.7027286522
 20
76.8860565608
 30
0.0
 11
231.7027286522
 21
77.3360565608
 31
0.0
 12
231.7027286522
 22
76.4360565608
 32
0.0
 13
231.7027286522
 23
76.4360565608
 33
0.0
  0
LINE
  5
1A8
330
1A3
100
AcDbEntity
  8
VERMASSUNG
100
AcDbLine
 10
184.7027286522
 20
100.2340897451
 30
0.0
 11
184.7027286522
 21
75.8860565608
 31
0.0
  0
LINE
  5
1A9
330
1A3
100
AcDbEntity
  8
VERMASSUNG
100
AcDbLine
 10
234.7027286522
 20
92.9340897451
 30
0.0
 11
234.7027286522
 21
75.8860565608
 31
0.0
  0
LINE
  5
1AA
330
1A3
100
AcDbEntity
  8
VERMASSUNG
100
AcDbLine
 10
184.7027286522
 20
76.8860565608
 30
0.0
 11
234.7027286522
 21
76.8860565608
 31
0.0
  0
MTEXT
  5
1AB
330
1A3
100
AcDbEntity
  8
VERMASSUNG
100
AcDbMText
 10
205.1527284652
 20
79.4641919239
 30
0.1
 40
2.0
 41
0.0
 71
     1
 72
     1
  1
50
  7
SLDTEXTSTYLE0
 73
     1
 44
1.0
  0
MTEXT
  5
1AC
330
1A3
100
AcDbEntity
  8
VERMASSUNG
100
AcDbMText
 10
210.9402285672
 20
79.4641919239
 30
0.1
 40
2.0
 41
0.0
 71
     1
 72
     1
  1

  7
SLDTEXTSTYLE0
 73
     1
 44
1.0
  0
MTEXT
  5
1AD
330
1A3
100
AcDbEntity
  8
VERMASSUNG
100
AcDbMText
 10
210.9527288571
 20
78.9696580612
 30
0.1
 40
1.5
 41
0.0
 71
     1
 72
     1
  1
±0.1
  7
SLDTEXTSTYLE0
 73
     1
 44
1.0
  0
ENDBLK
  5
1A5
330
1A3
100
AcDbEntity
  8
0
100
AcDbBlockEnd
  0
BLOCK
  5
1B0
330
1AF
100
AcDbEntity
  8
0
100
AcDbBlockBegin
  2
_D_2
 70
     0
 10
0.0
 20
0.0
 30
0.0
  3
_D_2
  1

  0
SOLID
  5
1B2
330
1AF
100
AcDbEntity
  8
VERMASSUNG
100
AcDbTrace
 10
245.2585274913
 20
92.9340897451
 30
0.0
 11
245.7085274913
 21
95.9340897451
 31
0.0
 12
244.8085274913
 22
95.9340897451
 32
0.0
 13
244.8085274913
 23
95.9340897451
 33
0.0
  0
SOLID
  5
1B3
330
1AF
100
AcDbEntity
  8
VERMASSUNG
100
AcDbTrace
 10
245.2585274913
 20
119.9340897451
 30
0.0
 11
244.8085274913
 21
116.9340897451
 31
0.0
 12
245.7085274913
 22
116.9340897451
 32
0.0
 13
245.7085274913
 23
116.9340897451
 33
0.0
  0
LINE
  5
1B4
330
1AF
100
AcDbEntity
  8
VERMASSUNG
100
AcDbLine
 10
234.7027286522
 20
92.9340897451
 30
0.0
 11
246.2585274913
 21
92.9340897451
 31
0.0
  0
LINE
  5
1B5
330
1AF
100
AcDbEntity
  8
VERMASSUNG
100
AcDbLine
 10
234.7027286522
 20
119.9340897451
 30
0.0
 11
246.2585274913
 21
119.9340897451
 31
0.0
  0
LINE
  5
1B6
330
1AF
100
AcDbEntity
  8
VERMASSUNG
100
AcDbLine
 10
245.2585274913
 20
92.9340897451
 30
0.0
 11
245.2585274913
 21
119.9340897451
 31
0.0
  0
MTEXT
  5
1B7
330
1AF
100
AcDbEntity
  8
VERMASSUNG
100
AcDbMText
 10
242.6803921282
 20
101.8840895581
 30
0.1
 40
2.0
 41
0.0
 71
     1
 72
     1
  1
27
  7
SLDTEXTSTYLE0
 11
6.123233995736766E-17
 21
1.0
 31
0.0
 73
     1
 44
1.0
  0
MTEXT
  5
1B8
330
1AF
100
AcDbEntity
  8
VERMASSUNG
100
AcDbMText
 10
242.6803921282
 20
107.6715896601
 30
0.1
 40
2.0
 41
0.0
 71
     1
 72
     1
  1

  7
SLDTEXTSTYLE0
 11
6.123233995736766E-17
 21
1.0
 31
0.0
 73
     1
 44
1.0
  0
MTEXT
  5
1B9
330
1AF
100
AcDbEntity
  8
VERMASSUNG
100
AcDbMText
 10
243.174925991
 20
107.68408995
 30
0.1
 40
1.5
 41
0.0
 71
     1
 72
     1
  1
±0.1
  7
SLDTEXTSTYLE0
 11
6.123233995736766E-17
 21
1.0
 31
0.0
 73
     1
 44
1.0
  0
ENDBLK
  5
1B1
330
1AF
100
AcDbEntity
  8
0
100
AcDbBlockEnd
  0
BLOCK
  5
1BD
330
1BC
100
AcDbEntity
  8
0
100
AcDbBlockBegin
  2
_D_3
 70
     0
 10
0.0
 20
0.0
 30
0.0
  3
_D_3
  1

  0
SOLID
  5
1BF
330
1BC
100
AcDbEntity
  8
VERMASSUNG
100
AcDbTrace
 10
160.7027286522
 20
70.8860565608
 30
0.0
 11
163.7027286522
 21
70.4360565608
 31
0.0
 12
163.7027286522
 22
71.3360565608
 32
0.0
 13
163.7027286522
 23
71.3360565608
 33
0.0
  0
SOLID
  5
1C0
330
1BC
100
AcDbEntity
  8
VERMASSUNG
100
AcDbTrace
 10
234.7027286522
 20
70.8860565608
 30
0.0
 11
231.7027286522
 21
71.3360565608
 31
0.0
 12
231.7027286522
 22
70.4360565608
 32
0.0
 13
231.7027286522
 23
70.4360565608
 33
0.0
  0
LINE
  5
1C1
330
1BC
100
AcDbEntity
  8
VERMASSUNG
100
AcDbLine
 10
160.7027286522
 20
107.302584763
 30
0.0
 11
160.7027286522
 21
69.8860565608
 31
0.0
  0
LINE
  5
1C2
330
1BC
100
AcDbEntity
  8
VERMASSUNG
100
AcDbLine
 10
234.7027286522
 20
92.9340897451
 30
0.0
 11
234.7027286522
 21
69.8860565608
 31
0.0
  0
LINE
  5
1C3
330
1BC
100
AcDbEntity
  8
VERMASSUNG
100
AcDbLine
 10
160.7027286522
 20
70.8860565608
 30
0.0
 11
234.7027286522
 21
70.8860565608
 31
0.0
  0
MTEXT
  5
1C4
330
1BC
100
AcDbEntity
  8
VERMASSUNG
100
AcDbMText
 10
195.3027285382
 20
73.4641919239
 30
0.1
 40
2.0
 41
0.0
 71
     1
 72
     1
  1
74
  7
SLDTEXTSTYLE0
 73
     1
 44
1.0
  0
ENDBLK
  5
1BE
330
1BC
100
AcDbEntity
  8
0
100
AcDbBlockEnd
  0
BLOCK
  5
1C7
330
1C6
100
AcDbEntity
  8
0
100
AcDbBlockBegin
  2
_D_4
 70
     0
 10
0.0
 20
0.0
 30
0.0
  3
_D_4
  1

  0
SOLID
  5
1C9
330
1C6
100
AcDbEntity
  8
VERMASSUNG
100
AcDbTrace
 10
152.3499962739
 20
139.9340897451
 30
0.0
 11
151.8999962739
 21
136.9340897451
 31
0.0
 12
152.7999962739
 22
136.9340897451
 32
0.0
 13
152.7999962739
 23
136.9340897451
 33
0.0
  0
SOLID
  5
1CA
330
1C6
100
AcDbEntity
  8
VERMASSUNG
100
AcDbTrace
 10
152.3499962739
 20
99.9340897451
 30
0.0
 11
152.7999962739
 21
102.9340897451
 31
0.0
 12
151.8999962739
 22
102.9340897451
 32
0.0
 13
151.8999962739
 23
102.9340897451
 33
0.0
  0
LINE
  5
1CB
330
1C6
100
AcDbEntity
  8
VERMASSUNG
100
AcDbLine
 10
185.0027286522
 20
139.9340897451
 30
0.0
 11
151.3499962739
 21
139.9340897451
 31
0.0
  0
LINE
  5
1CC
330
1C6
100
AcDbEntity
  8
VERMASSUNG
100
AcDbLine
 10
185.0027286522
 20
99.9340897451
 30
0.0
 11
151.3499962739
 21
99.9340897451
 31
0.0
  0
LINE
  5
1CD
330
1C6
100
AcDbEntity
  8
VERMASSUNG
100
AcDbLine
 10
152.3499962739
 20
139.9340897451
 30
0.0
 11
152.3499962739
 21
99.9340897451
 31
0.0
  0
MTEXT
  5
1CE
330
1C6
100
AcDbEntity
  8
VERMASSUNG
100
AcDbMText
 10
149.5718607848
 20
113.4290898057
 30
0.4751739874
 40
2.0
 41
0.0
 71
     1
 72
     1
  1
PSC
  7
SLDTEXTSTYLE0
 11
-7.044195017643634E-15
 21
1.0
 31
0.0
 73
     1
 44
1.0
  0
MTEXT
  5
1CF
330
1C6
100
AcDbEntity
  8
VERMASSUNG
100
AcDbMText
 10
149.7718607943
 20
118.0290899078
 30
0.4751739874
 40
2.0
 41
0.0
 71
     1
 72
     1
  1
%%c
  7
SLDTEXTSTYLE0
 11
-7.044195017643634E-15
 21
1.0
 31
0.0
 73
     1
 44
1.0
  0
MTEXT
  5
1D0
330
1C6
100
AcDbEntity
  8
VERMASSUNG
100
AcDbMText
 10
149.5718607848
 20
121.6390903878
 30
0.4751739874
 40
2.0
 41
0.0
 71
     1
 72
     1
  1
40
  7
SLDTEXTSTYLE0
 11
-7.044195017643634E-15
 21
1.0
 31
0.0
 73
     1
 44
1.0
  0
ENDBLK
  5
1C8
330
1C6
100
AcDbEntity
  8
0
100
AcDbBlockEnd
  0
BLOCK
  5
1F8
330
1F7
100
AcDbEntity
  8
0
100
AcDbBlockBegin
  2
_D_5
 70
     0
 10
0.0
 20
0.0
 30
0.0
  3
_D_5
  1

  0
SOLID
  5
1FA
330
1F7
100
AcDbEntity
  8
VERMASSUNG
100
AcDbTrace
 10
96.5528843825
 20
98.2633092233
 30
0.0
 11
98.0503952593
 21
95.6251353901
 31
0.0
 12
98.7585264676
 22
96.1806083344
 32
0.0
 13
98.7585264676
 23
96.1806083344
 33
0.0
  0
SOLID
  5
1FB
330
1F7
100
AcDbEntity
  8
VERMASSUNG
100
AcDbTrace
 10
65.6932763673
 20
137.6039319071
 30
0.0
 11
64.1957654906
 21
140.2421057403
 31
0.0
 12
63.4876342823
 22
139.686632796
 32
0.0
 13
63.4876342823
 23
139.686632796
 33
0.0
  0
LINE
  5
1FC
330
1F7
100
AcDbEntity
  8
VERMASSUNG
100
AcDbLine
 10
96.5528843825
 20
98.2633092233
 30
0.0
 11
95.7660719288
 21
97.646117063
 31
0.0
  0
LINE
  5
1FD
330
1F7
100
AcDbEntity
  8
VERMASSUNG
100
AcDbLine
 10
65.6932763673
 20
137.6039319071
 30
0.0
 11
64.9064639137
 21
136.9867397468
 31
0.0
  0
LINE
  5
1FE
330
1F7
100
AcDbEntity
  8
VERMASSUNG
100
AcDbLine
 10
96.5528843825
 20
98.2633092233
 30
0.0
 11
100.2560373443
 21
93.5424345012
 31
0.0
  0
LINE
  5
1FF
330
1F7
100
AcDbEntity
  8
VERMASSUNG
100
AcDbLine
 10
96.5528843825
 20
98.2633092233
 30
0.0
 11
65.6932763673
 21
137.6039319071
 31
0.0
  0
LINE
  5
200
330
1F7
100
AcDbEntity
  8
VERMASSUNG
100
AcDbLine
 10
65.6932763673
 20
137.6039319071
 30
0.0
 11
55.3725798366
 21
150.7610215192
 31
0.0
  0
MTEXT
  5
201
330
1F7
100
AcDbEntity
  8
VERMASSUNG
100
AcDbMText
 10
57.4010889391
 20
152.3522265254
 30
0.1
 40
2.0
 41
0.0
 71
     1
 72
     1
  1
%%c
  7
SLDTEXTSTYLE0
 11
0.6171921603032693
 21
-0.7868124536763406
 31
0.0
 73
     1
 44
1.0
  0
MTEXT
  5
202
330
1F7
100
AcDbEntity
  8
VERMASSUNG
100
AcDbMText
 10
59.7865151449
 20
149.6352719943
 30
0.1
 40
2.0
 41
0.0
 71
     1
 72
     1
  1
50
  7
SLDTEXTSTYLE0
 11
0.6171921603032693
 21
-0.7868124536763406
 31
0.0
 73
     1
 44
1.0
  0
MTEXT
  5
203
330
1F7
100
AcDbEntity
  8
VERMASSUNG
100
AcDbMText
 10
63.358515123
 20
145.081594472
 30
0.1
 40
2.0
 41
0.0
 71
     1
 72
     1
  1
min.
  7
SLDTEXTSTYLE0
 11
0.6171921603032693
 21
-0.7868124536763406
 31
0.0
 73
     1
 44
1.0
  0
ENDBLK
  5
1F9
330
1F7
100
AcDbEntity
  8
0
100
AcDbBlockEnd
  0
BLOCK
  5
205
330
204
100
AcDbEntity
  8
0
100
AcDbBlockBegin
  2
SW_CENTERMARKSYMBOL_0
 70
     0
 10
0.0
 20
0.0
 30
0.0
  3
SW_CENTERMARKSYMBOL_0
  1

  0
LINE
  5
207
330
204
100
AcDbEntity
  8
VERMASSUNG
 62
     0
100
AcDbLine
 10
0.0
 20
0.0
 30
0.0
 11
0.0
 21
2.5
 31
0.0
  0
LINE
  5
208
330
204
100
AcDbEntity
  8
VERMASSUNG
 62
     0
100
AcDbLine
 10
0.0
 20
0.0
 30
0.0
 11
-2.5
 21
0.0
 31
0.0
  0
LINE
  5
209
330
204
100
AcDbEntity
  8
VERMASSUNG
 62
     0
100
AcDbLine
 10
0.0
 20
0.0
 30
0.0
 11
0.0
 21
-2.5
 31
0.0
  0
LINE
  5
20A
330
204
100
AcDbEntity
  8
VERMASSUNG
 62
     0
100
AcDbLine
 10
0.0
 20
0.0
 30
0.0
 11
2.5
 21
0.0
 31
0.0
  0
LINE
  5
20B
330
204
100
AcDbEntity
  8
VERMASSUNG
 62
     0
100
AcDbLine
 10
0.0
 20
5.0
 30
0.0
 11
0.0
 21
22.5
 31
0.0
  0
LINE
  5
20C
330
204
100
AcDbEntity
  8
VERMASSUNG
 62
     0
100
AcDbLine
 10
-5.0
 20
0.0
 30
0.0
 11
-22.5
 21
0.0
 31
0.0
  0
LINE
  5
20D
330
204
100
AcDbEntity
  8
VERMASSUNG
 62
     0
100
AcDbLine
 10
0.0
 20
-5.0
 30
0.0
 11
0.0
 21
-22.5
 31
0.0
  0
LINE
  5
20E
330
204
100
AcDbEntity
  8
VERMASSUNG
 62
     0
100
AcDbLine
 10
5.0
 20
0.0
 30
0.0
 11
22.5
 21
0.0
 31
0.0
  0
ENDBLK
  5
206
330
204
100
AcDbEntity
  8
0
100
AcDbBlockEnd
  0
ENDSEC
  0
SECTION
  2
ENTITIES
  0
MTEXT
  5
49
330
1F
100
AcDbEntity
  8
KOPF_DÜNN
100
AcDbMText
 10
13.8892156294
 20
23.8442973028
 30
0.0
 40
3.0
 41
0.0
 71
     1
 72
     1
  1
PS4.KDB.LJA.050
  7
SLDTEXTSTYLE0
 73
     1
 44
1.0
  0
MTEXT
  5
4A
330
1F
100
AcDbEntity
  8
VERMASSUNG
100
AcDbMText
 10
13.9329988022
 20
28.8834360957
 30
0.0
 40
3.0
 41
0.0
 71
     1
 72
     1
  1
Klemmhalter links_Turning tool left 55°/93°
  7
SLDTEXTSTYLE0
 73
     1
 44
1.0
  0
MTEXT
  5
4B
330
1F
100
AcDbEntity
  8
VERMASSUNG
100
AcDbMText
 10
98.8601118557
 20
13.8365368179
 30
0.0
 40
2.0
 41
0.0
 71
     1
 72
     1
  1
Datum: 22.05.2012
  7
SLDTEXTSTYLE0
 73
     1
 44
1.0
  0
MTEXT
  5
4C
330
1F
100
AcDbEntity
  8
VERMASSUNG
100
AcDbMText
 10
13.933048693
 20
18.0482802738
 30
0.0
 40
2.0
 41
0.0
 71
     1
 72
     1
  1
PSC ø40 / DC..11 T3 ..
  7
SLDTEXTSTYLE0
 73
     1
 44
1.0
  0
MTEXT
  5
4D
330
1F
100
AcDbEntity
  8
VERMASSUNG
100
AcDbMText
 10
13.9808475933
 20
13.9090973692
 30
0.0
 40
2.0
 41
0.0
 71
     1
 72
     1
  1
Gewicht: 349g
  7
SLDTEXTSTYLE0
 73
     1
 44
1.0
  0
LINE
  5
4E
330
1F
100
AcDbEntity
  8
0
  6
Continuous
 62
     7
370
    15
100
AcDbLine
 10
206.7001333166
 20
139.9340897451
 30
0.0
 11
185.0027286522
 21
139.9340897451
 31
0.0
  0
LINE
  5
4F
330
1F
100
AcDbEntity
  8
0
  6
Continuous
 62
     7
370
    15
100
AcDbLine
 10
185.0027286522
 20
99.9340897451
 30
0.0
 11
206.7031046098
 21
99.9340897451
 31
0.0
  0
ARC
  5
50
330
1F
100
AcDbEntity
  8
0
  6
Continuous
 62
     7
370
    15
100
AcDbCircle
 10
185.0027286522
 20
100.2340897451
 30
0.0
 40
0.3000000000000114
100
AcDbArc
 50
180.0
 51
270.0
  0
ARC
  5
51
330
1F
100
AcDbEntity
  8
0
  6
Continuous
 62
     7
370
    15
100
AcDbCircle
 10
185.0027286522
 20
139.6340897451
 30
0.0
 40
0.3000000000000114
100
AcDbArc
 50
90.0
 51
180.0
  0
LWPOLYLINE
  5
52
330
1F
100
AcDbEntity
  8
0
  6
Continuous
 62
     7
370
    15
100
AcDbPolyline
 90
        3
 70
   128
 43
0.0
 10
184.5027286522
 20
105.8442694662
 10
184.6281835957
 20
105.7759673513
 10
184.7027286522
 20
105.7232295931
  0
LWPOLYLINE
  5
53
330
1F
100
AcDbEntity
  8
0
  6
Continuous
 62
     7
370
    15
100
AcDbPolyline
 90
        3
 70
   128
 43
0.0
 10
184.7027286522
 20
134.144949897
 10
184.6281835957
 20
134.0922121389
 10
184.5027286522
 20
134.023910024
  0
ELLIPSE
  5
54
330
1F
100
AcDbEntity
  8
0
  6
Continuous
 62
     7
370
    15
100
AcDbEllipse
 10
206.6223438945
 20
119.9340897451
 30
0.0
 11
0.0
 21
20.0
 31
0.0
210
0.0
220
0.0
230
1.0
 40
0.2679491924
 41
0.0146477619867485
 42
3.126944891603044
  0
ELLIPSE
  5
55
330
1F
100
AcDbEntity
  8
0
  6
Continuous
 62
     7
370
    15
100
AcDbEllipse
 10
203.5943045904
 20
112.5076435011
 30
0.0
 11
-0.235992228738894
 21
2.589092997070637
 31
0.0
210
0.0
220
0.0
230
1.0
 40
0.2393976103
 41
0.0
 42
6.283185307179586
  0
SPLINE
  5
56
330
1F
100
AcDbEntity
  8
0
  6
Continuous
 62
     7
370
    15
100
AcDbSpline
210
0.0
220
0.0
230
1.0
 70
     8
 71
     3
 72
     8
 73
     4
 74
     0
 42
0.00000001
 43
0.00000001
 12
1.0
 22
0.0
 32
0.0
 13
1.0
 23
0.0
 33
0.0
 40
0.0
 40
0.0
 40
0.0
 40
0.0
 40
1.0
 40
1.0
 40
1.0
 40
1.0
 10
206.543849581532
 20
99.93623527603017
 30
0.0
 10
206.6003734345668
 20
99.93314511122173
 30
0.0
 10
206.7433800958193
 20
99.93406535598982
 30
0.0
 10
206.9354016642012
 20
99.93512350931888
 30
0.0
  0
SPLINE
  5
57
330
1F
100
AcDbEntity
  8
0
  6
Continuous
 62
     7
370
    15
100
AcDbSpline
210
0.0
220
0.0
230
1.0
 70
     8
 71
     3
 72
     8
 73
     4
 74
     0
 42
0.00000001
 43
0.00000001
 12
1.0
 22
0.0
 32
0.0
 13
1.0
 23
0.0
 33
0.0
 40
0.0
 40
0.0
 40
0.0
 40
0.0
 40
1.0
 40
1.0
 40
1.0
 40
1.0
 10
206.9354016642012
 20
139.9330559808409
 30
0.0
 10
206.7433792199511
 20
139.9341141389966
 30
0.0
 10
206.6003736989189
 20
139.9350343933903
 30
0.0
 10
206.543849581532
 20
139.9319442141297
 30
0.0
  0
SPLINE
  5
58
330
1F
100
AcDbEntity
  8
0
  6
Continuous
 62
     7
370
    15
100
AcDbSpline
210
0.0
220
0.0
230
1.0
 70
     8
 71
     3
 72
    12
 73
     8
 74
     0
 42
0.00000001
 43
0.00000001
 12
1.0
 22
0.0
 32
0.0
 13
1.0
 23
0.0
 33
0.0
 40
0.0
 40
0.0
 40
0.0
 40
0.0
 40
0.5
 40
0.5
 40
0.75
 40
0.75
 40
1.0
 40
1.0
 40
1.0
 40
1.0
 10
191.374823033044
 20
100.899333461898
 30
0.0
 10
191.3936262658956
 20
100.8774114636369
 30
0.0
 10
191.4191629249148
 20
100.8565176556269
 30
0.0
 10
191.4793890988633
 20
100.8287909295092
 30
0.0
 10
191.5033151762633
 20
100.8202177961337
 30
0.0
 10
191.5613760964446
 20
100.8070386903262
 30
0.0
 10
191.5971777950705
 20
100.8024333648465
 30
0.0
 10
191.6346306541793
 20
100.8024333648465
 30
0.0
  0
LINE
  5
59
330
1F
100
AcDbEntity
  8
0
  6
Continuous
 62
     7
370
    15
100
AcDbLine
 10
191.6346306542
 20
100.8024333648
 30
0.0
 11
193.7708266502
 21
100.8024333648
 31
0.0
  0
SPLINE
  5
5A
330
1F
100
AcDbEntity
  8
0
  6
Continuous
 62
     7
370
    15
100
AcDbSpline
210
0.0
220
0.0
230
1.0
 70
     8
 71
     3
 72
    12
 73
     8
 74
     0
 42
0.00000001
 43
0.00000001
 12
1.0
 22
0.0
 32
0.0
 13
1.0
 23
0.0
 33
0.0
 40
0.0
 40
0.0
 40
0.0
 40
0.0
 40
0.2499999999999988
 40
0.2499999999999988
 40
0.4999999999999977
 40
0.4999999999999977
 40
1.0
 40
1.0
 40
1.0
 40
1.0
 10
193.7708266501809
 20
100.8024333648465
 30
0.0
 10
193.8083274730587
 20
100.8024333648465
 30
0.0
 10
193.8436058770947
 20
100.8069343327097
 30
0.0
 10
193.902523597147
 20
100.820300853927
 30
0.0
 10
193.9260469785454
 20
100.8287821141718
 30
0.0
 10
193.9863025630113
 20
100.8565195098497
 30
0.0
 10
194.0118242154225
 20
100.8774035089028
 30
0.0
 10
194.0306342713162
 20
100.899333461898
 30
0.0
  0
ELLIPSE
  5
5B
330
1F
100
AcDbEntity
  8
0
  6
Continuous
 62
     7
370
    15
100
AcDbEllipse
 10
183.7537994797
 20
119.9340897451
 30
0.0
 11
-9.367417879781783
 21
19.74174915274995
 31
0.0
210
0.0
220
0.0
230
1.0
 40
0.3419987131
 41
3.292664382516898
 42
4.239566697060999
  0
SPLINE
  5
5C
330
1F
100
AcDbEntity
  8
0
  6
Continuous
 62
     7
370
    15
100
AcDbSpline
210
0.0
220
0.0
230
1.0
 70
     8
 71
     3
 72
    12
 73
     8
 74
     0
 42
0.00000001
 43
0.00000001
 12
1.0
 22
0.0
 32
0.0
 13
1.0
 23
0.0
 33
0.0
 40
0.0
 40
0.0
 40
0.0
 40
0.0
 40
0.5
 40
0.5
 40
0.75
 40
0.75
 40
1.0
 40
1.0
 40
1.0
 40
1.0
 10
194.0306342713162
 20
113.7958446180207
 30
0.0
 10
194.0118310384645
 20
113.8638249422832
 30
0.0
 10
193.9862943794453
 20
113.92991533008
 30
0.0
 10
193.9260682054969
 20
114.0189799425271
 30
0.0
 10
193.9021421280969
 20
114.046781029547
 30
0.0
 10
193.8440812079156
 20
114.0897401027719
 30
0.0
 10
193.8082795092897
 20
114.1048767494282
 30
0.0
 10
193.7708266501809
 20
114.1048767494282
 30
0.0
  0
LINE
  5
5D
330
1F
100
AcDbEntity
  8
0
  6
Continuous
 62
     7
370
    15
100
AcDbLine
 10
193.7708266502
 20
114.1048767494
 30
0.0
 11
191.6346306542
 21
114.1048767494
 31
0.0
  0
SPLINE
  5
5E
330
1F
100
AcDbEntity
  8
0
  6
Continuous
 62
     7
370
    15
100
AcDbSpline
210
0.0
220
0.0
230
1.0
 70
     8
 71
     3
 72
    12
 73
     8
 74
     0
 42
0.00000001
 43
0.00000001
 12
1.0
 22
0.0
 32
0.0
 13
1.0
 23
0.0
 33
0.0
 40
0.0
 40
0.0
 40
0.0
 40
0.0
 40
0.2499999999999992
 40
0.2499999999999992
 40
0.4999999999999984
 40
0.4999999999999984
 40
1.0
 40
1.0
 40
1.0
 40
1.0
 10
191.6346306541793
 20
114.1048767494282
 30
0.0
 10
191.5971298313015
 20
114.1048767494281
 30
0.0
 10
191.5618514272655
 20
114.0900804116751
 30
0.0
 10
191.5029337072132
 20
114.0465101505159
 30
0.0
 10
191.4794103258148
 20
114.0190083520144
 30
0.0
 10
191.4191547413488
 20
113.9299091887713
 30
0.0
 10
191.3936330889377
 20
113.8638496099889
 30
0.0
 10
191.374823033044
 20
113.7958446180207
 30
0.0
  0
ELLIPSE
  5
5F
330
1F
100
AcDbEntity
  8
0
  6
Continuous
 62
     7
370
    15
100
AcDbEllipse
 10
201.6516578246
 20
119.9340897451
 30
0.0
 11
9.367417879781669
 21
19.74174915274995
 31
0.0
210
0.0
220
0.0
230
1.0
 40
0.3419987131
 41
2.043618610118596
 42
2.99052092466273
  0
SPLINE
  5
60
330
1F
100
AcDbEntity
  8
0
  6
Continuous
 62
     7
370
    15
100
AcDbSpline
210
0.0
220
0.0
230
1.0
 70
     8
 71
     3
 72
    12
 73
     8
 74
     0
 42
0.00000001
 43
0.00000001
 12
1.0
 22
0.0
 32
0.0
 13
1.0
 23
0.0
 33
0.0
 40
0.0
 40
0.0
 40
0.0
 40
0.0
 40
0.4999999999999971
 40
0.4999999999999971
 40
0.7499999999999986
 40
0.7499999999999986
 40
1.0
 40
1.0
 40
1.0
 40
1.0
 10
191.374823033044
 20
126.0723348721388
 30
0.0
 10
191.3935162661744
 20
126.0047522356985
 30
0.0
 10
191.4191715635862
 20
125.938269666221
 30
0.0
 10
191.4793321862726
 20
125.8492745833235
 30
0.0
 10
191.503404498027
 20
125.8212726863243
 30
0.0
 10
191.5617860183775
 20
125.7781962856592
 30
0.0
 10
191.5972548460306
 20
125.7633027407314
 30
0.0
 10
191.6346306541793
 20
125.7633027407314
 30
0.0
  0
LINE
  5
61
330
1F
100
AcDbEntity
  8
0
  6
Continuous
 62
     7
370
    15
100
AcDbLine
 10
191.6346306542
 20
125.7633027407
 30
0.0
 11
193.7708266502
 21
125.7633027407
 31
0.0
  0
SPLINE
  5
62
330
1F
100
AcDbEntity
  8
0
  6
Continuous
 62
     7
370
    15
100
AcDbSpline
210
0.0
220
0.0
230
1.0
 70
     8
 71
     3
 72
    12
 73
     8
 74
     0
 42
0.00000001
 43
0.00000001
 12
1.0
 22
0.0
 32
0.0
 13
1.0
 23
0.0
 33
0.0
 40
0.0
 40
0.0
 40
0.0
 40
0.0
 40
0.2500000000000016
 40
0.2500000000000016
 40
0.5000000000000032
 40
0.5000000000000032
 40
1.0
 40
1.0
 40
1.0
 40
1.0
 10
193.7708266501809
 20
125.7633027407314
 30
0.0
 10
193.8083385362256
 20
125.7633027407314
 30
0.0
 10
193.8436258839303
 20
125.7781075550182
 30
0.0
 10
193.9025557321687
 20
125.8216994281441
 30
0.0
 10
193.9260814586378
 20
125.8492128542301
 30
0.0
 10
193.9863402464059
 20
125.9383445863436
 30
0.0
 10
194.0119350086952
 20
126.0047304369615
 30
0.0
 10
194.0306342713162
 20
126.0723348721388
 30
0.0
  0
ELLIPSE
  5
63
330
1F
100
AcDbEntity
  8
0
  6
Continuous
 62
     7
370
    15
100
AcDbEllipse
 10
183.7537994797
 20
119.9340897451
 30
0.0
 11
9.367417879781724
 21
19.74174915274994
 31
0.0
210
0.0
220
0.0
230
1.0
 40
0.3419987131
 41
5.185211263708393
 42
6.132113578252552
  0
SPLINE
  5
64
330
1F
100
AcDbEntity
  8
0
  6
Continuous
 62
     7
370
    15
100
AcDbSpline
210
0.0
220
0.0
230
1.0
 70
     8
 71
     3
 72
    12
 73
     8
 74
     0
 42
0.00000001
 43
0.00000001
 12
1.0
 22
0.0
 32
0.0
 13
1.0
 23
0.0
 33
0.0
 40
0.0
 40
0.0
 40
0.0
 40
0.0
 40
0.4999999999999971
 40
0.4999999999999971
 40
0.7499999999999986
 40
0.7499999999999986
 40
1.0
 40
1.0
 40
1.0
 40
1.0
 10
194.0306342713162
 20
138.9688460282618
 30
0.0
 10
194.0119410381858
 20
138.9906397818897
 30
0.0
 10
193.986285740774
 20
139.0116599435994
 30
0.0
 10
193.9261251180876
 20
139.0393652895631
 30
0.0
 10
193.9020528063332
 20
139.0480005057565
 30
0.0
 10
193.8436712859827
 20
139.0612151509831
 30
0.0
 10
193.8082024583296
 20
139.0657461253132
 30
0.0
 10
193.7708266501809
 20
139.0657461253132
 30
0.0
  0
LINE
  5
65
330
1F
100
AcDbEntity
  8
0
  6
Continuous
 62
     7
370
    15
100
AcDbLine
 10
193.7708266502
 20
139.0657461253
 30
0.0
 11
191.6346306542
 21
139.0657461253
 31
0.0
  0
SPLINE
  5
66
330
1F
100
AcDbEntity
  8
0
  6
Continuous
 62
     7
370
    15
100
AcDbSpline
210
0.0
220
0.0
230
1.0
 70
     8
 71
     3
 72
    12
 73
     8
 74
     0
 42
0.00000001
 43
0.00000001
 12
1.0
 22
0.0
 32
0.0
 13
1.0
 23
0.0
 33
0.0
 40
0.0
 40
0.0
 40
0.0
 40
0.0
 40
0.2500000000000007
 40
0.2500000000000007
 40
0.5000000000000013
 40
0.5000000000000013
 40
1.0
 40
1.0
 40
1.0
 40
1.0
 10
191.6346306541793
 20
139.0657461253132
 30
0.0
 10
191.5971187681346
 20
139.0657461253132
 30
0.0
 10
191.5618314204299
 20
139.0612425810507
 30
0.0
 10
191.5029015721915
 20
139.0478693815974
 30
0.0
 10
191.4793758457224
 20
139.0393844790263
 30
0.0
 10
191.4191170579543
 20
139.0116366751917
 30
0.0
 10
191.393522295665
 20
138.9906468114513
 30
0.0
 10
191.374823033044
 20
138.9688460282618
 30
0.0
  0
ELLIPSE
  5
67
330
1F
100
AcDbEntity
  8
0
  6
Continuous
 62
     7
370
    15
100
AcDbEllipse
 10
201.6516578246
 20
119.9340897451
 30
0.0
 11
-9.367417879781586
 21
19.74174915274995
 31
0.0
210
0.0
220
0.0
230
1.0
 40
0.3419987131
 41
0.1510717289270754
 42
1.097974043471209
  0
LINE
  5
68
330
1F
100
AcDbEntity
  8
0
  6
Continuous
 62
     7
370
    15
100
AcDbLine
 10
184.7027286522
 20
100.2340897451
 30
0.0
 11
184.7027286522
 21
139.6340897423
 31
0.0
  0
SPLINE
  5
69
330
1F
100
AcDbEntity
  8
0
  6
Continuous
 62
     7
370
    15
100
AcDbSpline
210
0.0
220
0.0
230
1.0
 70
     8
 71
     3
 72
    18
 73
    14
 74
     0
 42
0.00000001
 43
0.00000001
 12
1.0
 22
0.0
 32
0.0
 13
1.0
 23
0.0
 33
0.0
 40
0.0
 40
0.0
 40
0.0
 40
0.0
 40
0.2500000000000003
 40
0.2500000000000003
 40
0.5000000000000007
 40
0.5000000000000007
 40
0.6250000000000004
 40
0.6250000000000004
 40
0.7500000000000003
 40
0.7500000000000003
 40
0.8750000000000001
 40
0.8750000000000001
 40
1.0
 40
1.0
 40
1.0
 40
1.0
 10
183.4466443346161
 20
106.102901362401
 30
0.0
 10
183.4809411540679
 20
106.1020397069192
 30
0.0
 10
183.5187524340451
 20
106.1022913100141
 30
0.0
 10
183.605324801225
 20
106.104689822626
 30
0.0
 10
183.6536639313079
 20
106.1068608073579
 30
0.0
 10
183.7429362886304
 20
106.1109556856531
 30
0.0
 10
183.7754777544063
 20
106.1124603036028
 30
0.0
 10
183.8516539542598
 20
106.1154233615709
 30
0.0
 10
183.8948700142543
 20
106.1169106998266
 30
0.0
 10
184.0005593162203
 20
106.1185361111503
 30
0.0
 10
184.0655303749348
 20
106.1184938700764
 30
0.0
 10
184.1991907632927
 20
106.1144716967554
 30
0.0
 10
184.2584972166289
 20
106.1109304699319
 30
0.0
 10
184.3077517633048
 20
106.1073637624958
 30
0.0
  0
SPLINE
  5
6A
330
1F
100
AcDbEntity
  8
0
  6
Continuous
 62
     7
370
    15
100
AcDbSpline
210
0.0
220
0.0
230
1.0
 70
     8
 71
     3
 72
    14
 73
    10
 74
     0
 42
0.00000001
 43
0.00000001
 12
1.0
 22
0.0
 32
0.0
 13
1.0
 23
0.0
 33
0.0
 40
0.0
 40
0.0
 40
0.0
 40
0.0
 40
0.1250000000000011
 40
0.1250000000000011
 40
0.2500000000000021
 40
0.2500000000000021
 40
0.5000000000000039
 40
0.5000000000000039
 40
1.0
 40
1.0
 40
1.0
 40
1.0
 10
184.307751763274
 20
106.1073637625148
 30
0.0
 10
184.3192785409914
 20
106.1065290650807
 30
0.0
 10
184.3326313486438
 20
106.1047886508006
 30
0.0
 10
184.362773921244
 20
106.0975410608003
 30
0.0
 10
184.3778344468585
 20
106.0921940265723
 30
0.0
 10
184.4131808007868
 20
106.0764467563439
 30
0.0
 10
184.4269129005157
 20
106.0666084821826
 30
0.0
 10
184.4602841462068
 20
106.0404044962322
 30
0.0
 10
184.4712245140608
 20
106.0263165948316
 30
0.0
 10
184.4798776390741
 20
106.0135429713432
 30
0.0
  0
LINE
  5
6B
330
1F
100
AcDbEntity
  8
0
  6
Continuous
 62
     7
370
    15
100
AcDbLine
 10
184.5027286522
 20
114.4286449781
 30
0.0
 11
184.5027286522
 21
105.8442694662
 31
0.0
  0
SPLINE
  5
6C
330
1F
100
AcDbEntity
  8
0
  6
Continuous
 62
     7
370
    15
100
AcDbSpline
210
0.0
220
0.0
230
1.0
 70
     8
 71
     3
 72
    16
 73
    12
 74
     0
 42
0.00000001
 43
0.00000001
 12
1.0
 22
0.0
 32
0.0
 13
1.0
 23
0.0
 33
0.0
 40
0.0
 40
0.0
 40
0.0
 40
0.0
 40
0.4999999999999984
 40
0.4999999999999984
 40
0.7499999999999992
 40
0.7499999999999992
 40
0.8749999999999996
 40
0.8749999999999996
 40
0.9374999999999999
 40
0.9374999999999999
 40
1.0
 40
1.0
 40
1.0
 40
1.0
 10
184.5027286521801
 20
114.4286449781169
 30
0.0
 10
184.5027286521801
 20
114.5462203591364
 30
0.0
 10
184.4988452270211
 20
114.6649161122377
 30
0.0
 10
184.4740299017465
 20
114.8456735902302
 30
0.0
 10
184.463190454034
 20
114.9073176670031
 30
0.0
 10
184.4299746719852
 20
114.9966546413444
 30
0.0
 10
184.4165929283564
 20
115.0269141727695
 30
0.0
 10
184.3810832784942
 20
115.060430416757
 30
0.0
 10
184.3656663119934
 20
115.068568762563
 30
0.0
 10
184.3339652898448
 20
115.0685533531317
 30
0.0
 10
184.319819004894
 20
115.0615111157758
 30
0.0
 10
184.3077517633044
 20
115.0523700521662
 30
0.0
  0
SPLINE
  5
6D
330
1F
100
AcDbEntity
  8
0
  6
Continuous
 62
     7
370
    15
100
AcDbSpline
210
0.0
220
0.0
230
1.0
 70
     8
 71
     3
 72
    18
 73
    14
 74
     0
 42
0.00000001
 43
0.00000001
 12
1.0
 22
0.0
 32
0.0
 13
1.0
 23
0.0
 33
0.0
 40
0.0
 40
0.0
 40
0.0
 40
0.0
 40
0.125
 40
0.125
 40
0.25
 40
0.25
 40
0.375
 40
0.375
 40
0.5
 40
0.5
 40
0.75
 40
0.75
 40
1.0
 40
1.0
 40
1.0
 40
1.0
 10
184.3077517633105
 20
115.052370052159
 30
0.0
 10
184.2590471796225
 20
115.0154758129684
 30
0.0
 10
184.200538696847
 20
114.9859445085425
 30
0.0
 10
184.0688118815772
 20
114.9767085352636
 30
0.0
 10
184.0040538100797
 20
114.9997717098206
 30
0.0
 10
183.898843207929
 20
115.067289831468
 30
0.0
 10
183.8556270594088
 20
115.1103009281186
 30
0.0
 10
183.779448743325
 20
115.2005429501147
 30
0.0
 10
183.7465939110337
 20
115.24817383159
 30
0.0
 10
183.6562260050727
 20
115.3952381309395
 30
0.0
 10
183.6068033472332
 20
115.4991514562441
 30
0.0
 10
183.5191522216415
 20
115.7102854198845
 30
0.0
 10
183.481090674251
 20
115.8180081646432
 30
0.0
 10
183.4466443346171
 20
115.9273412805527
 30
0.0
  0
SPLINE
  5
6E
330
1F
100
AcDbEntity
  8
0
  6
Continuous
 62
     7
370
    15
100
AcDbSpline
210
0.0
220
0.0
230
1.0
 70
     8
 71
     3
 72
     8
 73
     4
 74
     0
 42
0.00000001
 43
0.00000001
 12
1.0
 22
0.0
 32
0.0
 13
1.0
 23
0.0
 33
0.0
 40
0.0
 40
0.0
 40
0.0
 40
0.0
 40
1.0
 40
1.0
 40
1.0
 40
1.0
 10
183.3814083086204
 20
116.1625450546815
 30
0.0
 10
183.4008345139193
 20
116.0829527831087
 30
0.0
 10
183.4223313383477
 20
116.004511036976
 30
0.0
 10
183.4466443346171
 20
115.9273412805526
 30
0.0
  0
SPLINE
  5
6F
330
1F
100
AcDbEntity
  8
0
  6
Continuous
 62
     7
370
    15
100
AcDbSpline
210
0.0
220
0.0
230
1.0
 70
     8
 71
     3
 72
     8
 73
     4
 74
     0
 42
0.00000001
 43
0.00000001
 12
1.0
 22
0.0
 32
0.0
 13
1.0
 23
0.0
 33
0.0
 40
0.0
 40
0.0
 40
0.0
 40
0.0
 40
1.0
 40
1.0
 40
1.0
 40
1.0
 10
183.4466443346171
 20
123.9408382096072
 30
0.0
 10
183.4223313383477
 20
123.8636684531839
 30
0.0
 10
183.4008345139193
 20
123.7852267070511
 30
0.0
 10
183.3814083086204
 20
123.7056344354784
 30
0.0
  0
SPLINE
  5
70
330
1F
100
AcDbEntity
  8
0
  6
Continuous
 62
     7
370
    15
100
AcDbSpline
210
0.0
220
0.0
230
1.0
 70
     8
 71
     3
 72
    18
 73
    14
 74
     0
 42
0.00000001
 43
0.00000001
 12
1.0
 22
0.0
 32
0.0
 13
1.0
 23
0.0
 33
0.0
 40
0.0
 40
0.0
 40
0.0
 40
0.0
 40
0.2500000000000007
 40
0.2500000000000007
 40
0.5000000000000013
 40
0.5000000000000013
 40
0.625000000000001
 40
0.625000000000001
 40
0.7500000000000007
 40
0.7500000000000007
 40
0.8750000000000003
 40
0.8750000000000003
 40
1.0
 40
1.0
 40
1.0
 40
1.0
 10
183.4466443346171
 20
123.9408382096071
 30
0.0
 10
183.4809426536297
 20
124.0497015062002
 30
0.0
 10
183.5187570509417
 20
124.1567089294365
 30
0.0
 10
183.6053451120153
 20
124.3657437535749
 30
0.0
 10
183.653695217694
 20
124.4679138475644
 30
0.0
 10
183.7430118064937
 20
124.6145946191291
 30
0.0
 10
183.775572161982
 20
124.6623963176647
 30
0.0
 10
183.851817795711
 20
124.7539518556901
 30
0.0
 10
183.894977165491
 20
124.797631247682
 30
0.0
 10
184.000705989509
 20
124.8669854650086
 30
0.0
 10
184.0657031665637
 20
124.8911017786746
 30
0.0
 10
184.1991876565179
 20
124.8828975566363
 30
0.0
 10
184.2585150499634
 20
124.8531067710444
 30
0.0
 10
184.3077517633048
 20
124.8158094379933
 30
0.0
  0
SPLINE
  5
71
330
1F
100
AcDbEntity
  8
0
  6
Continuous
 62
     7
370
    15
100
AcDbSpline
210
0.0
220
0.0
230
1.0
 70
     8
 71
     3
 72
    16
 73
    12
 74
     0
 42
0.00000001
 43
0.00000001
 12
1.0
 22
0.0
 32
0.0
 13
1.0
 23
0.0
 33
0.0
 40
0.0
 40
0.0
 40
0.0
 40
0.0
 40
0.0625000000000007
 40
0.0625000000000007
 40
0.1250000000000013
 40
0.1250000000000013
 40
0.2500000000000026
 40
0.2500000000000026
 40
0.5000000000000021
 40
0.5000000000000021
 40
1.0
 40
1.0
 40
1.0
 40
1.0
 10
184.307751763274
 20
124.815809437945
 30
0.0
 10
184.3198215965499
 20
124.8066664110991
 30
0.0
 10
184.3340972514832
 20
124.7996219634079
 30
0.0
 10
184.3655616636076
 20
124.7996148915093
 30
0.0
 10
184.381062188418
 20
124.8077428603062
 30
0.0
 10
184.4165010850249
 20
124.8411513213134
 30
0.0
 10
184.4300937011282
 20
124.8718184877756
 30
0.0
 10
184.4630880195211
 20
124.9606394818574
 30
0.0
 10
184.4738754128398
 20
125.0215421274053
 30
0.0
 10
184.498928660119
 20
125.2035502047836
 30
0.0
 10
184.5027286521802
 20
125.3222389198223
 30
0.0
 10
184.5027286521803
 20
125.4395345120428
 30
0.0
  0
LINE
  5
72
330
1F
100
AcDbEntity
  8
0
  6
Continuous
 62
     7
370
    15
100
AcDbLine
 10
184.5027286522
 20
134.023910024
 30
0.0
 11
184.5027286522
 21
125.439534512
 31
0.0
  0
SPLINE
  5
73
330
1F
100
AcDbEntity
  8
0
  6
Continuous
 62
     7
370
    15
100
AcDbSpline
210
0.0
220
0.0
230
1.0
 70
     8
 71
     3
 72
    16
 73
    12
 74
     0
 42
0.00000001
 43
0.00000001
 12
1.0
 22
0.0
 32
0.0
 13
1.0
 23
0.0
 33
0.0
 40
0.0
 40
0.0
 40
0.0
 40
0.0
 40
0.500000000000002
 40
0.500000000000002
 40
0.7500000000000023
 40
0.7500000000000023
 40
0.8750000000000016
 40
0.8750000000000016
 40
0.9375000000000009
 40
0.9375000000000009
 40
1.0
 40
1.0
 40
1.0
 40
1.0
 10
184.5027286521801
 20
133.91890165174
 30
0.0
 10
184.5027286521801
 20
133.9033364243006
 30
0.0
 10
184.4988452270211
 20
133.8841650464526
 30
0.0
 10
184.4740299017465
 20
133.8453926644708
 30
0.0
 10
184.463190454034
 20
133.8307418882683
 30
0.0
 10
184.4299746719852
 20
133.8036976442886
 30
0.0
 10
184.4165929283564
 20
133.7937195451486
 30
0.0
 10
184.3810832784941
 20
133.7772450093616
 30
0.0
 10
184.3656663119934
 20
133.7714929185717
 30
0.0
 10
184.3339652898448
 20
133.763572398145
 30
0.0
 10
184.319819004894
 20
133.7616895621263
 30
0.0
 10
184.3077517633044
 20
133.760815727664
 30
0.0
  0
SPLINE
  5
74
330
1F
100
AcDbEntity
  8
0
  6
Continuous
 62
     7
370
    15
100
AcDbSpline
210
0.0
220
0.0
230
1.0
 70
     8
 71
     3
 72
    18
 73
    14
 74
     0
 42
0.00000001
 43
0.00000001
 12
1.0
 22
0.0
 32
0.0
 13
1.0
 23
0.0
 33
0.0
 40
0.0
 40
0.0
 40
0.0
 40
0.0
 40
0.1250000000000001
 40
0.1250000000000001
 40
0.2500000000000003
 40
0.2500000000000003
 40
0.3750000000000004
 40
0.3750000000000004
 40
0.5000000000000006
 40
0.5000000000000006
 40
0.7500000000000002
 40
0.7500000000000002
 40
1.0
 40
1.0
 40
1.0
 40
1.0
 10
184.3077517633105
 20
133.7608157276638
 30
0.0
 10
184.2590476342938
 20
133.7572888780456
 30
0.0
 10
184.2005399650892
 20
133.753788604848
 30
0.0
 10
184.0688143024583
 20
133.7497456209601
 30
0.0
 10
184.004056663838
 20
133.7496340463295
 30
0.0
 10
183.8988462472189
 20
133.7511662310909
 30
0.0
 10
183.8556302122788
 20
133.752621383306
 30
0.0
 10
183.7794519907978
 20
133.7555466448357
 30
0.0
 10
183.7465972231136
 20
133.757056975344
 30
0.0
 10
183.6562295042718
 20
133.7611989680323
 30
0.0
 10
183.6068071350824
 20
133.7634370530189
 30
0.0
 10
183.5191546729944
 20
133.7658883360653
 30
0.0
 10
183.48109193676
 20
133.7661435714264
 30
0.0
 10
183.4466443346166
 20
133.7652781277585
 30
0.0
  0
SPLINE
  5
75
330
1F
100
AcDbEntity
  8
0
  6
Continuous
 62
     7
370
    15
100
AcDbSpline
210
0.0
220
0.0
230
1.0
 70
     8
 71
     3
 72
    16
 73
    12
 74
     0
 42
0.00000001
 43
0.00000001
 12
1.0
 22
0.0
 32
0.0
 13
1.0
 23
0.0
 33
0.0
 40
0.0
 40
0.0
 40
0.0
 40
0.0
 40
0.2499999999999998
 40
0.2499999999999998
 40
0.3749999999999998
 40
0.3749999999999998
 40
0.4999999999999999
 40
0.4999999999999999
 40
0.7499999999999999
 40
0.7499999999999999
 40
1.0
 40
1.0
 40
1.0
 40
1.0
 10
183.0027286521801
 20
122.8802881411492
 30
0.0
 10
182.9221918427846
 20
122.4112153142862
 30
0.0
 10
182.8621544339824
 20
121.9308516641062
 30
0.0
 10
182.8014164867351
 20
121.1936673849653
 30
0.0
 10
182.7860940056922
 20
120.9451489817382
 30
0.0
 10
182.7655110539143
 20
120.4423655365245
 30
0.0
 10
182.7603115068778
 20
120.1875069834998
 30
0.0
 10
182.7602577963376
 20
119.4312296437791
 30
0.0
 10
182.7804551336067
 20
118.9325714444692
 30
0.0
 10
182.8611334406797
 20
117.946148473725
 30
0.0
 10
182.9221797890209
 20
117.457034380952
 30
0.0
 10
183.0027286521801
 20
116.9878913490106
 30
0.0
  0
LINE
  5
76
330
1F
100
AcDbEntity
  8
0
  6
Continuous
 62
     7
370
    15
100
AcDbLine
 10
183.0027286522
 20
116.987891349
 30
0.0
 11
183.0027286522
 21
115.8328860796
 31
0.0
  0
LINE
  5
77
330
1F
100
AcDbEntity
  8
0
  6
Continuous
 62
     7
370
    15
100
AcDbLine
 10
162.2027286522
 20
123.7740092112
 30
0.0
 11
162.2027286522
 21
116.094170279
 31
0.0
  0
LINE
  5
78
330
1F
100
AcDbEntity
  8
0
  6
Continuous
 62
     7
370
    15
100
AcDbLine
 10
183.0027286522
 20
124.0352934106
 30
0.0
 11
183.0027286522
 21
122.8802881411
 31
0.0
  0
SPLINE
  5
79
330
1F
100
AcDbEntity
  8
0
  6
Continuous
 62
     7
370
    15
100
AcDbSpline
210
0.0
220
0.0
230
1.0
 70
     8
 71
     3
 72
     8
 73
     4
 74
     0
 42
0.00000001
 43
0.00000001
 12
1.0
 22
0.0
 32
0.0
 13
1.0
 23
0.0
 33
0.0
 40
0.0
 40
0.0
 40
0.0
 40
0.0
 40
1.0
 40
1.0
 40
1.0
 40
1.0
 10
183.2076886742408
 20
116.9875989407161
 30
0.0
 10
183.2584157569632
 20
116.7042478193969
 30
0.0
 10
183.3163030699503
 20
116.4292916352571
 30
0.0
 10
183.3814083086205
 20
116.1625450546815
 30
0.0
  0
SPLINE
  5
7A
330
1F
100
AcDbEntity
  8
0
  6
Continuous
 62
     7
370
    15
100
AcDbSpline
210
0.0
220
0.0
230
1.0
 70
     8
 71
     3
 72
    24
 73
    20
 74
     0
 42
0.00000001
 43
0.00000001
 12
1.0
 22
0.0
 32
0.0
 13
1.0
 23
0.0
 33
0.0
 40
0.0
 40
0.0
 40
0.0
 40
0.0
 40
0.2499999999999987
 40
0.2499999999999987
 40
0.374999999999998
 40
0.374999999999998
 40
0.4374999999999971
 40
0.4374999999999971
 40
0.4687499999999964
 40
0.4687499999999964
 40
0.4999999999999957
 40
0.4999999999999957
 40
0.5624999999999962
 40
0.5624999999999962
 40
0.6249999999999968
 40
0.6249999999999968
 40
0.7499999999999977
 40
0.7499999999999977
 40
1.0
 40
1.0
 40
1.0
 40
1.0
 10
183.0027286521718
 20
116.9878913490093
 30
0.0
 10
183.0031316815457
 20
117.0811596416389
 30
0.0
 10
183.0051614212608
 20
117.1749172004879
 30
0.0
 10
183.0144701326806
 20
117.3165070861274
 30
0.0
 10
183.0183961257952
 20
117.3636875047366
 30
0.0
 10
183.0293254857112
 20
117.434283551422
 30
0.0
 10
183.0334471138056
 20
117.4580634651868
 30
0.0
 10
183.0453416349879
 20
117.491514612234
 30
0.0
 10
183.0506284469417
 20
117.5036695643036
 30
0.0
 10
183.0671963784566
 20
117.5115522032718
 30
0.0
 10
183.0751230872239
 20
117.5039886041698
 30
0.0
 10
183.0921154254491
 20
117.480196172943
 30
0.0
 10
183.0995131262401
 20
117.4600076950985
 30
0.0
 10
183.1136155165819
 20
117.4195580704787
 30
0.0
 10
183.1197686738742
 20
117.3987023960812
 30
0.0
 10
183.1370824073353
 20
117.3355773607802
 30
0.0
 10
183.1470874482238
 20
117.2925982488787
 30
0.0
 10
183.1754439044546
 20
117.1628726045898
 30
0.0
 10
183.1919924438008
 20
117.0752748774538
 30
0.0
 10
183.2076886742408
 20
116.9875989407161
 30
0.0
  0
SPLINE
  5
7B
330
1F
100
AcDbEntity
  8
0
  6
Continuous
 62
     7
370
    15
100
AcDbSpline
210
0.0
220
0.0
230
1.0
 70
     8
 71
     3
 72
    24
 73
    20
 74
     0
 42
0.00000001
 43
0.00000001
 12
1.0
 22
0.0
 32
0.0
 13
1.0
 23
0.0
 33
0.0
 40
0.0
 40
0.0
 40
0.0
 40
0.0
 40
0.2500000000000063
 40
0.2500000000000063
 40
0.3750000000000089
 40
0.3750000000000089
 40
0.4375000000000108
 40
0.4375000000000108
 40
0.5000000000000127
 40
0.5000000000000127
 40
0.5312500000000122
 40
0.5312500000000122
 40
0.5625000000000118
 40
0.5625000000000118
 40
0.6250000000000098
 40
0.6250000000000098
 40
0.7500000000000069
 40
0.7500000000000069
 40
1.0
 40
1.0
 40
1.0
 40
1.0
 10
183.2076886742359
 20
122.8805805494156
 30
0.0
 10
183.1919196293263
 20
122.7924978859271
 30
0.0
 10
183.175305464766
 20
122.70455306942
 30
0.0
 10
183.1467733372727
 20
122.5742057021607
 30
0.0
 10
183.1366857037188
 20
122.5309445243599
 30
0.0
 10
183.1191978808696
 20
122.4675087485266
 30
0.0
 10
183.1129880729432
 20
122.4465946249835
 30
0.0
 10
183.0987102133603
 20
122.4061198333003
 30
0.0
 10
183.0911390510084
 20
122.3856421898414
 30
0.0
 10
183.073719225831
 20
122.3627958103099
 30
0.0
 10
183.065235143373
 20
122.3562440132735
 30
0.0
 10
183.04919906976
 20
122.3668153885142
 30
0.0
 10
183.0443786974843
 20
122.3789064287973
 30
0.0
 10
183.0329717968813
 20
122.412549672017
 30
0.0
 10
183.0289508351721
 20
122.4359573513132
 30
0.0
 10
183.0181968233941
 20
122.5065459543727
 30
0.0
 10
183.0143249377716
 20
122.5535109818938
 30
0.0
 10
183.0051569729714
 20
122.6940878464961
 30
0.0
 10
183.0031286384583
 20
122.7877240761131
 30
0.0
 10
183.0027286521801
 20
122.8802881411492
 30
0.0
  0
SPLINE
  5
7C
330
1F
100
AcDbEntity
  8
0
  6
Continuous
 62
     7
370
    15
100
AcDbSpline
210
0.0
220
0.0
230
1.0
 70
     8
 71
     3
 72
     8
 73
     4
 74
     0
 42
0.00000001
 43
0.00000001
 12
1.0
 22
0.0
 32
0.0
 13
1.0
 23
0.0
 33
0.0
 40
0.0
 40
0.0
 40
0.0
 40
0.0
 40
1.0
 40
1.0
 40
1.0
 40
1.0
 10
183.3814083086205
 20
123.7056344354783
 30
0.0
 10
183.3163030699481
 20
123.4388878548939
 30
0.0
 10
183.2584157569594
 20
123.1639316707447
 30
0.0
 10
183.2076886742358
 20
122.8805805494157
 30
0.0
  0
LINE
  5
7D
330
1F
100
AcDbEntity
  8
0
  6
Continuous
 62
     7
370
    15
100
AcDbLine
 10
160.7027286522
 20
123.3409965093
 30
0.0
 11
160.7027286522
 21
116.5271829809
 31
0.0
  0
LINE
  5
7E
330
1F
100
AcDbEntity
  8
0
  6
Continuous
 62
     7
370
    15
100
AcDbLine
 10
183.2076886742
 20
133.7592747298
 30
0.0
 11
183.4466443346
 21
133.7652781278
 31
0.0
  0
LINE
  5
7F
330
1F
100
AcDbEntity
  8
0
  6
Continuous
 62
     7
370
    15
100
AcDbLine
 10
162.2027286522
 20
123.7740092112
 30
0.0
 11
162.2027286522
 21
133.4316201309
 31
0.0
  0
LINE
  5
80
330
1F
100
AcDbEntity
  8
0
  6
Continuous
 62
     7
370
    15
100
AcDbLine
 10
162.2027286522
 20
133.4316201309
 30
0.0
 11
183.0027286522
 21
133.9541885296
 31
0.0
  0
LINE
  5
81
330
1F
100
AcDbEntity
  8
0
  6
Continuous
 62
     7
370
    15
100
AcDbLine
 10
183.0027286522
 20
124.0352934106
 30
0.0
 11
183.0027286522
 21
133.9541885296
 31
0.0
  0
ARC
  5
82
330
1F
100
AcDbEntity
  8
0
  6
Continuous
 62
     7
370
    15
100
AcDbCircle
 10
183.2026655631
 20
133.9592116408
 30
0.0
 40
0.2000000000000066
100
AcDbArc
 50
181.4391666667
 51
271.4391666667
  0
LINE
  5
83
330
1F
100
AcDbEntity
  8
0
  6
Continuous
 62
     7
370
    15
100
AcDbLine
 10
162.2027286522
 20
106.4365593592
 30
0.0
 11
162.2027286522
 21
116.094170279
 31
0.0
  0
LINE
  5
84
330
1F
100
AcDbEntity
  8
0
  6
Continuous
 62
     7
370
    15
100
AcDbLine
 10
183.0027286522
 20
105.9139909605
 30
0.0
 11
183.0027286522
 21
115.8328860796
 31
0.0
  0
LINE
  5
85
330
1F
100
AcDbEntity
  8
0
  6
Continuous
 62
     7
370
    15
100
AcDbLine
 10
162.2027286522
 20
106.4365593592
 30
0.0
 11
183.0027286522
 21
105.9139909605
 31
0.0
  0
ARC
  5
86
330
1F
100
AcDbEntity
  8
0
  6
Continuous
 62
     7
370
    15
100
AcDbCircle
 10
183.2026655631
 20
105.9089678494
 30
0.0
 40
0.2000000000000066
100
AcDbArc
 50
88.5608333333
 51
178.5608333333
  0
LINE
  5
87
330
1F
100
AcDbEntity
  8
0
  6
Continuous
 62
     7
370
    15
100
AcDbLine
 10
183.2076886742
 20
106.1089047603
 30
0.0
 11
183.4466443346
 21
106.1029013624
 31
0.0
  0
LINE
  5
88
330
1F
100
AcDbEntity
  8
0
  6
Continuous
 62
     7
370
    15
100
AcDbLine
 10
160.7027286522
 20
132.5655947271
 30
0.0
 11
162.2027286522
 21
133.4316201309
 31
0.0
  0
LINE
  5
89
330
1F
100
AcDbEntity
  8
0
  6
Continuous
 62
     7
370
    15
100
AcDbLine
 10
160.7027286522
 20
123.3409965093
 30
0.0
 11
160.7027286522
 21
132.5655947271
 31
0.0
  0
LINE
  5
8A
330
1F
100
AcDbEntity
  8
0
  6
Continuous
 62
     7
370
    15
100
AcDbLine
 10
160.7027286522
 20
107.302584763
 30
0.0
 11
162.2027286522
 21
106.4365593592
 31
0.0
  0
LINE
  5
8B
330
1F
100
AcDbEntity
  8
0
  6
Continuous
 62
     7
370
    15
100
AcDbLine
 10
160.7027286522
 20
107.302584763
 30
0.0
 11
160.7027286522
 21
116.5271829809
 31
0.0
  0
SPLINE
  5
8C
330
1F
100
AcDbEntity
  8
0
  6
Continuous
 62
     7
370
    15
100
AcDbSpline
210
0.0
220
0.0
230
1.0
 70
     8
 71
     3
 72
     8
 73
     4
 74
     0
 42
0.00000001
 43
0.00000001
 12
1.0
 22
0.0
 32
0.0
 13
1.0
 23
0.0
 33
0.0
 40
0.0
 40
0.0
 40
0.0
 40
0.0
 40
1.0
 40
1.0
 40
1.0
 40
1.0
 10
207.3165902425602
 20
140.0073507766137
 30
0.0
 10
207.1901782863172
 20
139.9552227987155
 30
0.0
 10
207.0556376324668
 20
139.9323934089598
 30
0.0
 10
206.9354016641968
 20
139.9330559808328
 30
0.0
  0
SPLINE
  5
8D
330
1F
100
AcDbEntity
  8
0
  6
Continuous
 62
     7
370
    15
100
AcDbSpline
210
0.0
220
0.0
230
1.0
 70
     8
 71
     3
 72
     8
 73
     4
 74
     0
 42
0.00000001
 43
0.00000001
 12
1.0
 22
0.0
 32
0.0
 13
1.0
 23
0.0
 33
0.0
 40
0.0
 40
0.0
 40
0.0
 40
0.0
 40
1.0
 40
1.0
 40
1.0
 40
1.0
 10
206.9354016642012
 20
99.93512350931888
 30
0.0
 10
207.0556121275317
 20
99.93578594064384
 30
0.0
 10
207.1901554510704
 20
99.91296610793191
 30
0.0
 10
207.3165902425651
 20
99.86082871355472
 30
0.0
  0
LINE
  5
8E
330
1F
100
AcDbEntity
  8
0
  6
Continuous
 62
     7
370
    15
100
AcDbLine
 10
219.7911427554
 20
105.1306851446
 30
0.0
 11
221.017656059
 21
103.1678535545
 31
0.0
  0
LINE
  5
8F
330
1F
100
AcDbEntity
  8
0
  6
Continuous
 62
     7
370
    15
100
AcDbLine
 10
219.565186703
 20
104.9894921325
 30
0.0
 11
220.6928355951
 21
103.1848766737
 31
0.0
  0
LINE
  5
90
330
1F
100
AcDbEntity
  8
0
  6
Continuous
 62
     7
370
    15
100
AcDbLine
 10
207.801427068
 20
140.4318945056
 30
0.0
 11
211.0343318014
 21
140.4318945056
 31
0.0
  0
LINE
  5
91
330
1F
100
AcDbEntity
  8
0
  6
Continuous
 62
     7
370
    15
100
AcDbLine
 10
226.6058146802
 20
118.359273799
 30
0.0
 11
211.0343318014
 21
140.4318945056
 31
0.0
  0
LINE
  5
92
330
1F
100
AcDbEntity
  8
0
  6
Continuous
 62
     7
370
    15
100
AcDbLine
 10
226.6058146802
 20
110.6222331871
 30
0.0
 11
226.6058146802
 21
118.359273799
 31
0.0
  0
ELLIPSE
  5
93
330
1F
100
AcDbEntity
  8
0
  6
Continuous
 62
     7
370
    15
100
AcDbEllipse
 10
243.733481713
 20
110.6222331871
 30
0.0
 11
17.12766703280045
 21
0.0
 31
1.231376112187377E-13
210
-7.189397772791952E-15
220
0.0
230
1.0
 40
0.9925461516
 41
3.141592653589793
 42
3.624002819015369
  0
ARC
  5
94
330
1F
100
AcDbEntity
  8
0
  6
Continuous
 62
     7
370
    15
100
AcDbCircle
 10
218.5051265828
 20
104.3270930522
 30
0.0
 40
1.516442497159291
100
AcDbArc
 50
32.0
 51
212.0
  0
LINE
  5
95
330
1F
100
AcDbEntity
  8
0
  6
Continuous
 62
     7
370
    15
100
AcDbLine
 10
217.6210376979
 20
102.8802828431
 30
0.0
 11
217.2191104101
 21
103.5235009599
 31
0.0
  0
LINE
  5
96
330
1F
100
AcDbEntity
  8
0
  6
Continuous
 62
     7
370
    15
100
AcDbLine
 10
223.2959689585
 20
93.7289831131
 30
0.0
 11
209.1674540583
 21
94.4694272036
 31
0.0
  0
LINE
  5
97
330
1F
100
AcDbEntity
  8
0
  6
Continuous
 62
     7
370
    15
100
AcDbLine
 10
207.9013274905
 20
99.1950785005
 30
0.0
 11
209.1674540583
 21
94.4694272036
 31
0.0
  0
SPLINE
  5
98
330
1F
100
AcDbEntity
  8
0
  6
Continuous
 62
     7
370
    15
100
AcDbSpline
210
0.0
220
0.0
230
1.0
 70
     8
 71
     3
 72
    12
 73
     8
 74
     0
 42
0.00000001
 43
0.00000001
 12
1.0
 22
0.0
 32
0.0
 13
1.0
 23
0.0
 33
0.0
 40
0.0
 40
0.0
 40
0.0
 40
0.0
 40
0.5
 40
0.5
 40
0.75
 40
0.75
 40
1.0
 40
1.0
 40
1.0
 40
1.0
 10
207.3165902425633
 20
99.86082871354485
 30
0.0
 10
207.4584771420771
 20
99.80231939700707
 30
0.0
 10
207.5853262800652
 20
99.71176410618273
 30
0.0
 10
207.7377401621408
 20
99.53811303838998
 30
0.0
 10
207.7810291794579
 20
99.47548268194501
 30
0.0
 10
207.8530124637598
 20
99.34100429783047
 30
0.0
 10
207.8816286239897
 20
99.26860336245618
 30
0.0
 10
207.9013274904902
 20
99.19507850047616
 30
0.0
  0
SPLINE
  5
99
330
1F
100
AcDbEntity
  8
0
  6
Continuous
 62
     7
370
    15
100
AcDbSpline
210
0.0
220
0.0
230
1.0
 70
     8
 71
     3
 72
    10
 73
     6
 74
     0
 42
0.00000001
 43
0.00000001
 12
1.0
 22
0.0
 32
0.0
 13
1.0
 23
0.0
 33
0.0
 40
0.0
 40
0.0
 40
0.0
 40
0.0
 40
0.5
 40
0.5
 40
1.0
 40
1.0
 40
1.0
 40
1.0
 10
207.8014270679856
 20
140.4318945055902
 30
0.0
 10
207.746447452071
 20
140.3366568189319
 30
0.0
 10
207.6755261274616
 20
140.2506800422576
 30
0.0
 10
207.5119149857721
 20
140.1075758476432
 30
0.0
 10
207.4170975490254
 20
140.0487965607447
 30
0.0
 10
207.3165902425595
 20
140.0073507766134
 30
0.0
  0
ARC
  5
9A
330
1F
100
AcDbEntity
  8
0
  6
Continuous
 62
     7
370
    15
100
AcDbCircle
 10
218.5051265828
 20
104.3270930522
 30
0.0
 40
1.250000000000035
100
AcDbArc
 50
32.0
 51
212.0
  0
LINE
  5
9B
330
1F
100
AcDbEntity
  8
0
  6
Continuous
 62
     7
370
    15
100
AcDbLine
 10
217.4450664626
 20
103.6646939719
 30
0.0
 11
217.7301560215
 21
103.2084553069
 31
0.0
  0
LINE
  5
9C
330
1F
100
AcDbEntity
  8
0
  6
Continuous
 62
     7
370
    15
100
AcDbLine
 10
228.6584216976
 20
102.366869057
 30
0.0
 11
228.9806799739
 21
102.5682383772
 31
0.0
  0
LINE
  5
9D
330
1F
100
AcDbEntity
  8
0
  6
Continuous
 62
     7
370
    15
100
AcDbLine
 10
234.6249869287
 20
93.5354590655
 30
0.0
 11
228.9806799739
 21
102.5682383772
 31
0.0
  0
LINE
  5
9E
330
1F
100
AcDbEntity
  8
0
  6
Continuous
 62
     7
370
    15
100
AcDbLine
 10
234.3027286522
 20
93.3340897451
 30
0.0
 11
234.6249869287
 21
93.5354590655
 31
0.0
  0
LINE
  5
9F
330
1F
100
AcDbEntity
  8
0
  6
Continuous
 62
     7
370
    15
100
AcDbLine
 10
232.5730443414
 20
94.3529516683
 30
0.0
 11
234.3027286522
 21
93.3340897451
 31
0.0
  0
LINE
  5
A0
330
1F
100
AcDbEntity
  8
0
  6
Continuous
 62
     7
370
    15
100
AcDbLine
 10
228.532266444
 20
102.1526999356
 30
0.0
 11
228.6584216976
 21
102.366869057
 31
0.0
  0
SPLINE
  5
A1
330
1F
100
AcDbEntity
  8
0
  6
Continuous
 62
     7
370
    15
100
AcDbSpline
210
0.0
220
0.0
230
1.0
 70
    24
 71
     3
 72
    11
 73
     7
 74
     0
 42
0.00000001
 43
0.00000001
 12
1.0
 22
0.0
 32
0.0
 13
1.0
 23
0.0
 33
0.0
 40
0.0
 40
0.0
 40
0.0
 40
0.0
 40
0.3277695037502222
 40
0.6551509568909902
 40
0.990786190160988
 40
1.0
 40
1.0
 40
1.0
 40
1.0
 10
228.5322664440037
 20
102.1526999356443
 30
0.0
 10
228.4945410075134
 20
102.0886548534544
 30
0.0
 10
228.4191347981714
 20
101.9606405128862
 30
0.0
 10
228.2947969013383
 20
101.749556651098
 30
0.0
 10
228.2163756634482
 20
101.6164238077605
 30
0.0
 10
228.1797715167908
 20
101.5542822979654
 30
0.0
 10
228.1787935130718
 20
101.5526219771213
 30
0.0
  0
LINE
  5
A2
330
1F
100
AcDbEntity
  8
0
  6
Continuous
 62
     7
370
    15
100
AcDbLine
 10
223.6660675445
 20
93.8915335327
 30
0.0
 11
223.343809268
 21
93.6901642123
 31
0.0
  0
LINE
  5
A3
330
1F
100
AcDbEntity
  8
0
  6
Continuous
 62
     7
370
    15
100
AcDbLine
 10
217.6995023134
 20
102.7229435242
 30
0.0
 11
223.343809268
 21
93.6901642123
 31
0.0
  0
LINE
  5
A4
330
1F
100
AcDbEntity
  8
0
  6
Continuous
 62
     7
370
    15
100
AcDbLine
 10
218.02176059
 20
102.9243128446
 30
0.0
 11
217.6995023134
 21
102.7229435242
 31
0.0
  0
LINE
  5
A5
330
1F
100
AcDbEntity
  8
0
  6
Continuous
 62
     7
370
    15
100
AcDbLine
 10
219.7514449007
 20
101.9054509214
 30
0.0
 11
218.02176059
 21
102.9243128446
 31
0.0
  0
LINE
  5
A6
330
1F
100
AcDbEntity
  8
0
  6
Continuous
 62
     7
370
    15
100
AcDbLine
 10
223.7922227981
 20
94.1057026541
 30
0.0
 11
223.6660675445
 21
93.8915335327
 31
0.0
  0
SPLINE
  5
A7
330
1F
100
AcDbEntity
  8
0
  6
Continuous
 62
     7
370
    15
100
AcDbSpline
210
0.0
220
0.0
230
1.0
 70
    24
 71
     3
 72
    11
 73
     7
 74
     0
 42
0.00000001
 43
0.00000001
 12
1.0
 22
0.0
 32
0.0
 13
1.0
 23
0.0
 33
0.0
 40
0.0
 40
0.0
 40
0.0
 40
0.0
 40
0.0092138098389969
 40
0.3448490431109688
 40
0.6722304962507512
 40
1.0
 40
1.0
 40
1.0
 40
1.0
 10
224.1456957290721
 20
94.70578061258934
 30
0.0
 10
224.1447177253532
 20
94.70412029174517
 30
0.0
 10
224.1081135786953
 20
94.64197878194969
 30
0.0
 10
224.029692340805
 20
94.50884593861139
 30
0.0
 10
223.9053544439716
 20
94.29776207682256
 30
0.0
 10
223.8299482346297
 20
94.16974773625464
 30
0.0
 10
223.7922227981394
 20
94.10570265406473
 30
0.0
  0
LINE
  5
A8
330
1F
100
AcDbEntity
  8
0
  6
Continuous
 62
     7
370
    15
100
AcDbLine
 10
234.6465535114
 20
93.5386869168
 30
0.0
 11
228.9968158321
 21
102.580157205
 31
0.0
  0
LINE
  5
A9
330
1F
100
AcDbEntity
  8
0
  6
Continuous
 62
     7
370
    15
100
AcDbLine
 10
223.6435782588
 20
93.4921632078
 30
0.0
 11
234.2904735332
 21
92.9341830703
 31
0.0
  0
LINE
  5
AA
330
1F
100
AcDbEntity
  8
0
  6
Continuous
 62
     7
370
    15
100
AcDbLine
 10
217.6779357307
 20
102.7197156729
 30
0.0
 11
223.32767341
 21
93.6782453847
 31
0.0
  0
LINE
  5
AB
330
1F
100
AcDbEntity
  8
0
  6
Continuous
 62
     7
370
    15
100
AcDbLine
 10
228.6809109833
 20
102.7662393819
 30
0.0
 11
218.034015709
 21
103.3242195195
 31
0.0
  0
ARC
  5
AC
330
1F
100
AcDbEntity
  8
0
  6
Continuous
 62
     7
370
    15
100
AcDbCircle
 10
234.3027286522
 20
93.3340897451
 30
0.0
 40
0.3800000000000128
100
AcDbArc
 50
267.0
 51
32.0
  0
ARC
  5
AD
330
1F
100
AcDbEntity
  8
0
  6
Continuous
 62
     7
370
    15
100
AcDbCircle
 10
228.6584216976
 20
102.366869057
 30
0.0
 40
0.3799999999999912
100
AcDbArc
 50
32.0
 51
87.0
  0
LINE
  5
AE
330
1F
100
AcDbEntity
  8
0
  6
Continuous
 62
     7
370
    15
100
AcDbLine
 10
228.678309361
 20
102.7463482802
 30
0.0
 11
218.0416482533
 21
103.3037920678
 31
0.0
  0
ARC
  5
AF
330
1F
100
AcDbEntity
  8
0
  6
Continuous
 62
     7
370
    15
100
AcDbCircle
 10
218.02176059
 20
102.9243128446
 30
0.0
 40
0.3800000000000084
100
AcDbArc
 50
87.0
 51
212.0
  0
ARC
  5
B0
330
1F
100
AcDbEntity
  8
0
  6
Continuous
 62
     7
370
    15
100
AcDbCircle
 10
223.6660675445
 20
93.8915335327
 30
0.0
 40
0.3800000000000294
100
AcDbArc
 50
212.0
 51
267.0
  0
LINE
  5
B1
330
1F
100
AcDbEntity
  8
0
  6
Continuous
 62
     7
370
    15
100
AcDbLine
 10
223.6461798812
 20
93.5120543095
 30
0.0
 11
234.2828409888
 21
92.9546105219
 31
0.0
  0
SPLINE
  5
B2
330
1F
100
AcDbEntity
  8
0
  6
Continuous
 62
     7
370
    15
100
AcDbSpline
210
0.0
220
0.0
230
1.0
 70
     8
 71
     3
 72
    12
 73
     8
 74
     0
 42
0.00000001
 43
0.00000001
 12
1.0
 22
0.0
 32
0.0
 13
1.0
 23
0.0
 33
0.0
 40
0.0
 40
0.0
 40
0.0
 40
0.0
 40
0.1735682521135434
 40
0.3521721554109418
 40
0.5256412141651805
 40
0.704169412407927
 40
1.0
 40
1.0
 40
1.0
 40
1.0
 10
223.3276734100366
 20
93.67824538466665
 30
0.0
 10
223.3402488603902
 20
93.66012380437519
 30
0.0
 10
223.3657646065151
 20
93.6233548912071
 30
0.0
 10
223.414832333104
 20
93.57746338351548
 30
0.0
 10
223.4708254553874
 20
93.53990253818257
 30
0.0
 10
223.5460794944667
 20
93.50511344949999
 30
0.0
 10
223.6061288759087
 20
93.49713740994258
 30
0.0
 10
223.6435782587957
 20
93.49216320784201
 30
0.0
  0
SPLINE
  5
B3
330
1F
100
AcDbEntity
  8
0
  6
Continuous
 62
     7
370
    15
100
AcDbSpline
210
0.0
220
0.0
230
1.0
 70
     8
 71
     3
 72
    10
 73
     6
 74
     0
 42
0.00000001
 43
0.00000001
 12
1.0
 22
0.0
 32
0.0
 13
1.0
 23
0.0
 33
0.0
 40
0.0
 40
0.0
 40
0.0
 40
0.0
 40
0.351802278581021
 40
0.7034245935032275
 40
1.0
 40
1.0
 40
1.0
 40
1.0
 10
228.9968158321074
 20
102.580157205044
 30
0.0
 10
228.9693998525831
 20
102.6155956475365
 30
0.0
 10
228.9145819181167
 20
102.6864544040665
 30
0.0
 10
228.7997438463521
 20
102.7497820726088
 30
0.0
 10
228.7182140179173
 20
102.7610732387604
 30
0.0
 10
228.6809109833483
 20
102.7662393818686
 30
0.0
  0
SPLINE
  5
B4
330
1F
100
AcDbEntity
  8
0
  6
Continuous
 62
     7
370
    15
100
AcDbSpline
210
0.0
220
0.0
230
1.0
 70
     8
 71
     3
 72
    20
 73
    16
 74
     0
 42
0.00000001
 43
0.00000001
 12
1.0
 22
0.0
 32
0.0
 13
1.0
 23
0.0
 33
0.0
 40
0.0
 40
0.0
 40
0.0
 40
0.0
 40
0.0783075311860478
 40
0.1588910126856526
 40
0.2369785693217765
 40
0.31743981607573
 40
0.3936615824744952
 40
0.4721830276909793
 40
0.5469240757152852
 40
0.6238523130449536
 40
0.6983189620749531
 40
0.7748908420225415
 40
0.8503894607879737
 40
0.9279814901989208
 40
0.9999999999999999
 40
0.9999999999999999
 40
0.9999999999999999
 40
0.9999999999999999
 10
218.0340157089714
 20
103.3242195194578
 30
0.0
 10
218.0113835116043
 20
103.3243227826507
 30
0.0
 10
217.9654613288399
 20
103.3245323103045
 30
0.0
 10
217.8981055833925
 20
103.310286734303
 30
0.0
 10
217.8335249717031
 20
103.2853951403244
 30
0.0
 10
217.7752589477682
 20
103.2501723034784
 30
0.0
 10
217.7238583645973
 20
103.205448735423
 30
0.0
 10
217.6819107568502
 20
103.1538169144946
 30
0.0
 10
217.6493065268247
 20
103.0956496447085
 30
0.0
 10
217.6273638891354
 20
103.0338945174709
 30
0.0
 10
217.616002427401
 20
102.9688551153914
 30
0.0
 10
217.6155288829634
 20
102.9031986215806
 30
0.0
 10
217.6261880435479
 20
102.8376017570912
 30
0.0
 10
217.6464301649511
 20
102.775459960873
 30
0.0
 10
217.6676979757646
 20
102.7378298170705
 30
0.0
 10
217.6779357307355
 20
102.7197156728764
 30
0.0
  0
SPLINE
  5
B5
330
1F
100
AcDbEntity
  8
0
  6
Continuous
 62
     7
370
    15
100
AcDbSpline
210
0.0
220
0.0
230
1.0
 70
     8
 71
     3
 72
    20
 73
    16
 74
     0
 42
0.00000001
 43
0.00000001
 12
1.0
 22
0.0
 32
0.0
 13
1.0
 23
0.0
 33
0.0
 40
0.0
 40
0.0
 40
0.0
 40
0.0
 40
0.0783075311860536
 40
0.1588910126856664
 40
0.2369785693217732
 40
0.3174398160757259
 40
0.3936615824744848
 40
0.4721830276909675
 40
0.5469240757152818
 40
0.6238523130449363
 40
0.6983189620749434
 40
0.7748908420225337
 40
0.8503894607879625
 40
0.927981490198919
 40
1.0
 40
1.0
 40
1.0
 40
1.0
 10
234.2904735331726
 20
92.93418307025279
 30
0.0
 10
234.3131057305397
 20
92.93407980705992
 30
0.0
 10
234.3590279133041
 20
92.93387027940611
 30
0.0
 10
234.4263836587515
 20
92.94811585540765
 30
0.0
 10
234.4909642704409
 20
92.97300744938627
 30
0.0
 10
234.5492302943758
 20
93.0082302862322
 30
0.0
 10
234.6006308775466
 20
93.05295385428761
 30
0.0
 10
234.6425784852938
 20
93.104585675216
 30
0.0
 10
234.6751827153194
 20
93.16275294500215
 30
0.0
 10
234.6971253530086
 20
93.2245080722397
 30
0.0
 10
234.7084868147431
 20
93.28954747431918
 30
0.0
 10
234.7089603591805
 20
93.35520396813004
 30
0.0
 10
234.6983011985961
 20
93.42080083261939
 30
0.0
 10
234.6780590771929
 20
93.4829426288376
 30
0.0
 10
234.6567912663794
 20
93.52057277264007
 30
0.0
 10
234.6465535114085
 20
93.53868691683421
 30
0.0
  0
LINE
  5
B6
330
1F
100
AcDbEntity
  8
0
  6
Continuous
 62
     7
370
    15
100
AcDbLine
 10
234.3027286522
 20
93.3340897451
 30
0.0
 11
234.2828409888
 21
92.9546105219
 31
0.0
  0
LINE
  5
B7
330
1F
100
AcDbEntity
  8
0
  6
Continuous
 62
     7
370
    15
100
AcDbLine
 10
223.6660675445
 20
93.8915335327
 30
0.0
 11
223.6461798812
 21
93.5120543095
 31
0.0
  0
ARC
  5
B8
330
1F
100
AcDbEntity
  8
0
  6
Continuous
 62
     7
370
    15
100
AcDbCircle
 10
230.1601786123
 20
95.7742382014
 30
0.0
 40
1.000000000295377
100
AcDbArc
 50
267.0
 51
32.0
  0
LINE
  5
B9
330
1F
100
AcDbEntity
  8
0
  6
Continuous
 62
     7
370
    15
100
AcDbLine
 10
231.0082267084
 20
96.3041574656
 30
0.0
 11
228.236208909
 21
100.7403132652
 31
0.0
  0
LINE
  5
BA
330
1F
100
AcDbEntity
  8
0
  6
Continuous
 62
     7
370
    15
100
AcDbLine
 10
221.3162625337
 20
99.9542451241
 30
0.0
 11
224.0882803332
 21
95.5180893245
 31
0.0
  0
ARC
  5
BB
330
1F
100
AcDbEntity
  8
0
  6
Continuous
 62
     7
370
    15
100
AcDbCircle
 10
222.1643106299
 20
100.4841643884
 30
0.0
 40
1.00000000000001
100
AcDbArc
 50
87.0
 51
212.0
  0
LINE
  5
BC
330
1F
100
AcDbEntity
  8
0
  6
Continuous
 62
     7
370
    15
100
AcDbLine
 10
227.4404967691
 20
101.2090235357
 30
0.0
 11
222.2166465861
 21
101.4827939231
 31
0.0
  0
ARC
  5
BD
330
1F
100
AcDbEntity
  8
0
  6
Continuous
 62
     7
370
    15
100
AcDbCircle
 10
227.3881608128
 20
100.210394001
 30
0.0
 40
1.000000000000015
100
AcDbArc
 50
32.0
 51
87.0
  0
LINE
  5
BE
330
1F
100
AcDbEntity
  8
0
  6
Continuous
 62
     7
370
    15
100
AcDbLine
 10
224.8839924731
 20
95.049379054
 30
0.0
 11
230.107842656
 21
94.7756086663
 31
0.0
  0
ARC
  5
BF
330
1F
100
AcDbEntity
  8
0
  6
Continuous
 62
     7
370
    15
100
AcDbCircle
 10
224.9363284293
 20
96.0480085888
 30
0.0
 40
0.9999999999999959
100
AcDbArc
 50
212.0
 51
267.0
  0
CIRCLE
  5
C0
330
1F
100
AcDbEntity
  8
0
  6
Continuous
 62
     7
370
    15
100
AcDbCircle
 10
226.1622446211
 20
98.1292012949
 30
0.0
 40
3.050000000000002
  0
LINE
  5
C1
330
1F
100
AcDbEntity
  8
0
  6
Continuous
 62
     7
370
    15
100
AcDbLine
 10
228.6584216976
 20
102.366869057
 30
0.0
 11
228.678309361
 21
102.7463482802
 31
0.0
  0
LINE
  5
C2
330
1F
100
AcDbEntity
  8
0
  6
Continuous
 62
     7
370
    15
100
AcDbLine
 10
218.02176059
 20
102.9243128446
 30
0.0
 11
218.0416482533
 21
103.3037920678
 31
0.0
  0
SPLINE
  5
C3
330
1F
100
AcDbEntity
  8
0
  6
Continuous
 62
     7
370
    15
100
AcDbSpline
210
0.0
220
0.0
230
1.0
 70
    24
 71
     3
 72
    13
 73
     9
 74
     0
 42
0.00000001
 43
0.00000001
 12
1.0
 22
0.0
 32
0.0
 13
1.0
 23
0.0
 33
0.0
 40
0.0
 40
0.0
 40
0.0
 40
0.0
 40
0.007274460380701
 40
0.1264245288330727
 40
0.3536587683847039
 40
0.5870519076736466
 40
0.7901352538470668
 40
0.9999999999999999
 40
0.9999999999999999
 40
0.9999999999999999
 40
0.9999999999999999
 10
231.9806319534755
 20
94.70190923309855
 30
0.0
 10
231.9819243666591
 20
94.70114794355358
 30
0.0
 10
232.004385514187
 20
94.68791731653923
 30
0.0
 10
232.0687481204786
 20
94.65000484405928
 30
0.0
 10
232.1802175659478
 20
94.5843443227225
 30
0.0
 10
232.314094247162
 20
94.50548493083836
 30
0.0
 10
232.4475268628083
 20
94.42688711356392
 30
0.0
 10
232.5307496227576
 20
94.37786516156305
 30
0.0
 10
232.5730443414291
 20
94.35295166830868
 30
0.0
  0
SPLINE
  5
C4
330
1F
100
AcDbEntity
  8
0
  6
Continuous
 62
     7
370
    15
100
AcDbSpline
210
0.0
220
0.0
230
1.0
 70
    24
 71
     3
 72
    11
 73
     7
 74
     0
 42
0.00000001
 43
0.00000001
 12
1.0
 22
0.0
 32
0.0
 13
1.0
 23
0.0
 33
0.0
 40
0.0
 40
0.0
 40
0.0
 40
0.0
 40
0.4125701671612916
 40
0.8731537903910289
 40
0.9927012761302734
 40
1.0
 40
1.0
 40
1.0
 40
1.0
 10
219.7514449007143
 20
101.9054509214023
 30
0.0
 10
219.8357385994296
 20
101.8557981382584
 30
0.0
 10
220.0141357992217
 20
101.7507141567776
 30
0.0
 10
220.2137218876066
 20
101.6331489660672
 30
0.0
 10
220.320102967513
 20
101.5704857211073
 30
0.0
 10
220.3425648341098
 20
101.5572546705289
 30
0.0
 10
220.3438572886687
 20
101.556493356612
 30
0.0
  0
ARC
  5
C5
330
1F
100
AcDbEntity
  8
0
  6
Continuous
 62
     7
370
    15
100
AcDbCircle
 10
226.0517353166
 20
98.1942962499
 30
0.0
 40
1.675000000000006
100
AcDbArc
 50
149.07804828
 51
207.6779814073
  0
ARC
  5
C6
330
1F
100
AcDbEntity
  8
0
  6
Continuous
 62
     7
370
    15
100
AcDbCircle
 10
226.0517353166
 20
98.1942962499
 30
0.0
 40
1.675000000000006
100
AcDbArc
 50
207.6779814073
 51
267.784823142
  0
ARC
  5
C7
330
1F
100
AcDbEntity
  8
0
  6
Continuous
 62
     7
370
    15
100
AcDbCircle
 10
226.0517353166
 20
98.1942962499
 30
0.0
 40
1.674999999999992
100
AcDbArc
 50
267.784823142
 51
326.3847562692
  0
LINE
  5
C8
330
1F
100
AcDbEntity
  8
0
  6
Continuous
 62
     7
370
    15
100
AcDbLine
 10
227.4918593039
 20
97.3389203668
 30
0.0
 11
227.4466317324
 21
97.2669942553
 31
0.0
  0
ARC
  5
C9
330
1F
100
AcDbEntity
  8
0
  6
Continuous
 62
     7
370
    15
100
AcDbCircle
 10
226.0517353166
 20
98.1942962499
 30
0.0
 40
1.674999999999999
100
AcDbArc
 50
329.2913870411
 51
25.7351052074
  0
LINE
  5
CA
330
1F
100
AcDbEntity
  8
0
  6
Continuous
 62
     7
370
    15
100
AcDbLine
 10
227.5047453537
 20
99.0275950151
 30
0.0
 11
227.5605939906
 21
98.921599833
 31
0.0
  0
ARC
  5
CB
330
1F
100
AcDbEntity
  8
0
  6
Continuous
 62
     7
370
    15
100
AcDbCircle
 10
226.0517353166
 20
98.1942962499
 30
0.0
 40
1.675000000000028
100
AcDbArc
 50
29.8341971076
 51
85.6286074416
  0
LINE
  5
CC
330
1F
100
AcDbEntity
  8
0
  6
Continuous
 62
     7
370
    15
100
AcDbLine
 10
226.0596957962
 20
99.8692773336
 30
0.0
 11
226.17940582
 21
99.8644235632
 31
0.0
  0
ARC
  5
CD
330
1F
100
AcDbEntity
  8
0
  6
Continuous
 62
     7
370
    15
100
AcDbCircle
 10
226.0517353166
 20
98.1942962499
 30
0.0
 40
1.675000000000013
100
AcDbArc
 50
89.7276993419
 51
146.1714175082
  0
LINE
  5
CE
330
1F
100
AcDbEntity
  8
0
  6
Continuous
 62
     7
370
    15
100
AcDbLine
 10
224.6148062662
 20
99.0550284406
 30
0.0
 11
224.6603013378
 21
99.1267856507
 31
0.0
  0
CIRCLE
  5
CF
330
1F
100
AcDbEntity
  8
0
  6
Continuous
 62
     7
370
    15
100
AcDbCircle
 10
226.0517353166
 20
98.1942962499
 30
0.0
 40
1.8
  0
SPLINE
  5
D0
330
1F
100
AcDbEntity
  8
0
  6
Continuous
 62
     7
370
    15
100
AcDbSpline
210
0.0
220
0.0
230
1.0
 70
     8
 71
     3
 72
    11
 73
     7
 74
     0
 42
0.00000001
 43
0.00000001
 12
1.0
 22
0.0
 32
0.0
 13
1.0
 23
0.0
 33
0.0
 40
0.0
 40
0.0
 40
0.0
 40
0.0
 40
0.2669010467950507
 40
0.554614341079247
 40
0.8439070439786346
 40
0.9999999999999999
 40
0.9999999999999999
 40
0.9999999999999999
 40
0.9999999999999999
 10
227.5047453536915
 20
99.02759501514056
 30
0.0
 10
227.4808426548514
 20
99.05298741822489
 30
0.0
 10
227.4311733870593
 20
99.10575225775672
 30
0.0
 10
227.3286781340293
 20
99.15019395213496
 30
0.0
 10
227.2329984855179
 20
99.16061011142257
 30
0.0
 10
227.1769169377961
 20
99.14927443072325
 30
0.0
 10
227.1572622084916
 20
99.1453016492171
 30
0.0
  0
SPLINE
  5
D1
330
1F
100
AcDbEntity
  8
0
  6
Continuous
 62
     7
370
    15
100
AcDbSpline
210
0.0
220
0.0
230
1.0
 70
     8
 71
     3
 72
    12
 73
     8
 74
     0
 42
0.00000001
 43
0.00000001
 12
1.0
 22
0.0
 32
0.0
 13
1.0
 23
0.0
 33
0.0
 40
0.0
 40
0.0
 40
0.0
 40
0.0
 40
0.2058401281338165
 40
0.4120619935510084
 40
0.6141387330969516
 40
0.8132772113524593
 40
0.9999999999999999
 40
0.9999999999999999
 40
0.9999999999999999
 40
0.9999999999999999
 10
227.1572622084916
 20
99.1453016492171
 30
0.0
 10
227.0924905438222
 20
99.13509802512273
 30
0.0
 10
226.9628270933022
 20
99.11467185397773
 30
0.0
 10
226.7684466674309
 20
99.16739228045768
 30
0.0
 10
226.6047713084463
 20
99.2757901933245
 30
0.0
 10
226.4852758852633
 20
99.42630732097665
 30
0.0
 10
226.4514428739073
 20
99.54423283504912
 30
0.0
 10
226.4350706832507
 20
99.6012983731816
 30
0.0
  0
SPLINE
  5
D2
330
1F
100
AcDbEntity
  8
0
  6
Continuous
 62
     7
370
    15
100
AcDbSpline
210
0.0
220
0.0
230
1.0
 70
     8
 71
     3
 72
    11
 73
     7
 74
     0
 42
0.00000001
 43
0.00000001
 12
1.0
 22
0.0
 32
0.0
 13
1.0
 23
0.0
 33
0.0
 40
0.0
 40
0.0
 40
0.0
 40
0.0
 40
0.2928993220619713
 40
0.5864344719079806
 40
0.8775178868032959
 40
1.0
 40
1.0
 40
1.0
 40
1.0
 10
226.4350706832507
 20
99.6012983731816
 30
0.0
 10
226.4242617950253
 20
99.63763148531974
 30
0.0
 10
226.4026205545686
 20
99.71037658175598
 30
0.0
 10
226.3263040701103
 20
99.79785651418338
 30
0.0
 10
226.2465574364936
 20
99.84632131036244
 30
0.0
 10
226.1947493664956
 20
99.86028735960353
 30
0.0
 10
226.1794058200369
 20
99.86442356319853
 30
0.0
  0
SPLINE
  5
D3
330
1F
100
AcDbEntity
  8
0
  6
Continuous
 62
     7
370
    15
100
AcDbSpline
210
0.0
220
0.0
230
1.0
 70
     8
 71
     3
 72
    12
 73
     8
 74
     0
 42
0.00000001
 43
0.00000001
 12
1.0
 22
0.0
 32
0.0
 13
1.0
 23
0.0
 33
0.0
 40
0.0
 40
0.0
 40
0.0
 40
0.0
 40
0.2057904614204192
 40
0.4120344203360192
 40
0.6141302471427939
 40
0.8132633242113014
 40
1.0
 40
1.0
 40
1.0
 40
1.0
 10
225.7834007205046
 20
99.6271144115546
 30
0.0
 10
225.7598593157807
 20
99.5659347069159
 30
0.0
 10
225.7127246284762
 20
99.44344047679878
 30
0.0
 10
225.5698940166313
 20
99.30145650331575
 30
0.0
 10
225.3941732316137
 20
99.21389386910317
 30
0.0
 10
225.2040605700476
 20
99.18565866414437
 30
0.0
 10
225.0850121526388
 20
99.21532158123506
 30
0.0
 10
225.0274002108884
 20
99.22967656628039
 30
0.0
  0
SPLINE
  5
D4
330
1F
100
AcDbEntity
  8
0
  6
Continuous
 62
     7
370
    15
100
AcDbSpline
210
0.0
220
0.0
230
1.0
 70
     8
 71
     3
 72
    11
 73
     7
 74
     0
 42
0.00000001
 43
0.00000001
 12
1.0
 22
0.0
 32
0.0
 13
1.0
 23
0.0
 33
0.0
 40
0.0
 40
0.0
 40
0.0
 40
0.0
 40
0.2802371411013401
 40
0.5612869875923829
 40
0.8399906057824391
 40
1.0
 40
1.0
 40
1.0
 40
1.0
 10
225.0274002108884
 20
99.22967656628039
 30
0.0
 10
224.990554816614
 20
99.23848097736426
 30
0.0
 10
224.9167571740973
 20
99.25611533287967
 30
0.0
 10
224.8029259186171
 20
99.23375822979175
 30
0.0
 10
224.7157020199653
 20
99.18625403658996
 30
0.0
 10
224.6751072469772
 20
99.14267865935828
 30
0.0
 10
224.6603013377597
 20
99.12678565067962
 30
0.0
  0
SPLINE
  5
D5
330
1F
100
AcDbEntity
  8
0
  6
Continuous
 62
     7
370
    15
100
AcDbSpline
210
0.0
220
0.0
230
1.0
 70
     8
 71
     3
 72
    11
 73
     7
 74
     0
 42
0.00000001
 43
0.00000001
 12
1.0
 22
0.0
 32
0.0
 13
1.0
 23
0.0
 33
0.0
 40
0.0
 40
0.0
 40
0.0
 40
0.0
 40
0.2657596322624908
 40
0.5530029385954077
 40
0.841820848343842
 40
1.0
 40
1.0
 40
1.0
 40
1.0
 10
226.0596957962258
 20
99.8692773336253
 30
0.0
 10
226.025829117799
 20
99.86136571592371
 30
0.0
 10
225.955358021301
 20
99.84490291530662
 30
0.0
 10
225.8655237904851
 20
99.7786609368697
 30
0.0
 10
225.8082607097631
 20
99.70091466386438
 30
0.0
 10
225.7898985502709
 20
99.64640410115315
 30
0.0
 10
225.7834007205046
 20
99.6271144115546
 30
0.0
  0
SPLINE
  5
D6
330
1F
100
AcDbEntity
  8
0
  6
Continuous
 62
     7
370
    15
100
AcDbSpline
210
0.0
220
0.0
230
1.0
 70
     8
 71
     3
 72
    11
 73
     7
 74
     0
 42
0.00000001
 43
0.00000001
 12
1.0
 22
0.0
 32
0.0
 13
1.0
 23
0.0
 33
0.0
 40
0.0
 40
0.0
 40
0.0
 40
0.0
 40
0.2431090893443002
 40
0.5182793655622344
 40
0.7947794085751962
 40
1.0
 40
1.0
 40
1.0
 40
1.0
 10
227.4918593038533
 20
97.33892036684996
 30
0.0
 10
227.5031668758128
 20
97.3700910452426
 30
0.0
 10
227.5272732604696
 20
97.43654318598756
 30
0.0
 10
227.5220513114192
 20
97.54628274882678
 30
0.0
 10
227.4867737805107
 20
97.64415902485392
 30
0.0
 10
227.4448086627671
 20
97.69355349463831
 30
0.0
 10
227.4269308604333
 20
97.71459631817045
 30
0.0
  0
SPLINE
  5
D7
330
1F
100
AcDbEntity
  8
0
  6
Continuous
 62
     7
370
    15
100
AcDbSpline
210
0.0
220
0.0
230
1.0
 70
     8
 71
     3
 72
    12
 73
     8
 74
     0
 42
0.00000001
 43
0.00000001
 12
1.0
 22
0.0
 32
0.0
 13
1.0
 23
0.0
 33
0.0
 40
0.0
 40
0.0
 40
0.0
 40
0.0
 40
0.2058179564998872
 40
0.4120215045907214
 40
0.6140779969167803
 40
0.813213000645387
 40
1.0
 40
1.0
 40
1.0
 40
1.0
 10
227.4269308604333
 20
97.71459631817045
 30
0.0
 10
227.3857116378834
 20
97.76558350006889
 30
0.0
 10
227.3031959702426
 20
97.86765338628233
 30
0.0
 10
227.2516591013266
 20
98.06233491253356
 30
0.0
 10
227.2636833792926
 20
98.25826750156507
 30
0.0
 10
227.3342738531497
 20
98.43702655687834
 30
0.0
 10
227.4194934124986
 20
98.52530429205595
 30
0.0
 10
227.4607398448086
 20
98.56803088740918
 30
0.0
  0
SPLINE
  5
D8
330
1F
100
AcDbEntity
  8
0
  6
Continuous
 62
     7
370
    15
100
AcDbSpline
210
0.0
220
0.0
230
1.0
 70
     8
 71
     3
 72
    11
 73
     7
 74
     0
 42
0.00000001
 43
0.00000001
 12
1.0
 22
0.0
 32
0.0
 13
1.0
 23
0.0
 33
0.0
 40
0.0
 40
0.0
 40
0.0
 40
0.0
 40
0.2908641666076826
 40
0.5839560789892041
 40
0.8745988053617846
 40
1.0
 40
1.0
 40
1.0
 40
1.0
 10
227.4607398448086
 20
98.56803088740921
 30
0.0
 10
227.4866725361234
 20
98.59539484916951
 30
0.0
 10
227.5387365387623
 20
98.65033235488406
 30
0.0
 10
227.5764685610729
 20
98.75989645695813
 30
0.0
 10
227.5787596989975
 20
98.85361449882699
 30
0.0
 10
227.5648012527344
 20
98.905854114938
 30
0.0
 10
227.5605939905963
 20
98.92159983296662
 30
0.0
  0
SPLINE
  5
D9
330
1F
100
AcDbEntity
  8
0
  6
Continuous
 62
     7
370
    15
100
AcDbSpline
210
0.0
220
0.0
230
1.0
 70
     8
 71
     3
 72
    12
 73
     8
 74
     0
 42
0.00000001
 43
0.00000001
 12
1.0
 22
0.0
 32
0.0
 13
1.0
 23
0.0
 33
0.0
 40
0.0
 40
0.0
 40
0.0
 40
0.0
 40
0.2058585741213897
 40
0.4121026961457099
 40
0.6141937841967355
 40
0.8133180967416351
 40
1.0
 40
1.0
 40
1.0
 40
1.0
 10
224.6792078844592
 20
98.67822184284547
 30
0.0
 10
224.7204326132902
 20
98.62722621396854
 30
0.0
 10
224.8029592798216
 20
98.52513944764594
 30
0.0
 10
224.8544892807647
 20
98.3304255855169
 30
0.0
 10
224.842439192255
 20
98.13447020611493
 30
0.0
 10
224.7718257882761
 20
97.95573931811231
 30
0.0
 10
224.6866252789814
 20
97.86748925481807
 30
0.0
 10
224.6453989000839
 20
97.82478727360677
 30
0.0
  0
SPLINE
  5
DA
330
1F
100
AcDbEntity
  8
0
  6
Continuous
 62
     7
370
    15
100
AcDbSpline
210
0.0
220
0.0
230
1.0
 70
     8
 71
     3
 72
    11
 73
     7
 74
     0
 42
0.00000001
 43
0.00000001
 12
1.0
 22
0.0
 32
0.0
 13
1.0
 23
0.0
 33
0.0
 40
0.0
 40
0.0
 40
0.0
 40
0.0
 40
0.2524782265335578
 40
0.5068902417933246
 40
0.7591786113117026
 40
1.0
 40
1.0
 40
1.0
 40
1.0
 10
224.6453989000839
 20
97.82478727360677
 30
0.0
 10
224.6194558466509
 20
97.7974167548285
 30
0.0
 10
224.5673710359799
 20
97.74246608018221
 30
0.0
 10
224.5298114880206
 20
97.63302878794399
 30
0.0
 10
224.5263803184461
 20
97.5187757567653
 30
0.0
 10
224.5546135454944
 20
97.44989519737398
 30
0.0
 10
224.5684018853757
 20
97.41625580636583
 30
0.0
  0
SPLINE
  5
DB
330
1F
100
AcDbEntity
  8
0
  6
Continuous
 62
     7
370
    15
100
AcDbSpline
210
0.0
220
0.0
230
1.0
 70
     8
 71
     3
 72
    11
 73
     7
 74
     0
 42
0.00000001
 43
0.00000001
 12
1.0
 22
0.0
 32
0.0
 13
1.0
 23
0.0
 33
0.0
 40
0.0
 40
0.0
 40
0.0
 40
0.0
 40
0.2423611237745368
 40
0.5166847928458306
 40
0.7923341374633309
 40
1.0
 40
1.0
 40
1.0
 40
1.0
 10
224.6148062661873
 20
99.05502844060413
 30
0.0
 10
224.6033826013892
 20
99.02389989499625
 30
0.0
 10
224.5790287207511
 20
98.95753757628556
 30
0.0
 10
224.5838439388975
 20
98.84778262079847
 30
0.0
 10
224.618892267436
 20
98.74936424632203
 30
0.0
 10
224.6610807675482
 20
98.6996028172729
 30
0.0
 10
224.6792078844592
 20
98.6782218428455
 30
0.0
  0
SPLINE
  5
DC
330
1F
100
AcDbEntity
  8
0
  6
Continuous
 62
     7
370
    15
100
AcDbSpline
210
0.0
220
0.0
230
1.0
 70
     8
 71
     3
 72
    12
 73
     8
 74
     0
 42
0.00000001
 43
0.00000001
 12
1.0
 22
0.0
 32
0.0
 13
1.0
 23
0.0
 33
0.0
 40
0.0
 40
0.0
 40
0.0
 40
0.0
 40
0.0091735205189693
 40
0.2576775215524877
 40
0.5061895192299231
 40
0.7560357430218925
 40
1.0
 40
1.0
 40
1.0
 40
1.0
 10
225.9869923813847
 20
96.5205479557213
 30
0.0
 10
225.9883631390128
 20
96.52050044745096
 30
0.0
 10
226.0268667241461
 20
96.5191659746797
 30
0.0
 10
226.1035939312258
 20
96.5300652682717
 30
0.0
 10
226.2038892029713
 20
96.58209366815666
 30
0.0
 10
226.2834853998526
 20
96.66291438838357
 30
0.0
 10
226.3097581310828
 20
96.7317137945096
 30
0.0
 10
226.3227380243879
 20
96.76570374946134
 30
0.0
  0
SPLINE
  5
DD
330
1F
100
AcDbEntity
  8
0
  6
Continuous
 62
     7
370
    15
100
AcDbSpline
210
0.0
220
0.0
230
1.0
 70
     8
 71
     3
 72
    12
 73
     8
 74
     0
 42
0.00000001
 43
0.00000001
 12
1.0
 22
0.0
 32
0.0
 13
1.0
 23
0.0
 33
0.0
 40
0.0
 40
0.0
 40
0.0
 40
0.0
 40
0.205753278780415
 40
0.4119604088044448
 40
0.6140154573249008
 40
0.8131414684041064
 40
1.0
 40
1.0
 40
1.0
 40
1.0
 10
226.3227380243879
 20
96.76570374946134
 30
0.0
 10
226.3462751598088
 20
96.82687508083984
 30
0.0
 10
226.3934013489394
 20
96.94935267551618
 30
0.0
 10
226.5362018202448
 20
97.09132622198574
 30
0.0
 10
226.7118868519723
 20
97.17889659023238
 30
0.0
 10
226.9020089741171
 20
97.20716706791124
 30
0.0
 10
227.0210902398494
 20
97.17750248280406
 30
0.0
 10
227.0787385340041
 20
97.16314159473555
 30
0.0
  0
SPLINE
  5
DE
330
1F
100
AcDbEntity
  8
0
  6
Continuous
 62
     7
370
    15
100
AcDbSpline
210
0.0
220
0.0
230
1.0
 70
     8
 71
     3
 72
    11
 73
     7
 74
     0
 42
0.00000001
 43
0.00000001
 12
1.0
 22
0.0
 32
0.0
 13
1.0
 23
0.0
 33
0.0
 40
0.0
 40
0.0
 40
0.0
 40
0.0
 40
0.2794069064556098
 40
0.5596240257155585
 40
0.8375007392219747
 40
1.0
 40
1.0
 40
1.0
 40
1.0
 10
227.0787385340041
 20
97.16314159473555
 30
0.0
 10
227.1155872010176
 20
97.15433662948664
 30
0.0
 10
227.1893913873132
 20
97.13670116670802
 30
0.0
 10
227.3032263439807
 20
97.1590668485259
 30
0.0
 10
227.3908288435109
 20
97.20676952642644
 30
0.0
 10
227.4315905967545
 20
97.2507612549453
 30
0.0
 10
227.4466317324133
 20
97.26699425534066
 30
0.0
  0
SPLINE
  5
DF
330
1F
100
AcDbEntity
  8
0
  6
Continuous
 62
     7
370
    15
100
AcDbSpline
210
0.0
220
0.0
230
1.0
 70
     8
 71
     3
 72
    12
 73
     8
 74
     0
 42
0.00000001
 43
0.00000001
 12
1.0
 22
0.0
 32
0.0
 13
1.0
 23
0.0
 33
0.0
 40
0.0
 40
0.0
 40
0.0
 40
0.0
 40
0.2058435564095155
 40
0.4120691620553173
 40
0.6141397217727093
 40
0.8132604579561222
 40
1.0
 40
1.0
 40
1.0
 40
1.0
 10
224.9488765364009
 20
97.24751651179885
 30
0.0
 10
225.0136488821653
 20
97.25772019221287
 30
0.0
 10
225.1433137922992
 20
97.27814649125001
 30
0.0
 10
225.3376946873536
 20
97.22542484454154
 30
0.0
 10
225.5013657048669
 20
97.11702801771627
 30
0.0
 10
225.6208605487486
 20
96.9665145508093
 30
0.0
 10
225.6546940991764
 20
96.84859008499676
 30
0.0
 10
225.6710680616418
 20
96.79151978783435
 30
0.0
  0
SPLINE
  5
E0
330
1F
100
AcDbEntity
  8
0
  6
Continuous
 62
     7
370
    15
100
AcDbSpline
210
0.0
220
0.0
230
1.0
 70
     8
 71
     3
 72
    11
 73
     7
 74
     0
 42
0.00000001
 43
0.00000001
 12
1.0
 22
0.0
 32
0.0
 13
1.0
 23
0.0
 33
0.0
 40
0.0
 40
0.0
 40
0.0
 40
0.0
 40
0.2535086227483935
 40
0.507567474260474
 40
0.7595056251924533
 40
1.0
 40
1.0
 40
1.0
 40
1.0
 10
225.6710680616418
 20
96.79151978783435
 30
0.0
 10
225.6818785963848
 20
96.75517113903184
 30
0.0
 10
225.7035231296376
 20
96.68239494836247
 30
0.0
 10
225.7798255319814
 20
96.59512996722653
 30
0.0
 10
225.8771666264743
 20
96.53521209396546
 30
0.0
 10
225.9509553956427
 20
96.52535968081487
 30
0.0
 10
225.9869923813847
 20
96.5205479557213
 30
0.0
  0
SPLINE
  5
E1
330
1F
100
AcDbEntity
  8
0
  6
Continuous
 62
     7
370
    15
100
AcDbSpline
210
0.0
220
0.0
230
1.0
 70
     8
 71
     3
 72
    12
 73
     8
 74
     0
 42
0.00000001
 43
0.00000001
 12
1.0
 22
0.0
 32
0.0
 13
1.0
 23
0.0
 33
0.0
 40
0.0
 40
0.0
 40
0.0
 40
0.0
 40
0.0091681771491575
 40
0.2573268097002577
 40
0.50549346874295
 40
0.7549925359453026
 40
1.0
 40
1.0
 40
1.0
 40
1.0
 10
224.5684018853757
 20
97.41625580636583
 30
0.0
 10
224.5690443845134
 20
97.41504276451333
 30
0.0
 10
224.5870776588105
 20
97.38099584495036
 30
0.0
 10
224.634768070274
 20
97.31990805459806
 30
0.0
 10
224.7298596696469
 20
97.25888893686283
 30
0.0
 10
224.8398054164881
 20
97.23010453623911
 30
0.0
 10
224.9127403190192
 20
97.2417477717843
 30
0.0
 10
224.9488765364009
 20
97.24751651179885
 30
0.0
  0
CIRCLE
  5
E2
330
1F
100
AcDbEntity
  8
0
  6
Continuous
 62
     7
370
    15
100
AcDbCircle
 10
226.0517353166
 20
98.1942962499
 30
0.0
 40
2.625000000000007
  0
SPLINE
  5
E3
330
1F
100
AcDbEntity
  8
0
  6
HIDDEN
 62
     7
370
     0
100
AcDbSpline
210
0.0
220
0.0
230
1.0
 70
     8
 71
     3
 72
    68
 73
    64
 74
     0
 42
0.00000001
 43
0.00000001
 12
1.0
 22
0.0
 32
0.0
 13
1.0
 23
0.0
 33
0.0
 40
-0.0625000000000002
 40
-0.0625000000000002
 40
0.0
 40
0.0
 40
0.03125
 40
0.03125
 40
0.0624999999999999
 40
0.0624999999999999
 40
0.0937499999999999
 40
0.0937499999999999
 40
0.1249999999999999
 40
0.1249999999999999
 40
0.1562499999999999
 40
0.1562499999999999
 40
0.1874999999999998
 40
0.1874999999999998
 40
0.2187499999999998
 40
0.2187499999999998
 40
0.2499999999999998
 40
0.2499999999999998
 40
0.2812499999999998
 40
0.2812499999999998
 40
0.3124999999999997
 40
0.3124999999999997
 40
0.3437499999999997
 40
0.3437499999999997
 40
0.3749999999999997
 40
0.3749999999999997
 40
0.4062499999999997
 40
0.4062499999999997
 40
0.4374999999999996
 40
0.4374999999999996
 40
0.4687499999999996
 40
0.4687499999999996
 40
0.4999999999999996
 40
0.4999999999999996
 40
0.5312499999999996
 40
0.5312499999999996
 40
0.5624999999999996
 40
0.5624999999999996
 40
0.5937499999999994
 40
0.5937499999999994
 40
0.6249999999999994
 40
0.6249999999999994
 40
0.6562499999999994
 40
0.6562499999999994
 40
0.6874999999999993
 40
0.6874999999999993
 40
0.7187499999999993
 40
0.7187499999999993
 40
0.7499999999999993
 40
0.7499999999999993
 40
0.7812499999999994
 40
0.7812499999999994
 40
0.8124999999999994
 40
0.8124999999999994
 40
0.8437499999999996
 40
0.8437499999999996
 40
0.8749999999999997
 40
0.8749999999999997
 40
0.9062499999999998
 40
0.9062499999999998
 40
0.9374999999999998
 40
0.9374999999999998
 40
1.0
 40
1.0
 40
1.03125
 40
1.03125
 10
198.3720581395035
 20
124.3716100127228
 30
0.0
 10
198.8680639085184
 20
124.3716100127228
 30
0.0
 10
199.0306036509411
 20
124.3875765842771
 30
0.0
 10
199.3503308606385
 20
124.4500275579892
 30
0.0
 10
199.5091874372238
 20
124.4972802140169
 30
0.0
 10
199.8118593354527
 20
124.6202378982836
 30
0.0
 10
199.9553871510488
 20
124.6953591110761
 30
0.0
 10
200.2270189299961
 20
124.8723166782313
 30
0.0
 10
200.3555035623191
 20
124.9749920553181
 30
0.0
 10
200.5858603182796
 20
125.1984941559015
 30
0.0
 10
200.6892878182425
 20
125.3201348440914
 30
0.0
 10
200.8720528947977
 20
125.5833836481603
 30
0.0
 10
200.9496192705192
 20
125.7228635148895
 30
0.0
 10
201.0743544635154
 20
126.0104036288796
 30
0.0
 10
201.1224348068582
 20
126.1605934367501
 30
0.0
 10
201.1867183156695
 20
126.4666002617134
 30
0.0
 10
201.2026376432259
 20
126.619811609559
 30
0.0
 10
201.2028188904122
 20
126.926564817226
 30
0.0
 10
201.1865548611316
 20
127.0816734537234
 30
0.0
 10
201.1227146433324
 20
127.380402469826
 30
0.0
 10
201.0754810987454
 20
127.5249537819834
 30
0.0
 10
200.9501759325171
 20
127.8046051222969
 30
0.0
 10
200.8719681548919
 20
127.938973892071
 30
0.0
 10
200.6911162723937
 20
128.1869253474144
 30
0.0
 10
200.5877441087339
 20
128.302175080867
 30
0.0
 10
200.3546075728568
 20
128.5143422112581
 30
0.0
 10
200.2285175358724
 20
128.6079575313642
 30
0.0
 10
199.9579753995493
 20
128.771639820034
 30
0.0
 10
199.8117804389622
 20
128.8422722510713
 30
0.0
 10
199.5091550900124
 20
128.9552229813269
 30
0.0
 10
199.3533325914634
 20
128.9977494052947
 30
0.0
 10
199.0326994191849
 20
129.0552996046353
 30
0.0
 10
198.8668942385769
 20
129.0700180085684
 30
0.0
 10
198.540440422467
 20
129.0701279087318
 30
0.0
 10
198.3781008201784
 20
129.0559949634217
 30
0.0
 10
198.0552388325239
 20
128.998565178946
 30
0.0
 10
197.8974981220986
 20
128.9555278660779
 30
0.0
 10
197.5965457894262
 20
128.8434826102898
 30
0.0
 10
197.4510263114864
 20
128.7735900151603
 30
0.0
 10
197.1778230555957
 20
128.6086830376967
 30
0.0
 10
197.0519924076645
 20
128.5150933345181
 30
0.0
 10
196.8213125840886
 20
128.3057336185614
 30
0.0
 10
196.7156951061496
 20
128.1885819690455
 30
0.0
 10
196.5341507188257
 20
127.9400785492839
 30
0.0
 10
196.4572322618322
 20
127.8082407462069
 30
0.0
 10
196.3314044667076
 20
127.5288405452849
 30
0.0
 10
196.2831441974218
 20
127.3816613847049
 30
0.0
 10
196.2192694286236
 20
127.0840032711146
 30
0.0
 10
196.2028792681579
 20
126.9319604264809
 30
0.0
 10
196.2025800831974
 20
126.6212762286761
 30
0.0
 10
196.2186694521122
 20
126.4678309785145
 30
0.0
 10
196.2819848590268
 20
126.1646487237675
 30
0.0
 10
196.3299985265175
 20
126.0133071118096
 30
0.0
 10
196.4552540655274
 20
125.7238566540203
 30
0.0
 10
196.5319245131758
 20
125.5859732660919
 30
0.0
 10
196.7131342973906
 20
125.3240598646321
 30
0.0
 10
196.8184973434779
 20
125.1997096231556
 30
0.0
 10
197.0486789617921
 20
124.9760818798982
 30
0.0
 10
197.174344301668
 20
124.8752945150757
 30
0.0
 10
197.4474725361133
 20
124.6967481669824
 30
0.0
 10
197.5925922708331
 20
124.6207979402158
 30
0.0
 10
198.0435425210862
 20
124.4371521156511
 30
0.0
 10
198.3720581395035
 20
124.3716100127228
 30
0.0
 10
198.8680639085184
 20
124.3716100127228
 30
0.0
  0
SPLINE
  5
E4
330
1F
100
AcDbEntity
  8
0
  6
HIDDEN
 62
     7
370
     0
100
AcDbSpline
210
0.0
220
0.0
230
1.0
 70
     8
 71
     3
 72
    12
 73
     8
 74
     0
 42
0.00000001
 43
0.00000001
 12
1.0
 22
0.0
 32
0.0
 13
1.0
 23
0.0
 33
0.0
 40
0.0
 40
0.0
 40
0.0
 40
0.0
 40
0.4999999999999956
 40
0.4999999999999956
 40
0.7499999999999978
 40
0.7499999999999978
 40
1.0
 40
1.0
 40
1.0
 40
1.0
 10
191.374823033044
 20
138.9688460282619
 30
0.0
 10
191.3935162661744
 20
138.9906397818899
 30
0.0
 10
191.4191715635862
 20
139.0116599435995
 30
0.0
 10
191.4793321862726
 20
139.0393652895632
 30
0.0
 10
191.503404498027
 20
139.0480005057566
 30
0.0
 10
191.5617860183775
 20
139.0612151509832
 30
0.0
 10
191.5972548460306
 20
139.0657461253133
 30
0.0
 10
191.6346306541793
 20
139.0657461253133
 30
0.0
  0
LINE
  5
E5
330
1F
100
AcDbEntity
  8
0
  6
HIDDEN
 62
     7
370
     0
100
AcDbLine
 10
191.6346306542
 20
139.0657461253
 30
0.0
 11
193.7708266502
 21
139.0657461253
 31
0.0
  0
SPLINE
  5
E6
330
1F
100
AcDbEntity
  8
0
  6
HIDDEN
 62
     7
370
     0
100
AcDbSpline
210
0.0
220
0.0
230
1.0
 70
     8
 71
     3
 72
    12
 73
     8
 74
     0
 42
0.00000001
 43
0.00000001
 12
1.0
 22
0.0
 32
0.0
 13
1.0
 23
0.0
 33
0.0
 40
0.0
 40
0.0
 40
0.0
 40
0.0
 40
0.2500000000000016
 40
0.2500000000000016
 40
0.5000000000000032
 40
0.5000000000000032
 40
1.0
 40
1.0
 40
1.0
 40
1.0
 10
193.7708266501809
 20
139.0657461253134
 30
0.0
 10
193.8083385362256
 20
139.0657461253134
 30
0.0
 10
193.8436258839303
 20
139.0612425810508
 30
0.0
 10
193.9025557321687
 20
139.0478693815975
 30
0.0
 10
193.9260814586378
 20
139.0393844790264
 30
0.0
 10
193.9863402464059
 20
139.0116366751918
 30
0.0
 10
194.0119350086952
 20
138.9906468114514
 30
0.0
 10
194.0306342713162
 20
138.9688460282619
 30
0.0
  0
ELLIPSE
  5
E7
330
1F
100
AcDbEntity
  8
0
  6
HIDDEN
 62
     7
370
     0
100
AcDbEllipse
 10
183.7537994797
 20
119.9340897451
 30
0.0
 11
9.36741787978184
 21
19.74174915274995
 31
0.0
210
0.0
220
0.0
230
1.0
 40
0.3419987131
 41
5.185211263708413
 42
6.132113578252572
  0
SPLINE
  5
E8
330
1F
100
AcDbEntity
  8
0
  6
HIDDEN
 62
     7
370
     0
100
AcDbSpline
210
0.0
220
0.0
230
1.0
 70
     8
 71
     3
 72
    12
 73
     8
 74
     0
 42
0.00000001
 43
0.00000001
 12
1.0
 22
0.0
 32
0.0
 13
1.0
 23
0.0
 33
0.0
 40
0.0
 40
0.0
 40
0.0
 40
0.0
 40
0.4999999999999916
 40
0.4999999999999916
 40
0.7499999999999958
 40
0.7499999999999958
 40
1.0
 40
1.0
 40
1.0
 40
1.0
 10
194.0306342713162
 20
126.0723348721392
 30
0.0
 10
194.0119410381858
 20
126.0047522356989
 30
0.0
 10
193.986285740774
 20
125.9382696662214
 30
0.0
 10
193.9261251180876
 20
125.8492745833239
 30
0.0
 10
193.9020528063332
 20
125.8212726863248
 30
0.0
 10
193.8436712859827
 20
125.7781962856596
 30
0.0
 10
193.8082024583296
 20
125.7633027407318
 30
0.0
 10
193.7708266501809
 20
125.7633027407318
 30
0.0
  0
LINE
  5
E9
330
1F
100
AcDbEntity
  8
0
  6
HIDDEN
 62
     7
370
     0
100
AcDbLine
 10
193.7708266502
 20
125.7633027407
 30
0.0
 11
191.6346306542
 21
125.7633027407
 31
0.0
  0
SPLINE
  5
EA
330
1F
100
AcDbEntity
  8
0
  6
HIDDEN
 62
     7
370
     0
100
AcDbSpline
210
0.0
220
0.0
230
1.0
 70
     8
 71
     3
 72
    12
 73
     8
 74
     0
 42
0.00000001
 43
0.00000001
 12
1.0
 22
0.0
 32
0.0
 13
1.0
 23
0.0
 33
0.0
 40
0.0
 40
0.0
 40
0.0
 40
0.0
 40
0.2499999999999986
 40
0.2499999999999986
 40
0.4999999999999971
 40
0.4999999999999971
 40
1.0
 40
1.0
 40
1.0
 40
1.0
 10
191.6346306541793
 20
125.7633027407318
 30
0.0
 10
191.5971187681346
 20
125.7633027407318
 30
0.0
 10
191.5618314204299
 20
125.7781075550186
 30
0.0
 10
191.5029015721915
 20
125.8216994281444
 30
0.0
 10
191.4793758457224
 20
125.8492128542305
 30
0.0
 10
191.4191170579543
 20
125.938344586344
 30
0.0
 10
191.393522295665
 20
126.0047304369619
 30
0.0
 10
191.374823033044
 20
126.0723348721392
 30
0.0
  0
ELLIPSE
  5
EB
330
1F
100
AcDbEntity
  8
0
  6
HIDDEN
 62
     7
370
     0
100
AcDbEllipse
 10
201.6516578246
 20
119.9340897451
 30
0.0
 11
-9.367417879781698
 21
19.74174915274995
 31
0.0
210
0.0
220
0.0
230
1.0
 40
0.3419987131
 41
0.1510717289270561
 42
1.097974043471188
  0
SPLINE
  5
EC
330
1F
100
AcDbEntity
  8
0
  6
HIDDEN
 62
     7
370
     0
100
AcDbSpline
210
0.0
220
0.0
230
1.0
 70
     8
 71
     3
 72
    12
 73
     8
 74
     0
 42
0.00000001
 43
0.00000001
 12
1.0
 22
0.0
 32
0.0
 13
1.0
 23
0.0
 33
0.0
 40
0.0
 40
0.0
 40
0.0
 40
0.0
 40
0.4999999999999993
 40
0.4999999999999993
 40
0.7499999999999997
 40
0.7499999999999997
 40
1.0
 40
1.0
 40
1.0
 40
1.0
 10
191.374823033044
 20
113.7958446180209
 30
0.0
 10
191.3935162661744
 20
113.8634272544612
 30
0.0
 10
191.4191715635862
 20
113.9299098239387
 30
0.0
 10
191.4793321862726
 20
114.0189049068362
 30
0.0
 10
191.503404498027
 20
114.0469068038354
 30
0.0
 10
191.5617860183775
 20
114.0899832045005
 30
0.0
 10
191.5972548460306
 20
114.1048767494283
 30
0.0
 10
191.6346306541793
 20
114.1048767494283
 30
0.0
  0
LINE
  5
ED
330
1F
100
AcDbEntity
  8
0
  6
HIDDEN
 62
     7
370
     0
100
AcDbLine
 10
191.6346306542
 20
114.1048767494
 30
0.0
 11
193.7708266502
 21
114.1048767494
 31
0.0
  0
SPLINE
  5
EE
330
1F
100
AcDbEntity
  8
0
  6
HIDDEN
 62
     7
370
     0
100
AcDbSpline
210
0.0
220
0.0
230
1.0
 70
     8
 71
     3
 72
    12
 73
     8
 74
     0
 42
0.00000001
 43
0.00000001
 12
1.0
 22
0.0
 32
0.0
 13
1.0
 23
0.0
 33
0.0
 40
0.0
 40
0.0
 40
0.0
 40
0.0
 40
0.25
 40
0.25
 40
0.5
 40
0.5
 40
1.0
 40
1.0
 40
1.0
 40
1.0
 10
193.7708266501809
 20
114.1048767494283
 30
0.0
 10
193.8083385362256
 20
114.1048767494283
 30
0.0
 10
193.8436258839303
 20
114.0900719351415
 30
0.0
 10
193.9025557321687
 20
114.0464800620156
 30
0.0
 10
193.9260814586378
 20
114.0189666359297
 30
0.0
 10
193.9863402464059
 20
113.9298349038161
 30
0.0
 10
194.0119350086952
 20
113.8634490531983
 30
0.0
 10
194.0306342713162
 20
113.7958446180209
 30
0.0
  0
ELLIPSE
  5
EF
330
1F
100
AcDbEntity
  8
0
  6
HIDDEN
 62
     7
370
     0
100
AcDbEllipse
 10
183.7537994797
 20
119.9340897451
 30
0.0
 11
-9.367417879781724
 21
19.74174915274994
 31
0.0
210
0.0
220
0.0
230
1.0
 40
0.3419987131
 41
3.292664382516905
 42
4.239566697061005
  0
SPLINE
  5
F0
330
1F
100
AcDbEntity
  8
0
  6
HIDDEN
 62
     7
370
     0
100
AcDbSpline
210
0.0
220
0.0
230
1.0
 70
     8
 71
     3
 72
    12
 73
     8
 74
     0
 42
0.00000001
 43
0.00000001
 12
1.0
 22
0.0
 32
0.0
 13
1.0
 23
0.0
 33
0.0
 40
0.0
 40
0.0
 40
0.0
 40
0.0
 40
0.5000000000000053
 40
0.5000000000000053
 40
0.7500000000000027
 40
0.7500000000000027
 40
1.0
 40
1.0
 40
1.0
 40
1.0
 10
194.0306342713162
 20
100.899333461898
 30
0.0
 10
194.0119410381858
 20
100.87753970827
 30
0.0
 10
193.986285740774
 20
100.8565195465604
 30
0.0
 10
193.9261251180876
 20
100.8288142005967
 30
0.0
 10
193.9020528063332
 20
100.8201789844033
 30
0.0
 10
193.8436712859827
 20
100.8069643391767
 30
0.0
 10
193.8082024583296
 20
100.8024333648466
 30
0.0
 10
193.7708266501809
 20
100.8024333648466
 30
0.0
  0
LINE
  5
F1
330
1F
100
AcDbEntity
  8
0
  6
HIDDEN
 62
     7
370
     0
100
AcDbLine
 10
193.7708266502
 20
100.8024333648
 30
0.0
 11
191.6346306542
 21
100.8024333648
 31
0.0
  0
SPLINE
  5
F2
330
1F
100
AcDbEntity
  8
0
  6
HIDDEN
 62
     7
370
     0
100
AcDbSpline
210
0.0
220
0.0
230
1.0
 70
     8
 71
     3
 72
    12
 73
     8
 74
     0
 42
0.00000001
 43
0.00000001
 12
1.0
 22
0.0
 32
0.0
 13
1.0
 23
0.0
 33
0.0
 40
0.0
 40
0.0
 40
0.0
 40
0.0
 40
0.2500000000000027
 40
0.2500000000000027
 40
0.5000000000000053
 40
0.5000000000000053
 40
1.0
 40
1.0
 40
1.0
 40
1.0
 10
191.6346306541793
 20
100.8024333648466
 30
0.0
 10
191.5971187681346
 20
100.8024333648466
 30
0.0
 10
191.5618314204299
 20
100.8069369091091
 30
0.0
 10
191.5029015721915
 20
100.8203101085624
 30
0.0
 10
191.4793758457224
 20
100.8287950111335
 30
0.0
 10
191.4191170579543
 20
100.8565428149681
 30
0.0
 10
191.393522295665
 20
100.8775326787085
 30
0.0
 10
191.374823033044
 20
100.899333461898
 30
0.0
  0
ELLIPSE
  5
F3
330
1F
100
AcDbEntity
  8
0
  6
HIDDEN
 62
     7
370
     0
100
AcDbEllipse
 10
201.6516578246
 20
119.9340897451
 30
0.0
 11
9.367417879781641
 21
19.74174915274995
 31
0.0
210
0.0
220
0.0
230
1.0
 40
0.3419987131
 41
2.043618610118592
 42
2.990520924662726
  0
SPLINE
  5
F4
330
1F
100
AcDbEntity
  8
0
  6
HIDDEN
 62
     7
370
     0
100
AcDbSpline
210
0.0
220
0.0
230
1.0
 70
     8
 71
     3
 72
    58
 73
    54
 74
     0
 42
0.00000001
 43
0.00000001
 12
1.0
 22
0.0
 32
0.0
 13
1.0
 23
0.0
 33
0.0
 40
-0.0624999999999997
 40
-0.0624999999999997
 40
0.0
 40
0.0
 40
0.0312500000000002
 40
0.0312500000000002
 40
0.0625000000000004
 40
0.0625000000000004
 40
0.0937500000000006
 40
0.0937500000000006
 40
0.1250000000000008
 40
0.1250000000000008
 40
0.1875000000000009
 40
0.1875000000000009
 40
0.250000000000001
 40
0.250000000000001
 40
0.2812500000000011
 40
0.2812500000000011
 40
0.3125000000000011
 40
0.3125000000000011
 40
0.3437500000000012
 40
0.3437500000000012
 40
0.3750000000000012
 40
0.3750000000000012
 40
0.4062500000000013
 40
0.4062500000000013
 40
0.4375000000000013
 40
0.4375000000000013
 40
0.4687500000000014
 40
0.4687500000000014
 40
0.5000000000000014
 40
0.5000000000000014
 40
0.5625000000000014
 40
0.5625000000000014
 40
0.6250000000000016
 40
0.6250000000000016
 40
0.6562500000000014
 40
0.6562500000000014
 40
0.6875000000000013
 40
0.6875000000000013
 40
0.7187500000000012
 40
0.7187500000000012
 40
0.7500000000000011
 40
0.7500000000000011
 40
0.781250000000001
 40
0.781250000000001
 40
0.8125000000000009
 40
0.8125000000000009
 40
0.8437500000000008
 40
0.8437500000000008
 40
0.8750000000000007
 40
0.8750000000000007
 40
0.9375000000000003
 40
0.9375000000000003
 40
1.0
 40
1.0
 40
1.03125
 40
1.03125
 10
198.7027286521801
 20
119.6696536306319
 30
0.0
 10
198.7027286521801
 20
120.0663078023039
 30
0.0
 10
198.6897466145079
 20
120.1962999631444
 30
0.0
 10
198.6388958122496
 20
120.4520195755967
 30
0.0
 10
198.6004039081967
 20
120.5790782594578
 30
0.0
 10
198.4999886224702
 20
120.8212414571167
 30
0.0
 10
198.4385524831972
 20
120.9360832415014
 30
0.0
 10
198.2934190068864
 20
121.1534254390716
 30
0.0
 10
198.2089973180352
 20
121.2562670869193
 30
0.0
 10
197.9323971438704
 20
121.5328105676709
 30
0.0
 10
197.7093982326033
 20
121.681793203803
 30
0.0
 10
197.2281637150176
 20
121.8813362673578
 30
0.0
 10
196.9648642995086
 20
121.9339467403892
 30
0.0
 10
196.5733008594684
 20
121.9341607991417
 30
0.0
 10
196.4407132488637
 20
121.9211619497361
 30
0.0
 10
196.1841475432644
 20
121.8701118657097
 30
0.0
 10
196.0594377770839
 20
121.8323406268975
 30
0.0
 10
195.8171985920569
 20
121.7321487187851
 30
0.0
 10
195.7001819382832
 20
121.6695633249605
 30
0.0
 10
195.4835387334369
 20
121.52485823925
 30
0.0
 10
195.3825319769784
 20
121.4422388978698
 30
0.0
 10
195.1957258813218
 20
121.2555948630798
 30
0.0
 10
195.11301234579
 20
121.1546490151199
 30
0.0
 10
194.9681422164146
 20
120.9381678114381
 30
0.0
 10
194.9054719203179
 20
120.8212506464297
 30
0.0
 10
194.8050439822817
 20
120.5790541772312
 30
0.0
 10
194.767172803352
 20
120.4543931863278
 30
0.0
 10
194.7159104055763
 20
120.1979938372598
 30
0.0
 10
194.7027767649356
 20
120.0653829119619
 30
0.0
 10
194.7026328317968
 20
119.6737082996268
 30
0.0
 10
194.7549980890616
 20
119.4104242799662
 30
0.0
 10
194.9541587524122
 20
118.9289115661064
 30
0.0
 10
195.1029564257742
 20
118.7057904790615
 30
0.0
 10
195.3792570843603
 20
118.4289583305539
 30
0.0
 10
195.4820221314201
 20
118.3444511162696
 30
0.0
 10
195.6992394052145
 20
118.1991301745837
 30
0.0
 10
195.8140090986523
 20
118.1376079513216
 30
0.0
 10
196.0559956357969
 20
118.0370115480497
 30
0.0
 10
196.1830782086883
 20
117.998383659961
 30
0.0
 10
196.4387529086915
 20
117.9473055498949
 30
0.0
 10
196.5686934260357
 20
117.9342164101277
 30
0.0
 10
196.832956793797
 20
117.9339648917691
 30
0.0
 10
196.963167687444
 20
117.9468393618255
 30
0.0
 10
197.2189176328776
 20
117.9974582589576
 30
0.0
 10
197.345935017245
 20
118.0358060777533
 30
0.0
 10
197.5882867449967
 20
118.1360401979467
 30
0.0
 10
197.703189524283
 20
118.1973843849367
 30
0.0
 10
197.920611689432
 20
118.3422893894659
 30
0.0
 10
198.0235480868767
 20
118.4266282815878
 30
0.0
 10
198.3003852440336
 20
118.7030293946296
 30
0.0
 10
198.4495404850977
 20
118.9258730276721
 30
0.0
 10
198.649511070333
 20
119.4069363089226
 30
0.0
 10
198.7027286521801
 20
119.6696536306319
 30
0.0
 10
198.7027286521801
 20
120.0663078023039
 30
0.0
  0
LINE
  5
F5
330
1F
100
AcDbEntity
  8
0
  6
HIDDEN
 62
     7
370
     0
100
AcDbLine
 10
184.7027286522
 20
139.6340897423
 30
0.0
 11
184.7027286522
 21
100.2340897451
 31
0.0
  0
LINE
  5
F6
330
1F
100
AcDbEntity
  8
0
  6
HIDDEN
 62
     7
370
     0
100
AcDbLine
 10
184.7027286522
 20
104.1340897451
 30
0.0
 11
184.7027286522
 21
135.7340897451
 31
0.0
  0
SPLINE
  5
F7
330
1F
100
AcDbEntity
  8
0
  6
HIDDEN
 62
     7
370
     0
100
AcDbSpline
210
0.0
220
0.0
230
1.0
 70
     8
 71
     3
 72
    18
 73
    14
 74
     0
 42
0.00000001
 43
0.00000001
 12
1.0
 22
0.0
 32
0.0
 13
1.0
 23
0.0
 33
0.0
 40
0.0
 40
0.0
 40
0.0
 40
0.0
 40
0.2499999999999987
 40
0.2499999999999987
 40
0.4999999999999973
 40
0.4999999999999973
 40
0.624999999999998
 40
0.624999999999998
 40
0.7499999999999987
 40
0.7499999999999987
 40
0.8749999999999993
 40
0.8749999999999993
 40
1.0
 40
1.0
 40
1.0
 40
1.0
 10
183.4466443346171
 20
129.7585296632312
 30
0.0
 10
183.4809453791499
 20
129.6505194774336
 30
0.0
 10
183.5187656504467
 20
129.5432423894057
 30
0.0
 10
183.6053839709075
 20
129.331745692089
 30
0.0
 10
183.6537553056509
 20
129.2273593419194
 30
0.0
 10
183.7431582877694
 20
129.0764844192751
 30
0.0
 10
183.7757555716467
 20
129.0271394162395
 30
0.0
 10
183.8521374755915
 20
128.9325337777693
 30
0.0
 10
183.8951759129323
 20
128.8875378430147
 30
0.0
 10
184.0009889457642
 20
128.8166100703568
 30
0.0
 10
184.0660273704953
 20
128.7926635264502
 30
0.0
 10
184.1991794422979
 20
128.804944190521
 30
0.0
 10
184.2585486227611
 20
128.8382611485259
 30
0.0
 10
184.3077517633048
 20
128.8790960347506
 30
0.0
  0
SPLINE
  5
F8
330
1F
100
AcDbEntity
  8
0
  6
HIDDEN
 62
     7
370
     0
100
AcDbSpline
210
0.0
220
0.0
230
1.0
 70
     8
 71
     3
 72
    16
 73
    12
 74
     0
 42
0.00000001
 43
0.00000001
 12
1.0
 22
0.0
 32
0.0
 13
1.0
 23
0.0
 33
0.0
 40
0.0
 40
0.0
 40
0.0
 40
0.0
 40
0.0624999999999996
 40
0.0624999999999996
 40
0.1249999999999992
 40
0.1249999999999992
 40
0.25
 40
0.25
 40
0.5000000000000017
 40
0.5000000000000017
 40
1.0
 40
1.0
 40
1.0
 40
1.0
 10
184.307751763274
 20
128.87909603478
 30
0.0
 10
184.3198215965499
 20
128.8891130837603
 30
0.0
 10
184.3340972514832
 20
128.898072190816
 30
0.0
 10
184.3655616636076
 20
128.9059425862102
 30
0.0
 10
184.381062188418
 20
128.9035850955679
 30
0.0
 10
184.4165010850249
 20
128.8866094033899
 30
0.0
 10
184.4300937011282
 20
128.8660609122223
 30
0.0
 10
184.4630880195211
 20
128.8041185852086
 30
0.0
 10
184.4738754128398
 20
128.7577230350035
 30
0.0
 10
184.498928660119
 20
128.614787006309
 30
0.0
 10
184.5027286521802
 20
128.5152242894235
 30
0.0
 10
184.5027286521803
 20
128.413456884777
 30
0.0
  0
LINE
  5
F9
330
1F
100
AcDbEntity
  8
0
  6
HIDDEN
 62
     7
370
     0
100
AcDbLine
 10
184.5027286522
 20
111.4547226054
 30
0.0
 11
184.5027286522
 21
128.4134568848
 31
0.0
  0
SPLINE
  5
FA
330
1F
100
AcDbEntity
  8
0
  6
HIDDEN
 62
     7
370
     0
100
AcDbSpline
210
0.0
220
0.0
230
1.0
 70
     8
 71
     3
 72
    16
 73
    12
 74
     0
 42
0.00000001
 43
0.00000001
 12
1.0
 22
0.0
 32
0.0
 13
1.0
 23
0.0
 33
0.0
 40
0.0
 40
0.0
 40
0.0
 40
0.0
 40
0.4999999999999979
 40
0.4999999999999979
 40
0.7499999999999969
 40
0.7499999999999969
 40
0.8749999999999984
 40
0.8749999999999984
 40
0.9374999999999991
 40
0.9374999999999991
 40
1.0
 40
1.0
 40
1.0
 40
1.0
 10
184.5027286521801
 20
111.4547226053828
 30
0.0
 10
184.5027286521801
 20
111.3527124518027
 30
0.0
 10
184.4988452270211
 20
111.2531880765494
 30
0.0
 10
184.4740299017465
 20
111.1112029805388
 30
0.0
 10
184.463190454034
 20
111.0642096799683
 30
0.0
 10
184.4299746719852
 20
111.0019169496067
 30
0.0
 10
184.4165929283564
 20
110.9816355173216
 30
0.0
 10
184.3810832784942
 20
110.9645938091212
 30
0.0
 10
184.3656663119934
 20
110.962207554105
 30
0.0
 10
184.3339652898448
 20
110.9701434839631
 30
0.0
 10
184.319819004894
 20
110.9790685573377
 30
0.0
 10
184.3077517633044
 20
110.9890834554096
 30
0.0
  0
SPLINE
  5
FB
330
1F
100
AcDbEntity
  8
0
  6
HIDDEN
 62
     7
370
     0
100
AcDbSpline
210
0.0
220
0.0
230
1.0
 70
     8
 71
     3
 72
    18
 73
    14
 74
     0
 42
0.00000001
 43
0.00000001
 12
1.0
 22
0.0
 32
0.0
 13
1.0
 23
0.0
 33
0.0
 40
0.0
 40
0.0
 40
0.0
 40
0.0
 40
0.1250000000000002
 40
0.1250000000000002
 40
0.2500000000000005
 40
0.2500000000000005
 40
0.3750000000000008
 40
0.3750000000000008
 40
0.500000000000001
 40
0.500000000000001
 40
0.7500000000000004
 40
0.7500000000000004
 40
1.0
 40
1.0
 40
1.0
 40
1.0
 10
184.3077517633105
 20
110.9890834554169
 30
0.0
 10
184.2590462711684
 20
111.0295053310984
 30
0.0
 10
184.2005361628415
 20
111.0625374525661
 30
0.0
 10
184.0688070445495
 20
111.075814604519
 30
0.0
 10
184.0040481082088
 20
111.0528610175388
 30
0.0
 10
183.8988371353493
 20
110.9838078206192
 30
0.0
 10
183.8556207599094
 20
110.9393401687783
 30
0.0
 10
183.7794422547974
 20
110.8461705094083
 30
0.0
 10
183.7465872934175
 20
110.7970281398475
 30
0.0
 10
183.6562190135838
 20
110.6458184049076
 30
0.0
 10
183.6067957792137
 20
110.5396636353794
 30
0.0
 10
183.5191473241655
 20
110.3260820197179
 30
0.0
 10
183.4810881519627
 20
110.2181095884826
 30
0.0
 10
183.4466443346171
 20
110.1096498269286
 30
0.0
  0
SPLINE
  5
FC
330
1F
100
AcDbEntity
  8
0
  6
HIDDEN
 62
     7
370
     0
100
AcDbSpline
210
0.0
220
0.0
230
1.0
 70
     8
 71
     3
 72
     8
 73
     4
 74
     0
 42
0.00000001
 43
0.00000001
 12
1.0
 22
0.0
 32
0.0
 13
1.0
 23
0.0
 33
0.0
 40
0.0
 40
0.0
 40
0.0
 40
0.0
 40
1.0
 40
1.0
 40
1.0
 40
1.0
 10
183.4466443346165
 20
110.1096498269281
 30
0.0
 10
183.4223306307264
 20
110.0330886693781
 30
0.0
 10
183.4008339887703
 20
109.9566632982449
 30
0.0
 10
183.3814083086204
 20
109.8805704274732
 30
0.0
  0
SPLINE
  5
FD
330
1F
100
AcDbEntity
  8
0
  6
HIDDEN
 62
     7
370
     0
100
AcDbSpline
210
0.0
220
0.0
230
1.0
 70
     8
 71
     3
 72
     8
 73
     4
 74
     0
 42
0.00000001
 43
0.00000001
 12
1.0
 22
0.0
 32
0.0
 13
1.0
 23
0.0
 33
0.0
 40
0.0
 40
0.0
 40
0.0
 40
0.0
 40
1.0
 40
1.0
 40
1.0
 40
1.0
 10
183.3814083086204
 20
106.1090257370747
 30
0.0
 10
183.4008337355137
 20
106.1055285334874
 30
0.0
 10
183.4223302894827
 20
106.1035122158452
 30
0.0
 10
183.4466443346171
 20
106.1029013624013
 30
0.0
  0
SPLINE
  5
FE
330
1F
100
AcDbEntity
  8
0
  6
HIDDEN
 62
     7
370
     0
100
AcDbSpline
210
0.0
220
0.0
230
1.0
 70
     8
 71
     3
 72
     8
 73
     4
 74
     0
 42
0.00000001
 43
0.00000001
 12
1.0
 22
0.0
 32
0.0
 13
1.0
 23
0.0
 33
0.0
 40
0.0
 40
0.0
 40
0.0
 40
0.0
 40
1.0
 40
1.0
 40
1.0
 40
1.0
 10
184.4798776390741
 20
106.0135429713432
 30
0.0
 10
184.49881457124
 20
105.9855885339417
 30
0.0
 10
184.5027286521802
 20
105.9655046825854
 30
0.0
 10
184.5027286521803
 20
105.94927783842
 30
0.0
  0
LINE
  5
FF
330
1F
100
AcDbEntity
  8
0
  6
HIDDEN
 62
     7
370
     0
100
AcDbLine
 10
184.5027286522
 20
105.8442694662
 30
0.0
 11
184.5027286522
 21
105.9492778384
 31
0.0
  0
LINE
  5
100
330
1F
100
AcDbEntity
  8
0
  6
HIDDEN
 62
     7
370
     0
100
AcDbLine
 10
184.5027286522
 20
133.9189016517
 30
0.0
 11
184.5027286522
 21
134.023910024
 31
0.0
  0
SPLINE
  5
101
330
1F
100
AcDbEntity
  8
0
  6
HIDDEN
 62
     7
370
     0
100
AcDbSpline
210
0.0
220
0.0
230
1.0
 70
     8
 71
     3
 72
     8
 73
     4
 74
     0
 42
0.00000001
 43
0.00000001
 12
1.0
 22
0.0
 32
0.0
 13
1.0
 23
0.0
 33
0.0
 40
0.0
 40
0.0
 40
0.0
 40
0.0
 40
1.0
 40
1.0
 40
1.0
 40
1.0
 10
183.4466443346167
 20
133.7652781277585
 30
0.0
 10
183.4223302894825
 20
133.7646672743146
 30
0.0
 10
183.4008337355136
 20
133.7626509566724
 30
0.0
 10
183.3814083086204
 20
133.7591537530851
 30
0.0
  0
SPLINE
  5
102
330
1F
100
AcDbEntity
  8
0
  6
HIDDEN
 62
     7
370
     0
100
AcDbSpline
210
0.0
220
0.0
230
1.0
 70
     8
 71
     3
 72
     8
 73
     4
 74
     0
 42
0.00000001
 43
0.00000001
 12
1.0
 22
0.0
 32
0.0
 13
1.0
 23
0.0
 33
0.0
 40
0.0
 40
0.0
 40
0.0
 40
0.0
 40
1.0
 40
1.0
 40
1.0
 40
1.0
 10
183.3814083086204
 20
129.9876090626867
 30
0.0
 10
183.4008339887703
 20
129.911516191915
 30
0.0
 10
183.4223306307264
 20
129.8350908207818
 30
0.0
 10
183.4466443346165
 20
129.7585296632317
 30
0.0
  0
SPLINE
  5
103
330
1F
100
AcDbEntity
  8
0
  6
HIDDEN
 62
     7
370
     0
100
AcDbSpline
210
0.0
220
0.0
230
1.0
 70
     8
 71
     3
 72
    10
 73
     6
 74
     0
 42
0.00000001
 43
0.00000001
 12
1.0
 22
0.0
 32
0.0
 13
1.0
 23
0.0
 33
0.0
 40
0.0
 40
0.0
 40
0.0
 40
0.0
 40
0.4999999999999997
 40
0.4999999999999997
 40
1.0
 40
1.0
 40
1.0
 40
1.0
 10
198.841087479491
 20
115.1020464593304
 30
0.0
 10
198.899162734821
 20
115.3679728029217
 30
0.0
 10
198.9892122943728
 20
115.6280267457277
 30
0.0
 10
199.2442460437469
 20
116.0994222211146
 30
0.0
 10
199.4091835990012
 20
116.3143916912091
 30
0.0
 10
199.5918374969078
 20
116.5107394349006
 30
0.0
  0
SPLINE
  5
104
330
1F
100
AcDbEntity
  8
0
  6
HIDDEN
 62
     7
370
     0
100
AcDbSpline
210
0.0
220
0.0
230
1.0
 70
     8
 71
     3
 72
    42
 73
    38
 74
     0
 42
0.00000001
 43
0.00000001
 12
1.0
 22
0.0
 32
0.0
 13
1.0
 23
0.0
 33
0.0
 40
0.0
 40
0.0
 40
0.0
 40
0.0
 40
0.0312500000000001
 40
0.0312500000000001
 40
0.0625000000000003
 40
0.0625000000000003
 40
0.125
 40
0.125
 40
0.1874999999999997
 40
0.1874999999999997
 40
0.2499999999999994
 40
0.2499999999999994
 40
0.3124999999999992
 40
0.3124999999999992
 40
0.3749999999999989
 40
0.3749999999999989
 40
0.4374999999999986
 40
0.4374999999999986
 40
0.4999999999999983
 40
0.4999999999999983
 40
0.5312499999999982
 40
0.5312499999999982
 40
0.5624999999999981
 40
0.5624999999999981
 40
0.6249999999999984
 40
0.6249999999999984
 40
0.6874999999999987
 40
0.6874999999999987
 40
0.749999999999999
 40
0.749999999999999
 40
0.8124999999999992
 40
0.8124999999999992
 40
0.8749999999999996
 40
0.8749999999999996
 40
0.9374999999999998
 40
0.9374999999999998
 40
1.0
 40
1.0
 40
1.0
 40
1.0
 10
199.3906984677806
 20
117.4978062142171
 30
0.0
 10
199.4771996600701
 20
117.4604119316282
 30
0.0
 10
199.5620762201514
 20
117.4195530083488
 30
0.0
 10
199.7291506274089
 20
117.3318458212659
 30
0.0
 10
199.812484850926
 20
117.284264544491
 30
0.0
 10
200.0452011929745
 20
117.1411078804099
 30
0.0
 10
200.1822378316205
 20
117.0426128730288
 30
0.0
 10
200.4069177147997
 20
116.8494653117127
 30
0.0
 10
200.4988103876162
 20
116.7513983540648
 30
0.0
 10
200.6458854238522
 20
116.5471419925948
 30
0.0
 10
200.7019353081594
 20
116.4405428024787
 30
0.0
 10
200.7804103454101
 20
116.2076561915741
 30
0.0
 10
200.802026959237
 20
116.0821391107645
 30
0.0
 10
200.8033967790851
 20
115.8134236110487
 30
0.0
 10
200.7826282960767
 20
115.6670895032245
 30
0.0
 10
200.6918863549959
 20
115.3638413058647
 30
0.0
 10
200.6202372036932
 20
115.2033091834975
 30
0.0
 10
200.4343817717199
 20
114.8921607983082
 30
0.0
 10
200.3179236896973
 20
114.7377678190802
 30
0.0
 10
200.1285119468214
 20
114.5275169411351
 30
0.0
 10
200.0619595950627
 20
114.4597392865694
 30
0.0
 10
199.9284274916563
 20
114.3332721479354
 30
0.0
 10
199.8609110566529
 20
114.2739374234567
 30
0.0
 10
199.6570394493683
 20
114.1055579159487
 30
0.0
 10
199.5196484998474
 20
114.0066555294371
 30
0.0
 10
199.2598531999533
 20
113.834707772381
 30
0.0
 10
199.1342662363274
 20
113.7596415937724
 30
0.0
 10
198.9050430174401
 20
113.6246519920674
 30
0.0
 10
198.8021336984402
 20
113.5655924714528
 30
0.0
 10
198.6379573823144
 20
113.4485212866734
 30
0.0
 10
198.5773359903547
 20
113.3895282056836
 30
0.0
 10
198.5523448691536
 20
113.2609962820852
 30
0.0
 10
198.591644674534
 20
113.1921575680264
 30
0.0
 10
198.7425097036443
 20
113.0706163344638
 30
0.0
 10
198.8494200789063
 20
113.0188532599343
 30
0.0
 10
199.0893469720768
 20
112.9477726208443
 30
0.0
 10
199.221444137346
 20
112.9283190054636
 30
0.0
 10
199.3606629063039
 20
112.9297845107266
 30
0.0
  0
LWPOLYLINE
  5
105
330
1F
100
AcDbEntity
  8
0
  6
HIDDEN
 62
     7
370
     0
100
AcDbPolyline
 90
        9
 70
   128
 43
0.0
 10
199.3906984678
 20
117.4978062142
 10
199.5098125055
 20
117.5180004702
 10
199.6060305151
 20
117.4970448769
 10
199.6771620563
 20
117.4354164966
 10
199.7215877921
 20
117.3345183232
 10
199.7382963534
 20
117.1966473426
 10
199.7269073633
 20
117.0249422412
 10
199.6876800965
 20
116.823311952
 10
199.6215075771
 20
116.5963466667
  0
SPLINE
  5
106
330
1F
100
AcDbEntity
  8
0
  6
HIDDEN
 62
     7
370
     0
100
AcDbSpline
210
0.0
220
0.0
230
1.0
 70
     8
 71
     3
 72
    14
 73
    10
 74
     0
 42
0.00000001
 43
0.00000001
 12
1.0
 22
0.0
 32
0.0
 13
1.0
 23
0.0
 33
0.0
 40
0.0
 40
0.0
 40
0.0
 40
0.0
 40
0.2500000000000021
 40
0.2500000000000021
 40
0.5000000000000014
 40
0.5000000000000014
 40
0.7500000000000008
 40
0.7500000000000008
 40
1.0
 40
1.0
 40
1.0
 40
1.0
 10
200.4752707821217
 20
115.8619726130917
 30
0.0
 10
200.4251924383004
 20
115.9478736439429
 30
0.0
 10
200.3697050085637
 20
116.0297274201209
 30
0.0
 10
200.2461899548277
 20
116.1840273891567
 30
0.0
 10
200.1771544739712
 20
116.2571665781237
 30
0.0
 10
200.0310747517742
 20
116.3849409076443
 30
0.0
 10
199.9536841402577
 20
116.4402624690416
 30
0.0
 10
199.7900939674094
 20
116.5330439723146
 30
0.0
 10
199.7061425811812
 20
116.5691688163494
 30
0.0
 10
199.621507577093
 20
116.5963466666752
 30
0.0
  0
ARC
  5
107
330
1F
100
AcDbEntity
  8
0
  6
HIDDEN
 62
     7
370
     0
100
AcDbCircle
 10
193.6924053309
 20
118.7503886076
 30
0.0
 40
6.31025580291958
100
AcDbArc
 50
324.6787175814
 51
339.2113305178
  0
SPLINE
  5
108
330
1F
100
AcDbEntity
  8
0
  6
HIDDEN
 62
     7
370
     0
100
AcDbSpline
210
0.0
220
0.0
230
1.0
 70
     8
 71
     3
 72
    22
 73
    18
 74
     0
 42
0.00000001
 43
0.00000001
 12
1.0
 22
0.0
 32
0.0
 13
1.0
 23
0.0
 33
0.0
 40
0.0
 40
0.0
 40
0.0
 40
0.0
 40
0.125
 40
0.125
 40
0.25
 40
0.25
 40
0.375
 40
0.375
 40
0.5
 40
0.5
 40
0.625
 40
0.625
 40
0.75
 40
0.75
 40
0.875
 40
0.875
 40
1.0
 40
1.0
 40
1.0
 40
1.0
 10
199.3606629063015
 20
112.9297845107258
 30
0.0
 10
199.3063576546039
 20
113.0042725990587
 30
0.0
 10
199.2592162746884
 20
113.0812020050035
 30
0.0
 10
199.188638441951
 20
113.2426058977576
 30
0.0
 10
199.1653182836359
 20
113.328486193226
 30
0.0
 10
199.160737197256
 20
113.5047912379915
 30
0.0
 10
199.1808363913788
 20
113.5964430804595
 30
0.0
 10
199.2548429720864
 20
113.7873756348397
 30
0.0
 10
199.3060691977142
 20
113.8855773350652
 30
0.0
 10
199.3996699478767
 20
114.1001072181372
 30
0.0
 10
199.4419657374332
 20
114.2175349653528
 30
0.0
 10
199.4854837898101
 20
114.4658192537045
 30
0.0
 10
199.4880768758818
 20
114.5977614472081
 30
0.0
 10
199.4208044039326
 20
114.8516795728028
 30
0.0
 10
199.3464984346142
 20
114.9691486947056
 30
0.0
 10
199.1169707472711
 20
115.1038482878051
 30
0.0
 10
198.9771304828031
 20
115.1180808185969
 30
0.0
 10
198.841087479491
 20
115.1020464593304
 30
0.0
  0
SPLINE
  5
109
330
1F
100
AcDbEntity
  8
0
  6
HIDDEN
 62
     7
370
     0
100
AcDbSpline
210
0.0
220
0.0
230
1.0
 70
     8
 71
     3
 72
    12
 73
     8
 74
     0
 42
0.00000001
 43
0.00000001
 12
1.0
 22
0.0
 32
0.0
 13
1.0
 23
0.0
 33
0.0
 40
0.0
 40
0.0
 40
0.0
 40
0.0
 40
0.4999999999999994
 40
0.4999999999999994
 40
0.7499999999999997
 40
0.7499999999999997
 40
1.0
 40
1.0
 40
1.0
 40
1.0
 10
199.5918374969078
 20
116.5107394349006
 30
0.0
 10
199.7117173211051
 20
116.3590788397783
 30
0.0
 10
199.8416138414123
 20
116.2108288830456
 30
0.0
 10
200.0656871436972
 20
116.0442435969692
 30
0.0
 10
200.1460973103483
 20
115.9971882868373
 30
0.0
 10
200.3097642276835
 20
115.9198187471632
 30
0.0
 10
200.392445355652
 20
115.8890270579656
 30
0.0
 10
200.4752707821217
 20
115.8619726130917
 30
0.0
  0
SPLINE
  5
10A
330
1F
100
AcDbEntity
  8
0
  6
HIDDEN
 62
     7
370
     0
100
AcDbSpline
210
0.0
220
0.0
230
1.0
 70
     8
 71
     3
 72
    62
 73
    58
 74
     0
 42
0.00000001
 43
0.00000001
 12
1.0
 22
0.0
 32
0.0
 13
1.0
 23
0.0
 33
0.0
 40
-0.0312499999999998
 40
-0.0312499999999998
 40
0.0
 40
0.0
 40
0.0312499999999999
 40
0.0312499999999999
 40
0.0624999999999998
 40
0.0624999999999998
 40
0.0937499999999997
 40
0.0937499999999997
 40
0.1249999999999996
 40
0.1249999999999996
 40
0.1874999999999997
 40
0.1874999999999997
 40
0.2187499999999997
 40
0.2187499999999997
 40
0.2499999999999997
 40
0.2499999999999997
 40
0.2812499999999997
 40
0.2812499999999997
 40
0.3124999999999998
 40
0.3124999999999998
 40
0.3437499999999999
 40
0.3437499999999999
 40
0.375
 40
0.375
 40
0.4062500000000001
 40
0.4062500000000001
 40
0.4375000000000002
 40
0.4375000000000002
 40
0.4687500000000002
 40
0.4687500000000002
 40
0.5000000000000002
 40
0.5000000000000002
 40
0.5625000000000007
 40
0.5625000000000007
 40
0.5937500000000008
 40
0.5937500000000008
 40
0.6250000000000008
 40
0.6250000000000008
 40
0.6875000000000006
 40
0.6875000000000006
 40
0.7187500000000007
 40
0.7187500000000007
 40
0.7500000000000007
 40
0.7500000000000007
 40
0.7812500000000007
 40
0.7812500000000007
 40
0.8125000000000007
 40
0.8125000000000007
 40
0.8750000000000004
 40
0.8750000000000004
 40
0.9062500000000003
 40
0.9062500000000003
 40
0.9375000000000002
 40
0.9375000000000002
 40
0.9687500000000002
 40
0.9687500000000002
 40
1.0
 40
1.0
 40
1.03125
 40
1.03125
 10
198.842570197982
 20
115.9473866706625
 30
0.0
 10
198.5628871063786
 20
115.9473866706625
 30
0.0
 10
198.4256031494211
 20
115.9586750605071
 30
0.0
 10
198.1558673945696
 20
116.0029469559471
 30
0.0
 10
198.0219853754741
 20
116.0365215430273
 30
0.0
 10
197.7682388170761
 20
116.1240660214105
 30
0.0
 10
197.6480531553335
 20
116.1777668970959
 30
0.0
 10
197.4205905638196
 20
116.3057436458118
 30
0.0
 10
197.313775358358
 20
116.380132575643
 30
0.0
 10
197.0255307610334
 20
116.6269193911311
 30
0.0
 10
196.8694100621321
 20
116.8295285776886
 30
0.0
 10
196.7116946012899
 20
117.1683474081005
 30
0.0
 10
196.6707853721823
 20
117.2891689383968
 30
0.0
 10
196.61640846716
 20
117.538233719026
 30
0.0
 10
196.6028209992705
 20
117.6653616418494
 30
0.0
 10
196.6026372342828
 20
117.9249408671733
 30
0.0
 10
196.616523270489
 20
118.0583686192263
 30
0.0
 10
196.6706103550397
 20
118.3184182738357
 30
0.0
 10
196.7106191110846
 20
118.4464407946116
 30
0.0
 10
196.816965385667
 20
118.6980565557432
 30
0.0
 10
196.8821646605844
 20
118.8186641090119
 30
0.0
 10
197.0338720646226
 20
119.0462190196037
 30
0.0
 10
197.1216727392626
 20
119.1547369983659
 30
0.0
 10
197.315010648626
 20
119.3524520282567
 30
0.0
 10
197.4199590346375
 20
119.4415063366975
 30
0.0
 10
197.6466870445836
 20
119.5994531107156
 30
0.0
 10
197.7694587955656
 20
119.6684890789783
 30
0.0
 10
198.022137267791
 20
119.7790496938866
 30
0.0
 10
198.1531182392917
 20
119.8215365078122
 30
0.0
 10
198.4249066105405
 20
119.8793745906116
 30
0.0
 10
198.5641402208747
 20
119.8940355725036
 30
0.0
 10
198.9773240036731
 20
119.894215327342
 30
0.0
 10
199.2553997483878
 20
119.8348821521281
 30
0.0
 10
199.6354685764191
 20
119.6687904128945
 30
0.0
 10
199.7582368183612
 20
119.5997721025368
 30
0.0
 10
199.9849229842475
 20
119.4419594665818
 30
0.0
 10
200.0900910927929
 20
119.3528161924527
 30
0.0
 10
200.3811775885231
 20
119.0551379191092
 30
0.0
 10
200.5351081107511
 20
118.8241354465635
 30
0.0
 10
200.6945397135009
 20
118.4472602861454
 30
0.0
 10
200.7345409110564
 20
118.3194565164095
 30
0.0
 10
200.7887001319858
 20
118.0599220942653
 30
0.0
 10
200.8027230385352
 20
117.9265863912618
 30
0.0
 10
200.8027342623719
 20
117.6665013552819
 30
0.0
 10
200.7891933091729
 20
117.5392570044458
 30
0.0
 10
200.7349752225631
 20
117.2901995269714
 30
0.0
 10
200.6940952679567
 20
117.1691644118815
 30
0.0
 10
200.5361271907809
 20
116.8294959393913
 30
0.0
 10
200.380099233426
 20
116.6270293643498
 30
0.0
 10
200.0913521141008
 20
116.3798691464925
 30
0.0
 10
199.9841372793719
 20
116.3052983596018
 30
0.0
 10
199.7572838724219
 20
116.1777342281942
 30
0.0
 10
199.6372663601821
 20
116.12408332144
 30
0.0
 10
199.3834481527279
 20
116.0365125566291
 30
0.0
 10
199.2495811086765
 20
116.0029469425649
 30
0.0
 10
198.9799138667823
 20
115.9586834301686
 30
0.0
 10
198.842570197982
 20
115.9473866706625
 30
0.0
 10
198.5628871063786
 20
115.9473866706625
 30
0.0
  0
SPLINE
  5
10B
330
1F
100
AcDbEntity
  8
0
  6
HIDDEN
 62
     7
370
     0
100
AcDbSpline
210
0.0
220
0.0
230
1.0
 70
     8
 71
     3
 72
    16
 73
    12
 74
     0
 42
0.00000001
 43
0.00000001
 12
1.0
 22
0.0
 32
0.0
 13
1.0
 23
0.0
 33
0.0
 40
0.0
 40
0.0
 40
0.0
 40
0.0
 40
0.2499999999999983
 40
0.2499999999999983
 40
0.3749999999999986
 40
0.3749999999999986
 40
0.499999999999999
 40
0.499999999999999
 40
0.7499999999999994
 40
0.7499999999999994
 40
1.0
 40
1.0
 40
1.0
 40
1.0
 10
199.6215075770931
 20
116.5963466666752
 30
0.0
 10
199.5390635574623
 20
116.6970293107403
 30
0.0
 10
199.4585892817236
 20
116.7908535179677
 30
0.0
 10
199.3562097886665
 20
116.9225782982667
 30
0.0
 10
199.3252987910957
 20
116.9650042159131
 30
0.0
 10
199.2743747477666
 20
117.0473872307071
 30
0.0
 10
199.254480428359
 20
117.0875998210906
 30
0.0
 10
199.2187382776852
 20
117.2011635003303
 30
0.0
 10
199.227124935597
 20
117.2687937445286
 30
0.0
 10
199.2866906078695
 20
117.3923595442784
 30
0.0
 10
199.3358691549682
 20
117.4478544757296
 30
0.0
 10
199.390698467781
 20
117.4978062142178
 30
0.0
  0
LWPOLYLINE
  5
10C
330
1F
100
AcDbEntity
  8
0
  6
HIDDEN
 62
     7
370
     0
100
AcDbPolyline
 90
       21
 70
   128
 43
0.0
 10
200.4752707821
 20
115.8619726131
 10
200.1819573447
 20
116.2044915608
 10
199.8152212378
 20
116.477485475
 10
199.3932656939
 20
116.6674040899
 10
198.9370348055
 20
116.764820647
 10
198.4691739486
 20
116.7648997995
 10
198.0129057614
 20
116.6676376186
 10
197.5908774713
 20
116.4778617885
 10
197.2240367815
 20
116.2049919805
 10
196.9305921157
 20
115.8625723003
 10
196.7251088286
 20
115.4675990156
 10
196.6177862435
 20
115.0396769336
 10
196.6139514005
 20
114.6000463003
 10
196.7137946451
 20
114.170528525
 10
196.91236018
 20
113.7724430574
 10
197.19979205
 20
113.4255491802
 10
197.5618233501
 20
113.1470652413
 10
197.9804843744
 20
112.9508140082
 10
198.4349945567
 20
112.846536564
 10
198.9027939295
 20
112.8394088008
 10
199.3606629063
 20
112.9297845107
  0
LINE
  5
10D
330
1F
100
AcDbEntity
  8
0
  6
HIDDEN
 62
     7
370
     0
100
AcDbLine
 10
184.5027286522
 20
105.9492778384
 30
0.0
 11
184.5027286522
 21
114.4286449781
 31
0.0
  0
LINE
  5
10E
330
1F
100
AcDbEntity
  8
0
  6
HIDDEN
 62
     7
370
     0
100
AcDbLine
 10
184.5027286522
 20
125.439534512
 30
0.0
 11
184.5027286522
 21
133.9189016517
 31
0.0
  0
CIRCLE
  5
10F
330
1F
100
AcDbEntity
  8
0
  6
HIDDEN
 62
     7
370
     0
100
AcDbCircle
 10
173.2027286522
 20
119.9340897451
 30
0.0
 40
2.299999999999997
  0
LINE
  5
110
330
1F
100
AcDbEntity
  8
0
  6
HIDDEN
 62
     7
370
     0
100
AcDbLine
 10
161.7297606842
 20
129.4967830492
 30
0.0
 11
161.7297606842
 21
110.371396441
 31
0.0
  0
LINE
  5
111
330
1F
100
AcDbEntity
  8
0
  6
HIDDEN
 62
     7
370
     0
100
AcDbLine
 10
160.7027286522
 20
109.7784392208
 30
0.0
 11
160.7027286522
 21
130.0897402694
 31
0.0
  0
LINE
  5
112
330
1F
100
AcDbEntity
  8
0
  6
HIDDEN
 62
     7
370
     0
100
AcDbLine
 10
165.2297606842
 20
129.1650298528
 30
0.0
 11
165.2297606842
 21
110.7031496374
 31
0.0
  0
LINE
  5
113
330
1F
100
AcDbEntity
  8
0
  6
HIDDEN
 62
     7
370
     0
100
AcDbLine
 10
168.6297606842
 20
128.9340897451
 30
0.0
 11
168.6297606842
 21
110.9340897451
 31
0.0
  0
LINE
  5
114
330
1F
100
AcDbEntity
  8
0
  6
HIDDEN
 62
     7
370
     0
100
AcDbLine
 10
163.8297606842
 20
128.9340897451
 30
0.0
 11
163.8297606842
 21
110.9340897451
 31
0.0
  0
LINE
  5
115
330
1F
100
AcDbEntity
  8
0
  6
HIDDEN
 62
     7
370
     0
100
AcDbLine
 10
164.8297606842
 20
128.9340897451
 30
0.0
 11
164.8297606842
 21
110.9340897451
 31
0.0
  0
SPLINE
  5
116
330
1F
100
AcDbEntity
  8
0
  6
HIDDEN
 62
     7
370
     0
100
AcDbSpline
210
0.0
220
0.0
230
1.0
 70
     8
 71
     3
 72
    14
 73
    10
 74
     0
 42
0.00000001
 43
0.00000001
 12
1.0
 22
0.0
 32
0.0
 13
1.0
 23
0.0
 33
0.0
 40
0.0
 40
0.0
 40
0.0
 40
0.0
 40
0.25
 40
0.25
 40
0.5
 40
0.5
 40
0.75
 40
0.75
 40
1.0
 40
1.0
 40
1.0
 40
1.0
 10
175.2027286521801
 20
121.06987141424
 30
0.0
 10
175.300952998683
 20
120.8969079844365
 30
0.0
 10
175.3762678366671
 20
120.7118754300121
 30
0.0
 10
175.4772345468615
 20
120.3288632158776
 30
0.0
 10
175.5026101331516
 20
120.134144662412
 30
0.0
 10
175.5028463584179
 20
119.7367693611464
 30
0.0
 10
175.4771432890824
 20
119.539277026671
 30
0.0
 10
175.376823175566
 20
119.15810519204
 30
0.0
 10
175.3009313474783
 20
118.9712333800674
 30
0.0
 10
175.2027286521847
 20
118.7983080759175
 30
0.0
  0
LINE
  5
117
330
1F
100
AcDbEntity
  8
0
  6
HIDDEN
 62
     7
370
     0
100
AcDbLine
 10
175.7027286522
 20
128.4340897451
 30
0.0
 11
175.7027286522
 21
111.4340897451
 31
0.0
  0
SPLINE
  5
118
330
1F
100
AcDbEntity
  8
0
  6
HIDDEN
 62
     7
370
     0
100
AcDbSpline
210
0.0
220
0.0
230
1.0
 70
     8
 71
     3
 72
    14
 73
    10
 74
     0
 42
0.00000001
 43
0.00000001
 12
1.0
 22
0.0
 32
0.0
 13
1.0
 23
0.0
 33
0.0
 40
0.0
 40
0.0
 40
0.0
 40
0.0
 40
0.25
 40
0.25
 40
0.5
 40
0.5
 40
0.75
 40
0.75
 40
1.0
 40
1.0
 40
1.0
 40
1.0
 10
175.2027286521801
 20
118.7983080759199
 30
0.0
 10
175.300952998683
 20
118.9712715057234
 30
0.0
 10
175.3762678366671
 20
119.1563040601478
 30
0.0
 10
175.4772345468615
 20
119.5393162742823
 30
0.0
 10
175.5026101331516
 20
119.7340348277479
 30
0.0
 10
175.5028463584179
 20
120.1314101290135
 30
0.0
 10
175.4771432890824
 20
120.3289024634889
 30
0.0
 10
175.376823175566
 20
120.7100742981199
 30
0.0
 10
175.3009313474783
 20
120.8969461100925
 30
0.0
 10
175.2027286521847
 20
121.0698714142423
 30
0.0
  0
SPLINE
  5
119
330
1F
100
AcDbEntity
  8
0
  6
HIDDEN
 62
     7
370
     0
100
AcDbSpline
210
0.0
220
0.0
230
1.0
 70
     8
 71
     3
 72
    60
 73
    56
 74
     0
 42
0.00000001
 43
0.00000001
 12
1.0
 22
0.0
 32
0.0
 13
1.0
 23
0.0
 33
0.0
 40
0.0
 40
0.0
 40
0.0
 40
0.0
 40
0.0624999999999999
 40
0.0624999999999999
 40
0.1249999999999999
 40
0.1249999999999999
 40
0.1874999999999998
 40
0.1874999999999998
 40
0.2187499999999998
 40
0.2187499999999998
 40
0.2499999999999997
 40
0.2499999999999997
 40
0.3125000000000001
 40
0.3125000000000001
 40
0.3750000000000003
 40
0.3750000000000003
 40
0.4062500000000004
 40
0.4062500000000004
 40
0.4375000000000004
 40
0.4375000000000004
 40
0.4687500000000004
 40
0.4687500000000004
 40
0.5000000000000004
 40
0.5000000000000004
 40
0.5312500000000004
 40
0.5312500000000004
 40
0.5625000000000003
 40
0.5625000000000003
 40
0.5937500000000003
 40
0.5937500000000003
 40
0.6250000000000003
 40
0.6250000000000003
 40
0.6562500000000002
 40
0.6562500000000002
 40
0.6875000000000002
 40
0.6875000000000002
 40
0.7187500000000002
 40
0.7187500000000002
 40
0.7500000000000001
 40
0.7500000000000001
 40
0.7812500000000001
 40
0.7812500000000001
 40
0.8125000000000001
 40
0.8125000000000001
 40
0.8437500000000001
 40
0.8437500000000001
 40
0.875
 40
0.875
 40
0.90625
 40
0.90625
 40
0.9375
 40
0.9375
 40
0.9687499999999999
 40
0.9687499999999999
 40
1.0
 40
1.0
 40
1.0
 40
1.0
 10
175.2027286521801
 20
118.7983080759199
 30
0.0
 10
175.0775387506014
 20
118.5778609513043
 30
0.0
 10
174.9206714320332
 20
118.3841272224839
 30
0.0
 10
174.5436339122144
 20
118.0484375237215
 30
0.0
 10
174.3319206057934
 20
117.9144601654088
 30
0.0
 10
173.8660306238447
 20
117.7173334207236
 30
0.0
 10
173.6201913927931
 20
117.6581160085018
 30
0.0
 10
173.2407103396985
 20
117.6309092726111
 30
0.0
 10
173.1129646110046
 20
117.632402537753
 30
0.0
 10
172.8624983643364
 20
117.6559183435619
 30
0.0
 10
172.7386689815282
 20
117.6778375623661
 30
0.0
 10
172.3714493074296
 20
117.774674127211
 30
0.0
 10
172.1406802893439
 20
117.8784752486628
 30
0.0
 10
171.7207913279243
 20
118.1571937295909
 30
0.0
 10
171.5365329530368
 20
118.3287560210946
 30
0.0
 10
171.3057845655535
 20
118.6274033823614
 30
0.0
 10
171.2367377157644
 20
118.7338709228637
 30
0.0
 10
171.118173051959
 20
118.9541542712566
 30
0.0
 10
171.0679646832093
 20
119.068815787658
 30
0.0
 10
170.9861328308515
 20
119.3074964244348
 30
0.0
 10
170.9547819319688
 20
119.4315420513129
 30
0.0
 10
170.9133875539302
 20
119.6796570874212
 30
0.0
 10
170.902881778866
 20
119.8048947899097
 30
0.0
 10
170.9025788265302
 20
120.0577738455007
 30
0.0
 10
170.9130633561468
 20
120.1856535317374
 30
0.0
 10
170.9542034336082
 20
120.4340755929428
 30
0.0
 10
170.9847815541568
 20
120.5558745197112
 30
0.0
 10
171.0660642625081
 20
120.7946540491855
 30
0.0
 10
171.11706514907
 20
120.9116956114922
 30
0.0
 10
171.235632197433
 20
121.1325208094181
 30
0.0
 10
171.3035209507048
 20
121.2374591729809
 30
0.0
 10
171.4566713884425
 20
121.4364365062103
 30
0.0
 10
171.542227560015
 20
121.5304446314044
 30
0.0
 10
171.7249389309742
 20
121.7009373163412
 30
0.0
 10
171.822746230656
 20
121.7783755113905
 30
0.0
 10
172.031549342573
 20
121.9175414072788
 30
0.0
 10
172.1431315178609
 20
121.9793232162858
 30
0.0
 10
172.3717773173599
 20
122.0824020868866
 30
0.0
 10
172.489732128331
 20
122.1244061220822
 30
0.0
 10
172.7330605733198
 20
122.189142243379
 30
0.0
 10
172.8594044486628
 20
122.2118155059417
 30
0.0
 10
173.1105104296807
 20
122.2356983021228
 30
0.0
 10
173.2361924234036
 20
122.2373016033895
 30
0.0
 10
173.4878144931955
 20
122.2198348646186
 30
0.0
 10
173.6147121134812
 20
122.2003989739787
 30
0.0
 10
173.8599026797424
 20
122.141805802655
 30
0.0
 10
173.9790918367758
 20
122.1027429514984
 30
0.0
 10
174.2107768611307
 20
122.0052332293746
 30
0.0
 10
174.3239516654812
 20
121.946197875086
 30
0.0
 10
174.5360300824169
 20
121.8123941582465
 30
0.0
 10
174.6358188611177
 20
121.7373989421017
 30
0.0
 10
174.8230770481067
 20
121.5712038775809
 30
0.0
 10
174.91097208505
 20
121.4793096788394
 30
0.0
 10
175.0691931606819
 20
121.2839454811251
 30
0.0
 10
175.1401311169736
 20
121.1800995274526
 30
0.0
 10
175.2027286521801
 20
121.06987141424
 30
0.0
  0
SPLINE
  5
11A
330
1F
100
AcDbEntity
  8
0
  6
HIDDEN
 62
     7
370
     0
100
AcDbSpline
210
0.0
220
0.0
230
1.0
 70
     8
 71
     3
 72
    60
 73
    56
 74
     0
 42
0.00000001
 43
0.00000001
 12
1.0
 22
0.0
 32
0.0
 13
1.0
 23
0.0
 33
0.0
 40
0.0
 40
0.0
 40
0.0
 40
0.0
 40
0.0624999999999999
 40
0.0624999999999999
 40
0.1249999999999999
 40
0.1249999999999999
 40
0.1874999999999998
 40
0.1874999999999998
 40
0.2187499999999998
 40
0.2187499999999998
 40
0.2499999999999997
 40
0.2499999999999997
 40
0.3125000000000001
 40
0.3125000000000001
 40
0.3750000000000003
 40
0.3750000000000003
 40
0.4062500000000004
 40
0.4062500000000004
 40
0.4375000000000004
 40
0.4375000000000004
 40
0.4687500000000004
 40
0.4687500000000004
 40
0.5000000000000004
 40
0.5000000000000004
 40
0.5312500000000004
 40
0.5312500000000004
 40
0.5625000000000003
 40
0.5625000000000003
 40
0.5937500000000003
 40
0.5937500000000003
 40
0.6250000000000003
 40
0.6250000000000003
 40
0.6562500000000002
 40
0.6562500000000002
 40
0.6875000000000002
 40
0.6875000000000002
 40
0.7187500000000002
 40
0.7187500000000002
 40
0.7500000000000001
 40
0.7500000000000001
 40
0.7812500000000001
 40
0.7812500000000001
 40
0.8125000000000001
 40
0.8125000000000001
 40
0.8437500000000001
 40
0.8437500000000001
 40
0.875
 40
0.875
 40
0.90625
 40
0.90625
 40
0.9375
 40
0.9375
 40
0.9687499999999999
 40
0.9687499999999999
 40
1.0
 40
1.0
 40
1.0
 40
1.0
 10
175.2027286521801
 20
121.06987141424
 30
0.0
 10
175.0775387506014
 20
121.2903185388556
 30
0.0
 10
174.9206714320332
 20
121.4840522676759
 30
0.0
 10
174.5436339122144
 20
121.8197419664383
 30
0.0
 10
174.3319206057934
 20
121.9537193247511
 30
0.0
 10
173.8660306238447
 20
122.1508460694362
 30
0.0
 10
173.6201913927931
 20
122.2100634816581
 30
0.0
 10
173.2407103396985
 20
122.2372702175487
 30
0.0
 10
173.1129646110046
 20
122.2357769524069
 30
0.0
 10
172.8624983643364
 20
122.2122611465979
 30
0.0
 10
172.7386689815282
 20
122.1903419277937
 30
0.0
 10
172.3714493074296
 20
122.0935053629488
 30
0.0
 10
172.1406802893439
 20
121.989704241497
 30
0.0
 10
171.7207913279243
 20
121.710985760569
 30
0.0
 10
171.5365329530368
 20
121.5394234690653
 30
0.0
 10
171.3057845655535
 20
121.2407761077985
 30
0.0
 10
171.2367377157644
 20
121.1343085672962
 30
0.0
 10
171.118173051959
 20
120.9140252189032
 30
0.0
 10
171.0679646832093
 20
120.7993637025018
 30
0.0
 10
170.9861328308515
 20
120.560683065725
 30
0.0
 10
170.9547819319688
 20
120.436637438847
 30
0.0
 10
170.9133875539302
 20
120.1885224027386
 30
0.0
 10
170.902881778866
 20
120.0632847002501
 30
0.0
 10
170.9025788265302
 20
119.8104056446591
 30
0.0
 10
170.9130633561468
 20
119.6825259584225
 30
0.0
 10
170.9542034336082
 20
119.434103897217
 30
0.0
 10
170.9847815541568
 20
119.3123049704487
 30
0.0
 10
171.0660642625081
 20
119.0735254409743
 30
0.0
 10
171.11706514907
 20
118.9564838786677
 30
0.0
 10
171.235632197433
 20
118.7356586807418
 30
0.0
 10
171.3035209507048
 20
118.630720317179
 30
0.0
 10
171.4566713884425
 20
118.4317429839496
 30
0.0
 10
171.542227560015
 20
118.3377348587554
 30
0.0
 10
171.7249389309742
 20
118.1672421738187
 30
0.0
 10
171.822746230656
 20
118.0898039787694
 30
0.0
 10
172.031549342573
 20
117.950638082881
 30
0.0
 10
172.1431315178609
 20
117.8888562738741
 30
0.0
 10
172.3717773173599
 20
117.7857774032733
 30
0.0
 10
172.489732128331
 20
117.7437733680776
 30
0.0
 10
172.7330605733198
 20
117.6790372467808
 30
0.0
 10
172.8594044486628
 20
117.6563639842181
 30
0.0
 10
173.1105104296807
 20
117.632481188037
 30
0.0
 10
173.2361924234036
 20
117.6308778867703
 30
0.0
 10
173.4878144931955
 20
117.6483446255412
 30
0.0
 10
173.6147121134812
 20
117.6677805161812
 30
0.0
 10
173.8599026797424
 20
117.7263736875048
 30
0.0
 10
173.9790918367758
 20
117.7654365386615
 30
0.0
 10
174.2107768611307
 20
117.8629462607852
 30
0.0
 10
174.3239516654812
 20
117.9219816150738
 30
0.0
 10
174.5360300824169
 20
118.0557853319133
 30
0.0
 10
174.6358188611177
 20
118.1307805480581
 30
0.0
 10
174.8230770481067
 20
118.2969756125789
 30
0.0
 10
174.91097208505
 20
118.3888698113204
 30
0.0
 10
175.0691931606819
 20
118.5842340090348
 30
0.0
 10
175.1401311169736
 20
118.6880799627072
 30
0.0
 10
175.2027286521801
 20
118.7983080759199
 30
0.0
  0
LINE
  5
11B
330
1F
100
AcDbEntity
  8
0
  6
HIDDEN
 62
     7
370
     0
100
AcDbLine
 10
176.6027286522
 20
126.1840897451
 30
0.0
 11
176.6027286522
 21
113.6840897451
 31
0.0
  0
LINE
  5
11C
330
1F
100
AcDbEntity
  8
0
  6
HIDDEN
 62
     7
370
     0
100
AcDbLine
 10
175.7027286522
 20
112.7840897451
 30
0.0
 11
175.7027286522
 21
127.0715324272
 31
0.0
  0
SPLINE
  5
11D
330
1F
100
AcDbEntity
  8
0
  6
HIDDEN
 62
     7
370
     0
100
AcDbSpline
210
0.0
220
0.0
230
1.0
 70
     8
 71
     3
 72
    62
 73
    58
 74
     0
 42
0.00000001
 43
0.00000001
 12
1.0
 22
0.0
 32
0.0
 13
1.0
 23
0.0
 33
0.0
 40
-0.0312499999999997
 40
-0.0312499999999997
 40
0.0
 40
0.0
 40
0.0312500000000002
 40
0.0312500000000002
 40
0.0625000000000005
 40
0.0625000000000005
 40
0.0937500000000007
 40
0.0937500000000007
 40
0.125000000000001
 40
0.125000000000001
 40
0.1875000000000012
 40
0.1875000000000012
 40
0.2187500000000012
 40
0.2187500000000012
 40
0.2500000000000012
 40
0.2500000000000012
 40
0.2812500000000011
 40
0.2812500000000011
 40
0.3125000000000011
 40
0.3125000000000011
 40
0.3437500000000011
 40
0.3437500000000011
 40
0.3750000000000011
 40
0.3750000000000011
 40
0.406250000000001
 40
0.406250000000001
 40
0.437500000000001
 40
0.437500000000001
 40
0.4687500000000009
 40
0.4687500000000009
 40
0.5000000000000009
 40
0.5000000000000009
 40
0.5625000000000012
 40
0.5625000000000012
 40
0.5937500000000013
 40
0.5937500000000013
 40
0.6250000000000013
 40
0.6250000000000013
 40
0.6875000000000012
 40
0.6875000000000012
 40
0.7187500000000012
 40
0.7187500000000012
 40
0.7500000000000011
 40
0.7500000000000011
 40
0.781250000000001
 40
0.781250000000001
 40
0.8125000000000009
 40
0.8125000000000009
 40
0.8750000000000009
 40
0.8750000000000009
 40
0.9062500000000007
 40
0.9062500000000007
 40
0.9375000000000004
 40
0.9375000000000004
 40
0.9687500000000003
 40
0.9687500000000003
 40
1.0
 40
1.0
 40
1.03125
 40
1.03125
 10
198.5628871063785
 20
119.9740838121965
 30
0.0
 10
198.8425701979819
 20
119.9740838121965
 30
0.0
 10
198.9798541549395
 20
119.9887811697677
 30
0.0
 10
199.2495899097909
 20
120.0459350295696
 30
0.0
 10
199.3834719288864
 20
120.0891419893784
 30
0.0
 10
199.6372184872844
 20
120.2002787805619
 30
0.0
 10
199.757404149027
 20
120.267869996996
 30
0.0
 10
199.9848667405409
 20
120.4261387425045
 30
0.0
 10
200.0916819460025
 20
120.5169089482023
 30
0.0
 10
200.3799265433271
 20
120.8119254706013
 30
0.0
 10
200.5360472422284
 20
121.046434911737
 30
0.0
 10
200.6937627030706
 20
121.4189972611467
 30
0.0
 10
200.7346719321782
 20
121.5489682357934
 30
0.0
 10
200.7890488372005
 20
121.8103143982995
 30
0.0
 10
200.80263630509
 20
121.9405922085966
 30
0.0
 10
200.8028200700777
 20
122.2002136700042
 30
0.0
 10
200.7889340338715
 20
122.330423449026
 30
0.0
 10
200.7348469493208
 20
122.5782570204806
 30
0.0
 10
200.6948381932758
 20
122.6973232725061
 30
0.0
 10
200.5884919186935
 20
122.9261810274878
 30
0.0
 10
200.523292643776
 20
123.033244102567
 30
0.0
 10
200.3715852397378
 20
123.2313099358253
 30
0.0
 10
200.2837845650979
 20
123.323649782617
 30
0.0
 10
200.0904466557345
 20
123.4890283661807
 30
0.0
 10
199.9854982697229
 20
123.561998007127
 30
0.0
 10
199.7587702597769
 20
123.6897257790415
 30
0.0
 10
199.6359985087948
 20
123.7445786435169
 30
0.0
 10
199.3833200365695
 20
123.8316658371044
 30
0.0
 10
199.2523390650688
 20
123.8646830523403
 30
0.0
 10
198.98055069382
 20
123.9094871298456
 30
0.0
 10
198.8413170834858
 20
123.9207465288101
 30
0.0
 10
198.4281333006874
 20
123.9208849683968
 30
0.0
 10
198.1500575559726
 20
123.8756399573328
 30
0.0
 10
197.7699887279414
 20
123.7448181883377
 30
0.0
 10
197.6472204859993
 20
123.6899805787337
 30
0.0
 10
197.420534320113
 20
123.5623675883292
 30
0.0
 10
197.3153662115676
 20
123.4893330168761
 30
0.0
 10
197.0242797158374
 20
123.2403401182668
 30
0.0
 10
196.8703491936093
 20
123.0408386845602
 30
0.0
 10
196.7109175908596
 20
122.6980774687238
 30
0.0
 10
196.6709163933041
 20
122.5792268594265
 30
0.0
 10
196.6167571723746
 20
122.3319233841906
 30
0.0
 10
196.6027342658253
 20
122.2018368926062
 30
0.0
 10
196.6027230419885
 20
121.9417544362852
 30
0.0
 10
196.6162639951876
 20
121.8113709092323
 30
0.0
 10
196.6704820817974
 20
121.5500667338285
 30
0.0
 10
196.7113620364038
 20
121.4198867230516
 30
0.0
 10
196.8693301135795
 20
121.0464167773112
 30
0.0
 10
197.0253580709345
 20
120.8120610300297
 30
0.0
 10
197.3141051902597
 20
120.5165919872958
 30
0.0
 10
197.4213200249886
 20
120.4255910365517
 30
0.0
 10
197.6481734319385
 20
120.2678266050514
 30
0.0
 10
197.7681909441784
 20
120.2003007044027
 30
0.0
 10
198.0220091516326
 20
120.0891306196012
 30
0.0
 10
198.155876195684
 20
120.0459349918246
 30
0.0
 10
198.4255434375782
 20
119.988791995247
 30
0.0
 10
198.5628871063785
 20
119.9740838121965
 30
0.0
 10
198.8425701979819
 20
119.9740838121965
 30
0.0
  0
LINE
  5
11E
330
1F
100
AcDbEntity
  8
0
  6
HIDDEN
 62
     7
370
     0
100
AcDbLine
 10
201.6873497833
 20
113.6840897451
 30
0.0
 11
201.6873497833
 21
126.1840897451
 31
0.0
  0
LINE
  5
11F
330
1F
100
AcDbEntity
  8
0
  6
HIDDEN
 62
     7
370
     0
100
AcDbLine
 10
221.017656059
 20
103.1678535545
 30
0.0
 11
221.0414852997
 21
103.1297187978
 31
0.0
  0
LINE
  5
120
330
1F
100
AcDbEntity
  8
0
  6
HIDDEN
 62
     7
370
     0
100
AcDbLine
 10
221.0414852997
 20
103.1297187978
 30
0.0
 11
220.8890296771
 21
102.87090051
 31
0.0
  0
LINE
  5
121
330
1F
100
AcDbEntity
  8
0
  6
HIDDEN
 62
     7
370
     0
100
AcDbLine
 10
220.6928355951
 20
103.1848766737
 30
0.0
 11
220.8890296771
 21
102.87090051
 31
0.0
  0
LINE
  5
122
330
1F
100
AcDbEntity
  8
0
  6
HIDDEN
 62
     7
370
     0
100
AcDbLine
 10
221.0414852997
 20
103.1297187978
 30
0.0
 11
228.5604346025
 21
102.7356673623
 31
0.0
  0
ELLIPSE
  5
123
330
1F
100
AcDbEntity
  8
0
  6
HIDDEN
 62
     7
370
     0
100
AcDbEllipse
 10
252.8821389268
 20
110.6222331871
 30
0.0
 11
24.88519423683487
 21
14.22716407804083
 31
0.0
210
0.0
220
0.0
230
1.0
 40
0.373927429
 41
2.632422563431419
 42
2.649779374011344
  0
LINE
  5
124
330
1F
100
AcDbEntity
  8
0
  6
HIDDEN
 62
     7
370
     0
100
AcDbLine
 10
228.4341842474
 20
102.4754757146
 30
0.0
 11
220.8890296771
 21
102.87090051
 31
0.0
  0
LINE
  5
125
330
1F
100
AcDbEntity
  8
0
  6
HIDDEN
 62
     7
370
     0
100
AcDbLine
 10
223.3408750134
 20
93.7266296865
 30
0.0
 11
217.6210376979
 21
102.8802828431
 31
0.0
  0
LINE
  5
126
330
1F
100
AcDbEntity
  8
0
  6
HIDDEN
 62
     7
370
     0
100
AcDbLine
 10
223.3408750134
 20
93.7266296865
 30
0.0
 11
223.2959689585
 21
93.7289831131
 31
0.0
  0
LINE
  5
127
330
1F
100
AcDbEntity
  8
0
  6
HIDDEN
 62
     7
370
     0
100
AcDbLine
 10
224.12556655
 20
118.359273799
 30
0.0
 11
226.6058146802
 21
118.359273799
 31
0.0
  0
ELLIPSE
  5
128
330
1F
100
AcDbEntity
  8
0
  6
HIDDEN
 62
     7
370
     0
100
AcDbEllipse
 10
225.5316709823
 20
119.9340897451
 30
0.0
 11
-14.58391191010043
 21
20.46533752638399
 31
0.0
210
0.0
220
0.0
230
1.0
 40
0.0817078932
 41
6.239659352056674
 42
7.795821010122411
  0
LINE
  5
129
330
1F
100
AcDbEntity
  8
0
  6
HIDDEN
 62
     7
370
     0
100
AcDbLine
 10
207.801427068
 20
140.4318945056
 30
0.0
 11
207.801427068
 21
119.9340897451
 31
0.0
  0
LINE
  5
12A
330
1F
100
AcDbEntity
  8
0
  6
HIDDEN
 62
     7
370
     0
100
AcDbLine
 10
217.7301560215
 20
103.2084553069
 30
0.0
 11
223.5310302086
 21
93.9251160467
 31
0.0
  0
ELLIPSE
  5
12B
330
1F
100
AcDbEntity
  8
0
  6
HIDDEN
 62
     7
370
     0
100
AcDbEllipse
 10
206.9953632379
 20
119.5837010134
 30
0.0
 11
-16.3975827376911
 21
25.83055662471857
 31
0.0
210
0.0
220
0.0
230
1.0
 40
0.1000778042
 41
3.122593344088086
 42
3.20981946334871
  0
SPLINE
  5
12C
330
1F
100
AcDbEntity
  8
0
  6
HIDDEN
 62
     7
370
     0
100
AcDbSpline
210
0.0
220
0.0
230
1.0
 70
     8
 71
     3
 72
    20
 73
    16
 74
     0
 42
0.00000001
 43
0.00000001
 12
1.0
 22
0.0
 32
0.0
 13
1.0
 23
0.0
 33
0.0
 40
0.0
 40
0.0
 40
0.0
 40
0.0
 40
0.2499999999999999
 40
0.2499999999999999
 40
0.3125
 40
0.3125
 40
0.375
 40
0.375
 40
0.5
 40
0.5
 40
0.625
 40
0.625
 40
0.7499999999999999
 40
0.7499999999999999
 40
1.0
 40
1.0
 40
1.0
 40
1.0
 10
208.8804157043809
 20
106.7100512783116
 30
0.0
 10
208.9016134018723
 20
104.9301785313449
 30
0.0
 10
208.9241876596984
 20
103.3157446041858
 30
0.0
 10
208.9539252927767
 20
101.4977657461377
 30
0.0
 10
208.9599499528861
 20
101.1443165087301
 30
0.0
 10
208.9721530089859
 20
100.4581235525001
 30
0.0
 10
208.9783481665227
 20
100.1245919509449
 30
0.0
 10
208.9969183837071
 20
99.16836595552512
 30
0.0
 10
209.009341543686
 20
98.58599496440834
 30
0.0
 10
209.0342464990975
 20
97.52846844956849
 30
0.0
 10
209.046728359715
 20
97.05331706741596
 30
0.0
 10
209.0717308884395
 20
96.2121332559831
 30
0.0
 10
209.0843138529741
 20
95.84511480407319
 30
0.0
 10
209.1211632015992
 20
94.93807272035592
 30
0.0
 10
209.1447970951085
 20
94.57832665524379
 30
0.0
 10
209.1674540583393
 20
94.46942720361905
 30
0.0
  0
LINE
  5
12D
330
1F
100
AcDbEntity
  8
0
  6
HIDDEN
 62
     7
370
     0
100
AcDbLine
 10
228.2445445077
 20
102.4854143122
 30
0.0
 11
228.4341842474
 21
102.4754757146
 31
0.0
  0
LINE
  5
12E
330
1F
100
AcDbEntity
  8
0
  6
HIDDEN
 62
     7
370
     0
100
AcDbLine
 10
223.3647681361
 20
94.1911909821
 30
0.0
 11
223.5310302086
 21
93.9251160467
 31
0.0
  0
LINE
  5
12F
330
1F
100
AcDbEntity
  8
0
  6
HIDDEN
 62
     7
370
     0
100
AcDbLine
 10
183.0027286522
 20
133.9541885296
 30
0.0
 11
183.0027286522
 21
133.8543261334
 31
0.0
  0
SPLINE
  5
130
330
1F
100
AcDbEntity
  8
0
  6
HIDDEN
 62
     7
370
     0
100
AcDbSpline
210
0.0
220
0.0
230
1.0
 70
     8
 71
     3
 72
    24
 73
    20
 74
     0
 42
0.00000001
 43
0.00000001
 12
1.0
 22
0.0
 32
0.0
 13
1.0
 23
0.0
 33
0.0
 40
0.0
 40
0.0
 40
0.0
 40
0.0
 40
0.2499999999999968
 40
0.2499999999999968
 40
0.3749999999999948
 40
0.3749999999999948
 40
0.4374999999999931
 40
0.4374999999999931
 40
0.4999999999999913
 40
0.4999999999999913
 40
0.53124999999999
 40
0.53124999999999
 40
0.5624999999999888
 40
0.5624999999999888
 40
0.6249999999999906
 40
0.6249999999999906
 40
0.7499999999999938
 40
0.7499999999999938
 40
1.0
 40
1.0
 40
1.0
 40
1.0
 10
183.2076886742405
 20
133.6731742762399
 30
0.0
 10
183.1919220859421
 20
133.6589533052516
 30
0.0
 10
183.1753105529875
 20
133.6447230149168
 30
0.0
 10
183.1467842050295
 20
133.6259259596953
 30
0.0
 10
183.1366987712395
 20
133.6200375393541
 30
0.0
 10
183.1192160007046
 20
133.6135001445517
 30
0.0
 10
183.113008344259
 20
133.6116889305506
 30
0.0
 10
183.0987368440138
 20
133.6100831280441
 30
0.0
 10
183.0911667735108
 20
133.609530350658
 30
0.0
 10
183.0737704440755
 20
133.6167290953708
 30
0.0
 10
183.0653111711154
 20
133.6218208441185
 30
0.0
 10
183.0492502065679
 20
133.6396357765977
 30
0.0
 10
183.0444169707216
 20
133.64815819146
 30
0.0
 10
183.0329910509863
 20
133.6700546281087
 30
0.0
 10
183.0289696951039
 20
133.6817951509147
 30
0.0
 10
183.0182092000728
 20
133.715845414868
 30
0.0
 10
183.0143348910119
 20
133.7354204038967
 30
0.0
 10
183.0051620188847
 20
133.7912687125779
 30
0.0
 10
183.00312964817
 20
133.8240464736067
 30
0.0
 10
183.0027286521801
 20
133.8543261333947
 30
0.0
  0
LINE
  5
131
330
1F
100
AcDbEntity
  8
0
  6
HIDDEN
 62
     7
370
     0
100
AcDbLine
 10
162.2027286522
 20
133.4316201309
 30
0.0
 11
162.2027286522
 21
129.5917006648
 31
0.0
  0
LINE
  5
132
330
1F
100
AcDbEntity
  8
0
  6
HIDDEN
 62
     7
370
     0
100
AcDbLine
 10
183.0027286522
 20
130.9081277373
 30
0.0
 11
183.0027286522
 21
129.8529848642
 31
0.0
  0
SPLINE
  5
133
330
1F
100
AcDbEntity
  8
0
  6
HIDDEN
 62
     7
370
     0
100
AcDbSpline
210
0.0
220
0.0
230
1.0
 70
     8
 71
     3
 72
    16
 73
    12
 74
     0
 42
0.00000001
 43
0.00000001
 12
1.0
 22
0.0
 32
0.0
 13
1.0
 23
0.0
 33
0.0
 40
0.0
 40
0.0
 40
0.0
 40
0.0
 40
0.2499999999999998
 40
0.2499999999999998
 40
0.3749999999999998
 40
0.3749999999999998
 40
0.4999999999999999
 40
0.4999999999999999
 40
0.7499999999999999
 40
0.7499999999999999
 40
1.0
 40
1.0
 40
1.0
 40
1.0
 10
183.0027286521799
 20
133.8543261333948
 30
0.0
 10
182.9221913202807
 20
133.7742574472424
 30
0.0
 10
182.8621539762533
 20
133.6503929557522
 30
0.0
 10
182.8014162690997
 20
133.3997121318201
 30
0.0
 10
182.7860938939868
 20
133.3052735275106
 30
0.0
 10
182.7655110846826
 20
133.0939624598919
 30
0.0
 10
182.7603114876569
 20
132.9766730051383
 30
0.0
 10
182.7602578344768
 20
132.598637333383
 30
0.0
 10
182.7804553779545
 20
132.3098601796389
 30
0.0
 10
182.8611334663125
 20
131.6600203165001
 30
0.0
 10
182.9221796309199
 20
131.2971913826074
 30
0.0
 10
183.002728652178
 20
130.9081277373357
 30
0.0
  0
SPLINE
  5
134
330
1F
100
AcDbEntity
  8
0
  6
HIDDEN
 62
     7
370
     0
100
AcDbSpline
210
0.0
220
0.0
230
1.0
 70
     8
 71
     3
 72
     8
 73
     4
 74
     0
 42
0.00000001
 43
0.00000001
 12
1.0
 22
0.0
 32
0.0
 13
1.0
 23
0.0
 33
0.0
 40
0.0
 40
0.0
 40
0.0
 40
0.0
 40
1.0
 40
1.0
 40
1.0
 40
1.0
 10
183.3814083086205
 20
133.7591537530851
 30
0.0
 10
183.3163031470064
 20
133.7474327234265
 30
0.0
 10
183.2584158174464
 20
133.7189285775637
 30
0.0
 10
183.2076886742404
 20
133.6731742762399
 30
0.0
  0
LINE
  5
135
330
1F
100
AcDbEntity
  8
0
  6
HIDDEN
 62
     7
370
     0
100
AcDbLine
 10
160.7027286522
 20
132.5655947271
 30
0.0
 11
160.7027286522
 21
129.1586879629
 31
0.0
  0
LINE
  5
136
330
1F
100
AcDbEntity
  8
0
  6
HIDDEN
 62
     7
370
     0
100
AcDbLine
 10
183.0027286522
 20
110.015194626
 30
0.0
 11
183.0027286522
 21
108.9600517528
 31
0.0
  0
LINE
  5
137
330
1F
100
AcDbEntity
  8
0
  6
HIDDEN
 62
     7
370
     0
100
AcDbLine
 10
162.2027286522
 20
110.2764788253
 30
0.0
 11
162.2027286522
 21
106.4365593592
 31
0.0
  0
LINE
  5
138
330
1F
100
AcDbEntity
  8
0
  6
HIDDEN
 62
     7
370
     0
100
AcDbLine
 10
183.0027286522
 20
106.0138533568
 30
0.0
 11
183.0027286522
 21
105.9139909605
 31
0.0
  0
SPLINE
  5
139
330
1F
100
AcDbEntity
  8
0
  6
HIDDEN
 62
     7
370
     0
100
AcDbSpline
210
0.0
220
0.0
230
1.0
 70
     8
 71
     3
 72
    16
 73
    12
 74
     0
 42
0.00000001
 43
0.00000001
 12
1.0
 22
0.0
 32
0.0
 13
1.0
 23
0.0
 33
0.0
 40
0.0
 40
0.0
 40
0.0
 40
0.0
 40
0.2500000000000001
 40
0.2500000000000001
 40
0.3750000000000001
 40
0.3750000000000001
 40
0.5000000000000001
 40
0.5000000000000001
 40
0.7500000000000001
 40
0.7500000000000001
 40
1.0
 40
1.0
 40
1.0
 40
1.0
 10
183.0027286521799
 20
108.9600517528335
 30
0.0
 10
182.9221913202808
 20
108.5710445688895
 30
0.0
 10
182.8621539762536
 20
108.2145441272651
 30
0.0
 10
182.8014162690999
 20
107.7280417420778
 30
0.0
 10
182.786093893987
 20
107.5739628012244
 30
0.0
 10
182.7655110846827
 20
107.2824932427317
 30
0.0
 10
182.760311487657
 20
107.1449233588328
 30
0.0
 10
182.7602578344767
 20
106.7666785236436
 30
0.0
 10
182.7804553779542
 20
106.5567974550915
 30
0.0
 10
182.8611334663115
 20
106.2202181561797
 30
0.0
 10
182.9221796309186
 20
106.0939336642612
 30
0.0
 10
183.0027286521763
 20
106.0138533567687
 30
0.0
  0
LINE
  5
13A
330
1F
100
AcDbEntity
  8
0
  6
HIDDEN
 62
     7
370
     0
100
AcDbLine
 10
160.7027286522
 20
110.7094915272
 30
0.0
 11
160.7027286522
 21
107.302584763
 31
0.0
  0
SPLINE
  5
13B
330
1F
100
AcDbEntity
  8
0
  6
HIDDEN
 62
     7
370
     0
100
AcDbSpline
210
0.0
220
0.0
230
1.0
 70
     8
 71
     3
 72
    24
 73
    20
 74
     0
 42
0.00000001
 43
0.00000001
 12
1.0
 22
0.0
 32
0.0
 13
1.0
 23
0.0
 33
0.0
 40
0.0
 40
0.0
 40
0.0
 40
0.0
 40
0.2499999999999956
 40
0.2499999999999956
 40
0.3749999999999934
 40
0.3749999999999934
 40
0.4374999999999933
 40
0.4374999999999933
 40
0.4687499999999927
 40
0.4687499999999927
 40
0.4999999999999921
 40
0.4999999999999921
 40
0.5624999999999919
 40
0.5624999999999919
 40
0.6249999999999917
 40
0.6249999999999917
 40
0.7499999999999937
 40
0.7499999999999937
 40
1.0
 40
1.0
 40
1.0
 40
1.0
 10
183.0027286521801
 20
106.0138533567725
 30
0.0
 10
183.0031315628158
 20
106.0442775936105
 30
0.0
 10
183.0051755421565
 20
106.0771356941646
 30
0.0
 10
183.0144127849825
 20
106.1331610613182
 30
0.0
 10
183.0182998479631
 20
106.1527721145036
 30
0.0
 10
183.0292037393697
 20
106.1870463979332
 30
0.0
 10
183.0333457851202
 20
106.1991088234054
 30
0.0
 10
183.0452408588729
 20
106.2214279881048
 30
0.0
 10
183.0504879231817
 20
106.2303945004651
 30
0.0
 10
183.0673549895608
 20
106.2480440649914
 30
0.0
 10
183.0751773970859
 20
106.2521883491312
 30
0.0
 10
183.0921261977075
 20
106.2586758903053
 30
0.0
 10
183.0995825489255
 20
106.2580790089336
 30
0.0
 10
183.1136424521179
 20
106.2563327449616
 30
0.0
 10
183.1197748372539
 20
106.2545020570631
 30
0.0
 10
183.137069599777
 20
106.2479356474903
 30
0.0
 10
183.147086918186
 20
106.2420704323316
 30
0.0
 10
183.1754582524289
 20
106.2233257483013
 30
0.0
 10
183.1919936900732
 20
106.2091616002146
 30
0.0
 10
183.2076886742377
 20
106.1950052139224
 30
0.0
  0
SPLINE
  5
13C
330
1F
100
AcDbEntity
  8
0
  6
HIDDEN
 62
     7
370
     0
100
AcDbSpline
210
0.0
220
0.0
230
1.0
 70
     8
 71
     3
 72
     8
 73
     4
 74
     0
 42
0.00000001
 43
0.00000001
 12
1.0
 22
0.0
 32
0.0
 13
1.0
 23
0.0
 33
0.0
 40
0.0
 40
0.0
 40
0.0
 40
0.0
 40
1.0
 40
1.0
 40
1.0
 40
1.0
 10
183.2076886742377
 20
106.1950052139223
 30
0.0
 10
183.2584158174444
 20
106.1492509125971
 30
0.0
 10
183.3163031470052
 20
106.1207467667336
 30
0.0
 10
183.3814083086205
 20
106.1090257370748
 30
0.0
  0
SPLINE
  5
13D
330
1F
100
AcDbEntity
  8
0
  6
HIDDEN
 62
     7
370
     0
100
AcDbSpline
210
0.0
220
0.0
230
1.0
 70
     8
 71
     3
 72
    23
 73
    19
 74
     0
 42
0.00000001
 43
0.00000001
 12
1.0
 22
0.0
 32
0.0
 13
1.0
 23
0.0
 33
0.0
 40
0.0
 40
0.0
 40
0.0
 40
0.0
 40
0.0334871288824296
 40
0.066570722662558
 40
0.0992518879461456
 40
0.1315317727330944
 40
0.1971104990933972
 40
0.2612437362061137
 40
0.3890408617728904
 40
0.5149076184274886
 40
0.638851513387013
 40
0.7003742839384449
 40
0.7609514277876328
 40
0.8215327096393233
 40
0.8812836030489735
 40
0.921173597697011
 40
0.9607427235943061
 40
1.0
 40
1.0
 40
1.0
 40
1.0
 10
226.8649872466899
 20
101.2855107093846
 30
0.0
 10
226.9529680686624
 20
101.164803632865
 30
0.0
 10
227.1278695037698
 20
100.924844054885
 30
0.0
 10
227.3855533271185
 20
100.5739883562423
 30
0.0
 10
227.6377819997913
 20
100.2325270062994
 30
0.0
 10
227.970133138365
 20
99.78548221876962
 30
0.0
 10
228.3759656540783
 20
99.24496032387994
 30
0.0
 10
229.0059211185406
 20
98.41778481794434
 30
0.0
 10
229.7538399929809
 20
97.45827264072243
 30
0.0
 10
230.588563041423
 20
96.42598200859443
 30
0.0
 10
231.2269987998385
 20
95.6713659033688
 30
0.0
 10
231.6983033844828
 20
95.13741071843779
 30
0.0
 10
232.0311586807236
 20
94.77268516508171
 30
0.0
 10
232.3429955347362
 20
94.4440623697611
 30
0.0
 10
232.6028255507079
 20
94.18261855333151
 30
0.0
 10
232.8159395998463
 20
93.97802164756247
 30
0.0
 10
232.9896271044467
 20
93.81784400849031
 30
0.0
 10
233.0974345313077
 20
93.7246983074751
 30
0.0
 10
233.1511249932749
 20
93.67830970639827
 30
0.0
  0
SPLINE
  5
13E
330
1F
100
AcDbEntity
  8
0
  6
HIDDEN
 62
     7
370
     0
100
AcDbSpline
210
0.0
220
0.0
230
1.0
 70
     8
 71
     3
 72
    20
 73
    16
 74
     0
 42
0.00000001
 43
0.00000001
 12
1.0
 22
0.0
 32
0.0
 13
1.0
 23
0.0
 33
0.0
 40
0.0
 40
0.0
 40
0.0
 40
0.0
 40
0.0196680884964087
 40
0.0393610226418963
 40
0.0788738003685284
 40
0.1185996763421464
 40
0.2388223437599511
 40
0.3608499996382876
 40
0.4847836924480916
 40
0.610676830226593
 40
0.7385361033143532
 40
0.8031893700650744
 40
0.8683444587672356
 40
0.9339257650271925
 40
1.0
 40
1.0
 40
1.0
 40
1.0
 10
233.4206928525381
 20
94.15119876972972
 30
0.0
 10
233.3939423283234
 20
94.17390681975807
 30
0.0
 10
233.3404074873809
 20
94.2193516056854
 30
0.0
 10
233.2293743662509
 20
94.31691835609132
 30
0.0
 10
233.0848129141695
 20
94.44849373554523
 30
0.0
 10
232.778669018736
 20
94.73951474428547
 30
0.0
 10
232.3055558857819
 20
95.22199438533788
 30
0.0
 10
231.6197736708897
 20
95.97793056023029
 30
0.0
 10
230.8575300933228
 20
96.86801090107801
 30
0.0
 10
230.0233348309577
 20
97.8869436253993
 30
0.0
 10
229.2749611505305
 20
98.8350811818191
 30
0.0
 10
228.6456420062128
 20
99.65104944365935
 30
0.0
 10
228.156863808487
 20
100.2939696095079
 30
0.0
 10
227.6545394046703
 20
100.9628337835519
 30
0.0
 10
227.3102563702251
 20
101.4283969080844
 30
0.0
 10
227.1374703416078
 20
101.6620500228489
 30
0.0
  0
CIRCLE
  5
13F
330
1F
100
AcDbEntity
  8
0
  6
HIDDEN
 62
     7
370
     0
100
AcDbCircle
 10
226.0517353166
 20
98.1942962499
 30
0.0
 40
2.400000000000006
  0
LINE
  5
140
330
1F
100
AcDbEntity
  8
0
  6
HIDDEN
 62
     7
370
     0
100
AcDbLine
 10
228.7273920325
 20
101.6620500228
 30
0.0
 11
233.4206928056
 21
94.1511987404
 31
0.0
  0
LINE
  5
141
330
1F
100
AcDbEntity
  8
0
  6
HIDDEN
 62
     7
370
     0
100
AcDbLine
 10
233.1511249214
 20
93.6783111967
 30
0.0
 11
233.4206926989
 21
94.1511988573
 31
0.0
  0
ARC
  5
142
330
1F
100
AcDbEntity
  8
0
  6
HIDDEN
 62
     7
370
     0
100
AcDbCircle
 10
218.5051265828
 20
104.3270930522
 30
0.0
 40
1.250000000000035
100
AcDbArc
 50
32.0
 51
212.0
  0
LINE
  5
143
330
1F
100
AcDbEntity
  8
0
  6
HIDDEN
 62
     7
370
     0
100
AcDbLine
 10
220.8890296771
 20
102.87090051
 30
0.0
 11
219.565186703
 21
104.9894921325
 31
0.0
  0
LINE
  5
144
330
1F
100
AcDbEntity
  8
0
  6
HIDDEN
 62
     7
370
     0
100
AcDbLine
 10
217.4450664626
 20
103.6646939719
 30
0.0
 11
223.3647681361
 21
94.1911909821
 31
0.0
  0
LINE
  5
145
330
1F
100
AcDbEntity
  8
0
  6
HIDDEN
 62
     7
370
     0
100
AcDbLine
 10
228.2445445077
 20
102.4854143122
 30
0.0
 11
220.8890296771
 21
102.87090051
 31
0.0
  0
LINE
  5
146
330
1F
100
AcDbEntity
  8
0
  6
HIDDEN
 62
     7
370
     0
100
AcDbLine
 10
223.3647681361
 20
94.1911909821
 30
0.0
 11
233.1511248461
 21
93.6783097597
 31
0.0
  0
ELLIPSE
  5
147
330
1F
100
AcDbEntity
  8
0
  6
HIDDEN
 62
     7
370
     0
100
AcDbEllipse
 10
243.2828623745
 20
110.6222331871
 30
0.0
 11
17.12766703280045
 21
0.0
 31
1.239008895481675E-13
210
-7.233961829762939E-15
220
0.0
230
1.0
 40
0.9925461516
 41
3.640693660599828
 42
3.696741263369101
  0
CIRCLE
  5
148
330
1F
100
AcDbEntity
  8
0
  6
HIDDEN
 62
     7
370
     0
100
AcDbCircle
 10
226.0517353166
 20
98.1942962499
 30
0.0
 40
1.650000000000006
  0
LWPOLYLINE
  5
149
330
1F
100
AcDbEntity
  8
0
  6
HIDDEN
 62
     7
370
     0
100
AcDbPolyline
 90
       30
 70
   128
 43
0.0
 10
198.7027286522
 20
122.666814674
 10
199.1541665766
 20
122.7129506057
 10
199.5844957655
 20
122.8492011358
 10
199.9735945041
 20
123.0691953411
 10
200.3032689679
 20
123.3626465369
 10
200.5581039455
 20
123.7158332716
 10
200.7261836365
 20
124.1122409259
 10
200.7996488213
 20
124.5333339185
 10
200.7750643495
 20
124.9594224091
 10
200.6535797638
 20
125.3705829734
 10
200.4408755483
 20
125.7475902004
 10
200.1468975158
 20
126.0728156512
 10
199.7853917523
 20
126.3310521452
 10
199.3732618655
 20
126.5102248309
 10
198.9297785909
 20
126.6019557926
 10
198.4756787135
 20
126.6019557926
 10
198.0321954389
 20
126.5102248309
 10
197.6200655521
 20
126.3310521452
 10
197.2585597886
 20
126.0728156512
 10
196.9645817561
 20
125.7475902004
 10
196.7518775406
 20
125.3705829734
 10
196.6303929548
 20
124.9594224091
 10
196.6058084831
 20
124.5333339185
 10
196.6792736679
 20
124.1122409259
 10
196.8473533588
 20
123.7158332716
 10
197.1021883364
 20
123.3626465369
 10
197.4318628003
 20
123.0691953411
 10
197.8209615389
 20
122.8492011358
 10
198.2512907277
 20
122.7129506057
 10
198.7027286522
 20
122.666814674
  0
SPLINE
  5
14A
330
1F
100
AcDbEntity
  8
0
  6
HIDDEN
 62
     7
370
     0
100
AcDbSpline
210
0.0
220
0.0
230
1.0
 70
     8
 71
     3
 72
    32
 73
    28
 74
     0
 42
0.00000001
 43
0.00000001
 12
1.0
 22
0.0
 32
0.0
 13
1.0
 23
0.0
 33
0.0
 40
0.0
 40
0.0
 40
0.0
 40
0.0
 40
0.1250000000000025
 40
0.1250000000000025
 40
0.2500000000000049
 40
0.2500000000000049
 40
0.3125000000000054
 40
0.3125000000000054
 40
0.3750000000000058
 40
0.3750000000000058
 40
0.4062500000000052
 40
0.4062500000000052
 40
0.4375000000000046
 40
0.4375000000000046
 40
0.5000000000000037
 40
0.5000000000000037
 40
0.5625000000000028
 40
0.5625000000000028
 40
0.6250000000000019
 40
0.6250000000000019
 40
0.687500000000001
 40
0.687500000000001
 40
0.7500000000000001
 40
0.7500000000000001
 40
0.8750000000000001
 40
0.8750000000000001
 40
1.0
 40
1.0
 40
1.0
 40
1.0
 10
224.4029155755201
 20
98.25669385741766
 30
0.0
 10
224.3960056059083
 20
98.0741020119387
 30
0.0
 10
224.4188840647829
 20
97.89792934988373
 30
0.0
 10
224.5193436455496
 20
97.55726225044121
 30
0.0
 10
224.5974495579829
 20
97.39137852175534
 30
0.0
 10
224.765542248793
 20
97.15627487306917
 30
0.0
 10
224.8298344509428
 20
97.08055477187625
 30
0.0
 10
224.980409923161
 20
96.93504103083946
 30
0.0
 10
225.0660764364175
 20
96.86586664602392
 30
0.0
 10
225.2143978580586
 20
96.77134047384492
 30
0.0
 10
225.2672888202565
 20
96.7412819713666
 30
0.0
 10
225.3823490577659
 20
96.68481659262423
 30
0.0
 10
225.4452789520901
 20
96.65816216112468
 30
0.0
 10
225.6456893914417
 20
96.58880076567341
 30
0.0
 10
225.7990079343751
 20
96.55600705204962
 30
0.0
 10
226.1170065859829
 20
96.53791396102085
 30
0.0
 10
226.2755948609801
 20
96.55343836275813
 30
0.0
 10
226.5517401504007
 20
96.61552366729508
 30
0.0
 10
226.674075952528
 20
96.66155190314703
 30
0.0
 10
226.8872312350281
 20
96.76651486960205
 30
0.0
 10
226.9810276925568
 20
96.82685024250632
 30
0.0
 10
227.1466394584053
 20
96.9554751072761
 30
0.0
 10
227.2185971258147
 20
97.02375900320078
 30
0.0
 10
227.4104867011499
 20
97.23868629495254
 30
0.0
 10
227.507180013548
 20
97.39664024420858
 30
0.0
 10
227.6444265355174
 20
97.72748895508998
 30
0.0
 10
227.6858018824385
 20
97.90125422455722
 30
0.0
 10
227.6980449766449
 20
98.08400344305444
 30
0.0
  0
LINE
  5
14B
330
1F
100
AcDbEntity
  8
0
  6
HIDDEN
 62
     7
370
     0
100
AcDbLine
 10
160.7027286522
 20
118.0838759314
 30
0.0
 11
160.7027286522
 21
110.7094915272
 31
0.0
  0
LINE
  5
14C
330
1F
100
AcDbEntity
  8
0
  6
HIDDEN
 62
     7
370
     0
100
AcDbLine
 10
160.7027286522
 20
129.1586879629
 30
0.0
 11
160.7027286522
 21
121.7843035587
 31
0.0
  0
SPLINE
  5
14D
330
1F
100
AcDbEntity
  8
0
  6
HIDDEN
 62
     7
370
     0
100
AcDbSpline
210
0.0
220
0.0
230
1.0
 70
     8
 71
     3
 72
    24
 73
    20
 74
     0
 42
0.00000001
 43
0.00000001
 12
1.0
 22
0.0
 32
0.0
 13
1.0
 23
0.0
 33
0.0
 40
0.0
 40
0.0
 40
0.0
 40
0.0
 40
0.2499999999999996
 40
0.2499999999999996
 40
0.3749999999999993
 40
0.3749999999999993
 40
0.437499999999998
 40
0.437499999999998
 40
0.4999999999999967
 40
0.4999999999999967
 40
0.5312499999999981
 40
0.5312499999999981
 40
0.5624999999999994
 40
0.5624999999999994
 40
0.6249999999999994
 40
0.6249999999999994
 40
0.7500000000000018
 40
0.7500000000000018
 40
1.0
 40
1.0
 40
1.0
 40
1.0
 10
183.2076886742405
 20
109.1414960182817
 30
0.0
 10
183.1919197968831
 20
109.0676373263521
 30
0.0
 10
183.1753058150331
 20
108.9939259376164
 30
0.0
 10
183.146774149028
 20
108.8823791139943
 30
0.0
 10
183.1366867342093
 20
108.8450075408658
 30
0.0
 10
183.119199173755
 20
108.7881080432281
 30
0.0
 10
183.1129896119717
 20
108.7690049430828
 30
0.0
 10
183.0987120583191
 20
108.7301314288473
 30
0.0
 10
183.0911405105237
 20
108.7102067694139
 30
0.0
 10
183.0737229268454
 20
108.6801345513865
 30
0.0
 10
183.0652404302004
 20
108.6684531725834
 30
0.0
 10
183.0492021183285
 20
108.6611916618347
 30
0.0
 10
183.044381570125
 20
108.6647699088445
 30
0.0
 10
183.0329723455771
 20
108.6765307640762
 30
0.0
 10
183.0289518651195
 20
108.6881964141267
 30
0.0
 10
183.0181980102992
 20
108.7247317442403
 30
0.0
 10
183.0143253290171
 20
108.7521274775639
 30
0.0
 10
183.0051571791794
 20
108.8368534693198
 30
0.0
 10
183.0031286738103
 20
108.8976855914919
 30
0.0
 10
183.0027286521801
 20
108.9600517528336
 30
0.0
  0
SPLINE
  5
14E
330
1F
100
AcDbEntity
  8
0
  6
HIDDEN
 62
     7
370
     0
100
AcDbSpline
210
0.0
220
0.0
230
1.0
 70
     8
 71
     3
 72
    24
 73
    20
 74
     0
 42
0.00000001
 43
0.00000001
 12
1.0
 22
0.0
 32
0.0
 13
1.0
 23
0.0
 33
0.0
 40
0.0
 40
0.0
 40
0.0
 40
0.0
 40
0.2500000000000143
 40
0.2500000000000143
 40
0.3750000000000219
 40
0.3750000000000219
 40
0.4375000000000245
 40
0.4375000000000245
 40
0.468750000000026
 40
0.468750000000026
 40
0.5000000000000274
 40
0.5000000000000274
 40
0.5625000000000262
 40
0.5625000000000262
 40
0.625000000000025
 40
0.625000000000025
 40
0.7500000000000163
 40
0.7500000000000163
 40
1.0
 40
1.0
 40
1.0
 40
1.0
 10
183.0027286521765
 20
130.9081277373371
 30
0.0
 10
183.0031333217523
 20
130.9712185458297
 30
0.0
 10
183.0051767685667
 20
131.0324042683322
 30
0.0
 10
183.014576333821
 20
131.1179040008339
 30
0.0
 10
183.0185272273497
 20
131.145484384275
 30
0.0
 10
183.0296795356466
 20
131.1819384663866
 30
0.0
 10
183.0339010765732
 20
131.1937968880811
 30
0.0
 10
183.0461087981368
 20
131.2044169394564
 30
0.0
 10
183.051899568389
 20
131.2072503066787
 30
0.0
 10
183.0688210814988
 20
131.1959357196804
 30
0.0
 10
183.0762271974486
 20
131.1841548339267
 30
0.0
 10
183.0926844506918
 20
131.154113992697
 30
0.0
 10
183.1001409686028
 20
131.1344010390839
 30
0.0
 10
183.1140488978774
 20
131.0959989730238
 30
0.0
 10
183.1201408437724
 20
131.0771173231124
 30
0.0
 10
183.1373351361234
 20
131.0208164125808
 30
0.0
 10
183.147320086327
 20
130.9837403347712
 30
0.0
 10
183.1755661314259
 20
130.8730816638813
 30
0.0
 10
183.192045668387
 20
130.7999526034728
 30
0.0
 10
183.2076886742467
 20
130.7266834718489
 30
0.0
  0
SPLINE
  5
14F
330
1F
100
AcDbEntity
  8
0
  6
HIDDEN
 62
     7
370
     0
100
AcDbSpline
210
0.0
220
0.0
230
1.0
 70
     8
 71
     3
 72
     8
 73
     4
 74
     0
 42
0.00000001
 43
0.00000001
 12
1.0
 22
0.0
 32
0.0
 13
1.0
 23
0.0
 33
0.0
 40
0.0
 40
0.0
 40
0.0
 40
0.0
 40
1.0
 40
1.0
 40
1.0
 40
1.0
 10
183.3814083086205
 20
109.8805704274732
 30
0.0
 10
183.3163031470064
 20
109.6255451922675
 30
0.0
 10
183.2584158174464
 20
109.3790931761262
 30
0.0
 10
183.2076886742404
 20
109.1414960182817
 30
0.0
  0
SPLINE
  5
150
330
1F
100
AcDbEntity
  8
0
  6
HIDDEN
 62
     7
370
     0
100
AcDbSpline
210
0.0
220
0.0
230
1.0
 70
     8
 71
     3
 72
     8
 73
     4
 74
     0
 42
0.00000001
 43
0.00000001
 12
1.0
 22
0.0
 32
0.0
 13
1.0
 23
0.0
 33
0.0
 40
0.0
 40
0.0
 40
0.0
 40
0.0
 40
1.0
 40
1.0
 40
1.0
 40
1.0
 10
183.2076886742467
 20
130.7266834718489
 30
0.0
 10
183.2584158174512
 20
130.4890863140134
 30
0.0
 10
183.3163031470091
 20
130.2426342978819
 30
0.0
 10
183.3814083086205
 20
129.9876090626867
 30
0.0
  0
LINE
  5
151
330
1F
100
AcDbEntity
  8
0
  6
HIDDEN
 62
     7
370
     0
100
AcDbLine
 10
162.2027286522
 20
129.5917006648
 30
0.0
 11
162.2027286522
 21
122.4891179821
 31
0.0
  0
LINE
  5
152
330
1F
100
AcDbEntity
  8
0
  6
HIDDEN
 62
     7
370
     0
100
AcDbLine
 10
162.2027286522
 20
117.379061508
 30
0.0
 11
162.2027286522
 21
110.2764788253
 31
0.0
  0
LINE
  5
153
330
1F
100
AcDbEntity
  8
0
  6
HIDDEN
 62
     7
370
     0
100
AcDbLine
 10
183.0027286522
 20
129.8529848642
 30
0.0
 11
183.0027286522
 21
110.015194626
 31
0.0
  0
LINE
  5
154
330
1F
100
AcDbEntity
  8
0
  6
HIDDEN
 62
     7
370
     0
100
AcDbLine
 10
184.5027286522
 20
128.4134568848
 30
0.0
 11
184.5027286522
 21
111.4547226054
 31
0.0
  0
SPLINE
  5
155
330
1F
100
AcDbEntity
  8
0
  6
HIDDEN
 62
     7
370
     0
100
AcDbSpline
210
0.0
220
0.0
230
1.0
 70
     8
 71
     3
 72
    22
 73
    18
 74
     0
 42
0.00000001
 43
0.00000001
 12
1.0
 22
0.0
 32
0.0
 13
1.0
 23
0.0
 33
0.0
 40
0.0
 40
0.0
 40
0.0
 40
0.0
 40
0.1250000000000001
 40
0.1250000000000001
 40
0.2500000000000001
 40
0.2500000000000001
 40
0.3750000000000001
 40
0.3750000000000001
 40
0.5000000000000001
 40
0.5000000000000001
 40
0.6250000000000001
 40
0.6250000000000001
 40
0.75
 40
0.75
 40
0.875
 40
0.875
 40
1.0
 40
1.0
 40
1.0
 40
1.0
 10
164.9027286521801
 20
117.341145065252
 30
0.0
 10
165.0836650102563
 20
117.5327649245585
 30
0.0
 10
165.2627604590332
 20
117.7264067889457
 30
0.0
 10
165.6136004475451
 20
118.1210620423299
 30
0.0
 10
165.7857935554498
 20
118.3220735729975
 30
0.0
 10
166.1115250610691
 20
118.7382846882312
 30
0.0
 10
166.2676012962374
 20
118.954300528518
 30
0.0
 10
166.5189805101265
 20
119.4196232916827
 30
0.0
 10
166.6128456404453
 20
119.6751624847055
 30
0.0
 10
166.6091177235832
 20
120.2094931198062
 30
0.0
 10
166.5117450810958
 20
120.4649139858069
 30
0.0
 10
166.2599242721019
 20
120.9249427017546
 30
0.0
 10
166.1049550166293
 20
121.1387797026831
 30
0.0
 10
165.780142258904
 20
121.5528182853769
 30
0.0
 10
165.6092491947761
 20
121.7521107574127
 30
0.0
 10
165.2606149552485
 20
122.1440856498469
 30
0.0
 10
165.0826071047201
 20
122.3365349358363
 30
0.0
 10
164.9027286521801
 20
122.5270344249079
 30
0.0
  0
LINE
  5
156
330
1F
100
AcDbEntity
  8
0
  6
HIDDEN
 62
     7
370
     0
100
AcDbLine
 10
164.9027286522
 20
117.3411450653
 30
0.0
 11
164.9027286522
 21
122.5270344249
 31
0.0
  0
SPLINE
  5
157
330
1F
100
AcDbEntity
  8
0
  6
HIDDEN
 62
     7
370
     0
100
AcDbSpline
210
0.0
220
0.0
230
1.0
 70
     8
 71
     3
 72
     8
 73
     4
 74
     0
 42
0.00000001
 43
0.00000001
 12
1.0
 22
0.0
 32
0.0
 13
1.0
 23
0.0
 33
0.0
 40
0.0000137051794235
 40
0.0000137051794235
 40
0.0000137051794235
 40
0.0000137051794235
 40
0.0027147144718019
 40
0.0027147144718019
 40
0.0027147144718019
 40
0.0027147144718019
 10
162.2027286521801
 20
117.3790615080182
 30
0.0
 10
163.1027247876749
 20
117.3660899408198
 30
0.0
 10
164.0027249662703
 20
117.3534550835077
 30
0.0
 10
164.9027286521801
 20
117.341145065252
 30
0.0
  0
SPLINE
  5
158
330
1F
100
AcDbEntity
  8
0
  6
HIDDEN
 62
     7
370
     0
100
AcDbSpline
210
0.0
220
0.0
230
1.0
 70
     8
 71
     3
 72
     8
 73
     4
 74
     0
 42
0.00000001
 43
0.00000001
 12
1.0
 22
0.0
 32
0.0
 13
1.0
 23
0.0
 33
0.0
 40
0.0000137050638847
 40
0.0000137050638847
 40
0.0000137050638847
 40
0.0000137050638847
 40
0.0027147143562631
 40
0.0027147143562631
 40
0.0027147143562631
 40
0.0027147143562631
 10
164.9027286521801
 20
122.5270344249079
 30
0.0
 10
164.0027249662703
 20
122.5147244066521
 30
0.0
 10
163.1027247876749
 20
122.5020895493401
 30
0.0
 10
162.2027286521801
 20
122.4891179821417
 30
0.0
  0
SPLINE
  5
159
330
1F
100
AcDbEntity
  8
0
  6
HIDDEN
 62
     7
370
     0
100
AcDbSpline
210
0.0
220
0.0
230
1.0
 70
     8
 71
     3
 72
    10
 73
     6
 74
     0
 42
0.00000001
 43
0.00000001
 12
1.0
 22
0.0
 32
0.0
 13
1.0
 23
0.0
 33
0.0
 40
0.0
 40
0.0
 40
0.0
 40
0.0
 40
0.5
 40
0.5
 40
1.0
 40
1.0
 40
1.0
 40
1.0
 10
162.2027286521801
 20
122.4891179821417
 30
0.0
 10
161.9425115296421
 20
122.4029298954386
 30
0.0
 10
161.6864769603919
 20
122.3034842793159
 30
0.0
 10
161.1852133716592
 20
122.0718274026785
 30
0.0
 10
160.9398706128958
 20
121.9399183732593
 30
0.0
 10
160.7027286521801
 20
121.7843035587306
 30
0.0
  0
SPLINE
  5
15A
330
1F
100
AcDbEntity
  8
0
  6
HIDDEN
 62
     7
370
     0
100
AcDbSpline
210
0.0
220
0.0
230
1.0
 70
     8
 71
     3
 72
    10
 73
     6
 74
     0
 42
0.00000001
 43
0.00000001
 12
1.0
 22
0.0
 32
0.0
 13
1.0
 23
0.0
 33
0.0
 40
0.0
 40
0.0
 40
0.0
 40
0.0
 40
0.5
 40
0.5
 40
1.0
 40
1.0
 40
1.0
 40
1.0
 10
160.7027286521792
 20
118.0838759314298
 30
0.0
 10
160.9398706128951
 20
117.9282611169009
 30
0.0
 10
161.1852133716585
 20
117.7963520874816
 30
0.0
 10
161.6864769603916
 20
117.5646952108441
 30
0.0
 10
161.9425115296419
 20
117.4652495947213
 30
0.0
 10
162.2027286521801
 20
117.3790615080182
 30
0.0
  0
LINE
  5
15B
330
1F
100
AcDbEntity
  8
0
  6
HIDDEN
 62
     7
370
     0
100
AcDbLine
 10
160.7027286522
 20
118.0838759314
 30
0.0
 11
160.7027286522
 21
121.7843035587
 31
0.0
  0
LWPOLYLINE
  5
15C
330
1F
100
AcDbEntity
  8
0
  6
HIDDEN
 62
     7
370
     0
100
AcDbPolyline
 90
       32
 70
   128
 43
0.0
 10
198.7027286522
 20
122.3731401997
 10
199.2059749524
 20
122.4212291076
 10
199.68861829
 20
122.5635270657
 10
200.1308991899
 20
122.7942083789
 10
200.5147106203
 20
123.1038289271
 10
200.8243392959
 20
123.4797128087
 10
201.0471089825
 20
123.9064712935
 10
201.173899463
 20
124.3666328389
 10
201.1995199201
 20
124.8413583772
 10
201.1229214493
 20
125.311212589
 10
200.9472400011
 20
125.7569595878
 10
200.6796679945
 20
126.160350439
 10
200.331159859
 20
126.5048702738
 10
199.9159835585
 20
126.7764144096
 10
199.4511364596
 20
126.9638657977
 10
198.9556494571
 20
127.0595501562
 10
198.4498078472
 20
127.0595501562
 10
197.9543208447
 20
126.9638657977
 10
197.4894737459
 20
126.7764144096
 10
197.0742974454
 20
126.5048702738
 10
196.7257893098
 20
126.160350439
 10
196.4582173033
 20
125.7569595878
 10
196.282535855
 20
125.311212589
 10
196.2059373843
 20
124.8413583772
 10
196.2315578414
 20
124.3666328389
 10
196.3583483218
 20
123.9064712935
 10
196.5811180084
 20
123.4797128087
 10
196.8907466841
 20
123.1038289271
 10
197.2745581144
 20
122.7942083789
 10
197.7168390144
 20
122.5635270657
 10
198.199482352
 20
122.4212291076
 10
198.7027286522
 20
122.3731401997
  0
SPLINE
  5
15D
330
1F
100
AcDbEntity
  8
0
  6
HIDDEN
 62
     7
370
     0
100
AcDbSpline
210
0.0
220
0.0
230
1.0
 70
     8
 71
     3
 72
    62
 73
    58
 74
     0
 42
0.00000001
 43
0.00000001
 12
1.0
 22
0.0
 32
0.0
 13
1.0
 23
0.0
 33
0.0
 40
-0.03125
 40
-0.03125
 40
0.0
 40
0.0
 40
0.0312499999999999
 40
0.0312499999999999
 40
0.0624999999999998
 40
0.0624999999999998
 40
0.0937499999999997
 40
0.0937499999999997
 40
0.1249999999999997
 40
0.1249999999999997
 40
0.1874999999999995
 40
0.1874999999999995
 40
0.2499999999999993
 40
0.2499999999999993
 40
0.2812499999999994
 40
0.2812499999999994
 40
0.3124999999999994
 40
0.3124999999999994
 40
0.3437499999999995
 40
0.3437499999999995
 40
0.3749999999999996
 40
0.3749999999999996
 40
0.4374999999999997
 40
0.4374999999999997
 40
0.4687499999999998
 40
0.4687499999999998
 40
0.4999999999999998
 40
0.4999999999999998
 40
0.5624999999999999
 40
0.5624999999999999
 40
0.5937499999999999
 40
0.5937499999999999
 40
0.6249999999999999
 40
0.6249999999999999
 40
0.6562499999999999
 40
0.6562499999999999
 40
0.6874999999999999
 40
0.6874999999999999
 40
0.7187499999999999
 40
0.7187499999999999
 40
0.7499999999999999
 40
0.7499999999999999
 40
0.78125
 40
0.78125
 40
0.8125
 40
0.8125
 40
0.84375
 40
0.84375
 40
0.875
 40
0.875
 40
0.90625
 40
0.90625
 40
0.9375
 40
0.9375
 40
0.96875
 40
0.96875
 40
1.0
 40
1.0
 40
1.03125
 40
1.03125
 10
171.1565007801084
 20
121.4220687837363
 30
0.0
 10
171.3840011266966
 20
121.6714153255969
 30
0.0
 10
171.5084636556141
 20
121.7830130030538
 30
0.0
 10
171.7775579217659
 20
121.9816637988722
 30
0.0
 10
171.9233710133552
 20
122.0690040436609
 30
0.0
 10
172.2245378916446
 20
122.2131997963032
 30
0.0
 10
172.3808736187089
 20
122.2710194668174
 30
0.0
 10
172.7049969180433
 20
122.3582730788684
 30
0.0
 10
172.8716621297538
 20
122.3870751283502
 30
0.0
 10
173.3696783963857
 20
122.4278544336181
 30
0.0
 10
173.7103493451787
 20
122.3944111734768
 30
0.0
 10
174.3493602606002
 20
122.211958529018
 30
0.0
 10
174.655814867664
 20
122.0605339687053
 30
0.0
 10
175.0523707769264
 20
121.7600360631209
 30
0.0
 10
175.1767199677759
 20
121.6457748779256
 30
0.0
 10
175.3991840618251
 20
121.396115007353
 30
0.0
 10
175.4967494003023
 20
121.2619483993539
 30
0.0
 10
175.6640050039412
 20
120.9744793048552
 30
0.0
 10
175.7340906594603
 20
120.8192124549553
 30
0.0
 10
175.8381460201818
 20
120.5022330348683
 30
0.0
 10
175.8731217828492
 20
120.3395802833639
 30
0.0
 10
175.9249863023733
 20
119.8386432631613
 30
0.0
 10
175.8856801946018
 20
119.498488661851
 30
0.0
 10
175.722960402141
 20
119.0219940297538
 30
0.0
 10
175.6526799042547
 20
118.8709266699264
 30
0.0
 10
175.4813467591247
 20
118.5836320994855
 30
0.0
 10
175.379954517943
 20
118.4477743211881
 30
0.0
 10
175.0433549307199
 20
118.0789659261899
 30
0.0
 10
174.7681221645552
 20
117.8765408168588
 30
0.0
 10
174.3183389372093
 20
117.6594640902501
 30
0.0
 10
174.1595391387056
 20
117.6001618181758
 30
0.0
 10
173.8369774178259
 20
117.5121893003753
 30
0.0
 10
173.6731183058587
 20
117.483069536529
 30
0.0
 10
173.3402855325049
 20
117.4542129214188
 30
0.0
 10
173.170233241064
 20
117.4548364446328
 30
0.0
 10
172.8379575770443
 20
117.4860928884372
 30
0.0
 10
172.6742429652956
 20
117.5164115834891
 30
0.0
 10
172.3517774797212
 20
117.6071286224921
 30
0.0
 10
172.1932663811947
 20
117.6678975311939
 30
0.0
 10
171.8947126749968
 20
117.8154082059908
 30
0.0
 10
171.7528865457948
 20
117.9025432338547
 30
0.0
 10
171.4849648072365
 20
118.1051287004268
 30
0.0
 10
171.3608713768439
 20
118.2194668670689
 30
0.0
 10
171.1397371889257
 20
118.4676533050217
 30
0.0
 10
171.0412801868271
 20
118.6026859218755
 30
0.0
 10
170.8719216730921
 20
118.8946903199303
 30
0.0
 10
170.8037548353861
 20
119.0468260663658
 30
0.0
 10
170.7000208690597
 20
119.3632350148059
 30
0.0
 10
170.6643523071905
 20
119.5297314841601
 30
0.0
 10
170.630138542538
 20
119.8629933602706
 30
0.0
 10
170.6309969453671
 20
120.0296558140925
 30
0.0
 10
170.6687937253167
 20
120.36304401331
 30
0.0
 10
170.7061364807707
 20
120.5287995857895
 30
0.0
 10
170.8133860638392
 20
120.8446909022522
 30
0.0
 10
170.8841472803783
 20
120.9979702353244
 30
0.0
 10
171.056270430479
 20
121.2873472778108
 30
0.0
 10
171.1565007801084
 20
121.4220687837363
 30
0.0
 10
171.3840011266966
 20
121.6714153255969
 30
0.0
  0
CIRCLE
  5
15E
330
1F
100
AcDbEntity
  8
0
  6
HIDDEN
 62
     7
370
     0
100
AcDbCircle
 10
173.2027286522
 20
119.9340897451
 30
0.0
 40
2.299999999999997
  0
ARC
  5
15F
330
1F
100
AcDbEntity
  8
0
  6
HIDDEN
 62
     7
370
     0
100
AcDbCircle
 10
226.0517353166
 20
98.1942962499
 30
0.0
 40
1.649999999999999
100
AcDbArc
 50
356.1672559048
 51
177.8327440952
  0
SPLINE
  5
160
330
1F
100
AcDbEntity
  8
0
  6
HIDDEN
 62
     7
370
     0
100
AcDbSpline
210
0.0
220
0.0
230
1.0
 70
     8
 71
     3
 72
    20
 73
    16
 74
     0
 42
0.00000001
 43
0.00000001
 12
1.0
 22
0.0
 32
0.0
 13
1.0
 23
0.0
 33
0.0
 40
0.0
 40
0.0
 40
0.0
 40
0.0
 40
0.2499999999999971
 40
0.2499999999999971
 40
0.3749999999999982
 40
0.3749999999999982
 40
0.4374999999999966
 40
0.4374999999999966
 40
0.499999999999995
 40
0.499999999999995
 40
0.6249999999999974
 40
0.6249999999999974
 40
0.7499999999999999
 40
0.7499999999999999
 40
1.0
 40
1.0
 40
1.0
 40
1.0
 10
227.6980449766449
 20
98.08400344305444
 30
0.0
 10
227.4500146638262
 20
98.20617700917138
 30
0.0
 10
227.2009687262319
 20
98.32935810294975
 30
0.0
 10
226.8056193847401
 20
98.49965063296037
 30
0.0
 10
226.6707924201252
 20
98.55372623607714
 30
0.0
 10
226.4545508714025
 20
98.62040004307134
 30
0.0
 10
226.3804095527379
 20
98.6398952765141
 30
0.0
 10
226.2285971154293
 20
98.66945537059739
 30
0.0
 10
226.149414795708
 20
98.67956650659964
 30
0.0
 10
225.9126982231071
 20
98.69092844075685
 30
0.0
 10
225.7566146647815
 20
98.6727899440795
 30
0.0
 10
225.4643626450436
 20
98.61396958348563
 30
0.0
 10
225.3263323813182
 20
98.57455271381069
 30
0.0
 10
224.920114632711
 20
98.44760481768911
 30
0.0
 10
224.6605165241787
 20
98.35159360564572
 30
0.0
 10
224.4029155755201
 20
98.25669385741766
 30
0.0
  0
SPLINE
  5
161
330
1F
100
AcDbEntity
  8
0
  6
HIDDEN
 62
     7
370
     0
100
AcDbSpline
210
0.0
220
0.0
230
1.0
 70
     8
 71
     3
 72
    17
 73
    13
 74
     0
 42
0.00000001
 43
0.00000001
 12
1.0
 22
0.0
 32
0.0
 13
1.0
 23
0.0
 33
0.0
 40
0.0
 40
0.0
 40
0.0
 40
0.0
 40
0.0661678259479241
 40
0.133014895186706
 40
0.2005578957096301
 40
0.2750204511077655
 40
0.3502867125334594
 40
0.4997916204749846
 40
0.6212473015892166
 40
0.7450598923218529
 40
0.8712913147887097
 40
1.0
 40
1.0
 40
1.0
 40
1.0
 10
224.4568363483263
 20
105.8937251825201
 30
0.0
 10
224.4964477490342
 20
105.7803441517476
 30
0.0
 10
224.5760771797715
 20
105.5524181815604
 30
0.0
 10
224.7044389006024
 20
105.2148054527551
 30
0.0
 10
224.8442169264404
 20
104.8679806504662
 30
0.0
 10
224.9967808326174
 20
104.512932555054
 30
0.0
 10
225.2166418317365
 20
104.0322143746095
 30
0.0
 10
225.4874967849155
 20
103.4904898464374
 30
0.0
 10
225.8169903762941
 20
102.8928253224729
 30
0.0
 10
226.14395450999
 20
102.3478186760289
 30
0.0
 10
226.4924270090272
 20
101.8086153961578
 30
0.0
 10
226.7399986186859
 20
101.4610048553188
 30
0.0
 10
226.8649872548994
 20
101.2855107124613
 30
0.0
  0
SPLINE
  5
162
330
1F
100
AcDbEntity
  8
0
  6
HIDDEN
 62
     7
370
     0
100
AcDbSpline
210
0.0
220
0.0
230
1.0
 70
     8
 71
     3
 72
    18
 73
    14
 74
     0
 42
0.00000001
 43
0.00000001
 12
1.0
 22
0.0
 32
0.0
 13
1.0
 23
0.0
 33
0.0
 40
0.0
 40
0.0
 40
0.0
 40
0.0
 40
0.0639120590208298
 40
0.127046785973087
 40
0.1894093044620787
 40
0.2510049307947458
 40
0.3771573811653938
 40
0.5004055722038153
 40
0.6248989665279124
 40
0.7495055650518018
 40
0.8744491920751692
 40
0.9375182550252379
 40
1.0
 40
1.0
 40
1.0
 40
1.0
 10
227.1374703397173
 20
101.6620500270853
 30
0.0
 10
227.0712861791521
 20
101.7526084485566
 30
0.0
 10
226.9397228245842
 20
101.9326238723592
 30
0.0
 10
226.7488575007499
 20
102.2074426935264
 30
0.0
 10
226.5642797162154
 20
102.4835254313951
 30
0.0
 10
226.3234381705226
 20
102.8593282737027
 30
0.0
 10
226.0352396270542
 20
103.3391162474436
 30
0.0
 10
225.7082549712757
 20
103.936001575152
 30
0.0
 10
225.4033606649844
 20
104.5503142368184
 30
0.0
 10
225.1194993052194
 20
105.1873577643325
 30
0.0
 10
224.9028163400571
 20
105.7365524190976
 30
0.0
 10
224.7416756048331
 20
106.1859141079722
 30
0.0
 10
224.6666978130805
 20
106.4151991711044
 30
0.0
 10
224.6293842876602
 20
106.5293054128558
 30
0.0
  0
CIRCLE
  5
163
330
1F
100
AcDbEntity
  8
0
  6
HIDDEN
 62
     7
370
     0
100
AcDbCircle
 10
196.7027286522
 20
119.9340897451
 30
0.0
 40
2.0
  0
SPLINE
  5
164
330
1F
100
AcDbEntity
  8
0
  6
HIDDEN
 62
     7
370
     0
100
AcDbSpline
210
0.0
220
0.0
230
1.0
 70
     8
 71
     3
 72
     9
 73
     5
 74
     0
 42
0.00000001
 43
0.00000001
 12
1.0
 22
0.0
 32
0.0
 13
1.0
 23
0.0
 33
0.0
 40
0.0
 40
0.0
 40
0.0
 40
0.0
 40
0.4971082123848646
 40
1.0
 40
1.0
 40
1.0
 40
1.0
 10
224.6293842876601
 20
106.5293054128558
 30
0.0
 10
224.6004603786628
 20
106.4240781318153
 30
0.0
 10
224.5422760472099
 20
106.2123993093398
 30
0.0
 10
224.4854262883639
 20
106.0003581602268
 30
0.0
 10
224.4568370115124
 20
105.8937244077014
 30
0.0
  0
LINE
  5
165
330
1F
100
AcDbEntity
  8
0
  6
HIDDEN
 62
     7
370
     0
100
AcDbLine
 10
208.8804157044
 20
106.7100512783
 30
0.0
 11
224.4568370753
 21
105.8937256251
 31
0.0
  0
LINE
  5
166
330
1F
100
AcDbEntity
  8
0
  6
HIDDEN
 62
     7
370
     0
100
AcDbLine
 10
224.12556655
 20
118.359273799
 30
0.0
 11
223.0145874838
 21
119.9340897451
 31
0.0
  0
LINE
  5
167
330
1F
100
AcDbEntity
  8
0
  6
HIDDEN
 62
     7
370
     0
100
AcDbLine
 10
224.12556655
 20
110.6222331871
 30
0.0
 11
224.12556655
 21
118.359273799
 31
0.0
  0
ELLIPSE
  5
168
330
1F
100
AcDbEntity
  8
0
  6
HIDDEN
 62
     7
370
     0
100
AcDbEllipse
 10
241.2532335828
 20
110.6222331871
 30
0.0
 11
17.12766703280039
 21
-2.842170943040401E-14
 31
0.0
210
0.0
220
0.0
230
1.0
 40
0.9925461516
 41
3.141592653589809
 42
3.38474193301672
  0
SPLINE
  5
169
330
1F
100
AcDbEntity
  8
0
  6
HIDDEN
 62
     7
370
     0
100
AcDbSpline
210
0.0
220
0.0
230
1.0
 70
     8
 71
     3
 72
     8
 73
     4
 74
     0
 42
0.00000001
 43
0.00000001
 12
1.0
 22
0.0
 32
0.0
 13
1.0
 23
0.0
 33
0.0
 40
0.0
 40
0.0
 40
0.0
 40
0.0
 40
1.0
 40
1.0
 40
1.0
 40
1.0
 10
208.8804157043809
 20
106.7100512783116
 30
0.0
 10
208.3961807997952
 20
110.0438832139049
 30
0.0
 10
208.0392063494288
 20
113.3961805946498
 30
0.0
 10
207.9013274904902
 20
116.7802686652148
 30
0.0
  0
SPLINE
  5
16A
330
1F
100
AcDbEntity
  8
0
  6
HIDDEN
 62
     7
370
     0
100
AcDbSpline
210
0.0
220
0.0
230
1.0
 70
     8
 71
     3
 72
    10
 73
     6
 74
     0
 42
0.00000001
 43
0.00000001
 12
1.0
 22
0.0
 32
0.0
 13
1.0
 23
0.0
 33
0.0
 40
0.0
 40
0.0
 40
0.0
 40
0.0
 40
0.5
 40
0.5
 40
1.0
 40
1.0
 40
1.0
 40
1.0
 10
207.9013274904902
 20
116.7802686652148
 30
0.0
 10
207.8799160730575
 20
117.3057888418826
 30
0.0
 10
207.8534127300317
 20
117.8311842482205
 30
0.0
 10
207.8139674728164
 20
118.8823073642498
 30
0.0
 10
207.8014270679856
 20
119.4080449123521
 30
0.0
 10
207.8014270679856
 20
119.9340897450799
 30
0.0
  0
LINE
  5
16B
330
1F
100
AcDbEntity
  8
0
  6
HIDDEN
 62
     7
370
     0
100
AcDbLine
 10
184.7027286522
 20
104.1340897451
 30
0.0
 11
184.795621871
 21
104.2269829639
 31
0.0
  0
LINE
  5
16C
330
1F
100
AcDbEntity
  8
0
  6
HIDDEN
 62
     7
370
     0
100
AcDbLine
 10
184.795621871
 20
135.6411965263
 30
0.0
 11
184.7027286522
 21
135.7340897451
 31
0.0
  0
ARC
  5
16D
330
1F
100
AcDbEntity
  8
0
  6
HIDDEN
 62
     7
370
     0
100
AcDbCircle
 10
184.0885150898
 20
104.9340897451
 30
0.0
 40
1.000000000000018
100
AcDbArc
 50
315.0
 51
0.0
  0
ARC
  5
16E
330
1F
100
AcDbEntity
  8
0
  6
HIDDEN
 62
     7
370
     0
100
AcDbCircle
 10
184.0885150898
 20
104.9340897451
 30
0.0
 40
1.000000000000021
100
AcDbArc
 50
0.0
 51
52.1052014664
  0
ARC
  5
16F
330
1F
100
AcDbEntity
  8
0
  6
HIDDEN
 62
     7
370
     0
100
AcDbCircle
 10
184.0885150898
 20
134.9340897451
 30
0.0
 40
1.000000000000028
100
AcDbArc
 50
351.8087250651
 51
45.0
  0
ARC
  5
170
330
1F
100
AcDbEntity
  8
0
  6
HIDDEN
 62
     7
370
     0
100
AcDbCircle
 10
184.0885150898
 20
134.9340897451
 30
0.0
 40
1.000000000000006
100
AcDbArc
 50
307.8947985336
 51
351.8087250651
  0
LINE
  5
171
330
1F
100
AcDbEntity
  8
0
  6
HIDDEN
 62
     7
370
     0
100
AcDbLine
 10
185.0885150898
 20
104.9340897451
 30
0.0
 11
185.0885150898
 21
134.9340897451
 31
0.0
  0
LINE
  5
172
330
1F
100
AcDbEntity
  8
0
  6
HIDDEN
 62
     7
370
     0
100
AcDbLine
 10
185.0885150898
 20
104.9340897451
 30
0.0
 11
185.0885150898
 21
134.9340897451
 31
0.0
  0
LINE
  5
173
330
1F
100
AcDbEntity
  8
0
  6
HIDDEN
 62
     7
370
     0
100
AcDbLine
 10
203.4737059051
 20
115.0646354155
 30
0.0
 11
199.622440351
 21
117.4878682094
 31
0.0
  0
LINE
  5
174
330
1F
100
AcDbEntity
  8
0
  6
HIDDEN
 62
     7
370
     0
100
AcDbLine
 10
198.7256655028
 20
113.0899013782
 30
0.0
 11
203.7149032756
 21
109.9506515868
 31
0.0
  0
LINE
  5
175
330
1F
100
AcDbEntity
  8
0
  6
HIDDEN
 62
     7
370
     0
100
AcDbLine
 10
200.8027286522
 20
115.940830744
 30
0.0
 11
200.8027286522
 21
117.7964968637
 31
0.0
  0
LINE
  5
176
330
1F
100
AcDbEntity
  8
0
  6
HIDDEN
 62
     7
370
     0
100
AcDbLine
 10
196.6027286522
 20
117.7965461267
 30
0.0
 11
196.6027286522
 21
114.8037875952
 31
0.0
  0
LINE
  5
177
330
1F
100
AcDbEntity
  8
0
  6
HIDDEN
 62
     7
370
     0
100
AcDbLine
 10
160.7027286522
 20
109.7784392208
 30
0.0
 11
161.7297606842
 21
110.371396441
 31
0.0
  0
LINE
  5
178
330
1F
100
AcDbEntity
  8
0
  6
HIDDEN
 62
     7
370
     0
100
AcDbLine
 10
161.7297606842
 20
129.4967830492
 30
0.0
 11
160.7027286522
 21
130.0897402694
 31
0.0
  0
ARC
  5
179
330
1F
100
AcDbEntity
  8
0
  6
HIDDEN
 62
     7
370
     0
100
AcDbCircle
 10
166.2027286522
 20
110.9340897451
 30
0.0
 40
1.0
100
AcDbArc
 50
193.3524261238
 51
270.0
  0
ARC
  5
17A
330
1F
100
AcDbEntity
  8
0
  6
HIDDEN
 62
     7
370
     0
100
AcDbCircle
 10
166.2027286522
 20
128.9340897451
 30
0.0
 40
1.0
100
AcDbArc
 50
90.0
 51
166.6475738762
  0
LINE
  5
17B
330
1F
100
AcDbEntity
  8
0
  6
HIDDEN
 62
     7
370
     0
100
AcDbLine
 10
166.2027286522
 20
109.9340897451
 30
0.0
 11
167.2155471219
 21
109.9340897451
 31
0.0
  0
LINE
  5
17C
330
1F
100
AcDbEntity
  8
0
  6
HIDDEN
 62
     7
370
     0
100
AcDbLine
 10
167.2155471219
 20
129.9340897451
 30
0.0
 11
166.2027286522
 21
129.9340897451
 31
0.0
  0
ARC
  5
17D
330
1F
100
AcDbEntity
  8
0
  6
HIDDEN
 62
     7
370
     0
100
AcDbCircle
 10
167.2155471219
 20
110.9340897451
 30
0.0
 40
1.000000000000008
100
AcDbArc
 50
270.0
 51
315.0
  0
ARC
  5
17E
330
1F
100
AcDbEntity
  8
0
  6
HIDDEN
 62
     7
370
     0
100
AcDbCircle
 10
167.2155471219
 20
128.9340897451
 30
0.0
 40
1.000000000000008
100
AcDbArc
 50
45.0
 51
90.0
  0
LINE
  5
17F
330
1F
100
AcDbEntity
  8
0
  6
HIDDEN
 62
     7
370
     0
100
AcDbLine
 10
167.922653903
 20
110.2269829639
 30
0.0
 11
168.6297606842
 21
110.9340897451
 31
0.0
  0
LINE
  5
180
330
1F
100
AcDbEntity
  8
0
  6
HIDDEN
 62
     7
370
     0
100
AcDbLine
 10
168.6297606842
 20
128.9340897451
 30
0.0
 11
167.922653903
 21
129.6411965263
 31
0.0
  0
LINE
  5
181
330
1F
100
AcDbEntity
  8
0
  6
HIDDEN
 62
     7
370
     0
100
AcDbLine
 10
161.7297606842
 20
110.371396441
 30
0.0
 11
163.8297606842
 21
110.9340897451
 31
0.0
  0
LINE
  5
182
330
1F
100
AcDbEntity
  8
0
  6
HIDDEN
 62
     7
370
     0
100
AcDbLine
 10
163.8297606842
 20
128.9340897451
 30
0.0
 11
161.7297606842
 21
129.4967830492
 31
0.0
  0
LINE
  5
183
330
1F
100
AcDbEntity
  8
0
  6
HIDDEN
 62
     7
370
     0
100
AcDbLine
 10
165.2297606842
 20
129.1650298528
 30
0.0
 11
164.8297606842
 21
128.9340897451
 31
0.0
  0
LINE
  5
184
330
1F
100
AcDbEntity
  8
0
  6
HIDDEN
 62
     7
370
     0
100
AcDbLine
 10
164.8297606842
 20
110.9340897451
 30
0.0
 11
165.2297606842
 21
110.7031496374
 31
0.0
  0
ARC
  5
185
330
1F
100
AcDbEntity
  8
0
  6
HIDDEN
 62
     7
370
     0
100
AcDbCircle
 10
175.2027286522
 20
111.4340897451
 30
0.0
 40
0.5
100
AcDbArc
 50
270.0
 51
0.0
  0
ARC
  5
186
330
1F
100
AcDbEntity
  8
0
  6
HIDDEN
 62
     7
370
     0
100
AcDbCircle
 10
175.2027286522
 20
128.4340897451
 30
0.0
 40
0.5
100
AcDbArc
 50
0.0
 51
90.0
  0
LINE
  5
187
330
1F
100
AcDbEntity
  8
0
  6
HIDDEN
 62
     7
370
     0
100
AcDbLine
 10
163.8297606842
 20
110.9340897451
 30
0.0
 11
164.8297606842
 21
110.9340897451
 31
0.0
  0
LINE
  5
188
330
1F
100
AcDbEntity
  8
0
  6
HIDDEN
 62
     7
370
     0
100
AcDbLine
 10
164.8297606842
 20
128.9340897451
 30
0.0
 11
163.8297606842
 21
128.9340897451
 31
0.0
  0
LINE
  5
189
330
1F
100
AcDbEntity
  8
0
  6
HIDDEN
 62
     7
370
     0
100
AcDbLine
 10
168.6297606842
 20
110.9340897451
 30
0.0
 11
175.2027286522
 21
110.9340897451
 31
0.0
  0
LINE
  5
18A
330
1F
100
AcDbEntity
  8
0
  6
HIDDEN
 62
     7
370
     0
100
AcDbLine
 10
175.2027286522
 20
128.9340897451
 30
0.0
 11
168.6297606842
 21
128.9340897451
 31
0.0
  0
LINE
  5
18B
330
1F
100
AcDbEntity
  8
0
  6
HIDDEN
 62
     7
370
     0
100
AcDbLine
 10
175.7027286522
 20
112.7840897451
 30
0.0
 11
176.6027286522
 21
113.6840897451
 31
0.0
  0
LINE
  5
18C
330
1F
100
AcDbEntity
  8
0
  6
HIDDEN
 62
     7
370
     0
100
AcDbLine
 10
176.6027286522
 20
126.1840897451
 30
0.0
 11
175.7027286522
 21
127.0840897451
 31
0.0
  0
LINE
  5
18D
330
1F
100
AcDbEntity
  8
0
  6
HIDDEN
 62
     7
370
     0
100
AcDbLine
 10
176.6027286522
 20
113.6840897451
 30
0.0
 11
201.6873497833
 21
113.6840897451
 31
0.0
  0
LINE
  5
18E
330
1F
100
AcDbEntity
  8
0
  6
HIDDEN
 62
     7
370
     0
100
AcDbLine
 10
201.6873497833
 20
126.1840897451
 30
0.0
 11
176.6027286522
 21
126.1840897451
 31
0.0
  0
LINE
  5
18F
330
1F
100
AcDbEntity
  8
0
  6
HIDDEN
 62
     7
370
     0
100
AcDbLine
 10
201.6873497833
 20
113.6840897451
 30
0.0
 11
205.4427286522
 21
119.9340897451
 31
0.0
  0
LINE
  5
190
330
1F
100
AcDbEntity
  8
0
  6
HIDDEN
 62
     7
370
     0
100
AcDbLine
 10
205.4427286522
 20
119.9340897451
 30
0.0
 11
201.6873497833
 21
126.1840897451
 31
0.0
  0
LINE
  5
191
330
1F
100
AcDbEntity
  8
0
  6
HIDDEN
 62
     7
370
     0
100
AcDbLine
 10
200.8027286522
 20
122.0716333635
 30
0.0
 11
200.8027286522
 21
124.6401691776
 31
0.0
  0
LINE
  5
192
330
1F
100
AcDbEntity
  8
0
  6
HIDDEN
 62
     7
370
     0
100
AcDbLine
 10
196.6027286522
 20
124.6401691776
 30
0.0
 11
196.6027286522
 21
122.0716826264
 31
0.0
  0
LINE
  5
193
330
1F
100
AcDbEntity
  8
0
  6
HIDDEN
 62
     7
370
     0
100
AcDbLine
 10
201.2027286522
 20
124.7223717516
 30
0.0
 11
201.2027286522
 21
126.774292796
 31
0.0
  0
LINE
  5
194
330
1F
100
AcDbEntity
  8
0
  6
HIDDEN
 62
     7
370
     0
100
AcDbLine
 10
196.2027286522
 20
126.7744860577
 30
0.0
 11
196.2027286522
 21
124.7223717516
 31
0.0
  0
LINE
  5
195
330
1F
100
AcDbEntity
  8
VERMASSUNG
  6
CENTERX2
100
AcDbLine
 10
158.0729945241
 20
119.9340897451
 30
0.0
 11
234.7027286522
 21
119.9340897451
 31
0.0
  0
LINE
  5
196
330
1F
100
AcDbEntity
  8
VERMASSUNG
  6
CENTERX2
100
AcDbLine
 10
234.7027286522
 20
92.9340897451
 30
0.0
 11
234.7027286522
 21
119.9340897451
 31
0.0
  0
LINE
  5
197
330
1F
100
AcDbEntity
  8
VERMASSUNG
100
AcDbLine
 10
234.7027286522
 20
92.9340897451
 30
0.0
 11
234.7027286522
 21
81.5400198403
 31
0.0
  0
DIMENSION
  5
198
330
1F
100
AcDbEntity
  8
VERMASSUNG
100
AcDbDimension
  2
_D
 10
234.7027286522
 20
81.5400198403
 30
0.0
 11
227.8421230183
 21
86.4021060422
 31
0.0
 70
   162
  1
<>
 71
     1
 42
-1.0
  3
SLDDIMSTYLE0
100
AcDb2LineAngularDimension
 13
223.6435782588
 23
93.4921632078
 33
0.0
 14
234.2904735332
 24
92.9341830703
 34
0.0
 15
234.7027286522
 25
92.9340897451
 35
0.0
 16
227.8421230183
 26
86.4021060422
 36
0.0
  0
DIMENSION
  5
1A1
330
1F
100
AcDbEntity
  8
VERMASSUNG
100
AcDbDimension
  2
_D_1
 10
234.7027286522
 20
76.8860565608
 30
0.0
 11
209.7027286522
 21
76.8860565608
 31
0.0
 70
   160
  1
<>
 71
     2
 42
-1.0
  3
SLDDIMSTYLE1
100
AcDbAlignedDimension
 13
184.7027286522
 23
100.2340897451
 33
0.0
 14
234.7027286522
 24
92.9340897451
 34
0.0
100
AcDbRotatedDimension
  0
DIMENSION
  5
1AE
330
1F
100
AcDbEntity
  8
VERMASSUNG
100
AcDbDimension
  2
_D_2
 10
245.2585274913
 20
119.9340897451
 30
0.0
 11
245.2585274913
 21
106.4340897451
 31
0.0
 70
   160
  1
<>
 71
     2
 42
-1.0
  3
SLDDIMSTYLE1
100
AcDbAlignedDimension
 13
234.7027286522
 23
92.9340897451
 33
0.0
 14
234.7027286522
 24
119.9340897451
 34
0.0
 50
90.0
100
AcDbRotatedDimension
  0
DIMENSION
  5
1BA
330
1F
100
AcDbEntity
  8
VERMASSUNG
100
AcDbDimension
  2
_D_3
 10
234.7027286522
 20
70.8860565608
 30
0.0
 11
197.7027286522
 21
70.8860565608
 31
0.0
 70
   160
  1
<>
 71
     2
 42
-1.0
  3
SLDDIMSTYLE2
100
AcDbAlignedDimension
 13
160.7027286522
 23
107.302584763
 33
0.0
 14
234.7027286522
 24
92.9340897451
 34
0.0
100
AcDbRotatedDimension
  0
DIMENSION
  5
1C5
330
1F
100
AcDbEntity
  8
VERMASSUNG
100
AcDbDimension
  2
_D_4
 10
152.3499962739
 20
99.9340897451
 30
0.0
 11
152.3499962739
 21
119.9340897451
 31
0.0
 70
   160
  1
PSC%%c<>
 71
     2
 42
-1.0
  3
SLDDIMSTYLE2
100
AcDbAlignedDimension
 13
185.0027286522
 23
139.9340897451
 33
0.0
 14
185.0027286522
 24
99.9340897451
 34
0.0
 50
90.0
100
AcDbRotatedDimension
  0
SPLINE
  5
1D1
330
1F
100
AcDbEntity
  8
0
  6
Continuous
 62
     7
370
    15
100
AcDbSpline
210
0.0
220
0.0
230
1.0
 70
     8
 71
     3
 72
    10
 73
     6
 74
     0
 42
0.00000001
 43
0.00000001
 12
1.0
 22
0.0
 32
0.0
 13
1.0
 23
0.0
 33
0.0
 40
0.0
 40
0.0
 40
0.0
 40
0.0
 40
0.3325128321372973
 40
0.6680299137953352
 40
1.0
 40
1.0
 40
1.0
 40
1.0
 10
81.0665118126445
 20
92.93441500762646
 30
0.0
 10
81.51430902973033
 20
92.99223152125145
 30
0.0
 10
82.41394930648242
 20
93.10838692002085
 30
0.0
 10
83.77990724016026
 20
93.27062761481805
 30
0.0
 10
84.67610538462941
 20
93.3877623127267
 30
0.0
 10
85.12182327944456
 20
93.44601843753998
 30
0.0
  0
LINE
  5
1D2
330
1F
100
AcDbEntity
  8
0
  6
Continuous
 62
     7
370
    15
100
AcDbLine
 10
81.1230803749
 20
103.3167823056
 30
0.0
 11
81.0665118126
 21
103.3239870171
 31
0.0
  0
SPLINE
  5
1D3
330
1F
100
AcDbEntity
  8
0
  6
Continuous
 62
     7
370
    15
100
AcDbSpline
210
0.0
220
0.0
230
1.0
 70
     8
 71
     3
 72
    20
 73
    16
 74
     0
 42
0.00000001
 43
0.00000001
 12
1.0
 22
0.0
 32
0.0
 13
1.0
 23
0.0
 33
0.0
 40
0.0
 40
0.0
 40
0.0
 40
0.0
 40
0.0196680884964087
 40
0.0393610226418963
 40
0.0788738003685284
 40
0.1185996763421464
 40
0.2388223437599511
 40
0.3608499996382876
 40
0.4847836924480916
 40
0.610676830226593
 40
0.7385361033143532
 40
0.8031893700650744
 40
0.8683444587672356
 40
0.9339257650271925
 40
1.0
 40
1.0
 40
1.0
 40
1.0
 10
85.0930798437995
 20
94.15119876972972
 30
0.0
 10
85.1953806511485
 20
94.17390681975807
 30
0.0
 10
85.40011149700997
 20
94.2193516056854
 30
0.0
 10
85.80787163124647
 20
94.31691835609132
 30
0.0
 10
86.3156230092408
 20
94.44849373554523
 30
0.0
 10
87.32791466379338
 20
94.73951474428547
 30
0.0
 10
88.72569945919592
 20
95.22199438533788
 30
0.0
 10
90.46387293665089
 20
95.97793056023029
 30
0.0
 10
92.14209412601613
 20
96.86801090107801
 30
0.0
 10
93.75056533629656
 20
97.8869436253993
 30
0.0
 10
95.02036325616298
 20
98.8350811818191
 30
0.0
 10
95.9931694826522
 20
99.65104944365935
 30
0.0
 10
96.70202969864775
 20
100.2939696095079
 30
0.0
 10
97.38918189633462
 20
100.9628337835519
 30
0.0
 10
97.82382047103196
 20
101.4283969080844
 30
0.0
 10
98.04195341890407
 20
101.6620500228489
 30
0.0
  0
LINE
  5
1D4
330
1F
100
AcDbEntity
  8
0
  6
Continuous
 62
     7
370
    15
100
AcDbLine
 10
98.0419537893
 20
101.6620493332
 30
0.0
 11
98.234297978
 21
101.2855100284
 31
0.0
  0
SPLINE
  5
1D5
330
1F
100
AcDbEntity
  8
0
  6
Continuous
 62
     7
370
    15
100
AcDbSpline
210
0.0
220
0.0
230
1.0
 70
     8
 71
     3
 72
    23
 73
    19
 74
     0
 42
0.00000001
 43
0.00000001
 12
1.0
 22
0.0
 32
0.0
 13
1.0
 23
0.0
 33
0.0
 40
0.0
 40
0.0
 40
0.0
 40
0.0
 40
0.0334871288824296
 40
0.066570722662558
 40
0.0992518879461456
 40
0.1315317727330944
 40
0.1971104990933972
 40
0.2612437362061137
 40
0.3890408617728904
 40
0.5149076184274886
 40
0.638851513387013
 40
0.7003742839384449
 40
0.7609514277876328
 40
0.8215327096393233
 40
0.8812836030489735
 40
0.921173597697011
 40
0.9607427235943061
 40
1.0
 40
1.0
 40
1.0
 40
1.0
 10
98.23429829875191
 20
101.2855107093846
 30
0.0
 10
98.1227473834751
 20
101.164803632865
 30
0.0
 10
97.90098979208173
 20
100.924844054885
 30
0.0
 10
97.56064578021386
 20
100.5739883562423
 30
0.0
 10
97.21754713620615
 20
100.2325270062994
 30
0.0
 10
96.75081394178694
 20
99.78548221876962
 30
0.0
 10
96.15350362149353
 20
99.24496032387994
 30
0.0
 10
95.1662640198652
 20
98.41778481794434
 30
0.0
 10
93.87933679098761
 20
97.45827264072243
 30
0.0
 10
92.24693745772743
 20
96.42598200859443
 30
0.0
 10
90.82084064092227
 20
95.6713659033688
 30
0.0
 10
89.65048729562899
 20
95.13741071843779
 30
0.0
 10
88.76109213847315
 20
94.77268516508171
 30
0.0
 10
87.86131498508699
 20
94.4440623697611
 30
0.0
 10
87.04877128849306
 20
94.18261855333151
 30
0.0
 10
86.33223894433073
 20
93.97802164756247
 30
0.0
 10
85.71487992992081
 20
93.81784400849031
 30
0.0
 10
85.29979936926634
 20
93.7246983074751
 30
0.0
 10
85.09308015052527
 20
93.67830970639827
 30
0.0
  0
ELLIPSE
  5
1D6
330
1F
100
AcDbEntity
  8
0
  6
Continuous
 62
     7
370
    15
100
AcDbEllipse
 10
1472.0595667951
 20
110.6222331871
 30
0.0
 11
2645.537749732556
 21
16.97635353179574
 31
0.0
210
0.0
220
0.0
230
1.0
 40
0.000338811
 41
2.122647524386177
 42
2.123313493381411
  0
LINE
  5
1D7
330
1F
100
AcDbEntity
  8
0
  6
Continuous
 62
     7
370
    15
100
AcDbLine
 10
81.4230803892
 20
102.7356668214
 30
0.0
 11
81.4230803892
 21
110.6222330431
 31
0.0
  0
LINE
  5
1D8
330
1F
100
AcDbEntity
  8
0
  6
Continuous
 62
     7
370
    15
100
AcDbLine
 10
101.6230809412
 20
106.529305021
 30
0.0
 11
101.6230809412
 21
110.6222330431
 31
0.0
  0
SPLINE
  5
1D9
330
1F
100
AcDbEntity
  8
0
  6
Continuous
 62
     7
370
    15
100
AcDbSpline
210
0.0
220
0.0
230
1.0
 70
     8
 71
     3
 72
    18
 73
    14
 74
     0
 42
0.00000001
 43
0.00000001
 12
1.0
 22
0.0
 32
0.0
 13
1.0
 23
0.0
 33
0.0
 40
0.0
 40
0.0
 40
0.0
 40
0.0
 40
0.0639120590208298
 40
0.127046785973087
 40
0.1894093044620787
 40
0.2510049307947458
 40
0.3771573811653938
 40
0.5004055722038153
 40
0.6248989665279124
 40
0.7495055650518018
 40
0.8744491920751692
 40
0.9375182550252379
 40
1.0
 40
1.0
 40
1.0
 40
1.0
 10
98.04195341274134
 20
101.6620500270853
 30
0.0
 10
98.12563377695159
 20
101.7526084485566
 30
0.0
 10
98.29197674078108
 20
101.9326238723592
 30
0.0
 10
98.53705118135322
 20
102.2074426935264
 30
0.0
 10
98.77691380218982
 20
102.4835254313951
 30
0.0
 10
99.09422806906588
 20
102.8593282737027
 30
0.0
 10
99.48235767376073
 20
103.3391162474436
 30
0.0
 10
99.93767055540505
 20
103.936001575152
 30
0.0
 10
100.3788828266819
 20
104.5503142368184
 30
0.0
 10
100.8086714994502
 20
105.1873577643325
 30
0.0
 10
101.1554504624869
 20
105.7365524190976
 30
0.0
 10
101.4256226122759
 20
106.1859141079722
 30
0.0
 10
101.5574667065565
 20
106.4151991711044
 30
0.0
 10
101.6230803749305
 20
106.5293054128558
 30
0.0
  0
LINE
  5
1DA
330
1F
100
AcDbEntity
  8
0
  6
Continuous
 62
     7
370
    15
100
AcDbLine
 10
85.0930803365
 20
102.4854148577
 30
0.0
 11
85.0930803365
 21
102.2352951417
 31
0.0
  0
SPLINE
  5
1DB
330
1F
100
AcDbEntity
  8
0
  6
Continuous
 62
     7
370
    15
100
AcDbSpline
210
0.0
220
0.0
230
1.0
 70
    24
 71
     3
 72
     9
 73
     5
 74
     0
 42
0.00000001
 43
0.00000001
 12
1.0
 22
0.0
 32
0.0
 13
1.0
 23
0.0
 33
0.0
 40
0.0
 40
0.0
 40
0.0
 40
0.0
 40
0.4971082123848646
 40
1.0
 40
1.0
 40
1.0
 40
1.0
 10
101.6230803749305
 20
106.5293054128558
 30
0.0
 10
101.6230803749305
 20
106.4240781318153
 30
0.0
 10
101.6230803749305
 20
106.2123993093398
 30
0.0
 10
101.6230803749305
 20
106.0003581602268
 30
0.0
 10
101.6230803749305
 20
105.8937244077014
 30
0.0
  0
SPLINE
  5
1DC
330
1F
100
AcDbEntity
  8
0
  6
Continuous
 62
     7
370
    15
100
AcDbSpline
210
0.0
220
0.0
230
1.0
 70
     8
 71
     3
 72
    17
 73
    13
 74
     0
 42
0.00000001
 43
0.00000001
 12
1.0
 22
0.0
 32
0.0
 13
1.0
 23
0.0
 33
0.0
 40
0.0
 40
0.0
 40
0.0
 40
0.0
 40
0.0661678259479241
 40
0.133014895186706
 40
0.2005578957096301
 40
0.2750204511077655
 40
0.3502867125334594
 40
0.4997916204749846
 40
0.6212473015892166
 40
0.7450598923218529
 40
0.8712913147887097
 40
1.0
 40
1.0
 40
1.0
 40
1.0
 10
101.6230800901122
 20
105.8937251825201
 30
0.0
 10
101.5564467477329
 20
105.7803441517476
 30
0.0
 10
101.4224960409425
 20
105.5524181815604
 30
0.0
 10
101.2154211694596
 20
105.2148054527551
 30
0.0
 10
100.9960487202501
 20
104.8679806504662
 30
0.0
 10
100.7634733699045
 20
104.512932555054
 30
0.0
 10
100.4372837692297
 20
104.0322143746095
 30
0.0
 10
100.0499953081869
 20
103.4904898464374
 30
0.0
 10
99.59620949658954
 20
102.8928253224729
 30
0.0
 10
99.15934857696502
 20
102.3478186760289
 30
0.0
 10
98.70525733399826
 20
101.8086153961578
 30
0.0
 10
98.39229832426473
 20
101.4610048553188
 30
0.0
 10
98.23429830208428
 20
101.2855107124613
 30
0.0
  0
LINE
  5
1DD
330
1F
100
AcDbEntity
  8
0
  6
Continuous
 62
     7
370
    15
100
AcDbLine
 10
101.6230809412
 20
118.3592737957
 30
0.0
 11
81.4230803892
 21
118.3592737957
 31
0.0
  0
LINE
  5
1DE
330
1F
100
AcDbEntity
  8
0
  6
Continuous
 62
     7
370
    15
100
AcDbLine
 10
101.6230809412
 20
110.6222330431
 30
0.0
 11
101.6230809412
 21
118.3592737957
 31
0.0
  0
LINE
  5
1DF
330
1F
100
AcDbEntity
  8
0
  6
Continuous
 62
     7
370
    15
100
AcDbLine
 10
81.4230803892
 20
110.6222330431
 30
0.0
 11
81.4230803892
 21
118.3592737957
 31
0.0
  0
LINE
  5
1E0
330
1F
100
AcDbEntity
  8
0
  6
Continuous
 62
     7
370
    15
100
AcDbLine
 10
101.6230809412
 20
118.3592737957
 30
0.0
 11
101.6230809412
 21
119.9340897451
 31
0.0
  0
ARC
  5
1E1
330
1F
100
AcDbEntity
  8
0
  6
Continuous
 62
     7
370
    15
100
AcDbCircle
 10
81.1230803749
 20
119.9340897451
 30
0.0
 40
20.5
100
AcDbArc
 50
0.0
 51
89.1614952473
  0
LINE
  5
1E2
330
1F
100
AcDbEntity
  8
0
  6
Continuous
 62
     7
370
    15
100
AcDbLine
 10
81.4230803892
 20
118.3592737957
 30
0.0
 11
81.4230803892
 21
140.4318942527
 31
0.0
  0
SPLINE
  5
1E3
330
1F
100
AcDbEntity
  8
0
  6
Continuous
 62
     7
370
    15
100
AcDbSpline
210
0.0
220
0.0
230
1.0
 70
     8
 71
     3
 72
     8
 73
     4
 74
     0
 42
0.00000001
 43
0.00000001
 12
1.0
 22
0.0
 32
0.0
 13
1.0
 23
0.0
 33
0.0
 40
0.0
 40
0.0
 40
0.0
 40
0.0
 40
1.0
 40
1.0
 40
1.0
 40
1.0
 10
81.42308037493068
 20
140.0073507766137
 30
0.0
 10
81.4230803749302
 20
139.9552227987155
 30
0.0
 10
81.39158979239568
 20
139.9323934089598
 30
0.0
 10
81.3264261417794
 20
139.9330559808328
 30
0.0
  0
SPLINE
  5
1E4
330
1F
100
AcDbEntity
  8
0
  6
Continuous
 62
     7
370
    15
100
AcDbSpline
210
0.0
220
0.0
230
1.0
 70
     8
 71
     3
 72
     9
 73
     5
 74
     0
 42
0.00000001
 43
0.00000001
 12
1.0
 22
0.0
 32
0.0
 13
1.0
 23
0.0
 33
0.0
 40
0.0
 40
0.0
 40
0.0
 40
0.0
 40
0.7978727752533924
 40
1.0
 40
1.0
 40
1.0
 40
1.0
 10
80.83013562394908
 20
99.93623595932667
 30
0.0
 10
80.91822427003244
 20
99.9352015590857
 30
0.0
 10
81.02862864628827
 20
99.9339051114902
 30
0.0
 10
81.10719913910046
 20
99.9342062708902
 30
0.0
 10
81.12308037475955
 20
99.93426714340393
 30
0.0
  0
SPLINE
  5
1E5
330
1F
100
AcDbEntity
  8
0
  6
Continuous
 62
     7
370
    15
100
AcDbSpline
210
0.0
220
0.0
230
1.0
 70
     8
 71
     3
 72
     8
 73
     4
 74
     0
 42
0.00000001
 43
0.00000001
 12
1.0
 22
0.0
 32
0.0
 13
1.0
 23
0.0
 33
0.0
 40
0.0
 40
0.0
 40
0.0
 40
0.0
 40
1.0
 40
1.0
 40
1.0
 40
1.0
 10
81.32642614176679
 20
139.9330559808409
 30
0.0
 10
81.22235675514553
 20
139.9341141389966
 30
0.0
 10
81.04108648895364
 20
139.9350343933903
 30
0.0
 10
80.8301356110127
 20
139.9319442141297
 30
0.0
  0
ELLIPSE
  5
1E6
330
1F
100
AcDbEntity
  8
0
  6
Continuous
 62
     7
370
    15
100
AcDbEllipse
 10
69.8222838449
 20
112.5076435011
 30
0.0
 11
-1.928457854319717
 21
2.206071778996048
 31
0.0
210
0.0
220
0.0
230
1.0
 40
0.7033638942
 41
0.0
 42
6.283185307179586
  0
ARC
  5
1E7
330
1F
100
AcDbEntity
  8
0
  6
Continuous
 62
     7
370
    15
100
AcDbCircle
 10
81.1230803749
 20
119.9340897451
 30
0.0
 40
20.00000000000002
100
AcDbArc
 50
90.8392549412
 51
269.1607450588
  0
LINE
  5
1E8
330
1F
100
AcDbEntity
  8
0
  6
Continuous
 62
     7
370
    15
100
AcDbLine
 10
67.7097721866
 20
112.9297844904
 30
0.0
 11
67.3865809015
 21
113.1780601876
 31
0.0
  0
SPLINE
  5
1E9
330
1F
100
AcDbEntity
  8
0
  6
Continuous
 62
     7
370
    15
100
AcDbSpline
210
0.0
220
0.0
230
1.0
 70
     8
 71
     3
 72
    15
 73
    11
 74
     0
 42
0.00000001
 43
0.00000001
 12
1.0
 22
0.0
 32
0.0
 13
1.0
 23
0.0
 33
0.0
 40
0.0
 40
0.0
 40
0.0
 40
0.0
 40
0.1130690059966781
 40
0.3112489471566769
 40
0.4123826463791676
 40
0.5165486629827866
 40
0.6136768602592781
 40
0.7113585730709189
 40
0.8406284946595233
 40
1.0
 40
1.0
 40
1.0
 40
1.0
 10
70.73606857124386
 20
114.4161324786598
 30
0.0
 10
70.69555901058708
 20
114.3102723090988
 30
0.0
 10
70.58404694772723
 20
114.0188673742871
 30
0.0
 10
70.21988552379848
 20
113.7720570839436
 30
0.0
 10
69.80056207306762
 20
113.5766802675219
 30
0.0
 10
69.4381791204918
 20
113.4463529269361
 30
0.0
 10
69.03850535220445
 20
113.3079975773917
 30
0.0
 10
68.60614575664687
 20
113.1442337765904
 30
0.0
 10
68.15710528565108
 20
112.9726118950931
 30
0.0
 10
67.86890185508187
 20
112.9450194701686
 30
0.0
 10
67.70977218661127
 20
112.9297844904119
 30
0.0
  0
LWPOLYLINE
  5
1EA
330
1F
100
AcDbEntity
  8
0
  6
Continuous
 62
     7
370
    15
100
AcDbPolyline
 90
        7
 70
   128
 43
0.0
 10
67.3893376163
 20
113.8101721021
 10
67.4030699677
 20
113.7724428276
 10
67.5293284378
 20
113.425549383
 10
67.6306889302
 20
113.1470653067
 10
67.7021185777
 20
112.9508142198
 10
67.7400718353
 20
112.8465363594
 10
67.7459335795
 20
112.8304328608
  0
LINE
  5
1EB
330
1F
100
AcDbEntity
  8
0
  6
Continuous
 62
     7
370
    15
100
AcDbLine
 10
85.0930803365
 20
93.5919119815
 30
0.0
 11
85.0930803365
 21
102.2380984227
 31
0.0
  0
LINE
  5
1EC
330
1F
100
AcDbEntity
  8
0
  6
Continuous
 62
     7
370
    15
100
AcDbLine
 10
81.1230803749
 20
93.5386868964
 30
0.0
 11
81.1230803749
 21
102.5801564405
 31
0.0
  0
SPLINE
  5
1ED
330
1F
100
AcDbEntity
  8
0
  6
Continuous
 62
     7
370
    15
100
AcDbSpline
210
0.0
220
0.0
230
1.0
 70
    24
 71
     3
 72
    14
 73
    10
 74
     0
 42
0.00000001
 43
0.00000001
 12
1.0
 22
0.0
 32
0.0
 13
1.0
 23
0.0
 33
0.0
 40
0.0
 40
0.0
 40
0.0
 40
0.0
 40
0.1583230961016007
 40
0.3168026830222371
 40
0.471382480262684
 40
0.6221293965279974
 40
0.7721293361887187
 40
0.9246019923166197
 40
1.0
 40
1.0
 40
1.0
 40
1.0
 10
85.09308033648549
 20
93.59191198149864
 30
0.0
 10
85.09308033648549
 20
93.58158503430228
 30
0.0
 10
85.09308033648549
 20
93.56092093247639
 30
0.0
 10
85.09308033648549
 20
93.52588743433918
 30
0.0
 10
85.09308033648549
 20
93.49327198167215
 30
0.0
 10
85.09308033648549
 20
93.46629913034276
 30
0.0
 10
85.09308033648549
 20
93.44770344366208
 30
0.0
 10
85.09308033648549
 20
93.4400801354201
 30
0.0
 10
85.09308033648549
 20
93.44016705033462
 30
0.0
 10
85.09308033648549
 20
93.44019580880348
 30
0.0
  0
SPLINE
  5
1EE
330
1F
100
AcDbEntity
  8
0
  6
Continuous
 62
     7
370
    15
100
AcDbSpline
210
0.0
220
0.0
230
1.0
 70
    24
 71
     3
 72
    14
 73
    10
 74
     0
 42
0.00000001
 43
0.00000001
 12
1.0
 22
0.0
 32
0.0
 13
1.0
 23
0.0
 33
0.0
 40
0.0
 40
0.0
 40
0.0
 40
0.0
 40
0.0380028494466371
 40
0.2192538308577432
 40
0.3961587908753382
 40
0.569573477880614
 40
0.7422859920913799
 40
0.9173602072854121
 40
1.0
 40
1.0
 40
1.0
 40
1.0
 10
81.12308037493011
 20
92.94674385586922
 30
0.0
 10
81.12308037493011
 20
92.94760514831174
 30
0.0
 10
81.12308037493011
 20
92.95257429326436
 30
0.0
 10
81.12308037493023
 20
93.00589125956171
 30
0.0
 10
81.12308037492977
 20
93.10089400936857
 30
0.0
 10
81.12308037493021
 20
93.22384132929928
 30
0.0
 10
81.12308037493008
 20
93.35626733809946
 30
0.0
 10
81.12308037493011
 20
93.46404882368824
 30
0.0
 10
81.12308037493011
 20
93.52056435786307
 30
0.0
 10
81.12308037493011
 20
93.53868689635935
 30
0.0
  0
SPLINE
  5
1EF
330
1F
100
AcDbEntity
  8
0
  6
Continuous
 62
     7
370
    15
100
AcDbSpline
210
0.0
220
0.0
230
1.0
 70
    24
 71
     3
 72
    10
 73
     6
 74
     0
 42
0.00000001
 43
0.00000001
 12
1.0
 22
0.0
 32
0.0
 13
1.0
 23
0.0
 33
0.0
 40
0.0
 40
0.0
 40
0.0
 40
0.0
 40
0.2657157674712284
 40
0.6165017896119783
 40
1.0
 40
1.0
 40
1.0
 40
1.0
 10
85.09308033648549
 20
102.2846217105741
 30
0.0
 10
85.09308033648549
 20
102.2835347674783
 30
0.0
 10
85.09308033648549
 20
102.2810128909253
 30
0.0
 10
85.09308033648549
 20
102.2661171271443
 30
0.0
 10
85.09308033648549
 20
102.2477113156797
 30
0.0
 10
85.09308033648549
 20
102.2380984226817
 30
0.0
  0
SPLINE
  5
1F0
330
1F
100
AcDbEntity
  8
0
  6
Continuous
 62
     7
370
    15
100
AcDbSpline
210
0.0
220
0.0
230
1.0
 70
    24
 71
     3
 72
    10
 73
     6
 74
     0
 42
0.00000001
 43
0.00000001
 12
1.0
 22
0.0
 32
0.0
 13
1.0
 23
0.0
 33
0.0
 40
0.0
 40
0.0
 40
0.0
 40
0.0
 40
0.3518015554901875
 40
0.7034228760533325
 40
1.0
 40
1.0
 40
1.0
 40
1.0
 10
81.12308037493015
 20
102.5801564405317
 30
0.0
 10
81.12308037493015
 20
102.6155957316726
 30
0.0
 10
81.12308037493015
 20
102.6864561577016
 30
0.0
 10
81.12308037493015
 20
102.7497804532995
 30
0.0
 10
81.12308037493015
 20
102.7610733292918
 30
0.0
 10
81.12308037493015
 20
102.7662402788753
 30
0.0
  0
LINE
  5
1F1
330
1F
100
AcDbEntity
  8
0
  6
Continuous
 62
     7
370
    15
100
AcDbLine
 10
81.4230803892
 20
103.285359482
 30
0.0
 11
81.1230803749
 21
103.3242198477
 31
0.0
  0
LINE
  5
1F2
330
1F
100
AcDbEntity
  8
0
  6
Continuous
 62
     7
370
    15
100
AcDbLine
 10
85.0930803365
 20
102.2846217106
 30
0.0
 11
85.0930803365
 21
102.295432503
 31
0.0
  0
LINE
  5
1F3
330
1F
100
AcDbEntity
  8
0
  6
Continuous
 62
     7
370
    15
100
AcDbLine
 10
81.1230803749
 20
102.7662402789
 30
0.0
 11
81.1230803749
 21
103.3242198477
 31
0.0
  0
CIRCLE
  5
1F4
330
1F
100
AcDbEntity
  8
VERMASSUNG
  6
CENTERX2
100
AcDbCircle
 10
81.1230803749
 20
117.9336205652
 30
0.0
 40
25.0
  0
DIMENSION
  5
1F5
330
1F
100
AcDbEntity
  8
VERMASSUNG
100
AcDbDimension
  2
_D_5
 10
65.6932763673
 20
137.6039319071
 30
0.0
 11
59.6342915341
 21
145.3280817426
 31
0.0
 70
   160
  1
%%c<> min. 
 71
     2
 42
-1.0
  3
SLDDIMSTYLE3
100
AcDbAlignedDimension
 13
96.5528843825
 23
98.2633092233
 33
0.0
 14
65.6932763673
 24
137.6039319071
 34
0.0
 50
-51.8886201817
100
AcDbRotatedDimension
  0
INSERT
  5
20F
330
1F
100
AcDbEntity
  8
VERMASSUNG
100
AcDbBlockReference
  2
SW_CENTERMARKSYMBOL_0
 10
81.1230803749
 20
119.9340897451
 30
0.0
  0
OLE2FRAME
  5
210
330
1F
100
AcDbEntity
  8
0
100
AcDbOle2Frame
 70
     2
  3
Paintbrush-Bild
 10
13.8511154363
 20
38.264191557
 30
0.0
 11
51.6290888628
 21
31.9806341108
 31
0.0
 71
     2
 72
     0
 73
     1
 90
    12928
310
80552BED0767C5B32B40DDAF6807D121434000000000000000006FFBDDFB85D0
310
4940DDAF6807D121434000000000000000006FFBDDFB85D04940416F4BD60AFB
310
3F4000000000000000002BED0767C5B32B40416F4BD60AFB3F40000000000000
310
0000000000000100000000010000010000000100000000000100000000320000
310
D0CF11E0A1B11AE1000000000000000000000000000000003E000300FEFF0900
310
0600000000000000000000000100000001000000000000000010000002000000
310
01000000FEFFFFFF0000000000000000FFFFFFFFFFFFFFFFFFFFFFFFFFFFFFFF
310
FFFFFFFFFFFFFFFFFFFFFFFFFFFFFFFFFFFFFFFFFFFFFFFFFFFFFFFFFFFFFFFF
310
FFFFFFFFFFFFFFFFFFFFFFFFFFFFFFFFFFFFFFFFFFFFFFFFFFFFFFFFFFFFFFFF
310
FFFFFFFFFFFFFFFFFFFFFFFFFFFFFFFFFFFFFFFFFFFFFFFFFFFFFFFFFFFFFFFF
310
FFFFFFFFFFFFFFFFFFFFFFFFFFFFFFFFFFFFFFFFFFFFFFFFFFFFFFFFFFFFFFFF
310
FFFFFFFFFFFFFFFFFFFFFFFFFFFFFFFFFFFFFFFFFFFFFFFFFFFFFFFFFFFFFFFF
310
FFFFFFFFFFFFFFFFFFFFFFFFFFFFFFFFFFFFFFFFFFFFFFFFFFFFFFFFFFFFFFFF
310
FFFFFFFFFFFFFFFFFFFFFFFFFFFFFFFFFFFFFFFFFFFFFFFFFFFFFFFFFFFFFFFF
310
FFFFFFFFFFFFFFFFFFFFFFFFFFFFFFFFFFFFFFFFFFFFFFFFFFFFFFFFFFFFFFFF
310
FFFFFFFFFFFFFFFFFFFFFFFFFFFFFFFFFFFFFFFFFFFFFFFFFFFFFFFFFFFFFFFF
310
FFFFFFFFFFFFFFFFFFFFFFFFFFFFFFFFFFFFFFFFFFFFFFFFFFFFFFFFFFFFFFFF
310
FFFFFFFFFFFFFFFFFFFFFFFFFFFFFFFFFFFFFFFFFFFFFFFFFFFFFFFFFFFFFFFF
310
FFFFFFFFFFFFFFFFFFFFFFFFFFFFFFFFFFFFFFFFFFFFFFFFFFFFFFFFFFFFFFFF
310
FFFFFFFFFFFFFFFFFFFFFFFFFFFFFFFFFFFFFFFFFFFFFFFFFFFFFFFFFFFFFFFF
310
FDFFFFFFFEFFFFFFFEFFFFFFFEFFFFFF05000000060000000700000008000000
310
090000000A0000000B0000000C0000000D0000000E0000000F00000010000000
310
11000000120000001300000014000000150000001600000017000000FEFFFFFF
310
FFFFFFFFFFFFFFFFFFFFFFFFFFFFFFFFFFFFFFFFFFFFFFFFFFFFFFFFFFFFFFFF
310
FFFFFFFFFFFFFFFFFFFFFFFFFFFFFFFFFFFFFFFFFFFFFFFFFFFFFFFFFFFFFFFF
310
FFFFFFFFFFFFFFFFFFFFFFFFFFFFFFFFFFFFFFFFFFFFFFFFFFFFFFFFFFFFFFFF
310
FFFFFFFFFFFFFFFFFFFFFFFFFFFFFFFFFFFFFFFFFFFFFFFFFFFFFFFFFFFFFFFF
310
FFFFFFFFFFFFFFFFFFFFFFFFFFFFFFFFFFFFFFFFFFFFFFFFFFFFFFFFFFFFFFFF
310
FFFFFFFFFFFFFFFFFFFFFFFFFFFFFFFFFFFFFFFFFFFFFFFFFFFFFFFFFFFFFFFF
310
FFFFFFFFFFFFFFFFFFFFFFFFFFFFFFFFFFFFFFFFFFFFFFFFFFFFFFFFFFFFFFFF
310
FFFFFFFFFFFFFFFFFFFFFFFFFFFFFFFFFFFFFFFFFFFFFFFFFFFFFFFFFFFFFFFF
310
FFFFFFFFFFFFFFFFFFFFFFFFFFFFFFFFFFFFFFFFFFFFFFFFFFFFFFFFFFFFFFFF
310
FFFFFFFFFFFFFFFFFFFFFFFFFFFFFFFFFFFFFFFFFFFFFFFFFFFFFFFFFFFFFFFF
310
FFFFFFFFFFFFFFFFFFFFFFFFFFFFFFFFFFFFFFFFFFFFFFFFFFFFFFFFFFFFFFFF
310
FFFFFFFFFFFFFFFFFFFFFFFFFFFFFFFFFFFFFFFFFFFFFFFFFFFFFFFFFFFFFFFF
310
FFFFFFFFFFFFFFFFFFFFFFFFFFFFFFFFFFFFFFFFFFFFFFFFFFFFFFFFFFFFFFFF
310
52006F006F007400200045006E00740072007900000000000000000000000000
310
0000000000000000000000000000000000000000000000000000000000000000
310
16000500FFFFFFFFFFFFFFFF020000000A00030000000000C000000000000046
310
00000000000000000000000090D021442338CD0103000000C000000000000000
310
01004F006C006500000000000000000000000000000000000000000000000000
310
0000000000000000000000000000000000000000000000000000000000000000
310
0A000200FFFFFFFFFFFFFFFFFFFFFFFF00000000000000000000000000000000
310
0000000000000000000000000000000000000000000000001400000000000000
310
010043006F006D0070004F0062006A0000000000000000000000000000000000
310
0000000000000000000000000000000000000000000000000000000000000000
310
120002010100000003000000FFFFFFFF00000000000000000000000000000000
310
0000000000000000000000000000000000000000010000004D00000000000000
310
01004F006C006500310030004E00610074006900760065000000000000000000
310
0000000000000000000000000000000000000000000000000000000000000000
310
1A000200FFFFFFFFFFFFFFFFFFFFFFFF00000000000000000000000000000000
310
0000000000000000000000000000000000000000040000002426000000000000
310
FEFFFFFF02000000FEFFFFFFFFFFFFFFFFFFFFFFFFFFFFFFFFFFFFFFFFFFFFFF
310
FFFFFFFFFFFFFFFFFFFFFFFFFFFFFFFFFFFFFFFFFFFFFFFFFFFFFFFFFFFFFFFF
310
FFFFFFFFFFFFFFFFFFFFFFFFFFFFFFFFFFFFFFFFFFFFFFFFFFFFFFFFFFFFFFFF
310
FFFFFFFFFFFFFFFFFFFFFFFFFFFFFFFFFFFFFFFFFFFFFFFFFFFFFFFFFFFFFFFF
310
FFFFFFFFFFFFFFFFFFFFFFFFFFFFFFFFFFFFFFFFFFFFFFFFFFFFFFFFFFFFFFFF
310
FFFFFFFFFFFFFFFFFFFFFFFFFFFFFFFFFFFFFFFFFFFFFFFFFFFFFFFFFFFFFFFF
310
FFFFFFFFFFFFFFFFFFFFFFFFFFFFFFFFFFFFFFFFFFFFFFFFFFFFFFFFFFFFFFFF
310
FFFFFFFFFFFFFFFFFFFFFFFFFFFFFFFFFFFFFFFFFFFFFFFFFFFFFFFFFFFFFFFF
310
FFFFFFFFFFFFFFFFFFFFFFFFFFFFFFFFFFFFFFFFFFFFFFFFFFFFFFFFFFFFFFFF
310
FFFFFFFFFFFFFFFFFFFFFFFFFFFFFFFFFFFFFFFFFFFFFFFFFFFFFFFFFFFFFFFF
310
FFFFFFFFFFFFFFFFFFFFFFFFFFFFFFFFFFFFFFFFFFFFFFFFFFFFFFFFFFFFFFFF
310
FFFFFFFFFFFFFFFFFFFFFFFFFFFFFFFFFFFFFFFFFFFFFFFFFFFFFFFFFFFFFFFF
310
FFFFFFFFFFFFFFFFFFFFFFFFFFFFFFFFFFFFFFFFFFFFFFFFFFFFFFFFFFFFFFFF
310
FFFFFFFFFFFFFFFFFFFFFFFFFFFFFFFFFFFFFFFFFFFFFFFFFFFFFFFFFFFFFFFF
310
FFFFFFFFFFFFFFFFFFFFFFFFFFFFFFFFFFFFFFFFFFFFFFFFFFFFFFFFFFFFFFFF
310
FFFFFFFFFFFFFFFFFFFFFFFFFFFFFFFFFFFFFFFFFFFFFFFFFFFFFFFFFFFFFFFF
310
0100000200000000000000000000000000000000000000000000000000000000
310
0000000000000000000000000000000000000000000000000000000000000000
310
0100FEFF030A0000FFFFFFFF0A00030000000000C00000000000004607000000
310
5042727573680007000000504272757368000700000050427275736800F439B2
310
7100000000000000000000000000000000000000000000000000000000000000
310
0000000000000000000000000000000000000000000000000000000000000000
310
0000000000000000000000000000000000000000000000000000000000000000
310
0000000000000000000000000000000000000000000000000000000000000000
310
0000000000000000000000000000000000000000000000000000000000000000
310
0000000000000000000000000000000000000000000000000000000000000000
310
0000000000000000000000000000000000000000000000000000000000000000
310
0000000000000000000000000000000000000000000000000000000000000000
310
0000000000000000000000000000000000000000000000000000000000000000
310
0000000000000000000000000000000000000000000000000000000000000000
310
0000000000000000000000000000000000000000000000000000000000000000
310
0000000000000000000000000000000000000000000000000000000000000000
310
20260000424D0E260000000000003E00000028000000B40200006E0000000100
310
01000000000000000000130B0000130B00000200000002000000000000FFFFFF
310
FFFFFFFFFFFFFFFFFFFFFFFFFFFFFFFFFFFFFFFFFFFFFFFFFFFFFFFFFFFFFFFF
310
FFFFFFFFFFFFFFFFFFFFFFFFFFFFFFFFFFFFFFFFFFFFFFFFFFFFFFFFFFFFFFFF
310
FFFFFFFFFFFFFFFFFFFFFFFFFFFFFFFFFFFFFFFFFFFFFFFFF000FFFFFFFFFFFF
310
FFFFFFFFFFFFFFFFFFFFFFFFFFFFFFFFFFFFFFFFFFFFFFFFFFFFFFFFFFFFFFFF
310
FFFFFFFFFFFFFFFFFFFFFFFFFFFFFFFFFFFFFFFFFFFFFFFFFFFFFFFFFFFFFFFF
310
FFFFFFFFFFFFFFFFFFFFFFFFFFFFFFFFF000FFFFFFFFFFFFFFFFFFFFFFFFFFFF
310
FFFFFFFFFFFFFFFFFFFFFFFFFFFFFFFFFFFFFFFFFFFFFFFFFFFFFFFFFFFFFFFF
310
FFFFFFFFFFFFFFFFFFFFFFFFFFFFFFFFFFFFFFFFFFFFFFFFFFFFFFFFFFFFFFFF
310
FFFFFFFFFFFFFFFFF000FFFFFFFFFFFFFFFFFFFFFFFFFFFFFFFFFFFFFFFFFFFF
310
FFFFFFFFFFFFFFFFFFFFFFFFFFFFFFFFFFFFFFFFFFFFFFFFFFFFFFFFFFFFFFFF
310
FFFFFFFFFFFFFFFFFFFFFFFFFFFFFFFFFFFFFFFFFFFFFFFFFFFFFFFFFFFFFFFF
310
F000FFFFFFFFFFFFFFFFFFFFFFFFFFFFFFFFFFFFFFFFFFFFFFFFFFFFFFFFFFFF
310
FFFFFFFFFFFFFFFFFFFFFFFFFFFFFFFFFFFFFFFFFFFFFFFFFFFFFFFFFFFFFFFF
310
FFFFFFFFFFFFFFFFFFFFFFFFFFFFFFFFFFFFFFFFFFFFFFFFF000FFFFFFFFFFFF
310
FFFFFFFFFFFFFFFFFFFFFFFFFFFFFFFFFFFFFFFFFFFFFFFFFFFFFFFFFFFFFFFF
310
FFFFFFFFFFFFFFFFFFFFFFFFFFFFFFFFFFFFFFFFFFFFFFFFFFFFFFFFFFFFFFFF
310
FFFFFFFFFFFFFFFFFFFFFFFFFFFFFFFFF000FFFFFFFFFFFFFFFFFFFFFFFFFFFF
310
FFFFFFFFFFFFFFFFFFFFFFFFFFFFFFFFFFFFFFFFFFFFFFFFFFFFFFFFFFFFFFFF
310
FFFFFFFFFFFFFFFFFFFFFFFFFFFFFFFFFFFFFFFFFFFFFFFFFFFFFFFFFFFFFFFF
310
FFFFFFFFFFFFFFFFF000FFFFFFFFFFFFFFFFFFFFFFFFFFFFFFFFFFFFFFFFFFFF
310
FFFFFFFFFFFFFFFFFFFFFFFFFFFFFFFFFFFFFFFFFFFFFFFFFFFFFFFFFFFFFFFF
310
FFFFFFFFFFFFFFFFFFFFFFFFFFFFFFFFFFFFFFFFFFFFFFFFFFFFFFFFFFFFFFFF
310
F000FFFFFFFFFFFFFFFFFFFFFFFFFFFFFFFFFFFFFFFFFFFFFFFFFFFFFFFFFFFF
310
FFFFFFFFFFFFFFFFFFFFFFFFFFFFFFFFFFFFFFFFFFFFFFFFFFFFFFFFFFFFFFFF
310
FFFFFFFFFFFFFFFFFFFFFFFFFFFFFFFFFFFFFFFFFFFFFFFFF000FFFFFFFFFFFF
310
FFFFFFFFFFFFFFFFFFFFFFFFFFFFFFFFFFFFFFFFFFFFFFFFFFFFFFFFFFFFFFFF
310
FFFFFFFFFFFFFFFFFFFFFFFFFFFFFFFFFFFFFFFFFFFFFFFFFFFFFFFFFFFFFFFF
310
FFFFFFFFFFFFFFFFFFFFFFFFFFFFFFFFF000FFFFFFFFFFFFFFFFFFFFFFFFFFFF
310
FFFFFFFFFFFFFFFFFFFFFFFFFFFFFFFFFFFFFFFFFFFFFFFFFFFFFFFFFFFFFFFF
310
FFFFFFFFFFFFFFFFFFFFFFFFFFFFFFFFFFFFFFFFFFFFFFFFFFFFFFFFFFFFFFFF
310
FFFFFFFFFFFFFFFFF000FFFFFFFFFFFFFFFFFFFFFFFFFFFFFFFFFFFFFFFFFFFF
310
FFFFFFFFFFFFFFFFFFFFFFFFFFFFFFFFFFFFFFFFFFFFFFFFFFFFFFFFFFFFFFFF
310
FFFFFFFFFFFFFFFFFFFFFFFFFFFFFFFFFFFFFFFFFFFFFFFFFFFFFFFFFFFFFFFF
310
F000FFFFFFFFFFFFFFFFFFFFFFFFFFFFFFFFFFFFFFFFFFFFFFFFFFFFFFFFFFFF
310
FFFFFFFFFFFFFFFFFFFFFFFFFFFFFFFFFFFFFFFFFFFFFFFFFFFFFFFFFFFFFFFF
310
FFFFFFFFFFFFFFFFFFFFFFFFFFFFFFFFFFFFFFFFFFFFFFFFF000FFFFFFFFFFFF
310
FFFFFFFFFFFFFFFFFFFFFFFFFFFFFFFFFFFFFFFFFFFFFFFFFFFFFFFFFFFFFFFF
310
FFFFFFFFFFFFFFFFFFFFFFFFFFFFFFFFFFFFFFFFFFFFFFFFFFFFFFFFFFFFFFFF
310
FFFFFFFFFFFFFFFFFFFFFFFFFFFFFFFFF000FFFFFFFFFFFFFFFFFFFFFFFFFFFF
310
FFFFFFFFFFFFFFFFFFFFFFFFFFFFFFFFFFFFFFFFFFFFFFFFFFFFFFFFFFFFFFFF
310
FFFFFFFFFFFFFFFFFFFFFFFFFFFFFFFFFFFFFFFFFFFFFFFFFFFFFFFFFFFFFFFF
310
FFFFFFFFFFFFFFFFF000FFFFFFFFFFFFFFFFFFFFFFFFFFFFFFFFFFFFFFFFFFFF
310
FFFFFFFFFFFFFFFFFFFFFFFFFFFFFFFFFFFFFFFFFFFFFFFFFFFFFFFFFFFFFFFF
310
FFFFFFFFFFFFFFFFFFFFFFFFFFFFFFFFFFFFFFFFFFFFFFFFFFFFFFFFFFFFFFFF
310
F000FFFFFFFFFFFFFFFFFFFFFFFFFFFFFFFFFFFFFFFFFFFFFFFFFFFFFFFFFFFF
310
FFFFFFFFFFFFFFFFFFFFFFFFFFFFFFFFFFFFFFFFFFFFFFFFFFFFFFFFFFFFFFFF
310
FFFFFFFFFFFFFFFFFFFFFFFFFFFFFFFFFFFFFFFFFFFFFFFFF000FFFFFFFFFFFF
310
FFFFFFFFFFFFFFFFFFFFFFFFFFFFFFFFFFFFFFFFFFFFFFFFFFFFFFFFFFFFFFFF
310
FFFFFFFFFFFFFFFFFFFFFFFFFFFFFFFFFFFFFFFFFFFFFFFFFFFFFFFFFFFFFFFF
310
FFFFFFFFFFFFFFFFFFFFFFFFFFFFFFFFF000FFFFFFFFFFFFFFFFFFFFFFFFFFFF
310
FFFFFFFFFFFFFFFFFFFFFFFFFFFFFFFFFFFFFFFFFFFFFFFFFFFFFFFFFFFFFFFF
310
FFFFFFFFFFFFFFFFFFFFFFFFFFFFFFFFFFFFFFFFFFFFFFFFFFFFFFFFFFFFFFFF
310
FFFFFFFFFFFFFFFFF000FFFFF80003FFFFFFFFFFFFFFFFFFFFFFFFFFFFFFFFFF
310
FFFFF00007FFFFFFFFFF00007FFFFFF800000000000000007FFFFFFFFFFFFFFF
310
FFFFFFFC001FFFFFFFFFFFFFFC001FFFFFFFFFFFFFFFFFFFFFFFFFFE0007FFFF
310
F000FFFF8000007FFFFFFFF8000FFFFFC0007FFFFF80007FFFFF0000007FFFFF
310
FFF8000007FFFFF800000000000000007FFFFFF0001FFFFFFFFFFFC00001FFFF
310
FFFFFFFFC00001FFFFFFFF000000000003FFFFE000007FFFF000FFFE0000000F
310
FFFFFFF0000FFFFF80007FFFFF80007FFFFC0000001FFFFFFFC0000001FFFFF8
310
00000000000000007FFFFFF0001FFFFFFFFFFE0000003FFFFFFFFFFE0000003F
310
FFFFFF000000000003FFFF0000000FFFF000FFF800000003FFFFFFF00007FFFF
310
80007FFFFF80007FFFF000000007FFFFFF000000003FFFF80000000000000000
310
7FFFFFF0001FFFFFFFFFF80000000FFFFFFFFFF80000000FFFFFFF0000000000
310
03FFFC00000003FFF000FFE000000000FFFFFFF00007FFFF80003FFFFF80007F
310
FFC000000001FFFFFC000000001FFFF800000000000000007FFFFFF0001FFFFF
310
FFFFE000000003FFFFFFFFE000000003FFFFFF000000000003FFF000000000FF
310
F000FF80000000007FFFFFF00007FFFF80003FFFFF80007FFF8000000000FFFF
310
F80000000007FFF800000000000000007FFFFFF0001FFFFFFFFFC000000001FF
310
FFFFFFC000000001FFFFFF000000000003FFC0000000007FF000FF0000000000
310
3FFFFFE00007FFFF00003FFFFF80007FFE00000000003FFFF00000000003FFF8
310
00000000000000007FFFFFF0001FFFFFFFFF8000000000FFFFFFFF8000000000
310
FFFFFF000000000003FF80000000003FF000FE00000000001FFFFFE00003FFFF
310
00003FFFFF80007FFC00000000001FFFE00000000001FFF8000001FFFE000000
310
7FFFFFF0001FFFFFFFFE00000000003FFFFFFE00000000003FFFFF0000000000
310
03FF00000000001FF000FC00000000000FFFFFE00003FFFF00001FFFFF80007F
310
F800000000001FFFC00000000000FFF8000001FFFE0000007FFFFFF0001FFFFF
310
FFFC00000000001FFFFFFC00000000001FFFFF000000000003FE00000000000F
310
F000F8000000000007FFFFE00003FFFF00001FFFFF80007FF800000000000FFF
310
800000000000FFF8000001FFFE0000007FFFFFF0001FFFFFFFF800000000000F
310
FFFFF800000000000FFFFF000000000003FC000000000007F000F80000000000
310
03FFFFC00003FFFE00001FFFFF80007FF0000000000007FF0000000000007FF8
310
000001FFFE0000007FFFFFF0001FFFFFFFF0000000000007FFFFF00000000000
310
07FFFF000000000003F8000000000003F000F0000000000003FFFFC00001FFFE
310
00001FFFFF80007FE0000000000007FE0000000000003FF8000001FFFE000000
310
7FFFFFF0001FFFFFFFF0000000000007FFFFF0000000000007FFFF0000000000
310
03F800001F800003F000E00001FFF00001FFFFC00001FFFE00000FFFFF80007F
310
E00001FFE00003FE00001FFF00003FF8000001FFFE0000007FFFFFF0001FFFFF
310
FFE000003E000003FFFFE000003E000003FFFF000000000003F00001FFF80001
310
F000E00007FFFC0001FFFFC00001FFFE00000FFFFF80007FC0000FFFFC0003FC
310
0000FFFFC0001FF8000001FFFE0000007FFFFFF0001FFFFFFFC00003FFE00001
310
FFFFC00003FFE00001FFFF0001FFFFFFFFF00007FFFE0001F000E0000FFFFF00
310
00FFFF800001FFFC00000FFFFF80007FC0001FFFFE0001FC0001FFFFE0001FF8
310
000001FFFE0000007FFFFFF0001FFFFFFF80000FFFF80000FFFF80000FFFF800
310
00FFFF0003FFFFFFFFE0000FFFFF8000F000C0003FFFFF8000FFFF800000FFFC
310
000007FFFF80007F80003FFFFF0001FC0003FFFFF0001FF8000001FFFE000000
310
7FFFFFF0001FFFFFFF80003FFFFE0000FFFF80003FFFFE0000FFFF0003FFFFFF
310
FFE0003FFFFF8000F000C0003FFFFF8000FFFF800000FFFC000007FFFF80007F
310
80007FFFFF8001F80007FFFFF8000FF8000001FFFE0000007FFFFFF0001FFFFF
310
FF00007FFFFF00007FFF00007FFFFF00007FFF0003FFFFFFFFE0003FFFFFC000
310
F000C0007FFFFFC000FFFF000000FFFC000007FFFF80007F8000FFFFFF8000F8
310
000FFFFFF8000FF8000001FFFE0000007FFFFFF0001FFFFFFF0000FFFFFF8000
310
7FFF0000FFFFFF80007FFF0003FFFFFFFFC0007FFFFFC00070008000FFFFFFC0
310
00FFFF000000FFF8000007FFFF80007F8000FFFFFF8000F8000FFFFFF8000FF8
310
000001FFFE0000007FFFFFF0001FFFFFFE0001FFFFFFC0003FFE0001FFFFFFC0
310
003FFF0003FFFFFFFFC0007FFFFFE00070008000FFFFFFC0007FFF0000007FF8
310
000003FFFF80007F0001FFFFFF8000F8000FFFFFF8000FF8000001FFFE000000
310
7FFFFFF0001FFFFFFE0001FFFFFFC0003FFE0001FFFFFFC0003FFF0003FFFFFF
310
FFC000FFFFFFE00070008000FFFFFFC0007FFF0000007FF8000003FFFF80007F
310
0001FFFFFF8000F8001FFFFFF8000FF8000001FFFE0000007FFFFFF0001FFFFF
310
FE0003FFFFFFE0003FFE0003FFFFFFE0003FFF0003FFFFFFFFC000FFFFFFE000
310
70008000FFFFFFC0007FFE0000007FF8000003FFFF80007F0001FFFFFF8000F0
310
001FFFFFF8000FF8000001FFFE0000007FFFFFF0001FFFFFFC0003FFFFFFE000
310
1FFC0003FFFFFFE0001FFF0003FFFFFFFFC000FFFFFFC00070008000FFFFFF80
310
007FFE0000007FF0000003FFFF80007F0001FFFFFF0000F0001FFFFFF8000FF8
310
000001FFFE0000007FFFFFF0001FFFFFFC0007FFFFFFF0001FFC0007FFFFFFF0
310
001FFF0003FFFFFFFFC000FFFFFFC00070008001FFFFFF0000FFFE0000003FF0
310
000001FFFF80007F0001FFFFFF0000F8001FFFFFF0000FF8000001FFFE000000
310
7FFFFFF0001FFFFFFC0007FFFFFFF0001FFC0007FFFFFFF0001FFF0003FFFFFF
310
FFC001FFFFFF80007000FFFFFFFFFE0000FFFE0008003FF0008001FFFF80007F
310
FFFFFFFFFC0000FFFFFFFFFFE0000FF8000001FFFE0000007FFFFFF0001FFFFF
310
F8000FFFFFFFF8000FF8000FFFFFFFF8000FFF0003FFFFFFFFFFFFFFFFFF0000
310
7000FFFFFFFFFC0000FFFC0008003FF0008001FFFF80007FFFFFFFFFF80001FF
310
FFFFFFFF80000FF8000001FFFE0000007FFFFFF0001FFFFFF8000FFFFFFFF800
310
0FF8000FFFFFFFF8000FFF0003FFFFFFFFFFFFFFFFFE0000F000FFFFFFFFE000
310
00FFFC000C003FE000C001FFFF80007FFFFFFFFFC00001FFFFFFFFFE00001FF8
310
000001FFFE0000007FFFFFF0001FFFFFF8000FFFFFFFF8000FF8000FFFFFFFF8
310
000FFF0003FFFFFFFFFFFFFFFFF00000F000FFFFFFFE000001FFFC000C001FE0
310
00C000FFFF80007FFFFFFFFE000001FFFFFFFFE000001FF80FFFFFFFFFFFFFC0
310
7FFFFFF0001FFFFFF8000FFFFFFFF8000FF8000FFFFFFFF8000FFF0003FFFFFF
310
FFFFFFFFFF800000F000FFFFFFC0000001FFFC001C001FE001C000FFFF80007F
310
FFFFFF80000003FFFFFFF80000001FF80FFFFFFFFFFFFFC07FFFFFF0001FFFFF
310
F8001FFFFFFFFC000FF8001FFFFFFFFC000FFF0003FFFFFFFFFFFFFFF0000001
310
F000FFFFF800000001FFF8001C001FE001C000FFFF80007FFFFFF800000003FF
310
FFFF800000003FF80FFFFFFFFFFFFFC07FFFFFF0001FFFFFF8001FFFFFFFFC00
310
0FF8001FFFFFFFFC000FFF0003FFFFFFFFFFFFFE00000001F000FFFFC0000000
310
03FFF8001E001FC001E000FFFF80007FFFFF8000000007FFFFFC000000003FF8
310
0FFFFFFFFFFFFFC07FFFFFF0001FFFFFF8001FFFFFFFFC000FF8001FFFFFFFFC
310
000FFF0003FFFFFFFFFFFFE000000003F000FFFE0000000007FFF8001E000FC0
310
01E0007FFF80007FFFFE0000000007FFFFE0000000007FF80FFFFFFFFFFFFFC0
310
7FFFFFF0001FFFFFF0001FFFFFFFFC0007F0001FFFFFFFFC0007FF0003FFFFFF
310
FFFFFF0000000003F000FFF80000000007FFF8001E000FC003E0007FFF80007F
310
FFF0000000000FFFFF8000000000FFF80FFFFFFFFFFFFFC07FFFFFF0001FFFFF
310
F0001FFFFFFFFC0007F0001FFFFFFFFC0007FF0003FFFFFFFFFFFC0000000007
310
F000FFE0000000000FFFF0003E000FC003E0007FFF80007FFFC0000000001FFF
310
FE0000000001FFF80FFFFFFFFFFFFFC07FFFFFF0001FFFFFF0001FFFFFFFFC00
310
07F0001FFFFFFFFC0007FF0003FFFFFFFFFFF0000000000FF000FFC000000000
310
1FFFF0003F000F8003F0003FFF80007FFF80000000003FFFF80000000003FFF8
310
0FFFFFFFFFFFFFC07FFFFFF0001FFFFFF0001FFFFFFFFC0007F0001FFFFFFFFC
310
0007FF0003FFFFFFFFFFE0000000001FF000FF00000000007FFFF0003F000780
310
03F0003FFF80007FFF00000000007FFFF00000000007FFF80FFFFFFFFFFFFFC0
310
7FFFFFF0001FFFFFF0001FFFFFFFFC0007F0001FFFFFFFFC0007FF0003FFFFFF
310
FFFF80000000007FF000FE0000000000FFFFE0003F00078007F0003FFF80007F
310
FE0000000001FFFFE0000000001FFFF80FFFFFFFFFFFFFC07FFFFFF0001FFFFF
310
F0001FFFFFFFFC0007F0001FFFFFFFFC0007FF0003FFFFFFFFFF0000000000FF
310
F000FC0000000003FFFFE0007F00078007F0003FFF80007FFC0000000007FFFF
310
C0000000007FFFF80FFFFFFFFFFFFFC07FFFFFF0001FFFFFF8001FFFFFFFFC00
310
0FF8001FFFFFFFFC000FFF0003FFFFFFFFFE0000000003FFF000FC000000000F
310
FFFFE0007F80070007F8001FFF80007FF8000000001FFFFF8000000001FFFFF8
310
0FFFFFFFFFFFFFC07FFFFFF0001FFFFFF8001FFFFFFFFC000FF8001FFFFFFFFC
310
000FFF0003FFFFFFFFFC000000000FFFF000F8000000007FFFFFE0007F800700
310
07F8001FFF80007FF000000000FFFFFF800000000FFFFFF80FFFFFFFFFFFFFC0
310
7FFFFFF0001FFFFFF8000FFFFFFFF8000FF8000FFFFFFFF8000FFF0003FFFFFF
310
FFFC000000007FFFF000F800000007FFFFFFC0007F8003000FF8001FFF80007F
310
F000000007FFFFFF000000007FFFFFF80FFFFFFFFFFFFFC07FFFFFF0001FFFFF
310
F8000FFFFFFFF8000FF8000FFFFFFFF8000FFF0003FFFFFFFFF80000000FFFFF
310
F000F0000000FFFFFFFFC000FF8003000FF8001FFF80007FE0000000FFFFFFFF
310
0000000FFFFFFFF8000001FFFE0000007FFFFFF0001FFFFFF8000FFFFFFFF800
310
0FF8000FFFFFFFF8000FFF0003FFFFFFFFF8000000FFFFFFF000F000000FFFFF
310
FFFFC000FFC002000FF8000FFF80007FE000001FFFFFFFFE000001FFFFFFFFF8
310
000001FFFE0000007FFFFFF0001FFFFFF8000FFFFFFFF8000FF8000FFFFFFFF8
310
000FFF0003FFFFFFFFF000001FFFFFFFF000E00000FFFFFFFFFFC000FFC00200
310
0FFC000FFF80007FE00001FFFFFFFFFE00001FFFFFFFFFF8000001FFFE000000
310
7FFFFFF0001FFFFFFC000FFFFFFFF8001FFC000FFFFFFFF8001FFF0003FFFFFF
310
FFF00001FFFFFFFFF000E00007FFFFFFFFFF8000FFC000001FFC000FFF80007F
310
C0000FFFFFFFFFFE0000FFFFFFFFFFF8000001FFFE0000007FFFFFF0001FFFFF
310
FC0007FFFFFFF0001FFC0007FFFFFFF0001FFF0003FFFFFFFFF00007FFFFFFFF
310
F000E0001FFFFFFFFFFF8000FFC000001FFC000FFF80007FC0003FFFFFFFFFFE
310
0001FFFFFFFFFFF8000001FFFE0000007FFFFFF0001FFFFFFC0007FFFFFFF000
310
1FFC0007FFFFFFF0001FFF0003FFFFFFFFF0001FFFFFFFFFF000E0003FFFFF00
310
03FF8001FFE000001FFC0007FF80007FC0007FFFFF0007FC0003FFFFF0003FF8
310
000001FFFE0000007FFFFFF0001FFFFFFC0003FFFFFFE0001FFC0003FFFFFFE0
310
001FFF0003FFFFFFFFF0003FFFFFFFFFF000E0003FFFFF0001FF8001FFE00000
310
1FFE0007FF80007FC0007FFFFE0003FC0007FFFFE0003FF8000001FFFE000000
310
7FFFFFF0001FFFFFFE0003FFFFFFE0003FFE0003FFFFFFE0003FFF0003FFFFFF
310
FFF0003FFFFF8001F000E0003FFFFF0001FF0001FFE000001FFE0007FF80007F
310
C0007FFFFE0003FC0007FFFFE0003FF8000001FFFE0000007FFFFFF0001FFFFF
310
FE0001FFFFFFC0003FFE0001FFFFFFC0003FFF0003FFFFFFFFF0003FFFFF0001
310
F000E0003FFFFF0003FF0001FFE000003FFE0007FF80007FC0007FFFFE0003FC
310
0007FFFFE0003FF8000001FFFE0000007FFFFFF0001FFFFFFF0001FFFFFFC000
310
7FFF0001FFFFFFC0007FFF0003FFFFFFFFF0003FFFFF0001F000E0003FFFFE00
310
03FF0003FFF000003FFE0003FF80007FC0007FFFFC0003FE0007FFFFE0003FF8
310
000001FFFE0000007FFFFFF0001FFFFFFF0000FFFFFF80007FFF0000FFFFFF80
310
007FFF0003FFFFFFFFF0003FFFFF0001F000E0003FFFFE0003FF0003FFF00000
310
3FFF0003FF80007FC0007FFFFC0007FE0007FFFFC0003FF8000001FFFE000000
310
7FFFFFF0001FFFFFFF80007FFFFF0000FFFF80007FFFFF0000FFFF0003FFFFFF
310
FFF0003FFFFF0003F000E0003FFFFC0003FE0003FFF000003FFF0003FF80007F
310
E0003FFFF80007FE0003FFFFC0007FF8000001FFFE0000007FFFFFF0001FFFFF
310
FF80003FFFFE0000FFFF80003FFFFE0000FFFF0003FFFFFFFFF0001FFFFE0003
310
F000F0001FFFF80003FE0003FFF000007FFF0001FF80007FE0003FFFF00007FE
310
0001FFFF80007FF8000001FFFE0000007FFFFFF0001FFFFFFFC0000FFFF80001
310
FFFFC0000FFFF80001FFFF0003FFFFFFFFF0001FFFFC0003F000F0000FFFF000
310
07FE0007FFF800007FFF0001FF80007FE0001FFFE00007FF0000FFFE00007FF8
310
000001FFFE0000007FFFFFF0001FFFFFFFC00003FFE00001FFFFC00003FFE000
310
01FFFF0003FFFFFFFFF8000FFFF80003F000F00003FFC00007FC0007FFF80000
310
7FFF8001FF80007FF00007FF80000FFF00007FF80000FFF8000001FFFE000000
310
7F80000000000001FFE000003E000003FFFFE000003E000003FFFF0003FFFFFF
310
FFF80003FFE00007F000F800000000000FFC0007FFF800007FFF8001FF80007F
310
F000000000000FFF000000000000FFF8000001FFFE0000007F80000000000001
310
FFF0000000000007FFFFF0000000000007FFFF0003FFFFFFFFFC00007E000007
310
F000F800000000000FFC0007FFF80000FFFF8000FF80007FF800000000001FFF
310
800000000001FFF8000001FFFE0000007F80000000000001FFF800000000000F
310
FFFFF800000000000FFFFF0003FFFFFFFFFC00000000000FF000FC0000000000
310
1FFC0007FFFC0000FFFF8000FF80007FF800000000003FFFC00000000001FFF8
310
000001FFFE0000007F80000000000001FFF800000000000FFFFFF80000000000
310
0FFFFF0003FFFFFFFFFE00000000001FF000FE00000000003FF8000FFFFC0000
310
FFFF8000FF80007FFC00000000003FFFC00000000003FFF8000001FFFE000000
310
7F80000000000001FFFC00000000001FFFFFFC00000000001FFFFF0003FFFFFF
310
FFFF00000000001FF000FF00000000003FF8000FFFFC0000FFFFC000FF80007F
310
FE00000000007FFFE00000000007FFF8000001FFFE0000007F80000000000001
310
FFFE00000000003FFFFFFE00000000003FFFFF0003FFFFFFFFFF80000000003F
310
F000FF80000000007FF8000FFFFC0001FFFFC0007F80007FFF0000000000FFFF
310
F0000000000FFFF800000000000000007F80000000000001FFFF8000000000FF
310
FFFFFF8000000000FFFFFF0003FFFFFFFFFFC0000000007FF000FFC000000000
310
FFF8000FFFFE0001FFFFC0007F80007FFF8000000001FFFFF8000000001FFFF8
310
00000000000000007F80000000000001FFFFC000000001FFFFFFFFC000000001
310
FFFFFF0003FFFFFFFFFFE000000000FFF000FFE000000003FFF0001FFFFE0001
310
FFFFC0007F80007FFFC000000007FFFFFE000000003FFFF80000000000000000
310
7F80000000000001FFFFE000000003FFFFFFFFE000000003FFFFFF0003FFFFFF
310
FFFFF000000003FFF000FFF80000000FFFF0001FFFFE0001FFFFE0007F80007F
310
FFF00000000FFFFFFF00000000FFFFF800000000000000007F80000000000001
310
FFFFF80000000FFFFFFFFFF80000000FFFFFFF0003FFFFFFFFFFFC0000000FFF
310
F000FFFE0000003FFFF0001FFFFE0003FFFFE0003F80007FFFFC0000003FFFFF
310
FFC0000003FFFFF800000000000000007F80000000000001FFFFFE0000003FFF
310
FFFFFFFE0000003FFFFFFF0003FFFFFFFFFFFF0000003FFFF000FFFF800000FF
310
FFF0001FFFFF0003FFFFE0003F80007FFFFF000001FFFFFFFFF800001FFFFFF8
310
00000000000000007F80000000000001FFFFFFC00001FFFFFFFFFFFFC00001FF
310
FFFFFF0003FFFFFFFFFFFFC00000FFFFF000FFFFF8000FFFFFFFFFFFFFFFFFFF
310
FFFFFFFFFFFFFFFFFFFFF0001FFFFFFFFFFF0000FFFFFFF80000000000000000
310
7FFFFFFFFFFFFFFFFFFFFFFC001FFFFFFFFFFFFFFC001FFFFFFFFFFFFFFFFFFF
310
FFFFFFFC001FFFFFF000FFFFFFFFFFFFFFFFFFFFFFFFFFFFFFFFFFFFFFFFFFFF
310
FFFFFFFFFFFFFFFFFFFFFFFFFFFFFFFFFFFFFFFFFFFFFFFFFFFFFFFFFFFFFFFF
310
FFFFFFFFFFFFFFFFFFFFFFFFFFFFFFFFFFFFFFFFFFFFFFFFFFFFFFFFFFFFFFFF
310
F000FFFFFFFFFFFFFFFFFFFFFFFFFFFFFFFFFFFFFFFFFFFFFFFFFFFFFFFFFFFF
310
FFFFFFFFFFFFFFFFFFFFFFFFFFFFFFFFFFFFFFFFFFFFFFFFFFFFFFFFFFFFFFFF
310
FFFFFFFFFFFFFFFFFFFFFFFFFFFFFFFFFFFFFFFFFFFFFFFFF000FFFFFFFFFFFF
310
FFFFFFFFFFFFFFFFFFFFFFFFFFFFFFFFFFFFFFFFFFFFFFFFFFFFFFFFFFFFFFFF
310
FFFFFFFFFFFFFFFFFFFFFFFFFFFFFFFFFFFFFFFFFFFFFFFFFFFFFFFFFFFFFFFF
310
FFFFFFFFFFFFFFFFFFFFFFFFFFFFFFFFF000FFFFFFFFFFFFFFFFFFFFFFFFFFFF
310
FFFFFFFFFFFFFFFFFFFFFFFFFFFFFFFFFFFFFFFFFFFFFFFFFFFFFFFFFFFFFFFF
310
FFFFFFFFFFFFFFFFFFFFFFFFFFFFFFFFFFFFFFFFFFFFFFFFFFFFFFFFFFFFFFFF
310
FFFFFFFFFFFFFFFFF000FFFFFFFFFFFFFFFFFFFFFFFFFFFFFFFFFFFFFFFFFFFF
310
FFFFFFFFFFFFFFFFFFFFFFFFFFFFFFFFFFFFFFFFFFFFFFFFFFFFFFFFFFFFFFFF
310
FFFFFFFFFFFFFFFFFFFFFFFFFFFFFFFFFFFFFFFFFFFFFFFFFFFFFFFFFFFFFFFF
310
F000FFFFFFFFFFFFFFFFFFFFFFFFFFFFFFFFFFFFFFFFFFFFFFFFFFFFFFFFFFFF
310
FFFFFFFFFFFFFFFFFFFFFFFFFFFFFFFFFFFFFFFFFFFFFFFFFFFFFFFFFFFFFFFF
310
FFFFFFFFFFFFFFFFFFFFFFFFFFFFFFFFFFFFFFFFFFFFFFFFF000FFFFFFFFFFFF
310
FFFFFFFFFFFFFFFFFFFFFFFFFFFFFFFFFFFFFFFFFFFFFFFFFFFFFFFFFFFFFFFF
310
FFFFFFFFFFFFFFFFFFFFFFFFFFFFFFFFFFFFFFFFFFFFFFFFFFFFFFFFFFFFFFFF
310
FFFFFFFFFFFFFFFFFFFFFFFFFFFFFFFFF000FFFFFFFFFFFFFFFFFFFFFFFFFFFF
310
FFFFFFFFFFFFFFFFFFFFFFFFFFFFFFFFFFFFFFFFFFFFFFFFFFFFFFFFFFFFFFFF
310
FFFFFFFFFFFFFFFFFFFFFFFFFFFFFFFFFFFFFFFFFFFFFFFFFFFFFFFFFFFFFFFF
310
FFFFFFFFFFFFFFFFF000FFFFFFFFFFFFFFFFFFFFFFFFFFFFFFFFFFFFFFFFFFFF
310
FFFFFFFFFFFFFFFFFFFFFFFFFFFFFFFFFFFFFFFFFFFFFFFFFFFFFFFFFFFFFFFF
310
FFFFFFFFFFFFFFFFFFFFFFFFFFFFFFFFFFFFFFFFFFFFFFFFFFFFFFFFFFFFFFFF
310
F000FFFFFFFFFFFFFFFFFFFFFFFFFFFFFFFFFFFFFFFFFFFFFFFFFFFFFFFFFFFF
310
FFFFFFFFFFFFFFFFFFFFFFFFFFFFFFFFFFFFFFFFFFFFFFFFFFFFFFFFFFFFFFFF
310
FFFFFFFFFFFFFFFFFFFFFFFFFFFFFFFFFFFFFFFFFFFFFFFFF000FFFFFFFFFFFF
310
FFFFFFFFFFFFFFFFFFFFFFFFFFFFFFFFFFFFFFFFFFFFFFFFFFFFFFFFFFFFFFFF
310
FFFFFFFFFFFFFFFFFFFFFFFFFFFFFFFFFFFFFFFFFFFFFFFFFFFFFFFFFFFFFFFF
310
FFFFFFFFFFFFFFFFFFFFFFFFFFFFFFFFF000FFFFFFFFFFFFFFFFFFFFFFFFFFFF
310
FFFFFFFFFFFFFFFFFFFFFFFFFFFFFFFFFFFFFFFFFFFFFFFFFFFFFFFFFFFFFFFF
310
FFFFFFFFFFFFFFFFFFFFFFFFFFFFFFFFFFFFFFFFFFFFFFFFFFFFFFFFFFFFFFFF
310
FFFFFFFFFFFFFFFFF000FFFFFFFFFFFFFFFFFFFFFFFFFFFFFFFFFFFFFFFFFFFF
310
FFFFFFFFFFFFFFFFFFFFFFFFFFFFFFFFFFFFFFFFFFFFFFFFFFFFFFFFFFFFFFFF
310
FFFFFFFFFFFFFFFFFFFFFFFFFFFFFFFFFFFFFFFFFFFFFFFFFFFFFFFFFFFFFFFF
310
F000FFFFFFFFFFFFFFFFFFFFFFFFFFFFFFFFFFFFFFFFFFFFFFFFFFFFFFFFFFFF
310
FFFFFFFFFFFFFFFFFFFFFFFFFFFFFFFFFFFFFFFFFFFFFFFFFFFFFFFFFFFFFFFF
310
FFFFFFFFFFFFFFFFFFFFFFFFFFFFFFFFFFFFFFFFFFFFFFFFF000FFFFFFFFFFFF
310
FFFFFFFFFFFFFFFFFFFFFFFFFFFFFFFFFFFFFFFFFFFFFFFFFFFFFFFFFFFFFFFF
310
FFFFFFFFFFFFFFFFFFFFFFFFFFFFFFFFFFFFFFFFFFFFFFFFFFFFFFFFFFFFFFFF
310
FFFFFFFFFFFFFFFFFFFFFFFFFFFFFFFFF000FFFFFFFFFFFFFFFFFFFFFFFFFFFF
310
FFFFFFFFFFFFFFFFFFFFFFFFFFFFFFFFFFFFFFFFFFFFFFFFFFFFFFFFFFFFFFFF
310
FFFFFFFFFFFFFFFFFFFFFFFFFFFFFFFFFFFFFFFFFFFFFFFFFFFFFFFFFFFFFFFF
310
FFFFFFFFFFFFFFFFF000FFFFFFFFFFFFFFFFFFFFFFFFFFFFFFFFFFFFFFFFFFFF
310
FFFFFFFFFFFFFFFFFFFFFFFFFFFFFFFFFFFFFFFFFFFFFFFFFFFFFFFFFFFFFFFF
310
FFFFFFFFFFFFFFFFFFFFFFFFFFFFFFFFFFFFFFFFFFFFFFFFFFFFFFFFFFFFFFFF
310
F000FFFFFFFFFFFFFFFFFFFFFFFFFFFFFFFFFFFFFFFFFFFFFFFFFFFFFFFFFFFF
310
FFFFFFFFFFFFFFFFFFFFFFFFFFFFFFFFFFFFFFFFFFFFFFFFFFFFFFFFFFFFFFFF
310
FFFFFFFFFFFFFFFFFFFFFFFFFFFFFFFFFFFFFFFFFFFFFFFFF000FFFFFFFFFFFF
310
FFFFFFFFFFFFFFFFFFFFFFFFFFFFFFFFFFFFFFFFFFFFFFFFFFFFFFFFFFFFFFFF
310
FFFFFFFFFFFFFFFFFFFFFFFFFFFFFFFFFFFFFFFFFFFFFFFFFFFFFFFFFFFFFFFF
310
FFFFFFFFFFFFFFFFFFFFFFFFFFFFFFFFF000FFFFFFFFFFFFFFFFFFFFFFFFFFFF
310
FFFFFFFFFFFFFFFFFFFFFFFFFFFFFFFFFFFFFFFFFFFFFFFFFFFFFFFFFFFFFFFF
310
FFFFFFFFFFFFFFFFFFFFFFFFFFFFFFFFFFFFFFFFFFFFFFFFFFFFFFFFFFFFFFFF
310
FFFFFFFFFFFFFFFFF000FFFFFFFFFFFFFFFFFFFFFFFFFFFFFFFFFFFFFFFFFFFF
310
FFFFFFFFFFFFFFFFFFFFFFFFFFFFFFFFFFFFFFFFFFFFFFFFFFFFFFFFFFFFFFFF
310
FFFFFFFFFFFFFFFFFFFFFFFFFFFFFFFFFFFFFFFFFFFFFFFFFFFFFFFFFFFFFFFF
310
F000FFFFFFFFFFFFFFFFFFFFFFFFFFFFFFFFFFFFFFFFFFFFFFFFFFFFFFFFFFFF
310
FFFFFFFFFFFFFFFFFFFFFFFFFFFFFFFFFFFFFFFFFFFFFFFFFFFFFFFFFFFFFFFF
310
FFFFFFFFFFFFFFFFFFFFFFFFFFFFFFFFFFFFFFFFFFFFFFFFF000FFFFFFFFFFFF
310
FFFFFFFFFFFFFFFFFFFFFFFFFFFFFFFFFFFFFFFFFFFFFFFFFFFFFFFFFFFFFFFF
310
FFFFFFFFFFFFFFFFFFFFFFFFFFFFFFFFFFFFFFFFFFFFFFFFFFFFFFFFFFFFFFFF
310
FFFFFFFFFFFFFFFFFFFFFFFFFFFFFFFFF0000000000000000000000000000000
310
0000000000000000000000000000000000000000000000000000000000000000
310
0000000000000000000000000000000000000000000000000000000000000000
310
0000000000000000000000000000000000000000000000000000000000000000
310
0000000000000000000000000000000000000000000000000000000000000000
310
0000000000000000000000000000000000000000000000000000000000000000
310
0000000000000000000000000000000000000000000000000000000000000000
310
0000000000000000000000000000000000000000000000000000000000000000
310
0000000000000000000000000000000000000000000000000000000000000000
310
0000000000000000000000000000000000000000000000000000000000000000
310
0000000000000000000000000000000000000000000000000000000000000000
310
0000000000000000000000000000000000000000000000000000000000000000
310
0000000000000000000000000000000000000000000000000000000000000000
310
0000000000000000000000000000000000000000000000000000000000000000
310
0000000000000000000000000000000000000000000000000000000000000000
310
0000000000000000000000000000000000000000000000000000000000000000
  1
OLE
  0
ENDSEC
  0
SECTION
  2
OBJECTS
  0
DICTIONARY
  5
C
330
0
100
AcDbDictionary
281
     1
  3
ACAD_GROUP
350
D
  3
ACAD_LAYOUT
350
1A
  3
ACAD_MLINESTYLE
350
17
  3
ACAD_PLOTSETTINGS
350
19
  3
ACAD_PLOTSTYLENAME
350
E
  0
DICTIONARY
  5
D
102
{ACAD_REACTORS
330
C
102
}
330
C
100
AcDbDictionary
281
     1
  0
DICTIONARY
  5
1A
102
{ACAD_REACTORS
330
C
102
}
330
C
100
AcDbDictionary
281
     1
  3
Layout1
350
1E
  3
Layout2
350
26
  3
Model
350
22
  0
DICTIONARY
  5
17
102
{ACAD_REACTORS
330
C
102
}
330
C
100
AcDbDictionary
281
     1
  3
Standard
350
18
  0
DICTIONARY
  5
19
102
{ACAD_REACTORS
330
C
102
}
330
C
100
AcDbDictionary
281
     1
  0
ACDBDICTIONARYWDFLT
  5
E
102
{ACAD_REACTORS
330
C
102
}
330
C
100
AcDbDictionary
281
     1
  3
Normal
350
F
100
AcDbDictionaryWithDefault
340
F
  0
LAYOUT
  5
1E
102
{ACAD_REACTORS
330
1A
102
}
330
1A
100
AcDbPlotSettings
  1

  2
none_device
  4

  6

 40
0.0
 41
0.0
 42
0.0
 43
0.0
 44
0.0
 45
0.0
 46
0.0
 47
0.0
 48
0.0
 49
0.0
140
0.0
141
0.0
142
1.0
143
1.0
 70
   688
 72
     0
 73
     0
 74
     5
  7

 75
    16
147
1.0
148
0.0
149
0.0
100
AcDbLayout
  1
Layout1
 70
     1
 71
     1
 10
0.0
 20
0.0
 11
420.0
 21
297.0
 12
0.0
 22
0.0
 32
0.0
 14
1.0000000000E+20
 24
1.0000000000E+20
 34
1.0000000000E+20
 15
-1.0000000000E+20
 25
-1.0000000000E+20
 35
-1.0000000000E+20
146
0.0
 13
0.0
 23
0.0
 33
0.0
 16
1.0
 26
0.0
 36
0.0
 17
0.0
 27
1.0
 37
0.0
 76
     0
330
1B
  0
LAYOUT
  5
26
102
{ACAD_REACTORS
330
1A
102
}
330
1A
100
AcDbPlotSettings
  1

  2
none_device
  4

  6

 40
0.0
 41
0.0
 42
0.0
 43
0.0
 44
0.0
 45
0.0
 46
0.0
 47
0.0
 48
0.0
 49
0.0
140
0.0
141
0.0
142
1.0
143
1.0
 70
   688
 72
     0
 73
     0
 74
     5
  7

 75
    16
147
1.0
148
0.0
149
0.0
100
AcDbLayout
  1
Layout2
 70
     1
 71
     2
 10
0.0
 20
0.0
 11
0.0
 21
0.0
 12
0.0
 22
0.0
 32
0.0
 14
0.0
 24
0.0
 34
0.0
 15
0.0
 25
0.0
 35
0.0
146
0.0
 13
0.0
 23
0.0
 33
0.0
 16
1.0
 26
0.0
 36
0.0
 17
0.0
 27
1.0
 37
0.0
 76
     0
330
23
  0
LAYOUT
  5
22
102
{ACAD_REACTORS
330
1A
102
}
330
1A
100
AcDbPlotSettings
  1

  2
none_device
  4

  6

 40
0.0
 41
0.0
 42
0.0
 43
0.0
 44
0.0
 45
0.0
 46
0.0
 47
0.0
 48
0.0
 49
0.0
140
0.0
141
0.0
142
1.0
143
1.0
 70
  1712
 72
     0
 73
     0
 74
     0
  7

 75
     0
147
1.0
148
0.0
149
0.0
100
AcDbLayout
  1
Model
 70
     1
 71
     0
 10
0.0
 20
0.0
 11
297.0
 21
210.0
 12
0.0
 22
0.0
 32
0.0
 14
0.0
 24
0.0
 34
0.0
 15
297.0
 25
210.0
 35
0.0
146
0.0
 13
0.0
 23
0.0
 33
0.0
 16
1.0
 26
0.0
 36
0.0
 17
0.0
 27
1.0
 37
0.0
 76
     0
330
1F
331
29
  0
MLINESTYLE
  5
18
102
{ACAD_REACTORS
330
17
102
}
330
17
100
AcDbMlineStyle
  2
Standard
 70
     0
  3

 62
   256
 51
90.0
 52
90.0
 71
     2
 49
0.5
 62
   256
  6
BYLAYER
 49
-0.5
 62
   256
  6
BYLAYER
  0
ACDBPLACEHOLDER
  5
F
102
{ACAD_REACTORS
330
E
102
}
330
E
  0
ENDSEC
  0
EOF
