  0
SECTION
  2
HEADER
  9
$ACADVER
  1
AC1015
  9
$ACADMAINTVER
 70
     6
  9
$DWGCODEPAGE
  3
ANSI_1252
  9
$INSBASE
 10
0.0
 20
0.0
 30
0.0
  9
$EXTMIN
 10
0.0
 20
0.0
 30
0.0
  9
$EXTMAX
 10
297.0
 20
210.0
 30
0.0
  9
$LIMMIN
 10
0.0
 20
0.0
  9
$LIMMAX
 10
297.0
 20
210.0
  9
$ORTHOMODE
 70
     0
  9
$REGENMODE
 70
     1
  9
$FILLMODE
 70
     1
  9
$QTEXTMODE
 70
     0
  9
$MIRRTEXT
 70
     1
  9
$LTSCALE
 40
1.0
  9
$ATTMODE
 70
     1
  9
$TEXTSIZE
 40
2.0
  9
$TRACEWID
 40
1.0
  9
$TEXTSTYLE
  7
Standard
  9
$CLAYER
  8
0
  9
$CELTYPE
  6
ByLayer
  9
$CECOLOR
 62
   256
  9
$CELTSCALE
 40
1.0
  9
$DISPSILH
 70
     0
  9
$DIMSCALE
 40
1.0
  9
$DIMASZ
 40
3.0
  9
$DIMEXO
 40
0.0
  9
$DIMDLI
 40
3.75
  9
$DIMRND
 40
0.0
  9
$DIMDLE
 40
0.0
  9
$DIMEXE
 40
1.0
  9
$DIMTP
 40
0.0
  9
$DIMTM
 40
0.0
  9
$DIMTXT
 40
2.0
  9
$DIMCEN
 40
2.5
  9
$DIMTSZ
 40
0.0
  9
$DIMTOL
 70
     0
  9
$DIMLIM
 70
     0
  9
$DIMTIH
 70
     1
  9
$DIMTOH
 70
     1
  9
$DIMSE1
 70
     0
  9
$DIMSE2
 70
     0
  9
$DIMTAD
 70
     1
  9
$DIMZIN
 70
     0
  9
$DIMBLK
  1

  9
$DIMASO
 70
     1
  9
$DIMSHO
 70
     1
  9
$DIMPOST
  1

  9
$DIMAPOST
  1

  9
$DIMALT
 70
     0
  9
$DIMALTD
 70
     3
  9
$DIMALTF
 40
0.0393700787
  9
$DIMLFAC
 40
1.0
  9
$DIMTOFL
 70
     1
  9
$DIMTVP
 40
0.0
  9
$DIMTIX
 70
     0
  9
$DIMSOXD
 70
     0
  9
$DIMSAH
 70
     0
  9
$DIMBLK1
  1

  9
$DIMBLK2
  1

  9
$DIMSTYLE
  2
ISO-25
  9
$DIMCLRD
 70
     0
  9
$DIMCLRE
 70
     0
  9
$DIMCLRT
 70
     0
  9
$DIMTFAC
 40
1.0
  9
$DIMGAP
 40
1.524
  9
$DIMJUST
 70
     0
  9
$DIMSD1
 70
     0
  9
$DIMSD2
 70
     0
  9
$DIMTOLJ
 70
     0
  9
$DIMTZIN
 70
     0
  9
$DIMALTZ
 70
     0
  9
$DIMALTTZ
 70
     0
  9
$DIMUPT
 70
     0
  9
$DIMDEC
 70
     2
  9
$DIMTDEC
 70
     3
  9
$DIMALTU
 70
     2
  9
$DIMALTTD
 70
     3
  9
$DIMTXSTY
  7
Standard
  9
$DIMAUNIT
 70
     0
  9
$DIMADEC
 70
     2
  9
$DIMALTRND
 40
0.0
  9
$DIMAZIN
 70
     0
  9
$DIMDSEP
 70
    44
  9
$DIMATFIT
 70
     3
  9
$DIMFRAC
 70
     0
  9
$DIMLDRBLK
  1

  9
$DIMLUNIT
 70
     2
  9
$DIMLWD
 70
    -2
  9
$DIMLWE
 70
    -2
  9
$DIMTMOVE
 70
     0
  9
$LUNITS
 70
     2
  9
$LUPREC
 70
     2
  9
$SKETCHINC
 40
1.0
  9
$FILLETRAD
 40
10.0
  9
$AUNITS
 70
     0
  9
$AUPREC
 70
     2
  9
$MENU
  1
.
  9
$ELEVATION
 40
0.0
  9
$PELEVATION
 40
0.0
  9
$THICKNESS
 40
0.0
  9
$LIMCHECK
 70
     0
  9
$CHAMFERA
 40
0.0
  9
$CHAMFERB
 40
0.0
  9
$CHAMFERC
 40
0.0
  9
$CHAMFERD
 40
0.0
  9
$SKPOLY
 70
     0
  9
$TDCREATE
 40
2458135.322693496
  9
$TDUCREATE
 40
2458135.281026829
  9
$TDUPDATE
 40
2458135.322695521
  9
$TDUUPDATE
 40
2458135.281028854
  9
$TDINDWG
 40
0.0000000116
  9
$TDUSRTIMER
 40
0.0000000116
  9
$USRTIMER
 70
     1
  9
$ANGBASE
 50
0.0
  9
$ANGDIR
 70
     0
  9
$PDMODE
 70
     0
  9
$PDSIZE
 40
-1.0
  9
$PLINEWID
 40
0.0
  9
$SPLFRAME
 70
     0
  9
$SPLINETYPE
 70
     6
  9
$SPLINESEGS
 70
     8
  9
$HANDSEED
  5
2B4
  9
$SURFTAB1
 70
     6
  9
$SURFTAB2
 70
     6
  9
$SURFTYPE
 70
     6
  9
$SURFU
 70
     6
  9
$SURFV
 70
     6
  9
$UCSBASE
  2

  9
$UCSNAME
  2

  9
$UCSORG
 10
0.0
 20
0.0
 30
0.0
  9
$UCSXDIR
 10
1.0
 20
0.0
 30
0.0
  9
$UCSYDIR
 10
0.0
 20
1.0
 30
0.0
  9
$UCSORTHOREF
  2

  9
$UCSORTHOVIEW
 70
     0
  9
$UCSORGTOP
 10
0.0
 20
0.0
 30
0.0
  9
$UCSORGBOTTOM
 10
0.0
 20
0.0
 30
0.0
  9
$UCSORGLEFT
 10
0.0
 20
0.0
 30
0.0
  9
$UCSORGRIGHT
 10
0.0
 20
0.0
 30
0.0
  9
$UCSORGFRONT
 10
0.0
 20
0.0
 30
0.0
  9
$UCSORGBACK
 10
0.0
 20
0.0
 30
0.0
  9
$PUCSBASE
  2

  9
$PUCSNAME
  2

  9
$PUCSORG
 10
0.0
 20
0.0
 30
0.0
  9
$PUCSXDIR
 10
1.0
 20
0.0
 30
0.0
  9
$PUCSYDIR
 10
0.0
 20
1.0
 30
0.0
  9
$PUCSORTHOREF
  2

  9
$PUCSORTHOVIEW
 70
     0
  9
$PUCSORGTOP
 10
0.0
 20
0.0
 30
0.0
  9
$PUCSORGBOTTOM
 10
0.0
 20
0.0
 30
0.0
  9
$PUCSORGLEFT
 10
0.0
 20
0.0
 30
0.0
  9
$PUCSORGRIGHT
 10
0.0
 20
0.0
 30
0.0
  9
$PUCSORGFRONT
 10
0.0
 20
0.0
 30
0.0
  9
$PUCSORGBACK
 10
0.0
 20
0.0
 30
0.0
  9
$USERI1
 70
     0
  9
$USERI2
 70
     0
  9
$USERI3
 70
     0
  9
$USERI4
 70
     0
  9
$USERI5
 70
     0
  9
$USERR1
 40
0.0
  9
$USERR2
 40
0.0
  9
$USERR3
 40
0.0
  9
$USERR4
 40
0.0
  9
$USERR5
 40
0.0
  9
$WORLDVIEW
 70
     1
  9
$SHADEDGE
 70
     3
  9
$SHADEDIF
 70
    70
  9
$TILEMODE
 70
     1
  9
$MAXACTVP
 70
    64
  9
$PINSBASE
 10
0.0
 20
0.0
 30
0.0
  9
$PLIMCHECK
 70
     0
  9
$PEXTMIN
 10
1.0000000000E+20
 20
1.0000000000E+20
 30
1.0000000000E+20
  9
$PEXTMAX
 10
-1.0000000000E+20
 20
-1.0000000000E+20
 30
-1.0000000000E+20
  9
$PLIMMIN
 10
0.0
 20
0.0
  9
$PLIMMAX
 10
420.0
 20
297.0
  9
$UNITMODE
 70
     0
  9
$VISRETAIN
 70
     1
  9
$PLINEGEN
 70
     0
  9
$PSLTSCALE
 70
     1
  9
$TREEDEPTH
 70
  3020
  9
$CMLSTYLE
  2
Standard
  9
$CMLJUST
 70
     0
  9
$CMLSCALE
 40
20.0
  9
$PROXYGRAPHICS
 70
     1
  9
$MEASUREMENT
 70
     1
  9
$CELWEIGHT
370
    -1
  9
$ENDCAPS
280
     0
  9
$JOINSTYLE
280
     0
  9
$LWDISPLAY
290
     1
  9
$INSUNITS
 70
     4
  9
$HYPERLINKBASE
  1

  9
$STYLESHEET
  1

  9
$XEDIT
290
     1
  9
$CEPSNTYPE
380
     0
  9
$PSTYLEMODE
290
     1
  9
$FINGERPRINTGUID
  2
{687A47B0-F8F6-42A4-BC0F-420336F3F08C}
  9
$VERSIONGUID
  2
{FAEB1C32-E019-11D5-929B-00C0DF256EC4}
  9
$EXTNAMES
290
     1
  9
$PSVPSCALE
 40
0.0
  9
$OLESTARTUP
290
     0
  0
ENDSEC
  0
SECTION
  2
CLASSES
  0
CLASS
  1
ACDBDICTIONARYWDFLT
  2
AcDbDictionaryWithDefault
  3
ObjectDBX Classes
 90
        0
280
     0
281
     0
  0
CLASS
  1
VISUALSTYLE
  2
AcDbVisualStyle
  3
ObjectDBX Classes
 90
     4095
280
     0
281
     0
  0
CLASS
  1
MATERIAL
  2
AcDbMaterial
  3
ObjectDBX Classes
 90
     1153
280
     0
281
     0
  0
CLASS
  1
SCALE
  2
AcDbScale
  3
ObjectDBX Classes
 90
     1153
280
     0
281
     0
  0
CLASS
  1
TABLESTYLE
  2
AcDbTableStyle
  3
ObjectDBX Classes
 90
     4095
280
     0
281
     0
  0
CLASS
  1
MLEADERSTYLE
  2
AcDbMLeaderStyle
  3
ACDB_MLEADERSTYLE_CLASS
 90
     4095
280
     0
281
     0
  0
CLASS
  1
SUN
  2
AcDbSun
  3
SCENEOE
 90
     1153
280
     0
281
     0
  0
CLASS
  1
ACDBPLACEHOLDER
  2
AcDbPlaceHolder
  3
ObjectDBX Classes
 90
        0
280
     0
281
     0
  0
CLASS
  1
LAYOUT
  2
AcDbLayout
  3
ObjectDBX Classes
 90
        0
280
     0
281
     0
  0
ENDSEC
  0
SECTION
  2
TABLES
  0
TABLE
  2
VPORT
  5
8
330
0
100
AcDbSymbolTable
 70
     1
  0
VPORT
  5
29
330
8
100
AcDbSymbolTableRecord
100
AcDbViewportTableRecord
  2
*Active
 70
     0
 10
0.0
 20
0.0
 11
1.0
 21
1.0
 12
148.5
 22
105.0
 13
0.0
 23
0.0
 14
10.0
 24
10.0
 15
10.0
 25
10.0
 16
0.0
 26
0.0
 36
1.0
 17
0.0
 27
0.0
 37
0.0
 40
210.0
 41
1.4142857143
 42
50.0
 43
0.0
 44
0.0
 50
0.0
 51
0.0
 71
     0
 72
  2000
 73
     1
 74
     3
 75
     0
 76
     0
 77
     0
 78
     0
281
     0
 65
     1
110
0.0
120
0.0
130
0.0
111
1.0
121
0.0
131
0.0
112
0.0
122
1.0
132
0.0
 79
     0
146
0.0
  0
ENDTAB
  0
TABLE
  2
LTYPE
  5
5
330
0
100
AcDbSymbolTable
 70
     6
  0
LTYPE
  5
14
330
5
100
AcDbSymbolTableRecord
100
AcDbLinetypeTableRecord
  2
ByBlock
 70
     0
  3

 72
    65
 73
     0
 40
0.0
  0
LTYPE
  5
15
330
5
100
AcDbSymbolTableRecord
100
AcDbLinetypeTableRecord
  2
ByLayer
 70
     0
  3

 72
    65
 73
     0
 40
0.0
  0
LTYPE
  5
16
330
5
100
AcDbSymbolTableRecord
100
AcDbLinetypeTableRecord
  2
Continuous
 70
     0
  3
Solid line
 72
    65
 73
     0
 40
0.0
  0
LTYPE
  5
6E
330
5
100
AcDbSymbolTableRecord
100
AcDbLinetypeTableRecord
  2
HIDDEN
 70
     0
  3
Hidden __ __ __ __ __ __ __ __ __ __ __ __ __ __
 72
    65
 73
     2
 40
1.905
 49
1.27
 74
     0
 49
-0.635
 74
     0
  0
LTYPE
  5
6F
330
5
100
AcDbSymbolTableRecord
100
AcDbLinetypeTableRecord
  2
PHANTOM
 70
     0
  3
Phantom ______  __  __  ______  __  __  ______
 72
    65
 73
     6
 40
12.7
 49
6.35
 74
     0
 49
-1.27
 74
     0
 49
1.27
 74
     0
 49
-1.27
 74
     0
 49
1.27
 74
     0
 49
-1.27
 74
     0
  0
LTYPE
  5
70
330
5
100
AcDbSymbolTableRecord
100
AcDbLinetypeTableRecord
  2
CENTER
 70
     0
  3
Center ____ _ ____ _ ____ _ ____ _ ____ _ ____
 72
    65
 73
     4
 40
10.16
 49
6.35
 74
     0
 49
-1.27
 74
     0
 49
1.27
 74
     0
 49
-1.27
 74
     0
  0
LTYPE
  5
71
330
5
100
AcDbSymbolTableRecord
100
AcDbLinetypeTableRecord
  2
CENTERX2
 70
     0
  3
Center (2x) ________  __  ________  __  _____
 72
    65
 73
     4
 40
20.32
 49
12.7
 74
     0
 49
-2.54
 74
     0
 49
2.54
 74
     0
 49
-2.54
 74
     0
  0
LTYPE
  5
72
330
5
100
AcDbSymbolTableRecord
100
AcDbLinetypeTableRecord
  2
DOT2
 70
     0
  3
Dot (.5x) ........................................
 72
    65
 73
     2
 40
0.635
 49
0.0
 74
     0
 49
-0.635
 74
     0
  0
ENDTAB
  0
TABLE
  2
LAYER
  5
2
330
0
100
AcDbSymbolTable
 70
     5
  0
LAYER
  5
10
330
2
100
AcDbSymbolTableRecord
100
AcDbLayerTableRecord
  2
0
 70
     0
 62
     7
  6
Continuous
370
    -3
390
F
  0
LAYER
  5
73
330
2
100
AcDbSymbolTableRecord
100
AcDbLayerTableRecord
  2
FORMAT
 70
     0
 62
     7
  6
Continuous
370
    -3
390
F
  0
LAYER
  5
74
330
2
100
AcDbSymbolTableRecord
100
AcDbLayerTableRecord
  2
VERMASSUNG
 70
     0
 62
     7
  6
Continuous
370
    -3
390
F
  0
LAYER
  5
75
330
2
100
AcDbSymbolTableRecord
100
AcDbLayerTableRecord
  2
KOPF_DÜNN
 70
     0
 62
     7
  6
Continuous
370
    -3
390
F
  0
LAYER
  5
76
330
2
100
AcDbSymbolTableRecord
100
AcDbLayerTableRecord
  2
KOPF_DICK
 70
     0
 62
     7
  6
Continuous
370
    25
390
F
  0
ENDTAB
  0
TABLE
  2
STYLE
  5
3
330
0
100
AcDbSymbolTable
 70
     2
  0
STYLE
  5
11
330
3
100
AcDbSymbolTableRecord
100
AcDbTextStyleTableRecord
  2
Standard
 70
     0
 40
0.0
 41
1.0
 50
0.0
 71
     0
 42
2.0
  3
txt
  4

  0
STYLE
  5
77
330
3
100
AcDbSymbolTableRecord
100
AcDbTextStyleTableRecord
  2
SLDTEXTSTYLE0
 70
     0
 40
0.0
 41
0.7
 50
0.0
 71
     0
 42
2.0
  3
TXT
  4

  0
ENDTAB
  0
TABLE
  2
VIEW
  5
6
330
0
100
AcDbSymbolTable
 70
     0
  0
ENDTAB
  0
TABLE
  2
UCS
  5
7
330
0
100
AcDbSymbolTable
 70
     0
  0
ENDTAB
  0
TABLE
  2
APPID
  5
9
330
0
100
AcDbSymbolTable
 70
     1
  0
APPID
  5
12
330
9
100
AcDbSymbolTableRecord
100
AcDbRegAppTableRecord
  2
ACAD
 70
     0
  0
ENDTAB
  0
TABLE
  2
DIMSTYLE
  5
A
330
0
100
AcDbSymbolTable
 70
     5
100
AcDbDimStyleTable
  0
DIMSTYLE
105
27
330
A
100
AcDbSymbolTableRecord
100
AcDbDimStyleTableRecord
  2
ISO-25
 70
     0
 41
2.5
 42
0.625
 43
3.75
 44
1.25
 73
     0
 74
     0
 77
     1
 78
     8
140
2.5
141
2.5
143
0.0393700787
147
0.625
171
     3
172
     1
178
     0
271
     2
272
     2
274
     3
278
    44
283
     0
284
     8
340
11
  0
DIMSTYLE
105
1AF
102
{ACAD_REACTORS
330
1AE
330
1B9
330
1C5
330
1D0
330
1DB
330
201
330
20B
102
}
330
A
100
AcDbSymbolTableRecord
100
AcDbDimStyleTableRecord
  2
SLDDIMSTYLE0
 70
     0
 41
3.0
 44
0.0
 45
0.000000001
 73
     0
 74
     0
 77
     1
 78
    12
 79
     3
140
2.0
147
0.5
173
     1
178
     0
271
     2
272
     3
276
     2
284
    12
340
77
  0
DIMSTYLE
105
1E6
102
{ACAD_REACTORS
330
1E5
102
}
330
A
100
AcDbSymbolTableRecord
100
AcDbDimStyleTableRecord
  2
SLDDIMSTYLE1
 70
     0
 41
3.0
 44
0.0
 73
     0
 74
     0
 77
     1
 78
    12
 79
     3
140
2.0
147
0.5
173
     1
178
     0
179
     2
272
     3
276
     2
284
    12
340
77
  0
DIMSTYLE
105
1F0
102
{ACAD_REACTORS
330
1EF
102
}
330
A
100
AcDbSymbolTableRecord
100
AcDbDimStyleTableRecord
  2
SLDDIMSTYLE2
 70
     0
 41
3.0
 44
0.0
 45
0.000000001
 73
     0
 74
     0
 77
     1
 78
    12
 79
     3
140
2.0
141
0.0
147
0.5
173
     1
178
     0
271
     2
272
     3
276
     2
284
    12
340
77
  0
DIMSTYLE
105
1F9
102
{ACAD_REACTORS
330
1F8
102
}
330
A
100
AcDbSymbolTableRecord
100
AcDbDimStyleTableRecord
  2
SLDDIMSTYLE3
 70
     0
 41
3.0
 44
0.0
 45
0.000000001
 73
     0
 74
     0
 77
     1
 78
    12
 79
     3
140
2.0
141
0.0
147
0.5
173
     1
178
     0
271
     2
272
     3
276
     2
279
     1
284
    12
340
77
  0
ENDTAB
  0
TABLE
  2
BLOCK_RECORD
  5
1
330
0
100
AcDbSymbolTable
 70
    14
  0
BLOCK_RECORD
  5
1F
330
1
100
AcDbSymbolTableRecord
100
AcDbBlockTableRecord
  2
*Model_Space
340
22
  0
BLOCK_RECORD
  5
1B
330
1
100
AcDbSymbolTableRecord
100
AcDbBlockTableRecord
  2
*Paper_Space
340
1E
  0
BLOCK_RECORD
  5
23
330
1
100
AcDbSymbolTableRecord
100
AcDbBlockTableRecord
  2
*Paper_Space0
340
26
  0
BLOCK_RECORD
  5
1B0
330
1
100
AcDbSymbolTableRecord
100
AcDbBlockTableRecord
  2
_D
340
0
  0
BLOCK_RECORD
  5
1BA
330
1
100
AcDbSymbolTableRecord
100
AcDbBlockTableRecord
  2
_D_1
340
0
  0
BLOCK_RECORD
  5
1C6
330
1
100
AcDbSymbolTableRecord
100
AcDbBlockTableRecord
  2
_D_2
340
0
  0
BLOCK_RECORD
  5
1D1
330
1
100
AcDbSymbolTableRecord
100
AcDbBlockTableRecord
  2
_D_3
340
0
  0
BLOCK_RECORD
  5
1DC
330
1
100
AcDbSymbolTableRecord
100
AcDbBlockTableRecord
  2
_D_4
340
0
  0
BLOCK_RECORD
  5
1E7
330
1
100
AcDbSymbolTableRecord
100
AcDbBlockTableRecord
  2
_D_5
340
0
  0
BLOCK_RECORD
  5
1F1
330
1
100
AcDbSymbolTableRecord
100
AcDbBlockTableRecord
  2
_D_6
340
0
  0
BLOCK_RECORD
  5
1FA
330
1
100
AcDbSymbolTableRecord
100
AcDbBlockTableRecord
  2
_D_7
340
0
  0
BLOCK_RECORD
  5
202
330
1
100
AcDbSymbolTableRecord
100
AcDbBlockTableRecord
  2
_D_8
340
0
  0
BLOCK_RECORD
  5
20C
330
1
100
AcDbSymbolTableRecord
100
AcDbBlockTableRecord
  2
_D_9
340
0
  0
BLOCK_RECORD
  5
217
330
1
100
AcDbSymbolTableRecord
100
AcDbBlockTableRecord
  2
SW_CENTERMARKSYMBOL_0
340
0
102
{BLKREFS
331
222
102
}
  0
BLOCK_RECORD
  5
223
330
1
100
AcDbSymbolTableRecord
100
AcDbBlockTableRecord
  2
SW_CENTERMARKSYMBOL_1
340
0
102
{BLKREFS
331
22E
102
}
  0
BLOCK_RECORD
  5
240
330
1
100
AcDbSymbolTableRecord
100
AcDbBlockTableRecord
  2
SW_CENTERMARKSYMBOL_2
340
0
102
{BLKREFS
331
24B
102
}
  0
ENDTAB
  0
ENDSEC
  0
SECTION
  2
BLOCKS
  0
BLOCK
  5
20
330
1F
100
AcDbEntity
  8
0
100
AcDbBlockBegin
  2
*Model_Space
 70
     0
 10
0.0
 20
0.0
 30
0.0
  3
*Model_Space
  1

  0
ENDBLK
  5
21
330
1F
100
AcDbEntity
  8
0
100
AcDbBlockEnd
  0
BLOCK
  5
1C
330
1B
100
AcDbEntity
 67
     1
  8
0
100
AcDbBlockBegin
  2
*Paper_Space
 70
     0
 10
0.0
 20
0.0
 30
0.0
  3
*Paper_Space
  1

  0
ENDBLK
  5
1D
330
1B
100
AcDbEntity
 67
     1
  8
0
100
AcDbBlockEnd
  0
BLOCK
  5
24
330
23
100
AcDbEntity
  8
0
100
AcDbBlockBegin
  2
*Paper_Space0
 70
     0
 10
0.0
 20
0.0
 30
0.0
  3
*Paper_Space0
  1

  0
ENDBLK
  5
25
330
23
100
AcDbEntity
  8
0
100
AcDbBlockEnd
  0
BLOCK
  5
1B1
330
1B0
100
AcDbEntity
  8
0
100
AcDbBlockBegin
  2
_D
 70
     0
 10
0.0
 20
0.0
 30
0.0
  3
_D
  1

  0
SOLID
  5
1B3
330
1B0
100
AcDbEntity
  8
VERMASSUNG
100
AcDbTrace
 10
156.7164690657
 20
176.3028247664
 30
0.0
 11
159.7164690657
 21
175.8528247664
 31
0.0
 12
159.7164690657
 22
176.7528247664
 32
0.0
 13
159.7164690657
 23
176.7528247664
 33
0.0
  0
SOLID
  5
1B4
330
1B0
100
AcDbEntity
  8
VERMASSUNG
100
AcDbTrace
 10
233.7164690657
 20
176.3028247664
 30
0.0
 11
230.7164690657
 21
176.7528247664
 31
0.0
 12
230.7164690657
 22
175.8528247664
 32
0.0
 13
230.7164690657
 23
175.8528247664
 33
0.0
  0
LINE
  5
1B5
330
1B0
100
AcDbEntity
  8
VERMASSUNG
100
AcDbLine
 10
156.7164690657
 20
154.3222501719
 30
0.0
 11
156.7164690657
 21
177.3028247664
 31
0.0
  0
LINE
  5
1B6
330
1B0
100
AcDbEntity
  8
VERMASSUNG
100
AcDbLine
 10
233.7164690657
 20
155.6222501719
 30
0.0
 11
233.7164690657
 21
177.3028247664
 31
0.0
  0
LINE
  5
1B7
330
1B0
100
AcDbEntity
  8
VERMASSUNG
100
AcDbLine
 10
156.7164690657
 20
176.3028247664
 30
0.0
 11
233.7164690657
 21
176.3028247664
 31
0.0
  0
MTEXT
  5
1B8
330
1B0
100
AcDbEntity
  8
VERMASSUNG
100
AcDbMText
 10
193.8164691156
 20
178.8809603623
 30
0.0
 40
2.0
 41
0.0
 71
     1
 72
     1
  1
77
  7
SLDTEXTSTYLE0
 73
     1
 44
1.0
  0
ENDBLK
  5
1B2
330
1B0
100
AcDbEntity
  8
0
100
AcDbBlockEnd
  0
BLOCK
  5
1BB
330
1BA
100
AcDbEntity
  8
0
100
AcDbBlockBegin
  2
_D_1
 70
     0
 10
0.0
 20
0.0
 30
0.0
  3
_D_1
  1

  0
ARC
  5
1BD
330
1BA
100
AcDbEntity
  8
VERMASSUNG
100
AcDbCircle
 10
185.3164690199
 20
187.0222504368
 30
0.0
 40
4.24852922888762
100
AcDbArc
 50
153.4349488229
 51
206.5650511771
  0
ARC
  5
1BE
330
1BA
100
AcDbEntity
  8
VERMASSUNG
100
AcDbCircle
 10
181.1164691697
 20
187.0222504368
 30
0.0
 40
4.24852922888762
100
AcDbArc
 50
333.4349488229
 51
26.5650511771
  0
SOLID
  5
1BF
330
1BA
100
AcDbEntity
  8
VERMASSUNG
100
AcDbTrace
 10
132.7164690657
 20
185.1222501719
 30
0.0
 11
135.7164690657
 21
184.6722501719
 31
0.0
 12
135.7164690657
 22
185.5722501719
 32
0.0
 13
135.7164690657
 23
185.5722501719
 33
0.0
  0
SOLID
  5
1C0
330
1BA
100
AcDbEntity
  8
VERMASSUNG
100
AcDbTrace
 10
233.7164690657
 20
185.1222501719
 30
0.0
 11
230.7164690657
 21
185.5722501719
 31
0.0
 12
230.7164690657
 22
184.6722501719
 32
0.0
 13
230.7164690657
 23
184.6722501719
 33
0.0
  0
LINE
  5
1C1
330
1BA
100
AcDbEntity
  8
VERMASSUNG
100
AcDbLine
 10
132.7164690657
 20
147.253755154
 30
0.0
 11
132.7164690657
 21
186.1222501719
 31
0.0
  0
LINE
  5
1C2
330
1BA
100
AcDbEntity
  8
VERMASSUNG
100
AcDbLine
 10
233.7164690657
 20
155.6222501719
 30
0.0
 11
233.7164690657
 21
186.1222501719
 31
0.0
  0
LINE
  5
1C3
330
1BA
100
AcDbEntity
  8
VERMASSUNG
100
AcDbLine
 10
132.7164690657
 20
185.1222501719
 30
0.0
 11
233.7164690657
 21
185.1222501719
 31
0.0
  0
MTEXT
  5
1C4
330
1BA
100
AcDbEntity
  8
VERMASSUNG
100
AcDbMText
 10
181.5164689559
 20
187.7003860007
 30
0.0
 40
2.0
 41
0.0
 71
     1
 72
     1
  1
101
  7
SLDTEXTSTYLE0
 73
     1
 44
1.0
  0
ENDBLK
  5
1BC
330
1BA
100
AcDbEntity
  8
0
100
AcDbBlockEnd
  0
BLOCK
  5
1C7
330
1C6
100
AcDbEntity
  8
0
100
AcDbBlockBegin
  2
_D_2
 70
     0
 10
0.0
 20
0.0
 30
0.0
  3
_D_2
  1

  0
SOLID
  5
1C9
330
1C6
100
AcDbEntity
  8
VERMASSUNG
100
AcDbTrace
 10
247.4361828483
 20
147.1222501719
 30
0.0
 11
246.9861828483
 21
144.1222501719
 31
0.0
 12
247.8861828483
 22
144.1222501719
 32
0.0
 13
247.8861828483
 23
144.1222501719
 33
0.0
  0
SOLID
  5
1CA
330
1C6
100
AcDbEntity
  8
VERMASSUNG
100
AcDbTrace
 10
247.4361828483
 20
122.1222501719
 30
0.0
 11
247.8861828483
 21
125.1222501719
 31
0.0
 12
246.9861828483
 22
125.1222501719
 32
0.0
 13
246.9861828483
 23
125.1222501719
 33
0.0
  0
LINE
  5
1CB
330
1C6
100
AcDbEntity
  8
VERMASSUNG
100
AcDbLine
 10
232.5164690657
 20
147.1222501719
 30
0.0
 11
248.4361828483
 21
147.1222501719
 31
0.0
  0
LINE
  5
1CC
330
1C6
100
AcDbEntity
  8
VERMASSUNG
100
AcDbLine
 10
232.5164690657
 20
122.1222501719
 30
0.0
 11
248.4361828483
 21
122.1222501719
 31
0.0
  0
LINE
  5
1CD
330
1C6
100
AcDbEntity
  8
VERMASSUNG
100
AcDbLine
 10
247.4361828483
 20
147.1222501719
 30
0.0
 11
247.4361828483
 21
122.1222501719
 31
0.0
  0
MTEXT
  5
1CE
330
1C6
100
AcDbEntity
  8
VERMASSUNG
100
AcDbMText
 10
244.8580475434
 20
131.4172502147
 30
0.0
 40
2.0
 41
0.0
 71
     1
 72
     1
  1
%%c
  7
SLDTEXTSTYLE0
 11
-7.044195017643634E-15
 21
1.0
 31
0.0
 73
     1
 44
1.0
  0
MTEXT
  5
1CF
330
1C6
100
AcDbEntity
  8
VERMASSUNG
100
AcDbMText
 10
244.6580475921
 20
135.027250229
 30
0.0
 40
2.0
 41
0.0
 71
     1
 72
     1
  1
25
  7
SLDTEXTSTYLE0
 11
-7.044195017643634E-15
 21
1.0
 31
0.0
 73
     1
 44
1.0
  0
ENDBLK
  5
1C8
330
1C6
100
AcDbEntity
  8
0
100
AcDbBlockEnd
  0
BLOCK
  5
1D2
330
1D1
100
AcDbEntity
  8
0
100
AcDbBlockBegin
  2
_D_3
 70
     0
 10
0.0
 20
0.0
 30
0.0
  3
_D_3
  1

  0
SOLID
  5
1D4
330
1D1
100
AcDbEntity
  8
VERMASSUNG
100
AcDbTrace
 10
257.7189373833
 20
112.1222501719
 30
0.0
 11
258.1689373833
 21
115.1222501719
 31
0.0
 12
257.2689373833
 22
115.1222501719
 32
0.0
 13
257.2689373833
 23
115.1222501719
 33
0.0
  0
SOLID
  5
1D5
330
1D1
100
AcDbEntity
  8
VERMASSUNG
100
AcDbTrace
 10
257.7189373833
 20
157.1222501719
 30
0.0
 11
257.2689373833
 21
154.1222501719
 31
0.0
 12
258.1689373833
 22
154.1222501719
 32
0.0
 13
258.1689373833
 23
154.1222501719
 33
0.0
  0
LINE
  5
1D6
330
1D1
100
AcDbEntity
  8
VERMASSUNG
100
AcDbLine
 10
232.2164690657
 20
112.1222501719
 30
0.0
 11
258.7189373833
 21
112.1222501719
 31
0.0
  0
LINE
  5
1D7
330
1D1
100
AcDbEntity
  8
VERMASSUNG
100
AcDbLine
 10
232.2164690657
 20
157.1222501719
 30
0.0
 11
258.7189373833
 21
157.1222501719
 31
0.0
  0
LINE
  5
1D8
330
1D1
100
AcDbEntity
  8
VERMASSUNG
100
AcDbLine
 10
257.7189373833
 20
112.1222501719
 30
0.0
 11
257.7189373833
 21
157.1222501719
 31
0.0
  0
MTEXT
  5
1D9
330
1D1
100
AcDbEntity
  8
VERMASSUNG
100
AcDbMText
 10
255.1408020784
 20
131.3172501517
 30
0.0
 40
2.0
 41
0.0
 71
     1
 72
     1
  1
%%c
  7
SLDTEXTSTYLE0
 11
6.123233995736766E-17
 21
1.0
 31
0.0
 73
     1
 44
1.0
  0
MTEXT
  5
1DA
330
1D1
100
AcDbEntity
  8
VERMASSUNG
100
AcDbMText
 10
254.9408021271
 20
134.927250166
 30
0.0
 40
2.0
 41
0.0
 71
     1
 72
     1
  1
45
  7
SLDTEXTSTYLE0
 11
6.123233995736766E-17
 21
1.0
 31
0.0
 73
     1
 44
1.0
  0
ENDBLK
  5
1D3
330
1D1
100
AcDbEntity
  8
0
100
AcDbBlockEnd
  0
BLOCK
  5
1DD
330
1DC
100
AcDbEntity
  8
0
100
AcDbBlockBegin
  2
_D_4
 70
     0
 10
0.0
 20
0.0
 30
0.0
  3
_D_4
  1

  0
SOLID
  5
1DF
330
1DC
100
AcDbEntity
  8
VERMASSUNG
100
AcDbTrace
 10
156.7164690657
 20
167.1222501719
 30
0.0
 11
159.7164690657
 21
166.6722501719
 31
0.0
 12
159.7164690657
 22
167.5722501719
 32
0.0
 13
159.7164690657
 23
167.5722501719
 33
0.0
  0
SOLID
  5
1E0
330
1DC
100
AcDbEntity
  8
VERMASSUNG
100
AcDbTrace
 10
176.7164690657
 20
167.1222501719
 30
0.0
 11
173.7164690657
 21
167.5722501719
 31
0.0
 12
173.7164690657
 22
166.6722501719
 32
0.0
 13
173.7164690657
 23
166.6722501719
 33
0.0
  0
LINE
  5
1E1
330
1DC
100
AcDbEntity
  8
VERMASSUNG
100
AcDbLine
 10
156.7164690657
 20
154.3222501719
 30
0.0
 11
156.7164690657
 21
168.1222501719
 31
0.0
  0
LINE
  5
1E2
330
1DC
100
AcDbEntity
  8
VERMASSUNG
100
AcDbLine
 10
176.7164690657
 20
155.6222501719
 30
0.0
 11
176.7164690657
 21
168.1222501719
 31
0.0
  0
LINE
  5
1E3
330
1DC
100
AcDbEntity
  8
VERMASSUNG
100
AcDbLine
 10
156.7164690657
 20
167.1222501719
 30
0.0
 11
176.7164690657
 21
167.1222501719
 31
0.0
  0
MTEXT
  5
1E4
330
1DC
100
AcDbEntity
  8
VERMASSUNG
100
AcDbMText
 10
165.3164691156
 20
169.7003857679
 30
0.0
 40
2.0
 41
0.0
 71
     1
 72
     1
  1
20
  7
SLDTEXTSTYLE0
 73
     1
 44
1.0
  0
ENDBLK
  5
1DE
330
1DC
100
AcDbEntity
  8
0
100
AcDbBlockEnd
  0
BLOCK
  5
1E8
330
1E7
100
AcDbEntity
  8
0
100
AcDbBlockBegin
  2
_D_5
 70
     0
 10
0.0
 20
0.0
 30
0.0
  3
_D_5
  1

  0
ARC
  5
1EA
330
1E7
100
AcDbEntity
  8
VERMASSUNG
100
AcDbCircle
 10
178.7371950079
 20
157.1222501719
 30
0.0
 40
13.68401531172618
100
AcDbArc
 50
0.0
 51
60.0
  0
SOLID
  5
1EB
330
1E7
100
AcDbEntity
  8
VERMASSUNG
100
AcDbTrace
 10
192.4212103196
 20
157.1222501719
 30
0.0
 11
192.5454915807
 21
160.1532655411
 31
0.0
 12
191.6507265269
 22
160.0563351614
 32
0.0
 13
191.6507265269
 23
160.0563351614
 33
0.0
  0
SOLID
  5
1EC
330
1E7
100
AcDbEntity
  8
VERMASSUNG
100
AcDbTrace
 10
185.5792026637
 20
168.9729550576
 30
0.0
 11
187.7349529051
 21
166.8386540253
 31
0.0
 12
188.2662796033
 22
167.5650781024
 32
0.0
 13
188.2662796033
 23
167.5650781024
 33
0.0
  0
LINE
  5
1ED
330
1E7
100
AcDbEntity
  8
VERMASSUNG
100
AcDbLine
 10
178.4485198733
 20
156.6222501719
 30
0.0
 11
186.0792026637
 21
169.8389804614
 31
0.0
  0
MTEXT
  5
1EE
330
1E7
100
AcDbEntity
  8
VERMASSUNG
100
AcDbMText
 10
192.7470671351
 20
165.6181924135
 30
0.0
 40
2.0
 41
0.0
 71
     1
 72
     1
  1
60°
  7
SLDTEXTSTYLE0
 11
0.4102792112145618
 21
-0.911959960110726
 31
0.0
 73
     1
 44
1.0
  0
ENDBLK
  5
1E9
330
1E7
100
AcDbEntity
  8
0
100
AcDbBlockEnd
  0
BLOCK
  5
1F2
330
1F1
100
AcDbEntity
  8
0
100
AcDbBlockBegin
  2
_D_6
 70
     0
 10
0.0
 20
0.0
 30
0.0
  3
_D_6
  1

  0
SOLID
  5
1F4
330
1F1
100
AcDbEntity
  8
VERMASSUNG
100
AcDbTrace
 10
179.055726232
 20
157.0881759982
 30
0.0
 11
178.7139357185
 21
160.1024220474
 31
0.0
 12
177.8446024748
 22
159.8694849068
 32
0.0
 13
177.8446024748
 23
159.8694849068
 33
0.0
  0
LINE
  5
1F5
330
1F1
100
AcDbEntity
  8
VERMASSUNG
100
AcDbLine
 10
179.055726232
 20
157.0881759982
 30
0.0
 11
177.2703141878
 21
163.7514244596
 31
0.0
  0
LINE
  5
1F6
330
1F1
100
AcDbEntity
  8
VERMASSUNG
100
AcDbLine
 10
179.055726232
 20
157.0881759982
 30
0.0
 11
179.3145452771
 21
156.1222501719
 31
0.0
  0
MTEXT
  5
1F7
330
1F1
100
AcDbEntity
  8
VERMASSUNG
100
AcDbMText
 10
179.6937882517
 20
164.400792378
 30
0.0
 40
2.0
 41
0.0
 71
     1
 72
     1
  1
R1
  7
SLDTEXTSTYLE0
 11
0.2588190451025252
 21
-0.9659258262890671
 31
0.0
 73
     1
 44
1.0
  0
ENDBLK
  5
1F3
330
1F1
100
AcDbEntity
  8
0
100
AcDbBlockEnd
  0
BLOCK
  5
1FB
330
1FA
100
AcDbEntity
  8
0
100
AcDbBlockBegin
  2
_D_7
 70
     0
 10
0.0
 20
0.0
 30
0.0
  3
_D_7
  1

  0
ARC
  5
1FD
330
1FA
100
AcDbEntity
  8
VERMASSUNG
100
AcDbCircle
 10
176.7164690657
 20
155.6222501719
 30
0.0
 40
1.000000000000023
100
AcDbArc
 50
330.0
 51
15.0
  0
SOLID
  5
1FE
330
1FA
100
AcDbEntity
  8
VERMASSUNG
100
AcDbTrace
 10
177.5824944695
 20
155.1222501719
 30
0.0
 11
175.1882944106
 21
156.9851259267
 31
0.0
 12
174.7470976147
 22
156.2006863897
 32
0.0
 13
174.7470976147
 23
156.2006863897
 33
0.0
  0
LINE
  5
1FF
330
1FA
100
AcDbEntity
  8
VERMASSUNG
100
AcDbLine
 10
177.5824944695
 20
155.1222501719
 30
0.0
 11
170.6295578949
 21
159.0328298837
 31
0.0
  0
MTEXT
  5
200
330
1FA
100
AcDbEntity
  8
VERMASSUNG
100
AcDbMText
 10
171.9186256929
 20
161.2655608042
 30
0.0
 40
2.0
 41
0.0
 71
     1
 72
     1
  1
R1
  7
SLDTEXTSTYLE0
 11
0.8660254037844363
 21
-0.5000000000000041
 31
0.0
 73
     1
 44
1.0
  0
ENDBLK
  5
1FC
330
1FA
100
AcDbEntity
  8
0
100
AcDbBlockEnd
  0
BLOCK
  5
203
330
202
100
AcDbEntity
  8
0
100
AcDbBlockBegin
  2
_D_8
 70
     0
 10
0.0
 20
0.0
 30
0.0
  3
_D_8
  1

  0
SOLID
  5
205
330
202
100
AcDbEntity
  8
VERMASSUNG
100
AcDbTrace
 10
233.7164690657
 20
102.1222501719
 30
0.0
 11
230.7164690657
 21
102.5722501719
 31
0.0
 12
230.7164690657
 22
101.6722501719
 32
0.0
 13
230.7164690657
 23
101.6722501719
 33
0.0
  0
SOLID
  5
206
330
202
100
AcDbEntity
  8
VERMASSUNG
100
AcDbTrace
 10
174.7164690657
 20
102.1222501719
 30
0.0
 11
177.7164690657
 21
101.6722501719
 31
0.0
 12
177.7164690657
 22
102.5722501719
 32
0.0
 13
177.7164690657
 23
102.5722501719
 33
0.0
  0
LINE
  5
207
330
202
100
AcDbEntity
  8
VERMASSUNG
100
AcDbLine
 10
233.7164690657
 20
113.6222501719
 30
0.0
 11
233.7164690657
 21
101.1222501719
 31
0.0
  0
LINE
  5
208
330
202
100
AcDbEntity
  8
VERMASSUNG
100
AcDbLine
 10
174.7164690657
 20
128.3722501719
 30
0.0
 11
174.7164690657
 21
101.1222501719
 31
0.0
  0
LINE
  5
209
330
202
100
AcDbEntity
  8
VERMASSUNG
100
AcDbLine
 10
233.7164690657
 20
102.1222501719
 30
0.0
 11
174.7164690657
 21
102.1222501719
 31
0.0
  0
MTEXT
  5
20A
330
202
100
AcDbEntity
  8
VERMASSUNG
100
AcDbMText
 10
202.8164691156
 20
104.7003857679
 30
0.0
 40
2.0
 41
0.0
 71
     1
 72
     1
  1
59
  7
SLDTEXTSTYLE0
 73
     1
 44
1.0
  0
ENDBLK
  5
204
330
202
100
AcDbEntity
  8
0
100
AcDbBlockEnd
  0
BLOCK
  5
20D
330
20C
100
AcDbEntity
  8
0
100
AcDbBlockBegin
  2
_D_9
 70
     0
 10
0.0
 20
0.0
 30
0.0
  3
_D_9
  1

  0
SOLID
  5
20F
330
20C
100
AcDbEntity
  8
VERMASSUNG
100
AcDbTrace
 10
124.2965357429
 20
154.6222501719
 30
0.0
 11
123.8465357429
 21
151.6222501719
 31
0.0
 12
124.7465357429
 22
151.6222501719
 32
0.0
 13
124.7465357429
 23
151.6222501719
 33
0.0
  0
SOLID
  5
210
330
20C
100
AcDbEntity
  8
VERMASSUNG
100
AcDbTrace
 10
124.2965357429
 20
114.6222501719
 30
0.0
 11
124.7465357429
 21
117.6222501719
 31
0.0
 12
123.8465357429
 22
117.6222501719
 32
0.0
 13
123.8465357429
 23
117.6222501719
 33
0.0
  0
LINE
  5
211
330
20C
100
AcDbEntity
  8
VERMASSUNG
100
AcDbLine
 10
157.0164690657
 20
154.6222501719
 30
0.0
 11
123.2965357429
 21
154.6222501719
 31
0.0
  0
LINE
  5
212
330
20C
100
AcDbEntity
  8
VERMASSUNG
100
AcDbLine
 10
157.0164690657
 20
114.6222501719
 30
0.0
 11
123.2965357429
 21
114.6222501719
 31
0.0
  0
LINE
  5
213
330
20C
100
AcDbEntity
  8
VERMASSUNG
100
AcDbLine
 10
124.2965357429
 20
154.6222501719
 30
0.0
 11
124.2965357429
 21
114.6222501719
 31
0.0
  0
MTEXT
  5
214
330
20C
100
AcDbEntity
  8
VERMASSUNG
100
AcDbMText
 10
121.5184004867
 20
129.0172501007
 30
0.0
 40
2.0
 41
0.0
 71
     1
 72
     1
  1
PSC
  7
SLDTEXTSTYLE0
 11
-7.044195017643634E-15
 21
1.0
 31
0.0
 73
     1
 44
1.0
  0
MTEXT
  5
215
330
20C
100
AcDbEntity
  8
VERMASSUNG
100
AcDbMText
 10
121.718400438
 20
133.6172497371
 30
0.0
 40
2.0
 41
0.0
 71
     1
 72
     1
  1
%%c
  7
SLDTEXTSTYLE0
 11
-7.044195017643634E-15
 21
1.0
 31
0.0
 73
     1
 44
1.0
  0
MTEXT
  5
216
330
20C
100
AcDbEntity
  8
VERMASSUNG
100
AcDbMText
 10
121.5184004867
 20
137.2272497514
 30
0.0
 40
2.0
 41
0.0
 71
     1
 72
     1
  1
40
  7
SLDTEXTSTYLE0
 11
-7.044195017643634E-15
 21
1.0
 31
0.0
 73
     1
 44
1.0
  0
ENDBLK
  5
20E
330
20C
100
AcDbEntity
  8
0
100
AcDbBlockEnd
  0
BLOCK
  5
218
330
217
100
AcDbEntity
  8
0
100
AcDbBlockBegin
  2
SW_CENTERMARKSYMBOL_0
 70
     0
 10
0.0
 20
0.0
 30
0.0
  3
SW_CENTERMARKSYMBOL_0
  1

  0
LINE
  5
21A
330
217
100
AcDbEntity
  8
VERMASSUNG
 62
     0
100
AcDbLine
 10
0.0
 20
0.0
 30
0.0
 11
0.0
 21
2.5
 31
0.0
  0
LINE
  5
21B
330
217
100
AcDbEntity
  8
VERMASSUNG
 62
     0
100
AcDbLine
 10
0.0
 20
0.0
 30
0.0
 11
-2.5
 21
0.0
 31
0.0
  0
LINE
  5
21C
330
217
100
AcDbEntity
  8
VERMASSUNG
 62
     0
100
AcDbLine
 10
0.0
 20
0.0
 30
0.0
 11
0.0
 21
-2.5
 31
0.0
  0
LINE
  5
21D
330
217
100
AcDbEntity
  8
VERMASSUNG
 62
     0
100
AcDbLine
 10
0.0
 20
0.0
 30
0.0
 11
2.5
 21
0.0
 31
0.0
  0
LINE
  5
21E
330
217
100
AcDbEntity
  8
VERMASSUNG
 62
     0
100
AcDbLine
 10
0.0
 20
5.0
 30
0.0
 11
0.0
 21
8.5
 31
0.0
  0
LINE
  5
21F
330
217
100
AcDbEntity
  8
VERMASSUNG
 62
     0
100
AcDbLine
 10
-5.0
 20
0.0
 30
0.0
 11
-8.5
 21
0.0
 31
0.0
  0
LINE
  5
220
330
217
100
AcDbEntity
  8
VERMASSUNG
 62
     0
100
AcDbLine
 10
0.0
 20
-5.0
 30
0.0
 11
0.0
 21
-8.5
 31
0.0
  0
LINE
  5
221
330
217
100
AcDbEntity
  8
VERMASSUNG
 62
     0
100
AcDbLine
 10
5.0
 20
0.0
 30
0.0
 11
8.5
 21
0.0
 31
0.0
  0
ENDBLK
  5
219
330
217
100
AcDbEntity
  8
0
100
AcDbBlockEnd
  0
BLOCK
  5
224
330
223
100
AcDbEntity
  8
0
100
AcDbBlockBegin
  2
SW_CENTERMARKSYMBOL_1
 70
     0
 10
0.0
 20
0.0
 30
0.0
  3
SW_CENTERMARKSYMBOL_1
  1

  0
LINE
  5
226
330
223
100
AcDbEntity
  8
VERMASSUNG
 62
     0
100
AcDbLine
 10
0.0
 20
0.0
 30
0.0
 11
0.0
 21
2.5
 31
0.0
  0
LINE
  5
227
330
223
100
AcDbEntity
  8
VERMASSUNG
 62
     0
100
AcDbLine
 10
0.0
 20
0.0
 30
0.0
 11
-2.5
 21
0.0
 31
0.0
  0
LINE
  5
228
330
223
100
AcDbEntity
  8
VERMASSUNG
 62
     0
100
AcDbLine
 10
0.0
 20
0.0
 30
0.0
 11
0.0
 21
-2.5
 31
0.0
  0
LINE
  5
229
330
223
100
AcDbEntity
  8
VERMASSUNG
 62
     0
100
AcDbLine
 10
0.0
 20
0.0
 30
0.0
 11
2.5
 21
0.0
 31
0.0
  0
LINE
  5
22A
330
223
100
AcDbEntity
  8
VERMASSUNG
 62
     0
100
AcDbLine
 10
0.0
 20
5.0
 30
0.0
 11
0.0
 21
5.5
 31
0.0
  0
LINE
  5
22B
330
223
100
AcDbEntity
  8
VERMASSUNG
 62
     0
100
AcDbLine
 10
-5.0
 20
0.0
 30
0.0
 11
-5.5
 21
0.0
 31
0.0
  0
LINE
  5
22C
330
223
100
AcDbEntity
  8
VERMASSUNG
 62
     0
100
AcDbLine
 10
0.0
 20
-5.0
 30
0.0
 11
0.0
 21
-5.5
 31
0.0
  0
LINE
  5
22D
330
223
100
AcDbEntity
  8
VERMASSUNG
 62
     0
100
AcDbLine
 10
5.0
 20
0.0
 30
0.0
 11
5.5
 21
0.0
 31
0.0
  0
ENDBLK
  5
225
330
223
100
AcDbEntity
  8
0
100
AcDbBlockEnd
  0
BLOCK
  5
241
330
240
100
AcDbEntity
  8
0
100
AcDbBlockBegin
  2
SW_CENTERMARKSYMBOL_2
 70
     0
 10
0.0
 20
0.0
 30
0.0
  3
SW_CENTERMARKSYMBOL_2
  1

  0
LINE
  5
243
330
240
100
AcDbEntity
  8
VERMASSUNG
 62
     0
100
AcDbLine
 10
0.0
 20
0.0
 30
0.0
 11
0.0
 21
2.5
 31
0.0
  0
LINE
  5
244
330
240
100
AcDbEntity
  8
VERMASSUNG
 62
     0
100
AcDbLine
 10
0.0
 20
0.0
 30
0.0
 11
-2.5
 21
0.0
 31
0.0
  0
LINE
  5
245
330
240
100
AcDbEntity
  8
VERMASSUNG
 62
     0
100
AcDbLine
 10
0.0
 20
0.0
 30
0.0
 11
0.0
 21
-2.5
 31
0.0
  0
LINE
  5
246
330
240
100
AcDbEntity
  8
VERMASSUNG
 62
     0
100
AcDbLine
 10
0.0
 20
0.0
 30
0.0
 11
2.5
 21
0.0
 31
0.0
  0
LINE
  5
247
330
240
100
AcDbEntity
  8
VERMASSUNG
 62
     0
100
AcDbLine
 10
0.0
 20
5.0
 30
0.0
 11
0.0
 21
25.0
 31
0.0
  0
LINE
  5
248
330
240
100
AcDbEntity
  8
VERMASSUNG
 62
     0
100
AcDbLine
 10
-5.0
 20
0.0
 30
0.0
 11
-25.0
 21
0.0
 31
0.0
  0
LINE
  5
249
330
240
100
AcDbEntity
  8
VERMASSUNG
 62
     0
100
AcDbLine
 10
0.0
 20
-5.0
 30
0.0
 11
0.0
 21
-25.0
 31
0.0
  0
LINE
  5
24A
330
240
100
AcDbEntity
  8
VERMASSUNG
 62
     0
100
AcDbLine
 10
5.0
 20
0.0
 30
0.0
 11
25.0
 21
0.0
 31
0.0
  0
ENDBLK
  5
242
330
240
100
AcDbEntity
  8
0
100
AcDbBlockEnd
  0
ENDSEC
  0
SECTION
  2
ENTITIES
  0
MTEXT
  5
78
330
1F
100
AcDbEntity
  8
KOPF_DÜNN
100
AcDbMText
 10
13.8892156294
 20
23.8442973028
 30
0.0
 40
3.0
 41
0.0
 71
     1
 72
     1
  1
PS4.K25.K01.077
  7
SLDTEXTSTYLE0
 73
     1
 44
1.0
  0
MTEXT
  5
79
330
1F
100
AcDbEntity
  8
VERMASSUNG
100
AcDbMText
 10
13.9329988022
 20
28.8834360957
 30
0.0
 40
3.0
 41
0.0
 71
     1
 72
     1
  1
Werkzeughalter / Toolholder
  7
SLDTEXTSTYLE0
 73
     1
 44
1.0
  0
MTEXT
  5
7A
330
1F
100
AcDbEntity
  8
VERMASSUNG
100
AcDbMText
 10
98.8601118557
 20
13.8365368761
 30
0.0
 40
2.0
 41
0.0
 71
     1
 72
     1
  1
Datum: 29.11.2017
  7
SLDTEXTSTYLE0
 73
     1
 44
1.0
  0
MTEXT
  5
7B
330
1F
100
AcDbEntity
  8
VERMASSUNG
100
AcDbMText
 10
13.933048693
 20
18.0482802738
 30
0.0
 40
2.0
 41
0.0
 71
     1
 72
     1
  1
für Wendeplattenbohrer Schaft-Ø 25 / for indexable insert drills shaft-Ø 25
  7
SLDTEXTSTYLE0
 73
     1
 44
1.0
  0
MTEXT
  5
7C
330
1F
100
AcDbEntity
  8
VERMASSUNG
100
AcDbMText
 10
13.9808475933
 20
13.9090974274
 30
0.0
 40
2.0
 41
0.0
 71
     1
 72
     1
  1
Gewicht: 724g
  7
SLDTEXTSTYLE0
 73
     1
 44
1.0
  0
LINE
  5
7D
330
1F
100
AcDbEntity
  8
0
  6
Continuous
 62
     7
370
    25
100
AcDbLine
 10
232.2164690657
 20
112.1222501719
 30
0.0
 11
233.7164690657
 21
113.6222501719
 31
0.0
  0
LINE
  5
7E
330
1F
100
AcDbEntity
  8
0
  6
Continuous
 62
     7
370
    25
100
AcDbLine
 10
233.7164690657
 20
155.6222501719
 30
0.0
 11
232.2164690657
 21
157.1222501719
 31
0.0
  0
LINE
  5
7F
330
1F
100
AcDbEntity
  8
0
  6
Continuous
 62
     7
370
    25
100
AcDbLine
 10
179.3145452771
 20
112.1222501719
 30
0.0
 11
232.2164690657
 21
112.1222501719
 31
0.0
  0
LINE
  5
80
330
1F
100
AcDbEntity
  8
0
  6
Continuous
 62
     7
370
    25
100
AcDbLine
 10
232.2164690657
 20
157.1222501719
 30
0.0
 11
179.3145452771
 21
157.1222501719
 31
0.0
  0
ARC
  5
81
330
1F
100
AcDbEntity
  8
0
  6
Continuous
 62
     7
370
    25
100
AcDbCircle
 10
179.3145452771
 20
113.1222501719
 30
0.0
 40
1.000000000000008
100
AcDbArc
 50
210.0
 51
270.0
  0
ARC
  5
82
330
1F
100
AcDbEntity
  8
0
  6
Continuous
 62
     7
370
    25
100
AcDbCircle
 10
179.3145452771
 20
156.1222501719
 30
0.0
 40
1.000000000000008
100
AcDbArc
 50
90.0
 51
150.0
  0
LINE
  5
83
330
1F
100
AcDbEntity
  8
0
  6
Continuous
 62
     7
370
    25
100
AcDbLine
 10
178.4485198733
 20
156.6222501719
 30
0.0
 11
177.5824944695
 21
155.1222501719
 31
0.0
  0
LINE
  5
84
330
1F
100
AcDbEntity
  8
0
  6
Continuous
 62
     7
370
    25
100
AcDbLine
 10
177.5824944695
 20
114.1222501719
 30
0.0
 11
178.4485198733
 21
112.6222501719
 31
0.0
  0
ARC
  5
85
330
1F
100
AcDbEntity
  8
0
  6
Continuous
 62
     7
370
    25
100
AcDbCircle
 10
176.7164690657
 20
113.6222501719
 30
0.0
 40
1.000000000000008
100
AcDbArc
 50
30.0
 51
90.0
  0
ARC
  5
86
330
1F
100
AcDbEntity
  8
0
  6
Continuous
 62
     7
370
    25
100
AcDbCircle
 10
176.7164690657
 20
155.6222501719
 30
0.0
 40
1.000000000000008
100
AcDbArc
 50
270.0
 51
330.0
  0
LINE
  5
87
330
1F
100
AcDbEntity
  8
0
  6
Continuous
 62
     7
370
    25
100
AcDbLine
 10
157.0164690657
 20
114.6222501719
 30
0.0
 11
176.7164690657
 21
114.6222501719
 31
0.0
  0
LINE
  5
88
330
1F
100
AcDbEntity
  8
0
  6
Continuous
 62
     7
370
    25
100
AcDbLine
 10
176.7164690657
 20
154.6222501719
 30
0.0
 11
157.0164690657
 21
154.6222501719
 31
0.0
  0
ARC
  5
89
330
1F
100
AcDbEntity
  8
0
  6
Continuous
 62
     7
370
    25
100
AcDbCircle
 10
157.0164690657
 20
114.9222501719
 30
0.0
 40
0.3000000000000114
100
AcDbArc
 50
180.0
 51
270.0
  0
ARC
  5
8A
330
1F
100
AcDbEntity
  8
0
  6
Continuous
 62
     7
370
    25
100
AcDbCircle
 10
157.0164690657
 20
154.3222501719
 30
0.0
 40
0.3000000000000114
100
AcDbArc
 50
90.0
 51
180.0
  0
LWPOLYLINE
  5
8B
330
1F
100
AcDbEntity
  8
0
  6
Continuous
 62
     7
370
    25
100
AcDbPolyline
 90
        3
 70
   128
 43
0.0
 10
156.5164690657
 20
120.532429893
 10
156.6419240092
 20
120.4641277781
 10
156.7164690657
 20
120.41139002
  0
LWPOLYLINE
  5
8C
330
1F
100
AcDbEntity
  8
0
  6
Continuous
 62
     7
370
    25
100
AcDbPolyline
 90
        3
 70
   128
 43
0.0
 10
156.7164690657
 20
148.8331103239
 10
156.6419240092
 20
148.7803725657
 10
156.5164690657
 20
148.7120704508
  0
CIRCLE
  5
8D
330
1F
100
AcDbEntity
  8
0
  6
Continuous
 62
     7
370
    25
100
AcDbCircle
 10
216.7164690657
 20
134.6222501719
 30
0.0
 40
3.999999999999974
  0
SPLINE
  5
8E
330
1F
100
AcDbEntity
  8
0
  6
Continuous
 62
     7
370
    25
100
AcDbSpline
210
0.0
220
0.0
230
1.0
 70
    24
 71
     3
 72
    11
 73
     7
 74
     0
 42
0.000000001
 43
0.00000001
 40
0.0
 40
0.0
 40
0.0
 40
0.0
 40
0.2164553779443455
 40
0.4403112895790561
 40
0.751900568803869
 40
1.0
 40
1.0
 40
1.0
 40
1.0
 10
215.5676573028921
 20
131.3541878203737
 30
0.0
 10
215.4131315063781
 20
131.5342721648106
 30
0.0
 10
215.0987967303955
 20
131.9005978744559
 30
0.0
 10
214.5154753397822
 20
132.5804005520303
 30
0.0
 10
213.8897585127433
 20
133.3096108660515
 30
0.0
 10
213.4893373174704
 20
133.7762616782527
 30
0.0
 10
213.3118381667168
 20
133.9831191669222
 30
0.0
  0
SPLINE
  5
8F
330
1F
100
AcDbEntity
  8
0
  6
Continuous
 62
     7
370
    25
100
AcDbSpline
210
0.0
220
0.0
230
1.0
 70
    24
 71
     3
 72
    13
 73
     9
 74
     0
 42
0.000000001
 43
0.00000001
 40
0.0
 40
0.0
 40
0.0
 40
0.0
 40
0.1858585508580278
 40
0.3545088035973801
 40
0.528751703950338
 40
0.707210378797294
 40
0.8922150243135941
 40
1.0
 40
1.0
 40
1.0
 40
1.0
 10
218.972288201896
 20
131.9933188253704
 30
0.0
 10
218.7722824435882
 20
131.9557729400441
 30
0.0
 10
218.3907890887601
 20
131.884157473198
 30
0.0
 10
217.7820312868225
 20
131.7698790103356
 30
0.0
 10
217.1618079908593
 20
131.6534481988232
 30
0.0
 10
216.5272346467774
 20
131.5343235385654
 30
0.0
 10
215.9958651684456
 20
131.4345727230481
 30
0.0
 10
215.6828777255946
 20
131.3758174615132
 30
0.0
 10
215.5676573028921
 20
131.3541878203737
 30
0.0
  0
SPLINE
  5
90
330
1F
100
AcDbEntity
  8
0
  6
Continuous
 62
     7
370
    25
100
AcDbSpline
210
0.0
220
0.0
230
1.0
 70
    24
 71
     3
 72
    11
 73
     7
 74
     0
 42
0.000000001
 43
0.00000001
 40
0.0
 40
0.0
 40
0.0
 40
0.0
 40
0.2164553779443455
 40
0.4403112895790547
 40
0.7519005688038692
 40
1.0
 40
1.0
 40
1.0
 40
1.0
 10
220.1210999647246
 20
135.2613811769156
 30
0.0
 10
220.0424052458754
 20
135.0375157393759
 30
0.0
 10
219.8823252632545
 20
134.5821309832595
 30
0.0
 10
219.585259570221
 20
133.7370585016302
 30
0.0
 10
219.2666033270966
 20
132.8305666768286
 30
0.0
 10
219.0626824666701
 20
132.2504663434079
 30
0.0
 10
218.972288201896
 20
131.9933188253704
 30
0.0
  0
SPLINE
  5
91
330
1F
100
AcDbEntity
  8
0
  6
Continuous
 62
     7
370
    25
100
AcDbSpline
210
0.0
220
0.0
230
1.0
 70
    24
 71
     3
 72
    11
 73
     7
 74
     0
 42
0.000000001
 43
0.00000001
 40
0.0
 40
0.0
 40
0.0
 40
0.0
 40
0.2164553779443386
 40
0.4403112895790552
 40
0.7519005688038685
 40
1.0
 40
1.0
 40
1.0
 40
1.0
 10
217.8652808285492
 20
137.890312523464
 30
0.0
 10
218.0198066250633
 20
137.7102281790272
 30
0.0
 10
218.3341414010459
 20
137.3439024693818
 30
0.0
 10
218.9174627916592
 20
136.6640997918075
 30
0.0
 10
219.5431796186981
 20
135.9348894777863
 30
0.0
 10
219.943600813971
 20
135.4682386655851
 30
0.0
 10
220.1210999647246
 20
135.2613811769156
 30
0.0
  0
SPLINE
  5
92
330
1F
100
AcDbEntity
  8
0
  6
Continuous
 62
     7
370
    25
100
AcDbSpline
210
0.0
220
0.0
230
1.0
 70
    24
 71
     3
 72
    13
 73
     9
 74
     0
 42
0.000000001
 43
0.00000001
 40
0.0
 40
0.0
 40
0.0
 40
0.0
 40
0.1077852362604656
 40
0.2867886602058339
 40
0.4712404514101031
 40
0.6395159303143987
 40
0.8141409998222546
 40
0.9999999999999999
 40
0.9999999999999999
 40
0.9999999999999999
 40
0.9999999999999999
 10
214.4606499295453
 20
137.2511815184673
 30
0.0
 10
214.5758737157314
 20
137.2728117910135
 30
0.0
 10
214.8824544350454
 20
137.3303643566397
 30
0.0
 10
215.4131451116388
 20
137.4299877447646
 30
0.0
 10
216.0406595954018
 20
137.5477872873743
 30
0.0
 10
216.6678370350941
 20
137.6655235587155
 30
0.0
 10
217.2773744307317
 20
137.7799483700426
 30
0.0
 10
217.6652825100498
 20
137.8527680347685
 30
0.0
 10
217.8652808285492
 20
137.890312523464
 30
0.0
  0
SPLINE
  5
93
330
1F
100
AcDbEntity
  8
0
  6
Continuous
 62
     7
370
    25
100
AcDbSpline
210
0.0
220
0.0
230
1.0
 70
    24
 71
     3
 72
    11
 73
     7
 74
     0
 42
0.000000001
 43
0.00000001
 40
0.0
 40
0.0
 40
0.0
 40
0.0
 40
0.2164553779443447
 40
0.4403112895790532
 40
0.7519005688038768
 40
1.0
 40
1.0
 40
1.0
 40
1.0
 10
213.3118381667168
 20
133.9831191669222
 30
0.0
 10
213.390532885566
 20
134.2069846044619
 30
0.0
 10
213.5506128681868
 20
134.6623693605783
 30
0.0
 10
213.8476785612203
 20
135.5074418422075
 30
0.0
 10
214.1663348043448
 20
136.4139336670092
 30
0.0
 10
214.3702556647713
 20
136.9940340004298
 30
0.0
 10
214.4606499295453
 20
137.2511815184673
 30
0.0
  0
CIRCLE
  5
94
330
1F
100
AcDbEntity
  8
0
  6
Continuous
 62
     7
370
    25
100
AcDbCircle
 10
216.7164690657
 20
134.6222501719
 30
0.0
 40
5.0
  0
CIRCLE
  5
95
330
1F
100
AcDbEntity
  8
0
  6
Continuous
 62
     7
370
    25
100
AcDbCircle
 10
216.7164690657
 20
134.6222501719
 30
0.0
 40
5.999999999999992
  0
ARC
  5
96
330
1F
100
AcDbEntity
  8
0
  6
Continuous
 62
     7
370
    25
100
AcDbCircle
 10
216.7164690657
 20
134.6222501719
 30
0.0
 40
3.00000000000001
100
AcDbArc
 50
280.632054352
 51
340.632054352
  0
ARC
  5
97
330
1F
100
AcDbEntity
  8
0
  6
Continuous
 62
     7
370
    25
100
AcDbCircle
 10
216.7164690657
 20
134.6222501719
 30
0.0
 40
3.00000000000001
100
AcDbArc
 50
220.632054352
 51
280.632054352
  0
ARC
  5
98
330
1F
100
AcDbEntity
  8
0
  6
Continuous
 62
     7
370
    25
100
AcDbCircle
 10
216.7164690657
 20
134.6222501719
 30
0.0
 40
3.000000000000009
100
AcDbArc
 50
340.632054352
 51
40.632054352
  0
ARC
  5
99
330
1F
100
AcDbEntity
  8
0
  6
Continuous
 62
     7
370
    25
100
AcDbCircle
 10
216.7164690657
 20
134.6222501719
 30
0.0
 40
2.999999999999998
100
AcDbArc
 50
100.632054352
 51
160.632054352
  0
ARC
  5
9A
330
1F
100
AcDbEntity
  8
0
  6
Continuous
 62
     7
370
    25
100
AcDbCircle
 10
216.7164690657
 20
134.6222501719
 30
0.0
 40
2.999999999999998
100
AcDbArc
 50
160.632054352
 51
220.632054352
  0
ARC
  5
9B
330
1F
100
AcDbEntity
  8
0
  6
Continuous
 62
     7
370
    25
100
AcDbCircle
 10
216.7164690657
 20
134.6222501719
 30
0.0
 40
3.000000000000009
100
AcDbArc
 50
40.632054352
 51
100.632054352
  0
CIRCLE
  5
9C
330
1F
100
AcDbEntity
  8
0
  6
Continuous
 62
     7
370
    25
100
AcDbCircle
 10
193.7164690657
 20
134.6222501719
 30
0.0
 40
4.00000000000001
  0
CIRCLE
  5
9D
330
1F
100
AcDbEntity
  8
0
  6
Continuous
 62
     7
370
    25
100
AcDbCircle
 10
193.7164690657
 20
134.6222501719
 30
0.0
 40
5.000000000000007
  0
SPLINE
  5
9E
330
1F
100
AcDbEntity
  8
0
  6
Continuous
 62
     7
370
    25
100
AcDbSpline
210
0.0
220
0.0
230
1.0
 70
    24
 71
     3
 72
    13
 73
     9
 74
     0
 42
0.000000001
 43
0.00000001
 40
0.0
 40
0.0
 40
0.0
 40
0.0
 40
0.185880134947148
 40
0.3574916036815781
 40
0.5287512678242161
 40
0.7102198285884567
 40
0.8922025070497273
 40
1.0
 40
1.0
 40
1.0
 40
1.0
 10
197.1131168513653
 20
133.9419680096692
 30
0.0
 10
197.0479723385736
 20
134.1347103045658
 30
0.0
 10
196.9226839834967
 20
134.5053994700297
 30
0.0
 10
196.7240762139372
 20
135.0930179147567
 30
0.0
 10
196.5209750334176
 20
135.6939309610279
 30
0.0
 10
196.3155150790586
 20
136.3018228833926
 30
0.0
 10
196.1423605645575
 20
136.8141330852255
 30
0.0
 10
196.0414668136719
 20
137.11264622552
 30
0.0
 10
196.0039345927927
 20
137.2236923608705
 30
0.0
  0
SPLINE
  5
9F
330
1F
100
AcDbEntity
  8
0
  6
Continuous
 62
     7
370
    25
100
AcDbSpline
210
0.0
220
0.0
230
1.0
 70
    24
 71
     3
 72
    11
 73
     7
 74
     0
 42
0.000000001
 43
0.00000001
 40
0.0
 40
0.0
 40
0.0
 40
0.0
 40
0.2164553779443485
 40
0.4403112895790632
 40
0.7519005688038929
 40
0.9999999999999999
 40
0.9999999999999999
 40
0.9999999999999999
 40
0.9999999999999999
 10
196.0039345927927
 20
137.2236923608705
 30
0.0
 10
195.7712609284295
 20
137.2702923481169
 30
0.0
 10
195.2979585684705
 20
137.3650855598804
 30
0.0
 10
194.4196357996047
 20
137.5409964432174
 30
0.0
 10
193.4774770773387
 20
137.7296924203141
 30
0.0
 10
192.874552071323
 20
137.850446514542
 30
0.0
 10
192.607286807148
 20
137.9039745231202
 30
0.0
  0
SPLINE
  5
A0
330
1F
100
AcDbEntity
  8
0
  6
Continuous
 62
     7
370
    25
100
AcDbSpline
210
0.0
220
0.0
230
1.0
 70
    24
 71
     3
 72
    11
 73
     7
 74
     0
 42
0.000000001
 43
0.00000001
 40
0.0
 40
0.0
 40
0.0
 40
0.0
 40
0.2164553779443532
 40
0.440311289579061
 40
0.7519005688038916
 40
1.0
 40
1.0
 40
1.0
 40
1.0
 10
190.319821280076
 20
135.3025323341686
 30
0.0
 10
190.476514885029
 20
135.4807336446756
 30
0.0
 10
190.795259394502
 20
135.8432289061894
 30
0.0
 10
191.3867640727069
 20
136.515923295081
 30
0.0
 10
192.0212589435976
 20
137.2375086944121
 30
0.0
 10
192.4272975598178
 20
137.6992800190846
 30
0.0
 10
192.607286807148
 20
137.9039745231202
 30
0.0
  0
SPLINE
  5
A1
330
1F
100
AcDbEntity
  8
0
  6
Continuous
 62
     7
370
    25
100
AcDbSpline
210
0.0
220
0.0
230
1.0
 70
    24
 71
     3
 72
    13
 73
     9
 74
     0
 42
0.000000001
 43
0.00000001
 40
0.0
 40
0.0
 40
0.0
 40
0.0
 40
0.1858801349471512
 40
0.3574916036815795
 40
0.5287512678242156
 40
0.7102198285884571
 40
0.8922025070497279
 40
1.0
 40
1.0
 40
1.0
 40
1.0
 10
191.4290035386487
 20
132.0208079829673
 30
0.0
 10
191.3638590258569
 20
132.213550277864
 30
0.0
 10
191.23857067078
 20
132.5842394433278
 30
0.0
 10
191.0399629012205
 20
133.1718578880549
 30
0.0
 10
190.8368617207009
 20
133.7727709343261
 30
0.0
 10
190.631401766342
 20
134.3806628566907
 30
0.0
 10
190.4582472518408
 20
134.8929730585237
 30
0.0
 10
190.3573535009552
 20
135.1914861988181
 30
0.0
 10
190.319821280076
 20
135.3025323341686
 30
0.0
  0
SPLINE
  5
A2
330
1F
100
AcDbEntity
  8
0
  6
Continuous
 62
     7
370
    25
100
AcDbSpline
210
0.0
220
0.0
230
1.0
 70
    24
 71
     3
 72
    11
 73
     7
 74
     0
 42
0.000000001
 43
0.00000001
 40
0.0
 40
0.0
 40
0.0
 40
0.0
 40
0.2164553779443413
 40
0.4403112895790644
 40
0.75190056880389
 40
0.9999999999999999
 40
0.9999999999999999
 40
0.9999999999999999
 40
0.9999999999999999
 10
191.4290035386487
 20
132.0208079829673
 30
0.0
 10
191.6616772030119
 20
131.9742079957209
 30
0.0
 10
192.1349795629708
 20
131.8794147839573
 30
0.0
 10
193.0133023318366
 20
131.7035039006204
 30
0.0
 10
193.9554610541026
 20
131.5148079235237
 30
0.0
 10
194.5583860601183
 20
131.3940538292958
 30
0.0
 10
194.8256513242933
 20
131.3405258207176
 30
0.0
  0
SPLINE
  5
A3
330
1F
100
AcDbEntity
  8
0
  6
Continuous
 62
     7
370
    25
100
AcDbSpline
210
0.0
220
0.0
230
1.0
 70
    24
 71
     3
 72
    11
 73
     7
 74
     0
 42
0.000000001
 43
0.00000001
 40
0.0
 40
0.0
 40
0.0
 40
0.0
 40
0.2164553779443484
 40
0.4403112895790611
 40
0.7519005688038863
 40
1.0
 40
1.0
 40
1.0
 40
1.0
 10
197.1131168513653
 20
133.9419680096692
 30
0.0
 10
196.9564232464123
 20
133.7637666991622
 30
0.0
 10
196.6376787369393
 20
133.4012714376484
 30
0.0
 10
196.0461740587345
 20
132.7285770487568
 30
0.0
 10
195.4116791878438
 20
132.0069916494257
 30
0.0
 10
195.0056405716236
 20
131.5452203247532
 30
0.0
 10
194.8256513242933
 20
131.3405258207176
 30
0.0
  0
CIRCLE
  5
A4
330
1F
100
AcDbEntity
  8
0
  6
Continuous
 62
     7
370
    25
100
AcDbCircle
 10
193.7164690657
 20
134.6222501719
 30
0.0
 40
6.000000000000006
  0
ARC
  5
A5
330
1F
100
AcDbEntity
  8
0
  6
Continuous
 62
     7
370
    25
100
AcDbCircle
 10
193.7164690657
 20
134.6222501719
 30
0.0
 40
2.999999999999994
100
AcDbArc
 50
138.6746175341
 51
198.6746175341
  0
ARC
  5
A6
330
1F
100
AcDbEntity
  8
0
  6
Continuous
 62
     7
370
    25
100
AcDbCircle
 10
193.7164690657
 20
134.6222501719
 30
0.0
 40
3.000000000000039
100
AcDbArc
 50
258.6746175341
 51
318.6746175341
  0
ARC
  5
A7
330
1F
100
AcDbEntity
  8
0
  6
Continuous
 62
     7
370
    25
100
AcDbCircle
 10
193.7164690657
 20
134.6222501719
 30
0.0
 40
3.000000000000039
100
AcDbArc
 50
198.6746175341
 51
258.6746175341
  0
ARC
  5
A8
330
1F
100
AcDbEntity
  8
0
  6
Continuous
 62
     7
370
    25
100
AcDbCircle
 10
193.7164690657
 20
134.6222501719
 30
0.0
 40
3.000000000000012
100
AcDbArc
 50
318.6746175341
 51
18.6746175341
  0
ARC
  5
A9
330
1F
100
AcDbEntity
  8
0
  6
Continuous
 62
     7
370
    25
100
AcDbCircle
 10
193.7164690657
 20
134.6222501719
 30
0.0
 40
2.999999999999981
100
AcDbArc
 50
78.6746175341
 51
138.6746175341
  0
ARC
  5
AA
330
1F
100
AcDbEntity
  8
0
  6
Continuous
 62
     7
370
    25
100
AcDbCircle
 10
193.7164690657
 20
134.6222501719
 30
0.0
 40
3.000000000000012
100
AcDbArc
 50
18.6746175341
 51
78.6746175341
  0
LINE
  5
AB
330
1F
100
AcDbEntity
  8
0
  6
Continuous
 62
     7
370
    25
100
AcDbLine
 10
233.7164690657
 20
113.6222501719
 30
0.0
 11
233.7164690657
 21
155.6222501719
 31
0.0
  0
LINE
  5
AC
330
1F
100
AcDbEntity
  8
0
  6
Continuous
 62
     7
370
    25
100
AcDbLine
 10
232.2164690657
 20
112.1222501719
 30
0.0
 11
232.2164690657
 21
157.1222501719
 31
0.0
  0
SPLINE
  5
AD
330
1F
100
AcDbEntity
  8
0
  6
Continuous
 62
     7
370
    25
100
AcDbSpline
210
0.0
220
0.0
230
1.0
 70
    11
 71
     3
 72
    84
 73
    80
 74
     0
 42
0.000000001
 43
0.00000001
 40
0.0
 40
0.0
 40
0.0
 40
0.0
 40
0.0312500000000007
 40
0.0312500000000007
 40
0.0625000000000013
 40
0.0625000000000013
 40
0.093750000000002
 40
0.093750000000002
 40
0.1093750000000022
 40
0.1093750000000022
 40
0.1250000000000025
 40
0.1250000000000025
 40
0.1406250000000028
 40
0.1406250000000028
 40
0.1562500000000031
 40
0.1562500000000031
 40
0.1875000000000037
 40
0.1875000000000037
 40
0.2187500000000043
 40
0.2187500000000043
 40
0.2500000000000048
 40
0.2500000000000048
 40
0.2812500000000054
 40
0.2812500000000054
 40
0.3125000000000059
 40
0.3125000000000059
 40
0.3437500000000065
 40
0.3437500000000065
 40
0.375000000000007
 40
0.375000000000007
 40
0.3906250000000074
 40
0.3906250000000074
 40
0.4062500000000077
 40
0.4062500000000077
 40
0.4375000000000077
 40
0.4375000000000077
 40
0.4531250000000078
 40
0.4531250000000078
 40
0.4687500000000078
 40
0.4687500000000078
 40
0.5000000000000074
 40
0.5000000000000074
 40
0.5156250000000071
 40
0.5156250000000071
 40
0.5312500000000068
 40
0.5312500000000068
 40
0.5625000000000061
 40
0.5625000000000061
 40
0.5781250000000059
 40
0.5781250000000059
 40
0.5937500000000057
 40
0.5937500000000057
 40
0.6250000000000052
 40
0.6250000000000052
 40
0.640625000000005
 40
0.640625000000005
 40
0.6562500000000048
 40
0.6562500000000048
 40
0.6875000000000043
 40
0.6875000000000043
 40
0.7187500000000039
 40
0.7187500000000039
 40
0.7500000000000034
 40
0.7500000000000034
 40
0.7812500000000031
 40
0.7812500000000031
 40
0.8125000000000027
 40
0.8125000000000027
 40
0.8281250000000024
 40
0.8281250000000024
 40
0.8437500000000022
 40
0.8437500000000022
 40
0.8750000000000018
 40
0.8750000000000018
 40
0.9062500000000013
 40
0.9062500000000013
 40
0.9375000000000009
 40
0.9375000000000009
 40
1.0
 40
1.0
 40
1.0
 40
1.0
 10
189.0618567069616
 20
139.2009920641296
 30
0.0
 10
188.7219456504394
 20
138.9344488480138
 30
0.0
 10
188.4117357777862
 20
138.6398353245624
 30
0.0
 10
187.8531844613782
 20
137.9910244034745
 30
0.0
 10
187.603457982254
 20
137.632813820995
 30
0.0
 10
187.194680542038
 20
136.8827420855808
 30
0.0
 10
187.0323176833702
 20
136.488336836734
 30
0.0
 10
186.858076827195
 20
135.8644647904551
 30
0.0
 10
186.811694078548
 20
135.650115538211
 30
0.0
 10
186.7460131943583
 20
135.22323250965
 30
0.0
 10
186.7261843274507
 20
135.0092223542402
 30
0.0
 10
186.7123216522357
 20
134.5800733806316
 30
0.0
 10
186.7182869044437
 20
134.3649346032337
 30
0.0
 10
186.7566221384781
 20
133.9335021300288
 30
0.0
 10
186.7893220406983
 20
133.7166040220202
 30
0.0
 10
186.9241818738945
 20
133.082459913472
 30
0.0
 10
187.0628771927393
 20
132.6755093047172
 30
0.0
 10
187.4334511754392
 20
131.8915521351769
 30
0.0
 10
187.6605893600899
 20
131.5253194508178
 30
0.0
 10
188.1848653176352
 20
130.8468611362264
 30
0.0
 10
188.4854292817711
 20
130.5317685081922
 30
0.0
 10
189.1327236324065
 20
129.9717088394944
 30
0.0
 10
189.4814063104021
 20
129.7235020725343
 30
0.0
 10
190.2274962377576
 20
129.2878211638737
 30
0.0
 10
190.6172860997431
 20
129.1050831175541
 30
0.0
 10
191.4212194666792
 20
128.8079805566819
 30
0.0
 10
191.8391377021842
 20
128.6925265488619
 30
0.0
 10
192.6909930072258
 20
128.5324431254949
 30
0.0
 10
193.1187990273375
 20
128.4885008681095
 30
0.0
 10
193.7632371537559
 20
128.4747699695877
 30
0.0
 10
193.9785073826826
 20
128.4789458195577
 30
0.0
 10
194.4099797870221
 20
128.505135320017
 30
0.0
 10
194.6271951645064
 20
128.527333460803
 30
0.0
 10
195.2699320673919
 20
128.6201521608015
 30
0.0
 10
195.6879687555029
 20
128.716469710039
 30
0.0
 10
196.2996204605504
 20
128.9122271411033
 30
0.0
 10
196.5009219156327
 20
128.9860802712881
 30
0.0
 10
196.8982089106499
 20
129.1516268976361
 30
0.0
 10
197.0950802444515
 20
129.2438429711361
 30
0.0
 10
197.6668567261967
 20
129.5432347215479
 30
0.0
 10
198.0253910880101
 20
129.7734728180041
 30
0.0
 10
198.5286029918591
 20
130.1665330738089
 30
0.0
 10
198.6905354094669
 20
130.3055592673886
 30
0.0
 10
199.0021238432873
 20
130.6007096293694
 30
0.0
 10
199.152383299801
 20
130.7576817468592
 30
0.0
 10
199.5732292444258
 20
131.2446741117215
 30
0.0
 10
199.81745541772
 20
131.5931095552453
 30
0.0
 10
200.1259964208034
 20
132.1541582171566
 30
0.0
 10
200.219137414374
 20
132.3476209279881
 30
0.0
 10
200.384358275672
 20
132.7486170800174
 30
0.0
 10
200.4555953013638
 20
132.9546057246857
 30
0.0
 10
200.6304430978728
 20
133.5759565153028
 30
0.0
 10
200.6977938110364
 20
133.9997086374048
 30
0.0
 10
200.7208040598872
 20
134.6504863593229
 30
0.0
 10
200.7150890508176
 20
134.8702021220946
 30
0.0
 10
200.6775442384664
 20
135.3014208687563
 30
0.0
 10
200.6458487175051
 20
135.5146204703572
 30
0.0
 10
200.5130378425103
 20
136.1471983073367
 30
0.0
 10
200.3717834312992
 20
136.5638975975525
 30
0.0
 10
200.0047494431259
 20
137.3432374947038
 30
0.0
 10
199.778257249789
 20
137.710823014237
 30
0.0
 10
199.249740551773
 20
138.3961826850657
 30
0.0
 10
198.9540762737744
 20
138.7063734535935
 30
0.0
 10
198.3056388587698
 20
139.2687618330078
 30
0.0
 10
197.9505600205883
 20
139.5214261426301
 30
0.0
 10
197.2098974432641
 20
139.9542163103392
 30
0.0
 10
196.8216848291637
 20
140.137053265118
 30
0.0
 10
196.2127785129244
 20
140.3622825988941
 30
0.0
 10
196.005371087456
 20
140.429001315989
 30
0.0
 10
195.5891875521819
 20
140.5437953896733
 30
0.0
 10
195.3794786566695
 20
140.5922409431925
 30
0.0
 10
194.7455953557076
 20
140.7113890299383
 30
0.0
 10
194.3167012334637
 20
140.7561217888533
 30
0.0
 10
193.4458969687206
 20
140.7743207012664
 30
0.0
 10
193.0135419283273
 20
140.7473566142825
 30
0.0
 10
192.1629586156441
 20
140.6241588034187
 30
0.0
 10
191.7433450672395
 20
140.527977725311
 30
0.0
 10
190.5023790108982
 20
140.1293963078801
 30
0.0
 10
189.7416788200057
 20
139.734078496361
 30
0.0
 10
189.0618567069615
 20
139.2009920641296
 30
0.0
  0
SPLINE
  5
AE
330
1F
100
AcDbEntity
  8
0
  6
Continuous
 62
     7
370
    25
100
AcDbSpline
210
0.0
220
0.0
230
1.0
 70
    11
 71
     3
 72
    84
 73
    80
 74
     0
 42
0.000000001
 43
0.00000001
 40
0.0
 40
0.0
 40
0.0
 40
0.0
 40
0.0312500000000009
 40
0.0312500000000009
 40
0.0625000000000018
 40
0.0625000000000018
 40
0.0937500000000027
 40
0.0937500000000027
 40
0.1093750000000032
 40
0.1093750000000032
 40
0.1250000000000036
 40
0.1250000000000036
 40
0.1406250000000041
 40
0.1406250000000041
 40
0.1562500000000045
 40
0.1562500000000045
 40
0.1875000000000054
 40
0.1875000000000054
 40
0.2187500000000062
 40
0.2187500000000062
 40
0.250000000000007
 40
0.250000000000007
 40
0.2812500000000078
 40
0.2812500000000078
 40
0.3125000000000087
 40
0.3125000000000087
 40
0.3437500000000095
 40
0.3437500000000095
 40
0.3750000000000104
 40
0.3750000000000104
 40
0.3906250000000108
 40
0.3906250000000108
 40
0.4062500000000112
 40
0.4062500000000112
 40
0.4375000000000115
 40
0.4375000000000115
 40
0.4531250000000117
 40
0.4531250000000117
 40
0.4687500000000119
 40
0.4687500000000119
 40
0.5000000000000113
 40
0.5000000000000113
 40
0.5156250000000115
 40
0.5156250000000115
 40
0.5312500000000117
 40
0.5312500000000117
 40
0.5625000000000113
 40
0.5625000000000113
 40
0.5781250000000109
 40
0.5781250000000109
 40
0.5937500000000104
 40
0.5937500000000104
 40
0.6250000000000097
 40
0.6250000000000097
 40
0.6406250000000093
 40
0.6406250000000093
 40
0.6562500000000089
 40
0.6562500000000089
 40
0.687500000000008
 40
0.687500000000008
 40
0.7187500000000071
 40
0.7187500000000071
 40
0.7500000000000062
 40
0.7500000000000062
 40
0.7812500000000053
 40
0.7812500000000053
 40
0.8125000000000044
 40
0.8125000000000044
 40
0.828125000000004
 40
0.828125000000004
 40
0.8437500000000036
 40
0.8437500000000036
 40
0.8750000000000028
 40
0.8750000000000028
 40
0.9062500000000021
 40
0.9062500000000021
 40
0.9375000000000013
 40
0.9375000000000013
 40
1.0
 40
1.0
 40
1.0
 40
1.0
 10
212.0618567069615
 20
139.2009920641296
 30
0.0
 10
211.7219456504394
 20
138.9344488480138
 30
0.0
 10
211.4117357777862
 20
138.6398353245624
 30
0.0
 10
210.8531844613783
 20
137.9910244034745
 30
0.0
 10
210.603457982254
 20
137.632813820995
 30
0.0
 10
210.194680542038
 20
136.8827420855808
 30
0.0
 10
210.0323176833702
 20
136.4883368367339
 30
0.0
 10
209.858076827195
 20
135.8644647904551
 30
0.0
 10
209.8116940785479
 20
135.650115538211
 30
0.0
 10
209.7460131943583
 20
135.22323250965
 30
0.0
 10
209.7261843274507
 20
135.0092223542402
 30
0.0
 10
209.7123216522357
 20
134.5800733806316
 30
0.0
 10
209.7182869044438
 20
134.3649346032337
 30
0.0
 10
209.7566221384781
 20
133.9335021300288
 30
0.0
 10
209.7893220406983
 20
133.7166040220202
 30
0.0
 10
209.9241818738945
 20
133.082459913472
 30
0.0
 10
210.0628771927393
 20
132.6755093047172
 30
0.0
 10
210.4334511754392
 20
131.8915521351769
 30
0.0
 10
210.6605893600898
 20
131.5253194508178
 30
0.0
 10
211.1848653176352
 20
130.8468611362264
 30
0.0
 10
211.485429281771
 20
130.5317685081922
 30
0.0
 10
212.1327236324065
 20
129.9717088394944
 30
0.0
 10
212.481406310402
 20
129.7235020725343
 30
0.0
 10
213.2274962377576
 20
129.2878211638737
 30
0.0
 10
213.6172860997431
 20
129.1050831175541
 30
0.0
 10
214.4212194666792
 20
128.8079805566819
 30
0.0
 10
214.8391377021842
 20
128.6925265488619
 30
0.0
 10
215.6909930072258
 20
128.5324431254949
 30
0.0
 10
216.1187990273375
 20
128.4885008681095
 30
0.0
 10
216.7632371537559
 20
128.4747699695877
 30
0.0
 10
216.9785073826826
 20
128.4789458195577
 30
0.0
 10
217.4099797870221
 20
128.505135320017
 30
0.0
 10
217.6271951645064
 20
128.527333460803
 30
0.0
 10
218.2699320673919
 20
128.6201521608015
 30
0.0
 10
218.6879687555029
 20
128.716469710039
 30
0.0
 10
219.2996204605504
 20
128.9122271411033
 30
0.0
 10
219.5009219156326
 20
128.9860802712881
 30
0.0
 10
219.8982089106498
 20
129.1516268976361
 30
0.0
 10
220.0950802444515
 20
129.2438429711361
 30
0.0
 10
220.6668567261967
 20
129.5432347215479
 30
0.0
 10
221.0253910880101
 20
129.7734728180041
 30
0.0
 10
221.5286029918591
 20
130.1665330738089
 30
0.0
 10
221.6905354094669
 20
130.3055592673886
 30
0.0
 10
222.0021238432873
 20
130.6007096293694
 30
0.0
 10
222.152383299801
 20
130.7576817468592
 30
0.0
 10
222.5732292444257
 20
131.2446741117215
 30
0.0
 10
222.81745541772
 20
131.5931095552453
 30
0.0
 10
223.1259964208033
 20
132.1541582171566
 30
0.0
 10
223.219137414374
 20
132.3476209279882
 30
0.0
 10
223.384358275672
 20
132.7486170800175
 30
0.0
 10
223.4555953013638
 20
132.9546057246857
 30
0.0
 10
223.6304430978728
 20
133.5759565153029
 30
0.0
 10
223.6977938110364
 20
133.9997086374048
 30
0.0
 10
223.7208040598873
 20
134.6504863593229
 30
0.0
 10
223.7150890508176
 20
134.8702021220947
 30
0.0
 10
223.6775442384664
 20
135.3014208687563
 30
0.0
 10
223.6458487175051
 20
135.5146204703572
 30
0.0
 10
223.5130378425102
 20
136.1471983073367
 30
0.0
 10
223.3717834312992
 20
136.5638975975525
 30
0.0
 10
223.0047494431258
 20
137.3432374947038
 30
0.0
 10
222.778257249789
 20
137.7108230142371
 30
0.0
 10
222.249740551773
 20
138.3961826850657
 30
0.0
 10
221.9540762737744
 20
138.7063734535935
 30
0.0
 10
221.3056388587698
 20
139.2687618330078
 30
0.0
 10
220.9505600205882
 20
139.5214261426302
 30
0.0
 10
220.209897443264
 20
139.9542163103392
 30
0.0
 10
219.8216848291637
 20
140.137053265118
 30
0.0
 10
219.2127785129244
 20
140.3622825988941
 30
0.0
 10
219.005371087456
 20
140.4290013159891
 30
0.0
 10
218.5891875521819
 20
140.5437953896733
 30
0.0
 10
218.3794786566695
 20
140.5922409431926
 30
0.0
 10
217.7455953557076
 20
140.7113890299383
 30
0.0
 10
217.3167012334637
 20
140.7561217888534
 30
0.0
 10
216.4458969687206
 20
140.7743207012664
 30
0.0
 10
216.0135419283273
 20
140.7473566142825
 30
0.0
 10
215.1629586156441
 20
140.6241588034187
 30
0.0
 10
214.7433450672394
 20
140.527977725311
 30
0.0
 10
213.5023790108981
 20
140.1293963078801
 30
0.0
 10
212.7416788200058
 20
139.734078496361
 30
0.0
 10
212.0618567069616
 20
139.2009920641296
 30
0.0
  0
SPLINE
  5
AF
330
1F
100
AcDbEntity
  8
0
  6
Continuous
 62
     7
370
    25
100
AcDbSpline
210
0.0
220
0.0
230
1.0
 70
     8
 71
     3
 72
    12
 73
     8
 74
     0
 42
0.000000001
 43
0.00000001
 40
0.0
 40
0.0
 40
0.0
 40
0.0
 40
0.25
 40
0.25
 40
0.5
 40
0.5
 40
1.0
 40
1.0
 40
1.0
 40
1.0
 10
163.6483710677199
 20
140.4514631675707
 30
0.0
 10
163.6108591816752
 20
140.4514631675707
 30
0.0
 10
163.5755718339705
 20
140.4662679818575
 30
0.0
 10
163.5166419857321
 20
140.5098598549833
 30
0.0
 10
163.493116259263
 20
140.5373732810693
 30
0.0
 10
163.4328574714949
 20
140.6265050131829
 30
0.0
 10
163.4072627092056
 20
140.6928908638007
 30
0.0
 10
163.3885634465846
 20
140.760495298978
 30
0.0
  0
LINE
  5
B0
330
1F
100
AcDbEntity
  8
0
  6
Continuous
 62
     7
370
    25
100
AcDbLine
 10
165.7845670637
 20
140.4514631676
 30
0.0
 11
163.6483710677
 21
140.4514631676
 31
0.0
  0
SPLINE
  5
B1
330
1F
100
AcDbEntity
  8
0
  6
Continuous
 62
     7
370
    25
100
AcDbSpline
210
0.0
220
0.0
230
1.0
 70
     8
 71
     3
 72
    12
 73
     8
 74
     0
 42
0.000000001
 43
0.00000001
 40
0.0
 40
0.0
 40
0.0
 40
0.0
 40
0.5000000000000021
 40
0.5000000000000021
 40
0.750000000000001
 40
0.750000000000001
 40
1.0
 40
1.0
 40
1.0
 40
1.0
 10
166.0443746848568
 20
140.7604952989781
 30
0.0
 10
166.0256814517264
 20
140.6929126625377
 30
0.0
 10
166.0000261543146
 20
140.6264300930603
 30
0.0
 10
165.9398655316282
 20
140.5374350101627
 30
0.0
 10
165.9157932198738
 20
140.5094331131636
 30
0.0
 10
165.8574116995233
 20
140.4663567124984
 30
0.0
 10
165.8219428718702
 20
140.4514631675707
 30
0.0
 10
165.7845670637215
 20
140.4514631675707
 30
0.0
  0
ELLIPSE
  5
B2
330
1F
100
AcDbEntity
  8
0
  6
Continuous
 62
     7
370
    25
100
AcDbEllipse
 10
155.7675398933
 20
134.6222501719
 30
0.0
 11
9.367417879781813
 21
19.74174915274992
 31
0.0
210
0.0
220
0.0
230
1.0
 40
0.3419987131
 41
5.185211263708408
 42
6.13211357825257
  0
SPLINE
  5
B3
330
1F
100
AcDbEntity
  8
0
  6
Continuous
 62
     7
370
    25
100
AcDbSpline
210
0.0
220
0.0
230
1.0
 70
     8
 71
     3
 72
    12
 73
     8
 74
     0
 42
0.000000001
 43
0.00000001
 40
0.0
 40
0.0
 40
0.0
 40
0.0
 40
0.2499999999999999
 40
0.2499999999999999
 40
0.4999999999999998
 40
0.4999999999999998
 40
1.0
 40
1.0
 40
1.0
 40
1.0
 10
165.7845670637215
 20
153.7539065521523
 30
0.0
 10
165.8220789497662
 20
153.7539065521523
 30
0.0
 10
165.8573662974709
 20
153.7494030078898
 30
0.0
 10
165.9162961457093
 20
153.7360298084365
 30
0.0
 10
165.9398218721784
 20
153.7275449058653
 30
0.0
 10
166.0000806599465
 20
153.6997971020307
 30
0.0
 10
166.0256754222358
 20
153.6788072382904
 30
0.0
 10
166.0443746848568
 20
153.6570064551009
 30
0.0
  0
LINE
  5
B4
330
1F
100
AcDbEntity
  8
0
  6
Continuous
 62
     7
370
    25
100
AcDbLine
 10
163.6483710677
 20
153.7539065522
 30
0.0
 11
165.7845670637
 21
153.7539065522
 31
0.0
  0
SPLINE
  5
B5
330
1F
100
AcDbEntity
  8
0
  6
Continuous
 62
     7
370
    25
100
AcDbSpline
210
0.0
220
0.0
230
1.0
 70
     8
 71
     3
 72
    12
 73
     8
 74
     0
 42
0.000000001
 43
0.00000001
 40
0.0
 40
0.0
 40
0.0
 40
0.0
 40
0.5000000000000006
 40
0.5000000000000006
 40
0.7500000000000002
 40
0.7500000000000002
 40
1.0
 40
1.0
 40
1.0
 40
1.0
 10
163.3885634465846
 20
153.6570064551009
 30
0.0
 10
163.407256679715
 20
153.6788002087288
 30
0.0
 10
163.4329119771268
 20
153.6998203704384
 30
0.0
 10
163.4930725998132
 20
153.7275257164021
 30
0.0
 10
163.5171449115676
 20
153.7361609325955
 30
0.0
 10
163.5755264319181
 20
153.7493755778221
 30
0.0
 10
163.6109952595712
 20
153.7539065521523
 30
0.0
 10
163.6483710677199
 20
153.7539065521523
 30
0.0
  0
ELLIPSE
  5
B6
330
1F
100
AcDbEntity
  8
0
  6
Continuous
 62
     7
370
    25
100
AcDbEllipse
 10
173.6653982382
 20
134.6222501719
 30
0.0
 11
-9.367417879781669
 21
19.74174915274991
 31
0.0
210
0.0
220
0.0
230
1.0
 40
0.3419987131
 41
0.1510717289270605
 42
1.097974043471197
  0
SPLINE
  5
B7
330
1F
100
AcDbEntity
  8
0
  6
Continuous
 62
     7
370
    25
100
AcDbSpline
210
0.0
220
0.0
230
1.0
 70
     8
 71
     3
 72
    12
 73
     8
 74
     0
 42
0.000000001
 43
0.00000001
 40
0.0
 40
0.0
 40
0.0
 40
0.0
 40
0.2500000000000027
 40
0.2500000000000027
 40
0.5000000000000053
 40
0.5000000000000053
 40
1.0
 40
1.0
 40
1.0
 40
1.0
 10
163.6483710677199
 20
115.4905937916855
 30
0.0
 10
163.6108702448421
 20
115.4905937916855
 30
0.0
 10
163.5755918408061
 20
115.4950947595486
 30
0.0
 10
163.5166741207538
 20
115.508461280766
 30
0.0
 10
163.4931507393554
 20
115.5169425410108
 30
0.0
 10
163.4328951548895
 20
115.5446799366887
 30
0.0
 10
163.4073735024783
 20
115.5655639357418
 30
0.0
 10
163.3885634465845
 20
115.5874938887369
 30
0.0
  0
LINE
  5
B8
330
1F
100
AcDbEntity
  8
0
  6
Continuous
 62
     7
370
    25
100
AcDbLine
 10
165.7845670637
 20
115.4905937917
 30
0.0
 11
163.6483710677
 21
115.4905937917
 31
0.0
  0
SPLINE
  5
B9
330
1F
100
AcDbEntity
  8
0
  6
Continuous
 62
     7
370
    25
100
AcDbSpline
210
0.0
220
0.0
230
1.0
 70
     8
 71
     3
 72
    12
 73
     8
 74
     0
 42
0.000000001
 43
0.00000001
 40
0.0
 40
0.0
 40
0.0
 40
0.0
 40
0.4999999999999969
 40
0.4999999999999969
 40
0.7499999999999984
 40
0.7499999999999984
 40
1.0
 40
1.0
 40
1.0
 40
1.0
 10
166.0443746848568
 20
115.5874938887369
 30
0.0
 10
166.0255714520052
 20
115.5655718904759
 30
0.0
 10
166.000034792986
 20
115.5446780824659
 30
0.0
 10
165.9398086190375
 20
115.5169513563482
 30
0.0
 10
165.9158825416375
 20
115.5083782229727
 30
0.0
 10
165.8578216214562
 20
115.4951991171652
 30
0.0
 10
165.8220199228302
 20
115.4905937916855
 30
0.0
 10
165.7845670637215
 20
115.4905937916855
 30
0.0
  0
ELLIPSE
  5
BA
330
1F
100
AcDbEntity
  8
0
  6
Continuous
 62
     7
370
    25
100
AcDbEllipse
 10
155.7675398933
 20
134.6222501719
 30
0.0
 11
-9.367417879781781
 21
19.74174915274992
 31
0.0
210
0.0
220
0.0
230
1.0
 40
0.3419987131
 41
3.292664382516893
 42
4.239566697060997
  0
SPLINE
  5
BB
330
1F
100
AcDbEntity
  8
0
  6
Continuous
 62
     7
370
    25
100
AcDbSpline
210
0.0
220
0.0
230
1.0
 70
     8
 71
     3
 72
    12
 73
     8
 74
     0
 42
0.000000001
 43
0.00000001
 40
0.0
 40
0.0
 40
0.0
 40
0.0
 40
0.2499999999999984
 40
0.2499999999999984
 40
0.4999999999999969
 40
0.4999999999999969
 40
1.0
 40
1.0
 40
1.0
 40
1.0
 10
165.7845670637215
 20
128.7930371762671
 30
0.0
 10
165.8220678865993
 20
128.7930371762671
 30
0.0
 10
165.8573462906353
 20
128.7782408385141
 30
0.0
 10
165.9162640106876
 20
128.7346705773549
 30
0.0
 10
165.939787392086
 20
128.7071687788534
 30
0.0
 10
166.0000429765519
 20
128.6180696156103
 30
0.0
 10
166.025564628963
 20
128.5520100368279
 30
0.0
 10
166.0443746848568
 20
128.4840050448597
 30
0.0
  0
LINE
  5
BC
330
1F
100
AcDbEntity
  8
0
  6
Continuous
 62
     7
370
    25
100
AcDbLine
 10
163.6483710677
 20
128.7930371763
 30
0.0
 11
165.7845670637
 21
128.7930371763
 31
0.0
  0
SPLINE
  5
BD
330
1F
100
AcDbEntity
  8
0
  6
Continuous
 62
     7
370
    25
100
AcDbSpline
210
0.0
220
0.0
230
1.0
 70
     8
 71
     3
 72
    12
 73
     8
 74
     0
 42
0.000000001
 43
0.00000001
 40
0.0
 40
0.0
 40
0.0
 40
0.0
 40
0.5000000000000022
 40
0.5000000000000022
 40
0.7500000000000011
 40
0.7500000000000011
 40
1.0
 40
1.0
 40
1.0
 40
1.0
 10
163.3885634465846
 20
128.4840050448597
 30
0.0
 10
163.4073666794362
 20
128.5519853691221
 30
0.0
 10
163.4329033384554
 20
128.618075756919
 30
0.0
 10
163.4931295124039
 20
128.7071403693661
 30
0.0
 10
163.5170555898039
 20
128.734941456386
 30
0.0
 10
163.5751165099852
 20
128.7779005296109
 30
0.0
 10
163.6109182086111
 20
128.7930371762671
 30
0.0
 10
163.6483710677199
 20
128.7930371762671
 30
0.0
  0
ELLIPSE
  5
BE
330
1F
100
AcDbEntity
  8
0
  6
Continuous
 62
     7
370
    25
100
AcDbEllipse
 10
173.6653982382
 20
134.6222501719
 30
0.0
 11
9.367417879781641
 21
19.74174915274992
 31
0.0
210
0.0
220
0.0
230
1.0
 40
0.3419987131
 41
2.043618610118597
 42
2.990520924662729
  0
LINE
  5
BF
330
1F
100
AcDbEntity
  8
0
  6
Continuous
 62
     7
370
    25
100
AcDbLine
 10
156.7164690657
 20
114.9222501719
 30
0.0
 11
156.7164690657
 21
154.3222501634
 31
0.0
  0
SPLINE
  5
C0
330
1F
100
AcDbEntity
  8
0
  6
Continuous
 62
     7
370
    25
100
AcDbSpline
210
0.0
220
0.0
230
1.0
 70
     8
 71
     3
 72
    18
 73
    14
 74
     0
 42
0.000000001
 43
0.00000001
 40
0.0
 40
0.0
 40
0.0
 40
0.0
 40
0.25
 40
0.25
 40
0.5
 40
0.5
 40
0.625
 40
0.625
 40
0.75
 40
0.75
 40
0.875
 40
0.875
 40
1.0
 40
1.0
 40
1.0
 40
1.0
 10
155.4603847481567
 20
120.79106178924
 30
0.0
 10
155.4946815676085
 20
120.7902001337582
 30
0.0
 10
155.5324928475856
 20
120.7904517368531
 30
0.0
 10
155.6190652147656
 20
120.792850249465
 30
0.0
 10
155.6674043448485
 20
120.7950212341969
 30
0.0
 10
155.756676702171
 20
120.7991161124921
 30
0.0
 10
155.7892181679469
 20
120.8006207304417
 30
0.0
 10
155.8653943678004
 20
120.8035837884098
 30
0.0
 10
155.9086104277949
 20
120.8050711266656
 30
0.0
 10
156.0142997297609
 20
120.8066965379893
 30
0.0
 10
156.0792707884754
 20
120.8066542969154
 30
0.0
 10
156.2129311768333
 20
120.8026321235944
 30
0.0
 10
156.2722376301695
 20
120.7990908967709
 30
0.0
 10
156.3214921768454
 20
120.7955241893348
 30
0.0
  0
SPLINE
  5
C1
330
1F
100
AcDbEntity
  8
0
  6
Continuous
 62
     7
370
    25
100
AcDbSpline
210
0.0
220
0.0
230
1.0
 70
     8
 71
     3
 72
    14
 73
    10
 74
     0
 42
0.000000001
 43
0.00000001
 40
0.0
 40
0.0
 40
0.0
 40
0.0
 40
0.1250000000000026
 40
0.1250000000000026
 40
0.2500000000000052
 40
0.2500000000000052
 40
0.5000000000000038
 40
0.5000000000000038
 40
1.0
 40
1.0
 40
1.0
 40
1.0
 10
156.3214921768146
 20
120.7955241893538
 30
0.0
 10
156.333018954532
 20
120.7946894919197
 30
0.0
 10
156.3463717621844
 20
120.7929490776396
 30
0.0
 10
156.3765143347846
 20
120.7857014876393
 30
0.0
 10
156.3915748603991
 20
120.7803544534113
 30
0.0
 10
156.4269212143274
 20
120.7646071831829
 30
0.0
 10
156.4406533140563
 20
120.7547689090216
 30
0.0
 10
156.4740245597474
 20
120.7285649230712
 30
0.0
 10
156.4849649276014
 20
120.7144770216706
 30
0.0
 10
156.4936180526147
 20
120.7017033981822
 30
0.0
  0
LINE
  5
C2
330
1F
100
AcDbEntity
  8
0
  6
Continuous
 62
     7
370
    25
100
AcDbLine
 10
156.5164690657
 20
129.116805405
 30
0.0
 11
156.5164690657
 21
120.532429893
 31
0.0
  0
SPLINE
  5
C3
330
1F
100
AcDbEntity
  8
0
  6
Continuous
 62
     7
370
    25
100
AcDbSpline
210
0.0
220
0.0
230
1.0
 70
     8
 71
     3
 72
    16
 73
    12
 74
     0
 42
0.000000001
 43
0.00000001
 40
0.0
 40
0.0
 40
0.0
 40
0.0
 40
0.5000000000000019
 40
0.5000000000000019
 40
0.7500000000000012
 40
0.7500000000000012
 40
0.8750000000000018
 40
0.8750000000000018
 40
0.9375000000000009
 40
0.9375000000000009
 40
1.0
 40
1.0
 40
1.0
 40
1.0
 10
156.5164690657207
 20
129.116805404956
 30
0.0
 10
156.5164690657207
 20
129.2343807859754
 30
0.0
 10
156.5125856405618
 20
129.3530765390767
 30
0.0
 10
156.4877703152871
 20
129.5338340170692
 30
0.0
 10
156.4769308675746
 20
129.5954780938421
 30
0.0
 10
156.4437150855258
 20
129.6848150681834
 30
0.0
 10
156.430333341897
 20
129.7150745996086
 30
0.0
 10
156.3948236920347
 20
129.748590843596
 30
0.0
 10
156.379406725534
 20
129.7567291894021
 30
0.0
 10
156.3477057033854
 20
129.7567137799707
 30
0.0
 10
156.3335594184346
 20
129.7496715426148
 30
0.0
 10
156.3214921768449
 20
129.7405304790052
 30
0.0
  0
SPLINE
  5
C4
330
1F
100
AcDbEntity
  8
0
  6
Continuous
 62
     7
370
    25
100
AcDbSpline
210
0.0
220
0.0
230
1.0
 70
     8
 71
     3
 72
    18
 73
    14
 74
     0
 42
0.000000001
 43
0.00000001
 40
0.0
 40
0.0
 40
0.0
 40
0.0
 40
0.125
 40
0.125
 40
0.25
 40
0.25
 40
0.375
 40
0.375
 40
0.5
 40
0.5
 40
0.75
 40
0.75
 40
1.0
 40
1.0
 40
1.0
 40
1.0
 10
156.3214921768511
 20
129.740530478998
 30
0.0
 10
156.2727875931631
 20
129.7036362398074
 30
0.0
 10
156.2142791103876
 20
129.6741049353815
 30
0.0
 10
156.0825522951178
 20
129.6648689621026
 30
0.0
 10
156.0177942236203
 20
129.6879321366596
 30
0.0
 10
155.9125836214696
 20
129.755450258307
 30
0.0
 10
155.8693674729494
 20
129.7984613549576
 30
0.0
 10
155.7931891568655
 20
129.8887033769537
 30
0.0
 10
155.7603343245743
 20
129.936334258429
 30
0.0
 10
155.6699664186133
 20
130.0833985577785
 30
0.0
 10
155.6205437607738
 20
130.1873118830831
 30
0.0
 10
155.5328926351821
 20
130.3984458467234
 30
0.0
 10
155.4948310877916
 20
130.5061685914822
 30
0.0
 10
155.4603847481577
 20
130.6155017073916
 30
0.0
  0
SPLINE
  5
C5
330
1F
100
AcDbEntity
  8
0
  6
Continuous
 62
     7
370
    25
100
AcDbSpline
210
0.0
220
0.0
230
1.0
 70
     8
 71
     3
 72
     8
 73
     4
 74
     0
 42
0.000000001
 43
0.00000001
 40
0.0
 40
0.0
 40
0.0
 40
0.0
 40
1.0
 40
1.0
 40
1.0
 40
1.0
 10
155.3951487221609
 20
130.8507054815204
 30
0.0
 10
155.4145749237968
 20
130.771113224956
 30
0.0
 10
155.4360717469523
 20
130.6926714794819
 30
0.0
 10
155.4603847481577
 20
130.6155017073916
 30
0.0
  0
SPLINE
  5
C6
330
1F
100
AcDbEntity
  8
0
  6
Continuous
 62
     7
370
    25
100
AcDbSpline
210
0.0
220
0.0
230
1.0
 70
     8
 71
     3
 72
     8
 73
     4
 74
     0
 42
0.000000001
 43
0.00000001
 40
0.0
 40
0.0
 40
0.0
 40
0.0
 40
1.0
 40
1.0
 40
1.0
 40
1.0
 10
155.4603847481577
 20
138.6289986364461
 30
0.0
 10
155.4360717469523
 20
138.5518288643559
 30
0.0
 10
155.4145749237968
 20
138.4733871188818
 30
0.0
 10
155.3951487221609
 20
138.3937948623173
 30
0.0
  0
SPLINE
  5
C7
330
1F
100
AcDbEntity
  8
0
  6
Continuous
 62
     7
370
    25
100
AcDbSpline
210
0.0
220
0.0
230
1.0
 70
     8
 71
     3
 72
    18
 73
    14
 74
     0
 42
0.000000001
 43
0.00000001
 40
0.0
 40
0.0
 40
0.0
 40
0.0
 40
0.2499999999999994
 40
0.2499999999999994
 40
0.4999999999999989
 40
0.4999999999999989
 40
0.6249999999999991
 40
0.6249999999999991
 40
0.7499999999999994
 40
0.7499999999999994
 40
0.8749999999999997
 40
0.8749999999999997
 40
1.0
 40
1.0
 40
1.0
 40
1.0
 10
155.4603847481577
 20
138.6289986364461
 30
0.0
 10
155.4946830671703
 20
138.7378619330392
 30
0.0
 10
155.5324974644823
 20
138.8448693562755
 30
0.0
 10
155.6190855255559
 20
139.0539041804138
 30
0.0
 10
155.6674356312346
 20
139.1560742744034
 30
0.0
 10
155.7567522200343
 20
139.3027550459681
 30
0.0
 10
155.7893125755226
 20
139.3505567445037
 30
0.0
 10
155.8655582092516
 20
139.442112282529
 30
0.0
 10
155.9087175790316
 20
139.485791674521
 30
0.0
 10
156.0144464030496
 20
139.5551458918476
 30
0.0
 10
156.0794435801043
 20
139.5792622055135
 30
0.0
 10
156.2129280700586
 20
139.5710579834753
 30
0.0
 10
156.2722554635041
 20
139.5412671978833
 30
0.0
 10
156.3214921768454
 20
139.5039698648323
 30
0.0
  0
SPLINE
  5
C8
330
1F
100
AcDbEntity
  8
0
  6
Continuous
 62
     7
370
    25
100
AcDbSpline
210
0.0
220
0.0
230
1.0
 70
     8
 71
     3
 72
    16
 73
    12
 74
     0
 42
0.000000001
 43
0.00000001
 40
0.0
 40
0.0
 40
0.0
 40
0.0
 40
0.0624999999999996
 40
0.0624999999999996
 40
0.1249999999999992
 40
0.1249999999999992
 40
0.2500000000000007
 40
0.2500000000000007
 40
0.5000000000000004
 40
0.5000000000000004
 40
1.0
 40
1.0
 40
1.0
 40
1.0
 10
156.3214921768146
 20
139.5039698647839
 30
0.0
 10
156.3335620100904
 20
139.4948268379381
 30
0.0
 10
156.3478376650238
 20
139.4877823902468
 30
0.0
 10
156.3793020771482
 20
139.4877753183482
 30
0.0
 10
156.3948026019586
 20
139.4959032871452
 30
0.0
 10
156.4302414985655
 20
139.5293117481524
 30
0.0
 10
156.4438341146689
 20
139.5599789146145
 30
0.0
 10
156.4768284330617
 20
139.6487999086964
 30
0.0
 10
156.4876158263804
 20
139.7097025542442
 30
0.0
 10
156.5126690736596
 20
139.8917106316225
 30
0.0
 10
156.5164690657208
 20
140.0103993466612
 30
0.0
 10
156.5164690657208
 20
140.1276949388817
 30
0.0
  0
LINE
  5
C9
330
1F
100
AcDbEntity
  8
0
  6
Continuous
 62
     7
370
    25
100
AcDbLine
 10
156.5164690657
 20
148.7120704508
 30
0.0
 11
156.5164690657
 21
140.1276949389
 31
0.0
  0
SPLINE
  5
CA
330
1F
100
AcDbEntity
  8
0
  6
Continuous
 62
     7
370
    25
100
AcDbSpline
210
0.0
220
0.0
230
1.0
 70
     8
 71
     3
 72
    12
 73
     8
 74
     0
 42
0.000000001
 43
0.00000001
 40
0.0
 40
0.0
 40
0.0
 40
0.0
 40
0.4999999999999989
 40
0.4999999999999989
 40
0.7499999999999994
 40
0.7499999999999994
 40
1.0
 40
1.0
 40
1.0
 40
1.0
 10
156.476129735853
 20
148.5208576747896
 30
0.0
 10
156.4660068837719
 20
148.509923930152
 30
0.0
 10
156.4536440994259
 20
148.4978586433294
 30
0.0
 10
156.4188094962525
 20
148.4765093029852
 30
0.0
 10
156.4034522750095
 20
148.4682896267562
 30
0.0
 10
156.3607832328697
 20
148.4539503271266
 30
0.0
 10
156.33835901851
 20
148.4501975461033
 30
0.0
 10
156.321492176845
 20
148.448976154503
 30
0.0
  0
SPLINE
  5
CB
330
1F
100
AcDbEntity
  8
0
  6
Continuous
 62
     7
370
    25
100
AcDbSpline
210
0.0
220
0.0
230
1.0
 70
     8
 71
     3
 72
    18
 73
    14
 74
     0
 42
0.000000001
 43
0.00000001
 40
0.0
 40
0.0
 40
0.0
 40
0.0
 40
0.125
 40
0.125
 40
0.2500000000000001
 40
0.2500000000000001
 40
0.3750000000000001
 40
0.3750000000000001
 40
0.5000000000000001
 40
0.5000000000000001
 40
0.75
 40
0.75
 40
1.0
 40
1.0
 40
1.0
 40
1.0
 10
156.3214921768511
 20
148.4489761545028
 30
0.0
 10
156.2727880478344
 20
148.4454493048846
 30
0.0
 10
156.2142803786298
 20
148.441949031687
 30
0.0
 10
156.082554715999
 20
148.4379060477991
 30
0.0
 10
156.0177970773786
 20
148.4377944731684
 30
0.0
 10
155.9125866607595
 20
148.4393266579299
 30
0.0
 10
155.8693706258194
 20
148.440781810145
 30
0.0
 10
155.7931924043384
 20
148.4437070716747
 30
0.0
 10
155.7603376366542
 20
148.445217402183
 30
0.0
 10
155.6699699178124
 20
148.4493593948713
 30
0.0
 10
155.620547548623
 20
148.4515974798578
 30
0.0
 10
155.532895086535
 20
148.4540487629043
 30
0.0
 10
155.4948323503006
 20
148.4543039982654
 30
0.0
 10
155.4603847481572
 20
148.4534385545975
 30
0.0
  0
SPLINE
  5
CC
330
1F
100
AcDbEntity
  8
0
  6
Continuous
 62
     7
370
    25
100
AcDbSpline
210
0.0
220
0.0
230
1.0
 70
     8
 71
     3
 72
    16
 73
    12
 74
     0
 42
0.000000001
 43
0.00000001
 40
0.0
 40
0.0
 40
0.0
 40
0.0
 40
0.2499999999999998
 40
0.2499999999999998
 40
0.3749999999999998
 40
0.3749999999999998
 40
0.4999999999999999
 40
0.4999999999999999
 40
0.7499999999999999
 40
0.7499999999999999
 40
1.0
 40
1.0
 40
1.0
 40
1.0
 10
155.0164690657207
 20
137.5684485679882
 30
0.0
 10
154.9359317338212
 20
137.0993726978901
 30
0.0
 10
154.8758943897938
 20
136.6190077647737
 30
0.0
 10
154.8151566826401
 20
135.8818245556518
 30
0.0
 10
154.7998343075272
 20
135.6333070104881
 30
0.0
 10
154.779251498223
 20
135.1305263843752
 30
0.0
 10
154.7740519011974
 20
134.875667045722
 30
0.0
 10
154.7739982480176
 20
134.1193865387756
 30
0.0
 10
154.7941957914955
 20
133.6207283164783
 30
0.0
 10
154.8748738798542
 20
132.6343091544258
 30
0.0
 10
154.9359200444621
 20
132.145195728614
 30
0.0
 10
155.0164690657207
 20
131.6760517758496
 30
0.0
  0
LINE
  5
CD
330
1F
100
AcDbEntity
  8
0
  6
Continuous
 62
     7
370
    25
100
AcDbLine
 10
155.0164690657
 20
131.6760517758
 30
0.0
 11
155.0164690657
 21
130.5210465064
 31
0.0
  0
LINE
  5
CE
330
1F
100
AcDbEntity
  8
0
  6
Continuous
 62
     7
370
    25
100
AcDbLine
 10
134.2164690657
 20
138.462169638
 30
0.0
 11
134.2164690657
 21
130.7823307058
 31
0.0
  0
LINE
  5
CF
330
1F
100
AcDbEntity
  8
0
  6
Continuous
 62
     7
370
    25
100
AcDbLine
 10
155.0164690657
 20
138.7234538374
 30
0.0
 11
155.0164690657
 21
137.568448568
 31
0.0
  0
SPLINE
  5
D0
330
1F
100
AcDbEntity
  8
0
  6
Continuous
 62
     7
370
    25
100
AcDbSpline
210
0.0
220
0.0
230
1.0
 70
     8
 71
     3
 72
     8
 73
     4
 74
     0
 42
0.000000001
 43
0.00000001
 40
0.0
 40
0.0
 40
0.0
 40
0.0
 40
1.0
 40
1.0
 40
1.0
 40
1.0
 10
155.2214290877814
 20
131.6757593675551
 30
0.0
 10
155.2721562309873
 20
131.3924079083874
 30
0.0
 10
155.3300435605472
 20
131.1174517463841
 30
0.0
 10
155.3951487221611
 20
130.8507054815205
 30
0.0
  0
SPLINE
  5
D1
330
1F
100
AcDbEntity
  8
0
  6
Continuous
 62
     7
370
    25
100
AcDbSpline
210
0.0
220
0.0
230
1.0
 70
     8
 71
     3
 72
    24
 73
    20
 74
     0
 42
0.000000001
 43
0.00000001
 40
0.0
 40
0.0
 40
0.0
 40
0.0
 40
0.2500000000000072
 40
0.2500000000000072
 40
0.375000000000011
 40
0.375000000000011
 40
0.4375000000000129
 40
0.4375000000000129
 40
0.4687500000000129
 40
0.4687500000000129
 40
0.5000000000000129
 40
0.5000000000000129
 40
0.5625000000000127
 40
0.5625000000000127
 40
0.6250000000000124
 40
0.6250000000000124
 40
0.7500000000000092
 40
0.7500000000000092
 40
1.0
 40
1.0
 40
1.0
 40
1.0
 10
155.0164690657126
 20
131.6760517758484
 30
0.0
 10
155.0168718375524
 20
131.7692604704029
 30
0.0
 10
155.0188997777078
 20
131.8629540811391
 30
0.0
 10
155.0281936214314
 20
132.0044560738621
 30
0.0
 10
155.0321148235784
 20
132.0516064462057
 30
0.0
 10
155.0430132938112
 20
132.1221543516728
 30
0.0
 10
155.0471328161029
 20
132.145925227126
 30
0.0
 10
155.0589476508883
 20
132.1793679944612
 30
0.0
 10
155.0641638287957
 20
132.1915246743602
 30
0.0
 10
155.0806755130254
 20
132.1997903060964
 30
0.0
 10
155.0886947029138
 20
132.192323979952
 30
0.0
 10
155.1057338636663
 20
132.1686477368022
 30
0.0
 10
155.1131654836311
 20
132.1483924974282
 30
0.0
 10
155.1272735231067
 20
132.1079827196138
 30
0.0
 10
155.1334458928953
 20
132.0870816194666
 30
0.0
 10
155.150782733608
 20
132.0239069927201
 30
0.0
 10
155.1607944011538
 20
131.9809051463218
 30
0.0
 10
155.1891672844517
 20
131.851124139403
 30
0.0
 10
155.2057244291082
 20
131.7634823826819
 30
0.0
 10
155.2214290877814
 20
131.6757593675551
 30
0.0
  0
SPLINE
  5
D2
330
1F
100
AcDbEntity
  8
0
  6
Continuous
 62
     7
370
    25
100
AcDbSpline
210
0.0
220
0.0
230
1.0
 70
     8
 71
     3
 72
    24
 73
    20
 74
     0
 42
0.000000001
 43
0.00000001
 40
0.0
 40
0.0
 40
0.0
 40
0.0
 40
0.2499999999999991
 40
0.2499999999999991
 40
0.3749999999999999
 40
0.3749999999999999
 40
0.4374999999999995
 40
0.4374999999999995
 40
0.4999999999999991
 40
0.4999999999999991
 40
0.5312499999999999
 40
0.5312499999999999
 40
0.5625000000000007
 40
0.5625000000000007
 40
0.6250000000000012
 40
0.6250000000000012
 40
0.7500000000000011
 40
0.7500000000000011
 40
1.0
 40
1.0
 40
1.0
 40
1.0
 10
155.2214290877783
 20
137.5687409762647
 30
0.0
 10
155.2056601556384
 20
137.4806589426842
 30
0.0
 10
155.1890461151813
 20
137.3927147968878
 30
0.0
 10
155.1605143218958
 20
137.2623686287207
 30
0.0
 10
155.1504268596649
 20
137.2191079996076
 30
0.0
 10
155.1329391845526
 20
137.1556722266163
 30
0.0
 10
155.1267295771626
 20
137.1347585371943
 30
0.0
 10
155.1124518785676
 20
137.0942834148993
 30
0.0
 10
155.1048802956373
 20
137.0738053453484
 30
0.0
 10
155.0874622023272
 20
137.0509587793745
 30
0.0
 10
155.0789791523341
 20
137.0444044999636
 30
0.0
 10
155.0629413816703
 20
137.0549721346921
 30
0.0
 10
155.0581211372965
 20
137.0670617930387
 30
0.0
 10
155.0467123115077
 20
137.1007079739344
 30
0.0
 10
155.0426918521282
 20
137.1241146656536
 30
0.0
 10
155.0319381561142
 20
137.1946986514717
 30
0.0
 10
155.0280655137901
 20
137.2416694513193
 30
0.0
 10
155.0188974769408
 20
137.3822458189059
 30
0.0
 10
155.0168690640932
 20
137.4758817040973
 30
0.0
 10
155.0164690657207
 20
137.5684485679882
 30
0.0
  0
SPLINE
  5
D3
330
1F
100
AcDbEntity
  8
0
  6
Continuous
 62
     7
370
    25
100
AcDbSpline
210
0.0
220
0.0
230
1.0
 70
     8
 71
     3
 72
     8
 73
     4
 74
     0
 42
0.000000001
 43
0.00000001
 40
0.0
 40
0.0
 40
0.0
 40
0.0
 40
1.0
 40
1.0
 40
1.0
 40
1.0
 10
155.3951487221611
 20
138.3937948623173
 30
0.0
 10
155.3300435605458
 20
138.127048597448
 30
0.0
 10
155.2721562309849
 20
137.8520924354387
 30
0.0
 10
155.2214290877782
 20
137.5687409762647
 30
0.0
  0
LINE
  5
D4
330
1F
100
AcDbEntity
  8
0
  6
Continuous
 62
     7
370
    25
100
AcDbLine
 10
132.7164690657
 20
138.0291569361
 30
0.0
 11
132.7164690657
 21
131.2153434077
 31
0.0
  0
LINE
  5
D5
330
1F
100
AcDbEntity
  8
0
  6
Continuous
 62
     7
370
    25
100
AcDbLine
 10
155.2214290878
 20
148.4474351567
 30
0.0
 11
155.4603847482
 21
148.4534385546
 31
0.0
  0
LINE
  5
D6
330
1F
100
AcDbEntity
  8
0
  6
Continuous
 62
     7
370
    25
100
AcDbLine
 10
155.0164690657
 20
120.6021513874
 30
0.0
 11
155.0164690657
 21
130.5210465064
 31
0.0
  0
ARC
  5
D7
330
1F
100
AcDbEntity
  8
0
  6
Continuous
 62
     7
370
    25
100
AcDbCircle
 10
155.2164059767
 20
120.5971282762
 30
0.0
 40
0.2000000000000059
100
AcDbArc
 50
88.5608333333
 51
178.5608333333
  0
LINE
  5
D8
330
1F
100
AcDbEntity
  8
0
  6
Continuous
 62
     7
370
    25
100
AcDbLine
 10
134.2164690657
 20
121.1247197861
 30
0.0
 11
134.2164690657
 21
130.7823307058
 31
0.0
  0
LINE
  5
D9
330
1F
100
AcDbEntity
  8
0
  6
Continuous
 62
     7
370
    25
100
AcDbLine
 10
134.2164690657
 20
121.1247197861
 30
0.0
 11
155.0164690657
 21
120.6021513874
 31
0.0
  0
LINE
  5
DA
330
1F
100
AcDbEntity
  8
0
  6
Continuous
 62
     7
370
    25
100
AcDbLine
 10
155.0164690657
 20
138.7234538374
 30
0.0
 11
155.0164690657
 21
148.6423489565
 31
0.0
  0
ARC
  5
DB
330
1F
100
AcDbEntity
  8
0
  6
Continuous
 62
     7
370
    25
100
AcDbCircle
 10
155.2164059767
 20
148.6473720676
 30
0.0
 40
0.2000000000000059
100
AcDbArc
 50
181.4391666667
 51
271.4391666667
  0
LINE
  5
DC
330
1F
100
AcDbEntity
  8
0
  6
Continuous
 62
     7
370
    25
100
AcDbLine
 10
134.2164690657
 20
138.462169638
 30
0.0
 11
134.2164690657
 21
148.1197805578
 31
0.0
  0
LINE
  5
DD
330
1F
100
AcDbEntity
  8
0
  6
Continuous
 62
     7
370
    25
100
AcDbLine
 10
134.2164690657
 20
148.1197805578
 30
0.0
 11
155.0164690657
 21
148.6423489565
 31
0.0
  0
LINE
  5
DE
330
1F
100
AcDbEntity
  8
0
  6
Continuous
 62
     7
370
    25
100
AcDbLine
 10
155.2214290878
 20
120.7970651872
 30
0.0
 11
155.4603847482
 21
120.7910617892
 31
0.0
  0
LINE
  5
DF
330
1F
100
AcDbEntity
  8
0
  6
Continuous
 62
     7
370
    25
100
AcDbLine
 10
132.7164690657
 20
121.9907451899
 30
0.0
 11
134.2164690657
 21
121.1247197861
 31
0.0
  0
LINE
  5
E0
330
1F
100
AcDbEntity
  8
0
  6
Continuous
 62
     7
370
    25
100
AcDbLine
 10
132.7164690657
 20
121.9907451899
 30
0.0
 11
132.7164690657
 21
131.2153434077
 31
0.0
  0
LINE
  5
E1
330
1F
100
AcDbEntity
  8
0
  6
Continuous
 62
     7
370
    25
100
AcDbLine
 10
132.7164690657
 20
147.253755154
 30
0.0
 11
134.2164690657
 21
148.1197805578
 31
0.0
  0
LINE
  5
E2
330
1F
100
AcDbEntity
  8
0
  6
Continuous
 62
     7
370
    25
100
AcDbLine
 10
132.7164690657
 20
138.0291569361
 30
0.0
 11
132.7164690657
 21
147.253755154
 31
0.0
  0
LINE
  5
E3
330
1F
100
AcDbEntity
  8
0
  6
Continuous
 62
     7
370
    18
100
AcDbLine
 10
179.3145452771
 20
112.1222501719
 30
0.0
 11
179.3145452771
 21
157.1222501719
 31
0.0
  0
LINE
  5
E4
330
1F
100
AcDbEntity
  8
0
  6
Continuous
 62
     7
370
    18
100
AcDbLine
 10
178.4485198733
 20
112.6222501719
 30
0.0
 11
178.4485198733
 21
156.6222501719
 31
0.0
  0
LINE
  5
E5
330
1F
100
AcDbEntity
  8
0
  6
Continuous
 62
     7
370
    18
100
AcDbLine
 10
177.5824944695
 20
114.1222501719
 30
0.0
 11
177.5824944695
 21
155.1222501719
 31
0.0
  0
LINE
  5
E6
330
1F
100
AcDbEntity
  8
0
  6
Continuous
 62
     7
370
    18
100
AcDbLine
 10
176.7164690657
 20
114.6222501719
 30
0.0
 11
176.7164690657
 21
154.6222501719
 31
0.0
  0
LINE
  5
E7
330
1F
100
AcDbEntity
  8
0
  6
Continuous
 62
     7
370
    18
100
AcDbLine
 10
157.0164690657
 20
114.6222501719
 30
0.0
 11
157.0164690657
 21
154.6222501719
 31
0.0
  0
LINE
  5
E8
330
1F
100
AcDbEntity
  8
0
  6
Continuous
 62
     7
370
    18
100
AcDbLine
 10
166.0443746849
 20
153.6570064551
 30
0.0
 11
166.0443746849
 21
140.760495299
 31
0.0
  0
LINE
  5
E9
330
1F
100
AcDbEntity
  8
0
  6
Continuous
 62
     7
370
    18
100
AcDbLine
 10
165.7845670637
 20
153.7539065522
 30
0.0
 11
165.7845670637
 21
140.4514631676
 31
0.0
  0
LINE
  5
EA
330
1F
100
AcDbEntity
  8
0
  6
Continuous
 62
     7
370
    18
100
AcDbLine
 10
163.3885634466
 20
128.4840050449
 30
0.0
 11
163.3885634466
 21
115.5874938887
 31
0.0
  0
LINE
  5
EB
330
1F
100
AcDbEntity
  8
0
  6
Continuous
 62
     7
370
    18
100
AcDbLine
 10
163.6483710677
 20
128.7930371763
 30
0.0
 11
163.6483710677
 21
115.4905937917
 31
0.0
  0
LINE
  5
EC
330
1F
100
AcDbEntity
  8
0
  6
Continuous
 62
     7
370
    18
100
AcDbLine
 10
165.7845670637
 20
128.7930371763
 30
0.0
 11
165.7845670637
 21
115.4905937917
 31
0.0
  0
LINE
  5
ED
330
1F
100
AcDbEntity
  8
0
  6
Continuous
 62
     7
370
    18
100
AcDbLine
 10
166.0443746849
 20
128.4840050449
 30
0.0
 11
166.0443746849
 21
115.5874938887
 31
0.0
  0
LINE
  5
EE
330
1F
100
AcDbEntity
  8
0
  6
Continuous
 62
     7
370
    18
100
AcDbLine
 10
163.6483710677
 20
153.7539065522
 30
0.0
 11
163.6483710677
 21
140.4514631676
 31
0.0
  0
LINE
  5
EF
330
1F
100
AcDbEntity
  8
0
  6
Continuous
 62
     7
370
    18
100
AcDbLine
 10
163.3885634466
 20
153.6570064551
 30
0.0
 11
163.3885634466
 21
140.760495299
 31
0.0
  0
LINE
  5
F0
330
1F
100
AcDbEntity
  8
0
  6
Continuous
 62
     7
370
    18
100
AcDbLine
 10
155.3951487222
 20
130.8507054815
 30
0.0
 11
155.3951487222
 21
138.3937948623
 31
0.0
  0
LINE
  5
F1
330
1F
100
AcDbEntity
  8
0
  6
Continuous
 62
     7
370
    18
100
AcDbLine
 10
134.2164690657
 20
130.7823307058
 30
0.0
 11
155.0164690657
 21
130.5210465064
 31
0.0
  0
LINE
  5
F2
330
1F
100
AcDbEntity
  8
0
  6
Continuous
 62
     7
370
    18
100
AcDbLine
 10
134.2164690657
 20
138.462169638
 30
0.0
 11
155.0164690657
 21
138.7234538374
 31
0.0
  0
LWPOLYLINE
  5
F3
330
1F
100
AcDbEntity
  8
0
  6
Continuous
 62
     7
370
    18
100
AcDbPolyline
 90
        9
 70
   128
 43
0.0
 10
155.0164690657
 20
138.7234538374
 10
155.0212907578
 20
138.7039992181
 10
155.0336106183
 20
138.6853887465
 10
155.0529552019
 20
138.6683376127
 10
155.0785811071
 20
138.6535010822
 10
155.1095035447
 20
138.6414493145
 10
155.1445341829
 20
138.6326454523
 10
155.1823268138
 20
138.6274278231
 10
155.2214290878
 20
138.6259969375
  0
LINE
  5
F4
330
1F
100
AcDbEntity
  8
0
  6
Continuous
 62
     7
370
    18
100
AcDbLine
 10
155.2214290878
 20
138.6259969375
 30
0.0
 11
155.2214290878
 21
137.5687409763
 31
0.0
  0
LINE
  5
F5
330
1F
100
AcDbEntity
  8
0
  6
Continuous
 62
     7
370
    18
100
AcDbLine
 10
155.2214290878
 20
131.6757593676
 30
0.0
 11
155.2214290878
 21
130.6185034064
 31
0.0
  0
LWPOLYLINE
  5
F6
330
1F
100
AcDbEntity
  8
0
  6
Continuous
 62
     7
370
    18
100
AcDbPolyline
 90
        9
 70
   128
 43
0.0
 10
155.0164690657
 20
130.5210465064
 10
155.0212907578
 20
130.5405011258
 10
155.0336106183
 20
130.5591115973
 10
155.0529552019
 20
130.5761627311
 10
155.0785811071
 20
130.5909992616
 10
155.1095035447
 20
130.6030510293
 10
155.1445341829
 20
130.6118548915
 10
155.1823268138
 20
130.6170725207
 10
155.2214290878
 20
130.6185034064
  0
LINE
  5
F7
330
1F
100
AcDbEntity
  8
0
  6
Continuous
 62
     7
370
    18
100
AcDbLine
 10
132.7164690657
 20
131.2153434077
 30
0.0
 11
134.2164690657
 21
130.7823307058
 31
0.0
  0
LINE
  5
F8
330
1F
100
AcDbEntity
  8
0
  6
Continuous
 62
     7
370
    18
100
AcDbLine
 10
132.7164690657
 20
138.0291569361
 30
0.0
 11
134.2164690657
 21
138.462169638
 31
0.0
  0
LINE
  5
F9
330
1F
100
AcDbEntity
  8
0
  6
Continuous
 62
     7
370
    18
100
AcDbLine
 10
155.2214290878
 20
138.6259969375
 30
0.0
 11
155.4603847482
 21
138.6289986364
 31
0.0
  0
LINE
  5
FA
330
1F
100
AcDbEntity
  8
0
  6
Continuous
 62
     7
370
    18
100
AcDbLine
 10
155.2214290878
 20
130.6185034064
 30
0.0
 11
155.4603847482
 21
130.6155017074
 31
0.0
  0
LINE
  5
FB
330
1F
100
AcDbEntity
  8
0
  6
Continuous
 62
     7
370
    18
100
AcDbLine
 10
155.2214290878
 20
138.6259969375
 30
0.0
 11
155.2214290878
 21
148.4474351567
 31
0.0
  0
LINE
  5
FC
330
1F
100
AcDbEntity
  8
0
  6
Continuous
 62
     7
370
    18
100
AcDbLine
 10
156.3214921768
 20
139.5039698648
 30
0.0
 11
156.3214921768
 21
148.4489761545
 31
0.0
  0
LINE
  5
FD
330
1F
100
AcDbEntity
  8
0
  6
Continuous
 62
     7
370
    18
100
AcDbLine
 10
155.2214290878
 20
120.7970651872
 30
0.0
 11
155.2214290878
 21
130.6185034064
 31
0.0
  0
LINE
  5
FE
330
1F
100
AcDbEntity
  8
0
  6
Continuous
 62
     7
370
    18
100
AcDbLine
 10
156.3214921768
 20
120.7955241893
 30
0.0
 11
156.3214921768
 21
129.740530479
 31
0.0
  0
LINE
  5
FF
330
1F
100
AcDbEntity
  8
0
  6
HIDDEN
 62
     7
370
    18
100
AcDbLine
 10
233.7164690657
 20
155.6222501719
 30
0.0
 11
233.7164690657
 21
113.6222501719
 31
0.0
  0
LINE
  5
100
330
1F
100
AcDbEntity
  8
0
  6
HIDDEN
 62
     7
370
    18
100
AcDbLine
 10
232.2164690657
 20
157.1222501719
 30
0.0
 11
232.2164690657
 21
112.1222501719
 31
0.0
  0
CIRCLE
  5
101
330
1F
100
AcDbEntity
  8
0
  6
HIDDEN
 62
     7
370
    18
100
AcDbCircle
 10
193.7164690657
 20
134.6222501719
 30
0.0
 40
5.0
  0
CIRCLE
  5
102
330
1F
100
AcDbEntity
  8
0
  6
HIDDEN
 62
     7
370
    18
100
AcDbCircle
 10
216.7164690657
 20
134.6222501719
 30
0.0
 40
5.0
  0
SPLINE
  5
103
330
1F
100
AcDbEntity
  8
0
  6
HIDDEN
 62
     7
370
    18
100
AcDbSpline
210
0.0
220
0.0
230
1.0
 70
    11
 71
     3
 72
    58
 73
    54
 74
     0
 42
0.000000001
 43
0.00000001
 40
0.0
 40
0.0
 40
0.0
 40
0.0
 40
0.0312500000000002
 40
0.0312500000000002
 40
0.0625000000000004
 40
0.0625000000000004
 40
0.0937500000000006
 40
0.0937500000000006
 40
0.1250000000000008
 40
0.1250000000000008
 40
0.1875000000000009
 40
0.1875000000000009
 40
0.2500000000000011
 40
0.2500000000000011
 40
0.2812500000000011
 40
0.2812500000000011
 40
0.3125000000000012
 40
0.3125000000000012
 40
0.3437500000000013
 40
0.3437500000000013
 40
0.3750000000000014
 40
0.3750000000000014
 40
0.4062500000000014
 40
0.4062500000000014
 40
0.4375000000000016
 40
0.4375000000000016
 40
0.4687500000000016
 40
0.4687500000000016
 40
0.5000000000000016
 40
0.5000000000000016
 40
0.5625000000000017
 40
0.5625000000000017
 40
0.6250000000000018
 40
0.6250000000000018
 40
0.6562500000000017
 40
0.6562500000000017
 40
0.6875000000000014
 40
0.6875000000000014
 40
0.7187500000000013
 40
0.7187500000000013
 40
0.7500000000000012
 40
0.7500000000000012
 40
0.7812500000000011
 40
0.7812500000000011
 40
0.8125000000000009
 40
0.8125000000000009
 40
0.8437500000000008
 40
0.8437500000000008
 40
0.8750000000000007
 40
0.8750000000000007
 40
0.9375000000000003
 40
0.9375000000000003
 40
1.0
 40
1.0
 40
1.0
 40
1.0
 10
166.7164690657207
 20
134.6222501719189
 30
0.0
 10
166.7164690657207
 20
134.7544682291429
 30
0.0
 10
166.7294511033929
 20
134.8844603899834
 30
0.0
 10
166.7803019056512
 20
135.1401800024357
 30
0.0
 10
166.8187938097041
 20
135.2672386862968
 30
0.0
 10
166.9192090954306
 20
135.5094018839557
 30
0.0
 10
166.9806452347036
 20
135.6242436683404
 30
0.0
 10
167.1257787110144
 20
135.8415858659106
 30
0.0
 10
167.2102003998656
 20
135.9444275137583
 30
0.0
 10
167.4868005740304
 20
136.2209709945099
 30
0.0
 10
167.7097994852975
 20
136.369953630642
 30
0.0
 10
168.1910340028832
 20
136.5694966941967
 30
0.0
 10
168.4543334183922
 20
136.6221071672281
 30
0.0
 10
168.8458968584324
 20
136.6223212259806
 30
0.0
 10
168.9784844690371
 20
136.6093223765751
 30
0.0
 10
169.2350501746364
 20
136.5582722925487
 30
0.0
 10
169.3597599408169
 20
136.5205010537365
 30
0.0
 10
169.6019991258439
 20
136.420309145624
 30
0.0
 10
169.7190157796176
 20
136.3577237517995
 30
0.0
 10
169.9356589844639
 20
136.2130186660889
 30
0.0
 10
170.0366657409224
 20
136.1303993247087
 30
0.0
 10
170.223471836579
 20
135.9437552899187
 30
0.0
 10
170.3061853721108
 20
135.8428094419588
 30
0.0
 10
170.4510555014861
 20
135.6263282382771
 30
0.0
 10
170.5137257975829
 20
135.5094110732687
 30
0.0
 10
170.6141537356191
 20
135.2672146040702
 30
0.0
 10
170.6520249145488
 20
135.1425536131667
 30
0.0
 10
170.7032873123245
 20
134.8861542640987
 30
0.0
 10
170.7164209529652
 20
134.7535433388009
 30
0.0
 10
170.716564886104
 20
134.3618687264658
 30
0.0
 10
170.6641996288392
 20
134.0985847068052
 30
0.0
 10
170.4650389654886
 20
133.6170719929454
 30
0.0
 10
170.3162412921266
 20
133.3939509059005
 30
0.0
 10
170.0399406335405
 20
133.1171187573929
 30
0.0
 10
169.9371755864807
 20
133.0326115431086
 30
0.0
 10
169.7199583126863
 20
132.8872906014227
 30
0.0
 10
169.6051886192485
 20
132.8257683781606
 30
0.0
 10
169.3632020821039
 20
132.7251719748886
 30
0.0
 10
169.2361195092125
 20
132.6865440868
 30
0.0
 10
168.9804448092093
 20
132.6354659767339
 30
0.0
 10
168.850504291865
 20
132.6223768369667
 30
0.0
 10
168.5862409241037
 20
132.6221253186081
 30
0.0
 10
168.4560300304568
 20
132.6349997886645
 30
0.0
 10
168.2002800850232
 20
132.6856186857965
 30
0.0
 10
168.0732627006558
 20
132.7239665045923
 30
0.0
 10
167.8309109729041
 20
132.8242006247857
 30
0.0
 10
167.7160081936178
 20
132.8855448117757
 30
0.0
 10
167.4985860284688
 20
133.0304498163048
 30
0.0
 10
167.3956496310241
 20
133.1147887084268
 30
0.0
 10
167.1188124738672
 20
133.3911898214686
 30
0.0
 10
166.9696572328031
 20
133.6140334545111
 30
0.0
 10
166.7696866475678
 20
134.0950967357616
 30
0.0
 10
166.7164690657207
 20
134.3578140574709
 30
0.0
 10
166.7164690657207
 20
134.6222501719189
 30
0.0
  0
SPLINE
  5
104
330
1F
100
AcDbEntity
  8
0
  6
HIDDEN
 62
     7
370
    18
100
AcDbSpline
210
0.0
220
0.0
230
1.0
 70
     8
 71
     3
 72
    12
 73
     8
 74
     0
 42
0.000000001
 43
0.00000001
 40
0.0
 40
0.0
 40
0.0
 40
0.0
 40
0.2500000000000014
 40
0.2500000000000014
 40
0.5000000000000029
 40
0.5000000000000029
 40
1.0
 40
1.0
 40
1.0
 40
1.0
 10
163.6483710677199
 20
153.7539065521522
 30
0.0
 10
163.6108591816752
 20
153.7539065521523
 30
0.0
 10
163.5755718339705
 20
153.7494030078897
 30
0.0
 10
163.5166419857321
 20
153.7360298084364
 30
0.0
 10
163.493116259263
 20
153.7275449058653
 30
0.0
 10
163.4328574714949
 20
153.6997971020307
 30
0.0
 10
163.4072627092056
 20
153.6788072382903
 30
0.0
 10
163.3885634465846
 20
153.6570064551008
 30
0.0
  0
LINE
  5
105
330
1F
100
AcDbEntity
  8
0
  6
HIDDEN
 62
     7
370
    18
100
AcDbLine
 10
165.7845670637
 20
153.7539065522
 30
0.0
 11
163.6483710677
 21
153.7539065522
 31
0.0
  0
SPLINE
  5
106
330
1F
100
AcDbEntity
  8
0
  6
HIDDEN
 62
     7
370
    18
100
AcDbSpline
210
0.0
220
0.0
230
1.0
 70
     8
 71
     3
 72
    12
 73
     8
 74
     0
 42
0.000000001
 43
0.00000001
 40
0.0
 40
0.0
 40
0.0
 40
0.0
 40
0.4999999999999994
 40
0.4999999999999994
 40
0.7499999999999997
 40
0.7499999999999997
 40
1.0
 40
1.0
 40
1.0
 40
1.0
 10
166.0443746848568
 20
153.6570064551008
 30
0.0
 10
166.0256814517264
 20
153.6788002087288
 30
0.0
 10
166.0000261543146
 20
153.6998203704384
 30
0.0
 10
165.9398655316282
 20
153.7275257164021
 30
0.0
 10
165.9157932198738
 20
153.7361609325955
 30
0.0
 10
165.8574116995233
 20
153.7493755778221
 30
0.0
 10
165.8219428718702
 20
153.7539065521522
 30
0.0
 10
165.7845670637215
 20
153.7539065521522
 30
0.0
  0
ELLIPSE
  5
107
330
1F
100
AcDbEntity
  8
0
  6
HIDDEN
 62
     7
370
    18
100
AcDbEllipse
 10
155.7675398933
 20
134.6222501719
 30
0.0
 11
9.367417879781756
 21
19.74174915274992
 31
0.0
210
0.0
220
0.0
230
1.0
 40
0.3419987131
 41
5.185211263708401
 42
6.132113578252561
  0
SPLINE
  5
108
330
1F
100
AcDbEntity
  8
0
  6
HIDDEN
 62
     7
370
    18
100
AcDbSpline
210
0.0
220
0.0
230
1.0
 70
     8
 71
     3
 72
    12
 73
     8
 74
     0
 42
0.000000001
 43
0.00000001
 40
0.0
 40
0.0
 40
0.0
 40
0.0
 40
0.2499999999999997
 40
0.2499999999999997
 40
0.4999999999999994
 40
0.4999999999999994
 40
1.0
 40
1.0
 40
1.0
 40
1.0
 10
165.7845670637215
 20
140.4514631675706
 30
0.0
 10
165.8220789497662
 20
140.4514631675706
 30
0.0
 10
165.8573662974709
 20
140.4662679818573
 30
0.0
 10
165.9162961457093
 20
140.5098598549831
 30
0.0
 10
165.9398218721784
 20
140.5373732810692
 30
0.0
 10
166.0000806599465
 20
140.6265050131827
 30
0.0
 10
166.0256754222358
 20
140.6928908638006
 30
0.0
 10
166.0443746848568
 20
140.760495298978
 30
0.0
  0
LINE
  5
109
330
1F
100
AcDbEntity
  8
0
  6
HIDDEN
 62
     7
370
    18
100
AcDbLine
 10
163.6483710677
 20
140.4514631676
 30
0.0
 11
165.7845670637
 21
140.4514631676
 31
0.0
  0
SPLINE
  5
10A
330
1F
100
AcDbEntity
  8
0
  6
HIDDEN
 62
     7
370
    18
100
AcDbSpline
210
0.0
220
0.0
230
1.0
 70
     8
 71
     3
 72
    12
 73
     8
 74
     0
 42
0.000000001
 43
0.00000001
 40
0.0
 40
0.0
 40
0.0
 40
0.0
 40
0.5000000000000029
 40
0.5000000000000029
 40
0.7500000000000014
 40
0.7500000000000014
 40
1.0
 40
1.0
 40
1.0
 40
1.0
 10
163.3885634465846
 20
140.7604952989779
 30
0.0
 10
163.4072566797149
 20
140.6929126625376
 30
0.0
 10
163.4329119771268
 20
140.6264300930602
 30
0.0
 10
163.4930725998132
 20
140.5374350101626
 30
0.0
 10
163.5171449115676
 20
140.5094331131635
 30
0.0
 10
163.5755264319181
 20
140.4663567124983
 30
0.0
 10
163.6109952595712
 20
140.4514631675706
 30
0.0
 10
163.6483710677199
 20
140.4514631675706
 30
0.0
  0
ELLIPSE
  5
10B
330
1F
100
AcDbEntity
  8
0
  6
HIDDEN
 62
     7
370
    18
100
AcDbEllipse
 10
173.6653982382
 20
134.6222501719
 30
0.0
 11
-9.367417879781641
 21
19.74174915274995
 31
0.0
210
0.0
220
0.0
230
1.0
 40
0.3419987131
 41
0.1510717289270679
 42
1.097974043471202
  0
SPLINE
  5
10C
330
1F
100
AcDbEntity
  8
0
  6
HIDDEN
 62
     7
370
    18
100
AcDbSpline
210
0.0
220
0.0
230
1.0
 70
     8
 71
     3
 72
    12
 73
     8
 74
     0
 42
0.000000001
 43
0.00000001
 40
0.0
 40
0.0
 40
0.0
 40
0.0
 40
0.2499999999999986
 40
0.2499999999999986
 40
0.4999999999999971
 40
0.4999999999999971
 40
1.0
 40
1.0
 40
1.0
 40
1.0
 10
163.6483710677199
 20
128.793037176267
 30
0.0
 10
163.6108591816752
 20
128.793037176267
 30
0.0
 10
163.5755718339705
 20
128.7782323619802
 30
0.0
 10
163.5166419857321
 20
128.7346404888544
 30
0.0
 10
163.493116259263
 20
128.7071270627684
 30
0.0
 10
163.4328574714949
 20
128.6179953306548
 30
0.0
 10
163.4072627092056
 20
128.551609480037
 30
0.0
 10
163.3885634465846
 20
128.4840050448596
 30
0.0
  0
LINE
  5
10D
330
1F
100
AcDbEntity
  8
0
  6
HIDDEN
 62
     7
370
    18
100
AcDbLine
 10
165.7845670637
 20
128.7930371763
 30
0.0
 11
163.6483710677
 21
128.7930371763
 31
0.0
  0
SPLINE
  5
10E
330
1F
100
AcDbEntity
  8
0
  6
HIDDEN
 62
     7
370
    18
100
AcDbSpline
210
0.0
220
0.0
230
1.0
 70
     8
 71
     3
 72
    12
 73
     8
 74
     0
 42
0.000000001
 43
0.00000001
 40
0.0
 40
0.0
 40
0.0
 40
0.0
 40
0.5000000000000021
 40
0.5000000000000021
 40
0.750000000000001
 40
0.750000000000001
 40
1.0
 40
1.0
 40
1.0
 40
1.0
 10
166.0443746848568
 20
128.4840050448596
 30
0.0
 10
166.0256814517264
 20
128.5515876813
 30
0.0
 10
166.0000261543146
 20
128.6180702507774
 30
0.0
 10
165.9398655316282
 20
128.7070653336749
 30
0.0
 10
165.9157932198738
 20
128.7350672306741
 30
0.0
 10
165.8574116995233
 20
128.7781436313392
 30
0.0
 10
165.8219428718702
 20
128.793037176267
 30
0.0
 10
165.7845670637215
 20
128.793037176267
 30
0.0
  0
ELLIPSE
  5
10F
330
1F
100
AcDbEntity
  8
0
  6
HIDDEN
 62
     7
370
    18
100
AcDbEllipse
 10
155.7675398933
 20
134.6222501719
 30
0.0
 11
-9.36741787978184
 21
19.74174915274992
 31
0.0
210
0.0
220
0.0
230
1.0
 40
0.3419987131
 41
3.292664382516885
 42
4.239566697060992
  0
SPLINE
  5
110
330
1F
100
AcDbEntity
  8
0
  6
HIDDEN
 62
     7
370
    18
100
AcDbSpline
210
0.0
220
0.0
230
1.0
 70
     8
 71
     3
 72
    12
 73
     8
 74
     0
 42
0.000000001
 43
0.00000001
 40
0.0
 40
0.0
 40
0.0
 40
0.0
 40
0.2499999999999997
 40
0.2499999999999997
 40
0.4999999999999994
 40
0.4999999999999994
 40
1.0
 40
1.0
 40
1.0
 40
1.0
 10
165.7845670637215
 20
115.4905937916855
 30
0.0
 10
165.8220789497662
 20
115.4905937916855
 30
0.0
 10
165.8573662974709
 20
115.495097335948
 30
0.0
 10
165.9162961457093
 20
115.5084705354013
 30
0.0
 10
165.9398218721784
 20
115.5169554379724
 30
0.0
 10
166.0000806599465
 20
115.544703241807
 30
0.0
 10
166.0256754222358
 20
115.5656931055474
 30
0.0
 10
166.0443746848568
 20
115.5874938887369
 30
0.0
  0
LINE
  5
111
330
1F
100
AcDbEntity
  8
0
  6
HIDDEN
 62
     7
370
    18
100
AcDbLine
 10
163.6483710677
 20
115.4905937917
 30
0.0
 11
165.7845670637
 21
115.4905937917
 31
0.0
  0
SPLINE
  5
112
330
1F
100
AcDbEntity
  8
0
  6
HIDDEN
 62
     7
370
    18
100
AcDbSpline
210
0.0
220
0.0
230
1.0
 70
     8
 71
     3
 72
    12
 73
     8
 74
     0
 42
0.000000001
 43
0.00000001
 40
0.0
 40
0.0
 40
0.0
 40
0.0
 40
0.4999999999999978
 40
0.4999999999999978
 40
0.7499999999999989
 40
0.7499999999999989
 40
1.0
 40
1.0
 40
1.0
 40
1.0
 10
163.3885634465846
 20
115.5874938887369
 30
0.0
 10
163.407256679715
 20
115.5657001351089
 30
0.0
 10
163.4329119771268
 20
115.5446799733993
 30
0.0
 10
163.4930725998132
 20
115.5169746274356
 30
0.0
 10
163.5171449115676
 20
115.5083394112422
 30
0.0
 10
163.5755264319181
 20
115.4951247660156
 30
0.0
 10
163.6109952595712
 20
115.4905937916855
 30
0.0
 10
163.6483710677199
 20
115.4905937916855
 30
0.0
  0
ELLIPSE
  5
113
330
1F
100
AcDbEntity
  8
0
  6
HIDDEN
 62
     7
370
    18
100
AcDbEllipse
 10
173.6653982382
 20
134.6222501719
 30
0.0
 11
9.367417879781698
 21
19.74174915274995
 31
0.0
210
0.0
220
0.0
230
1.0
 40
0.3419987131
 41
2.043618610118604
 42
2.990520924662735
  0
LINE
  5
114
330
1F
100
AcDbEntity
  8
0
  6
HIDDEN
 62
     7
370
    18
100
AcDbLine
 10
156.7164690657
 20
114.9222501719
 30
0.0
 11
156.7164690657
 21
154.3222501719
 31
0.0
  0
LINE
  5
115
330
1F
100
AcDbEntity
  8
0
  6
HIDDEN
 62
     7
370
    18
100
AcDbLine
 10
156.7164690657
 20
118.8222501719
 30
0.0
 11
156.7164690657
 21
150.4222501719
 31
0.0
  0
SPLINE
  5
116
330
1F
100
AcDbEntity
  8
0
  6
HIDDEN
 62
     7
370
    18
100
AcDbSpline
210
0.0
220
0.0
230
1.0
 70
     8
 71
     3
 72
    18
 73
    14
 74
     0
 42
0.000000001
 43
0.00000001
 40
0.0
 40
0.0
 40
0.0
 40
0.0
 40
0.2500000000000001
 40
0.2500000000000001
 40
0.5000000000000002
 40
0.5000000000000002
 40
0.6250000000000001
 40
0.6250000000000001
 40
0.7500000000000001
 40
0.7500000000000001
 40
0.875
 40
0.875
 40
1.0
 40
1.0
 40
1.0
 40
1.0
 10
155.4603847481577
 20
144.4466900900701
 30
0.0
 10
155.4946857926905
 20
144.3386799042726
 30
0.0
 10
155.5325060639872
 20
144.2314028162446
 30
0.0
 10
155.619124384448
 20
144.019906118928
 30
0.0
 10
155.6674957191915
 20
143.9155197687583
 30
0.0
 10
155.75689870131
 20
143.7646448461141
 30
0.0
 10
155.7894959851873
 20
143.7152998430785
 30
0.0
 10
155.8658778891322
 20
143.6206942046082
 30
0.0
 10
155.9089163264729
 20
143.5756982698536
 30
0.0
 10
156.0147293593048
 20
143.5047704971958
 30
0.0
 10
156.0797677840359
 20
143.4808239532892
 30
0.0
 10
156.2129198558385
 20
143.49310461736
 30
0.0
 10
156.2722890363016
 20
143.5264215753649
 30
0.0
 10
156.3214921768454
 20
143.5672564615896
 30
0.0
  0
SPLINE
  5
117
330
1F
100
AcDbEntity
  8
0
  6
HIDDEN
 62
     7
370
    18
100
AcDbSpline
210
0.0
220
0.0
230
1.0
 70
     8
 71
     3
 72
    16
 73
    12
 74
     0
 42
0.000000001
 43
0.00000001
 40
0.0
 40
0.0
 40
0.0
 40
0.0
 40
0.0625000000000012
 40
0.0625000000000012
 40
0.1250000000000024
 40
0.1250000000000024
 40
0.2500000000000033
 40
0.2500000000000033
 40
0.5000000000000006
 40
0.5000000000000006
 40
1.0
 40
1.0
 40
1.0
 40
1.0
 10
156.3214921768146
 20
143.567256461619
 30
0.0
 10
156.3335620100905
 20
143.5772735105994
 30
0.0
 10
156.3478376650238
 20
143.586232617655
 30
0.0
 10
156.3793020771482
 20
143.5941030130492
 30
0.0
 10
156.3948026019586
 20
143.5917455224069
 30
0.0
 10
156.4302414985655
 20
143.5747698302289
 30
0.0
 10
156.4438341146688
 20
143.5542213390613
 30
0.0
 10
156.4768284330617
 20
143.4922790120476
 30
0.0
 10
156.4876158263804
 20
143.4458834618425
 30
0.0
 10
156.5126690736596
 20
143.302947433148
 30
0.0
 10
156.5164690657208
 20
143.2033847162625
 30
0.0
 10
156.5164690657208
 20
143.1016173116159
 30
0.0
  0
LINE
  5
118
330
1F
100
AcDbEntity
  8
0
  6
HIDDEN
 62
     7
370
    18
100
AcDbLine
 10
156.5164690657
 20
126.1428830322
 30
0.0
 11
156.5164690657
 21
143.1016173116
 31
0.0
  0
SPLINE
  5
119
330
1F
100
AcDbEntity
  8
0
  6
HIDDEN
 62
     7
370
    18
100
AcDbSpline
210
0.0
220
0.0
230
1.0
 70
     8
 71
     3
 72
    16
 73
    12
 74
     0
 42
0.000000001
 43
0.00000001
 40
0.0
 40
0.0
 40
0.0
 40
0.0
 40
0.5000000000000083
 40
0.5000000000000083
 40
0.7500000000000077
 40
0.7500000000000077
 40
0.875000000000005
 40
0.875000000000005
 40
0.9375000000000026
 40
0.9375000000000026
 40
1.0
 40
1.0
 40
1.0
 40
1.0
 10
156.5164690657207
 20
126.1428830322217
 30
0.0
 10
156.5164690657207
 20
126.0408728786417
 30
0.0
 10
156.5125856405618
 20
125.9413485033884
 30
0.0
 10
156.4877703152871
 20
125.7993634073778
 30
0.0
 10
156.4769308675746
 20
125.7523701068073
 30
0.0
 10
156.4437150855258
 20
125.6900773764457
 30
0.0
 10
156.430333341897
 20
125.6697959441606
 30
0.0
 10
156.3948236920347
 20
125.6527542359601
 30
0.0
 10
156.379406725534
 20
125.650367980944
 30
0.0
 10
156.3477057033854
 20
125.658303910802
 30
0.0
 10
156.3335594184346
 20
125.6672289841766
 30
0.0
 10
156.3214921768449
 20
125.6772438822485
 30
0.0
  0
SPLINE
  5
11A
330
1F
100
AcDbEntity
  8
0
  6
HIDDEN
 62
     7
370
    18
100
AcDbSpline
210
0.0
220
0.0
230
1.0
 70
     8
 71
     3
 72
    18
 73
    14
 74
     0
 42
0.000000001
 43
0.00000001
 40
0.0
 40
0.0
 40
0.0
 40
0.0
 40
0.125
 40
0.125
 40
0.25
 40
0.25
 40
0.375
 40
0.375
 40
0.5
 40
0.5
 40
0.75
 40
0.75
 40
1.0
 40
1.0
 40
1.0
 40
1.0
 10
156.3214921768511
 20
125.6772438822559
 30
0.0
 10
156.272786684709
 20
125.7176657579374
 30
0.0
 10
156.2142765763821
 20
125.7506978794051
 30
0.0
 10
156.08254745809
 20
125.763975031358
 30
0.0
 10
156.0177885217495
 20
125.7410214443778
 30
0.0
 10
155.9125775488899
 20
125.6719682474582
 30
0.0
 10
155.8693611734499
 20
125.6275005956173
 30
0.0
 10
155.793182668338
 20
125.5343309362472
 30
0.0
 10
155.7603277069581
 20
125.4851885666864
 30
0.0
 10
155.6699594271244
 20
125.3339788317466
 30
0.0
 10
155.6205361927543
 20
125.2278240622184
 30
0.0
 10
155.5328877377061
 20
125.0142424465569
 30
0.0
 10
155.4948285655033
 20
124.9062700153216
 30
0.0
 10
155.4603847481577
 20
124.7978102537676
 30
0.0
  0
SPLINE
  5
11B
330
1F
100
AcDbEntity
  8
0
  6
HIDDEN
 62
     7
370
    18
100
AcDbSpline
210
0.0
220
0.0
230
1.0
 70
     8
 71
     3
 72
     8
 73
     4
 74
     0
 42
0.000000001
 43
0.00000001
 40
0.0
 40
0.0
 40
0.0
 40
0.0
 40
1.0
 40
1.0
 40
1.0
 40
1.0
 10
155.4603847481571
 20
124.7978102537671
 30
0.0
 10
155.436071044267
 20
124.721249096217
 30
0.0
 10
155.4145744023109
 20
124.6448237250839
 30
0.0
 10
155.395148722161
 20
124.5687308543121
 30
0.0
  0
SPLINE
  5
11C
330
1F
100
AcDbEntity
  8
0
  6
HIDDEN
 62
     7
370
    18
100
AcDbSpline
210
0.0
220
0.0
230
1.0
 70
     8
 71
     3
 72
     8
 73
     4
 74
     0
 42
0.000000001
 43
0.00000001
 40
0.0
 40
0.0
 40
0.0
 40
0.0
 40
1.0
 40
1.0
 40
1.0
 40
1.0
 10
155.395148722161
 20
120.7971861639137
 30
0.0
 10
155.4145741490543
 20
120.7936889603264
 30
0.0
 10
155.4360707030233
 20
120.7916726426842
 30
0.0
 10
155.4603847481577
 20
120.7910617892403
 30
0.0
  0
SPLINE
  5
11D
330
1F
100
AcDbEntity
  8
0
  6
HIDDEN
 62
     7
370
    18
100
AcDbSpline
210
0.0
220
0.0
230
1.0
 70
     8
 71
     3
 72
     8
 73
     4
 74
     0
 42
0.000000001
 43
0.00000001
 40
0.0
 40
0.0
 40
0.0
 40
0.0
 40
1.0
 40
1.0
 40
1.0
 40
1.0
 10
156.4936180526147
 20
120.7017033981822
 30
0.0
 10
156.5125549847805
 20
120.6737489607807
 30
0.0
 10
156.5164690657208
 20
120.6536651094244
 30
0.0
 10
156.5164690657208
 20
120.637438265259
 30
0.0
  0
LINE
  5
11E
330
1F
100
AcDbEntity
  8
0
  6
HIDDEN
 62
     7
370
    18
100
AcDbLine
 10
156.5164690657
 20
120.532429893
 30
0.0
 11
156.5164690657
 21
120.6374382653
 31
0.0
  0
LINE
  5
11F
330
1F
100
AcDbEntity
  8
0
  6
HIDDEN
 62
     7
370
    18
100
AcDbLine
 10
156.5164690657
 20
148.6070620786
 30
0.0
 11
156.5164690657
 21
148.7120704508
 31
0.0
  0
SPLINE
  5
120
330
1F
100
AcDbEntity
  8
0
  6
HIDDEN
 62
     7
370
    18
100
AcDbSpline
210
0.0
220
0.0
230
1.0
 70
     8
 71
     3
 72
    10
 73
     6
 74
     0
 42
0.000000001
 43
0.00000001
 40
0.0
 40
0.0
 40
0.0
 40
0.0
 40
0.5000000000000007
 40
0.5000000000000007
 40
1.0
 40
1.0
 40
1.0
 40
1.0
 10
156.5164690657207
 20
148.607062078579
 30
0.0
 10
156.5164690657207
 20
148.5969358784589
 30
0.0
 10
156.5144604866752
 20
148.5851752859051
 30
0.0
 10
156.5032772587697
 20
148.5571940711549
 30
0.0
 10
156.4949761250952
 20
148.5412137568172
 30
0.0
 10
156.476129735853
 20
148.5208576747896
 30
0.0
  0
SPLINE
  5
121
330
1F
100
AcDbEntity
  8
0
  6
HIDDEN
 62
     7
370
    18
100
AcDbSpline
210
0.0
220
0.0
230
1.0
 70
     8
 71
     3
 72
     8
 73
     4
 74
     0
 42
0.000000001
 43
0.00000001
 40
0.0
 40
0.0
 40
0.0
 40
0.0
 40
1.0
 40
1.0
 40
1.0
 40
1.0
 10
155.4603847481573
 20
148.4534385545975
 30
0.0
 10
155.4360707030231
 20
148.4528277011536
 30
0.0
 10
155.4145741490542
 20
148.4508113835114
 30
0.0
 10
155.395148722161
 20
148.4473141799241
 30
0.0
  0
SPLINE
  5
122
330
1F
100
AcDbEntity
  8
0
  6
HIDDEN
 62
     7
370
    18
100
AcDbSpline
210
0.0
220
0.0
230
1.0
 70
     8
 71
     3
 72
     8
 73
     4
 74
     0
 42
0.000000001
 43
0.00000001
 40
0.0
 40
0.0
 40
0.0
 40
0.0
 40
1.0
 40
1.0
 40
1.0
 40
1.0
 10
155.395148722161
 20
144.6757694895257
 30
0.0
 10
155.4145744023109
 20
144.599676618754
 30
0.0
 10
155.436071044267
 20
144.5232512476207
 30
0.0
 10
155.4603847481571
 20
144.4466900900707
 30
0.0
  0
LINE
  5
123
330
1F
100
AcDbEntity
  8
0
  6
HIDDEN
 62
     7
370
    18
100
AcDbLine
 10
233.7164690657
 20
120.9222501719
 30
0.0
 11
233.7164690657
 21
148.3071923853
 31
0.0
  0
LINE
  5
124
330
1F
100
AcDbEntity
  8
0
  6
HIDDEN
 62
     7
370
    18
100
AcDbLine
 10
156.5164690657
 20
120.6374382653
 30
0.0
 11
156.5164690657
 21
129.116805405
 31
0.0
  0
LINE
  5
125
330
1F
100
AcDbEntity
  8
0
  6
HIDDEN
 62
     7
370
    18
100
AcDbLine
 10
156.5164690657
 20
140.1276949389
 30
0.0
 11
156.5164690657
 21
148.6070620786
 31
0.0
  0
LINE
  5
126
330
1F
100
AcDbEntity
  8
0
  6
HIDDEN
 62
     7
370
    18
100
AcDbLine
 10
174.7164690657
 20
147.0222501719
 30
0.0
 11
174.7164690657
 21
122.2222501719
 31
0.0
  0
LINE
  5
127
330
1F
100
AcDbEntity
  8
0
  6
HIDDEN
 62
     7
370
    18
100
AcDbLine
 10
180.7164690657
 20
147.1222501719
 30
0.0
 11
180.7164690657
 21
122.1222501719
 31
0.0
  0
SPLINE
  5
128
330
1F
100
AcDbEntity
  8
0
  6
HIDDEN
 62
     7
370
    18
100
AcDbSpline
210
0.0
220
0.0
230
1.0
 70
    11
 71
     3
 72
    76
 73
    72
 74
     0
 42
0.000000001
 43
0.00000001
 40
0.0
 40
0.0
 40
0.0
 40
0.0
 40
0.0312500000000001
 40
0.0312500000000001
 40
0.0625000000000003
 40
0.0625000000000003
 40
0.0937500000000004
 40
0.0937500000000004
 40
0.1250000000000006
 40
0.1250000000000006
 40
0.1562500000000007
 40
0.1562500000000007
 40
0.1875000000000009
 40
0.1875000000000009
 40
0.203125000000001
 40
0.203125000000001
 40
0.2187500000000011
 40
0.2187500000000011
 40
0.2500000000000012
 40
0.2500000000000012
 40
0.2812500000000013
 40
0.2812500000000013
 40
0.3125000000000013
 40
0.3125000000000013
 40
0.3437500000000014
 40
0.3437500000000014
 40
0.3750000000000015
 40
0.3750000000000015
 40
0.4062500000000016
 40
0.4062500000000016
 40
0.4375000000000017
 40
0.4375000000000017
 40
0.4687500000000018
 40
0.4687500000000018
 40
0.5000000000000019
 40
0.5000000000000019
 40
0.515625000000002
 40
0.515625000000002
 40
0.531250000000002
 40
0.531250000000002
 40
0.5625000000000016
 40
0.5625000000000016
 40
0.593750000000001
 40
0.593750000000001
 40
0.6250000000000004
 40
0.6250000000000004
 40
0.65625
 40
0.65625
 40
0.6718749999999998
 40
0.6718749999999998
 40
0.6874999999999997
 40
0.6874999999999997
 40
0.7187499999999997
 40
0.7187499999999997
 40
0.7499999999999997
 40
0.7499999999999997
 40
0.7812499999999998
 40
0.7812499999999998
 40
0.8124999999999998
 40
0.8124999999999998
 40
0.8437499999999998
 40
0.8437499999999998
 40
0.8749999999999999
 40
0.8749999999999999
 40
0.9062499999999999
 40
0.9062499999999999
 40
0.9374999999999999
 40
0.9374999999999999
 40
0.96875
 40
0.96875
 40
1.0
 40
1.0
 40
1.0
 40
1.0
 10
193.7164690657207
 20
129.6222501719189
 30
0.0
 10
193.382431960158
 20
129.6222501719189
 30
0.0
 10
193.0547626461146
 20
129.6553799882986
 30
0.0
 10
192.411364336593
 20
129.784445251018
 30
0.0
 10
192.0922773987802
 20
129.8821180279791
 30
0.0
 10
191.488955771958
 20
130.1339280088962
 30
0.0
 10
191.2033645221801
 20
130.2874887047299
 30
0.0
 10
190.6628118443922
 20
130.6497158424487
 30
0.0
 10
190.4100089514049
 20
130.8577774211311
 30
0.0
 10
189.9539498237777
 20
131.3135672718824
 30
0.0
 10
189.7473942072531
 20
131.5638986111048
 30
0.0
 10
189.382658525884
 20
132.1072639480094
 30
0.0
 10
189.2290532297808
 20
132.3931323512242
 30
0.0
 10
189.0407667898429
 20
132.8434092534702
 30
0.0
 10
188.9850800864216
 20
132.9971055137394
 30
0.0
 10
188.888370925073
 20
133.3120573701846
 30
0.0
 10
188.847333916463
 20
133.4738826171115
 30
0.0
 10
188.7496591469251
 20
133.9591515357887
 30
0.0
 10
188.7168817827612
 20
134.2859490942517
 30
0.0
 10
188.7160640196907
 20
134.946164960726
 30
0.0
 10
188.7491796550032
 20
135.2810805631025
 30
0.0
 10
188.8781624455623
 20
135.9256344680902
 30
0.0
 10
188.9737407929319
 20
136.2395554987516
 30
0.0
 10
189.2277716956969
 20
136.8495229235264
 30
0.0
 10
189.3821262903012
 20
137.1359179956432
 30
0.0
 10
189.7429282387319
 20
137.6744668285656
 30
0.0
 10
189.9519057740406
 20
137.9287209540735
 30
0.0
 10
190.409443491684
 20
138.3863261093801
 30
0.0
 10
190.6582058542896
 20
138.59119280662
 30
0.0
 10
191.19734492367
 20
138.9534732168426
 30
0.0
 10
191.4881026483166
 20
139.1100150398597
 30
0.0
 10
192.0878817726416
 20
139.3607471729688
 30
0.0
 10
192.3998574363521
 20
139.4571861537039
 30
0.0
 10
193.0502247326832
 20
139.5887570549549
 30
0.0
 10
193.3804361462169
 20
139.6217715660041
 30
0.0
 10
193.8736877602496
 20
139.62248170209
 30
0.0
 10
194.0382664826712
 20
139.6146289792041
 30
0.0
 10
194.3677526800197
 20
139.5824144218941
 30
0.0
 10
194.5334212991314
 20
139.557825256047
 30
0.0
 10
195.0196178633686
 20
139.4607471143744
 30
0.0
 10
195.3325492398097
 20
139.3651898643919
 30
0.0
 10
195.9372371892511
 20
139.1139515196301
 30
0.0
 10
196.2282111422485
 20
138.9576752155367
 30
0.0
 10
196.7661955774727
 20
138.5976654673749
 30
0.0
 10
197.0173467414885
 20
138.3919417549934
 30
0.0
 10
197.4790742296299
 20
137.9312032453862
 30
0.0
 10
197.6842805898262
 20
137.6818448183447
 30
0.0
 10
197.9551605653708
 20
137.2792515444458
 30
0.0
 10
198.0392474660315
 20
137.1402585213561
 30
0.0
 10
198.1946423159969
 20
136.8522150789387
 30
0.0
 10
198.2659609365495
 20
136.7028587209411
 30
0.0
 10
198.4555195224469
 20
136.2497125022381
 30
0.0
 10
198.5515420129553
 20
135.9376421571124
 30
0.0
 10
198.6821914548362
 20
135.2929122582395
 30
0.0
 10
198.7160796774302
 20
134.9577160877729
 30
0.0
 10
198.7168515983175
 20
134.2984938173575
 30
0.0
 10
198.6849638178305
 20
133.9707428448187
 30
0.0
 10
198.5550649947558
 20
133.3190267319311
 30
0.0
 10
198.4584329204788
 20
133.003492718243
 30
0.0
 10
198.2076594857652
 20
132.4005828915721
 30
0.0
 10
198.0510767236339
 20
132.1088879359748
 30
0.0
 10
197.6888888056554
 20
131.568450131496
 30
0.0
 10
197.4838715307304
 20
131.3189379136856
 30
0.0
 10
197.0255436912738
 20
130.8599080381841
 30
0.0
 10
196.7720044974778
 20
130.6513415987305
 30
0.0
 10
196.2354779808181
 20
130.2910833825879
 30
0.0
 10
195.9501892306817
 20
130.1368251355484
 30
0.0
 10
195.3423256723243
 20
129.8825103238876
 30
0.0
 10
195.027473937866
 20
129.7860194063091
 30
0.0
 10
194.3836071579425
 20
129.6560858010059
 30
0.0
 10
194.0505061712834
 20
129.6222501719189
 30
0.0
 10
193.7164690657207
 20
129.6222501719189
 30
0.0
  0
SPLINE
  5
129
330
1F
100
AcDbEntity
  8
0
  6
HIDDEN
 62
     7
370
    18
100
AcDbSpline
210
0.0
220
0.0
230
1.0
 70
    11
 71
     3
 72
    76
 73
    72
 74
     0
 42
0.000000001
 43
0.00000001
 40
0.0
 40
0.0
 40
0.0
 40
0.0
 40
0.0312499999999993
 40
0.0312499999999993
 40
0.0624999999999986
 40
0.0624999999999986
 40
0.0937499999999979
 40
0.0937499999999979
 40
0.1249999999999972
 40
0.1249999999999972
 40
0.1562499999999964
 40
0.1562499999999964
 40
0.1874999999999958
 40
0.1874999999999958
 40
0.2031249999999953
 40
0.2031249999999953
 40
0.2187499999999949
 40
0.2187499999999949
 40
0.2499999999999941
 40
0.2499999999999941
 40
0.2812499999999933
 40
0.2812499999999933
 40
0.3124999999999926
 40
0.3124999999999926
 40
0.3437499999999918
 40
0.3437499999999918
 40
0.3749999999999911
 40
0.3749999999999911
 40
0.4062499999999903
 40
0.4062499999999903
 40
0.4374999999999896
 40
0.4374999999999896
 40
0.4687499999999888
 40
0.4687499999999888
 40
0.499999999999988
 40
0.499999999999988
 40
0.515624999999988
 40
0.515624999999988
 40
0.531249999999988
 40
0.531249999999988
 40
0.5624999999999885
 40
0.5624999999999885
 40
0.593749999999989
 40
0.593749999999989
 40
0.6249999999999895
 40
0.6249999999999895
 40
0.65624999999999
 40
0.65624999999999
 40
0.6718749999999902
 40
0.6718749999999902
 40
0.6874999999999905
 40
0.6874999999999905
 40
0.7187499999999913
 40
0.7187499999999913
 40
0.7499999999999923
 40
0.7499999999999923
 40
0.7812499999999933
 40
0.7812499999999933
 40
0.8124999999999942
 40
0.8124999999999942
 40
0.8437499999999952
 40
0.8437499999999952
 40
0.8749999999999961
 40
0.8749999999999961
 40
0.9062499999999971
 40
0.9062499999999971
 40
0.9374999999999981
 40
0.9374999999999981
 40
0.968749999999999
 40
0.968749999999999
 40
1.0
 40
1.0
 40
1.0
 40
1.0
 10
216.7164690657207
 20
129.6222501719189
 30
0.0
 10
216.382431960158
 20
129.6222501719189
 30
0.0
 10
216.0547626461146
 20
129.6553799882986
 30
0.0
 10
215.411364336593
 20
129.784445251018
 30
0.0
 10
215.0922773987802
 20
129.8821180279791
 30
0.0
 10
214.4889557719581
 20
130.1339280088962
 30
0.0
 10
214.2033645221802
 20
130.2874887047299
 30
0.0
 10
213.6628118443921
 20
130.6497158424487
 30
0.0
 10
213.4100089514049
 20
130.8577774211311
 30
0.0
 10
212.9539498237777
 20
131.3135672718824
 30
0.0
 10
212.7473942072531
 20
131.5638986111048
 30
0.0
 10
212.3826585258841
 20
132.1072639480094
 30
0.0
 10
212.2290532297808
 20
132.3931323512242
 30
0.0
 10
212.040766789843
 20
132.8434092534702
 30
0.0
 10
211.9850800864216
 20
132.9971055137394
 30
0.0
 10
211.888370925073
 20
133.3120573701846
 30
0.0
 10
211.847333916463
 20
133.4738826171115
 30
0.0
 10
211.7496591469251
 20
133.9591515357887
 30
0.0
 10
211.7168817827612
 20
134.2859490942517
 30
0.0
 10
211.7160640196906
 20
134.946164960726
 30
0.0
 10
211.7491796550031
 20
135.2810805631025
 30
0.0
 10
211.8781624455623
 20
135.9256344680902
 30
0.0
 10
211.9737407929319
 20
136.2395554987516
 30
0.0
 10
212.2277716956969
 20
136.8495229235264
 30
0.0
 10
212.3821262903012
 20
137.1359179956432
 30
0.0
 10
212.7429282387319
 20
137.6744668285656
 30
0.0
 10
212.9519057740406
 20
137.9287209540735
 30
0.0
 10
213.409443491684
 20
138.3863261093801
 30
0.0
 10
213.6582058542896
 20
138.59119280662
 30
0.0
 10
214.19734492367
 20
138.9534732168426
 30
0.0
 10
214.4881026483166
 20
139.1100150398597
 30
0.0
 10
215.0878817726417
 20
139.3607471729688
 30
0.0
 10
215.3998574363521
 20
139.4571861537039
 30
0.0
 10
216.0502247326832
 20
139.5887570549549
 30
0.0
 10
216.3804361462169
 20
139.6217715660041
 30
0.0
 10
216.8736877602495
 20
139.62248170209
 30
0.0
 10
217.0382664826712
 20
139.6146289792041
 30
0.0
 10
217.3677526800197
 20
139.5824144218941
 30
0.0
 10
217.5334212991314
 20
139.557825256047
 30
0.0
 10
218.0196178633686
 20
139.4607471143744
 30
0.0
 10
218.3325492398097
 20
139.3651898643919
 30
0.0
 10
218.9372371892511
 20
139.1139515196301
 30
0.0
 10
219.2282111422485
 20
138.9576752155367
 30
0.0
 10
219.7661955774727
 20
138.5976654673749
 30
0.0
 10
220.0173467414886
 20
138.3919417549934
 30
0.0
 10
220.4790742296299
 20
137.9312032453862
 30
0.0
 10
220.6842805898262
 20
137.6818448183446
 30
0.0
 10
220.9551605653708
 20
137.2792515444458
 30
0.0
 10
221.0392474660315
 20
137.1402585213561
 30
0.0
 10
221.1946423159969
 20
136.8522150789387
 30
0.0
 10
221.2659609365494
 20
136.7028587209411
 30
0.0
 10
221.455519522447
 20
136.2497125022381
 30
0.0
 10
221.5515420129553
 20
135.9376421571124
 30
0.0
 10
221.6821914548362
 20
135.2929122582395
 30
0.0
 10
221.7160796774302
 20
134.9577160877729
 30
0.0
 10
221.7168515983175
 20
134.2984938173575
 30
0.0
 10
221.6849638178305
 20
133.9707428448187
 30
0.0
 10
221.5550649947558
 20
133.3190267319311
 30
0.0
 10
221.4584329204788
 20
133.003492718243
 30
0.0
 10
221.2076594857652
 20
132.4005828915721
 30
0.0
 10
221.0510767236339
 20
132.1088879359748
 30
0.0
 10
220.6888888056554
 20
131.568450131496
 30
0.0
 10
220.4838715307305
 20
131.3189379136856
 30
0.0
 10
220.0255436912738
 20
130.8599080381841
 30
0.0
 10
219.7720044974778
 20
130.6513415987305
 30
0.0
 10
219.2354779808181
 20
130.2910833825879
 30
0.0
 10
218.9501892306817
 20
130.1368251355484
 30
0.0
 10
218.3423256723243
 20
129.8825103238876
 30
0.0
 10
218.027473937866
 20
129.7860194063091
 30
0.0
 10
217.3836071579424
 20
129.6560858010059
 30
0.0
 10
217.0505061712834
 20
129.6222501719189
 30
0.0
 10
216.7164690657207
 20
129.6222501719189
 30
0.0
  0
CIRCLE
  5
12A
330
1F
100
AcDbEntity
  8
0
  6
HIDDEN
 62
     7
370
    18
100
AcDbCircle
 10
145.2164690657
 20
134.6222501719
 30
0.0
 40
2.300000000000011
  0
LINE
  5
12B
330
1F
100
AcDbEntity
  8
0
  6
HIDDEN
 62
     7
370
    18
100
AcDbLine
 10
133.7435010978
 20
144.184943476
 30
0.0
 11
133.7435010978
 21
125.0595568678
 31
0.0
  0
LINE
  5
12C
330
1F
100
AcDbEntity
  8
0
  6
HIDDEN
 62
     7
370
    18
100
AcDbLine
 10
132.7164690657
 20
124.4665996476
 30
0.0
 11
132.7164690657
 21
144.7624795078
 31
0.0
  0
LINE
  5
12D
330
1F
100
AcDbEntity
  8
0
  6
HIDDEN
 62
     7
370
    18
100
AcDbLine
 10
137.2435010978
 20
143.8531902796
 30
0.0
 11
137.2435010978
 21
125.3913100642
 31
0.0
  0
LINE
  5
12E
330
1F
100
AcDbEntity
  8
0
  6
HIDDEN
 62
     7
370
    18
100
AcDbLine
 10
140.6435010978
 20
143.6222501719
 30
0.0
 11
140.6435010978
 21
125.6222501719
 31
0.0
  0
LINE
  5
12F
330
1F
100
AcDbEntity
  8
0
  6
HIDDEN
 62
     7
370
    18
100
AcDbLine
 10
135.8435010978
 20
143.6222501719
 30
0.0
 11
135.8435010978
 21
125.6222501719
 31
0.0
  0
LINE
  5
130
330
1F
100
AcDbEntity
  8
0
  6
HIDDEN
 62
     7
370
    18
100
AcDbLine
 10
136.8435010978
 20
143.6222501719
 30
0.0
 11
136.8435010978
 21
125.6222501719
 31
0.0
  0
SPLINE
  5
131
330
1F
100
AcDbEntity
  8
0
  6
HIDDEN
 62
     7
370
    18
100
AcDbSpline
210
0.0
220
0.0
230
1.0
 70
     8
 71
     3
 72
    14
 73
    10
 74
     0
 42
0.000000001
 43
0.00000001
 40
0.0
 40
0.0
 40
0.0
 40
0.0
 40
0.2500000000000001
 40
0.2500000000000001
 40
0.5000000000000001
 40
0.5000000000000001
 40
0.75
 40
0.75
 40
1.0
 40
1.0
 40
1.0
 40
1.0
 10
147.2164690657207
 20
135.7580318410789
 30
0.0
 10
147.3146934122236
 20
135.5850684112755
 30
0.0
 10
147.3900082502077
 20
135.400035856851
 30
0.0
 10
147.4909749604021
 20
135.0170236427166
 30
0.0
 10
147.5163505466923
 20
134.8223050892509
 30
0.0
 10
147.5165867719585
 20
134.4249297879853
 30
0.0
 10
147.490883702623
 20
134.22743745351
 30
0.0
 10
147.3905635891065
 20
133.8462656188789
 30
0.0
 10
147.3146717610189
 20
133.6593938069064
 30
0.0
 10
147.2164690657252
 20
133.4864685027565
 30
0.0
  0
LINE
  5
132
330
1F
100
AcDbEntity
  8
0
  6
HIDDEN
 62
     7
370
    18
100
AcDbLine
 10
147.7164690657
 20
143.1222501719
 30
0.0
 11
147.7164690657
 21
126.1222501719
 31
0.0
  0
SPLINE
  5
133
330
1F
100
AcDbEntity
  8
0
  6
HIDDEN
 62
     7
370
    18
100
AcDbSpline
210
0.0
220
0.0
230
1.0
 70
     8
 71
     3
 72
    14
 73
    10
 74
     0
 42
0.000000001
 43
0.00000001
 40
0.0
 40
0.0
 40
0.0
 40
0.0
 40
0.2500000000000001
 40
0.2500000000000001
 40
0.5000000000000001
 40
0.5000000000000001
 40
0.75
 40
0.75
 40
1.0
 40
1.0
 40
1.0
 40
1.0
 10
147.2164690657207
 20
133.4864685027588
 30
0.0
 10
147.3146934122236
 20
133.6594319325623
 30
0.0
 10
147.3900082502077
 20
133.8444644869868
 30
0.0
 10
147.4909749604021
 20
134.2274767011212
 30
0.0
 10
147.5163505466923
 20
134.4221952545869
 30
0.0
 10
147.5165867719585
 20
134.8195705558524
 30
0.0
 10
147.490883702623
 20
135.0170628903278
 30
0.0
 10
147.3905635891065
 20
135.3982347249589
 30
0.0
 10
147.3146717610189
 20
135.5851065369314
 30
0.0
 10
147.2164690657252
 20
135.7580318410813
 30
0.0
  0
SPLINE
  5
134
330
1F
100
AcDbEntity
  8
0
  6
HIDDEN
 62
     7
370
    18
100
AcDbSpline
210
0.0
220
0.0
230
1.0
 70
     8
 71
     3
 72
    60
 73
    56
 74
     0
 42
0.000000001
 43
0.00000001
 40
0.0
 40
0.0
 40
0.0
 40
0.0
 40
0.0624999999999999
 40
0.0624999999999999
 40
0.1249999999999998
 40
0.1249999999999998
 40
0.1874999999999996
 40
0.1874999999999996
 40
0.2187499999999996
 40
0.2187499999999996
 40
0.2499999999999995
 40
0.2499999999999995
 40
0.3124999999999998
 40
0.3124999999999998
 40
0.3750000000000001
 40
0.3750000000000001
 40
0.4062500000000001
 40
0.4062500000000001
 40
0.4375000000000001
 40
0.4375000000000001
 40
0.4687500000000001
 40
0.4687500000000001
 40
0.5000000000000001
 40
0.5000000000000001
 40
0.5312500000000001
 40
0.5312500000000001
 40
0.5625000000000002
 40
0.5625000000000002
 40
0.5937500000000002
 40
0.5937500000000002
 40
0.6250000000000003
 40
0.6250000000000003
 40
0.6562500000000003
 40
0.6562500000000003
 40
0.6875000000000004
 40
0.6875000000000004
 40
0.7187500000000003
 40
0.7187500000000003
 40
0.7500000000000002
 40
0.7500000000000002
 40
0.7812500000000002
 40
0.7812500000000002
 40
0.8125000000000001
 40
0.8125000000000001
 40
0.8437500000000001
 40
0.8437500000000001
 40
0.875
 40
0.875
 40
0.90625
 40
0.90625
 40
0.9375
 40
0.9375
 40
0.9687500000000001
 40
0.9687500000000001
 40
1.0
 40
1.0
 40
1.0
 40
1.0
 10
147.2164690657207
 20
133.4864685027588
 30
0.0
 10
147.091279164142
 20
133.2660213781433
 30
0.0
 10
146.9344118455738
 20
133.0722876493229
 30
0.0
 10
146.557374325755
 20
132.7365979505605
 30
0.0
 10
146.345661019334
 20
132.6026205922477
 30
0.0
 10
145.8797710373852
 20
132.4054938475626
 30
0.0
 10
145.6339318063337
 20
132.3462764353407
 30
0.0
 10
145.2544507532391
 20
132.3190696994501
 30
0.0
 10
145.1267050245451
 20
132.3205629645919
 30
0.0
 10
144.876238777877
 20
132.3440787704009
 30
0.0
 10
144.7524093950688
 20
132.3659979892051
 30
0.0
 10
144.3851897209702
 20
132.46283455405
 30
0.0
 10
144.1544207028844
 20
132.5666356755018
 30
0.0
 10
143.7345317414649
 20
132.8453541564298
 30
0.0
 10
143.5502733665774
 20
133.0169164479335
 30
0.0
 10
143.319524979094
 20
133.3155638092003
 30
0.0
 10
143.2504781293051
 20
133.4220313497026
 30
0.0
 10
143.1319134654995
 20
133.6423146980956
 30
0.0
 10
143.0817050967499
 20
133.756976214497
 30
0.0
 10
142.9998732443921
 20
133.9956568512738
 30
0.0
 10
142.9685223455094
 20
134.1197024781519
 30
0.0
 10
142.9271279674709
 20
134.3678175142602
 30
0.0
 10
142.9166221924065
 20
134.4930552167487
 30
0.0
 10
142.9163192400708
 20
134.7459342723397
 30
0.0
 10
142.9268037696874
 20
134.8738139585763
 30
0.0
 10
142.9679438471488
 20
135.1222360197818
 30
0.0
 10
142.9985219676974
 20
135.2440349465502
 30
0.0
 10
143.0798046760487
 20
135.4828144760245
 30
0.0
 10
143.1308055626106
 20
135.5998560383312
 30
0.0
 10
143.2493726109736
 20
135.8206812362571
 30
0.0
 10
143.3172613642454
 20
135.9256195998198
 30
0.0
 10
143.4704118019831
 20
136.1245969330492
 30
0.0
 10
143.5559679735555
 20
136.2186050582434
 30
0.0
 10
143.7386793445147
 20
136.3890977431801
 30
0.0
 10
143.8364866441966
 20
136.4665359382295
 30
0.0
 10
144.0452897561136
 20
136.6057018341178
 30
0.0
 10
144.1568719314015
 20
136.6674836431247
 30
0.0
 10
144.3855177309005
 20
136.7705625137255
 30
0.0
 10
144.5034725418716
 20
136.8125665489212
 30
0.0
 10
144.7468009868604
 20
136.877302670218
 30
0.0
 10
144.8731448622034
 20
136.8999759327807
 30
0.0
 10
145.1242508432213
 20
136.9238587289618
 30
0.0
 10
145.2499328369442
 20
136.9254620302285
 30
0.0
 10
145.501554906736
 20
136.9079952914576
 30
0.0
 10
145.6284525270218
 20
136.8885594008177
 30
0.0
 10
145.873643093283
 20
136.829966229494
 30
0.0
 10
145.9928322503164
 20
136.7909033783374
 30
0.0
 10
146.2245172746713
 20
136.6933936562136
 30
0.0
 10
146.3376920790218
 20
136.634358301925
 30
0.0
 10
146.5497704959575
 20
136.5005545850855
 30
0.0
 10
146.6495592746583
 20
136.4255593689407
 30
0.0
 10
146.8368174616473
 20
136.2593643044199
 30
0.0
 10
146.9247124985906
 20
136.1674701056784
 30
0.0
 10
147.0829335742225
 20
135.972105907964
 30
0.0
 10
147.1538715305142
 20
135.8682599542916
 30
0.0
 10
147.2164690657207
 20
135.7580318410789
 30
0.0
  0
SPLINE
  5
135
330
1F
100
AcDbEntity
  8
0
  6
HIDDEN
 62
     7
370
    18
100
AcDbSpline
210
0.0
220
0.0
230
1.0
 70
     8
 71
     3
 72
    60
 73
    56
 74
     0
 42
0.000000001
 43
0.00000001
 40
0.0
 40
0.0
 40
0.0
 40
0.0
 40
0.0624999999999999
 40
0.0624999999999999
 40
0.1249999999999998
 40
0.1249999999999998
 40
0.1874999999999996
 40
0.1874999999999996
 40
0.2187499999999996
 40
0.2187499999999996
 40
0.2499999999999995
 40
0.2499999999999995
 40
0.3124999999999998
 40
0.3124999999999998
 40
0.3750000000000001
 40
0.3750000000000001
 40
0.4062500000000001
 40
0.4062500000000001
 40
0.4375000000000001
 40
0.4375000000000001
 40
0.4687500000000001
 40
0.4687500000000001
 40
0.5000000000000001
 40
0.5000000000000001
 40
0.5312500000000001
 40
0.5312500000000001
 40
0.5625000000000002
 40
0.5625000000000002
 40
0.5937500000000002
 40
0.5937500000000002
 40
0.6250000000000003
 40
0.6250000000000003
 40
0.6562500000000003
 40
0.6562500000000003
 40
0.6875000000000004
 40
0.6875000000000004
 40
0.7187500000000003
 40
0.7187500000000003
 40
0.7500000000000002
 40
0.7500000000000002
 40
0.7812500000000002
 40
0.7812500000000002
 40
0.8125000000000001
 40
0.8125000000000001
 40
0.8437500000000001
 40
0.8437500000000001
 40
0.875
 40
0.875
 40
0.90625
 40
0.90625
 40
0.9375
 40
0.9375
 40
0.9687500000000001
 40
0.9687500000000001
 40
1.0
 40
1.0
 40
1.0
 40
1.0
 10
147.2164690657207
 20
135.7580318410789
 30
0.0
 10
147.091279164142
 20
135.9784789656945
 30
0.0
 10
146.9344118455738
 20
136.1722126945149
 30
0.0
 10
146.557374325755
 20
136.5079023932773
 30
0.0
 10
146.345661019334
 20
136.6418797515901
 30
0.0
 10
145.8797710373852
 20
136.8390064962752
 30
0.0
 10
145.6339318063337
 20
136.898223908497
 30
0.0
 10
145.2544507532391
 20
136.9254306443877
 30
0.0
 10
145.1267050245451
 20
136.9239373792458
 30
0.0
 10
144.876238777877
 20
136.9004215734369
 30
0.0
 10
144.7524093950688
 20
136.8785023546327
 30
0.0
 10
144.3851897209702
 20
136.7816657897878
 30
0.0
 10
144.1544207028844
 20
136.677864668336
 30
0.0
 10
143.7345317414649
 20
136.399146187408
 30
0.0
 10
143.5502733665774
 20
136.2275838959042
 30
0.0
 10
143.319524979094
 20
135.9289365346374
 30
0.0
 10
143.2504781293051
 20
135.8224689941352
 30
0.0
 10
143.1319134654995
 20
135.6021856457422
 30
0.0
 10
143.0817050967499
 20
135.4875241293408
 30
0.0
 10
142.9998732443921
 20
135.248843492564
 30
0.0
 10
142.9685223455094
 20
135.1247978656859
 30
0.0
 10
142.9271279674709
 20
134.8766828295776
 30
0.0
 10
142.9166221924065
 20
134.7514451270891
 30
0.0
 10
142.9163192400708
 20
134.4985660714981
 30
0.0
 10
142.9268037696874
 20
134.3706863852615
 30
0.0
 10
142.9679438471488
 20
134.122264324056
 30
0.0
 10
142.9985219676974
 20
134.0004653972876
 30
0.0
 10
143.0798046760487
 20
133.7616858678133
 30
0.0
 10
143.1308055626106
 20
133.6446443055066
 30
0.0
 10
143.2493726109736
 20
133.4238191075807
 30
0.0
 10
143.3172613642454
 20
133.3188807440179
 30
0.0
 10
143.4704118019831
 20
133.1199034107886
 30
0.0
 10
143.5559679735555
 20
133.0258952855944
 30
0.0
 10
143.7386793445147
 20
132.8554026006577
 30
0.0
 10
143.8364866441966
 20
132.7779644056083
 30
0.0
 10
144.0452897561136
 20
132.63879850972
 30
0.0
 10
144.1568719314015
 20
132.577016700713
 30
0.0
 10
144.3855177309005
 20
132.4739378301122
 30
0.0
 10
144.5034725418716
 20
132.4319337949166
 30
0.0
 10
144.7468009868604
 20
132.3671976736198
 30
0.0
 10
144.8731448622034
 20
132.3445244110571
 30
0.0
 10
145.1242508432213
 20
132.320641614876
 30
0.0
 10
145.2499328369442
 20
132.3190383136093
 30
0.0
 10
145.501554906736
 20
132.3365050523802
 30
0.0
 10
145.6284525270218
 20
132.3559409430201
 30
0.0
 10
145.873643093283
 20
132.4145341143438
 30
0.0
 10
145.9928322503164
 20
132.4535969655004
 30
0.0
 10
146.2245172746713
 20
132.5511066876242
 30
0.0
 10
146.3376920790218
 20
132.6101420419128
 30
0.0
 10
146.5497704959575
 20
132.7439457587523
 30
0.0
 10
146.6495592746583
 20
132.8189409748971
 30
0.0
 10
146.8368174616473
 20
132.9851360394179
 30
0.0
 10
146.9247124985906
 20
133.0770302381594
 30
0.0
 10
147.0829335742225
 20
133.2723944358737
 30
0.0
 10
147.1538715305142
 20
133.3762403895462
 30
0.0
 10
147.2164690657207
 20
133.4864685027588
 30
0.0
  0
LINE
  5
136
330
1F
100
AcDbEntity
  8
0
  6
HIDDEN
 62
     7
370
    18
100
AcDbLine
 10
148.6164690657
 20
140.8722501719
 30
0.0
 11
148.6164690657
 21
128.3722501719
 31
0.0
  0
LINE
  5
137
330
1F
100
AcDbEntity
  8
0
  6
HIDDEN
 62
     7
370
    18
100
AcDbLine
 10
147.7164690657
 20
127.4722501719
 30
0.0
 11
147.7164690657
 21
141.7722501719
 31
0.0
  0
LINE
  5
138
330
1F
100
AcDbEntity
  8
0
  6
HIDDEN
 62
     7
370
    18
100
AcDbLine
 10
174.7164690657
 20
128.3722501719
 30
0.0
 11
174.7164690657
 21
140.857025486
 31
0.0
  0
LINE
  5
139
330
1F
100
AcDbEntity
  8
0
  6
HIDDEN
 62
     7
370
    18
100
AcDbLine
 10
155.0164690657
 20
148.6423489565
 30
0.0
 11
155.0164690657
 21
148.5424865602
 31
0.0
  0
SPLINE
  5
13A
330
1F
100
AcDbEntity
  8
0
  6
HIDDEN
 62
     7
370
    18
100
AcDbSpline
210
0.0
220
0.0
230
1.0
 70
     8
 71
     3
 72
    24
 73
    20
 74
     0
 42
0.000000001
 43
0.00000001
 40
0.0
 40
0.0
 40
0.0
 40
0.0
 40
0.2499999999999969
 40
0.2499999999999969
 40
0.3749999999999952
 40
0.3749999999999952
 40
0.4374999999999933
 40
0.4374999999999933
 40
0.4999999999999913
 40
0.4999999999999913
 40
0.5312499999999901
 40
0.5312499999999901
 40
0.5624999999999888
 40
0.5624999999999888
 40
0.6249999999999903
 40
0.6249999999999903
 40
0.7499999999999936
 40
0.7499999999999936
 40
1.0
 40
1.0
 40
1.0
 40
1.0
 10
155.2214290877811
 20
148.3613347030789
 30
0.0
 10
155.2056624994827
 20
148.3471137320906
 30
0.0
 10
155.1890509665281
 20
148.3328834417558
 30
0.0
 10
155.1605246185701
 20
148.3140863865343
 30
0.0
 10
155.1504391847801
 20
148.308197966193
 30
0.0
 10
155.1329564142452
 20
148.3016605713907
 30
0.0
 10
155.1267487577996
 20
148.2998493573895
 30
0.0
 10
155.1124772575545
 20
148.298243554883
 30
0.0
 10
155.1049071870514
 20
148.2976907774969
 30
0.0
 10
155.0875108576161
 20
148.3048895222097
 30
0.0
 10
155.0790515846561
 20
148.3099812709574
 30
0.0
 10
155.0629906201085
 20
148.3277962034365
 30
0.0
 10
155.0581573842622
 20
148.3363186182989
 30
0.0
 10
155.0467314645269
 20
148.3582150549477
 30
0.0
 10
155.0427101086445
 20
148.3699555777536
 30
0.0
 10
155.0319496136134
 20
148.4040058417069
 30
0.0
 10
155.0280753045525
 20
148.4235808307357
 30
0.0
 10
155.0189024324253
 20
148.4794291394168
 30
0.0
 10
155.0168700617106
 20
148.5122069004457
 30
0.0
 10
155.0164690657207
 20
148.5424865602336
 30
0.0
  0
LINE
  5
13B
330
1F
100
AcDbEntity
  8
0
  6
HIDDEN
 62
     7
370
    18
100
AcDbLine
 10
134.2164690657
 20
148.1197805578
 30
0.0
 11
134.2164690657
 21
144.2798610917
 31
0.0
  0
LINE
  5
13C
330
1F
100
AcDbEntity
  8
0
  6
HIDDEN
 62
     7
370
    18
100
AcDbLine
 10
132.7164690657
 20
147.253755154
 30
0.0
 11
132.7164690657
 21
143.8468483898
 31
0.0
  0
SPLINE
  5
13D
330
1F
100
AcDbEntity
  8
0
  6
HIDDEN
 62
     7
370
    18
100
AcDbSpline
210
0.0
220
0.0
230
1.0
 70
     8
 71
     3
 72
     8
 73
     4
 74
     0
 42
0.000000001
 43
0.00000001
 40
0.0
 40
0.0
 40
0.0
 40
0.0
 40
1.0
 40
1.0
 40
1.0
 40
1.0
 10
155.3951487221611
 20
148.447314179924
 30
0.0
 10
155.330043560547
 20
148.4355931502654
 30
0.0
 10
155.272156230987
 20
148.4070890044027
 30
0.0
 10
155.221429087781
 20
148.3613347030789
 30
0.0
  0
LINE
  5
13E
330
1F
100
AcDbEntity
  8
0
  6
HIDDEN
 62
     7
370
    18
100
AcDbLine
 10
155.0164690657
 20
145.5962881642
 30
0.0
 11
155.0164690657
 21
144.541145291
 31
0.0
  0
SPLINE
  5
13F
330
1F
100
AcDbEntity
  8
0
  6
HIDDEN
 62
     7
370
    18
100
AcDbSpline
210
0.0
220
0.0
230
1.0
 70
     8
 71
     3
 72
    16
 73
    12
 74
     0
 42
0.000000001
 43
0.00000001
 40
0.0
 40
0.0
 40
0.0
 40
0.0
 40
0.2500000000000001
 40
0.2500000000000001
 40
0.3749999999999999
 40
0.3749999999999999
 40
0.4999999999999999
 40
0.4999999999999999
 40
0.7499999999999999
 40
0.7499999999999999
 40
1.0
 40
1.0
 40
1.0
 40
1.0
 10
155.0164690657205
 20
148.5424865602338
 30
0.0
 10
154.9359317338213
 20
148.4624178740814
 30
0.0
 10
154.8758943897939
 20
148.3385533825911
 30
0.0
 10
154.8151566826403
 20
148.087872558659
 30
0.0
 10
154.7998343075274
 20
147.9934339543495
 30
0.0
 10
154.7792514982232
 20
147.7821228867308
 30
0.0
 10
154.7740519011975
 20
147.6648334319772
 30
0.0
 10
154.7739982480174
 20
147.286797760222
 30
0.0
 10
154.7941957914951
 20
146.9980206064779
 30
0.0
 10
154.8748738798531
 20
146.3481807433391
 30
0.0
 10
154.9359200444605
 20
145.9853518094464
 30
0.0
 10
155.0164690657186
 20
145.5962881641747
 30
0.0
  0
SPLINE
  5
140
330
1F
100
AcDbEntity
  8
0
  6
HIDDEN
 62
     7
370
    18
100
AcDbSpline
210
0.0
220
0.0
230
1.0
 70
     8
 71
     3
 72
     8
 73
     4
 74
     0
 42
0.000000001
 43
0.00000001
 40
0.0
 40
0.0
 40
0.0
 40
0.0
 40
1.0
 40
1.0
 40
1.0
 40
1.0
 10
155.2214290877784
 20
120.8831656407613
 30
0.0
 10
155.272156230985
 20
120.8374113394361
 30
0.0
 10
155.3300435605459
 20
120.8089071935725
 30
0.0
 10
155.3951487221611
 20
120.7971861639137
 30
0.0
  0
LINE
  5
141
330
1F
100
AcDbEntity
  8
0
  6
HIDDEN
 62
     7
370
    18
100
AcDbLine
 10
155.0164690657
 20
120.7020137836
 30
0.0
 11
155.0164690657
 21
120.6021513874
 31
0.0
  0
SPLINE
  5
142
330
1F
100
AcDbEntity
  8
0
  6
HIDDEN
 62
     7
370
    18
100
AcDbSpline
210
0.0
220
0.0
230
1.0
 70
     8
 71
     3
 72
    24
 73
    20
 74
     0
 42
0.000000001
 43
0.00000001
 40
0.0
 40
0.0
 40
0.0
 40
0.0
 40
0.2500000000000022
 40
0.2500000000000022
 40
0.3750000000000043
 40
0.3750000000000043
 40
0.4375000000000052
 40
0.4375000000000052
 40
0.4687500000000048
 40
0.4687500000000048
 40
0.5000000000000046
 40
0.5000000000000046
 40
0.5625000000000048
 40
0.5625000000000048
 40
0.625000000000005
 40
0.625000000000005
 40
0.7500000000000033
 40
0.7500000000000033
 40
1.0
 40
1.0
 40
1.0
 40
1.0
 10
155.0164690657206
 20
120.7020137836037
 30
0.0
 10
155.016871976356
 20
120.7324380204419
 30
0.0
 10
155.0189159556963
 20
120.7652961209964
 30
0.0
 10
155.0281531985217
 20
120.8213214881503
 30
0.0
 10
155.0320402615021
 20
120.8409325413358
 30
0.0
 10
155.0429441529077
 20
120.8752068247649
 30
0.0
 10
155.047086198658
 20
120.8872692502372
 30
0.0
 10
155.0589812724082
 20
120.909588414935
 30
0.0
 10
155.0642283367152
 20
120.918554927294
 30
0.0
 10
155.0810954030908
 20
120.9362044918221
 30
0.0
 10
155.08891781062
 20
120.940348775967
 30
0.0
 10
155.1058666112445
 20
120.9468363171444
 30
0.0
 10
155.1133229624627
 20
120.9462394357727
 30
0.0
 10
155.1273828656559
 20
120.9444931718013
 30
0.0
 10
155.1335152507922
 20
120.9426624839029
 30
0.0
 10
155.150810013316
 20
120.9360960743302
 30
0.0
 10
155.1608273317252
 20
120.9302308591714
 30
0.0
 10
155.1891986659688
 20
120.9114861751408
 30
0.0
 10
155.2057341036135
 20
120.8973220270538
 30
0.0
 10
155.2214290877784
 20
120.8831656407613
 30
0.0
  0
LINE
  5
143
330
1F
100
AcDbEntity
  8
0
  6
HIDDEN
 62
     7
370
    18
100
AcDbLine
 10
155.0164690657
 20
124.7033550528
 30
0.0
 11
155.0164690657
 21
123.6482121797
 31
0.0
  0
LINE
  5
144
330
1F
100
AcDbEntity
  8
0
  6
HIDDEN
 62
     7
370
    18
100
AcDbLine
 10
134.2164690657
 20
124.9646392522
 30
0.0
 11
134.2164690657
 21
121.1247197861
 31
0.0
  0
SPLINE
  5
145
330
1F
100
AcDbEntity
  8
0
  6
HIDDEN
 62
     7
370
    18
100
AcDbSpline
210
0.0
220
0.0
230
1.0
 70
     8
 71
     3
 72
    16
 73
    12
 74
     0
 42
0.000000001
 43
0.00000001
 40
0.0
 40
0.0
 40
0.0
 40
0.0
 40
0.2499999999999996
 40
0.2499999999999996
 40
0.3749999999999996
 40
0.3749999999999996
 40
0.4999999999999997
 40
0.4999999999999997
 40
0.7499999999999998
 40
0.7499999999999998
 40
1.0
 40
1.0
 40
1.0
 40
1.0
 10
155.0164690657205
 20
123.6482121796724
 30
0.0
 10
154.9359317338211
 20
123.2592049957269
 30
0.0
 10
154.8758943897936
 20
122.9027045541012
 30
0.0
 10
154.81515668264
 20
122.4162021689124
 30
0.0
 10
154.7998343075271
 20
122.2621232280585
 30
0.0
 10
154.779251498223
 20
121.9706536695651
 30
0.0
 10
154.7740519011974
 20
121.833083785666
 30
0.0
 10
154.7739982480176
 20
121.4548389504763
 30
0.0
 10
154.7941957914956
 20
121.2449578819242
 30
0.0
 10
154.8748738798542
 20
120.908378583013
 30
0.0
 10
154.9359200444621
 20
120.7820940910952
 30
0.0
 10
155.0164690657207
 20
120.7020137836038
 30
0.0
  0
LINE
  5
146
330
1F
100
AcDbEntity
  8
0
  6
HIDDEN
 62
     7
370
    18
100
AcDbLine
 10
132.7164690657
 20
125.3976519541
 30
0.0
 11
132.7164690657
 21
121.9907451899
 31
0.0
  0
LINE
  5
147
330
1F
100
AcDbEntity
  8
0
  6
HIDDEN
 62
     7
370
    18
100
AcDbLine
 10
132.7164690657
 20
143.8468483898
 30
0.0
 11
132.7164690657
 21
136.4724639856
 31
0.0
  0
LINE
  5
148
330
1F
100
AcDbEntity
  8
0
  6
HIDDEN
 62
     7
370
    18
100
AcDbLine
 10
132.7164690657
 20
132.7720363583
 30
0.0
 11
132.7164690657
 21
125.3976519541
 31
0.0
  0
SPLINE
  5
149
330
1F
100
AcDbEntity
  8
0
  6
HIDDEN
 62
     7
370
    18
100
AcDbSpline
210
0.0
220
0.0
230
1.0
 70
     8
 71
     3
 72
    24
 73
    20
 74
     0
 42
0.000000001
 43
0.00000001
 40
0.0
 40
0.0
 40
0.0
 40
0.0
 40
0.2499999999999948
 40
0.2499999999999948
 40
0.374999999999994
 40
0.374999999999994
 40
0.4374999999999941
 40
0.4374999999999941
 40
0.4999999999999941
 40
0.4999999999999941
 40
0.5312499999999941
 40
0.5312499999999941
 40
0.5624999999999941
 40
0.5624999999999941
 40
0.6249999999999956
 40
0.6249999999999956
 40
0.7499999999999982
 40
0.7499999999999982
 40
1.0
 40
1.0
 40
1.0
 40
1.0
 10
155.2214290877811
 20
123.8296564451206
 30
0.0
 10
155.2056602104236
 20
123.755797753191
 30
0.0
 10
155.1890462285736
 20
123.6820863644553
 30
0.0
 10
155.1605145625686
 20
123.5705395408332
 30
0.0
 10
155.1504271477498
 20
123.5331679677047
 30
0.0
 10
155.1329395872955
 20
123.476268470067
 30
0.0
 10
155.1267300255123
 20
123.4571653699217
 30
0.0
 10
155.1124524718597
 20
123.4182918556862
 30
0.0
 10
155.1048809240642
 20
123.3983671962528
 30
0.0
 10
155.0874633403859
 20
123.3682949782254
 30
0.0
 10
155.0789808437409
 20
123.3566135994223
 30
0.0
 10
155.0629425318691
 20
123.3493520886737
 30
0.0
 10
155.0581219836656
 20
123.3529303356835
 30
0.0
 10
155.0467127591176
 20
123.3646911909151
 30
0.0
 10
155.0426922786601
 20
123.3763568409657
 30
0.0
 10
155.0319384238398
 20
123.4128921710793
 30
0.0
 10
155.0280657425577
 20
123.4402879044028
 30
0.0
 10
155.01889759272
 20
123.5250138961588
 30
0.0
 10
155.0168690873509
 20
123.5858460183309
 30
0.0
 10
155.0164690657207
 20
123.6482121796725
 30
0.0
  0
SPLINE
  5
14A
330
1F
100
AcDbEntity
  8
0
  6
HIDDEN
 62
     7
370
    18
100
AcDbSpline
210
0.0
220
0.0
230
1.0
 70
     8
 71
     3
 72
    24
 73
    20
 74
     0
 42
0.000000001
 43
0.00000001
 40
0.0
 40
0.0
 40
0.0
 40
0.0
 40
0.2499999999999951
 40
0.2499999999999951
 40
0.3749999999999922
 40
0.3749999999999922
 40
0.4374999999999908
 40
0.4374999999999908
 40
0.4687499999999921
 40
0.4687499999999921
 40
0.4999999999999933
 40
0.4999999999999933
 40
0.5624999999999932
 40
0.5624999999999932
 40
0.6249999999999931
 40
0.6249999999999931
 40
0.7499999999999953
 40
0.7499999999999953
 40
1.0
 40
1.0
 40
1.0
 40
1.0
 10
155.0164690657171
 20
145.5962881641761
 30
0.0
 10
155.0168737352929
 20
145.6593789726687
 30
0.0
 10
155.0189171821073
 20
145.7205646951711
 30
0.0
 10
155.0283167473615
 20
145.8060644276727
 30
0.0
 10
155.0322676408903
 20
145.8336448111139
 30
0.0
 10
155.0434199491872
 20
145.8700988932254
 30
0.0
 10
155.0476414901137
 20
145.8819573149199
 30
0.0
 10
155.0598492116772
 20
145.8925773662953
 30
0.0
 10
155.0656399819292
 20
145.8954107335177
 30
0.0
 10
155.0825614950391
 20
145.8840961465199
 30
0.0
 10
155.089967610989
 20
145.8723152607661
 30
0.0
 10
155.1064248642323
 20
145.8422744195363
 30
0.0
 10
155.1138813821432
 20
145.8225614659232
 30
0.0
 10
155.1277893114179
 20
145.7841593998631
 30
0.0
 10
155.1338812573129
 20
145.7652777499517
 30
0.0
 10
155.1510755496639
 20
145.7089768394201
 30
0.0
 10
155.1610604998675
 20
145.6719007616104
 30
0.0
 10
155.1893065449665
 20
145.5612420907204
 30
0.0
 10
155.2057860819276
 20
145.4881130303119
 30
0.0
 10
155.2214290877873
 20
145.4148438986879
 30
0.0
  0
SPLINE
  5
14B
330
1F
100
AcDbEntity
  8
0
  6
HIDDEN
 62
     7
370
    18
100
AcDbSpline
210
0.0
220
0.0
230
1.0
 70
     8
 71
     3
 72
     8
 73
     4
 74
     0
 42
0.000000001
 43
0.00000001
 40
0.0
 40
0.0
 40
0.0
 40
0.0
 40
1.0
 40
1.0
 40
1.0
 40
1.0
 10
155.3951487221611
 20
124.5687308543121
 30
0.0
 10
155.330043560547
 20
124.3137056191065
 30
0.0
 10
155.272156230987
 20
124.0672536029652
 30
0.0
 10
155.221429087781
 20
123.8296564451206
 30
0.0
  0
SPLINE
  5
14C
330
1F
100
AcDbEntity
  8
0
  6
HIDDEN
 62
     7
370
    18
100
AcDbSpline
210
0.0
220
0.0
230
1.0
 70
     8
 71
     3
 72
     8
 73
     4
 74
     0
 42
0.000000001
 43
0.00000001
 40
0.0
 40
0.0
 40
0.0
 40
0.0
 40
1.0
 40
1.0
 40
1.0
 40
1.0
 10
155.2214290877872
 20
145.414843898688
 30
0.0
 10
155.2721562309918
 20
145.1772467408524
 30
0.0
 10
155.3300435605497
 20
144.9307947247209
 30
0.0
 10
155.3951487221611
 20
144.6757694895257
 30
0.0
  0
LINE
  5
14D
330
1F
100
AcDbEntity
  8
0
  6
HIDDEN
 62
     7
370
    18
100
AcDbLine
 10
134.2164690657
 20
132.0672219349
 30
0.0
 11
134.2164690657
 21
124.9646392522
 31
0.0
  0
LINE
  5
14E
330
1F
100
AcDbEntity
  8
0
  6
HIDDEN
 62
     7
370
    18
100
AcDbLine
 10
134.2164690657
 20
144.2798610917
 30
0.0
 11
134.2164690657
 21
137.177278409
 31
0.0
  0
LINE
  5
14F
330
1F
100
AcDbEntity
  8
0
  6
HIDDEN
 62
     7
370
    18
100
AcDbLine
 10
155.0164690657
 20
144.541145291
 30
0.0
 11
155.0164690657
 21
124.7033550528
 31
0.0
  0
LINE
  5
150
330
1F
100
AcDbEntity
  8
0
  6
HIDDEN
 62
     7
370
    18
100
AcDbLine
 10
156.5164690657
 20
143.1016173116
 30
0.0
 11
156.5164690657
 21
126.1428830322
 31
0.0
  0
SPLINE
  5
151
330
1F
100
AcDbEntity
  8
0
  6
HIDDEN
 62
     7
370
    18
100
AcDbSpline
210
0.0
220
0.0
230
1.0
 70
     8
 71
     3
 72
     8
 73
     4
 74
     0
 42
0.000000001
 43
0.00000001
 40
0.0000137051794235
 40
0.0000137051794235
 40
0.0000137051794235
 40
0.0000137051794235
 40
0.0027147144718019
 40
0.0027147144718019
 40
0.0027147144718019
 40
0.0027147144718019
 10
134.2164690657207
 20
132.0672219348571
 30
0.0
 10
135.1164652012154
 20
132.0542503676588
 30
0.0
 10
136.0164653798109
 20
132.0416155103467
 30
0.0
 10
136.9164690657207
 20
132.0293054920909
 30
0.0
  0
SPLINE
  5
152
330
1F
100
AcDbEntity
  8
0
  6
HIDDEN
 62
     7
370
    18
100
AcDbSpline
210
0.0
220
0.0
230
1.0
 70
     8
 71
     3
 72
     8
 73
     4
 74
     0
 42
0.000000001
 43
0.00000001
 40
0.0000137050638847
 40
0.0000137050638847
 40
0.0000137050638847
 40
0.0000137050638847
 40
0.0027147143562631
 40
0.0027147143562631
 40
0.0027147143562631
 40
0.0027147143562631
 10
136.9164690657207
 20
137.2151948517468
 30
0.0
 10
136.0164653798109
 20
137.2028848334911
 30
0.0
 10
135.1164652012154
 20
137.190249976179
 30
0.0
 10
134.2164690657207
 20
137.1772784089806
 30
0.0
  0
SPLINE
  5
153
330
1F
100
AcDbEntity
  8
0
  6
HIDDEN
 62
     7
370
    18
100
AcDbSpline
210
0.0
220
0.0
230
1.0
 70
     8
 71
     3
 72
    10
 73
     6
 74
     0
 42
0.000000001
 43
0.00000001
 40
0.0
 40
0.0
 40
0.0
 40
0.0
 40
0.5
 40
0.5
 40
1.0
 40
1.0
 40
1.0
 40
1.0
 10
132.7164690657207
 20
132.7720363582682
 30
0.0
 10
132.9536110264364
 20
132.6164215437395
 30
0.0
 10
133.1989537851997
 20
132.4845125143203
 30
0.0
 10
133.7002173739325
 20
132.252855637683
 30
0.0
 10
133.9562519431827
 20
132.1534100215602
 30
0.0
 10
134.2164690657207
 20
132.0672219348571
 30
0.0
  0
SPLINE
  5
154
330
1F
100
AcDbEntity
  8
0
  6
HIDDEN
 62
     7
370
    18
100
AcDbSpline
210
0.0
220
0.0
230
1.0
 70
     8
 71
     3
 72
    10
 73
     6
 74
     0
 42
0.000000001
 43
0.00000001
 40
0.0
 40
0.0
 40
0.0
 40
0.0
 40
0.5
 40
0.5
 40
1.0
 40
1.0
 40
1.0
 40
1.0
 10
134.2164690657207
 20
137.1772784089806
 30
0.0
 10
133.9562519431827
 20
137.0910903222776
 30
0.0
 10
133.7002173739325
 20
136.9916447061548
 30
0.0
 10
133.1989537851997
 20
136.7599878295175
 30
0.0
 10
132.9536110264364
 20
136.6280788000983
 30
0.0
 10
132.7164690657207
 20
136.4724639855696
 30
0.0
  0
LINE
  5
155
330
1F
100
AcDbEntity
  8
0
  6
HIDDEN
 62
     7
370
    18
100
AcDbLine
 10
132.7164690657
 20
132.7720363583
 30
0.0
 11
132.7164690657
 21
136.4724639856
 31
0.0
  0
LINE
  5
156
330
1F
100
AcDbEntity
  8
0
  6
HIDDEN
 62
     7
370
    18
100
AcDbLine
 10
136.9164690657
 20
132.0293054921
 30
0.0
 11
136.9164690657
 21
137.2151948517
 31
0.0
  0
SPLINE
  5
157
330
1F
100
AcDbEntity
  8
0
  6
HIDDEN
 62
     7
370
    18
100
AcDbSpline
210
0.0
220
0.0
230
1.0
 70
     8
 71
     3
 72
    22
 73
    18
 74
     0
 42
0.000000001
 43
0.00000001
 40
0.0
 40
0.0
 40
0.0
 40
0.0
 40
0.125
 40
0.125
 40
0.25
 40
0.25
 40
0.3749999999999999
 40
0.3749999999999999
 40
0.4999999999999999
 40
0.4999999999999999
 40
0.6249999999999999
 40
0.6249999999999999
 40
0.7499999999999999
 40
0.7499999999999999
 40
0.875
 40
0.875
 40
1.0
 40
1.0
 40
1.0
 40
1.0
 10
136.9164690657207
 20
132.0293054920909
 30
0.0
 10
137.0974054237969
 20
132.2209253513975
 30
0.0
 10
137.2765008725737
 20
132.4145672157846
 30
0.0
 10
137.6273408610857
 20
132.8092224691689
 30
0.0
 10
137.7995339689904
 20
133.0102339998365
 30
0.0
 10
138.1252654746096
 20
133.4264451150702
 30
0.0
 10
138.281341709778
 20
133.6424609553569
 30
0.0
 10
138.5327209236671
 20
134.1077837185217
 30
0.0
 10
138.6265860539859
 20
134.3633229115445
 30
0.0
 10
138.6228581371238
 20
134.8976535466452
 30
0.0
 10
138.5254854946364
 20
135.1530744126459
 30
0.0
 10
138.2736646856425
 20
135.6131031285936
 30
0.0
 10
138.1186954301699
 20
135.8269401295221
 30
0.0
 10
137.7938826724446
 20
136.2409787122158
 30
0.0
 10
137.6229896083168
 20
136.4402711842517
 30
0.0
 10
137.2743553687891
 20
136.8322460766859
 30
0.0
 10
137.0963475182607
 20
137.0246953626753
 30
0.0
 10
136.9164690657207
 20
137.2151948517468
 30
0.0
  0
SPLINE
  5
158
330
1F
100
AcDbEntity
  8
0
  6
HIDDEN
 62
     7
370
    18
100
AcDbSpline
210
0.0
220
0.0
230
1.0
 70
    11
 71
     3
 72
    62
 73
    58
 74
     0
 42
0.000000001
 43
0.00000001
 40
0.0
 40
0.0
 40
0.0
 40
0.0
 40
0.0312499999999998
 40
0.0312499999999998
 40
0.0624999999999997
 40
0.0624999999999997
 40
0.0937499999999995
 40
0.0937499999999995
 40
0.1249999999999994
 40
0.1249999999999994
 40
0.1874999999999994
 40
0.1874999999999994
 40
0.2499999999999994
 40
0.2499999999999994
 40
0.2812499999999993
 40
0.2812499999999993
 40
0.3124999999999992
 40
0.3124999999999992
 40
0.3437499999999991
 40
0.3437499999999991
 40
0.3749999999999989
 40
0.3749999999999989
 40
0.4374999999999987
 40
0.4374999999999987
 40
0.4687499999999986
 40
0.4687499999999986
 40
0.4999999999999984
 40
0.4999999999999984
 40
0.5624999999999984
 40
0.5624999999999984
 40
0.5937499999999986
 40
0.5937499999999986
 40
0.6249999999999986
 40
0.6249999999999986
 40
0.6562499999999987
 40
0.6562499999999987
 40
0.6874999999999987
 40
0.6874999999999987
 40
0.7187499999999988
 40
0.7187499999999988
 40
0.7499999999999988
 40
0.7499999999999988
 40
0.7812499999999989
 40
0.7812499999999989
 40
0.812499999999999
 40
0.812499999999999
 40
0.8437499999999991
 40
0.8437499999999991
 40
0.8749999999999993
 40
0.8749999999999993
 40
0.9062499999999994
 40
0.9062499999999994
 40
0.9374999999999997
 40
0.9374999999999997
 40
0.9687499999999998
 40
0.9687499999999998
 40
1.0
 40
1.0
 40
1.0
 40
1.0
 10
143.2839913669431
 20
136.2349024815056
 30
0.0
 10
143.3977415402372
 20
136.3595757524359
 30
0.0
 10
143.5222040691547
 20
136.4711734298928
 30
0.0
 10
143.7912983353065
 20
136.6698242257112
 30
0.0
 10
143.9371114268957
 20
136.7571644704999
 30
0.0
 10
144.2382783051851
 20
136.9013602231421
 30
0.0
 10
144.3946140322495
 20
136.9591798936564
 30
0.0
 10
144.718737331584
 20
137.0464335057074
 30
0.0
 10
144.8854025432944
 20
137.0752355551892
 30
0.0
 10
145.3834188099263
 20
137.1160148604571
 30
0.0
 10
145.7240897587193
 20
137.0825716003158
 30
0.0
 10
146.3631006741408
 20
136.900118955857
 30
0.0
 10
146.6695552812046
 20
136.7486943955442
 30
0.0
 10
147.066111190467
 20
136.4481964899599
 30
0.0
 10
147.1904603813166
 20
136.3339353047645
 30
0.0
 10
147.4129244753657
 20
136.084275434192
 30
0.0
 10
147.510489813843
 20
135.9501088261929
 30
0.0
 10
147.6777454174817
 20
135.6626397316942
 30
0.0
 10
147.7478310730008
 20
135.5073728817943
 30
0.0
 10
147.8518864337224
 20
135.1903934617073
 30
0.0
 10
147.8868621963898
 20
135.0277407102028
 30
0.0
 10
147.9387267159138
 20
134.5268036900003
 30
0.0
 10
147.8994206081424
 20
134.18664908869
 30
0.0
 10
147.7367008156816
 20
133.7101544565928
 30
0.0
 10
147.6664203177953
 20
133.5590870967654
 30
0.0
 10
147.4950871726653
 20
133.2717925263245
 30
0.0
 10
147.3936949314836
 20
133.1359347480271
 30
0.0
 10
147.0570953442605
 20
132.7671263530289
 30
0.0
 10
146.7818625780958
 20
132.5647012436978
 30
0.0
 10
146.3320793507499
 20
132.347624517089
 30
0.0
 10
146.1732795522462
 20
132.2883222450148
 30
0.0
 10
145.8507178313666
 20
132.2003497272143
 30
0.0
 10
145.6868587193993
 20
132.171229963368
 30
0.0
 10
145.3540259460455
 20
132.1423733482578
 30
0.0
 10
145.1839736546046
 20
132.1429968714718
 30
0.0
 10
144.8516979905849
 20
132.1742533152762
 30
0.0
 10
144.6879833788362
 20
132.204572010328
 30
0.0
 10
144.3655178932618
 20
132.295289049331
 30
0.0
 10
144.2070067947353
 20
132.3560579580328
 30
0.0
 10
143.9084530885374
 20
132.5035686328298
 30
0.0
 10
143.7666269593354
 20
132.5907036606937
 30
0.0
 10
143.498705220777
 20
132.7932891272657
 30
0.0
 10
143.3746117903845
 20
132.9076272939079
 30
0.0
 10
143.1534776024663
 20
133.1558137318607
 30
0.0
 10
143.0550206003677
 20
133.2908463487145
 30
0.0
 10
142.8856620866327
 20
133.5828507467692
 30
0.0
 10
142.8174952489267
 20
133.7349864932048
 30
0.0
 10
142.7137612826003
 20
134.0513954416448
 30
0.0
 10
142.6780927207311
 20
134.2178919109991
 30
0.0
 10
142.6438789560786
 20
134.5511537871095
 30
0.0
 10
142.6447373589077
 20
134.7178162409315
 30
0.0
 10
142.6825341388573
 20
135.051204440149
 30
0.0
 10
142.7198768943113
 20
135.2169600126285
 30
0.0
 10
142.8271264773798
 20
135.5328513290912
 30
0.0
 10
142.8978876939189
 20
135.6861306621634
 30
0.0
 10
143.0700108440196
 20
135.9755077046498
 30
0.0
 10
143.170241193649
 20
136.1102292105753
 30
0.0
 10
143.2839913669431
 20
136.2349024815056
 30
0.0
  0
CIRCLE
  5
159
330
1F
100
AcDbEntity
  8
0
  6
HIDDEN
 62
     7
370
    18
100
AcDbCircle
 10
145.2164690657
 20
134.6222501719
 30
0.0
 40
2.300000000000011
  0
CIRCLE
  5
15A
330
1F
100
AcDbEntity
  8
0
  6
HIDDEN
 62
     7
370
    18
100
AcDbCircle
 10
168.7164690657
 20
134.6222501719
 30
0.0
 40
2.0
  0
LINE
  5
15B
330
1F
100
AcDbEntity
  8
0
  6
HIDDEN
 62
     7
370
    18
100
AcDbLine
 10
156.7164690657
 20
118.8222501719
 30
0.0
 11
156.8093622845
 21
118.9151433907
 31
0.0
  0
LINE
  5
15C
330
1F
100
AcDbEntity
  8
0
  6
HIDDEN
 62
     7
370
    18
100
AcDbLine
 10
156.8093622845
 20
150.3293569531
 30
0.0
 11
156.7164690657
 21
150.4222501719
 31
0.0
  0
ARC
  5
15D
330
1F
100
AcDbEntity
  8
0
  6
HIDDEN
 62
     7
370
    18
100
AcDbCircle
 10
156.1022555033
 20
119.6222501719
 30
0.0
 40
1.0
100
AcDbArc
 50
315.0
 51
0.0
  0
ARC
  5
15E
330
1F
100
AcDbEntity
  8
0
  6
HIDDEN
 62
     7
370
    18
100
AcDbCircle
 10
156.1022555033
 20
119.6222501719
 30
0.0
 40
1.0
100
AcDbArc
 50
0.0
 51
52.1052014664
  0
ARC
  5
15F
330
1F
100
AcDbEntity
  8
0
  6
HIDDEN
 62
     7
370
    18
100
AcDbCircle
 10
156.1022555033
 20
149.6222501719
 30
0.0
 40
0.999999999999988
100
AcDbArc
 50
351.8087250651
 51
45.0
  0
ARC
  5
160
330
1F
100
AcDbEntity
  8
0
  6
HIDDEN
 62
     7
370
    18
100
AcDbCircle
 10
156.1022555033
 20
149.6222501719
 30
0.0
 40
1.000000000000004
100
AcDbArc
 50
307.8947985336
 51
351.8087250651
  0
LINE
  5
161
330
1F
100
AcDbEntity
  8
0
  6
HIDDEN
 62
     7
370
    18
100
AcDbLine
 10
157.1022555033
 20
119.6222501719
 30
0.0
 11
157.1022555033
 21
149.6222501719
 31
0.0
  0
LINE
  5
162
330
1F
100
AcDbEntity
  8
0
  6
HIDDEN
 62
     7
370
    18
100
AcDbLine
 10
157.1022555033
 20
119.6222501719
 30
0.0
 11
157.1022555033
 21
149.6222501719
 31
0.0
  0
ARC
  5
163
330
1F
100
AcDbEntity
  8
0
  6
HIDDEN
 62
     7
370
    18
100
AcDbCircle
 10
232.5164690657
 20
120.9222501719
 30
0.0
 40
1.200000000000017
100
AcDbArc
 50
0.0
 51
90.0
  0
ARC
  5
164
330
1F
100
AcDbEntity
  8
0
  6
HIDDEN
 62
     7
370
    18
100
AcDbCircle
 10
232.5164690657
 20
148.3222501719
 30
0.0
 40
1.200000000000017
100
AcDbArc
 50
270.0
 51
0.0
  0
ARC
  5
165
330
1F
100
AcDbEntity
  8
0
  6
HIDDEN
 62
     7
370
    18
100
AcDbCircle
 10
175.1164690657
 20
122.2222501719
 30
0.0
 40
0.4000000000000057
100
AcDbArc
 50
180.0
 51
270.0
  0
ARC
  5
166
330
1F
100
AcDbEntity
  8
0
  6
HIDDEN
 62
     7
370
    18
100
AcDbCircle
 10
175.1164690657
 20
147.0222501719
 30
0.0
 40
0.4000000000000057
100
AcDbArc
 50
90.0
 51
180.0
  0
LINE
  5
167
330
1F
100
AcDbEntity
  8
0
  6
HIDDEN
 62
     7
370
    18
100
AcDbLine
 10
175.1164690657
 20
121.8222501719
 30
0.0
 11
179.8216950476
 21
121.8222501719
 31
0.0
  0
LINE
  5
168
330
1F
100
AcDbEntity
  8
0
  6
HIDDEN
 62
     7
370
    18
100
AcDbLine
 10
179.8216950476
 20
147.4222501719
 30
0.0
 11
175.1164690657
 21
147.4222501719
 31
0.0
  0
ARC
  5
169
330
1F
100
AcDbEntity
  8
0
  6
HIDDEN
 62
     7
370
    18
100
AcDbCircle
 10
179.8216950476
 20
122.2222501719
 30
0.0
 40
0.4000000000000057
100
AcDbArc
 50
270.0
 51
290.0
  0
ARC
  5
16A
330
1F
100
AcDbEntity
  8
0
  6
HIDDEN
 62
     7
370
    18
100
AcDbCircle
 10
179.8216950476
 20
147.0222501719
 30
0.0
 40
0.4000000000000111
100
AcDbArc
 50
70.0
 51
90.0
  0
LINE
  5
16B
330
1F
100
AcDbEntity
  8
0
  6
HIDDEN
 62
     7
370
    18
100
AcDbLine
 10
179.9585031049
 20
121.8463731236
 30
0.0
 11
180.7164690657
 21
122.1222501719
 31
0.0
  0
LINE
  5
16C
330
1F
100
AcDbEntity
  8
0
  6
HIDDEN
 62
     7
370
    18
100
AcDbLine
 10
180.7164690657
 20
147.1222501719
 30
0.0
 11
179.9585031049
 21
147.3981272202
 31
0.0
  0
LINE
  5
16D
330
1F
100
AcDbEntity
  8
0
  6
HIDDEN
 62
     7
370
    18
100
AcDbLine
 10
180.7164690657
 20
122.1222501719
 30
0.0
 11
232.5164690657
 21
122.1222501719
 31
0.0
  0
LINE
  5
16E
330
1F
100
AcDbEntity
  8
0
  6
HIDDEN
 62
     7
370
    18
100
AcDbLine
 10
232.5164690657
 20
147.1222501719
 30
0.0
 11
180.7164690657
 21
147.1222501719
 31
0.0
  0
LINE
  5
16F
330
1F
100
AcDbEntity
  8
0
  6
HIDDEN
 62
     7
370
    18
100
AcDbLine
 10
132.7164690657
 20
124.4665996476
 30
0.0
 11
133.7435010978
 21
125.0595568678
 31
0.0
  0
LINE
  5
170
330
1F
100
AcDbEntity
  8
0
  6
HIDDEN
 62
     7
370
    18
100
AcDbLine
 10
133.7435010978
 20
144.184943476
 30
0.0
 11
132.7164690657
 21
144.7779006962
 31
0.0
  0
ARC
  5
171
330
1F
100
AcDbEntity
  8
0
  6
HIDDEN
 62
     7
370
    18
100
AcDbCircle
 10
138.2164690657
 20
125.6222501719
 30
0.0
 40
1.0
100
AcDbArc
 50
193.3524261238
 51
270.0
  0
ARC
  5
172
330
1F
100
AcDbEntity
  8
0
  6
HIDDEN
 62
     7
370
    18
100
AcDbCircle
 10
138.2164690657
 20
143.6222501719
 30
0.0
 40
1.0
100
AcDbArc
 50
90.0
 51
166.6475738762
  0
LINE
  5
173
330
1F
100
AcDbEntity
  8
0
  6
HIDDEN
 62
     7
370
    18
100
AcDbLine
 10
138.2164690657
 20
124.6222501719
 30
0.0
 11
139.2292875354
 21
124.6222501719
 31
0.0
  0
LINE
  5
174
330
1F
100
AcDbEntity
  8
0
  6
HIDDEN
 62
     7
370
    18
100
AcDbLine
 10
139.2292875354
 20
144.6222501719
 30
0.0
 11
138.2164690657
 21
144.6222501719
 31
0.0
  0
ARC
  5
175
330
1F
100
AcDbEntity
  8
0
  6
HIDDEN
 62
     7
370
    18
100
AcDbCircle
 10
139.2292875354
 20
125.6222501719
 30
0.0
 40
1.0
100
AcDbArc
 50
270.0
 51
315.0
  0
ARC
  5
176
330
1F
100
AcDbEntity
  8
0
  6
HIDDEN
 62
     7
370
    18
100
AcDbCircle
 10
139.2292875354
 20
143.6222501719
 30
0.0
 40
1.000000000000008
100
AcDbArc
 50
45.0
 51
90.0
  0
LINE
  5
177
330
1F
100
AcDbEntity
  8
0
  6
HIDDEN
 62
     7
370
    18
100
AcDbLine
 10
139.9363943166
 20
124.9151433907
 30
0.0
 11
140.6435010978
 21
125.6222501719
 31
0.0
  0
LINE
  5
178
330
1F
100
AcDbEntity
  8
0
  6
HIDDEN
 62
     7
370
    18
100
AcDbLine
 10
140.6435010978
 20
143.6222501719
 30
0.0
 11
139.9363943166
 21
144.3293569531
 31
0.0
  0
LINE
  5
179
330
1F
100
AcDbEntity
  8
0
  6
HIDDEN
 62
     7
370
    18
100
AcDbLine
 10
133.7435010978
 20
125.0595568678
 30
0.0
 11
135.8435010978
 21
125.6222501719
 31
0.0
  0
LINE
  5
17A
330
1F
100
AcDbEntity
  8
0
  6
HIDDEN
 62
     7
370
    18
100
AcDbLine
 10
135.8435010978
 20
143.6222501719
 30
0.0
 11
133.7435010978
 21
144.184943476
 31
0.0
  0
LINE
  5
17B
330
1F
100
AcDbEntity
  8
0
  6
HIDDEN
 62
     7
370
    18
100
AcDbLine
 10
137.2435010978
 20
143.8531902796
 30
0.0
 11
136.8435010978
 21
143.6222501719
 31
0.0
  0
LINE
  5
17C
330
1F
100
AcDbEntity
  8
0
  6
HIDDEN
 62
     7
370
    18
100
AcDbLine
 10
136.8435010978
 20
125.6222501719
 30
0.0
 11
137.2435010978
 21
125.3913100642
 31
0.0
  0
ARC
  5
17D
330
1F
100
AcDbEntity
  8
0
  6
HIDDEN
 62
     7
370
    18
100
AcDbCircle
 10
147.2164690657
 20
126.1222501719
 30
0.0
 40
0.5
100
AcDbArc
 50
270.0
 51
0.0
  0
ARC
  5
17E
330
1F
100
AcDbEntity
  8
0
  6
HIDDEN
 62
     7
370
    18
100
AcDbCircle
 10
147.2164690657
 20
143.1222501719
 30
0.0
 40
0.5
100
AcDbArc
 50
0.0
 51
90.0
  0
LINE
  5
17F
330
1F
100
AcDbEntity
  8
0
  6
HIDDEN
 62
     7
370
    18
100
AcDbLine
 10
140.6435010978
 20
125.6222501719
 30
0.0
 11
147.2164690657
 21
125.6222501719
 31
0.0
  0
LINE
  5
180
330
1F
100
AcDbEntity
  8
0
  6
HIDDEN
 62
     7
370
    18
100
AcDbLine
 10
147.2164690657
 20
143.6222501719
 30
0.0
 11
140.6435010978
 21
143.6222501719
 31
0.0
  0
LINE
  5
181
330
1F
100
AcDbEntity
  8
0
  6
HIDDEN
 62
     7
370
    18
100
AcDbLine
 10
135.8435010978
 20
125.6222501719
 30
0.0
 11
136.8435010978
 21
125.6222501719
 31
0.0
  0
LINE
  5
182
330
1F
100
AcDbEntity
  8
0
  6
HIDDEN
 62
     7
370
    18
100
AcDbLine
 10
136.8435010978
 20
143.6222501719
 30
0.0
 11
135.8435010978
 21
143.6222501719
 31
0.0
  0
LINE
  5
183
330
1F
100
AcDbEntity
  8
0
  6
HIDDEN
 62
     7
370
    18
100
AcDbLine
 10
147.7164690657
 20
127.4722501719
 30
0.0
 11
148.6164690657
 21
128.3722501719
 31
0.0
  0
LINE
  5
184
330
1F
100
AcDbEntity
  8
0
  6
HIDDEN
 62
     7
370
    18
100
AcDbLine
 10
148.6164690657
 20
140.8722501719
 30
0.0
 11
147.7164690657
 21
141.7722501719
 31
0.0
  0
LINE
  5
185
330
1F
100
AcDbEntity
  8
0
  6
HIDDEN
 62
     7
370
    18
100
AcDbLine
 10
148.6164690657
 20
128.3722501719
 30
0.0
 11
174.7164690657
 21
128.3722501719
 31
0.0
  0
LINE
  5
186
330
1F
100
AcDbEntity
  8
0
  6
HIDDEN
 62
     7
370
    18
100
AcDbLine
 10
174.7164690657
 20
140.8722501719
 30
0.0
 11
148.6164690657
 21
140.8722501719
 31
0.0
  0
LINE
  5
187
330
1F
100
AcDbEntity
  8
0
  6
HIDDEN
 62
     7
370
    18
100
AcDbLine
 10
179.3145452771
 20
157.1222501719
 30
0.0
 11
179.3145452771
 21
112.1222501719
 31
0.0
  0
LINE
  5
188
330
1F
100
AcDbEntity
  8
0
  6
HIDDEN
 62
     7
370
    18
100
AcDbLine
 10
178.4485198733
 20
156.6222501719
 30
0.0
 11
178.4485198733
 21
112.6222501719
 31
0.0
  0
LINE
  5
189
330
1F
100
AcDbEntity
  8
0
  6
HIDDEN
 62
     7
370
    18
100
AcDbLine
 10
177.5824944695
 20
155.1222501719
 30
0.0
 11
177.5824944695
 21
114.1222501719
 31
0.0
  0
LINE
  5
18A
330
1F
100
AcDbEntity
  8
0
  6
HIDDEN
 62
     7
370
    18
100
AcDbLine
 10
176.7164690657
 20
154.6222501719
 30
0.0
 11
176.7164690657
 21
114.6222501719
 31
0.0
  0
LINE
  5
18B
330
1F
100
AcDbEntity
  8
0
  6
HIDDEN
 62
     7
370
    18
100
AcDbLine
 10
157.0164690657
 20
154.6222501719
 30
0.0
 11
157.0164690657
 21
114.6222501719
 31
0.0
  0
LINE
  5
18C
330
1F
100
AcDbEntity
  8
0
  6
HIDDEN
 62
     7
370
    18
100
AcDbLine
 10
156.8093622845
 20
118.9151433907
 30
0.0
 11
156.8093622845
 21
150.3293569531
 31
0.0
  0
LINE
  5
18D
330
1F
100
AcDbEntity
  8
0
  6
HIDDEN
 62
     7
370
    18
100
AcDbLine
 10
155.3951487222
 20
124.5687308543
 30
0.0
 11
155.3951487222
 21
120.7971861639
 31
0.0
  0
LINE
  5
18E
330
1F
100
AcDbEntity
  8
0
  6
HIDDEN
 62
     7
370
    18
100
AcDbLine
 10
155.3951487222
 20
148.4473141799
 30
0.0
 11
155.3951487222
 21
144.6757694895
 31
0.0
  0
LINE
  5
18F
330
1F
100
AcDbEntity
  8
0
  6
HIDDEN
 62
     7
370
    18
100
AcDbLine
 10
232.5164690657
 20
122.1222501719
 30
0.0
 11
232.5164690657
 21
147.1222501719
 31
0.0
  0
LINE
  5
190
330
1F
100
AcDbEntity
  8
0
  6
HIDDEN
 62
     7
370
    18
100
AcDbLine
 10
175.1164690657
 20
121.8222501719
 30
0.0
 11
175.1164690657
 21
147.4073026754
 31
0.0
  0
LINE
  5
191
330
1F
100
AcDbEntity
  8
0
  6
HIDDEN
 62
     7
370
    18
100
AcDbLine
 10
179.8216950476
 20
121.8222501719
 30
0.0
 11
179.8216950476
 21
147.4073026754
 31
0.0
  0
LINE
  5
192
330
1F
100
AcDbEntity
  8
0
  6
HIDDEN
 62
     7
370
    18
100
AcDbLine
 10
179.9585031049
 20
121.8463731236
 30
0.0
 11
179.9585031049
 21
147.3981272202
 31
0.0
  0
LINE
  5
193
330
1F
100
AcDbEntity
  8
0
  6
HIDDEN
 62
     7
370
    18
100
AcDbLine
 10
138.2164690657
 20
124.6222501719
 30
0.0
 11
138.2164690657
 21
144.6070653363
 31
0.0
  0
LINE
  5
194
330
1F
100
AcDbEntity
  8
0
  6
HIDDEN
 62
     7
370
    18
100
AcDbLine
 10
139.2292875354
 20
124.6222501719
 30
0.0
 11
139.2292875354
 21
144.6070653363
 31
0.0
  0
LINE
  5
195
330
1F
100
AcDbEntity
  8
0
  6
HIDDEN
 62
     7
370
    18
100
AcDbLine
 10
139.9363943166
 20
124.9151433907
 30
0.0
 11
139.9363943166
 21
144.3293569531
 31
0.0
  0
LINE
  5
196
330
1F
100
AcDbEntity
  8
0
  6
HIDDEN
 62
     7
370
    18
100
AcDbLine
 10
147.2164690657
 20
135.7580318411
 30
0.0
 11
147.2164690657
 21
143.6072359422
 31
0.0
  0
LINE
  5
197
330
1F
100
AcDbEntity
  8
0
  6
HIDDEN
 62
     7
370
    18
100
AcDbLine
 10
147.2164690657
 20
133.4864685028
 30
0.0
 11
147.2164690657
 21
125.6372644017
 31
0.0
  0
LINE
  5
198
330
1F
100
AcDbEntity
  8
0
  6
HIDDEN
 62
     7
370
    18
100
AcDbLine
 10
155.2214290878
 20
148.4474351567
 30
0.0
 11
155.2214290878
 21
148.3613347031
 31
0.0
  0
LINE
  5
199
330
1F
100
AcDbEntity
  8
0
  6
HIDDEN
 62
     7
370
    18
100
AcDbLine
 10
132.7164690657
 20
143.8468483898
 30
0.0
 11
134.2164690657
 21
144.2798610917
 31
0.0
  0
LINE
  5
19A
330
1F
100
AcDbEntity
  8
0
  6
HIDDEN
 62
     7
370
    18
100
AcDbLine
 10
134.2164690657
 20
144.2798610917
 30
0.0
 11
155.0164690657
 21
144.541145291
 31
0.0
  0
LINE
  5
19B
330
1F
100
AcDbEntity
  8
0
  6
HIDDEN
 62
     7
370
    18
100
AcDbLine
 10
155.2214290878
 20
120.8831656408
 30
0.0
 11
155.2214290878
 21
120.7970651872
 31
0.0
  0
LINE
  5
19C
330
1F
100
AcDbEntity
  8
0
  6
HIDDEN
 62
     7
370
    18
100
AcDbLine
 10
134.2164690657
 20
124.9646392522
 30
0.0
 11
155.0164690657
 21
124.7033550528
 31
0.0
  0
LINE
  5
19D
330
1F
100
AcDbEntity
  8
0
  6
HIDDEN
 62
     7
370
    18
100
AcDbLine
 10
132.7164690657
 20
125.3976519541
 30
0.0
 11
134.2164690657
 21
124.9646392522
 31
0.0
  0
LINE
  5
19E
330
1F
100
AcDbEntity
  8
0
  6
HIDDEN
 62
     7
370
    18
100
AcDbLine
 10
165.7845670637
 20
115.4905937917
 30
0.0
 11
165.7845670637
 21
128.7930371763
 31
0.0
  0
LINE
  5
19F
330
1F
100
AcDbEntity
  8
0
  6
HIDDEN
 62
     7
370
    18
100
AcDbLine
 10
163.6483710677
 20
115.4905937917
 30
0.0
 11
163.6483710677
 21
128.7930371763
 31
0.0
  0
LINE
  5
1A0
330
1F
100
AcDbEntity
  8
0
  6
HIDDEN
 62
     7
370
    18
100
AcDbLine
 10
163.6483710677
 20
140.4514631676
 30
0.0
 11
163.6483710677
 21
153.7539065522
 31
0.0
  0
LINE
  5
1A1
330
1F
100
AcDbEntity
  8
0
  6
HIDDEN
 62
     7
370
    18
100
AcDbLine
 10
165.7845670637
 20
140.4514631676
 30
0.0
 11
165.7845670637
 21
153.7539065522
 31
0.0
  0
LINE
  5
1A2
330
1F
100
AcDbEntity
  8
0
  6
HIDDEN
 62
     7
370
    18
100
AcDbLine
 10
166.0443746849
 20
115.5874938887
 30
0.0
 11
166.0443746849
 21
128.4840050449
 31
0.0
  0
LINE
  5
1A3
330
1F
100
AcDbEntity
  8
0
  6
HIDDEN
 62
     7
370
    18
100
AcDbLine
 10
163.3885634466
 20
115.5874938887
 30
0.0
 11
163.3885634466
 21
128.4840050449
 31
0.0
  0
LINE
  5
1A4
330
1F
100
AcDbEntity
  8
0
  6
HIDDEN
 62
     7
370
    18
100
AcDbLine
 10
163.3885634466
 20
140.760495299
 30
0.0
 11
163.3885634466
 21
153.6570064551
 31
0.0
  0
LINE
  5
1A5
330
1F
100
AcDbEntity
  8
0
  6
HIDDEN
 62
     7
370
    18
100
AcDbLine
 10
166.0443746849
 20
140.760495299
 30
0.0
 11
166.0443746849
 21
153.6570064551
 31
0.0
  0
LINE
  5
1A6
330
1F
100
AcDbEntity
  8
0
  6
HIDDEN
 62
     7
370
    18
100
AcDbLine
 10
155.2214290878
 20
124.8008119527
 30
0.0
 11
155.2214290878
 21
123.8296564451
 31
0.0
  0
LWPOLYLINE
  5
1A7
330
1F
100
AcDbEntity
  8
0
  6
HIDDEN
 62
     7
370
    18
100
AcDbPolyline
 90
        9
 70
   128
 43
0.0
 10
155.0164690657
 20
124.7033550528
 10
155.0212907578
 20
124.7228096722
 10
155.0336106183
 20
124.7414201437
 10
155.0529552019
 20
124.7584712775
 10
155.0785811071
 20
124.773307808
 10
155.1095035447
 20
124.7853595757
 10
155.1445341829
 20
124.7941634379
 10
155.1823268138
 20
124.7993810671
 10
155.2214290878
 20
124.8008119527
  0
LWPOLYLINE
  5
1A8
330
1F
100
AcDbEntity
  8
0
  6
HIDDEN
 62
     7
370
    18
100
AcDbPolyline
 90
        9
 70
   128
 43
0.0
 10
155.0164690657
 20
144.541145291
 10
155.0212907578
 20
144.5216906717
 10
155.0336106183
 20
144.5030802001
 10
155.0529552019
 20
144.4860290663
 10
155.0785811071
 20
144.4711925358
 10
155.1095035447
 20
144.4591407682
 10
155.1445341829
 20
144.450336906
 10
155.1823268138
 20
144.4451192768
 10
155.2214290878
 20
144.4436883911
  0
LINE
  5
1A9
330
1F
100
AcDbEntity
  8
0
  6
HIDDEN
 62
     7
370
    18
100
AcDbLine
 10
155.2214290878
 20
145.4148438987
 30
0.0
 11
155.2214290878
 21
144.4436883911
 31
0.0
  0
LINE
  5
1AA
330
1F
100
AcDbEntity
  8
0
  6
HIDDEN
 62
     7
370
    18
100
AcDbLine
 10
155.2214290878
 20
144.4436883911
 30
0.0
 11
155.4603847482
 21
144.4466900901
 31
0.0
  0
LINE
  5
1AB
330
1F
100
AcDbEntity
  8
0
  6
HIDDEN
 62
     7
370
    18
100
AcDbLine
 10
155.2214290878
 20
124.8008119527
 30
0.0
 11
155.4603847482
 21
124.7978102538
 31
0.0
  0
LINE
  5
1AC
330
1F
100
AcDbEntity
  8
0
  6
HIDDEN
 62
     7
370
    18
100
AcDbLine
 10
155.2214290878
 20
144.4436883911
 30
0.0
 11
155.2214290878
 21
124.8008119527
 31
0.0
  0
LINE
  5
1AD
330
1F
100
AcDbEntity
  8
0
  6
HIDDEN
 62
     7
370
    18
100
AcDbLine
 10
156.3214921768
 20
143.5672564616
 30
0.0
 11
156.3214921768
 21
125.6772438822
 31
0.0
  0
DIMENSION
  5
1AE
330
1F
100
AcDbEntity
  8
VERMASSUNG
100
AcDbDimension
  2
_D
 10
233.7164690657
 20
176.3028247664
 30
0.0
 11
195.2164690657
 21
176.3028247664
 31
0.0
 70
   160
  1
<>
 71
     2
 42
-1.0
  3
SLDDIMSTYLE0
100
AcDbAlignedDimension
 13
156.7164690657
 23
154.3222501719
 33
0.0
 14
233.7164690657
 24
155.6222501719
 34
0.0
100
AcDbRotatedDimension
  0
DIMENSION
  5
1B9
330
1F
100
AcDbEntity
  8
VERMASSUNG
100
AcDbDimension
  2
_D_1
 10
233.7164690657
 20
185.1222501719
 30
0.0
 11
183.2164690657
 21
185.1222501719
 31
0.0
 70
   160
  1
(<>)
 71
     2
 42
-1.0
  3
SLDDIMSTYLE0
100
AcDbAlignedDimension
 13
132.7164690657
 23
147.253755154
 33
0.0
 14
233.7164690657
 24
155.6222501719
 34
0.0
100
AcDbRotatedDimension
  0
DIMENSION
  5
1C5
330
1F
100
AcDbEntity
  8
VERMASSUNG
100
AcDbDimension
  2
_D_2
 10
247.4361828483
 20
122.1222501719
 30
0.0
 11
247.4361828483
 21
134.6222501719
 31
0.0
 70
   160
  1
%%c<>
 71
     2
 42
-1.0
  3
SLDDIMSTYLE0
100
AcDbAlignedDimension
 13
232.5164690657
 23
147.1222501719
 33
0.0
 14
232.5164690657
 24
122.1222501719
 34
0.0
 50
90.0
100
AcDbRotatedDimension
  0
DIMENSION
  5
1D0
330
1F
100
AcDbEntity
  8
VERMASSUNG
100
AcDbDimension
  2
_D_3
 10
257.7189373833
 20
157.1222501719
 30
0.0
 11
257.7189373833
 21
134.6222501719
 31
0.0
 70
   160
  1
%%c<>
 71
     2
 42
-1.0
  3
SLDDIMSTYLE0
100
AcDbAlignedDimension
 13
232.2164690657
 23
112.1222501719
 33
0.0
 14
232.2164690657
 24
157.1222501719
 34
0.0
 50
90.0
100
AcDbRotatedDimension
  0
DIMENSION
  5
1DB
330
1F
100
AcDbEntity
  8
VERMASSUNG
100
AcDbDimension
  2
_D_4
 10
176.7164690657
 20
167.1222501719
 30
0.0
 11
166.7164690657
 21
167.1222501719
 31
0.0
 70
   160
  1
<>
 71
     2
 42
-1.0
  3
SLDDIMSTYLE0
100
AcDbAlignedDimension
 13
156.7164690657
 23
154.3222501719
 33
0.0
 14
176.7164690657
 24
155.6222501719
 34
0.0
100
AcDbRotatedDimension
  0
DIMENSION
  5
1E5
330
1F
100
AcDbEntity
  8
VERMASSUNG
100
AcDbDimension
  2
_D_5
 10
232.2164690657
 20
157.1222501719
 30
0.0
 11
191.2164690657
 21
162.7365171803
 31
0.0
 70
   162
  1
<>
 71
     1
 42
-1.0
  3
SLDDIMSTYLE1
100
AcDb2LineAngularDimension
 13
178.4485198733
 23
156.6222501719
 33
0.0
 14
177.5824944695
 24
155.1222501719
 34
0.0
 15
179.3145452771
 25
157.1222501719
 35
0.0
 16
190.5878998936
 26
163.9642578278
 36
0.0
  0
DIMENSION
  5
1EF
330
1F
100
AcDbEntity
  8
VERMASSUNG
100
AcDbDimension
  2
_D_6
 10
179.3145452771
 20
156.1222501719
 30
0.0
 11
177.5422677737
 21
162.7365271803
 31
0.0
 70
   164
  1
<>
 71
     1
 42
-1.0
  3
SLDDIMSTYLE2
100
AcDbRadialDimension
 15
179.055726232
 25
157.0881759982
 35
0.0
 40
0.0
  0
DIMENSION
  5
1F8
330
1F
100
AcDbEntity
  8
VERMASSUNG
100
AcDbDimension
  2
_D_7
 10
176.7164690657
 20
155.6222501719
 30
0.0
 11
171.5564041738
 21
158.6014307998
 31
0.0
 70
   164
  1
<>
 71
     1
 42
-1.0
  3
SLDDIMSTYLE3
100
AcDbRadialDimension
 15
177.5824944695
 25
155.1222501719
 35
0.0
 40
0.0
  0
DIMENSION
  5
201
330
1F
100
AcDbEntity
  8
VERMASSUNG
100
AcDbDimension
  2
_D_8
 10
174.7164690657
 20
102.1222501719
 30
0.0
 11
204.2164690657
 21
102.1222501719
 31
0.0
 70
   160
  1
<>
 71
     2
 42
-1.0
  3
SLDDIMSTYLE0
100
AcDbAlignedDimension
 13
233.7164690657
 23
113.6222501719
 33
0.0
 14
174.7164690657
 24
128.3722501719
 34
0.0
100
AcDbRotatedDimension
  0
DIMENSION
  5
20B
330
1F
100
AcDbEntity
  8
VERMASSUNG
100
AcDbDimension
  2
_D_9
 10
124.2965357429
 20
114.6222501719
 30
0.0
 11
124.2965357429
 21
134.6222501719
 31
0.0
 70
   160
  1
PSC%%c<>
 71
     2
 42
-1.0
  3
SLDDIMSTYLE0
100
AcDbAlignedDimension
 13
157.0164690657
 23
154.6222501719
 33
0.0
 14
157.0164690657
 24
114.6222501719
 34
0.0
 50
90.0
100
AcDbRotatedDimension
  0
INSERT
  5
222
330
1F
100
AcDbEntity
  8
VERMASSUNG
100
AcDbBlockReference
  2
SW_CENTERMARKSYMBOL_0
 10
193.7164690657
 20
134.6222501719
 30
0.0
  0
INSERT
  5
22E
330
1F
100
AcDbEntity
  8
VERMASSUNG
100
AcDbBlockReference
  2
SW_CENTERMARKSYMBOL_1
 10
216.7164690657
 20
134.6222501719
 30
0.0
  0
LINE
  5
22F
330
1F
100
AcDbEntity
  8
VERMASSUNG
  6
CENTERX2
370
    18
100
AcDbLine
 10
237.2027238077
 20
134.6222501719
 30
0.0
 11
131.1408787374
 21
134.6222501719
 31
0.0
  0
LINE
  5
230
330
1F
100
AcDbEntity
  8
0
  6
Continuous
 62
     7
370
    25
100
AcDbLine
 10
50.4615478704
 20
130.7403087867
 30
0.0
 11
53.8434892556
 21
134.1222501719
 31
0.0
  0
LINE
  5
231
330
1F
100
AcDbEntity
  8
0
  6
Continuous
 62
     7
370
    25
100
AcDbLine
 10
53.8434892556
 20
135.1222501719
 30
0.0
 11
50.4615478704
 21
138.5041915571
 31
0.0
  0
LINE
  5
232
330
1F
100
AcDbEntity
  8
0
  6
Continuous
 62
     7
370
    25
100
AcDbLine
 10
40.5895839588
 20
140.3683448751
 30
0.0
 11
39.8434892556
 21
139.6222501719
 31
0.0
  0
LINE
  5
233
330
1F
100
AcDbEntity
  8
0
  6
Continuous
 62
     7
370
    25
100
AcDbLine
 10
39.8434892556
 20
129.6222501719
 30
0.0
 11
40.5895839588
 21
128.8761554687
 31
0.0
  0
LINE
  5
234
330
1F
100
AcDbEntity
  8
0
  6
Continuous
 62
     7
370
    25
100
AcDbLine
 10
50.9505164085
 20
129.4792773248
 30
0.0
 11
51.8434892556
 21
130.3722501719
 31
0.0
  0
LINE
  5
235
330
1F
100
AcDbEntity
  8
0
  6
Continuous
 62
     7
370
    25
100
AcDbLine
 10
51.8434892556
 20
138.8722501719
 30
0.0
 11
50.9505164085
 21
139.765223019
 31
0.0
  0
LINE
  5
236
330
1F
100
AcDbEntity
  8
0
  6
Continuous
 62
     7
370
    25
100
AcDbLine
 10
53.8434892556
 20
134.7145007864
 30
0.0
 11
53.8434892556
 21
135.1222501719
 31
0.0
  0
LINE
  5
237
330
1F
100
AcDbEntity
  8
0
  6
Continuous
 62
     7
370
    25
100
AcDbLine
 10
53.8434892556
 20
134.1222501719
 30
0.0
 11
53.8434892556
 21
134.7145007864
 31
0.0
  0
LINE
  5
238
330
1F
100
AcDbEntity
  8
0
  6
Continuous
 62
     7
370
    25
100
AcDbLine
 10
39.8434892556
 20
135.5447563164
 30
0.0
 11
39.8434892556
 21
139.6222501719
 31
0.0
  0
LINE
  5
239
330
1F
100
AcDbEntity
  8
0
  6
Continuous
 62
     7
370
    25
100
AcDbLine
 10
39.8434892556
 20
129.6222501719
 30
0.0
 11
39.8434892556
 21
135.5447563164
 31
0.0
  0
LINE
  5
23A
330
1F
100
AcDbEntity
  8
0
  6
Continuous
 62
     7
370
    25
100
AcDbLine
 10
51.8434892556
 20
138.8722501719
 30
0.0
 11
51.8434892556
 21
137.1222501719
 31
0.0
  0
LINE
  5
23B
330
1F
100
AcDbEntity
  8
0
  6
Continuous
 62
     7
370
    25
100
AcDbLine
 10
51.8434892556
 20
132.1222501719
 30
0.0
 11
51.8434892556
 21
130.3722501719
 31
0.0
  0
CIRCLE
  5
23C
330
1F
100
AcDbEntity
  8
0
  6
Continuous
 62
     7
370
    25
100
AcDbCircle
 10
62.3434892556
 20
134.6222501719
 30
0.0
 40
21.0
  0
CIRCLE
  5
23D
330
1F
100
AcDbEntity
  8
0
  6
Continuous
 62
     7
370
    25
100
AcDbCircle
 10
62.3434892556
 20
134.6222501719
 30
0.0
 40
22.5
  0
CIRCLE
  5
23E
330
1F
100
AcDbEntity
  8
0
  6
Continuous
 62
     7
370
    25
100
AcDbCircle
 10
62.3434892556
 20
134.6222501719
 30
0.0
 40
12.5
  0
CIRCLE
  5
23F
330
1F
100
AcDbEntity
  8
0
  6
Continuous
 62
     7
370
    25
100
AcDbCircle
 10
62.3434892556
 20
134.6222501719
 30
0.0
 40
6.25
  0
INSERT
  5
24B
330
1F
100
AcDbEntity
  8
VERMASSUNG
100
AcDbBlockReference
  2
SW_CENTERMARKSYMBOL_2
 10
62.3434892556
 20
134.6222501719
 30
0.0
  0
LINE
  5
24C
330
1F
100
AcDbEntity
  8
0
  6
Continuous
 62
     7
370
    25
100
AcDbLine
 10
226.5704187366
 20
60.3274202971
 30
0.0
 11
225.8631970587
 21
60.7358233924
 31
0.0
  0
LINE
  5
24D
330
1F
100
AcDbEntity
  8
0
  6
Continuous
 62
     7
370
    25
100
AcDbLine
 10
218.7909802795
 20
60.7358233924
 30
0.0
 11
218.0837586016
 21
60.3274202971
 31
0.0
  0
LINE
  5
24E
330
1F
100
AcDbEntity
  8
0
  6
Continuous
 62
     7
370
    25
100
AcDbLine
 10
210.3069627693
 20
69.7161135831
 30
0.0
 11
209.5997410914
 21
70.1245166783
 31
0.0
  0
LINE
  5
24F
330
1F
100
AcDbEntity
  8
0
  6
Continuous
 62
     7
370
    25
100
AcDbLine
 10
202.5275243122
 20
70.1245166783
 30
0.0
 11
201.8203026343
 21
69.7161135831
 31
0.0
  0
LINE
  5
250
330
1F
100
AcDbEntity
  8
0
  6
Continuous
 62
     7
370
    25
100
AcDbLine
 10
233.2898295841
 20
15.6251284046
 30
0.0
 11
234.3503173688
 21
16.2375340054
 31
0.0
  0
LINE
  5
251
330
1F
100
AcDbEntity
  8
0
  6
Continuous
 62
     7
370
    25
100
AcDbLine
 10
249.1971463542
 20
41.9557827653
 30
0.0
 11
249.1971463542
 21
43.180394933
 31
0.0
  0
LINE
  5
252
330
1F
100
AcDbEntity
  8
0
  6
Continuous
 62
     7
370
    25
100
AcDbLine
 10
184.6308489866
 20
36.1044841275
 30
0.0
 11
222.0381580353
 21
14.5097042714
 31
0.0
  0
LINE
  5
253
330
1F
100
AcDbEntity
  8
0
  6
Continuous
 62
     7
370
    25
100
AcDbLine
 10
244.5363295196
 20
53.4819030786
 30
0.0
 11
207.1290204709
 21
75.0766829346
 31
0.0
  0
SPLINE
  5
254
330
1F
100
AcDbEntity
  8
0
  6
Continuous
 62
     7
370
    25
100
AcDbSpline
210
0.0
220
0.0
230
1.0
 70
     8
 71
     3
 72
    15
 73
    11
 74
     0
 42
0.000000001
 43
0.00000001
 40
0.0
 40
0.0
 40
0.0
 40
0.0
 40
0.0176554064629956
 40
0.1767631830602555
 40
0.334726566614585
 40
0.4862560291011505
 40
0.6324334278260975
 40
0.7756243186789281
 40
0.9175077461193477
 40
1.0
 40
1.0
 40
1.0
 40
1.0
 10
227.2426251145686
 20
23.06068398037282
 30
0.0
 10
227.2179476688868
 20
23.07221836386635
 30
0.0
 10
226.9708809215056
 20
23.18769881713305
 30
0.0
 10
226.5769268385179
 20
23.53331517933585
 30
0.0
 10
226.0675025064437
 20
24.11392078192541
 30
0.0
 10
225.6563562836961
 20
24.83827247177273
 30
0.0
 10
225.3408520873847
 20
25.67052244180244
 30
0.0
 10
225.1270225085988
 20
26.60553158717382
 30
0.0
 10
225.0253234795139
 20
27.48731508648449
 30
0.0
 10
225.015591057662
 20
28.06760275002451
 30
0.0
 10
225.0120129095777
 20
28.28094689223595
 30
0.0
  0
SPLINE
  5
255
330
1F
100
AcDbEntity
  8
0
  6
Continuous
 62
     7
370
    25
100
AcDbSpline
210
0.0
220
0.0
230
1.0
 70
     8
 71
     3
 72
    29
 73
    25
 74
     0
 42
0.000000001
 43
0.00000001
 40
0.0
 40
0.0
 40
0.0
 40
0.0
 40
0.0241597378940708
 40
0.0704596115057473
 40
0.1168736480234979
 40
0.1634019808410514
 40
0.2100401194730789
 40
0.2567689718687368
 40
0.303562658921868
 40
0.3503923937652237
 40
0.3972282128885402
 40
0.4440311363609625
 40
0.4907688786428545
 40
0.5374111590006684
 40
0.5839296131916748
 40
0.630301286468071
 40
0.6765157238344246
 40
0.7225882614158332
 40
0.7685833753588321
 40
0.8146028434260093
 40
0.8608785107833822
 40
0.9078360393999851
 40
0.956113577334452
 40
0.9999999999999999
 40
0.9999999999999999
 40
0.9999999999999999
 40
0.9999999999999999
 10
225.0120129095777
 20
28.28094689223595
 30
0.0
 10
225.0148990491909
 20
28.47625998537239
 30
0.0
 10
225.0233162049064
 20
29.04587231828418
 30
0.0
 10
225.1181908127164
 20
30.04358180892806
 30
0.0
 10
225.3330298549585
 20
31.27857719493785
 30
0.0
 10
225.6555699883479
 20
32.55101946374248
 30
0.0
 10
226.0810737663189
 20
33.84220303338835
 30
0.0
 10
226.605358407916
 20
35.13494620407605
 30
0.0
 10
227.2219412066386
 20
36.41152084913228
 30
0.0
 10
227.9229471256416
 20
37.65458070447715
 30
0.0
 10
228.6989828568007
 20
38.84720499570803
 30
0.0
 10
229.5393423554748
 20
39.97327152251942
 30
0.0
 10
230.4321365949766
 20
41.01771999659282
 30
0.0
 10
231.3645005769603
 20
41.9668655116286
 30
0.0
 10
232.3227089560405
 20
42.80860572585515
 30
0.0
 10
233.2923540331221
 20
43.53270638696166
 30
0.0
 10
234.2586165947523
 20
44.13114365720701
 30
0.0
 10
235.2066556366496
 20
44.59842230384321
 30
0.0
 10
236.1219884470989
 20
44.93186200080122
 30
0.0
 10
236.9912549343921
 20
45.13147139430342
 30
0.0
 10
237.804725933989
 20
45.20128775982321
 30
0.0
 10
238.5549645468983
 20
45.141679835053
 30
0.0
 10
239.2207909554931
 20
44.97641867284236
 30
0.0
 10
239.6000949197957
 20
44.7693469010417
 30
0.0
 10
239.7807110086413
 20
44.67074394127106
 30
0.0
  0
SPLINE
  5
256
330
1F
100
AcDbEntity
  8
0
  6
Continuous
 62
     7
370
    25
100
AcDbSpline
210
0.0
220
0.0
230
1.0
 70
     8
 71
     3
 72
    10
 73
     6
 74
     0
 42
0.000000001
 43
0.00000001
 40
0.0
 40
0.0
 40
0.0
 40
0.0
 40
0.3917246887734976
 40
0.8649378573080384
 40
0.9999999999999999
 40
0.9999999999999999
 40
0.9999999999999999
 40
0.9999999999999999
 10
179.9233833733202
 20
50.10832039856677
 30
0.0
 10
179.8648514438199
 20
49.66740094376357
 30
0.0
 10
179.7356114874498
 20
48.69383981929888
 30
0.0
 10
179.6825818230345
 20
47.60528596825424
 30
0.0
 10
179.6781278896424
 20
46.95793489772033
 30
0.0
 10
179.6771389332008
 20
46.81419632893977
 30
0.0
  0
SPLINE
  5
257
330
1F
100
AcDbEntity
  8
0
  6
Continuous
 62
     7
370
    25
100
AcDbSpline
210
0.0
220
0.0
230
1.0
 70
     8
 71
     3
 72
    19
 73
    15
 74
     0
 42
0.000000001
 43
0.00000001
 40
0.0
 40
0.0
 40
0.0
 40
0.0
 40
0.0197252634143904
 40
0.1102446772052778
 40
0.2008113907368611
 40
0.2918152687521627
 40
0.3835403096301668
 40
0.4760934420919031
 40
0.5694157254079795
 40
0.6633412542015742
 40
0.7576695119773766
 40
0.8522198667890936
 40
0.9468568246654188
 40
1.0
 40
1.0
 40
1.0
 40
1.0
 10
206.9690445726841
 20
75.15088569485518
 30
0.0
 10
206.8979988151065
 20
75.19474962772523
 30
0.0
 10
206.500923427751
 20
75.4399055487704
 30
0.0
 10
205.6997146962808
 20
75.74755781178641
 30
0.0
 10
204.5744560423462
 20
76.06243981769944
 30
0.0
 10
203.3828579498972
 20
76.21811280049177
 30
0.0
 10
202.1400626709
 20
76.22870263477813
 30
0.0
 10
200.8508531849359
 20
76.08912473749285
 30
0.0
 10
199.5244152929108
 20
75.8005016341167
 30
0.0
 10
198.1705291908018
 20
75.36335325005633
 30
0.0
 10
196.7995782906243
 20
74.78280863202802
 30
0.0
 10
195.4235407871199
 20
74.05621054857212
 30
0.0
 10
194.249613180626
 20
73.33976633714931
 30
0.0
 10
193.5450045292196
 20
72.81828800641352
 30
0.0
 10
193.2916203950308
 20
72.63075931929342
 30
0.0
  0
SPLINE
  5
258
330
1F
100
AcDbEntity
  8
0
  6
Continuous
 62
     7
370
    25
100
AcDbSpline
210
0.0
220
0.0
230
1.0
 70
     8
 71
     3
 72
    17
 73
    13
 74
     0
 42
0.000000001
 43
0.00000001
 40
0.0
 40
0.0
 40
0.0
 40
0.0
 40
0.0587550118897592
 40
0.1700648040943969
 40
0.2814362434374236
 40
0.3926718921469206
 40
0.5035698383824266
 40
0.6138741028063373
 40
0.7233236400950234
 40
0.8317409273248186
 40
0.9391285521201547
 40
0.9999999999999999
 40
0.9999999999999999
 40
0.9999999999999999
 40
0.9999999999999999
 10
179.6771389332008
 20
46.81419632893977
 30
0.0
 10
179.6804768584238
 20
46.53583404954026
 30
0.0
 10
179.6901383933442
 20
45.73012190702263
 30
0.0
 10
179.7976769667896
 20
44.44694202169877
 30
0.0
 10
180.0393138740163
 20
42.99880726520753
 30
0.0
 10
180.4022089599354
 20
41.64023466055568
 30
0.0
 10
180.8822881112282
 20
40.38179961341041
 30
0.0
 10
181.476893279471
 20
39.23558499677361
 30
0.0
 10
182.1789598737334
 20
38.20958577907587
 30
0.0
 10
182.9862023818339
 20
37.32105785455015
 30
0.0
 10
183.7457920523118
 20
36.65544511863604
 30
0.0
 10
184.2671987603528
 20
36.344368199809
 30
0.0
 10
184.4558291904872
 20
36.23182923147915
 30
0.0
  0
LINE
  5
259
330
1F
100
AcDbEntity
  8
0
  6
Continuous
 62
     7
370
    25
100
AcDbLine
 10
177.3954660012
 20
43.1680549699
 30
0.0
 11
180.5372206266
 21
41.3543586303
 31
0.0
  0
LINE
  5
25A
330
1F
100
AcDbEntity
  8
0
  6
Continuous
 62
     7
370
    25
100
AcDbLine
 10
170.1136265059
 20
47.3717714319
 30
0.0
 11
173.7212314409
 21
45.2891454329
 31
0.0
  0
LINE
  5
25B
330
1F
100
AcDbEntity
  8
0
  6
Continuous
 62
     7
370
    25
100
AcDbLine
 10
193.7196060936
 20
79.9310999281
 30
0.0
 11
190.1120011586
 21
82.0137259271
 31
0.0
  0
LINE
  5
25C
330
1F
100
AcDbEntity
  8
0
  6
Continuous
 62
     7
370
    25
100
AcDbLine
 10
200.5349885211
 20
75.9966633995
 30
0.0
 11
197.3938406539
 21
77.8100094651
 31
0.0
  0
SPLINE
  5
25D
330
1F
100
AcDbEntity
  8
0
  6
Continuous
 62
     7
370
    25
100
AcDbSpline
210
0.0
220
0.0
230
1.0
 70
     8
 71
     3
 72
    15
 73
    11
 74
     0
 42
0.000000001
 43
0.00000001
 40
0.0
 40
0.0
 40
0.0
 40
0.0
 40
0.0035118614314644
 40
0.1638044580171778
 40
0.3241313296761286
 40
0.4845037034007445
 40
0.6449318911573462
 40
0.8054241125297599
 40
0.957544867627351
 40
1.0
 40
1.0
 40
1.0
 40
1.0
 10
168.0657674790503
 20
66.61422808975962
 30
0.0
 10
168.0604592266371
 20
66.60236226072827
 30
0.0
 10
167.8128653432969
 20
66.04890201426443
 30
0.0
 10
167.4111011235824
 20
64.93737153358366
 30
0.0
 10
166.8748451981118
 20
63.29479082748138
 30
0.0
 10
166.456756124388
 20
61.66086366750688
 30
0.0
 10
166.1455935517677
 20
60.05135068215924
 30
0.0
 10
165.9526501324463
 20
58.50659195146704
 30
0.0
 10
165.8875247652215
 20
57.38134868471957
 30
0.0
 10
165.8836546710443
 20
56.78192002564384
 30
0.0
 10
165.8828102428742
 20
56.65112877807514
 30
0.0
  0
SPLINE
  5
25E
330
1F
100
AcDbEntity
  8
0
  6
Continuous
 62
     7
370
    25
100
AcDbSpline
210
0.0
220
0.0
230
1.0
 70
     8
 71
     3
 72
    13
 73
     9
 74
     0
 42
0.000000001
 43
0.00000001
 40
0.0
 40
0.0
 40
0.0
 40
0.0
 40
0.139507779263256
 40
0.336587669658052
 40
0.5338119245456455
 40
0.73107535989592
 40
0.9283099713318789
 40
1.0
 40
1.0
 40
1.0
 40
1.0
 10
183.2202544089205
 20
82.46698984096595
 30
0.0
 10
182.9245134780118
 20
82.37578450004598
 30
0.0
 10
182.210985162367
 20
82.15573517145123
 30
0.0
 10
181.0584494866365
 20
81.64089749033002
 30
0.0
 10
179.7773582826497
 20
80.95447317674923
 30
0.0
 10
178.5005358009874
 20
80.12343403920211
 30
0.0
 10
177.500003434548
 20
79.393525801462
 30
0.0
 10
176.9380539672487
 20
78.90351654644509
 30
0.0
 10
176.7882492732454
 20
78.77288970047735
 30
0.0
  0
SPLINE
  5
25F
330
1F
100
AcDbEntity
  8
0
  6
Continuous
 62
     7
370
    25
100
AcDbSpline
210
0.0
220
0.0
230
1.0
 70
     8
 71
     3
 72
    11
 73
     7
 74
     0
 42
0.000000001
 43
0.00000001
 40
0.0
 40
0.0
 40
0.0
 40
0.0
 40
0.1940322507206245
 40
0.5626489523532237
 40
0.9314080270837682
 40
1.0
 40
1.0
 40
1.0
 40
1.0
 10
165.8828102428742
 20
56.65112877807514
 30
0.0
 10
165.8858442467978
 20
56.39322832963813
 30
0.0
 10
165.8946421611791
 20
55.64537627625221
 30
0.0
 10
166.0061295267457
 20
54.46702696050827
 30
0.0
 10
166.1541886215761
 20
53.48076104407259
 30
0.0
 10
166.29531488888
 20
52.99572603230743
 30
0.0
 10
166.3174484339047
 20
52.91965554254999
 30
0.0
  0
LINE
  5
260
330
1F
100
AcDbEntity
  8
0
  6
Continuous
 62
     7
370
    25
100
AcDbLine
 10
155.9698215703
 20
62.2716820216
 30
0.0
 11
165.8937293587
 21
56.1281705901
 31
0.0
  0
LINE
  5
261
330
1F
100
AcDbEntity
  8
0
  6
Continuous
 62
     7
370
    25
100
AcDbLine
 10
179.0862617898
 20
80.4843815637
 30
0.0
 11
169.3607568415
 21
85.7067067227
 31
0.0
  0
LINE
  5
262
330
1F
100
AcDbEntity
  8
0
  6
Continuous
 62
     7
370
    25
100
AcDbLine
 10
165.9278928907
 20
86.4617086553
 30
0.0
 11
164.6487919856
 21
86.2872865244
 31
0.0
  0
LINE
  5
263
330
1F
100
AcDbEntity
  8
0
  6
Continuous
 62
     7
370
    25
100
AcDbLine
 10
154.315537202
 20
64.910875552
 30
0.0
 11
154.8041457875
 21
63.7159764537
 31
0.0
  0
LWPOLYLINE
  5
264
330
1F
100
AcDbEntity
  8
0
  6
Continuous
 62
     7
370
    25
100
AcDbPolyline
 90
       34
 70
   128
 43
0.0
 10
226.45423588
 20
57.0657249378
 10
226.9138196075
 20
57.5460713085
 10
227.2076269284
 20
58.067947828
 10
227.3250388804
 20
58.6124925192
 10
227.2618118898
 20
59.160024118
 10
227.0202311447
 20
59.6907534059
 10
226.6090280026
 20
60.1854984437
 10
226.0430644165
 20
60.6263778566
 10
225.3427957851
 20
60.9974571139
 10
224.5335316411
 20
61.2853244446
 10
223.6445208993
 20
61.4795755731
 10
222.7078947242
 20
61.5731897576
 10
221.757505226
 20
61.5627835376
 10
220.8277019575
 20
61.448733021
 10
219.9520904314
 20
61.2351602905
 10
219.1623175296
 20
60.9297844212
 10
218.4869277025
 20
60.5436424925
 10
217.9503312982
 20
60.09069068
 10
217.5719223088
 20
59.5872998422
 10
217.3653774211
 20
59.0516638355
 10
217.3381617055
 20
58.503141941
 10
217.4912588089
 20
57.9615591689
 10
217.8191354031
 20
57.4464897317
 10
218.3099411737
 20
56.976549581
 10
218.9459371213
 20
56.5687235782
 10
219.7041366954
 20
56.2377516175
 10
220.5571365879
 20
55.995595888
 10
221.4741071601
 20
55.8510085287
 10
222.4219067065
 20
55.8092153035
 10
223.366279282
 20
55.8717267284
 10
224.2730928011
 20
56.0362834777
 10
225.1095726606
 20
56.2969380416
 10
225.845486299
 20
56.6442696852
 10
226.45423588
 20
57.0657249378
  0
LWPOLYLINE
  5
265
330
1F
100
AcDbEntity
  8
0
  6
Continuous
 62
     7
370
    25
100
AcDbPolyline
 90
        9
 70
   128
 43
0.0
 10
227.2796653221
 20
55.9233021516
 10
227.7925764563
 20
56.4494782728
 10
228.1394215096
 20
57.019077352
 10
228.3096617708
 20
57.6147924096
 10
228.2981245757
 20
58.2185229449
 10
228.105160476
 20
58.8119249112
 10
227.7366325882
 20
59.3769680899
 10
227.2037384459
 20
59.8964839301
 10
226.5704187366
 20
60.3274202971
  0
ARC
  5
266
330
1F
100
AcDbEntity
  8
0
  6
Continuous
 62
     7
370
    25
100
AcDbCircle
 10
219.4069148354
 20
57.5237634916
 30
0.0
 40
3.100199010112631
100
AcDbArc
 50
115.2644729688
 51
173.4278602801
  0
LWPOLYLINE
  5
267
330
1F
100
AcDbEntity
  8
0
  6
Continuous
 62
     7
370
    25
100
AcDbPolyline
 90
        3
 70
   128
 43
0.0
 10
226.5049466851
 20
55.3925339464
 10
226.6162726525
 20
55.4565365838
 10
227.2796653221
 20
55.9233021516
  0
LWPOLYLINE
  5
268
330
1F
100
AcDbEntity
  8
0
  6
Continuous
 62
     7
370
    25
100
AcDbPolyline
 90
       30
 70
   128
 43
0.0
 10
225.6288064378
 20
57.391606912
 10
226.0370219242
 20
57.8318251635
 10
226.271765055
 20
58.3124108145
 10
226.3220595021
 20
58.8108922141
 10
226.1855535532
 20
59.3039609261
 10
225.8686300746
 20
59.7685616055
 10
225.3861080561
 20
60.182970041
 10
224.7605496909
 20
60.5278089546
 10
224.0212053929
 20
60.786954062
 10
223.2026460798
 20
60.9482880261
 10
222.3431466753
 20
61.0042670499
 10
221.4828964162
 20
60.9522736166
 10
220.6621196487
 20
60.7947388813
 10
219.919194982
 20
60.539028993
 10
219.288860748
 20
60.1971006621
 10
218.8005906748
 20
59.7849420772
 10
218.4772157284
 20
59.3218253157
 10
218.3338565619
 20
58.8294052026
 10
218.3772164906
 20
58.3307067552
 10
218.6052680523
 20
57.8490485585
 10
219.0073478096
 20
57.4069524145
 10
219.5646549599
 20
57.0250902476
 10
220.2511304402
 20
56.7213175082
 10
221.03467542
 20
56.5098382721
 10
221.8786522069
 20
56.4005410733
 10
222.7435973843
 20
56.3985365273
 10
223.5890670772
 20
56.5039183645
 10
224.3755280623
 20
56.7117590473
 10
225.0662062981
 20
57.0123401763
 10
225.6288064378
 20
57.391606912
  0
SPLINE
  5
269
330
1F
100
AcDbEntity
  8
0
  6
Continuous
 62
     7
370
    25
100
AcDbSpline
210
0.0
220
0.0
230
1.0
 70
     8
 71
     3
 72
    11
 73
     7
 74
     0
 42
0.000000001
 43
0.00000001
 40
0.0
 40
0.0
 40
0.0
 40
0.0
 40
0.2164553779443457
 40
0.4403112895790565
 40
0.7519005688038689
 40
1.0
 40
1.0
 40
1.0
 40
1.0
 10
219.2038870311651
 20
57.39246522097993
 30
0.0
 10
219.2219596537186
 20
57.44033060709901
 30
0.0
 10
219.2587227954717
 20
57.53769788015289
 30
0.0
 10
219.3269453677395
 20
57.90287899584892
 30
0.0
 10
219.4001263141933
 20
58.54666375920818
 30
0.0
 10
219.4469577254387
 20
59.12851605173364
 30
0.0
 10
219.4677172052634
 20
59.38644018014274
 30
0.0
  0
SPLINE
  5
26A
330
1F
100
AcDbEntity
  8
0
  6
Continuous
 62
     7
370
    25
100
AcDbSpline
210
0.0
220
0.0
230
1.0
 70
     8
 71
     3
 72
     9
 73
     5
 74
     0
 42
0.000000001
 43
0.00000001
 40
0.0
 40
0.0
 40
0.0
 40
0.0
 40
0.2966558772088168
 40
1.0
 40
1.0
 40
1.0
 40
1.0
 10
219.6249057426164
 20
57.05107512637894
 30
0.0
 10
219.5817129166184
 20
57.08153588407876
 30
0.0
 10
219.4361138258322
 20
57.18421632980736
 30
0.0
 10
219.2997780193678
 20
57.30647517837834
 30
0.0
 10
219.2038870311651
 20
57.39246522097994
 30
0.0
  0
SPLINE
  5
26B
330
1F
100
AcDbEntity
  8
0
  6
Continuous
 62
     7
370
    25
100
AcDbSpline
210
0.0
220
0.0
230
1.0
 70
     8
 71
     3
 72
    11
 73
     7
 74
     0
 42
0.000000001
 43
0.00000001
 40
0.0
 40
0.0
 40
0.0
 40
0.0
 40
0.2164553779443393
 40
0.4403112895790532
 40
0.7519005688038688
 40
1.0
 40
1.0
 40
1.0
 40
1.0
 10
225.450290307007
 20
59.12263859259323
 30
0.0
 10
225.4322176844535
 20
58.89732554534179
 30
0.0
 10
225.3954545427003
 20
58.43899607653194
 30
0.0
 10
225.3272319704326
 20
57.77295245672097
 30
0.0
 10
225.2540510239787
 20
57.31056371119006
 30
0.0
 10
225.2072196127334
 20
57.18453138327921
 30
0.0
 10
225.1864601329086
 20
57.12866363343041
 30
0.0
  0
SPLINE
  5
26C
330
1F
100
AcDbEntity
  8
0
  6
Continuous
 62
     7
370
    25
100
AcDbSpline
210
0.0
220
0.0
230
1.0
 70
     8
 71
     3
 72
    13
 73
     9
 74
     0
 42
0.000000001
 43
0.00000001
 40
0.0
 40
0.0
 40
0.0
 40
0.0
 40
0.1077852362604658
 40
0.2867886602058343
 40
0.4712404514101039
 40
0.6395159303144036
 40
0.8141409998222561
 40
0.9999999999999999
 40
0.9999999999999999
 40
0.9999999999999999
 40
0.9999999999999999
 10
222.5909188431843
 20
60.25152686594939
 30
0.0
 10
222.6876892761468
 20
60.16759320171978
 30
0.0
 10
222.9451703911838
 20
59.94426741104834
 30
0.0
 10
223.3908697406234
 20
59.61820976578559
 30
0.0
 10
223.9178863427849
 20
59.33156972935824
 30
0.0
 10
224.4446198792555
 20
59.16035866430573
 30
0.0
 10
224.956538465123
 20
59.09108302044957
 30
0.0
 10
225.2823221772173
 20
59.11190378618281
 30
0.0
 10
225.450290307007
 20
59.12263859259323
 30
0.0
  0
SPLINE
  5
26D
330
1F
100
AcDbEntity
  8
0
  6
Continuous
 62
     7
370
    25
100
AcDbSpline
210
0.0
220
0.0
230
1.0
 70
     8
 71
     3
 72
    11
 73
     7
 74
     0
 42
0.000000001
 43
0.00000001
 40
0.0
 40
0.0
 40
0.0
 40
0.0
 40
0.2164553779443448
 40
0.4403112895790524
 40
0.751900568803878
 40
1.0
 40
1.0
 40
1.0
 40
1.0
 10
219.4677172052634
 20
59.38644018014274
 30
0.0
 10
219.6816595435628
 20
59.35697562574559
 30
0.0
 10
220.1168588339052
 20
59.29703913413845
 30
0.0
 10
220.9244724822612
 20
59.37030647585278
 30
0.0
 10
221.7907829890494
 20
59.7009613534165
 30
0.0
 10
222.3451696918127
 20
60.08242932235068
 30
0.0
 10
222.5909188431843
 20
60.25152686594939
 30
0.0
  0
LINE
  5
26E
330
1F
100
AcDbEntity
  8
0
  6
Continuous
 62
     7
370
    25
100
AcDbLine
 10
219.4677172053
 20
57.1683290047
 30
0.0
 11
219.4677172053
 21
59.3864401801
 31
0.0
  0
LINE
  5
26F
330
1F
100
AcDbEntity
  8
0
  6
Continuous
 62
     7
370
    25
100
AcDbLine
 10
222.5909188432
 20
56.3910122976
 30
0.0
 11
222.5909188432
 21
60.2515268659
 31
0.0
  0
LWPOLYLINE
  5
270
330
1F
100
AcDbEntity
  8
0
  6
Continuous
 62
     7
370
    25
100
AcDbPolyline
 90
       34
 70
   128
 43
0.0
 10
208.28097419
 20
70.6709142812
 10
209.0890239851
 20
70.3819123447
 10
209.7877282566
 20
70.0098516559
 10
210.3518340118
 20
69.5681794573
 10
210.7609529988
 20
69.072858933
 10
211.0002985915
 20
68.5417922574
 10
211.0612202167
 20
67.9941735637
 10
210.9415160079
 20
67.4497952184
 10
210.6455123873
 20
66.9283324732
 10
210.1839076968
 20
66.4486323504
 10
209.5733855328
 20
66.0280324622
 10
208.8360117569
 20
65.6817343846
 10
207.9984369785
 20
65.4222542322
 10
207.0909333326
 20
65.2589702939
 10
206.1463003652
 20
65.1977840767
 10
205.1986795731
 20
65.2409070097
 10
204.2823204406
 20
65.386780518
 10
203.4303425745
 20
65.6301323527
 10
202.6735386745
 20
65.9621671447
 10
202.0392616055
 20
66.3708842913
 10
201.5504357933
 20
66.84151169
 10
201.2247286763
 20
67.3570396404
 10
201.0739121585
 20
67.8988356192
 10
201.1034371418
 20
68.4473177081
 10
201.3122365162
 20
68.9826623353
 10
201.6927637284
 20
69.4855207511
 10
202.2312655335
 20
69.9377183423
 10
202.9082790732
 20
70.3229115097
 10
203.6993353143
 20
70.6271783686
 10
204.575843423
 20
70.839521922
 10
205.5061241127
 20
70.9522675205
 10
206.4565546153
 20
70.9613402446
 10
207.3927838963
 20
70.8664121824
 10
208.28097419
 20
70.6709142812
  0
LWPOLYLINE
  5
271
330
1F
100
AcDbEntity
  8
0
  6
Continuous
 62
     7
370
    25
100
AcDbPolyline
 90
       11
 70
   128
 43
0.0
 10
210.3069627693
 20
69.7161135831
 10
210.4032715485
 20
69.6592052448
 10
211.0568317465
 20
69.1878397172
 10
211.5586761182
 20
68.6581191758
 10
211.8935563763
 20
68.0861389111
 10
212.0512973537
 20
67.4892782541
 10
212.0271061705
 20
66.8856725137
 10
211.8217178637
 20
66.293661945
 10
211.4413730529
 20
65.7312344896
 10
210.8976283228
 20
65.215479221
 10
210.2358362061
 20
64.7780645787
  0
ARC
  5
272
330
1F
100
AcDbEntity
  8
0
  6
Continuous
 62
     7
370
    25
100
AcDbCircle
 10
203.0920148377
 20
66.9493602449
 30
0.0
 40
3.045024788572453
100
AcDbArc
 50
114.6854327824
 51
174.0069004665
  0
LWPOLYLINE
  5
273
330
1F
100
AcDbEntity
  8
0
  6
Continuous
 62
     7
370
    25
100
AcDbPolyline
 90
       30
 70
   128
 43
0.0
 10
207.8375058923
 20
70.153497044
 10
208.5667371967
 20
69.8849720373
 10
209.1789261168
 20
69.5322275417
 10
209.6454473792
 20
69.1117574977
 10
209.9444869682
 20
68.6432226173
 10
210.062062125
 20
68.1485310708
 10
209.9926751659
 20
67.6508140851
 10
209.739570548
 20
67.1733443532
 10
209.3145831619
 20
66.7384478291
 10
208.7375849455
 20
66.366459791
 10
208.035555694
 20
66.0747739861
 10
207.2413215151
 20
65.8770293183
 10
206.3920199161
 20
65.7824721088
 10
205.527363296
 20
65.7955237473
 10
204.6877820373
 20
65.9155739539
 10
203.9125340265
 20
66.1370093143
 10
203.237868999
 20
66.4494757571
 10
202.6953335416
 20
66.8383626988
 10
202.3102960093
 20
67.2854862182
 10
202.1007603293
 20
67.7699393165
 10
202.076524157
 20
68.2690695052
 10
202.2387207489
 20
68.7595380114
 10
202.5797659726
 20
69.2184110729
 10
203.0837129325
 20
69.6242322954
 10
203.7269976289
 20
69.9580259295
 10
204.4795407844
 20
70.2041841559
 10
205.3061543172
 20
70.3511968895
 10
206.1681866975
 20
70.3921899782
 10
207.0253302492
 20
70.3252466309
 10
207.8375058923
 20
70.153497044
  0
SPLINE
  5
274
330
1F
100
AcDbEntity
  8
0
  6
Continuous
 62
     7
370
    25
100
AcDbSpline
210
0.0
220
0.0
230
1.0
 70
     8
 71
     3
 72
    10
 73
     6
 74
     0
 42
0.000000001
 43
0.00000001
 40
0.0
 40
0.0
 40
0.0
 40
0.0
 40
0.3228360336756884
 40
0.8446206035641066
 40
1.0
 40
1.0
 40
1.0
 40
1.0
 10
208.4442881786381
 20
66.24738723327378
 30
0.0
 10
208.5621206466289
 20
66.3342988876319
 30
0.0
 10
208.8704001441209
 20
66.56168172691694
 30
0.0
 10
209.2426127565847
 20
67.20762269600408
 30
0.0
 10
209.4687287975905
 20
67.66863065545779
 30
0.0
 10
209.520612500391
 20
67.77441173958853
 30
0.0
  0
SPLINE
  5
275
330
1F
100
AcDbEntity
  8
0
  6
Continuous
 62
     7
370
    25
100
AcDbSpline
210
0.0
220
0.0
230
1.0
 70
     8
 71
     3
 72
    11
 73
     7
 74
     0
 42
0.000000001
 43
0.00000001
 40
0.0
 40
0.0
 40
0.0
 40
0.0
 40
0.2164553779443485
 40
0.4403112895790632
 40
0.7519005688038929
 40
0.9999999999999999
 40
0.9999999999999999
 40
0.9999999999999999
 40
0.9999999999999999
 10
209.520612500391
 20
67.77441173958853
 30
0.0
 10
209.3890385415014
 20
67.79968854631858
 30
0.0
 10
209.1213921560713
 20
67.85110636496297
 30
0.0
 10
208.6247119486278
 20
68.13101756561292
 30
0.0
 10
208.0919333321471
 20
68.68333504945339
 30
0.0
 10
207.7509870107311
 20
69.20665377565844
 30
0.0
 10
207.5998519479064
 20
69.4386310799855
 30
0.0
  0
SPLINE
  5
276
330
1F
100
AcDbEntity
  8
0
  6
Continuous
 62
     7
370
    25
100
AcDbSpline
210
0.0
220
0.0
230
1.0
 70
     8
 71
     3
 72
    11
 73
     7
 74
     0
 42
0.000000001
 43
0.00000001
 40
0.0
 40
0.0
 40
0.0
 40
0.0
 40
0.2164553779443558
 40
0.4403112895790628
 40
0.7519005688038922
 40
0.9999999999999999
 40
0.9999999999999999
 40
0.9999999999999999
 40
0.9999999999999999
 10
204.1428721493108
 20
69.31046453314474
 30
0.0
 10
204.3796786150175
 20
69.23052023521903
 30
0.0
 10
204.8613878766963
 20
69.06789837177327
 30
0.0
 10
205.7553116098099
 20
68.9506090889164
 30
0.0
 10
206.714205164717
 20
69.07685780477144
 30
0.0
 10
207.3278394587034
 20
69.3275181047159
 30
0.0
 10
207.5998519479064
 20
69.4386310799855
 30
0.0
  0
SPLINE
  5
277
330
1F
100
AcDbEntity
  8
0
  6
Continuous
 62
     7
370
    25
100
AcDbSpline
210
0.0
220
0.0
230
1.0
 70
     8
 71
     3
 72
    11
 73
     7
 74
     0
 42
0.000000001
 43
0.00000001
 40
0.0
 40
0.0
 40
0.0
 40
0.0
 40
0.1864191569163742
 40
0.5288419333956385
 40
0.8918899119628786
 40
1.0
 40
1.0
 40
1.0
 40
1.0
 10
202.6066529031999
 20
67.51807864590702
 30
0.0
 10
202.6967676564657
 20
67.54620937526036
 30
0.0
 10
202.9524090890996
 20
67.62601184591372
 30
0.0
 10
203.4337418966769
 20
68.03004357307637
 30
0.0
 10
203.8646155088121
 20
68.74106431775255
 30
0.0
 10
204.0909405013164
 20
69.20419612028421
 30
0.0
 10
204.1428721493108
 20
69.31046453314474
 30
0.0
  0
SPLINE
  5
278
330
1F
100
AcDbEntity
  8
0
  6
Continuous
 62
     7
370
    25
100
AcDbSpline
210
0.0
220
0.0
230
1.0
 70
     8
 71
     3
 72
    10
 73
     6
 74
     0
 42
0.000000001
 43
0.00000001
 40
0.0
 40
0.0
 40
0.0
 40
0.0
 40
0.4420559330587047
 40
0.8992256039080994
 40
1.0
 40
1.0
 40
1.0
 40
1.0
 10
202.6066529031999
 20
67.51807864590702
 30
0.0
 10
202.7380613056032
 20
67.31932264899528
 30
0.0
 10
203.0053709177421
 20
66.91501525713048
 30
0.0
 10
203.3307322342734
 20
66.49099386294509
 30
0.0
 10
203.5118564253597
 20
66.37070469888741
 30
0.0
 10
203.5445706023818
 20
66.34897838511769
 30
0.0
  0
LINE
  5
279
330
1F
100
AcDbEntity
  8
0
  6
Continuous
 62
     7
370
    25
100
AcDbLine
 10
204.1428721493
 20
66.0583231152
 30
0.0
 11
204.1428721493
 21
69.3104645331
 31
0.0
  0
LINE
  5
27A
330
1F
100
AcDbEntity
  8
0
  6
Continuous
 62
     7
370
    25
100
AcDbLine
 10
207.5998519479
 20
65.9517653429
 30
0.0
 11
207.5998519479
 21
69.43863108
 31
0.0
  0
LWPOLYLINE
  5
27B
330
1F
100
AcDbEntity
  8
0
  6
Continuous
 62
     7
370
    25
100
AcDbPolyline
 90
       68
 70
   128
 43
0.0
 10
219.4986615443
 20
24.811212417
 10
219.5639093824
 20
26.4545832479
 10
219.7590794963
 20
28.1588456271
 10
220.0824567241
 20
29.9090224357
 10
220.531199215
 20
31.6897330569
 10
221.1013634039
 20
33.4853285417
 10
221.7879386675
 20
35.2800291324
 10
222.5848913575
 20
37.0580629358
 10
223.4852178251
 20
38.8038045268
 10
224.481005969
 20
40.5019122655
 10
225.5635047671
 20
42.1374631202
 10
226.7232011811
 20
43.696083811
 10
227.9499037571
 20
45.1640771233
 10
229.2328321889
 20
46.5285422791
 10
230.5607120553
 20
47.7774883095
 10
231.9218739001
 20
48.899939432
 10
233.3043557843
 20
49.8860315056
 10
234.6960084073
 20
50.7270987178
 10
236.0846018758
 20
51.4157497397
 10
237.4579331804
 20
51.9459326814
 10
238.8039334364
 20
52.3129882761
 10
240.110773945
 20
52.5136908259
 10
241.3669701448
 20
52.5462765498
 10
242.5614825386
 20
52.4104590832
 10
243.6838137084
 20
52.1074319949
 10
244.7241005675
 20
51.6398582977
 10
245.6732010377
 20
51.0118470463
 10
246.5227743898
 20
50.228917226
 10
247.2653545427
 20
49.2979492522
 10
247.8944156754
 20
48.227124505
 10
248.4044295759
 20
47.0258534308
 10
248.7909142238
 20
45.7046928429
 10
249.0504731781
 20
44.2752531482
 10
249.1808254254
 20
42.7500963139
 10
249.1808254254
 20
41.1426254733
 10
249.0504731781
 20
39.4669671379
 10
248.7909142238
 20
37.7378470534
 10
248.4044295759
 20
35.9704607893
 10
247.8944156754
 20
34.1803401995
 10
247.2653545427
 20
32.3832169282
 10
246.5227743898
 20
30.5948841594
 10
245.6732010377
 20
28.8310578257
 10
244.7241005675
 20
27.1072384963
 10
243.6838137084
 20
25.4385751575
 10
242.5614825386
 20
23.8397320828
 10
241.3669701448
 20
22.3247599624
 10
240.110773945
 20
20.906972426
 10
238.8039334364
 20
19.5988290414
 10
237.4579331804
 20
18.4118258196
 10
236.0846018758
 20
17.3563941877
 10
234.6960084073
 20
16.4418093167
 10
233.3043557843
 20
15.6761086115
 10
231.9218739001
 20
15.0660210773
 10
230.5607120553
 20
14.6169081853
 10
229.2328321889
 20
14.3327167558
 10
227.9499037571
 20
14.2159442733
 10
226.7232011811
 20
14.2676169385
 10
225.5635047671
 20
14.4872806503
 10
224.481005969
 20
14.8730049959
 10
223.4852178251
 20
15.4214002161
 10
222.5848913575
 20
16.1276469938
 10
221.7879386675
 20
16.9855388071
 10
221.1013634039
 20
17.9875364717
 10
220.531199215
 20
19.1248343962
 10
220.0824567241
 20
20.3874379656
 10
219.7590794963
 20
21.7642513743
 10
219.5639093824
 20
23.2431751365
 10
219.4986615443
 20
24.811212417
  0
LWPOLYLINE
  5
27C
330
1F
100
AcDbEntity
  8
0
  6
Continuous
 62
     7
370
    25
100
AcDbPolyline
 90
       37
 70
   128
 43
0.0
 10
217.3773412008
 20
24.811212417
 10
217.4413897911
 20
26.4950553477
 10
217.6330198805
 20
28.2392898936
 10
217.9506885763
 20
30.0298725037
 10
218.3918381967
 20
31.8523864596
 10
218.9529168645
 20
33.6921579507
 10
219.6294071042
 20
35.5343742186
 10
220.4158622141
 20
37.3642028211
 10
221.3059501201
 20
39.1669110543
 10
222.2925043577
 20
40.9279845714
 10
223.3675817723
 20
42.6332442441
 10
224.5225264728
 20
44.268960324
 10
225.7480395234
 20
45.821962987
 10
227.0342538137
 20
47.279748369
 10
228.3708135024
 20
48.6305792391
 10
229.746957397
 20
49.8635795015
 10
231.1516055958
 20
50.968821763
 10
232.5734486975
 20
51.9374072629
 10
234.0010388575
 20
52.7615375201
 10
235.4228819592
 20
53.4345771225
 10
236.827530158
 20
53.951107151
 10
238.2036740525
 20
54.3069688093
 10
239.5402337413
 20
54.4992969088
 10
240.8264480316
 20
54.5265429366
 10
242.0519610822
 20
54.3884875238
 10
243.2069057826
 20
54.0862422113
 10
244.2819831973
 20
53.6222405007
 10
245.2685374349
 20
53.0002182609
 10
246.1586253409
 20
52.2251836493
 10
246.9450804508
 20
51.3033767889
 10
247.6215706904
 20
50.2422195264
 10
248.1826493583
 20
49.0502556763
 10
248.6237989787
 20
47.7370822305
 10
248.9414676744
 20
46.3132720895
 10
249.1330977638
 20
44.7902889354
 10
249.1971463542
 20
43.180394933
 10
249.1971463542
 20
43.180394933
  0
LWPOLYLINE
  5
27D
330
1F
100
AcDbEntity
  8
0
  6
Continuous
 62
     7
370
    25
100
AcDbPolyline
 90
       19
 70
   128
 43
0.0
 10
233.2898295841
 20
15.6251284046
 10
232.5734486975
 20
15.2300698299
 10
231.1516055958
 20
14.5570302275
 10
229.746957397
 20
14.040500199
 10
228.3708135024
 20
13.6846385407
 10
227.0342538137
 20
13.4923104412
 10
225.7480395234
 20
13.4650644134
 10
224.5225264728
 20
13.6031198262
 10
223.3675817723
 20
13.9053651387
 10
222.2925043577
 20
14.3693668493
 10
221.3059501201
 20
14.9913890891
 10
220.4158622141
 20
15.7664237007
 10
219.6294071042
 20
16.6882305611
 10
218.9529168645
 20
17.7493878236
 10
218.3918381967
 20
18.9413516737
 10
217.9506885763
 20
20.2545251195
 10
217.6330198805
 20
21.6783352605
 10
217.4413897911
 20
23.2013184146
 10
217.3773412008
 20
24.811212417
  0
SPLINE
  5
27E
330
1F
100
AcDbEntity
  8
0
  6
Continuous
 62
     7
370
    25
100
AcDbSpline
210
0.0
220
0.0
230
1.0
 70
    11
 71
     3
 72
    84
 73
    80
 74
     0
 42
0.000000001
 43
0.00000001
 40
0.0
 40
0.0
 40
0.0
 40
0.0
 40
0.0312500000000007
 40
0.0312500000000007
 40
0.0625000000000013
 40
0.0625000000000013
 40
0.093750000000002
 40
0.093750000000002
 40
0.1093750000000022
 40
0.1093750000000022
 40
0.1250000000000025
 40
0.1250000000000025
 40
0.1406250000000028
 40
0.1406250000000028
 40
0.1562500000000031
 40
0.1562500000000031
 40
0.1875000000000037
 40
0.1875000000000037
 40
0.2187500000000043
 40
0.2187500000000043
 40
0.2500000000000048
 40
0.2500000000000048
 40
0.2812500000000054
 40
0.2812500000000054
 40
0.3125000000000059
 40
0.3125000000000059
 40
0.3437500000000065
 40
0.3437500000000065
 40
0.375000000000007
 40
0.375000000000007
 40
0.3906250000000074
 40
0.3906250000000074
 40
0.4062500000000077
 40
0.4062500000000077
 40
0.4375000000000077
 40
0.4375000000000077
 40
0.4531250000000078
 40
0.4531250000000078
 40
0.4687500000000078
 40
0.4687500000000078
 40
0.5000000000000074
 40
0.5000000000000074
 40
0.5156250000000071
 40
0.5156250000000071
 40
0.5312500000000068
 40
0.5312500000000068
 40
0.5625000000000061
 40
0.5625000000000061
 40
0.5781250000000059
 40
0.5781250000000059
 40
0.5937500000000057
 40
0.5937500000000057
 40
0.6250000000000052
 40
0.6250000000000052
 40
0.640625000000005
 40
0.640625000000005
 40
0.6562500000000048
 40
0.6562500000000048
 40
0.6875000000000043
 40
0.6875000000000043
 40
0.7187500000000039
 40
0.7187500000000039
 40
0.7500000000000034
 40
0.7500000000000034
 40
0.7812500000000031
 40
0.7812500000000031
 40
0.8125000000000027
 40
0.8125000000000027
 40
0.8281250000000024
 40
0.8281250000000024
 40
0.8437500000000022
 40
0.8437500000000022
 40
0.8750000000000018
 40
0.8750000000000018
 40
0.9062500000000013
 40
0.9062500000000013
 40
0.9375000000000009
 40
0.9375000000000009
 40
1.0
 40
1.0
 40
1.0
 40
1.0
 10
206.0099841804073
 20
71.46848384586151
 30
0.0
 10
205.5811562517455
 20
71.54366983338089
 30
0.0
 10
205.1534815269396
 20
71.59597425183946
 30
0.0
 10
204.2997475014577
 20
71.64728445600402
 30
0.0
 10
203.8698710826631
 20
71.64551625116718
 30
0.0
 10
203.0504409722026
 20
71.57843654592945
 30
0.0
 10
202.6567464678305
 20
71.51393631741898
 30
0.0
 10
202.0923954223528
 20
71.36329643864909
 30
0.0
 10
201.9080300564503
 20
71.30361193810465
 30
0.0
 10
201.5597347735766
 20
71.16879299197551
 30
0.0
 10
201.3943856151899
 20
71.09337247579961
 30
0.0
 10
201.0811290741621
 20
70.92653594527307
 30
0.0
 10
200.9332210560557
 20
70.8351204876465
 30
0.0
 10
200.6552593325724
 20
70.63595151378587
 30
0.0
 10
200.5250115321771
 20
70.52775383299023
 30
0.0
 10
200.1719642353358
 20
70.1881048143615
 30
0.0
 10
199.9822791007513
 20
69.93911615498521
 30
0.0
 10
199.689973046108
 20
69.40093207393632
 30
0.0
 10
199.5916183821384
 20
69.11897758797103
 30
0.0
 10
199.4825949919318
 20
68.54240817657782
 30
0.0
 10
199.4723216751677
 20
68.24475251202935
 30
0.0
 10
199.5340059103204
 20
67.66135043643223
 30
0.0
 10
199.6050531083595
 20
67.37310565234507
 30
0.0
 10
199.8245454304202
 20
66.80762622893492
 30
0.0
 10
199.9709531733345
 20
66.53634760532255
 30
0.0
 10
200.3293366732166
 20
66.02377815613019
 30
0.0
 10
200.543211179679
 20
65.78025420490371
 30
0.0
 10
201.0323677682453
 20
65.33094644465285
 30
0.0
 10
201.3038004379208
 20
65.12812134846314
 30
0.0
 10
201.7497777957099
 20
64.85627216562762
 30
0.0
 10
201.9049496062025
 20
64.77107376116072
 30
0.0
 10
202.2285654425764
 20
64.61169108864698
 30
0.0
 10
202.3978563648531
 20
64.53721094045302
 30
0.0
 10
202.9179727195921
 20
64.33394320134087
 30
0.0
 10
203.2816760887533
 20
64.2244622050401
 30
0.0
 10
203.85260056409
 20
64.09714328265122
 30
0.0
 10
204.0471642372069
 20
64.06088220266697
 30
0.0
 10
204.445147707554
 20
64.00071372159323
 30
0.0
 10
204.6495633736126
 20
63.97675889775263
 30
0.0
 10
205.2655723381251
 20
63.9245697926919
 30
0.0
 10
205.6818973359434
 20
63.91526894154494
 30
0.0
 10
206.3156574578234
 20
63.93713516570311
 30
0.0
 10
206.5284673326505
 20
63.9504331260987
 30
0.0
 10
206.9574964495705
 20
63.98916626414655
 30
0.0
 10
207.174741978943
 20
64.01480468549542
 30
0.0
 10
207.8166806038023
 20
64.10814082149517
 30
0.0
 10
208.2357556520032
 20
64.19221357520304
 30
0.0
 10
208.8506484009707
 20
64.349728860983
 30
0.0
 10
209.0533078238667
 20
64.40751504261591
 30
0.0
 10
209.4536837136136
 20
64.5340721964703
 30
0.0
 10
209.6497118650442
 20
64.60240162073222
 30
0.0
 10
210.2127092851722
 20
64.81766936919435
 30
0.0
 10
210.5599714302485
 20
64.97628199999932
 30
0.0
 10
211.036411473461
 20
65.23699570462787
 30
0.0
 10
211.1877328575829
 20
65.32790633020532
 30
0.0
 10
211.4661023661102
 20
65.51200159772712
 30
0.0
 10
211.5944451323435
 20
65.60585044754148
 30
0.0
 10
211.9478337401759
 20
65.89292822029552
 30
0.0
 10
212.1426026819632
 20
66.0939497744665
 30
0.0
 10
212.4341469861248
 20
66.49561126126609
 30
0.0
 10
212.5339150338584
 20
66.69843497857138
 30
0.0
 10
212.6448197635158
 20
67.10759145805633
 30
0.0
 10
212.6550915434757
 20
67.30928665598461
 30
0.0
 10
212.5942456868953
 20
67.71273115740932
 30
0.0
 10
212.5218276792591
 20
67.91542484278882
 30
0.0
 10
212.30412901068
 20
68.31192575087329
 30
0.0
 10
212.158906489283
 20
68.50747948860241
 30
0.0
 10
211.8876058931981
 20
68.80013191602836
 30
0.0
 10
211.7881239534709
 20
68.89752157272636
 30
0.0
 10
211.5750094214025
 20
69.08896445262971
 30
0.0
 10
211.4609790187224
 20
69.18347094566063
 30
0.0
 10
211.0970062582346
 20
69.4638959612926
 30
0.0
 10
210.8253631531549
 20
69.6467971065142
 30
0.0
 10
210.2224801268464
 20
70.0054744502766
 30
0.0
 10
209.8976924571493
 20
70.17727590844002
 30
0.0
 10
209.2091252212978
 20
70.50234866205416
 30
0.0
 10
208.8444033431913
 20
70.65620329061811
 30
0.0
 10
207.6850682064097
 20
71.08646355708446
 30
0.0
 10
206.8676400377308
 20
71.31811187082273
 30
0.0
 10
206.0099841804073
 20
71.46848384586151
 30
0.0
  0
LINE
  5
27F
330
1F
100
AcDbEntity
  8
0
  6
Continuous
 62
     7
370
    25
100
AcDbLine
 10
206.9883932703
 20
75.15586076
 30
0.0
 11
207.1290204709
 21
75.0766829346
 31
0.0
  0
LINE
  5
280
330
1F
100
AcDbEntity
  8
0
  6
Continuous
 62
     7
370
    25
100
AcDbLine
 10
184.6308489866
 20
36.1044841275
 30
0.0
 11
184.460971928
 21
36.2055592591
 31
0.0
  0
SPLINE
  5
281
330
1F
100
AcDbEntity
  8
0
  6
Continuous
 62
     7
370
    25
100
AcDbSpline
210
0.0
220
0.0
230
1.0
 70
    11
 71
     3
 72
    84
 73
    80
 74
     0
 42
0.000000001
 43
0.00000001
 40
0.0
 40
0.0
 40
0.0
 40
0.0
 40
0.0312500000000009
 40
0.0312500000000009
 40
0.0625000000000018
 40
0.0625000000000018
 40
0.0937500000000027
 40
0.0937500000000027
 40
0.1093750000000032
 40
0.1093750000000032
 40
0.1250000000000036
 40
0.1250000000000036
 40
0.1406250000000041
 40
0.1406250000000041
 40
0.1562500000000045
 40
0.1562500000000045
 40
0.1875000000000054
 40
0.1875000000000054
 40
0.2187500000000062
 40
0.2187500000000062
 40
0.250000000000007
 40
0.250000000000007
 40
0.2812500000000078
 40
0.2812500000000078
 40
0.3125000000000087
 40
0.3125000000000087
 40
0.3437500000000095
 40
0.3437500000000095
 40
0.3750000000000104
 40
0.3750000000000104
 40
0.3906250000000108
 40
0.3906250000000108
 40
0.4062500000000112
 40
0.4062500000000112
 40
0.4375000000000115
 40
0.4375000000000115
 40
0.4531250000000117
 40
0.4531250000000117
 40
0.4687500000000119
 40
0.4687500000000119
 40
0.5000000000000113
 40
0.5000000000000113
 40
0.5156250000000115
 40
0.5156250000000115
 40
0.5312500000000117
 40
0.5312500000000117
 40
0.5625000000000113
 40
0.5625000000000113
 40
0.5781250000000109
 40
0.5781250000000109
 40
0.5937500000000104
 40
0.5937500000000104
 40
0.6250000000000097
 40
0.6250000000000097
 40
0.6406250000000093
 40
0.6406250000000093
 40
0.6562500000000089
 40
0.6562500000000089
 40
0.687500000000008
 40
0.687500000000008
 40
0.7187500000000071
 40
0.7187500000000071
 40
0.7500000000000062
 40
0.7500000000000062
 40
0.7812500000000053
 40
0.7812500000000053
 40
0.8125000000000044
 40
0.8125000000000044
 40
0.828125000000004
 40
0.828125000000004
 40
0.8437500000000036
 40
0.8437500000000036
 40
0.8750000000000028
 40
0.8750000000000028
 40
0.9062500000000021
 40
0.9062500000000021
 40
0.9375000000000013
 40
0.9375000000000013
 40
1.0
 40
1.0
 40
1.0
 40
1.0
 10
222.2734401476978
 20
62.07979055990033
 30
0.0
 10
221.8446122190361
 20
62.15497654741971
 30
0.0
 10
221.4169374942302
 20
62.2072809658783
 30
0.0
 10
220.5632034687483
 20
62.25859117004284
 30
0.0
 10
220.1333270499536
 20
62.256822965206
 30
0.0
 10
219.3138969394931
 20
62.18974325996827
 30
0.0
 10
218.9202024351211
 20
62.12524303145783
 30
0.0
 10
218.3558513896433
 20
61.97460315268791
 30
0.0
 10
218.1714860237408
 20
61.91491865214348
 30
0.0
 10
217.8231907408671
 20
61.78009970601435
 30
0.0
 10
217.6578415824804
 20
61.70467918983844
 30
0.0
 10
217.3445850414527
 20
61.53784265931191
 30
0.0
 10
217.1966770233462
 20
61.44642720168535
 30
0.0
 10
216.918715299863
 20
61.24725822782469
 30
0.0
 10
216.7884674994677
 20
61.13906054702905
 30
0.0
 10
216.4354202026264
 20
60.79941152840033
 30
0.0
 10
216.2457350680419
 20
60.55042286902405
 30
0.0
 10
215.9534290133986
 20
60.01223878797514
 30
0.0
 10
215.8550743494289
 20
59.73028430200987
 30
0.0
 10
215.7460509592223
 20
59.15371489061665
 30
0.0
 10
215.7357776424582
 20
58.85605922606819
 30
0.0
 10
215.797461877611
 20
58.27265715047105
 30
0.0
 10
215.8685090756501
 20
57.98441236638391
 30
0.0
 10
216.0880013977107
 20
57.41893294297374
 30
0.0
 10
216.2344091406251
 20
57.14765431936139
 30
0.0
 10
216.5927926405072
 20
56.63508487016903
 30
0.0
 10
216.8066671469695
 20
56.39156091894253
 30
0.0
 10
217.2958237355359
 20
55.94225315869169
 30
0.0
 10
217.5672564052114
 20
55.73942806250197
 30
0.0
 10
218.0132337630004
 20
55.46757887966643
 30
0.0
 10
218.1684055734931
 20
55.38238047519955
 30
0.0
 10
218.492021409867
 20
55.22299780268582
 30
0.0
 10
218.6613123321437
 20
55.14851765449184
 30
0.0
 10
219.1814286868827
 20
54.9452499153797
 30
0.0
 10
219.5451320560439
 20
54.83576891907891
 30
0.0
 10
220.1160565313806
 20
54.70844999669006
 30
0.0
 10
220.3106202044974
 20
54.67218891670584
 30
0.0
 10
220.7086036748445
 20
54.61202043563207
 30
0.0
 10
220.9130193409032
 20
54.58806561179147
 30
0.0
 10
221.5290283054157
 20
54.53587650673072
 30
0.0
 10
221.945353303234
 20
54.52657565558376
 30
0.0
 10
222.5791134251139
 20
54.54844187974195
 30
0.0
 10
222.7919232999411
 20
54.56173984013753
 30
0.0
 10
223.2209524168611
 20
54.60047297818538
 30
0.0
 10
223.4381979462336
 20
54.62611139953426
 30
0.0
 10
224.0801365710928
 20
54.71944753553399
 30
0.0
 10
224.4992116192938
 20
54.80352028924188
 30
0.0
 10
225.1141043682612
 20
54.96103557502183
 30
0.0
 10
225.3167637911573
 20
55.01882175665475
 30
0.0
 10
225.7171396809042
 20
55.14537891050914
 30
0.0
 10
225.9131678323347
 20
55.21370833477106
 30
0.0
 10
226.4761652524628
 20
55.4289760832332
 30
0.0
 10
226.8234273975391
 20
55.58758871403817
 30
0.0
 10
227.2998674407517
 20
55.84830241866671
 30
0.0
 10
227.4511888248734
 20
55.93921304424415
 30
0.0
 10
227.7295583334007
 20
56.12330831176595
 30
0.0
 10
227.8579010996341
 20
56.21715716158032
 30
0.0
 10
228.2112897074664
 20
56.50423493433436
 30
0.0
 10
228.4060586492538
 20
56.70525648850532
 30
0.0
 10
228.6976029534154
 20
57.10691797530492
 30
0.0
 10
228.797371001149
 20
57.30974169261023
 30
0.0
 10
228.9082757308063
 20
57.71889817209517
 30
0.0
 10
228.9185475107663
 20
57.92059337002345
 30
0.0
 10
228.8577016541859
 20
58.32403787144815
 30
0.0
 10
228.7852836465496
 20
58.52673155682766
 30
0.0
 10
228.5675849779705
 20
58.92323246491213
 30
0.0
 10
228.4223624565736
 20
59.11878620264125
 30
0.0
 10
228.1510618604887
 20
59.41143863006722
 30
0.0
 10
228.0515799207614
 20
59.50882828676519
 30
0.0
 10
227.8384653886931
 20
59.70027116666854
 30
0.0
 10
227.7244349860129
 20
59.79477765969947
 30
0.0
 10
227.3604622255251
 20
60.07520267533145
 30
0.0
 10
227.0888191204455
 20
60.25810382055304
 30
0.0
 10
226.4859360941369
 20
60.61678116431543
 30
0.0
 10
226.1611484244399
 20
60.78858262247887
 30
0.0
 10
225.4725811885883
 20
61.11365537609299
 30
0.0
 10
225.1078593104818
 20
61.26751000465696
 30
0.0
 10
223.9485241737003
 20
61.69777027112328
 30
0.0
 10
223.1310960050214
 20
61.92941858486157
 30
0.0
 10
222.2734401476978
 20
62.07979055990033
 30
0.0
  0
LINE
  5
282
330
1F
100
AcDbEntity
  8
0
  6
Continuous
 62
     7
370
    25
100
AcDbLine
 10
239.7488678908
 20
44.698953238
 30
0.0
 11
239.7938426278
 21
44.6726135254
 31
0.0
  0
ARC
  5
283
330
1F
100
AcDbEntity
  8
0
  6
Continuous
 62
     7
370
    25
100
AcDbCircle
 10
214.6190808843
 20
44.7387835221
 30
0.0
 40
35.10400081531147
100
AcDbArc
 50
127.3823354258
 51
170.8262953116
  0
SPLINE
  5
284
330
1F
100
AcDbEntity
  8
0
  6
Continuous
 62
     7
370
    25
100
AcDbSpline
210
0.0
220
0.0
230
1.0
 70
     8
 71
     3
 72
    12
 73
     8
 74
     0
 42
0.000000001
 43
0.00000001
 40
0.0
 40
0.0
 40
0.0
 40
0.0
 40
0.25
 40
0.25
 40
0.5
 40
0.5
 40
1.0
 40
1.0
 40
1.0
 40
1.0
 10
188.9241527482336
 20
79.98686600493727
 30
0.0
 10
188.8976278392363
 20
80.00217850896557
 30
0.0
 10
188.8831445009606
 20
80.01894900497139
 30
0.0
 10
188.8722989147489
 20
80.04987902431219
 30
0.0
 10
188.8751186441893
 20
80.06378514416124
 30
0.0
 10
188.8955348989288
 20
80.10210974602053
 30
0.0
 10
188.9243785540979
 20
80.12251752489449
 30
0.0
 10
188.9589597332476
 20
80.13994581517065
 30
0.0
  0
LINE
  5
285
330
1F
100
AcDbEntity
  8
0
  6
Continuous
 62
     7
370
    25
100
AcDbLine
 10
190.4346714229
 20
79.1148621351
 30
0.0
 11
188.9241527482
 21
79.9868660049
 31
0.0
  0
SPLINE
  5
286
330
1F
100
AcDbEntity
  8
0
  6
Continuous
 62
     7
370
    25
100
AcDbSpline
210
0.0
220
0.0
230
1.0
 70
     8
 71
     3
 72
    12
 73
     8
 74
     0
 42
0.000000001
 43
0.00000001
 40
0.0
 40
0.0
 40
0.0
 40
0.0
 40
0.5000000000000021
 40
0.5000000000000021
 40
0.750000000000001
 40
0.750000000000001
 40
1.0
 40
1.0
 40
1.0
 40
1.0
 10
190.8369018693813
 20
79.05583289597293
 30
0.0
 10
190.7758956169551
 20
79.05367153253214
 30
0.0
 10
190.7107443064737
 20
79.0541694943915
 30
0.0
 10
190.6052752956026
 20
79.06502169647011
 30
0.0
 10
190.568453269468
 20
79.07046863027648
 30
0.0
 10
190.4967116855127
 20
79.08750653935036
 30
0.0
 10
190.4611001103442
 20
79.09960517866854
 30
0.0
 10
190.4346714229499
 20
79.11486213514782
 30
0.0
  0
ELLIPSE
  5
287
330
1F
100
AcDbEntity
  8
0
  6
Continuous
 62
     7
370
    25
100
AcDbEllipse
 10
179.2296875452
 20
65.2025666333
 30
0.0
 11
20.19646445640936
 21
10.567879341078
 31
0.0
210
0.0
220
0.0
230
1.0
 40
0.4445305117
 41
0.2747775750656745
 42
0.7481474682756502
  0
ELLIPSE
  5
288
330
1F
100
AcDbEntity
  8
0
  6
Continuous
 62
     7
370
    25
100
AcDbEllipse
 10
191.8853845496
 20
57.8965882648
 30
0.0
 11
-0.9474338145994922
 21
22.77431601346332
 31
0.0
210
0.0
220
0.0
230
1.0
 40
0.4444802122
 41
5.836017956378351
 42
6.481829340127725
  0
ELLIPSE
  5
289
330
1F
100
AcDbEntity
  8
0
  6
Continuous
 62
     7
370
    25
100
AcDbEllipse
 10
179.2296875452
 20
65.2025666333
 30
0.0
 11
-0.9474338145995773
 21
22.77431601346336
 31
0.0
210
0.0
220
0.0
230
1.0
 40
0.4444802122
 41
2.393334371993793
 42
2.866866793327969
  0
SPLINE
  5
28A
330
1F
100
AcDbEntity
  8
0
  6
Continuous
 62
     7
370
    25
100
AcDbSpline
210
0.0
220
0.0
230
1.0
 70
     8
 71
     3
 72
    12
 73
     8
 74
     0
 42
0.000000001
 43
0.00000001
 40
0.0
 40
0.0
 40
0.0
 40
0.0
 40
0.2499999999999997
 40
0.2499999999999997
 40
0.4999999999999994
 40
0.4999999999999994
 40
1.0
 40
1.0
 40
1.0
 40
1.0
 10
172.7846714229498
 20
48.54416547127872
 30
0.0
 10
172.8111963319471
 20
48.52885296725041
 30
0.0
 10
172.8393327414866
 20
48.50419815875137
 30
0.0
 10
172.8904587168099
 20
48.45000720646977
 30
0.0
 10
172.9130936496742
 20
48.42140164587636
 30
0.0
 10
172.9753237073856
 20
48.33535083346822
 30
0.0
 10
173.0082640123503
 20
48.27926433884228
 30
0.0
 10
173.0369018693813
 20
48.22532861173101
 30
0.0
  0
LINE
  5
28B
330
1F
100
AcDbEntity
  8
0
  6
Continuous
 62
     7
370
    25
100
AcDbLine
 10
171.2741527482
 20
49.4161693411
 30
0.0
 11
172.7846714229
 21
48.5441654713
 31
0.0
  0
SPLINE
  5
28C
330
1F
100
AcDbEntity
  8
0
  6
Continuous
 62
     7
370
    25
100
AcDbSpline
210
0.0
220
0.0
230
1.0
 70
     8
 71
     3
 72
    12
 73
     8
 74
     0
 42
0.000000001
 43
0.00000001
 40
0.0
 40
0.0
 40
0.0
 40
0.0
 40
0.4999999999999978
 40
0.4999999999999978
 40
0.7499999999999989
 40
0.7499999999999989
 40
1.0
 40
1.0
 40
1.0
 40
1.0
 10
171.1589597332475
 20
49.30944153092872
 30
0.0
 10
171.1567673341785
 20
49.34809855955071
 30
0.0
 10
171.1600448700652
 20
49.38333117908318
 30
0.0
 10
171.1829942163211
 20
49.42013205154658
 30
0.0
 10
171.1939098912741
 20
49.42964539768952
 30
0.0
 10
171.2258476949593
 20
49.43559319168549
 30
0.0
 10
171.2477240608392
 20
49.43142629754745
 30
0.0
 10
171.2741527482335
 20
49.41616934106818
 30
0.0
  0
ELLIPSE
  5
28D
330
1F
100
AcDbEntity
  8
0
  6
Continuous
 62
     7
370
    25
100
AcDbEllipse
 10
191.8853845496
 20
57.8965882648
 30
0.0
 11
20.19646445640933
 21
10.56787934107803
 31
0.0
210
0.0
220
0.0
230
1.0
 40
0.4445305117
 41
2.942837807321293
 42
3.58881171919493
  0
SPLINE
  5
28E
330
1F
100
AcDbEntity
  8
0
  6
Continuous
 62
     7
370
    25
100
AcDbSpline
210
0.0
220
0.0
230
1.0
 70
     8
 71
     3
 72
    12
 73
     8
 74
     0
 42
0.000000001
 43
0.00000001
 40
0.0
 40
0.0
 40
0.0
 40
0.0
 40
0.2500000000000027
 40
0.2500000000000027
 40
0.5000000000000053
 40
0.5000000000000053
 40
1.0
 40
1.0
 40
1.0
 40
1.0
 10
171.2741527482335
 20
58.93574996531692
 30
0.0
 10
171.2476356620766
 20
58.95105795331563
 30
0.0
 10
171.2258727282513
 20
58.9793778679083
 30
0.0
 10
171.1936631666638
 20
59.04446148479399
 30
0.0
 10
171.1830267807927
 20
59.07998225019752
 30
0.0
 10
171.1600329489888
 20
59.18865444467679
 30
0.0
 10
171.1567536328506
 20
59.26153776191348
 30
0.0
 10
171.1589597332475
 20
59.33369685013382
 30
0.0
  0
LINE
  5
28F
330
1F
100
AcDbEntity
  8
0
  6
Continuous
 62
     7
370
    25
100
AcDbLine
 10
172.7846714229
 20
58.0637460955
 30
0.0
 11
171.2741527482
 21
58.9357499653
 31
0.0
  0
SPLINE
  5
290
330
1F
100
AcDbEntity
  8
0
  6
Continuous
 62
     7
370
    25
100
AcDbSpline
210
0.0
220
0.0
230
1.0
 70
     8
 71
     3
 72
    12
 73
     8
 74
     0
 42
0.000000001
 43
0.00000001
 40
0.0
 40
0.0
 40
0.0
 40
0.0
 40
0.4999999999999969
 40
0.4999999999999969
 40
0.7499999999999984
 40
0.7499999999999984
 40
1.0
 40
1.0
 40
1.0
 40
1.0
 10
173.0369018693813
 20
58.24958393093611
 30
0.0
 10
173.0081047822961
 20
58.19280212908107
 30
0.0
 10
172.9752734842061
 20
58.14073186078461
 30
0.0
 10
172.9130813921442
 20
58.08127337624609
 30
0.0
 10
172.8901009798217
 20
58.06483978810051
 30
0.0
 10
172.8397266743531
 20
58.04808289023563
 30
0.0
 10
172.8111545936005
 20
58.04845768653377
 30
0.0
 10
172.7846714229499
 20
58.06374609552743
 30
0.0
  0
ELLIPSE
  5
291
330
1F
100
AcDbEntity
  8
0
  6
Continuous
 62
     7
370
    25
100
AcDbEllipse
 10
179.2296875452
 20
65.2025666333
 30
0.0
 11
9.999858383106982
 21
17.32058985460519
 31
0.0
210
0.0
220
0.0
230
1.0
 40
0.1059897947
 41
1.097268011763437
 42
2.044170326307566
  0
SPLINE
  5
292
330
1F
100
AcDbEntity
  8
0
  6
Continuous
 62
     7
370
    25
100
AcDbSpline
210
0.0
220
0.0
230
1.0
 70
     8
 71
     3
 72
    12
 73
     8
 74
     0
 42
0.000000001
 43
0.00000001
 40
0.0
 40
0.0
 40
0.0
 40
0.0
 40
0.2499999999999984
 40
0.2499999999999984
 40
0.4999999999999969
 40
0.4999999999999969
 40
1.0
 40
1.0
 40
1.0
 40
1.0
 10
182.1909193465377
 20
74.35584535995537
 30
0.0
 10
182.2174364326946
 20
74.34053737195664
 30
0.0
 10
182.231919440656
 20
74.3164214353064
 30
0.0
 10
182.2427717329133
 20
74.26367111560683
 30
0.0
 10
182.2399585672013
 20
74.23591713509192
 30
0.0
 10
182.2195630770543
 20
74.15230120572106
 30
0.0
 10
182.190898434422
 20
74.09786473816031
 30
0.0
 10
182.1561123615237
 20
74.04451978188561
 30
0.0
  0
LINE
  5
293
330
1F
100
AcDbEntity
  8
0
  6
Continuous
 62
     7
370
    25
100
AcDbLine
 10
180.6804006718
 20
75.2278492297
 30
0.0
 11
182.1909193465
 21
74.35584536
 31
0.0
  0
SPLINE
  5
294
330
1F
100
AcDbEntity
  8
0
  6
Continuous
 62
     7
370
    25
100
AcDbSpline
210
0.0
220
0.0
230
1.0
 70
     8
 71
     3
 72
    12
 73
     8
 74
     0
 42
0.000000001
 43
0.00000001
 40
0.0
 40
0.0
 40
0.0
 40
0.0
 40
0.5000000000000022
 40
0.5000000000000022
 40
0.7500000000000011
 40
0.7500000000000011
 40
1.0
 40
1.0
 40
1.0
 40
1.0
 10
180.2781702253899
 20
75.12863270108332
 30
0.0
 10
180.3395354671208
 20
75.16660719551335
 30
0.0
 10
180.4043255732645
 20
75.20022203903854
 30
0.0
 10
180.5098901006935
 20
75.23463401005496
 30
0.0
 10
180.5464667294264
 20
75.24321611798534
 30
0.0
 10
180.6178986517993
 20
75.24781276056198
 30
0.0
 10
180.6539175011708
 20
75.24313763873849
 30
0.0
 10
180.6804006718214
 20
75.22784922974482
 30
0.0
  0
ELLIPSE
  5
295
330
1F
100
AcDbEntity
  8
0
  6
Continuous
 62
     7
370
    25
100
AcDbEllipse
 10
191.8853845496
 20
57.8965882648
 30
0.0
 11
18.16175696005977
 21
-10.49384394577497
 31
0.0
210
0.0
220
0.0
230
1.0
 40
0.9534948969
 41
2.668462287779718
 42
3.615364602323866
  0
ARC
  5
296
330
1F
100
AcDbEntity
  8
0
  6
Continuous
 62
     7
370
    25
100
AcDbCircle
 10
186.2267340729
 20
74.5650302082
 30
0.0
 40
8.401093276554967
100
AcDbArc
 50
62.4532890316
 51
109.9607948391
  0
ARC
  5
297
330
1F
100
AcDbEntity
  8
0
  6
Continuous
 62
     7
370
    25
100
AcDbCircle
 10
174.7270841884
 20
54.5190627547
 30
0.0
 40
8.506924534819618
100
AcDbArc
 50
191.6347069783
 51
237.1584299551
  0
ARC
  5
298
330
1F
100
AcDbEntity
  8
0
  6
Continuous
 62
     7
370
    25
100
AcDbCircle
 10
197.9513508188
 20
54.3906963842
 30
0.0
 40
32.23168364715958
100
AcDbArc
 50
131.3553878128
 51
157.4266290558
  0
ARC
  5
299
330
1F
100
AcDbEntity
  8
0
  6
Continuous
 62
     7
370
    25
100
AcDbCircle
 10
183.9747244766
 20
64.4160907152
 30
0.0
 40
29.55813796521777
100
AcDbArc
 50
140.1701749221
 51
177.4184653376
  0
LINE
  5
29A
330
1F
100
AcDbEntity
  8
0
  6
Continuous
 62
     7
370
    25
100
AcDbLine
 10
171.2741527482
 20
49.4161693411
 30
0.0
 11
172.7868408482
 21
48.5426292082
 31
0.0
  0
ARC
  5
29B
330
1F
100
AcDbEntity
  8
0
  6
Continuous
 62
     7
370
    25
100
AcDbCircle
 10
167.1253482608
 20
79.4860095837
 30
0.0
 40
7.00984565726836
100
AcDbArc
 50
93.4295381122
 51
146.5650853551
  0
ARC
  5
29C
330
1F
100
AcDbEntity
  8
0
  6
Continuous
 62
     7
370
    25
100
AcDbCircle
 10
158.3420325965
 20
65.3829478168
 30
0.0
 40
3.912462140583921
100
AcDbArc
 50
174.6547638622
 51
232.6759834224
  0
ARC
  5
29D
330
1F
100
AcDbEntity
  8
0
  6
Continuous
 62
     7
370
    25
100
AcDbCircle
 10
166.1609663152
 20
79.6942496896
 30
0.0
 40
6.810895608284421
100
AcDbArc
 50
61.9783823651
 51
85.409962841
  0
ARC
  5
29E
330
1F
100
AcDbEntity
  8
0
  6
Continuous
 62
     7
370
    25
100
AcDbCircle
 10
182.2025006227
 20
65.4416039157
 30
0.0
 40
28.23285686934428
100
AcDbArc
 50
140.1701749221
 51
177.4184653376
  0
ARC
  5
29F
330
1F
100
AcDbEntity
  8
0
  6
Continuous
 62
     7
370
    25
100
AcDbCircle
 10
166.314336316
 20
79.3332197599
 30
0.0
 40
7.150739995411998
100
AcDbArc
 50
103.4689958683
 51
144.1118487458
  0
ARC
  5
2A0
330
1F
100
AcDbEntity
  8
0
  6
Continuous
 62
     7
370
    25
100
AcDbCircle
 10
158.7390308212
 20
66.6185730629
 30
0.0
 40
4.741679722196216
100
AcDbArc
 50
178.8560094402
 51
201.1091694604
  0
LWPOLYLINE
  5
2A1
330
1F
100
AcDbEntity
  8
0
  6
Continuous
 62
     7
370
    18
100
AcDbPolyline
 90
       28
 70
   128
 43
0.0
 10
179.970032152
 20
46.405992273
 10
180.0340807424
 20
48.0898352038
 10
180.2257108318
 20
49.8340697496
 10
180.5433795275
 20
51.6246523597
 10
180.9845291479
 20
53.4471663157
 10
181.5456078157
 20
55.2869378067
 10
182.2220980554
 20
57.1291540746
 10
183.0085531653
 20
58.9589826772
 10
183.8986410713
 20
60.7616909103
 10
184.8851953089
 20
62.5227644275
 10
185.9602727236
 20
64.2280241001
 10
187.115217424
 20
65.86374018
 10
188.3407304746
 20
67.4167428431
 10
189.6269447649
 20
68.874528225
 10
190.9635044537
 20
70.2253590951
 10
192.3396483482
 20
71.4583593575
 10
193.744296547
 20
72.563601619
 10
195.1661396487
 20
73.5321871189
 10
196.5937298087
 20
74.3563173762
 10
198.0155729104
 20
75.0293569786
 10
199.4202211092
 20
75.545887007
 10
200.7963650038
 20
75.9017486654
 10
202.1329246925
 20
76.0940767648
 10
203.4191389828
 20
76.1213227926
 10
204.6446520334
 20
75.9832673798
 10
205.7995967338
 20
75.6810220673
 10
206.8746741485
 20
75.2170203567
 10
206.9883932703
 20
75.15586076
  0
LWPOLYLINE
  5
2A2
330
1F
100
AcDbEntity
  8
0
  6
Continuous
 62
     7
370
    18
100
AcDbPolyline
 90
       10
 70
   128
 43
0.0
 10
184.460971928
 20
36.2055592591
 10
183.8986410713
 20
36.5861689451
 10
183.0085531653
 20
37.3612035567
 10
182.2220980554
 20
38.2830104171
 10
181.5456078157
 20
39.3441676796
 10
180.9845291479
 20
40.5361315298
 10
180.5433795275
 20
41.8493049756
 10
180.2257108318
 20
43.2731151165
 10
180.0340807424
 20
44.7960982707
 10
179.970032152
 20
46.405992273
  0
LWPOLYLINE
  5
2A3
330
1F
100
AcDbEntity
  8
0
  6
Continuous
 62
     7
370
    18
100
AcDbPolyline
 90
       55
 70
   128
 43
0.0
 10
224.660541047
 20
27.7911020251
 10
224.7260435294
 20
29.1276018556
 10
224.9216651678
 20
30.5216553749
 10
225.2447605151
 20
31.9544104008
 10
225.6909602611
 20
33.4064913793
 10
226.2542303197
 20
34.8582614063
 10
226.9269534295
 20
36.2900877826
 10
227.7000321646
 20
37.6826075128
 10
228.5630119612
 20
39.0169891564
 10
229.5042224981
 20
40.2751874907
 10
230.5109355174
 20
41.4401875417
 10
231.5695369524
 20
42.4962346823
 10
232.6657110349
 20
43.4290476864
 10
233.7846338907
 20
44.2260118585
 10
234.9111740078
 20
44.8763496252
 10
236.0300968636
 20
45.371266284
 10
237.1262709461
 20
45.7040689361
 10
238.1848723811
 20
45.8702569965
 10
239.1915854004
 20
45.8675830567
 10
240.1327959373
 20
45.6960832773
 10
240.9957757339
 20
45.3580768985
 10
241.768854469
 20
44.8581348767
 10
242.4415775788
 20
44.2030180703
 10
243.0048476374
 20
43.40158581
 10
243.4510473834
 20
42.4646760925
 10
243.7741427307
 20
41.4049590144
 10
243.9697643691
 20
40.2367654312
 10
244.0352668515
 20
38.9758931571
 10
243.9697643691
 20
37.6393933267
 10
243.7741427307
 20
36.2453398073
 10
243.4510473834
 20
34.8125847815
 10
243.0048476374
 20
33.3605038029
 10
242.4415775788
 20
31.9087337759
 10
241.768854469
 20
30.4769073996
 10
240.9957757339
 20
29.0843876694
 10
240.1327959373
 20
27.7500060258
 10
239.1915854004
 20
26.4918076915
 10
238.1848723811
 20
25.3268076405
 10
237.1262709461
 20
24.2707605
 10
236.0300968636
 20
23.3379474959
 10
234.9111740078
 20
22.5409833238
 10
233.7846338907
 20
21.890645557
 10
232.6657110349
 20
21.3957288982
 10
231.5695369524
 20
21.0629262462
 10
230.5109355174
 20
20.8967381858
 10
229.5042224981
 20
20.8994121256
 10
228.5630119612
 20
21.070911905
 10
227.7000321646
 20
21.4089182838
 10
226.9269534295
 20
21.9088603055
 10
226.2542303197
 20
22.563977112
 10
225.6909602611
 20
23.3654093722
 10
225.2447605151
 20
24.3023190897
 10
224.9216651678
 20
25.3620361679
 10
224.7260435294
 20
26.5302297511
 10
224.660541047
 20
27.7911020251
  0
LWPOLYLINE
  5
2A4
330
1F
100
AcDbEntity
  8
0
  6
Continuous
 62
     7
370
    18
100
AcDbPolyline
 90
       28
 70
   128
 43
0.0
 10
239.7938426278
 20
44.6726135254
 10
240.1153386346
 20
44.4609904212
 10
240.7735942166
 20
43.8707599771
 10
241.3257753141
 20
43.1347446733
 10
241.7638298834
 20
42.2636772704
 10
242.0813701023
 20
41.2702598925
 10
242.2737655196
 20
40.168978802
 10
242.3382105767
 20
38.9758931571
 10
242.2737655196
 20
37.7084008331
 10
242.0813701023
 20
36.3849847221
 10
241.7638298834
 20
35.0249432113
 10
241.3257753141
 20
33.6481087682
 10
240.7735942166
 20
32.2745587396
 10
240.1153386346
 20
30.9243225777
 10
239.3606074168
 20
29.6170897663
 10
238.5204062439
 20
28.3719227033
 10
237.6069871409
 20
27.2069787286
 10
236.6336698152
 20
26.1392453483
 10
235.6146474251
 20
25.1842925196
 10
234.5647796117
 20
24.356045605
 10
233.4993758118
 20
23.6665823096
 10
232.433972012
 20
23.1259565609
 10
231.3841041986
 20
22.7420518995
 10
230.3650818085
 20
22.5204665199
 10
229.3917644827
 20
22.464431636
 10
228.4783453798
 20
22.5747643625
 10
227.6381442068
 20
22.8498557998
 10
227.2361443093
 20
23.0556982251
  0
ARC
  5
2A5
330
1F
100
AcDbEntity
  8
0
  6
Continuous
 62
     7
370
    18
100
AcDbCircle
 10
211.5011223664
 20
46.5726638596
 30
0.0
 40
31.7491877532932
100
AcDbArc
 50
127.5966771822
 51
172.4086993505
  0
LWPOLYLINE
  5
2A6
330
1F
100
AcDbEntity
  8
0
  6
Continuous
 62
     7
370
    18
100
AcDbPolyline
 90
       20
 70
   128
 43
0.0
 10
165.9706782085
 20
56.5286675613
 10
166.0347148936
 20
58.1179779282
 10
166.2262450227
 20
59.7668304372
 10
166.5435340694
 20
61.4602928245
 10
166.9837086148
 20
63.1830288327
 10
167.5427823702
 20
64.9194370975
 10
168.215692277
 20
66.653792437
 10
168.9963443589
 20
68.3703882605
 10
169.8776689099
 20
70.0536788104
 10
170.8516845181
 20
71.688419947
 10
171.9095703476
 20
73.2598072012
 10
173.0417460204
 20
74.7536098468
 10
174.2379583782
 20
76.1562997757
 10
175.4873743368
 20
77.4551740108
 10
176.7786789918
 20
78.6384697457
 10
178.1001780881
 20
79.695470871
 10
179.4399039254
 20
80.616605021
 10
180.7857237391
 20
81.3935302621
 10
182.1254495764
 20
82.019210639
 10
183.358793465
 20
82.4614398297
  0
ARC
  5
2A7
330
1F
100
AcDbEntity
  8
0
  6
Continuous
 62
     7
370
    18
100
AcDbCircle
 10
181.3104316512
 20
56.3889774019
 30
0.0
 40
15.34038946777307
100
AcDbArc
 50
179.4782552811
 51
193.516801763
  0
LINE
  5
2A8
330
1F
100
AcDbEntity
  8
0
  6
Continuous
 62
     7
370
    18
100
AcDbLine
 10
182.1909193465
 20
74.35584536
 30
0.0
 11
180.6341975687
 21
71.6595241554
 31
0.0
  0
LINE
  5
2A9
330
1F
100
AcDbEntity
  8
0
  6
Continuous
 62
     7
370
    18
100
AcDbLine
 10
174.3415016279
 20
60.7602551013
 30
0.0
 11
172.7846714229
 21
58.0637460955
 31
0.0
  0
LINE
  5
2AA
330
1F
100
AcDbEntity
  8
0
  6
Continuous
 62
     7
370
    18
100
AcDbLine
 10
180.6804006718
 20
75.2278492297
 30
0.0
 11
171.2741527482
 21
58.9357499653
 31
0.0
  0
LINE
  5
2AB
330
1F
100
AcDbEntity
  8
0
  6
Continuous
 62
     7
370
    18
100
AcDbLine
 10
180.2781702254
 20
75.1286327011
 30
0.0
 11
171.1589597332
 21
59.3336968501
 31
0.0
  0
LINE
  5
2AC
330
1F
100
AcDbEntity
  8
0
  6
Continuous
 62
     7
370
    18
100
AcDbLine
 10
161.2755461275
 20
83.3483600521
 30
0.0
 11
174.094930314
 21
76.0857786005
 31
0.0
  0
LINE
  5
2AD
330
1F
100
AcDbEntity
  8
0
  6
Continuous
 62
     7
370
    18
100
AcDbLine
 10
154.4465839561
 20
65.7474198893
 30
0.0
 11
165.99878478
 21
58.7347464651
 31
0.0
  0
LINE
  5
2AE
330
1F
100
AcDbEntity
  8
0
  6
Continuous
 62
     7
370
    18
100
AcDbLine
 10
171.1589597332
 20
49.3094415309
 30
0.0
 11
173.0371717548
 21
48.2248203332
 31
0.0
  0
LINE
  5
2AF
330
1F
100
AcDbEntity
  8
0
  6
Continuous
 62
     7
370
    18
100
AcDbLine
 10
190.8363157514
 20
79.0558189383
 30
0.0
 11
188.9589597332
 21
80.1399458152
 31
0.0
  0
LINE
  5
2B0
330
1F
100
AcDbEntity
  8
0
  6
Continuous
 62
     7
370
    18
100
AcDbLine
 10
166.7060123149
 20
86.4833014529
 30
0.0
 11
178.5252879205
 21
80.1227462457
 31
0.0
  0
LINE
  5
2B1
330
1F
100
AcDbEntity
  8
0
  6
Continuous
 62
     7
370
    18
100
AcDbLine
 10
160.5210721736
 20
83.5250180682
 30
0.0
 11
161.2755461275
 21
83.3483600521
 31
0.0
  0
LINE
  5
2B2
330
1F
100
AcDbEntity
  8
0
  6
Continuous
 62
     7
370
    18
100
AcDbLine
 10
153.99829622
 20
66.7132410555
 30
0.0
 11
154.4465839561
 21
65.7474198893
 31
0.0
  0
OLE2FRAME
  5
2B3
330
1F
100
AcDbEntity
  8
0
100
AcDbOle2Frame
 70
     2
  3
Paintbrush-Bild
 10
13.8511154363
 20
38.264191557
 30
0.0
 11
51.6290888628
 21
31.9806341108
 31
0.0
 71
     2
 72
     0
 73
     1
 90
    12928
310
80552BED0767C5B32B40DDAF6807D121434000000000000000006FFBDDFB85D0
310
4940DDAF6807D121434000000000000000006FFBDDFB85D04940416F4BD60AFB
310
3F4000000000000000002BED0767C5B32B40416F4BD60AFB3F40000000000000
310
0000000000000100000000010000010000000100000000000100000000320000
310
D0CF11E0A1B11AE1000000000000000000000000000000003E000300FEFF0900
310
0600000000000000000000000100000001000000000000000010000002000000
310
01000000FEFFFFFF0000000000000000FFFFFFFFFFFFFFFFFFFFFFFFFFFFFFFF
310
FFFFFFFFFFFFFFFFFFFFFFFFFFFFFFFFFFFFFFFFFFFFFFFFFFFFFFFFFFFFFFFF
310
FFFFFFFFFFFFFFFFFFFFFFFFFFFFFFFFFFFFFFFFFFFFFFFFFFFFFFFFFFFFFFFF
310
FFFFFFFFFFFFFFFFFFFFFFFFFFFFFFFFFFFFFFFFFFFFFFFFFFFFFFFFFFFFFFFF
310
FFFFFFFFFFFFFFFFFFFFFFFFFFFFFFFFFFFFFFFFFFFFFFFFFFFFFFFFFFFFFFFF
310
FFFFFFFFFFFFFFFFFFFFFFFFFFFFFFFFFFFFFFFFFFFFFFFFFFFFFFFFFFFFFFFF
310
FFFFFFFFFFFFFFFFFFFFFFFFFFFFFFFFFFFFFFFFFFFFFFFFFFFFFFFFFFFFFFFF
310
FFFFFFFFFFFFFFFFFFFFFFFFFFFFFFFFFFFFFFFFFFFFFFFFFFFFFFFFFFFFFFFF
310
FFFFFFFFFFFFFFFFFFFFFFFFFFFFFFFFFFFFFFFFFFFFFFFFFFFFFFFFFFFFFFFF
310
FFFFFFFFFFFFFFFFFFFFFFFFFFFFFFFFFFFFFFFFFFFFFFFFFFFFFFFFFFFFFFFF
310
FFFFFFFFFFFFFFFFFFFFFFFFFFFFFFFFFFFFFFFFFFFFFFFFFFFFFFFFFFFFFFFF
310
FFFFFFFFFFFFFFFFFFFFFFFFFFFFFFFFFFFFFFFFFFFFFFFFFFFFFFFFFFFFFFFF
310
FFFFFFFFFFFFFFFFFFFFFFFFFFFFFFFFFFFFFFFFFFFFFFFFFFFFFFFFFFFFFFFF
310
FFFFFFFFFFFFFFFFFFFFFFFFFFFFFFFFFFFFFFFFFFFFFFFFFFFFFFFFFFFFFFFF
310
FDFFFFFFFEFFFFFFFEFFFFFFFEFFFFFF05000000060000000700000008000000
310
090000000A0000000B0000000C0000000D0000000E0000000F00000010000000
310
11000000120000001300000014000000150000001600000017000000FEFFFFFF
310
FFFFFFFFFFFFFFFFFFFFFFFFFFFFFFFFFFFFFFFFFFFFFFFFFFFFFFFFFFFFFFFF
310
FFFFFFFFFFFFFFFFFFFFFFFFFFFFFFFFFFFFFFFFFFFFFFFFFFFFFFFFFFFFFFFF
310
FFFFFFFFFFFFFFFFFFFFFFFFFFFFFFFFFFFFFFFFFFFFFFFFFFFFFFFFFFFFFFFF
310
FFFFFFFFFFFFFFFFFFFFFFFFFFFFFFFFFFFFFFFFFFFFFFFFFFFFFFFFFFFFFFFF
310
FFFFFFFFFFFFFFFFFFFFFFFFFFFFFFFFFFFFFFFFFFFFFFFFFFFFFFFFFFFFFFFF
310
FFFFFFFFFFFFFFFFFFFFFFFFFFFFFFFFFFFFFFFFFFFFFFFFFFFFFFFFFFFFFFFF
310
FFFFFFFFFFFFFFFFFFFFFFFFFFFFFFFFFFFFFFFFFFFFFFFFFFFFFFFFFFFFFFFF
310
FFFFFFFFFFFFFFFFFFFFFFFFFFFFFFFFFFFFFFFFFFFFFFFFFFFFFFFFFFFFFFFF
310
FFFFFFFFFFFFFFFFFFFFFFFFFFFFFFFFFFFFFFFFFFFFFFFFFFFFFFFFFFFFFFFF
310
FFFFFFFFFFFFFFFFFFFFFFFFFFFFFFFFFFFFFFFFFFFFFFFFFFFFFFFFFFFFFFFF
310
FFFFFFFFFFFFFFFFFFFFFFFFFFFFFFFFFFFFFFFFFFFFFFFFFFFFFFFFFFFFFFFF
310
FFFFFFFFFFFFFFFFFFFFFFFFFFFFFFFFFFFFFFFFFFFFFFFFFFFFFFFFFFFFFFFF
310
FFFFFFFFFFFFFFFFFFFFFFFFFFFFFFFFFFFFFFFFFFFFFFFFFFFFFFFFFFFFFFFF
310
52006F006F007400200045006E00740072007900000000000000000000000000
310
0000000000000000000000000000000000000000000000000000000000000000
310
16000500FFFFFFFFFFFFFFFF020000000A00030000000000C000000000000046
310
000000000000000000000000B0B0337C958ED30103000000C000000000000000
310
01004F006C006500000000000000000000000000000000000000000000000000
310
0000000000000000000000000000000000000000000000000000000000000000
310
0A000200FFFFFFFFFFFFFFFFFFFFFFFF00000000000000000000000000000000
310
0000000000000000000000000000000000000000000000001400000000000000
310
010043006F006D0070004F0062006A0000000000000000000000000000000000
310
0000000000000000000000000000000000000000000000000000000000000000
310
120002010100000003000000FFFFFFFF00000000000000000000000000000000
310
0000000000000000000000000000000000000000010000004D00000000000000
310
01004F006C006500310030004E00610074006900760065000000000000000000
310
0000000000000000000000000000000000000000000000000000000000000000
310
1A000200FFFFFFFFFFFFFFFFFFFFFFFF00000000000000000000000000000000
310
0000000000000000000000000000000000000000040000002426000000000000
310
FEFFFFFF02000000FEFFFFFFFFFFFFFFFFFFFFFFFFFFFFFFFFFFFFFFFFFFFFFF
310
FFFFFFFFFFFFFFFFFFFFFFFFFFFFFFFFFFFFFFFFFFFFFFFFFFFFFFFFFFFFFFFF
310
FFFFFFFFFFFFFFFFFFFFFFFFFFFFFFFFFFFFFFFFFFFFFFFFFFFFFFFFFFFFFFFF
310
FFFFFFFFFFFFFFFFFFFFFFFFFFFFFFFFFFFFFFFFFFFFFFFFFFFFFFFFFFFFFFFF
310
FFFFFFFFFFFFFFFFFFFFFFFFFFFFFFFFFFFFFFFFFFFFFFFFFFFFFFFFFFFFFFFF
310
FFFFFFFFFFFFFFFFFFFFFFFFFFFFFFFFFFFFFFFFFFFFFFFFFFFFFFFFFFFFFFFF
310
FFFFFFFFFFFFFFFFFFFFFFFFFFFFFFFFFFFFFFFFFFFFFFFFFFFFFFFFFFFFFFFF
310
FFFFFFFFFFFFFFFFFFFFFFFFFFFFFFFFFFFFFFFFFFFFFFFFFFFFFFFFFFFFFFFF
310
FFFFFFFFFFFFFFFFFFFFFFFFFFFFFFFFFFFFFFFFFFFFFFFFFFFFFFFFFFFFFFFF
310
FFFFFFFFFFFFFFFFFFFFFFFFFFFFFFFFFFFFFFFFFFFFFFFFFFFFFFFFFFFFFFFF
310
FFFFFFFFFFFFFFFFFFFFFFFFFFFFFFFFFFFFFFFFFFFFFFFFFFFFFFFFFFFFFFFF
310
FFFFFFFFFFFFFFFFFFFFFFFFFFFFFFFFFFFFFFFFFFFFFFFFFFFFFFFFFFFFFFFF
310
FFFFFFFFFFFFFFFFFFFFFFFFFFFFFFFFFFFFFFFFFFFFFFFFFFFFFFFFFFFFFFFF
310
FFFFFFFFFFFFFFFFFFFFFFFFFFFFFFFFFFFFFFFFFFFFFFFFFFFFFFFFFFFFFFFF
310
FFFFFFFFFFFFFFFFFFFFFFFFFFFFFFFFFFFFFFFFFFFFFFFFFFFFFFFFFFFFFFFF
310
FFFFFFFFFFFFFFFFFFFFFFFFFFFFFFFFFFFFFFFFFFFFFFFFFFFFFFFFFFFFFFFF
310
0100000200000000000000000000000000000000000000000000000000000000
310
0000000000000000000000000000000000000000000000000000000000000000
310
0100FEFF030A0000FFFFFFFF0A00030000000000C00000000000004607000000
310
5042727573680007000000504272757368000700000050427275736800F439B2
310
7100000000000000000000000000000000000000000000000000000000000000
310
0000000000000000000000000000000000000000000000000000000000000000
310
0000000000000000000000000000000000000000000000000000000000000000
310
0000000000000000000000000000000000000000000000000000000000000000
310
0000000000000000000000000000000000000000000000000000000000000000
310
0000000000000000000000000000000000000000000000000000000000000000
310
0000000000000000000000000000000000000000000000000000000000000000
310
0000000000000000000000000000000000000000000000000000000000000000
310
0000000000000000000000000000000000000000000000000000000000000000
310
0000000000000000000000000000000000000000000000000000000000000000
310
0000000000000000000000000000000000000000000000000000000000000000
310
0000000000000000000000000000000000000000000000000000000000000000
310
20260000424D0E260000000000003E00000028000000B40200006E0000000100
310
01000000000000000000130B0000130B00000200000002000000000000FFFFFF
310
FFFFFFFFFFFFFFFFFFFFFFFFFFFFFFFFFFFFFFFFFFFFFFFFFFFFFFFFFFFFFFFF
310
FFFFFFFFFFFFFFFFFFFFFFFFFFFFFFFFFFFFFFFFFFFFFFFFFFFFFFFFFFFFFFFF
310
FFFFFFFFFFFFFFFFFFFFFFFFFFFFFFFFFFFFFFFFFFFFFFFFF000FFFFFFFFFFFF
310
FFFFFFFFFFFFFFFFFFFFFFFFFFFFFFFFFFFFFFFFFFFFFFFFFFFFFFFFFFFFFFFF
310
FFFFFFFFFFFFFFFFFFFFFFFFFFFFFFFFFFFFFFFFFFFFFFFFFFFFFFFFFFFFFFFF
310
FFFFFFFFFFFFFFFFFFFFFFFFFFFFFFFFF000FFFFFFFFFFFFFFFFFFFFFFFFFFFF
310
FFFFFFFFFFFFFFFFFFFFFFFFFFFFFFFFFFFFFFFFFFFFFFFFFFFFFFFFFFFFFFFF
310
FFFFFFFFFFFFFFFFFFFFFFFFFFFFFFFFFFFFFFFFFFFFFFFFFFFFFFFFFFFFFFFF
310
FFFFFFFFFFFFFFFFF000FFFFFFFFFFFFFFFFFFFFFFFFFFFFFFFFFFFFFFFFFFFF
310
FFFFFFFFFFFFFFFFFFFFFFFFFFFFFFFFFFFFFFFFFFFFFFFFFFFFFFFFFFFFFFFF
310
FFFFFFFFFFFFFFFFFFFFFFFFFFFFFFFFFFFFFFFFFFFFFFFFFFFFFFFFFFFFFFFF
310
F000FFFFFFFFFFFFFFFFFFFFFFFFFFFFFFFFFFFFFFFFFFFFFFFFFFFFFFFFFFFF
310
FFFFFFFFFFFFFFFFFFFFFFFFFFFFFFFFFFFFFFFFFFFFFFFFFFFFFFFFFFFFFFFF
310
FFFFFFFFFFFFFFFFFFFFFFFFFFFFFFFFFFFFFFFFFFFFFFFFF000FFFFFFFFFFFF
310
FFFFFFFFFFFFFFFFFFFFFFFFFFFFFFFFFFFFFFFFFFFFFFFFFFFFFFFFFFFFFFFF
310
FFFFFFFFFFFFFFFFFFFFFFFFFFFFFFFFFFFFFFFFFFFFFFFFFFFFFFFFFFFFFFFF
310
FFFFFFFFFFFFFFFFFFFFFFFFFFFFFFFFF000FFFFFFFFFFFFFFFFFFFFFFFFFFFF
310
FFFFFFFFFFFFFFFFFFFFFFFFFFFFFFFFFFFFFFFFFFFFFFFFFFFFFFFFFFFFFFFF
310
FFFFFFFFFFFFFFFFFFFFFFFFFFFFFFFFFFFFFFFFFFFFFFFFFFFFFFFFFFFFFFFF
310
FFFFFFFFFFFFFFFFF000FFFFFFFFFFFFFFFFFFFFFFFFFFFFFFFFFFFFFFFFFFFF
310
FFFFFFFFFFFFFFFFFFFFFFFFFFFFFFFFFFFFFFFFFFFFFFFFFFFFFFFFFFFFFFFF
310
FFFFFFFFFFFFFFFFFFFFFFFFFFFFFFFFFFFFFFFFFFFFFFFFFFFFFFFFFFFFFFFF
310
F000FFFFFFFFFFFFFFFFFFFFFFFFFFFFFFFFFFFFFFFFFFFFFFFFFFFFFFFFFFFF
310
FFFFFFFFFFFFFFFFFFFFFFFFFFFFFFFFFFFFFFFFFFFFFFFFFFFFFFFFFFFFFFFF
310
FFFFFFFFFFFFFFFFFFFFFFFFFFFFFFFFFFFFFFFFFFFFFFFFF000FFFFFFFFFFFF
310
FFFFFFFFFFFFFFFFFFFFFFFFFFFFFFFFFFFFFFFFFFFFFFFFFFFFFFFFFFFFFFFF
310
FFFFFFFFFFFFFFFFFFFFFFFFFFFFFFFFFFFFFFFFFFFFFFFFFFFFFFFFFFFFFFFF
310
FFFFFFFFFFFFFFFFFFFFFFFFFFFFFFFFF000FFFFFFFFFFFFFFFFFFFFFFFFFFFF
310
FFFFFFFFFFFFFFFFFFFFFFFFFFFFFFFFFFFFFFFFFFFFFFFFFFFFFFFFFFFFFFFF
310
FFFFFFFFFFFFFFFFFFFFFFFFFFFFFFFFFFFFFFFFFFFFFFFFFFFFFFFFFFFFFFFF
310
FFFFFFFFFFFFFFFFF000FFFFFFFFFFFFFFFFFFFFFFFFFFFFFFFFFFFFFFFFFFFF
310
FFFFFFFFFFFFFFFFFFFFFFFFFFFFFFFFFFFFFFFFFFFFFFFFFFFFFFFFFFFFFFFF
310
FFFFFFFFFFFFFFFFFFFFFFFFFFFFFFFFFFFFFFFFFFFFFFFFFFFFFFFFFFFFFFFF
310
F000FFFFFFFFFFFFFFFFFFFFFFFFFFFFFFFFFFFFFFFFFFFFFFFFFFFFFFFFFFFF
310
FFFFFFFFFFFFFFFFFFFFFFFFFFFFFFFFFFFFFFFFFFFFFFFFFFFFFFFFFFFFFFFF
310
FFFFFFFFFFFFFFFFFFFFFFFFFFFFFFFFFFFFFFFFFFFFFFFFF000FFFFFFFFFFFF
310
FFFFFFFFFFFFFFFFFFFFFFFFFFFFFFFFFFFFFFFFFFFFFFFFFFFFFFFFFFFFFFFF
310
FFFFFFFFFFFFFFFFFFFFFFFFFFFFFFFFFFFFFFFFFFFFFFFFFFFFFFFFFFFFFFFF
310
FFFFFFFFFFFFFFFFFFFFFFFFFFFFFFFFF000FFFFFFFFFFFFFFFFFFFFFFFFFFFF
310
FFFFFFFFFFFFFFFFFFFFFFFFFFFFFFFFFFFFFFFFFFFFFFFFFFFFFFFFFFFFFFFF
310
FFFFFFFFFFFFFFFFFFFFFFFFFFFFFFFFFFFFFFFFFFFFFFFFFFFFFFFFFFFFFFFF
310
FFFFFFFFFFFFFFFFF000FFFFFFFFFFFFFFFFFFFFFFFFFFFFFFFFFFFFFFFFFFFF
310
FFFFFFFFFFFFFFFFFFFFFFFFFFFFFFFFFFFFFFFFFFFFFFFFFFFFFFFFFFFFFFFF
310
FFFFFFFFFFFFFFFFFFFFFFFFFFFFFFFFFFFFFFFFFFFFFFFFFFFFFFFFFFFFFFFF
310
F000FFFFFFFFFFFFFFFFFFFFFFFFFFFFFFFFFFFFFFFFFFFFFFFFFFFFFFFFFFFF
310
FFFFFFFFFFFFFFFFFFFFFFFFFFFFFFFFFFFFFFFFFFFFFFFFFFFFFFFFFFFFFFFF
310
FFFFFFFFFFFFFFFFFFFFFFFFFFFFFFFFFFFFFFFFFFFFFFFFF000FFFFFFFFFFFF
310
FFFFFFFFFFFFFFFFFFFFFFFFFFFFFFFFFFFFFFFFFFFFFFFFFFFFFFFFFFFFFFFF
310
FFFFFFFFFFFFFFFFFFFFFFFFFFFFFFFFFFFFFFFFFFFFFFFFFFFFFFFFFFFFFFFF
310
FFFFFFFFFFFFFFFFFFFFFFFFFFFFFFFFF000FFFFFFFFFFFFFFFFFFFFFFFFFFFF
310
FFFFFFFFFFFFFFFFFFFFFFFFFFFFFFFFFFFFFFFFFFFFFFFFFFFFFFFFFFFFFFFF
310
FFFFFFFFFFFFFFFFFFFFFFFFFFFFFFFFFFFFFFFFFFFFFFFFFFFFFFFFFFFFFFFF
310
FFFFFFFFFFFFFFFFF000FFFFF80003FFFFFFFFFFFFFFFFFFFFFFFFFFFFFFFFFF
310
FFFFF00007FFFFFFFFFF00007FFFFFF800000000000000007FFFFFFFFFFFFFFF
310
FFFFFFFC001FFFFFFFFFFFFFFC001FFFFFFFFFFFFFFFFFFFFFFFFFFE0007FFFF
310
F000FFFF8000007FFFFFFFF8000FFFFFC0007FFFFF80007FFFFF0000007FFFFF
310
FFF8000007FFFFF800000000000000007FFFFFF0001FFFFFFFFFFFC00001FFFF
310
FFFFFFFFC00001FFFFFFFF000000000003FFFFE000007FFFF000FFFE0000000F
310
FFFFFFF0000FFFFF80007FFFFF80007FFFFC0000001FFFFFFFC0000001FFFFF8
310
00000000000000007FFFFFF0001FFFFFFFFFFE0000003FFFFFFFFFFE0000003F
310
FFFFFF000000000003FFFF0000000FFFF000FFF800000003FFFFFFF00007FFFF
310
80007FFFFF80007FFFF000000007FFFFFF000000003FFFF80000000000000000
310
7FFFFFF0001FFFFFFFFFF80000000FFFFFFFFFF80000000FFFFFFF0000000000
310
03FFFC00000003FFF000FFE000000000FFFFFFF00007FFFF80003FFFFF80007F
310
FFC000000001FFFFFC000000001FFFF800000000000000007FFFFFF0001FFFFF
310
FFFFE000000003FFFFFFFFE000000003FFFFFF000000000003FFF000000000FF
310
F000FF80000000007FFFFFF00007FFFF80003FFFFF80007FFF8000000000FFFF
310
F80000000007FFF800000000000000007FFFFFF0001FFFFFFFFFC000000001FF
310
FFFFFFC000000001FFFFFF000000000003FFC0000000007FF000FF0000000000
310
3FFFFFE00007FFFF00003FFFFF80007FFE00000000003FFFF00000000003FFF8
310
00000000000000007FFFFFF0001FFFFFFFFF8000000000FFFFFFFF8000000000
310
FFFFFF000000000003FF80000000003FF000FE00000000001FFFFFE00003FFFF
310
00003FFFFF80007FFC00000000001FFFE00000000001FFF8000001FFFE000000
310
7FFFFFF0001FFFFFFFFE00000000003FFFFFFE00000000003FFFFF0000000000
310
03FF00000000001FF000FC00000000000FFFFFE00003FFFF00001FFFFF80007F
310
F800000000001FFFC00000000000FFF8000001FFFE0000007FFFFFF0001FFFFF
310
FFFC00000000001FFFFFFC00000000001FFFFF000000000003FE00000000000F
310
F000F8000000000007FFFFE00003FFFF00001FFFFF80007FF800000000000FFF
310
800000000000FFF8000001FFFE0000007FFFFFF0001FFFFFFFF800000000000F
310
FFFFF800000000000FFFFF000000000003FC000000000007F000F80000000000
310
03FFFFC00003FFFE00001FFFFF80007FF0000000000007FF0000000000007FF8
310
000001FFFE0000007FFFFFF0001FFFFFFFF0000000000007FFFFF00000000000
310
07FFFF000000000003F8000000000003F000F0000000000003FFFFC00001FFFE
310
00001FFFFF80007FE0000000000007FE0000000000003FF8000001FFFE000000
310
7FFFFFF0001FFFFFFFF0000000000007FFFFF0000000000007FFFF0000000000
310
03F800001F800003F000E00001FFF00001FFFFC00001FFFE00000FFFFF80007F
310
E00001FFE00003FE00001FFF00003FF8000001FFFE0000007FFFFFF0001FFFFF
310
FFE000003E000003FFFFE000003E000003FFFF000000000003F00001FFF80001
310
F000E00007FFFC0001FFFFC00001FFFE00000FFFFF80007FC0000FFFFC0003FC
310
0000FFFFC0001FF8000001FFFE0000007FFFFFF0001FFFFFFFC00003FFE00001
310
FFFFC00003FFE00001FFFF0001FFFFFFFFF00007FFFE0001F000E0000FFFFF00
310
00FFFF800001FFFC00000FFFFF80007FC0001FFFFE0001FC0001FFFFE0001FF8
310
000001FFFE0000007FFFFFF0001FFFFFFF80000FFFF80000FFFF80000FFFF800
310
00FFFF0003FFFFFFFFE0000FFFFF8000F000C0003FFFFF8000FFFF800000FFFC
310
000007FFFF80007F80003FFFFF0001FC0003FFFFF0001FF8000001FFFE000000
310
7FFFFFF0001FFFFFFF80003FFFFE0000FFFF80003FFFFE0000FFFF0003FFFFFF
310
FFE0003FFFFF8000F000C0003FFFFF8000FFFF800000FFFC000007FFFF80007F
310
80007FFFFF8001F80007FFFFF8000FF8000001FFFE0000007FFFFFF0001FFFFF
310
FF00007FFFFF00007FFF00007FFFFF00007FFF0003FFFFFFFFE0003FFFFFC000
310
F000C0007FFFFFC000FFFF000000FFFC000007FFFF80007F8000FFFFFF8000F8
310
000FFFFFF8000FF8000001FFFE0000007FFFFFF0001FFFFFFF0000FFFFFF8000
310
7FFF0000FFFFFF80007FFF0003FFFFFFFFC0007FFFFFC00070008000FFFFFFC0
310
00FFFF000000FFF8000007FFFF80007F8000FFFFFF8000F8000FFFFFF8000FF8
310
000001FFFE0000007FFFFFF0001FFFFFFE0001FFFFFFC0003FFE0001FFFFFFC0
310
003FFF0003FFFFFFFFC0007FFFFFE00070008000FFFFFFC0007FFF0000007FF8
310
000003FFFF80007F0001FFFFFF8000F8000FFFFFF8000FF8000001FFFE000000
310
7FFFFFF0001FFFFFFE0001FFFFFFC0003FFE0001FFFFFFC0003FFF0003FFFFFF
310
FFC000FFFFFFE00070008000FFFFFFC0007FFF0000007FF8000003FFFF80007F
310
0001FFFFFF8000F8001FFFFFF8000FF8000001FFFE0000007FFFFFF0001FFFFF
310
FE0003FFFFFFE0003FFE0003FFFFFFE0003FFF0003FFFFFFFFC000FFFFFFE000
310
70008000FFFFFFC0007FFE0000007FF8000003FFFF80007F0001FFFFFF8000F0
310
001FFFFFF8000FF8000001FFFE0000007FFFFFF0001FFFFFFC0003FFFFFFE000
310
1FFC0003FFFFFFE0001FFF0003FFFFFFFFC000FFFFFFC00070008000FFFFFF80
310
007FFE0000007FF0000003FFFF80007F0001FFFFFF0000F0001FFFFFF8000FF8
310
000001FFFE0000007FFFFFF0001FFFFFFC0007FFFFFFF0001FFC0007FFFFFFF0
310
001FFF0003FFFFFFFFC000FFFFFFC00070008001FFFFFF0000FFFE0000003FF0
310
000001FFFF80007F0001FFFFFF0000F8001FFFFFF0000FF8000001FFFE000000
310
7FFFFFF0001FFFFFFC0007FFFFFFF0001FFC0007FFFFFFF0001FFF0003FFFFFF
310
FFC001FFFFFF80007000FFFFFFFFFE0000FFFE0008003FF0008001FFFF80007F
310
FFFFFFFFFC0000FFFFFFFFFFE0000FF8000001FFFE0000007FFFFFF0001FFFFF
310
F8000FFFFFFFF8000FF8000FFFFFFFF8000FFF0003FFFFFFFFFFFFFFFFFF0000
310
7000FFFFFFFFFC0000FFFC0008003FF0008001FFFF80007FFFFFFFFFF80001FF
310
FFFFFFFF80000FF8000001FFFE0000007FFFFFF0001FFFFFF8000FFFFFFFF800
310
0FF8000FFFFFFFF8000FFF0003FFFFFFFFFFFFFFFFFE0000F000FFFFFFFFE000
310
00FFFC000C003FE000C001FFFF80007FFFFFFFFFC00001FFFFFFFFFE00001FF8
310
000001FFFE0000007FFFFFF0001FFFFFF8000FFFFFFFF8000FF8000FFFFFFFF8
310
000FFF0003FFFFFFFFFFFFFFFFF00000F000FFFFFFFE000001FFFC000C001FE0
310
00C000FFFF80007FFFFFFFFE000001FFFFFFFFE000001FF80FFFFFFFFFFFFFC0
310
7FFFFFF0001FFFFFF8000FFFFFFFF8000FF8000FFFFFFFF8000FFF0003FFFFFF
310
FFFFFFFFFF800000F000FFFFFFC0000001FFFC001C001FE001C000FFFF80007F
310
FFFFFF80000003FFFFFFF80000001FF80FFFFFFFFFFFFFC07FFFFFF0001FFFFF
310
F8001FFFFFFFFC000FF8001FFFFFFFFC000FFF0003FFFFFFFFFFFFFFF0000001
310
F000FFFFF800000001FFF8001C001FE001C000FFFF80007FFFFFF800000003FF
310
FFFF800000003FF80FFFFFFFFFFFFFC07FFFFFF0001FFFFFF8001FFFFFFFFC00
310
0FF8001FFFFFFFFC000FFF0003FFFFFFFFFFFFFE00000001F000FFFFC0000000
310
03FFF8001E001FC001E000FFFF80007FFFFF8000000007FFFFFC000000003FF8
310
0FFFFFFFFFFFFFC07FFFFFF0001FFFFFF8001FFFFFFFFC000FF8001FFFFFFFFC
310
000FFF0003FFFFFFFFFFFFE000000003F000FFFE0000000007FFF8001E000FC0
310
01E0007FFF80007FFFFE0000000007FFFFE0000000007FF80FFFFFFFFFFFFFC0
310
7FFFFFF0001FFFFFF0001FFFFFFFFC0007F0001FFFFFFFFC0007FF0003FFFFFF
310
FFFFFF0000000003F000FFF80000000007FFF8001E000FC003E0007FFF80007F
310
FFF0000000000FFFFF8000000000FFF80FFFFFFFFFFFFFC07FFFFFF0001FFFFF
310
F0001FFFFFFFFC0007F0001FFFFFFFFC0007FF0003FFFFFFFFFFFC0000000007
310
F000FFE0000000000FFFF0003E000FC003E0007FFF80007FFFC0000000001FFF
310
FE0000000001FFF80FFFFFFFFFFFFFC07FFFFFF0001FFFFFF0001FFFFFFFFC00
310
07F0001FFFFFFFFC0007FF0003FFFFFFFFFFF0000000000FF000FFC000000000
310
1FFFF0003F000F8003F0003FFF80007FFF80000000003FFFF80000000003FFF8
310
0FFFFFFFFFFFFFC07FFFFFF0001FFFFFF0001FFFFFFFFC0007F0001FFFFFFFFC
310
0007FF0003FFFFFFFFFFE0000000001FF000FF00000000007FFFF0003F000780
310
03F0003FFF80007FFF00000000007FFFF00000000007FFF80FFFFFFFFFFFFFC0
310
7FFFFFF0001FFFFFF0001FFFFFFFFC0007F0001FFFFFFFFC0007FF0003FFFFFF
310
FFFF80000000007FF000FE0000000000FFFFE0003F00078007F0003FFF80007F
310
FE0000000001FFFFE0000000001FFFF80FFFFFFFFFFFFFC07FFFFFF0001FFFFF
310
F0001FFFFFFFFC0007F0001FFFFFFFFC0007FF0003FFFFFFFFFF0000000000FF
310
F000FC0000000003FFFFE0007F00078007F0003FFF80007FFC0000000007FFFF
310
C0000000007FFFF80FFFFFFFFFFFFFC07FFFFFF0001FFFFFF8001FFFFFFFFC00
310
0FF8001FFFFFFFFC000FFF0003FFFFFFFFFE0000000003FFF000FC000000000F
310
FFFFE0007F80070007F8001FFF80007FF8000000001FFFFF8000000001FFFFF8
310
0FFFFFFFFFFFFFC07FFFFFF0001FFFFFF8001FFFFFFFFC000FF8001FFFFFFFFC
310
000FFF0003FFFFFFFFFC000000000FFFF000F8000000007FFFFFE0007F800700
310
07F8001FFF80007FF000000000FFFFFF800000000FFFFFF80FFFFFFFFFFFFFC0
310
7FFFFFF0001FFFFFF8000FFFFFFFF8000FF8000FFFFFFFF8000FFF0003FFFFFF
310
FFFC000000007FFFF000F800000007FFFFFFC0007F8003000FF8001FFF80007F
310
F000000007FFFFFF000000007FFFFFF80FFFFFFFFFFFFFC07FFFFFF0001FFFFF
310
F8000FFFFFFFF8000FF8000FFFFFFFF8000FFF0003FFFFFFFFF80000000FFFFF
310
F000F0000000FFFFFFFFC000FF8003000FF8001FFF80007FE0000000FFFFFFFF
310
0000000FFFFFFFF8000001FFFE0000007FFFFFF0001FFFFFF8000FFFFFFFF800
310
0FF8000FFFFFFFF8000FFF0003FFFFFFFFF8000000FFFFFFF000F000000FFFFF
310
FFFFC000FFC002000FF8000FFF80007FE000001FFFFFFFFE000001FFFFFFFFF8
310
000001FFFE0000007FFFFFF0001FFFFFF8000FFFFFFFF8000FF8000FFFFFFFF8
310
000FFF0003FFFFFFFFF000001FFFFFFFF000E00000FFFFFFFFFFC000FFC00200
310
0FFC000FFF80007FE00001FFFFFFFFFE00001FFFFFFFFFF8000001FFFE000000
310
7FFFFFF0001FFFFFFC000FFFFFFFF8001FFC000FFFFFFFF8001FFF0003FFFFFF
310
FFF00001FFFFFFFFF000E00007FFFFFFFFFF8000FFC000001FFC000FFF80007F
310
C0000FFFFFFFFFFE0000FFFFFFFFFFF8000001FFFE0000007FFFFFF0001FFFFF
310
FC0007FFFFFFF0001FFC0007FFFFFFF0001FFF0003FFFFFFFFF00007FFFFFFFF
310
F000E0001FFFFFFFFFFF8000FFC000001FFC000FFF80007FC0003FFFFFFFFFFE
310
0001FFFFFFFFFFF8000001FFFE0000007FFFFFF0001FFFFFFC0007FFFFFFF000
310
1FFC0007FFFFFFF0001FFF0003FFFFFFFFF0001FFFFFFFFFF000E0003FFFFF00
310
03FF8001FFE000001FFC0007FF80007FC0007FFFFF0007FC0003FFFFF0003FF8
310
000001FFFE0000007FFFFFF0001FFFFFFC0003FFFFFFE0001FFC0003FFFFFFE0
310
001FFF0003FFFFFFFFF0003FFFFFFFFFF000E0003FFFFF0001FF8001FFE00000
310
1FFE0007FF80007FC0007FFFFE0003FC0007FFFFE0003FF8000001FFFE000000
310
7FFFFFF0001FFFFFFE0003FFFFFFE0003FFE0003FFFFFFE0003FFF0003FFFFFF
310
FFF0003FFFFF8001F000E0003FFFFF0001FF0001FFE000001FFE0007FF80007F
310
C0007FFFFE0003FC0007FFFFE0003FF8000001FFFE0000007FFFFFF0001FFFFF
310
FE0001FFFFFFC0003FFE0001FFFFFFC0003FFF0003FFFFFFFFF0003FFFFF0001
310
F000E0003FFFFF0003FF0001FFE000003FFE0007FF80007FC0007FFFFE0003FC
310
0007FFFFE0003FF8000001FFFE0000007FFFFFF0001FFFFFFF0001FFFFFFC000
310
7FFF0001FFFFFFC0007FFF0003FFFFFFFFF0003FFFFF0001F000E0003FFFFE00
310
03FF0003FFF000003FFE0003FF80007FC0007FFFFC0003FE0007FFFFE0003FF8
310
000001FFFE0000007FFFFFF0001FFFFFFF0000FFFFFF80007FFF0000FFFFFF80
310
007FFF0003FFFFFFFFF0003FFFFF0001F000E0003FFFFE0003FF0003FFF00000
310
3FFF0003FF80007FC0007FFFFC0007FE0007FFFFC0003FF8000001FFFE000000
310
7FFFFFF0001FFFFFFF80007FFFFF0000FFFF80007FFFFF0000FFFF0003FFFFFF
310
FFF0003FFFFF0003F000E0003FFFFC0003FE0003FFF000003FFF0003FF80007F
310
E0003FFFF80007FE0003FFFFC0007FF8000001FFFE0000007FFFFFF0001FFFFF
310
FF80003FFFFE0000FFFF80003FFFFE0000FFFF0003FFFFFFFFF0001FFFFE0003
310
F000F0001FFFF80003FE0003FFF000007FFF0001FF80007FE0003FFFF00007FE
310
0001FFFF80007FF8000001FFFE0000007FFFFFF0001FFFFFFFC0000FFFF80001
310
FFFFC0000FFFF80001FFFF0003FFFFFFFFF0001FFFFC0003F000F0000FFFF000
310
07FE0007FFF800007FFF0001FF80007FE0001FFFE00007FF0000FFFE00007FF8
310
000001FFFE0000007FFFFFF0001FFFFFFFC00003FFE00001FFFFC00003FFE000
310
01FFFF0003FFFFFFFFF8000FFFF80003F000F00003FFC00007FC0007FFF80000
310
7FFF8001FF80007FF00007FF80000FFF00007FF80000FFF8000001FFFE000000
310
7F80000000000001FFE000003E000003FFFFE000003E000003FFFF0003FFFFFF
310
FFF80003FFE00007F000F800000000000FFC0007FFF800007FFF8001FF80007F
310
F000000000000FFF000000000000FFF8000001FFFE0000007F80000000000001
310
FFF0000000000007FFFFF0000000000007FFFF0003FFFFFFFFFC00007E000007
310
F000F800000000000FFC0007FFF80000FFFF8000FF80007FF800000000001FFF
310
800000000001FFF8000001FFFE0000007F80000000000001FFF800000000000F
310
FFFFF800000000000FFFFF0003FFFFFFFFFC00000000000FF000FC0000000000
310
1FFC0007FFFC0000FFFF8000FF80007FF800000000003FFFC00000000001FFF8
310
000001FFFE0000007F80000000000001FFF800000000000FFFFFF80000000000
310
0FFFFF0003FFFFFFFFFE00000000001FF000FE00000000003FF8000FFFFC0000
310
FFFF8000FF80007FFC00000000003FFFC00000000003FFF8000001FFFE000000
310
7F80000000000001FFFC00000000001FFFFFFC00000000001FFFFF0003FFFFFF
310
FFFF00000000001FF000FF00000000003FF8000FFFFC0000FFFFC000FF80007F
310
FE00000000007FFFE00000000007FFF8000001FFFE0000007F80000000000001
310
FFFE00000000003FFFFFFE00000000003FFFFF0003FFFFFFFFFF80000000003F
310
F000FF80000000007FF8000FFFFC0001FFFFC0007F80007FFF0000000000FFFF
310
F0000000000FFFF800000000000000007F80000000000001FFFF8000000000FF
310
FFFFFF8000000000FFFFFF0003FFFFFFFFFFC0000000007FF000FFC000000000
310
FFF8000FFFFE0001FFFFC0007F80007FFF8000000001FFFFF8000000001FFFF8
310
00000000000000007F80000000000001FFFFC000000001FFFFFFFFC000000001
310
FFFFFF0003FFFFFFFFFFE000000000FFF000FFE000000003FFF0001FFFFE0001
310
FFFFC0007F80007FFFC000000007FFFFFE000000003FFFF80000000000000000
310
7F80000000000001FFFFE000000003FFFFFFFFE000000003FFFFFF0003FFFFFF
310
FFFFF000000003FFF000FFF80000000FFFF0001FFFFE0001FFFFE0007F80007F
310
FFF00000000FFFFFFF00000000FFFFF800000000000000007F80000000000001
310
FFFFF80000000FFFFFFFFFF80000000FFFFFFF0003FFFFFFFFFFFC0000000FFF
310
F000FFFE0000003FFFF0001FFFFE0003FFFFE0003F80007FFFFC0000003FFFFF
310
FFC0000003FFFFF800000000000000007F80000000000001FFFFFE0000003FFF
310
FFFFFFFE0000003FFFFFFF0003FFFFFFFFFFFF0000003FFFF000FFFF800000FF
310
FFF0001FFFFF0003FFFFE0003F80007FFFFF000001FFFFFFFFF800001FFFFFF8
310
00000000000000007F80000000000001FFFFFFC00001FFFFFFFFFFFFC00001FF
310
FFFFFF0003FFFFFFFFFFFFC00000FFFFF000FFFFF8000FFFFFFFFFFFFFFFFFFF
310
FFFFFFFFFFFFFFFFFFFFF0001FFFFFFFFFFF0000FFFFFFF80000000000000000
310
7FFFFFFFFFFFFFFFFFFFFFFC001FFFFFFFFFFFFFFC001FFFFFFFFFFFFFFFFFFF
310
FFFFFFFC001FFFFFF000FFFFFFFFFFFFFFFFFFFFFFFFFFFFFFFFFFFFFFFFFFFF
310
FFFFFFFFFFFFFFFFFFFFFFFFFFFFFFFFFFFFFFFFFFFFFFFFFFFFFFFFFFFFFFFF
310
FFFFFFFFFFFFFFFFFFFFFFFFFFFFFFFFFFFFFFFFFFFFFFFFFFFFFFFFFFFFFFFF
310
F000FFFFFFFFFFFFFFFFFFFFFFFFFFFFFFFFFFFFFFFFFFFFFFFFFFFFFFFFFFFF
310
FFFFFFFFFFFFFFFFFFFFFFFFFFFFFFFFFFFFFFFFFFFFFFFFFFFFFFFFFFFFFFFF
310
FFFFFFFFFFFFFFFFFFFFFFFFFFFFFFFFFFFFFFFFFFFFFFFFF000FFFFFFFFFFFF
310
FFFFFFFFFFFFFFFFFFFFFFFFFFFFFFFFFFFFFFFFFFFFFFFFFFFFFFFFFFFFFFFF
310
FFFFFFFFFFFFFFFFFFFFFFFFFFFFFFFFFFFFFFFFFFFFFFFFFFFFFFFFFFFFFFFF
310
FFFFFFFFFFFFFFFFFFFFFFFFFFFFFFFFF000FFFFFFFFFFFFFFFFFFFFFFFFFFFF
310
FFFFFFFFFFFFFFFFFFFFFFFFFFFFFFFFFFFFFFFFFFFFFFFFFFFFFFFFFFFFFFFF
310
FFFFFFFFFFFFFFFFFFFFFFFFFFFFFFFFFFFFFFFFFFFFFFFFFFFFFFFFFFFFFFFF
310
FFFFFFFFFFFFFFFFF000FFFFFFFFFFFFFFFFFFFFFFFFFFFFFFFFFFFFFFFFFFFF
310
FFFFFFFFFFFFFFFFFFFFFFFFFFFFFFFFFFFFFFFFFFFFFFFFFFFFFFFFFFFFFFFF
310
FFFFFFFFFFFFFFFFFFFFFFFFFFFFFFFFFFFFFFFFFFFFFFFFFFFFFFFFFFFFFFFF
310
F000FFFFFFFFFFFFFFFFFFFFFFFFFFFFFFFFFFFFFFFFFFFFFFFFFFFFFFFFFFFF
310
FFFFFFFFFFFFFFFFFFFFFFFFFFFFFFFFFFFFFFFFFFFFFFFFFFFFFFFFFFFFFFFF
310
FFFFFFFFFFFFFFFFFFFFFFFFFFFFFFFFFFFFFFFFFFFFFFFFF000FFFFFFFFFFFF
310
FFFFFFFFFFFFFFFFFFFFFFFFFFFFFFFFFFFFFFFFFFFFFFFFFFFFFFFFFFFFFFFF
310
FFFFFFFFFFFFFFFFFFFFFFFFFFFFFFFFFFFFFFFFFFFFFFFFFFFFFFFFFFFFFFFF
310
FFFFFFFFFFFFFFFFFFFFFFFFFFFFFFFFF000FFFFFFFFFFFFFFFFFFFFFFFFFFFF
310
FFFFFFFFFFFFFFFFFFFFFFFFFFFFFFFFFFFFFFFFFFFFFFFFFFFFFFFFFFFFFFFF
310
FFFFFFFFFFFFFFFFFFFFFFFFFFFFFFFFFFFFFFFFFFFFFFFFFFFFFFFFFFFFFFFF
310
FFFFFFFFFFFFFFFFF000FFFFFFFFFFFFFFFFFFFFFFFFFFFFFFFFFFFFFFFFFFFF
310
FFFFFFFFFFFFFFFFFFFFFFFFFFFFFFFFFFFFFFFFFFFFFFFFFFFFFFFFFFFFFFFF
310
FFFFFFFFFFFFFFFFFFFFFFFFFFFFFFFFFFFFFFFFFFFFFFFFFFFFFFFFFFFFFFFF
310
F000FFFFFFFFFFFFFFFFFFFFFFFFFFFFFFFFFFFFFFFFFFFFFFFFFFFFFFFFFFFF
310
FFFFFFFFFFFFFFFFFFFFFFFFFFFFFFFFFFFFFFFFFFFFFFFFFFFFFFFFFFFFFFFF
310
FFFFFFFFFFFFFFFFFFFFFFFFFFFFFFFFFFFFFFFFFFFFFFFFF000FFFFFFFFFFFF
310
FFFFFFFFFFFFFFFFFFFFFFFFFFFFFFFFFFFFFFFFFFFFFFFFFFFFFFFFFFFFFFFF
310
FFFFFFFFFFFFFFFFFFFFFFFFFFFFFFFFFFFFFFFFFFFFFFFFFFFFFFFFFFFFFFFF
310
FFFFFFFFFFFFFFFFFFFFFFFFFFFFFFFFF000FFFFFFFFFFFFFFFFFFFFFFFFFFFF
310
FFFFFFFFFFFFFFFFFFFFFFFFFFFFFFFFFFFFFFFFFFFFFFFFFFFFFFFFFFFFFFFF
310
FFFFFFFFFFFFFFFFFFFFFFFFFFFFFFFFFFFFFFFFFFFFFFFFFFFFFFFFFFFFFFFF
310
FFFFFFFFFFFFFFFFF000FFFFFFFFFFFFFFFFFFFFFFFFFFFFFFFFFFFFFFFFFFFF
310
FFFFFFFFFFFFFFFFFFFFFFFFFFFFFFFFFFFFFFFFFFFFFFFFFFFFFFFFFFFFFFFF
310
FFFFFFFFFFFFFFFFFFFFFFFFFFFFFFFFFFFFFFFFFFFFFFFFFFFFFFFFFFFFFFFF
310
F000FFFFFFFFFFFFFFFFFFFFFFFFFFFFFFFFFFFFFFFFFFFFFFFFFFFFFFFFFFFF
310
FFFFFFFFFFFFFFFFFFFFFFFFFFFFFFFFFFFFFFFFFFFFFFFFFFFFFFFFFFFFFFFF
310
FFFFFFFFFFFFFFFFFFFFFFFFFFFFFFFFFFFFFFFFFFFFFFFFF000FFFFFFFFFFFF
310
FFFFFFFFFFFFFFFFFFFFFFFFFFFFFFFFFFFFFFFFFFFFFFFFFFFFFFFFFFFFFFFF
310
FFFFFFFFFFFFFFFFFFFFFFFFFFFFFFFFFFFFFFFFFFFFFFFFFFFFFFFFFFFFFFFF
310
FFFFFFFFFFFFFFFFFFFFFFFFFFFFFFFFF000FFFFFFFFFFFFFFFFFFFFFFFFFFFF
310
FFFFFFFFFFFFFFFFFFFFFFFFFFFFFFFFFFFFFFFFFFFFFFFFFFFFFFFFFFFFFFFF
310
FFFFFFFFFFFFFFFFFFFFFFFFFFFFFFFFFFFFFFFFFFFFFFFFFFFFFFFFFFFFFFFF
310
FFFFFFFFFFFFFFFFF000FFFFFFFFFFFFFFFFFFFFFFFFFFFFFFFFFFFFFFFFFFFF
310
FFFFFFFFFFFFFFFFFFFFFFFFFFFFFFFFFFFFFFFFFFFFFFFFFFFFFFFFFFFFFFFF
310
FFFFFFFFFFFFFFFFFFFFFFFFFFFFFFFFFFFFFFFFFFFFFFFFFFFFFFFFFFFFFFFF
310
F000FFFFFFFFFFFFFFFFFFFFFFFFFFFFFFFFFFFFFFFFFFFFFFFFFFFFFFFFFFFF
310
FFFFFFFFFFFFFFFFFFFFFFFFFFFFFFFFFFFFFFFFFFFFFFFFFFFFFFFFFFFFFFFF
310
FFFFFFFFFFFFFFFFFFFFFFFFFFFFFFFFFFFFFFFFFFFFFFFFF000FFFFFFFFFFFF
310
FFFFFFFFFFFFFFFFFFFFFFFFFFFFFFFFFFFFFFFFFFFFFFFFFFFFFFFFFFFFFFFF
310
FFFFFFFFFFFFFFFFFFFFFFFFFFFFFFFFFFFFFFFFFFFFFFFFFFFFFFFFFFFFFFFF
310
FFFFFFFFFFFFFFFFFFFFFFFFFFFFFFFFF000FFFFFFFFFFFFFFFFFFFFFFFFFFFF
310
FFFFFFFFFFFFFFFFFFFFFFFFFFFFFFFFFFFFFFFFFFFFFFFFFFFFFFFFFFFFFFFF
310
FFFFFFFFFFFFFFFFFFFFFFFFFFFFFFFFFFFFFFFFFFFFFFFFFFFFFFFFFFFFFFFF
310
FFFFFFFFFFFFFFFFF000FFFFFFFFFFFFFFFFFFFFFFFFFFFFFFFFFFFFFFFFFFFF
310
FFFFFFFFFFFFFFFFFFFFFFFFFFFFFFFFFFFFFFFFFFFFFFFFFFFFFFFFFFFFFFFF
310
FFFFFFFFFFFFFFFFFFFFFFFFFFFFFFFFFFFFFFFFFFFFFFFFFFFFFFFFFFFFFFFF
310
F000FFFFFFFFFFFFFFFFFFFFFFFFFFFFFFFFFFFFFFFFFFFFFFFFFFFFFFFFFFFF
310
FFFFFFFFFFFFFFFFFFFFFFFFFFFFFFFFFFFFFFFFFFFFFFFFFFFFFFFFFFFFFFFF
310
FFFFFFFFFFFFFFFFFFFFFFFFFFFFFFFFFFFFFFFFFFFFFFFFF000FFFFFFFFFFFF
310
FFFFFFFFFFFFFFFFFFFFFFFFFFFFFFFFFFFFFFFFFFFFFFFFFFFFFFFFFFFFFFFF
310
FFFFFFFFFFFFFFFFFFFFFFFFFFFFFFFFFFFFFFFFFFFFFFFFFFFFFFFFFFFFFFFF
310
FFFFFFFFFFFFFFFFFFFFFFFFFFFFFFFFF0000000000000000000000000000000
310
0000000000000000000000000000000000000000000000000000000000000000
310
0000000000000000000000000000000000000000000000000000000000000000
310
0000000000000000000000000000000000000000000000000000000000000000
310
0000000000000000000000000000000000000000000000000000000000000000
310
0000000000000000000000000000000000000000000000000000000000000000
310
0000000000000000000000000000000000000000000000000000000000000000
310
0000000000000000000000000000000000000000000000000000000000000000
310
0000000000000000000000000000000000000000000000000000000000000000
310
0000000000000000000000000000000000000000000000000000000000000000
310
0000000000000000000000000000000000000000000000000000000000000000
310
0000000000000000000000000000000000000000000000000000000000000000
310
0000000000000000000000000000000000000000000000000000000000000000
310
0000000000000000000000000000000000000000000000000000000000000000
310
0000000000000000000000000000000000000000000000000000000000000000
310
0000000000000000000000000000000000000000000000000000000000000000
  1
OLE
  0
ENDSEC
  0
SECTION
  2
OBJECTS
  0
DICTIONARY
  5
C
330
0
100
AcDbDictionary
281
     1
  3
ACAD_GROUP
350
D
  3
ACAD_LAYOUT
350
1A
  3
ACAD_MLINESTYLE
350
17
  3
ACAD_PLOTSETTINGS
350
19
  3
ACAD_PLOTSTYLENAME
350
E
  3
ACAD_SCALELIST
350
47
  0
DICTIONARY
  5
D
102
{ACAD_REACTORS
330
C
102
}
330
C
100
AcDbDictionary
281
     1
  0
DICTIONARY
  5
1A
102
{ACAD_REACTORS
330
C
102
}
330
C
100
AcDbDictionary
281
     1
  3
Layout1
350
1E
  3
Layout2
350
26
  3
Model
350
22
  0
DICTIONARY
  5
17
102
{ACAD_REACTORS
330
C
102
}
330
C
100
AcDbDictionary
281
     1
  3
Standard
350
18
  0
DICTIONARY
  5
19
102
{ACAD_REACTORS
330
C
102
}
330
C
100
AcDbDictionary
281
     1
  0
ACDBDICTIONARYWDFLT
  5
E
102
{ACAD_REACTORS
330
C
102
}
330
C
100
AcDbDictionary
281
     1
  3
Normal
350
F
100
AcDbDictionaryWithDefault
340
F
  0
DICTIONARY
  5
47
102
{ACAD_REACTORS
330
C
102
}
330
C
100
AcDbDictionary
281
     1
  3
A0
350
48
  3
A1
350
49
  3
A2
350
4A
  3
A3
350
4B
  3
A4
350
4C
  3
A5
350
4D
  3
A6
350
4E
  3
A7
350
4F
  3
A8
350
50
  3
A9
350
51
  3
B0
350
52
  3
B1
350
53
  3
B2
350
54
  3
B3
350
55
  3
B4
350
56
  3
B5
350
57
  3
B6
350
58
  3
B7
350
59
  3
B8
350
5A
  3
B9
350
5B
  3
C0
350
5C
  3
C1
350
5D
  3
C2
350
5E
  3
C3
350
5F
  3
C4
350
60
  3
C5
350
61
  3
C6
350
62
  3
C7
350
63
  3
C8
350
64
  3
C9
350
65
  3
D0
350
66
  3
D1
350
67
  3
D2
350
68
  0
LAYOUT
  5
1E
102
{ACAD_REACTORS
330
1A
102
}
330
1A
100
AcDbPlotSettings
  1

  2
none_device
  4

  6

 40
0.0
 41
0.0
 42
0.0
 43
0.0
 44
0.0
 45
0.0
 46
0.0
 47
0.0
 48
0.0
 49
0.0
140
0.0
141
0.0
142
1.0
143
1.0
 70
   688
 72
     1
 73
     0
 74
     5
  7

 75
    16
147
1.0
148
0.0
149
0.0
100
AcDbLayout
  1
Layout1
 70
     1
 71
     1
 10
0.0
 20
0.0
 11
420.0
 21
297.0
 12
0.0
 22
0.0
 32
0.0
 14
1.0000000000E+20
 24
1.0000000000E+20
 34
1.0000000000E+20
 15
-1.0000000000E+20
 25
-1.0000000000E+20
 35
-1.0000000000E+20
146
0.0
 13
0.0
 23
0.0
 33
0.0
 16
1.0
 26
0.0
 36
0.0
 17
0.0
 27
1.0
 37
0.0
 76
     0
330
1B
  0
LAYOUT
  5
26
102
{ACAD_REACTORS
330
1A
102
}
330
1A
100
AcDbPlotSettings
  1

  2
none_device
  4

  6

 40
0.0
 41
0.0
 42
0.0
 43
0.0
 44
0.0
 45
0.0
 46
0.0
 47
0.0
 48
0.0
 49
0.0
140
0.0
141
0.0
142
1.0
143
1.0
 70
   688
 72
     1
 73
     0
 74
     5
  7

 75
    16
147
1.0
148
0.0
149
0.0
100
AcDbLayout
  1
Layout2
 70
     1
 71
     2
 10
0.0
 20
0.0
 11
0.0
 21
0.0
 12
0.0
 22
0.0
 32
0.0
 14
0.0
 24
0.0
 34
0.0
 15
0.0
 25
0.0
 35
0.0
146
0.0
 13
0.0
 23
0.0
 33
0.0
 16
1.0
 26
0.0
 36
0.0
 17
0.0
 27
1.0
 37
0.0
 76
     0
330
23
  0
LAYOUT
  5
22
102
{ACAD_REACTORS
330
1A
102
}
330
1A
100
AcDbPlotSettings
  1

  2
none_device
  4
Letter_(8.50_x_11.00_Inches)
  6

 40
6.35
 41
6.35
 42
6.35000508
 43
6.35000508
 44
215.9
 45
279.4
 46
0.0
 47
0.0
 48
0.0
 49
0.0
140
0.0
141
0.0
142
1.0
143
1.0
 70
  1712
 72
     1
 73
     0
 74
     0
  7

 75
     0
147
1.0
148
0.0
149
0.0
100
AcDbLayout
  1
Model
 70
     1
 71
     0
 10
0.0
 20
0.0
 11
297.0
 21
210.0
 12
0.0
 22
0.0
 32
0.0
 14
0.0
 24
0.0
 34
0.0
 15
297.0
 25
210.0
 35
0.0
146
0.0
 13
0.0
 23
0.0
 33
0.0
 16
1.0
 26
0.0
 36
0.0
 17
0.0
 27
1.0
 37
0.0
 76
     0
330
1F
331
29
  0
MLINESTYLE
  5
18
102
{ACAD_REACTORS
330
17
102
}
330
17
100
AcDbMlineStyle
  2
Standard
 70
     0
  3

 62
   256
 51
90.0
 52
90.0
 71
     2
 49
0.5
 62
   256
  6
BYLAYER
 49
-0.5
 62
   256
  6
BYLAYER
  0
ACDBPLACEHOLDER
  5
F
102
{ACAD_REACTORS
330
E
102
}
330
E
  0
SCALE
  5
48
102
{ACAD_REACTORS
330
47
102
}
330
47
100
AcDbScale
 70
     0
300
1:1
140
1.0
141
1.0
290
     1
  0
SCALE
  5
49
102
{ACAD_REACTORS
330
47
102
}
330
47
100
AcDbScale
 70
     0
300
1:2
140
1.0
141
2.0
290
     0
  0
SCALE
  5
4A
102
{ACAD_REACTORS
330
47
102
}
330
47
100
AcDbScale
 70
     0
300
1:4
140
1.0
141
4.0
290
     0
  0
SCALE
  5
4B
102
{ACAD_REACTORS
330
47
102
}
330
47
100
AcDbScale
 70
     0
300
1:5
140
1.0
141
5.0
290
     0
  0
SCALE
  5
4C
102
{ACAD_REACTORS
330
47
102
}
330
47
100
AcDbScale
 70
     0
300
1:8
140
1.0
141
8.0
290
     0
  0
SCALE
  5
4D
102
{ACAD_REACTORS
330
47
102
}
330
47
100
AcDbScale
 70
     0
300
1:10
140
1.0
141
10.0
290
     0
  0
SCALE
  5
4E
102
{ACAD_REACTORS
330
47
102
}
330
47
100
AcDbScale
 70
     0
300
1:16
140
1.0
141
16.0
290
     0
  0
SCALE
  5
4F
102
{ACAD_REACTORS
330
47
102
}
330
47
100
AcDbScale
 70
     0
300
1:20
140
1.0
141
20.0
290
     0
  0
SCALE
  5
50
102
{ACAD_REACTORS
330
47
102
}
330
47
100
AcDbScale
 70
     0
300
1:30
140
1.0
141
30.0
290
     0
  0
SCALE
  5
51
102
{ACAD_REACTORS
330
47
102
}
330
47
100
AcDbScale
 70
     0
300
1:40
140
1.0
141
40.0
290
     0
  0
SCALE
  5
52
102
{ACAD_REACTORS
330
47
102
}
330
47
100
AcDbScale
 70
     0
300
1:50
140
1.0
141
50.0
290
     0
  0
SCALE
  5
53
102
{ACAD_REACTORS
330
47
102
}
330
47
100
AcDbScale
 70
     0
300
1:100
140
1.0
141
100.0
290
     0
  0
SCALE
  5
54
102
{ACAD_REACTORS
330
47
102
}
330
47
100
AcDbScale
 70
     0
300
2:1
140
2.0
141
1.0
290
     0
  0
SCALE
  5
55
102
{ACAD_REACTORS
330
47
102
}
330
47
100
AcDbScale
 70
     0
300
4:1
140
4.0
141
1.0
290
     0
  0
SCALE
  5
56
102
{ACAD_REACTORS
330
47
102
}
330
47
100
AcDbScale
 70
     0
300
8:1
140
8.0
141
1.0
290
     0
  0
SCALE
  5
57
102
{ACAD_REACTORS
330
47
102
}
330
47
100
AcDbScale
 70
     0
300
10:1
140
10.0
141
1.0
290
     0
  0
SCALE
  5
58
102
{ACAD_REACTORS
330
47
102
}
330
47
100
AcDbScale
 70
     0
300
100:1
140
100.0
141
1.0
290
     0
  0
SCALE
  5
59
102
{ACAD_REACTORS
330
47
102
}
330
47
100
AcDbScale
 70
     0
300
1/128" = 1'-0"
140
0.0078125
141
12.0
290
     0
  0
SCALE
  5
5A
102
{ACAD_REACTORS
330
47
102
}
330
47
100
AcDbScale
 70
     0
300
1/64" = 1'-0"
140
0.015625
141
12.0
290
     0
  0
SCALE
  5
5B
102
{ACAD_REACTORS
330
47
102
}
330
47
100
AcDbScale
 70
     0
300
1/32" = 1'-0"
140
0.03125
141
12.0
290
     0
  0
SCALE
  5
5C
102
{ACAD_REACTORS
330
47
102
}
330
47
100
AcDbScale
 70
     0
300
1/16" = 1'-0"
140
0.0625
141
12.0
290
     0
  0
SCALE
  5
5D
102
{ACAD_REACTORS
330
47
102
}
330
47
100
AcDbScale
 70
     0
300
3/32" = 1'-0"
140
0.09375
141
12.0
290
     0
  0
SCALE
  5
5E
102
{ACAD_REACTORS
330
47
102
}
330
47
100
AcDbScale
 70
     0
300
1/8" = 1'-0"
140
0.125
141
12.0
290
     0
  0
SCALE
  5
5F
102
{ACAD_REACTORS
330
47
102
}
330
47
100
AcDbScale
 70
     0
300
3/16" = 1'-0"
140
0.1875
141
12.0
290
     0
  0
SCALE
  5
60
102
{ACAD_REACTORS
330
47
102
}
330
47
100
AcDbScale
 70
     0
300
1/4" = 1'-0"
140
0.25
141
12.0
290
     0
  0
SCALE
  5
61
102
{ACAD_REACTORS
330
47
102
}
330
47
100
AcDbScale
 70
     0
300
3/8" = 1'-0"
140
0.375
141
12.0
290
     0
  0
SCALE
  5
62
102
{ACAD_REACTORS
330
47
102
}
330
47
100
AcDbScale
 70
     0
300
1/2" = 1'-0"
140
0.5
141
12.0
290
     0
  0
SCALE
  5
63
102
{ACAD_REACTORS
330
47
102
}
330
47
100
AcDbScale
 70
     0
300
3/4" = 1'-0"
140
0.75
141
12.0
290
     0
  0
SCALE
  5
64
102
{ACAD_REACTORS
330
47
102
}
330
47
100
AcDbScale
 70
     0
300
1" = 1'-0"
140
1.0
141
12.0
290
     0
  0
SCALE
  5
65
102
{ACAD_REACTORS
330
47
102
}
330
47
100
AcDbScale
 70
     0
300
1-1/2" = 1'-0"
140
1.5
141
12.0
290
     0
  0
SCALE
  5
66
102
{ACAD_REACTORS
330
47
102
}
330
47
100
AcDbScale
 70
     0
300
3" = 1'-0"
140
3.0
141
12.0
290
     0
  0
SCALE
  5
67
102
{ACAD_REACTORS
330
47
102
}
330
47
100
AcDbScale
 70
     0
300
6" = 1'-0"
140
6.0
141
12.0
290
     0
  0
SCALE
  5
68
102
{ACAD_REACTORS
330
47
102
}
330
47
100
AcDbScale
 70
     0
300
1'-0" = 1'-0"
140
12.0
141
12.0
290
     0
  0
ENDSEC
  0
EOF
