  0
SECTION
  2
HEADER
  9
$ACADVER
  1
AC1015
  9
$ACADMAINTVER
 70
     6
  9
$DWGCODEPAGE
  3
ANSI_1252
  9
$INSBASE
 10
0.0
 20
0.0
 30
0.0
  9
$EXTMIN
 10
0.0
 20
0.0
 30
0.0
  9
$EXTMAX
 10
297.0
 20
210.0
 30
0.0
  9
$LIMMIN
 10
0.0
 20
0.0
  9
$LIMMAX
 10
297.0
 20
210.0
  9
$ORTHOMODE
 70
     0
  9
$REGENMODE
 70
     1
  9
$FILLMODE
 70
     1
  9
$QTEXTMODE
 70
     0
  9
$MIRRTEXT
 70
     1
  9
$LTSCALE
 40
1.0
  9
$ATTMODE
 70
     1
  9
$TEXTSIZE
 40
2.0
  9
$TRACEWID
 40
1.0
  9
$TEXTSTYLE
  7
Standard
  9
$CLAYER
  8
0
  9
$CELTYPE
  6
ByLayer
  9
$CECOLOR
 62
   256
  9
$CELTSCALE
 40
1.0
  9
$DISPSILH
 70
     0
  9
$DIMSCALE
 40
1.0
  9
$DIMASZ
 40
3.0
  9
$DIMEXO
 40
0.0
  9
$DIMDLI
 40
3.75
  9
$DIMRND
 40
0.0
  9
$DIMDLE
 40
0.0
  9
$DIMEXE
 40
1.0
  9
$DIMTP
 40
0.0
  9
$DIMTM
 40
0.0
  9
$DIMTXT
 40
2.0
  9
$DIMCEN
 40
2.5
  9
$DIMTSZ
 40
0.0
  9
$DIMTOL
 70
     0
  9
$DIMLIM
 70
     0
  9
$DIMTIH
 70
     1
  9
$DIMTOH
 70
     1
  9
$DIMSE1
 70
     0
  9
$DIMSE2
 70
     0
  9
$DIMTAD
 70
     1
  9
$DIMZIN
 70
     0
  9
$DIMBLK
  1

  9
$DIMASO
 70
     1
  9
$DIMSHO
 70
     1
  9
$DIMPOST
  1

  9
$DIMAPOST
  1

  9
$DIMALT
 70
     0
  9
$DIMALTD
 70
     3
  9
$DIMALTF
 40
0.0393700787
  9
$DIMLFAC
 40
1.0
  9
$DIMTOFL
 70
     1
  9
$DIMTVP
 40
0.0
  9
$DIMTIX
 70
     0
  9
$DIMSOXD
 70
     0
  9
$DIMSAH
 70
     0
  9
$DIMBLK1
  1

  9
$DIMBLK2
  1

  9
$DIMSTYLE
  2
ISO-25
  9
$DIMCLRD
 70
     0
  9
$DIMCLRE
 70
     0
  9
$DIMCLRT
 70
     0
  9
$DIMTFAC
 40
1.0
  9
$DIMGAP
 40
1.524
  9
$DIMJUST
 70
     0
  9
$DIMSD1
 70
     0
  9
$DIMSD2
 70
     0
  9
$DIMTOLJ
 70
     0
  9
$DIMTZIN
 70
     0
  9
$DIMALTZ
 70
     0
  9
$DIMALTTZ
 70
     0
  9
$DIMUPT
 70
     0
  9
$DIMDEC
 70
     2
  9
$DIMTDEC
 70
     3
  9
$DIMALTU
 70
     2
  9
$DIMALTTD
 70
     3
  9
$DIMTXSTY
  7
Standard
  9
$DIMAUNIT
 70
     0
  9
$DIMADEC
 70
     2
  9
$DIMALTRND
 40
0.0
  9
$DIMAZIN
 70
     0
  9
$DIMDSEP
 70
    44
  9
$DIMATFIT
 70
     3
  9
$DIMFRAC
 70
     0
  9
$DIMLDRBLK
  1

  9
$DIMLUNIT
 70
     2
  9
$DIMLWD
 70
    -2
  9
$DIMLWE
 70
    -2
  9
$DIMTMOVE
 70
     0
  9
$LUNITS
 70
     2
  9
$LUPREC
 70
     2
  9
$SKETCHINC
 40
1.0
  9
$FILLETRAD
 40
10.0
  9
$AUNITS
 70
     0
  9
$AUPREC
 70
     2
  9
$MENU
  1
.
  9
$ELEVATION
 40
0.0
  9
$PELEVATION
 40
0.0
  9
$THICKNESS
 40
0.0
  9
$LIMCHECK
 70
     0
  9
$CHAMFERA
 40
0.0
  9
$CHAMFERB
 40
0.0
  9
$CHAMFERC
 40
0.0
  9
$CHAMFERD
 40
0.0
  9
$SKPOLY
 70
     0
  9
$TDCREATE
 40
2458135.422581076
  9
$TDUCREATE
 40
2458135.38091441
  9
$TDUPDATE
 40
2458135.422582743
  9
$TDUUPDATE
 40
2458135.380916076
  9
$TDINDWG
 40
0.0000000116
  9
$TDUSRTIMER
 40
0.0000000116
  9
$USRTIMER
 70
     1
  9
$ANGBASE
 50
0.0
  9
$ANGDIR
 70
     0
  9
$PDMODE
 70
     0
  9
$PDSIZE
 40
-1.0
  9
$PLINEWID
 40
0.0
  9
$SPLFRAME
 70
     0
  9
$SPLINETYPE
 70
     6
  9
$SPLINESEGS
 70
     8
  9
$HANDSEED
  5
267
  9
$SURFTAB1
 70
     6
  9
$SURFTAB2
 70
     6
  9
$SURFTYPE
 70
     6
  9
$SURFU
 70
     6
  9
$SURFV
 70
     6
  9
$UCSBASE
  2

  9
$UCSNAME
  2

  9
$UCSORG
 10
0.0
 20
0.0
 30
0.0
  9
$UCSXDIR
 10
1.0
 20
0.0
 30
0.0
  9
$UCSYDIR
 10
0.0
 20
1.0
 30
0.0
  9
$UCSORTHOREF
  2

  9
$UCSORTHOVIEW
 70
     0
  9
$UCSORGTOP
 10
0.0
 20
0.0
 30
0.0
  9
$UCSORGBOTTOM
 10
0.0
 20
0.0
 30
0.0
  9
$UCSORGLEFT
 10
0.0
 20
0.0
 30
0.0
  9
$UCSORGRIGHT
 10
0.0
 20
0.0
 30
0.0
  9
$UCSORGFRONT
 10
0.0
 20
0.0
 30
0.0
  9
$UCSORGBACK
 10
0.0
 20
0.0
 30
0.0
  9
$PUCSBASE
  2

  9
$PUCSNAME
  2

  9
$PUCSORG
 10
0.0
 20
0.0
 30
0.0
  9
$PUCSXDIR
 10
1.0
 20
0.0
 30
0.0
  9
$PUCSYDIR
 10
0.0
 20
1.0
 30
0.0
  9
$PUCSORTHOREF
  2

  9
$PUCSORTHOVIEW
 70
     0
  9
$PUCSORGTOP
 10
0.0
 20
0.0
 30
0.0
  9
$PUCSORGBOTTOM
 10
0.0
 20
0.0
 30
0.0
  9
$PUCSORGLEFT
 10
0.0
 20
0.0
 30
0.0
  9
$PUCSORGRIGHT
 10
0.0
 20
0.0
 30
0.0
  9
$PUCSORGFRONT
 10
0.0
 20
0.0
 30
0.0
  9
$PUCSORGBACK
 10
0.0
 20
0.0
 30
0.0
  9
$USERI1
 70
     0
  9
$USERI2
 70
     0
  9
$USERI3
 70
     0
  9
$USERI4
 70
     0
  9
$USERI5
 70
     0
  9
$USERR1
 40
0.0
  9
$USERR2
 40
0.0
  9
$USERR3
 40
0.0
  9
$USERR4
 40
0.0
  9
$USERR5
 40
0.0
  9
$WORLDVIEW
 70
     1
  9
$SHADEDGE
 70
     3
  9
$SHADEDIF
 70
    70
  9
$TILEMODE
 70
     1
  9
$MAXACTVP
 70
    64
  9
$PINSBASE
 10
0.0
 20
0.0
 30
0.0
  9
$PLIMCHECK
 70
     0
  9
$PEXTMIN
 10
1.0000000000E+20
 20
1.0000000000E+20
 30
1.0000000000E+20
  9
$PEXTMAX
 10
-1.0000000000E+20
 20
-1.0000000000E+20
 30
-1.0000000000E+20
  9
$PLIMMIN
 10
0.0
 20
0.0
  9
$PLIMMAX
 10
420.0
 20
297.0
  9
$UNITMODE
 70
     0
  9
$VISRETAIN
 70
     1
  9
$PLINEGEN
 70
     0
  9
$PSLTSCALE
 70
     1
  9
$TREEDEPTH
 70
  3020
  9
$CMLSTYLE
  2
Standard
  9
$CMLJUST
 70
     0
  9
$CMLSCALE
 40
20.0
  9
$PROXYGRAPHICS
 70
     1
  9
$MEASUREMENT
 70
     1
  9
$CELWEIGHT
370
    -1
  9
$ENDCAPS
280
     0
  9
$JOINSTYLE
280
     0
  9
$LWDISPLAY
290
     1
  9
$INSUNITS
 70
     4
  9
$HYPERLINKBASE
  1

  9
$STYLESHEET
  1

  9
$XEDIT
290
     1
  9
$CEPSNTYPE
380
     0
  9
$PSTYLEMODE
290
     1
  9
$FINGERPRINTGUID
  2
{5497A696-7799-475C-B613-CFE2F2812DB8}
  9
$VERSIONGUID
  2
{FAEB1C32-E019-11D5-929B-00C0DF256EC4}
  9
$EXTNAMES
290
     1
  9
$PSVPSCALE
 40
0.0
  9
$OLESTARTUP
290
     0
  0
ENDSEC
  0
SECTION
  2
CLASSES
  0
CLASS
  1
ACDBDICTIONARYWDFLT
  2
AcDbDictionaryWithDefault
  3
ObjectDBX Classes
 90
        0
280
     0
281
     0
  0
CLASS
  1
VISUALSTYLE
  2
AcDbVisualStyle
  3
ObjectDBX Classes
 90
     4095
280
     0
281
     0
  0
CLASS
  1
MATERIAL
  2
AcDbMaterial
  3
ObjectDBX Classes
 90
     1153
280
     0
281
     0
  0
CLASS
  1
SCALE
  2
AcDbScale
  3
ObjectDBX Classes
 90
     1153
280
     0
281
     0
  0
CLASS
  1
TABLESTYLE
  2
AcDbTableStyle
  3
ObjectDBX Classes
 90
     4095
280
     0
281
     0
  0
CLASS
  1
MLEADERSTYLE
  2
AcDbMLeaderStyle
  3
ACDB_MLEADERSTYLE_CLASS
 90
     4095
280
     0
281
     0
  0
CLASS
  1
SUN
  2
AcDbSun
  3
SCENEOE
 90
     1153
280
     0
281
     0
  0
CLASS
  1
ACDBPLACEHOLDER
  2
AcDbPlaceHolder
  3
ObjectDBX Classes
 90
        0
280
     0
281
     0
  0
CLASS
  1
LAYOUT
  2
AcDbLayout
  3
ObjectDBX Classes
 90
        0
280
     0
281
     0
  0
ENDSEC
  0
SECTION
  2
TABLES
  0
TABLE
  2
VPORT
  5
8
330
0
100
AcDbSymbolTable
 70
     1
  0
VPORT
  5
29
330
8
100
AcDbSymbolTableRecord
100
AcDbViewportTableRecord
  2
*Active
 70
     0
 10
0.0
 20
0.0
 11
1.0
 21
1.0
 12
148.5
 22
105.0
 13
0.0
 23
0.0
 14
10.0
 24
10.0
 15
10.0
 25
10.0
 16
0.0
 26
0.0
 36
1.0
 17
0.0
 27
0.0
 37
0.0
 40
210.0
 41
1.4142857143
 42
50.0
 43
0.0
 44
0.0
 50
0.0
 51
0.0
 71
     0
 72
  2000
 73
     1
 74
     3
 75
     0
 76
     0
 77
     0
 78
     0
281
     0
 65
     1
110
0.0
120
0.0
130
0.0
111
1.0
121
0.0
131
0.0
112
0.0
122
1.0
132
0.0
 79
     0
146
0.0
  0
ENDTAB
  0
TABLE
  2
LTYPE
  5
5
330
0
100
AcDbSymbolTable
 70
     6
  0
LTYPE
  5
14
330
5
100
AcDbSymbolTableRecord
100
AcDbLinetypeTableRecord
  2
ByBlock
 70
     0
  3

 72
    65
 73
     0
 40
0.0
  0
LTYPE
  5
15
330
5
100
AcDbSymbolTableRecord
100
AcDbLinetypeTableRecord
  2
ByLayer
 70
     0
  3

 72
    65
 73
     0
 40
0.0
  0
LTYPE
  5
16
330
5
100
AcDbSymbolTableRecord
100
AcDbLinetypeTableRecord
  2
Continuous
 70
     0
  3
Solid line
 72
    65
 73
     0
 40
0.0
  0
LTYPE
  5
6E
330
5
100
AcDbSymbolTableRecord
100
AcDbLinetypeTableRecord
  2
HIDDEN
 70
     0
  3
Hidden __ __ __ __ __ __ __ __ __ __ __ __ __ __
 72
    65
 73
     2
 40
1.905
 49
1.27
 74
     0
 49
-0.635
 74
     0
  0
LTYPE
  5
6F
330
5
100
AcDbSymbolTableRecord
100
AcDbLinetypeTableRecord
  2
PHANTOM
 70
     0
  3
Phantom ______  __  __  ______  __  __  ______
 72
    65
 73
     6
 40
12.7
 49
6.35
 74
     0
 49
-1.27
 74
     0
 49
1.27
 74
     0
 49
-1.27
 74
     0
 49
1.27
 74
     0
 49
-1.27
 74
     0
  0
LTYPE
  5
70
330
5
100
AcDbSymbolTableRecord
100
AcDbLinetypeTableRecord
  2
CENTER
 70
     0
  3
Center ____ _ ____ _ ____ _ ____ _ ____ _ ____
 72
    65
 73
     4
 40
10.16
 49
6.35
 74
     0
 49
-1.27
 74
     0
 49
1.27
 74
     0
 49
-1.27
 74
     0
  0
LTYPE
  5
71
330
5
100
AcDbSymbolTableRecord
100
AcDbLinetypeTableRecord
  2
CENTERX2
 70
     0
  3
Center (2x) ________  __  ________  __  _____
 72
    65
 73
     4
 40
20.32
 49
12.7
 74
     0
 49
-2.54
 74
     0
 49
2.54
 74
     0
 49
-2.54
 74
     0
  0
LTYPE
  5
72
330
5
100
AcDbSymbolTableRecord
100
AcDbLinetypeTableRecord
  2
DOT2
 70
     0
  3
Dot (.5x) ........................................
 72
    65
 73
     2
 40
0.635
 49
0.0
 74
     0
 49
-0.635
 74
     0
  0
ENDTAB
  0
TABLE
  2
LAYER
  5
2
330
0
100
AcDbSymbolTable
 70
     5
  0
LAYER
  5
10
330
2
100
AcDbSymbolTableRecord
100
AcDbLayerTableRecord
  2
0
 70
     0
 62
     7
  6
Continuous
370
    -3
390
F
  0
LAYER
  5
73
330
2
100
AcDbSymbolTableRecord
100
AcDbLayerTableRecord
  2
FORMAT
 70
     0
 62
     7
  6
Continuous
370
    -3
390
F
  0
LAYER
  5
74
330
2
100
AcDbSymbolTableRecord
100
AcDbLayerTableRecord
  2
VERMASSUNG
 70
     0
 62
     7
  6
Continuous
370
    -3
390
F
  0
LAYER
  5
75
330
2
100
AcDbSymbolTableRecord
100
AcDbLayerTableRecord
  2
KOPF_DÜNN
 70
     0
 62
     7
  6
Continuous
370
    -3
390
F
  0
LAYER
  5
76
330
2
100
AcDbSymbolTableRecord
100
AcDbLayerTableRecord
  2
KOPF_DICK
 70
     0
 62
     7
  6
Continuous
370
    25
390
F
  0
ENDTAB
  0
TABLE
  2
STYLE
  5
3
330
0
100
AcDbSymbolTable
 70
     2
  0
STYLE
  5
11
330
3
100
AcDbSymbolTableRecord
100
AcDbTextStyleTableRecord
  2
Standard
 70
     0
 40
0.0
 41
1.0
 50
0.0
 71
     0
 42
2.0
  3
txt
  4

  0
STYLE
  5
77
330
3
100
AcDbSymbolTableRecord
100
AcDbTextStyleTableRecord
  2
SLDTEXTSTYLE0
 70
     0
 40
0.0
 41
0.7
 50
0.0
 71
     0
 42
2.0
  3
TXT
  4

  0
ENDTAB
  0
TABLE
  2
VIEW
  5
6
330
0
100
AcDbSymbolTable
 70
     0
  0
ENDTAB
  0
TABLE
  2
UCS
  5
7
330
0
100
AcDbSymbolTable
 70
     0
  0
ENDTAB
  0
TABLE
  2
APPID
  5
9
330
0
100
AcDbSymbolTable
 70
     1
  0
APPID
  5
12
330
9
100
AcDbSymbolTableRecord
100
AcDbRegAppTableRecord
  2
ACAD
 70
     0
  0
ENDTAB
  0
TABLE
  2
DIMSTYLE
  5
A
330
0
100
AcDbSymbolTable
 70
     2
100
AcDbDimStyleTable
  0
DIMSTYLE
105
27
330
A
100
AcDbSymbolTableRecord
100
AcDbDimStyleTableRecord
  2
ISO-25
 70
     0
 41
2.5
 42
0.625
 43
3.75
 44
1.25
 73
     0
 74
     0
 77
     1
 78
     8
140
2.5
141
2.5
143
0.0393700787
147
0.625
171
     3
172
     1
178
     0
271
     2
272
     2
274
     3
278
    44
283
     0
284
     8
340
11
  0
DIMSTYLE
105
1A1
102
{ACAD_REACTORS
330
1A0
330
1AC
330
1B6
330
1C2
330
1CE
102
}
330
A
100
AcDbSymbolTableRecord
100
AcDbDimStyleTableRecord
  2
SLDDIMSTYLE0
 70
     0
 41
3.0
 44
0.0
 45
0.000000001
 73
     0
 74
     0
 77
     1
 78
    12
 79
     3
140
2.0
147
0.5
173
     1
178
     0
271
     2
272
     3
276
     2
284
    12
340
77
  0
ENDTAB
  0
TABLE
  2
BLOCK_RECORD
  5
1
330
0
100
AcDbSymbolTable
 70
     9
  0
BLOCK_RECORD
  5
1F
330
1
100
AcDbSymbolTableRecord
100
AcDbBlockTableRecord
  2
*Model_Space
340
22
  0
BLOCK_RECORD
  5
1B
330
1
100
AcDbSymbolTableRecord
100
AcDbBlockTableRecord
  2
*Paper_Space
340
1E
  0
BLOCK_RECORD
  5
23
330
1
100
AcDbSymbolTableRecord
100
AcDbBlockTableRecord
  2
*Paper_Space0
340
26
  0
BLOCK_RECORD
  5
1A2
330
1
100
AcDbSymbolTableRecord
100
AcDbBlockTableRecord
  2
_D
340
0
  0
BLOCK_RECORD
  5
1AD
330
1
100
AcDbSymbolTableRecord
100
AcDbBlockTableRecord
  2
_D_1
340
0
  0
BLOCK_RECORD
  5
1B7
330
1
100
AcDbSymbolTableRecord
100
AcDbBlockTableRecord
  2
_D_2
340
0
  0
BLOCK_RECORD
  5
1C3
330
1
100
AcDbSymbolTableRecord
100
AcDbBlockTableRecord
  2
_D_3
340
0
  0
BLOCK_RECORD
  5
1CF
330
1
100
AcDbSymbolTableRecord
100
AcDbBlockTableRecord
  2
_D_4
340
0
  0
BLOCK_RECORD
  5
1D8
330
1
100
AcDbSymbolTableRecord
100
AcDbBlockTableRecord
  2
SW_CENTERMARKSYMBOL_0
340
0
102
{BLKREFS
331
1E3
102
}
  0
BLOCK_RECORD
  5
1E4
330
1
100
AcDbSymbolTableRecord
100
AcDbBlockTableRecord
  2
SW_CENTERMARKSYMBOL_1
340
0
102
{BLKREFS
331
1EF
102
}
  0
BLOCK_RECORD
  5
203
330
1
100
AcDbSymbolTableRecord
100
AcDbBlockTableRecord
  2
SW_CENTERMARKSYMBOL_2
340
0
102
{BLKREFS
331
20E
102
}
  0
ENDTAB
  0
ENDSEC
  0
SECTION
  2
BLOCKS
  0
BLOCK
  5
20
330
1F
100
AcDbEntity
  8
0
100
AcDbBlockBegin
  2
*Model_Space
 70
     0
 10
0.0
 20
0.0
 30
0.0
  3
*Model_Space
  1

  0
ENDBLK
  5
21
330
1F
100
AcDbEntity
  8
0
100
AcDbBlockEnd
  0
BLOCK
  5
1C
330
1B
100
AcDbEntity
 67
     1
  8
0
100
AcDbBlockBegin
  2
*Paper_Space
 70
     0
 10
0.0
 20
0.0
 30
0.0
  3
*Paper_Space
  1

  0
ENDBLK
  5
1D
330
1B
100
AcDbEntity
 67
     1
  8
0
100
AcDbBlockEnd
  0
BLOCK
  5
24
330
23
100
AcDbEntity
  8
0
100
AcDbBlockBegin
  2
*Paper_Space0
 70
     0
 10
0.0
 20
0.0
 30
0.0
  3
*Paper_Space0
  1

  0
ENDBLK
  5
25
330
23
100
AcDbEntity
  8
0
100
AcDbBlockEnd
  0
BLOCK
  5
1A3
330
1A2
100
AcDbEntity
  8
0
100
AcDbBlockBegin
  2
_D
 70
     0
 10
0.0
 20
0.0
 30
0.0
  3
_D
  1

  0
SOLID
  5
1A5
330
1A2
100
AcDbEntity
  8
VERMASSUNG
100
AcDbTrace
 10
255.0732206945
 20
148.2900898307
 30
0.0
 11
254.6232206945
 21
145.2900898307
 31
0.0
 12
255.5232206945
 22
145.2900898307
 32
0.0
 13
255.5232206945
 23
145.2900898307
 33
0.0
  0
SOLID
  5
1A6
330
1A2
100
AcDbEntity
  8
VERMASSUNG
100
AcDbTrace
 10
255.0732206945
 20
128.2900898307
 30
0.0
 11
255.5232206945
 21
131.2900898307
 31
0.0
 12
254.6232206945
 22
131.2900898307
 32
0.0
 13
254.6232206945
 23
131.2900898307
 33
0.0
  0
LINE
  5
1A7
330
1A2
100
AcDbEntity
  8
VERMASSUNG
100
AcDbLine
 10
244.0732206945
 20
148.2900898307
 30
0.0
 11
256.0732206945
 21
148.2900898307
 31
0.0
  0
LINE
  5
1A8
330
1A2
100
AcDbEntity
  8
VERMASSUNG
100
AcDbLine
 10
244.0732206945
 20
128.2900898307
 30
0.0
 11
256.0732206945
 21
128.2900898307
 31
0.0
  0
LINE
  5
1A9
330
1A2
100
AcDbEntity
  8
VERMASSUNG
100
AcDbLine
 10
255.0732206945
 20
148.2900898307
 30
0.0
 11
255.0732206945
 21
128.2900898307
 31
0.0
  0
MTEXT
  5
1AA
330
1A2
100
AcDbEntity
  8
VERMASSUNG
100
AcDbMText
 10
252.4950853896
 20
135.0850898734
 30
0.0
 40
2.0
 41
0.0
 71
     1
 72
     1
  1
%%c
  7
SLDTEXTSTYLE0
 11
-7.044195017643634E-15
 21
1.0
 31
0.0
 73
     1
 44
1.0
  0
MTEXT
  5
1AB
330
1A2
100
AcDbEntity
  8
VERMASSUNG
100
AcDbMText
 10
252.2950854383
 20
138.6950898877
 30
0.0
 40
2.0
 41
0.0
 71
     1
 72
     1
  1
20
  7
SLDTEXTSTYLE0
 11
-7.044195017643634E-15
 21
1.0
 31
0.0
 73
     1
 44
1.0
  0
ENDBLK
  5
1A4
330
1A2
100
AcDbEntity
  8
0
100
AcDbBlockEnd
  0
BLOCK
  5
1AE
330
1AD
100
AcDbEntity
  8
0
100
AcDbBlockBegin
  2
_D_1
 70
     0
 10
0.0
 20
0.0
 30
0.0
  3
_D_1
  1

  0
SOLID
  5
1B0
330
1AD
100
AcDbEntity
  8
VERMASSUNG
100
AcDbTrace
 10
185.2732206945
 20
166.404356839
 30
0.0
 11
188.2732206945
 21
165.954356839
 31
0.0
 12
188.2732206945
 22
166.854356839
 32
0.0
 13
188.2732206945
 23
166.854356839
 33
0.0
  0
SOLID
  5
1B1
330
1AD
100
AcDbEntity
  8
VERMASSUNG
100
AcDbTrace
 10
245.2732206945
 20
166.404356839
 30
0.0
 11
242.2732206945
 21
166.854356839
 31
0.0
 12
242.2732206945
 22
165.954356839
 32
0.0
 13
242.2732206945
 23
165.954356839
 33
0.0
  0
LINE
  5
1B2
330
1AD
100
AcDbEntity
  8
VERMASSUNG
100
AcDbLine
 10
185.2732206945
 20
157.9900898307
 30
0.0
 11
185.2732206945
 21
167.404356839
 31
0.0
  0
LINE
  5
1B3
330
1AD
100
AcDbEntity
  8
VERMASSUNG
100
AcDbLine
 10
245.2732206945
 20
157.2900898307
 30
0.0
 11
245.2732206945
 21
167.404356839
 31
0.0
  0
LINE
  5
1B4
330
1AD
100
AcDbEntity
  8
VERMASSUNG
100
AcDbLine
 10
185.2732206945
 20
166.404356839
 30
0.0
 11
245.2732206945
 21
166.404356839
 31
0.0
  0
MTEXT
  5
1B5
330
1AD
100
AcDbEntity
  8
VERMASSUNG
100
AcDbMText
 10
213.8732207444
 20
168.982492435
 30
0.0
 40
2.0
 41
0.0
 71
     1
 72
     1
  1
60
  7
SLDTEXTSTYLE0
 73
     1
 44
1.0
  0
ENDBLK
  5
1AF
330
1AD
100
AcDbEntity
  8
0
100
AcDbBlockEnd
  0
BLOCK
  5
1B8
330
1B7
100
AcDbEntity
  8
0
100
AcDbBlockBegin
  2
_D_2
 70
     0
 10
0.0
 20
0.0
 30
0.0
  3
_D_2
  1

  0
ARC
  5
1BA
330
1B7
100
AcDbEntity
  8
VERMASSUNG
100
AcDbCircle
 10
205.5732207747
 20
176.1900900955
 30
0.0
 40
4.24852922888762
100
AcDbArc
 50
153.4349488229
 51
206.5650511771
  0
ARC
  5
1BB
330
1B7
100
AcDbEntity
  8
VERMASSUNG
100
AcDbCircle
 10
200.9732206726
 20
176.1900900955
 30
0.0
 40
4.24852922888762
100
AcDbArc
 50
333.4349488229
 51
26.5650511771
  0
SOLID
  5
1BC
330
1B7
100
AcDbEntity
  8
VERMASSUNG
100
AcDbTrace
 10
161.2732206945
 20
174.2900898307
 30
0.0
 11
164.2732206945
 21
173.8400898307
 31
0.0
 12
164.2732206945
 22
174.7400898307
 32
0.0
 13
164.2732206945
 23
174.7400898307
 33
0.0
  0
SOLID
  5
1BD
330
1B7
100
AcDbEntity
  8
VERMASSUNG
100
AcDbTrace
 10
245.2732206945
 20
174.2900898307
 30
0.0
 11
242.2732206945
 21
174.7400898307
 31
0.0
 12
242.2732206945
 22
173.8400898307
 32
0.0
 13
242.2732206945
 23
173.8400898307
 33
0.0
  0
LINE
  5
1BE
330
1B7
100
AcDbEntity
  8
VERMASSUNG
100
AcDbLine
 10
161.2732206945
 20
150.9215948127
 30
0.0
 11
161.2732206945
 21
175.2900898307
 31
0.0
  0
LINE
  5
1BF
330
1B7
100
AcDbEntity
  8
VERMASSUNG
100
AcDbLine
 10
245.2732206945
 20
157.2900898307
 30
0.0
 11
245.2732206945
 21
175.2900898307
 31
0.0
  0
LINE
  5
1C0
330
1B7
100
AcDbEntity
  8
VERMASSUNG
100
AcDbLine
 10
161.2732206945
 20
174.2900898307
 30
0.0
 11
245.2732206945
 21
174.2900898307
 31
0.0
  0
MTEXT
  5
1C1
330
1B7
100
AcDbEntity
  8
VERMASSUNG
100
AcDbMText
 10
201.7732207106
 20
176.8682256595
 30
0.0
 40
2.0
 41
0.0
 71
     1
 72
     1
  1
84
  7
SLDTEXTSTYLE0
 73
     1
 44
1.0
  0
ENDBLK
  5
1B9
330
1B7
100
AcDbEntity
  8
0
100
AcDbBlockEnd
  0
BLOCK
  5
1C4
330
1C3
100
AcDbEntity
  8
0
100
AcDbBlockBegin
  2
_D_3
 70
     0
 10
0.0
 20
0.0
 30
0.0
  3
_D_3
  1

  0
SOLID
  5
1C6
330
1C3
100
AcDbEntity
  8
VERMASSUNG
100
AcDbTrace
 10
152.8532873717
 20
118.2900898307
 30
0.0
 11
153.3032873717
 21
121.2900898307
 31
0.0
 12
152.4032873717
 22
121.2900898307
 32
0.0
 13
152.4032873717
 23
121.2900898307
 33
0.0
  0
SOLID
  5
1C7
330
1C3
100
AcDbEntity
  8
VERMASSUNG
100
AcDbTrace
 10
152.8532873717
 20
158.2900898307
 30
0.0
 11
152.4032873717
 21
155.2900898307
 31
0.0
 12
153.3032873717
 22
155.2900898307
 32
0.0
 13
153.3032873717
 23
155.2900898307
 33
0.0
  0
LINE
  5
1C8
330
1C3
100
AcDbEntity
  8
VERMASSUNG
100
AcDbLine
 10
185.5732206945
 20
118.2900898307
 30
0.0
 11
151.8532873717
 21
118.2900898307
 31
0.0
  0
LINE
  5
1C9
330
1C3
100
AcDbEntity
  8
VERMASSUNG
100
AcDbLine
 10
185.5732206945
 20
158.2900898307
 30
0.0
 11
151.8532873717
 21
158.2900898307
 31
0.0
  0
LINE
  5
1CA
330
1C3
100
AcDbEntity
  8
VERMASSUNG
100
AcDbLine
 10
152.8532873717
 20
118.2900898307
 30
0.0
 11
152.8532873717
 21
158.2900898307
 31
0.0
  0
MTEXT
  5
1CB
330
1C3
100
AcDbEntity
  8
VERMASSUNG
100
AcDbMText
 10
150.0751521155
 20
132.6850897594
 30
0.0
 40
2.0
 41
0.0
 71
     1
 72
     1
  1
PSC
  7
SLDTEXTSTYLE0
 11
6.123233995736766E-17
 21
1.0
 31
0.0
 73
     1
 44
1.0
  0
MTEXT
  5
1CC
330
1C3
100
AcDbEntity
  8
VERMASSUNG
100
AcDbMText
 10
150.2751520668
 20
137.2850893958
 30
0.0
 40
2.0
 41
0.0
 71
     1
 72
     1
  1
%%c
  7
SLDTEXTSTYLE0
 11
6.123233995736766E-17
 21
1.0
 31
0.0
 73
     1
 44
1.0
  0
MTEXT
  5
1CD
330
1C3
100
AcDbEntity
  8
VERMASSUNG
100
AcDbMText
 10
150.0751521155
 20
140.8950894102
 30
0.0
 40
2.0
 41
0.0
 71
     1
 72
     1
  1
40
  7
SLDTEXTSTYLE0
 11
6.123233995736766E-17
 21
1.0
 31
0.0
 73
     1
 44
1.0
  0
ENDBLK
  5
1C5
330
1C3
100
AcDbEntity
  8
0
100
AcDbBlockEnd
  0
BLOCK
  5
1D0
330
1CF
100
AcDbEntity
  8
0
100
AcDbBlockBegin
  2
_D_4
 70
     0
 10
0.0
 20
0.0
 30
0.0
  3
_D_4
  1

  0
SOLID
  5
1D2
330
1CF
100
AcDbEntity
  8
VERMASSUNG
100
AcDbTrace
 10
245.2732206945
 20
108.2900898307
 30
0.0
 11
242.2732206945
 21
108.7400898307
 31
0.0
 12
242.2732206945
 22
107.8400898307
 32
0.0
 13
242.2732206945
 23
107.8400898307
 33
0.0
  0
SOLID
  5
1D3
330
1CF
100
AcDbEntity
  8
VERMASSUNG
100
AcDbTrace
 10
192.2732206945
 20
108.2900898307
 30
0.0
 11
195.2732206945
 21
107.8400898307
 31
0.0
 12
195.2732206945
 22
108.7400898307
 32
0.0
 13
195.2732206945
 23
108.7400898307
 33
0.0
  0
LINE
  5
1D4
330
1CF
100
AcDbEntity
  8
VERMASSUNG
100
AcDbLine
 10
245.2732206945
 20
119.2900898307
 30
0.0
 11
245.2732206945
 21
107.2900898307
 31
0.0
  0
LINE
  5
1D5
330
1CF
100
AcDbEntity
  8
VERMASSUNG
100
AcDbLine
 10
192.2732206945
 20
128.3900898307
 30
0.0
 11
192.2732206945
 21
107.2900898307
 31
0.0
  0
LINE
  5
1D6
330
1CF
100
AcDbEntity
  8
VERMASSUNG
100
AcDbLine
 10
245.2732206945
 20
108.2900898307
 30
0.0
 11
192.2732206945
 21
108.2900898307
 31
0.0
  0
MTEXT
  5
1D7
330
1CF
100
AcDbEntity
  8
VERMASSUNG
100
AcDbMText
 10
217.3732207444
 20
110.8682254266
 30
0.0
 40
2.0
 41
0.0
 71
     1
 72
     1
  1
53
  7
SLDTEXTSTYLE0
 73
     1
 44
1.0
  0
ENDBLK
  5
1D1
330
1CF
100
AcDbEntity
  8
0
100
AcDbBlockEnd
  0
BLOCK
  5
1D9
330
1D8
100
AcDbEntity
  8
0
100
AcDbBlockBegin
  2
SW_CENTERMARKSYMBOL_0
 70
     0
 10
0.0
 20
0.0
 30
0.0
  3
SW_CENTERMARKSYMBOL_0
  1

  0
LINE
  5
1DB
330
1D8
100
AcDbEntity
  8
VERMASSUNG
 62
     0
100
AcDbLine
 10
0.0
 20
0.0
 30
0.0
 11
0.0
 21
2.5
 31
0.0
  0
LINE
  5
1DC
330
1D8
100
AcDbEntity
  8
VERMASSUNG
 62
     0
100
AcDbLine
 10
0.0
 20
0.0
 30
0.0
 11
-2.5
 21
0.0
 31
0.0
  0
LINE
  5
1DD
330
1D8
100
AcDbEntity
  8
VERMASSUNG
 62
     0
100
AcDbLine
 10
0.0
 20
0.0
 30
0.0
 11
0.0
 21
-2.5
 31
0.0
  0
LINE
  5
1DE
330
1D8
100
AcDbEntity
  8
VERMASSUNG
 62
     0
100
AcDbLine
 10
0.0
 20
0.0
 30
0.0
 11
2.5
 21
0.0
 31
0.0
  0
LINE
  5
1DF
330
1D8
100
AcDbEntity
  8
VERMASSUNG
 62
     0
100
AcDbLine
 10
0.0
 20
5.0
 30
0.0
 11
0.0
 21
7.0
 31
0.0
  0
LINE
  5
1E0
330
1D8
100
AcDbEntity
  8
VERMASSUNG
 62
     0
100
AcDbLine
 10
-5.0
 20
0.0
 30
0.0
 11
-7.0
 21
0.0
 31
0.0
  0
LINE
  5
1E1
330
1D8
100
AcDbEntity
  8
VERMASSUNG
 62
     0
100
AcDbLine
 10
0.0
 20
-5.0
 30
0.0
 11
0.0
 21
-7.0
 31
0.0
  0
LINE
  5
1E2
330
1D8
100
AcDbEntity
  8
VERMASSUNG
 62
     0
100
AcDbLine
 10
5.0
 20
0.0
 30
0.0
 11
7.0
 21
0.0
 31
0.0
  0
ENDBLK
  5
1DA
330
1D8
100
AcDbEntity
  8
0
100
AcDbBlockEnd
  0
BLOCK
  5
1E5
330
1E4
100
AcDbEntity
  8
0
100
AcDbBlockBegin
  2
SW_CENTERMARKSYMBOL_1
 70
     0
 10
0.0
 20
0.0
 30
0.0
  3
SW_CENTERMARKSYMBOL_1
  1

  0
LINE
  5
1E7
330
1E4
100
AcDbEntity
  8
VERMASSUNG
 62
     0
100
AcDbLine
 10
0.0
 20
0.0
 30
0.0
 11
0.0
 21
2.5
 31
0.0
  0
LINE
  5
1E8
330
1E4
100
AcDbEntity
  8
VERMASSUNG
 62
     0
100
AcDbLine
 10
0.0
 20
0.0
 30
0.0
 11
-2.5
 21
0.0
 31
0.0
  0
LINE
  5
1E9
330
1E4
100
AcDbEntity
  8
VERMASSUNG
 62
     0
100
AcDbLine
 10
0.0
 20
0.0
 30
0.0
 11
0.0
 21
-2.5
 31
0.0
  0
LINE
  5
1EA
330
1E4
100
AcDbEntity
  8
VERMASSUNG
 62
     0
100
AcDbLine
 10
0.0
 20
0.0
 30
0.0
 11
2.5
 21
0.0
 31
0.0
  0
LINE
  5
1EB
330
1E4
100
AcDbEntity
  8
VERMASSUNG
 62
     0
100
AcDbLine
 10
0.0
 20
5.0
 30
0.0
 11
0.0
 21
7.5
 31
0.0
  0
LINE
  5
1EC
330
1E4
100
AcDbEntity
  8
VERMASSUNG
 62
     0
100
AcDbLine
 10
-5.0
 20
0.0
 30
0.0
 11
-7.5
 21
0.0
 31
0.0
  0
LINE
  5
1ED
330
1E4
100
AcDbEntity
  8
VERMASSUNG
 62
     0
100
AcDbLine
 10
0.0
 20
-5.0
 30
0.0
 11
0.0
 21
-7.5
 31
0.0
  0
LINE
  5
1EE
330
1E4
100
AcDbEntity
  8
VERMASSUNG
 62
     0
100
AcDbLine
 10
5.0
 20
0.0
 30
0.0
 11
7.5
 21
0.0
 31
0.0
  0
ENDBLK
  5
1E6
330
1E4
100
AcDbEntity
  8
0
100
AcDbBlockEnd
  0
BLOCK
  5
204
330
203
100
AcDbEntity
  8
0
100
AcDbBlockBegin
  2
SW_CENTERMARKSYMBOL_2
 70
     0
 10
0.0
 20
0.0
 30
0.0
  3
SW_CENTERMARKSYMBOL_2
  1

  0
LINE
  5
206
330
203
100
AcDbEntity
  8
VERMASSUNG
 62
     0
100
AcDbLine
 10
0.0
 20
0.0
 30
0.0
 11
0.0
 21
2.5
 31
0.0
  0
LINE
  5
207
330
203
100
AcDbEntity
  8
VERMASSUNG
 62
     0
100
AcDbLine
 10
0.0
 20
0.0
 30
0.0
 11
-2.5
 21
0.0
 31
0.0
  0
LINE
  5
208
330
203
100
AcDbEntity
  8
VERMASSUNG
 62
     0
100
AcDbLine
 10
0.0
 20
0.0
 30
0.0
 11
0.0
 21
-2.5
 31
0.0
  0
LINE
  5
209
330
203
100
AcDbEntity
  8
VERMASSUNG
 62
     0
100
AcDbLine
 10
0.0
 20
0.0
 30
0.0
 11
2.5
 21
0.0
 31
0.0
  0
LINE
  5
20A
330
203
100
AcDbEntity
  8
VERMASSUNG
 62
     0
100
AcDbLine
 10
0.0
 20
5.0
 30
0.0
 11
0.0
 21
22.5
 31
0.0
  0
LINE
  5
20B
330
203
100
AcDbEntity
  8
VERMASSUNG
 62
     0
100
AcDbLine
 10
-5.0
 20
0.0
 30
0.0
 11
-22.5
 21
0.0
 31
0.0
  0
LINE
  5
20C
330
203
100
AcDbEntity
  8
VERMASSUNG
 62
     0
100
AcDbLine
 10
0.0
 20
-5.0
 30
0.0
 11
0.0
 21
-22.5
 31
0.0
  0
LINE
  5
20D
330
203
100
AcDbEntity
  8
VERMASSUNG
 62
     0
100
AcDbLine
 10
5.0
 20
0.0
 30
0.0
 11
22.5
 21
0.0
 31
0.0
  0
ENDBLK
  5
205
330
203
100
AcDbEntity
  8
0
100
AcDbBlockEnd
  0
ENDSEC
  0
SECTION
  2
ENTITIES
  0
MTEXT
  5
78
330
1F
100
AcDbEntity
  8
KOPF_DÜNN
100
AcDbMText
 10
13.8892156294
 20
23.8442973028
 30
0.0
 40
3.0
 41
0.0
 71
     1
 72
     1
  1
PS4.K20.K01.060
  7
SLDTEXTSTYLE0
 73
     1
 44
1.0
  0
MTEXT
  5
79
330
1F
100
AcDbEntity
  8
VERMASSUNG
100
AcDbMText
 10
13.9329988022
 20
28.8834360957
 30
0.0
 40
3.0
 41
0.0
 71
     1
 72
     1
  1
Werkzeughalter / Toolholder
  7
SLDTEXTSTYLE0
 73
     1
 44
1.0
  0
MTEXT
  5
7A
330
1F
100
AcDbEntity
  8
VERMASSUNG
100
AcDbMText
 10
98.8601118557
 20
13.8365368761
 30
0.0
 40
2.0
 41
0.0
 71
     1
 72
     1
  1
Datum: 29.11.2017
  7
SLDTEXTSTYLE0
 73
     1
 44
1.0
  0
MTEXT
  5
7B
330
1F
100
AcDbEntity
  8
VERMASSUNG
100
AcDbMText
 10
13.933048693
 20
18.0482802738
 30
0.0
 40
2.0
 41
0.0
 71
     1
 72
     1
  1
für Wendeplattenbohrer Schaft-Ø 20 / for indexable insert drills shaft-Ø 20
  7
SLDTEXTSTYLE0
 73
     1
 44
1.0
  0
MTEXT
  5
7C
330
1F
100
AcDbEntity
  8
VERMASSUNG
100
AcDbMText
 10
13.9808475933
 20
13.9090974274
 30
0.0
 40
2.0
 41
0.0
 71
     1
 72
     1
  1
Gewicht: 517g
  7
SLDTEXTSTYLE0
 73
     1
 44
1.0
  0
LINE
  5
7D
330
1F
100
AcDbEntity
  8
0
  6
Continuous
 62
     7
370
    25
100
AcDbLine
 10
244.2732206945
 20
118.2900898307
 30
0.0
 11
245.2732206945
 21
119.2900898307
 31
0.0
  0
LINE
  5
7E
330
1F
100
AcDbEntity
  8
0
  6
Continuous
 62
     7
370
    25
100
AcDbLine
 10
245.2732206945
 20
157.2900898307
 30
0.0
 11
244.2732206945
 21
158.2900898307
 31
0.0
  0
LINE
  5
7F
330
1F
100
AcDbEntity
  8
0
  6
Continuous
 62
     7
370
    25
100
AcDbLine
 10
185.5732206945
 20
118.2900898307
 30
0.0
 11
244.2732206945
 21
118.2900898307
 31
0.0
  0
LINE
  5
80
330
1F
100
AcDbEntity
  8
0
  6
Continuous
 62
     7
370
    25
100
AcDbLine
 10
244.2732206945
 20
158.2900898307
 30
0.0
 11
185.5732206945
 21
158.2900898307
 31
0.0
  0
ARC
  5
81
330
1F
100
AcDbEntity
  8
0
  6
Continuous
 62
     7
370
    25
100
AcDbCircle
 10
185.5732206945
 20
118.5900898307
 30
0.0
 40
0.3000000000000114
100
AcDbArc
 50
180.0
 51
270.0
  0
ARC
  5
82
330
1F
100
AcDbEntity
  8
0
  6
Continuous
 62
     7
370
    25
100
AcDbCircle
 10
185.5732206945
 20
157.9900898307
 30
0.0
 40
0.3000000000000114
100
AcDbArc
 50
90.0
 51
180.0
  0
LWPOLYLINE
  5
83
330
1F
100
AcDbEntity
  8
0
  6
Continuous
 62
     7
370
    25
100
AcDbPolyline
 90
        3
 70
   128
 43
0.0
 10
185.0732206945
 20
124.2002695518
 10
185.198675638
 20
124.1319674368
 10
185.2732206945
 20
124.0792296787
  0
LWPOLYLINE
  5
84
330
1F
100
AcDbEntity
  8
0
  6
Continuous
 62
     7
370
    25
100
AcDbPolyline
 90
        3
 70
   128
 43
0.0
 10
185.2732206945
 20
152.5009499826
 10
185.198675638
 20
152.4482122245
 10
185.0732206945
 20
152.3799101095
  0
LINE
  5
85
330
1F
100
AcDbEntity
  8
0
  6
Continuous
 62
     7
370
    25
100
AcDbLine
 10
245.2732206945
 20
119.2900898307
 30
0.0
 11
245.2732206945
 21
157.2900898307
 31
0.0
  0
LINE
  5
86
330
1F
100
AcDbEntity
  8
0
  6
Continuous
 62
     7
370
    25
100
AcDbLine
 10
244.2732206945
 20
118.2900898307
 30
0.0
 11
244.2732206945
 21
158.2900898307
 31
0.0
  0
SPLINE
  5
87
330
1F
100
AcDbEntity
  8
0
  6
Continuous
 62
     7
370
    25
100
AcDbSpline
210
0.0
220
0.0
230
1.0
 70
    11
 71
     3
 72
    79
 73
    75
 74
     0
 42
0.000000001
 43
0.00000001
 40
0.0
 40
0.0
 40
0.0
 40
0.0
 40
0.0312499999999999
 40
0.0312499999999999
 40
0.0624999999999998
 40
0.0624999999999998
 40
0.0937499999999997
 40
0.0937499999999997
 40
0.1093749999999996
 40
0.1093749999999996
 40
0.1249999999999996
 40
0.1406249999999995
 40
0.1406249999999995
 40
0.1562499999999995
 40
0.1562499999999995
 40
0.1874999999999994
 40
0.1874999999999994
 40
0.2187499999999994
 40
0.2187499999999994
 40
0.2499999999999994
 40
0.2499999999999994
 40
0.2812499999999995
 40
0.2812499999999995
 40
0.3124999999999996
 40
0.3124999999999996
 40
0.3437499999999996
 40
0.3437499999999996
 40
0.3749999999999997
 40
0.3749999999999997
 40
0.4062499999999997
 40
0.4062499999999997
 40
0.4374999999999998
 40
0.4374999999999998
 40
0.4531249999999998
 40
0.4531249999999998
 40
0.4687499999999999
 40
0.4687499999999999
 40
0.5
 40
0.5
 40
0.515625
 40
0.515625
 40
0.5312500000000001
 40
0.5312500000000001
 40
0.5625000000000001
 40
0.5625000000000001
 40
0.5781250000000001
 40
0.5781250000000001
 40
0.5937500000000002
 40
0.5937500000000002
 40
0.6250000000000002
 40
0.6250000000000002
 40
0.6406250000000002
 40
0.6406250000000002
 40
0.6562500000000003
 40
0.6562500000000003
 40
0.6875000000000003
 40
0.6875000000000003
 40
0.7187500000000003
 40
0.7187500000000003
 40
0.7500000000000003
 40
0.7500000000000003
 40
0.7812500000000003
 40
0.7812500000000003
 40
0.8125000000000003
 40
0.8125000000000003
 40
0.8437500000000003
 40
0.8437500000000003
 40
0.8750000000000003
 40
0.8750000000000003
 40
0.9062500000000003
 40
0.9062500000000003
 40
0.9375000000000003
 40
0.9375000000000003
 40
1.0
 40
1.0
 40
1.0
 40
1.0
 10
206.2668527396235
 20
142.2178211615453
 30
0.0
 10
205.9761325092386
 20
141.9872471796133
 30
0.0
 10
205.7111472855666
 20
141.7326214596358
 30
0.0
 10
205.2346927948504
 20
141.1724611206346
 30
0.0
 10
205.0220480459816
 20
140.8634647799892
 30
0.0
 10
204.6746936727639
 20
140.2170711130112
 30
0.0
 10
204.5371653277664
 20
139.877485652939
 30
0.0
 10
204.3902879038995
 20
139.3409151687244
 30
0.0
 10
204.3513678010855
 20
139.1567028350563
 30
0.0
 10
204.2966280153195
 20
138.7899361789339
 30
0.0
 10
204.2640998247429
 20
138.422286363006
 30
0.0
 10
204.2755798003684
 20
138.0528848152113
 30
0.0
 10
204.3095712667717
 20
137.6825875534854
 30
0.0
 10
204.3381051799812
 20
137.4964581563541
 30
0.0
 10
204.4550292285005
 20
136.952226915587
 30
0.0
 10
204.5745608531233
 20
136.6029961931936
 30
0.0
 10
204.8931138147602
 20
135.930302907193
 30
0.0
 10
205.0883844892908
 20
135.6155461045233
 30
0.0
 10
205.5385326055078
 20
135.0329747812259
 30
0.0
 10
205.796642844346
 20
134.7622348357569
 30
0.0
 10
206.3526552294085
 20
134.2809931816466
 30
0.0
 10
206.6520568096959
 20
134.0678492628141
 30
0.0
 10
207.2924359470112
 20
133.6939816503664
 30
0.0
 10
207.6278324266503
 20
133.5368738031722
 30
0.0
 10
208.3183597511421
 20
133.2822643059215
 30
0.0
 10
208.6767497599223
 20
133.1836385780292
 30
0.0
 10
209.408942466714
 20
133.0471309937948
 30
0.0
 10
209.7764253882569
 20
133.0101059403639
 30
0.0
 10
210.5140693628523
 20
132.9960930796817
 30
0.0
 10
210.8869468125469
 20
133.0195490747847
 30
0.0
 10
211.6228325427956
 20
133.1281769797654
 30
0.0
 10
211.9815280236004
 20
133.2122047912071
 30
0.0
 10
212.5059682246672
 20
133.3823959066729
 30
0.0
 10
212.678500843582
 20
133.446531166671
 30
0.0
 10
213.0188736955807
 20
133.5901462943305
 30
0.0
 10
213.1875324246726
 20
133.6701007697306
 30
0.0
 10
213.6775818640314
 20
133.9297484728447
 30
0.0
 10
213.9845125085396
 20
134.1291767644781
 30
0.0
 10
214.4147801439568
 20
134.46917502856
 30
0.0
 10
214.5531464723582
 20
134.5893646778773
 30
0.0
 10
214.8191990872036
 20
134.8443609053135
 30
0.0
 10
214.9474650748245
 20
134.9799616185496
 30
0.0
 10
215.3065771665041
 20
135.4006279773241
 30
0.0
 10
215.5145306020227
 20
135.7012825260526
 30
0.0
 10
215.7766272073664
 20
136.1847457501447
 30
0.0
 10
215.8556245697587
 20
136.3513534952497
 30
0.0
 10
215.9955061666896
 20
136.6964381543781
 30
0.0
 10
216.0557202834864
 20
136.8737055834079
 30
0.0
 10
216.203082263706
 20
137.4081141248402
 30
0.0
 10
216.259194139346
 20
137.7722527808744
 30
0.0
 10
216.2767987686029
 20
138.3309358514
 30
0.0
 10
216.2712499598611
 20
138.5195277614679
 30
0.0
 10
216.23791038781
 20
138.8896488771943
 30
0.0
 10
216.2102301797842
 20
139.0726097426704
 30
0.0
 10
216.0950548913573
 20
139.615375666085
 30
0.0
 10
215.9733532384032
 20
139.9728783275394
 30
0.0
 10
215.6576612577489
 20
140.6418987085115
 30
0.0
 10
215.4634506967497
 20
140.9570178840961
 30
0.0
 10
215.0092821173002
 20
141.5460533012089
 30
0.0
 10
214.7553643409091
 20
141.8125312564637
 30
0.0
 10
214.198789888708
 20
142.2954406691066
 30
0.0
 10
213.8937919112895
 20
142.5125606701607
 30
0.0
 10
213.2574784593557
 20
142.8842856045282
 30
0.0
 10
212.9241300983649
 20
143.0411113259922
 30
0.0
 10
212.2274132540038
 20
143.2983194909505
 30
0.0
 10
211.866918393782
 20
143.3970365107394
 30
0.0
 10
211.1410254029623
 20
143.5324127851231
 30
0.0
 10
210.7729082903124
 20
143.5701140320114
 30
0.0
 10
210.0260365764328
 20
143.5841112394038
 30
0.0
 10
209.6541378684152
 20
143.5599728402928
 30
0.0
 10
208.9242298395695
 20
143.4519604988226
 30
0.0
 10
208.5644301331763
 20
143.3681477140179
 30
0.0
 10
207.5012231722198
 20
143.0221198564207
 30
0.0
 10
206.8482932003934
 20
142.6789691254094
 30
0.0
 10
206.2668527396235
 20
142.2178211615453
 30
0.0
  0
SPLINE
  5
88
330
1F
100
AcDbEntity
  8
0
  6
Continuous
 62
     7
370
    25
100
AcDbSpline
210
0.0
220
0.0
230
1.0
 70
     8
 71
     3
 72
    12
 73
     8
 74
     0
 42
0.000000001
 43
0.00000001
 40
0.0
 40
0.0
 40
0.0
 40
0.0
 40
0.25
 40
0.25
 40
0.5
 40
0.5
 40
1.0
 40
1.0
 40
1.0
 40
1.0
 10
192.2051226965186
 20
144.1193028263155
 30
0.0
 10
192.1676108104739
 20
144.1193028263155
 30
0.0
 10
192.1323234627692
 20
144.1341076406023
 30
0.0
 10
192.0733936145308
 20
144.1776995137281
 30
0.0
 10
192.0498678880617
 20
144.2052129398141
 30
0.0
 10
191.9896091002936
 20
144.2943446719277
 30
0.0
 10
191.9640143380043
 20
144.3607305225455
 30
0.0
 10
191.9453150753833
 20
144.4283349577228
 30
0.0
  0
LINE
  5
89
330
1F
100
AcDbEntity
  8
0
  6
Continuous
 62
     7
370
    25
100
AcDbLine
 10
194.3413186925
 20
144.1193028263
 30
0.0
 11
192.2051226965
 21
144.1193028263
 31
0.0
  0
SPLINE
  5
8A
330
1F
100
AcDbEntity
  8
0
  6
Continuous
 62
     7
370
    25
100
AcDbSpline
210
0.0
220
0.0
230
1.0
 70
     8
 71
     3
 72
    12
 73
     8
 74
     0
 42
0.000000001
 43
0.00000001
 40
0.0
 40
0.0
 40
0.0
 40
0.0
 40
0.5000000000000021
 40
0.5000000000000021
 40
0.750000000000001
 40
0.750000000000001
 40
1.0
 40
1.0
 40
1.0
 40
1.0
 10
194.6011263136555
 20
144.4283349577229
 30
0.0
 10
194.5824330805251
 20
144.3607523212825
 30
0.0
 10
194.5567777831133
 20
144.2942697518051
 30
0.0
 10
194.4966171604269
 20
144.2052746689075
 30
0.0
 10
194.4725448486725
 20
144.1772727719084
 30
0.0
 10
194.414163328322
 20
144.1341963712432
 30
0.0
 10
194.3786945006689
 20
144.1193028263155
 30
0.0
 10
194.3413186925202
 20
144.1193028263155
 30
0.0
  0
ELLIPSE
  5
8B
330
1F
100
AcDbEntity
  8
0
  6
Continuous
 62
     7
370
    25
100
AcDbEllipse
 10
184.3242915221
 20
138.2900898307
 30
0.0
 11
9.367417879781783
 21
19.74174915274995
 31
0.0
210
0.0
220
0.0
230
1.0
 40
0.3419987131
 41
5.185211263708406
 42
6.132113578252564
  0
SPLINE
  5
8C
330
1F
100
AcDbEntity
  8
0
  6
Continuous
 62
     7
370
    25
100
AcDbSpline
210
0.0
220
0.0
230
1.0
 70
     8
 71
     3
 72
    12
 73
     8
 74
     0
 42
0.000000001
 43
0.00000001
 40
0.0
 40
0.0
 40
0.0
 40
0.0
 40
0.2499999999999999
 40
0.2499999999999999
 40
0.4999999999999998
 40
0.4999999999999998
 40
1.0
 40
1.0
 40
1.0
 40
1.0
 10
194.3413186925202
 20
157.4217462108971
 30
0.0
 10
194.3788305785649
 20
157.4217462108971
 30
0.0
 10
194.4141179262696
 20
157.4172426666345
 30
0.0
 10
194.473047774508
 20
157.4038694671812
 30
0.0
 10
194.4965735009771
 20
157.3953845646101
 30
0.0
 10
194.5568322887451
 20
157.3676367607755
 30
0.0
 10
194.5824270510345
 20
157.3466468970352
 30
0.0
 10
194.6011263136555
 20
157.3248461138456
 30
0.0
  0
LINE
  5
8D
330
1F
100
AcDbEntity
  8
0
  6
Continuous
 62
     7
370
    25
100
AcDbLine
 10
192.2051226965
 20
157.4217462109
 30
0.0
 11
194.3413186925
 21
157.4217462109
 31
0.0
  0
SPLINE
  5
8E
330
1F
100
AcDbEntity
  8
0
  6
Continuous
 62
     7
370
    25
100
AcDbSpline
210
0.0
220
0.0
230
1.0
 70
     8
 71
     3
 72
    12
 73
     8
 74
     0
 42
0.000000001
 43
0.00000001
 40
0.0
 40
0.0
 40
0.0
 40
0.0
 40
0.5000000000000006
 40
0.5000000000000006
 40
0.7500000000000002
 40
0.7500000000000002
 40
1.0
 40
1.0
 40
1.0
 40
1.0
 10
191.9453150753833
 20
157.3248461138456
 30
0.0
 10
191.9640083085137
 20
157.3466398674736
 30
0.0
 10
191.9896636059254
 20
157.3676600291832
 30
0.0
 10
192.0498242286119
 20
157.3953653751469
 30
0.0
 10
192.0738965403662
 20
157.4040005913403
 30
0.0
 10
192.1322780607168
 20
157.4172152365669
 30
0.0
 10
192.1677468883699
 20
157.4217462108971
 30
0.0
 10
192.2051226965186
 20
157.4217462108971
 30
0.0
  0
ELLIPSE
  5
8F
330
1F
100
AcDbEntity
  8
0
  6
Continuous
 62
     7
370
    25
100
AcDbEllipse
 10
202.222149867
 20
138.2900898307
 30
0.0
 11
-9.367417879781641
 21
19.74174915274995
 31
0.0
210
0.0
220
0.0
230
1.0
 40
0.3419987131
 41
0.1510717289270616
 42
1.097974043471196
  0
SPLINE
  5
90
330
1F
100
AcDbEntity
  8
0
  6
Continuous
 62
     7
370
    25
100
AcDbSpline
210
0.0
220
0.0
230
1.0
 70
     8
 71
     3
 72
    12
 73
     8
 74
     0
 42
0.000000001
 43
0.00000001
 40
0.0
 40
0.0
 40
0.0
 40
0.0
 40
0.2500000000000027
 40
0.2500000000000027
 40
0.5000000000000053
 40
0.5000000000000053
 40
1.0
 40
1.0
 40
1.0
 40
1.0
 10
192.2051226965186
 20
119.1584334504303
 30
0.0
 10
192.1676218736408
 20
119.1584334504303
 30
0.0
 10
192.1323434696048
 20
119.1629344182934
 30
0.0
 10
192.0734257495525
 20
119.1763009395107
 30
0.0
 10
192.0499023681541
 20
119.1847821997556
 30
0.0
 10
191.9896467836882
 20
119.2125195954335
 30
0.0
 10
191.964125131277
 20
119.2334035944866
 30
0.0
 10
191.9453150753832
 20
119.2553335474817
 30
0.0
  0
LINE
  5
91
330
1F
100
AcDbEntity
  8
0
  6
Continuous
 62
     7
370
    25
100
AcDbLine
 10
194.3413186925
 20
119.1584334504
 30
0.0
 11
192.2051226965
 21
119.1584334504
 31
0.0
  0
SPLINE
  5
92
330
1F
100
AcDbEntity
  8
0
  6
Continuous
 62
     7
370
    25
100
AcDbSpline
210
0.0
220
0.0
230
1.0
 70
     8
 71
     3
 72
    12
 73
     8
 74
     0
 42
0.000000001
 43
0.00000001
 40
0.0
 40
0.0
 40
0.0
 40
0.0
 40
0.4999999999999969
 40
0.4999999999999969
 40
0.7499999999999984
 40
0.7499999999999984
 40
1.0
 40
1.0
 40
1.0
 40
1.0
 10
194.6011263136555
 20
119.2553335474817
 30
0.0
 10
194.5823230808039
 20
119.2334115492206
 30
0.0
 10
194.5567864217846
 20
119.2125177412107
 30
0.0
 10
194.4965602478362
 20
119.184791015093
 30
0.0
 10
194.4726341704362
 20
119.1762178817175
 30
0.0
 10
194.4145732502549
 20
119.1630387759099
 30
0.0
 10
194.3787715516289
 20
119.1584334504303
 30
0.0
 10
194.3413186925202
 20
119.1584334504303
 30
0.0
  0
ELLIPSE
  5
93
330
1F
100
AcDbEntity
  8
0
  6
Continuous
 62
     7
370
    25
100
AcDbEllipse
 10
184.3242915221
 20
138.2900898307
 30
0.0
 11
-9.367417879781783
 21
19.74174915274995
 31
0.0
210
0.0
220
0.0
230
1.0
 40
0.3419987131
 41
3.292664382516894
 42
4.239566697060997
  0
SPLINE
  5
94
330
1F
100
AcDbEntity
  8
0
  6
Continuous
 62
     7
370
    25
100
AcDbSpline
210
0.0
220
0.0
230
1.0
 70
     8
 71
     3
 72
    12
 73
     8
 74
     0
 42
0.000000001
 43
0.00000001
 40
0.0
 40
0.0
 40
0.0
 40
0.0
 40
0.2499999999999984
 40
0.2499999999999984
 40
0.4999999999999969
 40
0.4999999999999969
 40
1.0
 40
1.0
 40
1.0
 40
1.0
 10
194.3413186925202
 20
132.4608768350119
 30
0.0
 10
194.378819515398
 20
132.4608768350119
 30
0.0
 10
194.4140979194339
 20
132.4460804972588
 30
0.0
 10
194.4730156394863
 20
132.4025102360997
 30
0.0
 10
194.4965390208847
 20
132.3750084375982
 30
0.0
 10
194.5567946053506
 20
132.2859092743551
 30
0.0
 10
194.5823162577617
 20
132.2198496955727
 30
0.0
 10
194.6011263136556
 20
132.1518447036045
 30
0.0
  0
LINE
  5
95
330
1F
100
AcDbEntity
  8
0
  6
Continuous
 62
     7
370
    25
100
AcDbLine
 10
192.2051226965
 20
132.460876835
 30
0.0
 11
194.3413186925
 21
132.460876835
 31
0.0
  0
SPLINE
  5
96
330
1F
100
AcDbEntity
  8
0
  6
Continuous
 62
     7
370
    25
100
AcDbSpline
210
0.0
220
0.0
230
1.0
 70
     8
 71
     3
 72
    12
 73
     8
 74
     0
 42
0.000000001
 43
0.00000001
 40
0.0
 40
0.0
 40
0.0
 40
0.0
 40
0.5000000000000022
 40
0.5000000000000022
 40
0.7500000000000011
 40
0.7500000000000011
 40
1.0
 40
1.0
 40
1.0
 40
1.0
 10
191.9453150753833
 20
132.1518447036045
 30
0.0
 10
191.9641183082349
 20
132.2198250278669
 30
0.0
 10
191.9896549672542
 20
132.2859154156637
 30
0.0
 10
192.0498811412026
 20
132.3749800281109
 30
0.0
 10
192.0738072186026
 20
132.4027811151308
 30
0.0
 10
192.1318681387839
 20
132.4457401883557
 30
0.0
 10
192.1676698374098
 20
132.4608768350119
 30
0.0
 10
192.2051226965186
 20
132.4608768350119
 30
0.0
  0
ELLIPSE
  5
97
330
1F
100
AcDbEntity
  8
0
  6
Continuous
 62
     7
370
    25
100
AcDbEllipse
 10
202.222149867
 20
138.2900898307
 30
0.0
 11
9.367417879781669
 21
19.74174915274995
 31
0.0
210
0.0
220
0.0
230
1.0
 40
0.3419987131
 41
2.043618610118599
 42
2.990520924662734
  0
SPLINE
  5
98
330
1F
100
AcDbEntity
  8
0
  6
Continuous
 62
     7
370
    25
100
AcDbSpline
210
0.0
220
0.0
230
1.0
 70
    11
 71
     3
 72
    79
 73
    75
 74
     0
 42
0.000000001
 43
0.00000001
 40
0.0
 40
0.0
 40
0.0
 40
0.0
 40
0.0312500000000003
 40
0.0312500000000003
 40
0.0625000000000006
 40
0.0625000000000006
 40
0.093750000000001
 40
0.093750000000001
 40
0.1093750000000011
 40
0.1093750000000011
 40
0.1250000000000013
 40
0.1406250000000015
 40
0.1406250000000015
 40
0.1562500000000016
 40
0.1562500000000016
 40
0.187500000000002
 40
0.187500000000002
 40
0.2187500000000024
 40
0.2187500000000024
 40
0.2500000000000027
 40
0.2500000000000027
 40
0.2812500000000031
 40
0.2812500000000031
 40
0.3125000000000034
 40
0.3125000000000034
 40
0.3437500000000038
 40
0.3437500000000038
 40
0.3750000000000042
 40
0.3750000000000042
 40
0.4062500000000046
 40
0.4062500000000046
 40
0.4375000000000049
 40
0.4375000000000049
 40
0.4531250000000052
 40
0.4531250000000052
 40
0.4687500000000053
 40
0.4687500000000053
 40
0.5000000000000058
 40
0.5000000000000058
 40
0.5156250000000057
 40
0.5156250000000057
 40
0.5312500000000057
 40
0.5312500000000057
 40
0.5625000000000056
 40
0.5625000000000056
 40
0.5781250000000053
 40
0.5781250000000053
 40
0.5937500000000051
 40
0.5937500000000051
 40
0.6250000000000048
 40
0.6250000000000048
 40
0.6406250000000047
 40
0.6406250000000047
 40
0.6562500000000044
 40
0.6562500000000044
 40
0.6875000000000041
 40
0.6875000000000041
 40
0.7187500000000038
 40
0.7187500000000038
 40
0.7500000000000033
 40
0.7500000000000033
 40
0.781250000000003
 40
0.781250000000003
 40
0.8125000000000027
 40
0.8125000000000027
 40
0.8437500000000023
 40
0.8437500000000023
 40
0.875000000000002
 40
0.875000000000002
 40
0.9062500000000017
 40
0.9062500000000017
 40
0.9375000000000012
 40
0.9375000000000012
 40
1.0
 40
1.0
 40
1.0
 40
1.0
 10
226.2668527396236
 20
142.2178211615453
 30
0.0
 10
225.9761325092386
 20
141.9872471796133
 30
0.0
 10
225.7111472855666
 20
141.7326214596358
 30
0.0
 10
225.2346927948504
 20
141.1724611206346
 30
0.0
 10
225.0220480459816
 20
140.8634647799892
 30
0.0
 10
224.6746936727639
 20
140.2170711130112
 30
0.0
 10
224.5371653277665
 20
139.877485652939
 30
0.0
 10
224.3902879038995
 20
139.3409151687244
 30
0.0
 10
224.3513678010855
 20
139.1567028350563
 30
0.0
 10
224.2966280153195
 20
138.7899361789339
 30
0.0
 10
224.2640998247429
 20
138.4222863630061
 30
0.0
 10
224.2755798003683
 20
138.0528848152113
 30
0.0
 10
224.3095712667717
 20
137.6825875534854
 30
0.0
 10
224.3381051799811
 20
137.4964581563541
 30
0.0
 10
224.4550292285006
 20
136.952226915587
 30
0.0
 10
224.5745608531233
 20
136.6029961931936
 30
0.0
 10
224.8931138147602
 20
135.930302907193
 30
0.0
 10
225.0883844892908
 20
135.6155461045233
 30
0.0
 10
225.5385326055078
 20
135.0329747812259
 30
0.0
 10
225.7966428443459
 20
134.762234835757
 30
0.0
 10
226.3526552294085
 20
134.2809931816466
 30
0.0
 10
226.6520568096959
 20
134.0678492628141
 30
0.0
 10
227.2924359470112
 20
133.6939816503664
 30
0.0
 10
227.6278324266503
 20
133.5368738031722
 30
0.0
 10
228.318359751142
 20
133.2822643059215
 30
0.0
 10
228.6767497599223
 20
133.1836385780292
 30
0.0
 10
229.408942466714
 20
133.0471309937948
 30
0.0
 10
229.7764253882569
 20
133.0101059403639
 30
0.0
 10
230.5140693628523
 20
132.9960930796817
 30
0.0
 10
230.8869468125469
 20
133.0195490747847
 30
0.0
 10
231.6228325427956
 20
133.1281769797654
 30
0.0
 10
231.9815280236004
 20
133.2122047912071
 30
0.0
 10
232.5059682246672
 20
133.3823959066729
 30
0.0
 10
232.678500843582
 20
133.446531166671
 30
0.0
 10
233.0188736955807
 20
133.5901462943305
 30
0.0
 10
233.1875324246726
 20
133.6701007697306
 30
0.0
 10
233.6775818640314
 20
133.9297484728447
 30
0.0
 10
233.9845125085396
 20
134.1291767644781
 30
0.0
 10
234.4147801439568
 20
134.46917502856
 30
0.0
 10
234.5531464723583
 20
134.5893646778773
 30
0.0
 10
234.8191990872035
 20
134.8443609053135
 30
0.0
 10
234.9474650748245
 20
134.9799616185496
 30
0.0
 10
235.3065771665041
 20
135.4006279773241
 30
0.0
 10
235.5145306020227
 20
135.7012825260526
 30
0.0
 10
235.7766272073664
 20
136.1847457501447
 30
0.0
 10
235.8556245697587
 20
136.3513534952497
 30
0.0
 10
235.9955061666896
 20
136.6964381543781
 30
0.0
 10
236.0557202834864
 20
136.8737055834079
 30
0.0
 10
236.203082263706
 20
137.4081141248402
 30
0.0
 10
236.259194139346
 20
137.7722527808744
 30
0.0
 10
236.2767987686028
 20
138.3309358514
 30
0.0
 10
236.2712499598611
 20
138.5195277614678
 30
0.0
 10
236.23791038781
 20
138.8896488771943
 30
0.0
 10
236.2102301797842
 20
139.0726097426704
 30
0.0
 10
236.0950548913573
 20
139.615375666085
 30
0.0
 10
235.9733532384033
 20
139.9728783275394
 30
0.0
 10
235.6576612577489
 20
140.6418987085115
 30
0.0
 10
235.4634506967497
 20
140.9570178840961
 30
0.0
 10
235.0092821173003
 20
141.5460533012089
 30
0.0
 10
234.7553643409091
 20
141.8125312564637
 30
0.0
 10
234.198789888708
 20
142.2954406691066
 30
0.0
 10
233.8937919112895
 20
142.5125606701607
 30
0.0
 10
233.2574784593557
 20
142.8842856045282
 30
0.0
 10
232.9241300983649
 20
143.0411113259922
 30
0.0
 10
232.2274132540038
 20
143.2983194909505
 30
0.0
 10
231.866918393782
 20
143.3970365107394
 30
0.0
 10
231.1410254029623
 20
143.5324127851231
 30
0.0
 10
230.7729082903125
 20
143.5701140320114
 30
0.0
 10
230.0260365764327
 20
143.5841112394038
 30
0.0
 10
229.6541378684152
 20
143.5599728402928
 30
0.0
 10
228.9242298395695
 20
143.4519604988226
 30
0.0
 10
228.5644301331763
 20
143.3681477140179
 30
0.0
 10
227.5012231722199
 20
143.0221198564207
 30
0.0
 10
226.8482932003934
 20
142.6789691254094
 30
0.0
 10
226.2668527396235
 20
142.2178211615453
 30
0.0
  0
LINE
  5
99
330
1F
100
AcDbEntity
  8
0
  6
Continuous
 62
     7
370
    25
100
AcDbLine
 10
185.2732206945
 20
118.5900898307
 30
0.0
 11
185.2732206945
 21
157.9900898277
 31
0.0
  0
SPLINE
  5
9A
330
1F
100
AcDbEntity
  8
0
  6
Continuous
 62
     7
370
    25
100
AcDbSpline
210
0.0
220
0.0
230
1.0
 70
     8
 71
     3
 72
    18
 73
    14
 74
     0
 42
0.000000001
 43
0.00000001
 40
0.0
 40
0.0
 40
0.0
 40
0.0
 40
0.2499999999999997
 40
0.2499999999999997
 40
0.4999999999999993
 40
0.4999999999999993
 40
0.6249999999999994
 40
0.6249999999999994
 40
0.7499999999999997
 40
0.7499999999999997
 40
0.8749999999999998
 40
0.8749999999999998
 40
1.0
 40
1.0
 40
1.0
 40
1.0
 10
184.0171363769554
 20
124.4589014479848
 30
0.0
 10
184.0514331964072
 20
124.4580397925029
 30
0.0
 10
184.0892444763843
 20
124.4582913955979
 30
0.0
 10
184.1758168435643
 20
124.4606899082098
 30
0.0
 10
184.2241559736472
 20
124.4628608929417
 30
0.0
 10
184.3134283309697
 20
124.4669557712369
 30
0.0
 10
184.3459697967456
 20
124.4684603891865
 30
0.0
 10
184.4221459965991
 20
124.4714234471546
 30
0.0
 10
184.4653620565936
 20
124.4729107854104
 30
0.0
 10
184.5710513585595
 20
124.4745361967341
 30
0.0
 10
184.6360224172741
 20
124.4744939556602
 30
0.0
 10
184.769682805632
 20
124.4704717823392
 30
0.0
 10
184.8289892589682
 20
124.4669305555157
 30
0.0
 10
184.8782438056441
 20
124.4633638480796
 30
0.0
  0
SPLINE
  5
9B
330
1F
100
AcDbEntity
  8
0
  6
Continuous
 62
     7
370
    25
100
AcDbSpline
210
0.0
220
0.0
230
1.0
 70
     8
 71
     3
 72
    14
 73
    10
 74
     0
 42
0.000000001
 43
0.00000001
 40
0.0
 40
0.0
 40
0.0
 40
0.0
 40
0.124999999999999
 40
0.124999999999999
 40
0.2499999999999979
 40
0.2499999999999979
 40
0.4999999999999987
 40
0.4999999999999987
 40
1.0
 40
1.0
 40
1.0
 40
1.0
 10
184.8782438056133
 20
124.4633638480985
 30
0.0
 10
184.8897705833307
 20
124.4625291506645
 30
0.0
 10
184.9031233909831
 20
124.4607887363844
 30
0.0
 10
184.9332659635833
 20
124.453541146384
 30
0.0
 10
184.9483264891978
 20
124.4481941121561
 30
0.0
 10
184.9836728431261
 20
124.4324468419277
 30
0.0
 10
184.997404942855
 20
124.4226085677664
 30
0.0
 10
185.0307761885461
 20
124.3964045818159
 30
0.0
 10
185.0417165564001
 20
124.3823166804153
 30
0.0
 10
185.0503696814134
 20
124.369543056927
 30
0.0
  0
LINE
  5
9C
330
1F
100
AcDbEntity
  8
0
  6
Continuous
 62
     7
370
    25
100
AcDbLine
 10
185.0732206945
 20
132.7846450637
 30
0.0
 11
185.0732206945
 21
124.2002695518
 31
0.0
  0
SPLINE
  5
9D
330
1F
100
AcDbEntity
  8
0
  6
Continuous
 62
     7
370
    25
100
AcDbSpline
210
0.0
220
0.0
230
1.0
 70
     8
 71
     3
 72
    16
 73
    12
 74
     0
 42
0.000000001
 43
0.00000001
 40
0.0
 40
0.0
 40
0.0
 40
0.0
 40
0.5000000000000022
 40
0.5000000000000022
 40
0.7500000000000033
 40
0.7500000000000033
 40
0.8750000000000017
 40
0.8750000000000017
 40
0.9375000000000008
 40
0.9375000000000008
 40
1.0
 40
1.0
 40
1.0
 40
1.0
 10
185.0732206945194
 20
132.7846450637007
 30
0.0
 10
185.0732206945194
 20
132.9022204447202
 30
0.0
 10
185.0693372693605
 20
133.0209161978215
 30
0.0
 10
185.0445219440858
 20
133.201673675814
 30
0.0
 10
185.0336824963733
 20
133.2633177525869
 30
0.0
 10
185.0004667143245
 20
133.3526547269282
 30
0.0
 10
184.9870849706957
 20
133.3829142583533
 30
0.0
 10
184.9515753208335
 20
133.4164305023407
 30
0.0
 10
184.9361583543327
 20
133.4245688481469
 30
0.0
 10
184.9044573321841
 20
133.4245534387155
 30
0.0
 10
184.8903110472333
 20
133.4175112013596
 30
0.0
 10
184.8782438056436
 20
133.40837013775
 30
0.0
  0
SPLINE
  5
9E
330
1F
100
AcDbEntity
  8
0
  6
Continuous
 62
     7
370
    25
100
AcDbSpline
210
0.0
220
0.0
230
1.0
 70
     8
 71
     3
 72
    18
 73
    14
 74
     0
 42
0.000000001
 43
0.00000001
 40
0.0
 40
0.0
 40
0.0
 40
0.0
 40
0.1249999999999999
 40
0.1249999999999999
 40
0.2499999999999998
 40
0.2499999999999998
 40
0.3749999999999998
 40
0.3749999999999998
 40
0.4999999999999997
 40
0.4999999999999997
 40
0.7499999999999998
 40
0.7499999999999998
 40
1.0
 40
1.0
 40
1.0
 40
1.0
 10
184.8782438056498
 20
133.4083701377428
 30
0.0
 10
184.8295392219619
 20
133.3714758985522
 30
0.0
 10
184.7710307391863
 20
133.3419445941262
 30
0.0
 10
184.6393039239165
 20
133.3327086208474
 30
0.0
 10
184.574545852419
 20
133.3557717954044
 30
0.0
 10
184.4693352502683
 20
133.4232899170518
 30
0.0
 10
184.4261191017481
 20
133.4663010137023
 30
0.0
 10
184.3499407856642
 20
133.5565430356985
 30
0.0
 10
184.317085953373
 20
133.6041739171738
 30
0.0
 10
184.226718047412
 20
133.7512382165233
 30
0.0
 10
184.1772953895724
 20
133.8551515418279
 30
0.0
 10
184.0896442639808
 20
134.0662855054682
 30
0.0
 10
184.0515827165903
 20
134.174008250227
 30
0.0
 10
184.0171363769564
 20
134.2833413661364
 30
0.0
  0
SPLINE
  5
9F
330
1F
100
AcDbEntity
  8
0
  6
Continuous
 62
     7
370
    25
100
AcDbSpline
210
0.0
220
0.0
230
1.0
 70
     8
 71
     3
 72
     8
 73
     4
 74
     0
 42
0.000000001
 43
0.00000001
 40
0.0
 40
0.0
 40
0.0
 40
0.0
 40
1.0
 40
1.0
 40
1.0
 40
1.0
 10
183.9519003509596
 20
134.5185451402652
 30
0.0
 10
183.9713265525955
 20
134.4389528837008
 30
0.0
 10
183.992823375751
 20
134.3605111382267
 30
0.0
 10
184.0171363769564
 20
134.2833413661364
 30
0.0
  0
SPLINE
  5
A0
330
1F
100
AcDbEntity
  8
0
  6
Continuous
 62
     7
370
    25
100
AcDbSpline
210
0.0
220
0.0
230
1.0
 70
     8
 71
     3
 72
     8
 73
     4
 74
     0
 42
0.000000001
 43
0.00000001
 40
0.0
 40
0.0
 40
0.0
 40
0.0
 40
1.0
 40
1.0
 40
1.0
 40
1.0
 10
184.0171363769564
 20
142.2968382951909
 30
0.0
 10
183.992823375751
 20
142.2196685231007
 30
0.0
 10
183.9713265525955
 20
142.1412267776266
 30
0.0
 10
183.9519003509596
 20
142.0616345210621
 30
0.0
  0
SPLINE
  5
A1
330
1F
100
AcDbEntity
  8
0
  6
Continuous
 62
     7
370
    25
100
AcDbSpline
210
0.0
220
0.0
230
1.0
 70
     8
 71
     3
 72
    18
 73
    14
 74
     0
 42
0.000000001
 43
0.00000001
 40
0.0
 40
0.0
 40
0.0
 40
0.0
 40
0.2499999999999992
 40
0.2499999999999992
 40
0.4999999999999984
 40
0.4999999999999984
 40
0.6249999999999988
 40
0.6249999999999988
 40
0.7499999999999992
 40
0.7499999999999992
 40
0.8749999999999996
 40
0.8749999999999996
 40
1.0
 40
1.0
 40
1.0
 40
1.0
 10
184.0171363769564
 20
142.2968382951909
 30
0.0
 10
184.051434695969
 20
142.405701591784
 30
0.0
 10
184.089249093281
 20
142.5127090150203
 30
0.0
 10
184.1758371543546
 20
142.7217438391586
 30
0.0
 10
184.2241872600333
 20
142.8239139331481
 30
0.0
 10
184.3135038488331
 20
142.9705947047129
 30
0.0
 10
184.3460642043214
 20
143.0183964032485
 30
0.0
 10
184.4223098380502
 20
143.1099519412738
 30
0.0
 10
184.4654692078302
 20
143.1536313332658
 30
0.0
 10
184.5711980318483
 20
143.2229855505923
 30
0.0
 10
184.636195208903
 20
143.2471018642583
 30
0.0
 10
184.7696796988572
 20
143.23889764222
 30
0.0
 10
184.8290070923027
 20
143.2091068566281
 30
0.0
 10
184.8782438056441
 20
143.1718095235771
 30
0.0
  0
SPLINE
  5
A2
330
1F
100
AcDbEntity
  8
0
  6
Continuous
 62
     7
370
    25
100
AcDbSpline
210
0.0
220
0.0
230
1.0
 70
     8
 71
     3
 72
    16
 73
    12
 74
     0
 42
0.000000001
 43
0.00000001
 40
0.0
 40
0.0
 40
0.0
 40
0.0
 40
0.0624999999999981
 40
0.0624999999999981
 40
0.1249999999999962
 40
0.1249999999999962
 40
0.2499999999999946
 40
0.2499999999999946
 40
0.4999999999999947
 40
0.4999999999999947
 40
1.0
 40
1.0
 40
1.0
 40
1.0
 10
184.8782438056133
 20
143.1718095235287
 30
0.0
 10
184.8903136388891
 20
143.1626664966828
 30
0.0
 10
184.9045892938225
 20
143.1556220489916
 30
0.0
 10
184.9360537059469
 20
143.155614977093
 30
0.0
 10
184.9515542307573
 20
143.16374294589
 30
0.0
 10
184.9869931273642
 20
143.1971514068971
 30
0.0
 10
185.0005857434675
 20
143.2278185733593
 30
0.0
 10
185.0335800618604
 20
143.3166395674411
 30
0.0
 10
185.0443674551791
 20
143.377542212989
 30
0.0
 10
185.0694207024583
 20
143.5595502903673
 30
0.0
 10
185.0732206945195
 20
143.678239005406
 30
0.0
 10
185.0732206945195
 20
143.7955345976265
 30
0.0
  0
LINE
  5
A3
330
1F
100
AcDbEntity
  8
0
  6
Continuous
 62
     7
370
    25
100
AcDbLine
 10
185.0732206945
 20
152.3799101095
 30
0.0
 11
185.0732206945
 21
143.7955345976
 31
0.0
  0
SPLINE
  5
A4
330
1F
100
AcDbEntity
  8
0
  6
Continuous
 62
     7
370
    25
100
AcDbSpline
210
0.0
220
0.0
230
1.0
 70
     8
 71
     3
 72
    16
 73
    12
 74
     0
 42
0.000000001
 43
0.00000001
 40
0.0
 40
0.0
 40
0.0
 40
0.0
 40
0.0420110068926641
 40
0.5017149888713545
 40
0.6418493111166065
 40
0.7829150038476884
 40
0.8379621118478496
 40
0.8744657373545585
 40
0.9112253098310583
 40
0.9437496765170584
 40
1.0
 40
1.0
 40
1.0
 40
1.0
 10
185.0663813442835
 20
152.242486735474
 30
0.0
 10
185.0661703881026
 20
152.2414013233063
 30
0.0
 10
185.0636510512474
 20
152.2284388262384
 30
0.0
 10
185.0488146566084
 20
152.2036632915056
 30
0.0
 10
185.0137154801856
 20
152.1695322899715
 30
0.0
 10
184.9886045596145
 20
152.1511219641688
 30
0.0
 10
184.9598459119899
 20
152.1367486273816
 30
0.0
 10
184.9394991939617
 20
152.1288816009145
 30
0.0
 10
184.920591913321
 20
152.1233532721565
 30
0.0
 10
184.8988649565361
 20
152.1187914796691
 30
0.0
 10
184.8862420562841
 20
152.117582107782
 30
0.0
 10
184.8782438056441
 20
152.1168158132477
 30
0.0
  0
SPLINE
  5
A5
330
1F
100
AcDbEntity
  8
0
  6
Continuous
 62
     7
370
    25
100
AcDbSpline
210
0.0
220
0.0
230
1.0
 70
     8
 71
     3
 72
    18
 73
    14
 74
     0
 42
0.000000001
 43
0.00000001
 40
0.0
 40
0.0
 40
0.0
 40
0.0
 40
0.125
 40
0.125
 40
0.25
 40
0.25
 40
0.375
 40
0.375
 40
0.5
 40
0.5
 40
0.75
 40
0.75
 40
1.0
 40
1.0
 40
1.0
 40
1.0
 10
184.8782438056498
 20
152.1168158132476
 30
0.0
 10
184.829539676633
 20
152.1132889636294
 30
0.0
 10
184.7710320074285
 20
152.1097886904318
 30
0.0
 10
184.6393063447976
 20
152.1057457065438
 30
0.0
 10
184.5745487061773
 20
152.1056341319132
 30
0.0
 10
184.4693382895582
 20
152.1071663166747
 30
0.0
 10
184.426122254618
 20
152.1086214688898
 30
0.0
 10
184.3499440331371
 20
152.1115467304195
 30
0.0
 10
184.3170892654529
 20
152.1130570609278
 30
0.0
 10
184.2267215466111
 20
152.1171990536161
 30
0.0
 10
184.1772991774217
 20
152.1194371386026
 30
0.0
 10
184.0896467153337
 20
152.1218884216491
 30
0.0
 10
184.0515839790993
 20
152.1221436570102
 30
0.0
 10
184.0171363769559
 20
152.1212782133423
 30
0.0
  0
SPLINE
  5
A6
330
1F
100
AcDbEntity
  8
0
  6
Continuous
 62
     7
370
    25
100
AcDbSpline
210
0.0
220
0.0
230
1.0
 70
     8
 71
     3
 72
     8
 73
     4
 74
     0
 42
0.000000001
 43
0.00000001
 40
0.0
 40
0.0
 40
0.0
 40
0.0
 40
1.0
 40
1.0
 40
1.0
 40
1.0
 10
183.7781807165801
 20
135.3435990262998
 30
0.0
 10
183.828907859786
 20
135.0602475671322
 30
0.0
 10
183.8867951893459
 20
134.7852914051289
 30
0.0
 10
183.9519003509598
 20
134.5185451402653
 30
0.0
  0
SPLINE
  5
A7
330
1F
100
AcDbEntity
  8
0
  6
Continuous
 62
     7
370
    25
100
AcDbSpline
210
0.0
220
0.0
230
1.0
 70
     8
 71
     3
 72
    24
 73
    20
 74
     0
 42
0.000000001
 43
0.00000001
 40
0.0
 40
0.0
 40
0.0
 40
0.0
 40
0.2500000000000103
 40
0.2500000000000103
 40
0.3750000000000152
 40
0.3750000000000152
 40
0.4375000000000171
 40
0.4375000000000171
 40
0.4687500000000175
 40
0.4687500000000175
 40
0.500000000000018
 40
0.500000000000018
 40
0.5625000000000152
 40
0.5625000000000152
 40
0.6250000000000124
 40
0.6250000000000124
 40
0.7500000000000077
 40
0.7500000000000077
 40
1.0
 40
1.0
 40
1.0
 40
1.0
 10
183.5732206945113
 20
135.3438914345931
 30
0.0
 10
183.5736234663511
 20
135.4371001291476
 30
0.0
 10
183.5756514065065
 20
135.5307937398838
 30
0.0
 10
183.58494525023
 20
135.6722957326069
 30
0.0
 10
183.588866452377
 20
135.7194461049505
 30
0.0
 10
183.5997649226098
 20
135.7899940104176
 30
0.0
 10
183.6038844449016
 20
135.8137648858707
 30
0.0
 10
183.615699279687
 20
135.847207653206
 30
0.0
 10
183.6209154575944
 20
135.859364333105
 30
0.0
 10
183.6374271418241
 20
135.8676299648412
 30
0.0
 10
183.6454463317125
 20
135.8601636386967
 30
0.0
 10
183.662485492465
 20
135.8364873955469
 30
0.0
 10
183.6699171124299
 20
135.816232156173
 30
0.0
 10
183.6840251519054
 20
135.7758223783585
 30
0.0
 10
183.690197521694
 20
135.7549212782114
 30
0.0
 10
183.7075343624067
 20
135.6917466514649
 30
0.0
 10
183.7175460299525
 20
135.6487448050665
 30
0.0
 10
183.7459189132504
 20
135.5189637981478
 30
0.0
 10
183.7624760579069
 20
135.4313220414267
 30
0.0
 10
183.7781807165801
 20
135.3435990262998
 30
0.0
  0
SPLINE
  5
A8
330
1F
100
AcDbEntity
  8
0
  6
Continuous
 62
     7
370
    25
100
AcDbSpline
210
0.0
220
0.0
230
1.0
 70
     8
 71
     3
 72
    16
 73
    12
 74
     0
 42
0.000000001
 43
0.00000001
 40
0.0
 40
0.0
 40
0.0
 40
0.0
 40
0.2499999999999998
 40
0.2499999999999998
 40
0.3749999999999998
 40
0.3749999999999998
 40
0.4999999999999999
 40
0.4999999999999999
 40
0.7499999999999999
 40
0.7499999999999999
 40
1.0
 40
1.0
 40
1.0
 40
1.0
 10
183.5732206945194
 20
141.236288226733
 30
0.0
 10
183.4926833626199
 20
140.7672123566349
 30
0.0
 10
183.4326460185924
 20
140.2868474235185
 30
0.0
 10
183.3719083114388
 20
139.5496642143966
 30
0.0
 10
183.3565859363259
 20
139.3011466692329
 30
0.0
 10
183.3360031270217
 20
138.79836604312
 30
0.0
 10
183.3308035299961
 20
138.5435067044668
 30
0.0
 10
183.3307498768163
 20
137.7872261975204
 30
0.0
 10
183.3509474202942
 20
137.2885679752231
 30
0.0
 10
183.4316255086529
 20
136.3021488131706
 30
0.0
 10
183.4926716732608
 20
135.8130353873588
 30
0.0
 10
183.5732206945194
 20
135.3438914345944
 30
0.0
  0
SPLINE
  5
A9
330
1F
100
AcDbEntity
  8
0
  6
Continuous
 62
     7
370
    25
100
AcDbSpline
210
0.0
220
0.0
230
1.0
 70
     8
 71
     3
 72
    24
 73
    20
 74
     0
 42
0.000000001
 43
0.00000001
 40
0.0
 40
0.0
 40
0.0
 40
0.0
 40
0.2500000000000047
 40
0.2500000000000047
 40
0.3750000000000075
 40
0.3750000000000075
 40
0.437500000000009
 40
0.437500000000009
 40
0.5000000000000104
 40
0.5000000000000104
 40
0.5312500000000097
 40
0.5312500000000097
 40
0.5625000000000089
 40
0.5625000000000089
 40
0.6250000000000083
 40
0.6250000000000083
 40
0.7500000000000058
 40
0.7500000000000058
 40
1.0
 40
1.0
 40
1.0
 40
1.0
 10
183.7781807165802
 20
141.2365806350275
 30
0.0
 10
183.7624117844402
 20
141.1484986014455
 30
0.0
 10
183.7457977439829
 20
141.0605544556475
 30
0.0
 10
183.7172659506973
 20
140.930208287478
 30
0.0
 10
183.7071784884665
 20
140.8869476583641
 30
0.0
 10
183.6896908133543
 20
140.8235118853714
 30
0.0
 10
183.6834812059643
 20
140.8025981959489
 30
0.0
 10
183.6692035073698
 20
140.7621230736527
 30
0.0
 10
183.6616319244395
 20
140.7416450041016
 30
0.0
 10
183.6442138311312
 20
140.7187984381243
 30
0.0
 10
183.6357307811403
 20
140.7122441587089
 30
0.0
 10
183.6196930104736
 20
140.7228117934284
 30
0.0
 10
183.6148727660985
 20
140.7349014517755
 30
0.0
 10
183.6034639403079
 20
140.7685476326714
 30
0.0
 10
183.5994434809283
 20
140.7919543243909
 30
0.0
 10
183.5886897849135
 20
140.8625383102101
 30
0.0
 10
183.5848171425892
 20
140.9095091100586
 30
0.0
 10
183.5756491057395
 20
141.0500854776476
 30
0.0
 10
183.573620692892
 20
141.1437213628406
 30
0.0
 10
183.5732206945194
 20
141.236288226733
 30
0.0
  0
SPLINE
  5
AA
330
1F
100
AcDbEntity
  8
0
  6
Continuous
 62
     7
370
    25
100
AcDbSpline
210
0.0
220
0.0
230
1.0
 70
     8
 71
     3
 72
     8
 73
     4
 74
     0
 42
0.000000001
 43
0.00000001
 40
0.0
 40
0.0
 40
0.0
 40
0.0
 40
1.0
 40
1.0
 40
1.0
 40
1.0
 10
183.9519003509598
 20
142.0616345210621
 30
0.0
 10
183.8867951893459
 20
141.7948882561984
 30
0.0
 10
183.828907859786
 20
141.5199320941952
 30
0.0
 10
183.7781807165801
 20
141.2365806350275
 30
0.0
  0
LINE
  5
AB
330
1F
100
AcDbEntity
  8
0
  6
Continuous
 62
     7
370
    25
100
AcDbLine
 10
183.5732206945
 20
135.3438914346
 30
0.0
 11
183.5732206945
 21
134.1888861652
 31
0.0
  0
LINE
  5
AC
330
1F
100
AcDbEntity
  8
0
  6
Continuous
 62
     7
370
    25
100
AcDbLine
 10
162.7732206945
 20
142.1300092968
 30
0.0
 11
162.7732206945
 21
134.4501703646
 31
0.0
  0
LINE
  5
AD
330
1F
100
AcDbEntity
  8
0
  6
Continuous
 62
     7
370
    25
100
AcDbLine
 10
183.5732206945
 20
142.3912934961
 30
0.0
 11
183.5732206945
 21
141.2362882267
 31
0.0
  0
LINE
  5
AE
330
1F
100
AcDbEntity
  8
0
  6
Continuous
 62
     7
370
    25
100
AcDbLine
 10
161.2732206945
 20
141.6969965949
 30
0.0
 11
161.2732206945
 21
134.8831830664
 31
0.0
  0
LINE
  5
AF
330
1F
100
AcDbEntity
  8
0
  6
Continuous
 62
     7
370
    25
100
AcDbLine
 10
183.5732206945
 20
124.2699910461
 30
0.0
 11
183.5732206945
 21
134.1888861652
 31
0.0
  0
ARC
  5
B0
330
1F
100
AcDbEntity
  8
0
  6
Continuous
 62
     7
370
    25
100
AcDbCircle
 10
183.7731576055
 20
124.264967935
 30
0.0
 40
0.1999999999999924
100
AcDbArc
 50
88.5608333333
 51
178.5608333333
  0
LINE
  5
B1
330
1F
100
AcDbEntity
  8
0
  6
Continuous
 62
     7
370
    25
100
AcDbLine
 10
162.7732206945
 20
124.7925594448
 30
0.0
 11
162.7732206945
 21
134.4501703646
 31
0.0
  0
LINE
  5
B2
330
1F
100
AcDbEntity
  8
0
  6
Continuous
 62
     7
370
    25
100
AcDbLine
 10
162.7732206945
 20
124.7925594448
 30
0.0
 11
183.5732206945
 21
124.2699910461
 31
0.0
  0
LINE
  5
B3
330
1F
100
AcDbEntity
  8
0
  6
Continuous
 62
     7
370
    25
100
AcDbLine
 10
162.7732206945
 20
142.1300092968
 30
0.0
 11
162.7732206945
 21
151.7876202165
 31
0.0
  0
LINE
  5
B4
330
1F
100
AcDbEntity
  8
0
  6
Continuous
 62
     7
370
    25
100
AcDbLine
 10
162.7732206945
 20
151.7876202165
 30
0.0
 11
183.5732206945
 21
152.3101886152
 31
0.0
  0
LINE
  5
B5
330
1F
100
AcDbEntity
  8
0
  6
Continuous
 62
     7
370
    25
100
AcDbLine
 10
183.5732206945
 20
142.3912934961
 30
0.0
 11
183.5732206945
 21
152.3101886152
 31
0.0
  0
ARC
  5
B6
330
1F
100
AcDbEntity
  8
0
  6
Continuous
 62
     7
370
    25
100
AcDbCircle
 10
183.7731576055
 20
152.3152117264
 30
0.0
 40
0.1999999999999782
100
AcDbArc
 50
181.4391666667
 51
271.4391666667
  0
LINE
  5
B7
330
1F
100
AcDbEntity
  8
0
  6
Continuous
 62
     7
370
    25
100
AcDbLine
 10
183.7781807166
 20
124.4649048459
 30
0.0
 11
184.017136377
 21
124.458901448
 31
0.0
  0
LINE
  5
B8
330
1F
100
AcDbEntity
  8
0
  6
Continuous
 62
     7
370
    25
100
AcDbLine
 10
183.7781807166
 20
152.1152748154
 30
0.0
 11
184.017136377
 21
152.1212782133
 31
0.0
  0
LINE
  5
B9
330
1F
100
AcDbEntity
  8
0
  6
Continuous
 62
     7
370
    25
100
AcDbLine
 10
161.2732206945
 20
125.6585848486
 30
0.0
 11
162.7732206945
 21
124.7925594448
 31
0.0
  0
LINE
  5
BA
330
1F
100
AcDbEntity
  8
0
  6
Continuous
 62
     7
370
    25
100
AcDbLine
 10
161.2732206945
 20
125.6585848486
 30
0.0
 11
161.2732206945
 21
134.8831830664
 31
0.0
  0
LINE
  5
BB
330
1F
100
AcDbEntity
  8
0
  6
Continuous
 62
     7
370
    25
100
AcDbLine
 10
161.2732206945
 20
150.9215948127
 30
0.0
 11
162.7732206945
 21
151.7876202165
 31
0.0
  0
LINE
  5
BC
330
1F
100
AcDbEntity
  8
0
  6
Continuous
 62
     7
370
    25
100
AcDbLine
 10
161.2732206945
 20
141.6969965949
 30
0.0
 11
161.2732206945
 21
150.9215948127
 31
0.0
  0
CIRCLE
  5
BD
330
1F
100
AcDbEntity
  8
0
  6
Continuous
 62
     7
370
    25
100
AcDbCircle
 10
230.2732206945
 20
138.2900898307
 30
0.0
 40
3.499999999999986
  0
CIRCLE
  5
BE
330
1F
100
AcDbEntity
  8
0
  6
Continuous
 62
     7
370
    25
100
AcDbCircle
 10
230.2732206945
 20
138.2900898307
 30
0.0
 40
4.000000000000001
  0
SPLINE
  5
BF
330
1F
100
AcDbEntity
  8
0
  6
Continuous
 62
     7
370
    25
100
AcDbSpline
210
0.0
220
0.0
230
1.0
 70
    24
 71
     3
 72
    11
 73
     7
 74
     0
 42
0.000000001
 43
0.00000001
 40
0.0
 40
0.0
 40
0.0
 40
0.0
 40
0.2164543009645029
 40
0.4403089937225373
 40
0.7518987489759471
 40
1.0
 40
1.0
 40
1.0
 40
1.0
 10
228.1685116002473
 20
136.3143537749564
 30
0.0
 10
228.1233914007136
 20
136.5068815922986
 30
0.0
 10
228.031608379703
 20
136.8985195922819
 30
0.0
 10
227.8612832139538
 20
137.6252967949316
 30
0.0
 10
227.6785780343004
 20
138.4048994965888
 30
0.0
 10
227.5616574053694
 20
138.9037996283029
 30
0.0
 10
227.509828531968
 20
139.1249533460258
 30
0.0
  0
SPLINE
  5
C0
330
1F
100
AcDbEntity
  8
0
  6
Continuous
 62
     7
370
    25
100
AcDbSpline
210
0.0
220
0.0
230
1.0
 70
    24
 71
     3
 72
    13
 73
     9
 74
     0
 42
0.000000001
 43
0.00000001
 40
0.0
 40
0.0
 40
0.0
 40
0.0
 40
0.1861486563008995
 40
0.3597009560306639
 40
0.5328899386570132
 40
0.7173773805477606
 40
0.9024150036751833
 40
1.0
 40
1.0
 40
1.0
 40
1.0
 10
230.9319037627987
 20
135.4794902595943
 30
0.0
 10
230.7693727959916
 20
135.5285933786313
 30
0.0
 10
230.4553090508814
 20
135.6234768938427
 30
0.0
 10
229.9564086497203
 20
135.7742024218273
 30
0.0
 10
229.443546478036
 20
135.929146016642
 30
0.0
 10
228.9244604691105
 20
136.0859699289552
 30
0.0
 10
228.4980334698652
 20
136.2148001212311
 30
0.0
 10
228.2530874716956
 20
136.2888020960058
 30
0.0
 10
228.1685116002473
 20
136.3143537749564
 30
0.0
  0
SPLINE
  5
C1
330
1F
100
AcDbEntity
  8
0
  6
Continuous
 62
     7
370
    25
100
AcDbSpline
210
0.0
220
0.0
230
1.0
 70
    24
 71
     3
 72
    11
 73
     7
 74
     0
 42
0.000000001
 43
0.00000001
 40
0.0
 40
0.0
 40
0.0
 40
0.0
 40
0.2164543009645035
 40
0.4403089937225388
 40
0.75189874897595
 40
1.0
 40
1.0
 40
1.0
 40
1.0
 10
233.0366128570708
 20
137.4552263153016
 30
0.0
 10
232.8924389760842
 20
137.3198871676105
 30
0.0
 10
232.5991620295166
 20
137.0445817397876
 30
0.0
 10
232.054917092005
 20
136.5336872180201
 30
0.0
 10
231.4711139373378
 20
135.9856585402086
 30
0.0
 10
231.0975140637874
 20
135.6349522394709
 30
0.0
 10
230.9319037627987
 20
135.4794902595943
 30
0.0
  0
SPLINE
  5
C2
330
1F
100
AcDbEntity
  8
0
  6
Continuous
 62
     7
370
    25
100
AcDbSpline
210
0.0
220
0.0
230
1.0
 70
    24
 71
     3
 72
    11
 73
     7
 74
     0
 42
0.000000001
 43
0.00000001
 40
0.0
 40
0.0
 40
0.0
 40
0.0
 40
0.2164543009645035
 40
0.4403089937225375
 40
0.751898748975946
 40
1.0
 40
1.0
 40
1.0
 40
1.0
 10
232.3779297887914
 20
140.2658258863709
 30
0.0
 10
232.4230499883252
 20
140.0732980690288
 30
0.0
 10
232.5148330093357
 20
139.6816600690455
 30
0.0
 10
232.6851581750849
 20
138.9548828663957
 30
0.0
 10
232.8678633547384
 20
138.1752801647386
 30
0.0
 10
232.9847839836693
 20
137.6763800330245
 30
0.0
 10
233.0366128570708
 20
137.4552263153016
 30
0.0
  0
SPLINE
  5
C3
330
1F
100
AcDbEntity
  8
0
  6
Continuous
 62
     7
370
    25
100
AcDbSpline
210
0.0
220
0.0
230
1.0
 70
    24
 71
     3
 72
    13
 73
     9
 74
     0
 42
0.000000001
 43
0.00000001
 40
0.0
 40
0.0
 40
0.0
 40
0.0
 40
0.0975849963248191
 40
0.2826226194522407
 40
0.4671100613429867
 40
0.6402990439693367
 40
0.8138513436990997
 40
1.0
 40
1.0
 40
1.0
 40
1.0
 10
229.61453762624
 20
141.1006894017331
 30
0.0
 10
229.6991134976883
 20
141.0751377227825
 30
0.0
 10
229.9440594958579
 20
141.0011357480078
 30
0.0
 10
230.3704864951032
 20
140.8723055557319
 30
0.0
 10
230.8895725040288
 20
140.7154816434187
 30
0.0
 10
231.4024346757131
 20
140.5605380486039
 30
0.0
 10
231.9013350768741
 20
140.4098125206194
 30
0.0
 10
232.2153988219844
 20
140.314929005408
 30
0.0
 10
232.3779297887914
 20
140.2658258863709
 30
0.0
  0
SPLINE
  5
C4
330
1F
100
AcDbEntity
  8
0
  6
Continuous
 62
     7
370
    25
100
AcDbSpline
210
0.0
220
0.0
230
1.0
 70
    24
 71
     3
 72
    11
 73
     7
 74
     0
 42
0.000000001
 43
0.00000001
 40
0.0
 40
0.0
 40
0.0
 40
0.0
 40
0.2164543009645025
 40
0.4403089937225372
 40
0.7518987489759476
 40
1.0
 40
1.0
 40
1.0
 40
1.0
 10
227.509828531968
 20
139.1249533460258
 30
0.0
 10
227.6540024129546
 20
139.2602924937169
 30
0.0
 10
227.9472793595222
 20
139.5355979215398
 30
0.0
 10
228.4915242970337
 20
140.0464924433072
 30
0.0
 10
229.075327451701
 20
140.5945211211188
 30
0.0
 10
229.4489273252514
 20
140.9452274218565
 30
0.0
 10
229.6145376262401
 20
141.1006894017331
 30
0.0
  0
CIRCLE
  5
C5
330
1F
100
AcDbEntity
  8
0
  6
Continuous
 62
     7
370
    25
100
AcDbCircle
 10
230.2732206945
 20
138.2900898307
 30
0.0
 40
4.999999999999993
  0
ARC
  5
C6
330
1F
100
AcDbEntity
  8
0
  6
Continuous
 62
     7
370
    25
100
AcDbCircle
 10
230.2732206945
 20
138.2900898307
 30
0.0
 40
2.50000000000001
100
AcDbArc
 50
13.1896211945
 51
73.1896211945
  0
ARC
  5
C7
330
1F
100
AcDbEntity
  8
0
  6
Continuous
 62
     7
370
    25
100
AcDbCircle
 10
230.2732206945
 20
138.2900898307
 30
0.0
 40
2.50000000000001
100
AcDbArc
 50
73.1896211945
 51
133.1896211945
  0
ARC
  5
C8
330
1F
100
AcDbEntity
  8
0
  6
Continuous
 62
     7
370
    25
100
AcDbCircle
 10
230.2732206945
 20
138.2900898307
 30
0.0
 40
2.500000000000001
100
AcDbArc
 50
313.1896211945
 51
13.1896211945
  0
ARC
  5
C9
330
1F
100
AcDbEntity
  8
0
  6
Continuous
 62
     7
370
    25
100
AcDbCircle
 10
230.2732206945
 20
138.2900898307
 30
0.0
 40
2.499999999999983
100
AcDbArc
 50
253.1896211945
 51
313.1896211945
  0
ARC
  5
CA
330
1F
100
AcDbEntity
  8
0
  6
Continuous
 62
     7
370
    25
100
AcDbCircle
 10
230.2732206945
 20
138.2900898307
 30
0.0
 40
2.500000000000028
100
AcDbArc
 50
133.1896211945
 51
193.1896211945
  0
ARC
  5
CB
330
1F
100
AcDbEntity
  8
0
  6
Continuous
 62
     7
370
    25
100
AcDbCircle
 10
230.2732206945
 20
138.2900898307
 30
0.0
 40
2.500000000000028
100
AcDbArc
 50
193.1896211945
 51
253.1896211945
  0
CIRCLE
  5
CC
330
1F
100
AcDbEntity
  8
0
  6
Continuous
 62
     7
370
    25
100
AcDbCircle
 10
210.2732206945
 20
138.2900898307
 30
0.0
 40
4.000000000000009
  0
CIRCLE
  5
CD
330
1F
100
AcDbEntity
  8
0
  6
Continuous
 62
     7
370
    25
100
AcDbCircle
 10
210.2732206945
 20
138.2900898307
 30
0.0
 40
5.000000000000011
  0
CIRCLE
  5
CE
330
1F
100
AcDbEntity
  8
0
  6
Continuous
 62
     7
370
    25
100
AcDbCircle
 10
210.2732206945
 20
138.2900898307
 30
0.0
 40
3.499999999999988
  0
SPLINE
  5
CF
330
1F
100
AcDbEntity
  8
0
  6
Continuous
 62
     7
370
    25
100
AcDbSpline
210
0.0
220
0.0
230
1.0
 70
    24
 71
     3
 72
    13
 73
     9
 74
     0
 42
0.000000001
 43
0.00000001
 40
0.0
 40
0.0
 40
0.0
 40
0.0
 40
0.1861486563009018
 40
0.3597009560306646
 40
0.5328899386570158
 40
0.7173773805477593
 40
0.9024150036751815
 40
1.0
 40
1.0
 40
1.0
 40
1.0
 10
209.7000826095426
 20
141.1193734977573
 30
0.0
 10
209.5728251899334
 20
141.0069769647822
 30
0.0
 10
209.326921639486
 20
140.7897895771905
 30
0.0
 10
208.9362959086423
 20
140.4447803983738
 30
0.0
 10
208.5347384832124
 20
140.0901161080923
 30
0.0
 10
208.1283079589327
 20
139.7311477904524
 30
0.0
 10
207.7944269721787
 20
139.4362568092215
 30
0.0
 10
207.6026407773198
 20
139.2668670522955
 30
0.0
 10
207.5364201218156
 20
139.2083795227442
 30
0.0
  0
SPLINE
  5
D0
330
1F
100
AcDbEntity
  8
0
  6
Continuous
 62
     7
370
    25
100
AcDbSpline
210
0.0
220
0.0
230
1.0
 70
    24
 71
     3
 72
    11
 73
     7
 74
     0
 42
0.000000001
 43
0.00000001
 40
0.0
 40
0.0
 40
0.0
 40
0.0
 40
0.2164543009645049
 40
0.4403089937225364
 40
0.7518987489759467
 40
1.0
 40
1.0
 40
1.0
 40
1.0
 10
207.5364201218156
 20
139.2083795227442
 30
0.0
 10
207.5756804368288
 20
139.0145718332126
 30
0.0
 10
207.6555433442401
 20
138.6203303310892
 30
0.0
 10
207.8037479118416
 20
137.8887217126866
 30
0.0
 10
207.9627246668621
 20
137.1039364258301
 30
0.0
 10
208.0644604918542
 20
136.601719742707
 30
0.0
 10
208.1095582067923
 20
136.3790958556506
 30
0.0
  0
SPLINE
  5
D1
330
1F
100
AcDbEntity
  8
0
  6
Continuous
 62
     7
370
    25
100
AcDbSpline
210
0.0
220
0.0
230
1.0
 70
    24
 71
     3
 72
    15
 73
    11
 74
     0
 42
0.000000001
 43
0.00000001
 40
0.0
 40
0.0
 40
0.0
 40
0.0
 40
0.1077864249424401
 40
0.2161691032193858
 40
0.3273133803425797
 40
0.4399575567902531
 40
0.5934881890594543
 40
0.7521499596953829
 40
0.8755072857156153
 40
0.9999999999999999
 40
0.9999999999999999
 40
0.9999999999999999
 40
0.9999999999999999
 10
210.8463587794962
 20
135.4608061635701
 30
0.0
 10
210.7537056811268
 20
135.4918944299277
 30
0.0
 10
210.5678869456441
 20
135.554242936827
 30
0.0
 10
210.2749274914853
 20
135.6525407995339
 30
0.0
 10
209.9686216182063
 20
135.7553168398713
 30
0.0
 10
209.6117539177723
 20
135.8750580932215
 30
0.0
 10
209.2046357722988
 20
136.011660080292
 30
0.0
 10
208.7966302920763
 20
136.1485597983561
 30
0.0
 10
208.4300940737199
 20
136.271545168371
 30
0.0
 10
208.2167293001129
 20
136.3431363081166
 30
0.0
 10
208.1095582067923
 20
136.3790958556506
 30
0.0
  0
SPLINE
  5
D2
330
1F
100
AcDbEntity
  8
0
  6
Continuous
 62
     7
370
    25
100
AcDbSpline
210
0.0
220
0.0
230
1.0
 70
    24
 71
     3
 72
    13
 73
     9
 74
     0
 42
0.000000001
 43
0.00000001
 40
0.0
 40
0.0
 40
0.0
 40
0.0
 40
0.1861486563009019
 40
0.3597009560306644
 40
0.5328899386570154
 40
0.7173773805477612
 40
0.9024150036751855
 40
0.9999999999999999
 40
0.9999999999999999
 40
0.9999999999999999
 40
0.9999999999999999
 10
213.0100212672232
 20
137.3718001385832
 30
0.0
 10
212.882763847614
 20
137.259403605608
 30
0.0
 10
212.6368602971665
 20
137.0422162180164
 30
0.0
 10
212.2462345663229
 20
136.6972070391997
 30
0.0
 10
211.8446771408929
 20
136.3425427489182
 30
0.0
 10
211.4382466166133
 20
135.9835744312783
 30
0.0
 10
211.1043656298592
 20
135.6886834500474
 30
0.0
 10
210.9125794350004
 20
135.5192936931214
 30
0.0
 10
210.8463587794961
 20
135.4608061635701
 30
0.0
  0
SPLINE
  5
D3
330
1F
100
AcDbEntity
  8
0
  6
Continuous
 62
     7
370
    25
100
AcDbSpline
210
0.0
220
0.0
230
1.0
 70
    24
 71
     3
 72
    15
 73
    11
 74
     0
 42
0.000000001
 43
0.00000001
 40
0.0
 40
0.0
 40
0.0
 40
0.0
 40
0.1077864249424395
 40
0.2161691032193841
 40
0.3273133803425784
 40
0.4399575567902535
 40
0.5934881890594541
 40
0.7521499596953825
 40
0.8755072857156151
 40
1.0
 40
1.0
 40
1.0
 40
1.0
 10
213.0100212672232
 20
137.3718001385832
 30
0.0
 10
212.9906179464639
 20
137.4675842086891
 30
0.0
 10
212.9517039695853
 20
137.6596822075659
 30
0.0
 10
212.8903526887477
 20
137.9625414684997
 30
0.0
 10
212.8262064139408
 20
138.2791981562563
 30
0.0
 10
212.7514715310061
 20
138.6481252772975
 30
0.0
 10
212.6662132492799
 20
139.0690009271544
 30
0.0
 10
212.5807691427831
 20
139.4907938969424
 30
0.0
 10
212.5040094883315
 20
139.8697162584536
 30
0.0
 10
212.4593268472337
 20
140.0902911425427
 30
0.0
 10
212.4368831822464
 20
140.2010838056767
 30
0.0
  0
SPLINE
  5
D4
330
1F
100
AcDbEntity
  8
0
  6
Continuous
 62
     7
370
    25
100
AcDbSpline
210
0.0
220
0.0
230
1.0
 70
    24
 71
     3
 72
    11
 73
     7
 74
     0
 42
0.000000001
 43
0.00000001
 40
0.0
 40
0.0
 40
0.0
 40
0.0
 40
0.2164543009645055
 40
0.4403089937225387
 40
0.7518987489759478
 40
1.0
 40
1.0
 40
1.0
 40
1.0
 10
209.7000826095426
 20
141.1193734977573
 30
0.0
 10
209.8875551496323
 20
141.0564700831535
 30
0.0
 10
210.268909759403
 20
140.9285126387301
 30
0.0
 10
210.9766036923681
 20
140.6910572500286
 30
0.0
 10
211.7357360648123
 20
140.4363425150593
 30
0.0
 10
212.2215363830973
 20
140.2733399824159
 30
0.0
 10
212.4368831822464
 20
140.2010838056767
 30
0.0
  0
ARC
  5
D5
330
1F
100
AcDbEntity
  8
0
  6
Continuous
 62
     7
370
    25
100
AcDbCircle
 10
210.2732206945
 20
138.2900898307
 30
0.0
 40
2.500000000000004
100
AcDbArc
 50
311.4516452576
 51
11.4516452576
  0
ARC
  5
D6
330
1F
100
AcDbEntity
  8
0
  6
Continuous
 62
     7
370
    25
100
AcDbCircle
 10
210.2732206945
 20
138.2900898307
 30
0.0
 40
2.500000000000027
100
AcDbArc
 50
71.4516452576
 51
131.4516452576
  0
ARC
  5
D7
330
1F
100
AcDbEntity
  8
0
  6
Continuous
 62
     7
370
    25
100
AcDbCircle
 10
210.2732206945
 20
138.2900898307
 30
0.0
 40
2.499999999999998
100
AcDbArc
 50
191.4516452576
 51
251.4516452576
  0
ARC
  5
D8
330
1F
100
AcDbEntity
  8
0
  6
Continuous
 62
     7
370
    25
100
AcDbCircle
 10
210.2732206945
 20
138.2900898307
 30
0.0
 40
2.500000000000027
100
AcDbArc
 50
131.4516452576
 51
191.4516452576
  0
ARC
  5
D9
330
1F
100
AcDbEntity
  8
0
  6
Continuous
 62
     7
370
    25
100
AcDbCircle
 10
210.2732206945
 20
138.2900898307
 30
0.0
 40
2.499999999999998
100
AcDbArc
 50
251.4516452576
 51
311.4516452576
  0
ARC
  5
DA
330
1F
100
AcDbEntity
  8
0
  6
Continuous
 62
     7
370
    25
100
AcDbCircle
 10
210.2732206945
 20
138.2900898307
 30
0.0
 40
2.500000000000004
100
AcDbArc
 50
11.4516452576
 51
71.4516452576
  0
LINE
  5
DB
330
1F
100
AcDbEntity
  8
0
  6
Continuous
 62
     7
370
    18
100
AcDbLine
 10
185.5732206945
 20
118.2900898307
 30
0.0
 11
185.5732206945
 21
158.2900898307
 31
0.0
  0
LINE
  5
DC
330
1F
100
AcDbEntity
  8
0
  6
Continuous
 62
     7
370
    18
100
AcDbLine
 10
194.6011263137
 20
157.3248461138
 30
0.0
 11
194.6011263137
 21
144.4283349577
 31
0.0
  0
LINE
  5
DD
330
1F
100
AcDbEntity
  8
0
  6
Continuous
 62
     7
370
    18
100
AcDbLine
 10
194.3413186925
 20
157.4217462109
 30
0.0
 11
194.3413186925
 21
144.1193028263
 31
0.0
  0
LINE
  5
DE
330
1F
100
AcDbEntity
  8
0
  6
Continuous
 62
     7
370
    18
100
AcDbLine
 10
191.9453150754
 20
132.1518447036
 30
0.0
 11
191.9453150754
 21
119.2553335475
 31
0.0
  0
LINE
  5
DF
330
1F
100
AcDbEntity
  8
0
  6
Continuous
 62
     7
370
    18
100
AcDbLine
 10
192.2051226965
 20
132.460876835
 30
0.0
 11
192.2051226965
 21
119.1584334504
 31
0.0
  0
LINE
  5
E0
330
1F
100
AcDbEntity
  8
0
  6
Continuous
 62
     7
370
    18
100
AcDbLine
 10
194.3413186925
 20
132.460876835
 30
0.0
 11
194.3413186925
 21
119.1584334504
 31
0.0
  0
LINE
  5
E1
330
1F
100
AcDbEntity
  8
0
  6
Continuous
 62
     7
370
    18
100
AcDbLine
 10
194.6011263137
 20
132.1518447036
 30
0.0
 11
194.6011263137
 21
119.2553335475
 31
0.0
  0
LINE
  5
E2
330
1F
100
AcDbEntity
  8
0
  6
Continuous
 62
     7
370
    18
100
AcDbLine
 10
192.2051226965
 20
157.4217462109
 30
0.0
 11
192.2051226965
 21
144.1193028263
 31
0.0
  0
LINE
  5
E3
330
1F
100
AcDbEntity
  8
0
  6
Continuous
 62
     7
370
    18
100
AcDbLine
 10
191.9453150754
 20
157.3248461138
 30
0.0
 11
191.9453150754
 21
144.4283349577
 31
0.0
  0
LINE
  5
E4
330
1F
100
AcDbEntity
  8
0
  6
Continuous
 62
     7
370
    18
100
AcDbLine
 10
183.951900351
 20
134.5185451403
 30
0.0
 11
183.951900351
 21
142.0616345211
 31
0.0
  0
LINE
  5
E5
330
1F
100
AcDbEntity
  8
0
  6
Continuous
 62
     7
370
    18
100
AcDbLine
 10
162.7732206945
 20
134.4501703646
 30
0.0
 11
183.5732206945
 21
134.1888861652
 31
0.0
  0
LINE
  5
E6
330
1F
100
AcDbEntity
  8
0
  6
Continuous
 62
     7
370
    18
100
AcDbLine
 10
162.7732206945
 20
142.1300092968
 30
0.0
 11
183.5732206945
 21
142.3912934961
 31
0.0
  0
LWPOLYLINE
  5
E7
330
1F
100
AcDbEntity
  8
0
  6
Continuous
 62
     7
370
    18
100
AcDbPolyline
 90
        9
 70
   128
 43
0.0
 10
183.5732206945
 20
142.3912934961
 10
183.5780423866
 20
142.3718388768
 10
183.5903622471
 20
142.3532284053
 10
183.6097068307
 20
142.3361772715
 10
183.6353327359
 20
142.321340741
 10
183.6662551735
 20
142.3092889733
 10
183.7012858117
 20
142.3004851111
 10
183.7390784426
 20
142.2952674819
 10
183.7781807166
 20
142.2938365962
  0
LINE
  5
E8
330
1F
100
AcDbEntity
  8
0
  6
Continuous
 62
     7
370
    18
100
AcDbLine
 10
183.7781807166
 20
142.2938365962
 30
0.0
 11
183.7781807166
 21
141.236580635
 31
0.0
  0
LINE
  5
E9
330
1F
100
AcDbEntity
  8
0
  6
Continuous
 62
     7
370
    18
100
AcDbLine
 10
183.7781807166
 20
135.3435990263
 30
0.0
 11
183.7781807166
 21
134.2863430651
 31
0.0
  0
LWPOLYLINE
  5
EA
330
1F
100
AcDbEntity
  8
0
  6
Continuous
 62
     7
370
    18
100
AcDbPolyline
 90
        9
 70
   128
 43
0.0
 10
183.5732206945
 20
134.1888861652
 10
183.5780423866
 20
134.2083407845
 10
183.5903622471
 20
134.2269512561
 10
183.6097068307
 20
134.2440023899
 10
183.6353327359
 20
134.2588389204
 10
183.6662551735
 20
134.270890688
 10
183.7012858117
 20
134.2796945502
 10
183.7390784426
 20
134.2849121794
 10
183.7781807166
 20
134.2863430651
  0
LINE
  5
EB
330
1F
100
AcDbEntity
  8
0
  6
Continuous
 62
     7
370
    18
100
AcDbLine
 10
161.2732206945
 20
134.8831830664
 30
0.0
 11
162.7732206945
 21
134.4501703646
 31
0.0
  0
LINE
  5
EC
330
1F
100
AcDbEntity
  8
0
  6
Continuous
 62
     7
370
    18
100
AcDbLine
 10
161.2732206945
 20
141.6969965949
 30
0.0
 11
162.7732206945
 21
142.1300092968
 31
0.0
  0
LINE
  5
ED
330
1F
100
AcDbEntity
  8
0
  6
Continuous
 62
     7
370
    18
100
AcDbLine
 10
183.7781807166
 20
134.2863430651
 30
0.0
 11
184.017136377
 21
134.2833413661
 31
0.0
  0
LINE
  5
EE
330
1F
100
AcDbEntity
  8
0
  6
Continuous
 62
     7
370
    18
100
AcDbLine
 10
183.7781807166
 20
142.2938365962
 30
0.0
 11
184.017136377
 21
142.2968382952
 31
0.0
  0
LINE
  5
EF
330
1F
100
AcDbEntity
  8
0
  6
Continuous
 62
     7
370
    18
100
AcDbLine
 10
183.7781807166
 20
124.4649048459
 30
0.0
 11
183.7781807166
 21
134.2863430651
 31
0.0
  0
LINE
  5
F0
330
1F
100
AcDbEntity
  8
0
  6
Continuous
 62
     7
370
    18
100
AcDbLine
 10
183.7781807166
 20
142.2938365962
 30
0.0
 11
183.7781807166
 21
152.1152748154
 31
0.0
  0
LINE
  5
F1
330
1F
100
AcDbEntity
  8
0
  6
Continuous
 62
     7
370
    18
100
AcDbLine
 10
184.8782438056
 20
124.4633638481
 30
0.0
 11
184.8782438056
 21
133.4083701377
 31
0.0
  0
LINE
  5
F2
330
1F
100
AcDbEntity
  8
0
  6
Continuous
 62
     7
370
    18
100
AcDbLine
 10
184.8782438056
 20
143.1718095236
 30
0.0
 11
184.8782438056
 21
152.1168158132
 31
0.0
  0
LINE
  5
F3
330
1F
100
AcDbEntity
  8
0
  6
HIDDEN
 62
     7
370
    18
100
AcDbLine
 10
245.2732206945
 20
138.2900898307
 30
0.0
 11
245.2732206945
 21
119.2900898307
 31
0.0
  0
LINE
  5
F4
330
1F
100
AcDbEntity
  8
0
  6
HIDDEN
 62
     7
370
    18
100
AcDbLine
 10
245.2732206945
 20
157.2900898307
 30
0.0
 11
245.2732206945
 21
138.2900898307
 31
0.0
  0
LINE
  5
F5
330
1F
100
AcDbEntity
  8
0
  6
HIDDEN
 62
     7
370
    18
100
AcDbLine
 10
244.2732206945
 20
138.2900898307
 30
0.0
 11
244.2732206945
 21
118.2900898307
 31
0.0
  0
LINE
  5
F6
330
1F
100
AcDbEntity
  8
0
  6
HIDDEN
 62
     7
370
    18
100
AcDbLine
 10
244.2732206945
 20
158.2900898307
 30
0.0
 11
244.2732206945
 21
138.2900898307
 31
0.0
  0
CIRCLE
  5
F7
330
1F
100
AcDbEntity
  8
0
  6
HIDDEN
 62
     7
370
    18
100
AcDbCircle
 10
210.2732206945
 20
138.2900898307
 30
0.0
 40
4.5
  0
SPLINE
  5
F8
330
1F
100
AcDbEntity
  8
0
  6
HIDDEN
 62
     7
370
    18
100
AcDbSpline
210
0.0
220
0.0
230
1.0
 70
    11
 71
     3
 72
    58
 73
    54
 74
     0
 42
0.000000001
 43
0.00000001
 40
0.0
 40
0.0
 40
0.0
 40
0.0
 40
0.0312500000000002
 40
0.0312500000000002
 40
0.0625000000000004
 40
0.0625000000000004
 40
0.0937500000000006
 40
0.0937500000000006
 40
0.1250000000000008
 40
0.1250000000000008
 40
0.1875000000000009
 40
0.1875000000000009
 40
0.2500000000000011
 40
0.2500000000000011
 40
0.2812500000000011
 40
0.2812500000000011
 40
0.3125000000000012
 40
0.3125000000000012
 40
0.3437500000000013
 40
0.3437500000000013
 40
0.3750000000000014
 40
0.3750000000000014
 40
0.4062500000000014
 40
0.4062500000000014
 40
0.4375000000000016
 40
0.4375000000000016
 40
0.4687500000000016
 40
0.4687500000000016
 40
0.5000000000000016
 40
0.5000000000000016
 40
0.5625000000000017
 40
0.5625000000000017
 40
0.6250000000000018
 40
0.6250000000000018
 40
0.6562500000000017
 40
0.6562500000000017
 40
0.6875000000000014
 40
0.6875000000000014
 40
0.7187500000000013
 40
0.7187500000000013
 40
0.7500000000000012
 40
0.7500000000000012
 40
0.7812500000000011
 40
0.7812500000000011
 40
0.8125000000000009
 40
0.8125000000000009
 40
0.8437500000000008
 40
0.8437500000000008
 40
0.8750000000000007
 40
0.8750000000000007
 40
0.9375000000000003
 40
0.9375000000000003
 40
1.0
 40
1.0
 40
1.0
 40
1.0
 10
195.2732206945194
 20
138.2900898306637
 30
0.0
 10
195.2732206945194
 20
138.4223078878877
 30
0.0
 10
195.2862027321916
 20
138.5523000487282
 30
0.0
 10
195.3370535344499
 20
138.8080196611805
 30
0.0
 10
195.3755454385028
 20
138.9350783450416
 30
0.0
 10
195.4759607242293
 20
139.1772415427004
 30
0.0
 10
195.5373968635023
 20
139.2920833270852
 30
0.0
 10
195.6825303398131
 20
139.5094255246553
 30
0.0
 10
195.7669520286643
 20
139.612267172503
 30
0.0
 10
196.0435522028291
 20
139.8888106532546
 30
0.0
 10
196.2665511140962
 20
140.0377932893868
 30
0.0
 10
196.7477856316819
 20
140.2373363529415
 30
0.0
 10
197.0110850471909
 20
140.2899468259729
 30
0.0
 10
197.4026484872311
 20
140.2901608847254
 30
0.0
 10
197.5352360978358
 20
140.2771620353198
 30
0.0
 10
197.7918018034351
 20
140.2261119512935
 30
0.0
 10
197.9165115696156
 20
140.1883407124813
 30
0.0
 10
198.1587507546426
 20
140.0881488043688
 30
0.0
 10
198.2757674084164
 20
140.0255634105443
 30
0.0
 10
198.4924106132626
 20
139.8808583248338
 30
0.0
 10
198.5934173697211
 20
139.7982389834535
 30
0.0
 10
198.7802234653777
 20
139.6115949486635
 30
0.0
 10
198.8629370009095
 20
139.5106491007036
 30
0.0
 10
199.0078071302848
 20
139.2941678970219
 30
0.0
 10
199.0704774263816
 20
139.1772507320135
 30
0.0
 10
199.1709053644178
 20
138.935054262815
 30
0.0
 10
199.2087765433475
 20
138.8103932719115
 30
0.0
 10
199.2600389411232
 20
138.5539939228435
 30
0.0
 10
199.2731725817639
 20
138.4213829975457
 30
0.0
 10
199.2733165149027
 20
138.0297083852106
 30
0.0
 10
199.2209512576379
 20
137.76642436555
 30
0.0
 10
199.0217905942873
 20
137.2849116516902
 30
0.0
 10
198.8729929209252
 20
137.0617905646452
 30
0.0
 10
198.5966922623391
 20
136.7849584161377
 30
0.0
 10
198.4939272152794
 20
136.7004512018534
 30
0.0
 10
198.276709941485
 20
136.5551302601675
 30
0.0
 10
198.1619402480472
 20
136.4936080369054
 30
0.0
 10
197.9199537109026
 20
136.3930116336334
 30
0.0
 10
197.7928711380112
 20
136.3543837455448
 30
0.0
 10
197.537196438008
 20
136.3033056354786
 30
0.0
 10
197.4072559206638
 20
136.2902164957115
 30
0.0
 10
197.1429925529024
 20
136.2899649773529
 30
0.0
 10
197.0127816592555
 20
136.3028394474093
 30
0.0
 10
196.7570317138219
 20
136.3534583445413
 30
0.0
 10
196.6300143294545
 20
136.3918061633371
 30
0.0
 10
196.3876626017028
 20
136.4920402835305
 30
0.0
 10
196.2727598224165
 20
136.5533844705205
 30
0.0
 10
196.0553376572675
 20
136.6982894750496
 30
0.0
 10
195.9524012598228
 20
136.7826283671716
 30
0.0
 10
195.6755641026659
 20
137.0590294802134
 30
0.0
 10
195.5264088616017
 20
137.2818731132558
 30
0.0
 10
195.3264382763665
 20
137.7629363945064
 30
0.0
 10
195.2732206945194
 20
138.0256537162157
 30
0.0
 10
195.2732206945194
 20
138.2900898306637
 30
0.0
  0
SPLINE
  5
F9
330
1F
100
AcDbEntity
  8
0
  6
HIDDEN
 62
     7
370
    18
100
AcDbSpline
210
0.0
220
0.0
230
1.0
 70
     8
 71
     3
 72
    12
 73
     8
 74
     0
 42
0.000000001
 43
0.00000001
 40
0.0
 40
0.0
 40
0.0
 40
0.0
 40
0.2500000000000014
 40
0.2500000000000014
 40
0.5000000000000029
 40
0.5000000000000029
 40
1.0
 40
1.0
 40
1.0
 40
1.0
 10
192.2051226965186
 20
157.421746210897
 30
0.0
 10
192.1676108104739
 20
157.4217462108971
 30
0.0
 10
192.1323234627692
 20
157.4172426666345
 30
0.0
 10
192.0733936145308
 20
157.4038694671812
 30
0.0
 10
192.0498678880617
 20
157.3953845646101
 30
0.0
 10
191.9896091002936
 20
157.3676367607755
 30
0.0
 10
191.9640143380043
 20
157.3466468970351
 30
0.0
 10
191.9453150753833
 20
157.3248461138456
 30
0.0
  0
LINE
  5
FA
330
1F
100
AcDbEntity
  8
0
  6
HIDDEN
 62
     7
370
    18
100
AcDbLine
 10
194.3413186925
 20
157.4217462109
 30
0.0
 11
192.2051226965
 21
157.4217462109
 31
0.0
  0
SPLINE
  5
FB
330
1F
100
AcDbEntity
  8
0
  6
HIDDEN
 62
     7
370
    18
100
AcDbSpline
210
0.0
220
0.0
230
1.0
 70
     8
 71
     3
 72
    12
 73
     8
 74
     0
 42
0.000000001
 43
0.00000001
 40
0.0
 40
0.0
 40
0.0
 40
0.0
 40
0.4999999999999994
 40
0.4999999999999994
 40
0.7499999999999997
 40
0.7499999999999997
 40
1.0
 40
1.0
 40
1.0
 40
1.0
 10
194.6011263136555
 20
157.3248461138456
 30
0.0
 10
194.5824330805251
 20
157.3466398674736
 30
0.0
 10
194.5567777831133
 20
157.3676600291832
 30
0.0
 10
194.4966171604269
 20
157.3953653751469
 30
0.0
 10
194.4725448486725
 20
157.4040005913403
 30
0.0
 10
194.414163328322
 20
157.4172152365669
 30
0.0
 10
194.3786945006689
 20
157.421746210897
 30
0.0
 10
194.3413186925202
 20
157.421746210897
 30
0.0
  0
ELLIPSE
  5
FC
330
1F
100
AcDbEntity
  8
0
  6
HIDDEN
 62
     7
370
    18
100
AcDbEllipse
 10
184.3242915221
 20
138.2900898307
 30
0.0
 11
9.367417879781724
 21
19.74174915274994
 31
0.0
210
0.0
220
0.0
230
1.0
 40
0.3419987131
 41
5.185211263708401
 42
6.132113578252556
  0
SPLINE
  5
FD
330
1F
100
AcDbEntity
  8
0
  6
HIDDEN
 62
     7
370
    18
100
AcDbSpline
210
0.0
220
0.0
230
1.0
 70
     8
 71
     3
 72
    12
 73
     8
 74
     0
 42
0.000000001
 43
0.00000001
 40
0.0
 40
0.0
 40
0.0
 40
0.0
 40
0.2499999999999997
 40
0.2499999999999997
 40
0.4999999999999994
 40
0.4999999999999994
 40
1.0
 40
1.0
 40
1.0
 40
1.0
 10
194.3413186925202
 20
144.1193028263153
 30
0.0
 10
194.3788305785649
 20
144.1193028263153
 30
0.0
 10
194.4141179262696
 20
144.1341076406021
 30
0.0
 10
194.473047774508
 20
144.1776995137279
 30
0.0
 10
194.4965735009771
 20
144.2052129398139
 30
0.0
 10
194.5568322887451
 20
144.2943446719275
 30
0.0
 10
194.5824270510345
 20
144.3607305225454
 30
0.0
 10
194.6011263136555
 20
144.4283349577227
 30
0.0
  0
LINE
  5
FE
330
1F
100
AcDbEntity
  8
0
  6
HIDDEN
 62
     7
370
    18
100
AcDbLine
 10
192.2051226965
 20
144.1193028263
 30
0.0
 11
194.3413186925
 21
144.1193028263
 31
0.0
  0
SPLINE
  5
FF
330
1F
100
AcDbEntity
  8
0
  6
HIDDEN
 62
     7
370
    18
100
AcDbSpline
210
0.0
220
0.0
230
1.0
 70
     8
 71
     3
 72
    12
 73
     8
 74
     0
 42
0.000000001
 43
0.00000001
 40
0.0
 40
0.0
 40
0.0
 40
0.0
 40
0.5000000000000029
 40
0.5000000000000029
 40
0.7500000000000014
 40
0.7500000000000014
 40
1.0
 40
1.0
 40
1.0
 40
1.0
 10
191.9453150753833
 20
144.4283349577227
 30
0.0
 10
191.9640083085137
 20
144.3607523212824
 30
0.0
 10
191.9896636059254
 20
144.2942697518049
 30
0.0
 10
192.0498242286119
 20
144.2052746689074
 30
0.0
 10
192.0738965403662
 20
144.1772727719083
 30
0.0
 10
192.1322780607168
 20
144.1341963712431
 30
0.0
 10
192.1677468883699
 20
144.1193028263153
 30
0.0
 10
192.2051226965186
 20
144.1193028263153
 30
0.0
  0
ELLIPSE
  5
100
330
1F
100
AcDbEntity
  8
0
  6
HIDDEN
 62
     7
370
    18
100
AcDbEllipse
 10
202.222149867
 20
138.2900898307
 30
0.0
 11
-9.367417879781613
 21
19.74174915274997
 31
0.0
210
0.0
220
0.0
230
1.0
 40
0.3419987131
 41
0.1510717289270695
 42
1.097974043471201
  0
SPLINE
  5
101
330
1F
100
AcDbEntity
  8
0
  6
HIDDEN
 62
     7
370
    18
100
AcDbSpline
210
0.0
220
0.0
230
1.0
 70
     8
 71
     3
 72
    12
 73
     8
 74
     0
 42
0.000000001
 43
0.00000001
 40
0.0
 40
0.0
 40
0.0
 40
0.0
 40
0.2499999999999986
 40
0.2499999999999986
 40
0.4999999999999971
 40
0.4999999999999971
 40
1.0
 40
1.0
 40
1.0
 40
1.0
 10
192.2051226965186
 20
132.4608768350118
 30
0.0
 10
192.1676108104739
 20
132.4608768350118
 30
0.0
 10
192.1323234627692
 20
132.446072020725
 30
0.0
 10
192.0733936145308
 20
132.4024801475991
 30
0.0
 10
192.0498678880617
 20
132.3749667215132
 30
0.0
 10
191.9896091002936
 20
132.2858349893995
 30
0.0
 10
191.9640143380043
 20
132.2194491387818
 30
0.0
 10
191.9453150753833
 20
132.1518447036044
 30
0.0
  0
LINE
  5
102
330
1F
100
AcDbEntity
  8
0
  6
HIDDEN
 62
     7
370
    18
100
AcDbLine
 10
194.3413186925
 20
132.460876835
 30
0.0
 11
192.2051226965
 21
132.460876835
 31
0.0
  0
SPLINE
  5
103
330
1F
100
AcDbEntity
  8
0
  6
HIDDEN
 62
     7
370
    18
100
AcDbSpline
210
0.0
220
0.0
230
1.0
 70
     8
 71
     3
 72
    12
 73
     8
 74
     0
 42
0.000000001
 43
0.00000001
 40
0.0
 40
0.0
 40
0.0
 40
0.0
 40
0.5000000000000021
 40
0.5000000000000021
 40
0.750000000000001
 40
0.750000000000001
 40
1.0
 40
1.0
 40
1.0
 40
1.0
 10
194.6011263136555
 20
132.1518447036044
 30
0.0
 10
194.5824330805251
 20
132.2194273400447
 30
0.0
 10
194.5567777831133
 20
132.2859099095222
 30
0.0
 10
194.4966171604269
 20
132.3749049924197
 30
0.0
 10
194.4725448486725
 20
132.4029068894189
 30
0.0
 10
194.414163328322
 20
132.445983290084
 30
0.0
 10
194.3786945006689
 20
132.4608768350118
 30
0.0
 10
194.3413186925202
 20
132.4608768350118
 30
0.0
  0
ELLIPSE
  5
104
330
1F
100
AcDbEntity
  8
0
  6
HIDDEN
 62
     7
370
    18
100
AcDbEllipse
 10
184.3242915221
 20
138.2900898307
 30
0.0
 11
-9.367417879781812
 21
19.74174915274995
 31
0.0
210
0.0
220
0.0
230
1.0
 40
0.3419987131
 41
3.29266438251689
 42
4.239566697060992
  0
SPLINE
  5
105
330
1F
100
AcDbEntity
  8
0
  6
HIDDEN
 62
     7
370
    18
100
AcDbSpline
210
0.0
220
0.0
230
1.0
 70
     8
 71
     3
 72
    12
 73
     8
 74
     0
 42
0.000000001
 43
0.00000001
 40
0.0
 40
0.0
 40
0.0
 40
0.0
 40
0.2499999999999997
 40
0.2499999999999997
 40
0.4999999999999994
 40
0.4999999999999994
 40
1.0
 40
1.0
 40
1.0
 40
1.0
 10
194.3413186925202
 20
119.1584334504303
 30
0.0
 10
194.3788305785649
 20
119.1584334504303
 30
0.0
 10
194.4141179262696
 20
119.1629369946928
 30
0.0
 10
194.473047774508
 20
119.1763101941461
 30
0.0
 10
194.4965735009771
 20
119.1847950967172
 30
0.0
 10
194.5568322887452
 20
119.2125429005518
 30
0.0
 10
194.5824270510345
 20
119.2335327642922
 30
0.0
 10
194.6011263136555
 20
119.2553335474817
 30
0.0
  0
LINE
  5
106
330
1F
100
AcDbEntity
  8
0
  6
HIDDEN
 62
     7
370
    18
100
AcDbLine
 10
192.2051226965
 20
119.1584334504
 30
0.0
 11
194.3413186925
 21
119.1584334504
 31
0.0
  0
SPLINE
  5
107
330
1F
100
AcDbEntity
  8
0
  6
HIDDEN
 62
     7
370
    18
100
AcDbSpline
210
0.0
220
0.0
230
1.0
 70
     8
 71
     3
 72
    12
 73
     8
 74
     0
 42
0.000000001
 43
0.00000001
 40
0.0
 40
0.0
 40
0.0
 40
0.0
 40
0.4999999999999978
 40
0.4999999999999978
 40
0.7499999999999989
 40
0.7499999999999989
 40
1.0
 40
1.0
 40
1.0
 40
1.0
 10
191.9453150753833
 20
119.2553335474817
 30
0.0
 10
191.9640083085137
 20
119.2335397938537
 30
0.0
 10
191.9896636059254
 20
119.2125196321441
 30
0.0
 10
192.0498242286119
 20
119.1848142861804
 30
0.0
 10
192.0738965403662
 20
119.176179069987
 30
0.0
 10
192.1322780607168
 20
119.1629644247604
 30
0.0
 10
192.1677468883699
 20
119.1584334504303
 30
0.0
 10
192.2051226965186
 20
119.1584334504303
 30
0.0
  0
ELLIPSE
  5
108
330
1F
100
AcDbEntity
  8
0
  6
HIDDEN
 62
     7
370
    18
100
AcDbEllipse
 10
202.222149867
 20
138.2900898307
 30
0.0
 11
9.367417879781726
 21
19.74174915274997
 31
0.0
210
0.0
220
0.0
230
1.0
 40
0.3419987131
 41
2.043618610118606
 42
2.99052092466274
  0
CIRCLE
  5
109
330
1F
100
AcDbEntity
  8
0
  6
HIDDEN
 62
     7
370
    18
100
AcDbCircle
 10
230.2732206945
 20
138.2900898307
 30
0.0
 40
4.5
  0
LINE
  5
10A
330
1F
100
AcDbEntity
  8
0
  6
HIDDEN
 62
     7
370
    18
100
AcDbLine
 10
185.2732206945
 20
157.9900898277
 30
0.0
 11
185.2732206945
 21
118.5900898307
 31
0.0
  0
LINE
  5
10B
330
1F
100
AcDbEntity
  8
0
  6
HIDDEN
 62
     7
370
    18
100
AcDbLine
 10
185.2732206945
 20
122.4900898307
 30
0.0
 11
185.2732206945
 21
154.0900898307
 31
0.0
  0
SPLINE
  5
10C
330
1F
100
AcDbEntity
  8
0
  6
HIDDEN
 62
     7
370
    18
100
AcDbSpline
210
0.0
220
0.0
230
1.0
 70
     8
 71
     3
 72
    18
 73
    14
 74
     0
 42
0.000000001
 43
0.00000001
 40
0.0
 40
0.0
 40
0.0
 40
0.0
 40
0.25
 40
0.25
 40
0.5
 40
0.5
 40
0.625
 40
0.625
 40
0.75
 40
0.75
 40
0.875
 40
0.875
 40
1.0
 40
1.0
 40
1.0
 40
1.0
 10
184.0171363769564
 20
148.114529748815
 30
0.0
 10
184.0514374214892
 20
148.0065195630174
 30
0.0
 10
184.0892576927859
 20
147.8992424749894
 30
0.0
 10
184.1758760132468
 20
147.6877457776728
 30
0.0
 10
184.2242473479903
 20
147.5833594275032
 30
0.0
 10
184.3136503301087
 20
147.4324845048589
 30
0.0
 10
184.346247613986
 20
147.3831395018233
 30
0.0
 10
184.4226295179308
 20
147.288533863353
 30
0.0
 10
184.4656679552716
 20
147.2435379285984
 30
0.0
 10
184.5714809881035
 20
147.1726101559406
 30
0.0
 10
184.6365194128346
 20
147.148663612034
 30
0.0
 10
184.7696714846372
 20
147.1609442761048
 30
0.0
 10
184.8290406651003
 20
147.1942612341097
 30
0.0
 10
184.8782438056441
 20
147.2350961203344
 30
0.0
  0
SPLINE
  5
10D
330
1F
100
AcDbEntity
  8
0
  6
HIDDEN
 62
     7
370
    18
100
AcDbSpline
210
0.0
220
0.0
230
1.0
 70
     8
 71
     3
 72
    16
 73
    12
 74
     0
 42
0.000000001
 43
0.00000001
 40
0.0
 40
0.0
 40
0.0
 40
0.0
 40
0.0625000000000012
 40
0.0625000000000012
 40
0.1250000000000023
 40
0.1250000000000023
 40
0.2500000000000006
 40
0.2500000000000006
 40
0.4999999999999973
 40
0.4999999999999973
 40
1.0
 40
1.0
 40
1.0
 40
1.0
 10
184.8782438056133
 20
147.2350961203638
 30
0.0
 10
184.8903136388892
 20
147.2451131693441
 30
0.0
 10
184.9045892938225
 20
147.2540722763998
 30
0.0
 10
184.9360537059469
 20
147.261942671794
 30
0.0
 10
184.9515542307573
 20
147.2595851811517
 30
0.0
 10
184.9869931273642
 20
147.2426094889737
 30
0.0
 10
185.0005857434676
 20
147.2220609978061
 30
0.0
 10
185.0335800618604
 20
147.1601186707924
 30
0.0
 10
185.0443674551791
 20
147.1137231205873
 30
0.0
 10
185.0694207024583
 20
146.9707870918928
 30
0.0
 10
185.0732206945195
 20
146.8712243750073
 30
0.0
 10
185.0732206945195
 20
146.7694569703607
 30
0.0
  0
LINE
  5
10E
330
1F
100
AcDbEntity
  8
0
  6
HIDDEN
 62
     7
370
    18
100
AcDbLine
 10
185.0732206945
 20
129.810722691
 30
0.0
 11
185.0732206945
 21
146.7694569704
 31
0.0
  0
SPLINE
  5
10F
330
1F
100
AcDbEntity
  8
0
  6
HIDDEN
 62
     7
370
    18
100
AcDbSpline
210
0.0
220
0.0
230
1.0
 70
     8
 71
     3
 72
    16
 73
    12
 74
     0
 42
0.000000001
 43
0.00000001
 40
0.0
 40
0.0
 40
0.0
 40
0.0
 40
0.5000000000000014
 40
0.5000000000000014
 40
0.7499999999999997
 40
0.7499999999999997
 40
0.875000000000001
 40
0.875000000000001
 40
0.9375000000000004
 40
0.9375000000000004
 40
1.0
 40
1.0
 40
1.0
 40
1.0
 10
185.0732206945194
 20
129.8107226909665
 30
0.0
 10
185.0732206945194
 20
129.7087125373864
 30
0.0
 10
185.0693372693605
 20
129.6091881621332
 30
0.0
 10
185.0445219440858
 20
129.4672030661226
 30
0.0
 10
185.0336824963733
 20
129.4202097655521
 30
0.0
 10
185.0004667143245
 20
129.3579170351905
 30
0.0
 10
184.9870849706957
 20
129.3376356029054
 30
0.0
 10
184.9515753208335
 20
129.3205938947049
 30
0.0
 10
184.9361583543327
 20
129.3182076396888
 30
0.0
 10
184.9044573321841
 20
129.3261435695468
 30
0.0
 10
184.8903110472333
 20
129.3350686429214
 30
0.0
 10
184.8782438056436
 20
129.3450835409933
 30
0.0
  0
SPLINE
  5
110
330
1F
100
AcDbEntity
  8
0
  6
HIDDEN
 62
     7
370
    18
100
AcDbSpline
210
0.0
220
0.0
230
1.0
 70
     8
 71
     3
 72
    18
 73
    14
 74
     0
 42
0.000000001
 43
0.00000001
 40
0.0
 40
0.0
 40
0.0
 40
0.0
 40
0.1250000000000001
 40
0.1250000000000001
 40
0.2500000000000001
 40
0.2500000000000001
 40
0.3750000000000002
 40
0.3750000000000002
 40
0.5000000000000002
 40
0.5000000000000002
 40
0.7500000000000001
 40
0.7500000000000001
 40
1.0
 40
1.0
 40
1.0
 40
1.0
 10
184.8782438056498
 20
129.3450835410007
 30
0.0
 10
184.8295383135077
 20
129.3855054166822
 30
0.0
 10
184.7710282051808
 20
129.4185375381499
 30
0.0
 10
184.6392990868887
 20
129.4318146901028
 30
0.0
 10
184.5745401505482
 20
129.4088611031225
 30
0.0
 10
184.4693291776886
 20
129.339807906203
 30
0.0
 10
184.4261128022487
 20
129.2953402543621
 30
0.0
 10
184.3499342971367
 20
129.202170594992
 30
0.0
 10
184.3170793357568
 20
129.1530282254312
 30
0.0
 10
184.2267110559231
 20
129.0018184904914
 30
0.0
 10
184.177287821553
 20
128.8956637209631
 30
0.0
 10
184.0896393665048
 20
128.6820821053016
 30
0.0
 10
184.051580194302
 20
128.5741096740664
 30
0.0
 10
184.0171363769564
 20
128.4656499125124
 30
0.0
  0
SPLINE
  5
111
330
1F
100
AcDbEntity
  8
0
  6
HIDDEN
 62
     7
370
    18
100
AcDbSpline
210
0.0
220
0.0
230
1.0
 70
     8
 71
     3
 72
     8
 73
     4
 74
     0
 42
0.000000001
 43
0.00000001
 40
0.0
 40
0.0
 40
0.0
 40
0.0
 40
1.0
 40
1.0
 40
1.0
 40
1.0
 10
184.0171363769558
 20
128.4656499125119
 30
0.0
 10
183.9928226730657
 20
128.3890887549618
 30
0.0
 10
183.9713260311096
 20
128.3126633838286
 30
0.0
 10
183.9519003509597
 20
128.2365705130569
 30
0.0
  0
SPLINE
  5
112
330
1F
100
AcDbEntity
  8
0
  6
HIDDEN
 62
     7
370
    18
100
AcDbSpline
210
0.0
220
0.0
230
1.0
 70
     8
 71
     3
 72
     8
 73
     4
 74
     0
 42
0.000000001
 43
0.00000001
 40
0.0
 40
0.0
 40
0.0
 40
0.0
 40
1.0
 40
1.0
 40
1.0
 40
1.0
 10
183.9519003509597
 20
124.4650258226585
 30
0.0
 10
183.971325777853
 20
124.4615286190712
 30
0.0
 10
183.992822331822
 20
124.459512301429
 30
0.0
 10
184.0171363769564
 20
124.4589014479851
 30
0.0
  0
SPLINE
  5
113
330
1F
100
AcDbEntity
  8
0
  6
HIDDEN
 62
     7
370
    18
100
AcDbSpline
210
0.0
220
0.0
230
1.0
 70
     8
 71
     3
 72
     8
 73
     4
 74
     0
 42
0.000000001
 43
0.00000001
 40
0.0
 40
0.0
 40
0.0
 40
0.0
 40
1.0
 40
1.0
 40
1.0
 40
1.0
 10
185.0503696814134
 20
124.369543056927
 30
0.0
 10
185.0693066135792
 20
124.3415886195255
 30
0.0
 10
185.0732206945195
 20
124.3215047681692
 30
0.0
 10
185.0732206945195
 20
124.3052779240038
 30
0.0
  0
LINE
  5
114
330
1F
100
AcDbEntity
  8
0
  6
HIDDEN
 62
     7
370
    18
100
AcDbLine
 10
185.0732206945
 20
124.2002695518
 30
0.0
 11
185.0732206945
 21
124.305277924
 31
0.0
  0
LINE
  5
115
330
1F
100
AcDbEntity
  8
0
  6
HIDDEN
 62
     7
370
    18
100
AcDbLine
 10
185.0732206945
 20
152.2749017373
 30
0.0
 11
185.0732206945
 21
152.3799101095
 31
0.0
  0
LINE
  5
116
330
1F
100
AcDbEntity
  8
0
  6
HIDDEN
 62
     7
370
    18
100
AcDbLine
 10
185.0732206945
 20
152.2749017373
 30
0.0
 11
185.0663813443
 21
152.2424867355
 31
0.0
  0
SPLINE
  5
117
330
1F
100
AcDbEntity
  8
0
  6
HIDDEN
 62
     7
370
    18
100
AcDbSpline
210
0.0
220
0.0
230
1.0
 70
     8
 71
     3
 72
     8
 73
     4
 74
     0
 42
0.000000001
 43
0.00000001
 40
0.0
 40
0.0
 40
0.0
 40
0.0
 40
1.0
 40
1.0
 40
1.0
 40
1.0
 10
184.017136376956
 20
152.1212782133423
 30
0.0
 10
183.9928223318218
 20
152.1206673598984
 30
0.0
 10
183.9713257778529
 20
152.1186510422562
 30
0.0
 10
183.9519003509597
 20
152.1151538386689
 30
0.0
  0
SPLINE
  5
118
330
1F
100
AcDbEntity
  8
0
  6
HIDDEN
 62
     7
370
    18
100
AcDbSpline
210
0.0
220
0.0
230
1.0
 70
     8
 71
     3
 72
     8
 73
     4
 74
     0
 42
0.000000001
 43
0.00000001
 40
0.0
 40
0.0
 40
0.0
 40
0.0
 40
1.0
 40
1.0
 40
1.0
 40
1.0
 10
183.9519003509597
 20
148.3436091482704
 30
0.0
 10
183.9713260311096
 20
148.2675162774987
 30
0.0
 10
183.9928226730657
 20
148.1910909063655
 30
0.0
 10
184.0171363769558
 20
148.1145297488155
 30
0.0
  0
LINE
  5
119
330
1F
100
AcDbEntity
  8
0
  6
HIDDEN
 62
     7
370
    18
100
AcDbLine
 10
185.0732206945
 20
124.305277924
 30
0.0
 11
185.0732206945
 21
132.7846450637
 31
0.0
  0
LINE
  5
11A
330
1F
100
AcDbEntity
  8
0
  6
HIDDEN
 62
     7
370
    18
100
AcDbLine
 10
185.0732206945
 20
143.7955345976
 30
0.0
 11
185.0732206945
 21
152.2749017373
 31
0.0
  0
LINE
  5
11B
330
1F
100
AcDbEntity
  8
0
  6
HIDDEN
 62
     7
370
    18
100
AcDbLine
 10
245.2732206945
 20
149.4774040295
 30
0.0
 11
245.2732206945
 21
127.1027756318
 31
0.0
  0
CIRCLE
  5
11C
330
1F
100
AcDbEntity
  8
0
  6
HIDDEN
 62
     7
370
    18
100
AcDbCircle
 10
173.7732206945
 20
138.2900898307
 30
0.0
 40
2.300000000000011
  0
LINE
  5
11D
330
1F
100
AcDbEntity
  8
0
  6
HIDDEN
 62
     7
370
    18
100
AcDbLine
 10
192.2732206945
 20
148.1900898307
 30
0.0
 11
192.2732206945
 21
128.3900898307
 31
0.0
  0
LINE
  5
11E
330
1F
100
AcDbEntity
  8
0
  6
HIDDEN
 62
     7
370
    18
100
AcDbLine
 10
196.2732206945
 20
148.2900898307
 30
0.0
 11
196.2732206945
 21
128.2900898307
 31
0.0
  0
LINE
  5
11F
330
1F
100
AcDbEntity
  8
0
  6
HIDDEN
 62
     7
370
    18
100
AcDbLine
 10
162.3002527266
 20
147.8527831348
 30
0.0
 11
162.3002527266
 21
128.7273965266
 31
0.0
  0
LINE
  5
120
330
1F
100
AcDbEntity
  8
0
  6
HIDDEN
 62
     7
370
    18
100
AcDbLine
 10
161.2732206945
 20
128.1344393064
 30
0.0
 11
161.2732206945
 21
148.4457403549
 31
0.0
  0
SPLINE
  5
121
330
1F
100
AcDbEntity
  8
0
  6
HIDDEN
 62
     7
370
    18
100
AcDbSpline
210
0.0
220
0.0
230
1.0
 70
    11
 71
     3
 72
    74
 73
    70
 74
     0
 42
0.000000001
 43
0.00000001
 40
0.0
 40
0.0
 40
0.0
 40
0.0
 40
0.0312500000000001
 40
0.0312500000000001
 40
0.0625000000000002
 40
0.0625000000000002
 40
0.0937500000000004
 40
0.0937500000000004
 40
0.1250000000000005
 40
0.1250000000000005
 40
0.1562500000000006
 40
0.1562500000000006
 40
0.1875000000000007
 40
0.1875000000000007
 40
0.2031250000000007
 40
0.2031250000000007
 40
0.2187500000000007
 40
0.2187500000000007
 40
0.2500000000000007
 40
0.2500000000000007
 40
0.2812500000000008
 40
0.2812500000000008
 40
0.3125000000000008
 40
0.3125000000000008
 40
0.3437500000000008
 40
0.3437500000000008
 40
0.3750000000000008
 40
0.3750000000000008
 40
0.4062500000000008
 40
0.4062500000000008
 40
0.4375000000000008
 40
0.4375000000000008
 40
0.4687500000000008
 40
0.4687500000000008
 40
0.5000000000000008
 40
0.5000000000000008
 40
0.5312500000000009
 40
0.5312500000000009
 40
0.5625000000000009
 40
0.5625000000000009
 40
0.5937500000000009
 40
0.5937500000000009
 40
0.6250000000000009
 40
0.6250000000000009
 40
0.6562500000000009
 40
0.6562500000000009
 40
0.6875000000000009
 40
0.6875000000000009
 40
0.7187500000000009
 40
0.7187500000000009
 40
0.7343750000000009
 40
0.7343750000000009
 40
0.7500000000000008
 40
0.7500000000000008
 40
0.7812500000000008
 40
0.7812500000000008
 40
0.8125000000000007
 40
0.8125000000000007
 40
0.8437500000000006
 40
0.8437500000000006
 40
0.8750000000000004
 40
0.8750000000000004
 40
0.9062500000000003
 40
0.9062500000000003
 40
0.9375000000000002
 40
0.9375000000000002
 40
0.9687500000000001
 40
0.9687500000000001
 40
1.0
 40
1.0
 40
1.0
 40
1.0
 10
210.2732206945194
 20
133.7900898306637
 30
0.0
 10
209.9716095060473
 20
133.7900898306637
 30
0.0
 10
209.6759826054974
 20
133.8200960818638
 30
0.0
 10
209.0958650376571
 20
133.9367725775172
 30
0.0
 10
208.8084337331611
 20
134.0250246054878
 30
0.0
 10
208.2661156452577
 20
134.2517843025495
 30
0.0
 10
208.0095456631812
 20
134.3899272923045
 30
0.0
 10
207.5238777573611
 20
134.7156519885657
 30
0.0
 10
207.2976740934279
 20
134.9019041856436
 30
0.0
 10
206.8883509167656
 20
135.310771766402
 30
0.0
 10
206.7021710197567
 20
135.5362448296387
 30
0.0
 10
206.3748661370462
 20
136.0231778752669
 30
0.0
 10
206.2365801386291
 20
136.2797867912368
 30
0.0
 10
206.0666838389905
 20
136.6849437298293
 30
0.0
 10
206.0163566994642
 20
136.8233930581196
 30
0.0
 10
205.9288537925865
 20
137.1074797020167
 30
0.0
 10
205.8917750846131
 20
137.253252591591
 30
0.0
 10
205.8034635428521
 20
137.6903737505902
 30
0.0
 10
205.773668063389
 20
137.9851722648212
 30
0.0
 10
205.772783228007
 20
138.5816566536786
 30
0.0
 10
205.8027214503371
 20
138.8837948775191
 30
0.0
 10
205.9192132575216
 20
139.4650231962058
 30
0.0
 10
206.0060938216209
 20
139.7494349437558
 30
0.0
 10
206.2346828371535
 20
140.2971453563384
 30
0.0
 10
206.3735357983919
 20
140.5544789618038
 30
0.0
 10
206.6983235712617
 20
141.0387460449682
 30
0.0
 10
206.8861257267945
 20
141.2669409900102
 30
0.0
 10
207.2961233764138
 20
141.6769684384409
 30
0.0
 10
207.5193288253614
 20
141.8610168276638
 30
0.0
 10
208.0044259966402
 20
142.1872696653382
 30
0.0
 10
208.2642888195231
 20
142.3273521288505
 30
0.0
 10
208.8029828135491
 20
142.5531514905623
 30
0.0
 10
209.0842267066332
 20
142.6405391633762
 30
0.0
 10
209.6726246287122
 20
142.7599220943471
 30
0.0
 10
209.9681875621384
 20
142.7895460171964
 30
0.0
 10
210.5619919022391
 20
142.7906189524415
 30
0.0
 10
210.8640141234566
 20
142.7610474068735
 30
0.0
 10
211.4474346593859
 20
142.6443659000759
 30
0.0
 10
211.7294265090832
 20
142.5582021549606
 30
0.0
 10
212.2750542090435
 20
142.3311269212275
 30
0.0
 10
212.5349904913587
 20
142.1912292268345
 30
0.0
 10
213.018082413834
 20
141.8678300873189
 30
0.0
 10
213.2453708248387
 20
141.6814293363776
 30
0.0
 10
213.6578088306388
 20
141.2699259316956
 30
0.0
 10
213.8420487718261
 20
141.0465872724216
 30
0.0
 10
214.1675737630812
 20
140.5635950910872
 30
0.0
 10
214.3095768379386
 20
140.3010848432534
 30
0.0
 10
214.5367369658806
 20
139.7593416337993
 30
0.0
 10
214.6237116922404
 20
139.4783259377442
 30
0.0
 10
214.7126921246017
 20
139.0405981006633
 30
0.0
 10
214.7354216205212
 20
138.8910518937578
 30
0.0
 10
214.7654880639261
 20
138.5932834767936
 30
0.0
 10
214.7730226332723
 20
138.4445525568505
 30
0.0
 10
214.7736052837323
 20
137.9988108641791
 30
0.0
 10
214.7444826486817
 20
137.7004763743746
 30
0.0
 10
214.6267965780785
 20
137.1127179621916
 30
0.0
 10
214.5400198135374
 20
136.8302199574609
 30
0.0
 10
214.3132635429693
 20
136.2863811314196
 30
0.0
 10
214.1717957718279
 20
136.023789171977
 30
0.0
 10
213.8467583416443
 20
135.5396653191462
 30
0.0
 10
213.662392735039
 20
135.3153318332866
 30
0.0
 10
213.2484858820166
 20
134.9013630303349
 30
0.0
 10
213.0233431986215
 20
134.7164421839323
 30
0.0
 10
212.5418031747222
 20
134.3929543671373
 30
0.0
 10
212.2820151557814
 20
134.25252244489
 30
0.0
 10
211.7371411884463
 20
134.0246306092291
 30
0.0
 10
211.4561980230017
 20
133.9383089602309
 30
0.0
 10
210.8765854231923
 20
133.8209307254
 30
0.0
 10
210.5748318829915
 20
133.7900898306637
 30
0.0
 10
210.2732206945194
 20
133.7900898306637
 30
0.0
  0
SPLINE
  5
122
330
1F
100
AcDbEntity
  8
0
  6
HIDDEN
 62
     7
370
    18
100
AcDbSpline
210
0.0
220
0.0
230
1.0
 70
    11
 71
     3
 72
    74
 73
    70
 74
     0
 42
0.000000001
 43
0.00000001
 40
0.0
 40
0.0
 40
0.0
 40
0.0
 40
0.0312500000000001
 40
0.0312500000000001
 40
0.0625000000000003
 40
0.0625000000000003
 40
0.0937500000000004
 40
0.0937500000000004
 40
0.1250000000000005
 40
0.1250000000000005
 40
0.1562500000000007
 40
0.1562500000000007
 40
0.1875000000000008
 40
0.1875000000000008
 40
0.2031250000000007
 40
0.2031250000000007
 40
0.2187500000000007
 40
0.2187500000000007
 40
0.2500000000000007
 40
0.2500000000000007
 40
0.2812500000000007
 40
0.2812500000000007
 40
0.3125000000000007
 40
0.3125000000000007
 40
0.3437500000000007
 40
0.3437500000000007
 40
0.3750000000000007
 40
0.3750000000000007
 40
0.4062500000000007
 40
0.4062500000000007
 40
0.4375000000000007
 40
0.4375000000000007
 40
0.4687500000000008
 40
0.4687500000000008
 40
0.5000000000000008
 40
0.5000000000000008
 40
0.5312500000000008
 40
0.5312500000000008
 40
0.5625000000000008
 40
0.5625000000000008
 40
0.5937500000000009
 40
0.5937500000000009
 40
0.6250000000000009
 40
0.6250000000000009
 40
0.6562500000000009
 40
0.6562500000000009
 40
0.6875000000000009
 40
0.6875000000000009
 40
0.7187500000000009
 40
0.7187500000000009
 40
0.7343750000000009
 40
0.7343750000000009
 40
0.7500000000000008
 40
0.7500000000000008
 40
0.7812500000000008
 40
0.7812500000000008
 40
0.8125000000000007
 40
0.8125000000000007
 40
0.8437500000000006
 40
0.8437500000000006
 40
0.8750000000000004
 40
0.8750000000000004
 40
0.9062500000000003
 40
0.9062500000000003
 40
0.9375000000000003
 40
0.9375000000000003
 40
0.9687500000000002
 40
0.9687500000000002
 40
1.0
 40
1.0
 40
1.0
 40
1.0
 10
230.2732206945194
 20
133.7900898306637
 30
0.0
 10
229.9716095060473
 20
133.7900898306637
 30
0.0
 10
229.6759826054974
 20
133.8200960818638
 30
0.0
 10
229.0958650376572
 20
133.9367725775172
 30
0.0
 10
228.8084337331611
 20
134.0250246054878
 30
0.0
 10
228.2661156452577
 20
134.2517843025495
 30
0.0
 10
228.0095456631812
 20
134.3899272923045
 30
0.0
 10
227.5238777573611
 20
134.7156519885657
 30
0.0
 10
227.2976740934278
 20
134.9019041856436
 30
0.0
 10
226.8883509167656
 20
135.310771766402
 30
0.0
 10
226.7021710197567
 20
135.5362448296387
 30
0.0
 10
226.3748661370462
 20
136.0231778752669
 30
0.0
 10
226.2365801386291
 20
136.2797867912368
 30
0.0
 10
226.0666838389905
 20
136.6849437298293
 30
0.0
 10
226.0163566994642
 20
136.8233930581196
 30
0.0
 10
225.9288537925865
 20
137.1074797020167
 30
0.0
 10
225.8917750846131
 20
137.253252591591
 30
0.0
 10
225.8034635428521
 20
137.6903737505902
 30
0.0
 10
225.7736680633891
 20
137.9851722648212
 30
0.0
 10
225.772783228007
 20
138.5816566536786
 30
0.0
 10
225.8027214503371
 20
138.8837948775191
 30
0.0
 10
225.9192132575216
 20
139.4650231962058
 30
0.0
 10
226.0060938216209
 20
139.7494349437558
 30
0.0
 10
226.2346828371535
 20
140.2971453563384
 30
0.0
 10
226.3735357983919
 20
140.5544789618038
 30
0.0
 10
226.6983235712617
 20
141.0387460449682
 30
0.0
 10
226.8861257267945
 20
141.2669409900102
 30
0.0
 10
227.2961233764138
 20
141.6769684384409
 30
0.0
 10
227.5193288253614
 20
141.8610168276638
 30
0.0
 10
228.0044259966402
 20
142.1872696653382
 30
0.0
 10
228.2642888195231
 20
142.3273521288505
 30
0.0
 10
228.8029828135491
 20
142.5531514905623
 30
0.0
 10
229.0842267066331
 20
142.6405391633762
 30
0.0
 10
229.6726246287122
 20
142.7599220943471
 30
0.0
 10
229.9681875621384
 20
142.7895460171964
 30
0.0
 10
230.5619919022391
 20
142.7906189524415
 30
0.0
 10
230.8640141234566
 20
142.7610474068735
 30
0.0
 10
231.4474346593859
 20
142.6443659000759
 30
0.0
 10
231.7294265090831
 20
142.5582021549606
 30
0.0
 10
232.2750542090434
 20
142.3311269212275
 30
0.0
 10
232.5349904913586
 20
142.1912292268345
 30
0.0
 10
233.018082413834
 20
141.8678300873189
 30
0.0
 10
233.2453708248387
 20
141.6814293363776
 30
0.0
 10
233.6578088306388
 20
141.2699259316956
 30
0.0
 10
233.8420487718261
 20
141.0465872724216
 30
0.0
 10
234.1675737630812
 20
140.5635950910872
 30
0.0
 10
234.3095768379386
 20
140.3010848432534
 30
0.0
 10
234.5367369658806
 20
139.7593416337993
 30
0.0
 10
234.6237116922404
 20
139.4783259377442
 30
0.0
 10
234.7126921246017
 20
139.0405981006633
 30
0.0
 10
234.7354216205212
 20
138.8910518937578
 30
0.0
 10
234.7654880639261
 20
138.5932834767936
 30
0.0
 10
234.7730226332723
 20
138.4445525568505
 30
0.0
 10
234.7736052837323
 20
137.9988108641791
 30
0.0
 10
234.7444826486818
 20
137.7004763743746
 30
0.0
 10
234.6267965780785
 20
137.1127179621916
 30
0.0
 10
234.5400198135374
 20
136.8302199574609
 30
0.0
 10
234.3132635429694
 20
136.2863811314196
 30
0.0
 10
234.1717957718279
 20
136.023789171977
 30
0.0
 10
233.8467583416443
 20
135.5396653191462
 30
0.0
 10
233.662392735039
 20
135.3153318332866
 30
0.0
 10
233.2484858820166
 20
134.9013630303349
 30
0.0
 10
233.0233431986215
 20
134.7164421839323
 30
0.0
 10
232.5418031747222
 20
134.3929543671373
 30
0.0
 10
232.2820151557814
 20
134.25252244489
 30
0.0
 10
231.7371411884463
 20
134.0246306092291
 30
0.0
 10
231.4561980230017
 20
133.938308960231
 30
0.0
 10
230.8765854231923
 20
133.8209307254
 30
0.0
 10
230.5748318829916
 20
133.7900898306637
 30
0.0
 10
230.2732206945194
 20
133.7900898306637
 30
0.0
  0
LINE
  5
123
330
1F
100
AcDbEntity
  8
0
  6
HIDDEN
 62
     7
370
    18
100
AcDbLine
 10
165.8002527266
 20
147.5210299383
 30
0.0
 11
165.8002527266
 21
129.059149723
 31
0.0
  0
LINE
  5
124
330
1F
100
AcDbEntity
  8
0
  6
HIDDEN
 62
     7
370
    18
100
AcDbLine
 10
169.2002527266
 20
147.2900898307
 30
0.0
 11
169.2002527266
 21
129.2900898307
 31
0.0
  0
LINE
  5
125
330
1F
100
AcDbEntity
  8
0
  6
HIDDEN
 62
     7
370
    18
100
AcDbLine
 10
164.4002527266
 20
147.2900898307
 30
0.0
 11
164.4002527266
 21
129.2900898307
 31
0.0
  0
LINE
  5
126
330
1F
100
AcDbEntity
  8
0
  6
HIDDEN
 62
     7
370
    18
100
AcDbLine
 10
165.4002527266
 20
147.2900898307
 30
0.0
 11
165.4002527266
 21
129.2900898307
 31
0.0
  0
SPLINE
  5
127
330
1F
100
AcDbEntity
  8
0
  6
HIDDEN
 62
     7
370
    18
100
AcDbSpline
210
0.0
220
0.0
230
1.0
 70
     8
 71
     3
 72
    60
 73
    56
 74
     0
 42
0.000000001
 43
0.00000001
 40
0.0
 40
0.0
 40
0.0
 40
0.0
 40
0.0624999999999999
 40
0.0624999999999999
 40
0.1249999999999998
 40
0.1249999999999998
 40
0.1874999999999996
 40
0.1874999999999996
 40
0.2187499999999996
 40
0.2187499999999996
 40
0.2499999999999995
 40
0.2499999999999995
 40
0.3124999999999998
 40
0.3124999999999998
 40
0.3750000000000001
 40
0.3750000000000001
 40
0.4062500000000001
 40
0.4062500000000001
 40
0.4375000000000001
 40
0.4375000000000001
 40
0.4687500000000001
 40
0.4687500000000001
 40
0.5000000000000001
 40
0.5000000000000001
 40
0.5312500000000001
 40
0.5312500000000001
 40
0.5625000000000002
 40
0.5625000000000002
 40
0.5937500000000002
 40
0.5937500000000002
 40
0.6250000000000003
 40
0.6250000000000003
 40
0.6562500000000003
 40
0.6562500000000003
 40
0.6875000000000004
 40
0.6875000000000004
 40
0.7187500000000003
 40
0.7187500000000003
 40
0.7500000000000002
 40
0.7500000000000002
 40
0.7812500000000002
 40
0.7812500000000002
 40
0.8125000000000001
 40
0.8125000000000001
 40
0.8437500000000001
 40
0.8437500000000001
 40
0.875
 40
0.875
 40
0.90625
 40
0.90625
 40
0.9375
 40
0.9375
 40
0.9687500000000001
 40
0.9687500000000001
 40
1.0
 40
1.0
 40
1.0
 40
1.0
 10
175.7732206945194
 20
137.1543081615036
 30
0.0
 10
175.6480307929407
 20
136.933861036888
 30
0.0
 10
175.4911634743725
 20
136.7401273080677
 30
0.0
 10
175.1141259545537
 20
136.4044376093053
 30
0.0
 10
174.9024126481327
 20
136.2704602509925
 30
0.0
 10
174.4365226661839
 20
136.0733335063074
 30
0.0
 10
174.1906834351324
 20
136.0141160940855
 30
0.0
 10
173.8112023820378
 20
135.9869093581949
 30
0.0
 10
173.6834566533438
 20
135.9884026233367
 30
0.0
 10
173.4329904066757
 20
136.0119184291457
 30
0.0
 10
173.3091610238675
 20
136.0338376479499
 30
0.0
 10
172.9419413497689
 20
136.1306742127948
 30
0.0
 10
172.7111723316831
 20
136.2344753342466
 30
0.0
 10
172.2912833702636
 20
136.5131938151746
 30
0.0
 10
172.1070249953761
 20
136.6847561066783
 30
0.0
 10
171.8762766078927
 20
136.9834034679451
 30
0.0
 10
171.8072297581037
 20
137.0898710084474
 30
0.0
 10
171.6886650942982
 20
137.3101543568404
 30
0.0
 10
171.6384567255486
 20
137.4248158732418
 30
0.0
 10
171.5566248731908
 20
137.6634965100185
 30
0.0
 10
171.5252739743081
 20
137.7875421368966
 30
0.0
 10
171.4838795962695
 20
138.035657173005
 30
0.0
 10
171.4733738212053
 20
138.1608948754935
 30
0.0
 10
171.4730708688695
 20
138.4137739310845
 30
0.0
 10
171.4835553984861
 20
138.5416536173211
 30
0.0
 10
171.5246954759475
 20
138.7900756785266
 30
0.0
 10
171.5552735964961
 20
138.9118746052949
 30
0.0
 10
171.6365563048474
 20
139.1506541347693
 30
0.0
 10
171.6875571914093
 20
139.2676956970759
 30
0.0
 10
171.8061242397723
 20
139.4885208950018
 30
0.0
 10
171.8740129930441
 20
139.5934592585646
 30
0.0
 10
172.0271634307817
 20
139.792436591794
 30
0.0
 10
172.1127196023542
 20
139.8864447169882
 30
0.0
 10
172.2954309733134
 20
140.0569374019249
 30
0.0
 10
172.3932382729953
 20
140.1343755969743
 30
0.0
 10
172.6020413849123
 20
140.2735414928626
 30
0.0
 10
172.7136235602002
 20
140.3353233018696
 30
0.0
 10
172.9422693596992
 20
140.4384021724703
 30
0.0
 10
173.0602241706704
 20
140.480406207666
 30
0.0
 10
173.303552615659
 20
140.5451423289628
 30
0.0
 10
173.4298964910021
 20
140.5678155915255
 30
0.0
 10
173.68100247202
 20
140.5916983877066
 30
0.0
 10
173.8066844657429
 20
140.5933016889733
 30
0.0
 10
174.0583065355347
 20
140.5758349502024
 30
0.0
 10
174.1852041558205
 20
140.5563990595624
 30
0.0
 10
174.4303947220817
 20
140.4978058882388
 30
0.0
 10
174.5495838791151
 20
140.4587430370821
 30
0.0
 10
174.78126890347
 20
140.3612333149584
 30
0.0
 10
174.8944437078205
 20
140.3021979606698
 30
0.0
 10
175.1065221247562
 20
140.1683942438303
 30
0.0
 10
175.206310903457
 20
140.0933990276855
 30
0.0
 10
175.393569090446
 20
139.9272039631647
 30
0.0
 10
175.4814641273893
 20
139.8353097644232
 30
0.0
 10
175.6396852030212
 20
139.6399455667088
 30
0.0
 10
175.7106231593129
 20
139.5360996130364
 30
0.0
 10
175.7732206945194
 20
139.4258714998238
 30
0.0
  0
SPLINE
  5
128
330
1F
100
AcDbEntity
  8
0
  6
HIDDEN
 62
     7
370
    18
100
AcDbSpline
210
0.0
220
0.0
230
1.0
 70
     8
 71
     3
 72
    60
 73
    56
 74
     0
 42
0.000000001
 43
0.00000001
 40
0.0
 40
0.0
 40
0.0
 40
0.0
 40
0.0624999999999999
 40
0.0624999999999999
 40
0.1249999999999998
 40
0.1249999999999998
 40
0.1874999999999996
 40
0.1874999999999996
 40
0.2187499999999996
 40
0.2187499999999996
 40
0.2499999999999995
 40
0.2499999999999995
 40
0.3124999999999998
 40
0.3124999999999998
 40
0.3750000000000001
 40
0.3750000000000001
 40
0.4062500000000001
 40
0.4062500000000001
 40
0.4375000000000001
 40
0.4375000000000001
 40
0.4687500000000001
 40
0.4687500000000001
 40
0.5000000000000001
 40
0.5000000000000001
 40
0.5312500000000001
 40
0.5312500000000001
 40
0.5625000000000002
 40
0.5625000000000002
 40
0.5937500000000002
 40
0.5937500000000002
 40
0.6250000000000003
 40
0.6250000000000003
 40
0.6562500000000003
 40
0.6562500000000003
 40
0.6875000000000004
 40
0.6875000000000004
 40
0.7187500000000003
 40
0.7187500000000003
 40
0.7500000000000002
 40
0.7500000000000002
 40
0.7812500000000002
 40
0.7812500000000002
 40
0.8125000000000001
 40
0.8125000000000001
 40
0.8437500000000001
 40
0.8437500000000001
 40
0.875
 40
0.875
 40
0.90625
 40
0.90625
 40
0.9375
 40
0.9375
 40
0.9687500000000001
 40
0.9687500000000001
 40
1.0
 40
1.0
 40
1.0
 40
1.0
 10
175.7732206945194
 20
139.4258714998238
 30
0.0
 10
175.6480307929407
 20
139.6463186244393
 30
0.0
 10
175.4911634743725
 20
139.8400523532597
 30
0.0
 10
175.1141259545537
 20
140.1757420520221
 30
0.0
 10
174.9024126481327
 20
140.3097194103348
 30
0.0
 10
174.4365226661839
 20
140.50684615502
 30
0.0
 10
174.1906834351324
 20
140.5660635672418
 30
0.0
 10
173.8112023820378
 20
140.5932703031325
 30
0.0
 10
173.6834566533438
 20
140.5917770379907
 30
0.0
 10
173.4329904066757
 20
140.5682612321817
 30
0.0
 10
173.3091610238675
 20
140.5463420133775
 30
0.0
 10
172.9419413497689
 20
140.4495054485326
 30
0.0
 10
172.7111723316831
 20
140.3457043270808
 30
0.0
 10
172.2912833702636
 20
140.0669858461527
 30
0.0
 10
172.1070249953761
 20
139.895423554649
 30
0.0
 10
171.8762766078927
 20
139.5967761933822
 30
0.0
 10
171.8072297581037
 20
139.4903086528799
 30
0.0
 10
171.6886650942982
 20
139.270025304487
 30
0.0
 10
171.6384567255486
 20
139.1553637880856
 30
0.0
 10
171.5566248731908
 20
138.9166831513088
 30
0.0
 10
171.5252739743081
 20
138.7926375244307
 30
0.0
 10
171.4838795962695
 20
138.5445224883224
 30
0.0
 10
171.4733738212053
 20
138.4192847858339
 30
0.0
 10
171.4730708688695
 20
138.1664057302429
 30
0.0
 10
171.4835553984861
 20
138.0385260440062
 30
0.0
 10
171.5246954759475
 20
137.7901039828008
 30
0.0
 10
171.5552735964961
 20
137.6683050560324
 30
0.0
 10
171.6365563048474
 20
137.4295255265581
 30
0.0
 10
171.6875571914093
 20
137.3124839642514
 30
0.0
 10
171.8061242397723
 20
137.0916587663255
 30
0.0
 10
171.8740129930441
 20
136.9867204027628
 30
0.0
 10
172.0271634307817
 20
136.7877430695333
 30
0.0
 10
172.1127196023542
 20
136.6937349443392
 30
0.0
 10
172.2954309733134
 20
136.5232422594025
 30
0.0
 10
172.3932382729953
 20
136.4458040643531
 30
0.0
 10
172.6020413849123
 20
136.3066381684648
 30
0.0
 10
172.7136235602002
 20
136.2448563594578
 30
0.0
 10
172.9422693596992
 20
136.141777488857
 30
0.0
 10
173.0602241706704
 20
136.0997734536614
 30
0.0
 10
173.303552615659
 20
136.0350373323646
 30
0.0
 10
173.4298964910021
 20
136.0123640698019
 30
0.0
 10
173.68100247202
 20
135.9884812736207
 30
0.0
 10
173.8066844657429
 20
135.9868779723541
 30
0.0
 10
174.0583065355347
 20
136.004344711125
 30
0.0
 10
174.1852041558205
 20
136.0237806017649
 30
0.0
 10
174.4303947220817
 20
136.0823737730886
 30
0.0
 10
174.5495838791151
 20
136.1214366242452
 30
0.0
 10
174.78126890347
 20
136.218946346369
 30
0.0
 10
174.8944437078205
 20
136.2779817006576
 30
0.0
 10
175.1065221247562
 20
136.4117854174971
 30
0.0
 10
175.206310903457
 20
136.4867806336419
 30
0.0
 10
175.393569090446
 20
136.6529756981626
 30
0.0
 10
175.4814641273893
 20
136.7448698969042
 30
0.0
 10
175.6396852030212
 20
136.9402340946185
 30
0.0
 10
175.7106231593129
 20
137.044080048291
 30
0.0
 10
175.7732206945194
 20
137.1543081615036
 30
0.0
  0
SPLINE
  5
129
330
1F
100
AcDbEntity
  8
0
  6
HIDDEN
 62
     7
370
    18
100
AcDbSpline
210
0.0
220
0.0
230
1.0
 70
     8
 71
     3
 72
    14
 73
    10
 74
     0
 42
0.000000001
 43
0.00000001
 40
0.0
 40
0.0
 40
0.0
 40
0.0
 40
0.2500000000000001
 40
0.2500000000000001
 40
0.5000000000000001
 40
0.5000000000000001
 40
0.75
 40
0.75
 40
1.0
 40
1.0
 40
1.0
 40
1.0
 10
175.7732206945194
 20
139.4258714998238
 30
0.0
 10
175.8714450410223
 20
139.2529080700203
 30
0.0
 10
175.9467598790064
 20
139.0678755155958
 30
0.0
 10
176.0477265892007
 20
138.6848633014613
 30
0.0
 10
176.0731021754909
 20
138.4901447479957
 30
0.0
 10
176.0733384007573
 20
138.0927694467301
 30
0.0
 10
176.0476353314217
 20
137.8952771122547
 30
0.0
 10
175.9473152179052
 20
137.5141052776237
 30
0.0
 10
175.8714233898176
 20
137.3272334656511
 30
0.0
 10
175.773220694524
 20
137.1543081615012
 30
0.0
  0
LINE
  5
12A
330
1F
100
AcDbEntity
  8
0
  6
HIDDEN
 62
     7
370
    18
100
AcDbLine
 10
176.2732206945
 20
146.7900898209
 30
0.0
 11
176.2732206945
 21
129.7900898307
 31
0.0
  0
SPLINE
  5
12B
330
1F
100
AcDbEntity
  8
0
  6
HIDDEN
 62
     7
370
    18
100
AcDbSpline
210
0.0
220
0.0
230
1.0
 70
     8
 71
     3
 72
    14
 73
    10
 74
     0
 42
0.000000001
 43
0.00000001
 40
0.0
 40
0.0
 40
0.0
 40
0.0
 40
0.2500000000000001
 40
0.2500000000000001
 40
0.5000000000000001
 40
0.5000000000000001
 40
0.75
 40
0.75
 40
1.0
 40
1.0
 40
1.0
 40
1.0
 10
175.7732206945194
 20
137.1543081615036
 30
0.0
 10
175.8714450410223
 20
137.3272715913071
 30
0.0
 10
175.9467598790064
 20
137.5123041457315
 30
0.0
 10
176.0477265892007
 20
137.895316359866
 30
0.0
 10
176.0731021754909
 20
138.0900349133316
 30
0.0
 10
176.0733384007573
 20
138.4874102145972
 30
0.0
 10
176.0476353314217
 20
138.6849025490726
 30
0.0
 10
175.9473152179052
 20
139.0660743837037
 30
0.0
 10
175.8714233898176
 20
139.2529461956762
 30
0.0
 10
175.773220694524
 20
139.4258714998261
 30
0.0
  0
LINE
  5
12C
330
1F
100
AcDbEntity
  8
0
  6
HIDDEN
 62
     7
370
    18
100
AcDbLine
 10
177.1732206945
 20
144.5400898307
 30
0.0
 11
177.1732206945
 21
132.0400898307
 31
0.0
  0
LINE
  5
12D
330
1F
100
AcDbEntity
  8
0
  6
HIDDEN
 62
     7
370
    18
100
AcDbLine
 10
176.2732206945
 20
131.1400898307
 30
0.0
 11
176.2732206945
 21
145.4400898307
 31
0.0
  0
LINE
  5
12E
330
1F
100
AcDbEntity
  8
0
  6
HIDDEN
 62
     7
370
    18
100
AcDbLine
 10
192.2732206945
 20
132.0400898307
 30
0.0
 11
192.2732206945
 21
144.5272485354
 31
0.0
  0
LINE
  5
12F
330
1F
100
AcDbEntity
  8
0
  6
HIDDEN
 62
     7
370
    18
100
AcDbLine
 10
162.7732206945
 20
151.7876202165
 30
0.0
 11
162.7732206945
 21
147.9477007504
 31
0.0
  0
LINE
  5
130
330
1F
100
AcDbEntity
  8
0
  6
HIDDEN
 62
     7
370
    18
100
AcDbLine
 10
161.2732206945
 20
150.9215948127
 30
0.0
 11
161.2732206945
 21
147.5146880485
 31
0.0
  0
LINE
  5
131
330
1F
100
AcDbEntity
  8
0
  6
HIDDEN
 62
     7
370
    18
100
AcDbLine
 10
183.5732206945
 20
152.3101886152
 30
0.0
 11
183.5732206945
 21
152.210326219
 31
0.0
  0
SPLINE
  5
132
330
1F
100
AcDbEntity
  8
0
  6
HIDDEN
 62
     7
370
    18
100
AcDbSpline
210
0.0
220
0.0
230
1.0
 70
     8
 71
     3
 72
    24
 73
    20
 74
     0
 42
0.000000001
 43
0.00000001
 40
0.0
 40
0.0
 40
0.0
 40
0.0
 40
0.2500000000000115
 40
0.2500000000000115
 40
0.3750000000000161
 40
0.3750000000000161
 40
0.4375000000000187
 40
0.4375000000000187
 40
0.5000000000000212
 40
0.5000000000000212
 40
0.5312500000000211
 40
0.5312500000000211
 40
0.562500000000021
 40
0.562500000000021
 40
0.6250000000000178
 40
0.6250000000000178
 40
0.7500000000000111
 40
0.7500000000000111
 40
1.0
 40
1.0
 40
1.0
 40
1.0
 10
183.7781807165798
 20
152.0291743618236
 30
0.0
 10
183.7624141282814
 20
152.0149533908354
 30
0.0
 10
183.7458025953268
 20
152.0007231005006
 30
0.0
 10
183.7172762473688
 20
151.9819260452791
 30
0.0
 10
183.7071908135788
 20
151.9760376249378
 30
0.0
 10
183.6897080430439
 20
151.9695002301355
 30
0.0
 10
183.6835003865983
 20
151.9676890161343
 30
0.0
 10
183.6692288863532
 20
151.9660832136278
 30
0.0
 10
183.6616588158501
 20
151.9655304362417
 30
0.0
 10
183.6442624864148
 20
151.9727291809545
 30
0.0
 10
183.6358032134547
 20
151.9778209297022
 30
0.0
 10
183.6197422489072
 20
151.9956358621814
 30
0.0
 10
183.6149090130609
 20
152.0041582770437
 30
0.0
 10
183.6034830933257
 20
152.0260547136925
 30
0.0
 10
183.5994617374432
 20
152.0377952364984
 30
0.0
 10
183.588701242412
 20
152.0718455004518
 30
0.0
 10
183.5848269333512
 20
152.0914204894804
 30
0.0
 10
183.575654061224
 20
152.1472687981616
 30
0.0
 10
183.5736216905092
 20
152.1800465591905
 30
0.0
 10
183.5732206945194
 20
152.2103262189784
 30
0.0
  0
SPLINE
  5
133
330
1F
100
AcDbEntity
  8
0
  6
HIDDEN
 62
     7
370
    18
100
AcDbSpline
210
0.0
220
0.0
230
1.0
 70
     8
 71
     3
 72
     8
 73
     4
 74
     0
 42
0.000000001
 43
0.00000001
 40
0.0
 40
0.0
 40
0.0
 40
0.0
 40
1.0
 40
1.0
 40
1.0
 40
1.0
 10
183.9519003509598
 20
152.1151538386688
 30
0.0
 10
183.8867951893457
 20
152.1034328090102
 30
0.0
 10
183.8289078597857
 20
152.0749286631475
 30
0.0
 10
183.7781807165797
 20
152.0291743618237
 30
0.0
  0
LINE
  5
134
330
1F
100
AcDbEntity
  8
0
  6
HIDDEN
 62
     7
370
    18
100
AcDbLine
 10
183.5732206945
 20
149.2641278229
 30
0.0
 11
183.5732206945
 21
148.2089849498
 31
0.0
  0
SPLINE
  5
135
330
1F
100
AcDbEntity
  8
0
  6
HIDDEN
 62
     7
370
    18
100
AcDbSpline
210
0.0
220
0.0
230
1.0
 70
     8
 71
     3
 72
    16
 73
    12
 74
     0
 42
0.000000001
 43
0.00000001
 40
0.0
 40
0.0
 40
0.0
 40
0.0
 40
0.2499999999999998
 40
0.2499999999999998
 40
0.3749999999999997
 40
0.3749999999999997
 40
0.4999999999999996
 40
0.4999999999999996
 40
0.7499999999999998
 40
0.7499999999999998
 40
1.0
 40
1.0
 40
1.0
 40
1.0
 10
183.5732206945192
 20
152.2103262189786
 30
0.0
 10
183.4926833626197
 20
152.130257532826
 30
0.0
 10
183.4326460185924
 20
152.0063930413354
 30
0.0
 10
183.3719083114387
 20
151.7557122174025
 30
0.0
 10
183.3565859363258
 20
151.6612736130926
 30
0.0
 10
183.3360031270217
 20
151.4499625454732
 30
0.0
 10
183.3308035299961
 20
151.3326730907192
 30
0.0
 10
183.3307498768163
 20
150.9546374189626
 30
0.0
 10
183.3509474202943
 20
150.6658602652175
 30
0.0
 10
183.4316255086529
 20
150.0160204020764
 30
0.0
 10
183.4926716732608
 20
149.6531914681824
 30
0.0
 10
183.5732206945194
 20
149.2641278229094
 30
0.0
  0
SPLINE
  5
136
330
1F
100
AcDbEntity
  8
0
  6
HIDDEN
 62
     7
370
    18
100
AcDbSpline
210
0.0
220
0.0
230
1.0
 70
     8
 71
     3
 72
     8
 73
     4
 74
     0
 42
0.000000001
 43
0.00000001
 40
0.0
 40
0.0
 40
0.0
 40
0.0
 40
1.0
 40
1.0
 40
1.0
 40
1.0
 10
183.778180716577
 20
124.5510052995061
 30
0.0
 10
183.8289078597837
 20
124.5052509981809
 30
0.0
 10
183.8867951893446
 20
124.4767468523173
 30
0.0
 10
183.9519003509598
 20
124.4650258226585
 30
0.0
  0
LINE
  5
137
330
1F
100
AcDbEntity
  8
0
  6
HIDDEN
 62
     7
370
    18
100
AcDbLine
 10
183.5732206945
 20
124.3698534423
 30
0.0
 11
183.5732206945
 21
124.2699910461
 31
0.0
  0
SPLINE
  5
138
330
1F
100
AcDbEntity
  8
0
  6
HIDDEN
 62
     7
370
    18
100
AcDbSpline
210
0.0
220
0.0
230
1.0
 70
     8
 71
     3
 72
    24
 73
    20
 74
     0
 42
0.000000001
 43
0.00000001
 40
0.0
 40
0.0
 40
0.0
 40
0.0
 40
0.2500000000000101
 40
0.2500000000000101
 40
0.375000000000015
 40
0.375000000000015
 40
0.4375000000000164
 40
0.4375000000000164
 40
0.4687500000000158
 40
0.4687500000000158
 40
0.5000000000000152
 40
0.5000000000000152
 40
0.5625000000000131
 40
0.5625000000000131
 40
0.6250000000000109
 40
0.6250000000000109
 40
0.7500000000000071
 40
0.7500000000000071
 40
1.0
 40
1.0
 40
1.0
 40
1.0
 10
183.5732206945193
 20
124.3698534423485
 30
0.0
 10
183.5736236051547
 20
124.4002776791867
 30
0.0
 10
183.575667584495
 20
124.4331357797411
 30
0.0
 10
183.5849048273204
 20
124.489161146895
 30
0.0
 10
183.5887918903008
 20
124.5087722000805
 30
0.0
 10
183.5996957817063
 20
124.5430464835096
 30
0.0
 10
183.6038378274567
 20
124.5551089089818
 30
0.0
 10
183.6157329012068
 20
124.5774280736797
 30
0.0
 10
183.6209799655138
 20
124.5863945860386
 30
0.0
 10
183.6378470318892
 20
124.6040441505668
 30
0.0
 10
183.6456694394186
 20
124.6081884347117
 30
0.0
 10
183.6626182400431
 20
124.6146759758892
 30
0.0
 10
183.6700745912613
 20
124.6140790945175
 30
0.0
 10
183.6841344944545
 20
124.6123328305461
 30
0.0
 10
183.6902668795908
 20
124.6105021426477
 30
0.0
 10
183.7075616421147
 20
124.603935733075
 30
0.0
 10
183.7175789605239
 20
124.5980705179162
 30
0.0
 10
183.7459502947675
 20
124.5793258338856
 30
0.0
 10
183.7624857324122
 20
124.5651616857987
 30
0.0
 10
183.7781807165771
 20
124.5510052995061
 30
0.0
  0
LINE
  5
139
330
1F
100
AcDbEntity
  8
0
  6
HIDDEN
 62
     7
370
    18
100
AcDbLine
 10
183.5732206945
 20
128.3711947116
 30
0.0
 11
183.5732206945
 21
127.3160518384
 31
0.0
  0
LINE
  5
13A
330
1F
100
AcDbEntity
  8
0
  6
HIDDEN
 62
     7
370
    18
100
AcDbLine
 10
162.7732206945
 20
128.6324789109
 30
0.0
 11
162.7732206945
 21
124.7925594448
 31
0.0
  0
SPLINE
  5
13B
330
1F
100
AcDbEntity
  8
0
  6
HIDDEN
 62
     7
370
    18
100
AcDbSpline
210
0.0
220
0.0
230
1.0
 70
     8
 71
     3
 72
    16
 73
    12
 74
     0
 42
0.000000001
 43
0.00000001
 40
0.0
 40
0.0
 40
0.0
 40
0.0
 40
0.2500000000000006
 40
0.2500000000000006
 40
0.3750000000000006
 40
0.3750000000000006
 40
0.5000000000000007
 40
0.5000000000000007
 40
0.7500000000000003
 40
0.7500000000000003
 40
1.0
 40
1.0
 40
1.0
 40
1.0
 10
183.5732206945192
 20
127.3160518384172
 30
0.0
 10
183.4926833626197
 20
126.9270446544717
 30
0.0
 10
183.4326460185924
 20
126.5705442128461
 30
0.0
 10
183.3719083114387
 20
126.0840418276572
 30
0.0
 10
183.3565859363258
 20
125.9299628868033
 30
0.0
 10
183.3360031270217
 20
125.6384933283099
 30
0.0
 10
183.3308035299961
 20
125.5009234444108
 30
0.0
 10
183.3307498768163
 20
125.122678609221
 30
0.0
 10
183.3509474202943
 20
124.9127975406689
 30
0.0
 10
183.4316255086529
 20
124.5762182417578
 30
0.0
 10
183.4926716732608
 20
124.44993374984
 30
0.0
 10
183.5732206945194
 20
124.3698534423486
 30
0.0
  0
LINE
  5
13C
330
1F
100
AcDbEntity
  8
0
  6
HIDDEN
 62
     7
370
    18
100
AcDbLine
 10
161.2732206945
 20
129.0654916128
 30
0.0
 11
161.2732206945
 21
125.6585848486
 31
0.0
  0
LINE
  5
13D
330
1F
100
AcDbEntity
  8
0
  6
HIDDEN
 62
     7
370
    18
100
AcDbLine
 10
161.2732206945
 20
147.5146880485
 30
0.0
 11
161.2732206945
 21
140.1403036443
 31
0.0
  0
LINE
  5
13E
330
1F
100
AcDbEntity
  8
0
  6
HIDDEN
 62
     7
370
    18
100
AcDbLine
 10
161.2732206945
 20
136.439876017
 30
0.0
 11
161.2732206945
 21
129.0654916128
 31
0.0
  0
SPLINE
  5
13F
330
1F
100
AcDbEntity
  8
0
  6
HIDDEN
 62
     7
370
    18
100
AcDbSpline
210
0.0
220
0.0
230
1.0
 70
     8
 71
     3
 72
    24
 73
    20
 74
     0
 42
0.000000001
 43
0.00000001
 40
0.0
 40
0.0
 40
0.0
 40
0.0
 40
0.2500000000000144
 40
0.2500000000000144
 40
0.3750000000000185
 40
0.3750000000000185
 40
0.4375000000000188
 40
0.4375000000000188
 40
0.5000000000000191
 40
0.5000000000000191
 40
0.5312500000000194
 40
0.5312500000000194
 40
0.5625000000000197
 40
0.5625000000000197
 40
0.6250000000000163
 40
0.6250000000000163
 40
0.7500000000000118
 40
0.7500000000000118
 40
1.0
 40
1.0
 40
1.0
 40
1.0
 10
183.7781807165798
 20
127.4974961038655
 30
0.0
 10
183.7624118392224
 20
127.4236374119359
 30
0.0
 10
183.7457978573724
 20
127.3499260232001
 30
0.0
 10
183.7172661913673
 20
127.2383791995781
 30
0.0
 10
183.7071787765486
 20
127.2010076264496
 30
0.0
 10
183.6896912160942
 20
127.1441081288119
 30
0.0
 10
183.683481654311
 20
127.1250050286666
 30
0.0
 10
183.6692041006583
 20
127.086131514431
 30
0.0
 10
183.661632552863
 20
127.0662068549977
 30
0.0
 10
183.6442149691847
 20
127.0361346369703
 30
0.0
 10
183.6357324725396
 20
127.0244532581672
 30
0.0
 10
183.6196941606678
 20
127.0171917474185
 30
0.0
 10
183.6148736124643
 20
127.0207699944283
 30
0.0
 10
183.6034643879163
 20
127.0325308496599
 30
0.0
 10
183.5994439074588
 20
127.0441964997105
 30
0.0
 10
183.5886900526385
 20
127.080731829824
 30
0.0
 10
183.5848173713563
 20
127.1081275631476
 30
0.0
 10
183.5756492215187
 20
127.1928535549036
 30
0.0
 10
183.5736207161496
 20
127.2536856770757
 30
0.0
 10
183.5732206945194
 20
127.3160518384173
 30
0.0
  0
SPLINE
  5
140
330
1F
100
AcDbEntity
  8
0
  6
HIDDEN
 62
     7
370
    18
100
AcDbSpline
210
0.0
220
0.0
230
1.0
 70
     8
 71
     3
 72
    24
 73
    20
 74
     0
 42
0.000000001
 43
0.00000001
 40
0.0
 40
0.0
 40
0.0
 40
0.0
 40
0.2499999999999795
 40
0.2499999999999795
 40
0.374999999999971
 40
0.374999999999971
 40
0.4374999999999687
 40
0.4374999999999687
 40
0.4687499999999683
 40
0.4687499999999683
 40
0.4999999999999679
 40
0.4999999999999679
 40
0.562499999999971
 40
0.562499999999971
 40
0.624999999999974
 40
0.624999999999974
 40
0.7499999999999828
 40
0.7499999999999828
 40
1.0
 40
1.0
 40
1.0
 40
1.0
 10
183.5732206945157
 20
149.2641278229123
 30
0.0
 10
183.5736253640914
 20
149.3272186314058
 30
0.0
 10
183.5756688109056
 20
149.3884043539091
 30
0.0
 10
183.5850683761595
 20
149.4739040864123
 30
0.0
 10
183.5890192696881
 20
149.5014844698538
 30
0.0
 10
183.6001715779844
 20
149.5379385519665
 30
0.0
 10
183.6043931189108
 20
149.5497969736612
 30
0.0
 10
183.616600840473
 20
149.5604170250386
 30
0.0
 10
183.6223916107232
 20
149.5632503922629
 30
0.0
 10
183.639313123833
 20
149.5519358052705
 30
0.0
 10
183.6467192397843
 20
149.5401549195163
 30
0.0
 10
183.663176493029
 20
149.5101140782861
 30
0.0
 10
183.6706330109401
 20
149.4904011246727
 30
0.0
 10
183.6845409402152
 20
149.4519990586121
 30
0.0
 10
183.6906328861103
 20
149.4331174087004
 30
0.0
 10
183.7078271784618
 20
149.3768164981681
 30
0.0
 10
183.7178121286655
 20
149.339740420358
 30
0.0
 10
183.7460581737648
 20
149.2290817494668
 30
0.0
 10
183.7625377107261
 20
149.1559526890574
 30
0.0
 10
183.778180716586
 20
149.0826835574327
 30
0.0
  0
SPLINE
  5
141
330
1F
100
AcDbEntity
  8
0
  6
HIDDEN
 62
     7
370
    18
100
AcDbSpline
210
0.0
220
0.0
230
1.0
 70
     8
 71
     3
 72
     8
 73
     4
 74
     0
 42
0.000000001
 43
0.00000001
 40
0.0
 40
0.0
 40
0.0
 40
0.0
 40
1.0
 40
1.0
 40
1.0
 40
1.0
 10
183.9519003509598
 20
128.2365705130569
 30
0.0
 10
183.8867951893457
 20
127.9815452778512
 30
0.0
 10
183.8289078597857
 20
127.73509326171
 30
0.0
 10
183.7781807165797
 20
127.4974961038654
 30
0.0
  0
SPLINE
  5
142
330
1F
100
AcDbEntity
  8
0
  6
HIDDEN
 62
     7
370
    18
100
AcDbSpline
210
0.0
220
0.0
230
1.0
 70
     8
 71
     3
 72
     8
 73
     4
 74
     0
 42
0.000000001
 43
0.00000001
 40
0.0
 40
0.0
 40
0.0
 40
0.0
 40
1.0
 40
1.0
 40
1.0
 40
1.0
 10
183.778180716586
 20
149.0826835574327
 30
0.0
 10
183.8289078597905
 20
148.8450863995971
 30
0.0
 10
183.8867951893484
 20
148.5986343834657
 30
0.0
 10
183.9519003509598
 20
148.3436091482704
 30
0.0
  0
LINE
  5
143
330
1F
100
AcDbEntity
  8
0
  6
HIDDEN
 62
     7
370
    18
100
AcDbLine
 10
162.7732206945
 20
135.7350615936
 30
0.0
 11
162.7732206945
 21
128.6324789109
 31
0.0
  0
LINE
  5
144
330
1F
100
AcDbEntity
  8
0
  6
HIDDEN
 62
     7
370
    18
100
AcDbLine
 10
162.7732206945
 20
147.9477007504
 30
0.0
 11
162.7732206945
 21
140.8451180677
 31
0.0
  0
LINE
  5
145
330
1F
100
AcDbEntity
  8
0
  6
HIDDEN
 62
     7
370
    18
100
AcDbLine
 10
183.5732206945
 20
148.2089849498
 30
0.0
 11
183.5732206945
 21
128.3711947116
 31
0.0
  0
LINE
  5
146
330
1F
100
AcDbEntity
  8
0
  6
HIDDEN
 62
     7
370
    18
100
AcDbLine
 10
185.0732206945
 20
146.7694569704
 30
0.0
 11
185.0732206945
 21
129.810722691
 31
0.0
  0
SPLINE
  5
147
330
1F
100
AcDbEntity
  8
0
  6
HIDDEN
 62
     7
370
    18
100
AcDbSpline
210
0.0
220
0.0
230
1.0
 70
     8
 71
     3
 72
    22
 73
    18
 74
     0
 42
0.000000001
 43
0.00000001
 40
0.0
 40
0.0
 40
0.0
 40
0.0
 40
0.125
 40
0.125
 40
0.25
 40
0.25
 40
0.3749999999999999
 40
0.3749999999999999
 40
0.4999999999999999
 40
0.4999999999999999
 40
0.6249999999999999
 40
0.6249999999999999
 40
0.7499999999999999
 40
0.7499999999999999
 40
0.875
 40
0.875
 40
1.0
 40
1.0
 40
1.0
 40
1.0
 10
165.4732206945194
 20
135.6971451508357
 30
0.0
 10
165.6541570525956
 20
135.8887650101423
 30
0.0
 10
165.8332525013724
 20
136.0824068745294
 30
0.0
 10
166.1840924898844
 20
136.4770621279137
 30
0.0
 10
166.3562855977891
 20
136.6780736585813
 30
0.0
 10
166.6820171034084
 20
137.094284773815
 30
0.0
 10
166.8380933385767
 20
137.3103006141017
 30
0.0
 10
167.0894725524658
 20
137.7756233772665
 30
0.0
 10
167.1833376827846
 20
138.0311625702893
 30
0.0
 10
167.1796097659224
 20
138.5654932053899
 30
0.0
 10
167.082237123435
 20
138.8209140713907
 30
0.0
 10
166.8304163144412
 20
139.2809427873383
 30
0.0
 10
166.6754470589686
 20
139.4947797882669
 30
0.0
 10
166.3506343012433
 20
139.9088183709606
 30
0.0
 10
166.1797412371154
 20
140.1081108429965
 30
0.0
 10
165.8311069975879
 20
140.5000857354306
 30
0.0
 10
165.6530991470593
 20
140.69253502142
 30
0.0
 10
165.4732206945194
 20
140.8830345104916
 30
0.0
  0
LINE
  5
148
330
1F
100
AcDbEntity
  8
0
  6
HIDDEN
 62
     7
370
    18
100
AcDbLine
 10
165.4732206945
 20
135.6971451508
 30
0.0
 11
165.4732206945
 21
140.8830345105
 31
0.0
  0
SPLINE
  5
149
330
1F
100
AcDbEntity
  8
0
  6
HIDDEN
 62
     7
370
    18
100
AcDbSpline
210
0.0
220
0.0
230
1.0
 70
     8
 71
     3
 72
     8
 73
     4
 74
     0
 42
0.000000001
 43
0.00000001
 40
0.0000137051794235
 40
0.0000137051794235
 40
0.0000137051794235
 40
0.0000137051794235
 40
0.0027147144718019
 40
0.0027147144718019
 40
0.0027147144718019
 40
0.0027147144718019
 10
162.7732206945194
 20
135.7350615936019
 30
0.0
 10
163.6732168300142
 20
135.7220900264036
 30
0.0
 10
164.5732170086096
 20
135.7094551690915
 30
0.0
 10
165.4732206945194
 20
135.6971451508357
 30
0.0
  0
SPLINE
  5
14A
330
1F
100
AcDbEntity
  8
0
  6
HIDDEN
 62
     7
370
    18
100
AcDbSpline
210
0.0
220
0.0
230
1.0
 70
     8
 71
     3
 72
     8
 73
     4
 74
     0
 42
0.000000001
 43
0.00000001
 40
0.0000137050638847
 40
0.0000137050638847
 40
0.0000137050638847
 40
0.0000137050638847
 40
0.0027147143562631
 40
0.0027147143562631
 40
0.0027147143562631
 40
0.0027147143562631
 10
165.4732206945194
 20
140.8830345104916
 30
0.0
 10
164.5732170086096
 20
140.8707244922359
 30
0.0
 10
163.6732168300142
 20
140.8580896349238
 30
0.0
 10
162.7732206945194
 20
140.8451180677254
 30
0.0
  0
SPLINE
  5
14B
330
1F
100
AcDbEntity
  8
0
  6
HIDDEN
 62
     7
370
    18
100
AcDbSpline
210
0.0
220
0.0
230
1.0
 70
     8
 71
     3
 72
    10
 73
     6
 74
     0
 42
0.000000001
 43
0.00000001
 40
0.0
 40
0.0
 40
0.0
 40
0.0
 40
0.5
 40
0.5
 40
1.0
 40
1.0
 40
1.0
 40
1.0
 10
161.2732206945194
 20
136.439876017013
 30
0.0
 10
161.5103626552351
 20
136.2842612024843
 30
0.0
 10
161.7557054139984
 20
136.1523521730651
 30
0.0
 10
162.2569690027312
 20
135.9206952964277
 30
0.0
 10
162.5130035719814
 20
135.821249680305
 30
0.0
 10
162.7732206945194
 20
135.7350615936019
 30
0.0
  0
SPLINE
  5
14C
330
1F
100
AcDbEntity
  8
0
  6
HIDDEN
 62
     7
370
    18
100
AcDbSpline
210
0.0
220
0.0
230
1.0
 70
     8
 71
     3
 72
    10
 73
     6
 74
     0
 42
0.000000001
 43
0.00000001
 40
0.0
 40
0.0
 40
0.0
 40
0.0
 40
0.5
 40
0.5
 40
1.0
 40
1.0
 40
1.0
 40
1.0
 10
162.7732206945194
 20
140.8451180677254
 30
0.0
 10
162.5130035719814
 20
140.7589299810224
 30
0.0
 10
162.2569690027312
 20
140.6594843648996
 30
0.0
 10
161.7557054139985
 20
140.4278274882623
 30
0.0
 10
161.5103626552351
 20
140.2959184588431
 30
0.0
 10
161.2732206945194
 20
140.1403036443144
 30
0.0
  0
LINE
  5
14D
330
1F
100
AcDbEntity
  8
0
  6
HIDDEN
 62
     7
370
    18
100
AcDbLine
 10
161.2732206945
 20
136.439876017
 30
0.0
 11
161.2732206945
 21
140.1403036443
 31
0.0
  0
SPLINE
  5
14E
330
1F
100
AcDbEntity
  8
0
  6
HIDDEN
 62
     7
370
    18
100
AcDbSpline
210
0.0
220
0.0
230
1.0
 70
    11
 71
     3
 72
    62
 73
    58
 74
     0
 42
0.000000001
 43
0.00000001
 40
0.0
 40
0.0
 40
0.0
 40
0.0
 40
0.0312499999999998
 40
0.0312499999999998
 40
0.0624999999999997
 40
0.0624999999999997
 40
0.0937499999999995
 40
0.0937499999999995
 40
0.1249999999999994
 40
0.1249999999999994
 40
0.1874999999999994
 40
0.1874999999999994
 40
0.2499999999999994
 40
0.2499999999999994
 40
0.2812499999999993
 40
0.2812499999999993
 40
0.3124999999999992
 40
0.3124999999999992
 40
0.3437499999999991
 40
0.3437499999999991
 40
0.3749999999999989
 40
0.3749999999999989
 40
0.4374999999999987
 40
0.4374999999999987
 40
0.4687499999999986
 40
0.4687499999999986
 40
0.4999999999999984
 40
0.4999999999999984
 40
0.5624999999999984
 40
0.5624999999999984
 40
0.5937499999999986
 40
0.5937499999999986
 40
0.6249999999999986
 40
0.6249999999999986
 40
0.6562499999999987
 40
0.6562499999999987
 40
0.6874999999999987
 40
0.6874999999999987
 40
0.7187499999999988
 40
0.7187499999999988
 40
0.7499999999999988
 40
0.7499999999999988
 40
0.7812499999999989
 40
0.7812499999999989
 40
0.812499999999999
 40
0.812499999999999
 40
0.8437499999999991
 40
0.8437499999999991
 40
0.8749999999999993
 40
0.8749999999999993
 40
0.9062499999999994
 40
0.9062499999999994
 40
0.9374999999999997
 40
0.9374999999999997
 40
0.9687499999999998
 40
0.9687499999999998
 40
1.0
 40
1.0
 40
1.0
 40
1.0
 10
171.8407429957418
 20
139.9027421402504
 30
0.0
 10
171.9544931690359
 20
140.0274154111807
 30
0.0
 10
172.0789556979534
 20
140.1390130886376
 30
0.0
 10
172.3480499641052
 20
140.337663884456
 30
0.0
 10
172.4938630556945
 20
140.4250041292447
 30
0.0
 10
172.7950299339838
 20
140.5691998818869
 30
0.0
 10
172.9513656610482
 20
140.6270195524012
 30
0.0
 10
173.2754889603826
 20
140.7142731644522
 30
0.0
 10
173.4421541720931
 20
140.743075213934
 30
0.0
 10
173.940170438725
 20
140.7838545192018
 30
0.0
 10
174.280841387518
 20
140.7504112590606
 30
0.0
 10
174.9198523029395
 20
140.5679586146018
 30
0.0
 10
175.2263069100033
 20
140.416534054289
 30
0.0
 10
175.6228628192657
 20
140.1160361487047
 30
0.0
 10
175.7472120101152
 20
140.0017749635093
 30
0.0
 10
175.9696761041644
 20
139.7521150929368
 30
0.0
 10
176.0672414426417
 20
139.6179484849377
 30
0.0
 10
176.2344970462804
 20
139.330479390439
 30
0.0
 10
176.3045827017995
 20
139.1752125405391
 30
0.0
 10
176.4086380625211
 20
138.8582331204521
 30
0.0
 10
176.4436138251885
 20
138.6955803689476
 30
0.0
 10
176.4954783447126
 20
138.1946433487451
 30
0.0
 10
176.4561722369411
 20
137.8544887474347
 30
0.0
 10
176.2934524444803
 20
137.3779941153376
 30
0.0
 10
176.2231719465941
 20
137.2269267555102
 30
0.0
 10
176.051838801464
 20
136.9396321850693
 30
0.0
 10
175.9504465602823
 20
136.8037744067719
 30
0.0
 10
175.6138469730591
 20
136.4349660117737
 30
0.0
 10
175.3386142068945
 20
136.2325409024426
 30
0.0
 10
174.8888309795486
 20
136.0154641758338
 30
0.0
 10
174.7300311810449
 20
135.9561619037596
 30
0.0
 10
174.4074694601653
 20
135.8681893859591
 30
0.0
 10
174.243610348198
 20
135.8390696221128
 30
0.0
 10
173.9107775748441
 20
135.8102130070026
 30
0.0
 10
173.7407252834033
 20
135.8108365302166
 30
0.0
 10
173.4084496193836
 20
135.842092974021
 30
0.0
 10
173.2447350076349
 20
135.8724116690728
 30
0.0
 10
172.9222695220605
 20
135.9631287080758
 30
0.0
 10
172.763758423534
 20
136.0238976167776
 30
0.0
 10
172.4652047173361
 20
136.1714082915746
 30
0.0
 10
172.3233785881341
 20
136.2585433194385
 30
0.0
 10
172.0554568495757
 20
136.4611287860105
 30
0.0
 10
171.9313634191832
 20
136.5754669526527
 30
0.0
 10
171.710229231265
 20
136.8236533906054
 30
0.0
 10
171.6117722291663
 20
136.9586860074593
 30
0.0
 10
171.4424137154314
 20
137.250690405514
 30
0.0
 10
171.3742468777254
 20
137.4028261519496
 30
0.0
 10
171.270512911399
 20
137.7192351003896
 30
0.0
 10
171.2348443495299
 20
137.8857315697439
 30
0.0
 10
171.2006305848773
 20
138.2189934458544
 30
0.0
 10
171.2014889877064
 20
138.3856558996762
 30
0.0
 10
171.239285767656
 20
138.7190440988938
 30
0.0
 10
171.27662852311
 20
138.8847996713733
 30
0.0
 10
171.3838781061785
 20
139.200690987836
 30
0.0
 10
171.4546393227176
 20
139.3539703209081
 30
0.0
 10
171.6267624728183
 20
139.6433473633946
 30
0.0
 10
171.7269928224477
 20
139.77806886932
 30
0.0
 10
171.8407429957418
 20
139.9027421402504
 30
0.0
  0
CIRCLE
  5
14F
330
1F
100
AcDbEntity
  8
0
  6
HIDDEN
 62
     7
370
    18
100
AcDbCircle
 10
173.7732206945
 20
138.2900898307
 30
0.0
 40
2.300000000000011
  0
CIRCLE
  5
150
330
1F
100
AcDbEntity
  8
0
  6
HIDDEN
 62
     7
370
    18
100
AcDbCircle
 10
197.2732206945
 20
138.2900898307
 30
0.0
 40
2.0
  0
LINE
  5
151
330
1F
100
AcDbEntity
  8
0
  6
HIDDEN
 62
     7
370
    18
100
AcDbLine
 10
185.2732206945
 20
122.4900898307
 30
0.0
 11
185.3661139133
 21
122.5829830495
 31
0.0
  0
LINE
  5
152
330
1F
100
AcDbEntity
  8
0
  6
HIDDEN
 62
     7
370
    18
100
AcDbLine
 10
185.3661139133
 20
153.9971966119
 30
0.0
 11
185.2732206945
 21
154.0900898307
 31
0.0
  0
ARC
  5
153
330
1F
100
AcDbEntity
  8
0
  6
HIDDEN
 62
     7
370
    18
100
AcDbCircle
 10
184.6590071321
 20
123.2900898307
 30
0.0
 40
1.000000000000008
100
AcDbArc
 50
315.0
 51
0.0
  0
ARC
  5
154
330
1F
100
AcDbEntity
  8
0
  6
HIDDEN
 62
     7
370
    18
100
AcDbCircle
 10
184.6590071321
 20
123.2900898307
 30
0.0
 40
1.0
100
AcDbArc
 50
0.0
 51
52.1052014664
  0
ARC
  5
155
330
1F
100
AcDbEntity
  8
0
  6
HIDDEN
 62
     7
370
    18
100
AcDbCircle
 10
184.6590071321
 20
153.2900898307
 30
0.0
 40
0.999999999999988
100
AcDbArc
 50
351.8087250651
 51
45.0
  0
ARC
  5
156
330
1F
100
AcDbEntity
  8
0
  6
HIDDEN
 62
     7
370
    18
100
AcDbCircle
 10
184.6590071321
 20
153.2900898307
 30
0.0
 40
0.9999999999999989
100
AcDbArc
 50
307.8947985336
 51
351.8087250651
  0
LINE
  5
157
330
1F
100
AcDbEntity
  8
0
  6
HIDDEN
 62
     7
370
    18
100
AcDbLine
 10
185.6590071321
 20
123.2900898307
 30
0.0
 11
185.6590071321
 21
153.2900898307
 31
0.0
  0
LINE
  5
158
330
1F
100
AcDbEntity
  8
0
  6
HIDDEN
 62
     7
370
    18
100
AcDbLine
 10
185.6590071321
 20
123.2900898307
 30
0.0
 11
185.6590071321
 21
153.2900898307
 31
0.0
  0
ARC
  5
159
330
1F
100
AcDbEntity
  8
0
  6
HIDDEN
 62
     7
370
    18
100
AcDbCircle
 10
244.0732206945
 20
127.0900898307
 30
0.0
 40
1.200000000000045
100
AcDbArc
 50
0.0
 51
90.0
  0
ARC
  5
15A
330
1F
100
AcDbEntity
  8
0
  6
HIDDEN
 62
     7
370
    18
100
AcDbCircle
 10
244.0732206945
 20
149.4900898307
 30
0.0
 40
1.200000000000045
100
AcDbArc
 50
270.0
 51
0.0
  0
LINE
  5
15B
330
1F
100
AcDbEntity
  8
0
  6
HIDDEN
 62
     7
370
    18
100
AcDbLine
 10
192.6732206945
 20
127.9900898307
 30
0.0
 11
195.3784466764
 21
127.9900898307
 31
0.0
  0
LINE
  5
15C
330
1F
100
AcDbEntity
  8
0
  6
HIDDEN
 62
     7
370
    18
100
AcDbLine
 10
195.3784466764
 20
148.5900898307
 30
0.0
 11
192.6732206945
 21
148.5900898307
 31
0.0
  0
ARC
  5
15D
330
1F
100
AcDbEntity
  8
0
  6
HIDDEN
 62
     7
370
    18
100
AcDbCircle
 10
195.3784466764
 20
128.3900898307
 30
0.0
 40
0.4000000000000208
100
AcDbArc
 50
270.0
 51
290.0
  0
ARC
  5
15E
330
1F
100
AcDbEntity
  8
0
  6
HIDDEN
 62
     7
370
    18
100
AcDbCircle
 10
195.3784466764
 20
148.1900898307
 30
0.0
 40
0.4000000000000208
100
AcDbArc
 50
70.0
 51
90.0
  0
ARC
  5
15F
330
1F
100
AcDbEntity
  8
0
  6
HIDDEN
 62
     7
370
    18
100
AcDbCircle
 10
192.6732206945
 20
128.3900898307
 30
0.0
 40
0.4000000000000199
100
AcDbArc
 50
180.0
 51
270.0
  0
ARC
  5
160
330
1F
100
AcDbEntity
  8
0
  6
HIDDEN
 62
     7
370
    18
100
AcDbCircle
 10
192.6732206945
 20
148.1900898307
 30
0.0
 40
0.4000000000000057
100
AcDbArc
 50
90.0
 51
180.0
  0
LINE
  5
161
330
1F
100
AcDbEntity
  8
0
  6
HIDDEN
 62
     7
370
    18
100
AcDbLine
 10
195.5152547337
 20
128.0142127823
 30
0.0
 11
196.2732206945
 21
128.2900898307
 31
0.0
  0
LINE
  5
162
330
1F
100
AcDbEntity
  8
0
  6
HIDDEN
 62
     7
370
    18
100
AcDbLine
 10
196.2732206945
 20
148.2900898307
 30
0.0
 11
195.5152547337
 21
148.565966879
 31
0.0
  0
LINE
  5
163
330
1F
100
AcDbEntity
  8
0
  6
HIDDEN
 62
     7
370
    18
100
AcDbLine
 10
161.2732206945
 20
128.1344393064
 30
0.0
 11
162.3002527266
 21
128.7273965266
 31
0.0
  0
LINE
  5
164
330
1F
100
AcDbEntity
  8
0
  6
HIDDEN
 62
     7
370
    18
100
AcDbLine
 10
162.3002527266
 20
147.8527831348
 30
0.0
 11
161.2732206945
 21
148.4457403549
 31
0.0
  0
LINE
  5
165
330
1F
100
AcDbEntity
  8
0
  6
HIDDEN
 62
     7
370
    18
100
AcDbLine
 10
196.2732206945
 20
128.2900898307
 30
0.0
 11
244.0732206945
 21
128.2900898307
 31
0.0
  0
LINE
  5
166
330
1F
100
AcDbEntity
  8
0
  6
HIDDEN
 62
     7
370
    18
100
AcDbLine
 10
244.0732206945
 20
148.2900898307
 30
0.0
 11
196.2732206945
 21
148.2900898307
 31
0.0
  0
LINE
  5
167
330
1F
100
AcDbEntity
  8
0
  6
HIDDEN
 62
     7
370
    18
100
AcDbLine
 10
166.7732206945
 20
128.2900898307
 30
0.0
 11
167.7860391642
 21
128.2900898307
 31
0.0
  0
LINE
  5
168
330
1F
100
AcDbEntity
  8
0
  6
HIDDEN
 62
     7
370
    18
100
AcDbLine
 10
167.7860391642
 20
148.2900898307
 30
0.0
 11
166.7732206945
 21
148.2900898307
 31
0.0
  0
ARC
  5
169
330
1F
100
AcDbEntity
  8
0
  6
HIDDEN
 62
     7
370
    18
100
AcDbCircle
 10
166.7732206945
 20
129.2900898307
 30
0.0
 40
1.000000000000004
100
AcDbArc
 50
193.3524261238
 51
270.0
  0
ARC
  5
16A
330
1F
100
AcDbEntity
  8
0
  6
HIDDEN
 62
     7
370
    18
100
AcDbCircle
 10
166.7732206945
 20
147.2900898307
 30
0.0
 40
1.000000000000004
100
AcDbArc
 50
90.0
 51
166.6475738762
  0
ARC
  5
16B
330
1F
100
AcDbEntity
  8
0
  6
HIDDEN
 62
     7
370
    18
100
AcDbCircle
 10
167.7860391642
 20
129.2900898307
 30
0.0
 40
1.000000000000008
100
AcDbArc
 50
270.0
 51
315.0
  0
ARC
  5
16C
330
1F
100
AcDbEntity
  8
0
  6
HIDDEN
 62
     7
370
    18
100
AcDbCircle
 10
167.7860391642
 20
147.2900898307
 30
0.0
 40
1.0
100
AcDbArc
 50
45.0
 51
90.0
  0
LINE
  5
16D
330
1F
100
AcDbEntity
  8
0
  6
HIDDEN
 62
     7
370
    18
100
AcDbLine
 10
168.4931459454
 20
128.5829830495
 30
0.0
 11
169.2002527266
 21
129.2900898307
 31
0.0
  0
LINE
  5
16E
330
1F
100
AcDbEntity
  8
0
  6
HIDDEN
 62
     7
370
    18
100
AcDbLine
 10
169.2002527266
 20
147.2900898307
 30
0.0
 11
168.4931459454
 21
147.9971966119
 31
0.0
  0
LINE
  5
16F
330
1F
100
AcDbEntity
  8
0
  6
HIDDEN
 62
     7
370
    18
100
AcDbLine
 10
162.3002527266
 20
128.7273965266
 30
0.0
 11
164.4002527266
 21
129.2900898307
 31
0.0
  0
LINE
  5
170
330
1F
100
AcDbEntity
  8
0
  6
HIDDEN
 62
     7
370
    18
100
AcDbLine
 10
164.4002527266
 20
147.2900898307
 30
0.0
 11
162.3002527266
 21
147.8527831348
 31
0.0
  0
LINE
  5
171
330
1F
100
AcDbEntity
  8
0
  6
HIDDEN
 62
     7
370
    18
100
AcDbLine
 10
165.8002527266
 20
147.5210299383
 30
0.0
 11
165.4002527266
 21
147.2900898307
 31
0.0
  0
LINE
  5
172
330
1F
100
AcDbEntity
  8
0
  6
HIDDEN
 62
     7
370
    18
100
AcDbLine
 10
165.4002527266
 20
129.2900898307
 30
0.0
 11
165.8002527266
 21
129.059149723
 31
0.0
  0
LINE
  5
173
330
1F
100
AcDbEntity
  8
0
  6
HIDDEN
 62
     7
370
    18
100
AcDbLine
 10
164.4002527266
 20
129.2900898307
 30
0.0
 11
165.4002527266
 21
129.2900898307
 31
0.0
  0
LINE
  5
174
330
1F
100
AcDbEntity
  8
0
  6
HIDDEN
 62
     7
370
    18
100
AcDbLine
 10
165.4002527266
 20
147.2900898307
 30
0.0
 11
164.4002527266
 21
147.2900898307
 31
0.0
  0
LINE
  5
175
330
1F
100
AcDbEntity
  8
0
  6
HIDDEN
 62
     7
370
    18
100
AcDbLine
 10
169.2002527266
 20
129.2900898307
 30
0.0
 11
175.7732206945
 21
129.2900898307
 31
0.0
  0
LINE
  5
176
330
1F
100
AcDbEntity
  8
0
  6
HIDDEN
 62
     7
370
    18
100
AcDbLine
 10
175.7732206945
 20
147.2900898307
 30
0.0
 11
169.2002527266
 21
147.2900898307
 31
0.0
  0
ARC
  5
177
330
1F
100
AcDbEntity
  8
0
  6
HIDDEN
 62
     7
370
    18
100
AcDbCircle
 10
175.7732206945
 20
129.7900898307
 30
0.0
 40
0.5
100
AcDbArc
 50
270.0
 51
0.0
  0
ARC
  5
178
330
1F
100
AcDbEntity
  8
0
  6
HIDDEN
 62
     7
370
    18
100
AcDbCircle
 10
175.7732206945
 20
146.7900898307
 30
0.0
 40
0.5
100
AcDbArc
 50
0.0
 51
90.0
  0
LINE
  5
179
330
1F
100
AcDbEntity
  8
0
  6
HIDDEN
 62
     7
370
    18
100
AcDbLine
 10
176.2732206945
 20
131.1400898307
 30
0.0
 11
177.1732206945
 21
132.0400898307
 31
0.0
  0
LINE
  5
17A
330
1F
100
AcDbEntity
  8
0
  6
HIDDEN
 62
     7
370
    18
100
AcDbLine
 10
177.1732206945
 20
144.5400898307
 30
0.0
 11
176.2732206945
 21
145.4400898307
 31
0.0
  0
LINE
  5
17B
330
1F
100
AcDbEntity
  8
0
  6
HIDDEN
 62
     7
370
    18
100
AcDbLine
 10
177.1732206945
 20
132.0400898307
 30
0.0
 11
192.2732206945
 21
132.0400898307
 31
0.0
  0
LINE
  5
17C
330
1F
100
AcDbEntity
  8
0
  6
HIDDEN
 62
     7
370
    18
100
AcDbLine
 10
192.2732206945
 20
144.5400898307
 30
0.0
 11
177.1732206945
 21
144.5400898307
 31
0.0
  0
LINE
  5
17D
330
1F
100
AcDbEntity
  8
0
  6
HIDDEN
 62
     7
370
    18
100
AcDbLine
 10
185.5732206945
 20
158.2900898307
 30
0.0
 11
185.5732206945
 21
118.2900898307
 31
0.0
  0
LINE
  5
17E
330
1F
100
AcDbEntity
  8
0
  6
HIDDEN
 62
     7
370
    18
100
AcDbLine
 10
185.3661139133
 20
122.5829830495
 30
0.0
 11
185.3661139133
 21
153.9971966119
 31
0.0
  0
LINE
  5
17F
330
1F
100
AcDbEntity
  8
0
  6
HIDDEN
 62
     7
370
    18
100
AcDbLine
 10
183.951900351
 20
128.2365705131
 30
0.0
 11
183.951900351
 21
124.4650258227
 31
0.0
  0
LINE
  5
180
330
1F
100
AcDbEntity
  8
0
  6
HIDDEN
 62
     7
370
    18
100
AcDbLine
 10
183.951900351
 20
152.1151538387
 30
0.0
 11
183.951900351
 21
148.3436091483
 31
0.0
  0
LINE
  5
181
330
1F
100
AcDbEntity
  8
0
  6
HIDDEN
 62
     7
370
    18
100
AcDbLine
 10
244.0732206945
 20
148.2772549024
 30
0.0
 11
244.0732206945
 21
128.302924759
 31
0.0
  0
LINE
  5
182
330
1F
100
AcDbEntity
  8
0
  6
HIDDEN
 62
     7
370
    18
100
AcDbLine
 10
192.6732206945
 20
148.5868884053
 30
0.0
 11
192.6732206945
 21
127.9932912561
 31
0.0
  0
LINE
  5
183
330
1F
100
AcDbEntity
  8
0
  6
HIDDEN
 62
     7
370
    18
100
AcDbLine
 10
195.3784466764
 20
148.5868884053
 30
0.0
 11
195.3784466764
 21
127.9932912561
 31
0.0
  0
LINE
  5
184
330
1F
100
AcDbEntity
  8
0
  6
HIDDEN
 62
     7
370
    18
100
AcDbLine
 10
195.5152547337
 20
148.5627729514
 30
0.0
 11
195.5152547337
 21
128.0174067099
 31
0.0
  0
LINE
  5
185
330
1F
100
AcDbEntity
  8
0
  6
HIDDEN
 62
     7
370
    18
100
AcDbLine
 10
166.7732206945
 20
128.2900898307
 30
0.0
 11
166.7732206945
 21
148.2900898307
 31
0.0
  0
LINE
  5
186
330
1F
100
AcDbEntity
  8
0
  6
HIDDEN
 62
     7
370
    18
100
AcDbLine
 10
167.7860391642
 20
128.2900898307
 30
0.0
 11
167.7860391642
 21
148.2900898307
 31
0.0
  0
LINE
  5
187
330
1F
100
AcDbEntity
  8
0
  6
HIDDEN
 62
     7
370
    18
100
AcDbLine
 10
168.4931459454
 20
128.5829830495
 30
0.0
 11
168.4931459454
 21
147.9843258608
 31
0.0
  0
LINE
  5
188
330
1F
100
AcDbEntity
  8
0
  6
HIDDEN
 62
     7
370
    18
100
AcDbLine
 10
175.7732206945
 20
137.1543081615
 30
0.0
 11
175.7732206945
 21
129.3029626235
 31
0.0
  0
LINE
  5
189
330
1F
100
AcDbEntity
  8
0
  6
HIDDEN
 62
     7
370
    18
100
AcDbLine
 10
175.7732206945
 20
139.4258714998
 30
0.0
 11
175.7732206945
 21
147.2772170379
 31
0.0
  0
LINE
  5
18A
330
1F
100
AcDbEntity
  8
0
  6
HIDDEN
 62
     7
370
    18
100
AcDbLine
 10
161.2732206945
 20
147.5146880485
 30
0.0
 11
162.7732206945
 21
147.9477007504
 31
0.0
  0
LINE
  5
18B
330
1F
100
AcDbEntity
  8
0
  6
HIDDEN
 62
     7
370
    18
100
AcDbLine
 10
183.7781807166
 20
152.1152748154
 30
0.0
 11
183.7781807166
 21
152.0291743618
 31
0.0
  0
LINE
  5
18C
330
1F
100
AcDbEntity
  8
0
  6
HIDDEN
 62
     7
370
    18
100
AcDbLine
 10
162.7732206945
 20
147.9477007504
 30
0.0
 11
183.5732206945
 21
148.2089849498
 31
0.0
  0
LINE
  5
18D
330
1F
100
AcDbEntity
  8
0
  6
HIDDEN
 62
     7
370
    18
100
AcDbLine
 10
183.7781807166
 20
124.5510052995
 30
0.0
 11
183.7781807166
 21
124.4649048459
 31
0.0
  0
LINE
  5
18E
330
1F
100
AcDbEntity
  8
0
  6
HIDDEN
 62
     7
370
    18
100
AcDbLine
 10
162.7732206945
 20
128.6324789109
 30
0.0
 11
183.5732206945
 21
128.3711947116
 31
0.0
  0
LINE
  5
18F
330
1F
100
AcDbEntity
  8
0
  6
HIDDEN
 62
     7
370
    18
100
AcDbLine
 10
161.2732206945
 20
129.0654916128
 30
0.0
 11
162.7732206945
 21
128.6324789109
 31
0.0
  0
LINE
  5
190
330
1F
100
AcDbEntity
  8
0
  6
HIDDEN
 62
     7
370
    18
100
AcDbLine
 10
194.3413186925
 20
119.1584334504
 30
0.0
 11
194.3413186925
 21
132.460876835
 31
0.0
  0
LINE
  5
191
330
1F
100
AcDbEntity
  8
0
  6
HIDDEN
 62
     7
370
    18
100
AcDbLine
 10
192.2051226965
 20
119.1584334504
 30
0.0
 11
192.2051226965
 21
132.460876835
 31
0.0
  0
LINE
  5
192
330
1F
100
AcDbEntity
  8
0
  6
HIDDEN
 62
     7
370
    18
100
AcDbLine
 10
192.2051226965
 20
144.1193028263
 30
0.0
 11
192.2051226965
 21
157.4217462109
 31
0.0
  0
LINE
  5
193
330
1F
100
AcDbEntity
  8
0
  6
HIDDEN
 62
     7
370
    18
100
AcDbLine
 10
194.3413186925
 20
144.1193028263
 30
0.0
 11
194.3413186925
 21
157.4217462109
 31
0.0
  0
LINE
  5
194
330
1F
100
AcDbEntity
  8
0
  6
HIDDEN
 62
     7
370
    18
100
AcDbLine
 10
194.6011263137
 20
119.2553335475
 30
0.0
 11
194.6011263137
 21
132.1518447036
 31
0.0
  0
LINE
  5
195
330
1F
100
AcDbEntity
  8
0
  6
HIDDEN
 62
     7
370
    18
100
AcDbLine
 10
191.9453150754
 20
119.2553335475
 30
0.0
 11
191.9453150754
 21
132.1518447036
 31
0.0
  0
LINE
  5
196
330
1F
100
AcDbEntity
  8
0
  6
HIDDEN
 62
     7
370
    18
100
AcDbLine
 10
191.9453150754
 20
144.4283349577
 30
0.0
 11
191.9453150754
 21
157.3248461138
 31
0.0
  0
LINE
  5
197
330
1F
100
AcDbEntity
  8
0
  6
HIDDEN
 62
     7
370
    18
100
AcDbLine
 10
194.6011263137
 20
144.4283349577
 30
0.0
 11
194.6011263137
 21
157.3248461138
 31
0.0
  0
LINE
  5
198
330
1F
100
AcDbEntity
  8
0
  6
HIDDEN
 62
     7
370
    18
100
AcDbLine
 10
183.7781807166
 20
128.4686516115
 30
0.0
 11
183.7781807166
 21
127.4974961039
 31
0.0
  0
LWPOLYLINE
  5
199
330
1F
100
AcDbEntity
  8
0
  6
HIDDEN
 62
     7
370
    18
100
AcDbPolyline
 90
        9
 70
   128
 43
0.0
 10
183.5732206945
 20
128.3711947116
 10
183.5780423866
 20
128.3906493309
 10
183.5903622471
 20
128.4092598025
 10
183.6097068307
 20
128.4263109362
 10
183.6353327359
 20
128.4411474667
 10
183.6662551735
 20
128.4531992344
 10
183.7012858117
 20
128.4620030966
 10
183.7390784426
 20
128.4672207258
 10
183.7781807166
 20
128.4686516115
  0
LWPOLYLINE
  5
19A
330
1F
100
AcDbEntity
  8
0
  6
HIDDEN
 62
     7
370
    18
100
AcDbPolyline
 90
        9
 70
   128
 43
0.0
 10
183.5732206945
 20
148.2089849498
 10
183.5780423866
 20
148.1895303304
 10
183.5903622471
 20
148.1709198589
 10
183.6097068307
 20
148.1538687251
 10
183.6353327359
 20
148.1390321946
 10
183.6662551735
 20
148.1269804269
 10
183.7012858117
 20
148.1181765647
 10
183.7390784426
 20
148.1129589355
 10
183.7781807166
 20
148.1115280499
  0
LINE
  5
19B
330
1F
100
AcDbEntity
  8
0
  6
HIDDEN
 62
     7
370
    18
100
AcDbLine
 10
183.7781807166
 20
149.0826835574
 30
0.0
 11
183.7781807166
 21
148.1115280499
 31
0.0
  0
LINE
  5
19C
330
1F
100
AcDbEntity
  8
0
  6
HIDDEN
 62
     7
370
    18
100
AcDbLine
 10
183.7781807166
 20
148.1115280499
 30
0.0
 11
183.7781807166
 21
128.4686516115
 31
0.0
  0
LINE
  5
19D
330
1F
100
AcDbEntity
  8
0
  6
HIDDEN
 62
     7
370
    18
100
AcDbLine
 10
183.7781807166
 20
148.1115280499
 30
0.0
 11
184.017136377
 21
148.1145297488
 31
0.0
  0
LINE
  5
19E
330
1F
100
AcDbEntity
  8
0
  6
HIDDEN
 62
     7
370
    18
100
AcDbLine
 10
183.7781807166
 20
128.4686516115
 30
0.0
 11
184.017136377
 21
128.4656499125
 31
0.0
  0
LINE
  5
19F
330
1F
100
AcDbEntity
  8
0
  6
HIDDEN
 62
     7
370
    18
100
AcDbLine
 10
184.8782438056
 20
147.2350961203
 30
0.0
 11
184.8782438056
 21
129.345083541
 31
0.0
  0
DIMENSION
  5
1A0
330
1F
100
AcDbEntity
  8
VERMASSUNG
100
AcDbDimension
  2
_D
 10
255.0732206945
 20
128.2900898307
 30
0.0
 11
255.0732206945
 21
138.2900898307
 31
0.0
 70
   160
  1
%%c<>
 71
     2
 42
-1.0
  3
SLDDIMSTYLE0
100
AcDbAlignedDimension
 13
244.0732206945
 23
148.2900898307
 33
0.0
 14
244.0732206945
 24
128.2900898307
 34
0.0
 50
90.0
100
AcDbRotatedDimension
  0
DIMENSION
  5
1AC
330
1F
100
AcDbEntity
  8
VERMASSUNG
100
AcDbDimension
  2
_D_1
 10
245.2732206945
 20
166.404356839
 30
0.0
 11
215.2732206945
 21
166.404356839
 31
0.0
 70
   160
  1
<>
 71
     2
 42
-1.0
  3
SLDDIMSTYLE0
100
AcDbAlignedDimension
 13
185.2732206945
 23
157.9900898307
 33
0.0
 14
245.2732206945
 24
157.2900898307
 34
0.0
100
AcDbRotatedDimension
  0
DIMENSION
  5
1B6
330
1F
100
AcDbEntity
  8
VERMASSUNG
100
AcDbDimension
  2
_D_2
 10
245.2732206945
 20
174.2900898307
 30
0.0
 11
203.2732206945
 21
174.2900898307
 31
0.0
 70
   160
  1
(<>)
 71
     2
 42
-1.0
  3
SLDDIMSTYLE0
100
AcDbAlignedDimension
 13
161.2732206945
 23
150.9215948127
 33
0.0
 14
245.2732206945
 24
157.2900898307
 34
0.0
100
AcDbRotatedDimension
  0
DIMENSION
  5
1C2
330
1F
100
AcDbEntity
  8
VERMASSUNG
100
AcDbDimension
  2
_D_3
 10
152.8532873717
 20
158.2900898307
 30
0.0
 11
152.8532873717
 21
138.2900898307
 31
0.0
 70
   160
  1
PSC%%c<>
 71
     2
 42
-1.0
  3
SLDDIMSTYLE0
100
AcDbAlignedDimension
 13
185.5732206945
 23
118.2900898307
 33
0.0
 14
185.5732206945
 24
158.2900898307
 34
0.0
 50
90.0
100
AcDbRotatedDimension
  0
DIMENSION
  5
1CE
330
1F
100
AcDbEntity
  8
VERMASSUNG
100
AcDbDimension
  2
_D_4
 10
192.2732206945
 20
108.2900898307
 30
0.0
 11
218.7732206945
 21
108.2900898307
 31
0.0
 70
   160
  1
<>
 71
     2
 42
-1.0
  3
SLDDIMSTYLE0
100
AcDbAlignedDimension
 13
245.2732206945
 23
119.2900898307
 33
0.0
 14
192.2732206945
 24
128.3900898307
 34
0.0
100
AcDbRotatedDimension
  0
INSERT
  5
1E3
330
1F
100
AcDbEntity
  8
VERMASSUNG
100
AcDbBlockReference
  2
SW_CENTERMARKSYMBOL_0
 10
230.2732206945
 20
138.2900898307
 30
0.0
  0
INSERT
  5
1EF
330
1F
100
AcDbEntity
  8
VERMASSUNG
100
AcDbBlockReference
  2
SW_CENTERMARKSYMBOL_1
 10
210.2732206945
 20
138.2900898307
 30
0.0
  0
LINE
  5
1F0
330
1F
100
AcDbEntity
  8
VERMASSUNG
  6
CENTERX2
370
    18
100
AcDbLine
 10
246.5445586634
 20
138.2900898307
 30
0.0
 11
159.6976303662
 21
138.2900898307
 31
0.0
  0
LINE
  5
1F1
330
1F
100
AcDbEntity
  8
0
  6
Continuous
 62
     7
370
    25
100
AcDbLine
 10
69.8463491566
 20
134.5256827203
 30
0.0
 11
73.110756267
 21
137.7900898307
 31
0.0
  0
LINE
  5
1F2
330
1F
100
AcDbEntity
  8
0
  6
Continuous
 62
     7
370
    25
100
AcDbLine
 10
73.110756267
 20
138.7900898307
 30
0.0
 11
69.8463491566
 21
142.0544969411
 31
0.0
  0
LINE
  5
1F3
330
1F
100
AcDbEntity
  8
0
  6
Continuous
 62
     7
370
    25
100
AcDbLine
 10
59.6274414934
 20
142.8067750571
 30
0.0
 11
59.110756267
 21
142.2900898307
 31
0.0
  0
LINE
  5
1F4
330
1F
100
AcDbEntity
  8
0
  6
Continuous
 62
     7
370
    25
100
AcDbLine
 10
59.110756267
 20
134.2900898307
 30
0.0
 11
59.6274414934
 21
133.7734046042
 31
0.0
  0
LINE
  5
1F5
330
1F
100
AcDbEntity
  8
0
  6
Continuous
 62
     7
370
    25
100
AcDbLine
 10
70.1572124281
 20
133.8365459918
 30
0.0
 11
71.110756267
 21
134.7900898307
 31
0.0
  0
LINE
  5
1F6
330
1F
100
AcDbEntity
  8
0
  6
Continuous
 62
     7
370
    25
100
AcDbLine
 10
71.110756267
 20
141.7900898307
 30
0.0
 11
70.1572124281
 21
142.7436336696
 31
0.0
  0
CIRCLE
  5
1F7
330
1F
100
AcDbEntity
  8
0
  6
Continuous
 62
     7
370
    25
100
AcDbCircle
 10
79.110756267
 20
138.2900898307
 30
0.0
 40
19.0
  0
CIRCLE
  5
1F8
330
1F
100
AcDbEntity
  8
0
  6
Continuous
 62
     7
370
    25
100
AcDbCircle
 10
79.110756267
 20
138.2900898307
 30
0.0
 40
20.0
  0
CIRCLE
  5
1F9
330
1F
100
AcDbEntity
  8
0
  6
Continuous
 62
     7
370
    25
100
AcDbCircle
 10
79.110756267
 20
138.2900898307
 30
0.0
 40
10.00000000000001
  0
ARC
  5
1FA
330
1F
100
AcDbEntity
  8
0
  6
Continuous
 62
     7
370
    25
100
AcDbCircle
 10
79.110756267
 20
138.2900898307
 30
0.0
 40
6.250000000000001
100
AcDbArc
 50
186.5190814098
 51
270.0
  0
ARC
  5
1FB
330
1F
100
AcDbEntity
  8
0
  6
Continuous
 62
     7
370
    25
100
AcDbCircle
 10
79.110756267
 20
138.2900898307
 30
0.0
 40
6.250000000000004
100
AcDbArc
 50
270.0
 51
173.4809185902
  0
LINE
  5
1FC
330
1F
100
AcDbEntity
  8
0
  6
Continuous
 62
     7
370
    25
100
AcDbLine
 10
73.110756267
 20
138.1454872281
 30
0.0
 11
73.110756267
 21
138.7900898307
 31
0.0
  0
LINE
  5
1FD
330
1F
100
AcDbEntity
  8
0
  6
Continuous
 62
     7
370
    25
100
AcDbLine
 10
73.110756267
 20
137.7900898307
 30
0.0
 11
73.110756267
 21
138.1454872281
 31
0.0
  0
LINE
  5
1FE
330
1F
100
AcDbEntity
  8
0
  6
Continuous
 62
     7
370
    25
100
AcDbLine
 10
59.110756267
 20
137.1332690099
 30
0.0
 11
59.110756267
 21
142.2900898307
 31
0.0
  0
LINE
  5
1FF
330
1F
100
AcDbEntity
  8
0
  6
Continuous
 62
     7
370
    25
100
AcDbLine
 10
59.110756267
 20
134.2900898307
 30
0.0
 11
59.110756267
 21
137.1332690099
 31
0.0
  0
LINE
  5
200
330
1F
100
AcDbEntity
  8
0
  6
Continuous
 62
     7
370
    25
100
AcDbLine
 10
71.110756267
 20
135.6667884792
 30
0.0
 11
71.110756267
 21
135.7900898307
 31
0.0
  0
LINE
  5
201
330
1F
100
AcDbEntity
  8
0
  6
Continuous
 62
     7
370
    25
100
AcDbLine
 10
71.110756267
 20
140.7900898307
 30
0.0
 11
71.110756267
 21
141.7900898307
 31
0.0
  0
LINE
  5
202
330
1F
100
AcDbEntity
  8
0
  6
Continuous
 62
     7
370
    25
100
AcDbLine
 10
71.110756267
 20
134.7900898307
 30
0.0
 11
71.110756267
 21
135.6667884792
 31
0.0
  0
INSERT
  5
20E
330
1F
100
AcDbEntity
  8
VERMASSUNG
100
AcDbBlockReference
  2
SW_CENTERMARKSYMBOL_2
 10
79.110756267
 20
138.2900898307
 30
0.0
  0
LINE
  5
20F
330
1F
100
AcDbEntity
  8
0
  6
Continuous
 62
     7
370
    25
100
AcDbLine
 10
221.6222803827
 20
24.4016814683
 30
0.0
 11
222.3292722391
 21
24.8099518688
 31
0.0
  0
LINE
  5
210
330
1F
100
AcDbEntity
  8
0
  6
Continuous
 62
     7
370
    25
100
AcDbLine
 10
235.7621175116
 20
48.0788436039
 30
0.0
 11
235.7621175116
 21
48.8952517158
 31
0.0
  0
LINE
  5
211
330
1F
100
AcDbEntity
  8
0
  6
Continuous
 62
     7
370
    25
100
AcDbLine
 10
177.3954660012
 20
43.1680549699
 30
0.0
 11
211.6207945615
 21
23.4101933499
 31
0.0
  0
LINE
  5
212
330
1F
100
AcDbEntity
  8
0
  6
Continuous
 62
     7
370
    25
100
AcDbLine
 10
170.1136265059
 20
47.3717714319
 30
0.0
 11
173.7212314409
 21
45.2891454329
 31
0.0
  0
LINE
  5
213
330
1F
100
AcDbEntity
  8
0
  6
Continuous
 62
     7
370
    25
100
AcDbLine
 10
193.7196060936
 20
79.9310999281
 30
0.0
 11
190.1120011586
 21
82.0137259271
 31
0.0
  0
LINE
  5
214
330
1F
100
AcDbEntity
  8
0
  6
Continuous
 62
     7
370
    25
100
AcDbLine
 10
231.6191692143
 20
58.0521478451
 30
0.0
 11
197.3938406539
 21
77.8100094651
 31
0.0
  0
SPLINE
  5
215
330
1F
100
AcDbEntity
  8
0
  6
Continuous
 62
     7
370
    25
100
AcDbSpline
210
0.0
220
0.0
230
1.0
 70
     8
 71
     3
 72
    35
 73
    31
 74
     0
 42
0.000000001
 43
0.00000001
 40
0.0
 40
0.0
 40
0.0
 40
0.0
 40
0.0320839521881096
 40
0.069442423556048
 40
0.1049600099225221
 40
0.1427047711047002
 40
0.1792066700620072
 40
0.2151133119424933
 40
0.2508267646619244
 40
0.286523464083806
 40
0.3222890692208792
 40
0.358165260882699
 40
0.3941552763930715
 40
0.4302432795798184
 40
0.4664045346860508
 40
0.5026104797516636
 40
0.5388310396874781
 40
0.5750296752066654
 40
0.6111710900234248
 40
0.6472245731028491
 40
0.6831609373370753
 40
0.7189556223727511
 40
0.7545951991501239
 40
0.7900898490400168
 40
0.8254958173546806
 40
0.8609134424578067
 40
0.8965567827113966
 40
0.9328479101373838
 40
0.9704623131418849
 40
1.0
 40
1.0
 40
1.0
 40
1.0
 10
216.5045184641356
 20
32.1503859990847
 30
0.0
 10
216.374878836931
 20
32.22736186524475
 30
0.0
 10
216.0942871614039
 20
32.39396823188373
 30
0.0
 10
215.7326514011171
 20
32.77266604128001
 30
0.0
 10
215.3923635167803
 20
33.27069974867531
 30
0.0
 10
215.1138735569525
 20
33.88248581115342
 30
0.0
 10
214.9061093792972
 20
34.6077292563984
 30
0.0
 10
214.7820898718416
 20
35.41653967479866
 30
0.0
 10
214.7444014513013
 20
36.30068228836519
 30
0.0
 10
214.7957894846352
 20
37.24985230943778
 30
0.0
 10
214.9378274291225
 20
38.25136391585527
 30
0.0
 10
215.170554200177
 20
39.29121038839479
 30
0.0
 10
215.4923245170384
 20
40.35443395326153
 30
0.0
 10
215.8997619159632
 20
41.42542783564658
 30
0.0
 10
216.3878337318738
 20
42.48837319726879
 30
0.0
 10
216.9499709296501
 20
43.52758772211342
 30
0.0
 10
217.5781641250279
 20
44.5277595212204
 30
0.0
 10
218.263082949618
 20
45.47422964068232
 30
0.0
 10
218.9942245741261
 20
46.35329380601235
 30
0.0
 10
219.7600931980641
 20
47.15249974640195
 30
0.0
 10
220.5483412303517
 20
47.86088956522483
 30
0.0
 10
221.3459124111534
 20
48.46926267261736
 30
0.0
 10
222.1392939866238
 20
48.97053029208331
 30
0.0
 10
222.9148872815888
 20
49.36005749136636
 30
0.0
 10
223.6594352067466
 20
49.63601715758809
 30
0.0
 10
224.3606848673153
 20
49.79924734774379
 30
0.0
 10
225.0101191469206
 20
49.85479085922016
 30
0.0
 10
225.6017139330982
 20
49.80383276271288
 30
0.0
 10
226.0990980314272
 20
49.67665508563972
 30
0.0
 10
226.3728667164795
 20
49.51974740687304
 30
0.0
 10
226.4932872976882
 20
49.45072960131366
 30
0.0
  0
SPLINE
  5
216
330
1F
100
AcDbEntity
  8
0
  6
Continuous
 62
     7
370
    25
100
AcDbSpline
210
0.0
220
0.0
230
1.0
 70
     8
 71
     3
 72
    31
 73
    27
 74
     0
 42
0.000000001
 43
0.00000001
 40
0.0
 40
0.0
 40
0.0
 40
0.0
 40
0.015391097492972
 40
0.0584378737314713
 40
0.1015750298248179
 40
0.1447693391720248
 40
0.1879934501329352
 40
0.2312275343193866
 40
0.2744570428567589
 40
0.3176766849419178
 40
0.3608844186451851
 40
0.4040802382062105
 40
0.447265350579608
 40
0.4904416516598875
 40
0.5336114108540986
 40
0.5767770916093168
 40
0.6199412562864964
 40
0.6631064547805277
 40
0.7062745221361786
 40
0.7494481225823839
 40
0.7926299144235982
 40
0.8358224958025203
 40
0.8790282950432683
 40
0.9222493653670011
 40
0.9654870256847478
 40
1.0
 40
1.0
 40
1.0
 40
1.0
 10
185.0819242891967
 20
82.8775849085845
 30
0.0
 10
184.9502364249846
 20
82.86395696045618
 30
0.0
 10
184.4502357730293
 20
82.81221352160745
 30
0.0
 10
183.5493912585723
 20
82.59161550599116
 30
0.0
 10
182.3883383531754
 20
82.21793418160637
 30
0.0
 10
181.2093417253546
 20
81.71342098428289
 30
0.0
 10
180.0236129325472
 20
81.09256119623902
 30
0.0
 10
178.8388210774011
 20
80.35703476117374
 30
0.0
 10
177.6634387152591
 20
79.51298857156578
 30
0.0
 10
176.5055159301135
 20
78.56628789756422
 30
0.0
 10
175.3729657415246
 20
77.52369074520507
 30
0.0
 10
174.2734901456852
 20
76.39249554694517
 30
0.0
 10
173.2145676026352
 20
75.18058886316356
 30
0.0
 10
172.2034059399696
 20
73.89637559422184
 30
0.0
 10
171.2469000145098
 20
72.54873461863781
 30
0.0
 10
170.3515866069065
 20
71.14696112616942
 30
0.0
 10
169.5236008314472
 20
69.7007068982895
 30
0.0
 10
168.7686400665536
 20
68.21992485642541
 30
0.0
 10
168.0919140516725
 20
66.71478998187332
 30
0.0
 10
167.4981280770783
 20
65.19563778632552
 30
0.0
 10
166.9913846550902
 20
63.67284592462153
 30
0.0
 10
166.5754140642782
 20
62.15691427880792
 30
0.0
 10
166.2526233586089
 20
60.65786720387382
 30
0.0
 10
166.0275653869941
 20
59.18716197508161
 30
0.0
 10
165.9029344091636
 20
57.84709036250777
 30
0.0
 10
165.8889969746279
 20
57.01880082988473
 30
0.0
 10
165.8828102428742
 20
56.65112877807514
 30
0.0
  0
SPLINE
  5
217
330
1F
100
AcDbEntity
  8
0
  6
Continuous
 62
     7
370
    25
100
AcDbSpline
210
0.0
220
0.0
230
1.0
 70
     8
 71
     3
 72
    12
 73
     8
 74
     0
 42
0.000000001
 43
0.00000001
 40
0.0
 40
0.0
 40
0.0
 40
0.0
 40
0.125341306109455
 40
0.3634216330168237
 40
0.6015864349506456
 40
0.8396730926848133
 40
1.0
 40
1.0
 40
1.0
 40
1.0
 10
165.8828102428742
 20
56.65112877807514
 30
0.0
 10
165.8855993838598
 20
56.41235714514531
 30
0.0
 10
165.8936863761146
 20
55.7200492424203
 30
0.0
 10
165.9823327622924
 20
54.61828091766078
 30
0.0
 10
166.1855058514321
 20
53.37993275888319
 30
0.0
 10
166.4431282334928
 20
52.33447856200556
 30
0.0
 10
166.6732772774357
 20
51.74247273946981
 30
0.0
 10
166.765892307831
 20
51.50424173790242
 30
0.0
  0
LINE
  5
218
330
1F
100
AcDbEntity
  8
0
  6
Continuous
 62
     7
370
    25
100
AcDbLine
 10
155.9698215703
 20
62.2716820216
 30
0.0
 11
165.892902216
 21
56.1286826425
 31
0.0
  0
LINE
  5
219
330
1F
100
AcDbEntity
  8
0
  6
Continuous
 62
     7
370
    25
100
AcDbLine
 10
179.0800681495
 20
80.487707376
 30
0.0
 11
169.3607568415
 21
85.7067067227
 31
0.0
  0
LINE
  5
21A
330
1F
100
AcDbEntity
  8
0
  6
Continuous
 62
     7
370
    25
100
AcDbLine
 10
165.9278928907
 20
86.4617086553
 30
0.0
 11
164.6487919856
 21
86.2872865244
 31
0.0
  0
LINE
  5
21B
330
1F
100
AcDbEntity
  8
0
  6
Continuous
 62
     7
370
    25
100
AcDbLine
 10
154.315537202
 20
64.910875552
 30
0.0
 11
154.8041457875
 21
63.7159764537
 31
0.0
  0
LINE
  5
21C
330
1F
100
AcDbEntity
  8
0
  6
Continuous
 62
     7
370
    25
100
AcDbLine
 10
215.2565953409
 20
64.0009913894
 30
0.0
 11
214.5493736629
 21
64.4093944847
 31
0.0
  0
LINE
  5
21D
330
1F
100
AcDbEntity
  8
0
  6
Continuous
 62
     7
370
    25
100
AcDbLine
 10
208.8916002396
 20
64.4093944847
 30
0.0
 11
208.1843785617
 21
64.0009913894
 31
0.0
  0
LINE
  5
21E
330
1F
100
AcDbEntity
  8
0
  6
Continuous
 62
     7
370
    25
100
AcDbLine
 10
201.1144597171
 20
72.1650725077
 30
0.0
 11
200.4072380392
 21
72.5734756029
 31
0.0
  0
LINE
  5
21F
330
1F
100
AcDbEntity
  8
0
  6
Continuous
 62
     7
370
    25
100
AcDbLine
 10
194.7494646159
 20
72.5734756029
 30
0.0
 11
194.042242938
 21
72.1650725077
 31
0.0
  0
LWPOLYLINE
  5
220
330
1F
100
AcDbEntity
  8
0
  6
Continuous
 62
     7
370
    25
100
AcDbPolyline
 90
       70
 70
   128
 43
0.0
 10
222.3270886691
 20
24.8086911158
 10
221.1053761712
 20
24.1676895891
 10
219.8937871678
 20
23.6605557752
 10
218.702361267
 20
23.2914919445
 10
217.540970999
 20
23.0635562762
 10
216.4192400093
 20
22.9786375169
 10
215.3464633142
 20
23.0374393303
 10
214.3315302793
 20
23.239474466
 10
213.3828509593
 20
23.5830687973
 10
212.5082864098
 20
24.0653751933
 10
211.7150835482
 20
24.6823971113
 10
211.0098151031
 20
25.4290217135
 10
210.398325151
 20
26.2990622331
 10
209.8856806902
 20
27.2853092405
 10
209.4761296542
 20
28.3795903823
 10
209.1730657118
 20
29.5728381003
 10
208.9790001463
 20
30.8551647683
 10
208.8955410462
 20
32.2159446235
 10
208.9233799797
 20
33.6439018155
 10
209.0622862648
 20
35.1272038414
 10
209.3111088801
 20
36.6535595933
 10
209.6677860032
 20
38.2103212068
 10
210.1293620951
 20
39.7845888649
 10
210.6920123909
 20
41.3633176899
 10
211.351074593
 20
42.9334258378
 10
212.1010875045
 20
44.4819028977
 10
212.9358362822
 20
45.9959177012
 10
213.8484039349
 20
47.4629246448
 10
214.8312286395
 20
48.8707676469
 10
215.876166401
 20
50.2077808771
 10
216.9745585361
 20
51.4628854225
 10
218.1173034216
 20
52.6256810918
 10
219.2949319134
 20
53.6865325936
 10
220.4976858111
 20
54.6366493785
 10
221.715598717
 20
55.4681584796
 10
222.9385786212
 20
56.1741697504
 10
224.1564915271
 20
56.7488329593
 10
225.3592454248
 20
57.187386266
 10
226.5368739166
 20
57.4861956796
 10
227.6796188021
 20
57.6427851712
 10
228.7780109372
 20
57.655857191
 10
229.8229486987
 20
57.5253034201
 10
230.8057734033
 20
57.2522056682
 10
231.7183410559
 20
56.8388269093
 10
232.5530898337
 20
56.2885925299
 10
233.3031027452
 20
55.6060619454
 10
233.9621649473
 20
54.7968908191
 10
234.5248152431
 20
53.867784198
 10
234.986391335
 20
52.8264409519
 10
235.3430684581
 20
51.6814899791
 10
235.5918910734
 20
50.4424187039
 10
235.7307973585
 20
49.119494461
 10
235.758636292
 20
47.7236794175
 10
235.6751771918
 20
46.2665397363
 10
235.4811116264
 20
44.7601497358
 10
235.178047684
 20
43.2169918379
 10
234.768496648
 20
41.649853135
 10
234.2558521872
 20
40.0717194318
 10
233.6443622351
 20
38.4956676414
 10
232.93909379
 20
36.9347574251
 10
232.1458909283
 20
35.4019229766
 10
231.2713263789
 20
33.9098658449
 10
230.3226470589
 20
32.4709496854
 10
229.3077140239
 20
31.0970978103
 10
228.2349373289
 20
29.7996943892
 10
227.1132063392
 20
28.5894901153
 10
225.9518160712
 20
27.4765131223
 10
224.7603901704
 20
26.4699858882
 10
223.548801167
 20
25.5782488146
 10
222.3270886691
 20
24.8086911158
  0
LWPOLYLINE
  5
221
330
1F
100
AcDbEntity
  8
0
  6
Continuous
 62
     7
370
    25
100
AcDbPolyline
 90
       55
 70
   128
 43
0.0
 10
221.6199818879
 20
24.4003543598
 10
220.3700984622
 20
23.7427174062
 10
219.129997069
 20
23.2180381327
 10
217.9093831831
 20
22.8304228659
 10
216.717809763
 20
22.5829052208
 10
215.5646024865
 20
22.4774223586
 10
214.4587867639
 20
22.5147998257
 10
213.4090171027
 20
22.6947450927
 10
212.4235093738
 20
23.0158498441
 10
211.5099765113
 20
23.4756009996
 10
210.6755681485
 20
24.0704003833
 10
209.9268146623
 20
24.7955928833
 10
209.2695760637
 20
25.6455028852
 10
208.7089961361
 20
26.6134786909
 10
208.2494621773
 20
27.6919445772
 10
207.8945706637
 20
28.8724600864
 10
207.6470991025
 20
30.145786084
 10
207.5089842942
 20
31.5019570675
 10
207.4813071745
 20
32.9303591604
 10
207.5642843543
 20
34.4198131795
 10
207.7572664248
 20
35.9586621276
 10
208.0587430395
 20
37.5348624254
 10
208.4663547353
 20
39.1360781682
 10
208.9769113978
 20
40.7497776721
 10
209.586417229
 20
42.3633315504
 10
210.2901020195
 20
43.9641115562
 10
211.0824584814
 20
45.5395894157
 10
211.9572853514
 20
47.0774348784
 10
212.9077359229
 20
48.5656122185
 10
213.9263716316
 20
49.9924744306
 10
215.0052202719
 20
51.3468543833
 10
216.1358383905
 20
52.6181522171
 10
217.3093773677
 20
53.7964183028
 10
218.5166526697
 20
54.8724311106
 10
219.7482157306
 20
55.8377693815
 10
220.9944278994
 20
56.6848780346
 10
222.2455358764
 20
57.4071272962
 10
223.4917480452
 20
57.9988645865
 10
224.7233111061
 20
58.455458759
 10
225.9305864081
 20
58.7733363451
 10
227.1041253853
 20
58.9500095218
 10
228.2347435039
 20
58.9840955819
 10
229.3135921442
 20
58.8753277557
 10
230.3322278529
 20
58.624557299
 10
231.2826784244
 20
58.2337468306
 10
232.1575052944
 20
57.7059549724
 10
232.9498617563
 20
57.0453124111
 10
233.6535465468
 20
56.2569895706
 10
234.263052378
 20
55.347156146
 10
234.7736090405
 20
54.3229328174
 10
235.1812207363
 20
53.192335521
 10
235.482697351
 20
51.9642127136
 10
235.6756794215
 20
50.6481761213
 10
235.7586566013
 20
49.2545255149
 10
235.7621175116
 20
48.8952517158
  0
SPLINE
  5
222
330
1F
100
AcDbEntity
  8
0
  6
Continuous
 62
     7
370
    25
100
AcDbSpline
210
0.0
220
0.0
230
1.0
 70
    11
 71
     3
 72
    79
 73
    75
 74
     0
 42
0.000000001
 43
0.00000001
 40
0.0
 40
0.0
 40
0.0
 40
0.0
 40
0.0312499999999999
 40
0.0312499999999999
 40
0.0624999999999998
 40
0.0624999999999998
 40
0.0937499999999997
 40
0.0937499999999997
 40
0.1093749999999996
 40
0.1093749999999996
 40
0.1249999999999996
 40
0.1406249999999995
 40
0.1406249999999995
 40
0.1562499999999995
 40
0.1562499999999995
 40
0.1874999999999994
 40
0.1874999999999994
 40
0.2187499999999994
 40
0.2187499999999994
 40
0.2499999999999994
 40
0.2499999999999994
 40
0.2812499999999995
 40
0.2812499999999995
 40
0.3124999999999996
 40
0.3124999999999996
 40
0.3437499999999996
 40
0.3437499999999996
 40
0.3749999999999997
 40
0.3749999999999997
 40
0.4062499999999997
 40
0.4062499999999997
 40
0.4374999999999998
 40
0.4374999999999998
 40
0.4531249999999998
 40
0.4531249999999998
 40
0.4687499999999999
 40
0.4687499999999999
 40
0.5
 40
0.5
 40
0.515625
 40
0.515625
 40
0.5312500000000001
 40
0.5312500000000001
 40
0.5625000000000001
 40
0.5625000000000001
 40
0.5781250000000001
 40
0.5781250000000001
 40
0.5937500000000002
 40
0.5937500000000002
 40
0.6250000000000002
 40
0.6250000000000002
 40
0.6406250000000002
 40
0.6406250000000002
 40
0.6562500000000003
 40
0.6562500000000003
 40
0.6875000000000003
 40
0.6875000000000003
 40
0.7187500000000003
 40
0.7187500000000003
 40
0.7500000000000003
 40
0.7500000000000003
 40
0.7812500000000003
 40
0.7812500000000003
 40
0.8125000000000003
 40
0.8125000000000003
 40
0.8437500000000003
 40
0.8437500000000003
 40
0.8750000000000003
 40
0.8750000000000003
 40
0.9062500000000003
 40
0.9062500000000003
 40
0.9375000000000003
 40
0.9375000000000003
 40
1.0
 40
1.0
 40
1.0
 40
1.0
 10
197.5227468374669
 20
73.86163904275898
 30
0.0
 10
197.1541361649442
 20
73.92389960298647
 30
0.0
 10
196.7867157431109
 20
73.96636412898053
 30
0.0
 10
196.0537183675392
 20
74.00544081203425
 30
0.0
 10
195.6848624157981
 20
74.0013666093707
 30
0.0
 10
194.9821764377849
 20
73.93905997192698
 30
0.0
 10
194.6448060308225
 20
73.88149753207027
 30
0.0
 10
194.1615353804303
 20
73.74941244297545
 30
0.0
 10
194.0037569214911
 20
73.69735385210001
 30
0.0
 10
193.705706858118
 20
73.58021987216604
 30
0.0
 10
193.422738276037
 20
73.44955759803317
 30
0.0
 10
193.1696495052231
 20
73.29190951596678
 30
0.0
 10
192.9318453967983
 20
73.12049059102867
 30
0.0
 10
192.8204085614327
 20
73.02751066785612
 30
0.0
 10
192.5182567481446
 20
72.73593380274434
 30
0.0
 10
192.3558349584785
 20
72.52259732839414
 30
0.0
 10
192.1054199336294
 20
72.06210805883524
 30
0.0
 10
192.0209304821645
 20
71.82074283916968
 30
0.0
 10
191.9272931344515
 20
71.32785267783787
 30
0.0
 10
191.9183625832484
 20
71.07337274939101
 30
0.0
 10
191.9712334741389
 20
70.57456922521745
 30
0.0
 10
192.032226851483
 20
70.32826381722826
 30
0.0
 10
192.2206789579812
 20
69.84524532059463
 30
0.0
 10
192.3467480589916
 20
69.61295591695057
 30
0.0
 10
192.6549885106737
 20
69.17483292166202
 30
0.0
 10
192.8386695951997
 20
68.96697222915915
 30
0.0
 10
193.2598825848119
 20
68.58250891777827
 30
0.0
 10
193.4935515842504
 20
68.40903887799243
 30
0.0
 10
194.0052360519759
 20
68.09907323599778
 30
0.0
 10
194.2854861184033
 20
67.96174858565767
 30
0.0
 10
194.8826474366786
 20
67.72966250112582
 30
0.0
 10
195.1957000788153
 20
67.63593455161667
 30
0.0
 10
195.68687859316
 20
67.52693789120873
 30
0.0
 10
195.8542280552284
 20
67.49589623069812
 30
0.0
 10
196.1964592376575
 20
67.44438954466392
 30
0.0
 10
196.3722553204463
 20
67.42387305516573
 30
0.0
 10
196.9023712537251
 20
67.37916383630422
 30
0.0
 10
197.2604210911852
 20
67.37124146353827
 30
0.0
 10
197.8050813320378
 20
67.39009322466966
 30
0.0
 10
197.987908017199
 20
67.40153393191343
 30
0.0
 10
198.3563451869057
 20
67.43482892324752
 30
0.0
 10
198.542927120411
 20
67.45686597710443
 30
0.0
 10
199.0943137505502
 20
67.53713139715101
 30
0.0
 10
199.453953905177
 20
67.60941766463588
 30
0.0
 10
199.9811443163513
 20
67.74480747324768
 30
0.0
 10
200.1548133533567
 20
67.79447081775147
 30
0.0
 10
200.4977362816629
 20
67.90321666793483
 30
0.0
 10
200.6656610931236
 20
67.9619590994514
 30
0.0
 10
201.1477456521967
 20
68.1470214955621
 30
0.0
 10
201.4449076529407
 20
68.28340068250647
 30
0.0
 10
201.8524045933714
 20
68.50758724963163
 30
0.0
 10
201.9818356115684
 20
68.58578715916356
 30
0.0
 10
202.2199761248797
 20
68.74421663687058
 30
0.0
 10
202.32977613075
 20
68.82500668105479
 30
0.0
 10
202.6321283683216
 20
69.07220672197617
 30
0.0
 10
202.7988648604428
 20
69.2454351274848
 30
0.0
 10
203.0487057682934
 20
69.5920155172689
 30
0.0
 10
203.1342010695705
 20
69.76688673855705
 30
0.0
 10
203.2295663250395
 20
70.12071447139495
 30
0.0
 10
203.2384477126869
 20
70.29514588250335
 30
0.0
 10
203.1863586636789
 20
70.64390923646005
 30
0.0
 10
203.1242195506747
 20
70.81927423388439
 30
0.0
 10
202.9371272156795
 20
71.16216992705138
 30
0.0
 10
202.8123068602371
 20
71.33109976759506
 30
0.0
 10
202.5015272926411
 20
71.66765787618272
 30
0.0
 10
202.3164224065066
 20
71.83377434142581
 30
0.0
 10
201.8988640319106
 20
72.15573948520016
 30
0.0
 10
201.6652247326191
 20
72.31289963734417
 30
0.0
 10
201.1470041993232
 20
72.62035662657296
 30
0.0
 10
200.866963675271
 20
72.76777588131907
 30
0.0
 10
200.2744644993263
 20
73.04546181971925
 30
0.0
 10
199.9607830985812
 20
73.17647748595029
 30
0.0
 10
198.9643036020977
 20
73.54160609138319
 30
0.0
 10
198.2599681825121
 20
73.73711792230398
 30
0.0
 10
197.5227468374669
 20
73.86163904275898
 30
0.0
  0
SPLINE
  5
223
330
1F
100
AcDbEntity
  8
0
  6
Continuous
 62
     7
370
    25
100
AcDbSpline
210
0.0
220
0.0
230
1.0
 70
     8
 71
     3
 72
    12
 73
     8
 74
     0
 42
0.000000001
 43
0.00000001
 40
0.0
 40
0.0
 40
0.0
 40
0.0
 40
0.25
 40
0.25
 40
0.5
 40
0.5
 40
1.0
 40
1.0
 40
1.0
 40
1.0
 10
188.9241527482336
 20
79.98686600493727
 30
0.0
 10
188.8976278392363
 20
80.00217850896557
 30
0.0
 10
188.8831445009606
 20
80.01894900497139
 30
0.0
 10
188.8722989147489
 20
80.04987902431219
 30
0.0
 10
188.8751186441893
 20
80.06378514416124
 30
0.0
 10
188.8955348989288
 20
80.10210974602053
 30
0.0
 10
188.9243785540979
 20
80.12251752489449
 30
0.0
 10
188.9589597332476
 20
80.13994581517065
 30
0.0
  0
LINE
  5
224
330
1F
100
AcDbEntity
  8
0
  6
Continuous
 62
     7
370
    25
100
AcDbLine
 10
190.4346714229
 20
79.1148621351
 30
0.0
 11
188.9241527482
 21
79.9868660049
 31
0.0
  0
SPLINE
  5
225
330
1F
100
AcDbEntity
  8
0
  6
Continuous
 62
     7
370
    25
100
AcDbSpline
210
0.0
220
0.0
230
1.0
 70
     8
 71
     3
 72
    12
 73
     8
 74
     0
 42
0.000000001
 43
0.00000001
 40
0.0
 40
0.0
 40
0.0
 40
0.0
 40
0.5000000000000021
 40
0.5000000000000021
 40
0.750000000000001
 40
0.750000000000001
 40
1.0
 40
1.0
 40
1.0
 40
1.0
 10
190.8369018693813
 20
79.05583289597293
 30
0.0
 10
190.7758956169551
 20
79.05367153253214
 30
0.0
 10
190.7107443064737
 20
79.0541694943915
 30
0.0
 10
190.6052752956026
 20
79.06502169647011
 30
0.0
 10
190.568453269468
 20
79.07046863027648
 30
0.0
 10
190.4967116855127
 20
79.08750653935036
 30
0.0
 10
190.4611001103442
 20
79.09960517866854
 30
0.0
 10
190.4346714229499
 20
79.11486213514782
 30
0.0
  0
ELLIPSE
  5
226
330
1F
100
AcDbEntity
  8
0
  6
Continuous
 62
     7
370
    25
100
AcDbEllipse
 10
179.2296875452
 20
65.2025666333
 30
0.0
 11
20.19646445640936
 21
10.567879341078
 31
0.0
210
0.0
220
0.0
230
1.0
 40
0.4445305117
 41
0.2747775750656745
 42
0.7481474682756467
  0
ELLIPSE
  5
227
330
1F
100
AcDbEntity
  8
0
  6
Continuous
 62
     7
370
    25
100
AcDbEllipse
 10
191.8853845496
 20
57.8965882648
 30
0.0
 11
-0.9474338145994922
 21
22.77431601346332
 31
0.0
210
0.0
220
0.0
230
1.0
 40
0.4444802122
 41
5.836017956378351
 42
6.481829340127725
  0
ELLIPSE
  5
228
330
1F
100
AcDbEntity
  8
0
  6
Continuous
 62
     7
370
    25
100
AcDbEllipse
 10
179.2296875452
 20
65.2025666333
 30
0.0
 11
-0.9474338145995773
 21
22.77431601346336
 31
0.0
210
0.0
220
0.0
230
1.0
 40
0.4444802122
 41
2.393334371993793
 42
2.866866793327969
  0
SPLINE
  5
229
330
1F
100
AcDbEntity
  8
0
  6
Continuous
 62
     7
370
    25
100
AcDbSpline
210
0.0
220
0.0
230
1.0
 70
     8
 71
     3
 72
    12
 73
     8
 74
     0
 42
0.000000001
 43
0.00000001
 40
0.0
 40
0.0
 40
0.0
 40
0.0
 40
0.2499999999999997
 40
0.2499999999999997
 40
0.4999999999999994
 40
0.4999999999999994
 40
1.0
 40
1.0
 40
1.0
 40
1.0
 10
172.7846714229498
 20
48.54416547127872
 30
0.0
 10
172.8111963319471
 20
48.52885296725041
 30
0.0
 10
172.8393327414866
 20
48.50419815875137
 30
0.0
 10
172.8904587168099
 20
48.45000720646977
 30
0.0
 10
172.9130936496742
 20
48.42140164587636
 30
0.0
 10
172.9753237073856
 20
48.33535083346822
 30
0.0
 10
173.0082640123503
 20
48.27926433884228
 30
0.0
 10
173.0369018693813
 20
48.22532861173101
 30
0.0
  0
LINE
  5
22A
330
1F
100
AcDbEntity
  8
0
  6
Continuous
 62
     7
370
    25
100
AcDbLine
 10
171.2741527482
 20
49.4161693411
 30
0.0
 11
172.7846714229
 21
48.5441654713
 31
0.0
  0
SPLINE
  5
22B
330
1F
100
AcDbEntity
  8
0
  6
Continuous
 62
     7
370
    25
100
AcDbSpline
210
0.0
220
0.0
230
1.0
 70
     8
 71
     3
 72
    12
 73
     8
 74
     0
 42
0.000000001
 43
0.00000001
 40
0.0
 40
0.0
 40
0.0
 40
0.0
 40
0.4999999999999978
 40
0.4999999999999978
 40
0.7499999999999989
 40
0.7499999999999989
 40
1.0
 40
1.0
 40
1.0
 40
1.0
 10
171.1589597332475
 20
49.30944153092872
 30
0.0
 10
171.1567673341785
 20
49.34809855955071
 30
0.0
 10
171.1600448700652
 20
49.38333117908318
 30
0.0
 10
171.1829942163211
 20
49.42013205154658
 30
0.0
 10
171.1939098912741
 20
49.42964539768952
 30
0.0
 10
171.2258476949593
 20
49.43559319168549
 30
0.0
 10
171.2477240608392
 20
49.43142629754745
 30
0.0
 10
171.2741527482335
 20
49.41616934106818
 30
0.0
  0
ELLIPSE
  5
22C
330
1F
100
AcDbEntity
  8
0
  6
Continuous
 62
     7
370
    25
100
AcDbEllipse
 10
191.8853845496
 20
57.8965882648
 30
0.0
 11
20.19646445640933
 21
10.56787934107803
 31
0.0
210
0.0
220
0.0
230
1.0
 40
0.4445305117
 41
2.942837807321293
 42
3.58881171919493
  0
SPLINE
  5
22D
330
1F
100
AcDbEntity
  8
0
  6
Continuous
 62
     7
370
    25
100
AcDbSpline
210
0.0
220
0.0
230
1.0
 70
     8
 71
     3
 72
    12
 73
     8
 74
     0
 42
0.000000001
 43
0.00000001
 40
0.0
 40
0.0
 40
0.0
 40
0.0
 40
0.2500000000000027
 40
0.2500000000000027
 40
0.5000000000000053
 40
0.5000000000000053
 40
1.0
 40
1.0
 40
1.0
 40
1.0
 10
171.2741527482335
 20
58.93574996531692
 30
0.0
 10
171.2476356620766
 20
58.95105795331563
 30
0.0
 10
171.2258727282513
 20
58.9793778679083
 30
0.0
 10
171.1936631666638
 20
59.04446148479399
 30
0.0
 10
171.1830267807927
 20
59.07998225019752
 30
0.0
 10
171.1600329489888
 20
59.18865444467679
 30
0.0
 10
171.1567536328506
 20
59.26153776191348
 30
0.0
 10
171.1589597332475
 20
59.33369685013382
 30
0.0
  0
LINE
  5
22E
330
1F
100
AcDbEntity
  8
0
  6
Continuous
 62
     7
370
    25
100
AcDbLine
 10
172.7846714229
 20
58.0637460955
 30
0.0
 11
171.2741527482
 21
58.9357499653
 31
0.0
  0
SPLINE
  5
22F
330
1F
100
AcDbEntity
  8
0
  6
Continuous
 62
     7
370
    25
100
AcDbSpline
210
0.0
220
0.0
230
1.0
 70
     8
 71
     3
 72
    12
 73
     8
 74
     0
 42
0.000000001
 43
0.00000001
 40
0.0
 40
0.0
 40
0.0
 40
0.0
 40
0.4999999999999969
 40
0.4999999999999969
 40
0.7499999999999984
 40
0.7499999999999984
 40
1.0
 40
1.0
 40
1.0
 40
1.0
 10
173.0369018693813
 20
58.24958393093611
 30
0.0
 10
173.0081047822961
 20
58.19280212908107
 30
0.0
 10
172.9752734842061
 20
58.14073186078461
 30
0.0
 10
172.9130813921442
 20
58.08127337624609
 30
0.0
 10
172.8901009798217
 20
58.06483978810051
 30
0.0
 10
172.8397266743531
 20
58.04808289023563
 30
0.0
 10
172.8111545936005
 20
58.04845768653377
 30
0.0
 10
172.7846714229499
 20
58.06374609552743
 30
0.0
  0
ELLIPSE
  5
230
330
1F
100
AcDbEntity
  8
0
  6
Continuous
 62
     7
370
    25
100
AcDbEllipse
 10
179.2296875452
 20
65.2025666333
 30
0.0
 11
9.999858383106982
 21
17.32058985460519
 31
0.0
210
0.0
220
0.0
230
1.0
 40
0.1059897947
 41
1.097268011763437
 42
2.044170326307566
  0
SPLINE
  5
231
330
1F
100
AcDbEntity
  8
0
  6
Continuous
 62
     7
370
    25
100
AcDbSpline
210
0.0
220
0.0
230
1.0
 70
     8
 71
     3
 72
    12
 73
     8
 74
     0
 42
0.000000001
 43
0.00000001
 40
0.0
 40
0.0
 40
0.0
 40
0.0
 40
0.2499999999999984
 40
0.2499999999999984
 40
0.4999999999999969
 40
0.4999999999999969
 40
1.0
 40
1.0
 40
1.0
 40
1.0
 10
182.1909193465377
 20
74.35584535995537
 30
0.0
 10
182.2174364326946
 20
74.34053737195664
 30
0.0
 10
182.231919440656
 20
74.3164214353064
 30
0.0
 10
182.2427717329133
 20
74.26367111560683
 30
0.0
 10
182.2399585672013
 20
74.23591713509192
 30
0.0
 10
182.2195630770543
 20
74.15230120572106
 30
0.0
 10
182.190898434422
 20
74.09786473816031
 30
0.0
 10
182.1561123615237
 20
74.04451978188561
 30
0.0
  0
LINE
  5
232
330
1F
100
AcDbEntity
  8
0
  6
Continuous
 62
     7
370
    25
100
AcDbLine
 10
180.6804006718
 20
75.2278492297
 30
0.0
 11
182.1909193465
 21
74.35584536
 31
0.0
  0
SPLINE
  5
233
330
1F
100
AcDbEntity
  8
0
  6
Continuous
 62
     7
370
    25
100
AcDbSpline
210
0.0
220
0.0
230
1.0
 70
     8
 71
     3
 72
    12
 73
     8
 74
     0
 42
0.000000001
 43
0.00000001
 40
0.0
 40
0.0
 40
0.0
 40
0.0
 40
0.5000000000000022
 40
0.5000000000000022
 40
0.7500000000000011
 40
0.7500000000000011
 40
1.0
 40
1.0
 40
1.0
 40
1.0
 10
180.2781702253899
 20
75.12863270108332
 30
0.0
 10
180.3395354671208
 20
75.16660719551335
 30
0.0
 10
180.4043255732645
 20
75.20022203903854
 30
0.0
 10
180.5098901006935
 20
75.23463401005496
 30
0.0
 10
180.5464667294264
 20
75.24321611798534
 30
0.0
 10
180.6178986517993
 20
75.24781276056198
 30
0.0
 10
180.6539175011708
 20
75.24313763873849
 30
0.0
 10
180.6804006718214
 20
75.22784922974482
 30
0.0
  0
ELLIPSE
  5
234
330
1F
100
AcDbEntity
  8
0
  6
Continuous
 62
     7
370
    25
100
AcDbEllipse
 10
191.8853845496
 20
57.8965882648
 30
0.0
 11
18.16175696005977
 21
-10.49384394577497
 31
0.0
210
0.0
220
0.0
230
1.0
 40
0.9534948969
 41
2.668462287779718
 42
3.615364602323866
  0
ARC
  5
235
330
1F
100
AcDbEntity
  8
0
  6
Continuous
 62
     7
370
    25
100
AcDbCircle
 10
186.3936828006
 20
75.1743475126
 30
0.0
 40
7.784792130054116
100
AcDbArc
 50
61.4687019182
 51
98.7921920177
  0
ARC
  5
236
330
1F
100
AcDbEntity
  8
0
  6
Continuous
 62
     7
370
    25
100
AcDbCircle
 10
174.2688069521
 20
54.0979082605
 30
0.0
 40
7.906101515771829
100
AcDbArc
 50
199.9365047215
 51
238.2936265193
  0
SPLINE
  5
237
330
1F
100
AcDbEntity
  8
0
  6
Continuous
 62
     7
370
    25
100
AcDbSpline
210
0.0
220
0.0
230
1.0
 70
    11
 71
     3
 72
    79
 73
    75
 74
     0
 42
0.000000001
 43
0.00000001
 40
0.0
 40
0.0
 40
0.0
 40
0.0
 40
0.0312500000000003
 40
0.0312500000000003
 40
0.0625000000000006
 40
0.0625000000000006
 40
0.093750000000001
 40
0.093750000000001
 40
0.1093750000000011
 40
0.1093750000000011
 40
0.1250000000000013
 40
0.1406250000000015
 40
0.1406250000000015
 40
0.1562500000000016
 40
0.1562500000000016
 40
0.187500000000002
 40
0.187500000000002
 40
0.2187500000000024
 40
0.2187500000000024
 40
0.2500000000000027
 40
0.2500000000000027
 40
0.2812500000000031
 40
0.2812500000000031
 40
0.3125000000000034
 40
0.3125000000000034
 40
0.3437500000000038
 40
0.3437500000000038
 40
0.3750000000000042
 40
0.3750000000000042
 40
0.4062500000000046
 40
0.4062500000000046
 40
0.4375000000000049
 40
0.4375000000000049
 40
0.4531250000000052
 40
0.4531250000000052
 40
0.4687500000000053
 40
0.4687500000000053
 40
0.5000000000000058
 40
0.5000000000000058
 40
0.5156250000000057
 40
0.5156250000000057
 40
0.5312500000000057
 40
0.5312500000000057
 40
0.5625000000000056
 40
0.5625000000000056
 40
0.5781250000000053
 40
0.5781250000000053
 40
0.5937500000000051
 40
0.5937500000000051
 40
0.6250000000000048
 40
0.6250000000000048
 40
0.6406250000000047
 40
0.6406250000000047
 40
0.6562500000000044
 40
0.6562500000000044
 40
0.6875000000000041
 40
0.6875000000000041
 40
0.7187500000000038
 40
0.7187500000000038
 40
0.7500000000000033
 40
0.7500000000000033
 40
0.781250000000003
 40
0.781250000000003
 40
0.8125000000000027
 40
0.8125000000000027
 40
0.8437500000000023
 40
0.8437500000000023
 40
0.875000000000002
 40
0.875000000000002
 40
0.9062500000000017
 40
0.9062500000000017
 40
0.9375000000000012
 40
0.9375000000000012
 40
1.0
 40
1.0
 40
1.0
 40
1.0
 10
211.6648824611978
 20
65.69755792453186
 30
0.0
 10
211.2962717886752
 20
65.75981848475935
 30
0.0
 10
210.9288513668419
 20
65.80228301075343
 30
0.0
 10
210.1958539912702
 20
65.84135969380716
 30
0.0
 10
209.8269980395291
 20
65.83728549114358
 30
0.0
 10
209.1243120615159
 20
65.77497885369989
 30
0.0
 10
208.7869416545534
 20
65.71741641384315
 30
0.0
 10
208.3036710041612
 20
65.58533132474835
 30
0.0
 10
208.145892545222
 20
65.5332727338729
 30
0.0
 10
207.8478424818489
 20
65.41613875393895
 30
0.0
 10
207.5648738997679
 20
65.28547647980606
 30
0.0
 10
207.311785128954
 20
65.12782839773969
 30
0.0
 10
207.0739810205292
 20
64.95640947280158
 30
0.0
 10
206.9625441851636
 20
64.86342954962902
 30
0.0
 10
206.6603923718755
 20
64.57185268451724
 30
0.0
 10
206.4979705822094
 20
64.35851621016704
 30
0.0
 10
206.2475555573603
 20
63.89802694060814
 30
0.0
 10
206.1630661058954
 20
63.65666172094259
 30
0.0
 10
206.0694287581824
 20
63.16377155961075
 30
0.0
 10
206.0604982069793
 20
62.90929163116393
 30
0.0
 10
206.1133690978699
 20
62.41048810699035
 30
0.0
 10
206.174362475214
 20
62.16418269900117
 30
0.0
 10
206.3628145817122
 20
61.68116420236754
 30
0.0
 10
206.4888836827225
 20
61.44887479872347
 30
0.0
 10
206.7971241344047
 20
61.01075180343492
 30
0.0
 10
206.9808052189306
 20
60.80289111093205
 30
0.0
 10
207.4020182085428
 20
60.41842779955117
 30
0.0
 10
207.6356872079813
 20
60.24495775976533
 30
0.0
 10
208.1473716757068
 20
59.93499211777068
 30
0.0
 10
208.4276217421342
 20
59.79766746743056
 30
0.0
 10
209.0247830604095
 20
59.56558138289871
 30
0.0
 10
209.3378357025462
 20
59.47185343338959
 30
0.0
 10
209.829014216891
 20
59.36285677298163
 30
0.0
 10
209.9963636789593
 20
59.33181511247102
 30
0.0
 10
210.3385948613883
 20
59.2803084264368
 30
0.0
 10
210.5143909441773
 20
59.25979193693863
 30
0.0
 10
211.044506877456
 20
59.21508271807711
 30
0.0
 10
211.4025567149161
 20
59.20716034531118
 30
0.0
 10
211.9472169557687
 20
59.22601210644256
 30
0.0
 10
212.1300436409299
 20
59.23745281368633
 30
0.0
 10
212.4984808106366
 20
59.27074780502042
 30
0.0
 10
212.685062744142
 20
59.29278485887731
 30
0.0
 10
213.2364493742811
 20
59.37305027892391
 30
0.0
 10
213.5960895289079
 20
59.44533654640875
 30
0.0
 10
214.1232799400823
 20
59.58072635502058
 30
0.0
 10
214.2969489770876
 20
59.63038969952436
 30
0.0
 10
214.6398719053938
 20
59.73913554970773
 30
0.0
 10
214.8077967168545
 20
59.79787798122431
 30
0.0
 10
215.2898812759276
 20
59.98294037733499
 30
0.0
 10
215.5870432766716
 20
60.11931956427939
 30
0.0
 10
215.9945402171023
 20
60.34350613140453
 30
0.0
 10
216.1239712352993
 20
60.42170604093645
 30
0.0
 10
216.3621117486106
 20
60.58013551864347
 30
0.0
 10
216.4719117544809
 20
60.66092556282767
 30
0.0
 10
216.7742639920525
 20
60.90812560374906
 30
0.0
 10
216.9410004841738
 20
61.08135400925769
 30
0.0
 10
217.1908413920243
 20
61.42793439904182
 30
0.0
 10
217.2763366933014
 20
61.60280562032994
 30
0.0
 10
217.3717019487704
 20
61.95663335316783
 30
0.0
 10
217.3805833364178
 20
62.13106476427625
 30
0.0
 10
217.3284942874098
 20
62.47982811823294
 30
0.0
 10
217.2663551744056
 20
62.65519311565728
 30
0.0
 10
217.0792628394104
 20
62.99808880882428
 30
0.0
 10
216.954442483968
 20
63.16701864936797
 30
0.0
 10
216.643662916372
 20
63.50357675795561
 30
0.0
 10
216.4585580302375
 20
63.66969322319869
 30
0.0
 10
216.0409996556415
 20
63.99165836697304
 30
0.0
 10
215.80736035635
 20
64.14881851911707
 30
0.0
 10
215.2891398230541
 20
64.45627550834585
 30
0.0
 10
215.0090992990019
 20
64.60369476309197
 30
0.0
 10
214.4166001230573
 20
64.88138070149216
 30
0.0
 10
214.1029187223122
 20
65.01239636772318
 30
0.0
 10
213.1064392258287
 20
65.37752497315607
 30
0.0
 10
212.402103806243
 20
65.57303680407688
 30
0.0
 10
211.6648824611978
 20
65.69755792453186
 30
0.0
  0
ARC
  5
238
330
1F
100
AcDbEntity
  8
0
  6
Continuous
 62
     7
370
    25
100
AcDbCircle
 10
184.2496627798
 20
64.3094178185
 30
0.0
 40
29.8377505406308
100
AcDbArc
 50
140.3510260334
 51
177.2376142263
  0
ARC
  5
239
330
1F
100
AcDbEntity
  8
0
  6
Continuous
 62
     7
370
    25
100
AcDbCircle
 10
167.1253482608
 20
79.4860095837
 30
0.0
 40
7.00984565726836
100
AcDbArc
 50
93.4295381122
 51
146.5650853551
  0
ARC
  5
23A
330
1F
100
AcDbEntity
  8
0
  6
Continuous
 62
     7
370
    25
100
AcDbCircle
 10
158.3420325965
 20
65.3829478168
 30
0.0
 40
3.912462140583921
100
AcDbArc
 50
174.6547638622
 51
232.6759834224
  0
ARC
  5
23B
330
1F
100
AcDbEntity
  8
0
  6
Continuous
 62
     7
370
    25
100
AcDbCircle
 10
166.1548513856
 20
79.6733461535
 30
0.0
 40
6.8322228849872
100
AcDbArc
 50
62.0154699427
 51
85.3728752634
  0
ARC
  5
23C
330
1F
100
AcDbEntity
  8
0
  6
Continuous
 62
     7
370
    25
100
AcDbCircle
 10
182.4651116765
 20
65.3397138499
 30
0.0
 40
28.4999326178161
100
AcDbArc
 50
140.3510260334
 51
177.2376142263
  0
ARC
  5
23D
330
1F
100
AcDbEntity
  8
0
  6
Continuous
 62
     7
370
    25
100
AcDbCircle
 10
166.314336316
 20
79.3332197599
 30
0.0
 40
7.150739995411998
100
AcDbArc
 50
103.4689958683
 51
144.1118487458
  0
ARC
  5
23E
330
1F
100
AcDbEntity
  8
0
  6
Continuous
 62
     7
370
    25
100
AcDbCircle
 10
158.7390308212
 20
66.6185730629
 30
0.0
 40
4.741679722196216
100
AcDbArc
 50
178.8560094402
 51
201.1091694604
  0
LWPOLYLINE
  5
23F
330
1F
100
AcDbEntity
  8
0
  6
Continuous
 62
     7
370
    25
100
AcDbPolyline
 90
       33
 70
   128
 43
0.0
 10
213.6100514073
 20
60.7415833744
 10
214.2615458407
 20
60.9934992111
 10
214.815388806
 20
61.3139479734
 10
215.2502964287
 20
61.6906149948
 10
215.5495554527
 20
62.1090251731
 10
215.7016655216
 20
62.5530992397
 10
215.7007811307
 20
63.0057716772
 10
215.5469362666
 20
63.4496465379
 10
215.2460431013
 20
63.8676659596
 10
214.8096647902
 20
64.2437656905
 10
214.2545711073
 20
64.5634924288
 10
213.6020939914
 20
64.8145592553
 10
212.8773077721
 20
64.9873178126
 10
212.1080655774
 20
65.0751290863
 10
211.3239289535
 20
65.0746185382
 10
210.5550318311
 20
64.9858057887
 10
209.8309224953
 20
64.8121038617
 10
209.1794280619
 20
64.5601880249
 10
208.6255850966
 20
64.2397392627
 10
208.1906774739
 20
63.8630722412
 10
207.8914184499
 20
63.4446620629
 10
207.739308381
 20
63.0005879963
 10
207.7401927719
 20
62.5479155588
 10
207.894037636
 20
62.1040406981
 10
208.1949308013
 20
61.6860212764
 10
208.6313091123
 20
61.3099215455
 10
209.1864027953
 20
60.9901948072
 10
209.8388799112
 20
60.7391279807
 10
210.5636661305
 20
60.5663694234
 10
211.3329083252
 20
60.4785581498
 10
212.1170449491
 20
60.4790686978
 10
212.8859420715
 20
60.5678814473
 10
213.6100514073
 20
60.7415833744
  0
LWPOLYLINE
  5
240
330
1F
100
AcDbEntity
  8
0
  6
Continuous
 62
     7
370
    25
100
AcDbPolyline
 90
       10
 70
   128
 43
0.0
 10
215.546458013
 20
60.1020150566
 10
216.0084238631
 20
60.4756969186
 10
216.3987081969
 20
60.941550114
 10
216.6386306507
 20
61.4401468591
 10
216.7204799193
 20
61.9554618444
 10
216.6416252999
 20
62.4709324222
 10
216.4046012448
 20
62.969990944
 10
216.0170259023
 20
63.4365972582
 10
215.4913562626
 20
63.8557542541
 10
215.2565953409
 20
64.0009913894
  0
LWPOLYLINE
  5
241
330
1F
100
AcDbEntity
  8
0
  6
Continuous
 62
     7
370
    25
100
AcDbPolyline
 90
       11
 70
   128
 43
0.0
 10
208.1843785617
 20
64.0009913894
 10
207.6803366593
 20
63.6608228578
 10
207.2192873664
 20
63.2170413559
 10
206.9029103316
 20
62.732867243
 10
206.7413741734
 20
62.2238622734
 10
206.7398707966
 20
61.7063862857
 10
206.8984485212
 20
61.1970713838
 10
207.2120105284
 20
60.7122873679
 10
207.6704786775
 20
60.267615595
 10
208.2591174249
 20
59.8773481819
 10
208.7311088962
 20
59.6465657151
  0
LWPOLYLINE
  5
242
330
1F
100
AcDbEntity
  8
0
  6
Continuous
 62
     7
370
    25
100
AcDbPolyline
 90
       30
 70
   128
 43
0.0
 10
213.3738558503
 20
60.9959909048
 10
213.9983550671
 20
61.2428089907
 10
214.5163437024
 20
61.5613568308
 10
214.9036011835
 20
61.9367394822
 10
215.1420197808
 20
62.3514044692
 10
215.2204513058
 20
62.785962518
 10
215.1352283875
 20
63.2200941772
 10
214.8903359549
 20
63.6334999329
 10
214.4972249058
 20
64.0068493914
 10
213.9742766762
 20
64.3226851469
 10
213.3459437439
 20
64.5662390707
 10
212.6416062586
 20
64.7261228519
 10
211.8941982582
 20
64.7948605025
 10
211.1386677101
 20
64.7692379265
 10
210.4103423832
 20
64.650453207
 10
209.7432779601
 20
64.4440605856
 10
209.1686656319
 20
64.1597107516
 10
208.7133736325
 20
63.8106995875
 10
208.3986909097
 20
63.4133464673
 10
208.2393316779
 20
62.9862311812
 10
208.2427473976
 20
62.5493251655
 10
208.4087783537
 20
62.1230576597
 10
208.7296611231
 20
61.7273604587
 10
209.1903915841
 20
61.3807359238
 10
209.7694264925
 20
61.099391833
 10
210.4396908195
 20
60.8964835233
 10
211.1698437502
 20
60.7814987618
 10
211.9257441449
 20
60.7598141081
 10
212.6720469414
 20
60.8324435125
 10
213.3738558503
 20
60.9959909048
  0
SPLINE
  5
243
330
1F
100
AcDbEntity
  8
0
  6
Continuous
 62
     7
370
    25
100
AcDbSpline
210
0.0
220
0.0
230
1.0
 70
     8
 71
     3
 72
    11
 73
     7
 74
     0
 42
0.000000001
 43
0.00000001
 40
0.0
 40
0.0
 40
0.0
 40
0.0
 40
0.2164543009645011
 40
0.4403089937225378
 40
0.7518987489759481
 40
1.0
 40
1.0
 40
1.0
 40
1.0
 10
208.8351765154777
 20
62.32874838158424
 30
0.0
 10
208.9394094416286
 20
62.35182108736717
 30
0.0
 10
209.1514389306328
 20
62.39875533547622
 30
0.0
 10
209.5449099393302
 20
62.63959599362985
 30
0.0
 10
209.9669802248124
 20
63.10799407451448
 30
0.0
 10
210.2370805215047
 20
63.54930028711473
 30
0.0
 10
210.3568112671478
 20
63.74492362606923
 30
0.0
  0
SPLINE
  5
244
330
1F
100
AcDbEntity
  8
0
  6
Continuous
 62
     7
370
    25
100
AcDbSpline
210
0.0
220
0.0
230
1.0
 70
     8
 71
     3
 72
    11
 73
     7
 74
     0
 42
0.000000001
 43
0.00000001
 40
0.0
 40
0.0
 40
0.0
 40
0.0
 40
0.1742532884689154
 40
0.4949094341322091
 40
0.8275117714833404
 40
0.9999999999999999
 40
0.9999999999999999
 40
0.9999999999999999
 40
0.9999999999999999
 10
209.6101161879431
 20
61.19578352798989
 30
0.0
 10
209.563452599087
 20
61.23808065935258
 30
0.0
 10
209.4309199475755
 20
61.35821181746191
 30
0.0
 10
209.2094214438808
 20
61.66654523340566
 30
0.0
 10
208.9991612650144
 20
62.01585264763107
 30
0.0
 10
208.8769213858688
 20
62.24909590233416
 30
0.0
 10
208.8351765154777
 20
62.32874838158425
 30
0.0
  0
SPLINE
  5
245
330
1F
100
AcDbEntity
  8
0
  6
Continuous
 62
     7
370
    25
100
AcDbSpline
210
0.0
220
0.0
230
1.0
 70
     8
 71
     3
 72
    10
 73
     6
 74
     0
 42
0.000000001
 43
0.00000001
 40
0.0
 40
0.0
 40
0.0
 40
0.0
 40
0.4323700609291662
 40
0.879522493178342
 40
1.0
 40
1.0
 40
1.0
 40
1.0
 10
214.605797387098
 20
62.22345374669351
 30
0.0
 10
214.5016948706859
 20
62.05559713402377
 30
0.0
 10
214.2899306597593
 20
61.71414503127065
 30
0.0
 10
214.0264141504603
 20
61.35041010139722
 30
0.0
 10
213.8771698215291
 20
61.24429887864063
 30
0.0
 10
213.8454932248254
 20
61.221777135717
 30
0.0
  0
SPLINE
  5
246
330
1F
100
AcDbEntity
  8
0
  6
Continuous
 62
     7
370
    25
100
AcDbSpline
210
0.0
220
0.0
230
1.0
 70
     8
 71
     3
 72
    13
 73
     9
 74
     0
 42
0.000000001
 43
0.00000001
 40
0.0
 40
0.0
 40
0.0
 40
0.0
 40
0.0975734251614103
 40
0.2795453172340046
 40
0.4671000345195786
 40
0.6371915657942216
 40
0.8138734163188822
 40
1.0
 40
1.0
 40
1.0
 40
1.0
 10
213.2421217029579
 20
63.69227630862387
 30
0.0
 10
213.2838645462813
 20
63.61270987468648
 30
0.0
 10
213.4034567032622
 20
63.38475411747687
 30
0.0
 10
213.6135610835262
 20
63.03163372421305
 30
0.0
 10
213.8684107365763
 20
62.68770469643511
 30
0.0
 10
214.1230436069878
 20
62.44274058885535
 30
0.0
 10
214.3692048855445
 20
62.28868199959886
 30
0.0
 10
214.5255763179298
 20
62.2455705938196
 30
0.0
 10
214.605797387098
 20
62.22345374669351
 30
0.0
  0
SPLINE
  5
247
330
1F
100
AcDbEntity
  8
0
  6
Continuous
 62
     7
370
    25
100
AcDbSpline
210
0.0
220
0.0
230
1.0
 70
     8
 71
     3
 72
    11
 73
     7
 74
     0
 42
0.000000001
 43
0.00000001
 40
0.0
 40
0.0
 40
0.0
 40
0.0
 40
0.2164543009645026
 40
0.4403089937225366
 40
0.7518987489759485
 40
0.9999999999999999
 40
0.9999999999999999
 40
0.9999999999999999
 40
0.9999999999999999
 10
210.3568112671478
 20
63.74492362606923
 30
0.0
 10
210.5544568251558
 20
63.66738107352003
 30
0.0
 10
210.9565052777504
 20
63.50964485330411
 30
0.0
 10
211.7026015445041
 20
63.37067091113653
 30
0.0
 10
212.5029275084127
 20
63.43164772528407
 30
0.0
 10
213.015089315907
 20
63.61222815639815
 30
0.0
 10
213.2421217029579
 20
63.69227630862387
 30
0.0
  0
LINE
  5
248
330
1F
100
AcDbEntity
  8
0
  6
Continuous
 62
     7
370
    25
100
AcDbLine
 10
210.3568112671
 20
60.9160071475
 30
0.0
 11
210.3568112671
 21
63.7449236261
 31
0.0
  0
LINE
  5
249
330
1F
100
AcDbEntity
  8
0
  6
Continuous
 62
     7
370
    25
100
AcDbLine
 10
213.242121703
 20
60.9572763687
 30
0.0
 11
213.242121703
 21
63.6922763086
 31
0.0
  0
LWPOLYLINE
  5
24A
330
1F
100
AcDbEntity
  8
0
  6
Continuous
 62
     7
370
    25
100
AcDbPolyline
 90
       33
 70
   128
 43
0.0
 10
197.3307877555
 20
68.6362007123
 10
198.114409894
 20
68.6526039252
 10
198.8774316024
 20
68.7569460235
 10
199.5905303844
 20
68.945217199
 10
200.2263022537
 20
69.2101822959
 10
200.7603148539
 20
69.5416588542
 10
201.1720463802
 20
69.9269084157
 10
201.445674221
 20
70.3511260556
 10
201.5706830119
 20
70.7980093281
 10
201.542268735
 20
71.2503847596
 10
201.3615233352
 20
71.6908678159
 10
201.0353927567
 20
72.1025309803
 10
200.5764100149
 20
72.4695542681
 10
200.002213559
 20
72.7778331803
 10
199.3348694369
 20
73.0155207311
 10
198.6000233089
 20
73.1734827213
 10
197.8259148996
 20
73.2456487602
 10
197.0422927611
 20
73.2292455473
 10
196.2792710527
 20
73.124903449
 10
195.5661722707
 20
72.9366322735
 10
194.9304004014
 20
72.6716671765
 10
194.3963878012
 20
72.3401906182
 10
193.9846562749
 20
71.9549410568
 10
193.7110284341
 20
71.5307234169
 10
193.5860196432
 20
71.0838401444
 10
193.6144339201
 20
70.6314647129
 10
193.7951793199
 20
70.1909816565
 10
194.1213098984
 20
69.7793184922
 10
194.5802926402
 20
69.4122952044
 10
195.1544890961
 20
69.1040162922
 10
195.8218332182
 20
68.8663287413
 10
196.5566793462
 20
68.7083667512
 10
197.3307877555
 20
68.6362007123
  0
LWPOLYLINE
  5
24B
330
1F
100
AcDbEntity
  8
0
  6
Continuous
 62
     7
370
    25
100
AcDbPolyline
 90
       11
 70
   128
 43
0.0
 10
201.1584845535
 20
68.1094392437
 10
201.2870728735
 20
68.1884993113
 10
201.8262473577
 20
68.6018999738
 10
202.2288909684
 20
69.0642345232
 10
202.4820624085
 20
69.5606431466
 10
202.5776245396
 20
70.0751708625
 10
202.5125059163
 20
70.5912803267
 10
202.2887995047
 20
71.0923833563
 10
201.9136954129
 20
71.5623740877
 10
201.3992497951
 20
71.9861466321
 10
201.1144597171
 20
72.1650725077
  0
LWPOLYLINE
  5
24C
330
1F
100
AcDbEntity
  8
0
  6
Continuous
 62
     7
370
    25
100
AcDbPolyline
 90
       11
 70
   128
 43
0.0
 10
194.042242938
 20
72.1650725077
 10
193.5839623036
 20
71.8605575306
 10
193.1111498523
 20
71.4209200735
 10
192.781916932
 20
70.9396108778
 10
192.6068453597
 20
70.432099617
 10
192.5915620797
 20
69.9146981207
 10
192.7365583094
 20
69.4040360986
 10
193.0371737504
 20
68.9165266484
 10
193.4837463753
 20
68.4678387248
 10
194.0619229725
 20
68.072393527
 10
194.0623460333
 20
68.0721519463
  0
LWPOLYLINE
  5
24D
330
1F
100
AcDbEntity
  8
0
  6
Continuous
 62
     7
370
    25
100
AcDbPolyline
 90
       30
 70
   128
 43
0.0
 10
197.361733202
 20
68.9242912153
 10
198.1177517506
 20
68.9445567217
 10
198.8485485349
 20
69.0581701776
 10
199.5199523095
 20
69.2598191442
 10
200.1005689801
 20
69.5400747398
 10
200.5632495566
 20
69.8858325244
 10
200.8863596093
 20
70.2809252481
 10
201.0547908714
 20
70.7068788143
 10
201.0606676842
 20
71.1437761078
 10
200.9037152544
 20
71.5711882965
 10
200.5912725034
 20
71.9691300617
 10
200.1379489067
 20
72.3189940886
 10
199.5649413721
 20
72.6044211242
 10
198.8990430949
 20
72.8120649175
 10
198.1713907385
 20
72.9322162756
 10
197.4160085183
 20
72.9592570545
 10
196.6682172675
 20
72.8919228574
 10
195.9629828738
 20
72.7333621565
 10
195.3332813137
 20
72.490989074
 10
194.8085567321
 20
72.1761367059
 10
194.4133446675
 20
71.8035271988
 10
194.1661247966
 20
71.3905833594
 10
194.0784568459
 20
70.9566139825
 10
194.1544400713
 20
70.5219109938
 10
194.3905215817
 20
70.1068006221
 10
194.7756624679
 20
69.7306929669
 10
195.2918539702
 20
69.4111744041
 10
195.9149595478
 20
69.1631852667
 10
196.6158434762
 20
68.998321251
 10
197.361733202
 20
68.9242912153
  0
SPLINE
  5
24E
330
1F
100
AcDbEntity
  8
0
  6
Continuous
 62
     7
370
    25
100
AcDbSpline
210
0.0
220
0.0
230
1.0
 70
     8
 71
     3
 72
    11
 73
     7
 74
     0
 42
0.000000001
 43
0.00000001
 40
0.0
 40
0.0
 40
0.0
 40
0.0
 40
0.1867063023916598
 40
0.5329901920211934
 40
0.902122668007556
 40
1.0
 40
1.0
 40
1.0
 40
1.0
 10
199.1736871680158
 20
71.82906454148211
 30
0.0
 10
199.004442044609
 20
71.7708564881768
 30
0.0
 10
198.5212982531692
 20
71.6046900486353
 30
0.0
 10
197.6072054681696
 20
71.50631719523393
 30
0.0
 10
196.8009227972049
 20
71.71449689150475
 30
0.0
 10
196.3805689801203
 20
71.89448285007933
 30
0.0
 10
196.2924699522067
 20
71.93220485317306
 30
0.0
  0
SPLINE
  5
24F
330
1F
100
AcDbEntity
  8
0
  6
Continuous
 62
     7
370
    25
100
AcDbSpline
210
0.0
220
0.0
230
1.0
 70
     8
 71
     3
 72
    11
 73
     7
 74
     0
 42
0.000000001
 43
0.00000001
 40
0.0
 40
0.0
 40
0.0
 40
0.0
 40
0.2164543009645048
 40
0.440308993722538
 40
0.7518987489759466
 40
1.0
 40
1.0
 40
1.0
 40
1.0
 10
196.2924699522067
 20
71.93220485317306
 30
0.0
 10
196.1831884556702
 20
71.76312936982961
 30
0.0
 10
195.9608892194893
 20
71.4191978535586
 30
0.0
 10
195.5483602589962
 20
70.93469437539295
 30
0.0
 10
195.1058468024105
 20
70.62502698278172
 30
0.0
 10
194.8226640718908
 20
70.56841679978179
 30
0.0
 10
194.6971341117478
 20
70.54332249405691
 30
0.0
  0
SPLINE
  5
250
330
1F
100
AcDbEntity
  8
0
  6
Continuous
 62
     7
370
    25
100
AcDbSpline
210
0.0
220
0.0
230
1.0
 70
     8
 71
     3
 72
    12
 73
     8
 74
     0
 42
0.000000001
 43
0.00000001
 40
0.0
 40
0.0
 40
0.0
 40
0.0
 40
0.0359480528294707
 40
0.3002342811038031
 40
0.5733532041026533
 40
0.7856993785568204
 40
1.0
 40
1.0
 40
1.0
 40
1.0
 10
195.4486029603594
 20
69.36797973948048
 30
0.0
 10
195.4393522956604
 20
69.37623165853304
 30
0.0
 10
195.3620917364082
 20
69.44515080128127
 30
0.0
 10
195.2114477976579
 20
69.63524219973317
 30
0.0
 10
195.0199960334878
 20
69.92725607461477
 30
0.0
 10
194.8477278482779
 20
70.23753998429895
 30
0.0
 10
194.7474850928903
 20
70.44108418230977
 30
0.0
 10
194.6971341117478
 20
70.54332249405691
 30
0.0
  0
SPLINE
  5
251
330
1F
100
AcDbEntity
  8
0
  6
Continuous
 62
     7
370
    25
100
AcDbSpline
210
0.0
220
0.0
230
1.0
 70
     8
 71
     3
 72
    11
 73
     7
 74
     0
 42
0.000000001
 43
0.00000001
 40
0.0
 40
0.0
 40
0.0
 40
0.0
 40
0.1538350943923723
 40
0.484093695890486
 40
0.7408651778467246
 40
0.9999999999999999
 40
0.9999999999999999
 40
0.9999999999999999
 40
0.9999999999999999
 10
199.6943267640047
 20
69.36429797974526
 30
0.0
 10
199.7354379232592
 20
69.39974331578415
 30
0.0
 10
199.8648079678804
 20
69.51128394825767
 30
0.0
 10
200.0590337809658
 20
69.74936061006858
 30
0.0
 10
200.2727277960643
 20
70.04277659651599
 30
0.0
 10
200.397098382516
 20
70.23865434399913
 30
0.0
 10
200.459568543366
 20
70.33704187067502
 30
0.0
  0
SPLINE
  5
252
330
1F
100
AcDbEntity
  8
0
  6
Continuous
 62
     7
370
    25
100
AcDbSpline
210
0.0
220
0.0
230
1.0
 70
     8
 71
     3
 72
    11
 73
     7
 74
     0
 42
0.000000001
 43
0.00000001
 40
0.0
 40
0.0
 40
0.0
 40
0.0
 40
0.2164543009645054
 40
0.4403089937225384
 40
0.7518987489759472
 40
0.9999999999999999
 40
0.9999999999999999
 40
0.9999999999999999
 40
0.9999999999999999
 10
199.1736871680158
 20
71.82906454148211
 30
0.0
 10
199.2617708413734
 20
71.65292388268847
 30
0.0
 10
199.4409496953239
 20
71.29462046306841
 30
0.0
 10
199.773458558748
 20
70.78344650932779
 30
0.0
 10
200.1301356907566
 20
70.44517010870574
 30
0.0
 10
200.3583881939358
 20
70.37025183386044
 30
0.0
 10
200.459568543366
 20
70.33704187067502
 30
0.0
  0
LINE
  5
253
330
1F
100
AcDbEntity
  8
0
  6
Continuous
 62
     7
370
    25
100
AcDbLine
 10
199.173687168
 20
69.1425179805
 30
0.0
 11
199.173687168
 21
71.8290645415
 31
0.0
  0
LINE
  5
254
330
1F
100
AcDbEntity
  8
0
  6
Continuous
 62
     7
370
    25
100
AcDbLine
 10
196.2924699522
 20
69.0617216334
 30
0.0
 11
196.2924699522
 21
71.9322048532
 31
0.0
  0
LWPOLYLINE
  5
255
330
1F
100
AcDbEntity
  8
0
  6
Continuous
 62
     7
370
    18
100
AcDbPolyline
 90
       23
 70
   128
 43
0.0
 10
165.9706782085
 20
56.5286675613
 10
166.0260189015
 20
58.0039343106
 10
166.1916078643
 20
59.5315501013
 10
166.4661491389
 20
61.0995592687
 10
166.8474940676
 20
62.6956900151
 10
167.3326581092
 20
64.3074504532
 10
167.9178441974
 20
65.9222263724
 10
168.5984724574
 20
67.5273799616
 10
169.3692160505
 20
69.1103487177
 10
170.2240428629
 20
70.658743764
 10
171.1562627158
 20
72.1604468096
 10
172.158579725
 20
73.6037049924
 10
173.2231494008
 20
74.97722286
 10
174.3416400421
 20
76.270250773
 10
175.5052979432
 20
77.4726690348
 10
176.7050159032
 20
78.5750670921
 10
177.9314045024
 20
79.5688171855
 10
179.1748655874
 20
80.4461418731
 10
180.425667389
 20
81.2001748998
 10
181.6740206875
 20
81.8250149347
 10
182.9101554255
 20
82.3157717573
 10
184.1243971727
 20
82.6686045302
 10
185.2037682617
 20
82.8676622663
  0
ARC
  5
256
330
1F
100
AcDbEntity
  8
0
  6
Continuous
 62
     7
370
    18
100
AcDbCircle
 10
180.1452883538
 20
56.2862303564
 30
0.0
 40
14.1766832711388
100
AcDbArc
 50
179.0201300609
 51
200.1524214366
  0
LWPOLYLINE
  5
257
330
1F
100
AcDbEntity
  8
0
  6
Continuous
 62
     7
370
    18
100
AcDbPolyline
 90
       54
 70
   128
 43
0.0
 10
222.3270886691
 20
31.1777094485
 10
221.3904129437
 20
30.7011677435
 10
220.4668860924
 20
30.3596950024
 10
219.5694724076
 20
30.158084754
 10
218.7107696103
 20
30.0991671641
 10
217.9028320055
 20
30.1837693067
 10
217.1570012663
 20
30.4107035531
 10
216.4837472211
 20
30.7767842438
 10
215.8925208812
 20
31.2768724086
 10
215.3916217682
 20
31.9039479056
 10
214.9880814078
 20
32.6492079697
 10
214.6875646221
 20
33.5021907829
 10
214.4942900079
 20
34.4509223366
 10
214.4109707172
 20
35.4820845191
 10
214.4387763702
 20
36.5812020739
 10
214.5773166365
 20
37.7328457998
 10
214.8246467144
 20
38.9208491433
 10
215.1772946319
 20
40.1285351416
 10
215.630309985
 20
41.3389505306
 10
216.1773334314
 20
42.5351037314
 10
216.8106859608
 20
43.7002033751
 10
217.5214766922
 20
44.8178940167
 10
218.2997276817
 20
45.8724857295
 10
219.1345139914
 20
46.8491743576
 10
220.0141170514
 20
47.7342493336
 10
220.9261891628
 20
48.515286145
 10
221.8579268324
 20
49.1813207469
 10
222.7962505058
 20
49.7230034735
 10
223.7279881754
 20
50.1327302867
 10
224.6400602868
 20
50.4047495202
 10
225.5196633467
 20
50.5352426203
 10
226.3544496564
 20
50.5223777497
 10
227.1327006459
 20
50.3663355032
 10
227.8434913773
 20
50.0693063719
 10
228.4768439068
 20
49.6354599935
 10
229.0238673532
 20
49.0708866203
 10
229.4768827063
 20
48.3835116249
 10
229.8295306237
 20
47.5829842454
 10
230.0768607017
 20
46.6805421316
 10
230.215400968
 20
45.6888535924
 10
230.243206621
 20
44.6218397612
 10
230.1598873303
 20
43.4944791733
 10
229.9666127161
 20
42.3225975
 10
229.6660959304
 20
41.1226453913
 10
229.2625555699
 20
39.9114675445
 10
228.761656457
 20
38.7060662416
 10
228.170430117
 20
37.5233626747
 10
227.4971760719
 20
36.3799594092
 10
226.7513453326
 20
35.2919073207
 10
225.9434077279
 20
34.2744802754
 10
225.0847049306
 20
33.3419607188
 10
224.1872912458
 20
32.5074391815
 10
223.2637643944
 20
31.7826305164
 10
222.3270886691
 20
31.1777094485
  0
ARC
  5
258
330
1F
100
AcDbEntity
  8
0
  6
Continuous
 62
     7
370
    18
100
AcDbCircle
 10
218.5707685207
 20
36.4979478373
 30
0.0
 40
4.825137064512369
100
AcDbArc
 50
244.6612480595
 51
307.0587832142
  0
LWPOLYLINE
  5
259
330
1F
100
AcDbEntity
  8
0
  6
Continuous
 62
     7
370
    18
100
AcDbPolyline
 90
       20
 70
   128
 43
0.0
 10
226.5061820305
 20
49.4569374995
 10
226.9269119213
 20
49.1629047381
 10
227.4488605483
 20
48.6346367078
 10
227.8766539777
 20
47.9830138201
 10
228.2035456513
 20
47.218312557
 10
228.4243802923
 20
46.3525927143
 10
228.5356752064
 20
45.3995072112
 10
228.5356752064
 20
44.3740867753
 10
228.4243802923
 20
43.2925028994
 10
228.2035456513
 20
42.1718128075
 10
227.8766539777
 20
41.0296904517
 10
227.4488605483
 20
39.8841477838
 10
226.9269119213
 20
38.753250696
 10
226.3190395381
 20
37.654834111
 10
225.6348299094
 20
36.6062207145
 10
224.8850734299
 20
35.6239477661
 10
224.0815942069
 20
34.723506297
 10
223.2370635879
 20
33.9190968071
 10
222.3648003253
 20
33.2234053146
 10
221.4785605317
 20
32.6474032899
  0
LINE
  5
25A
330
1F
100
AcDbEntity
  8
0
  6
Continuous
 62
     7
370
    18
100
AcDbLine
 10
182.1909193465
 20
74.35584536
 30
0.0
 11
180.6341975687
 21
71.6595241554
 31
0.0
  0
LINE
  5
25B
330
1F
100
AcDbEntity
  8
0
  6
Continuous
 62
     7
370
    18
100
AcDbLine
 10
174.3415016279
 20
60.7602551013
 30
0.0
 11
172.7846714229
 21
58.0637460955
 31
0.0
  0
LINE
  5
25C
330
1F
100
AcDbEntity
  8
0
  6
Continuous
 62
     7
370
    18
100
AcDbLine
 10
180.6804006718
 20
75.2278492297
 30
0.0
 11
171.2741527482
 21
58.9357499653
 31
0.0
  0
LINE
  5
25D
330
1F
100
AcDbEntity
  8
0
  6
Continuous
 62
     7
370
    18
100
AcDbLine
 10
180.2781702254
 20
75.1286327011
 30
0.0
 11
171.1589597332
 21
59.3336968501
 31
0.0
  0
LINE
  5
25E
330
1F
100
AcDbEntity
  8
0
  6
Continuous
 62
     7
370
    18
100
AcDbLine
 10
161.2755461275
 20
83.3483600521
 30
0.0
 11
174.0474822578
 21
76.112659406
 31
0.0
  0
LINE
  5
25F
330
1F
100
AcDbEntity
  8
0
  6
Continuous
 62
     7
370
    18
100
AcDbLine
 10
154.4465839561
 20
65.7474198893
 30
0.0
 11
166.0015909414
 21
58.7330430067
 31
0.0
  0
LINE
  5
260
330
1F
100
AcDbEntity
  8
0
  6
Continuous
 62
     7
370
    18
100
AcDbLine
 10
171.2741527482
 20
49.4161693411
 30
0.0
 11
172.7868408482
 21
48.5426292082
 31
0.0
  0
LINE
  5
261
330
1F
100
AcDbEntity
  8
0
  6
Continuous
 62
     7
370
    18
100
AcDbLine
 10
171.1589597332
 20
49.3094415309
 30
0.0
 11
173.0371717548
 21
48.2248203332
 31
0.0
  0
LINE
  5
262
330
1F
100
AcDbEntity
  8
0
  6
Continuous
 62
     7
370
    18
100
AcDbLine
 10
190.8363157514
 20
79.0558189383
 30
0.0
 11
188.9589597332
 21
80.1399458152
 31
0.0
  0
LINE
  5
263
330
1F
100
AcDbEntity
  8
0
  6
Continuous
 62
     7
370
    18
100
AcDbLine
 10
166.7060123149
 20
86.4833014529
 30
0.0
 11
178.533304599
 21
80.118432062
 31
0.0
  0
LINE
  5
264
330
1F
100
AcDbEntity
  8
0
  6
Continuous
 62
     7
370
    18
100
AcDbLine
 10
160.5210721736
 20
83.5250180682
 30
0.0
 11
161.2755461275
 21
83.3483600521
 31
0.0
  0
LINE
  5
265
330
1F
100
AcDbEntity
  8
0
  6
Continuous
 62
     7
370
    18
100
AcDbLine
 10
153.99829622
 20
66.7132410555
 30
0.0
 11
154.4465839561
 21
65.7474198893
 31
0.0
  0
OLE2FRAME
  5
266
330
1F
100
AcDbEntity
  8
0
100
AcDbOle2Frame
 70
     2
  3
Paintbrush-Bild
 10
13.8511154363
 20
38.264191557
 30
0.0
 11
51.6290888628
 21
31.9806341108
 31
0.0
 71
     2
 72
     0
 73
     1
 90
    12928
310
80552BED0767C5B32B40DDAF6807D121434000000000000000006FFBDDFB85D0
310
4940DDAF6807D121434000000000000000006FFBDDFB85D04940416F4BD60AFB
310
3F4000000000000000002BED0767C5B32B40416F4BD60AFB3F40000000000000
310
0000000000000100000000010000010000000100000000000100000000320000
310
D0CF11E0A1B11AE1000000000000000000000000000000003E000300FEFF0900
310
0600000000000000000000000100000001000000000000000010000002000000
310
01000000FEFFFFFF0000000000000000FFFFFFFFFFFFFFFFFFFFFFFFFFFFFFFF
310
FFFFFFFFFFFFFFFFFFFFFFFFFFFFFFFFFFFFFFFFFFFFFFFFFFFFFFFFFFFFFFFF
310
FFFFFFFFFFFFFFFFFFFFFFFFFFFFFFFFFFFFFFFFFFFFFFFFFFFFFFFFFFFFFFFF
310
FFFFFFFFFFFFFFFFFFFFFFFFFFFFFFFFFFFFFFFFFFFFFFFFFFFFFFFFFFFFFFFF
310
FFFFFFFFFFFFFFFFFFFFFFFFFFFFFFFFFFFFFFFFFFFFFFFFFFFFFFFFFFFFFFFF
310
FFFFFFFFFFFFFFFFFFFFFFFFFFFFFFFFFFFFFFFFFFFFFFFFFFFFFFFFFFFFFFFF
310
FFFFFFFFFFFFFFFFFFFFFFFFFFFFFFFFFFFFFFFFFFFFFFFFFFFFFFFFFFFFFFFF
310
FFFFFFFFFFFFFFFFFFFFFFFFFFFFFFFFFFFFFFFFFFFFFFFFFFFFFFFFFFFFFFFF
310
FFFFFFFFFFFFFFFFFFFFFFFFFFFFFFFFFFFFFFFFFFFFFFFFFFFFFFFFFFFFFFFF
310
FFFFFFFFFFFFFFFFFFFFFFFFFFFFFFFFFFFFFFFFFFFFFFFFFFFFFFFFFFFFFFFF
310
FFFFFFFFFFFFFFFFFFFFFFFFFFFFFFFFFFFFFFFFFFFFFFFFFFFFFFFFFFFFFFFF
310
FFFFFFFFFFFFFFFFFFFFFFFFFFFFFFFFFFFFFFFFFFFFFFFFFFFFFFFFFFFFFFFF
310
FFFFFFFFFFFFFFFFFFFFFFFFFFFFFFFFFFFFFFFFFFFFFFFFFFFFFFFFFFFFFFFF
310
FFFFFFFFFFFFFFFFFFFFFFFFFFFFFFFFFFFFFFFFFFFFFFFFFFFFFFFFFFFFFFFF
310
FDFFFFFFFEFFFFFFFEFFFFFFFEFFFFFF05000000060000000700000008000000
310
090000000A0000000B0000000C0000000D0000000E0000000F00000010000000
310
11000000120000001300000014000000150000001600000017000000FEFFFFFF
310
FFFFFFFFFFFFFFFFFFFFFFFFFFFFFFFFFFFFFFFFFFFFFFFFFFFFFFFFFFFFFFFF
310
FFFFFFFFFFFFFFFFFFFFFFFFFFFFFFFFFFFFFFFFFFFFFFFFFFFFFFFFFFFFFFFF
310
FFFFFFFFFFFFFFFFFFFFFFFFFFFFFFFFFFFFFFFFFFFFFFFFFFFFFFFFFFFFFFFF
310
FFFFFFFFFFFFFFFFFFFFFFFFFFFFFFFFFFFFFFFFFFFFFFFFFFFFFFFFFFFFFFFF
310
FFFFFFFFFFFFFFFFFFFFFFFFFFFFFFFFFFFFFFFFFFFFFFFFFFFFFFFFFFFFFFFF
310
FFFFFFFFFFFFFFFFFFFFFFFFFFFFFFFFFFFFFFFFFFFFFFFFFFFFFFFFFFFFFFFF
310
FFFFFFFFFFFFFFFFFFFFFFFFFFFFFFFFFFFFFFFFFFFFFFFFFFFFFFFFFFFFFFFF
310
FFFFFFFFFFFFFFFFFFFFFFFFFFFFFFFFFFFFFFFFFFFFFFFFFFFFFFFFFFFFFFFF
310
FFFFFFFFFFFFFFFFFFFFFFFFFFFFFFFFFFFFFFFFFFFFFFFFFFFFFFFFFFFFFFFF
310
FFFFFFFFFFFFFFFFFFFFFFFFFFFFFFFFFFFFFFFFFFFFFFFFFFFFFFFFFFFFFFFF
310
FFFFFFFFFFFFFFFFFFFFFFFFFFFFFFFFFFFFFFFFFFFFFFFFFFFFFFFFFFFFFFFF
310
FFFFFFFFFFFFFFFFFFFFFFFFFFFFFFFFFFFFFFFFFFFFFFFFFFFFFFFFFFFFFFFF
310
FFFFFFFFFFFFFFFFFFFFFFFFFFFFFFFFFFFFFFFFFFFFFFFFFFFFFFFFFFFFFFFF
310
52006F006F007400200045006E00740072007900000000000000000000000000
310
0000000000000000000000000000000000000000000000000000000000000000
310
16000500FFFFFFFFFFFFFFFF020000000A00030000000000C000000000000046
310
000000000000000000000000B03F3C94A98ED30103000000C000000000000000
310
01004F006C006500000000000000000000000000000000000000000000000000
310
0000000000000000000000000000000000000000000000000000000000000000
310
0A000200FFFFFFFFFFFFFFFFFFFFFFFF00000000000000000000000000000000
310
0000000000000000000000000000000000000000000000001400000000000000
310
010043006F006D0070004F0062006A0000000000000000000000000000000000
310
0000000000000000000000000000000000000000000000000000000000000000
310
120002010100000003000000FFFFFFFF00000000000000000000000000000000
310
0000000000000000000000000000000000000000010000004D00000000000000
310
01004F006C006500310030004E00610074006900760065000000000000000000
310
0000000000000000000000000000000000000000000000000000000000000000
310
1A000200FFFFFFFFFFFFFFFFFFFFFFFF00000000000000000000000000000000
310
0000000000000000000000000000000000000000040000002426000000000000
310
FEFFFFFF02000000FEFFFFFFFFFFFFFFFFFFFFFFFFFFFFFFFFFFFFFFFFFFFFFF
310
FFFFFFFFFFFFFFFFFFFFFFFFFFFFFFFFFFFFFFFFFFFFFFFFFFFFFFFFFFFFFFFF
310
FFFFFFFFFFFFFFFFFFFFFFFFFFFFFFFFFFFFFFFFFFFFFFFFFFFFFFFFFFFFFFFF
310
FFFFFFFFFFFFFFFFFFFFFFFFFFFFFFFFFFFFFFFFFFFFFFFFFFFFFFFFFFFFFFFF
310
FFFFFFFFFFFFFFFFFFFFFFFFFFFFFFFFFFFFFFFFFFFFFFFFFFFFFFFFFFFFFFFF
310
FFFFFFFFFFFFFFFFFFFFFFFFFFFFFFFFFFFFFFFFFFFFFFFFFFFFFFFFFFFFFFFF
310
FFFFFFFFFFFFFFFFFFFFFFFFFFFFFFFFFFFFFFFFFFFFFFFFFFFFFFFFFFFFFFFF
310
FFFFFFFFFFFFFFFFFFFFFFFFFFFFFFFFFFFFFFFFFFFFFFFFFFFFFFFFFFFFFFFF
310
FFFFFFFFFFFFFFFFFFFFFFFFFFFFFFFFFFFFFFFFFFFFFFFFFFFFFFFFFFFFFFFF
310
FFFFFFFFFFFFFFFFFFFFFFFFFFFFFFFFFFFFFFFFFFFFFFFFFFFFFFFFFFFFFFFF
310
FFFFFFFFFFFFFFFFFFFFFFFFFFFFFFFFFFFFFFFFFFFFFFFFFFFFFFFFFFFFFFFF
310
FFFFFFFFFFFFFFFFFFFFFFFFFFFFFFFFFFFFFFFFFFFFFFFFFFFFFFFFFFFFFFFF
310
FFFFFFFFFFFFFFFFFFFFFFFFFFFFFFFFFFFFFFFFFFFFFFFFFFFFFFFFFFFFFFFF
310
FFFFFFFFFFFFFFFFFFFFFFFFFFFFFFFFFFFFFFFFFFFFFFFFFFFFFFFFFFFFFFFF
310
FFFFFFFFFFFFFFFFFFFFFFFFFFFFFFFFFFFFFFFFFFFFFFFFFFFFFFFFFFFFFFFF
310
FFFFFFFFFFFFFFFFFFFFFFFFFFFFFFFFFFFFFFFFFFFFFFFFFFFFFFFFFFFFFFFF
310
0100000200000000000000000000000000000000000000000000000000000000
310
0000000000000000000000000000000000000000000000000000000000000000
310
0100FEFF030A0000FFFFFFFF0A00030000000000C00000000000004607000000
310
5042727573680007000000504272757368000700000050427275736800F439B2
310
7100000000000000000000000000000000000000000000000000000000000000
310
0000000000000000000000000000000000000000000000000000000000000000
310
0000000000000000000000000000000000000000000000000000000000000000
310
0000000000000000000000000000000000000000000000000000000000000000
310
0000000000000000000000000000000000000000000000000000000000000000
310
0000000000000000000000000000000000000000000000000000000000000000
310
0000000000000000000000000000000000000000000000000000000000000000
310
0000000000000000000000000000000000000000000000000000000000000000
310
0000000000000000000000000000000000000000000000000000000000000000
310
0000000000000000000000000000000000000000000000000000000000000000
310
0000000000000000000000000000000000000000000000000000000000000000
310
0000000000000000000000000000000000000000000000000000000000000000
310
20260000424D0E260000000000003E00000028000000B40200006E0000000100
310
01000000000000000000130B0000130B00000200000002000000000000FFFFFF
310
FFFFFFFFFFFFFFFFFFFFFFFFFFFFFFFFFFFFFFFFFFFFFFFFFFFFFFFFFFFFFFFF
310
FFFFFFFFFFFFFFFFFFFFFFFFFFFFFFFFFFFFFFFFFFFFFFFFFFFFFFFFFFFFFFFF
310
FFFFFFFFFFFFFFFFFFFFFFFFFFFFFFFFFFFFFFFFFFFFFFFFF000FFFFFFFFFFFF
310
FFFFFFFFFFFFFFFFFFFFFFFFFFFFFFFFFFFFFFFFFFFFFFFFFFFFFFFFFFFFFFFF
310
FFFFFFFFFFFFFFFFFFFFFFFFFFFFFFFFFFFFFFFFFFFFFFFFFFFFFFFFFFFFFFFF
310
FFFFFFFFFFFFFFFFFFFFFFFFFFFFFFFFF000FFFFFFFFFFFFFFFFFFFFFFFFFFFF
310
FFFFFFFFFFFFFFFFFFFFFFFFFFFFFFFFFFFFFFFFFFFFFFFFFFFFFFFFFFFFFFFF
310
FFFFFFFFFFFFFFFFFFFFFFFFFFFFFFFFFFFFFFFFFFFFFFFFFFFFFFFFFFFFFFFF
310
FFFFFFFFFFFFFFFFF000FFFFFFFFFFFFFFFFFFFFFFFFFFFFFFFFFFFFFFFFFFFF
310
FFFFFFFFFFFFFFFFFFFFFFFFFFFFFFFFFFFFFFFFFFFFFFFFFFFFFFFFFFFFFFFF
310
FFFFFFFFFFFFFFFFFFFFFFFFFFFFFFFFFFFFFFFFFFFFFFFFFFFFFFFFFFFFFFFF
310
F000FFFFFFFFFFFFFFFFFFFFFFFFFFFFFFFFFFFFFFFFFFFFFFFFFFFFFFFFFFFF
310
FFFFFFFFFFFFFFFFFFFFFFFFFFFFFFFFFFFFFFFFFFFFFFFFFFFFFFFFFFFFFFFF
310
FFFFFFFFFFFFFFFFFFFFFFFFFFFFFFFFFFFFFFFFFFFFFFFFF000FFFFFFFFFFFF
310
FFFFFFFFFFFFFFFFFFFFFFFFFFFFFFFFFFFFFFFFFFFFFFFFFFFFFFFFFFFFFFFF
310
FFFFFFFFFFFFFFFFFFFFFFFFFFFFFFFFFFFFFFFFFFFFFFFFFFFFFFFFFFFFFFFF
310
FFFFFFFFFFFFFFFFFFFFFFFFFFFFFFFFF000FFFFFFFFFFFFFFFFFFFFFFFFFFFF
310
FFFFFFFFFFFFFFFFFFFFFFFFFFFFFFFFFFFFFFFFFFFFFFFFFFFFFFFFFFFFFFFF
310
FFFFFFFFFFFFFFFFFFFFFFFFFFFFFFFFFFFFFFFFFFFFFFFFFFFFFFFFFFFFFFFF
310
FFFFFFFFFFFFFFFFF000FFFFFFFFFFFFFFFFFFFFFFFFFFFFFFFFFFFFFFFFFFFF
310
FFFFFFFFFFFFFFFFFFFFFFFFFFFFFFFFFFFFFFFFFFFFFFFFFFFFFFFFFFFFFFFF
310
FFFFFFFFFFFFFFFFFFFFFFFFFFFFFFFFFFFFFFFFFFFFFFFFFFFFFFFFFFFFFFFF
310
F000FFFFFFFFFFFFFFFFFFFFFFFFFFFFFFFFFFFFFFFFFFFFFFFFFFFFFFFFFFFF
310
FFFFFFFFFFFFFFFFFFFFFFFFFFFFFFFFFFFFFFFFFFFFFFFFFFFFFFFFFFFFFFFF
310
FFFFFFFFFFFFFFFFFFFFFFFFFFFFFFFFFFFFFFFFFFFFFFFFF000FFFFFFFFFFFF
310
FFFFFFFFFFFFFFFFFFFFFFFFFFFFFFFFFFFFFFFFFFFFFFFFFFFFFFFFFFFFFFFF
310
FFFFFFFFFFFFFFFFFFFFFFFFFFFFFFFFFFFFFFFFFFFFFFFFFFFFFFFFFFFFFFFF
310
FFFFFFFFFFFFFFFFFFFFFFFFFFFFFFFFF000FFFFFFFFFFFFFFFFFFFFFFFFFFFF
310
FFFFFFFFFFFFFFFFFFFFFFFFFFFFFFFFFFFFFFFFFFFFFFFFFFFFFFFFFFFFFFFF
310
FFFFFFFFFFFFFFFFFFFFFFFFFFFFFFFFFFFFFFFFFFFFFFFFFFFFFFFFFFFFFFFF
310
FFFFFFFFFFFFFFFFF000FFFFFFFFFFFFFFFFFFFFFFFFFFFFFFFFFFFFFFFFFFFF
310
FFFFFFFFFFFFFFFFFFFFFFFFFFFFFFFFFFFFFFFFFFFFFFFFFFFFFFFFFFFFFFFF
310
FFFFFFFFFFFFFFFFFFFFFFFFFFFFFFFFFFFFFFFFFFFFFFFFFFFFFFFFFFFFFFFF
310
F000FFFFFFFFFFFFFFFFFFFFFFFFFFFFFFFFFFFFFFFFFFFFFFFFFFFFFFFFFFFF
310
FFFFFFFFFFFFFFFFFFFFFFFFFFFFFFFFFFFFFFFFFFFFFFFFFFFFFFFFFFFFFFFF
310
FFFFFFFFFFFFFFFFFFFFFFFFFFFFFFFFFFFFFFFFFFFFFFFFF000FFFFFFFFFFFF
310
FFFFFFFFFFFFFFFFFFFFFFFFFFFFFFFFFFFFFFFFFFFFFFFFFFFFFFFFFFFFFFFF
310
FFFFFFFFFFFFFFFFFFFFFFFFFFFFFFFFFFFFFFFFFFFFFFFFFFFFFFFFFFFFFFFF
310
FFFFFFFFFFFFFFFFFFFFFFFFFFFFFFFFF000FFFFFFFFFFFFFFFFFFFFFFFFFFFF
310
FFFFFFFFFFFFFFFFFFFFFFFFFFFFFFFFFFFFFFFFFFFFFFFFFFFFFFFFFFFFFFFF
310
FFFFFFFFFFFFFFFFFFFFFFFFFFFFFFFFFFFFFFFFFFFFFFFFFFFFFFFFFFFFFFFF
310
FFFFFFFFFFFFFFFFF000FFFFFFFFFFFFFFFFFFFFFFFFFFFFFFFFFFFFFFFFFFFF
310
FFFFFFFFFFFFFFFFFFFFFFFFFFFFFFFFFFFFFFFFFFFFFFFFFFFFFFFFFFFFFFFF
310
FFFFFFFFFFFFFFFFFFFFFFFFFFFFFFFFFFFFFFFFFFFFFFFFFFFFFFFFFFFFFFFF
310
F000FFFFFFFFFFFFFFFFFFFFFFFFFFFFFFFFFFFFFFFFFFFFFFFFFFFFFFFFFFFF
310
FFFFFFFFFFFFFFFFFFFFFFFFFFFFFFFFFFFFFFFFFFFFFFFFFFFFFFFFFFFFFFFF
310
FFFFFFFFFFFFFFFFFFFFFFFFFFFFFFFFFFFFFFFFFFFFFFFFF000FFFFFFFFFFFF
310
FFFFFFFFFFFFFFFFFFFFFFFFFFFFFFFFFFFFFFFFFFFFFFFFFFFFFFFFFFFFFFFF
310
FFFFFFFFFFFFFFFFFFFFFFFFFFFFFFFFFFFFFFFFFFFFFFFFFFFFFFFFFFFFFFFF
310
FFFFFFFFFFFFFFFFFFFFFFFFFFFFFFFFF000FFFFFFFFFFFFFFFFFFFFFFFFFFFF
310
FFFFFFFFFFFFFFFFFFFFFFFFFFFFFFFFFFFFFFFFFFFFFFFFFFFFFFFFFFFFFFFF
310
FFFFFFFFFFFFFFFFFFFFFFFFFFFFFFFFFFFFFFFFFFFFFFFFFFFFFFFFFFFFFFFF
310
FFFFFFFFFFFFFFFFF000FFFFF80003FFFFFFFFFFFFFFFFFFFFFFFFFFFFFFFFFF
310
FFFFF00007FFFFFFFFFF00007FFFFFF800000000000000007FFFFFFFFFFFFFFF
310
FFFFFFFC001FFFFFFFFFFFFFFC001FFFFFFFFFFFFFFFFFFFFFFFFFFE0007FFFF
310
F000FFFF8000007FFFFFFFF8000FFFFFC0007FFFFF80007FFFFF0000007FFFFF
310
FFF8000007FFFFF800000000000000007FFFFFF0001FFFFFFFFFFFC00001FFFF
310
FFFFFFFFC00001FFFFFFFF000000000003FFFFE000007FFFF000FFFE0000000F
310
FFFFFFF0000FFFFF80007FFFFF80007FFFFC0000001FFFFFFFC0000001FFFFF8
310
00000000000000007FFFFFF0001FFFFFFFFFFE0000003FFFFFFFFFFE0000003F
310
FFFFFF000000000003FFFF0000000FFFF000FFF800000003FFFFFFF00007FFFF
310
80007FFFFF80007FFFF000000007FFFFFF000000003FFFF80000000000000000
310
7FFFFFF0001FFFFFFFFFF80000000FFFFFFFFFF80000000FFFFFFF0000000000
310
03FFFC00000003FFF000FFE000000000FFFFFFF00007FFFF80003FFFFF80007F
310
FFC000000001FFFFFC000000001FFFF800000000000000007FFFFFF0001FFFFF
310
FFFFE000000003FFFFFFFFE000000003FFFFFF000000000003FFF000000000FF
310
F000FF80000000007FFFFFF00007FFFF80003FFFFF80007FFF8000000000FFFF
310
F80000000007FFF800000000000000007FFFFFF0001FFFFFFFFFC000000001FF
310
FFFFFFC000000001FFFFFF000000000003FFC0000000007FF000FF0000000000
310
3FFFFFE00007FFFF00003FFFFF80007FFE00000000003FFFF00000000003FFF8
310
00000000000000007FFFFFF0001FFFFFFFFF8000000000FFFFFFFF8000000000
310
FFFFFF000000000003FF80000000003FF000FE00000000001FFFFFE00003FFFF
310
00003FFFFF80007FFC00000000001FFFE00000000001FFF8000001FFFE000000
310
7FFFFFF0001FFFFFFFFE00000000003FFFFFFE00000000003FFFFF0000000000
310
03FF00000000001FF000FC00000000000FFFFFE00003FFFF00001FFFFF80007F
310
F800000000001FFFC00000000000FFF8000001FFFE0000007FFFFFF0001FFFFF
310
FFFC00000000001FFFFFFC00000000001FFFFF000000000003FE00000000000F
310
F000F8000000000007FFFFE00003FFFF00001FFFFF80007FF800000000000FFF
310
800000000000FFF8000001FFFE0000007FFFFFF0001FFFFFFFF800000000000F
310
FFFFF800000000000FFFFF000000000003FC000000000007F000F80000000000
310
03FFFFC00003FFFE00001FFFFF80007FF0000000000007FF0000000000007FF8
310
000001FFFE0000007FFFFFF0001FFFFFFFF0000000000007FFFFF00000000000
310
07FFFF000000000003F8000000000003F000F0000000000003FFFFC00001FFFE
310
00001FFFFF80007FE0000000000007FE0000000000003FF8000001FFFE000000
310
7FFFFFF0001FFFFFFFF0000000000007FFFFF0000000000007FFFF0000000000
310
03F800001F800003F000E00001FFF00001FFFFC00001FFFE00000FFFFF80007F
310
E00001FFE00003FE00001FFF00003FF8000001FFFE0000007FFFFFF0001FFFFF
310
FFE000003E000003FFFFE000003E000003FFFF000000000003F00001FFF80001
310
F000E00007FFFC0001FFFFC00001FFFE00000FFFFF80007FC0000FFFFC0003FC
310
0000FFFFC0001FF8000001FFFE0000007FFFFFF0001FFFFFFFC00003FFE00001
310
FFFFC00003FFE00001FFFF0001FFFFFFFFF00007FFFE0001F000E0000FFFFF00
310
00FFFF800001FFFC00000FFFFF80007FC0001FFFFE0001FC0001FFFFE0001FF8
310
000001FFFE0000007FFFFFF0001FFFFFFF80000FFFF80000FFFF80000FFFF800
310
00FFFF0003FFFFFFFFE0000FFFFF8000F000C0003FFFFF8000FFFF800000FFFC
310
000007FFFF80007F80003FFFFF0001FC0003FFFFF0001FF8000001FFFE000000
310
7FFFFFF0001FFFFFFF80003FFFFE0000FFFF80003FFFFE0000FFFF0003FFFFFF
310
FFE0003FFFFF8000F000C0003FFFFF8000FFFF800000FFFC000007FFFF80007F
310
80007FFFFF8001F80007FFFFF8000FF8000001FFFE0000007FFFFFF0001FFFFF
310
FF00007FFFFF00007FFF00007FFFFF00007FFF0003FFFFFFFFE0003FFFFFC000
310
F000C0007FFFFFC000FFFF000000FFFC000007FFFF80007F8000FFFFFF8000F8
310
000FFFFFF8000FF8000001FFFE0000007FFFFFF0001FFFFFFF0000FFFFFF8000
310
7FFF0000FFFFFF80007FFF0003FFFFFFFFC0007FFFFFC00070008000FFFFFFC0
310
00FFFF000000FFF8000007FFFF80007F8000FFFFFF8000F8000FFFFFF8000FF8
310
000001FFFE0000007FFFFFF0001FFFFFFE0001FFFFFFC0003FFE0001FFFFFFC0
310
003FFF0003FFFFFFFFC0007FFFFFE00070008000FFFFFFC0007FFF0000007FF8
310
000003FFFF80007F0001FFFFFF8000F8000FFFFFF8000FF8000001FFFE000000
310
7FFFFFF0001FFFFFFE0001FFFFFFC0003FFE0001FFFFFFC0003FFF0003FFFFFF
310
FFC000FFFFFFE00070008000FFFFFFC0007FFF0000007FF8000003FFFF80007F
310
0001FFFFFF8000F8001FFFFFF8000FF8000001FFFE0000007FFFFFF0001FFFFF
310
FE0003FFFFFFE0003FFE0003FFFFFFE0003FFF0003FFFFFFFFC000FFFFFFE000
310
70008000FFFFFFC0007FFE0000007FF8000003FFFF80007F0001FFFFFF8000F0
310
001FFFFFF8000FF8000001FFFE0000007FFFFFF0001FFFFFFC0003FFFFFFE000
310
1FFC0003FFFFFFE0001FFF0003FFFFFFFFC000FFFFFFC00070008000FFFFFF80
310
007FFE0000007FF0000003FFFF80007F0001FFFFFF0000F0001FFFFFF8000FF8
310
000001FFFE0000007FFFFFF0001FFFFFFC0007FFFFFFF0001FFC0007FFFFFFF0
310
001FFF0003FFFFFFFFC000FFFFFFC00070008001FFFFFF0000FFFE0000003FF0
310
000001FFFF80007F0001FFFFFF0000F8001FFFFFF0000FF8000001FFFE000000
310
7FFFFFF0001FFFFFFC0007FFFFFFF0001FFC0007FFFFFFF0001FFF0003FFFFFF
310
FFC001FFFFFF80007000FFFFFFFFFE0000FFFE0008003FF0008001FFFF80007F
310
FFFFFFFFFC0000FFFFFFFFFFE0000FF8000001FFFE0000007FFFFFF0001FFFFF
310
F8000FFFFFFFF8000FF8000FFFFFFFF8000FFF0003FFFFFFFFFFFFFFFFFF0000
310
7000FFFFFFFFFC0000FFFC0008003FF0008001FFFF80007FFFFFFFFFF80001FF
310
FFFFFFFF80000FF8000001FFFE0000007FFFFFF0001FFFFFF8000FFFFFFFF800
310
0FF8000FFFFFFFF8000FFF0003FFFFFFFFFFFFFFFFFE0000F000FFFFFFFFE000
310
00FFFC000C003FE000C001FFFF80007FFFFFFFFFC00001FFFFFFFFFE00001FF8
310
000001FFFE0000007FFFFFF0001FFFFFF8000FFFFFFFF8000FF8000FFFFFFFF8
310
000FFF0003FFFFFFFFFFFFFFFFF00000F000FFFFFFFE000001FFFC000C001FE0
310
00C000FFFF80007FFFFFFFFE000001FFFFFFFFE000001FF80FFFFFFFFFFFFFC0
310
7FFFFFF0001FFFFFF8000FFFFFFFF8000FF8000FFFFFFFF8000FFF0003FFFFFF
310
FFFFFFFFFF800000F000FFFFFFC0000001FFFC001C001FE001C000FFFF80007F
310
FFFFFF80000003FFFFFFF80000001FF80FFFFFFFFFFFFFC07FFFFFF0001FFFFF
310
F8001FFFFFFFFC000FF8001FFFFFFFFC000FFF0003FFFFFFFFFFFFFFF0000001
310
F000FFFFF800000001FFF8001C001FE001C000FFFF80007FFFFFF800000003FF
310
FFFF800000003FF80FFFFFFFFFFFFFC07FFFFFF0001FFFFFF8001FFFFFFFFC00
310
0FF8001FFFFFFFFC000FFF0003FFFFFFFFFFFFFE00000001F000FFFFC0000000
310
03FFF8001E001FC001E000FFFF80007FFFFF8000000007FFFFFC000000003FF8
310
0FFFFFFFFFFFFFC07FFFFFF0001FFFFFF8001FFFFFFFFC000FF8001FFFFFFFFC
310
000FFF0003FFFFFFFFFFFFE000000003F000FFFE0000000007FFF8001E000FC0
310
01E0007FFF80007FFFFE0000000007FFFFE0000000007FF80FFFFFFFFFFFFFC0
310
7FFFFFF0001FFFFFF0001FFFFFFFFC0007F0001FFFFFFFFC0007FF0003FFFFFF
310
FFFFFF0000000003F000FFF80000000007FFF8001E000FC003E0007FFF80007F
310
FFF0000000000FFFFF8000000000FFF80FFFFFFFFFFFFFC07FFFFFF0001FFFFF
310
F0001FFFFFFFFC0007F0001FFFFFFFFC0007FF0003FFFFFFFFFFFC0000000007
310
F000FFE0000000000FFFF0003E000FC003E0007FFF80007FFFC0000000001FFF
310
FE0000000001FFF80FFFFFFFFFFFFFC07FFFFFF0001FFFFFF0001FFFFFFFFC00
310
07F0001FFFFFFFFC0007FF0003FFFFFFFFFFF0000000000FF000FFC000000000
310
1FFFF0003F000F8003F0003FFF80007FFF80000000003FFFF80000000003FFF8
310
0FFFFFFFFFFFFFC07FFFFFF0001FFFFFF0001FFFFFFFFC0007F0001FFFFFFFFC
310
0007FF0003FFFFFFFFFFE0000000001FF000FF00000000007FFFF0003F000780
310
03F0003FFF80007FFF00000000007FFFF00000000007FFF80FFFFFFFFFFFFFC0
310
7FFFFFF0001FFFFFF0001FFFFFFFFC0007F0001FFFFFFFFC0007FF0003FFFFFF
310
FFFF80000000007FF000FE0000000000FFFFE0003F00078007F0003FFF80007F
310
FE0000000001FFFFE0000000001FFFF80FFFFFFFFFFFFFC07FFFFFF0001FFFFF
310
F0001FFFFFFFFC0007F0001FFFFFFFFC0007FF0003FFFFFFFFFF0000000000FF
310
F000FC0000000003FFFFE0007F00078007F0003FFF80007FFC0000000007FFFF
310
C0000000007FFFF80FFFFFFFFFFFFFC07FFFFFF0001FFFFFF8001FFFFFFFFC00
310
0FF8001FFFFFFFFC000FFF0003FFFFFFFFFE0000000003FFF000FC000000000F
310
FFFFE0007F80070007F8001FFF80007FF8000000001FFFFF8000000001FFFFF8
310
0FFFFFFFFFFFFFC07FFFFFF0001FFFFFF8001FFFFFFFFC000FF8001FFFFFFFFC
310
000FFF0003FFFFFFFFFC000000000FFFF000F8000000007FFFFFE0007F800700
310
07F8001FFF80007FF000000000FFFFFF800000000FFFFFF80FFFFFFFFFFFFFC0
310
7FFFFFF0001FFFFFF8000FFFFFFFF8000FF8000FFFFFFFF8000FFF0003FFFFFF
310
FFFC000000007FFFF000F800000007FFFFFFC0007F8003000FF8001FFF80007F
310
F000000007FFFFFF000000007FFFFFF80FFFFFFFFFFFFFC07FFFFFF0001FFFFF
310
F8000FFFFFFFF8000FF8000FFFFFFFF8000FFF0003FFFFFFFFF80000000FFFFF
310
F000F0000000FFFFFFFFC000FF8003000FF8001FFF80007FE0000000FFFFFFFF
310
0000000FFFFFFFF8000001FFFE0000007FFFFFF0001FFFFFF8000FFFFFFFF800
310
0FF8000FFFFFFFF8000FFF0003FFFFFFFFF8000000FFFFFFF000F000000FFFFF
310
FFFFC000FFC002000FF8000FFF80007FE000001FFFFFFFFE000001FFFFFFFFF8
310
000001FFFE0000007FFFFFF0001FFFFFF8000FFFFFFFF8000FF8000FFFFFFFF8
310
000FFF0003FFFFFFFFF000001FFFFFFFF000E00000FFFFFFFFFFC000FFC00200
310
0FFC000FFF80007FE00001FFFFFFFFFE00001FFFFFFFFFF8000001FFFE000000
310
7FFFFFF0001FFFFFFC000FFFFFFFF8001FFC000FFFFFFFF8001FFF0003FFFFFF
310
FFF00001FFFFFFFFF000E00007FFFFFFFFFF8000FFC000001FFC000FFF80007F
310
C0000FFFFFFFFFFE0000FFFFFFFFFFF8000001FFFE0000007FFFFFF0001FFFFF
310
FC0007FFFFFFF0001FFC0007FFFFFFF0001FFF0003FFFFFFFFF00007FFFFFFFF
310
F000E0001FFFFFFFFFFF8000FFC000001FFC000FFF80007FC0003FFFFFFFFFFE
310
0001FFFFFFFFFFF8000001FFFE0000007FFFFFF0001FFFFFFC0007FFFFFFF000
310
1FFC0007FFFFFFF0001FFF0003FFFFFFFFF0001FFFFFFFFFF000E0003FFFFF00
310
03FF8001FFE000001FFC0007FF80007FC0007FFFFF0007FC0003FFFFF0003FF8
310
000001FFFE0000007FFFFFF0001FFFFFFC0003FFFFFFE0001FFC0003FFFFFFE0
310
001FFF0003FFFFFFFFF0003FFFFFFFFFF000E0003FFFFF0001FF8001FFE00000
310
1FFE0007FF80007FC0007FFFFE0003FC0007FFFFE0003FF8000001FFFE000000
310
7FFFFFF0001FFFFFFE0003FFFFFFE0003FFE0003FFFFFFE0003FFF0003FFFFFF
310
FFF0003FFFFF8001F000E0003FFFFF0001FF0001FFE000001FFE0007FF80007F
310
C0007FFFFE0003FC0007FFFFE0003FF8000001FFFE0000007FFFFFF0001FFFFF
310
FE0001FFFFFFC0003FFE0001FFFFFFC0003FFF0003FFFFFFFFF0003FFFFF0001
310
F000E0003FFFFF0003FF0001FFE000003FFE0007FF80007FC0007FFFFE0003FC
310
0007FFFFE0003FF8000001FFFE0000007FFFFFF0001FFFFFFF0001FFFFFFC000
310
7FFF0001FFFFFFC0007FFF0003FFFFFFFFF0003FFFFF0001F000E0003FFFFE00
310
03FF0003FFF000003FFE0003FF80007FC0007FFFFC0003FE0007FFFFE0003FF8
310
000001FFFE0000007FFFFFF0001FFFFFFF0000FFFFFF80007FFF0000FFFFFF80
310
007FFF0003FFFFFFFFF0003FFFFF0001F000E0003FFFFE0003FF0003FFF00000
310
3FFF0003FF80007FC0007FFFFC0007FE0007FFFFC0003FF8000001FFFE000000
310
7FFFFFF0001FFFFFFF80007FFFFF0000FFFF80007FFFFF0000FFFF0003FFFFFF
310
FFF0003FFFFF0003F000E0003FFFFC0003FE0003FFF000003FFF0003FF80007F
310
E0003FFFF80007FE0003FFFFC0007FF8000001FFFE0000007FFFFFF0001FFFFF
310
FF80003FFFFE0000FFFF80003FFFFE0000FFFF0003FFFFFFFFF0001FFFFE0003
310
F000F0001FFFF80003FE0003FFF000007FFF0001FF80007FE0003FFFF00007FE
310
0001FFFF80007FF8000001FFFE0000007FFFFFF0001FFFFFFFC0000FFFF80001
310
FFFFC0000FFFF80001FFFF0003FFFFFFFFF0001FFFFC0003F000F0000FFFF000
310
07FE0007FFF800007FFF0001FF80007FE0001FFFE00007FF0000FFFE00007FF8
310
000001FFFE0000007FFFFFF0001FFFFFFFC00003FFE00001FFFFC00003FFE000
310
01FFFF0003FFFFFFFFF8000FFFF80003F000F00003FFC00007FC0007FFF80000
310
7FFF8001FF80007FF00007FF80000FFF00007FF80000FFF8000001FFFE000000
310
7F80000000000001FFE000003E000003FFFFE000003E000003FFFF0003FFFFFF
310
FFF80003FFE00007F000F800000000000FFC0007FFF800007FFF8001FF80007F
310
F000000000000FFF000000000000FFF8000001FFFE0000007F80000000000001
310
FFF0000000000007FFFFF0000000000007FFFF0003FFFFFFFFFC00007E000007
310
F000F800000000000FFC0007FFF80000FFFF8000FF80007FF800000000001FFF
310
800000000001FFF8000001FFFE0000007F80000000000001FFF800000000000F
310
FFFFF800000000000FFFFF0003FFFFFFFFFC00000000000FF000FC0000000000
310
1FFC0007FFFC0000FFFF8000FF80007FF800000000003FFFC00000000001FFF8
310
000001FFFE0000007F80000000000001FFF800000000000FFFFFF80000000000
310
0FFFFF0003FFFFFFFFFE00000000001FF000FE00000000003FF8000FFFFC0000
310
FFFF8000FF80007FFC00000000003FFFC00000000003FFF8000001FFFE000000
310
7F80000000000001FFFC00000000001FFFFFFC00000000001FFFFF0003FFFFFF
310
FFFF00000000001FF000FF00000000003FF8000FFFFC0000FFFFC000FF80007F
310
FE00000000007FFFE00000000007FFF8000001FFFE0000007F80000000000001
310
FFFE00000000003FFFFFFE00000000003FFFFF0003FFFFFFFFFF80000000003F
310
F000FF80000000007FF8000FFFFC0001FFFFC0007F80007FFF0000000000FFFF
310
F0000000000FFFF800000000000000007F80000000000001FFFF8000000000FF
310
FFFFFF8000000000FFFFFF0003FFFFFFFFFFC0000000007FF000FFC000000000
310
FFF8000FFFFE0001FFFFC0007F80007FFF8000000001FFFFF8000000001FFFF8
310
00000000000000007F80000000000001FFFFC000000001FFFFFFFFC000000001
310
FFFFFF0003FFFFFFFFFFE000000000FFF000FFE000000003FFF0001FFFFE0001
310
FFFFC0007F80007FFFC000000007FFFFFE000000003FFFF80000000000000000
310
7F80000000000001FFFFE000000003FFFFFFFFE000000003FFFFFF0003FFFFFF
310
FFFFF000000003FFF000FFF80000000FFFF0001FFFFE0001FFFFE0007F80007F
310
FFF00000000FFFFFFF00000000FFFFF800000000000000007F80000000000001
310
FFFFF80000000FFFFFFFFFF80000000FFFFFFF0003FFFFFFFFFFFC0000000FFF
310
F000FFFE0000003FFFF0001FFFFE0003FFFFE0003F80007FFFFC0000003FFFFF
310
FFC0000003FFFFF800000000000000007F80000000000001FFFFFE0000003FFF
310
FFFFFFFE0000003FFFFFFF0003FFFFFFFFFFFF0000003FFFF000FFFF800000FF
310
FFF0001FFFFF0003FFFFE0003F80007FFFFF000001FFFFFFFFF800001FFFFFF8
310
00000000000000007F80000000000001FFFFFFC00001FFFFFFFFFFFFC00001FF
310
FFFFFF0003FFFFFFFFFFFFC00000FFFFF000FFFFF8000FFFFFFFFFFFFFFFFFFF
310
FFFFFFFFFFFFFFFFFFFFF0001FFFFFFFFFFF0000FFFFFFF80000000000000000
310
7FFFFFFFFFFFFFFFFFFFFFFC001FFFFFFFFFFFFFFC001FFFFFFFFFFFFFFFFFFF
310
FFFFFFFC001FFFFFF000FFFFFFFFFFFFFFFFFFFFFFFFFFFFFFFFFFFFFFFFFFFF
310
FFFFFFFFFFFFFFFFFFFFFFFFFFFFFFFFFFFFFFFFFFFFFFFFFFFFFFFFFFFFFFFF
310
FFFFFFFFFFFFFFFFFFFFFFFFFFFFFFFFFFFFFFFFFFFFFFFFFFFFFFFFFFFFFFFF
310
F000FFFFFFFFFFFFFFFFFFFFFFFFFFFFFFFFFFFFFFFFFFFFFFFFFFFFFFFFFFFF
310
FFFFFFFFFFFFFFFFFFFFFFFFFFFFFFFFFFFFFFFFFFFFFFFFFFFFFFFFFFFFFFFF
310
FFFFFFFFFFFFFFFFFFFFFFFFFFFFFFFFFFFFFFFFFFFFFFFFF000FFFFFFFFFFFF
310
FFFFFFFFFFFFFFFFFFFFFFFFFFFFFFFFFFFFFFFFFFFFFFFFFFFFFFFFFFFFFFFF
310
FFFFFFFFFFFFFFFFFFFFFFFFFFFFFFFFFFFFFFFFFFFFFFFFFFFFFFFFFFFFFFFF
310
FFFFFFFFFFFFFFFFFFFFFFFFFFFFFFFFF000FFFFFFFFFFFFFFFFFFFFFFFFFFFF
310
FFFFFFFFFFFFFFFFFFFFFFFFFFFFFFFFFFFFFFFFFFFFFFFFFFFFFFFFFFFFFFFF
310
FFFFFFFFFFFFFFFFFFFFFFFFFFFFFFFFFFFFFFFFFFFFFFFFFFFFFFFFFFFFFFFF
310
FFFFFFFFFFFFFFFFF000FFFFFFFFFFFFFFFFFFFFFFFFFFFFFFFFFFFFFFFFFFFF
310
FFFFFFFFFFFFFFFFFFFFFFFFFFFFFFFFFFFFFFFFFFFFFFFFFFFFFFFFFFFFFFFF
310
FFFFFFFFFFFFFFFFFFFFFFFFFFFFFFFFFFFFFFFFFFFFFFFFFFFFFFFFFFFFFFFF
310
F000FFFFFFFFFFFFFFFFFFFFFFFFFFFFFFFFFFFFFFFFFFFFFFFFFFFFFFFFFFFF
310
FFFFFFFFFFFFFFFFFFFFFFFFFFFFFFFFFFFFFFFFFFFFFFFFFFFFFFFFFFFFFFFF
310
FFFFFFFFFFFFFFFFFFFFFFFFFFFFFFFFFFFFFFFFFFFFFFFFF000FFFFFFFFFFFF
310
FFFFFFFFFFFFFFFFFFFFFFFFFFFFFFFFFFFFFFFFFFFFFFFFFFFFFFFFFFFFFFFF
310
FFFFFFFFFFFFFFFFFFFFFFFFFFFFFFFFFFFFFFFFFFFFFFFFFFFFFFFFFFFFFFFF
310
FFFFFFFFFFFFFFFFFFFFFFFFFFFFFFFFF000FFFFFFFFFFFFFFFFFFFFFFFFFFFF
310
FFFFFFFFFFFFFFFFFFFFFFFFFFFFFFFFFFFFFFFFFFFFFFFFFFFFFFFFFFFFFFFF
310
FFFFFFFFFFFFFFFFFFFFFFFFFFFFFFFFFFFFFFFFFFFFFFFFFFFFFFFFFFFFFFFF
310
FFFFFFFFFFFFFFFFF000FFFFFFFFFFFFFFFFFFFFFFFFFFFFFFFFFFFFFFFFFFFF
310
FFFFFFFFFFFFFFFFFFFFFFFFFFFFFFFFFFFFFFFFFFFFFFFFFFFFFFFFFFFFFFFF
310
FFFFFFFFFFFFFFFFFFFFFFFFFFFFFFFFFFFFFFFFFFFFFFFFFFFFFFFFFFFFFFFF
310
F000FFFFFFFFFFFFFFFFFFFFFFFFFFFFFFFFFFFFFFFFFFFFFFFFFFFFFFFFFFFF
310
FFFFFFFFFFFFFFFFFFFFFFFFFFFFFFFFFFFFFFFFFFFFFFFFFFFFFFFFFFFFFFFF
310
FFFFFFFFFFFFFFFFFFFFFFFFFFFFFFFFFFFFFFFFFFFFFFFFF000FFFFFFFFFFFF
310
FFFFFFFFFFFFFFFFFFFFFFFFFFFFFFFFFFFFFFFFFFFFFFFFFFFFFFFFFFFFFFFF
310
FFFFFFFFFFFFFFFFFFFFFFFFFFFFFFFFFFFFFFFFFFFFFFFFFFFFFFFFFFFFFFFF
310
FFFFFFFFFFFFFFFFFFFFFFFFFFFFFFFFF000FFFFFFFFFFFFFFFFFFFFFFFFFFFF
310
FFFFFFFFFFFFFFFFFFFFFFFFFFFFFFFFFFFFFFFFFFFFFFFFFFFFFFFFFFFFFFFF
310
FFFFFFFFFFFFFFFFFFFFFFFFFFFFFFFFFFFFFFFFFFFFFFFFFFFFFFFFFFFFFFFF
310
FFFFFFFFFFFFFFFFF000FFFFFFFFFFFFFFFFFFFFFFFFFFFFFFFFFFFFFFFFFFFF
310
FFFFFFFFFFFFFFFFFFFFFFFFFFFFFFFFFFFFFFFFFFFFFFFFFFFFFFFFFFFFFFFF
310
FFFFFFFFFFFFFFFFFFFFFFFFFFFFFFFFFFFFFFFFFFFFFFFFFFFFFFFFFFFFFFFF
310
F000FFFFFFFFFFFFFFFFFFFFFFFFFFFFFFFFFFFFFFFFFFFFFFFFFFFFFFFFFFFF
310
FFFFFFFFFFFFFFFFFFFFFFFFFFFFFFFFFFFFFFFFFFFFFFFFFFFFFFFFFFFFFFFF
310
FFFFFFFFFFFFFFFFFFFFFFFFFFFFFFFFFFFFFFFFFFFFFFFFF000FFFFFFFFFFFF
310
FFFFFFFFFFFFFFFFFFFFFFFFFFFFFFFFFFFFFFFFFFFFFFFFFFFFFFFFFFFFFFFF
310
FFFFFFFFFFFFFFFFFFFFFFFFFFFFFFFFFFFFFFFFFFFFFFFFFFFFFFFFFFFFFFFF
310
FFFFFFFFFFFFFFFFFFFFFFFFFFFFFFFFF000FFFFFFFFFFFFFFFFFFFFFFFFFFFF
310
FFFFFFFFFFFFFFFFFFFFFFFFFFFFFFFFFFFFFFFFFFFFFFFFFFFFFFFFFFFFFFFF
310
FFFFFFFFFFFFFFFFFFFFFFFFFFFFFFFFFFFFFFFFFFFFFFFFFFFFFFFFFFFFFFFF
310
FFFFFFFFFFFFFFFFF000FFFFFFFFFFFFFFFFFFFFFFFFFFFFFFFFFFFFFFFFFFFF
310
FFFFFFFFFFFFFFFFFFFFFFFFFFFFFFFFFFFFFFFFFFFFFFFFFFFFFFFFFFFFFFFF
310
FFFFFFFFFFFFFFFFFFFFFFFFFFFFFFFFFFFFFFFFFFFFFFFFFFFFFFFFFFFFFFFF
310
F000FFFFFFFFFFFFFFFFFFFFFFFFFFFFFFFFFFFFFFFFFFFFFFFFFFFFFFFFFFFF
310
FFFFFFFFFFFFFFFFFFFFFFFFFFFFFFFFFFFFFFFFFFFFFFFFFFFFFFFFFFFFFFFF
310
FFFFFFFFFFFFFFFFFFFFFFFFFFFFFFFFFFFFFFFFFFFFFFFFF000FFFFFFFFFFFF
310
FFFFFFFFFFFFFFFFFFFFFFFFFFFFFFFFFFFFFFFFFFFFFFFFFFFFFFFFFFFFFFFF
310
FFFFFFFFFFFFFFFFFFFFFFFFFFFFFFFFFFFFFFFFFFFFFFFFFFFFFFFFFFFFFFFF
310
FFFFFFFFFFFFFFFFFFFFFFFFFFFFFFFFF000FFFFFFFFFFFFFFFFFFFFFFFFFFFF
310
FFFFFFFFFFFFFFFFFFFFFFFFFFFFFFFFFFFFFFFFFFFFFFFFFFFFFFFFFFFFFFFF
310
FFFFFFFFFFFFFFFFFFFFFFFFFFFFFFFFFFFFFFFFFFFFFFFFFFFFFFFFFFFFFFFF
310
FFFFFFFFFFFFFFFFF000FFFFFFFFFFFFFFFFFFFFFFFFFFFFFFFFFFFFFFFFFFFF
310
FFFFFFFFFFFFFFFFFFFFFFFFFFFFFFFFFFFFFFFFFFFFFFFFFFFFFFFFFFFFFFFF
310
FFFFFFFFFFFFFFFFFFFFFFFFFFFFFFFFFFFFFFFFFFFFFFFFFFFFFFFFFFFFFFFF
310
F000FFFFFFFFFFFFFFFFFFFFFFFFFFFFFFFFFFFFFFFFFFFFFFFFFFFFFFFFFFFF
310
FFFFFFFFFFFFFFFFFFFFFFFFFFFFFFFFFFFFFFFFFFFFFFFFFFFFFFFFFFFFFFFF
310
FFFFFFFFFFFFFFFFFFFFFFFFFFFFFFFFFFFFFFFFFFFFFFFFF000FFFFFFFFFFFF
310
FFFFFFFFFFFFFFFFFFFFFFFFFFFFFFFFFFFFFFFFFFFFFFFFFFFFFFFFFFFFFFFF
310
FFFFFFFFFFFFFFFFFFFFFFFFFFFFFFFFFFFFFFFFFFFFFFFFFFFFFFFFFFFFFFFF
310
FFFFFFFFFFFFFFFFFFFFFFFFFFFFFFFFF0000000000000000000000000000000
310
0000000000000000000000000000000000000000000000000000000000000000
310
0000000000000000000000000000000000000000000000000000000000000000
310
0000000000000000000000000000000000000000000000000000000000000000
310
0000000000000000000000000000000000000000000000000000000000000000
310
0000000000000000000000000000000000000000000000000000000000000000
310
0000000000000000000000000000000000000000000000000000000000000000
310
0000000000000000000000000000000000000000000000000000000000000000
310
0000000000000000000000000000000000000000000000000000000000000000
310
0000000000000000000000000000000000000000000000000000000000000000
310
0000000000000000000000000000000000000000000000000000000000000000
310
0000000000000000000000000000000000000000000000000000000000000000
310
0000000000000000000000000000000000000000000000000000000000000000
310
0000000000000000000000000000000000000000000000000000000000000000
310
0000000000000000000000000000000000000000000000000000000000000000
310
0000000000000000000000000000000000000000000000000000000000000000
  1
OLE
  0
ENDSEC
  0
SECTION
  2
OBJECTS
  0
DICTIONARY
  5
C
330
0
100
AcDbDictionary
281
     1
  3
ACAD_GROUP
350
D
  3
ACAD_LAYOUT
350
1A
  3
ACAD_MLINESTYLE
350
17
  3
ACAD_PLOTSETTINGS
350
19
  3
ACAD_PLOTSTYLENAME
350
E
  3
ACAD_SCALELIST
350
47
  0
DICTIONARY
  5
D
102
{ACAD_REACTORS
330
C
102
}
330
C
100
AcDbDictionary
281
     1
  0
DICTIONARY
  5
1A
102
{ACAD_REACTORS
330
C
102
}
330
C
100
AcDbDictionary
281
     1
  3
Layout1
350
1E
  3
Layout2
350
26
  3
Model
350
22
  0
DICTIONARY
  5
17
102
{ACAD_REACTORS
330
C
102
}
330
C
100
AcDbDictionary
281
     1
  3
Standard
350
18
  0
DICTIONARY
  5
19
102
{ACAD_REACTORS
330
C
102
}
330
C
100
AcDbDictionary
281
     1
  0
ACDBDICTIONARYWDFLT
  5
E
102
{ACAD_REACTORS
330
C
102
}
330
C
100
AcDbDictionary
281
     1
  3
Normal
350
F
100
AcDbDictionaryWithDefault
340
F
  0
DICTIONARY
  5
47
102
{ACAD_REACTORS
330
C
102
}
330
C
100
AcDbDictionary
281
     1
  3
A0
350
48
  3
A1
350
49
  3
A2
350
4A
  3
A3
350
4B
  3
A4
350
4C
  3
A5
350
4D
  3
A6
350
4E
  3
A7
350
4F
  3
A8
350
50
  3
A9
350
51
  3
B0
350
52
  3
B1
350
53
  3
B2
350
54
  3
B3
350
55
  3
B4
350
56
  3
B5
350
57
  3
B6
350
58
  3
B7
350
59
  3
B8
350
5A
  3
B9
350
5B
  3
C0
350
5C
  3
C1
350
5D
  3
C2
350
5E
  3
C3
350
5F
  3
C4
350
60
  3
C5
350
61
  3
C6
350
62
  3
C7
350
63
  3
C8
350
64
  3
C9
350
65
  3
D0
350
66
  3
D1
350
67
  3
D2
350
68
  0
LAYOUT
  5
1E
102
{ACAD_REACTORS
330
1A
102
}
330
1A
100
AcDbPlotSettings
  1

  2
none_device
  4

  6

 40
0.0
 41
0.0
 42
0.0
 43
0.0
 44
0.0
 45
0.0
 46
0.0
 47
0.0
 48
0.0
 49
0.0
140
0.0
141
0.0
142
1.0
143
1.0
 70
   688
 72
     1
 73
     0
 74
     5
  7

 75
    16
147
1.0
148
0.0
149
0.0
100
AcDbLayout
  1
Layout1
 70
     1
 71
     1
 10
0.0
 20
0.0
 11
420.0
 21
297.0
 12
0.0
 22
0.0
 32
0.0
 14
1.0000000000E+20
 24
1.0000000000E+20
 34
1.0000000000E+20
 15
-1.0000000000E+20
 25
-1.0000000000E+20
 35
-1.0000000000E+20
146
0.0
 13
0.0
 23
0.0
 33
0.0
 16
1.0
 26
0.0
 36
0.0
 17
0.0
 27
1.0
 37
0.0
 76
     0
330
1B
  0
LAYOUT
  5
26
102
{ACAD_REACTORS
330
1A
102
}
330
1A
100
AcDbPlotSettings
  1

  2
none_device
  4

  6

 40
0.0
 41
0.0
 42
0.0
 43
0.0
 44
0.0
 45
0.0
 46
0.0
 47
0.0
 48
0.0
 49
0.0
140
0.0
141
0.0
142
1.0
143
1.0
 70
   688
 72
     1
 73
     0
 74
     5
  7

 75
    16
147
1.0
148
0.0
149
0.0
100
AcDbLayout
  1
Layout2
 70
     1
 71
     2
 10
0.0
 20
0.0
 11
0.0
 21
0.0
 12
0.0
 22
0.0
 32
0.0
 14
0.0
 24
0.0
 34
0.0
 15
0.0
 25
0.0
 35
0.0
146
0.0
 13
0.0
 23
0.0
 33
0.0
 16
1.0
 26
0.0
 36
0.0
 17
0.0
 27
1.0
 37
0.0
 76
     0
330
23
  0
LAYOUT
  5
22
102
{ACAD_REACTORS
330
1A
102
}
330
1A
100
AcDbPlotSettings
  1

  2
none_device
  4
Letter_(8.50_x_11.00_Inches)
  6

 40
6.35
 41
6.35
 42
6.35000508
 43
6.35000508
 44
215.9
 45
279.4
 46
0.0
 47
0.0
 48
0.0
 49
0.0
140
0.0
141
0.0
142
1.0
143
1.0
 70
  1712
 72
     1
 73
     0
 74
     0
  7

 75
     0
147
1.0
148
0.0
149
0.0
100
AcDbLayout
  1
Model
 70
     1
 71
     0
 10
0.0
 20
0.0
 11
297.0
 21
210.0
 12
0.0
 22
0.0
 32
0.0
 14
0.0
 24
0.0
 34
0.0
 15
297.0
 25
210.0
 35
0.0
146
0.0
 13
0.0
 23
0.0
 33
0.0
 16
1.0
 26
0.0
 36
0.0
 17
0.0
 27
1.0
 37
0.0
 76
     0
330
1F
331
29
  0
MLINESTYLE
  5
18
102
{ACAD_REACTORS
330
17
102
}
330
17
100
AcDbMlineStyle
  2
Standard
 70
     0
  3

 62
   256
 51
90.0
 52
90.0
 71
     2
 49
0.5
 62
   256
  6
BYLAYER
 49
-0.5
 62
   256
  6
BYLAYER
  0
ACDBPLACEHOLDER
  5
F
102
{ACAD_REACTORS
330
E
102
}
330
E
  0
SCALE
  5
48
102
{ACAD_REACTORS
330
47
102
}
330
47
100
AcDbScale
 70
     0
300
1:1
140
1.0
141
1.0
290
     1
  0
SCALE
  5
49
102
{ACAD_REACTORS
330
47
102
}
330
47
100
AcDbScale
 70
     0
300
1:2
140
1.0
141
2.0
290
     0
  0
SCALE
  5
4A
102
{ACAD_REACTORS
330
47
102
}
330
47
100
AcDbScale
 70
     0
300
1:4
140
1.0
141
4.0
290
     0
  0
SCALE
  5
4B
102
{ACAD_REACTORS
330
47
102
}
330
47
100
AcDbScale
 70
     0
300
1:5
140
1.0
141
5.0
290
     0
  0
SCALE
  5
4C
102
{ACAD_REACTORS
330
47
102
}
330
47
100
AcDbScale
 70
     0
300
1:8
140
1.0
141
8.0
290
     0
  0
SCALE
  5
4D
102
{ACAD_REACTORS
330
47
102
}
330
47
100
AcDbScale
 70
     0
300
1:10
140
1.0
141
10.0
290
     0
  0
SCALE
  5
4E
102
{ACAD_REACTORS
330
47
102
}
330
47
100
AcDbScale
 70
     0
300
1:16
140
1.0
141
16.0
290
     0
  0
SCALE
  5
4F
102
{ACAD_REACTORS
330
47
102
}
330
47
100
AcDbScale
 70
     0
300
1:20
140
1.0
141
20.0
290
     0
  0
SCALE
  5
50
102
{ACAD_REACTORS
330
47
102
}
330
47
100
AcDbScale
 70
     0
300
1:30
140
1.0
141
30.0
290
     0
  0
SCALE
  5
51
102
{ACAD_REACTORS
330
47
102
}
330
47
100
AcDbScale
 70
     0
300
1:40
140
1.0
141
40.0
290
     0
  0
SCALE
  5
52
102
{ACAD_REACTORS
330
47
102
}
330
47
100
AcDbScale
 70
     0
300
1:50
140
1.0
141
50.0
290
     0
  0
SCALE
  5
53
102
{ACAD_REACTORS
330
47
102
}
330
47
100
AcDbScale
 70
     0
300
1:100
140
1.0
141
100.0
290
     0
  0
SCALE
  5
54
102
{ACAD_REACTORS
330
47
102
}
330
47
100
AcDbScale
 70
     0
300
2:1
140
2.0
141
1.0
290
     0
  0
SCALE
  5
55
102
{ACAD_REACTORS
330
47
102
}
330
47
100
AcDbScale
 70
     0
300
4:1
140
4.0
141
1.0
290
     0
  0
SCALE
  5
56
102
{ACAD_REACTORS
330
47
102
}
330
47
100
AcDbScale
 70
     0
300
8:1
140
8.0
141
1.0
290
     0
  0
SCALE
  5
57
102
{ACAD_REACTORS
330
47
102
}
330
47
100
AcDbScale
 70
     0
300
10:1
140
10.0
141
1.0
290
     0
  0
SCALE
  5
58
102
{ACAD_REACTORS
330
47
102
}
330
47
100
AcDbScale
 70
     0
300
100:1
140
100.0
141
1.0
290
     0
  0
SCALE
  5
59
102
{ACAD_REACTORS
330
47
102
}
330
47
100
AcDbScale
 70
     0
300
1/128" = 1'-0"
140
0.0078125
141
12.0
290
     0
  0
SCALE
  5
5A
102
{ACAD_REACTORS
330
47
102
}
330
47
100
AcDbScale
 70
     0
300
1/64" = 1'-0"
140
0.015625
141
12.0
290
     0
  0
SCALE
  5
5B
102
{ACAD_REACTORS
330
47
102
}
330
47
100
AcDbScale
 70
     0
300
1/32" = 1'-0"
140
0.03125
141
12.0
290
     0
  0
SCALE
  5
5C
102
{ACAD_REACTORS
330
47
102
}
330
47
100
AcDbScale
 70
     0
300
1/16" = 1'-0"
140
0.0625
141
12.0
290
     0
  0
SCALE
  5
5D
102
{ACAD_REACTORS
330
47
102
}
330
47
100
AcDbScale
 70
     0
300
3/32" = 1'-0"
140
0.09375
141
12.0
290
     0
  0
SCALE
  5
5E
102
{ACAD_REACTORS
330
47
102
}
330
47
100
AcDbScale
 70
     0
300
1/8" = 1'-0"
140
0.125
141
12.0
290
     0
  0
SCALE
  5
5F
102
{ACAD_REACTORS
330
47
102
}
330
47
100
AcDbScale
 70
     0
300
3/16" = 1'-0"
140
0.1875
141
12.0
290
     0
  0
SCALE
  5
60
102
{ACAD_REACTORS
330
47
102
}
330
47
100
AcDbScale
 70
     0
300
1/4" = 1'-0"
140
0.25
141
12.0
290
     0
  0
SCALE
  5
61
102
{ACAD_REACTORS
330
47
102
}
330
47
100
AcDbScale
 70
     0
300
3/8" = 1'-0"
140
0.375
141
12.0
290
     0
  0
SCALE
  5
62
102
{ACAD_REACTORS
330
47
102
}
330
47
100
AcDbScale
 70
     0
300
1/2" = 1'-0"
140
0.5
141
12.0
290
     0
  0
SCALE
  5
63
102
{ACAD_REACTORS
330
47
102
}
330
47
100
AcDbScale
 70
     0
300
3/4" = 1'-0"
140
0.75
141
12.0
290
     0
  0
SCALE
  5
64
102
{ACAD_REACTORS
330
47
102
}
330
47
100
AcDbScale
 70
     0
300
1" = 1'-0"
140
1.0
141
12.0
290
     0
  0
SCALE
  5
65
102
{ACAD_REACTORS
330
47
102
}
330
47
100
AcDbScale
 70
     0
300
1-1/2" = 1'-0"
140
1.5
141
12.0
290
     0
  0
SCALE
  5
66
102
{ACAD_REACTORS
330
47
102
}
330
47
100
AcDbScale
 70
     0
300
3" = 1'-0"
140
3.0
141
12.0
290
     0
  0
SCALE
  5
67
102
{ACAD_REACTORS
330
47
102
}
330
47
100
AcDbScale
 70
     0
300
6" = 1'-0"
140
6.0
141
12.0
290
     0
  0
SCALE
  5
68
102
{ACAD_REACTORS
330
47
102
}
330
47
100
AcDbScale
 70
     0
300
1'-0" = 1'-0"
140
12.0
141
12.0
290
     0
  0
ENDSEC
  0
EOF
