  0
SECTION
  2
HEADER
  9
$ACADVER
  1
AC1015
  9
$ACADMAINTVER
 70
     6
  9
$DWGCODEPAGE
  3
ANSI_1252
  9
$INSBASE
 10
0.0
 20
0.0
 30
0.0
  9
$EXTMIN
 10
0.0
 20
0.0
 30
0.0
  9
$EXTMAX
 10
297.0
 20
210.0
 30
0.0
  9
$LIMMIN
 10
0.0
 20
0.0
  9
$LIMMAX
 10
297.0
 20
210.0
  9
$ORTHOMODE
 70
     0
  9
$REGENMODE
 70
     1
  9
$FILLMODE
 70
     1
  9
$QTEXTMODE
 70
     0
  9
$MIRRTEXT
 70
     1
  9
$LTSCALE
 40
1.0
  9
$ATTMODE
 70
     1
  9
$TEXTSIZE
 40
2.0
  9
$TRACEWID
 40
1.0
  9
$TEXTSTYLE
  7
Standard
  9
$CLAYER
  8
0
  9
$CELTYPE
  6
ByLayer
  9
$CECOLOR
 62
   256
  9
$CELTSCALE
 40
1.0
  9
$DISPSILH
 70
     0
  9
$DIMSCALE
 40
1.0
  9
$DIMASZ
 40
3.0
  9
$DIMEXO
 40
0.0
  9
$DIMDLI
 40
3.75
  9
$DIMRND
 40
0.0
  9
$DIMDLE
 40
0.0
  9
$DIMEXE
 40
1.0
  9
$DIMTP
 40
0.0
  9
$DIMTM
 40
0.0
  9
$DIMTXT
 40
2.0
  9
$DIMCEN
 40
2.5
  9
$DIMTSZ
 40
0.0
  9
$DIMTOL
 70
     0
  9
$DIMLIM
 70
     0
  9
$DIMTIH
 70
     1
  9
$DIMTOH
 70
     1
  9
$DIMSE1
 70
     0
  9
$DIMSE2
 70
     0
  9
$DIMTAD
 70
     1
  9
$DIMZIN
 70
     0
  9
$DIMBLK
  1

  9
$DIMASO
 70
     1
  9
$DIMSHO
 70
     1
  9
$DIMPOST
  1

  9
$DIMAPOST
  1

  9
$DIMALT
 70
     0
  9
$DIMALTD
 70
     3
  9
$DIMALTF
 40
0.0393700787
  9
$DIMLFAC
 40
1.0
  9
$DIMTOFL
 70
     1
  9
$DIMTVP
 40
0.0
  9
$DIMTIX
 70
     0
  9
$DIMSOXD
 70
     0
  9
$DIMSAH
 70
     0
  9
$DIMBLK1
  1

  9
$DIMBLK2
  1

  9
$DIMSTYLE
  2
ISO-25
  9
$DIMCLRD
 70
     0
  9
$DIMCLRE
 70
     0
  9
$DIMCLRT
 70
     0
  9
$DIMTFAC
 40
1.0
  9
$DIMGAP
 40
1.524
  9
$DIMJUST
 70
     0
  9
$DIMSD1
 70
     0
  9
$DIMSD2
 70
     0
  9
$DIMTOLJ
 70
     0
  9
$DIMTZIN
 70
     0
  9
$DIMALTZ
 70
     0
  9
$DIMALTTZ
 70
     0
  9
$DIMUPT
 70
     0
  9
$DIMDEC
 70
     2
  9
$DIMTDEC
 70
     3
  9
$DIMALTU
 70
     2
  9
$DIMALTTD
 70
     3
  9
$DIMTXSTY
  7
Standard
  9
$DIMAUNIT
 70
     0
  9
$DIMADEC
 70
     2
  9
$DIMALTRND
 40
0.0
  9
$DIMAZIN
 70
     0
  9
$DIMDSEP
 70
    44
  9
$DIMATFIT
 70
     3
  9
$DIMFRAC
 70
     0
  9
$DIMLDRBLK
  1

  9
$DIMLUNIT
 70
     2
  9
$DIMLWD
 70
    -2
  9
$DIMLWE
 70
    -2
  9
$DIMTMOVE
 70
     0
  9
$LUNITS
 70
     2
  9
$LUPREC
 70
     2
  9
$SKETCHINC
 40
1.0
  9
$FILLETRAD
 40
10.0
  9
$AUNITS
 70
     0
  9
$AUPREC
 70
     2
  9
$MENU
  1
.
  9
$ELEVATION
 40
0.0
  9
$PELEVATION
 40
0.0
  9
$THICKNESS
 40
0.0
  9
$LIMCHECK
 70
     0
  9
$CHAMFERA
 40
10.0
  9
$CHAMFERB
 40
10.0
  9
$CHAMFERC
 40
20.0
  9
$CHAMFERD
 40
0.0
  9
$SKPOLY
 70
     0
  9
$TDCREATE
 40
2456086.492883715
  9
$TDUCREATE
 40
2456086.409550382
  9
$TDUPDATE
 40
2456086.492885162
  9
$TDUUPDATE
 40
2456086.409551829
  9
$TDINDWG
 40
0.0000000116
  9
$TDUSRTIMER
 40
0.0000000116
  9
$USRTIMER
 70
     1
  9
$ANGBASE
 50
0.0
  9
$ANGDIR
 70
     0
  9
$PDMODE
 70
     0
  9
$PDSIZE
 40
-1.0
  9
$PLINEWID
 40
0.0
  9
$SPLFRAME
 70
     0
  9
$SPLINETYPE
 70
     6
  9
$SPLINESEGS
 70
     8
  9
$HANDSEED
  5
242
  9
$SURFTAB1
 70
     6
  9
$SURFTAB2
 70
     6
  9
$SURFTYPE
 70
     6
  9
$SURFU
 70
     6
  9
$SURFV
 70
     6
  9
$UCSBASE
  2

  9
$UCSNAME
  2

  9
$UCSORG
 10
0.0
 20
0.0
 30
0.0
  9
$UCSXDIR
 10
1.0
 20
0.0
 30
0.0
  9
$UCSYDIR
 10
0.0
 20
1.0
 30
0.0
  9
$UCSORTHOREF
  2

  9
$UCSORTHOVIEW
 70
     0
  9
$UCSORGTOP
 10
0.0
 20
0.0
 30
0.0
  9
$UCSORGBOTTOM
 10
0.0
 20
0.0
 30
0.0
  9
$UCSORGLEFT
 10
0.0
 20
0.0
 30
0.0
  9
$UCSORGRIGHT
 10
0.0
 20
0.0
 30
0.0
  9
$UCSORGFRONT
 10
0.0
 20
0.0
 30
0.0
  9
$UCSORGBACK
 10
0.0
 20
0.0
 30
0.0
  9
$PUCSBASE
  2

  9
$PUCSNAME
  2

  9
$PUCSORG
 10
0.0
 20
0.0
 30
0.0
  9
$PUCSXDIR
 10
1.0
 20
0.0
 30
0.0
  9
$PUCSYDIR
 10
0.0
 20
1.0
 30
0.0
  9
$PUCSORTHOREF
  2

  9
$PUCSORTHOVIEW
 70
     0
  9
$PUCSORGTOP
 10
0.0
 20
0.0
 30
0.0
  9
$PUCSORGBOTTOM
 10
0.0
 20
0.0
 30
0.0
  9
$PUCSORGLEFT
 10
0.0
 20
0.0
 30
0.0
  9
$PUCSORGRIGHT
 10
0.0
 20
0.0
 30
0.0
  9
$PUCSORGFRONT
 10
0.0
 20
0.0
 30
0.0
  9
$PUCSORGBACK
 10
0.0
 20
0.0
 30
0.0
  9
$USERI1
 70
     0
  9
$USERI2
 70
     0
  9
$USERI3
 70
     0
  9
$USERI4
 70
     0
  9
$USERI5
 70
     0
  9
$USERR1
 40
0.0
  9
$USERR2
 40
0.0
  9
$USERR3
 40
0.0
  9
$USERR4
 40
0.0
  9
$USERR5
 40
0.0
  9
$WORLDVIEW
 70
     1
  9
$SHADEDGE
 70
     3
  9
$SHADEDIF
 70
    70
  9
$TILEMODE
 70
     1
  9
$MAXACTVP
 70
    64
  9
$PINSBASE
 10
0.0
 20
0.0
 30
0.0
  9
$PLIMCHECK
 70
     0
  9
$PEXTMIN
 10
1.0000000000E+20
 20
1.0000000000E+20
 30
1.0000000000E+20
  9
$PEXTMAX
 10
-1.0000000000E+20
 20
-1.0000000000E+20
 30
-1.0000000000E+20
  9
$PLIMMIN
 10
0.0
 20
0.0
  9
$PLIMMAX
 10
420.0
 20
297.0
  9
$UNITMODE
 70
     0
  9
$VISRETAIN
 70
     1
  9
$PLINEGEN
 70
     0
  9
$PSLTSCALE
 70
     1
  9
$TREEDEPTH
 70
  3020
  9
$CMLSTYLE
  2
Standard
  9
$CMLJUST
 70
     0
  9
$CMLSCALE
 40
20.0
  9
$PROXYGRAPHICS
 70
     1
  9
$MEASUREMENT
 70
     1
  9
$CELWEIGHT
370
    -1
  9
$ENDCAPS
280
     0
  9
$JOINSTYLE
280
     0
  9
$LWDISPLAY
290
     1
  9
$INSUNITS
 70
     4
  9
$HYPERLINKBASE
  1

  9
$STYLESHEET
  1

  9
$XEDIT
290
     1
  9
$CEPSNTYPE
380
     0
  9
$PSTYLEMODE
290
     1
  9
$FINGERPRINTGUID
  2
{1C0C0B2D-78BA-4393-A09C-8956226B60CF}
  9
$VERSIONGUID
  2
{FAEB1C32-E019-11D5-929B-00C0DF256EC4}
  9
$EXTNAMES
290
     1
  9
$PSVPSCALE
 40
0.0
  9
$OLESTARTUP
290
     0
  0
ENDSEC
  0
SECTION
  2
CLASSES
  0
CLASS
  1
ACDBDICTIONARYWDFLT
  2
AcDbDictionaryWithDefault
  3
ObjectDBX Classes
 90
        0
280
     0
281
     0
  0
CLASS
  1
VISUALSTYLE
  2
AcDbVisualStyle
  3
ObjectDBX Classes
 90
     4095
280
     0
281
     0
  0
CLASS
  1
MATERIAL
  2
AcDbMaterial
  3
ObjectDBX Classes
 90
     1153
280
     0
281
     0
  0
CLASS
  1
ACDBPLACEHOLDER
  2
AcDbPlaceHolder
  3
ObjectDBX Classes
 90
        0
280
     0
281
     0
  0
CLASS
  1
LAYOUT
  2
AcDbLayout
  3
ObjectDBX Classes
 90
        0
280
     0
281
     0
  0
ENDSEC
  0
SECTION
  2
TABLES
  0
TABLE
  2
VPORT
  5
8
330
0
100
AcDbSymbolTable
 70
     1
  0
VPORT
  5
29
330
8
100
AcDbSymbolTableRecord
100
AcDbViewportTableRecord
  2
*Active
 70
     0
 10
0.0
 20
0.0
 11
1.0
 21
1.0
 12
148.5
 22
105.0
 13
0.0
 23
0.0
 14
10.0
 24
10.0
 15
10.0
 25
10.0
 16
0.0
 26
0.0
 36
1.0
 17
0.0
 27
0.0
 37
0.0
 40
210.0
 41
1.4142857143
 42
50.0
 43
0.0
 44
0.0
 50
0.0
 51
0.0
 71
     0
 72
  2000
 73
     1
 74
     3
 75
     0
 76
     0
 77
     0
 78
     0
281
     0
 65
     1
110
0.0
120
0.0
130
0.0
111
1.0
121
0.0
131
0.0
112
0.0
122
1.0
132
0.0
 79
     0
146
0.0
  0
ENDTAB
  0
TABLE
  2
LTYPE
  5
5
330
0
100
AcDbSymbolTable
 70
     6
  0
LTYPE
  5
14
330
5
100
AcDbSymbolTableRecord
100
AcDbLinetypeTableRecord
  2
ByBlock
 70
     0
  3

 72
    65
 73
     0
 40
0.0
  0
LTYPE
  5
15
330
5
100
AcDbSymbolTableRecord
100
AcDbLinetypeTableRecord
  2
ByLayer
 70
     0
  3

 72
    65
 73
     0
 40
0.0
  0
LTYPE
  5
16
330
5
100
AcDbSymbolTableRecord
100
AcDbLinetypeTableRecord
  2
Continuous
 70
     0
  3
Solid line
 72
    65
 73
     0
 40
0.0
  0
LTYPE
  5
3F
330
5
100
AcDbSymbolTableRecord
100
AcDbLinetypeTableRecord
  2
HIDDEN
 70
     0
  3
Hidden __ __ __ __ __ __ __ __ __ __ __ __ __ __
 72
    65
 73
     2
 40
1.905
 49
1.27
 74
     0
 49
-0.635
 74
     0
  0
LTYPE
  5
40
330
5
100
AcDbSymbolTableRecord
100
AcDbLinetypeTableRecord
  2
PHANTOM
 70
     0
  3
Phantom ______  __  __  ______  __  __  ______
 72
    65
 73
     6
 40
12.7
 49
6.35
 74
     0
 49
-1.27
 74
     0
 49
1.27
 74
     0
 49
-1.27
 74
     0
 49
1.27
 74
     0
 49
-1.27
 74
     0
  0
LTYPE
  5
41
330
5
100
AcDbSymbolTableRecord
100
AcDbLinetypeTableRecord
  2
CENTER
 70
     0
  3
Center ____ _ ____ _ ____ _ ____ _ ____ _ ____
 72
    65
 73
     4
 40
10.16
 49
6.35
 74
     0
 49
-1.27
 74
     0
 49
1.27
 74
     0
 49
-1.27
 74
     0
  0
LTYPE
  5
42
330
5
100
AcDbSymbolTableRecord
100
AcDbLinetypeTableRecord
  2
CENTERX2
 70
     0
  3
Center (2x) ________  __  ________  __  _____
 72
    65
 73
     4
 40
20.32
 49
12.7
 74
     0
 49
-2.54
 74
     0
 49
2.54
 74
     0
 49
-2.54
 74
     0
  0
LTYPE
  5
43
330
5
100
AcDbSymbolTableRecord
100
AcDbLinetypeTableRecord
  2
DOT2
 70
     0
  3
Dot (.5x) ........................................
 72
    65
 73
     2
 40
0.635
 49
0.0
 74
     0
 49
-0.635
 74
     0
  0
ENDTAB
  0
TABLE
  2
LAYER
  5
2
330
0
100
AcDbSymbolTable
 70
     5
  0
LAYER
  5
10
330
2
100
AcDbSymbolTableRecord
100
AcDbLayerTableRecord
  2
0
 70
     0
 62
     7
  6
Continuous
370
    -3
390
F
  0
LAYER
  5
44
330
2
100
AcDbSymbolTableRecord
100
AcDbLayerTableRecord
  2
FORMAT
 70
     0
 62
     7
  6
Continuous
370
    -3
390
F
  0
LAYER
  5
45
330
2
100
AcDbSymbolTableRecord
100
AcDbLayerTableRecord
  2
VERMASSUNG
 70
     0
 62
     7
  6
Continuous
370
    -3
390
F
  0
LAYER
  5
46
330
2
100
AcDbSymbolTableRecord
100
AcDbLayerTableRecord
  2
KOPF_DÜNN
 70
     0
 62
     7
  6
Continuous
370
    -3
390
F
  0
LAYER
  5
47
330
2
100
AcDbSymbolTableRecord
100
AcDbLayerTableRecord
  2
KOPF_DICK
 70
     0
 62
     7
  6
Continuous
370
    15
390
F
  0
ENDTAB
  0
TABLE
  2
STYLE
  5
3
330
0
100
AcDbSymbolTable
 70
     2
  0
STYLE
  5
11
330
3
100
AcDbSymbolTableRecord
100
AcDbTextStyleTableRecord
  2
Standard
 70
     0
 40
0.0
 41
1.0
 50
0.0
 71
     0
 42
2.0
  3
txt
  4

  0
STYLE
  5
48
330
3
100
AcDbSymbolTableRecord
100
AcDbTextStyleTableRecord
  2
SLDTEXTSTYLE0
 70
     0
 40
0.0
 41
0.7
 50
0.0
 71
     0
 42
0.2
  3
TXT
  4

  0
ENDTAB
  0
TABLE
  2
VIEW
  5
6
330
0
100
AcDbSymbolTable
 70
     0
  0
ENDTAB
  0
TABLE
  2
UCS
  5
7
330
0
100
AcDbSymbolTable
 70
     0
  0
ENDTAB
  0
TABLE
  2
APPID
  5
9
330
0
100
AcDbSymbolTable
 70
     1
  0
APPID
  5
12
330
9
100
AcDbSymbolTableRecord
100
AcDbRegAppTableRecord
  2
ACAD
 70
     0
  0
ENDTAB
  0
TABLE
  2
DIMSTYLE
  5
A
330
0
100
AcDbSymbolTable
 70
     5
100
AcDbDimStyleTable
  0
DIMSTYLE
105
27
330
A
100
AcDbSymbolTableRecord
100
AcDbDimStyleTableRecord
  2
ISO-25
 70
     0
 41
2.5
 42
0.625
 43
3.75
 44
1.25
 73
     0
 74
     0
 77
     1
 78
     8
140
2.5
141
2.5
143
0.0393700787
147
0.625
171
     3
172
     1
178
     0
271
     2
272
     2
274
     3
278
    44
283
     0
284
     8
340
11
  0
DIMSTYLE
105
1C0
102
{ACAD_REACTORS
330
1BF
330
1D3
330
1DD
330
1E7
330
1F3
102
}
330
A
100
AcDbSymbolTableRecord
100
AcDbDimStyleTableRecord
  2
SLDDIMSTYLE0
 70
     0
 41
3.0
 44
0.0
 45
0.000000001
 73
     0
 74
     0
 77
     1
 78
    12
 79
     3
140
2.0
147
0.5
173
     1
178
     0
271
     2
272
     3
276
     2
284
    12
340
48
  0
DIMSTYLE
105
1CB
102
{ACAD_REACTORS
330
1CA
102
}
330
A
100
AcDbSymbolTableRecord
100
AcDbDimStyleTableRecord
  2
SLDDIMSTYLE1
 70
     0
 41
3.0
 44
0.0
 73
     0
 74
     0
 77
     1
 78
    12
 79
     3
140
2.0
147
0.5
173
     1
178
     0
179
     1
272
     3
276
     2
284
    12
340
48
  0
DIMSTYLE
105
21A
102
{ACAD_REACTORS
330
219
102
}
330
A
100
AcDbSymbolTableRecord
100
AcDbDimStyleTableRecord
  2
SLDDIMSTYLE2
 70
     0
 41
3.0
 44
0.0
 45
0.000000001
 73
     0
 74
     0
 77
     1
 78
    12
 79
     3
140
2.0
147
0.5
172
     1
173
     1
178
     0
271
     2
272
     3
276
     2
284
    12
289
     0
340
48
  0
DIMSTYLE
105
229
102
{ACAD_REACTORS
330
228
102
}
330
A
100
AcDbSymbolTableRecord
100
AcDbDimStyleTableRecord
  2
SLDDIMSTYLE3
 70
     0
 41
3.0
 44
0.0
 73
     0
 74
     0
 77
     1
 78
    12
 79
     3
140
2.0
147
0.5
173
     1
178
     0
179
     2
272
     3
276
     2
284
    12
340
48
  0
ENDTAB
  0
TABLE
  2
BLOCK_RECORD
  5
1
330
0
100
AcDbSymbolTable
 70
    10
  0
BLOCK_RECORD
  5
1F
330
1
100
AcDbSymbolTableRecord
100
AcDbBlockTableRecord
  2
*Model_Space
340
22
  0
BLOCK_RECORD
  5
1B
330
1
100
AcDbSymbolTableRecord
100
AcDbBlockTableRecord
  2
*Paper_Space
340
1E
  0
BLOCK_RECORD
  5
23
330
1
100
AcDbSymbolTableRecord
100
AcDbBlockTableRecord
  2
*Paper_Space0
340
26
  0
BLOCK_RECORD
  5
1C1
330
1
100
AcDbSymbolTableRecord
100
AcDbBlockTableRecord
  2
_D
340
0
  0
BLOCK_RECORD
  5
1CC
330
1
100
AcDbSymbolTableRecord
100
AcDbBlockTableRecord
  2
_D_1
340
0
  0
BLOCK_RECORD
  5
1D4
330
1
100
AcDbSymbolTableRecord
100
AcDbBlockTableRecord
  2
_D_2
340
0
  0
BLOCK_RECORD
  5
1DE
330
1
100
AcDbSymbolTableRecord
100
AcDbBlockTableRecord
  2
_D_3
340
0
  0
BLOCK_RECORD
  5
1E8
330
1
100
AcDbSymbolTableRecord
100
AcDbBlockTableRecord
  2
_D_4
340
0
  0
BLOCK_RECORD
  5
1F4
330
1
100
AcDbSymbolTableRecord
100
AcDbBlockTableRecord
  2
_D_5
340
0
  0
BLOCK_RECORD
  5
21B
330
1
100
AcDbSymbolTableRecord
100
AcDbBlockTableRecord
  2
_D_6
340
0
  0
BLOCK_RECORD
  5
22A
330
1
100
AcDbSymbolTableRecord
100
AcDbBlockTableRecord
  2
_D_7
340
0
  0
BLOCK_RECORD
  5
235
330
1
100
AcDbSymbolTableRecord
100
AcDbBlockTableRecord
  2
SW_CENTERMARKSYMBOL_0
340
0
102
{BLKREFS
331
240
102
}
  0
ENDTAB
  0
ENDSEC
  0
SECTION
  2
BLOCKS
  0
BLOCK
  5
20
330
1F
100
AcDbEntity
  8
0
100
AcDbBlockBegin
  2
*Model_Space
 70
     0
 10
0.0
 20
0.0
 30
0.0
  3
*Model_Space
  1

  0
ENDBLK
  5
21
330
1F
100
AcDbEntity
  8
0
100
AcDbBlockEnd
  0
BLOCK
  5
1C
330
1B
100
AcDbEntity
 67
     1
  8
0
100
AcDbBlockBegin
  2
*Paper_Space
 70
     0
 10
0.0
 20
0.0
 30
0.0
  3
*Paper_Space
  1

  0
ENDBLK
  5
1D
330
1B
100
AcDbEntity
 67
     1
  8
0
100
AcDbBlockEnd
  0
BLOCK
  5
24
330
23
100
AcDbEntity
  8
0
100
AcDbBlockBegin
  2
*Paper_Space0
 70
     0
 10
0.0
 20
0.0
 30
0.0
  3
*Paper_Space0
  1

  0
ENDBLK
  5
25
330
23
100
AcDbEntity
  8
0
100
AcDbBlockEnd
  0
BLOCK
  5
1C2
330
1C1
100
AcDbEntity
  8
0
100
AcDbBlockBegin
  2
_D
 70
     0
 10
0.0
 20
0.0
 30
0.0
  3
_D
  1

  0
SOLID
  5
1C4
330
1C1
100
AcDbEntity
  8
VERMASSUNG
100
AcDbTrace
 10
273.4390363807
 20
101.193909377
 30
0.0
 11
273.8890363807
 21
104.193909377
 31
0.0
 12
272.9890363807
 22
104.193909377
 32
0.0
 13
272.9890363807
 23
104.193909377
 33
0.0
  0
SOLID
  5
1C5
330
1C1
100
AcDbEntity
  8
VERMASSUNG
100
AcDbTrace
 10
273.4390363807
 20
123.193909377
 30
0.0
 11
272.9890363807
 21
120.193909377
 31
0.0
 12
273.8890363807
 22
120.193909377
 32
0.0
 13
273.8890363807
 23
120.193909377
 33
0.0
  0
LINE
  5
1C6
330
1C1
100
AcDbEntity
  8
VERMASSUNG
100
AcDbLine
 10
257.8514323083
 20
101.193909377
 30
0.0
 11
274.4390363807
 21
101.193909377
 31
0.0
  0
LINE
  5
1C7
330
1C1
100
AcDbEntity
  8
VERMASSUNG
100
AcDbLine
 10
257.8514323083
 20
123.193909377
 30
0.0
 11
274.4390363807
 21
123.193909377
 31
0.0
  0
LINE
  5
1C8
330
1C1
100
AcDbEntity
  8
VERMASSUNG
100
AcDbLine
 10
273.4390363807
 20
101.193909377
 30
0.0
 11
273.4390363807
 21
123.193909377
 31
0.0
  0
MTEXT
  5
1C9
330
1C1
100
AcDbEntity
  8
VERMASSUNG
100
AcDbMText
 10
270.8609010176
 20
109.893909326
 30
0.1
 40
2.0
 41
0.0
 71
     1
 72
     1
  1
22
  7
SLDTEXTSTYLE0
 11
6.123233995736766E-17
 21
1.0
 31
0.0
 73
     1
 44
1.0
  0
ENDBLK
  5
1C3
330
1C1
100
AcDbEntity
  8
0
100
AcDbBlockEnd
  0
BLOCK
  5
1CD
330
1CC
100
AcDbEntity
  8
0
100
AcDbBlockBegin
  2
_D_1
 70
     0
 10
0.0
 20
0.0
 30
0.0
  3
_D_1
  1

  0
ARC
  5
1CF
330
1CC
100
AcDbEntity
  8
VERMASSUNG
100
AcDbCircle
 10
257.9969634739
 20
101.193909377
 30
0.0
 40
9.296715245223709
100
AcDbArc
 50
0.0
 51
107.5401158054
  0
SOLID
  5
1D0
330
1CC
100
AcDbEntity
  8
VERMASSUNG
100
AcDbTrace
 10
267.2936787191
 20
101.193909377
 30
0.0
 11
267.2718896536
 21
104.2273933866
 31
0.0
 12
266.3828288273
 22
104.087497543
 32
0.0
 13
266.3828288273
 23
104.087497543
 33
0.0
  0
SOLID
  5
1D1
330
1CC
100
AcDbEntity
  8
VERMASSUNG
100
AcDbTrace
 10
255.195180109
 20
110.0583847889
 30
0.0
 11
258.2287402946
 21
110.0619345069
 31
0.0
 12
258.0941924963
 22
110.9518203928
 32
0.0
 13
258.0941924963
 23
110.9518203928
 33
0.0
  0
MTEXT
  5
1D2
330
1CC
100
AcDbEntity
  8
VERMASSUNG
100
AcDbMText
 10
261.4660574682
 20
113.3732962097
 30
0.1
 40
2.0
 41
0.0
 71
     1
 72
     1
  1
107.5°
  7
SLDTEXTSTYLE0
 11
0.8066515584257017
 21
-0.5910272948767991
 31
0.0
 73
     1
 44
1.0
  0
ENDBLK
  5
1CE
330
1CC
100
AcDbEntity
  8
0
100
AcDbBlockEnd
  0
BLOCK
  5
1D5
330
1D4
100
AcDbEntity
  8
0
100
AcDbBlockBegin
  2
_D_2
 70
     0
 10
0.0
 20
0.0
 30
0.0
  3
_D_2
  1

  0
SOLID
  5
1D7
330
1D4
100
AcDbEntity
  8
VERMASSUNG
100
AcDbTrace
 10
147.8514323083
 20
92.6763974414
 30
0.0
 11
150.8514323083
 21
92.2263974414
 31
0.0
 12
150.8514323083
 22
93.1263974414
 32
0.0
 13
150.8514323083
 23
93.1263974414
 33
0.0
  0
SOLID
  5
1D8
330
1D4
100
AcDbEntity
  8
VERMASSUNG
100
AcDbTrace
 10
257.8514323083
 20
92.6763974414
 30
0.0
 11
254.8514323083
 21
93.1263974414
 31
0.0
 12
254.8514323083
 22
92.2263974414
 32
0.0
 13
254.8514323083
 23
92.2263974414
 33
0.0
  0
LINE
  5
1D9
330
1D4
100
AcDbEntity
  8
VERMASSUNG
100
AcDbLine
 10
147.8514323083
 20
103.493909377
 30
0.0
 11
147.8514323083
 21
91.6763974414
 31
0.0
  0
LINE
  5
1DA
330
1D4
100
AcDbEntity
  8
VERMASSUNG
100
AcDbLine
 10
257.8514323083
 20
101.193909377
 30
0.0
 11
257.8514323083
 21
91.6763974414
 31
0.0
  0
LINE
  5
1DB
330
1D4
100
AcDbEntity
  8
VERMASSUNG
100
AcDbLine
 10
147.8514323083
 20
92.6763974414
 30
0.0
 11
257.8514323083
 21
92.6763974414
 31
0.0
  0
MTEXT
  5
1DC
330
1D4
100
AcDbEntity
  8
VERMASSUNG
100
AcDbMText
 10
200.2514320684
 20
95.2545328045
 30
0.1
 40
2.0
 41
0.0
 71
     1
 72
     1
  1
110
  7
SLDTEXTSTYLE0
 73
     1
 44
1.0
  0
ENDBLK
  5
1D6
330
1D4
100
AcDbEntity
  8
0
100
AcDbBlockEnd
  0
BLOCK
  5
1DF
330
1DE
100
AcDbEntity
  8
0
100
AcDbBlockBegin
  2
_D_3
 70
     0
 10
0.0
 20
0.0
 30
0.0
  3
_D_3
  1

  0
SOLID
  5
1E1
330
1DE
100
AcDbEntity
  8
VERMASSUNG
100
AcDbTrace
 10
123.8514323083
 20
85.0411903802
 30
0.0
 11
126.8514323083
 21
84.5911903802
 31
0.0
 12
126.8514323083
 22
85.4911903802
 32
0.0
 13
126.8514323083
 23
85.4911903802
 33
0.0
  0
SOLID
  5
1E2
330
1DE
100
AcDbEntity
  8
VERMASSUNG
100
AcDbTrace
 10
257.8514323083
 20
85.0411903802
 30
0.0
 11
254.8514323083
 21
85.4911903802
 31
0.0
 12
254.8514323083
 22
84.5911903802
 32
0.0
 13
254.8514323083
 23
84.5911903802
 33
0.0
  0
LINE
  5
1E3
330
1DE
100
AcDbEntity
  8
VERMASSUNG
100
AcDbLine
 10
123.8514323083
 20
110.562404395
 30
0.0
 11
123.8514323083
 21
84.0411903802
 31
0.0
  0
LINE
  5
1E4
330
1DE
100
AcDbEntity
  8
VERMASSUNG
100
AcDbLine
 10
257.8514323083
 20
101.193909377
 30
0.0
 11
257.8514323083
 21
84.0411903802
 31
0.0
  0
LINE
  5
1E5
330
1DE
100
AcDbEntity
  8
VERMASSUNG
100
AcDbLine
 10
123.8514323083
 20
85.0411903802
 30
0.0
 11
257.8514323083
 21
85.0411903802
 31
0.0
  0
MTEXT
  5
1E6
330
1DE
100
AcDbEntity
  8
VERMASSUNG
100
AcDbMText
 10
187.9514321124
 20
87.6193257433
 30
0.1
 40
2.0
 41
0.0
 71
     1
 72
     1
  1
134
  7
SLDTEXTSTYLE0
 73
     1
 44
1.0
  0
ENDBLK
  5
1E0
330
1DE
100
AcDbEntity
  8
0
100
AcDbBlockEnd
  0
BLOCK
  5
1E9
330
1E8
100
AcDbEntity
  8
0
100
AcDbBlockBegin
  2
_D_4
 70
     0
 10
0.0
 20
0.0
 30
0.0
  3
_D_4
  1

  0
SOLID
  5
1EB
330
1E8
100
AcDbEntity
  8
VERMASSUNG
100
AcDbTrace
 10
113.8514323083
 20
143.193909377
 30
0.0
 11
113.4014323083
 21
140.193909377
 31
0.0
 12
114.3014323083
 22
140.193909377
 32
0.0
 13
114.3014323083
 23
140.193909377
 33
0.0
  0
SOLID
  5
1EC
330
1E8
100
AcDbEntity
  8
VERMASSUNG
100
AcDbTrace
 10
113.8514323083
 20
103.193909377
 30
0.0
 11
114.3014323083
 21
106.193909377
 31
0.0
 12
113.4014323083
 22
106.193909377
 32
0.0
 13
113.4014323083
 23
106.193909377
 33
0.0
  0
LINE
  5
1ED
330
1E8
100
AcDbEntity
  8
VERMASSUNG
100
AcDbLine
 10
148.1514323083
 20
143.193909377
 30
0.0
 11
112.8514323083
 21
143.193909377
 31
0.0
  0
LINE
  5
1EE
330
1E8
100
AcDbEntity
  8
VERMASSUNG
100
AcDbLine
 10
148.1514323083
 20
103.193909377
 30
0.0
 11
112.8514323083
 21
103.193909377
 31
0.0
  0
LINE
  5
1EF
330
1E8
100
AcDbEntity
  8
VERMASSUNG
100
AcDbLine
 10
113.8514323083
 20
143.193909377
 30
0.0
 11
113.8514323083
 21
103.193909377
 31
0.0
  0
MTEXT
  5
1F0
330
1E8
100
AcDbEntity
  8
VERMASSUNG
100
AcDbMText
 10
111.0732968193
 20
116.6889094377
 30
0.1
 40
2.0
 41
0.0
 71
     1
 72
     1
  1
PSC
  7
SLDTEXTSTYLE0
 11
-7.044195017643634E-15
 21
1.0
 31
0.0
 73
     1
 44
1.0
  0
MTEXT
  5
1F1
330
1E8
100
AcDbEntity
  8
VERMASSUNG
100
AcDbMText
 10
111.2732968288
 20
121.2889095397
 30
0.1
 40
2.0
 41
0.0
 71
     1
 72
     1
  1
%%c
  7
SLDTEXTSTYLE0
 11
-7.044195017643634E-15
 21
1.0
 31
0.0
 73
     1
 44
1.0
  0
MTEXT
  5
1F2
330
1E8
100
AcDbEntity
  8
VERMASSUNG
100
AcDbMText
 10
111.0732968193
 20
124.8989100197
 30
0.1
 40
2.0
 41
0.0
 71
     1
 72
     1
  1
40
  7
SLDTEXTSTYLE0
 11
-7.044195017643634E-15
 21
1.0
 31
0.0
 73
     1
 44
1.0
  0
ENDBLK
  5
1EA
330
1E8
100
AcDbEntity
  8
0
100
AcDbBlockEnd
  0
BLOCK
  5
1F5
330
1F4
100
AcDbEntity
  8
0
100
AcDbBlockBegin
  2
_D_5
 70
     0
 10
0.0
 20
0.0
 30
0.0
  3
_D_5
  1

  0
SOLID
  5
1F7
330
1F4
100
AcDbEntity
  8
VERMASSUNG
100
AcDbTrace
 10
187.4664089675
 20
139.193909377
 30
0.0
 11
187.0164089675
 21
136.193909377
 31
0.0
 12
187.9164089675
 22
136.193909377
 32
0.0
 13
187.9164089675
 23
136.193909377
 33
0.0
  0
SOLID
  5
1F8
330
1F4
100
AcDbEntity
  8
VERMASSUNG
100
AcDbTrace
 10
187.4664089675
 20
107.193909377
 30
0.0
 11
187.9164089675
 21
110.193909377
 31
0.0
 12
187.0164089675
 22
110.193909377
 32
0.0
 13
187.0164089675
 23
110.193909377
 33
0.0
  0
LINE
  5
1F9
330
1F4
100
AcDbEntity
  8
VERMASSUNG
100
AcDbLine
 10
187.4664089675
 20
139.193909377
 30
0.0
 11
187.4664089675
 21
107.193909377
 31
0.0
  0
MTEXT
  5
1FA
330
1F4
100
AcDbEntity
  8
VERMASSUNG
100
AcDbMText
 10
184.888273488
 20
110.8628904392
 30
0.1
 40
2.0
 41
0.0
 71
     1
 72
     1
  1
%%c
  7
SLDTEXTSTYLE0
 11
-7.044195017643634E-15
 21
1.0
 31
0.0
 73
     1
 44
1.0
  0
MTEXT
  5
1FB
330
1F4
100
AcDbEntity
  8
VERMASSUNG
100
AcDbMText
 10
184.6882734785
 20
114.4728904535
 30
0.1
 40
2.0
 41
0.0
 71
     1
 72
     1
  1
32
  7
SLDTEXTSTYLE0
 11
-7.044195017643634E-15
 21
1.0
 31
0.0
 73
     1
 44
1.0
  0
ENDBLK
  5
1F6
330
1F4
100
AcDbEntity
  8
0
100
AcDbBlockEnd
  0
BLOCK
  5
21C
330
21B
100
AcDbEntity
  8
0
100
AcDbBlockBegin
  2
_D_6
 70
     0
 10
0.0
 20
0.0
 30
0.0
  3
_D_6
  1

  0
SOLID
  5
21E
330
21B
100
AcDbEntity
  8
VERMASSUNG
100
AcDbTrace
 10
73.432990488
 20
138.6837680245
 30
0.0
 11
75.3227019197
 21
141.0568442359
 31
0.0
 12
74.5432790563
 22
141.5068442359
 32
0.0
 13
74.5432790563
 23
141.5068442359
 33
0.0
  0
SOLID
  5
21F
330
21B
100
AcDbEntity
  8
VERMASSUNG
100
AcDbTrace
 10
53.432990488
 20
104.0427518732
 30
0.0
 11
51.5432790563
 21
101.6696756618
 31
0.0
 12
52.3227019197
 22
101.2196756618
 32
0.0
 13
52.3227019197
 23
101.2196756618
 33
0.0
  0
LINE
  5
220
330
21B
100
AcDbEntity
  8
VERMASSUNG
100
AcDbLine
 10
73.432990488
 20
138.6837680245
 30
0.0
 11
74.2990158918
 21
138.1837680245
 31
0.0
  0
LINE
  5
221
330
21B
100
AcDbEntity
  8
VERMASSUNG
100
AcDbLine
 10
53.432990488
 20
104.0427518732
 30
0.0
 11
54.2990158918
 21
103.5427518732
 31
0.0
  0
LINE
  5
222
330
21B
100
AcDbEntity
  8
VERMASSUNG
100
AcDbLine
 10
73.432990488
 20
138.6837680245
 30
0.0
 11
76.432990488
 21
143.8799204472
 31
0.0
  0
LINE
  5
223
330
21B
100
AcDbEntity
  8
VERMASSUNG
100
AcDbLine
 10
73.432990488
 20
138.6837680245
 30
0.0
 11
53.432990488
 21
104.0427518732
 31
0.0
  0
LINE
  5
224
330
21B
100
AcDbEntity
  8
VERMASSUNG
100
AcDbLine
 10
53.432990488
 20
104.0427518732
 30
0.0
 11
44.5627994556
 21
88.6791303322
 31
0.0
  0
MTEXT
  5
225
330
21B
100
AcDbEntity
  8
VERMASSUNG
100
AcDbMText
 10
42.3300686359
 20
89.9681980719
 30
0.1
 40
2.0
 41
0.0
 71
     1
 72
     1
  1
%%c
  7
SLDTEXTSTYLE0
 11
0.4999999999999988
 21
0.8660254037844394
 31
0.0
 73
     1
 44
1.0
  0
MTEXT
  5
226
330
21B
100
AcDbEntity
  8
VERMASSUNG
100
AcDbMText
 10
43.9618635541
 20
93.1945497967
 30
0.1
 40
2.0
 41
0.0
 71
     1
 72
     1
  1
40
  7
SLDTEXTSTYLE0
 11
0.4999999999999988
 21
0.8660254037844394
 31
0.0
 73
     1
 44
1.0
  0
MTEXT
  5
227
330
21B
100
AcDbEntity
  8
VERMASSUNG
100
AcDbMText
 10
46.9556136681
 20
98.3798770993
 30
0.1
 40
2.0
 41
0.0
 71
     1
 72
     1
  1
min.
  7
SLDTEXTSTYLE0
 11
0.4999999999999988
 21
0.8660254037844394
 31
0.0
 73
     1
 44
1.0
  0
ENDBLK
  5
21D
330
21B
100
AcDbEntity
  8
0
100
AcDbBlockEnd
  0
BLOCK
  5
22B
330
22A
100
AcDbEntity
  8
0
100
AcDbBlockBegin
  2
_D_7
 70
     0
 10
0.0
 20
0.0
 30
0.0
  3
_D_7
  1

  0
ARC
  5
22D
330
22A
100
AcDbEntity
  8
VERMASSUNG
100
AcDbCircle
 10
63.432990488
 20
105.4945854849
 30
0.0
 40
43.87353067502447
100
AcDbArc
 50
90.0
 51
94.0
  0
ARC
  5
22E
330
22A
100
AcDbEntity
  8
VERMASSUNG
100
AcDbCircle
 10
63.432990488
 20
105.4945854849
 30
0.0
 40
43.87353067502446
100
AcDbArc
 50
82.1811599563
 51
90.0
  0
ARC
  5
22F
330
22A
100
AcDbEntity
  8
VERMASSUNG
100
AcDbCircle
 10
63.432990488
 20
105.4945854849
 30
0.0
 40
43.87353067502447
100
AcDbArc
 50
94.0
 51
105.4255785242
  0
SOLID
  5
230
330
22A
100
AcDbEntity
  8
VERMASSUNG
100
AcDbTrace
 10
63.432990488
 20
149.3681161599
 30
0.0
 11
66.4158845173
 21
148.8159900783
 31
0.0
 12
66.4466009898
 22
149.7154657579
 32
0.0
 13
66.4466009898
 23
149.7154657579
 33
0.0
  0
SOLID
  5
231
330
22A
100
AcDbEntity
  8
VERMASSUNG
100
AcDbTrace
 10
60.3725276974
 20
149.2612424443
 30
0.0
 11
57.3420283162
 21
149.3975270743
 31
0.0
 12
57.4354142166
 22
148.502385145
 32
0.0
 13
57.4354142166
 23
148.502385145
 33
0.0
  0
LINE
  5
232
330
22A
100
AcDbEntity
  8
VERMASSUNG
100
AcDbLine
 10
63.432990488
 20
145.693909377
 30
0.0
 11
63.432990488
 21
150.3681161599
 31
0.0
  0
LINE
  5
233
330
22A
100
AcDbEntity
  8
VERMASSUNG
100
AcDbLine
 10
61.0536005023
 20
139.5214475655
 30
0.0
 11
60.3027712237
 21
150.2588064945
 31
0.0
  0
MTEXT
  5
234
330
22A
100
AcDbEntity
  8
VERMASSUNG
100
AcDbMText
 10
51.1924979372
 20
150.3634791649
 30
-44.3032932109
 40
2.0
 41
0.0
 71
     1
 72
     1
  1
4°
  7
SLDTEXTSTYLE0
 11
0.9765796706090694
 21
0.2151560990376095
 31
0.0
 73
     1
 44
1.0
  0
ENDBLK
  5
22C
330
22A
100
AcDbEntity
  8
0
100
AcDbBlockEnd
  0
BLOCK
  5
236
330
235
100
AcDbEntity
  8
0
100
AcDbBlockBegin
  2
SW_CENTERMARKSYMBOL_0
 70
     0
 10
0.0
 20
0.0
 30
0.0
  3
SW_CENTERMARKSYMBOL_0
  1

  0
LINE
  5
238
330
235
100
AcDbEntity
  8
VERMASSUNG
 62
     0
100
AcDbLine
 10
0.0
 20
0.0
 30
0.0
 11
0.0
 21
2.5
 31
0.0
  0
LINE
  5
239
330
235
100
AcDbEntity
  8
VERMASSUNG
 62
     0
100
AcDbLine
 10
0.0
 20
0.0
 30
0.0
 11
-2.5
 21
0.0
 31
0.0
  0
LINE
  5
23A
330
235
100
AcDbEntity
  8
VERMASSUNG
 62
     0
100
AcDbLine
 10
0.0
 20
0.0
 30
0.0
 11
0.0
 21
-2.5
 31
0.0
  0
LINE
  5
23B
330
235
100
AcDbEntity
  8
VERMASSUNG
 62
     0
100
AcDbLine
 10
0.0
 20
0.0
 30
0.0
 11
2.5
 21
0.0
 31
0.0
  0
LINE
  5
23C
330
235
100
AcDbEntity
  8
VERMASSUNG
 62
     0
100
AcDbLine
 10
0.0
 20
5.0
 30
0.0
 11
0.0
 21
22.5
 31
0.0
  0
LINE
  5
23D
330
235
100
AcDbEntity
  8
VERMASSUNG
 62
     0
100
AcDbLine
 10
-5.0
 20
0.0
 30
0.0
 11
-22.5
 21
0.0
 31
0.0
  0
LINE
  5
23E
330
235
100
AcDbEntity
  8
VERMASSUNG
 62
     0
100
AcDbLine
 10
0.0
 20
-5.0
 30
0.0
 11
0.0
 21
-22.5
 31
0.0
  0
LINE
  5
23F
330
235
100
AcDbEntity
  8
VERMASSUNG
 62
     0
100
AcDbLine
 10
5.0
 20
0.0
 30
0.0
 11
22.5
 21
0.0
 31
0.0
  0
ENDBLK
  5
237
330
235
100
AcDbEntity
  8
0
100
AcDbBlockEnd
  0
ENDSEC
  0
SECTION
  2
ENTITIES
  0
MTEXT
  5
49
330
1F
100
AcDbEntity
  8
KOPF_DÜNN
100
AcDbMText
 10
13.8892156294
 20
23.8442973028
 30
0.0
 40
3.0
 41
0.0
 71
     1
 72
     1
  1
PS4.BDB.LQB.110
  7
SLDTEXTSTYLE0
 73
     1
 44
1.0
  0
MTEXT
  5
4A
330
1F
100
AcDbEntity
  8
VERMASSUNG
100
AcDbMText
 10
13.9329988022
 20
28.8834360957
 30
0.0
 40
3.0
 41
0.0
 71
     1
 72
     1
  1
Bohrstange links_Boring bar left
  7
SLDTEXTSTYLE0
 73
     1
 44
1.0
  0
MTEXT
  5
4B
330
1F
100
AcDbEntity
  8
VERMASSUNG
100
AcDbMText
 10
98.8601118557
 20
13.8365368179
 30
0.0
 40
2.0
 41
0.0
 71
     1
 72
     1
  1
Datum: 07.06.2012
  7
SLDTEXTSTYLE0
 73
     1
 44
1.0
  0
MTEXT
  5
4C
330
1F
100
AcDbEntity
  8
VERMASSUNG
100
AcDbMText
 10
13.933048693
 20
18.0482802738
 30
0.0
 40
2.0
 41
0.0
 71
     1
 72
     1
  1
PSC ø40 / Wp.: DC..11 T3..
  7
SLDTEXTSTYLE0
 73
     1
 44
1.0
  0
MTEXT
  5
4D
330
1F
100
AcDbEntity
  8
VERMASSUNG
100
AcDbMText
 10
13.9808475933
 20
13.9090973692
 30
0.0
 40
2.0
 41
0.0
 71
     1
 72
     1
  1
Gewicht: 682g
  7
SLDTEXTSTYLE0
 73
     1
 44
1.0
  0
ARC
  5
4E
330
1F
100
AcDbEntity
  8
0
  6
Continuous
 62
     7
370
    15
100
AcDbCircle
 10
148.1514323083
 20
103.493909377
 30
0.0
 40
0.3000000000000114
100
AcDbArc
 50
180.0
 51
270.0
  0
ARC
  5
4F
330
1F
100
AcDbEntity
  8
0
  6
Continuous
 62
     7
370
    15
100
AcDbCircle
 10
148.1514323083
 20
142.893909377
 30
0.0
 40
0.3000000000000114
100
AcDbArc
 50
90.0
 51
180.0
  0
LINE
  5
50
330
1F
100
AcDbEntity
  8
0
  6
Continuous
 62
     7
370
    15
100
AcDbLine
 10
148.1514323083
 20
103.193909377
 30
0.0
 11
167.2514323083
 21
103.193909377
 31
0.0
  0
LINE
  5
51
330
1F
100
AcDbEntity
  8
0
  6
Continuous
 62
     7
370
    15
100
AcDbLine
 10
167.2514323083
 20
143.193909377
 30
0.0
 11
148.1514323083
 21
143.193909377
 31
0.0
  0
ARC
  5
52
330
1F
100
AcDbEntity
  8
0
  6
Continuous
 62
     7
370
    15
100
AcDbCircle
 10
167.2514323083
 20
103.793909377
 30
0.0
 40
0.6000000000000227
100
AcDbArc
 50
270.0
 51
360.0
  0
ARC
  5
53
330
1F
100
AcDbEntity
  8
0
  6
Continuous
 62
     7
370
    15
100
AcDbCircle
 10
167.2514323083
 20
142.593909377
 30
0.0
 40
0.6000000000000227
100
AcDbArc
 50
0.0
 51
90.0
  0
ARC
  5
54
330
1F
100
AcDbEntity
  8
0
  6
Continuous
 62
     7
370
    15
100
AcDbCircle
 10
169.8514323083
 20
105.193909377
 30
0.0
 40
2.0
100
AcDbArc
 50
90.0
 51
180.0
  0
ARC
  5
55
330
1F
100
AcDbEntity
  8
0
  6
Continuous
 62
     7
370
    15
100
AcDbCircle
 10
169.8514323083
 20
141.193909377
 30
0.0
 40
2.0
100
AcDbArc
 50
180.0
 51
270.0
  0
LINE
  5
56
330
1F
100
AcDbEntity
  8
0
  6
Continuous
 62
     7
370
    15
100
AcDbLine
 10
231.4372187459
 20
139.193909377
 30
0.0
 11
169.8514323083
 21
139.193909377
 31
0.0
  0
LINE
  5
57
330
1F
100
AcDbEntity
  8
0
  6
Continuous
 62
     7
370
    15
100
AcDbLine
 10
169.8514323083
 20
107.193909377
 30
0.0
 11
231.4372187459
 21
107.193909377
 31
0.0
  0
LWPOLYLINE
  5
58
330
1F
100
AcDbEntity
  8
0
  6
Continuous
 62
     7
370
    15
100
AcDbPolyline
 90
        3
 70
   128
 43
0.0
 10
147.6514323083
 20
109.1040890981
 10
147.7768872518
 20
109.0357869832
 10
147.8514323083
 20
108.9830492251
  0
LWPOLYLINE
  5
59
330
1F
100
AcDbEntity
  8
0
  6
Continuous
 62
     7
370
    15
100
AcDbPolyline
 90
        3
 70
   128
 43
0.0
 10
147.8514323083
 20
137.404769529
 10
147.7768872518
 20
137.3520317708
 10
147.6514323083
 20
137.2837296559
  0
ARC
  5
5A
330
1F
100
AcDbEntity
  8
0
  6
Continuous
 62
     7
370
    15
100
AcDbCircle
 10
231.4372187459
 20
140.193909377
 30
0.0
 40
1.0
100
AcDbArc
 50
270.0
 51
315.0
  0
LINE
  5
5B
330
1F
100
AcDbEntity
  8
0
  6
Continuous
 62
     7
370
    15
100
AcDbLine
 10
245.4755443212
 20
139.693909377
 30
0.0
 11
232.3514323083
 21
139.693909377
 31
0.0
  0
LINE
  5
5C
330
1F
100
AcDbEntity
  8
0
  6
Continuous
 62
     7
370
    15
100
AcDbLine
 10
232.3514323083
 20
139.693909377
 30
0.0
 11
232.1443255271
 21
139.4868025958
 31
0.0
  0
LINE
  5
5D
330
1F
100
AcDbEntity
  8
0
  6
Continuous
 62
     7
370
    15
100
AcDbLine
 10
232.1443255271
 20
106.9010161582
 30
0.0
 11
232.6614278067
 21
106.3839138786
 31
0.0
  0
LINE
  5
5E
330
1F
100
AcDbEntity
  8
0
  6
Continuous
 62
     7
370
    15
100
AcDbLine
 10
251.8880767591
 20
108.4906221647
 30
0.0
 11
251.8880767591
 21
108.3985517434
 31
0.0
  0
LINE
  5
5F
330
1F
100
AcDbEntity
  8
0
  6
Continuous
 62
     7
370
    15
100
AcDbLine
 10
249.4748379053
 20
108.3038490661
 30
0.0
 11
249.4748379053
 21
108.395889447
 31
0.0
  0
LINE
  5
60
330
1F
100
AcDbEntity
  8
0
  6
Continuous
 62
     7
370
    15
100
AcDbLine
 10
253.3051511041
 20
108.3669354331
 30
0.0
 11
253.3051511041
 21
108.4174781744
 31
0.0
  0
LINE
  5
61
330
1F
100
AcDbEntity
  8
0
  6
Continuous
 62
     7
370
    15
100
AcDbLine
 10
248.0551511041
 20
108.4174781744
 30
0.0
 11
248.0551511041
 21
108.3669354331
 31
0.0
  0
LINE
  5
62
330
1F
100
AcDbEntity
  8
0
  6
Continuous
 62
     7
370
    15
100
AcDbLine
 10
147.8514323083
 20
103.493909377
 30
0.0
 11
147.8514323083
 21
142.8939093701
 31
0.0
  0
SPLINE
  5
63
330
1F
100
AcDbEntity
  8
0
  6
Continuous
 62
     7
370
    15
100
AcDbSpline
210
0.0
220
0.0
230
1.0
 70
     8
 71
     3
 72
    12
 73
     8
 74
     0
 42
0.00000001
 43
0.00000001
 12
1.0
 22
0.0
 32
0.0
 13
1.0
 23
0.0
 33
0.0
 40
0.0
 40
0.0
 40
0.0
 40
0.0
 40
0.2499999999999973
 40
0.2499999999999973
 40
0.4999999999999947
 40
0.4999999999999947
 40
1.0
 40
1.0
 40
1.0
 40
1.0
 10
154.7833343103085
 20
129.0231223726685
 30
0.0
 10
154.7458224242638
 20
129.0231223726685
 30
0.0
 10
154.7105350765591
 20
129.0379271869553
 30
0.0
 10
154.6516052283207
 20
129.0815190600811
 30
0.0
 10
154.6280795018517
 20
129.1090324861671
 30
0.0
 10
154.5678207140836
 20
129.1981642182807
 30
0.0
 10
154.5422259517942
 20
129.2645500688985
 30
0.0
 10
154.5235266891732
 20
129.3321545040759
 30
0.0
  0
LINE
  5
64
330
1F
100
AcDbEntity
  8
0
  6
Continuous
 62
     7
370
    15
100
AcDbLine
 10
156.9195303063
 20
129.0231223727
 30
0.0
 11
154.7833343103
 21
129.0231223727
 31
0.0
  0
SPLINE
  5
65
330
1F
100
AcDbEntity
  8
0
  6
Continuous
 62
     7
370
    15
100
AcDbSpline
210
0.0
220
0.0
230
1.0
 70
     8
 71
     3
 72
    12
 73
     8
 74
     0
 42
0.00000001
 43
0.00000001
 12
1.0
 22
0.0
 32
0.0
 13
1.0
 23
0.0
 33
0.0
 40
0.0
 40
0.0
 40
0.0
 40
0.0
 40
0.5
 40
0.5
 40
0.75
 40
0.75
 40
1.0
 40
1.0
 40
1.0
 40
1.0
 10
157.1793379274455
 20
129.3321545040759
 30
0.0
 10
157.1606446943151
 20
129.2645718676355
 30
0.0
 10
157.1349893969032
 20
129.1980892981581
 30
0.0
 10
157.0748287742168
 20
129.1090942152606
 30
0.0
 10
157.0507564624624
 20
129.0810923182614
 30
0.0
 10
156.9923749421119
 20
129.0380159175962
 30
0.0
 10
156.9569061144589
 20
129.0231223726685
 30
0.0
 10
156.9195303063102
 20
129.0231223726685
 30
0.0
  0
ELLIPSE
  5
66
330
1F
100
AcDbEntity
  8
0
  6
Continuous
 62
     7
370
    15
100
AcDbEllipse
 10
146.9025031359
 20
123.193909377
 30
0.0
 11
9.367417879781694
 21
19.74174915274993
 31
0.0
210
0.0
220
0.0
230
1.0
 40
0.3419987131
 41
5.185211263708391
 42
6.132113578252552
  0
SPLINE
  5
67
330
1F
100
AcDbEntity
  8
0
  6
Continuous
 62
     7
370
    15
100
AcDbSpline
210
0.0
220
0.0
230
1.0
 70
     8
 71
     3
 72
    12
 73
     8
 74
     0
 42
0.00000001
 43
0.00000001
 12
1.0
 22
0.0
 32
0.0
 13
1.0
 23
0.0
 33
0.0
 40
0.0
 40
0.0
 40
0.0
 40
0.0
 40
0.25
 40
0.25
 40
0.5
 40
0.5
 40
1.0
 40
1.0
 40
1.0
 40
1.0
 10
156.9195303063102
 20
142.3255657572503
 30
0.0
 10
156.9570421923548
 20
142.3255657572503
 30
0.0
 10
156.9923295400595
 20
142.3210622129878
 30
0.0
 10
157.051259388298
 20
142.3076890135345
 30
0.0
 10
157.074785114767
 20
142.2992041109633
 30
0.0
 10
157.1350439025351
 20
142.2714563071287
 30
0.0
 10
157.1606386648244
 20
142.2504664433884
 30
0.0
 10
157.1793379274455
 20
142.2286656601989
 30
0.0
  0
LINE
  5
68
330
1F
100
AcDbEntity
  8
0
  6
Continuous
 62
     7
370
    15
100
AcDbLine
 10
154.7833343103
 20
142.3255657573
 30
0.0
 11
156.9195303063
 21
142.3255657573
 31
0.0
  0
SPLINE
  5
69
330
1F
100
AcDbEntity
  8
0
  6
Continuous
 62
     7
370
    15
100
AcDbSpline
210
0.0
220
0.0
230
1.0
 70
     8
 71
     3
 72
    12
 73
     8
 74
     0
 42
0.00000001
 43
0.00000001
 12
1.0
 22
0.0
 32
0.0
 13
1.0
 23
0.0
 33
0.0
 40
0.0
 40
0.0
 40
0.0
 40
0.0
 40
0.4999999999999987
 40
0.4999999999999987
 40
0.7499999999999993
 40
0.7499999999999993
 40
1.0
 40
1.0
 40
1.0
 40
1.0
 10
154.5235266891732
 20
142.2286656601989
 30
0.0
 10
154.5422199223036
 20
142.2504594138268
 30
0.0
 10
154.5678752197154
 20
142.2714795755365
 30
0.0
 10
154.6280358424019
 20
142.2991849215001
 30
0.0
 10
154.6521081541562
 20
142.3078201376935
 30
0.0
 10
154.7104896745068
 20
142.3210347829201
 30
0.0
 10
154.7459585021598
 20
142.3255657572503
 30
0.0
 10
154.7833343103085
 20
142.3255657572503
 30
0.0
  0
ELLIPSE
  5
6A
330
1F
100
AcDbEntity
  8
0
  6
Continuous
 62
     7
370
    15
100
AcDbEllipse
 10
164.8003614807
 20
123.193909377
 30
0.0
 11
-9.367417879781613
 21
19.74174915274996
 31
0.0
210
0.0
220
0.0
230
1.0
 40
0.3419987131
 41
0.151071728927072
 42
1.09797404347121
  0
SPLINE
  5
6B
330
1F
100
AcDbEntity
  8
0
  6
Continuous
 62
     7
370
    15
100
AcDbSpline
210
0.0
220
0.0
230
1.0
 70
     8
 71
     3
 72
    12
 73
     8
 74
     0
 42
0.00000001
 43
0.00000001
 12
1.0
 22
0.0
 32
0.0
 13
1.0
 23
0.0
 33
0.0
 40
0.0
 40
0.0
 40
0.0
 40
0.0
 40
0.2500000000000019
 40
0.2500000000000019
 40
0.5000000000000039
 40
0.5000000000000039
 40
1.0
 40
1.0
 40
1.0
 40
1.0
 10
154.7833343103085
 20
104.0622529967836
 30
0.0
 10
154.7458334874308
 20
104.0622529967836
 30
0.0
 10
154.7105550833948
 20
104.0667539646467
 30
0.0
 10
154.6516373633424
 20
104.080120485864
 30
0.0
 10
154.628113981944
 20
104.0886017461089
 30
0.0
 10
154.5678583974781
 20
104.1163391417868
 30
0.0
 10
154.542336745067
 20
104.1372231408398
 30
0.0
 10
154.5235266891732
 20
104.159153093835
 30
0.0
  0
LINE
  5
6C
330
1F
100
AcDbEntity
  8
0
  6
Continuous
 62
     7
370
    15
100
AcDbLine
 10
156.9195303063
 20
104.0622529968
 30
0.0
 11
154.7833343103
 21
104.0622529968
 31
0.0
  0
SPLINE
  5
6D
330
1F
100
AcDbEntity
  8
0
  6
Continuous
 62
     7
370
    15
100
AcDbSpline
210
0.0
220
0.0
230
1.0
 70
     8
 71
     3
 72
    12
 73
     8
 74
     0
 42
0.00000001
 43
0.00000001
 12
1.0
 22
0.0
 32
0.0
 13
1.0
 23
0.0
 33
0.0
 40
0.0
 40
0.0
 40
0.0
 40
0.0
 40
0.5000000000000023
 40
0.5000000000000023
 40
0.7500000000000011
 40
0.7500000000000011
 40
1.0
 40
1.0
 40
1.0
 40
1.0
 10
157.1793379274455
 20
104.159153093835
 30
0.0
 10
157.1605346945938
 20
104.1372310955739
 30
0.0
 10
157.1349980355746
 20
104.116337287564
 30
0.0
 10
157.0747718616261
 20
104.0886105614462
 30
0.0
 10
157.0508457842261
 20
104.0800374280708
 30
0.0
 10
156.9927848640448
 20
104.0668583222633
 30
0.0
 10
156.9569831654189
 20
104.0622529967836
 30
0.0
 10
156.9195303063102
 20
104.0622529967836
 30
0.0
  0
ELLIPSE
  5
6E
330
1F
100
AcDbEntity
  8
0
  6
Continuous
 62
     7
370
    15
100
AcDbEllipse
 10
146.9025031359
 20
123.193909377
 30
0.0
 11
-9.367417879781812
 21
19.74174915274993
 31
0.0
210
0.0
220
0.0
230
1.0
 40
0.3419987131
 41
3.292664382516891
 42
4.239566697060998
  0
SPLINE
  5
6F
330
1F
100
AcDbEntity
  8
0
  6
Continuous
 62
     7
370
    15
100
AcDbSpline
210
0.0
220
0.0
230
1.0
 70
     8
 71
     3
 72
    12
 73
     8
 74
     0
 42
0.00000001
 43
0.00000001
 12
1.0
 22
0.0
 32
0.0
 13
1.0
 23
0.0
 33
0.0
 40
0.0
 40
0.0
 40
0.0
 40
0.0
 40
0.2500000000000013
 40
0.2500000000000013
 40
0.5000000000000027
 40
0.5000000000000027
 40
1.0
 40
1.0
 40
1.0
 40
1.0
 10
156.9195303063102
 20
117.3646963813652
 30
0.0
 10
156.9570311291879
 20
117.3646963813652
 30
0.0
 10
156.9923095332239
 20
117.3499000436121
 30
0.0
 10
157.0512272532762
 20
117.306329782453
 30
0.0
 10
157.0747506346746
 20
117.2788279839515
 30
0.0
 10
157.1350062191406
 20
117.1897288207084
 30
0.0
 10
157.1605278715517
 20
117.123669241926
 30
0.0
 10
157.1793379274455
 20
117.0556642499578
 30
0.0
  0
LINE
  5
70
330
1F
100
AcDbEntity
  8
0
  6
Continuous
 62
     7
370
    15
100
AcDbLine
 10
154.7833343103
 20
117.3646963814
 30
0.0
 11
156.9195303063
 21
117.3646963814
 31
0.0
  0
SPLINE
  5
71
330
1F
100
AcDbEntity
  8
0
  6
Continuous
 62
     7
370
    15
100
AcDbSpline
210
0.0
220
0.0
230
1.0
 70
     8
 71
     3
 72
    12
 73
     8
 74
     0
 42
0.00000001
 43
0.00000001
 12
1.0
 22
0.0
 32
0.0
 13
1.0
 23
0.0
 33
0.0
 40
0.0
 40
0.0
 40
0.0
 40
0.0
 40
0.5000000000000037
 40
0.5000000000000037
 40
0.7500000000000018
 40
0.7500000000000018
 40
1.0
 40
1.0
 40
1.0
 40
1.0
 10
154.5235266891732
 20
117.0556642499578
 30
0.0
 10
154.5423299220249
 20
117.1236445742202
 30
0.0
 10
154.5678665810441
 20
117.189734962017
 30
0.0
 10
154.6280927549925
 20
117.2787995744642
 30
0.0
 10
154.6520188323925
 20
117.3066006614841
 30
0.0
 10
154.7100797525738
 20
117.349559734709
 30
0.0
 10
154.7458814511998
 20
117.3646963813652
 30
0.0
 10
154.7833343103085
 20
117.3646963813652
 30
0.0
  0
ELLIPSE
  5
72
330
1F
100
AcDbEntity
  8
0
  6
Continuous
 62
     7
370
    15
100
AcDbEllipse
 10
164.8003614807
 20
123.193909377
 30
0.0
 11
9.367417879781613
 21
19.74174915274996
 31
0.0
210
0.0
220
0.0
230
1.0
 40
0.3419987131
 41
2.043618610118595
 42
2.990520924662725
  0
LINE
  5
73
330
1F
100
AcDbEntity
  8
0
  6
Continuous
 62
     7
370
    15
100
AcDbLine
 10
167.8514323083
 20
142.5939093722
 30
0.0
 11
167.8514323083
 21
103.793909377
 31
0.0
  0
LINE
  5
74
330
1F
100
AcDbEntity
  8
0
  6
Continuous
 62
     7
370
    15
100
AcDbLine
 10
230.1534132722
 20
139.021219283
 30
0.0
 11
231.4372187459
 21
139.021219283
 31
0.0
  0
SPLINE
  5
75
330
1F
100
AcDbEntity
  8
0
  6
Continuous
 62
     7
370
    15
100
AcDbSpline
210
0.0
220
0.0
230
1.0
 70
     8
 71
     3
 72
    14
 73
    10
 74
     0
 42
0.00000001
 43
0.00000001
 12
1.0
 22
0.0
 32
0.0
 13
1.0
 23
0.0
 33
0.0
 40
0.0
 40
0.0
 40
0.0
 40
0.0
 40
0.2499999999999998
 40
0.2499999999999998
 40
0.4999999999999999
 40
0.4999999999999999
 40
0.7499999999999999
 40
0.7499999999999999
 40
1.0
 40
1.0
 40
1.0
 40
1.0
 10
227.255635793379
 20
138.536434840354
 30
0.0
 10
227.3396684530527
 20
138.6275668110754
 30
0.0
 10
227.4717666693207
 20
138.7032724298271
 30
0.0
 10
227.835049942696
 20
138.8306115458625
 30
0.0
 10
228.0573388426841
 20
138.8790756388645
 30
0.0
 10
228.5800392555522
 20
138.9544627940374
 30
0.0
 10
228.8696090946885
 20
138.9798548788877
 30
0.0
 10
229.495525299432
 20
139.0134930225659
 30
0.0
 10
229.8213350054436
 20
139.0212192830087
 30
0.0
 10
230.1534132722462
 20
139.0212192830087
 30
0.0
  0
ELLIPSE
  5
76
330
1F
100
AcDbEntity
  8
0
  6
Continuous
 62
     7
370
    15
100
AcDbEllipse
 10
228.1822537483
 20
123.193909377
 30
0.0
 11
0.3220561513869029
 21
15.99976859320061
 31
0.0
210
0.0
220
0.0
230
1.0
 40
0.2671959542
 41
0.293047228470621
 42
2.998928329720215
  0
SPLINE
  5
77
330
1F
100
AcDbEntity
  8
0
  6
Continuous
 62
     7
370
    15
100
AcDbSpline
210
0.0
220
0.0
230
1.0
 70
     8
 71
     3
 72
    14
 73
    10
 74
     0
 42
0.00000001
 43
0.00000001
 12
1.0
 22
0.0
 32
0.0
 13
1.0
 23
0.0
 33
0.0
 40
0.0
 40
0.0
 40
0.0
 40
0.0
 40
0.25
 40
0.25
 40
0.5
 40
0.5
 40
0.75
 40
0.75
 40
1.0
 40
1.0
 40
1.0
 40
1.0
 10
230.1534132722462
 20
107.1943508675864
 30
0.0
 10
229.8213376980261
 20
107.1943508675864
 30
0.0
 10
229.4984166927672
 20
107.1944800376711
 30
0.0
 10
228.8708415692191
 20
107.1982433531597
 30
0.0
 10
228.582143497745
 20
107.2018522174354
 30
0.0
 10
228.0589100209675
 20
107.220823171228
 30
0.0
 10
227.8360706200595
 20
107.2359063081406
 30
0.0
 10
227.4731022984657
 20
107.2866524531879
 30
0.0
 10
227.3396708311473
 20
107.321542214992
 30
0.0
 10
227.255635793379
 20
107.3689222913214
 30
0.0
  0
LINE
  5
78
330
1F
100
AcDbEntity
  8
0
  6
Continuous
 62
     7
370
    15
100
AcDbLine
 10
231.4372187459
 20
107.1943508676
 30
0.0
 11
230.1534132722
 21
107.1943508676
 31
0.0
  0
ELLIPSE
  5
79
330
1F
100
AcDbEntity
  8
0
  6
Continuous
 62
     7
370
    15
100
AcDbEllipse
 10
225.9655213056
 20
116.275458615
 30
0.0
 11
-0.0899873720120752
 21
2.357478075397765
 31
0.0
210
0.0
220
0.0
230
1.0
 40
0.2521532344
 41
0.0
 42
6.283185307179586
  0
SPLINE
  5
7A
330
1F
100
AcDbEntity
  8
0
  6
Continuous
 62
     7
370
    15
100
AcDbSpline
210
0.0
220
0.0
230
1.0
 70
     8
 71
     3
 72
    18
 73
    14
 74
     0
 42
0.00000001
 43
0.00000001
 12
1.0
 22
0.0
 32
0.0
 13
1.0
 23
0.0
 33
0.0
 40
0.0
 40
0.0
 40
0.0
 40
0.0
 40
0.2500000000000002
 40
0.2500000000000002
 40
0.5000000000000004
 40
0.5000000000000004
 40
0.6250000000000003
 40
0.6250000000000003
 40
0.7500000000000002
 40
0.7500000000000002
 40
0.8750000000000001
 40
0.8750000000000001
 40
1.0
 40
1.0
 40
1.0
 40
1.0
 10
146.5953479907453
 20
109.3627209943381
 30
0.0
 10
146.6296448101971
 20
109.3618593388563
 30
0.0
 10
146.6674560901743
 20
109.3621109419512
 30
0.0
 10
146.7540284573543
 20
109.3645094545631
 30
0.0
 10
146.8023675874372
 20
109.366680439295
 30
0.0
 10
146.8916399447596
 20
109.3707753175902
 30
0.0
 10
146.9241814105356
 20
109.3722799355398
 30
0.0
 10
147.000357610389
 20
109.375242993508
 30
0.0
 10
147.0435736703836
 20
109.3767303317637
 30
0.0
 10
147.1492629723495
 20
109.3783557430874
 30
0.0
 10
147.2142340310641
 20
109.3783135020135
 30
0.0
 10
147.3478944194219
 20
109.3742913286925
 30
0.0
 10
147.4072008727581
 20
109.370750101869
 30
0.0
 10
147.456455419434
 20
109.3671833944329
 30
0.0
  0
SPLINE
  5
7B
330
1F
100
AcDbEntity
  8
0
  6
Continuous
 62
     7
370
    15
100
AcDbSpline
210
0.0
220
0.0
230
1.0
 70
     8
 71
     3
 72
    14
 73
    10
 74
     0
 42
0.00000001
 43
0.00000001
 12
1.0
 22
0.0
 32
0.0
 13
1.0
 23
0.0
 33
0.0
 40
0.0
 40
0.0
 40
0.0
 40
0.0
 40
0.1249999999999991
 40
0.1249999999999991
 40
0.2499999999999981
 40
0.2499999999999981
 40
0.4999999999999987
 40
0.4999999999999987
 40
1.0
 40
1.0
 40
1.0
 40
1.0
 10
147.4564554194032
 20
109.3671833944519
 30
0.0
 10
147.4679821971206
 20
109.3663486970178
 30
0.0
 10
147.481335004773
 20
109.3646082827377
 30
0.0
 10
147.5114775773732
 20
109.3573606927374
 30
0.0
 10
147.5265381029877
 20
109.3520136585094
 30
0.0
 10
147.561884456916
 20
109.336266388281
 30
0.0
 10
147.575616556645
 20
109.3264281141197
 30
0.0
 10
147.6089878023361
 20
109.3002241281692
 30
0.0
 10
147.6199281701901
 20
109.2861362267686
 30
0.0
 10
147.6285812952033
 20
109.2733626032803
 30
0.0
  0
LINE
  5
7C
330
1F
100
AcDbEntity
  8
0
  6
Continuous
 62
     7
370
    15
100
AcDbLine
 10
147.6514323083
 20
117.6884646101
 30
0.0
 11
147.6514323083
 21
109.1040890981
 31
0.0
  0
SPLINE
  5
7D
330
1F
100
AcDbEntity
  8
0
  6
Continuous
 62
     7
370
    15
100
AcDbSpline
210
0.0
220
0.0
230
1.0
 70
     8
 71
     3
 72
    16
 73
    12
 74
     0
 42
0.00000001
 43
0.00000001
 12
1.0
 22
0.0
 32
0.0
 13
1.0
 23
0.0
 33
0.0
 40
0.0
 40
0.0
 40
0.0
 40
0.0
 40
0.5000000000000016
 40
0.5000000000000016
 40
0.7499999999999997
 40
0.7499999999999997
 40
0.8749999999999987
 40
0.8749999999999987
 40
0.9374999999999993
 40
0.9374999999999993
 40
1.0
 40
1.0
 40
1.0
 40
1.0
 10
147.6514323083093
 20
117.6884646100541
 30
0.0
 10
147.6514323083093
 20
117.8060399910736
 30
0.0
 10
147.6475488831504
 20
117.9247357441748
 30
0.0
 10
147.6227335578757
 20
118.1054932221673
 30
0.0
 10
147.6118941101632
 20
118.1671372989403
 30
0.0
 10
147.5786783281144
 20
118.2564742732816
 30
0.0
 10
147.5652965844856
 20
118.2867338047067
 30
0.0
 10
147.5297869346234
 20
118.3202500486941
 30
0.0
 10
147.5143699681226
 20
118.3283883945002
 30
0.0
 10
147.482668945974
 20
118.3283729850688
 30
0.0
 10
147.4685226610232
 20
118.3213307477129
 30
0.0
 10
147.4564554194336
 20
118.3121896841033
 30
0.0
  0
SPLINE
  5
7E
330
1F
100
AcDbEntity
  8
0
  6
Continuous
 62
     7
370
    15
100
AcDbSpline
210
0.0
220
0.0
230
1.0
 70
     8
 71
     3
 72
    18
 73
    14
 74
     0
 42
0.00000001
 43
0.00000001
 12
1.0
 22
0.0
 32
0.0
 13
1.0
 23
0.0
 33
0.0
 40
0.0
 40
0.0
 40
0.0
 40
0.0
 40
0.125
 40
0.125
 40
0.25
 40
0.25
 40
0.375
 40
0.375
 40
0.5
 40
0.5
 40
0.75
 40
0.75
 40
1.0
 40
1.0
 40
1.0
 40
1.0
 10
147.4564554194397
 20
118.3121896840961
 30
0.0
 10
147.4077508357518
 20
118.2752954449055
 30
0.0
 10
147.3492423529763
 20
118.2457641404796
 30
0.0
 10
147.2175155377064
 20
118.2365281672007
 30
0.0
 10
147.152757466209
 20
118.2595913417577
 30
0.0
 10
147.0475468640582
 20
118.3271094634051
 30
0.0
 10
147.0043307155381
 20
118.3701205600557
 30
0.0
 10
146.9281523994542
 20
118.4603625820518
 30
0.0
 10
146.895297567163
 20
118.5079934635271
 30
0.0
 10
146.804929661202
 20
118.6550577628766
 30
0.0
 10
146.7555070033624
 20
118.7589710881812
 30
0.0
 10
146.6678558777708
 20
118.9701050518215
 30
0.0
 10
146.6297943303802
 20
119.0778277965803
 30
0.0
 10
146.5953479907463
 20
119.1871609124897
 30
0.0
  0
SPLINE
  5
7F
330
1F
100
AcDbEntity
  8
0
  6
Continuous
 62
     7
370
    15
100
AcDbSpline
210
0.0
220
0.0
230
1.0
 70
     8
 71
     3
 72
     8
 73
     4
 74
     0
 42
0.00000001
 43
0.00000001
 12
1.0
 22
0.0
 32
0.0
 13
1.0
 23
0.0
 33
0.0
 40
0.0
 40
0.0
 40
0.0
 40
0.0
 40
1.0
 40
1.0
 40
1.0
 40
1.0
 10
146.5301119647496
 20
119.4223646866185
 30
0.0
 10
146.5495381700485
 20
119.3427724150458
 30
0.0
 10
146.571034994477
 20
119.264330668913
 30
0.0
 10
146.5953479907463
 20
119.1871609124897
 30
0.0
  0
SPLINE
  5
80
330
1F
100
AcDbEntity
  8
0
  6
Continuous
 62
     7
370
    15
100
AcDbSpline
210
0.0
220
0.0
230
1.0
 70
     8
 71
     3
 72
     8
 73
     4
 74
     0
 42
0.00000001
 43
0.00000001
 12
1.0
 22
0.0
 32
0.0
 13
1.0
 23
0.0
 33
0.0
 40
0.0
 40
0.0
 40
0.0
 40
0.0
 40
1.0
 40
1.0
 40
1.0
 40
1.0
 10
146.5953479907463
 20
127.2006578415442
 30
0.0
 10
146.571034994477
 20
127.1234880851209
 30
0.0
 10
146.5495381700485
 20
127.0450463389882
 30
0.0
 10
146.5301119647496
 20
126.9654540674154
 30
0.0
  0
SPLINE
  5
81
330
1F
100
AcDbEntity
  8
0
  6
Continuous
 62
     7
370
    15
100
AcDbSpline
210
0.0
220
0.0
230
1.0
 70
     8
 71
     3
 72
    18
 73
    14
 74
     0
 42
0.00000001
 43
0.00000001
 12
1.0
 22
0.0
 32
0.0
 13
1.0
 23
0.0
 33
0.0
 40
0.0
 40
0.0
 40
0.0
 40
0.0
 40
0.2499999999999999
 40
0.2499999999999999
 40
0.4999999999999998
 40
0.4999999999999998
 40
0.6249999999999998
 40
0.6249999999999998
 40
0.7499999999999999
 40
0.7499999999999999
 40
0.8749999999999999
 40
0.8749999999999999
 40
1.0
 40
1.0
 40
1.0
 40
1.0
 10
146.5953479907463
 20
127.2006578415442
 30
0.0
 10
146.629646309759
 20
127.3095211381373
 30
0.0
 10
146.6674607070709
 20
127.4165285613736
 30
0.0
 10
146.7540487681445
 20
127.6255633855119
 30
0.0
 10
146.8023988738232
 20
127.7277334795014
 30
0.0
 10
146.891715462623
 20
127.8744142510661
 30
0.0
 10
146.9242758181113
 20
127.9222159496017
 30
0.0
 10
147.0005214518402
 20
128.0137714876271
 30
0.0
 10
147.0436808216202
 20
128.057450879619
 30
0.0
 10
147.1494096456383
 20
128.1268050969456
 30
0.0
 10
147.2144068226929
 20
128.1509214106115
 30
0.0
 10
147.3478913126472
 20
128.1427171885733
 30
0.0
 10
147.4072187060927
 20
128.1129264029814
 30
0.0
 10
147.456455419434
 20
128.0756290699303
 30
0.0
  0
SPLINE
  5
82
330
1F
100
AcDbEntity
  8
0
  6
Continuous
 62
     7
370
    15
100
AcDbSpline
210
0.0
220
0.0
230
1.0
 70
     8
 71
     3
 72
    16
 73
    12
 74
     0
 42
0.00000001
 43
0.00000001
 12
1.0
 22
0.0
 32
0.0
 13
1.0
 23
0.0
 33
0.0
 40
0.0
 40
0.0
 40
0.0
 40
0.0
 40
0.0625000000000005
 40
0.0625000000000005
 40
0.125000000000001
 40
0.125000000000001
 40
0.2499999999999995
 40
0.2499999999999995
 40
0.4999999999999997
 40
0.4999999999999997
 40
1.0
 40
1.0
 40
1.0
 40
1.0
 10
147.4564554194032
 20
128.075629069882
 30
0.0
 10
147.4685252526791
 20
128.0664860430362
 30
0.0
 10
147.4828009076124
 20
128.0594415953449
 30
0.0
 10
147.5142653197368
 20
128.0594345234463
 30
0.0
 10
147.5297658445472
 20
128.0675624922433
 30
0.0
 10
147.5652047411541
 20
128.1009709532504
 30
0.0
 10
147.5787973572575
 20
128.1316381197126
 30
0.0
 10
147.6117916756503
 20
128.2204591137944
 30
0.0
 10
147.6225790689691
 20
128.2813617593423
 30
0.0
 10
147.6476323162482
 20
128.4633698367206
 30
0.0
 10
147.6514323083095
 20
128.5820585517592
 30
0.0
 10
147.6514323083095
 20
128.6993541439798
 30
0.0
  0
LINE
  5
83
330
1F
100
AcDbEntity
  8
0
  6
Continuous
 62
     7
370
    15
100
AcDbLine
 10
147.6514323083
 20
137.2837296559
 30
0.0
 11
147.6514323083
 21
128.699354144
 31
0.0
  0
SPLINE
  5
84
330
1F
100
AcDbEntity
  8
0
  6
Continuous
 62
     7
370
    15
100
AcDbSpline
210
0.0
220
0.0
230
1.0
 70
     8
 71
     3
 72
    16
 73
    12
 74
     0
 42
0.00000001
 43
0.00000001
 12
1.0
 22
0.0
 32
0.0
 13
1.0
 23
0.0
 33
0.0
 40
0.0
 40
0.0
 40
0.0
 40
0.0
 40
0.5000000000000014
 40
0.5000000000000014
 40
0.7500000000000029
 40
0.7500000000000029
 40
0.8750000000000027
 40
0.8750000000000027
 40
0.9375000000000013
 40
0.9375000000000013
 40
1.0
 40
1.0
 40
1.0
 40
1.0
 10
147.6514323083093
 20
137.1787212836771
 30
0.0
 10
147.6514323083093
 20
137.1631560562377
 30
0.0
 10
147.6475488831504
 20
137.1439846783897
 30
0.0
 10
147.6227335578758
 20
137.1052122964078
 30
0.0
 10
147.6118941101632
 20
137.0905615202053
 30
0.0
 10
147.5786783281144
 20
137.0635172762257
 30
0.0
 10
147.5652965844857
 20
137.0535391770857
 30
0.0
 10
147.5297869346234
 20
137.0370646412987
 30
0.0
 10
147.5143699681226
 20
137.0313125505087
 30
0.0
 10
147.482668945974
 20
137.0233920300821
 30
0.0
 10
147.4685226610232
 20
137.0215091940633
 30
0.0
 10
147.4564554194336
 20
137.020635359601
 30
0.0
  0
SPLINE
  5
85
330
1F
100
AcDbEntity
  8
0
  6
Continuous
 62
     7
370
    15
100
AcDbSpline
210
0.0
220
0.0
230
1.0
 70
     8
 71
     3
 72
    18
 73
    14
 74
     0
 42
0.00000001
 43
0.00000001
 12
1.0
 22
0.0
 32
0.0
 13
1.0
 23
0.0
 33
0.0
 40
0.0
 40
0.0
 40
0.0
 40
0.0
 40
0.125
 40
0.125
 40
0.25
 40
0.25
 40
0.375
 40
0.375
 40
0.5
 40
0.5
 40
0.75
 40
0.75
 40
1.0
 40
1.0
 40
1.0
 40
1.0
 10
147.4564554194397
 20
137.0206353596009
 30
0.0
 10
147.407751290423
 20
137.0171085099827
 30
0.0
 10
147.3492436212184
 20
137.013608236785
 30
0.0
 10
147.2175179585876
 20
137.0095652528971
 30
0.0
 10
147.1527603199672
 20
137.0094536782665
 30
0.0
 10
147.0475499033482
 20
137.010985863028
 30
0.0
 10
147.004333868408
 20
137.0124410152431
 30
0.0
 10
146.928155646927
 20
137.0153662767728
 30
0.0
 10
146.8953008792429
 20
137.016876607281
 30
0.0
 10
146.804933160401
 20
137.0210185999694
 30
0.0
 10
146.7555107912117
 20
137.0232566849559
 30
0.0
 10
146.6678583291236
 20
137.0257079680024
 30
0.0
 10
146.6297955928892
 20
137.0259632033634
 30
0.0
 10
146.5953479907458
 20
137.0250977596955
 30
0.0
  0
SPLINE
  5
86
330
1F
100
AcDbEntity
  8
0
  6
Continuous
 62
     7
370
    15
100
AcDbSpline
210
0.0
220
0.0
230
1.0
 70
     8
 71
     3
 72
     8
 73
     4
 74
     0
 42
0.00000001
 43
0.00000001
 12
1.0
 22
0.0
 32
0.0
 13
1.0
 23
0.0
 33
0.0
 40
0.0
 40
0.0
 40
0.0
 40
0.0
 40
1.0
 40
1.0
 40
1.0
 40
1.0
 10
146.35639233037
 20
120.2474185726531
 30
0.0
 10
146.4071194130924
 20
119.9640674513339
 30
0.0
 10
146.4650067260795
 20
119.6891112671942
 30
0.0
 10
146.5301119647497
 20
119.4223646866186
 30
0.0
  0
SPLINE
  5
87
330
1F
100
AcDbEntity
  8
0
  6
Continuous
 62
     7
370
    15
100
AcDbSpline
210
0.0
220
0.0
230
1.0
 70
     8
 71
     3
 72
    24
 73
    20
 74
     0
 42
0.00000001
 43
0.00000001
 12
1.0
 22
0.0
 32
0.0
 13
1.0
 23
0.0
 33
0.0
 40
0.0
 40
0.0
 40
0.0
 40
0.0
 40
0.2499999999999895
 40
0.2499999999999895
 40
0.3749999999999844
 40
0.3749999999999844
 40
0.4374999999999824
 40
0.4374999999999824
 40
0.468749999999982
 40
0.468749999999982
 40
0.4999999999999816
 40
0.4999999999999816
 40
0.5624999999999838
 40
0.5624999999999838
 40
0.624999999999986
 40
0.624999999999986
 40
0.7499999999999907
 40
0.7499999999999907
 40
1.0
 40
1.0
 40
1.0
 40
1.0
 10
146.1514323083011
 20
120.2477109809464
 30
0.0
 10
146.151835337675
 20
120.340979273576
 30
0.0
 10
146.1538650773901
 20
120.4347368324249
 30
0.0
 10
146.1631737888099
 20
120.5763267180645
 30
0.0
 10
146.1670997819244
 20
120.6235071366737
 30
0.0
 10
146.1780291418404
 20
120.6941031833591
 30
0.0
 10
146.1821507699348
 20
120.7178830971239
 30
0.0
 10
146.1940452911172
 20
120.7513342441711
 30
0.0
 10
146.199332103071
 20
120.7634891962407
 30
0.0
 10
146.2159000345859
 20
120.7713718352087
 30
0.0
 10
146.2238267433532
 20
120.7638082361067
 30
0.0
 10
146.2408190815784
 20
120.7400158048799
 30
0.0
 10
146.2482167823693
 20
120.7198273270354
 30
0.0
 10
146.2623191727112
 20
120.6793777024156
 30
0.0
 10
146.2684723300034
 20
120.6585220280182
 30
0.0
 10
146.2857860634645
 20
120.5953969927172
 30
0.0
 10
146.2957911043531
 20
120.5524178808156
 30
0.0
 10
146.3241475605838
 20
120.4226922365268
 30
0.0
 10
146.3406960999301
 20
120.3350945093908
 30
0.0
 10
146.3563923303701
 20
120.2474185726531
 30
0.0
  0
SPLINE
  5
88
330
1F
100
AcDbEntity
  8
0
  6
Continuous
 62
     7
370
    15
100
AcDbSpline
210
0.0
220
0.0
230
1.0
 70
     8
 71
     3
 72
    16
 73
    12
 74
     0
 42
0.00000001
 43
0.00000001
 12
1.0
 22
0.0
 32
0.0
 13
1.0
 23
0.0
 33
0.0
 40
0.0
 40
0.0
 40
0.0
 40
0.0
 40
0.2499999999999998
 40
0.2499999999999998
 40
0.3749999999999998
 40
0.3749999999999998
 40
0.4999999999999999
 40
0.4999999999999999
 40
0.7499999999999999
 40
0.7499999999999999
 40
1.0
 40
1.0
 40
1.0
 40
1.0
 10
146.1514323083093
 20
126.1401077730863
 30
0.0
 10
146.0708954989138
 20
125.6710349462233
 30
0.0
 10
146.0108580901116
 20
125.1906712960433
 30
0.0
 10
145.9501201428643
 20
124.4534870169023
 30
0.0
 10
145.9347976618214
 20
124.2049686136753
 30
0.0
 10
145.9142147100436
 20
123.7021851684615
 30
0.0
 10
145.909015163007
 20
123.4473266154369
 30
0.0
 10
145.9089614524668
 20
122.6910492757161
 30
0.0
 10
145.9291587897359
 20
122.1923910764063
 30
0.0
 10
146.0098370968089
 20
121.205968105662
 30
0.0
 10
146.0708834451501
 20
120.716854012889
 30
0.0
 10
146.1514323083093
 20
120.2477109809476
 30
0.0
  0
SPLINE
  5
89
330
1F
100
AcDbEntity
  8
0
  6
Continuous
 62
     7
370
    15
100
AcDbSpline
210
0.0
220
0.0
230
1.0
 70
     8
 71
     3
 72
    24
 73
    20
 74
     0
 42
0.00000001
 43
0.00000001
 12
1.0
 22
0.0
 32
0.0
 13
1.0
 23
0.0
 33
0.0
 40
0.0
 40
0.0
 40
0.0
 40
0.0
 40
0.2499999999999896
 40
0.2499999999999896
 40
0.3749999999999845
 40
0.3749999999999845
 40
0.4374999999999823
 40
0.4374999999999823
 40
0.4999999999999802
 40
0.4999999999999802
 40
0.5312499999999808
 40
0.5312499999999808
 40
0.5624999999999813
 40
0.5624999999999813
 40
0.6249999999999841
 40
0.6249999999999841
 40
0.7499999999999898
 40
0.7499999999999898
 40
1.0
 40
1.0
 40
1.0
 40
1.0
 10
146.3563923303701
 20
126.1404001813808
 30
0.0
 10
146.3406232854604
 20
126.0523175178899
 30
0.0
 10
146.3240091208998
 20
125.9643727013804
 30
0.0
 10
146.2954769934064
 20
125.8340253341174
 30
0.0
 10
146.2853893598525
 20
125.7907641563153
 30
0.0
 10
146.2679015370036
 20
125.7273283804799
 30
0.0
 10
146.2616917290773
 20
125.7064142569361
 30
0.0
 10
146.2474138694949
 20
125.6659394652511
 30
0.0
 10
146.2398427071431
 20
125.6454618217918
 30
0.0
 10
146.2224228819687
 20
125.622615442255
 30
0.0
 10
146.2139387995141
 20
125.6160636452113
 30
0.0
 10
146.1979027258966
 20
125.6266350204379
 30
0.0
 10
146.1930823536187
 20
125.6387260607218
 30
0.0
 10
146.1816754530129
 20
125.6723693039417
 30
0.0
 10
146.1776544913035
 20
125.6957769832385
 30
0.0
 10
146.1669004795242
 20
125.7663655862996
 30
0.0
 10
146.1630285939016
 20
125.8133306138221
 30
0.0
 10
146.1538606291007
 20
125.9539074784282
 30
0.0
 10
146.1518322945875
 20
126.0475437080477
 30
0.0
 10
146.1514323083093
 20
126.1401077730863
 30
0.0
  0
SPLINE
  5
8A
330
1F
100
AcDbEntity
  8
0
  6
Continuous
 62
     7
370
    15
100
AcDbSpline
210
0.0
220
0.0
230
1.0
 70
     8
 71
     3
 72
     8
 73
     4
 74
     0
 42
0.00000001
 43
0.00000001
 12
1.0
 22
0.0
 32
0.0
 13
1.0
 23
0.0
 33
0.0
 40
0.0
 40
0.0
 40
0.0
 40
0.0
 40
1.0
 40
1.0
 40
1.0
 40
1.0
 10
146.5301119647497
 20
126.9654540674154
 30
0.0
 10
146.4650067260795
 20
126.6987074868398
 30
0.0
 10
146.4071194130924
 20
126.4237513027
 30
0.0
 10
146.35639233037
 20
126.1404001813809
 30
0.0
  0
LINE
  5
8B
330
1F
100
AcDbEntity
  8
0
  6
Continuous
 62
     7
370
    15
100
AcDbLine
 10
146.1514323083
 20
120.2477109809
 30
0.0
 11
146.1514323083
 21
119.0927057115
 31
0.0
  0
LINE
  5
8C
330
1F
100
AcDbEntity
  8
0
  6
Continuous
 62
     7
370
    15
100
AcDbLine
 10
125.3514323083
 20
127.0338288431
 30
0.0
 11
125.3514323083
 21
119.3539899109
 31
0.0
  0
LINE
  5
8D
330
1F
100
AcDbEntity
  8
0
  6
Continuous
 62
     7
370
    15
100
AcDbLine
 10
146.1514323083
 20
127.2951130425
 30
0.0
 11
146.1514323083
 21
126.1401077731
 31
0.0
  0
LINE
  5
8E
330
1F
100
AcDbEntity
  8
0
  6
Continuous
 62
     7
370
    15
100
AcDbLine
 10
123.8514323083
 20
126.6008161412
 30
0.0
 11
123.8514323083
 21
119.7870026128
 31
0.0
  0
LINE
  5
8F
330
1F
100
AcDbEntity
  8
0
  6
Continuous
 62
     7
370
    15
100
AcDbLine
 10
146.3563923304
 20
137.0190943618
 30
0.0
 11
146.5953479907
 21
137.0250977597
 31
0.0
  0
LINE
  5
90
330
1F
100
AcDbEntity
  8
0
  6
Continuous
 62
     7
370
    15
100
AcDbLine
 10
146.1514323083
 20
127.2951130425
 30
0.0
 11
146.1514323083
 21
137.2140081616
 31
0.0
  0
ARC
  5
91
330
1F
100
AcDbEntity
  8
0
  6
Continuous
 62
     7
370
    15
100
AcDbCircle
 10
146.3513692192
 20
137.2190312727
 30
0.0
 40
0.1999999999999775
100
AcDbArc
 50
181.4391666667
 51
271.4391666667
  0
LINE
  5
92
330
1F
100
AcDbEntity
  8
0
  6
Continuous
 62
     7
370
    15
100
AcDbLine
 10
125.3514323083
 20
127.0338288431
 30
0.0
 11
125.3514323083
 21
136.6914397629
 31
0.0
  0
LINE
  5
93
330
1F
100
AcDbEntity
  8
0
  6
Continuous
 62
     7
370
    15
100
AcDbLine
 10
125.3514323083
 20
136.6914397629
 30
0.0
 11
146.1514323083
 21
137.2140081616
 31
0.0
  0
LINE
  5
94
330
1F
100
AcDbEntity
  8
0
  6
Continuous
 62
     7
370
    15
100
AcDbLine
 10
125.3514323083
 20
109.6963789912
 30
0.0
 11
125.3514323083
 21
119.3539899109
 31
0.0
  0
LINE
  5
95
330
1F
100
AcDbEntity
  8
0
  6
Continuous
 62
     7
370
    15
100
AcDbLine
 10
146.1514323083
 20
109.1738105925
 30
0.0
 11
146.1514323083
 21
119.0927057115
 31
0.0
  0
LINE
  5
96
330
1F
100
AcDbEntity
  8
0
  6
Continuous
 62
     7
370
    15
100
AcDbLine
 10
125.3514323083
 20
109.6963789912
 30
0.0
 11
146.1514323083
 21
109.1738105925
 31
0.0
  0
ARC
  5
97
330
1F
100
AcDbEntity
  8
0
  6
Continuous
 62
     7
370
    15
100
AcDbCircle
 10
146.3513692192
 20
109.1687874813
 30
0.0
 40
0.2000000000000201
100
AcDbArc
 50
88.5608333333
 51
178.5608333333
  0
LINE
  5
98
330
1F
100
AcDbEntity
  8
0
  6
Continuous
 62
     7
370
    15
100
AcDbLine
 10
146.3563923304
 20
109.3687243923
 30
0.0
 11
146.5953479907
 21
109.3627209943
 31
0.0
  0
LINE
  5
99
330
1F
100
AcDbEntity
  8
0
  6
Continuous
 62
     7
370
    15
100
AcDbLine
 10
123.8514323083
 20
135.8254143591
 30
0.0
 11
125.3514323083
 21
136.6914397629
 31
0.0
  0
LINE
  5
9A
330
1F
100
AcDbEntity
  8
0
  6
Continuous
 62
     7
370
    15
100
AcDbLine
 10
123.8514323083
 20
126.6008161412
 30
0.0
 11
123.8514323083
 21
135.8254143591
 31
0.0
  0
LINE
  5
9B
330
1F
100
AcDbEntity
  8
0
  6
Continuous
 62
     7
370
    15
100
AcDbLine
 10
123.8514323083
 20
110.562404395
 30
0.0
 11
125.3514323083
 21
109.6963789912
 31
0.0
  0
LINE
  5
9C
330
1F
100
AcDbEntity
  8
0
  6
Continuous
 62
     7
370
    15
100
AcDbLine
 10
123.8514323083
 20
110.562404395
 30
0.0
 11
123.8514323083
 21
119.7870026128
 31
0.0
  0
LINE
  5
9D
330
1F
100
AcDbEntity
  8
0
  6
Continuous
 62
     7
370
    15
100
AcDbLine
 10
232.6723116544
 20
106.3731422198
 30
0.0
 11
232.1443255271
 21
106.9013131081
 31
0.0
  0
SPLINE
  5
9E
330
1F
100
AcDbEntity
  8
0
  6
Continuous
 62
     7
370
    15
100
AcDbSpline
210
0.0
220
0.0
230
1.0
 70
     8
 71
     3
 72
    10
 73
     6
 74
     0
 42
0.00000001
 43
0.00000001
 12
1.0
 22
0.0
 32
0.0
 13
1.0
 23
0.0
 33
0.0
 40
0.0
 40
0.0
 40
0.0
 40
0.0
 40
0.5
 40
0.5
 40
1.0
 40
1.0
 40
1.0
 40
1.0
 10
232.1443255271228
 20
106.9013131081417
 30
0.0
 10
232.0510805674572
 20
106.9945991516614
 30
0.0
 10
231.941184517903
 20
107.0678807528213
 30
0.0
 10
231.6992209284141
 20
107.1682496539008
 30
0.0
 10
231.5692878553059
 20
107.1943508675866
 30
0.0
 10
231.4372187459363
 20
107.1943508675866
 30
0.0
  0
SPLINE
  5
9F
330
1F
100
AcDbEntity
  8
0
  6
Continuous
 62
     7
370
    15
100
AcDbSpline
210
0.0
220
0.0
230
1.0
 70
     8
 71
     3
 72
    10
 73
     6
 74
     0
 42
0.00000001
 43
0.00000001
 12
1.0
 22
0.0
 32
0.0
 13
1.0
 23
0.0
 33
0.0
 40
0.0
 40
0.0
 40
0.0
 40
0.0
 40
0.5
 40
0.5
 40
1.0
 40
1.0
 40
1.0
 40
1.0
 10
231.4372187459363
 20
139.0212192830087
 30
0.0
 10
231.5692812366238
 20
139.0212192830087
 30
0.0
 10
231.6988796612349
 20
139.0472295862483
 30
0.0
 10
231.9408668782399
 20
139.1475071248537
 30
0.0
 10
232.0510794096666
 20
139.2209698406323
 30
0.0
 10
232.1443255271231
 20
139.3142570424531
 30
0.0
  0
LINE
  5
A0
330
1F
100
AcDbEntity
  8
0
  6
Continuous
 62
     7
370
    15
100
AcDbLine
 10
232.1443255271
 20
139.3142570425
 30
0.0
 11
232.3514323083
 21
139.5214475655
 31
0.0
  0
LINE
  5
A1
330
1F
100
AcDbEntity
  8
0
  6
Continuous
 62
     7
370
    15
100
AcDbLine
 10
232.3514323083
 20
139.5214475655
 30
0.0
 11
245.7845891157
 21
139.5214475655
 31
0.0
  0
LINE
  5
A2
330
1F
100
AcDbEntity
  8
0
  6
Continuous
 62
     7
370
    15
100
AcDbLine
 10
245.7845891157
 20
139.5214475655
 30
0.0
 11
254.464503638
 21
112.0593354602
 31
0.0
  0
LINE
  5
A3
330
1F
100
AcDbEntity
  8
0
  6
Continuous
 62
     7
370
    15
100
AcDbLine
 10
247.0590429396
 20
114.4061824013
 30
0.0
 11
246.3557062682
 21
116.6314474622
 31
0.0
  0
ARC
  5
A4
330
1F
100
AcDbEntity
  8
0
  6
Continuous
 62
     7
370
    15
100
AcDbCircle
 10
244.9101002994
 20
116.1744856322
 30
0.0
 40
1.516110395416501
100
AcDbArc
 50
17.5419538045
 51
197.377974715
  0
LINE
  5
A5
330
1F
100
AcDbEntity
  8
0
  6
Continuous
 62
     7
370
    15
100
AcDbLine
 10
243.4631924394
 20
115.7216629562
 30
0.0
 11
243.6927971002
 21
114.9952238975
 31
0.0
  0
LINE
  5
A6
330
1F
100
AcDbEntity
  8
0
  6
Continuous
 62
     7
370
    15
100
AcDbLine
 10
246.9207755962
 20
104.6497450266
 30
0.0
 11
245.2334807317
 21
105.1804511237
 31
0.0
  0
ELLIPSE
  5
A7
330
1F
100
AcDbEntity
  8
0
  6
Continuous
 62
     7
370
    15
100
AcDbEllipse
 10
237.4681906432
 20
80.2416970836
 30
0.0
 11
-5.684341886080801E-14
 21
26.13144513619379
 31
0.0
210
0.0
220
0.0
230
1.0
 40
0.9949698482
 41
5.979891802486657
 42
6.283185307179586
  0
LINE
  5
A8
330
1F
100
AcDbEntity
  8
0
  6
Continuous
 62
     7
370
    15
100
AcDbLine
 10
237.4681906432
 20
106.3731422198
 30
0.0
 11
232.6723116544
 21
106.3731422198
 31
0.0
  0
LINE
  5
A9
330
1F
100
AcDbEntity
  8
0
  6
Continuous
 62
     7
370
    15
100
AcDbLine
 10
232.3514323083
 20
139.693909377
 30
0.0
 11
232.3514323083
 21
139.5214475655
 31
0.0
  0
ELLIPSE
  5
AA
330
1F
100
AcDbEntity
  8
0
  6
Continuous
 62
     7
370
    15
100
AcDbEllipse
 10
250.8134825484
 20
123.193909377
 30
0.0
 11
-5.390524936199198
 21
16.49183944377621
 31
0.0
210
0.0
220
0.0
230
1.0
 40
0.0962569477
 41
6.107023136584796
 42
6.251733123200039
  0
ARC
  5
AB
330
1F
100
AcDbEntity
  8
0
  6
Continuous
 62
     7
370
    15
100
AcDbCircle
 10
244.9100466508
 20
116.3260277472
 30
0.0
 40
1.249726555312122
100
AcDbArc
 50
17.5512325692
 51
197.3686959503
  0
LINE
  5
AC
330
1F
100
AcDbEntity
  8
0
  6
Continuous
 62
     7
370
    15
100
AcDbLine
 10
246.1015955422
 20
116.7028933763
 30
0.0
 11
246.8019561823
 21
114.4870440885
 31
0.0
  0
LINE
  5
AD
330
1F
100
AcDbEntity
  8
0
  6
Continuous
 62
     7
370
    15
100
AcDbLine
 10
243.7173031653
 20
115.9529601381
 30
0.0
 11
243.9261258742
 21
115.292272452
 31
0.0
  0
LINE
  5
AE
330
1F
100
AcDbEntity
  8
0
  6
Continuous
 62
     7
370
    15
100
AcDbLine
 10
243.6605500352
 20
116.3802440873
 30
0.0
 11
243.7173031653
 21
116.0575948487
 31
0.0
  0
LINE
  5
AF
330
1F
100
AcDbEntity
  8
0
  6
Continuous
 62
     7
370
    15
100
AcDbLine
 10
243.7173031653
 20
116.0575948487
 30
0.0
 11
243.9559642938
 21
115.3025023131
 31
0.0
  0
CIRCLE
  5
B0
330
1F
100
AcDbEntity
  8
0
  6
Continuous
 62
     7
370
    15
100
AcDbCircle
 10
250.684857949
 20
108.3676938175
 30
0.0
 40
2.620271270453
  0
CIRCLE
  5
B1
330
1F
100
AcDbEntity
  8
0
  6
Continuous
 62
     7
370
    15
100
AcDbCircle
 10
250.6832170531
 20
108.3484127467
 30
0.0
 40
1.796914685675582
  0
ARC
  5
B2
330
1F
100
AcDbEntity
  8
0
  6
Continuous
 62
     7
370
    15
100
AcDbCircle
 10
250.680760748
 20
108.3425783711
 30
0.0
 40
1.676079770631705
100
AcDbArc
 50
32.959120055
 51
91.4835394416
  0
ARC
  5
B3
330
1F
100
AcDbEntity
  8
0
  6
Continuous
 62
     7
370
    15
100
AcDbCircle
 10
250.6792511693
 20
108.3431641287
 30
0.0
 40
1.675455792775059
100
AcDbArc
 50
91.4324520835
 51
151.4771823871
  0
ARC
  5
B4
330
1F
100
AcDbEntity
  8
0
  6
Continuous
 62
     7
370
    15
100
AcDbCircle
 10
250.6726129971
 20
108.3477151344
 30
0.0
 40
1.667450376478161
100
AcDbArc
 50
151.5056628127
 51
210.2394749073
  0
LINE
  5
B5
330
1F
100
AcDbEntity
  8
0
  6
Continuous
 62
     7
370
    15
100
AcDbLine
 10
249.2766058283
 20
107.4357901017
 30
0.0
 11
249.2320558737
 21
107.5079616393
 31
0.0
  0
ARC
  5
B6
330
1F
100
AcDbEntity
  8
0
  6
Continuous
 62
     7
370
    15
100
AcDbCircle
 10
250.679459814
 20
108.3527706253
 30
0.0
 40
1.675963181501165
100
AcDbArc
 50
213.1707815134
 51
269.54466835
  0
LINE
  5
B7
330
1F
100
AcDbEntity
  8
0
  6
Continuous
 62
     7
370
    15
100
AcDbLine
 10
250.7859044038
 20
106.6801355456
 30
0.0
 11
250.6661410136
 21
106.6768603666
 31
0.0
  0
ARC
  5
B8
330
1F
100
AcDbEntity
  8
0
  6
Continuous
 62
     7
370
    15
100
AcDbCircle
 10
250.6810868427
 20
108.3523477143
 30
0.0
 40
1.675494034138026
100
AcDbArc
 50
273.5867200808
 51
329.3229143897
  0
LINE
  5
B9
330
1F
100
AcDbEntity
  8
0
  6
Continuous
 62
     7
370
    15
100
AcDbLine
 10
252.1793403029
 20
107.6025094751
 30
0.0
 11
252.1221061848
 21
107.4975123419
 31
0.0
  0
ARC
  5
BA
330
1F
100
AcDbEntity
  8
0
  6
Continuous
 62
     7
370
    15
100
AcDbCircle
 10
250.6877243676
 20
108.3477336953
 30
0.0
 40
1.667416335767227
100
AcDbArc
 50
333.4528899026
 51
30.026004067
  0
LINE
  5
BB
330
1F
100
AcDbEntity
  8
0
  6
Continuous
 62
     7
370
    15
100
AcDbLine
 10
252.0870904783
 20
109.2544336705
 30
0.0
 11
252.1313707404
 21
109.1820971575
 31
0.0
  0
SPLINE
  5
BC
330
1F
100
AcDbEntity
  8
0
  6
Continuous
 62
     7
370
    15
100
AcDbSpline
210
0.0
220
0.0
230
1.0
 70
     8
 71
     3
 72
    12
 73
     8
 74
     0
 42
0.00000001
 43
0.00000001
 12
1.0
 22
0.0
 32
0.0
 13
1.0
 23
0.0
 33
0.0
 40
0.0
 40
0.0
 40
0.0
 40
0.0
 40
0.2058585741214043
 40
0.4121026961457113
 40
0.614193784196729
 40
0.8133180967416296
 40
0.9999999999999999
 40
0.9999999999999999
 40
0.9999999999999999
 40
0.9999999999999999
 10
251.7205911110993
 20
109.3655399570683
 30
0.0
 10
251.6566302750429
 20
109.3517987931855
 30
0.0
 10
251.528588812116
 20
109.3242907299023
 30
0.0
 10
251.3311393270344
 20
109.3650743274958
 30
0.0
 10
251.1606612821569
 20
109.4621305296293
 30
0.0
 10
251.0315053543627
 20
109.6029316172028
 30
0.0
 10
250.9899676682422
 20
109.7167899375192
 30
0.0
 10
250.9698686289207
 20
109.771883108826
 30
0.0
  0
SPLINE
  5
BD
330
1F
100
AcDbEntity
  8
0
  6
Continuous
 62
     7
370
    15
100
AcDbSpline
210
0.0
220
0.0
230
1.0
 70
     8
 71
     3
 72
    11
 73
     7
 74
     0
 42
0.00000001
 43
0.00000001
 12
1.0
 22
0.0
 32
0.0
 13
1.0
 23
0.0
 33
0.0
 40
0.0
 40
0.0
 40
0.0
 40
0.0
 40
0.2524782265335577
 40
0.5068902417933374
 40
0.7591786113117156
 40
1.0
 40
1.0
 40
1.0
 40
1.0
 10
250.9698686289207
 20
109.771883108826
 30
0.0
 10
250.9567730663159
 20
109.8067660546587
 30
0.0
 10
250.9304816391846
 20
109.8767991228182
 30
0.0
 10
250.8488914116815
 20
109.9577733766441
 30
0.0
 10
250.7479052089688
 20
110.0106298783782
 30
0.0
 10
250.6736376895174
 20
110.0156463959914
 30
0.0
 10
250.6373674537918
 20
110.0180963266972
 30
0.0
  0
SPLINE
  5
BE
330
1F
100
AcDbEntity
  8
0
  6
Continuous
 62
     7
370
    15
100
AcDbSpline
210
0.0
220
0.0
230
1.0
 70
     8
 71
     3
 72
    11
 73
     7
 74
     0
 42
0.00000001
 43
0.00000001
 12
1.0
 22
0.0
 32
0.0
 13
1.0
 23
0.0
 33
0.0
 40
0.0
 40
0.0
 40
0.0
 40
0.0
 40
0.2423611237745243
 40
0.5166847928458063
 40
0.7923341374633226
 40
1.0
 40
1.0
 40
1.0
 40
1.0
 10
252.0870904783433
 20
109.2544336704731
 30
0.0
 10
252.064209753458
 20
109.2784434585265
 30
0.0
 10
252.0154307974384
 20
109.3296294415481
 30
0.0
 10
251.9148373524436
 20
109.3743167607785
 30
0.0
 10
251.8110596091404
 20
109.3871768635954
 30
0.0
 10
251.7477803055681
 20
109.3720426632258
 30
0.0
 10
251.7205911110993
 20
109.3655399570683
 30
0.0
  0
SPLINE
  5
BF
330
1F
100
AcDbEntity
  8
0
  6
Continuous
 62
     7
370
    15
100
AcDbSpline
210
0.0
220
0.0
230
1.0
 70
     8
 71
     3
 72
    12
 73
     8
 74
     0
 42
0.00000001
 43
0.00000001
 12
1.0
 22
0.0
 32
0.0
 13
1.0
 23
0.0
 33
0.0
 40
0.0
 40
0.0
 40
0.0
 40
0.0
 40
0.2058435564095164
 40
0.4120691620553204
 40
0.6141397217727117
 40
0.813260457956135
 40
1.0
 40
1.0
 40
1.0
 40
1.0
 10
250.317916110049
 20
109.7546658721936
 30
0.0
 10
250.2984583987666
 20
109.692882163861
 30
0.0
 10
250.2595068623497
 20
109.5692000755539
 30
0.0
 10
250.1263437833574
 20
109.4195644672456
 30
0.0
 10
249.9567973288553
 20
109.3207695354159
 30
0.0
 10
249.7689799868372
 20
109.2789930027772
 30
0.0
 10
249.6482390012498
 20
109.2993949573914
 30
0.0
 10
249.5898056313831
 20
109.3092686134178
 30
0.0
  0
SPLINE
  5
C0
330
1F
100
AcDbEntity
  8
0
  6
Continuous
 62
     7
370
    15
100
AcDbSpline
210
0.0
220
0.0
230
1.0
 70
     8
 71
     3
 72
    11
 73
     7
 74
     0
 42
0.00000001
 43
0.00000001
 12
1.0
 22
0.0
 32
0.0
 13
1.0
 23
0.0
 33
0.0
 40
0.0
 40
0.0
 40
0.0
 40
0.0
 40
0.2535086227484176
 40
0.5075674742604813
 40
0.7595056251924556
 40
1.0
 40
1.0
 40
1.0
 40
1.0
 10
249.5898056313831
 20
109.3092686134178
 30
0.0
 10
249.5524201783538
 20
109.3152122431668
 30
0.0
 10
249.4775681288952
 20
109.3271124030387
 30
0.0
 10
249.3655734451926
 20
109.2964125990759
 30
0.0
 10
249.2688197270154
 20
109.2351386640709
 30
0.0
 10
249.2273859064043
 20
109.1733736661154
 30
0.0
 10
249.2071504421266
 20
109.1432088541018
 30
0.0
  0
SPLINE
  5
C1
330
1F
100
AcDbEntity
  8
0
  6
Continuous
 62
     7
370
    15
100
AcDbSpline
210
0.0
220
0.0
230
1.0
 70
     8
 71
     3
 72
    12
 73
     8
 74
     0
 42
0.00000001
 43
0.00000001
 12
1.0
 22
0.0
 32
0.0
 13
1.0
 23
0.0
 33
0.0
 40
0.0
 40
0.0
 40
0.0
 40
0.0
 40
0.0091681771491522
 40
0.2573268097002644
 40
0.5054934687429368
 40
0.754992535945287
 40
1.0
 40
1.0
 40
1.0
 40
1.0
 10
250.6373674537918
 20
110.0180963266972
 30
0.0
 10
250.6359953645038
 20
110.0180559009472
 30
0.0
 10
250.5974843984329
 20
110.0169212556292
 30
0.0
 10
250.5216133127446
 20
110.0012942196638
 30
0.0
 10
250.4248652861194
 20
109.9436385035252
 30
0.0
 10
250.3504750348803
 20
109.8587901191478
 30
0.0
 10
250.3287031670295
 20
109.7891631472345
 30
0.0
 10
250.317916110049
 20
109.7546658721936
 30
0.0
  0
SPLINE
  5
C2
330
1F
100
AcDbEntity
  8
0
  6
Continuous
 62
     7
370
    15
100
AcDbSpline
210
0.0
220
0.0
230
1.0
 70
     8
 71
     3
 72
    11
 73
     7
 74
     0
 42
0.00000001
 43
0.00000001
 12
1.0
 22
0.0
 32
0.0
 13
1.0
 23
0.0
 33
0.0
 40
0.0
 40
0.0
 40
0.0
 40
0.0
 40
0.2657596322624893
 40
0.5530029385954095
 40
0.8418208483438443
 40
0.9999999999999999
 40
0.9999999999999999
 40
0.9999999999999999
 40
0.9999999999999999
 10
252.179340302904
 20
107.6025094750578
 30
0.0
 10
252.1872023573164
 20
107.6363967434446
 30
0.0
 10
252.2035620247212
 20
107.7069106843295
 30
0.0
 10
252.1838156995199
 20
107.8172064697338
 30
0.0
 10
252.1393606514086
 20
107.9035585389143
 30
0.0
 10
252.0985677461714
 20
107.9446313265416
 30
0.0
 10
252.0841323332769
 20
107.9591657816063
 30
0.0
  0
SPLINE
  5
C3
330
1F
100
AcDbEntity
  8
0
  6
Continuous
 62
     7
370
    15
100
AcDbSpline
210
0.0
220
0.0
230
1.0
 70
     8
 71
     3
 72
    12
 73
     8
 74
     0
 42
0.00000001
 43
0.00000001
 12
1.0
 22
0.0
 32
0.0
 13
1.0
 23
0.0
 33
0.0
 40
0.0
 40
0.0
 40
0.0
 40
0.0
 40
0.205790461420423
 40
0.4120344203360212
 40
0.6141302471428003
 40
0.8132633242113002
 40
1.0
 40
1.0
 40
1.0
 40
1.0
 10
252.0841323332769
 20
107.9591657816063
 30
0.0
 10
252.0396440526511
 20
108.0078750942293
 30
0.0
 10
251.9505694532121
 20
108.1054010594906
 30
0.0
 10
251.8862814820632
 20
108.296893917929
 30
0.0
 10
251.8853460880594
 20
108.4926659475309
 30
0.0
 10
251.9439934971978
 20
108.6740986755935
 30
0.0
 10
252.0231928347668
 20
108.7662909215613
 30
0.0
 10
252.0615203297642
 20
108.810906166519
 30
0.0
  0
SPLINE
  5
C4
330
1F
100
AcDbEntity
  8
0
  6
Continuous
 62
     7
370
    15
100
AcDbSpline
210
0.0
220
0.0
230
1.0
 70
     8
 71
     3
 72
    11
 73
     7
 74
     0
 42
0.00000001
 43
0.00000001
 12
1.0
 22
0.0
 32
0.0
 13
1.0
 23
0.0
 33
0.0
 40
0.0
 40
0.0
 40
0.0
 40
0.0
 40
0.2802371411013284
 40
0.561286987592388
 40
0.8399906057824443
 40
1.0
 40
1.0
 40
1.0
 40
1.0
 10
252.0615203297642
 20
108.810906166519
 30
0.0
 10
252.0856949221781
 20
108.8396040674522
 30
0.0
 10
252.1341142148491
 20
108.8970830950419
 30
0.0
 10
252.1643393264869
 20
109.0079448819094
 30
0.0
 10
252.1602505006562
 20
109.1064578547067
 30
0.0
 10
252.1390888964272
 20
109.1618824488137
 30
0.0
 10
252.1313707404172
 20
109.182097157466
 30
0.0
  0
LWPOLYLINE
  5
C5
330
1F
100
AcDbEntity
  8
0
  6
Continuous
 62
     7
370
    15
100
AcDbPolyline
 90
        3
 70
   128
 43
0.0
 10
252.1563926683
 20
109.090175691
 10
252.1265981499
 20
108.9964060421
 10
252.0615203298
 20
108.9058771951
  0
SPLINE
  5
C6
330
1F
100
AcDbEntity
  8
0
  6
Continuous
 62
     7
370
    15
100
AcDbSpline
210
0.0
220
0.0
230
1.0
 70
     8
 71
     3
 72
    12
 73
     8
 74
     0
 42
0.00000001
 43
0.00000001
 12
1.0
 22
0.0
 32
0.0
 13
1.0
 23
0.0
 33
0.0
 40
0.0
 40
0.0
 40
0.0
 40
0.0
 40
0.0091735205189856
 40
0.257677521552498
 40
0.5061895192299313
 40
0.7560357430219035
 40
0.9999999999999999
 40
0.9999999999999999
 40
0.9999999999999999
 40
0.9999999999999999
 10
249.2071504421266
 20
109.1432088541018
 30
0.0
 10
249.2065023147346
 20
109.1420030667276
 30
0.0
 10
249.1882968875278
 20
109.1081333760827
 30
0.0
 10
249.1641824172108
 20
109.0347980611423
 30
0.0
 10
249.1665561009212
 20
108.9226703448278
 30
0.0
 10
249.2039041640156
 20
108.8166840821788
 30
0.0
 10
249.2540219328046
 20
108.7636290853928
 30
0.0
 10
249.2787823311763
 20
108.7374175662496
 30
0.0
  0
SPLINE
  5
C7
330
1F
100
AcDbEntity
  8
0
  6
Continuous
 62
     7
370
    15
100
AcDbSpline
210
0.0
220
0.0
230
1.0
 70
     8
 71
     3
 72
    12
 73
     8
 74
     0
 42
0.00000001
 43
0.00000001
 12
1.0
 22
0.0
 32
0.0
 13
1.0
 23
0.0
 33
0.0
 40
0.0
 40
0.0
 40
0.0
 40
0.0
 40
0.2057532787804142
 40
0.4119604088044374
 40
0.6140154573248995
 40
0.813141468404103
 40
0.9999999999999999
 40
0.9999999999999999
 40
0.9999999999999999
 40
0.9999999999999999
 10
249.2787823311763
 20
108.7374175662496
 30
0.0
 10
249.3232649856315
 20
108.6900776735291
 30
0.0
 10
249.412328414524
 20
108.5952934656007
 30
0.0
 10
249.4766203450965
 20
108.4060230759239
 30
0.0
 10
249.4775784709906
 20
108.2101184574867
 30
0.0
 10
249.418958527669
 20
108.0263483917862
 30
0.0
 10
249.3397431835363
 20
107.9315634058786
 30
0.0
 10
249.3013943346889
 20
107.8856771557161
 30
0.0
  0
SPLINE
  5
C8
330
1F
100
AcDbEntity
  8
0
  6
Continuous
 62
     7
370
    15
100
AcDbSpline
210
0.0
220
0.0
230
1.0
 70
     8
 71
     3
 72
    11
 73
     7
 74
     0
 42
0.00000001
 43
0.00000001
 12
1.0
 22
0.0
 32
0.0
 13
1.0
 23
0.0
 33
0.0
 40
0.0
 40
0.0
 40
0.0
 40
0.0
 40
0.2794069064556076
 40
0.5596240257155659
 40
0.8375007392219715
 40
1.0
 40
1.0
 40
1.0
 40
1.0
 10
249.3013943346889
 20
107.8856771557161
 30
0.0
 10
249.2772177994384
 20
107.8561804682366
 30
0.0
 10
249.228794622802
 20
107.7971015599806
 30
0.0
 10
249.1985755726256
 20
107.6844998809269
 30
0.0
 10
249.2026752290107
 20
107.5845909689898
 30
0.0
 10
249.2241366016072
 20
107.5286163431278
 30
0.0
 10
249.2320558737426
 20
107.5079616392928
 30
0.0
  0
ARC
  5
C9
330
1F
100
AcDbEntity
  8
0
  6
Continuous
 62
     7
370
    15
100
AcDbCircle
 10
249.5005894385
 20
109.0818702187
 30
0.0
 40
0.3338474824332879
100
AcDbArc
 50
186.8921012503
 51
228.3639549048
  0
ARC
  5
CA
330
1F
100
AcDbEntity
  8
0
  6
Continuous
 62
     7
370
    15
100
AcDbCircle
 10
252.4721850137
 20
108.4905014797
 30
0.0
 40
0.5841082670109964
100
AcDbArc
 50
134.6732371703
 51
179.9881618794
  0
ARC
  5
CB
330
1F
100
AcDbEntity
  8
0
  6
Continuous
 62
     7
370
    15
100
AcDbCircle
 10
248.890663512
 20
108.395754662
 30
0.0
 40
0.5841744088733981
100
AcDbArc
 50
0.0132197029
 51
48.3645622673
  0
ARC
  5
CC
330
1F
100
AcDbEntity
  8
0
  6
Continuous
 62
     7
370
    15
100
AcDbCircle
 10
251.8613675172
 20
107.8053287897
 30
0.0
 40
0.3348609015079425
100
AcDbArc
 50
254.7181432817
 51
352.4990002133
  0
SPLINE
  5
CD
330
1F
100
AcDbEntity
  8
0
  6
Continuous
 62
     7
370
    15
100
AcDbSpline
210
0.0
220
0.0
230
1.0
 70
     8
 71
     3
 72
    11
 73
     7
 74
     0
 42
0.00000001
 43
0.00000001
 12
1.0
 22
0.0
 32
0.0
 13
1.0
 23
0.0
 33
0.0
 40
0.0
 40
0.0
 40
0.0
 40
0.0
 40
0.292899322061962
 40
0.5864344719079603
 40
0.8775178868032886
 40
1.0
 40
1.0
 40
1.0
 40
1.0
 10
251.7731090330701
 20
107.387314754382
 30
0.0
 10
251.8104798200981
 20
107.3805798024757
 30
0.0
 10
251.8853025189056
 20
107.3670952783849
 30
0.0
 10
251.9974962661848
 20
107.3959807731719
 30
0.0
 10
252.0762028715194
 20
107.445542756404
 30
0.0
 10
252.1116176864482
 20
107.4856377543558
 30
0.0
 10
252.1221061848271
 20
107.4975123419222
 30
0.0
  0
ARC
  5
CE
330
1F
100
AcDbEntity
  8
0
  6
Continuous
 62
     7
370
    15
100
AcDbCircle
 10
249.5371232681
 20
107.7439623691
 30
0.0
 40
0.3349000075257028
100
AcDbArc
 50
186.5487161976
 51
288.3079665579
  0
SPLINE
  5
CF
330
1F
100
AcDbEntity
  8
0
  6
Continuous
 62
     7
370
    15
100
AcDbSpline
210
0.0
220
0.0
230
1.0
 70
     8
 71
     3
 72
    11
 73
     7
 74
     0
 42
0.00000001
 43
0.00000001
 12
1.0
 22
0.0
 32
0.0
 13
1.0
 23
0.0
 33
0.0
 40
0.0
 40
0.0
 40
0.0
 40
0.0
 40
0.2431090893442775
 40
0.5182793655622253
 40
0.7947794085751936
 40
0.9999999999999999
 40
0.9999999999999999
 40
0.9999999999999999
 40
0.9999999999999999
 10
249.2766058283326
 20
107.4357901016719
 30
0.0
 10
249.2995756343003
 20
107.4120038572338
 30
0.0
 10
249.3485445004836
 20
107.3612944423381
 30
0.0
 10
249.4493038014436
 20
107.3182433956555
 30
0.0
 10
249.5526964479961
 20
107.30754094374
 30
0.0
 10
249.6155478600678
 20
107.3240221228195
 30
0.0
 10
249.6423235533539
 20
107.3310433651668
 30
0.0
  0
SPLINE
  5
D0
330
1F
100
AcDbEntity
  8
0
  6
Continuous
 62
     7
370
    15
100
AcDbSpline
210
0.0
220
0.0
230
1.0
 70
     8
 71
     3
 72
    11
 73
     7
 74
     0
 42
0.00000001
 43
0.00000001
 12
1.0
 22
0.0
 32
0.0
 13
1.0
 23
0.0
 33
0.0
 40
0.0
 40
0.0
 40
0.0
 40
0.0
 40
0.2669010467950342
 40
0.5546143410792435
 40
0.8439070439786254
 40
1.0
 40
1.0
 40
1.0
 40
1.0
 10
250.7859044038353
 20
106.6801355455938
 30
0.0
 10
250.8192436933692
 20
106.6904301877925
 30
0.0
 10
250.8885219832784
 20
106.7118222215377
 30
0.0
 10
250.9736680307263
 20
106.7846773023377
 30
0.0
 10
251.0252774840131
 20
106.8665595271764
 30
0.0
 10
251.0398806331735
 20
106.9223609432039
 30
0.0
 10
251.0449985544041
 20
106.9419174956061
 30
0.0
  0
SPLINE
  5
D1
330
1F
100
AcDbEntity
  8
0
  6
Continuous
 62
     7
370
    15
100
AcDbSpline
210
0.0
220
0.0
230
1.0
 70
     8
 71
     3
 72
    12
 73
     8
 74
     0
 42
0.00000001
 43
0.00000001
 12
1.0
 22
0.0
 32
0.0
 13
1.0
 23
0.0
 33
0.0
 40
0.0
 40
0.0
 40
0.0
 40
0.0
 40
0.205840128133815
 40
0.4120619935510108
 40
0.6141387330969539
 40
0.8132772113524587
 40
0.9999999999999999
 40
0.9999999999999999
 40
0.9999999999999999
 40
0.9999999999999999
 10
251.0449985544041
 20
106.9419174956061
 30
0.0
 10
251.0644560153533
 20
107.0050629261758
 30
0.0
 10
251.1034070217523
 20
107.1314708925915
 30
0.0
 10
251.2365687987668
 20
107.2832970378969
 30
0.0
 10
251.406118145369
 20
107.3819333810539
 30
0.0
 10
251.5939390275115
 20
107.4213951192446
 30
0.0
 10
251.7146807154186
 20
107.398428547551
 30
0.0
 10
251.7731090330701
 20
107.387314754382
 30
0.0
  0
SPLINE
  5
D2
330
1F
100
AcDbEntity
  8
0
  6
Continuous
 62
     7
370
    15
100
AcDbSpline
210
0.0
220
0.0
230
1.0
 70
     8
 71
     3
 72
    12
 73
     8
 74
     0
 42
0.00000001
 43
0.00000001
 12
1.0
 22
0.0
 32
0.0
 13
1.0
 23
0.0
 33
0.0
 40
0.0
 40
0.0
 40
0.0
 40
0.0
 40
0.2058179564998803
 40
0.4120215045907225
 40
0.6140779969167751
 40
0.8132130006453904
 40
1.0
 40
1.0
 40
1.0
 40
1.0
 10
249.6423235533539
 20
107.3310433651668
 30
0.0
 10
249.7062743789297
 20
107.3461456553622
 30
0.0
 10
249.8342958393586
 20
107.3763785292809
 30
0.0
 10
250.0317193481719
 20
107.3378057716631
 30
0.0
 10
250.202188348023
 20
107.2406207687027
 30
0.0
 10
250.331379674992
 20
107.097514122287
 30
0.0
 10
250.3729337718917
 20
106.9810628709477
 30
0.0
 10
250.3930460355324
 20
106.9247002390298
 30
0.0
  0
SPLINE
  5
D3
330
1F
100
AcDbEntity
  8
0
  6
Continuous
 62
     7
370
    15
100
AcDbSpline
210
0.0
220
0.0
230
1.0
 70
     8
 71
     3
 72
    11
 73
     7
 74
     0
 42
0.00000001
 43
0.00000001
 12
1.0
 22
0.0
 32
0.0
 13
1.0
 23
0.0
 33
0.0
 40
0.0
 40
0.0
 40
0.0
 40
0.0
 40
0.290864166607678
 40
0.5839560789892131
 40
0.8745988053617942
 40
0.9999999999999999
 40
0.9999999999999999
 40
0.9999999999999999
 40
0.9999999999999999
 10
250.3930460355324
 20
106.9247002390298
 30
0.0
 10
250.4061402927867
 20
106.8890369169793
 30
0.0
 10
250.4324290969824
 20
106.8174371253954
 30
0.0
 10
250.5140569044686
 20
106.7345201166069
 30
0.0
 10
250.5971237735576
 20
106.6907150285952
 30
0.0
 10
250.6501563013928
 20
106.6800691704395
 30
0.0
 10
250.6661410136055
 20
106.6768603666011
 30
0.0
  0
ARC
  5
D4
330
1F
100
AcDbEntity
  8
0
  6
Continuous
 62
     7
370
    15
100
AcDbCircle
 10
250.7169769801
 20
107.1057163816
 30
0.0
 40
0.3351601613412089
100
AcDbArc
 50
194.8732623077
 51
348.1534626333
  0
ARC
  5
D5
330
1F
100
AcDbEntity
  8
0
  6
Continuous
 62
     7
370
    15
100
AcDbCircle
 10
251.6188214617
 20
106.9166932012
 30
0.0
 40
0.5862806905880041
100
AcDbArc
 50
74.7421546755
 51
168.1674797951
  0
ARC
  5
D6
330
1F
100
AcDbEntity
  8
0
  6
Continuous
 62
     7
370
    15
100
AcDbCircle
 10
249.8262587567
 20
106.8691757717
 30
0.0
 40
0.5864310787173829
100
AcDbArc
 50
14.8717374618
 51
108.2794474723
  0
ARC
  5
D7
330
1F
100
AcDbEntity
  8
0
  6
Continuous
 62
     7
370
    15
100
AcDbCircle
 10
250.6801511041
 20
108.4129402281
 30
0.0
 40
2.625003922464967
100
AcDbArc
 50
0.0990494898
 51
179.9009505102
  0
LINE
  5
D8
330
1F
100
AcDbEntity
  8
0
  6
Continuous
 62
     7
370
    15
100
AcDbLine
 10
247.2931467332
 20
104.8033321336
 30
0.0
 11
246.9307342922
 21
104.6740381923
 31
0.0
  0
LINE
  5
D9
330
1F
100
AcDbEntity
  8
0
  6
Continuous
 62
     7
370
    15
100
AcDbLine
 10
243.727839153
 20
114.8075786942
 30
0.0
 11
246.9307342922
 21
104.6740381923
 31
0.0
  0
LINE
  5
DA
330
1F
100
AcDbEntity
  8
0
  6
Continuous
 62
     7
370
    15
100
AcDbLine
 10
244.0902515943
 20
114.9368726356
 30
0.0
 11
243.727839153
 21
114.8075786942
 31
0.0
  0
LINE
  5
DB
330
1F
100
AcDbEntity
  8
0
  6
Continuous
 62
     7
370
    15
100
AcDbLine
 10
245.5097387259
 20
113.558174847
 30
0.0
 11
244.0902515943
 21
114.9368726356
 31
0.0
  0
LINE
  5
DC
330
1F
100
AcDbEntity
  8
0
  6
Continuous
 62
     7
370
    15
100
AcDbLine
 10
247.4689073098
 20
104.987544082
 30
0.0
 11
247.2931467332
 21
104.8033321336
 31
0.0
  0
SPLINE
  5
DD
330
1F
100
AcDbEntity
  8
0
  6
Continuous
 62
     7
370
    15
100
AcDbSpline
210
0.0
220
0.0
230
1.0
 70
     8
 71
     3
 72
    10
 73
     6
 74
     0
 42
0.00000001
 43
0.00000001
 12
1.0
 22
0.0
 32
0.0
 13
1.0
 23
0.0
 33
0.0
 40
0.0
 40
0.0
 40
0.0
 40
0.0
 40
0.3518022785810055
 40
0.7034245935032161
 40
1.0
 40
1.0
 40
1.0
 40
1.0
 10
246.9121281630223
 20
104.666557370979
 30
0.0
 10
246.9297978015325
 20
104.6254836113715
 30
0.0
 10
246.9651280396892
 20
104.5433571033453
 30
0.0
 10
247.0604522659873
 20
104.453512804223
 30
0.0
 10
247.13655809478
 20
104.4222442043163
 30
0.0
 10
247.1713794407446
 20
104.4079376163394
 30
0.0
  0
LINE
  5
DE
330
1F
100
AcDbEntity
  8
0
  6
Continuous
 62
     7
370
    15
100
AcDbLine
 10
243.7061513275
 20
114.8098479573
 30
0.0
 11
246.912128163
 21
104.666557371
 31
0.0
  0
LINE
  5
DF
330
1F
100
AcDbEntity
  8
0
  6
Continuous
 62
     7
370
    15
100
AcDbLine
 10
254.3703044619
 20
112.1065659272
 30
0.0
 11
244.2022449937
 21
115.3047331643
 31
0.0
  0
SPLINE
  5
E0
330
1F
100
AcDbEntity
  8
0
  6
Continuous
 62
     7
370
    15
100
AcDbSpline
210
0.0
220
0.0
230
1.0
 70
     8
 71
     3
 72
    10
 73
     6
 74
     0
 42
0.00000001
 43
0.00000001
 12
1.0
 22
0.0
 32
0.0
 13
1.0
 23
0.0
 33
0.0
 40
0.0
 40
0.0
 40
0.0
 40
0.0
 40
0.3518022785810774
 40
0.7034245935032072
 40
1.0
 40
1.0
 40
1.0
 40
1.0
 10
254.629555739596
 20
111.8479461725733
 30
0.0
 10
254.6118861010858
 20
111.8890199321808
 30
0.0
 10
254.576555862929
 20
111.9711464402071
 30
0.0
 10
254.4812316366309
 20
112.0609907393293
 30
0.0
 10
254.4051258078383
 20
112.092259339236
 30
0.0
 10
254.3703044618737
 20
112.106565927213
 30
0.0
  0
LINE
  5
E1
330
1F
100
AcDbEntity
  8
0
  6
Continuous
 62
     7
370
    15
100
AcDbLine
 10
257.8355325751
 20
101.7046555863
 30
0.0
 11
254.6295557396
 21
111.8479461726
 31
0.0
  0
SPLINE
  5
E2
330
1F
100
AcDbEntity
  8
0
  6
Continuous
 62
     7
370
    15
100
AcDbSpline
210
0.0
220
0.0
230
1.0
 70
     8
 71
     3
 72
    14
 73
    10
 74
     0
 42
0.00000001
 43
0.00000001
 12
1.0
 22
0.0
 32
0.0
 13
1.0
 23
0.0
 33
0.0
 40
0.0
 40
0.0
 40
0.0
 40
0.0
 40
0.158850110350785
 40
0.3173321153184954
 40
0.4720153553660855
 40
0.6236441635915825
 40
0.7746618341644327
 40
0.9277417761107806
 40
1.0
 40
1.0
 40
1.0
 40
1.0
 10
257.3394389088735
 20
101.2097703792283
 30
0.0
 10
257.3845353387097
 20
101.2002623529782
 30
0.0
 10
257.4746236958509
 20
101.1812683335483
 30
0.0
 10
257.6109646126417
 20
101.2116913619018
 30
0.0
 10
257.726898940279
 20
101.2820815825229
 30
0.0
 10
257.8110616248477
 20
101.3864261429892
 30
0.0
 10
257.8552666810097
 20
101.5116385841032
 30
0.0
 10
257.8575153660336
 20
101.6220733020811
 30
0.0
 10
257.8408701312476
 20
101.6846041024898
 30
0.0
 10
257.8355325751465
 20
101.7046555862638
 30
0.0
  0
LINE
  5
E3
330
1F
100
AcDbEntity
  8
0
  6
Continuous
 62
     7
370
    15
100
AcDbLine
 10
247.1713794407
 20
104.4079376163
 30
0.0
 11
257.3394389089
 21
101.2097703792
 31
0.0
  0
ARC
  5
E4
330
1F
100
AcDbEntity
  8
0
  6
Continuous
 62
     7
370
    15
100
AcDbCircle
 10
244.089949729
 20
114.9212659439
 30
0.0
 40
0.3795376924265625
100
AcDbArc
 50
72.43019991
 51
197.4300603205
  0
ARC
  5
E5
330
1F
100
AcDbEntity
  8
0
  6
Continuous
 62
     7
370
    15
100
AcDbCircle
 10
247.2925668567
 20
104.7886093393
 30
0.0
 40
0.3795383412042052
100
AcDbArc
 50
197.5699397499
 51
252.5697999314
  0
LINE
  5
E6
330
1F
100
AcDbEntity
  8
0
  6
Continuous
 62
     7
370
    15
100
AcDbLine
 10
247.1788785294
 20
104.4264984217
 30
0.0
 11
257.3371641045
 21
101.2314053743
 31
0.0
  0
ARC
  5
E7
330
1F
100
AcDbEntity
  8
0
  6
Continuous
 62
     7
370
    15
100
AcDbCircle
 10
257.4517341736
 20
101.5932375996
 30
0.0
 40
0.3795376924265648
100
AcDbArc
 50
252.4301999099
 51
17.4300603205
  0
LINE
  5
E8
330
1F
100
AcDbEntity
  8
0
  6
Continuous
 62
     7
370
    15
100
AcDbLine
 10
257.8138447496
 20
101.7069248493
 30
0.0
 11
254.6109496107
 21
111.8404653513
 31
0.0
  0
ARC
  5
E9
330
1F
100
AcDbEntity
  8
0
  6
Continuous
 62
     7
370
    15
100
AcDbCircle
 10
254.2491170473
 20
111.7258942052
 30
0.0
 40
0.3795383398850233
100
AcDbArc
 50
17.5699396794
 51
72.5698000901
  0
LINE
  5
EA
330
1F
100
AcDbEntity
  8
0
  6
Continuous
 62
     7
370
    15
100
AcDbLine
 10
254.3628053732
 20
112.0880051219
 30
0.0
 11
244.2045197981
 21
115.2830981692
 31
0.0
  0
SPLINE
  5
EB
330
1F
100
AcDbEntity
  8
0
  6
Continuous
 62
     7
370
    15
100
AcDbSpline
210
0.0
220
0.0
230
1.0
 70
     8
 71
     3
 72
    20
 73
    16
 74
     0
 42
0.00000001
 43
0.00000001
 12
1.0
 22
0.0
 32
0.0
 13
1.0
 23
0.0
 33
0.0
 40
0.0
 40
0.0
 40
0.0
 40
0.0
 40
0.0783075311860645
 40
0.1588910126856659
 40
0.2369785693217779
 40
0.3174398160757263
 40
0.3936615824744922
 40
0.4721830276909664
 40
0.5469240757152822
 40
0.6238523130449377
 40
0.698318962074949
 40
0.7748908420225461
 40
0.8503894607879754
 40
0.9279814901989262
 40
1.0
 40
1.0
 40
1.0
 40
1.0
 10
244.2022449937447
 20
115.304733164324
 30
0.0
 10
244.1803595403059
 20
115.3104857408036
 30
0.0
 10
244.1359525489563
 20
115.3221580881314
 30
0.0
 10
244.0671754355584
 20
115.3252233141883
 30
0.0
 10
243.998419511336
 20
115.3173135847823
 30
0.0
 10
243.9331903037168
 20
115.2978488565939
 30
0.0
 10
243.8722290632548
 20
115.2674936422742
 30
0.0
 10
243.8186900102615
 20
115.2281054408452
 30
0.0
 10
243.7725603806511
 20
115.1800716766571
 30
0.0
 10
243.7358544187404
 20
115.1259098513118
 30
0.0
 10
243.7085702806146
 20
115.0659332472464
 30
0.0
 10
243.6916727464983
 20
115.0026411865078
 30
0.0
 10
243.6855682444697
 20
114.9366260983828
 30
0.0
 10
243.6896065433534
 20
114.8715543411655
 30
0.0
 10
243.7007750886507
 20
114.8298994885829
 30
0.0
 10
243.7061513274718
 20
114.8098479572886
 30
0.0
  0
LINE
  5
EC
330
1F
100
AcDbEntity
  8
0
  6
Continuous
 62
     7
370
    15
100
AcDbLine
 10
244.0902515943
 20
114.9368726356
 30
0.0
 11
244.2045197981
 21
115.2830981692
 31
0.0
  0
LINE
  5
ED
330
1F
100
AcDbEntity
  8
0
  6
Continuous
 62
     7
370
    15
100
AcDbLine
 10
254.2485371694
 20
111.7417795883
 30
0.0
 11
254.3628053732
 21
112.0880051219
 31
0.0
  0
LINE
  5
EE
330
1F
100
AcDbEntity
  8
0
  6
Continuous
 62
     7
370
    15
100
AcDbLine
 10
254.0727765928
 20
111.5753266714
 30
0.0
 11
254.2485371694
 21
111.7417795883
 31
0.0
  0
SPLINE
  5
EF
330
1F
100
AcDbEntity
  8
0
  6
Continuous
 62
     7
370
    15
100
AcDbSpline
210
0.0
220
0.0
230
1.0
 70
     8
 71
     3
 72
    11
 73
     7
 74
     0
 42
0.00000001
 43
0.00000001
 12
1.0
 22
0.0
 32
0.0
 13
1.0
 23
0.0
 33
0.0
 40
0.0
 40
0.0
 40
0.0
 40
0.0
 40
0.0072987238691135
 40
0.1268462096078915
 40
0.5874298328382885
 40
1.0
 40
1.0
 40
1.0
 40
1.0
 10
245.9959093849552
 20
113.0653698112765
 30
0.0
 10
245.9948487159054
 20
113.0664880984285
 30
0.0
 10
245.9764151032581
 20
113.0859230693953
 30
0.0
 10
245.8891121352952
 20
113.1774683472061
 30
0.0
 10
245.725319307698
 20
113.3461339147711
 30
0.0
 10
245.5789154073792
 20
113.4901339877151
 30
0.0
 10
245.5097387259145
 20
113.5581748469768
 30
0.0
  0
ARC
  5
F0
330
1F
100
AcDbEntity
  8
0
  6
Continuous
 62
     7
370
    15
100
AcDbCircle
 10
247.4890928777
 20
111.5294179002
 30
0.0
 40
0.9987834011187863
100
AcDbArc
 50
72.4301998975
 51
197.4300603423
  0
LINE
  5
F1
330
1F
100
AcDbEntity
  8
0
  6
Continuous
 62
     7
370
    15
100
AcDbLine
 10
254.2485371694
 20
111.7417795883
 30
0.0
 11
254.6109496107
 21
111.8404653513
 31
0.0
  0
LINE
  5
F2
330
1F
100
AcDbEntity
  8
0
  6
Continuous
 62
     7
370
    15
100
AcDbLine
 10
257.4514323083
 20
101.6082390863
 30
0.0
 11
257.8138447496
 21
101.7069248493
 31
0.0
  0
LINE
  5
F3
330
1F
100
AcDbEntity
  8
0
  6
Continuous
 62
     7
370
    15
100
AcDbLine
 10
256.0319451767
 20
103.0615999623
 30
0.0
 11
257.4514323083
 21
101.6082390863
 31
0.0
  0
LINE
  5
F4
330
1F
100
AcDbEntity
  8
0
  6
Continuous
 62
     7
370
    15
100
AcDbLine
 10
252.7795046573
 20
110.9124419253
 30
0.0
 11
247.7905930598
 21
112.4816079666
 31
0.0
  0
LINE
  5
F5
330
1F
100
AcDbEntity
  8
0
  6
Continuous
 62
     7
370
    15
100
AcDbLine
 10
255.0055135931
 20
105.2842626167
 30
0.0
 11
253.4325158086
 21
110.2610214764
 31
0.0
  0
ARC
  5
F6
330
1F
100
AcDbEntity
  8
0
  6
Continuous
 62
     7
370
    15
100
AcDbCircle
 10
254.0525910248
 20
104.9850856437
 30
0.0
 40
0.9987834011226298
100
AcDbArc
 50
252.43019991
 51
17.4300603205
  0
LINE
  5
F7
330
1F
100
AcDbEntity
  8
0
  6
Continuous
 62
     7
370
    15
100
AcDbLine
 10
248.7621792453
 20
105.6020616182
 30
0.0
 11
253.7510908429
 21
104.0328955772
 31
0.0
  0
ARC
  5
F8
330
1F
100
AcDbEntity
  8
0
  6
Continuous
 62
     7
370
    15
100
AcDbCircle
 10
249.0613590503
 20
106.5549850832
 30
0.0
 40
0.9987851049601757
100
AcDbArc
 50
197.5699396794
 51
252.5698000902
  0
LINE
  5
F9
330
1F
100
AcDbEntity
  8
0
  6
Continuous
 62
     7
370
    15
100
AcDbLine
 10
246.5361703095
 20
111.2302409268
 30
0.0
 11
248.109168094
 21
106.2534820671
 31
0.0
  0
ARC
  5
FA
330
1F
100
AcDbEntity
  8
0
  6
Continuous
 62
     7
370
    15
100
AcDbCircle
 10
252.4803248523
 20
109.9595184603
 30
0.0
 40
0.9987851049602605
100
AcDbArc
 50
17.5699396794
 51
72.5698000902
  0
CIRCLE
  5
FB
330
1F
100
AcDbEntity
  8
0
  6
Continuous
 62
     7
370
    15
100
AcDbCircle
 10
250.7745850262
 20
108.2521944987
 30
0.0
 40
3.046941251831293
  0
SPLINE
  5
FC
330
1F
100
AcDbEntity
  8
0
  6
Continuous
 62
     7
370
    15
100
AcDbSpline
210
0.0
220
0.0
230
1.0
 70
     8
 71
     3
 72
    11
 73
     7
 74
     0
 42
0.00000001
 43
0.00000001
 12
1.0
 22
0.0
 32
0.0
 13
1.0
 23
0.0
 33
0.0
 40
0.0
 40
0.0
 40
0.0
 40
0.0
 40
0.0092138098389995
 40
0.3448490431109655
 40
0.6722304962507413
 40
1.0
 40
1.0
 40
1.0
 40
1.0
 10
253.5803150871117
 20
111.082345126095
 30
0.0
 10
253.5816776502441
 20
111.0837814724666
 30
0.0
 10
253.6326748599334
 20
111.1375401977358
 30
0.0
 10
253.7419319982074
 20
111.2504861966703
 30
0.0
 10
253.9151606178068
 20
111.4241695762254
 30
0.0
 10
254.0202171925615
 20
111.5249210810385
 30
0.0
 10
254.0727765928201
 20
111.5753266713644
 30
0.0
  0
ARC
  5
FD
330
1F
100
AcDbEntity
  8
0
  6
Continuous
 62
     7
370
    15
100
AcDbCircle
 10
250.7708419513
 20
108.3324199622
 30
0.0
 40
3.050004984992952
100
AcDbArc
 50
180.1035904426
 51
359.8964095574
  0
SPLINE
  5
FE
330
1F
100
AcDbEntity
  8
0
  6
Continuous
 62
     7
370
    15
100
AcDbSpline
210
0.0
220
0.0
230
1.0
 70
     8
 71
     3
 72
    11
 73
     7
 74
     0
 42
0.00000001
 43
0.00000001
 12
1.0
 22
0.0
 32
0.0
 13
1.0
 23
0.0
 33
0.0
 40
0.0
 40
0.0
 40
0.0
 40
0.0
 40
0.3277695037502236
 40
0.6551509568909764
 40
0.9907861901609726
 40
1.0
 40
1.0
 40
1.0
 40
1.0
 10
247.4689073097994
 20
104.987544082008
 30
0.0
 10
247.5214667100581
 20
105.0420012280845
 30
0.0
 10
247.6265232848129
 20
105.1508510477089
 30
0.0
 10
247.7997519044118
 20
105.3227809549303
 30
0.0
 10
247.9090090426851
 20
105.4278169427479
 30
0.0
 10
247.9600062523741
 20
105.4758041835777
 30
0.0
 10
247.9613688155066
 20
105.4770863252004
 30
0.0
  0
LINE
  5
FF
330
1F
100
AcDbEntity
  8
0
  6
Continuous
 62
     7
370
    15
100
AcDbLine
 10
257.4514323083
 20
101.6082390863
 30
0.0
 11
257.3371641045
 21
101.2314053743
 31
0.0
  0
LINE
  5
100
330
1F
100
AcDbEntity
  8
0
  6
Continuous
 62
     7
370
    15
100
AcDbLine
 10
247.2931467332
 20
104.8033321336
 30
0.0
 11
247.1788785294
 21
104.4264984217
 31
0.0
  0
SPLINE
  5
101
330
1F
100
AcDbEntity
  8
0
  6
Continuous
 62
     7
370
    15
100
AcDbSpline
210
0.0
220
0.0
230
1.0
 70
     8
 71
     3
 72
    11
 73
     7
 74
     0
 42
0.00000001
 43
0.00000001
 12
1.0
 22
0.0
 32
0.0
 13
1.0
 23
0.0
 33
0.0
 40
0.0
 40
0.0
 40
0.0
 40
0.0
 40
0.4125701671612959
 40
0.873153790391029
 40
0.992701276130281
 40
1.0
 40
1.0
 40
1.0
 40
1.0
 10
256.0319451767047
 20
103.0615999622553
 30
0.0
 10
255.9627684952395
 20
103.1315754440854
 30
0.0
 10
255.81636459492
 20
103.2796699066948
 30
0.0
 10
255.6525717673246
 20
103.4377920121305
 30
0.0
 10
255.5652687993594
 20
103.5204273389634
 30
0.0
 10
255.5468351867127
 20
103.5377697865827
 30
0.0
 10
255.5457745176629
 20
103.5387676700574
 30
0.0
  0
LINE
  5
102
330
1F
100
AcDbEntity
  8
0
  6
HIDDEN
 62
     7
370
     0
100
AcDbLine
 10
147.8514323083
 20
103.493909377
 30
0.0
 11
147.8514323083
 21
142.893909377
 31
0.0
  0
SPLINE
  5
103
330
1F
100
AcDbEntity
  8
0
  6
HIDDEN
 62
     7
370
     0
100
AcDbSpline
210
0.0
220
0.0
230
1.0
 70
     8
 71
     3
 72
    58
 73
    54
 74
     0
 42
0.00000001
 43
0.00000001
 12
1.0
 22
0.0
 32
0.0
 13
1.0
 23
0.0
 33
0.0
 40
-0.0625
 40
-0.0625
 40
0.0
 40
0.0
 40
0.03125
 40
0.03125
 40
0.0625000000000001
 40
0.0625000000000001
 40
0.0937500000000001
 40
0.0937500000000001
 40
0.1250000000000001
 40
0.1250000000000001
 40
0.1875000000000001
 40
0.1875000000000001
 40
0.2500000000000002
 40
0.2500000000000002
 40
0.2812500000000002
 40
0.2812500000000002
 40
0.3125000000000002
 40
0.3125000000000002
 40
0.3437500000000003
 40
0.3437500000000003
 40
0.3750000000000003
 40
0.3750000000000003
 40
0.4062500000000003
 40
0.4062500000000003
 40
0.4375000000000004
 40
0.4375000000000004
 40
0.4687500000000004
 40
0.4687500000000004
 40
0.5000000000000004
 40
0.5000000000000004
 40
0.5625000000000006
 40
0.5625000000000006
 40
0.6250000000000006
 40
0.6250000000000006
 40
0.6562500000000006
 40
0.6562500000000006
 40
0.6875000000000004
 40
0.6875000000000004
 40
0.7187500000000003
 40
0.7187500000000003
 40
0.7500000000000002
 40
0.7500000000000002
 40
0.7812500000000002
 40
0.7812500000000002
 40
0.8125000000000001
 40
0.8125000000000001
 40
0.84375
 40
0.84375
 40
0.875
 40
0.875
 40
0.9375
 40
0.9375
 40
1.0
 40
1.0
 40
1.03125
 40
1.03125
 10
157.8514323083093
 20
122.929473262569
 30
0.0
 10
157.8514323083093
 20
123.326127434241
 30
0.0
 10
157.8644143459815
 20
123.4561195950815
 30
0.0
 10
157.9152651482398
 20
123.7118392075338
 30
0.0
 10
157.9537570522928
 20
123.8388978913949
 30
0.0
 10
158.0541723380192
 20
124.0810610890537
 30
0.0
 10
158.1156084772923
 20
124.1959028734384
 30
0.0
 10
158.2607419536031
 20
124.4132450710086
 30
0.0
 10
158.3451636424542
 20
124.5160867188564
 30
0.0
 10
158.621763816619
 20
124.792630199608
 30
0.0
 10
158.8447627278861
 20
124.9416128357401
 30
0.0
 10
159.3259972454718
 20
125.1411558992948
 30
0.0
 10
159.5892966609808
 20
125.1937663723262
 30
0.0
 10
159.9808601010211
 20
125.1939804310787
 30
0.0
 10
160.1134477116257
 20
125.1809815816732
 30
0.0
 10
160.370013417225
 20
125.1299314976468
 30
0.0
 10
160.4947231834055
 20
125.0921602588346
 30
0.0
 10
160.7369623684326
 20
124.9919683507221
 30
0.0
 10
160.8539790222063
 20
124.9293829568976
 30
0.0
 10
161.0706222270526
 20
124.784677871187
 30
0.0
 10
161.171628983511
 20
124.7020585298068
 30
0.0
 10
161.3584350791676
 20
124.5154144950168
 30
0.0
 10
161.4411486146995
 20
124.4144686470569
 30
0.0
 10
161.5860187440748
 20
124.1979874433752
 30
0.0
 10
161.6486890401715
 20
124.0810702783668
 30
0.0
 10
161.7491169782077
 20
123.8388738091683
 30
0.0
 10
161.7869881571374
 20
123.7142128182648
 30
0.0
 10
161.8382505549131
 20
123.4578134691968
 30
0.0
 10
161.8513841955538
 20
123.325202543899
 30
0.0
 10
161.8515281286926
 20
122.9335279315639
 30
0.0
 10
161.7991628714279
 20
122.6702439119033
 30
0.0
 10
161.6000022080772
 20
122.1887311980435
 30
0.0
 10
161.4512045347152
 20
121.9656101109985
 30
0.0
 10
161.1749038761291
 20
121.688777962491
 30
0.0
 10
161.0721388290693
 20
121.6042707482067
 30
0.0
 10
160.8549215552749
 20
121.4589498065208
 30
0.0
 10
160.7401518618371
 20
121.3974275832587
 30
0.0
 10
160.4981653246925
 20
121.2968311799867
 30
0.0
 10
160.3710827518011
 20
121.2582032918981
 30
0.0
 10
160.1154080517979
 20
121.2071251818319
 30
0.0
 10
159.9854675344537
 20
121.1940360420648
 30
0.0
 10
159.7212041666924
 20
121.1937845237062
 30
0.0
 10
159.5909932730454
 20
121.2066589937626
 30
0.0
 10
159.3352433276118
 20
121.2572778908946
 30
0.0
 10
159.2082259432445
 20
121.2956257096904
 30
0.0
 10
158.9658742154927
 20
121.3958598298838
 30
0.0
 10
158.8509714362064
 20
121.4572040168738
 30
0.0
 10
158.6335492710574
 20
121.6021090214029
 30
0.0
 10
158.5306128736127
 20
121.6864479135249
 30
0.0
 10
158.2537757164558
 20
121.9628490265667
 30
0.0
 10
158.1046204753917
 20
122.1856926596092
 30
0.0
 10
157.9046498901564
 20
122.6667559408597
 30
0.0
 10
157.8514323083093
 20
122.929473262569
 30
0.0
 10
157.8514323083093
 20
123.326127434241
 30
0.0
  0
SPLINE
  5
104
330
1F
100
AcDbEntity
  8
0
  6
HIDDEN
 62
     7
370
     0
100
AcDbSpline
210
0.0
220
0.0
230
1.0
 70
     8
 71
     3
 72
    12
 73
     8
 74
     0
 42
0.00000001
 43
0.00000001
 12
1.0
 22
0.0
 32
0.0
 13
1.0
 23
0.0
 33
0.0
 40
0.0
 40
0.0
 40
0.0
 40
0.0
 40
0.2500000000000034
 40
0.2500000000000034
 40
0.5000000000000069
 40
0.5000000000000069
 40
1.0
 40
1.0
 40
1.0
 40
1.0
 10
154.7833343103085
 20
117.3646963813653
 30
0.0
 10
154.7458224242639
 20
117.3646963813653
 30
0.0
 10
154.7105350765592
 20
117.3498915670785
 30
0.0
 10
154.6516052283208
 20
117.3062996939527
 30
0.0
 10
154.6280795018517
 20
117.2787862678667
 30
0.0
 10
154.5678207140836
 20
117.1896545357531
 30
0.0
 10
154.5422259517942
 20
117.1232686851353
 30
0.0
 10
154.5235266891732
 20
117.0556642499579
 30
0.0
  0
LINE
  5
105
330
1F
100
AcDbEntity
  8
0
  6
HIDDEN
 62
     7
370
     0
100
AcDbLine
 10
156.9195303063
 20
117.3646963814
 30
0.0
 11
154.7833343103
 21
117.3646963814
 31
0.0
  0
SPLINE
  5
106
330
1F
100
AcDbEntity
  8
0
  6
HIDDEN
 62
     7
370
     0
100
AcDbSpline
210
0.0
220
0.0
230
1.0
 70
     8
 71
     3
 72
    12
 73
     8
 74
     0
 42
0.00000001
 43
0.00000001
 12
1.0
 22
0.0
 32
0.0
 13
1.0
 23
0.0
 33
0.0
 40
0.0
 40
0.0
 40
0.0
 40
0.0
 40
0.4999999999999998
 40
0.4999999999999998
 40
0.7499999999999999
 40
0.7499999999999999
 40
1.0
 40
1.0
 40
1.0
 40
1.0
 10
157.1793379274455
 20
117.0556642499579
 30
0.0
 10
157.1606446943151
 20
117.1232468863983
 30
0.0
 10
157.1349893969032
 20
117.1897294558757
 30
0.0
 10
157.0748287742168
 20
117.2787245387733
 30
0.0
 10
157.0507564624624
 20
117.3067264357724
 30
0.0
 10
156.9923749421119
 20
117.3498028364376
 30
0.0
 10
156.9569061144589
 20
117.3646963813653
 30
0.0
 10
156.9195303063101
 20
117.3646963813653
 30
0.0
  0
ELLIPSE
  5
107
330
1F
100
AcDbEntity
  8
0
  6
HIDDEN
 62
     7
370
     0
100
AcDbEllipse
 10
146.9025031359
 20
123.193909377
 30
0.0
 11
-9.367417879781783
 21
19.74174915274993
 31
0.0
210
0.0
220
0.0
230
1.0
 40
0.3419987131
 41
3.292664382516894
 42
4.239566697061
  0
SPLINE
  5
108
330
1F
100
AcDbEntity
  8
0
  6
HIDDEN
 62
     7
370
     0
100
AcDbSpline
210
0.0
220
0.0
230
1.0
 70
     8
 71
     3
 72
    12
 73
     8
 74
     0
 42
0.00000001
 43
0.00000001
 12
1.0
 22
0.0
 32
0.0
 13
1.0
 23
0.0
 33
0.0
 40
0.0
 40
0.0
 40
0.0
 40
0.0
 40
0.2500000000000028
 40
0.2500000000000028
 40
0.5000000000000056
 40
0.5000000000000056
 40
1.0
 40
1.0
 40
1.0
 40
1.0
 10
156.9195303063102
 20
104.0622529967836
 30
0.0
 10
156.9570421923548
 20
104.0622529967836
 30
0.0
 10
156.9923295400595
 20
104.0667565410462
 30
0.0
 10
157.051259388298
 20
104.0801297404994
 30
0.0
 10
157.074785114767
 20
104.0886146430706
 30
0.0
 10
157.1350439025351
 20
104.1163624469052
 30
0.0
 10
157.1606386648244
 20
104.1373523106455
 30
0.0
 10
157.1793379274455
 20
104.1591530938351
 30
0.0
  0
LINE
  5
109
330
1F
100
AcDbEntity
  8
0
  6
HIDDEN
 62
     7
370
     0
100
AcDbLine
 10
154.7833343103
 20
104.0622529968
 30
0.0
 11
156.9195303063
 21
104.0622529968
 31
0.0
  0
SPLINE
  5
10A
330
1F
100
AcDbEntity
  8
0
  6
HIDDEN
 62
     7
370
     0
100
AcDbSpline
210
0.0
220
0.0
230
1.0
 70
     8
 71
     3
 72
    12
 73
     8
 74
     0
 42
0.00000001
 43
0.00000001
 12
1.0
 22
0.0
 32
0.0
 13
1.0
 23
0.0
 33
0.0
 40
0.0
 40
0.0
 40
0.0
 40
0.0
 40
0.4999999999999947
 40
0.4999999999999947
 40
0.7499999999999973
 40
0.7499999999999973
 40
1.0
 40
1.0
 40
1.0
 40
1.0
 10
154.5235266891732
 20
104.1591530938351
 30
0.0
 10
154.5422199223036
 20
104.1373593402071
 30
0.0
 10
154.5678752197154
 20
104.1163391784975
 30
0.0
 10
154.6280358424019
 20
104.0886338325338
 30
0.0
 10
154.6521081541562
 20
104.0799986163404
 30
0.0
 10
154.7104896745067
 20
104.0667839711138
 30
0.0
 10
154.7459585021598
 20
104.0622529967836
 30
0.0
 10
154.7833343103085
 20
104.0622529967836
 30
0.0
  0
ELLIPSE
  5
10B
330
1F
100
AcDbEntity
  8
0
  6
HIDDEN
 62
     7
370
     0
100
AcDbEllipse
 10
164.8003614807
 20
123.193909377
 30
0.0
 11
9.367417879781584
 21
19.74174915274993
 31
0.0
210
0.0
220
0.0
230
1.0
 40
0.3419987131
 41
2.043618610118593
 42
2.990520924662722
  0
SPLINE
  5
10C
330
1F
100
AcDbEntity
  8
0
  6
HIDDEN
 62
     7
370
     0
100
AcDbSpline
210
0.0
220
0.0
230
1.0
 70
     8
 71
     3
 72
    12
 73
     8
 74
     0
 42
0.00000001
 43
0.00000001
 12
1.0
 22
0.0
 32
0.0
 13
1.0
 23
0.0
 33
0.0
 40
0.0
 40
0.0
 40
0.0
 40
0.0
 40
0.2500000000000027
 40
0.2500000000000027
 40
0.5000000000000053
 40
0.5000000000000053
 40
1.0
 40
1.0
 40
1.0
 40
1.0
 10
154.7833343103085
 20
142.3255657572504
 30
0.0
 10
154.7458224242639
 20
142.3255657572504
 30
0.0
 10
154.7105350765591
 20
142.3210622129879
 30
0.0
 10
154.6516052283207
 20
142.3076890135346
 30
0.0
 10
154.6280795018517
 20
142.2992041109635
 30
0.0
 10
154.5678207140836
 20
142.2714563071289
 30
0.0
 10
154.5422259517942
 20
142.2504664433885
 30
0.0
 10
154.5235266891732
 20
142.228665660199
 30
0.0
  0
LINE
  5
10D
330
1F
100
AcDbEntity
  8
0
  6
HIDDEN
 62
     7
370
     0
100
AcDbLine
 10
156.9195303063
 20
142.3255657573
 30
0.0
 11
154.7833343103
 21
142.3255657573
 31
0.0
  0
SPLINE
  5
10E
330
1F
100
AcDbEntity
  8
0
  6
HIDDEN
 62
     7
370
     0
100
AcDbSpline
210
0.0
220
0.0
230
1.0
 70
     8
 71
     3
 72
    12
 73
     8
 74
     0
 42
0.00000001
 43
0.00000001
 12
1.0
 22
0.0
 32
0.0
 13
1.0
 23
0.0
 33
0.0
 40
0.0
 40
0.0
 40
0.0
 40
0.0
 40
0.5000000000000056
 40
0.5000000000000056
 40
0.7500000000000028
 40
0.7500000000000028
 40
1.0
 40
1.0
 40
1.0
 40
1.0
 10
157.1793379274455
 20
142.228665660199
 30
0.0
 10
157.1606446943151
 20
142.2504594138269
 30
0.0
 10
157.1349893969032
 20
142.2714795755366
 30
0.0
 10
157.0748287742168
 20
142.2991849215003
 30
0.0
 10
157.0507564624624
 20
142.3078201376937
 30
0.0
 10
156.9923749421119
 20
142.3210347829202
 30
0.0
 10
156.9569061144589
 20
142.3255657572504
 30
0.0
 10
156.9195303063101
 20
142.3255657572504
 30
0.0
  0
ELLIPSE
  5
10F
330
1F
100
AcDbEntity
  8
0
  6
HIDDEN
 62
     7
370
     0
100
AcDbEllipse
 10
146.9025031359
 20
123.193909377
 30
0.0
 11
9.367417879781783
 21
19.74174915274993
 31
0.0
210
0.0
220
0.0
230
1.0
 40
0.3419987131
 41
5.18521126370841
 42
6.132113578252569
  0
SPLINE
  5
110
330
1F
100
AcDbEntity
  8
0
  6
HIDDEN
 62
     7
370
     0
100
AcDbSpline
210
0.0
220
0.0
230
1.0
 70
     8
 71
     3
 72
    12
 73
     8
 74
     0
 42
0.00000001
 43
0.00000001
 12
1.0
 22
0.0
 32
0.0
 13
1.0
 23
0.0
 33
0.0
 40
0.0
 40
0.0
 40
0.0
 40
0.0
 40
0.2500000000000016
 40
0.2500000000000016
 40
0.5000000000000032
 40
0.5000000000000032
 40
1.0
 40
1.0
 40
1.0
 40
1.0
 10
156.9195303063102
 20
129.0231223726689
 30
0.0
 10
156.9570421923548
 20
129.0231223726689
 30
0.0
 10
156.9923295400595
 20
129.0379271869557
 30
0.0
 10
157.051259388298
 20
129.0815190600815
 30
0.0
 10
157.074785114767
 20
129.1090324861675
 30
0.0
 10
157.1350439025351
 20
129.1981642182811
 30
0.0
 10
157.1606386648244
 20
129.2645500688989
 30
0.0
 10
157.1793379274455
 20
129.3321545040763
 30
0.0
  0
LINE
  5
111
330
1F
100
AcDbEntity
  8
0
  6
HIDDEN
 62
     7
370
     0
100
AcDbLine
 10
154.7833343103
 20
129.0231223727
 30
0.0
 11
156.9195303063
 21
129.0231223727
 31
0.0
  0
SPLINE
  5
112
330
1F
100
AcDbEntity
  8
0
  6
HIDDEN
 62
     7
370
     0
100
AcDbSpline
210
0.0
220
0.0
230
1.0
 70
     8
 71
     3
 72
    12
 73
     8
 74
     0
 42
0.00000001
 43
0.00000001
 12
1.0
 22
0.0
 32
0.0
 13
1.0
 23
0.0
 33
0.0
 40
0.0
 40
0.0
 40
0.0
 40
0.0
 40
0.4999999999999931
 40
0.4999999999999931
 40
0.7499999999999966
 40
0.7499999999999966
 40
1.0
 40
1.0
 40
1.0
 40
1.0
 10
154.5235266891732
 20
129.3321545040763
 30
0.0
 10
154.5422199223036
 20
129.2645718676359
 30
0.0
 10
154.5678752197154
 20
129.1980892981585
 30
0.0
 10
154.6280358424019
 20
129.109094215261
 30
0.0
 10
154.6521081541562
 20
129.0810923182618
 30
0.0
 10
154.7104896745067
 20
129.0380159175967
 30
0.0
 10
154.7459585021598
 20
129.0231223726689
 30
0.0
 10
154.7833343103085
 20
129.0231223726689
 30
0.0
  0
ELLIPSE
  5
113
330
1F
100
AcDbEntity
  8
0
  6
HIDDEN
 62
     7
370
     0
100
AcDbEllipse
 10
164.8003614807
 20
123.193909377
 30
0.0
 11
-9.367417879781698
 21
19.74174915274996
 31
0.0
210
0.0
220
0.0
230
1.0
 40
0.3419987131
 41
0.151071728927058
 42
1.097974043471192
  0
LINE
  5
114
330
1F
100
AcDbEntity
  8
0
  6
HIDDEN
 62
     7
370
     0
100
AcDbLine
 10
167.8514323083
 20
103.793909377
 30
0.0
 11
167.8514323083
 21
142.5939093722
 31
0.0
  0
LINE
  5
115
330
1F
100
AcDbEntity
  8
0
  6
HIDDEN
 62
     7
370
     0
100
AcDbLine
 10
167.8514323083
 20
105.193909377
 30
0.0
 11
167.8514323083
 21
141.1752555027
 31
0.0
  0
SPLINE
  5
116
330
1F
100
AcDbEntity
  8
0
  6
HIDDEN
 62
     7
370
     0
100
AcDbSpline
210
0.0
220
0.0
230
1.0
 70
     8
 71
     3
 72
    66
 73
    62
 74
     0
 42
0.00000001
 43
0.00000001
 12
1.0
 22
0.0
 32
0.0
 13
1.0
 23
0.0
 33
0.0
 40
-0.0312500000000003
 40
-0.0312500000000003
 40
0.0
 40
0.0
 40
0.0312500000000006
 40
0.0312500000000006
 40
0.0625000000000012
 40
0.0625000000000012
 40
0.0937500000000018
 40
0.0937500000000018
 40
0.1250000000000024
 40
0.1250000000000024
 40
0.156250000000003
 40
0.156250000000003
 40
0.1875000000000036
 40
0.1875000000000036
 40
0.2187500000000042
 40
0.2187500000000042
 40
0.2500000000000048
 40
0.2500000000000048
 40
0.2812500000000054
 40
0.2812500000000054
 40
0.3125000000000061
 40
0.3125000000000061
 40
0.3437500000000067
 40
0.3437500000000067
 40
0.3750000000000072
 40
0.3750000000000072
 40
0.4062500000000078
 40
0.4062500000000078
 40
0.4375000000000084
 40
0.4375000000000084
 40
0.468750000000009
 40
0.468750000000009
 40
0.5000000000000097
 40
0.5000000000000097
 40
0.5625000000000082
 40
0.5625000000000082
 40
0.5937500000000074
 40
0.5937500000000074
 40
0.6250000000000068
 40
0.6250000000000068
 40
0.656250000000006
 40
0.656250000000006
 40
0.6875000000000053
 40
0.6875000000000053
 40
0.7187500000000046
 40
0.7187500000000046
 40
0.7500000000000038
 40
0.7500000000000038
 40
0.7812500000000031
 40
0.7812500000000031
 40
0.8125000000000023
 40
0.8125000000000023
 40
0.8437500000000017
 40
0.8437500000000017
 40
0.8750000000000009
 40
0.8750000000000009
 40
0.9374999999999992
 40
0.9374999999999992
 40
0.9687499999999997
 40
0.9687499999999997
 40
1.0
 40
1.0
 40
1.031250000000001
 40
1.031250000000001
 10
217.685998560588
 20
125.6998121710014
 30
0.0
 10
218.0168660560307
 20
125.6998121710014
 30
0.0
 10
218.1794838037581
 20
125.7160773250757
 30
0.0
 10
218.4993336624932
 20
125.779668330883
 30
0.0
 10
218.6582421543498
 20
125.8277827633728
 30
0.0
 10
218.9608652036754
 20
125.9528637775929
 30
0.0
 10
219.1043552572013
 20
126.0292561643978
 30
0.0
 10
219.3759152325513
 20
126.209131627192
 30
0.0
 10
219.504292789111
 20
126.3134102399888
 30
0.0
 10
219.734499905609
 20
126.5403080344112
 30
0.0
 10
219.837894549521
 20
126.6637736173647
 30
0.0
 10
220.0206645166366
 20
126.9309481903205
 30
0.0
 10
220.0981727408121
 20
127.0723259076949
 30
0.0
 10
220.2229403146128
 20
127.3638876494113
 30
0.0
 10
220.2710760943409
 20
127.5162307182903
 30
0.0
 10
220.335397729233
 20
127.8262965953778
 30
0.0
 10
220.3513390100722
 20
127.9815002622747
 30
0.0
 10
220.351524797733
 20
128.2921575016252
 30
0.0
 10
220.335236785946
 20
128.4491690056608
 30
0.0
 10
220.2713528915168
 20
128.7512604805543
 30
0.0
 10
220.2240884587488
 20
128.8973708063955
 30
0.0
 10
220.0986803479238
 20
129.179925450239
 30
0.0
 10
220.0205135451641
 20
129.3154246726434
 30
0.0
 10
219.8397059116481
 20
129.5654934532843
 30
0.0
 10
219.7361694343222
 20
129.6818621016149
 30
0.0
 10
219.5033362278822
 20
129.8954375855328
 30
0.0
 10
219.3773658930897
 20
129.9896999356967
 30
0.0
 10
219.1069106776468
 20
130.1545602728075
 30
0.0
 10
218.960649425262
 20
130.2257260346998
 30
0.0
 10
218.6582073344642
 20
130.3394030542515
 30
0.0
 10
218.5023878538406
 20
130.3822366430212
 30
0.0
 10
218.1815370926403
 20
130.4402211111959
 30
0.0
 10
218.0156763370455
 20
130.4550375073267
 30
0.0
 10
217.5258503036056
 20
130.4552087348467
 30
0.0
 10
217.196408047579
 20
130.3961610331831
 30
0.0
 10
216.7449501340423
 20
130.2268924280202
 30
0.0
 10
216.5992307557031
 20
130.156372743301
 30
0.0
 10
216.326407720821
 20
129.9904361784047
 30
0.0
 10
216.2006624992758
 20
129.8962052461239
 30
0.0
 10
215.9699965505475
 20
129.6851578635928
 30
0.0
 10
215.8644258436449
 20
129.5670501134795
 30
0.0
 10
215.6830404560437
 20
129.3165719094665
 30
0.0
 10
215.6060950561945
 20
129.1835275333437
 30
0.0
 10
215.4801352899215
 20
128.9011180625331
 30
0.0
 10
215.4319231731364
 20
128.7525632833053
 30
0.0
 10
215.3680042244771
 20
128.4515838256613
 30
0.0
 10
215.3515703371278
 20
128.2972862172022
 30
0.0
 10
215.3512960025208
 20
127.9830240514171
 30
0.0
 10
215.367379608451
 20
127.827630345558
 30
0.0
 10
215.430765494804
 20
127.5202650685225
 30
0.0
 10
215.4788915169977
 20
127.3666496576669
 30
0.0
 10
215.6040972819673
 20
127.0733713184952
 30
0.0
 10
215.6807579927253
 20
126.9334987999777
 30
0.0
 10
215.862104391412
 20
126.6675305353866
 30
0.0
 10
215.967341419053
 20
126.5414617482244
 30
0.0
 10
216.3122859748156
 20
126.2010426732268
 30
0.0
 10
216.5906815020747
 20
126.0157128566972
 30
0.0
 10
217.0415978459505
 20
125.8288814754069
 30
0.0
 10
217.1995460272501
 20
125.7806263885656
 30
0.0
 10
217.5225466074672
 20
125.716079839101
 30
0.0
 10
217.685998560588
 20
125.6998121710014
 30
0.0
 10
218.0168660560307
 20
125.6998121710014
 30
0.0
  0
LINE
  5
117
330
1F
100
AcDbEntity
  8
0
  6
HIDDEN
 62
     7
370
     0
100
AcDbLine
 10
147.8514323083
 20
107.393909377
 30
0.0
 11
147.8514323083
 21
138.993909377
 31
0.0
  0
SPLINE
  5
118
330
1F
100
AcDbEntity
  8
0
  6
HIDDEN
 62
     7
370
     0
100
AcDbSpline
210
0.0
220
0.0
230
1.0
 70
     8
 71
     3
 72
    18
 73
    14
 74
     0
 42
0.00000001
 43
0.00000001
 12
1.0
 22
0.0
 32
0.0
 13
1.0
 23
0.0
 33
0.0
 40
0.0
 40
0.0
 40
0.0
 40
0.0
 40
0.2500000000000007
 40
0.2500000000000007
 40
0.5000000000000013
 40
0.5000000000000013
 40
0.625000000000001
 40
0.625000000000001
 40
0.7500000000000007
 40
0.7500000000000007
 40
0.8750000000000003
 40
0.8750000000000003
 40
1.0
 40
1.0
 40
1.0
 40
1.0
 10
146.5953479907463
 20
133.0183492951683
 30
0.0
 10
146.6296490352791
 20
132.9103391093707
 30
0.0
 10
146.6674693065759
 20
132.8030620213427
 30
0.0
 10
146.7540876270367
 20
132.5915653240262
 30
0.0
 10
146.8024589617802
 20
132.4871789738565
 30
0.0
 10
146.8918619438987
 20
132.3363040512122
 30
0.0
 10
146.9244592277759
 20
132.2869590481766
 30
0.0
 10
147.0008411317208
 20
132.1923534097064
 30
0.0
 10
147.0438795690616
 20
132.1473574749518
 30
0.0
 10
147.1496926018934
 20
132.076429702294
 30
0.0
 10
147.2147310266245
 20
132.0524831583873
 30
0.0
 10
147.3478830984271
 20
132.0647638224582
 30
0.0
 10
147.4072522788903
 20
132.098080780463
 30
0.0
 10
147.456455419434
 20
132.1389156666878
 30
0.0
  0
SPLINE
  5
119
330
1F
100
AcDbEntity
  8
0
  6
HIDDEN
 62
     7
370
     0
100
AcDbSpline
210
0.0
220
0.0
230
1.0
 70
     8
 71
     3
 72
    16
 73
    12
 74
     0
 42
0.00000001
 43
0.00000001
 12
1.0
 22
0.0
 32
0.0
 13
1.0
 23
0.0
 33
0.0
 40
0.0
 40
0.0
 40
0.0
 40
0.0
 40
0.0625000000000013
 40
0.0625000000000013
 40
0.1250000000000025
 40
0.1250000000000025
 40
0.2500000000000009
 40
0.2500000000000009
 40
0.5000000000000023
 40
0.5000000000000023
 40
1.0
 40
1.0
 40
1.0
 40
1.0
 10
147.4564554194033
 20
132.1389156667171
 30
0.0
 10
147.4685252526791
 20
132.1489327156975
 30
0.0
 10
147.4828009076124
 20
132.1578918227532
 30
0.0
 10
147.5142653197368
 20
132.1657622181474
 30
0.0
 10
147.5297658445472
 20
132.1634047275051
 30
0.0
 10
147.5652047411541
 20
132.1464290353271
 30
0.0
 10
147.5787973572575
 20
132.1258805441595
 30
0.0
 10
147.6117916756503
 20
132.0639382171458
 30
0.0
 10
147.6225790689691
 20
132.0175426669407
 30
0.0
 10
147.6476323162482
 20
131.8746066382461
 30
0.0
 10
147.6514323083095
 20
131.7750439213607
 30
0.0
 10
147.6514323083095
 20
131.6732765167141
 30
0.0
  0
LINE
  5
11A
330
1F
100
AcDbEntity
  8
0
  6
HIDDEN
 62
     7
370
     0
100
AcDbLine
 10
147.6514323083
 20
114.7145422373
 30
0.0
 11
147.6514323083
 21
131.6732765167
 31
0.0
  0
SPLINE
  5
11B
330
1F
100
AcDbEntity
  8
0
  6
HIDDEN
 62
     7
370
     0
100
AcDbSpline
210
0.0
220
0.0
230
1.0
 70
     8
 71
     3
 72
    16
 73
    12
 74
     0
 42
0.00000001
 43
0.00000001
 12
1.0
 22
0.0
 32
0.0
 13
1.0
 23
0.0
 33
0.0
 40
0.0
 40
0.0
 40
0.0
 40
0.0
 40
0.5000000000000024
 40
0.5000000000000024
 40
0.7500000000000011
 40
0.7500000000000011
 40
0.8750000000000024
 40
0.8750000000000024
 40
0.9375000000000012
 40
0.9375000000000012
 40
1.0
 40
1.0
 40
1.0
 40
1.0
 10
147.6514323083093
 20
114.7145422373198
 30
0.0
 10
147.6514323083093
 20
114.6125320837397
 30
0.0
 10
147.6475488831504
 20
114.5130077084865
 30
0.0
 10
147.6227335578758
 20
114.3710226124758
 30
0.0
 10
147.6118941101633
 20
114.3240293119053
 30
0.0
 10
147.5786783281144
 20
114.2617365815437
 30
0.0
 10
147.5652965844857
 20
114.2414551492586
 30
0.0
 10
147.5297869346234
 20
114.2244134410581
 30
0.0
 10
147.5143699681226
 20
114.222027186042
 30
0.0
 10
147.482668945974
 20
114.2299631159
 30
0.0
 10
147.4685226610232
 20
114.2388881892747
 30
0.0
 10
147.4564554194336
 20
114.2489030873466
 30
0.0
  0
SPLINE
  5
11C
330
1F
100
AcDbEntity
  8
0
  6
HIDDEN
 62
     7
370
     0
100
AcDbSpline
210
0.0
220
0.0
230
1.0
 70
     8
 71
     3
 72
    18
 73
    14
 74
     0
 42
0.00000001
 43
0.00000001
 12
1.0
 22
0.0
 32
0.0
 13
1.0
 23
0.0
 33
0.0
 40
0.0
 40
0.0
 40
0.0
 40
0.0
 40
0.1249999999999997
 40
0.1249999999999997
 40
0.2499999999999994
 40
0.2499999999999994
 40
0.3749999999999991
 40
0.3749999999999991
 40
0.4999999999999988
 40
0.4999999999999988
 40
0.7499999999999993
 40
0.7499999999999993
 40
1.0
 40
1.0
 40
1.0
 40
1.0
 10
147.4564554194397
 20
114.2489030873539
 30
0.0
 10
147.4077499272976
 20
114.2893249630354
 30
0.0
 10
147.3492398189708
 20
114.3223570845032
 30
0.0
 10
147.2175107006787
 20
114.335634236456
 30
0.0
 10
147.1527517643381
 20
114.3126806494758
 30
0.0
 10
147.0475407914785
 20
114.2436274525562
 30
0.0
 10
147.0043244160386
 20
114.1991598007153
 30
0.0
 10
146.9281459109266
 20
114.1059901413453
 30
0.0
 10
146.8952909495468
 20
114.0568477717845
 30
0.0
 10
146.804922669713
 20
113.9056380368446
 30
0.0
 10
146.7554994353429
 20
113.7994832673164
 30
0.0
 10
146.6678509802948
 20
113.5859016516549
 30
0.0
 10
146.6297918080919
 20
113.4779292204197
 30
0.0
 10
146.5953479907463
 20
113.3694694588657
 30
0.0
  0
SPLINE
  5
11D
330
1F
100
AcDbEntity
  8
0
  6
HIDDEN
 62
     7
370
     0
100
AcDbSpline
210
0.0
220
0.0
230
1.0
 70
     8
 71
     3
 72
     8
 73
     4
 74
     0
 42
0.00000001
 43
0.00000001
 12
1.0
 22
0.0
 32
0.0
 13
1.0
 23
0.0
 33
0.0
 40
0.0
 40
0.0
 40
0.0
 40
0.0
 40
1.0
 40
1.0
 40
1.0
 40
1.0
 10
146.5953479907458
 20
113.3694694588652
 30
0.0
 10
146.5710342868556
 20
113.2929083013151
 30
0.0
 10
146.5495376448995
 20
113.2164829301819
 30
0.0
 10
146.5301119647496
 20
113.1403900594102
 30
0.0
  0
SPLINE
  5
11E
330
1F
100
AcDbEntity
  8
0
  6
HIDDEN
 62
     7
370
     0
100
AcDbSpline
210
0.0
220
0.0
230
1.0
 70
     8
 71
     3
 72
     8
 73
     4
 74
     0
 42
0.00000001
 43
0.00000001
 12
1.0
 22
0.0
 32
0.0
 13
1.0
 23
0.0
 33
0.0
 40
0.0
 40
0.0
 40
0.0
 40
0.0
 40
1.0
 40
1.0
 40
1.0
 40
1.0
 10
146.5301119647496
 20
109.3688453690118
 30
0.0
 10
146.549537391643
 20
109.3653481654245
 30
0.0
 10
146.5710339456119
 20
109.3633318477823
 30
0.0
 10
146.5953479907463
 20
109.3627209943384
 30
0.0
  0
SPLINE
  5
11F
330
1F
100
AcDbEntity
  8
0
  6
HIDDEN
 62
     7
370
     0
100
AcDbSpline
210
0.0
220
0.0
230
1.0
 70
     8
 71
     3
 72
     8
 73
     4
 74
     0
 42
0.00000001
 43
0.00000001
 12
1.0
 22
0.0
 32
0.0
 13
1.0
 23
0.0
 33
0.0
 40
0.0
 40
0.0
 40
0.0
 40
0.0
 40
1.0
 40
1.0
 40
1.0
 40
1.0
 10
147.6285812952033
 20
109.2733626032803
 30
0.0
 10
147.6475182273691
 20
109.2454081658788
 30
0.0
 10
147.6514323083095
 20
109.2253243145225
 30
0.0
 10
147.6514323083095
 20
109.2090974703571
 30
0.0
  0
LINE
  5
120
330
1F
100
AcDbEntity
  8
0
  6
HIDDEN
 62
     7
370
     0
100
AcDbLine
 10
147.6514323083
 20
109.1040890981
 30
0.0
 11
147.6514323083
 21
109.2090974704
 31
0.0
  0
LINE
  5
121
330
1F
100
AcDbEntity
  8
0
  6
HIDDEN
 62
     7
370
     0
100
AcDbLine
 10
147.6514323083
 20
137.1787212837
 30
0.0
 11
147.6514323083
 21
137.2837296559
 31
0.0
  0
SPLINE
  5
122
330
1F
100
AcDbEntity
  8
0
  6
HIDDEN
 62
     7
370
     0
100
AcDbSpline
210
0.0
220
0.0
230
1.0
 70
     8
 71
     3
 72
     8
 73
     4
 74
     0
 42
0.00000001
 43
0.00000001
 12
1.0
 22
0.0
 32
0.0
 13
1.0
 23
0.0
 33
0.0
 40
0.0
 40
0.0
 40
0.0
 40
0.0
 40
1.0
 40
1.0
 40
1.0
 40
1.0
 10
146.595347990746
 20
137.0250977596956
 30
0.0
 10
146.5710339456117
 20
137.0244869062517
 30
0.0
 10
146.5495373916428
 20
137.0224705886095
 30
0.0
 10
146.5301119647496
 20
137.0189733850222
 30
0.0
  0
SPLINE
  5
123
330
1F
100
AcDbEntity
  8
0
  6
HIDDEN
 62
     7
370
     0
100
AcDbSpline
210
0.0
220
0.0
230
1.0
 70
     8
 71
     3
 72
     8
 73
     4
 74
     0
 42
0.00000001
 43
0.00000001
 12
1.0
 22
0.0
 32
0.0
 13
1.0
 23
0.0
 33
0.0
 40
0.0
 40
0.0
 40
0.0
 40
0.0
 40
1.0
 40
1.0
 40
1.0
 40
1.0
 10
146.5301119647496
 20
133.2474286946237
 30
0.0
 10
146.5495376448995
 20
133.171335823852
 30
0.0
 10
146.5710342868556
 20
133.0949104527189
 30
0.0
 10
146.5953479907458
 20
133.0183492951688
 30
0.0
  0
LINE
  5
124
330
1F
100
AcDbEntity
  8
0
  6
HIDDEN
 62
     7
370
     0
100
AcDbLine
 10
147.6514323083
 20
109.2090974704
 30
0.0
 11
147.6514323083
 21
117.6884646101
 31
0.0
  0
LINE
  5
125
330
1F
100
AcDbEntity
  8
0
  6
HIDDEN
 62
     7
370
     0
100
AcDbLine
 10
147.6514323083
 20
128.699354144
 30
0.0
 11
147.6514323083
 21
137.1787212837
 31
0.0
  0
SPLINE
  5
126
330
1F
100
AcDbEntity
  8
0
  6
HIDDEN
 62
     7
370
     0
100
AcDbSpline
210
0.0
220
0.0
230
1.0
 70
     8
 71
     3
 72
    62
 73
    58
 74
     0
 42
0.00000001
 43
0.00000001
 12
1.0
 22
0.0
 32
0.0
 13
1.0
 23
0.0
 33
0.0
 40
-0.0312499999999999
 40
-0.0312499999999999
 40
0.0
 40
0.0
 40
0.0312499999999976
 40
0.0312499999999976
 40
0.0624999999999952
 40
0.0624999999999952
 40
0.1249999999999932
 40
0.1249999999999932
 40
0.1874999999999912
 40
0.1874999999999912
 40
0.2187499999999908
 40
0.2187499999999908
 40
0.2499999999999903
 40
0.2499999999999903
 40
0.2812499999999899
 40
0.2812499999999899
 40
0.3124999999999895
 40
0.3124999999999895
 40
0.343749999999989
 40
0.343749999999989
 40
0.3749999999999885
 40
0.3749999999999885
 40
0.4374999999999876
 40
0.4374999999999876
 40
0.4687499999999885
 40
0.4687499999999885
 40
0.4999999999999895
 40
0.4999999999999895
 40
0.5312499999999903
 40
0.5312499999999903
 40
0.5624999999999913
 40
0.5624999999999913
 40
0.5937499999999922
 40
0.5937499999999922
 40
0.6249999999999932
 40
0.6249999999999932
 40
0.6562499999999941
 40
0.6562499999999941
 40
0.6874999999999951
 40
0.6874999999999951
 40
0.718749999999996
 40
0.718749999999996
 40
0.7499999999999969
 40
0.7499999999999969
 40
0.7812499999999979
 40
0.7812499999999979
 40
0.8124999999999988
 40
0.8124999999999988
 40
0.8750000000000006
 40
0.8750000000000006
 40
0.9062500000000004
 40
0.9062500000000004
 40
0.9375000000000002
 40
0.9375000000000002
 40
0.9687500000000001
 40
0.9687500000000001
 40
1.0
 40
1.0
 40
1.031249999999998
 40
1.031249999999998
 10
217.7102340843295
 20
120.0548948519622
 30
0.0
 10
217.9926305322893
 20
120.0548948519622
 30
0.0
 10
218.130908409303
 20
120.0657903564838
 30
0.0
 10
218.4020744805109
 20
120.1084341585025
 30
0.0
 10
218.5362778079704
 20
120.1407737718374
 30
0.0
 10
218.9153409877605
 20
120.2666344325688
 30
0.0
 10
219.1443479094543
 20
120.390971703705
 30
0.0
 10
219.525378528457
 20
120.7087570751778
 30
0.0
 10
219.6810016053787
 20
120.9058292175962
 30
0.0
 10
219.8400720819473
 20
121.2425455369206
 30
0.0
 10
219.8817992270907
 20
121.3642376245196
 30
0.0
 10
219.9370699282327
 20
121.6148028568117
 30
0.0
 10
219.9511498597225
 20
121.7437729553784
 30
0.0
 10
219.9517064260438
 20
122.0094466973215
 30
0.0
 10
219.9377171486231
 20
122.1459647950584
 30
0.0
 10
219.8832356293875
 20
122.4126634049788
 30
0.0
 10
219.8423851712326
 20
122.5456786934315
 30
0.0
 10
219.7357712043732
 20
122.8036398096469
 30
0.0
 10
219.6710190621002
 20
122.9267732436471
 30
0.0
 10
219.5194605201476
 20
123.1615759133275
 30
0.0
 10
219.4321223969745
 20
123.2734257211479
 30
0.0
 10
219.146345976013
 20
123.5783409343907
 30
0.0
 10
218.9168096275472
 20
123.748486398618
 30
0.0
 10
218.5404914915529
 20
123.9241227035207
 30
0.0
 10
218.4081585831922
 20
123.9703348002223
 30
0.0
 10
218.1341259242014
 20
124.0330529699958
 30
0.0
 10
217.9961007645793
 20
124.0489035318231
 30
0.0
 10
217.7180293833605
 20
124.0497438863256
 30
0.0
 10
217.5763164446902
 20
124.0341247463769
 30
0.0
 10
217.3038941890099
 20
123.9730606849641
 30
0.0
 10
217.1720660445128
 20
123.9280069039714
 30
0.0
 10
216.9166671489082
 20
123.8100495908726
 30
0.0
 10
216.7965011457189
 20
123.7386758904781
 30
0.0
 10
216.5713297331626
 20
123.574474868087
 30
0.0
 10
216.4651786718282
 20
123.4804312107097
 30
0.0
 10
216.273731383126
 20
123.2770516200711
 30
0.0
 10
216.1877973692065
 20
123.1675571303682
 30
0.0
 10
216.0353850511665
 20
122.9330399465706
 30
0.0
 10
215.969201560879
 20
122.8077469107813
 30
0.0
 10
215.8630198623279
 20
122.5527764585898
 30
0.0
 10
215.8220397991121
 20
122.4217667247929
 30
0.0
 10
215.7659596583148
 20
122.1524866249321
 30
0.0
 10
215.7517354828735
 20
122.0171764298791
 30
0.0
 10
215.751138799002
 20
121.7525687872502
 30
0.0
 10
215.7649073665004
 20
121.6206233016477
 30
0.0
 10
215.8197574334425
 20
121.3684393839873
 30
0.0
 10
215.860253946719
 20
121.2489383199629
 30
0.0
 10
216.0197164178951
 20
120.9084022249142
 30
0.0
 10
216.1743848422093
 20
120.7116735359717
 30
0.0
 10
216.4626928735539
 20
120.47072707081
 30
0.0
 10
216.5667176889017
 20
120.4004153224295
 30
0.0
 10
216.7911369470805
 20
120.2777478147117
 30
0.0
 10
216.913067734941
 20
120.2250091440906
 30
0.0
 10
217.165524886367
 20
120.1410675755253
 30
0.0
 10
217.2964114162842
 20
120.1093424750585
 30
0.0
 10
217.568352333997
 20
120.0661437438742
 30
0.0
 10
217.7102340843295
 20
120.0548948519622
 30
0.0
 10
217.9926305322893
 20
120.0548948519622
 30
0.0
  0
SPLINE
  5
127
330
1F
100
AcDbEntity
  8
0
  6
HIDDEN
 62
     7
370
     0
100
AcDbSpline
210
0.0
220
0.0
230
1.0
 70
     8
 71
     3
 72
    74
 73
    70
 74
     0
 42
0.00000001
 43
0.00000001
 12
1.0
 22
0.0
 32
0.0
 13
1.0
 23
0.0
 33
0.0
 40
0.0
 40
0.0
 40
0.0
 40
0.0
 40
0.0156250000000009
 40
0.0156250000000009
 40
0.0312500000000018
 40
0.0312500000000018
 40
0.0625000000000013
 40
0.0625000000000013
 40
0.0937500000000009
 40
0.0937500000000009
 40
0.1250000000000005
 40
0.1250000000000005
 40
0.1875000000000009
 40
0.1875000000000009
 40
0.2187500000000011
 40
0.2187500000000011
 40
0.2500000000000013
 40
0.2500000000000013
 40
0.2812500000000015
 40
0.2812500000000015
 40
0.3125000000000017
 40
0.3125000000000017
 40
0.3437500000000018
 40
0.3437500000000018
 40
0.3750000000000018
 40
0.3750000000000018
 40
0.4062500000000019
 40
0.4062500000000019
 40
0.4375000000000021
 40
0.4375000000000021
 40
0.4687500000000021
 40
0.4687500000000021
 40
0.5000000000000022
 40
0.5000000000000022
 40
0.5156250000000021
 40
0.5156250000000021
 40
0.5312500000000019
 40
0.5312500000000019
 40
0.5625000000000017
 40
0.5625000000000017
 40
0.5937500000000013
 40
0.5937500000000013
 40
0.6250000000000011
 40
0.6250000000000011
 40
0.6562500000000009
 40
0.6562500000000009
 40
0.6875000000000007
 40
0.6875000000000007
 40
0.7187500000000004
 40
0.7187500000000004
 40
0.7500000000000001
 40
0.7500000000000001
 40
0.7812499999999999
 40
0.7812499999999999
 40
0.8124999999999997
 40
0.8124999999999997
 40
0.8437499999999994
 40
0.8437499999999994
 40
0.8749999999999992
 40
0.8749999999999992
 40
0.906249999999999
 40
0.906249999999999
 40
0.9374999999999987
 40
0.9374999999999987
 40
0.9687499999999983
 40
0.9687499999999983
 40
0.9843749999999992
 40
0.9843749999999992
 40
1.0
 40
1.0
 40
1.0
 40
1.0
 10
218.6284822832048
 20
122.1697569679079
 30
0.0
 10
218.6990284733992
 20
122.1371127098584
 30
0.0
 10
218.7687408791465
 20
122.1037678902329
 30
0.0
 10
218.906708664244
 20
122.0366934910422
 30
0.0
 10
218.9715192430479
 20
122.0046182278757
 30
0.0
 10
219.1536627793929
 20
121.9112180057809
 30
0.0
 10
219.2544131145884
 20
121.8545269241791
 30
0.0
 10
219.4356960381433
 20
121.733745823207
 30
0.0
 10
219.513940857516
 20
121.6712713251642
 30
0.0
 10
219.6530666444123
 20
121.5348782580058
 30
0.0
 10
219.7137289339803
 20
121.4611521914462
 30
0.0
 10
219.86929929085
 20
121.216182582597
 30
0.0
 10
219.9361895122277
 20
121.0247533700708
 30
0.0
 10
219.9556956353346
 20
120.6841987079339
 30
0.0
 10
219.9483774309173
 20
120.5646065550339
 30
0.0
 10
219.9007538271201
 20
120.3100122124111
 30
0.0
 10
219.86034460689
 20
120.1772746601428
 30
0.0
 10
219.7475345306272
 20
119.9122006659689
 30
0.0
 10
219.6732426093348
 20
119.7765051688269
 30
0.0
 10
219.502269958503
 20
119.5215287360532
 30
0.0
 10
219.4033769804333
 20
119.3985000014912
 30
0.0
 10
219.1949468486633
 20
119.1748084837218
 30
0.0
 10
219.0833863016674
 20
119.0717005052963
 30
0.0
 10
218.8591384949131
 20
118.8883400079922
 30
0.0
 10
218.7461101332039
 20
118.8074375584041
 30
0.0
 10
218.5195970866603
 20
118.6624081862238
 30
0.0
 10
218.4064533450547
 20
118.5987269618984
 30
0.0
 10
218.1889213561899
 20
118.4883085130976
 30
0.0
 10
218.083385787324
 20
118.4409847443634
 30
0.0
 10
217.8823916157724
 20
118.3571028969708
 30
0.0
 10
217.7858470192153
 20
118.32063832405
 30
0.0
 10
217.6206860169473
 20
118.2508753516663
 30
0.0
 10
217.5496823564985
 20
118.2174181686963
 30
0.0
 10
217.510351788488
 20
118.1521212107591
 30
0.0
 10
217.5098231865969
 20
118.12813883468
 30
0.0
 10
217.5352390054614
 20
118.0768425563605
 30
0.0
 10
217.5604281847184
 20
118.05035716479
 30
0.0
 10
217.6576301152466
 20
117.9739718261018
 30
0.0
 10
217.7492317380789
 20
117.9274509148146
 30
0.0
 10
217.9453588087908
 20
117.8538042941817
 30
0.0
 10
218.053098662734
 20
117.8256675926339
 30
0.0
 10
218.2735582896781
 20
117.7917894406329
 30
0.0
 10
218.3867501544802
 20
117.7857280286675
 30
0.0
 10
218.6166272255951
 20
117.7989228748388
 30
0.0
 10
218.7346713716131
 20
117.8185491519547
 30
0.0
 10
218.9663331297388
 20
117.8881153707933
 30
0.0
 10
219.0796451891131
 20
117.9375358453859
 30
0.0
 10
219.2991001506846
 20
118.0723269437585
 30
0.0
 10
219.4029126169584
 20
118.1567176568722
 30
0.0
 10
219.5896125692543
 20
118.3591049128469
 30
0.0
 10
219.6730992874021
 20
118.4785869823474
 30
0.0
 10
219.8071770477601
 20
118.7390381998671
 30
0.0
 10
219.8598048383507
 20
118.8840957385243
 30
0.0
 10
219.9297132217686
 20
119.1816860465076
 30
0.0
 10
219.9480831941864
 20
119.3373686611859
 30
0.0
 10
219.9539287599926
 20
119.6459611411476
 30
0.0
 10
219.9417429239741
 20
119.8001017031251
 30
0.0
 10
219.8918789117875
 20
120.1015709800206
 30
0.0
 10
219.8547867818905
 20
120.246701568539
 30
0.0
 10
219.7595163855073
 20
120.5278882116447
 30
0.0
 10
219.7007770466922
 20
120.664911050949
 30
0.0
 10
219.5642572851502
 20
120.9251955391321
 30
0.0
 10
219.4869873515166
 20
121.0483261661479
 30
0.0
 10
219.3095345286133
 20
121.2814449829324
 30
0.0
 10
219.208106426872
 20
121.3934998981062
 30
0.0
 10
219.0301211871427
 20
121.5400783832893
 30
0.0
 10
218.9654603670805
 20
121.585606527766
 30
0.0
 10
218.8316757194484
 20
121.6614758459343
 30
0.0
 10
218.7612589937002
 20
121.692412447465
 30
0.0
 10
218.6917758494543
 20
121.7150610960686
 30
0.0
  0
SPLINE
  5
128
330
1F
100
AcDbEntity
  8
0
  6
HIDDEN
 62
     7
370
     0
100
AcDbSpline
210
0.0
220
0.0
230
1.0
 70
     8
 71
     3
 72
    10
 73
     6
 74
     0
 42
0.00000001
 43
0.00000001
 12
1.0
 22
0.0
 32
0.0
 13
1.0
 23
0.0
 33
0.0
 40
0.0
 40
0.0
 40
0.0
 40
0.0
 40
0.5
 40
0.5
 40
1.0
 40
1.0
 40
1.0
 40
1.0
 10
218.6917758494545
 20
121.7150610960682
 30
0.0
 10
218.6377753715031
 20
121.8075272788209
 30
0.0
 10
218.6005709902353
 20
121.8913700357373
 30
0.0
 10
218.5780198324298
 20
122.0429815212293
 30
0.0
 10
218.5934892891696
 20
122.1110213601246
 30
0.0
 10
218.6284822832052
 20
122.1697569679081
 30
0.0
  0
LWPOLYLINE
  5
129
330
1F
100
AcDbEntity
  8
0
  6
HIDDEN
 62
     7
370
     0
100
AcDbPolyline
 90
       24
 70
   128
 43
0.0
 10
217.8514323083
 20
117.1794697659
 10
218.4180055277
 20
117.2535320525
 10
218.9425586034
 20
117.4702260512
 10
219.3861878333
 20
117.8134805595
 10
219.715991267
 20
118.2578379608
 10
219.9075088924
 20
118.7703422995
 10
219.9465367236
 20
119.3129834732
 10
219.8301802448
 20
119.8455162685
 10
219.5670690836
 20
120.3284451643
 10
219.1767169914
 20
120.7259535335
 10
218.688074597
 20
121.0085599989
 10
218.1373822714
 20
121.1553049318
 10
217.5654823452
 20
121.1553049318
 10
217.0147900196
 20
121.0085599989
 10
216.5261476252
 20
120.7259535335
 10
216.135795533
 20
120.3284451643
 10
215.8726843719
 20
119.8455162685
 10
215.756327893
 20
119.3129834732
 10
215.7953557242
 20
118.7703422995
 10
215.9868733497
 20
118.2578379608
 10
216.3166767833
 20
117.8134805595
 10
216.7603060132
 20
117.4702260512
 10
217.2848590889
 20
117.2535320525
 10
217.8514323083
 20
117.1794697659
  0
LWPOLYLINE
  5
12A
330
1F
100
AcDbEntity
  8
0
  6
HIDDEN
 62
     7
370
     0
100
AcDbPolyline
 90
        9
 70
   128
 43
0.0
 10
218.6284822832
 20
122.1697569679
 10
218.6603217067
 20
122.1578409549
 10
218.685562086
 20
122.1324977395
 10
218.7040235483
 20
122.0939079274
 10
218.7155745301
 20
122.0423465244
 10
218.7201327146
 20
121.9781809771
 10
218.7176656184
 20
121.9018685541
 10
218.708190823
 20
121.8139530872
 10
218.6917758495
 20
121.7150610961
  0
CIRCLE
  5
12B
330
1F
100
AcDbEntity
  8
0
  6
HIDDEN
 62
     7
370
     0
100
AcDbCircle
 10
136.3514323083
 20
123.193909377
 30
0.0
 40
2.299999999999997
  0
LINE
  5
12C
330
1F
100
AcDbEntity
  8
0
  6
HIDDEN
 62
     7
370
     0
100
AcDbLine
 10
124.8784643404
 20
132.7566026811
 30
0.0
 11
124.8784643404
 21
113.6312160729
 31
0.0
  0
LINE
  5
12D
330
1F
100
AcDbEntity
  8
0
  6
HIDDEN
 62
     7
370
     0
100
AcDbLine
 10
123.8514323083
 20
113.0382588527
 30
0.0
 11
123.8514323083
 21
133.3302979708
 31
0.0
  0
LINE
  5
12E
330
1F
100
AcDbEntity
  8
0
  6
HIDDEN
 62
     7
370
     0
100
AcDbLine
 10
128.3784643404
 20
132.4248494847
 30
0.0
 11
128.3784643404
 21
113.9629692693
 31
0.0
  0
LINE
  5
12F
330
1F
100
AcDbEntity
  8
0
  6
HIDDEN
 62
     7
370
     0
100
AcDbLine
 10
131.7784643404
 20
132.193909377
 30
0.0
 11
131.7784643404
 21
114.193909377
 31
0.0
  0
LINE
  5
130
330
1F
100
AcDbEntity
  8
0
  6
HIDDEN
 62
     7
370
     0
100
AcDbLine
 10
126.9784643404
 20
132.193909377
 30
0.0
 11
126.9784643404
 21
114.193909377
 31
0.0
  0
LINE
  5
131
330
1F
100
AcDbEntity
  8
0
  6
HIDDEN
 62
     7
370
     0
100
AcDbLine
 10
127.9784643404
 20
132.193909377
 30
0.0
 11
127.9784643404
 21
114.193909377
 31
0.0
  0
SPLINE
  5
132
330
1F
100
AcDbEntity
  8
0
  6
HIDDEN
 62
     7
370
     0
100
AcDbSpline
210
0.0
220
0.0
230
1.0
 70
     8
 71
     3
 72
    14
 73
    10
 74
     0
 42
0.00000001
 43
0.00000001
 12
1.0
 22
0.0
 32
0.0
 13
1.0
 23
0.0
 33
0.0
 40
0.0
 40
0.0
 40
0.0
 40
0.0
 40
0.25
 40
0.25
 40
0.5
 40
0.5
 40
0.75
 40
0.75
 40
1.0
 40
1.0
 40
1.0
 40
1.0
 10
138.3514323083093
 20
124.329691046177
 30
0.0
 10
138.4496566548123
 20
124.1567276163735
 30
0.0
 10
138.5249714927964
 20
123.9716950619491
 30
0.0
 10
138.6259382029907
 20
123.5886828478146
 30
0.0
 10
138.6513137892809
 20
123.393964294349
 30
0.0
 10
138.6515500145472
 20
122.9965889930834
 30
0.0
 10
138.6258469452117
 20
122.7990966586081
 30
0.0
 10
138.5255268316952
 20
122.417924823977
 30
0.0
 10
138.4496350036076
 20
122.2310530120045
 30
0.0
 10
138.3514323083139
 20
122.0581277078546
 30
0.0
  0
LINE
  5
133
330
1F
100
AcDbEntity
  8
0
  6
HIDDEN
 62
     7
370
     0
100
AcDbLine
 10
138.8514323083
 20
131.6939093057
 30
0.0
 11
138.8514323083
 21
114.693909377
 31
0.0
  0
SPLINE
  5
134
330
1F
100
AcDbEntity
  8
0
  6
HIDDEN
 62
     7
370
     0
100
AcDbSpline
210
0.0
220
0.0
230
1.0
 70
     8
 71
     3
 72
    14
 73
    10
 74
     0
 42
0.00000001
 43
0.00000001
 12
1.0
 22
0.0
 32
0.0
 13
1.0
 23
0.0
 33
0.0
 40
0.0
 40
0.0
 40
0.0
 40
0.0
 40
0.25
 40
0.25
 40
0.5
 40
0.5
 40
0.75
 40
0.75
 40
1.0
 40
1.0
 40
1.0
 40
1.0
 10
138.3514323083093
 20
122.0581277078569
 30
0.0
 10
138.4496566548123
 20
122.2310911376605
 30
0.0
 10
138.5249714927964
 20
122.4161236920849
 30
0.0
 10
138.6259382029907
 20
122.7991359062193
 30
0.0
 10
138.6513137892809
 20
122.993854459685
 30
0.0
 10
138.6515500145472
 20
123.3912297609505
 30
0.0
 10
138.6258469452117
 20
123.5887220954259
 30
0.0
 10
138.5255268316952
 20
123.9698939300569
 30
0.0
 10
138.4496350036076
 20
124.1567657420295
 30
0.0
 10
138.3514323083139
 20
124.3296910461794
 30
0.0
  0
SPLINE
  5
135
330
1F
100
AcDbEntity
  8
0
  6
HIDDEN
 62
     7
370
     0
100
AcDbSpline
210
0.0
220
0.0
230
1.0
 70
     8
 71
     3
 72
    60
 73
    56
 74
     0
 42
0.00000001
 43
0.00000001
 12
1.0
 22
0.0
 32
0.0
 13
1.0
 23
0.0
 33
0.0
 40
0.0
 40
0.0
 40
0.0
 40
0.0
 40
0.0624999999999997
 40
0.0624999999999997
 40
0.1249999999999994
 40
0.1249999999999994
 40
0.1874999999999991
 40
0.1874999999999991
 40
0.2187499999999989
 40
0.2187499999999989
 40
0.2499999999999987
 40
0.2499999999999987
 40
0.3124999999999988
 40
0.3124999999999988
 40
0.3749999999999989
 40
0.3749999999999989
 40
0.4062499999999991
 40
0.4062499999999991
 40
0.4374999999999991
 40
0.4374999999999991
 40
0.4687499999999991
 40
0.4687499999999991
 40
0.4999999999999991
 40
0.4999999999999991
 40
0.5312499999999991
 40
0.5312499999999991
 40
0.5624999999999991
 40
0.5624999999999991
 40
0.5937499999999992
 40
0.5937499999999992
 40
0.6249999999999992
 40
0.6249999999999992
 40
0.6562499999999993
 40
0.6562499999999993
 40
0.6874999999999993
 40
0.6874999999999993
 40
0.7187499999999994
 40
0.7187499999999994
 40
0.7499999999999994
 40
0.7499999999999994
 40
0.7812499999999996
 40
0.7812499999999996
 40
0.8124999999999997
 40
0.8124999999999997
 40
0.8437499999999997
 40
0.8437499999999997
 40
0.8749999999999998
 40
0.8749999999999998
 40
0.9062499999999998
 40
0.9062499999999998
 40
0.9374999999999999
 40
0.9374999999999999
 40
0.9687499999999999
 40
0.9687499999999999
 40
1.0
 40
1.0
 40
1.0
 40
1.0
 10
138.3514323083093
 20
122.0581277078569
 30
0.0
 10
138.2262424067306
 20
121.8376805832414
 30
0.0
 10
138.0693750881625
 20
121.643946854421
 30
0.0
 10
137.6923375683436
 20
121.3082571556586
 30
0.0
 10
137.4806242619227
 20
121.1742797973458
 30
0.0
 10
137.0147342799739
 20
120.9771530526607
 30
0.0
 10
136.7688950489223
 20
120.9179356404388
 30
0.0
 10
136.3894139958277
 20
120.8907289045482
 30
0.0
 10
136.2616682671338
 20
120.89222216969
 30
0.0
 10
136.0112020204657
 20
120.915737975499
 30
0.0
 10
135.8873726376574
 20
120.9376571943032
 30
0.0
 10
135.5201529635588
 20
121.0344937591481
 30
0.0
 10
135.2893839454731
 20
121.1382948805999
 30
0.0
 10
134.8694949840536
 20
121.4170133615279
 30
0.0
 10
134.685236609166
 20
121.5885756530316
 30
0.0
 10
134.4544882216827
 20
121.8872230142984
 30
0.0
 10
134.3854413718937
 20
121.9936905548007
 30
0.0
 10
134.2668767080882
 20
122.2139739031937
 30
0.0
 10
134.2166683393386
 20
122.3286354195951
 30
0.0
 10
134.1348364869808
 20
122.5673160563719
 30
0.0
 10
134.1034855880981
 20
122.6913616832499
 30
0.0
 10
134.0620912100595
 20
122.9394767193583
 30
0.0
 10
134.0515854349952
 20
123.0647144218468
 30
0.0
 10
134.0512824826594
 20
123.3175934774378
 30
0.0
 10
134.061767012276
 20
123.4454731636744
 30
0.0
 10
134.1029070897375
 20
123.6938952248799
 30
0.0
 10
134.133485210286
 20
123.8156941516483
 30
0.0
 10
134.2147679186373
 20
124.0544736811226
 30
0.0
 10
134.2657688051993
 20
124.1715152434292
 30
0.0
 10
134.3843358535623
 20
124.3923404413551
 30
0.0
 10
134.4522246068341
 20
124.4972788049179
 30
0.0
 10
134.6053750445717
 20
124.6962561381473
 30
0.0
 10
134.6909312161442
 20
124.7902642633415
 30
0.0
 10
134.8736425871034
 20
124.9607569482782
 30
0.0
 10
134.9714498867853
 20
125.0381951433276
 30
0.0
 10
135.1802529987023
 20
125.1773610392159
 30
0.0
 10
135.2918351739901
 20
125.2391428482229
 30
0.0
 10
135.5204809734892
 20
125.3422217188236
 30
0.0
 10
135.6384357844603
 20
125.3842257540193
 30
0.0
 10
135.881764229449
 20
125.4489618753161
 30
0.0
 10
136.0081081047921
 20
125.4716351378788
 30
0.0
 10
136.2592140858099
 20
125.4955179340599
 30
0.0
 10
136.3848960795329
 20
125.4971212353266
 30
0.0
 10
136.6365181493247
 20
125.4796544965557
 30
0.0
 10
136.7634157696104
 20
125.4602186059157
 30
0.0
 10
137.0086063358716
 20
125.4016254345921
 30
0.0
 10
137.1277954929051
 20
125.3625625834354
 30
0.0
 10
137.3594805172599
 20
125.2650528613116
 30
0.0
 10
137.4726553216104
 20
125.2060175070231
 30
0.0
 10
137.6847337385461
 20
125.0722137901836
 30
0.0
 10
137.784522517247
 20
124.9972185740388
 30
0.0
 10
137.9717807042359
 20
124.831023509518
 30
0.0
 10
138.0596757411793
 20
124.7391293107765
 30
0.0
 10
138.2178968168112
 20
124.5437651130621
 30
0.0
 10
138.2888347731028
 20
124.4399191593896
 30
0.0
 10
138.3514323083093
 20
124.329691046177
 30
0.0
  0
SPLINE
  5
136
330
1F
100
AcDbEntity
  8
0
  6
HIDDEN
 62
     7
370
     0
100
AcDbSpline
210
0.0
220
0.0
230
1.0
 70
     8
 71
     3
 72
    60
 73
    56
 74
     0
 42
0.00000001
 43
0.00000001
 12
1.0
 22
0.0
 32
0.0
 13
1.0
 23
0.0
 33
0.0
 40
0.0
 40
0.0
 40
0.0
 40
0.0
 40
0.0624999999999997
 40
0.0624999999999997
 40
0.1249999999999994
 40
0.1249999999999994
 40
0.187499999999999
 40
0.187499999999999
 40
0.2187499999999988
 40
0.2187499999999988
 40
0.2499999999999986
 40
0.2499999999999986
 40
0.3124999999999987
 40
0.3124999999999987
 40
0.3749999999999988
 40
0.3749999999999988
 40
0.4062499999999989
 40
0.4062499999999989
 40
0.4374999999999989
 40
0.4374999999999989
 40
0.468749999999999
 40
0.468749999999999
 40
0.499999999999999
 40
0.499999999999999
 40
0.5312499999999991
 40
0.5312499999999991
 40
0.5624999999999991
 40
0.5624999999999991
 40
0.5937499999999992
 40
0.5937499999999992
 40
0.6249999999999992
 40
0.6249999999999992
 40
0.6562499999999993
 40
0.6562499999999993
 40
0.6874999999999993
 40
0.6874999999999993
 40
0.7187499999999994
 40
0.7187499999999994
 40
0.7499999999999994
 40
0.7499999999999994
 40
0.7812499999999996
 40
0.7812499999999996
 40
0.8124999999999997
 40
0.8124999999999997
 40
0.8437499999999997
 40
0.8437499999999997
 40
0.8749999999999998
 40
0.8749999999999998
 40
0.9062499999999998
 40
0.9062499999999998
 40
0.9374999999999999
 40
0.9374999999999999
 40
0.9687499999999999
 40
0.9687499999999999
 40
1.0
 40
1.0
 40
1.0
 40
1.0
 10
138.3514323083093
 20
124.329691046177
 30
0.0
 10
138.2262424067306
 20
124.5501381707926
 30
0.0
 10
138.0693750881625
 20
124.743871899613
 30
0.0
 10
137.6923375683436
 20
125.0795615983754
 30
0.0
 10
137.4806242619227
 20
125.2135389566881
 30
0.0
 10
137.0147342799739
 20
125.4106657013733
 30
0.0
 10
136.7688950489223
 20
125.4698831135951
 30
0.0
 10
136.3894139958277
 20
125.4970898494858
 30
0.0
 10
136.2616682671338
 20
125.4955965843439
 30
0.0
 10
136.0112020204657
 20
125.472080778535
 30
0.0
 10
135.8873726376574
 20
125.4501615597308
 30
0.0
 10
135.5201529635588
 20
125.3533249948859
 30
0.0
 10
135.2893839454731
 20
125.2495238734341
 30
0.0
 10
134.8694949840536
 20
124.9708053925061
 30
0.0
 10
134.685236609166
 20
124.7992431010023
 30
0.0
 10
134.4544882216827
 20
124.5005957397355
 30
0.0
 10
134.3854413718937
 20
124.3941281992333
 30
0.0
 10
134.2668767080882
 20
124.1738448508403
 30
0.0
 10
134.2166683393386
 20
124.0591833344389
 30
0.0
 10
134.1348364869808
 20
123.8205026976621
 30
0.0
 10
134.1034855880981
 20
123.696457070784
 30
0.0
 10
134.0620912100595
 20
123.4483420346756
 30
0.0
 10
134.0515854349952
 20
123.3231043321872
 30
0.0
 10
134.0512824826594
 20
123.0702252765962
 30
0.0
 10
134.061767012276
 20
122.9423455903596
 30
0.0
 10
134.1029070897375
 20
122.6939235291541
 30
0.0
 10
134.133485210286
 20
122.5721246023857
 30
0.0
 10
134.2147679186373
 20
122.3333450729114
 30
0.0
 10
134.2657688051993
 20
122.2163035106047
 30
0.0
 10
134.3843358535623
 20
121.9954783126788
 30
0.0
 10
134.4522246068341
 20
121.890539949116
 30
0.0
 10
134.6053750445717
 20
121.6915626158867
 30
0.0
 10
134.6909312161442
 20
121.5975544906925
 30
0.0
 10
134.8736425871034
 20
121.4270618057557
 30
0.0
 10
134.9714498867853
 20
121.3496236107064
 30
0.0
 10
135.1802529987023
 20
121.2104577148181
 30
0.0
 10
135.2918351739901
 20
121.1486759058111
 30
0.0
 10
135.5204809734892
 20
121.0455970352103
 30
0.0
 10
135.6384357844603
 20
121.0035930000147
 30
0.0
 10
135.881764229449
 20
120.9388568787179
 30
0.0
 10
136.0081081047921
 20
120.9161836161552
 30
0.0
 10
136.2592140858099
 20
120.8923008199741
 30
0.0
 10
136.3848960795329
 20
120.8906975187074
 30
0.0
 10
136.6365181493247
 20
120.9081642574783
 30
0.0
 10
136.7634157696104
 20
120.9276001481182
 30
0.0
 10
137.0086063358716
 20
120.9861933194419
 30
0.0
 10
137.1277954929051
 20
121.0252561705985
 30
0.0
 10
137.3594805172599
 20
121.1227658927223
 30
0.0
 10
137.4726553216104
 20
121.1818012470109
 30
0.0
 10
137.6847337385461
 20
121.3156049638504
 30
0.0
 10
137.784522517247
 20
121.3906001799952
 30
0.0
 10
137.9717807042359
 20
121.556795244516
 30
0.0
 10
138.0596757411793
 20
121.6486894432575
 30
0.0
 10
138.2178968168112
 20
121.8440536409719
 30
0.0
 10
138.2888347731028
 20
121.9478995946443
 30
0.0
 10
138.3514323083093
 20
122.0581277078569
 30
0.0
  0
LINE
  5
137
330
1F
100
AcDbEntity
  8
0
  6
HIDDEN
 62
     7
370
     0
100
AcDbLine
 10
139.7514323083
 20
129.443909377
 30
0.0
 11
139.7514323083
 21
116.943909377
 31
0.0
  0
LINE
  5
138
330
1F
100
AcDbEntity
  8
0
  6
HIDDEN
 62
     7
370
     0
100
AcDbLine
 10
138.8514323083
 20
116.043909377
 30
0.0
 11
138.8514323083
 21
130.3248352052
 31
0.0
  0
LINE
  5
139
330
1F
100
AcDbEntity
  8
0
  6
HIDDEN
 62
     7
370
     0
100
AcDbLine
 10
158.8514323083
 20
129.443909377
 30
0.0
 11
158.8514323083
 21
116.943909377
 31
0.0
  0
LINE
  5
13A
330
1F
100
AcDbEntity
  8
0
  6
HIDDEN
 62
     7
370
     0
100
AcDbLine
 10
160.0531535464
 20
127.443909377
 30
0.0
 11
160.0531535464
 21
118.943909377
 31
0.0
  0
SPLINE
  5
13B
330
1F
100
AcDbEntity
  8
0
  6
HIDDEN
 62
     7
370
     0
100
AcDbSpline
210
0.0
220
0.0
230
1.0
 70
     8
 71
     3
 72
    62
 73
    58
 74
     0
 42
0.00000001
 43
0.00000001
 12
1.0
 22
0.0
 32
0.0
 13
1.0
 23
0.0
 33
0.0
 40
-0.0312499999999996
 40
-0.0312499999999996
 40
0.0
 40
0.0
 40
0.0312499999999991
 40
0.0312499999999991
 40
0.0624999999999983
 40
0.0624999999999983
 40
0.1249999999999994
 40
0.1249999999999994
 40
0.1875000000000005
 40
0.1875000000000005
 40
0.2187500000000004
 40
0.2187500000000004
 40
0.2500000000000004
 40
0.2500000000000004
 40
0.2812500000000004
 40
0.2812500000000004
 40
0.3125000000000004
 40
0.3125000000000004
 40
0.3437500000000003
 40
0.3437500000000003
 40
0.3750000000000003
 40
0.3750000000000003
 40
0.4375000000000003
 40
0.4375000000000003
 40
0.4687500000000002
 40
0.4687500000000002
 40
0.5000000000000002
 40
0.5000000000000002
 40
0.5312500000000002
 40
0.5312500000000002
 40
0.5625000000000002
 40
0.5625000000000002
 40
0.5937500000000003
 40
0.5937500000000003
 40
0.6250000000000003
 40
0.6250000000000003
 40
0.6562500000000003
 40
0.6562500000000003
 40
0.6875000000000003
 40
0.6875000000000003
 40
0.7187500000000004
 40
0.7187500000000004
 40
0.7500000000000004
 40
0.7500000000000004
 40
0.7812500000000004
 40
0.7812500000000004
 40
0.8125000000000004
 40
0.8125000000000004
 40
0.8750000000000017
 40
0.8750000000000017
 40
0.9062500000000012
 40
0.9062500000000012
 40
0.9375000000000008
 40
0.9375000000000008
 40
0.9687500000000004
 40
0.9687500000000004
 40
1.0
 40
1.0
 40
1.031249999999999
 40
1.031249999999999
 10
217.9926305322893
 20
122.3384865336321
 30
0.0
 10
217.7102340843295
 20
122.3384865336321
 30
0.0
 10
217.5719562073157
 20
122.3543905956498
 30
0.0
 10
217.3007901361078
 20
122.4157424538468
 30
0.0
 10
217.1665868086484
 20
122.4620062666787
 30
0.0
 10
216.7875236288582
 20
122.6381039341381
 30
0.0
 10
216.5585167071644
 20
122.8078617871431
 30
0.0
 10
216.1774860881616
 20
123.2133841846084
 30
0.0
 10
216.02186301124
 20
123.4533739766188
 30
0.0
 10
215.8627925346713
 20
123.8357105486565
 30
0.0
 10
215.8210653895279
 20
123.9698433361112
 30
0.0
 10
215.7657946883859
 20
124.237030206701
 30
0.0
 10
215.7517147568961
 20
124.3703311531205
 30
0.0
 10
215.7511581905749
 20
124.636174859867
 30
0.0
 10
215.7651474679955
 20
124.7683900095788
 30
0.0
 10
215.8196289872312
 20
125.0186979838544
 30
0.0
 10
215.8604794453861
 20
125.1395198959268
 30
0.0
 10
215.9670934122454
 20
125.3668797554549
 30
0.0
 10
216.0318455545186
 20
125.4718954033908
 30
0.0
 10
216.1834040964711
 20
125.6667202283698
 30
0.0
 10
216.2707422196442
 20
125.7566051823115
 30
0.0
 10
216.5565186406058
 20
125.9956404342946
 30
0.0
 10
216.7860549890714
 20
126.1202803358081
 30
0.0
 10
217.1623731250658
 20
126.2458500081035
 30
0.0
 10
217.2947060334264
 20
126.2781691993703
 30
0.0
 10
217.5687386924172
 20
126.3217723845951
 30
0.0
 10
217.7067638520394
 20
126.3326288617007
 30
0.0
 10
217.9848352332582
 20
126.3332072267912
 30
0.0
 10
218.1265481719285
 20
126.3225087717088
 30
0.0
 10
218.3989704276088
 20
126.2800725109206
 30
0.0
 10
218.5307985721059
 20
126.2485968849025
 30
0.0
 10
218.7861974677105
 20
126.1643228010314
 30
0.0
 10
218.9063634708998
 20
126.1125906111572
 30
0.0
 10
219.1315348834561
 20
125.9903188773684
 30
0.0
 10
219.2376859447905
 20
125.9188322801415
 30
0.0
 10
219.4291332334927
 20
125.7594985934215
 30
0.0
 10
219.5150672474121
 20
125.6715809857346
 30
0.0
 10
219.6674795654522
 20
125.4771920211387
 30
0.0
 10
219.7336630557397
 20
125.3703964138
 30
0.0
 10
219.8398447542907
 20
125.1458744604598
 30
0.0
 10
219.8808248175066
 20
125.0270812006228
 30
0.0
 10
219.9369049583039
 20
124.7746625995246
 30
0.0
 10
219.9511291337452
 20
124.6437282983226
 30
0.0
 10
219.9517258176167
 20
124.3793028715926
 30
0.0
 10
219.9379572501183
 20
124.2431209210019
 30
0.0
 10
219.8831071831762
 20
123.9744351496034
 30
0.0
 10
219.8426106698997
 20
123.8428465915618
 30
0.0
 10
219.6831481987235
 20
123.456533199422
 30
0.0
 10
219.5284797744094
 20
123.2170511300871
 30
0.0
 10
219.2401717430648
 20
122.9096637879164
 30
0.0
 10
219.1361469277169
 20
122.8172010657383
 30
0.0
 10
218.9117276695382
 20
122.6525820896156
 30
0.0
 10
218.7897968816777
 20
122.5798588475742
 30
0.0
 10
218.5373397302517
 20
122.4624224588684
 30
0.0
 10
218.4064532003346
 20
122.4170432377836
 30
0.0
 10
218.1345122826217
 20
122.354904858503
 30
0.0
 10
217.9926305322893
 20
122.3384865336321
 30
0.0
 10
217.7102340843295
 20
122.3384865336321
 30
0.0
  0
LINE
  5
13C
330
1F
100
AcDbEntity
  8
0
  6
HIDDEN
 62
     7
370
     0
100
AcDbLine
 10
222.8514323083
 20
118.943909377
 30
0.0
 11
222.8514323083
 21
127.443909377
 31
0.0
  0
LINE
  5
13D
330
1F
100
AcDbEntity
  8
0
  6
HIDDEN
 62
     7
370
     0
100
AcDbLine
 10
254.464503638
 20
112.0593354602
 30
0.0
 11
247.0652204901
 21
114.386637441
 31
0.0
  0
LINE
  5
13E
330
1F
100
AcDbEntity
  8
0
  6
HIDDEN
 62
     7
370
     0
100
AcDbLine
 10
247.0652204901
 20
114.386637441
 30
0.0
 11
247.0590429396
 21
114.4061824013
 31
0.0
  0
LINE
  5
13F
330
1F
100
AcDbEntity
  8
0
  6
HIDDEN
 62
     7
370
     0
100
AcDbLine
 10
243.6927971002
 20
114.9952238975
 30
0.0
 11
246.9673049668
 21
104.6351101094
 31
0.0
  0
LINE
  5
140
330
1F
100
AcDbEntity
  8
0
  6
HIDDEN
 62
     7
370
     0
100
AcDbLine
 10
246.9673049668
 20
104.6351101094
 30
0.0
 11
246.9207755962
 21
104.6497450266
 31
0.0
  0
LINE
  5
141
330
1F
100
AcDbEntity
  8
0
  6
HIDDEN
 62
     7
370
     0
100
AcDbLine
 10
232.3514323083
 20
123.193909377
 30
0.0
 11
232.3514323083
 21
139.693909377
 31
0.0
  0
ELLIPSE
  5
142
330
1F
100
AcDbEntity
  8
0
  6
HIDDEN
 62
     7
370
     0
100
AcDbEllipse
 10
250.8134825484
 20
123.193909377
 30
0.0
 11
-5.390524936199198
 21
16.49183944377621
 31
0.0
210
0.0
220
0.0
230
1.0
 40
0.0962569477
 41
6.251733123200039
 42
7.822529449994798
  0
SPLINE
  5
143
330
1F
100
AcDbEntity
  8
0
  6
HIDDEN
 62
     7
370
     0
100
AcDbSpline
210
0.0
220
0.0
230
1.0
 70
     8
 71
     3
 72
    16
 73
    12
 74
     0
 42
0.00000001
 43
0.00000001
 12
1.0
 22
0.0
 32
0.0
 13
1.0
 23
0.0
 33
0.0
 40
0.0
 40
0.0
 40
0.0
 40
0.0
 40
0.2500000000000004
 40
0.2500000000000004
 40
0.3750000000000004
 40
0.3750000000000004
 40
0.5000000000000006
 40
0.5000000000000006
 40
0.7500000000000002
 40
0.7500000000000002
 40
1.0
 40
1.0
 40
1.0
 40
1.0
 10
234.9370885617089
 20
108.8273585268193
 30
0.0
 10
234.6507856392432
 20
109.7555775417785
 30
0.0
 10
234.3780910114866
 20
110.7270696365941
 30
0.0
 10
233.9927701200783
 20
112.2510715125911
 30
0.0
 10
233.8683064817378
 20
112.7702461879281
 30
0.0
 10
233.6282070633135
 20
113.8318774707976
 30
0.0
 10
233.5124275978623
 20
114.3753934021772
 30
0.0
 10
233.1856296858121
 20
116.0129267998746
 30
0.0
 10
232.992891549434
 20
117.1228357634347
 30
0.0
 10
232.6626571667281
 20
119.3797501763145
 30
0.0
 10
232.5251441495309
 20
120.5267425941746
 30
0.0
 10
232.4194738340902
 20
121.693909377017
 30
0.0
  0
SPLINE
  5
144
330
1F
100
AcDbEntity
  8
0
  6
HIDDEN
 62
     7
370
     0
100
AcDbSpline
210
0.0
220
0.0
230
1.0
 70
     8
 71
     3
 72
     8
 73
     4
 74
     0
 42
0.00000001
 43
0.00000001
 12
1.0
 22
0.0
 32
0.0
 13
1.0
 23
0.0
 33
0.0
 40
0.0
 40
0.0
 40
0.0
 40
0.0
 40
1.0
 40
1.0
 40
1.0
 40
1.0
 10
232.4194738340903
 20
121.693909377017
 30
0.0
 10
232.3744793486037
 20
122.1908897129991
 30
0.0
 10
232.3514323083093
 20
122.6944644906185
 30
0.0
 10
232.3514323083093
 20
123.193909377017
 30
0.0
  0
SPLINE
  5
145
330
1F
100
AcDbEntity
  8
0
  6
HIDDEN
 62
     7
370
     0
100
AcDbSpline
210
0.0
220
0.0
230
1.0
 70
     8
 71
     3
 72
    18
 73
    14
 74
     0
 42
0.00000001
 43
0.00000001
 12
1.0
 22
0.0
 32
0.0
 13
1.0
 23
0.0
 33
0.0
 40
0.0
 40
0.0
 40
0.0
 40
0.0
 40
0.1250000000000004
 40
0.1250000000000004
 40
0.2500000000000008
 40
0.2500000000000008
 40
0.5000000000000014
 40
0.5000000000000014
 40
0.6250000000000013
 40
0.6250000000000013
 40
0.7500000000000011
 40
0.7500000000000011
 40
1.0
 40
1.0
 40
1.0
 40
1.0
 10
232.6723116544116
 20
106.3731422198015
 30
0.0
 10
232.5664330373839
 20
106.4770688131544
 30
0.0
 10
232.485165388104
 20
106.5818524963417
 30
0.0
 10
232.3767531835583
 20
106.7933047277956
 30
0.0
 10
232.3497671724837
 20
106.9005708742611
 30
0.0
 10
232.3550054736207
 20
107.2196294459962
 30
0.0
 10
232.4722012857535
 20
107.4291005943942
 30
0.0
 10
232.7952413060862
 20
107.7391185503346
 30
0.0
 10
232.9273148024769
 20
107.841763938917
 30
0.0
 10
233.2352579409408
 20
108.0458088319266
 30
0.0
 10
233.411526821034
 20
108.147340946018
 30
0.0
 10
233.9890262300272
 20
108.4459893952826
 30
0.0
 10
234.4404515740526
 20
108.6388104443007
 30
0.0
 10
234.9370885617089
 20
108.8273585268192
 30
0.0
  0
LINE
  5
146
330
1F
100
AcDbEntity
  8
0
  6
HIDDEN
 62
     7
370
     0
100
AcDbLine
 10
247.0652204901
 20
114.386637441
 30
0.0
 11
246.8528180148
 21
114.3261239156
 31
0.0
  0
LINE
  5
147
330
1F
100
AcDbEntity
  8
0
  6
HIDDEN
 62
     7
370
     0
100
AcDbLine
 10
246.8019561823
 20
114.4870440885
 30
0.0
 11
246.8528180148
 21
114.3261239156
 31
0.0
  0
LINE
  5
148
330
1F
100
AcDbEntity
  8
0
  6
HIDDEN
 62
     7
370
     0
100
AcDbLine
 10
243.9261258742
 20
115.292272452
 30
0.0
 11
247.1842343613
 21
104.9840441518
 31
0.0
  0
LINE
  5
149
330
1F
100
AcDbEntity
  8
0
  6
HIDDEN
 62
     7
370
     0
100
AcDbLine
 10
246.9673049668
 20
104.6351101094
 30
0.0
 11
247.1842343613
 21
104.9840441518
 31
0.0
  0
LINE
  5
14A
330
1F
100
AcDbEntity
  8
0
  6
HIDDEN
 62
     7
370
     0
100
AcDbLine
 10
254.2521011628
 20
111.9988219347
 30
0.0
 11
246.8528180148
 21
114.3261239156
 31
0.0
  0
LINE
  5
14B
330
1F
100
AcDbEntity
  8
0
  6
HIDDEN
 62
     7
370
     0
100
AcDbLine
 10
254.2521011628
 20
111.9988219347
 30
0.0
 11
254.464503638
 21
112.0593354602
 31
0.0
  0
ARC
  5
14C
330
1F
100
AcDbEntity
  8
0
  6
HIDDEN
 62
     7
370
     0
100
AcDbCircle
 10
244.9097192755
 20
116.430230584
 30
0.0
 40
1.250168964899565
100
AcDbArc
 50
17.5655796154
 51
182.2915134191
  0
LINE
  5
14D
330
1F
100
AcDbEntity
  8
0
  6
HIDDEN
 62
     7
370
     0
100
AcDbLine
 10
243.9559642938
 20
115.3025023131
 30
0.0
 11
247.119753355
 21
105.2926883166
 31
0.0
  0
LINE
  5
14E
330
1F
100
AcDbEntity
  8
0
  6
HIDDEN
 62
     7
370
     0
100
AcDbLine
 10
247.1842343613
 20
104.9840441518
 30
0.0
 11
247.119753355
 21
105.2926883166
 31
0.0
  0
LINE
  5
14F
330
1F
100
AcDbEntity
  8
0
  6
HIDDEN
 62
     7
370
     0
100
AcDbLine
 10
246.8528180148
 20
114.3261239156
 30
0.0
 11
246.8528180148
 21
114.4307586262
 31
0.0
  0
LINE
  5
150
330
1F
100
AcDbEntity
  8
0
  6
HIDDEN
 62
     7
370
     0
100
AcDbLine
 10
254.0376689621
 20
112.1709021634
 30
0.0
 11
254.2521011628
 21
111.9988219347
 31
0.0
  0
LWPOLYLINE
  5
151
330
1F
100
AcDbEntity
  8
0
  6
HIDDEN
 62
     7
370
     0
100
AcDbPolyline
 90
       24
 70
   128
 43
0.0
 10
217.8514323083
 20
124.2868606365
 10
218.4180055277
 20
124.3609229231
 10
218.9425586034
 20
124.5776169218
 10
219.3861878333
 20
124.9208714302
 10
219.715991267
 20
125.3652288315
 10
219.9075088924
 20
125.8777331701
 10
219.9465367236
 20
126.4203743438
 10
219.8301802448
 20
126.9529071392
 10
219.5670690836
 20
127.4358360349
 10
219.1767169914
 20
127.8333444041
 10
218.688074597
 20
128.1159508695
 10
218.1373822714
 20
128.2626958024
 10
217.5654823452
 20
128.2626958024
 10
217.0147900196
 20
128.1159508695
 10
216.5261476252
 20
127.8333444041
 10
216.135795533
 20
127.4358360349
 10
215.8726843719
 20
126.9529071392
 10
215.756327893
 20
126.4203743438
 10
215.7953557242
 20
125.8777331701
 10
215.9868733497
 20
125.3652288315
 10
216.3166767833
 20
124.9208714302
 10
216.7603060132
 20
124.5776169218
 10
217.2848590889
 20
124.3609229231
 10
217.8514323083
 20
124.2868606365
  0
LINE
  5
152
330
1F
100
AcDbEntity
  8
0
  6
HIDDEN
 62
     7
370
     0
100
AcDbLine
 10
256.7259454134
 20
102.2712456499
 30
0.0
 11
257.0611024102
 21
102.605154934
 31
0.0
  0
CIRCLE
  5
153
330
1F
100
AcDbEntity
  8
0
  6
HIDDEN
 62
     7
370
     0
100
AcDbCircle
 10
250.6792114809
 20
108.6287217942
 30
0.0
 40
2.398220797438957
  0
LINE
  5
154
330
1F
100
AcDbEntity
  8
0
  6
HIDDEN
 62
     7
370
     0
100
AcDbLine
 10
254.0376689621
 20
112.1709021634
 30
0.0
 11
246.8528180148
 21
114.4307586262
 31
0.0
  0
LINE
  5
155
330
1F
100
AcDbEntity
  8
0
  6
HIDDEN
 62
     7
370
     0
100
AcDbLine
 10
246.8528180148
 20
114.4307586262
 30
0.0
 11
246.1015955422
 21
116.8075280869
 31
0.0
  0
LINE
  5
156
330
1F
100
AcDbEntity
  8
0
  6
HIDDEN
 62
     7
370
     0
100
AcDbLine
 10
247.119753355
 20
105.2926883166
 30
0.0
 11
256.7259454134
 21
102.2712456499
 31
0.0
  0
LINE
  5
157
330
1F
100
AcDbEntity
  8
0
  6
HIDDEN
 62
     7
370
     0
100
AcDbLine
 10
257.0611024102
 20
102.605154934
 30
0.0
 11
254.0376689621
 21
112.1709021634
 31
0.0
  0
CIRCLE
  5
158
330
1F
100
AcDbEntity
  8
0
  6
HIDDEN
 62
     7
370
     0
100
AcDbCircle
 10
250.6793240877
 20
108.6795894198
 30
0.0
 40
1.648598053478158
  0
SPLINE
  5
159
330
1F
100
AcDbEntity
  8
0
  6
HIDDEN
 62
     7
370
     0
100
AcDbSpline
210
0.0
220
0.0
230
1.0
 70
     8
 71
     3
 72
     8
 73
     4
 74
     0
 42
0.00000001
 43
0.00000001
 12
1.0
 22
0.0
 32
0.0
 13
1.0
 23
0.0
 33
0.0
 40
0.0
 40
0.0
 40
0.0
 40
0.0
 40
1.0
 40
1.0
 40
1.0
 40
1.0
 10
146.356392330367
 20
109.4548248458594
 30
0.0
 10
146.4071194735736
 20
109.4090705445342
 30
0.0
 10
146.4650068031345
 20
109.3805663986706
 30
0.0
 10
146.5301119647497
 20
109.3688453690118
 30
0.0
  0
LINE
  5
15A
330
1F
100
AcDbEntity
  8
0
  6
HIDDEN
 62
     7
370
     0
100
AcDbLine
 10
146.1514323083
 20
109.2736729887
 30
0.0
 11
146.1514323083
 21
109.1738105925
 31
0.0
  0
SPLINE
  5
15B
330
1F
100
AcDbEntity
  8
0
  6
HIDDEN
 62
     7
370
     0
100
AcDbSpline
210
0.0
220
0.0
230
1.0
 70
     8
 71
     3
 72
    24
 73
    20
 74
     0
 42
0.00000001
 43
0.00000001
 12
1.0
 22
0.0
 32
0.0
 13
1.0
 23
0.0
 33
0.0
 40
0.0
 40
0.0
 40
0.0
 40
0.0
 40
0.2500000000000074
 40
0.2500000000000074
 40
0.37500000000001
 40
0.37500000000001
 40
0.4375000000000124
 40
0.4375000000000124
 40
0.4687500000000122
 40
0.4687500000000122
 40
0.500000000000012
 40
0.500000000000012
 40
0.5625000000000105
 40
0.5625000000000105
 40
0.6250000000000089
 40
0.6250000000000089
 40
0.7500000000000058
 40
0.7500000000000058
 40
1.0
 40
1.0
 40
1.0
 40
1.0
 10
146.1514323083092
 20
109.2736729887018
 30
0.0
 10
146.1518352189447
 20
109.30409722554
 30
0.0
 10
146.153879198285
 20
109.3369553260945
 30
0.0
 10
146.1631164411104
 20
109.3929806932483
 30
0.0
 10
146.1670035040907
 20
109.4125917464338
 30
0.0
 10
146.1779073954963
 20
109.4468660298629
 30
0.0
 10
146.1820494412466
 20
109.4589284553351
 30
0.0
 10
146.1939445149968
 20
109.481247620033
 30
0.0
 10
146.1991915793038
 20
109.4902141323919
 30
0.0
 10
146.2160586456792
 20
109.5078636969201
 30
0.0
 10
146.2238810532085
 20
109.512007981065
 30
0.0
 10
146.2408298538331
 20
109.5184955222425
 30
0.0
 10
146.2482862050512
 20
109.5178986408708
 30
0.0
 10
146.2623461082445
 20
109.5161523768993
 30
0.0
 10
146.2684784933807
 20
109.514321689001
 30
0.0
 10
146.2857732559046
 20
109.5077552794283
 30
0.0
 10
146.2957905743138
 20
109.5018900642695
 30
0.0
 10
146.3241619085574
 20
109.4831453802389
 30
0.0
 10
146.3406973462021
 20
109.468981232152
 30
0.0
 10
146.356392330367
 20
109.4548248458594
 30
0.0
  0
LINE
  5
15C
330
1F
100
AcDbEntity
  8
0
  6
HIDDEN
 62
     7
370
     0
100
AcDbLine
 10
146.1514323083
 20
113.2750142579
 30
0.0
 11
146.1514323083
 21
112.2198713848
 31
0.0
  0
LINE
  5
15D
330
1F
100
AcDbEntity
  8
0
  6
HIDDEN
 62
     7
370
     0
100
AcDbLine
 10
125.3514323083
 20
113.5362984573
 30
0.0
 11
125.3514323083
 21
109.6963789912
 31
0.0
  0
SPLINE
  5
15E
330
1F
100
AcDbEntity
  8
0
  6
HIDDEN
 62
     7
370
     0
100
AcDbSpline
210
0.0
220
0.0
230
1.0
 70
     8
 71
     3
 72
    16
 73
    12
 74
     0
 42
0.00000001
 43
0.00000001
 12
1.0
 22
0.0
 32
0.0
 13
1.0
 23
0.0
 33
0.0
 40
0.0
 40
0.0
 40
0.0
 40
0.0
 40
0.2499999999999998
 40
0.2499999999999998
 40
0.375
 40
0.375
 40
0.5000000000000002
 40
0.5000000000000002
 40
0.7500000000000001
 40
0.7500000000000001
 40
1.0
 40
1.0
 40
1.0
 40
1.0
 10
146.1514323083092
 20
112.2198713847705
 30
0.0
 10
146.0708949764097
 20
111.830864200825
 30
0.0
 10
146.0108576323823
 20
111.4743637591994
 30
0.0
 10
145.9501199252286
 20
110.9878613740105
 30
0.0
 10
145.9347975501158
 20
110.8337824331566
 30
0.0
 10
145.9142147408116
 20
110.5423128746632
 30
0.0
 10
145.909015143786
 20
110.404742990764
 30
0.0
 10
145.9089614906062
 20
110.0264981555743
 30
0.0
 10
145.9291590340842
 20
109.8166170870222
 30
0.0
 10
146.0098371224429
 20
109.4800377881111
 30
0.0
 10
146.0708832870507
 20
109.3537532961933
 30
0.0
 10
146.1514323083093
 20
109.2736729887019
 30
0.0
  0
LINE
  5
15F
330
1F
100
AcDbEntity
  8
0
  6
HIDDEN
 62
     7
370
     0
100
AcDbLine
 10
123.8514323083
 20
113.9693111592
 30
0.0
 11
123.8514323083
 21
110.562404395
 31
0.0
  0
LINE
  5
160
330
1F
100
AcDbEntity
  8
0
  6
HIDDEN
 62
     7
370
     0
100
AcDbLine
 10
125.3514323083
 20
136.6914397629
 30
0.0
 11
125.3514323083
 21
132.8515202967
 31
0.0
  0
LINE
  5
161
330
1F
100
AcDbEntity
  8
0
  6
HIDDEN
 62
     7
370
     0
100
AcDbLine
 10
123.8514323083
 20
135.8254143591
 30
0.0
 11
123.8514323083
 21
132.4185075949
 31
0.0
  0
LINE
  5
162
330
1F
100
AcDbEntity
  8
0
  6
HIDDEN
 62
     7
370
     0
100
AcDbLine
 10
146.1514323083
 20
137.2140081616
 30
0.0
 11
146.1514323083
 21
137.1141457653
 31
0.0
  0
LINE
  5
163
330
1F
100
AcDbEntity
  8
0
  6
HIDDEN
 62
     7
370
     0
100
AcDbLine
 10
146.1514323083
 20
134.1679473693
 30
0.0
 11
146.1514323083
 21
133.1128044961
 31
0.0
  0
SPLINE
  5
164
330
1F
100
AcDbEntity
  8
0
  6
HIDDEN
 62
     7
370
     0
100
AcDbSpline
210
0.0
220
0.0
230
1.0
 70
     8
 71
     3
 72
    16
 73
    12
 74
     0
 42
0.00000001
 43
0.00000001
 12
1.0
 22
0.0
 32
0.0
 13
1.0
 23
0.0
 33
0.0
 40
0.0
 40
0.0
 40
0.0
 40
0.0
 40
0.2499999999999998
 40
0.2499999999999998
 40
0.3749999999999997
 40
0.3749999999999997
 40
0.4999999999999996
 40
0.4999999999999996
 40
0.7499999999999998
 40
0.7499999999999998
 40
1.0
 40
1.0
 40
1.0
 40
1.0
 10
146.1514323083092
 20
137.1141457653319
 30
0.0
 10
146.0708949764097
 20
137.0340770791793
 30
0.0
 10
146.0108576323823
 20
136.9102125876887
 30
0.0
 10
145.9501199252286
 20
136.6595317637558
 30
0.0
 10
145.9347975501158
 20
136.565093159446
 30
0.0
 10
145.9142147408116
 20
136.3537820918265
 30
0.0
 10
145.909015143786
 20
136.2364926370725
 30
0.0
 10
145.9089614906062
 20
135.858456965316
 30
0.0
 10
145.9291590340842
 20
135.5696798115709
 30
0.0
 10
146.0098371224429
 20
134.9198399484297
 30
0.0
 10
146.0708832870507
 20
134.5570110145357
 30
0.0
 10
146.1514323083093
 20
134.1679473692627
 30
0.0
  0
SPLINE
  5
165
330
1F
100
AcDbEntity
  8
0
  6
HIDDEN
 62
     7
370
     0
100
AcDbSpline
210
0.0
220
0.0
230
1.0
 70
     8
 71
     3
 72
    24
 73
    20
 74
     0
 42
0.00000001
 43
0.00000001
 12
1.0
 22
0.0
 32
0.0
 13
1.0
 23
0.0
 33
0.0
 40
0.0
 40
0.0
 40
0.0
 40
0.0
 40
0.2500000000000037
 40
0.2500000000000037
 40
0.3750000000000054
 40
0.3750000000000054
 40
0.4375000000000066
 40
0.4375000000000066
 40
0.5000000000000078
 40
0.5000000000000078
 40
0.5312500000000073
 40
0.5312500000000073
 40
0.5625000000000069
 40
0.5625000000000069
 40
0.6250000000000059
 40
0.6250000000000059
 40
0.7500000000000039
 40
0.7500000000000039
 40
1.0
 40
1.0
 40
1.0
 40
1.0
 10
146.3563923303697
 20
136.9329939081769
 30
0.0
 10
146.3406257420714
 20
136.9187729371887
 30
0.0
 10
146.3240142091167
 20
136.9045426468539
 30
0.0
 10
146.2954878611587
 20
136.8857455916324
 30
0.0
 10
146.2854024273687
 20
136.8798571712912
 30
0.0
 10
146.2679196568338
 20
136.8733197764888
 30
0.0
 10
146.2617120003883
 20
136.8715085624876
 30
0.0
 10
146.2474405001431
 20
136.8699027599811
 30
0.0
 10
146.23987042964
 20
136.869349982595
 30
0.0
 10
146.2224741002047
 20
136.8765487273078
 30
0.0
 10
146.2140148272447
 20
136.8816404760555
 30
0.0
 10
146.1979538626971
 20
136.8994554085347
 30
0.0
 10
146.1931206268508
 20
136.907977823397
 30
0.0
 10
146.1816947071156
 20
136.9298742600458
 30
0.0
 10
146.1776733512331
 20
136.9416147828517
 30
0.0
 10
146.166912856202
 20
136.9756650468051
 30
0.0
 10
146.1630385471411
 20
136.9952400358337
 30
0.0
 10
146.1538656750139
 20
137.051088344515
 30
0.0
 10
146.1518333042992
 20
137.0838661055438
 30
0.0
 10
146.1514323083093
 20
137.1141457653317
 30
0.0
  0
SPLINE
  5
166
330
1F
100
AcDbEntity
  8
0
  6
HIDDEN
 62
     7
370
     0
100
AcDbSpline
210
0.0
220
0.0
230
1.0
 70
     8
 71
     3
 72
     8
 73
     4
 74
     0
 42
0.00000001
 43
0.00000001
 12
1.0
 22
0.0
 32
0.0
 13
1.0
 23
0.0
 33
0.0
 40
0.0
 40
0.0
 40
0.0
 40
0.0
 40
1.0
 40
1.0
 40
1.0
 40
1.0
 10
146.5301119647497
 20
137.0189733850222
 30
0.0
 10
146.4650068031357
 20
137.0072523553635
 30
0.0
 10
146.4071194735756
 20
136.9787482095008
 30
0.0
 10
146.3563923303697
 20
136.932993908177
 30
0.0
  0
LINE
  5
167
330
1F
100
AcDbEntity
  8
0
  6
HIDDEN
 62
     7
370
     0
100
AcDbLine
 10
256.1469025091
 20
103.0520335682
 30
0.0
 11
256.7259454134
 21
102.2712456499
 31
0.0
  0
LINE
  5
168
330
1F
100
AcDbEntity
  8
0
  6
HIDDEN
 62
     7
370
     0
100
AcDbLine
 10
257.0611024102
 20
102.605154934
 30
0.0
 11
256.3484982584
 21
103.56603833
 31
0.0
  0
SPLINE
  5
169
330
1F
100
AcDbEntity
  8
0
  6
HIDDEN
 62
     7
370
     0
100
AcDbSpline
210
0.0
220
0.0
230
1.0
 70
     8
 71
     3
 72
    32
 73
    28
 74
     0
 42
0.00000001
 43
0.00000001
 12
1.0
 22
0.0
 32
0.0
 13
1.0
 23
0.0
 33
0.0
 40
0.0
 40
0.0
 40
0.0
 40
0.0
 40
0.1249999999999998
 40
0.1249999999999998
 40
0.2499999999999995
 40
0.2499999999999995
 40
0.3124999999999992
 40
0.3124999999999992
 40
0.3749999999999988
 40
0.3749999999999988
 40
0.4374999999999984
 40
0.4374999999999984
 40
0.4999999999999983
 40
0.4999999999999983
 40
0.5624999999999982
 40
0.5624999999999982
 40
0.6249999999999983
 40
0.6249999999999983
 40
0.6874999999999984
 40
0.6874999999999984
 40
0.7499999999999984
 40
0.7499999999999984
 40
0.8124999999999986
 40
0.8124999999999986
 40
0.8749999999999987
 40
0.8749999999999987
 40
1.0
 40
1.0
 40
1.0
 40
1.0
 10
252.327159515058
 20
109.3864135964775
 30
0.0
 10
252.3397649562549
 20
109.167144434444
 30
0.0
 10
252.3134581709976
 20
108.9540595404224
 30
0.0
 10
252.1856184418426
 20
108.5395268452063
 30
0.0
 10
252.0858536284975
 20
108.3451582634039
 30
0.0
 10
251.8780910438295
 20
108.0820371926839
 30
0.0
 10
251.7979923564853
 20
107.9983823640992
 30
0.0
 10
251.6206226825452
 20
107.8486743691461
 30
0.0
 10
251.5222165425031
 20
107.7813038993627
 30
0.0
 10
251.3051498282843
 20
107.6672093524755
 30
0.0
 10
251.1896331627053
 20
107.6219811088955
 30
0.0
 10
250.9421216968866
 20
107.5589011073583
 30
0.0
 10
250.8135861126917
 20
107.5423518136
 30
0.0
 10
250.5557397730846
 20
107.5416042170586
 30
0.0
 10
250.4250371792531
 20
107.5578121424744
 30
0.0
 10
250.1786957471857
 20
107.6193155836275
 30
0.0
 10
250.0600850261535
 20
107.6651407568646
 30
0.0
 10
249.8437945261008
 20
107.777804297458
 30
0.0
 10
249.7435740060089
 20
107.8458186731381
 30
0.0
 10
249.5655412783393
 20
107.9952404208503
 30
0.0
 10
249.4866853878363
 20
108.0770074698661
 30
0.0
 10
249.3465718286207
 20
108.2532136440946
 30
0.0
 10
249.2860749169682
 20
108.3470437273274
 30
0.0
 10
249.185041540888
 20
108.540067140658
 30
0.0
 10
249.1439196251954
 20
108.6400187161669
 30
0.0
 10
249.047613544876
 20
108.9501277766107
 30
0.0
 10
249.0205249051555
 20
109.1669296651424
 30
0.0
 10
249.0331426931037
 20
109.3864135964775
 30
0.0
  0
ARC
  5
16A
330
1F
100
AcDbEntity
  8
0
  6
HIDDEN
 62
     7
370
     0
100
AcDbCircle
 10
250.6801511041
 20
109.2841034696
 30
0.0
 40
1.650183040721135
100
AcDbArc
 50
3.5545756407
 51
176.4454243593
  0
ELLIPSE
  5
16B
330
1F
100
AcDbEntity
  8
0
  6
HIDDEN
 62
     7
370
     0
100
AcDbEllipse
 10
280.1702067025
 20
121.693909377
 30
0.0
 11
24.06101560154281
 21
22.41887999910572
 31
0.0
210
0.0
220
0.0
230
1.0
 40
0.2135193148
 41
2.703893128927133
 42
2.741099098689558
  0
ELLIPSE
  5
16C
330
1F
100
AcDbEntity
  8
0
  6
HIDDEN
 62
     7
370
     0
100
AcDbEllipse
 10
189.4591158665
 20
121.693909377
 30
0.0
 11
73.48411303275168
 21
-22.64800636057886
 31
0.0
210
0.0
220
0.0
230
1.0
 40
0.054548757
 41
0.4505874719126565
 42
0.7259972699172456
  0
LINE
  5
16D
330
1F
100
AcDbEntity
  8
0
  6
HIDDEN
 62
     7
370
     0
100
AcDbLine
 10
237.4681906432
 20
108.8273585268
 30
0.0
 11
234.9370885617
 21
108.8273585268
 31
0.0
  0
SPLINE
  5
16E
330
1F
100
AcDbEntity
  8
0
  6
HIDDEN
 62
     7
370
     0
100
AcDbSpline
210
0.0
220
0.0
230
1.0
 70
     8
 71
     3
 72
    12
 73
     8
 74
     0
 42
0.00000001
 43
0.00000001
 12
1.0
 22
0.0
 32
0.0
 13
1.0
 23
0.0
 33
0.0
 40
0.0
 40
0.0
 40
0.0
 40
0.0
 40
0.5
 40
0.5
 40
0.75
 40
0.75
 40
1.0
 40
1.0
 40
1.0
 40
1.0
 10
245.2334807316993
 20
107.4180232050288
 30
0.0
 10
244.018100749424
 20
107.8759607848679
 30
0.0
 10
242.7595061884853
 20
108.2264497799094
 30
0.0
 10
240.812016777534
 20
108.5836103480892
 30
0.0
 10
240.1528172652428
 20
108.6744597428901
 30
0.0
 10
238.8139220567017
 20
108.7966979956571
 30
0.0
 10
238.1419197531649
 20
108.8273585268192
 30
0.0
 10
237.4681906431596
 20
108.8273585268192
 30
0.0
  0
ELLIPSE
  5
16F
330
1F
100
AcDbEntity
  8
0
  6
HIDDEN
 62
     7
370
     0
100
AcDbEllipse
 10
251.9905800498
 20
121.693909377
 30
0.0
 11
-7.514065062580614
 21
22.98862467920327
 31
0.0
210
0.0
220
0.0
230
1.0
 40
0.0962569477
 41
1.53934414281521
 42
2.447171303922123
  0
LWPOLYLINE
  5
170
330
1F
100
AcDbEntity
  8
0
  6
HIDDEN
 62
     7
370
     0
100
AcDbPolyline
 90
       26
 70
   128
 43
0.0
 10
217.8514323083
 20
123.980708487
 10
218.4731570262
 20
124.0554064604
 10
219.0558164936
 20
124.274806832
 10
219.5628000731
 20
124.6251238696
 10
219.9622521221
 20
125.0843458654
 10
220.229073599
 20
125.6236182124
 10
220.3464991294
 20
126.2090564459
 10
220.3071504351
 20
126.8038753285
 10
220.1134999395
 20
127.3707002021
 10
219.7777154152
 20
127.8739153755
 10
219.320895439
 20
128.2819019885
 10
218.77174369
 20
128.5690247418
 10
218.1647653922
 20
128.7172426568
 10
217.5380992244
 20
128.7172426568
 10
216.9311209266
 20
128.5690247418
 10
216.3819691776
 20
128.2819019885
 10
215.9251492014
 20
127.8739153755
 10
215.5893646771
 20
127.3707002021
 10
215.3957141815
 20
126.8038753285
 10
215.3563654872
 20
126.2090564459
 10
215.4737910176
 20
125.6236182124
 10
215.7406124946
 20
125.0843458654
 10
216.1400645435
 20
124.6251238696
 10
216.6470481231
 20
124.274806832
 10
217.2297075904
 20
124.0554064604
 10
217.8514323083
 20
123.980708487
  0
LINE
  5
171
330
1F
100
AcDbEntity
  8
0
  6
HIDDEN
 62
     7
370
     0
100
AcDbLine
 10
123.8514323083
 20
132.4185075949
 30
0.0
 11
123.8514323083
 21
125.0441231907
 31
0.0
  0
LINE
  5
172
330
1F
100
AcDbEntity
  8
0
  6
HIDDEN
 62
     7
370
     0
100
AcDbLine
 10
123.8514323083
 20
121.3436955634
 30
0.0
 11
123.8514323083
 21
113.9693111592
 31
0.0
  0
SPLINE
  5
173
330
1F
100
AcDbEntity
  8
0
  6
HIDDEN
 62
     7
370
     0
100
AcDbSpline
210
0.0
220
0.0
230
1.0
 70
     8
 71
     3
 72
    24
 73
    20
 74
     0
 42
0.00000001
 43
0.00000001
 12
1.0
 22
0.0
 32
0.0
 13
1.0
 23
0.0
 33
0.0
 40
0.0
 40
0.0
 40
0.0
 40
0.0
 40
0.2500000000000098
 40
0.2500000000000098
 40
0.3750000000000143
 40
0.3750000000000143
 40
0.4375000000000164
 40
0.4375000000000164
 40
0.5000000000000185
 40
0.5000000000000185
 40
0.5312500000000173
 40
0.5312500000000173
 40
0.5625000000000161
 40
0.5625000000000161
 40
0.6250000000000138
 40
0.6250000000000138
 40
0.7500000000000092
 40
0.7500000000000092
 40
1.0
 40
1.0
 40
1.0
 40
1.0
 10
146.3563923303697
 20
112.4013156502187
 30
0.0
 10
146.3406234530123
 20
112.3274569582892
 30
0.0
 10
146.3240094711623
 20
112.2537455695534
 30
0.0
 10
146.2954778051572
 20
112.1421987459314
 30
0.0
 10
146.2853903903385
 20
112.104827172803
 30
0.0
 10
146.2679028298842
 20
112.0479276751653
 30
0.0
 10
146.261693268101
 20
112.02882457502
 30
0.0
 10
146.2474157144483
 20
111.9899510607845
 30
0.0
 10
146.2398441666529
 20
111.9700264013511
 30
0.0
 10
146.2224265829747
 20
111.9399541833237
 30
0.0
 10
146.2139440863297
 20
111.9282728045207
 30
0.0
 10
146.1979057744578
 20
111.9210112937718
 30
0.0
 10
146.1930852262543
 20
111.9245895407816
 30
0.0
 10
146.1816760017063
 20
111.9363503960132
 30
0.0
 10
146.1776555212488
 20
111.9480160460637
 30
0.0
 10
146.1669016664285
 20
111.9845513761773
 30
0.0
 10
146.1630289851463
 20
112.0119471095009
 30
0.0
 10
146.1538608353086
 20
112.0966731012569
 30
0.0
 10
146.1518323299396
 20
112.157505223429
 30
0.0
 10
146.1514323083094
 20
112.2198713847706
 30
0.0
  0
SPLINE
  5
174
330
1F
100
AcDbEntity
  8
0
  6
HIDDEN
 62
     7
370
     0
100
AcDbSpline
210
0.0
220
0.0
230
1.0
 70
     8
 71
     3
 72
    24
 73
    20
 74
     0
 42
0.00000001
 43
0.00000001
 12
1.0
 22
0.0
 32
0.0
 13
1.0
 23
0.0
 33
0.0
 40
0.0
 40
0.0
 40
0.0
 40
0.0
 40
0.2500000000000103
 40
0.2500000000000103
 40
0.3750000000000168
 40
0.3750000000000168
 40
0.4375000000000182
 40
0.4375000000000182
 40
0.4687500000000174
 40
0.4687500000000174
 40
0.5000000000000167
 40
0.5000000000000167
 40
0.5625000000000138
 40
0.5625000000000138
 40
0.6250000000000109
 40
0.6250000000000109
 40
0.7500000000000052
 40
0.7500000000000052
 40
1.0
 40
1.0
 40
1.0
 40
1.0
 10
146.1514323083057
 20
134.1679473692656
 30
0.0
 10
146.1518369778813
 20
134.2310381777591
 30
0.0
 10
146.1538804246955
 20
134.2922239002625
 30
0.0
 10
146.1632799899494
 20
134.3777236327658
 30
0.0
 10
146.1672308834781
 20
134.4053040162074
 30
0.0
 10
146.1783831917745
 20
134.44175809832
 30
0.0
 10
146.1826047327009
 20
134.4536165200147
 30
0.0
 10
146.1948124542632
 20
134.4642365713921
 30
0.0
 10
146.2006032245136
 20
134.4670699386162
 30
0.0
 10
146.2175247376233
 20
134.4557553516233
 30
0.0
 10
146.2249308535745
 20
134.4439744658691
 30
0.0
 10
146.2413881068191
 20
134.413933624639
 30
0.0
 10
146.2488446247302
 20
134.3942206710256
 30
0.0
 10
146.2627525540053
 20
134.355818604965
 30
0.0
 10
146.2688444999004
 20
134.3369369550533
 30
0.0
 10
146.2860387922518
 20
134.2806360445211
 30
0.0
 10
146.2960237424555
 20
134.2435599667111
 30
0.0
 10
146.3242697875548
 20
134.1329012958199
 30
0.0
 10
146.3407493245161
 20
134.0597722354107
 30
0.0
 10
146.3563923303759
 20
133.986503103786
 30
0.0
  0
SPLINE
  5
175
330
1F
100
AcDbEntity
  8
0
  6
HIDDEN
 62
     7
370
     0
100
AcDbSpline
210
0.0
220
0.0
230
1.0
 70
     8
 71
     3
 72
     8
 73
     4
 74
     0
 42
0.00000001
 43
0.00000001
 12
1.0
 22
0.0
 32
0.0
 13
1.0
 23
0.0
 33
0.0
 40
0.0
 40
0.0
 40
0.0
 40
0.0
 40
1.0
 40
1.0
 40
1.0
 40
1.0
 10
146.5301119647497
 20
113.1403900594102
 30
0.0
 10
146.4650068031357
 20
112.8853648242046
 30
0.0
 10
146.4071194735756
 20
112.6389128080633
 30
0.0
 10
146.3563923303697
 20
112.4013156502187
 30
0.0
  0
SPLINE
  5
176
330
1F
100
AcDbEntity
  8
0
  6
HIDDEN
 62
     7
370
     0
100
AcDbSpline
210
0.0
220
0.0
230
1.0
 70
     8
 71
     3
 72
     8
 73
     4
 74
     0
 42
0.00000001
 43
0.00000001
 12
1.0
 22
0.0
 32
0.0
 13
1.0
 23
0.0
 33
0.0
 40
0.0
 40
0.0
 40
0.0
 40
0.0
 40
1.0
 40
1.0
 40
1.0
 40
1.0
 10
146.3563923303759
 20
133.986503103786
 30
0.0
 10
146.4071194735804
 20
133.7489059459504
 30
0.0
 10
146.4650068031383
 20
133.502453929819
 30
0.0
 10
146.5301119647497
 20
133.2474286946237
 30
0.0
  0
LINE
  5
177
330
1F
100
AcDbEntity
  8
0
  6
HIDDEN
 62
     7
370
     0
100
AcDbLine
 10
125.3514323083
 20
120.63888114
 30
0.0
 11
125.3514323083
 21
113.5362984573
 31
0.0
  0
LINE
  5
178
330
1F
100
AcDbEntity
  8
0
  6
HIDDEN
 62
     7
370
     0
100
AcDbLine
 10
125.3514323083
 20
132.8515202967
 30
0.0
 11
125.3514323083
 21
125.7489376141
 31
0.0
  0
LINE
  5
179
330
1F
100
AcDbEntity
  8
0
  6
HIDDEN
 62
     7
370
     0
100
AcDbLine
 10
146.1514323083
 20
133.1128044961
 30
0.0
 11
146.1514323083
 21
113.2750142579
 31
0.0
  0
LINE
  5
17A
330
1F
100
AcDbEntity
  8
0
  6
HIDDEN
 62
     7
370
     0
100
AcDbLine
 10
147.6514323083
 20
131.6732765167
 30
0.0
 11
147.6514323083
 21
114.7145422373
 31
0.0
  0
SPLINE
  5
17B
330
1F
100
AcDbEntity
  8
0
  6
HIDDEN
 62
     7
370
     0
100
AcDbSpline
210
0.0
220
0.0
230
1.0
 70
     8
 71
     3
 72
    22
 73
    18
 74
     0
 42
0.00000001
 43
0.00000001
 12
1.0
 22
0.0
 32
0.0
 13
1.0
 23
0.0
 33
0.0
 40
0.0
 40
0.0
 40
0.0
 40
0.0
 40
0.125
 40
0.125
 40
0.25
 40
0.25
 40
0.375
 40
0.375
 40
0.5000000000000001
 40
0.5000000000000001
 40
0.6250000000000001
 40
0.6250000000000001
 40
0.75
 40
0.75
 40
0.875
 40
0.875
 40
1.0
 40
1.0
 40
1.0
 40
1.0
 10
128.0514323083093
 20
120.600964697189
 30
0.0
 10
128.2323686663855
 20
120.7925845564956
 30
0.0
 10
128.4114641151623
 20
120.9862264208827
 30
0.0
 10
128.7623041036744
 20
121.380881674267
 30
0.0
 10
128.9344972115791
 20
121.5818932049345
 30
0.0
 10
129.2602287171983
 20
121.9981043201683
 30
0.0
 10
129.4163049523666
 20
122.2141201604551
 30
0.0
 10
129.6676841662557
 20
122.6794429236198
 30
0.0
 10
129.7615492965745
 20
122.9349821166426
 30
0.0
 10
129.7578213797124
 20
123.4693127517432
 30
0.0
 10
129.660448737225
 20
123.7247336177439
 30
0.0
 10
129.4086279282311
 20
124.1847623336916
 30
0.0
 10
129.2536586727586
 20
124.3985993346202
 30
0.0
 10
128.9288459150333
 20
124.8126379173139
 30
0.0
 10
128.7579528509054
 20
125.0119303893498
 30
0.0
 10
128.4093186113778
 20
125.4039052817839
 30
0.0
 10
128.2313107608493
 20
125.5963545677733
 30
0.0
 10
128.0514323083093
 20
125.7868540568449
 30
0.0
  0
LINE
  5
17C
330
1F
100
AcDbEntity
  8
0
  6
HIDDEN
 62
     7
370
     0
100
AcDbLine
 10
128.0514323083
 20
120.6009646972
 30
0.0
 11
128.0514323083
 21
125.7868540568
 31
0.0
  0
SPLINE
  5
17D
330
1F
100
AcDbEntity
  8
0
  6
HIDDEN
 62
     7
370
     0
100
AcDbSpline
210
0.0
220
0.0
230
1.0
 70
     8
 71
     3
 72
     8
 73
     4
 74
     0
 42
0.00000001
 43
0.00000001
 12
1.0
 22
0.0
 32
0.0
 13
1.0
 23
0.0
 33
0.0
 40
0.0000137051794235
 40
0.0000137051794235
 40
0.0000137051794235
 40
0.0000137051794235
 40
0.0027147144718019
 40
0.0027147144718019
 40
0.0027147144718019
 40
0.0027147144718019
 10
125.3514323083093
 20
120.6388811399553
 30
0.0
 10
126.2514284438041
 20
120.6259095727569
 30
0.0
 10
127.1514286223995
 20
120.6132747154448
 30
0.0
 10
128.0514323083093
 20
120.600964697189
 30
0.0
  0
SPLINE
  5
17E
330
1F
100
AcDbEntity
  8
0
  6
HIDDEN
 62
     7
370
     0
100
AcDbSpline
210
0.0
220
0.0
230
1.0
 70
     8
 71
     3
 72
     8
 73
     4
 74
     0
 42
0.00000001
 43
0.00000001
 12
1.0
 22
0.0
 32
0.0
 13
1.0
 23
0.0
 33
0.0
 40
0.0000137050638847
 40
0.0000137050638847
 40
0.0000137050638847
 40
0.0000137050638847
 40
0.0027147143562632
 40
0.0027147143562632
 40
0.0027147143562632
 40
0.0027147143562632
 10
128.0514323083093
 20
125.7868540568449
 30
0.0
 10
127.1514286223995
 20
125.7745440385892
 30
0.0
 10
126.2514284438041
 20
125.7619091812771
 30
0.0
 10
125.3514323083093
 20
125.7489376140787
 30
0.0
  0
SPLINE
  5
17F
330
1F
100
AcDbEntity
  8
0
  6
HIDDEN
 62
     7
370
     0
100
AcDbSpline
210
0.0
220
0.0
230
1.0
 70
     8
 71
     3
 72
    10
 73
     6
 74
     0
 42
0.00000001
 43
0.00000001
 12
1.0
 22
0.0
 32
0.0
 13
1.0
 23
0.0
 33
0.0
 40
0.0
 40
0.0
 40
0.0
 40
0.0
 40
0.5
 40
0.5
 40
1.0
 40
1.0
 40
1.0
 40
1.0
 10
123.8514323083085
 20
121.3436955633669
 30
0.0
 10
124.0885742690243
 20
121.188080748838
 30
0.0
 10
124.3339170277878
 20
121.0561717194187
 30
0.0
 10
124.8351806165208
 20
120.8245148427812
 30
0.0
 10
125.0912151857711
 20
120.7250692266584
 30
0.0
 10
125.3514323083093
 20
120.6388811399553
 30
0.0
  0
SPLINE
  5
180
330
1F
100
AcDbEntity
  8
0
  6
HIDDEN
 62
     7
370
     0
100
AcDbSpline
210
0.0
220
0.0
230
1.0
 70
     8
 71
     3
 72
    10
 73
     6
 74
     0
 42
0.00000001
 43
0.00000001
 12
1.0
 22
0.0
 32
0.0
 13
1.0
 23
0.0
 33
0.0
 40
0.0
 40
0.0
 40
0.0
 40
0.0
 40
0.5
 40
0.5
 40
1.0
 40
1.0
 40
1.0
 40
1.0
 10
125.3514323083093
 20
125.7489376140787
 30
0.0
 10
125.0912151857713
 20
125.6627495273757
 30
0.0
 10
124.8351806165211
 20
125.5633039112529
 30
0.0
 10
124.3339170277884
 20
125.3316470346156
 30
0.0
 10
124.0885742690251
 20
125.1997380051964
 30
0.0
 10
123.8514323083093
 20
125.0441231906677
 30
0.0
  0
LINE
  5
181
330
1F
100
AcDbEntity
  8
0
  6
HIDDEN
 62
     7
370
     0
100
AcDbLine
 10
123.8514323083
 20
121.3436955634
 30
0.0
 11
123.8514323083
 21
125.0441231907
 31
0.0
  0
SPLINE
  5
182
330
1F
100
AcDbEntity
  8
0
  6
HIDDEN
 62
     7
370
     0
100
AcDbSpline
210
0.0
220
0.0
230
1.0
 70
     8
 71
     3
 72
    62
 73
    58
 74
     0
 42
0.00000001
 43
0.00000001
 12
1.0
 22
0.0
 32
0.0
 13
1.0
 23
0.0
 33
0.0
 40
-0.03125
 40
-0.03125
 40
0.0
 40
0.0
 40
0.03125
 40
0.03125
 40
0.0625
 40
0.0625
 40
0.0937499999999999
 40
0.0937499999999999
 40
0.1249999999999999
 40
0.1249999999999999
 40
0.1874999999999999
 40
0.1874999999999999
 40
0.2499999999999999
 40
0.2499999999999999
 40
0.2812499999999999
 40
0.2812499999999999
 40
0.3125
 40
0.3125
 40
0.34375
 40
0.34375
 40
0.375
 40
0.375
 40
0.4375000000000001
 40
0.4375000000000001
 40
0.4687500000000002
 40
0.4687500000000002
 40
0.5000000000000002
 40
0.5000000000000002
 40
0.5625000000000004
 40
0.5625000000000004
 40
0.5937500000000004
 40
0.5937500000000004
 40
0.6250000000000004
 40
0.6250000000000004
 40
0.6562500000000003
 40
0.6562500000000003
 40
0.6875000000000003
 40
0.6875000000000003
 40
0.7187500000000003
 40
0.7187500000000003
 40
0.7500000000000002
 40
0.7500000000000002
 40
0.7812500000000002
 40
0.7812500000000002
 40
0.8125000000000002
 40
0.8125000000000002
 40
0.8437500000000002
 40
0.8437500000000002
 40
0.8750000000000001
 40
0.8750000000000001
 40
0.9062500000000001
 40
0.9062500000000001
 40
0.9375000000000001
 40
0.9375000000000001
 40
0.96875
 40
0.96875
 40
1.0
 40
1.0
 40
1.03125
 40
1.03125
 10
134.3052044362376
 20
124.6818884156733
 30
0.0
 10
134.5327047828259
 20
124.931234957534
 30
0.0
 10
134.6571673117433
 20
125.0428326349909
 30
0.0
 10
134.9262615778951
 20
125.2414834308092
 30
0.0
 10
135.0720746694844
 20
125.3288236755979
 30
0.0
 10
135.3732415477738
 20
125.4730194282402
 30
0.0
 10
135.5295772748382
 20
125.5308390987544
 30
0.0
 10
135.8537005741726
 20
125.6180927108055
 30
0.0
 10
136.0203657858831
 20
125.6468947602873
 30
0.0
 10
136.518382052515
 20
125.6876740655551
 30
0.0
 10
136.8590530013079
 20
125.6542308054139
 30
0.0
 10
137.4980639167294
 20
125.4717781609551
 30
0.0
 10
137.8045185237932
 20
125.3203536006423
 30
0.0
 10
138.2010744330556
 20
125.019855695058
 30
0.0
 10
138.3254236239052
 20
124.9055945098626
 30
0.0
 10
138.5478877179543
 20
124.6559346392901
 30
0.0
 10
138.6454530564316
 20
124.521768031291
 30
0.0
 10
138.8127086600704
 20
124.2342989367923
 30
0.0
 10
138.8827943155895
 20
124.0790320868924
 30
0.0
 10
138.986849676311
 20
123.7620526668053
 30
0.0
 10
139.0218254389784
 20
123.5993999153009
 30
0.0
 10
139.0736899585025
 20
123.0984628950984
 30
0.0
 10
139.034383850731
 20
122.758308293788
 30
0.0
 10
138.8716640582702
 20
122.2818136616909
 30
0.0
 10
138.8013835603839
 20
122.1307463018635
 30
0.0
 10
138.6300504152539
 20
121.8434517314226
 30
0.0
 10
138.5286581740723
 20
121.7075939531252
 30
0.0
 10
138.1920585868491
 20
121.338785558127
 30
0.0
 10
137.9168258206844
 20
121.1363604487959
 30
0.0
 10
137.4670425933385
 20
120.9192837221871
 30
0.0
 10
137.3082427948348
 20
120.8599814501129
 30
0.0
 10
136.9856810739551
 20
120.7720089323124
 30
0.0
 10
136.821821961988
 20
120.7428891684661
 30
0.0
 10
136.4889891886341
 20
120.7140325533559
 30
0.0
 10
136.3189368971932
 20
120.7146560765699
 30
0.0
 10
135.9866612331735
 20
120.7459125203743
 30
0.0
 10
135.8229466214248
 20
120.7762312154262
 30
0.0
 10
135.5004811358504
 20
120.8669482544292
 30
0.0
 10
135.341970037324
 20
120.9277171631309
 30
0.0
 10
135.0434163311261
 20
121.0752278379279
 30
0.0
 10
134.901590201924
 20
121.1623628657918
 30
0.0
 10
134.6336684633657
 20
121.3649483323639
 30
0.0
 10
134.5095750329732
 20
121.479286499006
 30
0.0
 10
134.288440845055
 20
121.7274729369588
 30
0.0
 10
134.1899838429563
 20
121.8625055538126
 30
0.0
 10
134.0206253292213
 20
122.1545099518673
 30
0.0
 10
133.9524584915154
 20
122.3066456983029
 30
0.0
 10
133.848724525189
 20
122.623054646743
 30
0.0
 10
133.8130559633198
 20
122.7895511160972
 30
0.0
 10
133.7788421986673
 20
123.1228129922077
 30
0.0
 10
133.7797006014964
 20
123.2894754460295
 30
0.0
 10
133.817497381446
 20
123.6228636452471
 30
0.0
 10
133.8548401369
 20
123.7886192177266
 30
0.0
 10
133.9620897199684
 20
124.1045105341893
 30
0.0
 10
134.0328509365076
 20
124.2577898672614
 30
0.0
 10
134.2049740866082
 20
124.5471669097479
 30
0.0
 10
134.3052044362376
 20
124.6818884156733
 30
0.0
 10
134.5327047828259
 20
124.931234957534
 30
0.0
  0
SPLINE
  5
183
330
1F
100
AcDbEntity
  8
0
  6
HIDDEN
 62
     7
370
     0
100
AcDbSpline
210
0.0
220
0.0
230
1.0
 70
     8
 71
     3
 72
    62
 73
    58
 74
     0
 42
0.00000001
 43
0.00000001
 12
1.0
 22
0.0
 32
0.0
 13
1.0
 23
0.0
 33
0.0
 40
-0.03125
 40
-0.03125
 40
0.0
 40
0.0
 40
0.03125
 40
0.03125
 40
0.0625
 40
0.0625
 40
0.0937499999999999
 40
0.0937499999999999
 40
0.1249999999999999
 40
0.1249999999999999
 40
0.1874999999999999
 40
0.1874999999999999
 40
0.2499999999999999
 40
0.2499999999999999
 40
0.2812499999999999
 40
0.2812499999999999
 40
0.3125
 40
0.3125
 40
0.34375
 40
0.34375
 40
0.375
 40
0.375
 40
0.4375000000000001
 40
0.4375000000000001
 40
0.4687500000000002
 40
0.4687500000000002
 40
0.5000000000000002
 40
0.5000000000000002
 40
0.5625000000000004
 40
0.5625000000000004
 40
0.5937500000000004
 40
0.5937500000000004
 40
0.6250000000000004
 40
0.6250000000000004
 40
0.6562500000000003
 40
0.6562500000000003
 40
0.6875000000000003
 40
0.6875000000000003
 40
0.7187500000000003
 40
0.7187500000000003
 40
0.7500000000000002
 40
0.7500000000000002
 40
0.7812500000000002
 40
0.7812500000000002
 40
0.8125000000000002
 40
0.8125000000000002
 40
0.8437500000000002
 40
0.8437500000000002
 40
0.8750000000000001
 40
0.8750000000000001
 40
0.9062500000000001
 40
0.9062500000000001
 40
0.9375000000000001
 40
0.9375000000000001
 40
0.96875
 40
0.96875
 40
1.0
 40
1.0
 40
1.03125
 40
1.03125
 10
134.3052044362376
 20
124.6818884156733
 30
0.0
 10
134.5327047828259
 20
124.931234957534
 30
0.0
 10
134.6571673117433
 20
125.0428326349909
 30
0.0
 10
134.9262615778951
 20
125.2414834308092
 30
0.0
 10
135.0720746694844
 20
125.3288236755979
 30
0.0
 10
135.3732415477738
 20
125.4730194282402
 30
0.0
 10
135.5295772748382
 20
125.5308390987544
 30
0.0
 10
135.8537005741726
 20
125.6180927108055
 30
0.0
 10
136.0203657858831
 20
125.6468947602873
 30
0.0
 10
136.518382052515
 20
125.6876740655551
 30
0.0
 10
136.8590530013079
 20
125.6542308054139
 30
0.0
 10
137.4980639167294
 20
125.4717781609551
 30
0.0
 10
137.8045185237932
 20
125.3203536006423
 30
0.0
 10
138.2010744330556
 20
125.019855695058
 30
0.0
 10
138.3254236239052
 20
124.9055945098626
 30
0.0
 10
138.5478877179543
 20
124.6559346392901
 30
0.0
 10
138.6454530564316
 20
124.521768031291
 30
0.0
 10
138.8127086600704
 20
124.2342989367923
 30
0.0
 10
138.8827943155895
 20
124.0790320868924
 30
0.0
 10
138.986849676311
 20
123.7620526668053
 30
0.0
 10
139.0218254389784
 20
123.5993999153009
 30
0.0
 10
139.0736899585025
 20
123.0984628950984
 30
0.0
 10
139.034383850731
 20
122.758308293788
 30
0.0
 10
138.8716640582702
 20
122.2818136616909
 30
0.0
 10
138.8013835603839
 20
122.1307463018635
 30
0.0
 10
138.6300504152539
 20
121.8434517314226
 30
0.0
 10
138.5286581740723
 20
121.7075939531252
 30
0.0
 10
138.1920585868491
 20
121.338785558127
 30
0.0
 10
137.9168258206844
 20
121.1363604487959
 30
0.0
 10
137.4670425933385
 20
120.9192837221871
 30
0.0
 10
137.3082427948348
 20
120.8599814501129
 30
0.0
 10
136.9856810739551
 20
120.7720089323124
 30
0.0
 10
136.821821961988
 20
120.7428891684661
 30
0.0
 10
136.4889891886341
 20
120.7140325533559
 30
0.0
 10
136.3189368971932
 20
120.7146560765699
 30
0.0
 10
135.9866612331735
 20
120.7459125203743
 30
0.0
 10
135.8229466214248
 20
120.7762312154262
 30
0.0
 10
135.5004811358504
 20
120.8669482544292
 30
0.0
 10
135.341970037324
 20
120.9277171631309
 30
0.0
 10
135.0434163311261
 20
121.0752278379279
 30
0.0
 10
134.901590201924
 20
121.1623628657918
 30
0.0
 10
134.6336684633657
 20
121.3649483323639
 30
0.0
 10
134.5095750329732
 20
121.479286499006
 30
0.0
 10
134.288440845055
 20
121.7274729369588
 30
0.0
 10
134.1899838429563
 20
121.8625055538126
 30
0.0
 10
134.0206253292213
 20
122.1545099518673
 30
0.0
 10
133.9524584915154
 20
122.3066456983029
 30
0.0
 10
133.848724525189
 20
122.623054646743
 30
0.0
 10
133.8130559633198
 20
122.7895511160972
 30
0.0
 10
133.7788421986673
 20
123.1228129922077
 30
0.0
 10
133.7797006014964
 20
123.2894754460295
 30
0.0
 10
133.817497381446
 20
123.6228636452471
 30
0.0
 10
133.8548401369
 20
123.7886192177266
 30
0.0
 10
133.9620897199684
 20
124.1045105341893
 30
0.0
 10
134.0328509365076
 20
124.2577898672614
 30
0.0
 10
134.2049740866082
 20
124.5471669097479
 30
0.0
 10
134.3052044362376
 20
124.6818884156733
 30
0.0
 10
134.5327047828259
 20
124.931234957534
 30
0.0
  0
CIRCLE
  5
184
330
1F
100
AcDbEntity
  8
0
  6
HIDDEN
 62
     7
370
     0
100
AcDbCircle
 10
136.3514323083
 20
123.193909377
 30
0.0
 40
2.299999999999997
  0
SPLINE
  5
185
330
1F
100
AcDbEntity
  8
0
  6
HIDDEN
 62
     7
370
     0
100
AcDbSpline
210
0.0
220
0.0
230
1.0
 70
     8
 71
     3
 72
    20
 73
    16
 74
     0
 42
0.00000001
 43
0.00000001
 12
1.0
 22
0.0
 32
0.0
 13
1.0
 23
0.0
 33
0.0
 40
0.0
 40
0.0
 40
0.0
 40
0.0
 40
0.2500000000000007
 40
0.2500000000000007
 40
0.3750000000000006
 40
0.3750000000000006
 40
0.5000000000000004
 40
0.5000000000000004
 40
0.6250000000000003
 40
0.6250000000000003
 40
0.7500000000000002
 40
0.7500000000000002
 40
0.8750000000000002
 40
0.8750000000000002
 40
1.0
 40
1.0
 40
1.0
 40
1.0
 10
249.0331426931036
 20
109.3864135964775
 30
0.0
 10
249.2623433894244
 20
109.5731602134751
 30
0.0
 10
249.5066595150296
 20
109.7526954913166
 30
0.0
 10
249.914850703369
 20
109.9632755128767
 30
0.0
 10
250.0598630663532
 20
110.0239229325193
 30
0.0
 10
250.3634236136957
 20
110.1086848872074
 30
0.0
 10
250.522025624623
 20
110.1323533841938
 30
0.0
 10
250.8419658286134
 20
110.1319967012076
 30
0.0
 10
250.9989729514029
 20
110.1083549595407
 30
0.0
 10
251.3041715087812
 20
110.0226209749456
 30
0.0
 10
251.4466407891828
 20
109.9627472013712
 30
0.0
 10
251.718875924839
 20
109.8221337427054
 30
0.0
 10
251.8487384085466
 20
109.7410600731843
 30
0.0
 10
252.0952616480809
 20
109.5700335178107
 30
0.0
 10
252.2128564863122
 20
109.4795446570436
 30
0.0
 10
252.327159515058
 20
109.3864135964776
 30
0.0
  0
LINE
  5
186
330
1F
100
AcDbEntity
  8
0
  6
HIDDEN
 62
     7
370
     0
100
AcDbLine
 10
249.542564824
 20
121.693909377
 30
0.0
 11
249.0572977124
 21
123.193909377
 31
0.0
  0
CIRCLE
  5
187
330
1F
100
AcDbEntity
  8
0
  6
HIDDEN
 62
     7
370
     0
100
AcDbCircle
 10
159.8514323083
 20
123.193909377
 30
0.0
 40
2.0
  0
LINE
  5
188
330
1F
100
AcDbEntity
  8
0
  6
HIDDEN
 62
     7
370
     0
100
AcDbLine
 10
147.8514323083
 20
107.393909377
 30
0.0
 11
147.9443255271
 21
107.4868025958
 31
0.0
  0
LINE
  5
189
330
1F
100
AcDbEntity
  8
0
  6
HIDDEN
 62
     7
370
     0
100
AcDbLine
 10
147.9443255271
 20
138.9010161582
 30
0.0
 11
147.8514323083
 21
138.993909377
 31
0.0
  0
ARC
  5
18A
330
1F
100
AcDbEntity
  8
0
  6
HIDDEN
 62
     7
370
     0
100
AcDbCircle
 10
147.2372187459
 20
108.193909377
 30
0.0
 40
1.0
100
AcDbArc
 50
315.0
 51
0.0
  0
ARC
  5
18B
330
1F
100
AcDbEntity
  8
0
  6
HIDDEN
 62
     7
370
     0
100
AcDbCircle
 10
147.2372187459
 20
108.193909377
 30
0.0
 40
1.0
100
AcDbArc
 50
0.0
 51
52.1052014664
  0
ARC
  5
18C
330
1F
100
AcDbEntity
  8
0
  6
HIDDEN
 62
     7
370
     0
100
AcDbCircle
 10
147.2372187459
 20
138.193909377
 30
0.0
 40
1.000000000000008
100
AcDbArc
 50
351.8087250651
 51
45.0
  0
ARC
  5
18D
330
1F
100
AcDbEntity
  8
0
  6
HIDDEN
 62
     7
370
     0
100
AcDbCircle
 10
147.2372187459
 20
138.193909377
 30
0.0
 40
1.000000000000002
100
AcDbArc
 50
307.8947985336
 51
351.8087250651
  0
LINE
  5
18E
330
1F
100
AcDbEntity
  8
0
  6
HIDDEN
 62
     7
370
     0
100
AcDbLine
 10
148.2372187459
 20
108.193909377
 30
0.0
 11
148.2372187459
 21
138.193909377
 31
0.0
  0
LINE
  5
18F
330
1F
100
AcDbEntity
  8
0
  6
HIDDEN
 62
     7
370
     0
100
AcDbLine
 10
148.2372187459
 20
108.193909377
 30
0.0
 11
148.2372187459
 21
138.193909377
 31
0.0
  0
LINE
  5
190
330
1F
100
AcDbEntity
  8
0
  6
HIDDEN
 62
     7
370
     0
100
AcDbLine
 10
219.9514323083
 20
120.7177716791
 30
0.0
 11
219.9514323083
 21
121.881645865
 31
0.0
  0
LINE
  5
191
330
1F
100
AcDbEntity
  8
0
  6
HIDDEN
 62
     7
370
     0
100
AcDbLine
 10
219.9514323083
 20
119.1766884501
 30
0.0
 11
219.9514323083
 21
119.5375454842
 31
0.0
  0
LINE
  5
192
330
1F
100
AcDbEntity
  8
0
  6
HIDDEN
 62
     7
370
     0
100
AcDbLine
 10
215.7514323083
 20
121.8809909294
 30
0.0
 11
215.7514323083
 21
119.1766884501
 31
0.0
  0
LINE
  5
193
330
1F
100
AcDbEntity
  8
0
  6
HIDDEN
 62
     7
370
     0
100
AcDbLine
 10
225.9556364976
 20
118.6148935126
 30
0.0
 11
218.6518591182
 21
122.162635713
 31
0.0
  0
LINE
  5
194
330
1F
100
AcDbEntity
  8
0
  6
HIDDEN
 62
     7
370
     0
100
AcDbLine
 10
217.7370775694
 20
117.9377154885
 30
0.0
 11
225.9754061137
 21
113.9360237173
 31
0.0
  0
LINE
  5
195
330
1F
100
AcDbEntity
  8
0
  6
HIDDEN
 62
     7
370
     0
100
AcDbLine
 10
123.8514323083
 20
113.0382588527
 30
0.0
 11
124.8784643404
 21
113.6312160729
 31
0.0
  0
LINE
  5
196
330
1F
100
AcDbEntity
  8
0
  6
HIDDEN
 62
     7
370
     0
100
AcDbLine
 10
124.8784643404
 20
132.7566026811
 30
0.0
 11
123.8514323083
 21
133.3495599013
 31
0.0
  0
ARC
  5
197
330
1F
100
AcDbEntity
  8
0
  6
HIDDEN
 62
     7
370
     0
100
AcDbCircle
 10
129.3514323083
 20
114.193909377
 30
0.0
 40
1.000000000000004
100
AcDbArc
 50
193.3524261238
 51
270.0
  0
ARC
  5
198
330
1F
100
AcDbEntity
  8
0
  6
HIDDEN
 62
     7
370
     0
100
AcDbCircle
 10
129.3514323083
 20
132.193909377
 30
0.0
 40
1.000000000000028
100
AcDbArc
 50
90.0
 51
166.6475738762
  0
LINE
  5
199
330
1F
100
AcDbEntity
  8
0
  6
HIDDEN
 62
     7
370
     0
100
AcDbLine
 10
129.3514323083
 20
113.193909377
 30
0.0
 11
130.364250778
 21
113.193909377
 31
0.0
  0
LINE
  5
19A
330
1F
100
AcDbEntity
  8
0
  6
HIDDEN
 62
     7
370
     0
100
AcDbLine
 10
130.364250778
 20
133.193909377
 30
0.0
 11
129.3514323083
 21
133.193909377
 31
0.0
  0
ARC
  5
19B
330
1F
100
AcDbEntity
  8
0
  6
HIDDEN
 62
     7
370
     0
100
AcDbCircle
 10
130.364250778
 20
114.193909377
 30
0.0
 40
1.0
100
AcDbArc
 50
270.0
 51
315.0
  0
ARC
  5
19C
330
1F
100
AcDbEntity
  8
0
  6
HIDDEN
 62
     7
370
     0
100
AcDbCircle
 10
130.364250778
 20
132.193909377
 30
0.0
 40
1.000000000000008
100
AcDbArc
 50
45.0
 51
90.0
  0
LINE
  5
19D
330
1F
100
AcDbEntity
  8
0
  6
HIDDEN
 62
     7
370
     0
100
AcDbLine
 10
131.0713575592
 20
113.4868025958
 30
0.0
 11
131.7784643404
 21
114.193909377
 31
0.0
  0
LINE
  5
19E
330
1F
100
AcDbEntity
  8
0
  6
HIDDEN
 62
     7
370
     0
100
AcDbLine
 10
131.7784643404
 20
132.193909377
 30
0.0
 11
131.0713575592
 21
132.9010161582
 31
0.0
  0
LINE
  5
19F
330
1F
100
AcDbEntity
  8
0
  6
HIDDEN
 62
     7
370
     0
100
AcDbLine
 10
124.8784643404
 20
113.6312160729
 30
0.0
 11
126.9784643404
 21
114.193909377
 31
0.0
  0
LINE
  5
1A0
330
1F
100
AcDbEntity
  8
0
  6
HIDDEN
 62
     7
370
     0
100
AcDbLine
 10
126.9784643404
 20
132.193909377
 30
0.0
 11
124.8784643404
 21
132.7566026811
 31
0.0
  0
LINE
  5
1A1
330
1F
100
AcDbEntity
  8
0
  6
HIDDEN
 62
     7
370
     0
100
AcDbLine
 10
128.3784643404
 20
132.4248494847
 30
0.0
 11
127.9784643404
 21
132.193909377
 31
0.0
  0
LINE
  5
1A2
330
1F
100
AcDbEntity
  8
0
  6
HIDDEN
 62
     7
370
     0
100
AcDbLine
 10
127.9784643404
 20
114.193909377
 30
0.0
 11
128.3784643404
 21
113.9629692693
 31
0.0
  0
ARC
  5
1A3
330
1F
100
AcDbEntity
  8
0
  6
HIDDEN
 62
     7
370
     0
100
AcDbCircle
 10
138.3514323083
 20
114.693909377
 30
0.0
 40
0.5
100
AcDbArc
 50
270.0
 51
0.0
  0
ARC
  5
1A4
330
1F
100
AcDbEntity
  8
0
  6
HIDDEN
 62
     7
370
     0
100
AcDbCircle
 10
138.3514323083
 20
131.693909377
 30
0.0
 40
0.5000000000000284
100
AcDbArc
 50
0.0
 51
90.0
  0
LINE
  5
1A5
330
1F
100
AcDbEntity
  8
0
  6
HIDDEN
 62
     7
370
     0
100
AcDbLine
 10
126.9784643404
 20
114.193909377
 30
0.0
 11
127.9784643404
 21
114.193909377
 31
0.0
  0
LINE
  5
1A6
330
1F
100
AcDbEntity
  8
0
  6
HIDDEN
 62
     7
370
     0
100
AcDbLine
 10
127.9784643404
 20
132.193909377
 30
0.0
 11
126.9784643404
 21
132.193909377
 31
0.0
  0
LINE
  5
1A7
330
1F
100
AcDbEntity
  8
0
  6
HIDDEN
 62
     7
370
     0
100
AcDbLine
 10
131.7784643404
 20
114.193909377
 30
0.0
 11
138.3514323083
 21
114.193909377
 31
0.0
  0
LINE
  5
1A8
330
1F
100
AcDbEntity
  8
0
  6
HIDDEN
 62
     7
370
     0
100
AcDbLine
 10
138.3514323083
 20
132.193909377
 30
0.0
 11
131.7784643404
 21
132.193909377
 31
0.0
  0
LINE
  5
1A9
330
1F
100
AcDbEntity
  8
0
  6
HIDDEN
 62
     7
370
     0
100
AcDbLine
 10
138.8514323083
 20
116.043909377
 30
0.0
 11
139.7514323083
 21
116.943909377
 31
0.0
  0
LINE
  5
1AA
330
1F
100
AcDbEntity
  8
0
  6
HIDDEN
 62
     7
370
     0
100
AcDbLine
 10
139.7514323083
 20
129.443909377
 30
0.0
 11
138.8514323083
 21
130.343909377
 31
0.0
  0
LINE
  5
1AB
330
1F
100
AcDbEntity
  8
0
  6
HIDDEN
 62
     7
370
     0
100
AcDbLine
 10
158.8514323083
 20
116.943909377
 30
0.0
 11
160.0531535464
 21
118.943909377
 31
0.0
  0
LINE
  5
1AC
330
1F
100
AcDbEntity
  8
0
  6
HIDDEN
 62
     7
370
     0
100
AcDbLine
 10
160.0531535464
 20
127.443909377
 30
0.0
 11
158.8514323083
 21
129.443909377
 31
0.0
  0
LINE
  5
1AD
330
1F
100
AcDbEntity
  8
0
  6
HIDDEN
 62
     7
370
     0
100
AcDbLine
 10
139.7514323083
 20
116.943909377
 30
0.0
 11
158.8514323083
 21
116.943909377
 31
0.0
  0
LINE
  5
1AE
330
1F
100
AcDbEntity
  8
0
  6
HIDDEN
 62
     7
370
     0
100
AcDbLine
 10
158.8514323083
 20
129.443909377
 30
0.0
 11
139.7514323083
 21
129.443909377
 31
0.0
  0
LINE
  5
1AF
330
1F
100
AcDbEntity
  8
0
  6
HIDDEN
 62
     7
370
     0
100
AcDbLine
 10
222.8514323083
 20
127.443909377
 30
0.0
 11
160.0531535464
 21
127.443909377
 31
0.0
  0
LINE
  5
1B0
330
1F
100
AcDbEntity
  8
0
  6
HIDDEN
 62
     7
370
     0
100
AcDbLine
 10
160.0531535464
 20
118.943909377
 30
0.0
 11
222.8514323083
 21
118.943909377
 31
0.0
  0
LINE
  5
1B1
330
1F
100
AcDbEntity
  8
0
  6
HIDDEN
 62
     7
370
     0
100
AcDbLine
 10
222.8514323083
 20
118.943909377
 30
0.0
 11
225.4050899392
 21
123.193909377
 31
0.0
  0
LINE
  5
1B2
330
1F
100
AcDbEntity
  8
0
  6
HIDDEN
 62
     7
370
     0
100
AcDbLine
 10
225.4050899392
 20
123.193909377
 30
0.0
 11
222.8514323083
 21
127.443909377
 31
0.0
  0
LINE
  5
1B3
330
1F
100
AcDbEntity
  8
0
  6
HIDDEN
 62
     7
370
     0
100
AcDbLine
 10
231.4372187459
 20
107.193909377
 30
0.0
 11
231.4652920064
 21
107.1935152454
 31
0.0
  0
ARC
  5
1B4
330
1F
100
AcDbEntity
  8
0
  6
HIDDEN
 62
     7
370
     0
100
AcDbCircle
 10
231.4372187459
 20
106.193909377
 30
0.0
 40
0.999999999999983
100
AcDbArc
 50
45.0
 51
64.8454287542
  0
LINE
  5
1B5
330
1F
100
AcDbEntity
  8
0
  6
HIDDEN
 62
     7
370
     0
100
AcDbLine
 10
243.6594493538
 20
116.4325614678
 30
0.0
 11
243.6594493538
 21
116.3279267572
 31
0.0
  0
LINE
  5
1B6
330
1F
100
AcDbEntity
  8
0
  6
HIDDEN
 62
     7
370
     0
100
AcDbLine
 10
219.9514323083
 20
124.5062229082
 30
0.0
 11
219.9514323083
 21
126.2840793208
 31
0.0
  0
LINE
  5
1B7
330
1F
100
AcDbEntity
  8
0
  6
HIDDEN
 62
     7
370
     0
100
AcDbLine
 10
215.7514323083
 20
126.2840793208
 30
0.0
 11
215.7514323083
 21
124.5069889847
 31
0.0
  0
LINE
  5
1B8
330
1F
100
AcDbEntity
  8
0
  6
HIDDEN
 62
     7
370
     0
100
AcDbLine
 10
252.3301511041
 20
108.6769722567
 30
0.0
 11
252.3301511041
 21
109.2821609279
 31
0.0
  0
LINE
  5
1B9
330
1F
100
AcDbEntity
  8
0
  6
HIDDEN
 62
     7
370
     0
100
AcDbLine
 10
249.0301511041
 20
109.2821716607
 30
0.0
 11
249.0301511041
 21
108.6769722567
 31
0.0
  0
LINE
  5
1BA
330
1F
100
AcDbEntity
  8
0
  6
HIDDEN
 62
     7
370
     0
100
AcDbLine
 10
220.3514323083
 20
126.3583497778
 30
0.0
 11
220.3514323083
 21
128.1379702572
 31
0.0
  0
LINE
  5
1BB
330
1F
100
AcDbEntity
  8
0
  6
HIDDEN
 62
     7
370
     0
100
AcDbLine
 10
215.3514323083
 20
128.1381440145
 30
0.0
 11
215.3514323083
 21
126.3583497778
 31
0.0
  0
LINE
  5
1BC
330
1F
100
AcDbEntity
  8
VERMASSUNG
  6
CENTERX2
100
AcDbLine
 10
120.6683434216
 20
123.193909377
 30
0.0
 11
257.8514323083
 21
123.193909377
 31
0.0
  0
LINE
  5
1BD
330
1F
100
AcDbEntity
  8
VERMASSUNG
  6
CENTERX2
100
AcDbLine
 10
257.8514323083
 20
101.193909377
 30
0.0
 11
257.8514323083
 21
123.193909377
 31
0.0
  0
LINE
  5
1BE
330
1F
100
AcDbEntity
  8
VERMASSUNG
  6
CENTERX2
100
AcDbLine
 10
257.8514323083
 20
101.193909377
 30
0.0
 11
270.2598875159
 21
101.193909377
 31
0.0
  0
DIMENSION
  5
1BF
330
1F
100
AcDbEntity
  8
VERMASSUNG
100
AcDbDimension
  2
_D
 10
273.4390363807
 20
123.193909377
 30
0.0
 11
273.4390363807
 21
112.193909377
 31
0.0
 70
   160
  1
<>
 71
     2
 42
-1.0
  3
SLDDIMSTYLE0
100
AcDbAlignedDimension
 13
257.8514323083
 23
101.193909377
 33
0.0
 14
257.8514323083
 24
123.193909377
 34
0.0
 50
90.0
100
AcDbRotatedDimension
  0
DIMENSION
  5
1CA
330
1F
100
AcDbEntity
  8
VERMASSUNG
100
AcDbDimension
  2
_D_1
 10
254.6295557396
 20
111.8479461726
 30
0.0
 11
263.4915759365
 21
108.6931192178
 31
0.0
 70
   162
  1
<>
 71
     1
 42
-1.0
  3
SLDDIMSTYLE1
100
AcDb2LineAngularDimension
 13
257.8514323083
 23
101.193909377
 33
0.0
 14
270.2598875159
 24
101.193909377
 34
0.0
 15
257.8355325751
 25
101.7046555863
 35
0.0
 16
263.4915759365
 26
108.6931192178
 36
0.0
  0
DIMENSION
  5
1D3
330
1F
100
AcDbEntity
  8
VERMASSUNG
100
AcDbDimension
  2
_D_2
 10
257.8514323083
 20
92.6763974414
 30
0.0
 11
202.8514323083
 21
92.6763974414
 31
0.0
 70
   160
  1
<>
 71
     2
 42
-1.0
  3
SLDDIMSTYLE0
100
AcDbAlignedDimension
 13
147.8514323083
 23
103.493909377
 33
0.0
 14
257.8514323083
 24
101.193909377
 34
0.0
100
AcDbRotatedDimension
  0
DIMENSION
  5
1DD
330
1F
100
AcDbEntity
  8
VERMASSUNG
100
AcDbDimension
  2
_D_3
 10
257.8514323083
 20
85.0411903802
 30
0.0
 11
190.8514323083
 21
85.0411903802
 31
0.0
 70
   160
  1
<>
 71
     2
 42
-1.0
  3
SLDDIMSTYLE0
100
AcDbAlignedDimension
 13
123.8514323083
 23
110.562404395
 33
0.0
 14
257.8514323083
 24
101.193909377
 34
0.0
100
AcDbRotatedDimension
  0
DIMENSION
  5
1E7
330
1F
100
AcDbEntity
  8
VERMASSUNG
100
AcDbDimension
  2
_D_4
 10
113.8514323083
 20
103.193909377
 30
0.0
 11
113.8514323083
 21
123.193909377
 31
0.0
 70
   160
  1
PSC%%c<>
 71
     2
 42
-1.0
  3
SLDDIMSTYLE0
100
AcDbAlignedDimension
 13
148.1514323083
 23
143.193909377
 33
0.0
 14
148.1514323083
 24
103.193909377
 34
0.0
 50
90.0
100
AcDbRotatedDimension
  0
DIMENSION
  5
1F3
330
1F
100
AcDbEntity
  8
VERMASSUNG
100
AcDbDimension
  2
_D_5
 10
187.4664089675
 20
107.193909377
 30
0.0
 11
187.4664089675
 21
114.9678902646
 31
0.0
 70
   160
  1
%%c<>
 71
     2
 42
-1.0
  3
SLDDIMSTYLE0
100
AcDbAlignedDimension
 13
169.8514323083
 23
139.193909377
 33
0.0
 14
169.8514323083
 24
107.193909377
 34
0.0
 50
90.0
100
AcDbRotatedDimension
  0
LINE
  5
1FC
330
1F
100
AcDbEntity
  8
0
  6
Continuous
 62
     7
370
    15
100
AcDbLine
 10
63.0184019703
 20
106.6707884522
 30
0.0
 11
63.0498559641
 21
106.6729882361
 31
0.0
  0
SPLINE
  5
1FD
330
1F
100
AcDbEntity
  8
0
  6
Continuous
 62
     7
370
    15
100
AcDbSpline
210
0.0
220
0.0
230
1.0
 70
     8
 71
     3
 72
    10
 73
     6
 74
     0
 42
0.00000001
 43
0.00000001
 12
1.0
 22
0.0
 32
0.0
 13
1.0
 23
0.0
 33
0.0
 40
0.0
 40
0.0
 40
0.0
 40
0.0
 40
0.3326245039019388
 40
0.6678453507994923
 40
1.0
 40
1.0
 40
1.0
 40
1.0
 10
63.38588237682654
 20
101.179926619091
 30
0.0
 10
63.82687390118917
 20
101.2834305944707
 30
0.0
 10
64.71229916551181
 20
101.4912464587132
 30
0.0
 10
66.06228006152197
 20
101.744552339469
 30
0.0
 10
66.94398620189607
 20
101.9578972231882
 30
0.0
 10
67.38281381163927
 20
102.0640795679474
 30
0.0
  0
LINE
  5
1FE
330
1F
100
AcDbEntity
  8
0
  6
Continuous
 62
     7
370
    15
100
AcDbLine
 10
62.7474296217
 20
115.2985626461
 30
0.0
 11
62.3965607103
 21
115.327884406
 31
0.0
  0
LINE
  5
1FF
330
1F
100
AcDbEntity
  8
0
  6
Continuous
 62
     7
370
    15
100
AcDbLine
 10
66.6450987648
 20
112.1709020437
 30
0.0
 11
65.153468897
 21
111.9988215716
 31
0.0
  0
LINE
  5
200
330
1F
100
AcDbEntity
  8
0
  6
Continuous
 62
     7
370
    15
100
AcDbLine
 10
65.153468897
 20
111.9988215716
 30
0.0
 11
62.9739384478
 21
112.0593351872
 31
0.0
  0
LINE
  5
201
330
1F
100
AcDbEntity
  8
0
  6
Continuous
 62
     7
370
    15
100
AcDbLine
 10
61.0536005426
 20
139.5214469732
 30
0.0
 11
62.9739384478
 21
112.0593351872
 31
0.0
  0
ARC
  5
202
330
1F
100
AcDbEntity
  8
0
  6
Continuous
 62
     7
370
    15
100
AcDbCircle
 10
63.432990488
 20
123.193909377
 30
0.0
 40
16.50000000000001
100
AcDbArc
 50
0.0
 51
98.2912714864
  0
LINE
  5
203
330
1F
100
AcDbEntity
  8
0
  6
Continuous
 62
     7
370
    15
100
AcDbLine
 10
79.9329903986
 20
121.693909364
 30
0.0
 11
79.9329903986
 21
123.193909377
 31
0.0
  0
ARC
  5
204
330
1F
100
AcDbEntity
  8
0
  6
Continuous
 62
     7
370
    15
100
AcDbCircle
 10
56.932990488
 20
121.693909377
 30
0.0
 40
23.00000000000002
100
AcDbArc
 50
307.9853351412
 51
0.0
  0
LINE
  5
205
330
1F
100
AcDbEntity
  8
0
  6
Continuous
 62
     7
370
    15
100
AcDbLine
 10
67.3140009477
 20
102.6051556321
 30
0.0
 11
71.0885649625
 21
103.5660383852
 31
0.0
  0
LINE
  5
206
330
1F
100
AcDbEntity
  8
0
  6
Continuous
 62
     7
370
    15
100
AcDbLine
 10
66.6600567367
 20
111.9569921495
 30
0.0
 11
66.6450987648
 21
112.1709020437
 31
0.0
  0
ARC
  5
207
330
1F
100
AcDbEntity
  8
0
  6
Continuous
 62
     7
370
    15
100
AcDbCircle
 10
56.932990488
 20
121.693909377
 30
0.0
 40
23.00000000000002
100
AcDbArc
 50
305.8535901012
 51
307.9853351412
  0
LINE
  5
208
330
1F
100
AcDbEntity
  8
0
  6
Continuous
 62
     7
370
    15
100
AcDbLine
 10
70.4044591713
 20
103.0520340057
 30
0.0
 11
67.337350136
 21
102.2712448241
 31
0.0
  0
SPLINE
  5
209
330
1F
100
AcDbEntity
  8
0
  6
Continuous
 62
     7
370
    15
100
AcDbSpline
210
0.0
220
0.0
230
1.0
 70
     8
 71
     3
 72
    14
 73
    10
 74
     0
 42
0.00000001
 43
0.00000001
 12
1.0
 22
0.0
 32
0.0
 13
1.0
 23
0.0
 33
0.0
 40
0.0
 40
0.0
 40
0.0
 40
0.0
 40
0.2499999999999998
 40
0.2499999999999998
 40
0.4999999999999999
 40
0.4999999999999999
 40
0.7499999999999999
 40
0.7499999999999999
 40
1.0
 40
1.0
 40
1.0
 40
1.0
 10
58.89350677210923
 20
138.536434840354
 30
0.0
 10
59.20151417313208
 20
138.6275668110754
 30
0.0
 10
59.49133597420052
 20
138.7032724298271
 30
0.0
 10
60.03144262080005
 20
138.8306115458625
 30
0.0
 10
60.26803693502136
 20
138.8790756388645
 30
0.0
 10
60.66779110214022
 20
138.9544627940374
 30
0.0
 10
60.82234504683998
 20
138.9798548788877
 30
0.0
 10
61.03459137839281
 20
139.0134930225659
 30
0.0
 10
61.0885798713017
 20
139.0212192830087
 30
0.0
 10
61.0885798713017
 20
139.0212192830087
 30
0.0
  0
SPLINE
  5
20A
330
1F
100
AcDbEntity
  8
0
  6
Continuous
 62
     7
370
    15
100
AcDbSpline
210
0.0
220
0.0
230
1.0
 70
     8
 71
     3
 72
    10
 73
     6
 74
     0
 42
0.00000001
 43
0.00000001
 12
1.0
 22
0.0
 32
0.0
 13
1.0
 23
0.0
 33
0.0
 40
0.0
 40
0.0
 40
0.0
 40
0.0
 40
0.27478593337157
 40
0.6521789183207464
 40
0.9999999999999999
 40
0.9999999999999999
 40
0.9999999999999999
 40
0.9999999999999999
 10
63.01294127675885
 20
107.2008935363674
 30
0.0
 10
62.90724888368428
 20
107.2035566157641
 30
0.0
 10
62.65639779482269
 20
107.2098771876326
 30
0.0
 10
61.96031363384498
 20
107.2516937738922
 30
0.0
 10
61.3605872810266
 20
107.3309233372972
 30
0.0
 10
61.07295156303974
 20
107.3689227552795
 30
0.0
  0
ELLIPSE
  5
20B
330
1F
100
AcDbEntity
  8
0
  6
Continuous
 62
     7
370
    15
100
AcDbEllipse
 10
55.6236158699
 20
116.275458615
 30
0.0
 11
-1.654506653606625
 21
1.94514150331571
 31
0.0
210
0.0
220
0.0
230
1.0
 40
0.8051687171
 41
0.0
 42
6.283185307179586
  0
ARC
  5
20C
330
1F
100
AcDbEntity
  8
0
  6
Continuous
 62
     7
370
    15
100
AcDbCircle
 10
63.432990488
 20
123.193909377
 30
0.0
 40
16.00000000000001
100
AcDbArc
 50
106.4822165171
 51
261.5177834829
  0
SPLINE
  5
20D
330
1F
100
AcDbEntity
  8
0
  6
Continuous
 62
     7
370
    15
100
AcDbSpline
210
0.0
220
0.0
230
1.0
 70
     8
 71
     3
 72
    14
 73
    10
 74
     0
 42
0.00000001
 43
0.00000001
 12
1.0
 22
0.0
 32
0.0
 13
1.0
 23
0.0
 33
0.0
 40
0.0
 40
0.0
 40
0.0
 40
0.0
 40
0.2322108119579477
 40
0.3923744631106318
 40
0.5038363555747776
 40
0.5967922421970006
 40
0.7169408025267141
 40
0.9695518799104247
 40
1.0
 40
1.0
 40
1.0
 40
1.0
 10
55.64900479126902
 20
118.5241709092342
 30
0.0
 10
55.52978384091178
 20
118.454001598205
 30
0.0
 10
55.32833216864238
 20
118.3354341399985
 30
0.0
 10
54.97529322966105
 20
118.2517742997373
 30
0.0
 10
54.69134527183515
 20
118.1754381455872
 30
0.0
 10
54.42497956758287
 20
118.0866260260875
 30
0.0
 10
54.08612870982855
 20
117.9573854159491
 30
0.0
 10
53.83388738878615
 20
117.8324825484861
 30
0.0
 10
53.6740170588484
 20
117.8336002536962
 30
0.0
 10
53.65682012248965
 20
117.8337204830432
 30
0.0
  0
ARC
  5
20E
330
1F
100
AcDbEntity
  8
0
  6
Continuous
 62
     7
370
    15
100
AcDbCircle
 10
63.432990488
 20
123.193909377
 30
0.0
 40
20.00000000000001
100
AcDbArc
 50
301.4567076405
 51
269.599247609
  0
LINE
  5
20F
330
1F
100
AcDbEntity
  8
0
  6
Continuous
 62
     7
370
    15
100
AcDbLine
 10
67.3433904614
 20
102.1848665179
 30
0.0
 11
66.6651117228
 21
111.8847038226
 31
0.0
  0
LINE
  5
210
330
1F
100
AcDbEntity
  8
0
  6
Continuous
 62
     7
370
    15
100
AcDbLine
 10
63.3972756351
 20
101.7046561094
 30
0.0
 11
62.6879876674
 21
111.8479463832
 31
0.0
  0
SPLINE
  5
211
330
1F
100
AcDbEntity
  8
0
  6
Continuous
 62
     7
370
    15
100
AcDbSpline
210
0.0
220
0.0
230
1.0
 70
     8
 71
     3
 72
    14
 73
    10
 74
     0
 42
0.00000001
 43
0.00000001
 12
1.0
 22
0.0
 32
0.0
 13
1.0
 23
0.0
 33
0.0
 40
0.0
 40
0.0
 40
0.0
 40
0.0
 40
0.1583165877329159
 40
0.3167942405500485
 40
0.4713733012281787
 40
0.6221047147415536
 40
0.7721085082602993
 40
0.9245863761722644
 40
1.0
 40
1.0
 40
1.0
 40
1.0
 10
67.3433904613945
 20
102.1848665179395
 30
0.0
 10
67.34417789509826
 20
102.1736051902429
 30
0.0
 10
67.3457535636099
 20
102.1510710780165
 30
0.0
 10
67.34814245722598
 20
102.1169049260895
 30
0.0
 10
67.35017454438926
 20
102.0878467823716
 30
0.0
 10
67.3516468932559
 20
102.0667911734478
 30
0.0
 10
67.35242076128996
 20
102.055724894156
 30
0.0
 10
67.35246670712368
 20
102.0550700263959
 30
0.0
 10
67.35217277709448
 20
102.0592713246838
 30
0.0
 10
67.35207551006408
 20
102.0606616140985
 30
0.0
  0
SPLINE
  5
212
330
1F
100
AcDbEntity
  8
0
  6
Continuous
 62
     7
370
    15
100
AcDbSpline
210
0.0
220
0.0
230
1.0
 70
     8
 71
     3
 72
    13
 73
     9
 74
     0
 42
0.00000001
 43
0.00000001
 12
1.0
 22
0.0
 32
0.0
 13
1.0
 23
0.0
 33
0.0
 40
0.0
 40
0.0
 40
0.0
 40
0.0
 40
0.1669830020240566
 40
0.355732766524166
 40
0.540753930696042
 40
0.7250321756156592
 40
0.9118259981573533
 40
0.9999999999999999
 40
0.9999999999999999
 40
0.9999999999999999
 40
0.9999999999999999
 10
63.43291952527477
 20
101.1949246378326
 30
0.0
 10
63.43254138383378
 20
101.2003323703582
 30
0.0
 10
63.43173580901888
 20
101.2118527504486
 30
0.0
 10
63.42676488228032
 20
101.2829404677666
 30
0.0
 10
63.41954421589734
 20
101.3862007977341
 30
0.0
 10
63.41076835096621
 20
101.5116998871224
 30
0.0
 10
63.40305072140109
 20
101.6220667013129
 30
0.0
 10
63.39867787644457
 20
101.6846026809518
 30
0.0
 10
63.39727563514555
 20
101.7046561093712
 30
0.0
  0
SPLINE
  5
213
330
1F
100
AcDbEntity
  8
0
  6
Continuous
 62
     7
370
    15
100
AcDbSpline
210
0.0
220
0.0
230
1.0
 70
     8
 71
     3
 72
    10
 73
     6
 74
     0
 42
0.00000001
 43
0.00000001
 12
1.0
 22
0.0
 32
0.0
 13
1.0
 23
0.0
 33
0.0
 40
0.0
 40
0.0
 40
0.0
 40
0.0
 40
0.265695643581884
 40
0.616507644260329
 40
1.0
 40
1.0
 40
1.0
 40
1.0
 10
66.6605903844926
 20
111.949360892334
 30
0.0
 10
66.6608096690361
 20
111.9462256505224
 30
0.0
 10
66.66131848655189
 20
111.9389507832444
 30
0.0
 10
66.66283420905462
 20
111.9172712409482
 30
0.0
 10
66.66433035608989
 20
111.895877013432
 30
0.0
 10
66.66511172276171
 20
111.8847038225913
 30
0.0
  0
SPLINE
  5
214
330
1F
100
AcDbEntity
  8
0
  6
Continuous
 62
     7
370
    15
100
AcDbSpline
210
0.0
220
0.0
230
1.0
 70
     8
 71
     3
 72
    10
 73
     6
 74
     0
 42
0.00000001
 43
0.00000001
 12
1.0
 22
0.0
 32
0.0
 13
1.0
 23
0.0
 33
0.0
 40
0.0
 40
0.0
 40
0.0
 40
0.0
 40
0.3518046330587989
 40
0.7034175791049936
 40
1.0
 40
1.0
 40
1.0
 40
1.0
 10
62.68798766737984
 20
111.8479463832164
 30
0.0
 10
62.68511554650767
 20
111.8890196731437
 30
0.0
 10
62.67937286968946
 20
111.9711438734857
 30
0.0
 10
62.67308993449038
 20
112.0609928773764
 30
0.0
 10
62.67090356356345
 20
112.0922599848388
 30
0.0
 10
62.6699031874183
 20
112.1065662802839
 30
0.0
  0
LINE
  5
215
330
1F
100
AcDbEntity
  8
0
  6
Continuous
 62
     7
370
    15
100
AcDbLine
 10
66.6605903845
 20
111.9493608923
 30
0.0
 11
66.6600567367
 21
111.9569921495
 31
0.0
  0
LINE
  5
216
330
1F
100
AcDbEntity
  8
0
  6
Continuous
 62
     7
370
    15
100
AcDbLine
 10
62.6699031874
 20
112.1065662803
 30
0.0
 11
62.4462655125
 21
115.3047335894
 31
0.0
  0
LINE
  5
217
330
1F
100
AcDbEntity
  8
0
  6
Continuous
 62
     7
370
    15
100
AcDbLine
 10
62.6879876674
 20
111.8479463832
 30
0.0
 11
62.6699031874
 21
112.1065662803
 31
0.0
  0
CIRCLE
  5
218
330
1F
100
AcDbEntity
  8
VERMASSUNG
  6
CENTERX2
100
AcDbCircle
 10
63.432990488
 20
121.3632599488
 30
0.0
 40
20.00000000000001
  0
DIMENSION
  5
219
330
1F
100
AcDbEntity
  8
VERMASSUNG
100
AcDbDimension
  2
_D_6
 10
53.432990488
 20
104.0427518732
 30
0.0
 11
48.0652994662
 21
94.7456383041
 31
0.0
 70
   160
  1
%%c<> min. 
 71
     2
 42
-1.0
  3
SLDDIMSTYLE2
100
AcDbAlignedDimension
 13
73.432990488
 23
138.6837680245
 33
0.0
 14
53.432990488
 24
104.0427518732
 34
0.0
 50
60.0
100
AcDbRotatedDimension
  0
DIMENSION
  5
228
330
1F
100
AcDbEntity
  8
VERMASSUNG
100
AcDbDimension
  2
_D_7
 10
63.432990488
 20
100.693909377
 30
0.0
 11
53.993332777
 21
148.3405836199
 31
0.0
 70
   162
  1
<>
 71
     1
 42
-1.0
  3
SLDDIMSTYLE3
100
AcDb2LineAngularDimension
 13
61.0536005023
 23
139.5214475655
 33
0.0
 14
62.973938451
 24
112.0593354602
 34
0.0
 15
63.432990488
 25
145.693909377
 35
0.0
 16
61.9018263489
 26
149.3413895904
 36
0.0
  0
INSERT
  5
240
330
1F
100
AcDbEntity
  8
VERMASSUNG
100
AcDbBlockReference
  2
SW_CENTERMARKSYMBOL_0
 10
63.432990488
 20
123.193909377
 30
0.0
  0
OLE2FRAME
  5
241
330
1F
100
AcDbEntity
  8
0
100
AcDbOle2Frame
 70
     2
  3
Paintbrush-Bild
 10
13.8511154363
 20
38.264191557
 30
0.0
 11
51.6290888628
 21
31.9806341108
 31
0.0
 71
     2
 72
     0
 73
     1
 90
    12928
310
80552BED0767C5B32B40DDAF6807D121434000000000000000006FFBDDFB85D0
310
4940DDAF6807D121434000000000000000006FFBDDFB85D04940416F4BD60AFB
310
3F4000000000000000002BED0767C5B32B40416F4BD60AFB3F40000000000000
310
0000000000000100000000010000010000000100000000000100000000320000
310
D0CF11E0A1B11AE1000000000000000000000000000000003E000300FEFF0900
310
0600000000000000000000000100000001000000000000000010000002000000
310
01000000FEFFFFFF0000000000000000FFFFFFFFFFFFFFFFFFFFFFFFFFFFFFFF
310
FFFFFFFFFFFFFFFFFFFFFFFFFFFFFFFFFFFFFFFFFFFFFFFFFFFFFFFFFFFFFFFF
310
FFFFFFFFFFFFFFFFFFFFFFFFFFFFFFFFFFFFFFFFFFFFFFFFFFFFFFFFFFFFFFFF
310
FFFFFFFFFFFFFFFFFFFFFFFFFFFFFFFFFFFFFFFFFFFFFFFFFFFFFFFFFFFFFFFF
310
FFFFFFFFFFFFFFFFFFFFFFFFFFFFFFFFFFFFFFFFFFFFFFFFFFFFFFFFFFFFFFFF
310
FFFFFFFFFFFFFFFFFFFFFFFFFFFFFFFFFFFFFFFFFFFFFFFFFFFFFFFFFFFFFFFF
310
FFFFFFFFFFFFFFFFFFFFFFFFFFFFFFFFFFFFFFFFFFFFFFFFFFFFFFFFFFFFFFFF
310
FFFFFFFFFFFFFFFFFFFFFFFFFFFFFFFFFFFFFFFFFFFFFFFFFFFFFFFFFFFFFFFF
310
FFFFFFFFFFFFFFFFFFFFFFFFFFFFFFFFFFFFFFFFFFFFFFFFFFFFFFFFFFFFFFFF
310
FFFFFFFFFFFFFFFFFFFFFFFFFFFFFFFFFFFFFFFFFFFFFFFFFFFFFFFFFFFFFFFF
310
FFFFFFFFFFFFFFFFFFFFFFFFFFFFFFFFFFFFFFFFFFFFFFFFFFFFFFFFFFFFFFFF
310
FFFFFFFFFFFFFFFFFFFFFFFFFFFFFFFFFFFFFFFFFFFFFFFFFFFFFFFFFFFFFFFF
310
FFFFFFFFFFFFFFFFFFFFFFFFFFFFFFFFFFFFFFFFFFFFFFFFFFFFFFFFFFFFFFFF
310
FFFFFFFFFFFFFFFFFFFFFFFFFFFFFFFFFFFFFFFFFFFFFFFFFFFFFFFFFFFFFFFF
310
FDFFFFFFFEFFFFFFFEFFFFFFFEFFFFFF05000000060000000700000008000000
310
090000000A0000000B0000000C0000000D0000000E0000000F00000010000000
310
11000000120000001300000014000000150000001600000017000000FEFFFFFF
310
FFFFFFFFFFFFFFFFFFFFFFFFFFFFFFFFFFFFFFFFFFFFFFFFFFFFFFFFFFFFFFFF
310
FFFFFFFFFFFFFFFFFFFFFFFFFFFFFFFFFFFFFFFFFFFFFFFFFFFFFFFFFFFFFFFF
310
FFFFFFFFFFFFFFFFFFFFFFFFFFFFFFFFFFFFFFFFFFFFFFFFFFFFFFFFFFFFFFFF
310
FFFFFFFFFFFFFFFFFFFFFFFFFFFFFFFFFFFFFFFFFFFFFFFFFFFFFFFFFFFFFFFF
310
FFFFFFFFFFFFFFFFFFFFFFFFFFFFFFFFFFFFFFFFFFFFFFFFFFFFFFFFFFFFFFFF
310
FFFFFFFFFFFFFFFFFFFFFFFFFFFFFFFFFFFFFFFFFFFFFFFFFFFFFFFFFFFFFFFF
310
FFFFFFFFFFFFFFFFFFFFFFFFFFFFFFFFFFFFFFFFFFFFFFFFFFFFFFFFFFFFFFFF
310
FFFFFFFFFFFFFFFFFFFFFFFFFFFFFFFFFFFFFFFFFFFFFFFFFFFFFFFFFFFFFFFF
310
FFFFFFFFFFFFFFFFFFFFFFFFFFFFFFFFFFFFFFFFFFFFFFFFFFFFFFFFFFFFFFFF
310
FFFFFFFFFFFFFFFFFFFFFFFFFFFFFFFFFFFFFFFFFFFFFFFFFFFFFFFFFFFFFFFF
310
FFFFFFFFFFFFFFFFFFFFFFFFFFFFFFFFFFFFFFFFFFFFFFFFFFFFFFFFFFFFFFFF
310
FFFFFFFFFFFFFFFFFFFFFFFFFFFFFFFFFFFFFFFFFFFFFFFFFFFFFFFFFFFFFFFF
310
FFFFFFFFFFFFFFFFFFFFFFFFFFFFFFFFFFFFFFFFFFFFFFFFFFFFFFFFFFFFFFFF
310
52006F006F007400200045006E00740072007900000000000000000000000000
310
0000000000000000000000000000000000000000000000000000000000000000
310
16000500FFFFFFFFFFFFFFFF020000000A00030000000000C000000000000046
310
000000000000000000000000E0ED84DE9244CD0103000000C000000000000000
310
01004F006C006500000000000000000000000000000000000000000000000000
310
0000000000000000000000000000000000000000000000000000000000000000
310
0A000200FFFFFFFFFFFFFFFFFFFFFFFF00000000000000000000000000000000
310
0000000000000000000000000000000000000000000000001400000000000000
310
010043006F006D0070004F0062006A0000000000000000000000000000000000
310
0000000000000000000000000000000000000000000000000000000000000000
310
120002010100000003000000FFFFFFFF00000000000000000000000000000000
310
0000000000000000000000000000000000000000010000004D00000000000000
310
01004F006C006500310030004E00610074006900760065000000000000000000
310
0000000000000000000000000000000000000000000000000000000000000000
310
1A000200FFFFFFFFFFFFFFFFFFFFFFFF00000000000000000000000000000000
310
0000000000000000000000000000000000000000040000002426000000000000
310
FEFFFFFF02000000FEFFFFFFFFFFFFFFFFFFFFFFFFFFFFFFFFFFFFFFFFFFFFFF
310
FFFFFFFFFFFFFFFFFFFFFFFFFFFFFFFFFFFFFFFFFFFFFFFFFFFFFFFFFFFFFFFF
310
FFFFFFFFFFFFFFFFFFFFFFFFFFFFFFFFFFFFFFFFFFFFFFFFFFFFFFFFFFFFFFFF
310
FFFFFFFFFFFFFFFFFFFFFFFFFFFFFFFFFFFFFFFFFFFFFFFFFFFFFFFFFFFFFFFF
310
FFFFFFFFFFFFFFFFFFFFFFFFFFFFFFFFFFFFFFFFFFFFFFFFFFFFFFFFFFFFFFFF
310
FFFFFFFFFFFFFFFFFFFFFFFFFFFFFFFFFFFFFFFFFFFFFFFFFFFFFFFFFFFFFFFF
310
FFFFFFFFFFFFFFFFFFFFFFFFFFFFFFFFFFFFFFFFFFFFFFFFFFFFFFFFFFFFFFFF
310
FFFFFFFFFFFFFFFFFFFFFFFFFFFFFFFFFFFFFFFFFFFFFFFFFFFFFFFFFFFFFFFF
310
FFFFFFFFFFFFFFFFFFFFFFFFFFFFFFFFFFFFFFFFFFFFFFFFFFFFFFFFFFFFFFFF
310
FFFFFFFFFFFFFFFFFFFFFFFFFFFFFFFFFFFFFFFFFFFFFFFFFFFFFFFFFFFFFFFF
310
FFFFFFFFFFFFFFFFFFFFFFFFFFFFFFFFFFFFFFFFFFFFFFFFFFFFFFFFFFFFFFFF
310
FFFFFFFFFFFFFFFFFFFFFFFFFFFFFFFFFFFFFFFFFFFFFFFFFFFFFFFFFFFFFFFF
310
FFFFFFFFFFFFFFFFFFFFFFFFFFFFFFFFFFFFFFFFFFFFFFFFFFFFFFFFFFFFFFFF
310
FFFFFFFFFFFFFFFFFFFFFFFFFFFFFFFFFFFFFFFFFFFFFFFFFFFFFFFFFFFFFFFF
310
FFFFFFFFFFFFFFFFFFFFFFFFFFFFFFFFFFFFFFFFFFFFFFFFFFFFFFFFFFFFFFFF
310
FFFFFFFFFFFFFFFFFFFFFFFFFFFFFFFFFFFFFFFFFFFFFFFFFFFFFFFFFFFFFFFF
310
0100000200000000000000000000000000000000000000000000000000000000
310
0000000000000000000000000000000000000000000000000000000000000000
310
0100FEFF030A0000FFFFFFFF0A00030000000000C00000000000004607000000
310
5042727573680007000000504272757368000700000050427275736800F439B2
310
7100000000000000000000000000000000000000000000000000000000000000
310
0000000000000000000000000000000000000000000000000000000000000000
310
0000000000000000000000000000000000000000000000000000000000000000
310
0000000000000000000000000000000000000000000000000000000000000000
310
0000000000000000000000000000000000000000000000000000000000000000
310
0000000000000000000000000000000000000000000000000000000000000000
310
0000000000000000000000000000000000000000000000000000000000000000
310
0000000000000000000000000000000000000000000000000000000000000000
310
0000000000000000000000000000000000000000000000000000000000000000
310
0000000000000000000000000000000000000000000000000000000000000000
310
0000000000000000000000000000000000000000000000000000000000000000
310
0000000000000000000000000000000000000000000000000000000000000000
310
20260000424D0E260000000000003E00000028000000B40200006E0000000100
310
01000000000000000000130B0000130B00000200000002000000000000FFFFFF
310
FFFFFFFFFFFFFFFFFFFFFFFFFFFFFFFFFFFFFFFFFFFFFFFFFFFFFFFFFFFFFFFF
310
FFFFFFFFFFFFFFFFFFFFFFFFFFFFFFFFFFFFFFFFFFFFFFFFFFFFFFFFFFFFFFFF
310
FFFFFFFFFFFFFFFFFFFFFFFFFFFFFFFFFFFFFFFFFFFFFFFFF000FFFFFFFFFFFF
310
FFFFFFFFFFFFFFFFFFFFFFFFFFFFFFFFFFFFFFFFFFFFFFFFFFFFFFFFFFFFFFFF
310
FFFFFFFFFFFFFFFFFFFFFFFFFFFFFFFFFFFFFFFFFFFFFFFFFFFFFFFFFFFFFFFF
310
FFFFFFFFFFFFFFFFFFFFFFFFFFFFFFFFF000FFFFFFFFFFFFFFFFFFFFFFFFFFFF
310
FFFFFFFFFFFFFFFFFFFFFFFFFFFFFFFFFFFFFFFFFFFFFFFFFFFFFFFFFFFFFFFF
310
FFFFFFFFFFFFFFFFFFFFFFFFFFFFFFFFFFFFFFFFFFFFFFFFFFFFFFFFFFFFFFFF
310
FFFFFFFFFFFFFFFFF000FFFFFFFFFFFFFFFFFFFFFFFFFFFFFFFFFFFFFFFFFFFF
310
FFFFFFFFFFFFFFFFFFFFFFFFFFFFFFFFFFFFFFFFFFFFFFFFFFFFFFFFFFFFFFFF
310
FFFFFFFFFFFFFFFFFFFFFFFFFFFFFFFFFFFFFFFFFFFFFFFFFFFFFFFFFFFFFFFF
310
F000FFFFFFFFFFFFFFFFFFFFFFFFFFFFFFFFFFFFFFFFFFFFFFFFFFFFFFFFFFFF
310
FFFFFFFFFFFFFFFFFFFFFFFFFFFFFFFFFFFFFFFFFFFFFFFFFFFFFFFFFFFFFFFF
310
FFFFFFFFFFFFFFFFFFFFFFFFFFFFFFFFFFFFFFFFFFFFFFFFF000FFFFFFFFFFFF
310
FFFFFFFFFFFFFFFFFFFFFFFFFFFFFFFFFFFFFFFFFFFFFFFFFFFFFFFFFFFFFFFF
310
FFFFFFFFFFFFFFFFFFFFFFFFFFFFFFFFFFFFFFFFFFFFFFFFFFFFFFFFFFFFFFFF
310
FFFFFFFFFFFFFFFFFFFFFFFFFFFFFFFFF000FFFFFFFFFFFFFFFFFFFFFFFFFFFF
310
FFFFFFFFFFFFFFFFFFFFFFFFFFFFFFFFFFFFFFFFFFFFFFFFFFFFFFFFFFFFFFFF
310
FFFFFFFFFFFFFFFFFFFFFFFFFFFFFFFFFFFFFFFFFFFFFFFFFFFFFFFFFFFFFFFF
310
FFFFFFFFFFFFFFFFF000FFFFFFFFFFFFFFFFFFFFFFFFFFFFFFFFFFFFFFFFFFFF
310
FFFFFFFFFFFFFFFFFFFFFFFFFFFFFFFFFFFFFFFFFFFFFFFFFFFFFFFFFFFFFFFF
310
FFFFFFFFFFFFFFFFFFFFFFFFFFFFFFFFFFFFFFFFFFFFFFFFFFFFFFFFFFFFFFFF
310
F000FFFFFFFFFFFFFFFFFFFFFFFFFFFFFFFFFFFFFFFFFFFFFFFFFFFFFFFFFFFF
310
FFFFFFFFFFFFFFFFFFFFFFFFFFFFFFFFFFFFFFFFFFFFFFFFFFFFFFFFFFFFFFFF
310
FFFFFFFFFFFFFFFFFFFFFFFFFFFFFFFFFFFFFFFFFFFFFFFFF000FFFFFFFFFFFF
310
FFFFFFFFFFFFFFFFFFFFFFFFFFFFFFFFFFFFFFFFFFFFFFFFFFFFFFFFFFFFFFFF
310
FFFFFFFFFFFFFFFFFFFFFFFFFFFFFFFFFFFFFFFFFFFFFFFFFFFFFFFFFFFFFFFF
310
FFFFFFFFFFFFFFFFFFFFFFFFFFFFFFFFF000FFFFFFFFFFFFFFFFFFFFFFFFFFFF
310
FFFFFFFFFFFFFFFFFFFFFFFFFFFFFFFFFFFFFFFFFFFFFFFFFFFFFFFFFFFFFFFF
310
FFFFFFFFFFFFFFFFFFFFFFFFFFFFFFFFFFFFFFFFFFFFFFFFFFFFFFFFFFFFFFFF
310
FFFFFFFFFFFFFFFFF000FFFFFFFFFFFFFFFFFFFFFFFFFFFFFFFFFFFFFFFFFFFF
310
FFFFFFFFFFFFFFFFFFFFFFFFFFFFFFFFFFFFFFFFFFFFFFFFFFFFFFFFFFFFFFFF
310
FFFFFFFFFFFFFFFFFFFFFFFFFFFFFFFFFFFFFFFFFFFFFFFFFFFFFFFFFFFFFFFF
310
F000FFFFFFFFFFFFFFFFFFFFFFFFFFFFFFFFFFFFFFFFFFFFFFFFFFFFFFFFFFFF
310
FFFFFFFFFFFFFFFFFFFFFFFFFFFFFFFFFFFFFFFFFFFFFFFFFFFFFFFFFFFFFFFF
310
FFFFFFFFFFFFFFFFFFFFFFFFFFFFFFFFFFFFFFFFFFFFFFFFF000FFFFFFFFFFFF
310
FFFFFFFFFFFFFFFFFFFFFFFFFFFFFFFFFFFFFFFFFFFFFFFFFFFFFFFFFFFFFFFF
310
FFFFFFFFFFFFFFFFFFFFFFFFFFFFFFFFFFFFFFFFFFFFFFFFFFFFFFFFFFFFFFFF
310
FFFFFFFFFFFFFFFFFFFFFFFFFFFFFFFFF000FFFFFFFFFFFFFFFFFFFFFFFFFFFF
310
FFFFFFFFFFFFFFFFFFFFFFFFFFFFFFFFFFFFFFFFFFFFFFFFFFFFFFFFFFFFFFFF
310
FFFFFFFFFFFFFFFFFFFFFFFFFFFFFFFFFFFFFFFFFFFFFFFFFFFFFFFFFFFFFFFF
310
FFFFFFFFFFFFFFFFF000FFFFFFFFFFFFFFFFFFFFFFFFFFFFFFFFFFFFFFFFFFFF
310
FFFFFFFFFFFFFFFFFFFFFFFFFFFFFFFFFFFFFFFFFFFFFFFFFFFFFFFFFFFFFFFF
310
FFFFFFFFFFFFFFFFFFFFFFFFFFFFFFFFFFFFFFFFFFFFFFFFFFFFFFFFFFFFFFFF
310
F000FFFFFFFFFFFFFFFFFFFFFFFFFFFFFFFFFFFFFFFFFFFFFFFFFFFFFFFFFFFF
310
FFFFFFFFFFFFFFFFFFFFFFFFFFFFFFFFFFFFFFFFFFFFFFFFFFFFFFFFFFFFFFFF
310
FFFFFFFFFFFFFFFFFFFFFFFFFFFFFFFFFFFFFFFFFFFFFFFFF000FFFFFFFFFFFF
310
FFFFFFFFFFFFFFFFFFFFFFFFFFFFFFFFFFFFFFFFFFFFFFFFFFFFFFFFFFFFFFFF
310
FFFFFFFFFFFFFFFFFFFFFFFFFFFFFFFFFFFFFFFFFFFFFFFFFFFFFFFFFFFFFFFF
310
FFFFFFFFFFFFFFFFFFFFFFFFFFFFFFFFF000FFFFFFFFFFFFFFFFFFFFFFFFFFFF
310
FFFFFFFFFFFFFFFFFFFFFFFFFFFFFFFFFFFFFFFFFFFFFFFFFFFFFFFFFFFFFFFF
310
FFFFFFFFFFFFFFFFFFFFFFFFFFFFFFFFFFFFFFFFFFFFFFFFFFFFFFFFFFFFFFFF
310
FFFFFFFFFFFFFFFFF000FFFFF80003FFFFFFFFFFFFFFFFFFFFFFFFFFFFFFFFFF
310
FFFFF00007FFFFFFFFFF00007FFFFFF800000000000000007FFFFFFFFFFFFFFF
310
FFFFFFFC001FFFFFFFFFFFFFFC001FFFFFFFFFFFFFFFFFFFFFFFFFFE0007FFFF
310
F000FFFF8000007FFFFFFFF8000FFFFFC0007FFFFF80007FFFFF0000007FFFFF
310
FFF8000007FFFFF800000000000000007FFFFFF0001FFFFFFFFFFFC00001FFFF
310
FFFFFFFFC00001FFFFFFFF000000000003FFFFE000007FFFF000FFFE0000000F
310
FFFFFFF0000FFFFF80007FFFFF80007FFFFC0000001FFFFFFFC0000001FFFFF8
310
00000000000000007FFFFFF0001FFFFFFFFFFE0000003FFFFFFFFFFE0000003F
310
FFFFFF000000000003FFFF0000000FFFF000FFF800000003FFFFFFF00007FFFF
310
80007FFFFF80007FFFF000000007FFFFFF000000003FFFF80000000000000000
310
7FFFFFF0001FFFFFFFFFF80000000FFFFFFFFFF80000000FFFFFFF0000000000
310
03FFFC00000003FFF000FFE000000000FFFFFFF00007FFFF80003FFFFF80007F
310
FFC000000001FFFFFC000000001FFFF800000000000000007FFFFFF0001FFFFF
310
FFFFE000000003FFFFFFFFE000000003FFFFFF000000000003FFF000000000FF
310
F000FF80000000007FFFFFF00007FFFF80003FFFFF80007FFF8000000000FFFF
310
F80000000007FFF800000000000000007FFFFFF0001FFFFFFFFFC000000001FF
310
FFFFFFC000000001FFFFFF000000000003FFC0000000007FF000FF0000000000
310
3FFFFFE00007FFFF00003FFFFF80007FFE00000000003FFFF00000000003FFF8
310
00000000000000007FFFFFF0001FFFFFFFFF8000000000FFFFFFFF8000000000
310
FFFFFF000000000003FF80000000003FF000FE00000000001FFFFFE00003FFFF
310
00003FFFFF80007FFC00000000001FFFE00000000001FFF8000001FFFE000000
310
7FFFFFF0001FFFFFFFFE00000000003FFFFFFE00000000003FFFFF0000000000
310
03FF00000000001FF000FC00000000000FFFFFE00003FFFF00001FFFFF80007F
310
F800000000001FFFC00000000000FFF8000001FFFE0000007FFFFFF0001FFFFF
310
FFFC00000000001FFFFFFC00000000001FFFFF000000000003FE00000000000F
310
F000F8000000000007FFFFE00003FFFF00001FFFFF80007FF800000000000FFF
310
800000000000FFF8000001FFFE0000007FFFFFF0001FFFFFFFF800000000000F
310
FFFFF800000000000FFFFF000000000003FC000000000007F000F80000000000
310
03FFFFC00003FFFE00001FFFFF80007FF0000000000007FF0000000000007FF8
310
000001FFFE0000007FFFFFF0001FFFFFFFF0000000000007FFFFF00000000000
310
07FFFF000000000003F8000000000003F000F0000000000003FFFFC00001FFFE
310
00001FFFFF80007FE0000000000007FE0000000000003FF8000001FFFE000000
310
7FFFFFF0001FFFFFFFF0000000000007FFFFF0000000000007FFFF0000000000
310
03F800001F800003F000E00001FFF00001FFFFC00001FFFE00000FFFFF80007F
310
E00001FFE00003FE00001FFF00003FF8000001FFFE0000007FFFFFF0001FFFFF
310
FFE000003E000003FFFFE000003E000003FFFF000000000003F00001FFF80001
310
F000E00007FFFC0001FFFFC00001FFFE00000FFFFF80007FC0000FFFFC0003FC
310
0000FFFFC0001FF8000001FFFE0000007FFFFFF0001FFFFFFFC00003FFE00001
310
FFFFC00003FFE00001FFFF0001FFFFFFFFF00007FFFE0001F000E0000FFFFF00
310
00FFFF800001FFFC00000FFFFF80007FC0001FFFFE0001FC0001FFFFE0001FF8
310
000001FFFE0000007FFFFFF0001FFFFFFF80000FFFF80000FFFF80000FFFF800
310
00FFFF0003FFFFFFFFE0000FFFFF8000F000C0003FFFFF8000FFFF800000FFFC
310
000007FFFF80007F80003FFFFF0001FC0003FFFFF0001FF8000001FFFE000000
310
7FFFFFF0001FFFFFFF80003FFFFE0000FFFF80003FFFFE0000FFFF0003FFFFFF
310
FFE0003FFFFF8000F000C0003FFFFF8000FFFF800000FFFC000007FFFF80007F
310
80007FFFFF8001F80007FFFFF8000FF8000001FFFE0000007FFFFFF0001FFFFF
310
FF00007FFFFF00007FFF00007FFFFF00007FFF0003FFFFFFFFE0003FFFFFC000
310
F000C0007FFFFFC000FFFF000000FFFC000007FFFF80007F8000FFFFFF8000F8
310
000FFFFFF8000FF8000001FFFE0000007FFFFFF0001FFFFFFF0000FFFFFF8000
310
7FFF0000FFFFFF80007FFF0003FFFFFFFFC0007FFFFFC00070008000FFFFFFC0
310
00FFFF000000FFF8000007FFFF80007F8000FFFFFF8000F8000FFFFFF8000FF8
310
000001FFFE0000007FFFFFF0001FFFFFFE0001FFFFFFC0003FFE0001FFFFFFC0
310
003FFF0003FFFFFFFFC0007FFFFFE00070008000FFFFFFC0007FFF0000007FF8
310
000003FFFF80007F0001FFFFFF8000F8000FFFFFF8000FF8000001FFFE000000
310
7FFFFFF0001FFFFFFE0001FFFFFFC0003FFE0001FFFFFFC0003FFF0003FFFFFF
310
FFC000FFFFFFE00070008000FFFFFFC0007FFF0000007FF8000003FFFF80007F
310
0001FFFFFF8000F8001FFFFFF8000FF8000001FFFE0000007FFFFFF0001FFFFF
310
FE0003FFFFFFE0003FFE0003FFFFFFE0003FFF0003FFFFFFFFC000FFFFFFE000
310
70008000FFFFFFC0007FFE0000007FF8000003FFFF80007F0001FFFFFF8000F0
310
001FFFFFF8000FF8000001FFFE0000007FFFFFF0001FFFFFFC0003FFFFFFE000
310
1FFC0003FFFFFFE0001FFF0003FFFFFFFFC000FFFFFFC00070008000FFFFFF80
310
007FFE0000007FF0000003FFFF80007F0001FFFFFF0000F0001FFFFFF8000FF8
310
000001FFFE0000007FFFFFF0001FFFFFFC0007FFFFFFF0001FFC0007FFFFFFF0
310
001FFF0003FFFFFFFFC000FFFFFFC00070008001FFFFFF0000FFFE0000003FF0
310
000001FFFF80007F0001FFFFFF0000F8001FFFFFF0000FF8000001FFFE000000
310
7FFFFFF0001FFFFFFC0007FFFFFFF0001FFC0007FFFFFFF0001FFF0003FFFFFF
310
FFC001FFFFFF80007000FFFFFFFFFE0000FFFE0008003FF0008001FFFF80007F
310
FFFFFFFFFC0000FFFFFFFFFFE0000FF8000001FFFE0000007FFFFFF0001FFFFF
310
F8000FFFFFFFF8000FF8000FFFFFFFF8000FFF0003FFFFFFFFFFFFFFFFFF0000
310
7000FFFFFFFFFC0000FFFC0008003FF0008001FFFF80007FFFFFFFFFF80001FF
310
FFFFFFFF80000FF8000001FFFE0000007FFFFFF0001FFFFFF8000FFFFFFFF800
310
0FF8000FFFFFFFF8000FFF0003FFFFFFFFFFFFFFFFFE0000F000FFFFFFFFE000
310
00FFFC000C003FE000C001FFFF80007FFFFFFFFFC00001FFFFFFFFFE00001FF8
310
000001FFFE0000007FFFFFF0001FFFFFF8000FFFFFFFF8000FF8000FFFFFFFF8
310
000FFF0003FFFFFFFFFFFFFFFFF00000F000FFFFFFFE000001FFFC000C001FE0
310
00C000FFFF80007FFFFFFFFE000001FFFFFFFFE000001FF80FFFFFFFFFFFFFC0
310
7FFFFFF0001FFFFFF8000FFFFFFFF8000FF8000FFFFFFFF8000FFF0003FFFFFF
310
FFFFFFFFFF800000F000FFFFFFC0000001FFFC001C001FE001C000FFFF80007F
310
FFFFFF80000003FFFFFFF80000001FF80FFFFFFFFFFFFFC07FFFFFF0001FFFFF
310
F8001FFFFFFFFC000FF8001FFFFFFFFC000FFF0003FFFFFFFFFFFFFFF0000001
310
F000FFFFF800000001FFF8001C001FE001C000FFFF80007FFFFFF800000003FF
310
FFFF800000003FF80FFFFFFFFFFFFFC07FFFFFF0001FFFFFF8001FFFFFFFFC00
310
0FF8001FFFFFFFFC000FFF0003FFFFFFFFFFFFFE00000001F000FFFFC0000000
310
03FFF8001E001FC001E000FFFF80007FFFFF8000000007FFFFFC000000003FF8
310
0FFFFFFFFFFFFFC07FFFFFF0001FFFFFF8001FFFFFFFFC000FF8001FFFFFFFFC
310
000FFF0003FFFFFFFFFFFFE000000003F000FFFE0000000007FFF8001E000FC0
310
01E0007FFF80007FFFFE0000000007FFFFE0000000007FF80FFFFFFFFFFFFFC0
310
7FFFFFF0001FFFFFF0001FFFFFFFFC0007F0001FFFFFFFFC0007FF0003FFFFFF
310
FFFFFF0000000003F000FFF80000000007FFF8001E000FC003E0007FFF80007F
310
FFF0000000000FFFFF8000000000FFF80FFFFFFFFFFFFFC07FFFFFF0001FFFFF
310
F0001FFFFFFFFC0007F0001FFFFFFFFC0007FF0003FFFFFFFFFFFC0000000007
310
F000FFE0000000000FFFF0003E000FC003E0007FFF80007FFFC0000000001FFF
310
FE0000000001FFF80FFFFFFFFFFFFFC07FFFFFF0001FFFFFF0001FFFFFFFFC00
310
07F0001FFFFFFFFC0007FF0003FFFFFFFFFFF0000000000FF000FFC000000000
310
1FFFF0003F000F8003F0003FFF80007FFF80000000003FFFF80000000003FFF8
310
0FFFFFFFFFFFFFC07FFFFFF0001FFFFFF0001FFFFFFFFC0007F0001FFFFFFFFC
310
0007FF0003FFFFFFFFFFE0000000001FF000FF00000000007FFFF0003F000780
310
03F0003FFF80007FFF00000000007FFFF00000000007FFF80FFFFFFFFFFFFFC0
310
7FFFFFF0001FFFFFF0001FFFFFFFFC0007F0001FFFFFFFFC0007FF0003FFFFFF
310
FFFF80000000007FF000FE0000000000FFFFE0003F00078007F0003FFF80007F
310
FE0000000001FFFFE0000000001FFFF80FFFFFFFFFFFFFC07FFFFFF0001FFFFF
310
F0001FFFFFFFFC0007F0001FFFFFFFFC0007FF0003FFFFFFFFFF0000000000FF
310
F000FC0000000003FFFFE0007F00078007F0003FFF80007FFC0000000007FFFF
310
C0000000007FFFF80FFFFFFFFFFFFFC07FFFFFF0001FFFFFF8001FFFFFFFFC00
310
0FF8001FFFFFFFFC000FFF0003FFFFFFFFFE0000000003FFF000FC000000000F
310
FFFFE0007F80070007F8001FFF80007FF8000000001FFFFF8000000001FFFFF8
310
0FFFFFFFFFFFFFC07FFFFFF0001FFFFFF8001FFFFFFFFC000FF8001FFFFFFFFC
310
000FFF0003FFFFFFFFFC000000000FFFF000F8000000007FFFFFE0007F800700
310
07F8001FFF80007FF000000000FFFFFF800000000FFFFFF80FFFFFFFFFFFFFC0
310
7FFFFFF0001FFFFFF8000FFFFFFFF8000FF8000FFFFFFFF8000FFF0003FFFFFF
310
FFFC000000007FFFF000F800000007FFFFFFC0007F8003000FF8001FFF80007F
310
F000000007FFFFFF000000007FFFFFF80FFFFFFFFFFFFFC07FFFFFF0001FFFFF
310
F8000FFFFFFFF8000FF8000FFFFFFFF8000FFF0003FFFFFFFFF80000000FFFFF
310
F000F0000000FFFFFFFFC000FF8003000FF8001FFF80007FE0000000FFFFFFFF
310
0000000FFFFFFFF8000001FFFE0000007FFFFFF0001FFFFFF8000FFFFFFFF800
310
0FF8000FFFFFFFF8000FFF0003FFFFFFFFF8000000FFFFFFF000F000000FFFFF
310
FFFFC000FFC002000FF8000FFF80007FE000001FFFFFFFFE000001FFFFFFFFF8
310
000001FFFE0000007FFFFFF0001FFFFFF8000FFFFFFFF8000FF8000FFFFFFFF8
310
000FFF0003FFFFFFFFF000001FFFFFFFF000E00000FFFFFFFFFFC000FFC00200
310
0FFC000FFF80007FE00001FFFFFFFFFE00001FFFFFFFFFF8000001FFFE000000
310
7FFFFFF0001FFFFFFC000FFFFFFFF8001FFC000FFFFFFFF8001FFF0003FFFFFF
310
FFF00001FFFFFFFFF000E00007FFFFFFFFFF8000FFC000001FFC000FFF80007F
310
C0000FFFFFFFFFFE0000FFFFFFFFFFF8000001FFFE0000007FFFFFF0001FFFFF
310
FC0007FFFFFFF0001FFC0007FFFFFFF0001FFF0003FFFFFFFFF00007FFFFFFFF
310
F000E0001FFFFFFFFFFF8000FFC000001FFC000FFF80007FC0003FFFFFFFFFFE
310
0001FFFFFFFFFFF8000001FFFE0000007FFFFFF0001FFFFFFC0007FFFFFFF000
310
1FFC0007FFFFFFF0001FFF0003FFFFFFFFF0001FFFFFFFFFF000E0003FFFFF00
310
03FF8001FFE000001FFC0007FF80007FC0007FFFFF0007FC0003FFFFF0003FF8
310
000001FFFE0000007FFFFFF0001FFFFFFC0003FFFFFFE0001FFC0003FFFFFFE0
310
001FFF0003FFFFFFFFF0003FFFFFFFFFF000E0003FFFFF0001FF8001FFE00000
310
1FFE0007FF80007FC0007FFFFE0003FC0007FFFFE0003FF8000001FFFE000000
310
7FFFFFF0001FFFFFFE0003FFFFFFE0003FFE0003FFFFFFE0003FFF0003FFFFFF
310
FFF0003FFFFF8001F000E0003FFFFF0001FF0001FFE000001FFE0007FF80007F
310
C0007FFFFE0003FC0007FFFFE0003FF8000001FFFE0000007FFFFFF0001FFFFF
310
FE0001FFFFFFC0003FFE0001FFFFFFC0003FFF0003FFFFFFFFF0003FFFFF0001
310
F000E0003FFFFF0003FF0001FFE000003FFE0007FF80007FC0007FFFFE0003FC
310
0007FFFFE0003FF8000001FFFE0000007FFFFFF0001FFFFFFF0001FFFFFFC000
310
7FFF0001FFFFFFC0007FFF0003FFFFFFFFF0003FFFFF0001F000E0003FFFFE00
310
03FF0003FFF000003FFE0003FF80007FC0007FFFFC0003FE0007FFFFE0003FF8
310
000001FFFE0000007FFFFFF0001FFFFFFF0000FFFFFF80007FFF0000FFFFFF80
310
007FFF0003FFFFFFFFF0003FFFFF0001F000E0003FFFFE0003FF0003FFF00000
310
3FFF0003FF80007FC0007FFFFC0007FE0007FFFFC0003FF8000001FFFE000000
310
7FFFFFF0001FFFFFFF80007FFFFF0000FFFF80007FFFFF0000FFFF0003FFFFFF
310
FFF0003FFFFF0003F000E0003FFFFC0003FE0003FFF000003FFF0003FF80007F
310
E0003FFFF80007FE0003FFFFC0007FF8000001FFFE0000007FFFFFF0001FFFFF
310
FF80003FFFFE0000FFFF80003FFFFE0000FFFF0003FFFFFFFFF0001FFFFE0003
310
F000F0001FFFF80003FE0003FFF000007FFF0001FF80007FE0003FFFF00007FE
310
0001FFFF80007FF8000001FFFE0000007FFFFFF0001FFFFFFFC0000FFFF80001
310
FFFFC0000FFFF80001FFFF0003FFFFFFFFF0001FFFFC0003F000F0000FFFF000
310
07FE0007FFF800007FFF0001FF80007FE0001FFFE00007FF0000FFFE00007FF8
310
000001FFFE0000007FFFFFF0001FFFFFFFC00003FFE00001FFFFC00003FFE000
310
01FFFF0003FFFFFFFFF8000FFFF80003F000F00003FFC00007FC0007FFF80000
310
7FFF8001FF80007FF00007FF80000FFF00007FF80000FFF8000001FFFE000000
310
7F80000000000001FFE000003E000003FFFFE000003E000003FFFF0003FFFFFF
310
FFF80003FFE00007F000F800000000000FFC0007FFF800007FFF8001FF80007F
310
F000000000000FFF000000000000FFF8000001FFFE0000007F80000000000001
310
FFF0000000000007FFFFF0000000000007FFFF0003FFFFFFFFFC00007E000007
310
F000F800000000000FFC0007FFF80000FFFF8000FF80007FF800000000001FFF
310
800000000001FFF8000001FFFE0000007F80000000000001FFF800000000000F
310
FFFFF800000000000FFFFF0003FFFFFFFFFC00000000000FF000FC0000000000
310
1FFC0007FFFC0000FFFF8000FF80007FF800000000003FFFC00000000001FFF8
310
000001FFFE0000007F80000000000001FFF800000000000FFFFFF80000000000
310
0FFFFF0003FFFFFFFFFE00000000001FF000FE00000000003FF8000FFFFC0000
310
FFFF8000FF80007FFC00000000003FFFC00000000003FFF8000001FFFE000000
310
7F80000000000001FFFC00000000001FFFFFFC00000000001FFFFF0003FFFFFF
310
FFFF00000000001FF000FF00000000003FF8000FFFFC0000FFFFC000FF80007F
310
FE00000000007FFFE00000000007FFF8000001FFFE0000007F80000000000001
310
FFFE00000000003FFFFFFE00000000003FFFFF0003FFFFFFFFFF80000000003F
310
F000FF80000000007FF8000FFFFC0001FFFFC0007F80007FFF0000000000FFFF
310
F0000000000FFFF800000000000000007F80000000000001FFFF8000000000FF
310
FFFFFF8000000000FFFFFF0003FFFFFFFFFFC0000000007FF000FFC000000000
310
FFF8000FFFFE0001FFFFC0007F80007FFF8000000001FFFFF8000000001FFFF8
310
00000000000000007F80000000000001FFFFC000000001FFFFFFFFC000000001
310
FFFFFF0003FFFFFFFFFFE000000000FFF000FFE000000003FFF0001FFFFE0001
310
FFFFC0007F80007FFFC000000007FFFFFE000000003FFFF80000000000000000
310
7F80000000000001FFFFE000000003FFFFFFFFE000000003FFFFFF0003FFFFFF
310
FFFFF000000003FFF000FFF80000000FFFF0001FFFFE0001FFFFE0007F80007F
310
FFF00000000FFFFFFF00000000FFFFF800000000000000007F80000000000001
310
FFFFF80000000FFFFFFFFFF80000000FFFFFFF0003FFFFFFFFFFFC0000000FFF
310
F000FFFE0000003FFFF0001FFFFE0003FFFFE0003F80007FFFFC0000003FFFFF
310
FFC0000003FFFFF800000000000000007F80000000000001FFFFFE0000003FFF
310
FFFFFFFE0000003FFFFFFF0003FFFFFFFFFFFF0000003FFFF000FFFF800000FF
310
FFF0001FFFFF0003FFFFE0003F80007FFFFF000001FFFFFFFFF800001FFFFFF8
310
00000000000000007F80000000000001FFFFFFC00001FFFFFFFFFFFFC00001FF
310
FFFFFF0003FFFFFFFFFFFFC00000FFFFF000FFFFF8000FFFFFFFFFFFFFFFFFFF
310
FFFFFFFFFFFFFFFFFFFFF0001FFFFFFFFFFF0000FFFFFFF80000000000000000
310
7FFFFFFFFFFFFFFFFFFFFFFC001FFFFFFFFFFFFFFC001FFFFFFFFFFFFFFFFFFF
310
FFFFFFFC001FFFFFF000FFFFFFFFFFFFFFFFFFFFFFFFFFFFFFFFFFFFFFFFFFFF
310
FFFFFFFFFFFFFFFFFFFFFFFFFFFFFFFFFFFFFFFFFFFFFFFFFFFFFFFFFFFFFFFF
310
FFFFFFFFFFFFFFFFFFFFFFFFFFFFFFFFFFFFFFFFFFFFFFFFFFFFFFFFFFFFFFFF
310
F000FFFFFFFFFFFFFFFFFFFFFFFFFFFFFFFFFFFFFFFFFFFFFFFFFFFFFFFFFFFF
310
FFFFFFFFFFFFFFFFFFFFFFFFFFFFFFFFFFFFFFFFFFFFFFFFFFFFFFFFFFFFFFFF
310
FFFFFFFFFFFFFFFFFFFFFFFFFFFFFFFFFFFFFFFFFFFFFFFFF000FFFFFFFFFFFF
310
FFFFFFFFFFFFFFFFFFFFFFFFFFFFFFFFFFFFFFFFFFFFFFFFFFFFFFFFFFFFFFFF
310
FFFFFFFFFFFFFFFFFFFFFFFFFFFFFFFFFFFFFFFFFFFFFFFFFFFFFFFFFFFFFFFF
310
FFFFFFFFFFFFFFFFFFFFFFFFFFFFFFFFF000FFFFFFFFFFFFFFFFFFFFFFFFFFFF
310
FFFFFFFFFFFFFFFFFFFFFFFFFFFFFFFFFFFFFFFFFFFFFFFFFFFFFFFFFFFFFFFF
310
FFFFFFFFFFFFFFFFFFFFFFFFFFFFFFFFFFFFFFFFFFFFFFFFFFFFFFFFFFFFFFFF
310
FFFFFFFFFFFFFFFFF000FFFFFFFFFFFFFFFFFFFFFFFFFFFFFFFFFFFFFFFFFFFF
310
FFFFFFFFFFFFFFFFFFFFFFFFFFFFFFFFFFFFFFFFFFFFFFFFFFFFFFFFFFFFFFFF
310
FFFFFFFFFFFFFFFFFFFFFFFFFFFFFFFFFFFFFFFFFFFFFFFFFFFFFFFFFFFFFFFF
310
F000FFFFFFFFFFFFFFFFFFFFFFFFFFFFFFFFFFFFFFFFFFFFFFFFFFFFFFFFFFFF
310
FFFFFFFFFFFFFFFFFFFFFFFFFFFFFFFFFFFFFFFFFFFFFFFFFFFFFFFFFFFFFFFF
310
FFFFFFFFFFFFFFFFFFFFFFFFFFFFFFFFFFFFFFFFFFFFFFFFF000FFFFFFFFFFFF
310
FFFFFFFFFFFFFFFFFFFFFFFFFFFFFFFFFFFFFFFFFFFFFFFFFFFFFFFFFFFFFFFF
310
FFFFFFFFFFFFFFFFFFFFFFFFFFFFFFFFFFFFFFFFFFFFFFFFFFFFFFFFFFFFFFFF
310
FFFFFFFFFFFFFFFFFFFFFFFFFFFFFFFFF000FFFFFFFFFFFFFFFFFFFFFFFFFFFF
310
FFFFFFFFFFFFFFFFFFFFFFFFFFFFFFFFFFFFFFFFFFFFFFFFFFFFFFFFFFFFFFFF
310
FFFFFFFFFFFFFFFFFFFFFFFFFFFFFFFFFFFFFFFFFFFFFFFFFFFFFFFFFFFFFFFF
310
FFFFFFFFFFFFFFFFF000FFFFFFFFFFFFFFFFFFFFFFFFFFFFFFFFFFFFFFFFFFFF
310
FFFFFFFFFFFFFFFFFFFFFFFFFFFFFFFFFFFFFFFFFFFFFFFFFFFFFFFFFFFFFFFF
310
FFFFFFFFFFFFFFFFFFFFFFFFFFFFFFFFFFFFFFFFFFFFFFFFFFFFFFFFFFFFFFFF
310
F000FFFFFFFFFFFFFFFFFFFFFFFFFFFFFFFFFFFFFFFFFFFFFFFFFFFFFFFFFFFF
310
FFFFFFFFFFFFFFFFFFFFFFFFFFFFFFFFFFFFFFFFFFFFFFFFFFFFFFFFFFFFFFFF
310
FFFFFFFFFFFFFFFFFFFFFFFFFFFFFFFFFFFFFFFFFFFFFFFFF000FFFFFFFFFFFF
310
FFFFFFFFFFFFFFFFFFFFFFFFFFFFFFFFFFFFFFFFFFFFFFFFFFFFFFFFFFFFFFFF
310
FFFFFFFFFFFFFFFFFFFFFFFFFFFFFFFFFFFFFFFFFFFFFFFFFFFFFFFFFFFFFFFF
310
FFFFFFFFFFFFFFFFFFFFFFFFFFFFFFFFF000FFFFFFFFFFFFFFFFFFFFFFFFFFFF
310
FFFFFFFFFFFFFFFFFFFFFFFFFFFFFFFFFFFFFFFFFFFFFFFFFFFFFFFFFFFFFFFF
310
FFFFFFFFFFFFFFFFFFFFFFFFFFFFFFFFFFFFFFFFFFFFFFFFFFFFFFFFFFFFFFFF
310
FFFFFFFFFFFFFFFFF000FFFFFFFFFFFFFFFFFFFFFFFFFFFFFFFFFFFFFFFFFFFF
310
FFFFFFFFFFFFFFFFFFFFFFFFFFFFFFFFFFFFFFFFFFFFFFFFFFFFFFFFFFFFFFFF
310
FFFFFFFFFFFFFFFFFFFFFFFFFFFFFFFFFFFFFFFFFFFFFFFFFFFFFFFFFFFFFFFF
310
F000FFFFFFFFFFFFFFFFFFFFFFFFFFFFFFFFFFFFFFFFFFFFFFFFFFFFFFFFFFFF
310
FFFFFFFFFFFFFFFFFFFFFFFFFFFFFFFFFFFFFFFFFFFFFFFFFFFFFFFFFFFFFFFF
310
FFFFFFFFFFFFFFFFFFFFFFFFFFFFFFFFFFFFFFFFFFFFFFFFF000FFFFFFFFFFFF
310
FFFFFFFFFFFFFFFFFFFFFFFFFFFFFFFFFFFFFFFFFFFFFFFFFFFFFFFFFFFFFFFF
310
FFFFFFFFFFFFFFFFFFFFFFFFFFFFFFFFFFFFFFFFFFFFFFFFFFFFFFFFFFFFFFFF
310
FFFFFFFFFFFFFFFFFFFFFFFFFFFFFFFFF000FFFFFFFFFFFFFFFFFFFFFFFFFFFF
310
FFFFFFFFFFFFFFFFFFFFFFFFFFFFFFFFFFFFFFFFFFFFFFFFFFFFFFFFFFFFFFFF
310
FFFFFFFFFFFFFFFFFFFFFFFFFFFFFFFFFFFFFFFFFFFFFFFFFFFFFFFFFFFFFFFF
310
FFFFFFFFFFFFFFFFF000FFFFFFFFFFFFFFFFFFFFFFFFFFFFFFFFFFFFFFFFFFFF
310
FFFFFFFFFFFFFFFFFFFFFFFFFFFFFFFFFFFFFFFFFFFFFFFFFFFFFFFFFFFFFFFF
310
FFFFFFFFFFFFFFFFFFFFFFFFFFFFFFFFFFFFFFFFFFFFFFFFFFFFFFFFFFFFFFFF
310
F000FFFFFFFFFFFFFFFFFFFFFFFFFFFFFFFFFFFFFFFFFFFFFFFFFFFFFFFFFFFF
310
FFFFFFFFFFFFFFFFFFFFFFFFFFFFFFFFFFFFFFFFFFFFFFFFFFFFFFFFFFFFFFFF
310
FFFFFFFFFFFFFFFFFFFFFFFFFFFFFFFFFFFFFFFFFFFFFFFFF000FFFFFFFFFFFF
310
FFFFFFFFFFFFFFFFFFFFFFFFFFFFFFFFFFFFFFFFFFFFFFFFFFFFFFFFFFFFFFFF
310
FFFFFFFFFFFFFFFFFFFFFFFFFFFFFFFFFFFFFFFFFFFFFFFFFFFFFFFFFFFFFFFF
310
FFFFFFFFFFFFFFFFFFFFFFFFFFFFFFFFF000FFFFFFFFFFFFFFFFFFFFFFFFFFFF
310
FFFFFFFFFFFFFFFFFFFFFFFFFFFFFFFFFFFFFFFFFFFFFFFFFFFFFFFFFFFFFFFF
310
FFFFFFFFFFFFFFFFFFFFFFFFFFFFFFFFFFFFFFFFFFFFFFFFFFFFFFFFFFFFFFFF
310
FFFFFFFFFFFFFFFFF000FFFFFFFFFFFFFFFFFFFFFFFFFFFFFFFFFFFFFFFFFFFF
310
FFFFFFFFFFFFFFFFFFFFFFFFFFFFFFFFFFFFFFFFFFFFFFFFFFFFFFFFFFFFFFFF
310
FFFFFFFFFFFFFFFFFFFFFFFFFFFFFFFFFFFFFFFFFFFFFFFFFFFFFFFFFFFFFFFF
310
F000FFFFFFFFFFFFFFFFFFFFFFFFFFFFFFFFFFFFFFFFFFFFFFFFFFFFFFFFFFFF
310
FFFFFFFFFFFFFFFFFFFFFFFFFFFFFFFFFFFFFFFFFFFFFFFFFFFFFFFFFFFFFFFF
310
FFFFFFFFFFFFFFFFFFFFFFFFFFFFFFFFFFFFFFFFFFFFFFFFF000FFFFFFFFFFFF
310
FFFFFFFFFFFFFFFFFFFFFFFFFFFFFFFFFFFFFFFFFFFFFFFFFFFFFFFFFFFFFFFF
310
FFFFFFFFFFFFFFFFFFFFFFFFFFFFFFFFFFFFFFFFFFFFFFFFFFFFFFFFFFFFFFFF
310
FFFFFFFFFFFFFFFFFFFFFFFFFFFFFFFFF0000000000000000000000000000000
310
0000000000000000000000000000000000000000000000000000000000000000
310
0000000000000000000000000000000000000000000000000000000000000000
310
0000000000000000000000000000000000000000000000000000000000000000
310
0000000000000000000000000000000000000000000000000000000000000000
310
0000000000000000000000000000000000000000000000000000000000000000
310
0000000000000000000000000000000000000000000000000000000000000000
310
0000000000000000000000000000000000000000000000000000000000000000
310
0000000000000000000000000000000000000000000000000000000000000000
310
0000000000000000000000000000000000000000000000000000000000000000
310
0000000000000000000000000000000000000000000000000000000000000000
310
0000000000000000000000000000000000000000000000000000000000000000
310
0000000000000000000000000000000000000000000000000000000000000000
310
0000000000000000000000000000000000000000000000000000000000000000
310
0000000000000000000000000000000000000000000000000000000000000000
310
0000000000000000000000000000000000000000000000000000000000000000
  1
OLE
  0
ENDSEC
  0
SECTION
  2
OBJECTS
  0
DICTIONARY
  5
C
330
0
100
AcDbDictionary
281
     1
  3
ACAD_GROUP
350
D
  3
ACAD_LAYOUT
350
1A
  3
ACAD_MLINESTYLE
350
17
  3
ACAD_PLOTSETTINGS
350
19
  3
ACAD_PLOTSTYLENAME
350
E
  0
DICTIONARY
  5
D
102
{ACAD_REACTORS
330
C
102
}
330
C
100
AcDbDictionary
281
     1
  0
DICTIONARY
  5
1A
102
{ACAD_REACTORS
330
C
102
}
330
C
100
AcDbDictionary
281
     1
  3
Layout1
350
1E
  3
Layout2
350
26
  3
Model
350
22
  0
DICTIONARY
  5
17
102
{ACAD_REACTORS
330
C
102
}
330
C
100
AcDbDictionary
281
     1
  3
Standard
350
18
  0
DICTIONARY
  5
19
102
{ACAD_REACTORS
330
C
102
}
330
C
100
AcDbDictionary
281
     1
  0
ACDBDICTIONARYWDFLT
  5
E
102
{ACAD_REACTORS
330
C
102
}
330
C
100
AcDbDictionary
281
     1
  3
Normal
350
F
100
AcDbDictionaryWithDefault
340
F
  0
LAYOUT
  5
1E
102
{ACAD_REACTORS
330
1A
102
}
330
1A
100
AcDbPlotSettings
  1

  2
none_device
  4

  6

 40
0.0
 41
0.0
 42
0.0
 43
0.0
 44
0.0
 45
0.0
 46
0.0
 47
0.0
 48
0.0
 49
0.0
140
0.0
141
0.0
142
1.0
143
1.0
 70
   688
 72
     0
 73
     0
 74
     5
  7

 75
    16
147
1.0
148
0.0
149
0.0
100
AcDbLayout
  1
Layout1
 70
     1
 71
     1
 10
0.0
 20
0.0
 11
420.0
 21
297.0
 12
0.0
 22
0.0
 32
0.0
 14
1.0000000000E+20
 24
1.0000000000E+20
 34
1.0000000000E+20
 15
-1.0000000000E+20
 25
-1.0000000000E+20
 35
-1.0000000000E+20
146
0.0
 13
0.0
 23
0.0
 33
0.0
 16
1.0
 26
0.0
 36
0.0
 17
0.0
 27
1.0
 37
0.0
 76
     0
330
1B
  0
LAYOUT
  5
26
102
{ACAD_REACTORS
330
1A
102
}
330
1A
100
AcDbPlotSettings
  1

  2
none_device
  4

  6

 40
0.0
 41
0.0
 42
0.0
 43
0.0
 44
0.0
 45
0.0
 46
0.0
 47
0.0
 48
0.0
 49
0.0
140
0.0
141
0.0
142
1.0
143
1.0
 70
   688
 72
     0
 73
     0
 74
     5
  7

 75
    16
147
1.0
148
0.0
149
0.0
100
AcDbLayout
  1
Layout2
 70
     1
 71
     2
 10
0.0
 20
0.0
 11
0.0
 21
0.0
 12
0.0
 22
0.0
 32
0.0
 14
0.0
 24
0.0
 34
0.0
 15
0.0
 25
0.0
 35
0.0
146
0.0
 13
0.0
 23
0.0
 33
0.0
 16
1.0
 26
0.0
 36
0.0
 17
0.0
 27
1.0
 37
0.0
 76
     0
330
23
  0
LAYOUT
  5
22
102
{ACAD_REACTORS
330
1A
102
}
330
1A
100
AcDbPlotSettings
  1

  2
none_device
  4

  6

 40
0.0
 41
0.0
 42
0.0
 43
0.0
 44
0.0
 45
0.0
 46
0.0
 47
0.0
 48
0.0
 49
0.0
140
0.0
141
0.0
142
1.0
143
1.0
 70
  1712
 72
     0
 73
     0
 74
     0
  7

 75
     0
147
1.0
148
0.0
149
0.0
100
AcDbLayout
  1
Model
 70
     1
 71
     0
 10
0.0
 20
0.0
 11
297.0
 21
210.0
 12
0.0
 22
0.0
 32
0.0
 14
0.0
 24
0.0
 34
0.0
 15
297.0
 25
210.0
 35
0.0
146
0.0
 13
0.0
 23
0.0
 33
0.0
 16
1.0
 26
0.0
 36
0.0
 17
0.0
 27
1.0
 37
0.0
 76
     0
330
1F
331
29
  0
MLINESTYLE
  5
18
102
{ACAD_REACTORS
330
17
102
}
330
17
100
AcDbMlineStyle
  2
Standard
 70
     0
  3

 62
   256
 51
90.0
 52
90.0
 71
     2
 49
0.5
 62
   256
  6
BYLAYER
 49
-0.5
 62
   256
  6
BYLAYER
  0
ACDBPLACEHOLDER
  5
F
102
{ACAD_REACTORS
330
E
102
}
330
E
  0
ENDSEC
  0
EOF
