  0
SECTION
  2
HEADER
  9
$ACADVER
  1
AC1015
  9
$ACADMAINTVER
 70
     6
  9
$DWGCODEPAGE
  3
ANSI_1252
  9
$INSBASE
 10
0.0
 20
0.0
 30
0.0
  9
$EXTMIN
 10
0.0
 20
0.0
 30
0.0
  9
$EXTMAX
 10
297.0
 20
210.0
 30
0.0
  9
$LIMMIN
 10
0.0
 20
0.0
  9
$LIMMAX
 10
297.0
 20
210.0
  9
$ORTHOMODE
 70
     0
  9
$REGENMODE
 70
     1
  9
$FILLMODE
 70
     1
  9
$QTEXTMODE
 70
     0
  9
$MIRRTEXT
 70
     1
  9
$LTSCALE
 40
1.0
  9
$ATTMODE
 70
     1
  9
$TEXTSIZE
 40
2.0
  9
$TRACEWID
 40
1.0
  9
$TEXTSTYLE
  7
Standard
  9
$CLAYER
  8
0
  9
$CELTYPE
  6
ByLayer
  9
$CECOLOR
 62
   256
  9
$CELTSCALE
 40
1.0
  9
$DISPSILH
 70
     0
  9
$DIMSCALE
 40
1.0
  9
$DIMASZ
 40
3.0
  9
$DIMEXO
 40
0.0
  9
$DIMDLI
 40
3.75
  9
$DIMRND
 40
0.0
  9
$DIMDLE
 40
0.0
  9
$DIMEXE
 40
1.0
  9
$DIMTP
 40
0.0
  9
$DIMTM
 40
0.0
  9
$DIMTXT
 40
2.0
  9
$DIMCEN
 40
2.5
  9
$DIMTSZ
 40
0.0
  9
$DIMTOL
 70
     0
  9
$DIMLIM
 70
     0
  9
$DIMTIH
 70
     1
  9
$DIMTOH
 70
     1
  9
$DIMSE1
 70
     0
  9
$DIMSE2
 70
     0
  9
$DIMTAD
 70
     1
  9
$DIMZIN
 70
     0
  9
$DIMBLK
  1

  9
$DIMASO
 70
     1
  9
$DIMSHO
 70
     1
  9
$DIMPOST
  1

  9
$DIMAPOST
  1

  9
$DIMALT
 70
     0
  9
$DIMALTD
 70
     3
  9
$DIMALTF
 40
0.0393700787
  9
$DIMLFAC
 40
1.0
  9
$DIMTOFL
 70
     1
  9
$DIMTVP
 40
0.0
  9
$DIMTIX
 70
     0
  9
$DIMSOXD
 70
     0
  9
$DIMSAH
 70
     0
  9
$DIMBLK1
  1

  9
$DIMBLK2
  1

  9
$DIMSTYLE
  2
ISO-25
  9
$DIMCLRD
 70
     0
  9
$DIMCLRE
 70
     0
  9
$DIMCLRT
 70
     0
  9
$DIMTFAC
 40
1.0
  9
$DIMGAP
 40
1.524
  9
$DIMJUST
 70
     0
  9
$DIMSD1
 70
     0
  9
$DIMSD2
 70
     0
  9
$DIMTOLJ
 70
     0
  9
$DIMTZIN
 70
     0
  9
$DIMALTZ
 70
     0
  9
$DIMALTTZ
 70
     0
  9
$DIMUPT
 70
     0
  9
$DIMDEC
 70
     2
  9
$DIMTDEC
 70
     3
  9
$DIMALTU
 70
     2
  9
$DIMALTTD
 70
     3
  9
$DIMTXSTY
  7
Standard
  9
$DIMAUNIT
 70
     0
  9
$DIMADEC
 70
     2
  9
$DIMALTRND
 40
0.0
  9
$DIMAZIN
 70
     0
  9
$DIMDSEP
 70
    44
  9
$DIMATFIT
 70
     3
  9
$DIMFRAC
 70
     0
  9
$DIMLDRBLK
  1

  9
$DIMLUNIT
 70
     2
  9
$DIMLWD
 70
    -2
  9
$DIMLWE
 70
    -2
  9
$DIMTMOVE
 70
     0
  9
$LUNITS
 70
     2
  9
$LUPREC
 70
     2
  9
$SKETCHINC
 40
1.0
  9
$FILLETRAD
 40
10.0
  9
$AUNITS
 70
     0
  9
$AUPREC
 70
     2
  9
$MENU
  1
.
  9
$ELEVATION
 40
0.0
  9
$PELEVATION
 40
0.0
  9
$THICKNESS
 40
0.0
  9
$LIMCHECK
 70
     0
  9
$CHAMFERA
 40
10.0
  9
$CHAMFERB
 40
10.0
  9
$CHAMFERC
 40
20.0
  9
$CHAMFERD
 40
0.0
  9
$SKPOLY
 70
     0
  9
$TDCREATE
 40
2456097.757887373
  9
$TDUCREATE
 40
2456097.674554039
  9
$TDUPDATE
 40
2456097.757888634
  9
$TDUUPDATE
 40
2456097.674555301
  9
$TDINDWG
 40
0.0000000116
  9
$TDUSRTIMER
 40
0.0000000116
  9
$USRTIMER
 70
     1
  9
$ANGBASE
 50
0.0
  9
$ANGDIR
 70
     0
  9
$PDMODE
 70
     0
  9
$PDSIZE
 40
-1.0
  9
$PLINEWID
 40
0.0
  9
$SPLFRAME
 70
     0
  9
$SPLINETYPE
 70
     6
  9
$SPLINESEGS
 70
     8
  9
$HANDSEED
  5
223
  9
$SURFTAB1
 70
     6
  9
$SURFTAB2
 70
     6
  9
$SURFTYPE
 70
     6
  9
$SURFU
 70
     6
  9
$SURFV
 70
     6
  9
$UCSBASE
  2

  9
$UCSNAME
  2

  9
$UCSORG
 10
0.0
 20
0.0
 30
0.0
  9
$UCSXDIR
 10
1.0
 20
0.0
 30
0.0
  9
$UCSYDIR
 10
0.0
 20
1.0
 30
0.0
  9
$UCSORTHOREF
  2

  9
$UCSORTHOVIEW
 70
     0
  9
$UCSORGTOP
 10
0.0
 20
0.0
 30
0.0
  9
$UCSORGBOTTOM
 10
0.0
 20
0.0
 30
0.0
  9
$UCSORGLEFT
 10
0.0
 20
0.0
 30
0.0
  9
$UCSORGRIGHT
 10
0.0
 20
0.0
 30
0.0
  9
$UCSORGFRONT
 10
0.0
 20
0.0
 30
0.0
  9
$UCSORGBACK
 10
0.0
 20
0.0
 30
0.0
  9
$PUCSBASE
  2

  9
$PUCSNAME
  2

  9
$PUCSORG
 10
0.0
 20
0.0
 30
0.0
  9
$PUCSXDIR
 10
1.0
 20
0.0
 30
0.0
  9
$PUCSYDIR
 10
0.0
 20
1.0
 30
0.0
  9
$PUCSORTHOREF
  2

  9
$PUCSORTHOVIEW
 70
     0
  9
$PUCSORGTOP
 10
0.0
 20
0.0
 30
0.0
  9
$PUCSORGBOTTOM
 10
0.0
 20
0.0
 30
0.0
  9
$PUCSORGLEFT
 10
0.0
 20
0.0
 30
0.0
  9
$PUCSORGRIGHT
 10
0.0
 20
0.0
 30
0.0
  9
$PUCSORGFRONT
 10
0.0
 20
0.0
 30
0.0
  9
$PUCSORGBACK
 10
0.0
 20
0.0
 30
0.0
  9
$USERI1
 70
     0
  9
$USERI2
 70
     0
  9
$USERI3
 70
     0
  9
$USERI4
 70
     0
  9
$USERI5
 70
     0
  9
$USERR1
 40
0.0
  9
$USERR2
 40
0.0
  9
$USERR3
 40
0.0
  9
$USERR4
 40
0.0
  9
$USERR5
 40
0.0
  9
$WORLDVIEW
 70
     1
  9
$SHADEDGE
 70
     3
  9
$SHADEDIF
 70
    70
  9
$TILEMODE
 70
     1
  9
$MAXACTVP
 70
    64
  9
$PINSBASE
 10
0.0
 20
0.0
 30
0.0
  9
$PLIMCHECK
 70
     0
  9
$PEXTMIN
 10
1.0000000000E+20
 20
1.0000000000E+20
 30
1.0000000000E+20
  9
$PEXTMAX
 10
-1.0000000000E+20
 20
-1.0000000000E+20
 30
-1.0000000000E+20
  9
$PLIMMIN
 10
0.0
 20
0.0
  9
$PLIMMAX
 10
420.0
 20
297.0
  9
$UNITMODE
 70
     0
  9
$VISRETAIN
 70
     1
  9
$PLINEGEN
 70
     0
  9
$PSLTSCALE
 70
     1
  9
$TREEDEPTH
 70
  3020
  9
$CMLSTYLE
  2
Standard
  9
$CMLJUST
 70
     0
  9
$CMLSCALE
 40
20.0
  9
$PROXYGRAPHICS
 70
     1
  9
$MEASUREMENT
 70
     1
  9
$CELWEIGHT
370
    -1
  9
$ENDCAPS
280
     0
  9
$JOINSTYLE
280
     0
  9
$LWDISPLAY
290
     1
  9
$INSUNITS
 70
     4
  9
$HYPERLINKBASE
  1

  9
$STYLESHEET
  1

  9
$XEDIT
290
     1
  9
$CEPSNTYPE
380
     0
  9
$PSTYLEMODE
290
     1
  9
$FINGERPRINTGUID
  2
{858F9470-44AE-46D5-8C03-0C847490EFA5}
  9
$VERSIONGUID
  2
{FAEB1C32-E019-11D5-929B-00C0DF256EC4}
  9
$EXTNAMES
290
     1
  9
$PSVPSCALE
 40
0.0
  9
$OLESTARTUP
290
     0
  0
ENDSEC
  0
SECTION
  2
CLASSES
  0
CLASS
  1
ACDBDICTIONARYWDFLT
  2
AcDbDictionaryWithDefault
  3
ObjectDBX Classes
 90
        0
280
     0
281
     0
  0
CLASS
  1
VISUALSTYLE
  2
AcDbVisualStyle
  3
ObjectDBX Classes
 90
     4095
280
     0
281
     0
  0
CLASS
  1
MATERIAL
  2
AcDbMaterial
  3
ObjectDBX Classes
 90
     1153
280
     0
281
     0
  0
CLASS
  1
ACDBPLACEHOLDER
  2
AcDbPlaceHolder
  3
ObjectDBX Classes
 90
        0
280
     0
281
     0
  0
CLASS
  1
LAYOUT
  2
AcDbLayout
  3
ObjectDBX Classes
 90
        0
280
     0
281
     0
  0
ENDSEC
  0
SECTION
  2
TABLES
  0
TABLE
  2
VPORT
  5
8
330
0
100
AcDbSymbolTable
 70
     1
  0
VPORT
  5
29
330
8
100
AcDbSymbolTableRecord
100
AcDbViewportTableRecord
  2
*Active
 70
     0
 10
0.0
 20
0.0
 11
1.0
 21
1.0
 12
148.5
 22
105.0
 13
0.0
 23
0.0
 14
10.0
 24
10.0
 15
10.0
 25
10.0
 16
0.0
 26
0.0
 36
1.0
 17
0.0
 27
0.0
 37
0.0
 40
210.0
 41
1.4142857143
 42
50.0
 43
0.0
 44
0.0
 50
0.0
 51
0.0
 71
     0
 72
  2000
 73
     1
 74
     3
 75
     0
 76
     0
 77
     0
 78
     0
281
     0
 65
     1
110
0.0
120
0.0
130
0.0
111
1.0
121
0.0
131
0.0
112
0.0
122
1.0
132
0.0
 79
     0
146
0.0
  0
ENDTAB
  0
TABLE
  2
LTYPE
  5
5
330
0
100
AcDbSymbolTable
 70
     6
  0
LTYPE
  5
14
330
5
100
AcDbSymbolTableRecord
100
AcDbLinetypeTableRecord
  2
ByBlock
 70
     0
  3

 72
    65
 73
     0
 40
0.0
  0
LTYPE
  5
15
330
5
100
AcDbSymbolTableRecord
100
AcDbLinetypeTableRecord
  2
ByLayer
 70
     0
  3

 72
    65
 73
     0
 40
0.0
  0
LTYPE
  5
16
330
5
100
AcDbSymbolTableRecord
100
AcDbLinetypeTableRecord
  2
Continuous
 70
     0
  3
Solid line
 72
    65
 73
     0
 40
0.0
  0
LTYPE
  5
3F
330
5
100
AcDbSymbolTableRecord
100
AcDbLinetypeTableRecord
  2
HIDDEN
 70
     0
  3
Hidden __ __ __ __ __ __ __ __ __ __ __ __ __ __
 72
    65
 73
     2
 40
1.905
 49
1.27
 74
     0
 49
-0.635
 74
     0
  0
LTYPE
  5
40
330
5
100
AcDbSymbolTableRecord
100
AcDbLinetypeTableRecord
  2
PHANTOM
 70
     0
  3
Phantom ______  __  __  ______  __  __  ______
 72
    65
 73
     6
 40
12.7
 49
6.35
 74
     0
 49
-1.27
 74
     0
 49
1.27
 74
     0
 49
-1.27
 74
     0
 49
1.27
 74
     0
 49
-1.27
 74
     0
  0
LTYPE
  5
41
330
5
100
AcDbSymbolTableRecord
100
AcDbLinetypeTableRecord
  2
CENTER
 70
     0
  3
Center ____ _ ____ _ ____ _ ____ _ ____ _ ____
 72
    65
 73
     4
 40
10.16
 49
6.35
 74
     0
 49
-1.27
 74
     0
 49
1.27
 74
     0
 49
-1.27
 74
     0
  0
LTYPE
  5
42
330
5
100
AcDbSymbolTableRecord
100
AcDbLinetypeTableRecord
  2
CENTERX2
 70
     0
  3
Center (2x) ________  __  ________  __  _____
 72
    65
 73
     4
 40
20.32
 49
12.7
 74
     0
 49
-2.54
 74
     0
 49
2.54
 74
     0
 49
-2.54
 74
     0
  0
LTYPE
  5
43
330
5
100
AcDbSymbolTableRecord
100
AcDbLinetypeTableRecord
  2
DOT2
 70
     0
  3
Dot (.5x) ........................................
 72
    65
 73
     2
 40
0.635
 49
0.0
 74
     0
 49
-0.635
 74
     0
  0
ENDTAB
  0
TABLE
  2
LAYER
  5
2
330
0
100
AcDbSymbolTable
 70
     5
  0
LAYER
  5
10
330
2
100
AcDbSymbolTableRecord
100
AcDbLayerTableRecord
  2
0
 70
     0
 62
     7
  6
Continuous
370
    -3
390
F
  0
LAYER
  5
44
330
2
100
AcDbSymbolTableRecord
100
AcDbLayerTableRecord
  2
FORMAT
 70
     0
 62
     7
  6
Continuous
370
    -3
390
F
  0
LAYER
  5
45
330
2
100
AcDbSymbolTableRecord
100
AcDbLayerTableRecord
  2
VERMASSUNG
 70
     0
 62
     7
  6
Continuous
370
    -3
390
F
  0
LAYER
  5
46
330
2
100
AcDbSymbolTableRecord
100
AcDbLayerTableRecord
  2
KOPF_DÜNN
 70
     0
 62
     7
  6
Continuous
370
    -3
390
F
  0
LAYER
  5
47
330
2
100
AcDbSymbolTableRecord
100
AcDbLayerTableRecord
  2
KOPF_DICK
 70
     0
 62
     7
  6
Continuous
370
    15
390
F
  0
ENDTAB
  0
TABLE
  2
STYLE
  5
3
330
0
100
AcDbSymbolTable
 70
     3
  0
STYLE
  5
11
330
3
100
AcDbSymbolTableRecord
100
AcDbTextStyleTableRecord
  2
Standard
 70
     0
 40
0.0
 41
1.0
 50
0.0
 71
     0
 42
2.0
  3
txt
  4

  0
STYLE
  5
48
330
3
100
AcDbSymbolTableRecord
100
AcDbTextStyleTableRecord
  2
SLDTEXTSTYLE0
 70
     0
 40
0.0
 41
0.7
 50
0.0
 71
     0
 42
0.2
  3
TXT
  4

  0
STYLE
  5
4C
330
3
100
AcDbSymbolTableRecord
100
AcDbTextStyleTableRecord
  2
SLDTEXTSTYLE1
 70
     0
 40
0.0
 41
0.6538461538
 50
0.0
 71
     0
 42
0.2
  3
TXT
  4

  0
ENDTAB
  0
TABLE
  2
VIEW
  5
6
330
0
100
AcDbSymbolTable
 70
     0
  0
ENDTAB
  0
TABLE
  2
UCS
  5
7
330
0
100
AcDbSymbolTable
 70
     0
  0
ENDTAB
  0
TABLE
  2
APPID
  5
9
330
0
100
AcDbSymbolTable
 70
     1
  0
APPID
  5
12
330
9
100
AcDbSymbolTableRecord
100
AcDbRegAppTableRecord
  2
ACAD
 70
     0
  0
ENDTAB
  0
TABLE
  2
DIMSTYLE
  5
A
330
0
100
AcDbSymbolTable
 70
     2
100
AcDbDimStyleTable
  0
DIMSTYLE
105
27
330
A
100
AcDbSymbolTableRecord
100
AcDbDimStyleTableRecord
  2
ISO-25
 70
     0
 41
2.5
 42
0.625
 43
3.75
 44
1.25
 73
     0
 74
     0
 77
     1
 78
     8
140
2.5
141
2.5
143
0.0393700787
147
0.625
171
     3
172
     1
178
     0
271
     2
272
     2
274
     3
278
    44
283
     0
284
     8
340
11
  0
DIMSTYLE
105
199
102
{ACAD_REACTORS
330
198
330
1A5
330
1AF
330
1B9
102
}
330
A
100
AcDbSymbolTableRecord
100
AcDbDimStyleTableRecord
  2
SLDDIMSTYLE0
 70
     0
 41
3.0
 44
0.0
 45
0.000000001
 73
     0
 74
     0
 77
     1
 78
    12
 79
     3
140
2.0
147
0.5
173
     1
178
     0
271
     2
272
     3
276
     2
284
    12
340
48
  0
ENDTAB
  0
TABLE
  2
BLOCK_RECORD
  5
1
330
0
100
AcDbSymbolTable
 70
     6
  0
BLOCK_RECORD
  5
1F
330
1
100
AcDbSymbolTableRecord
100
AcDbBlockTableRecord
  2
*Model_Space
340
22
  0
BLOCK_RECORD
  5
1B
330
1
100
AcDbSymbolTableRecord
100
AcDbBlockTableRecord
  2
*Paper_Space
340
1E
  0
BLOCK_RECORD
  5
23
330
1
100
AcDbSymbolTableRecord
100
AcDbBlockTableRecord
  2
*Paper_Space0
340
26
  0
BLOCK_RECORD
  5
19A
330
1
100
AcDbSymbolTableRecord
100
AcDbBlockTableRecord
  2
_D
340
0
  0
BLOCK_RECORD
  5
1A6
330
1
100
AcDbSymbolTableRecord
100
AcDbBlockTableRecord
  2
_D_1
340
0
  0
BLOCK_RECORD
  5
1B0
330
1
100
AcDbSymbolTableRecord
100
AcDbBlockTableRecord
  2
_D_2
340
0
  0
BLOCK_RECORD
  5
1BA
330
1
100
AcDbSymbolTableRecord
100
AcDbBlockTableRecord
  2
_D_3
340
0
  0
BLOCK_RECORD
  5
216
330
1
100
AcDbSymbolTableRecord
100
AcDbBlockTableRecord
  2
SW_CENTERMARKSYMBOL_0
340
0
102
{BLKREFS
331
221
102
}
  0
ENDTAB
  0
ENDSEC
  0
SECTION
  2
BLOCKS
  0
BLOCK
  5
20
330
1F
100
AcDbEntity
  8
0
100
AcDbBlockBegin
  2
*Model_Space
 70
     0
 10
0.0
 20
0.0
 30
0.0
  3
*Model_Space
  1

  0
ENDBLK
  5
21
330
1F
100
AcDbEntity
  8
0
100
AcDbBlockEnd
  0
BLOCK
  5
1C
330
1B
100
AcDbEntity
 67
     1
  8
0
100
AcDbBlockBegin
  2
*Paper_Space
 70
     0
 10
0.0
 20
0.0
 30
0.0
  3
*Paper_Space
  1

  0
ENDBLK
  5
1D
330
1B
100
AcDbEntity
 67
     1
  8
0
100
AcDbBlockEnd
  0
BLOCK
  5
24
330
23
100
AcDbEntity
  8
0
100
AcDbBlockBegin
  2
*Paper_Space0
 70
     0
 10
0.0
 20
0.0
 30
0.0
  3
*Paper_Space0
  1

  0
ENDBLK
  5
25
330
23
100
AcDbEntity
  8
0
100
AcDbBlockEnd
  0
BLOCK
  5
19B
330
19A
100
AcDbEntity
  8
0
100
AcDbBlockBegin
  2
_D
 70
     0
 10
0.0
 20
0.0
 30
0.0
  3
_D
  1

  0
SOLID
  5
19D
330
19A
100
AcDbEntity
  8
VERMASSUNG
100
AcDbTrace
 10
133.9603684102
 20
135.3285022651
 30
0.0
 11
133.5103684102
 21
132.3285022651
 31
0.0
 12
134.4103684102
 22
132.3285022651
 32
0.0
 13
134.4103684102
 23
132.3285022651
 33
0.0
  0
SOLID
  5
19E
330
19A
100
AcDbEntity
  8
VERMASSUNG
100
AcDbTrace
 10
133.9603684102
 20
95.3285022651
 30
0.0
 11
134.4103684102
 21
98.3285022651
 31
0.0
 12
133.5103684102
 22
98.3285022651
 32
0.0
 13
133.5103684102
 23
98.3285022651
 33
0.0
  0
LINE
  5
19F
330
19A
100
AcDbEntity
  8
VERMASSUNG
100
AcDbLine
 10
168.2603684102
 20
135.3285022651
 30
0.0
 11
132.9603684102
 21
135.3285022651
 31
0.0
  0
LINE
  5
1A0
330
19A
100
AcDbEntity
  8
VERMASSUNG
100
AcDbLine
 10
168.2603684102
 20
95.3285022651
 30
0.0
 11
132.9603684102
 21
95.3285022651
 31
0.0
  0
LINE
  5
1A1
330
19A
100
AcDbEntity
  8
VERMASSUNG
100
AcDbLine
 10
133.9603684102
 20
135.3285022651
 30
0.0
 11
133.9603684102
 21
95.3285022651
 31
0.0
  0
MTEXT
  5
1A2
330
19A
100
AcDbEntity
  8
VERMASSUNG
100
AcDbMText
 10
131.1822329211
 20
108.4631522777
 30
0.1
 40
2.0
 41
0.0
 71
     1
 72
     1
  1
PSC
  7
SLDTEXTSTYLE0
 11
-7.044195017643634E-15
 21
1.0
 31
0.0
 73
     1
 44
1.0
  0
MTEXT
  5
1A3
330
19A
100
AcDbEntity
  8
VERMASSUNG
100
AcDbMText
 10
131.3822329306
 20
113.0631523798
 30
0.1
 40
2.0
 41
0.0
 71
     1
 72
     1
  1
%%c
  7
SLDTEXTSTYLE0
 11
-7.044195017643634E-15
 21
1.0
 31
0.0
 73
     1
 44
1.0
  0
MTEXT
  5
1A4
330
19A
100
AcDbEntity
  8
VERMASSUNG
100
AcDbMText
 10
131.1822329211
 20
116.6731528597
 30
0.1
 40
2.0
 41
0.0
 71
     1
 72
     1
  1
40
  7
SLDTEXTSTYLE0
 11
-7.044195017643634E-15
 21
1.0
 31
0.0
 73
     1
 44
1.0
  0
ENDBLK
  5
19C
330
19A
100
AcDbEntity
  8
0
100
AcDbBlockEnd
  0
BLOCK
  5
1A7
330
1A6
100
AcDbEntity
  8
0
100
AcDbBlockBegin
  2
_D_1
 70
     0
 10
0.0
 20
0.0
 30
0.0
  3
_D_1
  1

  0
SOLID
  5
1A9
330
1A6
100
AcDbEntity
  8
VERMASSUNG
100
AcDbTrace
 10
167.9603684102
 20
142.7082559503
 30
0.0
 11
170.9603684102
 21
142.2582559503
 31
0.0
 12
170.9603684102
 22
143.1582559503
 32
0.0
 13
170.9603684102
 23
143.1582559503
 33
0.0
  0
SOLID
  5
1AA
330
1A6
100
AcDbEntity
  8
VERMASSUNG
100
AcDbTrace
 10
232.9603684102
 20
142.7082559503
 30
0.0
 11
229.9603684102
 21
143.1582559503
 31
0.0
 12
229.9603684102
 22
142.2582559503
 32
0.0
 13
229.9603684102
 23
142.2582559503
 33
0.0
  0
LINE
  5
1AB
330
1A6
100
AcDbEntity
  8
VERMASSUNG
100
AcDbLine
 10
167.9603684102
 20
135.0285022651
 30
0.0
 11
167.9603684102
 21
143.7082559503
 31
0.0
  0
LINE
  5
1AC
330
1A6
100
AcDbEntity
  8
VERMASSUNG
100
AcDbLine
 10
232.9603684102
 20
134.3285022651
 30
0.0
 11
232.9603684102
 21
143.7082559503
 31
0.0
  0
LINE
  5
1AD
330
1A6
100
AcDbEntity
  8
VERMASSUNG
100
AcDbLine
 10
167.9603684102
 20
142.7082559503
 30
0.0
 11
232.9603684102
 21
142.7082559503
 31
0.0
  0
MTEXT
  5
1AE
330
1A6
100
AcDbEntity
  8
VERMASSUNG
100
AcDbMText
 10
199.7493635468
 20
145.2863913134
 30
0.1
 40
2.0
 41
0.0
 71
     1
 72
     1
  1
65
  7
SLDTEXTSTYLE0
 73
     1
 44
1.0
  0
ENDBLK
  5
1A8
330
1A6
100
AcDbEntity
  8
0
100
AcDbBlockEnd
  0
BLOCK
  5
1B1
330
1B0
100
AcDbEntity
  8
0
100
AcDbBlockBegin
  2
_D_2
 70
     0
 10
0.0
 20
0.0
 30
0.0
  3
_D_2
  1

  0
SOLID
  5
1B3
330
1B0
100
AcDbEntity
  8
VERMASSUNG
100
AcDbTrace
 10
143.9603684102
 20
149.2524539511
 30
0.0
 11
146.9603684102
 21
148.8024539511
 31
0.0
 12
146.9603684102
 22
149.702453951
 32
0.0
 13
146.9603684102
 23
149.702453951
 33
0.0
  0
SOLID
  5
1B4
330
1B0
100
AcDbEntity
  8
VERMASSUNG
100
AcDbTrace
 10
232.9603684102
 20
149.2524539511
 30
0.0
 11
229.9603684102
 21
149.702453951
 31
0.0
 12
229.9603684102
 22
148.8024539511
 32
0.0
 13
229.9603684102
 23
148.8024539511
 33
0.0
  0
LINE
  5
1B5
330
1B0
100
AcDbEntity
  8
VERMASSUNG
100
AcDbLine
 10
143.9603684102
 20
127.947129331
 30
0.0
 11
143.9603684102
 21
150.2524539511
 31
0.0
  0
LINE
  5
1B6
330
1B0
100
AcDbEntity
  8
VERMASSUNG
100
AcDbLine
 10
232.9603684102
 20
134.3285022651
 30
0.0
 11
232.9603684102
 21
150.2524539511
 31
0.0
  0
LINE
  5
1B7
330
1B0
100
AcDbEntity
  8
VERMASSUNG
100
AcDbLine
 10
143.9603684102
 20
149.2524539511
 30
0.0
 11
232.9603684102
 21
149.2524539511
 31
0.0
  0
MTEXT
  5
1B8
330
1B0
100
AcDbEntity
  8
VERMASSUNG
100
AcDbMText
 10
186.0225859046
 20
151.8305893142
 30
0.1
 40
2.0
 41
0.0
 71
     1
 72
     1
  1
89
  7
SLDTEXTSTYLE0
 73
     1
 44
1.0
  0
ENDBLK
  5
1B2
330
1B0
100
AcDbEntity
  8
0
100
AcDbBlockEnd
  0
BLOCK
  5
1BB
330
1BA
100
AcDbEntity
  8
0
100
AcDbBlockBegin
  2
_D_3
 70
     0
 10
0.0
 20
0.0
 30
0.0
  3
_D_3
  1

  0
SOLID
  5
1BD
330
1BA
100
AcDbEntity
  8
VERMASSUNG
100
AcDbTrace
 10
243.735441656
 20
123.3285022651
 30
0.0
 11
243.285441656
 21
120.3285022651
 31
0.0
 12
244.185441656
 22
120.3285022651
 32
0.0
 13
244.185441656
 23
120.3285022651
 33
0.0
  0
SOLID
  5
1BE
330
1BA
100
AcDbEntity
  8
VERMASSUNG
100
AcDbTrace
 10
243.735441656
 20
107.3285022651
 30
0.0
 11
244.185441656
 21
110.3285022651
 31
0.0
 12
243.285441656
 22
110.3285022651
 32
0.0
 13
243.285441656
 23
110.3285022651
 33
0.0
  0
LINE
  5
1BF
330
1BA
100
AcDbEntity
  8
VERMASSUNG
100
AcDbLine
 10
232.6603684102
 20
123.3285022651
 30
0.0
 11
244.735441656
 21
123.3285022651
 31
0.0
  0
LINE
  5
1C0
330
1BA
100
AcDbEntity
  8
VERMASSUNG
100
AcDbLine
 10
232.6603684102
 20
107.3285022651
 30
0.0
 11
244.735441656
 21
107.3285022651
 31
0.0
  0
LINE
  5
1C1
330
1BA
100
AcDbEntity
  8
VERMASSUNG
100
AcDbLine
 10
243.735441656
 20
123.3285022651
 30
0.0
 11
243.735441656
 21
107.3285022651
 31
0.0
  0
MTEXT
  5
1C2
330
1BA
100
AcDbEntity
  8
VERMASSUNG
100
AcDbMText
 10
241.1573061764
 20
111.1962702194
 30
0.1
 40
2.0
 41
0.0
 71
     1
 72
     1
  1
%%c
  7
SLDTEXTSTYLE0
 11
-7.044195017643634E-15
 21
1.0
 31
0.0
 73
     1
 44
1.0
  0
MTEXT
  5
1C3
330
1BA
100
AcDbEntity
  8
VERMASSUNG
100
AcDbMText
 10
240.9573061669
 20
114.8062702337
 30
0.1
 40
2.0
 41
0.0
 71
     1
 72
     1
  1
16
  7
SLDTEXTSTYLE0
 11
-7.044195017643634E-15
 21
1.0
 31
0.0
 73
     1
 44
1.0
  0
ENDBLK
  5
1BC
330
1BA
100
AcDbEntity
  8
0
100
AcDbBlockEnd
  0
BLOCK
  5
217
330
216
100
AcDbEntity
  8
0
100
AcDbBlockBegin
  2
SW_CENTERMARKSYMBOL_0
 70
     0
 10
0.0
 20
0.0
 30
0.0
  3
SW_CENTERMARKSYMBOL_0
  1

  0
LINE
  5
219
330
216
100
AcDbEntity
  8
VERMASSUNG
 62
     0
100
AcDbLine
 10
0.0
 20
0.0
 30
0.0
 11
0.0
 21
2.5
 31
0.0
  0
LINE
  5
21A
330
216
100
AcDbEntity
  8
VERMASSUNG
 62
     0
100
AcDbLine
 10
0.0
 20
0.0
 30
0.0
 11
-2.5
 21
0.0
 31
0.0
  0
LINE
  5
21B
330
216
100
AcDbEntity
  8
VERMASSUNG
 62
     0
100
AcDbLine
 10
0.0
 20
0.0
 30
0.0
 11
0.0
 21
-2.5
 31
0.0
  0
LINE
  5
21C
330
216
100
AcDbEntity
  8
VERMASSUNG
 62
     0
100
AcDbLine
 10
0.0
 20
0.0
 30
0.0
 11
2.5
 21
0.0
 31
0.0
  0
LINE
  5
21D
330
216
100
AcDbEntity
  8
VERMASSUNG
 62
     0
100
AcDbLine
 10
0.0
 20
5.0
 30
0.0
 11
0.0
 21
22.5
 31
0.0
  0
LINE
  5
21E
330
216
100
AcDbEntity
  8
VERMASSUNG
 62
     0
100
AcDbLine
 10
-5.0
 20
0.0
 30
0.0
 11
-22.5
 21
0.0
 31
0.0
  0
LINE
  5
21F
330
216
100
AcDbEntity
  8
VERMASSUNG
 62
     0
100
AcDbLine
 10
0.0
 20
-5.0
 30
0.0
 11
0.0
 21
-22.5
 31
0.0
  0
LINE
  5
220
330
216
100
AcDbEntity
  8
VERMASSUNG
 62
     0
100
AcDbLine
 10
5.0
 20
0.0
 30
0.0
 11
22.5
 21
0.0
 31
0.0
  0
ENDBLK
  5
218
330
216
100
AcDbEntity
  8
0
100
AcDbBlockEnd
  0
ENDSEC
  0
SECTION
  2
ENTITIES
  0
MTEXT
  5
49
330
1F
100
AcDbEntity
  8
KOPF_DÜNN
100
AcDbMText
 10
13.8892156294
 20
23.8442973028
 30
0.0
 40
3.0
 41
0.0
 71
     1
 72
     1
  1
PS4.B16.K01.065
  7
SLDTEXTSTYLE0
 73
     1
 44
1.0
  0
MTEXT
  5
4A
330
1F
100
AcDbEntity
  8
VERMASSUNG
100
AcDbMText
 10
13.9329988022
 20
28.8834360957
 30
0.0
 40
3.0
 41
0.0
 71
     1
 72
     1
  1
Bohrstangenhalter_Boring bar holder
  7
SLDTEXTSTYLE0
 73
     1
 44
1.0
  0
MTEXT
  5
4B
330
1F
100
AcDbEntity
  8
VERMASSUNG
100
AcDbMText
 10
98.8601118557
 20
13.8365368179
 30
0.0
 40
2.0
 41
0.0
 71
     1
 72
     1
  1
Datum: 18.06.2012
  7
SLDTEXTSTYLE0
 73
     1
 44
1.0
  0
MTEXT
  5
4D
330
1F
100
AcDbEntity
  8
VERMASSUNG
100
AcDbMText
 10
13.933048693
 20
18.0482802738
 30
0.0
 40
2.0
 41
0.0
 71
     1
 72
     1
  1
PSC ø40 / ø16
  7
SLDTEXTSTYLE1
 73
     1
 44
1.0
  0
MTEXT
  5
4E
330
1F
100
AcDbEntity
  8
VERMASSUNG
100
AcDbMText
 10
13.9808475933
 20
13.9090973692
 30
0.0
 40
2.0
 41
0.0
 71
     1
 72
     1
  1
Gewicht: 609g
  7
SLDTEXTSTYLE0
 73
     1
 44
1.0
  0
LINE
  5
4F
330
1F
100
AcDbEntity
  8
0
  6
Continuous
 62
     7
370
    15
100
AcDbLine
 10
205.4503116165
 20
95.5236799841
 30
0.0
 11
205.7883668099
 21
95.3285027121
 31
0.0
  0
LINE
  5
50
330
1F
100
AcDbEntity
  8
0
  6
Continuous
 62
     7
370
    15
100
AcDbLine
 10
214.132368878
 20
95.3285027121
 30
0.0
 11
214.4691723739
 21
95.5229572778
 31
0.0
  0
LINE
  5
51
330
1F
100
AcDbEntity
  8
0
  6
Continuous
 62
     7
370
    15
100
AcDbLine
 10
227.4710613643
 20
135.132957605
 30
0.0
 11
227.1323691462
 21
135.3285018181
 31
0.0
  0
LINE
  5
52
330
1F
100
AcDbEntity
  8
0
  6
Continuous
 62
     7
370
    15
100
AcDbLine
 10
218.7883670781
 20
135.3285018181
 30
0.0
 11
218.4501554225
 21
135.1332351391
 31
0.0
  0
LINE
  5
53
330
1F
100
AcDbEntity
  8
0
  6
Continuous
 62
     7
370
    15
100
AcDbLine
 10
192.4503094856
 20
95.5236799841
 30
0.0
 11
192.7883684044
 21
95.3285027121
 31
0.0
  0
LINE
  5
54
330
1F
100
AcDbEntity
  8
0
  6
Continuous
 62
     7
370
    15
100
AcDbLine
 10
201.1323686097
 20
95.3285027121
 30
0.0
 11
201.4691721056
 21
95.5229572778
 31
0.0
  0
LINE
  5
55
330
1F
100
AcDbEntity
  8
0
  6
Continuous
 62
     7
370
    15
100
AcDbLine
 10
201.4710645531
 20
135.132957605
 30
0.0
 11
201.1323686097
 21
135.3285018181
 31
0.0
  0
LINE
  5
56
330
1F
100
AcDbEntity
  8
0
  6
Continuous
 62
     7
370
    15
100
AcDbLine
 10
192.7883684044
 20
135.3285018181
 30
0.0
 11
192.4501548861
 21
135.1332351391
 31
0.0
  0
LINE
  5
57
330
1F
100
AcDbEntity
  8
0
  6
Continuous
 62
     7
370
    15
100
AcDbLine
 10
218.4503081594
 20
95.5236799841
 30
0.0
 11
218.7883670781
 21
95.3285027121
 31
0.0
  0
LINE
  5
58
330
1F
100
AcDbEntity
  8
0
  6
Continuous
 62
     7
370
    15
100
AcDbLine
 10
227.1323691462
 20
95.3285027121
 30
0.0
 11
227.4691726421
 21
95.5229572778
 31
0.0
  0
LINE
  5
59
330
1F
100
AcDbEntity
  8
0
  6
Continuous
 62
     7
370
    15
100
AcDbLine
 10
214.471061096
 20
135.132957605
 30
0.0
 11
214.132368878
 21
135.3285018181
 31
0.0
  0
LINE
  5
5A
330
1F
100
AcDbEntity
  8
0
  6
Continuous
 62
     7
370
    15
100
AcDbLine
 10
205.7883668099
 20
135.3285018181
 30
0.0
 11
205.4501551543
 21
135.1332351391
 31
0.0
  0
LINE
  5
5B
330
1F
100
AcDbEntity
  8
0
  6
Continuous
 62
     7
370
    15
100
AcDbLine
 10
228.4556779419
 20
95.3285027121
 30
0.0
 11
231.96037145
 21
95.3285027121
 31
0.0
  0
LINE
  5
5C
330
1F
100
AcDbEntity
  8
0
  6
Continuous
 62
     7
370
    15
100
AcDbLine
 10
215.4556813989
 20
95.3285027121
 30
0.0
 11
217.4778919075
 21
95.3285027121
 31
0.0
  0
LINE
  5
5D
330
1F
100
AcDbEntity
  8
0
  6
Continuous
 62
     7
370
    15
100
AcDbLine
 10
202.4556811307
 20
95.3285027121
 30
0.0
 11
204.4778916393
 21
95.3285027121
 31
0.0
  0
LINE
  5
5E
330
1F
100
AcDbEntity
  8
0
  6
Continuous
 62
     7
370
    15
100
AcDbLine
 10
181.935466208
 20
95.3285027121
 30
0.0
 11
191.4778932337
 21
95.3285027121
 31
0.0
  0
LINE
  5
5F
330
1F
100
AcDbEntity
  8
0
  6
Continuous
 62
     7
370
    15
100
AcDbLine
 10
168.2603684244
 20
95.3285027121
 30
0.0
 11
177.9603681867
 21
95.3285027121
 31
0.0
  0
LINE
  5
60
330
1F
100
AcDbEntity
  8
0
  6
Continuous
 62
     7
370
    15
100
AcDbLine
 10
191.4778932337
 20
135.3285018181
 30
0.0
 11
168.2603684244
 21
135.3285018181
 31
0.0
  0
LINE
  5
61
330
1F
100
AcDbEntity
  8
0
  6
Continuous
 62
     7
370
    15
100
AcDbLine
 10
204.4778916393
 20
135.3285018181
 30
0.0
 11
202.4556811307
 21
135.3285018181
 31
0.0
  0
LINE
  5
62
330
1F
100
AcDbEntity
  8
0
  6
Continuous
 62
     7
370
    15
100
AcDbLine
 10
217.4778919075
 20
135.3285018181
 30
0.0
 11
215.4556813989
 21
135.3285018181
 31
0.0
  0
LINE
  5
63
330
1F
100
AcDbEntity
  8
0
  6
Continuous
 62
     7
370
    15
100
AcDbLine
 10
231.96037145
 20
135.3285018181
 30
0.0
 11
228.4556779419
 21
135.3285018181
 31
0.0
  0
ARC
  5
64
330
1F
100
AcDbEntity
  8
0
  6
Continuous
 62
     7
370
    15
100
AcDbCircle
 10
231.9603684102
 20
134.3285022651
 30
0.0
 40
1.0
100
AcDbArc
 50
360.0
 51
90.0
  0
ARC
  5
65
330
1F
100
AcDbEntity
  8
0
  6
Continuous
 62
     7
370
    15
100
AcDbCircle
 10
231.9603684102
 20
96.3285022651
 30
0.0
 40
1.0
100
AcDbArc
 50
270.0
 51
0.0
  0
ARC
  5
66
330
1F
100
AcDbEntity
  8
0
  6
Continuous
 62
     7
370
    15
100
AcDbCircle
 10
168.2603684102
 20
95.6285022651
 30
0.0
 40
0.3000000000000398
100
AcDbArc
 50
180.0
 51
270.0
  0
ARC
  5
67
330
1F
100
AcDbEntity
  8
0
  6
Continuous
 62
     7
370
    15
100
AcDbCircle
 10
168.2603684102
 20
135.0285022651
 30
0.0
 40
0.3000000000000398
100
AcDbArc
 50
90.0
 51
180.0
  0
LWPOLYLINE
  5
68
330
1F
100
AcDbEntity
  8
0
  6
Continuous
 62
     7
370
    15
100
AcDbPolyline
 90
        3
 70
   128
 43
0.0
 10
167.7603684152
 20
101.2386822899
 10
167.8858233504
 20
101.1703800236
 10
167.9603684102
 20
101.1176420202
  0
ARC
  5
69
330
1F
100
AcDbEntity
  8
0
  6
Continuous
 62
     7
370
    15
100
AcDbCircle
 10
167.3461548478
 20
130.3285022651
 30
0.0
 40
0.999999999999988
100
AcDbArc
 50
225.0
 51
307.8947985336
  0
ARC
  5
6A
330
1F
100
AcDbEntity
  8
0
  6
Continuous
 62
     7
370
    15
100
AcDbCircle
 10
166.4603053211
 20
102.2033803694
 30
0.0
 40
0.200000000000034
100
AcDbArc
 50
88.5608333333
 51
178.5608333333
  0
LINE
  5
6B
330
1F
100
AcDbEntity
  8
0
  6
Continuous
 62
     7
370
    15
100
AcDbLine
 10
159.1418947433
 20
102.3872442369
 30
0.0
 11
166.2603683877
 21
102.2084032943
 31
0.0
  0
LINE
  5
6C
330
1F
100
AcDbEntity
  8
0
  6
Continuous
 62
     7
370
    15
100
AcDbLine
 10
149.8643032615
 20
102.620330063
 30
0.0
 11
153.9271663283
 21
102.5182561775
 31
0.0
  0
LINE
  5
6D
330
1F
100
AcDbEntity
  8
0
  6
Continuous
 62
     7
370
    15
100
AcDbLine
 10
166.4653283884
 20
102.4033170019
 30
0.0
 11
167.5653915086
 21
102.3756800045
 31
0.0
  0
ARC
  5
6E
330
1F
100
AcDbEntity
  8
0
  6
Continuous
 62
     7
370
    15
100
AcDbCircle
 10
167.5603684102
 20
102.1757429556
 30
0.0
 40
0.2000000000000171
100
AcDbArc
 50
0.0
 51
88.5608333333
  0
LINE
  5
6F
330
1F
100
AcDbEntity
  8
0
  6
Continuous
 62
     7
370
    15
100
AcDbLine
 10
166.0272591621
 20
130.2427448158
 30
0.0
 11
145.4603675161
 21
129.7260330816
 31
0.0
  0
LINE
  5
70
330
1F
100
AcDbEntity
  8
0
  6
Continuous
 62
     7
370
    15
100
AcDbLine
 10
145.4603675161
 20
129.7260330816
 30
0.0
 11
143.9603682016
 21
128.8600073953
 31
0.0
  0
LINE
  5
71
330
1F
100
AcDbEntity
  8
0
  6
Continuous
 62
     7
370
    15
100
AcDbLine
 10
166.6390481046
 20
129.621395265
 30
0.0
 11
166.0340114836
 21
130.2264317696
 31
0.0
  0
LINE
  5
72
330
1F
100
AcDbEntity
  8
0
  6
Continuous
 62
     7
370
    15
100
AcDbLine
 10
212.4543789183
 20
95.806548727
 30
0.0
 11
207.4622216974
 21
95.806548727
 31
0.0
  0
LINE
  5
73
330
1F
100
AcDbEntity
  8
0
  6
Continuous
 62
     7
370
    15
100
AcDbLine
 10
214.132368878
 20
95.3285027121
 30
0.0
 11
205.7883668099
 21
95.3285027121
 31
0.0
  0
LINE
  5
74
330
1F
100
AcDbEntity
  8
0
  6
Continuous
 62
     7
370
    15
100
AcDbLine
 10
222.9603681122
 20
134.8504558031
 30
0.0
 11
225.4682298158
 21
134.8504558031
 31
0.0
  0
LINE
  5
75
330
1F
100
AcDbEntity
  8
0
  6
Continuous
 62
     7
370
    15
100
AcDbLine
 10
220.469259039
 20
134.8504558031
 30
0.0
 11
222.9603681122
 21
134.8504558031
 31
0.0
  0
LINE
  5
76
330
1F
100
AcDbEntity
  8
0
  6
Continuous
 62
     7
370
    15
100
AcDbLine
 10
222.9603681122
 20
135.3285018181
 30
0.0
 11
227.1323691462
 21
135.3285018181
 31
0.0
  0
LINE
  5
77
330
1F
100
AcDbEntity
  8
0
  6
Continuous
 62
     7
370
    15
100
AcDbLine
 10
218.7883670781
 20
135.3285018181
 30
0.0
 11
222.9603681122
 21
135.3285018181
 31
0.0
  0
LINE
  5
78
330
1F
100
AcDbEntity
  8
0
  6
Continuous
 62
     7
370
    15
100
AcDbLine
 10
199.4796882723
 20
95.806548727
 30
0.0
 11
194.4784823213
 21
95.806548727
 31
0.0
  0
LINE
  5
79
330
1F
100
AcDbEntity
  8
0
  6
Continuous
 62
     7
370
    15
100
AcDbLine
 10
201.1323686097
 20
95.3285027121
 30
0.0
 11
192.7883684044
 21
95.3285027121
 31
0.0
  0
LINE
  5
7A
330
1F
100
AcDbEntity
  8
0
  6
Continuous
 62
     7
370
    15
100
AcDbLine
 10
194.4661031817
 20
134.8504558031
 30
0.0
 11
199.4621123527
 21
134.8504558031
 31
0.0
  0
LINE
  5
7B
330
1F
100
AcDbEntity
  8
0
  6
Continuous
 62
     7
370
    15
100
AcDbLine
 10
192.7883684044
 20
135.3285018181
 30
0.0
 11
201.1323686097
 21
135.3285018181
 31
0.0
  0
LINE
  5
7C
330
1F
100
AcDbEntity
  8
0
  6
Continuous
 62
     7
370
    15
100
AcDbLine
 10
225.4543754612
 20
95.806548727
 30
0.0
 11
220.4622219656
 21
95.806548727
 31
0.0
  0
LINE
  5
7D
330
1F
100
AcDbEntity
  8
0
  6
Continuous
 62
     7
370
    15
100
AcDbLine
 10
227.1323691462
 20
95.3285027121
 30
0.0
 11
218.7883670781
 21
95.3285027121
 31
0.0
  0
LINE
  5
7E
330
1F
100
AcDbEntity
  8
0
  6
Continuous
 62
     7
370
    15
100
AcDbLine
 10
209.9603678439
 20
134.8504558031
 30
0.0
 11
212.4682295476
 21
134.8504558031
 31
0.0
  0
LINE
  5
7F
330
1F
100
AcDbEntity
  8
0
  6
Continuous
 62
     7
370
    15
100
AcDbLine
 10
207.4692587708
 20
134.8504558031
 30
0.0
 11
209.9603678439
 21
134.8504558031
 31
0.0
  0
LINE
  5
80
330
1F
100
AcDbEntity
  8
0
  6
Continuous
 62
     7
370
    15
100
AcDbLine
 10
209.9603678439
 20
135.3285018181
 30
0.0
 11
214.132368878
 21
135.3285018181
 31
0.0
  0
LINE
  5
81
330
1F
100
AcDbEntity
  8
0
  6
Continuous
 62
     7
370
    15
100
AcDbLine
 10
205.7883668099
 20
135.3285018181
 30
0.0
 11
209.9603678439
 21
135.3285018181
 31
0.0
  0
ARC
  5
82
330
1F
100
AcDbEntity
  8
0
  6
Continuous
 62
     7
370
    15
100
AcDbCircle
 10
179.9602932838
 20
75.3811061981
 30
0.0
 40
20.04740202818734
100
AcDbArc
 50
84.3457526741
 51
95.7253396711
  0
SPLINE
  5
83
330
1F
100
AcDbEntity
  8
0
  6
Continuous
 62
     7
370
    15
100
AcDbSpline
210
0.0
220
0.0
230
1.0
 70
     8
 71
     3
 72
    12
 73
     8
 74
     0
 42
0.00000001
 43
0.00000001
 12
1.0
 22
0.0
 32
0.0
 13
1.0
 23
0.0
 33
0.0
 40
0.0
 40
0.0
 40
0.0
 40
0.0
 40
0.2499999999999973
 40
0.2499999999999973
 40
0.4999999999999947
 40
0.4999999999999947
 40
1.0
 40
1.0
 40
1.0
 40
1.0
 10
174.892270412191
 20
96.19684588485313
 30
0.0
 10
174.8547585261464
 20
96.19684588485315
 30
0.0
 10
174.8194711784417
 20
96.20134942911568
 30
0.0
 10
174.7605413302032
 20
96.21472262856898
 30
0.0
 10
174.7370156037342
 20
96.2232075311401
 30
0.0
 10
174.6767568159661
 20
96.25095533497469
 30
0.0
 10
174.6511620536768
 20
96.27194519871506
 30
0.0
 10
174.6324627910557
 20
96.29374598190458
 30
0.0
  0
LINE
  5
84
330
1F
100
AcDbEntity
  8
0
  6
Continuous
 62
     7
370
    15
100
AcDbLine
 10
177.0284663294
 20
96.196845529
 30
0.0
 11
174.8922703196
 21
96.196845529
 31
0.0
  0
SPLINE
  5
85
330
1F
100
AcDbEntity
  8
0
  6
Continuous
 62
     7
370
    15
100
AcDbSpline
210
0.0
220
0.0
230
1.0
 70
     8
 71
     3
 72
    12
 73
     8
 74
     0
 42
0.00000001
 43
0.00000001
 12
1.0
 22
0.0
 32
0.0
 13
1.0
 23
0.0
 33
0.0
 40
0.0
 40
0.0
 40
0.0
 40
0.0
 40
0.4999999999999938
 40
0.4999999999999938
 40
0.7499999999999969
 40
0.7499999999999969
 40
1.0
 40
1.0
 40
1.0
 40
1.0
 10
177.288274029328
 20
96.29374598190458
 30
0.0
 10
177.2695807961976
 20
96.27195222827665
 30
0.0
 10
177.2439254987858
 20
96.250932066567
 30
0.0
 10
177.1837648760994
 20
96.22322672060328
 30
0.0
 10
177.159692564345
 20
96.2145915044099
 30
0.0
 10
177.1013110439945
 20
96.20137685918331
 30
0.0
 10
177.0658422163414
 20
96.19684588485313
 30
0.0
 10
177.0284664081927
 20
96.19684588485313
 30
0.0
  0
ELLIPSE
  5
86
330
1F
100
AcDbEntity
  8
0
  6
Continuous
 62
     7
370
    15
100
AcDbEllipse
 10
167.0114392378
 20
115.3285022651
 30
0.0
 11
-9.367417879781813
 21
19.74174915274992
 31
0.0
210
0.0
220
0.0
230
1.0
 40
0.3419987131
 41
3.29266438251689
 42
4.239566697060994
  0
SPLINE
  5
87
330
1F
100
AcDbEntity
  8
0
  6
Continuous
 62
     7
370
    15
100
AcDbSpline
210
0.0
220
0.0
230
1.0
 70
     8
 71
     3
 72
    12
 73
     8
 74
     0
 42
0.00000001
 43
0.00000001
 12
1.0
 22
0.0
 32
0.0
 13
1.0
 23
0.0
 33
0.0
 40
0.0
 40
0.0
 40
0.0
 40
0.0
 40
0.2499999999999997
 40
0.2499999999999997
 40
0.4999999999999994
 40
0.4999999999999994
 40
1.0
 40
1.0
 40
1.0
 40
1.0
 10
177.0284664081927
 20
109.4992892694347
 30
0.0
 10
177.0659782942373
 20
109.4992892694347
 30
0.0
 10
177.1012656419421
 20
109.4844844551479
 30
0.0
 10
177.1601954901805
 20
109.4408925820221
 30
0.0
 10
177.1837212166496
 20
109.4133791559361
 30
0.0
 10
177.2439800044177
 20
109.3242474238225
 30
0.0
 10
177.269574766707
 20
109.2578615732047
 30
0.0
 10
177.288274029328
 20
109.1902571380273
 30
0.0
  0
LINE
  5
88
330
1F
100
AcDbEntity
  8
0
  6
Continuous
 62
     7
370
    15
100
AcDbLine
 10
174.8922703196
 20
109.499289078
 30
0.0
 11
177.0284663294
 21
109.499289078
 31
0.0
  0
SPLINE
  5
89
330
1F
100
AcDbEntity
  8
0
  6
Continuous
 62
     7
370
    15
100
AcDbSpline
210
0.0
220
0.0
230
1.0
 70
     8
 71
     3
 72
    12
 73
     8
 74
     0
 42
0.00000001
 43
0.00000001
 12
1.0
 22
0.0
 32
0.0
 13
1.0
 23
0.0
 33
0.0
 40
0.0
 40
0.0
 40
0.0
 40
0.0
 40
0.5000000000000013
 40
0.5000000000000013
 40
0.7500000000000007
 40
0.7500000000000007
 40
1.0
 40
1.0
 40
1.0
 40
1.0
 10
174.6324627910557
 20
109.1902571380273
 30
0.0
 10
174.6511560241862
 20
109.2578397744677
 30
0.0
 10
174.6768113215979
 20
109.3243223439451
 30
0.0
 10
174.7369719442844
 20
109.4133174268426
 30
0.0
 10
174.7610442560387
 20
109.4413193238418
 30
0.0
 10
174.8194257763893
 20
109.484395724507
 30
0.0
 10
174.8548946040423
 20
109.4992892694347
 30
0.0
 10
174.892270412191
 20
109.4992892694347
 30
0.0
  0
ELLIPSE
  5
8A
330
1F
100
AcDbEntity
  8
0
  6
Continuous
 62
     7
370
    15
100
AcDbEllipse
 10
184.9092975826
 20
115.3285022651
 30
0.0
 11
9.367417879781669
 21
19.74174915274995
 31
0.0
210
0.0
220
0.0
230
1.0
 40
0.3419987131
 41
2.0436186101186
 42
2.990520924662732
  0
SPLINE
  5
8B
330
1F
100
AcDbEntity
  8
0
  6
Continuous
 62
     7
370
    15
100
AcDbSpline
210
0.0
220
0.0
230
1.0
 70
     8
 71
     3
 72
    12
 73
     8
 74
     0
 42
0.00000001
 43
0.00000001
 12
1.0
 22
0.0
 32
0.0
 13
1.0
 23
0.0
 33
0.0
 40
0.0
 40
0.0
 40
0.0
 40
0.0
 40
0.2500000000000027
 40
0.2500000000000027
 40
0.5000000000000053
 40
0.5000000000000053
 40
1.0
 40
1.0
 40
1.0
 40
1.0
 10
174.892270412191
 20
121.1577152607383
 30
0.0
 10
174.8547695893133
 20
121.1577152607383
 30
0.0
 10
174.8194911852773
 20
121.1725115984914
 30
0.0
 10
174.760573465225
 20
121.2160818596505
 30
0.0
 10
174.7370500838266
 20
121.243583658152
 30
0.0
 10
174.6767944993606
 20
121.3326828213951
 30
0.0
 10
174.6512728469495
 20
121.3987424001775
 30
0.0
 10
174.6324627910557
 20
121.4667473921457
 30
0.0
  0
LINE
  5
8C
330
1F
100
AcDbEntity
  8
0
  6
Continuous
 62
     7
370
    15
100
AcDbLine
 10
177.0284663294
 20
121.1577154522
 30
0.0
 11
174.8922703196
 21
121.1577154522
 31
0.0
  0
SPLINE
  5
8D
330
1F
100
AcDbEntity
  8
0
  6
Continuous
 62
     7
370
    15
100
AcDbSpline
210
0.0
220
0.0
230
1.0
 70
     8
 71
     3
 72
    12
 73
     8
 74
     0
 42
0.00000001
 43
0.00000001
 12
1.0
 22
0.0
 32
0.0
 13
1.0
 23
0.0
 33
0.0
 40
0.0
 40
0.0
 40
0.0
 40
0.0
 40
0.4999999999999969
 40
0.4999999999999969
 40
0.7499999999999984
 40
0.7499999999999984
 40
1.0
 40
1.0
 40
1.0
 40
1.0
 10
177.288274029328
 20
121.4667473921457
 30
0.0
 10
177.2694707964764
 20
121.3987670678833
 30
0.0
 10
177.2439341374571
 20
121.3326766800865
 30
0.0
 10
177.1837079635087
 20
121.2436120676393
 30
0.0
 10
177.1597818861087
 20
121.2158109806194
 30
0.0
 10
177.1017209659274
 20
121.1728519073945
 30
0.0
 10
177.0659192673014
 20
121.1577152607382
 30
0.0
 10
177.0284664081927
 20
121.1577152607382
 30
0.0
  0
ELLIPSE
  5
8E
330
1F
100
AcDbEntity
  8
0
  6
Continuous
 62
     7
370
    15
100
AcDbEllipse
 10
167.0114392378
 20
115.3285022651
 30
0.0
 11
9.367417879781781
 21
19.74174915274992
 31
0.0
210
0.0
220
0.0
230
1.0
 40
0.3419987131
 41
5.185211263708404
 42
6.132113578252564
  0
SPLINE
  5
8F
330
1F
100
AcDbEntity
  8
0
  6
Continuous
 62
     7
370
    15
100
AcDbSpline
210
0.0
220
0.0
230
1.0
 70
     8
 71
     3
 72
    12
 73
     8
 74
     0
 42
0.00000001
 43
0.00000001
 12
1.0
 22
0.0
 32
0.0
 13
1.0
 23
0.0
 33
0.0
 40
0.0
 40
0.0
 40
0.0
 40
0.0
 40
0.2499999999999984
 40
0.2499999999999984
 40
0.4999999999999969
 40
0.4999999999999969
 40
1.0
 40
1.0
 40
1.0
 40
1.0
 10
177.0284664081927
 20
134.4601586453199
 30
0.0
 10
177.0659672310705
 20
134.4601586453199
 30
0.0
 10
177.1012456351064
 20
134.4556576774568
 30
0.0
 10
177.1601633551588
 20
134.4422911562395
 30
0.0
 10
177.1836867365572
 20
134.4338098959946
 30
0.0
 10
177.2439423210231
 20
134.4060725003167
 30
0.0
 10
177.2694639734342
 20
134.3851885012637
 30
0.0
 10
177.288274029328
 20
134.3632585482685
 30
0.0
  0
LINE
  5
90
330
1F
100
AcDbEntity
  8
0
  6
Continuous
 62
     7
370
    15
100
AcDbLine
 10
174.8922703196
 20
134.4601590012
 30
0.0
 11
177.0284663294
 21
134.4601590012
 31
0.0
  0
SPLINE
  5
91
330
1F
100
AcDbEntity
  8
0
  6
Continuous
 62
     7
370
    15
100
AcDbSpline
210
0.0
220
0.0
230
1.0
 70
     8
 71
     3
 72
    12
 73
     8
 74
     0
 42
0.00000001
 43
0.00000001
 12
1.0
 22
0.0
 32
0.0
 13
1.0
 23
0.0
 33
0.0
 40
0.0
 40
0.0
 40
0.0
 40
0.0
 40
0.5000000000000022
 40
0.5000000000000022
 40
0.7500000000000011
 40
0.7500000000000011
 40
1.0
 40
1.0
 40
1.0
 40
1.0
 10
174.6324627910557
 20
134.3632585482685
 30
0.0
 10
174.6512660239074
 20
134.3851805465296
 30
0.0
 10
174.6768026829266
 20
134.4060743545395
 30
0.0
 10
174.7370288568751
 20
134.4338010806572
 30
0.0
 10
174.760954934275
 20
134.4423742140328
 30
0.0
 10
174.8190158544563
 20
134.4555533198403
 30
0.0
 10
174.8548175530823
 20
134.4601586453199
 30
0.0
 10
174.892270412191
 20
134.4601586453199
 30
0.0
  0
ELLIPSE
  5
92
330
1F
100
AcDbEntity
  8
0
  6
Continuous
 62
     7
370
    15
100
AcDbEllipse
 10
184.9092975826
 20
115.3285022651
 30
0.0
 11
-9.367417879781669
 21
19.74174915274995
 31
0.0
210
0.0
220
0.0
230
1.0
 40
0.3419987131
 41
0.1510717289270639
 42
1.097974043471202
  0
SPLINE
  5
93
330
1F
100
AcDbEntity
  8
0
  6
Continuous
 62
     7
370
    15
100
AcDbSpline
210
0.0
220
0.0
230
1.0
 70
     8
 71
     3
 72
     9
 73
     5
 74
     0
 42
0.00000001
 43
0.00000001
 12
1.0
 22
0.0
 32
0.0
 13
1.0
 23
0.0
 33
0.0
 40
0.0
 40
0.0
 40
0.0
 40
0.0
 40
0.5732324735263145
 40
1.0
 40
1.0
 40
1.0
 40
1.0
 10
193.2710114274839
 20
95.65903468178789
 30
0.0
 10
193.5210054664709
 20
95.6950576981833
 30
0.0
 10
193.9571183011975
 20
95.75789959577124
 30
0.0
 10
194.460875772533
 20
95.80568521212412
 30
0.0
 10
194.6758631025174
 20
95.82607856141607
 30
0.0
  0
SPLINE
  5
94
330
1F
100
AcDbEntity
  8
0
  6
Continuous
 62
     7
370
    15
100
AcDbSpline
210
0.0
220
0.0
230
1.0
 70
     8
 71
     3
 72
    14
 73
    10
 74
     0
 42
0.00000001
 43
0.00000001
 12
1.0
 22
0.0
 32
0.0
 13
1.0
 23
0.0
 33
0.0
 40
0.0
 40
0.0
 40
0.0
 40
0.0
 40
0.0776806287742526
 40
0.251595565786743
 40
0.4147114993023664
 40
0.5836121022119344
 40
0.7302143220390798
 40
0.8824159425586833
 40
1.0
 40
1.0
 40
1.0
 40
1.0
 10
199.243758187137
 20
95.82511929916421
 30
0.0
 10
199.3847845038348
 20
95.81282682113174
 30
0.0
 10
199.8415469747399
 20
95.77301338225644
 30
0.0
 10
200.5173754724054
 20
95.68105590374395
 30
0.0
 10
201.2480654113807
 20
95.56637242326079
 30
0.0
 10
201.8093845252806
 20
95.46254910407974
 30
0.0
 10
202.20605878116
 20
95.38279332188496
 30
0.0
 10
202.4266304380733
 20
95.33580522295593
 30
0.0
 10
202.4468629448932
 20
95.33141986553254
 30
0.0
 10
202.455681130729
 20
95.32950854050199
 30
0.0
  0
SPLINE
  5
95
330
1F
100
AcDbEntity
  8
0
  6
Continuous
 62
     7
370
    15
100
AcDbSpline
210
0.0
220
0.0
230
1.0
 70
     8
 71
     3
 72
    13
 73
     9
 74
     0
 42
0.00000001
 43
0.00000001
 12
1.0
 22
0.0
 32
0.0
 13
1.0
 23
0.0
 33
0.0
 40
0.0
 40
0.0
 40
0.0
 40
0.0
 40
0.0699629511206744
 40
0.2387364449938996
 40
0.4122970116363576
 40
0.5838617675026886
 40
0.7595653546663891
 40
1.0
 40
1.0
 40
1.0
 40
1.0
 10
191.4778932337383
 20
95.3322745685486
 30
0.0
 10
191.4731479157144
 20
95.33125414229592
 30
0.0
 10
191.4569553403979
 20
95.32777211456494
 30
0.0
 10
191.5639777951494
 20
95.35080631774126
 30
0.0
 10
191.779510281266
 20
95.3960184632133
 30
0.0
 10
192.1144340390738
 20
95.46256364429381
 30
0.0
 10
192.589698161672
 20
95.55174982904289
 30
0.0
 10
193.0215169403407
 20
95.61974735148476
 30
0.0
 10
193.2710114274839
 20
95.65903468178789
 30
0.0
  0
SPLINE
  5
96
330
1F
100
AcDbEntity
  8
0
  6
Continuous
 62
     7
370
    15
100
AcDbSpline
210
0.0
220
0.0
230
1.0
 70
     8
 71
     3
 72
    16
 73
    12
 74
     0
 42
0.00000001
 43
0.00000001
 12
1.0
 22
0.0
 32
0.0
 13
1.0
 23
0.0
 33
0.0
 40
0.0
 40
0.0
 40
0.0
 40
0.0
 40
0.0101244830350837
 40
0.1419615490712163
 40
0.2625809344866378
 40
0.3863821174952382
 40
0.5135182715113383
 40
0.6436339205426809
 40
0.7856140927133469
 40
0.9309362632898236
 40
1.0
 40
1.0
 40
1.0
 40
1.0
 10
202.4556811307291
 20
135.3274959896711
 30
0.0
 10
202.4572202669497
 20
135.3278266694371
 30
0.0
 10
202.4788014342408
 20
135.3324633320365
 30
0.0
 10
202.397504449209
 20
135.3148955727259
 30
0.0
 10
202.2106511622343
 20
135.2754275281956
 30
0.0
 10
201.9063668222429
 20
135.2137322363853
 30
0.0
 10
201.4981398188862
 20
135.136459016604
 30
0.0
 10
200.978695672612
 20
135.0465851754266
 30
0.0
 10
200.3489041244467
 20
134.9529911598203
 30
0.0
 10
199.7599529414446
 20
134.8761556865573
 30
0.0
 10
199.3703681100481
 20
134.842343668527
 30
0.0
 10
199.2448645983556
 20
134.8314512346892
 30
0.0
  0
SPLINE
  5
97
330
1F
100
AcDbEntity
  8
0
  6
Continuous
 62
     7
370
    15
100
AcDbSpline
210
0.0
220
0.0
230
1.0
 70
     8
 71
     3
 72
    14
 73
    10
 74
     0
 42
0.00000001
 43
0.00000001
 12
1.0
 22
0.0
 32
0.0
 13
1.0
 23
0.0
 33
0.0
 40
0.0
 40
0.0
 40
0.0
 40
0.0
 40
0.1265258099035313
 40
0.2927937123825685
 40
0.4646273807848245
 40
0.6184102914951515
 40
0.7780506418854435
 40
0.9118409747353468
 40
1.0
 40
1.0
 40
1.0
 40
1.0
 10
194.6765839461902
 20
134.8311550741104
 30
0.0
 10
194.4501871011033
 20
134.8527784928977
 30
0.0
 10
193.9262815612356
 20
134.9028173036823
 30
0.0
 10
193.1893826758278
 20
135.0073590161312
 30
0.0
 10
192.5123426001245
 20
135.1191827629641
 30
0.0
 10
191.9815297520596
 20
135.2198830685113
 30
0.0
 10
191.645555984391
 20
135.288785667394
 30
0.0
 10
191.4744672627679
 20
135.3254508429542
 30
0.0
 10
191.476919283089
 20
135.324934897056
 30
0.0
 10
191.4778932337383
 20
135.3247299616245
 30
0.0
  0
SPLINE
  5
98
330
1F
100
AcDbEntity
  8
0
  6
Continuous
 62
     7
370
    15
100
AcDbSpline
210
0.0
220
0.0
230
1.0
 70
     8
 71
     3
 72
     9
 73
     5
 74
     0
 42
0.00000001
 43
0.00000001
 12
1.0
 22
0.0
 32
0.0
 13
1.0
 23
0.0
 33
0.0
 40
0.0
 40
0.0
 40
0.0
 40
0.0
 40
0.5732314810312049
 40
1.0
 40
1.0
 40
1.0
 40
1.0
 10
219.2710119639257
 20
95.65903468178789
 30
0.0
 10
219.521005307246
 20
95.69505772860737
 30
0.0
 10
219.9571176834724
 20
95.75789978807468
 30
0.0
 10
220.4608756133196
 20
95.8056852364042
 30
0.0
 10
220.6758636389592
 20
95.82607856141607
 30
0.0
  0
SPLINE
  5
99
330
1F
100
AcDbEntity
  8
0
  6
Continuous
 62
     7
370
    15
100
AcDbSpline
210
0.0
220
0.0
230
1.0
 70
     8
 71
     3
 72
    14
 73
    10
 74
     0
 42
0.00000001
 43
0.00000001
 12
1.0
 22
0.0
 32
0.0
 13
1.0
 23
0.0
 33
0.0
 40
0.0
 40
0.0
 40
0.0
 40
0.0
 40
0.0776806377600312
 40
0.2515950556302947
 40
0.4147114779633614
 40
0.5836121004106629
 40
0.7302143371961557
 40
0.8824159753218225
 40
1.0
 40
1.0
 40
1.0
 40
1.0
 10
225.2437587235788
 20
95.82511929916421
 30
0.0
 10
225.3847850953128
 20
95.81282683608077
 30
0.0
 10
225.841546765465
 20
95.77301353095753
 30
0.0
 10
226.5173727542658
 20
95.68105542860502
 30
0.0
 10
227.2480660776441
 20
95.56637267991314
 30
0.0
 10
227.8093850127481
 20
95.46254906819182
 30
0.0
 10
228.206058984562
 20
95.382793331313
 30
0.0
 10
228.4266322722951
 20
95.33580522652173
 30
0.0
 10
228.4468612821375
 20
95.3314198663188
 30
0.0
 10
228.4556779418806
 20
95.32950854050199
 30
0.0
  0
SPLINE
  5
9A
330
1F
100
AcDbEntity
  8
0
  6
Continuous
 62
     7
370
    15
100
AcDbSpline
210
0.0
220
0.0
230
1.0
 70
     8
 71
     3
 72
    13
 73
     9
 74
     0
 42
0.00000001
 43
0.00000001
 12
1.0
 22
0.0
 32
0.0
 13
1.0
 23
0.0
 33
0.0
 40
0.0
 40
0.0
 40
0.0
 40
0.0
 40
0.0699629445383582
 40
0.2387364499459919
 40
0.4122970284500191
 40
0.583861996836926
 40
0.759565338234476
 40
1.0
 40
1.0
 40
1.0
 40
1.0
 10
217.4778919075349
 20
95.3322745685486
 30
0.0
 10
217.4731473078769
 20
95.33125414263223
 30
0.0
 10
217.4569571820002
 20
95.32777211564905
 30
0.0
 10
217.5639780191158
 20
95.35080630695997
 30
0.0
 10
217.7795103909683
 20
95.39601852188146
 30
0.0
 10
218.1144370323132
 20
95.46256351435153
 30
0.0
 10
218.5896981566866
 20
95.55174993527413
 30
0.0
 10
219.0215171805607
 20
95.61974737496185
 30
0.0
 10
219.2710119639257
 20
95.65903468178789
 30
0.0
  0
SPLINE
  5
9B
330
1F
100
AcDbEntity
  8
0
  6
Continuous
 62
     7
370
    15
100
AcDbSpline
210
0.0
220
0.0
230
1.0
 70
     8
 71
     3
 72
    16
 73
    12
 74
     0
 42
0.00000001
 43
0.00000001
 12
1.0
 22
0.0
 32
0.0
 13
1.0
 23
0.0
 33
0.0
 40
0.0
 40
0.0
 40
0.0
 40
0.0
 40
0.0101245289040619
 40
0.1419615888311117
 40
0.2625809686572567
 40
0.3863821459291421
 40
0.5135182940539909
 40
0.6436339370560179
 40
0.7856141026475887
 40
0.9309362664901081
 40
1.0
 40
1.0
 40
1.0
 40
1.0
 10
228.4556779418805
 20
135.3274959896711
 30
0.0
 10
228.4572183714355
 20
135.32782666959
 30
0.0
 10
228.4788175815499
 20
135.3324633146252
 30
0.0
 10
228.3974987508701
 20
135.3148955809255
 30
0.0
 10
228.2106533519888
 20
135.2754275260213
 30
0.0
 10
227.9063668978221
 20
135.2137322369914
 30
0.0
 10
227.4981404830974
 20
135.1364590164359
 30
0.0
 10
226.9786961709386
 20
135.0465851754767
 30
0.0
 10
226.3489046719611
 20
134.9529911598057
 30
0.0
 10
225.7599534767149
 20
134.8761556865589
 30
0.0
 10
225.3703686462044
 20
134.8423436685274
 30
0.0
 10
225.2448651347974
 20
134.8314512346892
 30
0.0
  0
SPLINE
  5
9C
330
1F
100
AcDbEntity
  8
0
  6
Continuous
 62
     7
370
    15
100
AcDbSpline
210
0.0
220
0.0
230
1.0
 70
     8
 71
     3
 72
    14
 73
    10
 74
     0
 42
0.00000001
 43
0.00000001
 12
1.0
 22
0.0
 32
0.0
 13
1.0
 23
0.0
 33
0.0
 40
0.0
 40
0.0
 40
0.0
 40
0.0
 40
0.1265255383319873
 40
0.2927937253668207
 40
0.4646274177767189
 40
0.6184101721018068
 40
0.7780505447961586
 40
0.9118409624182592
 40
0.9999999999999999
 40
0.9999999999999999
 40
0.9999999999999999
 40
0.9999999999999999
 10
220.6765826199868
 20
134.8311550741104
 30
0.0
 10
220.4501864778806
 20
134.852778521286
 30
0.0
 10
219.9262814170538
 20
134.9028175073853
 30
0.0
 10
219.1893815867693
 20
135.0073588881384
 30
0.0
 10
218.5123411000602
 20
135.1191826995251
 30
0.0
 10
217.981530378205
 20
135.2198831325225
 30
0.0
 10
217.6455571955472
 20
135.2887856750707
 30
0.0
 10
217.4744655880816
 20
135.3254508395609
 30
0.0
 10
217.4769178580249
 20
135.3249348960477
 30
0.0
 10
217.4778919075349
 20
135.3247299616245
 30
0.0
  0
SPLINE
  5
9D
330
1F
100
AcDbEntity
  8
0
  6
Continuous
 62
     7
370
    15
100
AcDbSpline
210
0.0
220
0.0
230
1.0
 70
     8
 71
     3
 72
     9
 73
     5
 74
     0
 42
0.00000001
 43
0.00000001
 12
1.0
 22
0.0
 32
0.0
 13
1.0
 23
0.0
 33
0.0
 40
0.0
 40
0.0
 40
0.0
 40
0.0
 40
0.5732314810312049
 40
1.0
 40
1.0
 40
1.0
 40
1.0
 10
206.2710116957048
 20
95.65903468178789
 30
0.0
 10
206.5210050390251
 20
95.69505772860737
 30
0.0
 10
206.9571174152515
 20
95.75789978807468
 30
0.0
 10
207.4608753450987
 20
95.8056852364042
 30
0.0
 10
207.6758633707383
 20
95.82607856141607
 30
0.0
  0
SPLINE
  5
9E
330
1F
100
AcDbEntity
  8
0
  6
Continuous
 62
     7
370
    15
100
AcDbSpline
210
0.0
220
0.0
230
1.0
 70
     8
 71
     3
 72
    14
 73
    10
 74
     0
 42
0.00000001
 43
0.00000001
 12
1.0
 22
0.0
 32
0.0
 13
1.0
 23
0.0
 33
0.0
 40
0.0
 40
0.0
 40
0.0
 40
0.0
 40
0.0776806287742526
 40
0.251595565786743
 40
0.4147114993023664
 40
0.5836121022119344
 40
0.7302143220390798
 40
0.8824159425586833
 40
1.0
 40
1.0
 40
1.0
 40
1.0
 10
212.2437584553579
 20
95.82511929916421
 30
0.0
 10
212.3847847720557
 20
95.81282682113174
 30
0.0
 10
212.8415472429608
 20
95.77301338225644
 30
0.0
 10
213.5173757406263
 20
95.68105590374395
 30
0.0
 10
214.2480656796016
 20
95.56637242326079
 30
0.0
 10
214.8093847935015
 20
95.46254910407974
 30
0.0
 10
215.2060590493809
 20
95.38279332188496
 30
0.0
 10
215.4266307062942
 20
95.33580522295593
 30
0.0
 10
215.4468632131141
 20
95.33141986553254
 30
0.0
 10
215.4556813989499
 20
95.32950854050199
 30
0.0
  0
SPLINE
  5
9F
330
1F
100
AcDbEntity
  8
0
  6
Continuous
 62
     7
370
    15
100
AcDbSpline
210
0.0
220
0.0
230
1.0
 70
     8
 71
     3
 72
    13
 73
     9
 74
     0
 42
0.00000001
 43
0.00000001
 12
1.0
 22
0.0
 32
0.0
 13
1.0
 23
0.0
 33
0.0
 40
0.0
 40
0.0
 40
0.0
 40
0.0
 40
0.0699629445383582
 40
0.2387364499459919
 40
0.4122970284500191
 40
0.583861996836926
 40
0.759565338234476
 40
1.0
 40
1.0
 40
1.0
 40
1.0
 10
204.477891639314
 20
95.3322745685486
 30
0.0
 10
204.473147039656
 20
95.33125414263223
 30
0.0
 10
204.4569569137793
 20
95.32777211564905
 30
0.0
 10
204.5639777508949
 20
95.35080630695997
 30
0.0
 10
204.7795101227474
 20
95.39601852188146
 30
0.0
 10
205.1144367640923
 20
95.46256351435153
 30
0.0
 10
205.5896978884657
 20
95.55174993527413
 30
0.0
 10
206.0215169123398
 20
95.61974737496185
 30
0.0
 10
206.2710116957048
 20
95.65903468178789
 30
0.0
  0
SPLINE
  5
A0
330
1F
100
AcDbEntity
  8
0
  6
Continuous
 62
     7
370
    15
100
AcDbSpline
210
0.0
220
0.0
230
1.0
 70
     8
 71
     3
 72
    16
 73
    12
 74
     0
 42
0.00000001
 43
0.00000001
 12
1.0
 22
0.0
 32
0.0
 13
1.0
 23
0.0
 33
0.0
 40
0.0
 40
0.0
 40
0.0
 40
0.0
 40
0.0101244830350837
 40
0.1419615490712163
 40
0.2625809344866378
 40
0.3863821174952382
 40
0.5135182715113383
 40
0.6436339205426809
 40
0.7856140927133469
 40
0.9309362632898236
 40
1.0
 40
1.0
 40
1.0
 40
1.0
 10
215.45568139895
 20
135.3274959896711
 30
0.0
 10
215.4572205351706
 20
135.3278266694371
 30
0.0
 10
215.4788017024617
 20
135.3324633320365
 30
0.0
 10
215.3975047174299
 20
135.3148955727259
 30
0.0
 10
215.2106514304552
 20
135.2754275281956
 30
0.0
 10
214.9063670904638
 20
135.2137322363853
 30
0.0
 10
214.4981400871071
 20
135.136459016604
 30
0.0
 10
213.9786959408329
 20
135.0465851754266
 30
0.0
 10
213.3489043926676
 20
134.9529911598203
 30
0.0
 10
212.7599532096655
 20
134.8761556865573
 30
0.0
 10
212.370368378269
 20
134.842343668527
 30
0.0
 10
212.2448648665765
 20
134.8314512346892
 30
0.0
  0
SPLINE
  5
A1
330
1F
100
AcDbEntity
  8
0
  6
Continuous
 62
     7
370
    15
100
AcDbSpline
210
0.0
220
0.0
230
1.0
 70
     8
 71
     3
 72
    14
 73
    10
 74
     0
 42
0.00000001
 43
0.00000001
 12
1.0
 22
0.0
 32
0.0
 13
1.0
 23
0.0
 33
0.0
 40
0.0
 40
0.0
 40
0.0
 40
0.0
 40
0.1265260436350943
 40
0.2927941344841374
 40
0.4646277274886121
 40
0.6184103928507059
 40
0.7780506731934436
 40
0.9118410134180739
 40
1.0
 40
1.0
 40
1.0
 40
1.0
 10
207.6765860770562
 20
134.8311550741104
 30
0.0
 10
207.4501886149806
 20
134.8527784902246
 30
0.0
 10
206.92628185987
 20
134.9028172745242
 30
0.0
 10
206.1893813825929
 20
135.0073589199955
 30
0.0
 10
205.5123408164736
 20
135.1191826918819
 30
0.0
 10
204.9815301140997
 20
135.2198831345697
 30
0.0
 10
204.6455569263965
 20
135.2887856746081
 30
0.0
 10
204.4744653199923
 20
135.3254508396264
 30
0.0
 10
204.4769175898414
 20
135.3249348960663
 30
0.0
 10
204.477891639314
 20
135.3247299616245
 30
0.0
  0
LINE
  5
A2
330
1F
100
AcDbEntity
  8
0
  6
Continuous
 62
     7
370
    15
100
AcDbLine
 10
232.960366026
 20
134.3285016541
 30
0.0
 11
232.960366026
 21
96.328502876
 31
0.0
  0
LINE
  5
A3
330
1F
100
AcDbEntity
  8
0
  6
Continuous
 62
     7
370
    15
100
AcDbLine
 10
167.9603684102
 20
115.3285022651
 30
0.0
 11
167.9603684102
 21
135.0285023277
 31
0.0
  0
LINE
  5
A4
330
1F
100
AcDbEntity
  8
0
  6
Continuous
 62
     7
370
    15
100
AcDbLine
 10
167.9603684102
 20
95.6285022025
 30
0.0
 11
167.9603684102
 21
115.3285022651
 31
0.0
  0
LINE
  5
A5
330
1F
100
AcDbEntity
  8
0
  6
Continuous
 62
     7
370
    15
100
AcDbLine
 10
167.7603684152
 20
104.0757972573
 30
0.0
 11
167.7603684152
 21
101.2386822899
 31
0.0
  0
SPLINE
  5
A6
330
1F
100
AcDbEntity
  8
0
  6
Continuous
 62
     7
370
    15
100
AcDbSpline
210
0.0
220
0.0
230
1.0
 70
     8
 71
     3
 72
    16
 73
    12
 74
     0
 42
0.00000001
 43
0.00000001
 12
1.0
 22
0.0
 32
0.0
 13
1.0
 23
0.0
 33
0.0
 40
0.0
 40
0.0
 40
0.0
 40
0.0
 40
0.4999999999999982
 40
0.4999999999999982
 40
0.7499999999999998
 40
0.7499999999999998
 40
0.8750000000000007
 40
0.8750000000000007
 40
0.9375000000000003
 40
0.9375000000000003
 40
1.0
 40
1.0
 40
1.0
 40
1.0
 10
167.7603684101919
 20
104.0757973279954
 30
0.0
 10
167.7603684101919
 20
104.1526660941292
 30
0.0
 10
167.7564849850329
 20
104.2322637192951
 30
0.0
 10
167.7316696597583
 20
104.3590093430465
 30
0.0
 10
167.7208302120458
 20
104.4030581969496
 30
0.0
 10
167.687614429997
 20
104.4702509246758
 30
0.0
 10
167.6742326863682
 20
104.4934821315142
 30
0.0
 10
167.638723036506
 20
104.522344321674
 30
0.0
 10
167.6233060700052
 20
104.5303639689818
 30
0.0
 10
167.5916050478566
 20
104.5349279869429
 30
0.0
 10
167.5774587629058
 20
104.5319492051921
 30
0.0
 10
167.5653915213161
 20
104.5271761182184
 30
0.0
  0
SPLINE
  5
A7
330
1F
100
AcDbEntity
  8
0
  6
Continuous
 62
     7
370
    15
100
AcDbSpline
210
0.0
220
0.0
230
1.0
 70
     8
 71
     3
 72
    18
 73
    14
 74
     0
 42
0.00000001
 43
0.00000001
 12
1.0
 22
0.0
 32
0.0
 13
1.0
 23
0.0
 33
0.0
 40
0.0
 40
0.0
 40
0.0
 40
0.0
 40
0.1250000000000004
 40
0.1250000000000004
 40
0.2500000000000007
 40
0.2500000000000007
 40
0.3750000000000011
 40
0.3750000000000011
 40
0.5000000000000014
 40
0.5000000000000014
 40
0.7500000000000007
 40
0.7500000000000007
 40
1.0
 40
1.0
 40
1.0
 40
1.0
 10
167.5653915213223
 20
104.5271761182144
 30
0.0
 10
167.5166860291802
 20
104.5079111065408
 30
0.0
 10
167.4581759208533
 20
104.4928818993441
 30
0.0
 10
167.3264468025612
 20
104.4898846724151
 30
0.0
 10
167.2616878662206
 20
104.5032655928016
 30
0.0
 10
167.1564768933611
 20
104.5413640153672
 30
0.0
 10
167.1132605179211
 20
104.5653570664047
 30
0.0
 10
167.0370820128092
 20
104.6157706735833
 30
0.0
 10
167.0042270514293
 20
104.6423990186385
 30
0.0
 10
166.9138587715955
 20
104.7249171954656
 30
0.0
 10
166.8644355372255
 20
104.7836214294552
 30
0.0
 10
166.7767870821773
 20
104.9041027249848
 30
0.0
 10
166.7387279099745
 20
104.9661461335634
 30
0.0
 10
166.7042840926289
 20
105.0297646245647
 30
0.0
  0
SPLINE
  5
A8
330
1F
100
AcDbEntity
  8
0
  6
Continuous
 62
     7
370
    15
100
AcDbSpline
210
0.0
220
0.0
230
1.0
 70
     8
 71
     3
 72
     8
 73
     4
 74
     0
 42
0.00000001
 43
0.00000001
 12
1.0
 22
0.0
 32
0.0
 13
1.0
 23
0.0
 33
0.0
 40
0.0
 40
0.0
 40
0.0
 40
0.0
 40
1.0
 40
1.0
 40
1.0
 40
1.0
 10
166.7042840926283
 20
105.0297646245636
 30
0.0
 10
166.6799703887382
 20
105.0746725723855
 30
0.0
 10
166.6584737467821
 20
105.1211249813023
 30
0.0
 10
166.6390480666321
 20
105.1690954962387
 30
0.0
  0
SPLINE
  5
A9
330
1F
100
AcDbEntity
  8
0
  6
Continuous
 62
     7
370
    15
100
AcDbSpline
210
0.0
220
0.0
230
1.0
 70
     8
 71
     3
 72
     8
 73
     4
 74
     0
 42
0.00000001
 43
0.00000001
 12
1.0
 22
0.0
 32
0.0
 13
1.0
 23
0.0
 33
0.0
 40
0.0
 40
0.0
 40
0.0
 40
0.0
 40
1.0
 40
1.0
 40
1.0
 40
1.0
 10
166.6390480666321
 20
111.7016025230255
 30
0.0
 10
166.6584734935255
 20
111.7914849677975
 30
0.0
 10
166.6799700474945
 20
111.8808974112602
 30
0.0
 10
166.7042840926289
 20
111.9696565382746
 30
0.0
  0
SPLINE
  5
AA
330
1F
100
AcDbEntity
  8
0
  6
Continuous
 62
     7
370
    15
100
AcDbSpline
210
0.0
220
0.0
230
1.0
 70
     8
 71
     3
 72
    18
 73
    14
 74
     0
 42
0.00000001
 43
0.00000001
 12
1.0
 22
0.0
 32
0.0
 13
1.0
 23
0.0
 33
0.0
 40
0.0
 40
0.0
 40
0.0
 40
0.0
 40
0.2499999999999996
 40
0.2499999999999996
 40
0.4999999999999991
 40
0.4999999999999991
 40
0.6249999999999993
 40
0.6249999999999993
 40
0.7499999999999996
 40
0.7499999999999996
 40
0.8749999999999998
 40
0.8749999999999998
 40
1.0
 40
1.0
 40
1.0
 40
1.0
 10
166.7042840926278
 20
111.969656538275
 30
0.0
 10
166.7385809120796
 20
112.0948580724949
 30
0.0
 10
166.7763921920568
 20
112.2185539034254
 30
0.0
 10
166.8629645592368
 20
112.4612747346135
 30
0.0
 10
166.9113036893197
 20
112.5804784684798
 30
0.0
 10
167.0005760466422
 20
112.7521599976519
 30
0.0
 10
167.0331175124181
 20
112.8082040434206
 30
0.0
 10
167.1092937122716
 20
112.9155856115075
 30
0.0
 10
167.1525097722661
 20
112.9669724683742
 30
0.0
 10
167.258199074232
 20
113.0480254155985
 30
0.0
 10
167.3231701329466
 20
113.0759155770508
 30
0.0
 10
167.4568305213045
 20
113.0641582739783
 30
0.0
 10
167.5161369746407
 20
113.0277047434872
 30
0.0
 10
167.5653915213166
 20
112.9825626546541
 30
0.0
  0
SPLINE
  5
AB
330
1F
100
AcDbEntity
  8
0
  6
Continuous
 62
     7
370
    15
100
AcDbSpline
210
0.0
220
0.0
230
1.0
 70
     8
 71
     3
 72
    16
 73
    12
 74
     0
 42
0.00000001
 43
0.00000001
 12
1.0
 22
0.0
 32
0.0
 13
1.0
 23
0.0
 33
0.0
 40
0.0
 40
0.0
 40
0.0
 40
0.0
 40
0.0624999999999988
 40
0.0624999999999988
 40
0.1249999999999977
 40
0.1249999999999977
 40
0.2499999999999968
 40
0.2499999999999968
 40
0.4999999999999969
 40
0.4999999999999969
 40
1.0
 40
1.0
 40
1.0
 40
1.0
 10
167.5653915212858
 20
112.9825626546092
 30
0.0
 10
167.5774613545616
 20
112.9715005796733
 30
0.0
 10
167.5917370094949
 20
112.9622609230322
 30
0.0
 10
167.6232014216194
 20
112.9577128651702
 30
0.0
 10
167.6387019464298
 20
112.963766648
 30
0.0
 10
167.6741408430367
 20
112.9928559524044
 30
0.0
 10
167.68773345914
 20
113.0224253261236
 30
0.0
 10
167.7207277775328
 20
113.109468570142
 30
0.0
 10
167.7315151708516
 20
113.1714172123436
 30
0.0
 10
167.7565684181307
 20
113.3590237794563
 30
0.0
 10
167.760368410192
 20
113.4850313024287
 30
0.0
 10
167.760368410192
 20
113.6115073826394
 30
0.0
  0
LINE
  5
AC
330
1F
100
AcDbEntity
  8
0
  6
Continuous
 62
     7
370
    15
100
AcDbLine
 10
167.7603684152
 20
128.2982019533
 30
0.0
 11
167.7603684152
 21
113.6115073518
 31
0.0
  0
LINE
  5
AD
330
1F
100
AcDbEntity
  8
0
  6
Continuous
 62
     7
370
    15
100
AcDbLine
 10
167.7603684152
 20
128.2982019533
 30
0.0
 11
167.7450256762
 21
128.362720256
 31
0.0
  0
SPLINE
  5
AE
330
1F
100
AcDbEntity
  8
0
  6
Continuous
 62
     7
370
    15
100
AcDbSpline
210
0.0
220
0.0
230
1.0
 70
     8
 71
     3
 72
    15
 73
    11
 74
     0
 42
0.00000001
 43
0.00000001
 12
1.0
 22
0.0
 32
0.0
 13
1.0
 23
0.0
 33
0.0
 40
0.0
 40
0.0
 40
0.0
 40
0.0
 40
0.0264812312460172
 40
0.3002678549877983
 40
0.5758736426353436
 40
0.6834205106373289
 40
0.7547390074072328
 40
0.8265579010130125
 40
0.8901017641209379
 40
1.0
 40
1.0
 40
1.0
 40
1.0
 10
167.7206281824935
 20
128.4653156821636
 30
0.0
 10
167.7204491419454
 20
128.4661665086475
 30
0.0
 10
167.7184190202783
 20
128.4758139393465
 30
0.0
 10
167.6992422506312
 20
128.4861171377129
 30
0.0
 10
167.6759095986201
 20
128.4981332857867
 30
0.0
 10
167.6469777608251
 20
128.4997927119092
 30
0.0
 10
167.626650374236
 20
128.4976880512187
 30
0.0
 10
167.6077389261459
 20
128.4932818784467
 30
0.0
 10
167.5860129943113
 20
128.4858709346206
 30
0.0
 10
167.5733898929545
 20
128.4796865385397
 30
0.0
 10
167.5653915086029
 20
128.4757679154185
 30
0.0
  0
SPLINE
  5
AF
330
1F
100
AcDbEntity
  8
0
  6
Continuous
 62
     7
370
    15
100
AcDbSpline
210
0.0
220
0.0
230
1.0
 70
     8
 71
     3
 72
    18
 73
    14
 74
     0
 42
0.00000001
 43
0.00000001
 12
1.0
 22
0.0
 32
0.0
 13
1.0
 23
0.0
 33
0.0
 40
0.0
 40
0.0
 40
0.0
 40
0.0
 40
0.1249999999999997
 40
0.1249999999999997
 40
0.2499999999999993
 40
0.2499999999999993
 40
0.374999999999999
 40
0.374999999999999
 40
0.4999999999999987
 40
0.4999999999999987
 40
0.7499999999999993
 40
0.7499999999999993
 40
1.0
 40
1.0
 40
1.0
 40
1.0
 10
167.5653915213223
 20
128.4757680223824
 30
0.0
 10
167.5166869376343
 20
128.4503946302834
 30
0.0
 10
167.4581784548588
 20
128.4293029131229
 30
0.0
 10
167.326451639589
 20
128.4193021175938
 30
0.0
 10
167.2616935680915
 20
128.4324888705578
 30
0.0
 10
167.1564829659407
 20
128.4732397724541
 30
0.0
 10
167.1132668174206
 20
128.4997525373099
 30
0.0
 10
167.0370885013367
 20
128.5552316339836
 30
0.0
 10
167.0042336690454
 20
128.5844753276138
 30
0.0
 10
166.9138657630845
 20
128.6741657160154
 30
0.0
 10
166.8644431052449
 20
128.7367443978938
 30
0.0
 10
166.7767919796533
 20
128.8614730163746
 30
0.0
 10
166.7387304322627
 20
128.9239614201625
 30
0.0
 10
166.7042840926289
 20
128.9860856324204
 30
0.0
  0
SPLINE
  5
B0
330
1F
100
AcDbEntity
  8
0
  6
Continuous
 62
     7
370
    15
100
AcDbSpline
210
0.0
220
0.0
230
1.0
 70
     8
 71
     3
 72
     8
 73
     4
 74
     0
 42
0.00000001
 43
0.00000001
 12
1.0
 22
0.0
 32
0.0
 13
1.0
 23
0.0
 33
0.0
 40
0.0
 40
0.0
 40
0.0
 40
0.0
 40
1.0
 40
1.0
 40
1.0
 40
1.0
 10
166.6390480666321
 20
129.1148087759955
 30
0.0
 10
166.6584742719311
 20
129.0728945412602
 30
0.0
 10
166.6799710963595
 20
129.0299342896919
 30
0.0
 10
166.7042840926289
 20
128.9860856324204
 30
0.0
  0
LINE
  5
B1
330
1F
100
AcDbEntity
  8
0
  6
Continuous
 62
     7
370
    15
100
AcDbLine
 10
166.2603683877
 20
104.8661632289
 30
0.0
 11
166.2603683877
 21
105.5906614115
 31
0.0
  0
LINE
  5
B2
330
1F
100
AcDbEntity
  8
0
  6
Continuous
 62
     7
370
    15
100
AcDbLine
 10
145.4603675161
 20
105.3187208076
 30
0.0
 11
145.4603675161
 21
111.9696564333
 31
0.0
  0
LINE
  5
B3
330
1F
100
AcDbEntity
  8
0
  6
Continuous
 62
     7
370
    15
100
AcDbLine
 10
166.2603683877
 20
110.6936269266
 30
0.0
 11
166.2603683877
 21
111.9696564333
 31
0.0
  0
SPLINE
  5
B4
330
1F
100
AcDbEntity
  8
0
  6
Continuous
 62
     7
370
    15
100
AcDbSpline
210
0.0
220
0.0
230
1.0
 70
     8
 71
     3
 72
    16
 73
    12
 74
     0
 42
0.00000001
 43
0.00000001
 12
1.0
 22
0.0
 32
0.0
 13
1.0
 23
0.0
 33
0.0
 40
0.0
 40
0.0
 40
0.0
 40
0.0
 40
0.2499999999999997
 40
0.2499999999999997
 40
0.3749999999999999
 40
0.3749999999999999
 40
0.5000000000000001
 40
0.5000000000000001
 40
0.75
 40
0.75
 40
1.0
 40
1.0
 40
1.0
 40
1.0
 10
166.2603684101917
 20
105.5906616020535
 30
0.0
 10
166.1798310782926
 20
105.9077103594276
 30
0.0
 10
166.1197937342653
 20
106.2565623803752
 30
0.0
 10
166.0590560271117
 20
106.8269059457795
 30
0.0
 10
166.0437336519988
 20
107.0249117709973
 30
0.0
 10
166.0231508426945
 20
107.4371928025977
 30
0.0
 10
166.0179512456688
 20
107.6520530086489
 30
0.0
 10
166.0178975924885
 20
108.3069507597661
 30
0.0
 10
166.0380951359659
 20
108.7615767860914
 30
0.0
 10
166.1187732243233
 20
109.7062713747463
 30
0.0
 10
166.1798193889304
 20
110.1981405254542
 30
0.0
 10
166.2603684101881
 20
110.6936269131994
 30
0.0
  0
SPLINE
  5
B5
330
1F
100
AcDbEntity
  8
0
  6
Continuous
 62
     7
370
    15
100
AcDbSpline
210
0.0
220
0.0
230
1.0
 70
     8
 71
     3
 72
    24
 73
    20
 74
     0
 42
0.00000001
 43
0.00000001
 12
1.0
 22
0.0
 32
0.0
 13
1.0
 23
0.0
 33
0.0
 40
0.0
 40
0.0
 40
0.0
 40
0.0
 40
0.2499999999999937
 40
0.2499999999999937
 40
0.3749999999999888
 40
0.3749999999999888
 40
0.4374999999999863
 40
0.4374999999999863
 40
0.4999999999999839
 40
0.4999999999999839
 40
0.5312499999999851
 40
0.5312499999999851
 40
0.5624999999999863
 40
0.5624999999999863
 40
0.6249999999999873
 40
0.6249999999999873
 40
0.7499999999999893
 40
0.7499999999999893
 40
1.0
 40
1.0
 40
1.0
 40
1.0
 10
166.4653284322522
 20
105.6950808535393
 30
0.0
 10
166.4495595548948
 20
105.7541465361272
 30
0.0
 10
166.4329455730448
 20
105.8131380448908
 30
0.0
 10
166.4044139070397
 20
105.8992467385719
 30
0.0
 10
166.394326492221
 20
105.9276231531259
 30
0.0
 10
166.3768389317667
 20
105.9680213206378
 30
0.0
 10
166.3706293699834
 20
105.9811411173756
 30
0.0
 10
166.3563518163308
 20
106.0054340586196
 30
0.0
 10
166.3487802685354
 20
106.0175764547984
 30
0.0
 10
166.3313626848571
 20
106.0265958054915
 30
0.0
 10
166.3228801882121
 20
106.027420886433
 30
0.0
 10
166.3068418763403
 20
106.0110284881347
 30
0.0
 10
166.3020213281368
 20
105.9991344675288
 30
0.0
 10
166.2906121035888
 20
105.9670736099314
 30
0.0
 10
166.2865916231313
 20
105.9467811616998
 30
0.0
 10
166.275837768311
 20
105.8863718232947
 30
0.0
 10
166.2719650870288
 20
105.8479516871777
 30
0.0
 10
166.2627969371912
 20
105.734545206237
 30
0.0
 10
166.2607684318221
 20
105.6615477044638
 30
0.0
 10
166.2603684101919
 20
105.5906616020537
 30
0.0
  0
SPLINE
  5
B6
330
1F
100
AcDbEntity
  8
0
  6
Continuous
 62
     7
370
    15
100
AcDbSpline
210
0.0
220
0.0
230
1.0
 70
     8
 71
     3
 72
    24
 73
    20
 74
     0
 42
0.00000001
 43
0.00000001
 12
1.0
 22
0.0
 32
0.0
 13
1.0
 23
0.0
 33
0.0
 40
0.0
 40
0.0
 40
0.0
 40
0.0
 40
0.2500000000000014
 40
0.2500000000000014
 40
0.3750000000000031
 40
0.3750000000000031
 40
0.4375000000000028
 40
0.4375000000000028
 40
0.4687500000000035
 40
0.4687500000000035
 40
0.5000000000000041
 40
0.5000000000000041
 40
0.5625000000000034
 40
0.5625000000000034
 40
0.6250000000000028
 40
0.6250000000000028
 40
0.7500000000000018
 40
0.7500000000000018
 40
1.0
 40
1.0
 40
1.0
 40
1.0
 10
166.2603684101918
 20
110.6936269132001
 30
0.0
 10
166.2607713208276
 20
110.6035271361275
 30
0.0
 10
166.2628153001682
 20
110.514253736314
 30
0.0
 10
166.2720525429943
 20
110.3839161114957
 30
0.0
 10
166.2759396059749
 20
110.3409329424895
 30
0.0
 10
166.2868434973815
 20
110.2789247607695
 30
0.0
 10
166.2909855431319
 20
110.2581627747974
 30
0.0
 10
166.3028806168847
 20
110.2321861261953
 30
0.0
 10
166.3081276811935
 20
110.2231454755081
 30
0.0
 10
166.3249947475727
 20
110.2240877269565
 30
0.0
 10
166.3328171550978
 20
110.2353617309527
 30
0.0
 10
166.3497659557193
 20
110.2665641985071
 30
0.0
 10
166.3572223069373
 20
110.2896894377698
 30
0.0
 10
166.3712822101297
 20
110.3352841430009
 30
0.0
 10
166.3774145952657
 20
110.3582277540308
 30
0.0
 10
166.3947093577889
 20
110.4272471653766
 30
0.0
 10
166.4047266761978
 20
110.4735388770526
 30
0.0
 10
166.4330980104407
 20
110.6125931094187
 30
0.0
 10
166.449633448085
 20
110.7054944111749
 30
0.0
 10
166.4653284322495
 20
110.7985526307125
 30
0.0
  0
SPLINE
  5
B7
330
1F
100
AcDbEntity
  8
0
  6
Continuous
 62
     7
370
    15
100
AcDbSpline
210
0.0
220
0.0
230
1.0
 70
     8
 71
     3
 72
     8
 73
     4
 74
     0
 42
0.00000001
 43
0.00000001
 12
1.0
 22
0.0
 32
0.0
 13
1.0
 23
0.0
 33
0.0
 40
0.0
 40
0.0
 40
0.0
 40
0.0
 40
1.0
 40
1.0
 40
1.0
 40
1.0
 10
166.4653284322495
 20
110.7985526307125
 30
0.0
 10
166.5160555754562
 20
111.0993224549842
 30
0.0
 10
166.573942905017
 20
111.4003576069993
 30
0.0
 10
166.6390480666323
 20
111.7016025230255
 30
0.0
  0
SPLINE
  5
B8
330
1F
100
AcDbEntity
  8
0
  6
Continuous
 62
     7
370
    15
100
AcDbSpline
210
0.0
220
0.0
230
1.0
 70
     8
 71
     3
 72
     8
 73
     4
 74
     0
 42
0.00000001
 43
0.00000001
 12
1.0
 22
0.0
 32
0.0
 13
1.0
 23
0.0
 33
0.0
 40
0.0
 40
0.0
 40
0.0
 40
0.0
 40
1.0
 40
1.0
 40
1.0
 40
1.0
 10
166.6390480666323
 20
105.1690954962387
 30
0.0
 10
166.5739429050182
 20
105.329868663692
 30
0.0
 10
166.5160555754582
 20
105.5050715541273
 30
0.0
 10
166.4653284322522
 20
105.6950808535393
 30
0.0
  0
LINE
  5
B9
330
1F
100
AcDbEntity
  8
0
  6
Continuous
 62
     7
370
    15
100
AcDbLine
 10
166.2603683877
 20
111.9696564333
 30
0.0
 11
166.2603683877
 21
129.1496869002
 31
0.0
  0
LINE
  5
BA
330
1F
100
AcDbEntity
  8
0
  6
Continuous
 62
     7
370
    15
100
AcDbLine
 10
145.4603675161
 20
111.9696564333
 30
0.0
 11
145.4603675161
 21
128.6971293216
 31
0.0
  0
LINE
  5
BB
330
1F
100
AcDbEntity
  8
0
  6
Continuous
 62
     7
370
    15
100
AcDbLine
 10
143.9603682016
 20
111.9696564333
 30
0.0
 11
143.9603682016
 21
127.9471296643
 31
0.0
  0
LINE
  5
BC
330
1F
100
AcDbEntity
  8
0
  6
Continuous
 62
     7
370
    15
100
AcDbLine
 10
143.9603682016
 20
106.0687204649
 30
0.0
 11
143.9603682016
 21
111.9696564333
 31
0.0
  0
LINE
  5
BD
330
1F
100
AcDbEntity
  8
0
  6
Continuous
 62
     7
370
    15
100
AcDbLine
 10
166.2603683877
 20
102.2084032943
 30
0.0
 11
166.2603683877
 21
104.8661632289
 31
0.0
  0
SPLINE
  5
BE
330
1F
100
AcDbEntity
  8
0
  6
Continuous
 62
     7
370
    15
100
AcDbSpline
210
0.0
220
0.0
230
1.0
 70
     8
 71
     3
 72
     8
 73
     4
 74
     0
 42
0.00000001
 43
0.00000001
 12
1.0
 22
0.0
 32
0.0
 13
1.0
 23
0.0
 33
0.0
 40
0.0000137051794235
 40
0.0000137051794235
 40
0.0000137051794235
 40
0.0000137051794235
 40
0.0027147144718019
 40
0.0027147144718019
 40
0.0027147144718019
 40
0.0027147144718019
 10
145.4603684101919
 20
102.9007079475013
 30
0.0
 10
146.3603645456866
 20
102.8796275501706
 30
0.0
 10
147.260364724282
 20
102.8585100420124
 30
0.0
 10
148.1603684101919
 20
102.8373554346666
 30
0.0
  0
LINE
  5
BF
330
1F
100
AcDbEntity
  8
0
  6
Continuous
 62
     7
370
    15
100
AcDbLine
 10
145.4603675161
 20
102.900707518
 30
0.0
 11
145.4603675161
 21
105.3187208076
 31
0.0
  0
SPLINE
  5
C0
330
1F
100
AcDbEntity
  8
0
  6
Continuous
 62
     7
370
    15
100
AcDbSpline
210
0.0
220
0.0
230
1.0
 70
     8
 71
     3
 72
    11
 73
     7
 74
     0
 42
0.00000001
 43
0.00000001
 12
1.0
 22
0.0
 32
0.0
 13
1.0
 23
0.0
 33
0.0
 40
0.0
 40
0.0
 40
0.0
 40
0.0
 40
0.3779413357426488
 40
0.6914365808362677
 40
0.8742843740764292
 40
0.9999999999999999
 40
0.9999999999999999
 40
0.9999999999999999
 40
0.9999999999999999
 10
148.1603685174802
 20
102.8373552312163
 30
0.0
 10
148.4311762969336
 20
102.7949114052364
 30
0.0
 10
148.9266140471368
 20
102.7172612221585
 30
0.0
 10
149.4920038265291
 20
102.6545464074319
 30
0.0
 10
149.8208109879148
 20
102.6242326003815
 30
0.0
 10
149.8517183590328
 20
102.6216510119597
 30
0.0
 10
149.8643107120612
 20
102.6205992152003
 30
0.0
  0
SPLINE
  5
C1
330
1F
100
AcDbEntity
  8
0
  6
Continuous
 62
     7
370
    15
100
AcDbSpline
210
0.0
220
0.0
230
1.0
 70
     8
 71
     3
 72
    17
 73
    13
 74
     0
 42
0.00000001
 43
0.00000001
 12
1.0
 22
0.0
 32
0.0
 13
1.0
 23
0.0
 33
0.0
 40
0.0
 40
0.0
 40
0.0
 40
0.0
 40
0.0814809770434551
 40
0.1781293279723923
 40
0.2787677196394178
 40
0.3860923626754568
 40
0.4994333525167331
 40
0.6156643710248497
 40
0.7313553393344966
 40
0.8434793977373949
 40
0.9495134613710577
 40
1.0
 40
1.0
 40
1.0
 40
1.0
 10
159.1419487599948
 20
102.3893806909231
 30
0.0
 10
159.1312425374231
 20
102.3909569257915
 30
0.0
 10
159.1078371696793
 20
102.3944028056522
 30
0.0
 10
158.7604550815676
 20
102.4419979317229
 30
0.0
 10
158.195482508171
 20
102.5076435558853
 30
0.0
 10
157.4263450187153
 20
102.5741363442463
 30
0.0
 10
156.5260504553405
 20
102.6166931704094
 30
0.0
 10
155.6013747240753
 20
102.6202434241476
 30
0.0
 10
154.7781967465776
 20
102.5886213249643
 30
0.0
 10
154.1949067389242
 20
102.5470558421188
 30
0.0
 10
153.9010663016963
 20
102.5199244750948
 30
0.0
 10
153.9208790118333
 20
102.5217544239933
 30
0.0
 10
153.9272697050789
 20
102.5223446835784
 30
0.0
  0
SPLINE
  5
C2
330
1F
100
AcDbEntity
  8
0
  6
Continuous
 62
     7
370
    15
100
AcDbSpline
210
0.0
220
0.0
230
1.0
 70
     8
 71
     3
 72
    10
 73
     6
 74
     0
 42
0.00000001
 43
0.00000001
 12
1.0
 22
0.0
 32
0.0
 13
1.0
 23
0.0
 33
0.0
 40
0.0
 40
0.0
 40
0.0
 40
0.0
 40
0.5
 40
0.5
 40
1.0
 40
1.0
 40
1.0
 40
1.0
 10
143.9603684101918
 20
103.6900078957756
 30
0.0
 10
144.1975103709076
 20
103.5680853918832
 30
0.0
 10
144.4428531296709
 20
103.4405791954216
 30
0.0
 10
144.9441167184036
 20
103.176950477372
 30
0.0
 10
145.2001512876539
 20
103.0407742236175
 30
0.0
 10
145.4603684101918
 20
102.9007079475013
 30
0.0
  0
LINE
  5
C3
330
1F
100
AcDbEntity
  8
0
  6
Continuous
 62
     7
370
    15
100
AcDbLine
 10
143.9603682016
 20
103.6900080566
 30
0.0
 11
143.9603682016
 21
106.0687204649
 31
0.0
  0
SPLINE
  5
C4
330
1F
100
AcDbEntity
  8
0
  6
Continuous
 62
     7
370
    15
100
AcDbSpline
210
0.0
220
0.0
230
1.0
 70
     8
 71
     3
 72
    24
 73
    20
 74
     0
 42
0.00000001
 43
0.00000001
 12
1.0
 22
0.0
 32
0.0
 13
1.0
 23
0.0
 33
0.0
 40
0.0
 40
0.0
 40
0.0
 40
0.0
 40
0.2500000000000056
 40
0.2500000000000056
 40
0.3750000000000083
 40
0.3750000000000083
 40
0.4375000000000097
 40
0.4375000000000097
 40
0.4687500000000104
 40
0.4687500000000104
 40
0.5000000000000112
 40
0.5000000000000112
 40
0.5625000000000098
 40
0.5625000000000098
 40
0.6250000000000084
 40
0.6250000000000084
 40
0.7500000000000066
 40
0.7500000000000066
 40
1.0
 40
1.0
 40
1.0
 40
1.0
 10
166.2603684101836
 20
129.7012182799919
 30
0.0
 10
166.2607714395575
 20
129.7199255180004
 30
0.0
 10
166.2628011792726
 20
129.7361264227968
 30
0.0
 10
166.2721098906924
 20
129.7528277755802
 30
0.0
 10
166.276035883807
 20
129.7573191983228
 30
0.0
 10
166.286965243723
 20
129.7585692404626
 30
0.0
 10
166.2910868718174
 20
129.758483704164
 30
0.0
 10
166.3029813929997
 20
129.7521081728559
 30
0.0
 10
166.3082682049535
 20
129.7487962593489
 30
0.0
 10
166.3248361364685
 20
129.7333222730832
 30
0.0
 10
166.3327628452358
 20
129.7240120038547
 30
0.0
 10
166.3497551834609
 20
129.7027459707314
 30
0.0
 10
166.3571528842519
 20
129.691783511325
 30
0.0
 10
166.3712552745937
 20
129.6704400969508
 30
0.0
 10
166.377408431886
 20
129.6605202503894
 30
0.0
 10
166.3947221653471
 20
129.6316655849623
 30
0.0
 10
166.4047272062356
 20
129.613619252212
 30
0.0
 10
166.4330836624663
 20
129.5603542514002
 30
0.0
 10
166.4496322018126
 20
129.5261453517941
 30
0.0
 10
166.4653284322526
 20
129.4918733109912
 30
0.0
  0
LINE
  5
C5
330
1F
100
AcDbEntity
  8
0
  6
Continuous
 62
     7
370
    15
100
AcDbLine
 10
166.2603683877
 20
129.7012179916
 30
0.0
 11
166.2603683877
 21
129.1496869002
 31
0.0
  0
SPLINE
  5
C6
330
1F
100
AcDbEntity
  8
0
  6
Continuous
 62
     7
370
    15
100
AcDbSpline
210
0.0
220
0.0
230
1.0
 70
     8
 71
     3
 72
    10
 73
     6
 74
     0
 42
0.00000001
 43
0.00000001
 12
1.0
 22
0.0
 32
0.0
 13
1.0
 23
0.0
 33
0.0
 40
0.0
 40
0.0
 40
0.0
 40
0.0
 40
0.2706621155471938
 40
0.7026699026879378
 40
1.0
 40
1.0
 40
1.0
 40
1.0
 10
166.0278241256917
 20
130.2202580322532
 30
0.0
 10
166.0275262048693
 20
130.2209365880419
 30
0.0
 10
166.0267527682365
 20
130.2226981967142
 30
0.0
 10
166.1115721300434
 20
130.0317276806525
 30
0.0
 10
166.2172759697147
 20
129.7969358670382
 30
0.0
 10
166.2603683876538
 20
129.7012179915814
 30
0.0
  0
LINE
  5
C7
330
1F
100
AcDbEntity
  8
0
  6
Continuous
 62
     7
370
    15
100
AcDbLine
 10
145.4603675161
 20
129.7260330816
 30
0.0
 11
145.4603675161
 21
128.6971293216
 31
0.0
  0
SPLINE
  5
C8
330
1F
100
AcDbEntity
  8
0
  6
Continuous
 62
     7
370
    15
100
AcDbSpline
210
0.0
220
0.0
230
1.0
 70
     8
 71
     3
 72
     8
 73
     4
 74
     0
 42
0.00000001
 43
0.00000001
 12
1.0
 22
0.0
 32
0.0
 13
1.0
 23
0.0
 33
0.0
 40
0.0
 40
0.0
 40
0.0
 40
0.0
 40
1.0
 40
1.0
 40
1.0
 40
1.0
 10
166.4653284322526
 20
129.4918733109913
 30
0.0
 10
166.516055514975
 20
129.3811129182002
 30
0.0
 10
166.5739428279621
 20
129.2552806908204
 30
0.0
 10
166.6390480666323
 20
129.1148087759955
 30
0.0
  0
LINE
  5
C9
330
1F
100
AcDbEntity
  8
0
  6
Continuous
 62
     7
370
    15
100
AcDbLine
 10
143.9603682016
 20
128.8600073953
 30
0.0
 11
143.9603682016
 21
127.9471296643
 31
0.0
  0
SPLINE
  5
CA
330
1F
100
AcDbEntity
  8
0
  6
HIDDEN
 62
     7
370
     0
100
AcDbSpline
210
0.0
220
0.0
230
1.0
 70
     8
 71
     3
 72
    17
 73
    13
 74
     0
 42
0.00000001
 43
0.00000001
 12
1.0
 22
0.0
 32
0.0
 13
1.0
 23
0.0
 33
0.0
 40
0.0
 40
0.0
 40
0.0
 40
0.0
 40
0.1070067351374819
 40
0.2140007054962709
 40
0.3213278464974721
 40
0.4288794986707768
 40
0.5360666014566652
 40
0.6428686862924161
 40
0.749866015441172
 40
0.857333186493305
 40
0.9648140074538438
 40
1.0
 40
1.0
 40
1.0
 40
1.0
 10
177.9603681866744
 20
95.3285027121214
 30
0.0
 10
177.9823683408267
 20
95.33076413675491
 30
0.0
 10
178.0263660247441
 20
95.33528671625777
 30
0.0
 10
178.3692058386767
 20
95.36677286488178
 30
0.0
 10
178.8749960802967
 20
95.40194230527302
 30
0.0
 10
179.5081891558206
 20
95.42740370596289
 30
0.0
 10
180.190873768677
 20
95.43128124824246
 30
0.0
 10
180.8452942116893
 20
95.41228685844531
 30
0.0
 10
181.4047673684572
 20
95.37825219338878
 30
0.0
 10
181.7876613654495
 20
95.34577706861864
 30
0.0
 10
181.9705824177155
 20
95.32749278059008
 30
0.0
 10
181.9424135186505
 20
95.33028115582333
 30
0.0
 10
181.9354662080029
 20
95.33096885429899
 30
0.0
  0
SPLINE
  5
CB
330
1F
100
AcDbEntity
  8
0
  6
HIDDEN
 62
     7
370
     0
100
AcDbSpline
210
0.0
220
0.0
230
1.0
 70
     8
 71
     3
 72
    12
 73
     8
 74
     0
 42
0.00000001
 43
0.00000001
 12
1.0
 22
0.0
 32
0.0
 13
1.0
 23
0.0
 33
0.0
 40
0.0
 40
0.0
 40
0.0
 40
0.0
 40
0.2500000000000008
 40
0.2500000000000008
 40
0.5000000000000016
 40
0.5000000000000016
 40
1.0
 40
1.0
 40
1.0
 40
1.0
 10
174.892270412191
 20
109.499289269435
 30
0.0
 10
174.8547585261464
 20
109.499289269435
 30
0.0
 10
174.8194711784417
 20
109.4844844551482
 30
0.0
 10
174.7605413302032
 20
109.4408925820224
 30
0.0
 10
174.7370156037342
 20
109.4133791559364
 30
0.0
 10
174.6767568159661
 20
109.3242474238228
 30
0.0
 10
174.6511620536768
 20
109.2578615732049
 30
0.0
 10
174.6324627910557
 20
109.1902571380276
 30
0.0
  0
LINE
  5
CC
330
1F
100
AcDbEntity
  8
0
  6
HIDDEN
 62
     7
370
     0
100
AcDbLine
 10
177.0284663294
 20
109.499289078
 30
0.0
 11
174.8922703196
 21
109.499289078
 31
0.0
  0
SPLINE
  5
CD
330
1F
100
AcDbEntity
  8
0
  6
HIDDEN
 62
     7
370
     0
100
AcDbSpline
210
0.0
220
0.0
230
1.0
 70
     8
 71
     3
 72
    12
 73
     8
 74
     0
 42
0.00000001
 43
0.00000001
 12
1.0
 22
0.0
 32
0.0
 13
1.0
 23
0.0
 33
0.0
 40
0.0
 40
0.0
 40
0.0
 40
0.0
 40
0.4999999999999947
 40
0.4999999999999947
 40
0.7499999999999973
 40
0.7499999999999973
 40
1.0
 40
1.0
 40
1.0
 40
1.0
 10
177.288274029328
 20
109.1902571380276
 30
0.0
 10
177.2695807961976
 20
109.2578397744679
 30
0.0
 10
177.2439254987858
 20
109.3243223439454
 30
0.0
 10
177.1837648760993
 20
109.4133174268429
 30
0.0
 10
177.159692564345
 20
109.4413193238421
 30
0.0
 10
177.1013110439945
 20
109.4843957245072
 30
0.0
 10
177.0658422163414
 20
109.499289269435
 30
0.0
 10
177.0284664081927
 20
109.499289269435
 30
0.0
  0
ELLIPSE
  5
CE
330
1F
100
AcDbEntity
  8
0
  6
HIDDEN
 62
     7
370
     0
100
AcDbEllipse
 10
167.0114392378
 20
115.3285022651
 30
0.0
 11
-9.367417879781728
 21
19.74174915274992
 31
0.0
210
0.0
220
0.0
230
1.0
 40
0.3419987131
 41
3.292664382516905
 42
4.239566697061006
  0
SPLINE
  5
CF
330
1F
100
AcDbEntity
  8
0
  6
HIDDEN
 62
     7
370
     0
100
AcDbSpline
210
0.0
220
0.0
230
1.0
 70
     8
 71
     3
 72
    12
 73
     8
 74
     0
 42
0.00000001
 43
0.00000001
 12
1.0
 22
0.0
 32
0.0
 13
1.0
 23
0.0
 33
0.0
 40
0.0
 40
0.0
 40
0.0
 40
0.0
 40
0.2500000000000001
 40
0.2500000000000001
 40
0.5000000000000002
 40
0.5000000000000002
 40
1.0
 40
1.0
 40
1.0
 40
1.0
 10
177.0284664081927
 20
96.19684588485322
 30
0.0
 10
177.0659782942373
 20
96.19684588485322
 30
0.0
 10
177.1012656419421
 20
96.20134942911577
 30
0.0
 10
177.1601954901805
 20
96.21472262856906
 30
0.0
 10
177.1837212166496
 20
96.22320753114019
 30
0.0
 10
177.2439800044177
 20
96.25095533497478
 30
0.0
 10
177.269574766707
 20
96.27194519871514
 30
0.0
 10
177.288274029328
 20
96.29374598190466
 30
0.0
  0
LINE
  5
D0
330
1F
100
AcDbEntity
  8
0
  6
HIDDEN
 62
     7
370
     0
100
AcDbLine
 10
174.8922703196
 20
96.196845529
 30
0.0
 11
177.0284663294
 21
96.196845529
 31
0.0
  0
SPLINE
  5
D1
330
1F
100
AcDbEntity
  8
0
  6
HIDDEN
 62
     7
370
     0
100
AcDbSpline
210
0.0
220
0.0
230
1.0
 70
     8
 71
     3
 72
    12
 73
     8
 74
     0
 42
0.00000001
 43
0.00000001
 12
1.0
 22
0.0
 32
0.0
 13
1.0
 23
0.0
 33
0.0
 40
0.0
 40
0.0
 40
0.0
 40
0.0
 40
0.4999999999999971
 40
0.4999999999999971
 40
0.7499999999999986
 40
0.7499999999999986
 40
1.0
 40
1.0
 40
1.0
 40
1.0
 10
174.6324627910557
 20
96.29374598190466
 30
0.0
 10
174.6511560241862
 20
96.27195222827672
 30
0.0
 10
174.6768113215979
 20
96.25093206656709
 30
0.0
 10
174.7369719442844
 20
96.22322672060336
 30
0.0
 10
174.7610442560387
 20
96.21459150440998
 30
0.0
 10
174.8194257763893
 20
96.2013768591834
 30
0.0
 10
174.8548946040423
 20
96.19684588485323
 30
0.0
 10
174.892270412191
 20
96.19684588485323
 30
0.0
  0
ELLIPSE
  5
D2
330
1F
100
AcDbEntity
  8
0
  6
HIDDEN
 62
     7
370
     0
100
AcDbEllipse
 10
184.9092975826
 20
115.3285022651
 30
0.0
 11
9.367417879781586
 21
19.74174915274995
 31
0.0
210
0.0
220
0.0
230
1.0
 40
0.3419987131
 41
2.043618610118588
 42
2.990520924662719
  0
SPLINE
  5
D3
330
1F
100
AcDbEntity
  8
0
  6
HIDDEN
 62
     7
370
     0
100
AcDbSpline
210
0.0
220
0.0
230
1.0
 70
     8
 71
     3
 72
    12
 73
     8
 74
     0
 42
0.00000001
 43
0.00000001
 12
1.0
 22
0.0
 32
0.0
 13
1.0
 23
0.0
 33
0.0
 40
0.0
 40
0.0
 40
0.0
 40
0.0
 40
0.2499999999999992
 40
0.2499999999999992
 40
0.4999999999999984
 40
0.4999999999999984
 40
1.0
 40
1.0
 40
1.0
 40
1.0
 10
174.892270412191
 20
134.46015864532
 30
0.0
 10
174.8547585261464
 20
134.46015864532
 30
0.0
 10
174.8194711784417
 20
134.4556551010575
 30
0.0
 10
174.7605413302032
 20
134.4422819016042
 30
0.0
 10
174.7370156037342
 20
134.433796999033
 30
0.0
 10
174.6767568159661
 20
134.4060491951985
 30
0.0
 10
174.6511620536768
 20
134.3850593314581
 30
0.0
 10
174.6324627910557
 20
134.3632585482686
 30
0.0
  0
LINE
  5
D4
330
1F
100
AcDbEntity
  8
0
  6
HIDDEN
 62
     7
370
     0
100
AcDbLine
 10
177.0284663294
 20
134.4601590012
 30
0.0
 11
174.8922703196
 21
134.4601590012
 31
0.0
  0
SPLINE
  5
D5
330
1F
100
AcDbEntity
  8
0
  6
HIDDEN
 62
     7
370
     0
100
AcDbSpline
210
0.0
220
0.0
230
1.0
 70
     8
 71
     3
 72
    12
 73
     8
 74
     0
 42
0.00000001
 43
0.00000001
 12
1.0
 22
0.0
 32
0.0
 13
1.0
 23
0.0
 33
0.0
 40
0.0
 40
0.0
 40
0.0
 40
0.0
 40
0.5000000000000006
 40
0.5000000000000006
 40
0.7500000000000002
 40
0.7500000000000002
 40
1.0
 40
1.0
 40
1.0
 40
1.0
 10
177.288274029328
 20
134.3632585482686
 30
0.0
 10
177.2695807961976
 20
134.3850523018965
 30
0.0
 10
177.2439254987858
 20
134.4060724636062
 30
0.0
 10
177.1837648760994
 20
134.4337778095699
 30
0.0
 10
177.159692564345
 20
134.4424130257633
 30
0.0
 10
177.1013110439945
 20
134.4556276709898
 30
0.0
 10
177.0658422163414
 20
134.46015864532
 30
0.0
 10
177.0284664081927
 20
134.46015864532
 30
0.0
  0
ELLIPSE
  5
D6
330
1F
100
AcDbEntity
  8
0
  6
HIDDEN
 62
     7
370
     0
100
AcDbEllipse
 10
167.0114392378
 20
115.3285022651
 30
0.0
 11
9.367417879781868
 21
19.74174915274992
 31
0.0
210
0.0
220
0.0
230
1.0
 40
0.3419987131
 41
5.185211263708416
 42
6.132113578252575
  0
SPLINE
  5
D7
330
1F
100
AcDbEntity
  8
0
  6
HIDDEN
 62
     7
370
     0
100
AcDbSpline
210
0.0
220
0.0
230
1.0
 70
     8
 71
     3
 72
    12
 73
     8
 74
     0
 42
0.00000001
 43
0.00000001
 12
1.0
 22
0.0
 32
0.0
 13
1.0
 23
0.0
 33
0.0
 40
0.0
 40
0.0
 40
0.0
 40
0.0
 40
0.2499999999999958
 40
0.2499999999999958
 40
0.4999999999999916
 40
0.4999999999999916
 40
1.0
 40
1.0
 40
1.0
 40
1.0
 10
177.0284664081927
 20
121.1577152607385
 30
0.0
 10
177.0659782942373
 20
121.1577152607385
 30
0.0
 10
177.1012656419421
 20
121.1725200750253
 30
0.0
 10
177.1601954901805
 20
121.2161119481512
 30
0.0
 10
177.1837212166496
 20
121.2436253742372
 30
0.0
 10
177.2439800044177
 20
121.3327571063507
 30
0.0
 10
177.269574766707
 20
121.3991429569686
 30
0.0
 10
177.288274029328
 20
121.4667473921459
 30
0.0
  0
LINE
  5
D8
330
1F
100
AcDbEntity
  8
0
  6
HIDDEN
 62
     7
370
     0
100
AcDbLine
 10
174.8922703196
 20
121.1577154522
 30
0.0
 11
177.0284663294
 21
121.1577154522
 31
0.0
  0
SPLINE
  5
D9
330
1F
100
AcDbEntity
  8
0
  6
HIDDEN
 62
     7
370
     0
100
AcDbSpline
210
0.0
220
0.0
230
1.0
 70
     8
 71
     3
 72
    12
 73
     8
 74
     0
 42
0.00000001
 43
0.00000001
 12
1.0
 22
0.0
 32
0.0
 13
1.0
 23
0.0
 33
0.0
 40
0.0
 40
0.0
 40
0.0
 40
0.0
 40
0.4999999999999956
 40
0.4999999999999956
 40
0.7499999999999978
 40
0.7499999999999978
 40
1.0
 40
1.0
 40
1.0
 40
1.0
 10
174.6324627910557
 20
121.4667473921459
 30
0.0
 10
174.6511560241862
 20
121.3991647557056
 30
0.0
 10
174.6768113215979
 20
121.3326821862281
 30
0.0
 10
174.7369719442844
 20
121.2436871033306
 30
0.0
 10
174.7610442560387
 20
121.2156852063315
 30
0.0
 10
174.8194257763893
 20
121.1726088056663
 30
0.0
 10
174.8548946040423
 20
121.1577152607386
 30
0.0
 10
174.892270412191
 20
121.1577152607386
 30
0.0
  0
ELLIPSE
  5
DA
330
1F
100
AcDbEntity
  8
0
  6
HIDDEN
 62
     7
370
     0
100
AcDbEllipse
 10
184.9092975826
 20
115.3285022651
 30
0.0
 11
-9.367417879781755
 21
19.74174915274995
 31
0.0
210
0.0
220
0.0
230
1.0
 40
0.3419987131
 41
0.1510717289270502
 42
1.097974043471186
  0
SPLINE
  5
DB
330
1F
100
AcDbEntity
  8
0
  6
HIDDEN
 62
     7
370
     0
100
AcDbSpline
210
0.0
220
0.0
230
1.0
 70
     8
 71
     3
 72
    79
 73
    75
 74
     0
 42
0.00000001
 43
0.00000001
 12
1.0
 22
0.0
 32
0.0
 13
1.0
 23
0.0
 33
0.0
 40
-0.0312500000000009
 40
-0.0312500000000009
 40
0.0
 40
0.0
 40
0.0312499999999998
 40
0.0312499999999998
 40
0.0624999999999995
 40
0.0624999999999995
 40
0.0937499999999993
 40
0.0937499999999993
 40
0.124999999999999
 40
0.124999999999999
 40
0.1562499999999988
 40
0.1562499999999988
 40
0.1874999999999985
 40
0.1874999999999985
 40
0.2187499999999983
 40
0.2187499999999983
 40
0.249999999999998
 40
0.249999999999998
 40
0.2812499999999978
 40
0.2812499999999978
 40
0.3124999999999975
 40
0.3124999999999975
 40
0.3437499999999972
 40
0.3437499999999972
 40
0.3593749999999971
 40
0.3593749999999971
 40
0.374999999999997
 40
0.3906249999999969
 40
0.3906249999999969
 40
0.4062499999999968
 40
0.4062499999999968
 40
0.4374999999999965
 40
0.4374999999999965
 40
0.4687499999999962
 40
0.4687499999999962
 40
0.499999999999996
 40
0.499999999999996
 40
0.5312499999999958
 40
0.5312499999999958
 40
0.5624999999999956
 40
0.5624999999999956
 40
0.5937499999999952
 40
0.5937499999999952
 40
0.624999999999995
 40
0.624999999999995
 40
0.6562499999999948
 40
0.6562499999999948
 40
0.6874999999999944
 40
0.6874999999999944
 40
0.7187499999999942
 40
0.7187499999999942
 40
0.749999999999994
 40
0.749999999999994
 40
0.7656249999999941
 40
0.7656249999999941
 40
0.7812499999999942
 40
0.7812499999999942
 40
0.8124999999999947
 40
0.8124999999999947
 40
0.8281249999999951
 40
0.8281249999999951
 40
0.8437499999999956
 40
0.8437499999999956
 40
0.8749999999999963
 40
0.8749999999999963
 40
0.8906249999999968
 40
0.8906249999999968
 40
0.9062499999999972
 40
0.9062499999999972
 40
0.9374999999999981
 40
0.9374999999999981
 40
0.9687499999999991
 40
0.9687499999999991
 40
1.0
 40
1.0
 40
1.03125
 40
1.03125
 10
219.0049166353234
 20
111.9221369471402
 30
0.0
 10
219.5371054148674
 20
111.4927577880333
 30
0.0
 10
219.819291076911
 20
111.3065618787568
 30
0.0
 10
220.4132087101779
 20
110.985669588758
 30
0.0
 10
220.7270506936235
 20
110.8503625922728
 30
0.0
 10
221.3757987976432
 20
110.635201514288
 30
0.0
 10
221.7058612783979
 20
110.5565375532711
 30
0.0
 10
222.3769547019406
 20
110.4544839208188
 30
0.0
 10
222.7211758292473
 20
110.4312666350028
 30
0.0
 10
223.4042432833059
 20
110.4426786816135
 30
0.0
 10
223.7416981862576
 20
110.4766495036279
 30
0.0
 10
224.4085727540061
 20
110.6004877625497
 30
0.0
 10
224.7412005982614
 20
110.6916889275226
 30
0.0
 10
225.3790482558304
 20
110.9277138015463
 30
0.0
 10
225.6842032871189
 20
111.0716994449286
 30
0.0
 10
226.2666542830979
 20
111.412957224562
 30
0.0
 10
226.5468067926934
 20
111.6129673987219
 30
0.0
 10
227.0573157292404
 20
112.0572301843863
 30
0.0
 10
227.2886910481989
 20
112.3010518062567
 30
0.0
 10
227.7009966968077
 20
112.8351985515835
 30
0.0
 10
227.8833420129004
 20
113.1296861275406
 30
0.0
 10
228.1739130659794
 20
113.7414443668354
 30
0.0
 10
228.284660397578
 20
114.060527514177
 30
0.0
 10
228.3949909787689
 20
114.5606372364461
 30
0.0
 10
228.4223770687531
 20
114.7319665335041
 30
0.0
 10
228.4561435850751
 20
115.0723452103302
 30
0.0
 10
228.4695610607994
 20
115.4123743329651
 30
0.0
 10
228.4429596667959
 20
115.7517157106912
 30
0.0
 10
228.39604483387
 20
116.0907082951121
 30
0.0
 10
228.3621321772324
 20
116.2606918017376
 30
0.0
 10
228.2326713167779
 20
116.7568487307829
 30
0.0
 10
228.1094546407398
 20
117.0735502105854
 30
0.0
 10
227.7928222348108
 20
117.6804108440491
 30
0.0
 10
227.6020914721985
 20
117.9643899780685
 30
0.0
 10
227.1692771844908
 20
118.4861400652267
 30
0.0
 10
226.9234371295945
 20
118.7276373097599
 30
0.0
 10
226.3963995466433
 20
119.1549889209391
 30
0.0
 10
226.11453717821
 20
119.3425468366023
 30
0.0
 10
225.5153220856619
 20
119.6679182586009
 30
0.0
 10
225.1999933827441
 20
119.8039771367069
 30
0.0
 10
224.5564508186896
 20
120.0185420491615
 30
0.0
 10
224.2257809722539
 20
120.098419182325
 30
0.0
 10
223.5462164013744
 20
120.2025322559366
 30
0.0
 10
223.2054839766812
 20
120.2253929950021
 30
0.0
 10
222.526396348834
 20
120.2149249263956
 30
0.0
 10
222.1867712874944
 20
120.1816022278973
 30
0.0
 10
221.510839309233
 20
120.0564577282374
 30
0.0
 10
221.1833193872483
 20
119.9663646812468
 30
0.0
 10
220.5485773284255
 20
119.7321847687644
 30
0.0
 10
220.2401291815119
 20
119.5874197516168
 30
0.0
 10
219.6502909727094
 20
119.2418178492983
 30
0.0
 10
219.3756765630015
 20
119.0452405294093
 30
0.0
 10
218.9944073801487
 20
118.7139188374008
 30
0.0
 10
218.8724626498917
 20
118.5973592221088
 30
0.0
 10
218.6393893043466
 20
118.3512762758578
 30
0.0
 10
218.5276065611851
 20
118.2208698292315
 30
0.0
 10
218.215269472176
 20
117.8155679077605
 30
0.0
 10
218.0380151148716
 20
117.5283050809928
 30
0.0
 10
217.8203571178842
 20
117.0705330916541
 30
0.0
 10
217.7559019375142
 20
116.9134301665198
 30
0.0
 10
217.6443428770136
 20
116.5895137553248
 30
0.0
 10
217.5975085944295
 20
116.4228853608574
 30
0.0
 10
217.4880716867139
 20
115.9230605036146
 30
0.0
 10
217.4543708021391
 20
115.5850914628755
 30
0.0
 10
217.464662224242
 20
115.0707561993347
 30
0.0
 10
217.4785385428548
 20
114.8976128494869
 30
0.0
 10
217.526066513245
 20
114.5586393346356
 30
0.0
 10
217.5596735490469
 20
114.3915856857492
 30
0.0
 10
217.6890988871412
 20
113.8974798262826
 30
0.0
 10
217.8154973124466
 20
113.5740115594229
 30
0.0
 10
218.1318109394329
 20
112.9705253951586
 30
0.0
 10
218.321294485714
 20
112.6884959859585
 30
0.0
 10
218.7599761534329
 20
112.161546905469
 30
0.0
 10
219.0049166353234
 20
111.9221369471402
 30
0.0
 10
219.5371054148674
 20
111.4927577880333
 30
0.0
  0
SPLINE
  5
DC
330
1F
100
AcDbEntity
  8
0
  6
HIDDEN
 62
     7
370
     0
100
AcDbSpline
210
0.0
220
0.0
230
1.0
 70
     8
 71
     3
 72
    79
 73
    75
 74
     0
 42
0.00000001
 43
0.00000001
 12
1.0
 22
0.0
 32
0.0
 13
1.0
 23
0.0
 33
0.0
 40
-0.0312500000000003
 40
-0.0312500000000003
 40
0.0
 40
0.0
 40
0.0312499999999999
 40
0.0312499999999999
 40
0.0624999999999998
 40
0.0624999999999998
 40
0.0937499999999998
 40
0.0937499999999998
 40
0.1249999999999997
 40
0.1249999999999997
 40
0.1562499999999996
 40
0.1562499999999996
 40
0.1874999999999996
 40
0.1874999999999996
 40
0.2187499999999995
 40
0.2187499999999995
 40
0.2499999999999994
 40
0.2499999999999994
 40
0.2812499999999993
 40
0.2812499999999993
 40
0.3124999999999992
 40
0.3124999999999992
 40
0.3437499999999992
 40
0.3437499999999992
 40
0.3593749999999991
 40
0.3593749999999991
 40
0.3749999999999991
 40
0.3906249999999991
 40
0.3906249999999991
 40
0.406249999999999
 40
0.406249999999999
 40
0.4374999999999989
 40
0.4374999999999989
 40
0.4687499999999988
 40
0.4687499999999988
 40
0.4999999999999988
 40
0.4999999999999988
 40
0.5312499999999987
 40
0.5312499999999987
 40
0.5624999999999987
 40
0.5624999999999987
 40
0.5937499999999986
 40
0.5937499999999986
 40
0.6249999999999984
 40
0.6249999999999984
 40
0.6562499999999984
 40
0.6562499999999984
 40
0.6874999999999983
 40
0.6874999999999983
 40
0.7187499999999982
 40
0.7187499999999982
 40
0.7499999999999982
 40
0.7499999999999982
 40
0.7656249999999983
 40
0.7656249999999983
 40
0.7812499999999986
 40
0.7812499999999986
 40
0.8124999999999984
 40
0.8124999999999984
 40
0.8281249999999986
 40
0.8281249999999986
 40
0.8437499999999986
 40
0.8437499999999986
 40
0.8749999999999988
 40
0.8749999999999988
 40
0.8906249999999988
 40
0.8906249999999988
 40
0.9062499999999989
 40
0.9062499999999989
 40
0.9374999999999992
 40
0.9374999999999992
 40
0.9687499999999997
 40
0.9687499999999997
 40
1.0
 40
1.0
 40
1.03125
 40
1.03125
 10
206.0049166353234
 20
111.9221369471402
 30
0.0
 10
206.5371054148675
 20
111.4927577880333
 30
0.0
 10
206.819291076911
 20
111.3065618787568
 30
0.0
 10
207.4132087101779
 20
110.985669588758
 30
0.0
 10
207.7270506936235
 20
110.8503625922728
 30
0.0
 10
208.3757987976432
 20
110.635201514288
 30
0.0
 10
208.7058612783979
 20
110.5565375532711
 30
0.0
 10
209.3769547019407
 20
110.4544839208188
 30
0.0
 10
209.7211758292473
 20
110.4312666350028
 30
0.0
 10
210.4042432833059
 20
110.4426786816135
 30
0.0
 10
210.7416981862575
 20
110.4766495036279
 30
0.0
 10
211.408572754006
 20
110.6004877625497
 30
0.0
 10
211.7412005982614
 20
110.6916889275226
 30
0.0
 10
212.3790482558304
 20
110.9277138015463
 30
0.0
 10
212.6842032871188
 20
111.0716994449286
 30
0.0
 10
213.2666542830979
 20
111.412957224562
 30
0.0
 10
213.5468067926934
 20
111.6129673987219
 30
0.0
 10
214.0573157292404
 20
112.0572301843863
 30
0.0
 10
214.2886910481989
 20
112.3010518062567
 30
0.0
 10
214.7009966968076
 20
112.8351985515835
 30
0.0
 10
214.8833420129004
 20
113.1296861275406
 30
0.0
 10
215.1739130659794
 20
113.7414443668354
 30
0.0
 10
215.284660397578
 20
114.060527514177
 30
0.0
 10
215.3949909787689
 20
114.5606372364461
 30
0.0
 10
215.4223770687531
 20
114.7319665335041
 30
0.0
 10
215.4561435850751
 20
115.0723452103302
 30
0.0
 10
215.4695610607994
 20
115.4123743329651
 30
0.0
 10
215.4429596667959
 20
115.7517157106912
 30
0.0
 10
215.39604483387
 20
116.0907082951121
 30
0.0
 10
215.3621321772324
 20
116.2606918017376
 30
0.0
 10
215.2326713167779
 20
116.7568487307829
 30
0.0
 10
215.1094546407399
 20
117.0735502105854
 30
0.0
 10
214.7928222348108
 20
117.6804108440491
 30
0.0
 10
214.6020914721985
 20
117.9643899780685
 30
0.0
 10
214.1692771844908
 20
118.4861400652267
 30
0.0
 10
213.9234371295945
 20
118.7276373097599
 30
0.0
 10
213.3963995466433
 20
119.1549889209391
 30
0.0
 10
213.11453717821
 20
119.3425468366023
 30
0.0
 10
212.5153220856619
 20
119.6679182586009
 30
0.0
 10
212.1999933827441
 20
119.8039771367069
 30
0.0
 10
211.5564508186896
 20
120.0185420491615
 30
0.0
 10
211.2257809722539
 20
120.098419182325
 30
0.0
 10
210.5462164013744
 20
120.2025322559366
 30
0.0
 10
210.2054839766812
 20
120.2253929950021
 30
0.0
 10
209.5263963488341
 20
120.2149249263956
 30
0.0
 10
209.1867712874944
 20
120.1816022278973
 30
0.0
 10
208.5108393092331
 20
120.0564577282374
 30
0.0
 10
208.1833193872483
 20
119.9663646812468
 30
0.0
 10
207.5485773284255
 20
119.7321847687644
 30
0.0
 10
207.2401291815119
 20
119.5874197516168
 30
0.0
 10
206.6502909727095
 20
119.2418178492983
 30
0.0
 10
206.3756765630015
 20
119.0452405294093
 30
0.0
 10
205.9944073801487
 20
118.7139188374008
 30
0.0
 10
205.8724626498917
 20
118.5973592221088
 30
0.0
 10
205.6393893043466
 20
118.3512762758578
 30
0.0
 10
205.5276065611852
 20
118.2208698292315
 30
0.0
 10
205.215269472176
 20
117.8155679077605
 30
0.0
 10
205.0380151148716
 20
117.5283050809928
 30
0.0
 10
204.8203571178842
 20
117.0705330916541
 30
0.0
 10
204.7559019375142
 20
116.9134301665198
 30
0.0
 10
204.6443428770136
 20
116.5895137553248
 30
0.0
 10
204.5975085944295
 20
116.4228853608574
 30
0.0
 10
204.488071686714
 20
115.9230605036146
 30
0.0
 10
204.4543708021391
 20
115.5850914628755
 30
0.0
 10
204.464662224242
 20
115.0707561993347
 30
0.0
 10
204.4785385428548
 20
114.8976128494869
 30
0.0
 10
204.526066513245
 20
114.5586393346356
 30
0.0
 10
204.5596735490469
 20
114.3915856857492
 30
0.0
 10
204.6890988871412
 20
113.8974798262826
 30
0.0
 10
204.8154973124465
 20
113.5740115594229
 30
0.0
 10
205.1318109394329
 20
112.9705253951586
 30
0.0
 10
205.321294485714
 20
112.6884959859585
 30
0.0
 10
205.7599761534329
 20
112.161546905469
 30
0.0
 10
206.0049166353234
 20
111.9221369471402
 30
0.0
 10
206.5371054148675
 20
111.4927577880333
 30
0.0
  0
SPLINE
  5
DD
330
1F
100
AcDbEntity
  8
0
  6
HIDDEN
 62
     7
370
     0
100
AcDbSpline
210
0.0
220
0.0
230
1.0
 70
     8
 71
     3
 72
    79
 73
    75
 74
     0
 42
0.00000001
 43
0.00000001
 12
1.0
 22
0.0
 32
0.0
 13
1.0
 23
0.0
 33
0.0
 40
-0.03125
 40
-0.03125
 40
0.0
 40
0.0
 40
0.03125
 40
0.03125
 40
0.0625
 40
0.0625
 40
0.09375
 40
0.09375
 40
0.1249999999999999
 40
0.1249999999999999
 40
0.1562499999999999
 40
0.1562499999999999
 40
0.1874999999999999
 40
0.1874999999999999
 40
0.2187499999999999
 40
0.2187499999999999
 40
0.2499999999999999
 40
0.2499999999999999
 40
0.2812499999999999
 40
0.2812499999999999
 40
0.3124999999999999
 40
0.3124999999999999
 40
0.3437499999999998
 40
0.3437499999999998
 40
0.3593749999999998
 40
0.3593749999999998
 40
0.3749999999999998
 40
0.3906249999999998
 40
0.3906249999999998
 40
0.4062499999999998
 40
0.4062499999999998
 40
0.4374999999999998
 40
0.4374999999999998
 40
0.4687499999999998
 40
0.4687499999999998
 40
0.4999999999999998
 40
0.4999999999999998
 40
0.5312499999999998
 40
0.5312499999999998
 40
0.5624999999999998
 40
0.5624999999999998
 40
0.5937499999999998
 40
0.5937499999999998
 40
0.6249999999999998
 40
0.6249999999999998
 40
0.6562499999999997
 40
0.6562499999999997
 40
0.6874999999999997
 40
0.6874999999999997
 40
0.7187499999999997
 40
0.7187499999999997
 40
0.7499999999999997
 40
0.7499999999999997
 40
0.7656249999999998
 40
0.7656249999999998
 40
0.7812499999999999
 40
0.7812499999999999
 40
0.8125000000000001
 40
0.8125000000000001
 40
0.8281250000000001
 40
0.8281250000000001
 40
0.8437500000000001
 40
0.8437500000000001
 40
0.875
 40
0.875
 40
0.890625
 40
0.890625
 40
0.90625
 40
0.90625
 40
0.9375
 40
0.9375
 40
0.96875
 40
0.96875
 40
1.0
 40
1.0
 40
1.03125
 40
1.03125
 10
193.0049166353234
 20
111.9221369471402
 30
0.0
 10
193.5371054148674
 20
111.4927577880333
 30
0.0
 10
193.819291076911
 20
111.3065618787568
 30
0.0
 10
194.4132087101779
 20
110.985669588758
 30
0.0
 10
194.7270506936235
 20
110.8503625922728
 30
0.0
 10
195.3757987976432
 20
110.635201514288
 30
0.0
 10
195.7058612783979
 20
110.5565375532711
 30
0.0
 10
196.3769547019407
 20
110.4544839208188
 30
0.0
 10
196.7211758292473
 20
110.4312666350028
 30
0.0
 10
197.4042432833059
 20
110.4426786816135
 30
0.0
 10
197.7416981862575
 20
110.4766495036279
 30
0.0
 10
198.408572754006
 20
110.6004877625497
 30
0.0
 10
198.7412005982614
 20
110.6916889275226
 30
0.0
 10
199.3790482558304
 20
110.9277138015463
 30
0.0
 10
199.6842032871189
 20
111.0716994449287
 30
0.0
 10
200.2666542830979
 20
111.412957224562
 30
0.0
 10
200.5468067926935
 20
111.6129673987219
 30
0.0
 10
201.0573157292404
 20
112.0572301843863
 30
0.0
 10
201.2886910481989
 20
112.3010518062567
 30
0.0
 10
201.7009966968077
 20
112.8351985515835
 30
0.0
 10
201.8833420129004
 20
113.1296861275406
 30
0.0
 10
202.1739130659794
 20
113.7414443668354
 30
0.0
 10
202.284660397578
 20
114.060527514177
 30
0.0
 10
202.3949909787689
 20
114.5606372364461
 30
0.0
 10
202.4223770687531
 20
114.7319665335041
 30
0.0
 10
202.4561435178197
 20
115.072345209049
 30
0.0
 10
202.4695610607994
 20
115.4123743329651
 30
0.0
 10
202.4429596667959
 20
115.7517157106912
 30
0.0
 10
202.39604483387
 20
116.0907082951121
 30
0.0
 10
202.3621321772324
 20
116.2606918017376
 30
0.0
 10
202.2326713167779
 20
116.7568487307829
 30
0.0
 10
202.1094546407399
 20
117.0735502105854
 30
0.0
 10
201.7928222348108
 20
117.6804108440491
 30
0.0
 10
201.6020914721985
 20
117.9643899780685
 30
0.0
 10
201.1692771844908
 20
118.4861400652267
 30
0.0
 10
200.9234371295945
 20
118.7276373097599
 30
0.0
 10
200.3963995466432
 20
119.1549889209391
 30
0.0
 10
200.11453717821
 20
119.3425468366023
 30
0.0
 10
199.5153220856619
 20
119.6679182586009
 30
0.0
 10
199.1999933827441
 20
119.8039771367069
 30
0.0
 10
198.5564508186896
 20
120.0185420491615
 30
0.0
 10
198.2257809722539
 20
120.098419182325
 30
0.0
 10
197.5462164013744
 20
120.2025322559366
 30
0.0
 10
197.2054839766812
 20
120.2253929950021
 30
0.0
 10
196.526396348834
 20
120.2149249263956
 30
0.0
 10
196.1867712874943
 20
120.1816022278973
 30
0.0
 10
195.510839309233
 20
120.0564577282374
 30
0.0
 10
195.1833193872483
 20
119.9663646812468
 30
0.0
 10
194.5485773284255
 20
119.7321847687644
 30
0.0
 10
194.2401291815118
 20
119.5874197516168
 30
0.0
 10
193.6502909727095
 20
119.2418178492983
 30
0.0
 10
193.3756765630015
 20
119.0452405294093
 30
0.0
 10
192.9944073801487
 20
118.7139188374008
 30
0.0
 10
192.8724626498918
 20
118.5973592221088
 30
0.0
 10
192.6393893043466
 20
118.3512762758578
 30
0.0
 10
192.5276065611851
 20
118.2208698292315
 30
0.0
 10
192.2152694721759
 20
117.8155679077605
 30
0.0
 10
192.0380151148716
 20
117.5283050809928
 30
0.0
 10
191.8203571178842
 20
117.0705330916541
 30
0.0
 10
191.7559019375142
 20
116.9134301665197
 30
0.0
 10
191.6443428770136
 20
116.5895137553248
 30
0.0
 10
191.5975085944295
 20
116.4228853608574
 30
0.0
 10
191.4880716867139
 20
115.9230605036146
 30
0.0
 10
191.4543708021391
 20
115.5850914628755
 30
0.0
 10
191.464662224242
 20
115.0707561993347
 30
0.0
 10
191.4785385428548
 20
114.8976128494869
 30
0.0
 10
191.526066513245
 20
114.5586393346356
 30
0.0
 10
191.5596735490469
 20
114.3915856857492
 30
0.0
 10
191.6890988871412
 20
113.8974798262826
 30
0.0
 10
191.8154973124466
 20
113.5740115594228
 30
0.0
 10
192.1318109394329
 20
112.9705253951586
 30
0.0
 10
192.321294485714
 20
112.6884959859585
 30
0.0
 10
192.7599761534329
 20
112.161546905469
 30
0.0
 10
193.0049166353234
 20
111.9221369471402
 30
0.0
 10
193.5371054148674
 20
111.4927577880333
 30
0.0
  0
SPLINE
  5
DE
330
1F
100
AcDbEntity
  8
0
  6
HIDDEN
 62
     7
370
     0
100
AcDbSpline
210
0.0
220
0.0
230
1.0
 70
     8
 71
     3
 72
    13
 73
     9
 74
     0
 42
0.00000001
 43
0.00000001
 12
1.0
 22
0.0
 32
0.0
 13
1.0
 23
0.0
 33
0.0
 40
0.0
 40
0.0
 40
0.0
 40
0.0
 40
0.0567263648094622
 40
0.2573204549377581
 40
0.4632660018310734
 40
0.672146957576282
 40
0.8870454226862229
 40
0.9999999999999999
 40
0.9999999999999999
 40
0.9999999999999999
 40
0.9999999999999999
 10
194.6758631025174
 20
95.82607856141607
 30
0.0
 10
194.7558968907319
 20
95.83445579181199
 30
0.0
 10
195.1189437889935
 20
95.87245633607105
 30
0.0
 10
195.8318659348546
 20
95.91461682308258
 30
0.0
 10
196.7910543109933
 20
95.94266471994072
 30
0.0
 10
197.7792783954955
 20
95.92808154713582
 30
0.0
 10
198.6113706798668
 20
95.88686817737339
 30
0.0
 10
199.0817122959504
 20
95.84094211647819
 30
0.0
 10
199.243758187137
 20
95.82511929916421
 30
0.0
  0
SPLINE
  5
DF
330
1F
100
AcDbEntity
  8
0
  6
HIDDEN
 62
     7
370
     0
100
AcDbSpline
210
0.0
220
0.0
230
1.0
 70
     8
 71
     3
 72
    29
 73
    25
 74
     0
 42
0.00000001
 43
0.00000001
 12
1.0
 22
0.0
 32
0.0
 13
1.0
 23
0.0
 33
0.0
 40
0.0
 40
0.0
 40
0.0
 40
0.0
 40
0.0036091956217806
 40
0.0506067321752189
 40
0.0936053678818181
 40
0.1377382570513251
 40
0.1830600032436867
 40
0.2294438856781524
 40
0.2800572566524849
 40
0.3318619897904411
 40
0.3881034841651396
 40
0.4457991458799254
 40
0.5053055302540644
 40
0.5664928338244598
 40
0.6267298589534379
 40
0.688762517706197
 40
0.7100377950335585
 40
0.746059931965572
 40
0.7480073173131256
 40
0.8092353180178298
 40
0.8640314487929772
 40
0.9209147102462238
 40
0.9685870591530749
 40
1.0
 40
1.0
 40
1.0
 40
1.0
 10
202.4556811307291
 20
95.32950854050199
 30
0.0
 10
202.457220269056
 20
95.32917786163092
 30
0.0
 10
202.4788014658808
 20
95.32454121158004
 30
0.0
 10
202.3975022375805
 20
95.34210801775977
 30
0.0
 10
202.210658346655
 20
95.38158005452904
 30
0.0
 10
201.9063389356381
 20
95.44326044519144
 30
0.0
 10
201.4982479799728
 20
95.52059146957795
 30
0.0
 10
200.9782658780274
 20
95.61023674153178
 30
0.0
 10
200.3506879506729
 20
95.70477129112074
 30
0.0
 10
199.6062961670163
 20
95.79697508416093
 30
0.0
 10
198.7659634078423
 20
95.87455279751407
 30
0.0
 10
197.8406379936998
 20
95.92639868410683
 30
0.0
 10
196.8657872957517
 20
95.94266801275644
 30
0.0
 10
195.877448726585
 20
95.91879085360866
 30
0.0
 10
194.9130746077008
 20
95.85521210593348
 30
0.0
 10
194.1837816486039
 20
95.78376951743256
 30
0.0
 10
193.6596693184121
 20
95.7102648083518
 30
0.0
 10
193.3937559782072
 20
95.67479437467964
 30
0.0
 10
192.9502677166996
 20
95.6149427811245
 30
0.0
 10
192.5195173752466
 20
95.53707385082265
 30
0.0
 10
191.979608002976
 20
95.43732178956144
 30
0.0
 10
191.6459901517008
 20
95.36817360409991
 30
0.0
 10
191.474405794339
 20
95.33156009484067
 30
0.0
 10
191.4769018085638
 20
95.33207145470504
 30
0.0
 10
191.4778932337383
 20
95.3322745685486
 30
0.0
  0
SPLINE
  5
E0
330
1F
100
AcDbEntity
  8
0
  6
HIDDEN
 62
     7
370
     0
100
AcDbSpline
210
0.0
220
0.0
230
1.0
 70
     8
 71
     3
 72
    21
 73
    17
 74
     0
 42
0.00000001
 43
0.00000001
 12
1.0
 22
0.0
 32
0.0
 13
1.0
 23
0.0
 33
0.0
 40
0.0
 40
0.0
 40
0.0
 40
0.0
 40
0.0451633283278046
 40
0.07704447363171
 40
0.156317738437565
 40
0.233810077844795
 40
0.3133697608297584
 40
0.3940634338485478
 40
0.4770817560022135
 40
0.5579486594347743
 40
0.6413030087514506
 40
0.719481586939939
 40
0.8004326547237847
 40
0.8706965023954452
 40
0.9436440436549063
 40
1.0
 40
1.0
 40
1.0
 40
1.0
 10
193.2710114274839
 20
134.9979698483853
 30
0.0
 10
193.4225125825991
 20
134.9779304143963
 30
0.0
 10
193.6809595833543
 20
134.9437449878407
 30
0.0
 10
194.1944896274556
 20
134.8724250230353
 30
0.0
 10
194.9054684243338
 20
134.802870603116
 30
0.0
 10
195.827886643593
 20
134.7410220070765
 30
0.0
 10
196.7916730465373
 20
134.7149171919373
 30
0.0
 10
197.7809262944981
 20
134.7279895786262
 30
0.0
 10
198.7533891345186
 20
134.7807351684589
 30
0.0
 10
199.6845510199096
 20
134.8674528155494
 30
0.0
 10
200.5195535708349
 20
134.9750271515827
 30
0.0
 10
201.2474725109031
 20
135.0908829417089
 30
0.0
 10
201.8095220948882
 20
135.1943972253568
 30
0.0
 10
202.2060225304126
 20
135.2742265446713
 30
0.0
 10
202.4266372470842
 20
135.3211964265704
 30
0.0
 10
202.4468650117329
 20
135.3255837902353
 30
0.0
 10
202.455681130729
 20
135.3274959896711
 30
0.0
  0
SPLINE
  5
E1
330
1F
100
AcDbEntity
  8
0
  6
HIDDEN
 62
     7
370
     0
100
AcDbSpline
210
0.0
220
0.0
230
1.0
 70
     8
 71
     3
 72
    13
 73
     9
 74
     0
 42
0.00000001
 43
0.00000001
 12
1.0
 22
0.0
 32
0.0
 13
1.0
 23
0.0
 33
0.0
 40
0.0
 40
0.0
 40
0.0
 40
0.0
 40
0.1101040400303494
 40
0.3109965306154037
 40
0.5181938381309664
 40
0.7312439954756458
 40
0.9409853459330878
 40
1.0
 40
1.0
 40
1.0
 40
1.0
 10
199.2448645983556
 20
134.8314512346892
 30
0.0
 10
199.0866373079783
 20
134.8161431605323
 30
0.0
 10
198.6397133046224
 20
134.7729044387573
 30
0.0
 10
197.8391929040906
 20
134.7314479444633
 30
0.0
 10
196.8650755360861
 20
134.7137529872424
 30
0.0
 10
195.8819127366697
 20
134.7396999610251
 30
0.0
 10
195.1383325310738
 20
134.7825184854385
 30
0.0
 10
194.7597211407149
 20
134.8223981235408
 30
0.0
 10
194.6765839461902
 20
134.8311550741104
 30
0.0
  0
SPLINE
  5
E2
330
1F
100
AcDbEntity
  8
0
  6
HIDDEN
 62
     7
370
     0
100
AcDbSpline
210
0.0
220
0.0
230
1.0
 70
     8
 71
     3
 72
    13
 73
     9
 74
     0
 42
0.00000001
 43
0.00000001
 12
1.0
 22
0.0
 32
0.0
 13
1.0
 23
0.0
 33
0.0
 40
0.0
 40
0.0
 40
0.0
 40
0.0
 40
0.0699629511206744
 40
0.2387364449938996
 40
0.4122970116363576
 40
0.5838617675026886
 40
0.7595653546663891
 40
1.0
 40
1.0
 40
1.0
 40
1.0
 10
191.4778932337383
 20
135.3247299616245
 30
0.0
 10
191.4731479157144
 20
135.3257503878772
 30
0.0
 10
191.4569553403979
 20
135.3292324156082
 30
0.0
 10
191.5639777951494
 20
135.3061982124319
 30
0.0
 10
191.779510281266
 20
135.2609860669598
 30
0.0
 10
192.1144340390738
 20
135.1944408858793
 30
0.0
 10
192.589698161672
 20
135.1052547011302
 30
0.0
 10
193.0215169403407
 20
135.0372571786883
 30
0.0
 10
193.2710114274839
 20
134.9979698483853
 30
0.0
  0
SPLINE
  5
E3
330
1F
100
AcDbEntity
  8
0
  6
HIDDEN
 62
     7
370
     0
100
AcDbSpline
210
0.0
220
0.0
230
1.0
 70
     8
 71
     3
 72
    13
 73
     9
 74
     0
 42
0.00000001
 43
0.00000001
 12
1.0
 22
0.0
 32
0.0
 13
1.0
 23
0.0
 33
0.0
 40
0.0
 40
0.0
 40
0.0
 40
0.0
 40
0.0567260040708731
 40
0.2573200890938487
 40
0.4632660246361728
 40
0.6721465793183542
 40
0.8870454255610299
 40
1.0
 40
1.0
 40
1.0
 40
1.0
 10
220.6758636389592
 20
95.82607856141607
 30
0.0
 10
220.7558967987259
 20
95.83445579547988
 30
0.0
 10
221.1189426387937
 20
95.87245654400736
 30
0.0
 10
221.8318653548224
 20
95.91461679388847
 30
0.0
 10
222.7910535930787
 20
95.94266473153058
 30
0.0
 10
223.779278259025
 20
95.92808146556169
 30
0.0
 10
224.6113706687515
 20
95.8868682428551
 30
0.0
 10
225.0817128342029
 20
95.8409421193804
 30
0.0
 10
225.2437587235788
 20
95.82511929916421
 30
0.0
  0
SPLINE
  5
E4
330
1F
100
AcDbEntity
  8
0
  6
HIDDEN
 62
     7
370
     0
100
AcDbSpline
210
0.0
220
0.0
230
1.0
 70
     8
 71
     3
 72
    29
 73
    25
 74
     0
 42
0.00000001
 43
0.00000001
 12
1.0
 22
0.0
 32
0.0
 13
1.0
 23
0.0
 33
0.0
 40
0.0
 40
0.0
 40
0.0
 40
0.0
 40
0.0036092118528056
 40
0.0506067446601694
 40
0.093605376939438
 40
0.1377382625912054
 40
0.1830600051710662
 40
0.2294438839083705
 40
0.2800572508484178
 40
0.331861979857128
 40
0.3881034697489355
 40
0.4457991268649218
 40
0.5053053929362914
 40
0.5664929181605466
 40
0.6267299384881585
 40
0.6887624892308392
 40
0.7100377648623931
 40
0.746059898923158
 40
0.7480073772325013
 40
0.8092353730568507
 40
0.8640314360851222
 40
0.9209146930043239
 40
0.9685870616569343
 40
1.0
 40
1.0
 40
1.0
 40
1.0
 10
228.4556779418805
 20
95.32950854050199
 30
0.0
 10
228.4572183735418
 20
95.32917786147806
 30
0.0
 10
228.4788176131901
 20
95.32454122899138
 30
0.0
 10
228.3974965392422
 20
95.34210800956038
 30
0.0
 10
228.2106605364082
 20
95.38158005670297
 30
0.0
 10
227.906339011222
 20
95.44326044458694
 30
0.0
 10
227.4982486441653
 20
95.52059146973983
 30
0.0
 10
226.9782663764279
 20
95.61023674150609
 30
0.0
 10
226.3506884978802
 20
95.70477129103396
 30
0.0
 10
225.6062967004541
 20
95.79697508455631
 30
0.0
 10
224.7659639443714
 20
95.87455279586483
 30
0.0
 10
223.8406391389315
 20
95.92639865656425
 30
0.0
 10
222.8657878306669
 20
95.94266800001525
 30
0.0
 10
221.8774486887873
 20
95.9187909087283
 30
0.0
 10
220.9130734520454
 20
95.85521226757227
 30
0.0
 10
220.1837824019137
 20
95.78376926346702
 30
0.0
 10
219.6596689181888
 20
95.7102650663598
 30
0.0
 10
219.3937598985266
 20
95.67479328031484
 30
0.0
 10
218.9502602127355
 20
95.61494463786201
 30
0.0
 10
218.5195184073377
 20
95.53707321253104
 30
0.0
 10
217.9796079494396
 20
95.43732191365851
 30
0.0
 10
217.6459915168694
 20
95.36817355387764
 30
0.0
 10
217.4744040978692
 20
95.33156010425525
 30
0.0
 10
217.4769003773107
 20
95.33207145742473
 30
0.0
 10
217.4778919075349
 20
95.3322745685486
 30
0.0
  0
SPLINE
  5
E5
330
1F
100
AcDbEntity
  8
0
  6
HIDDEN
 62
     7
370
     0
100
AcDbSpline
210
0.0
220
0.0
230
1.0
 70
     8
 71
     3
 72
    21
 73
    17
 74
     0
 42
0.00000001
 43
0.00000001
 12
1.0
 22
0.0
 32
0.0
 13
1.0
 23
0.0
 33
0.0
 40
0.0
 40
0.0
 40
0.0
 40
0.0
 40
0.0451633298155839
 40
0.0770443500361626
 40
0.1563176174534532
 40
0.2338099594134512
 40
0.3133697971847871
 40
0.3940633199791989
 40
0.4770817942175548
 40
0.5579487003140492
 40
0.6413027939188555
 40
0.7194815999208637
 40
0.8004326703714155
 40
0.8706965203577216
 40
0.943644064020235
 40
1.0
 40
1.0
 40
1.0
 40
1.0
 10
219.2710119639257
 20
134.9979698483853
 30
0.0
 10
219.422513217519
 20
134.9779304422623
 30
0.0
 10
219.6809599631513
 20
134.9437451192103
 30
0.0
 10
220.1944882071125
 20
134.8724248180135
 30
0.0
 10
220.9054672978712
 20
134.8028706595911
 30
0.0
 10
221.8278858543893
 20
134.7410219481525
 30
0.0
 10
222.7916723709339
 20
134.7149172067086
 30
0.0
 10
223.7809261828415
 20
134.7279896418329
 30
0.0
 10
224.7533889714375
 20
134.7807351343504
 30
0.0
 10
225.6845511708377
 20
134.867452572001
 30
0.0
 10
226.5195509064496
 20
134.9750276102055
 30
0.0
 10
227.2474731628834
 20
135.0908826894047
 30
0.0
 10
227.8095225855034
 20
135.1943972603062
 30
0.0
 10
228.2060227329846
 20
135.2742265354907
 30
0.0
 10
228.4266390814587
 20
135.3211964229594
 30
0.0
 10
228.4468633490231
 20
135.3255837894355
 30
0.0
 10
228.4556779418805
 20
135.3274959896711
 30
0.0
  0
SPLINE
  5
E6
330
1F
100
AcDbEntity
  8
0
  6
HIDDEN
 62
     7
370
     0
100
AcDbSpline
210
0.0
220
0.0
230
1.0
 70
     8
 71
     3
 72
    13
 73
     9
 74
     0
 42
0.00000001
 43
0.00000001
 12
1.0
 22
0.0
 32
0.0
 13
1.0
 23
0.0
 33
0.0
 40
0.0
 40
0.0
 40
0.0
 40
0.0
 40
0.1101039967199785
 40
0.310996408282244
 40
0.5181932388879043
 40
0.7312441011931314
 40
0.9409853691470096
 40
1.0
 40
1.0
 40
1.0
 40
1.0
 10
225.2448651347974
 20
134.8314512346892
 30
0.0
 10
225.0866378445778
 20
134.8161431607984
 30
0.0
 10
224.6397138416672
 20
134.7729044397748
 30
0.0
 10
223.8391940464257
 20
134.7314479677561
 30
0.0
 10
222.8650760996113
 20
134.7137530087798
 30
0.0
 10
221.8819126172516
 20
134.7396998766547
 30
0.0
 10
221.1383312054684
 20
134.7825184862488
 30
0.0
 10
220.7597198146192
 20
134.8223981236867
 30
0.0
 10
220.6765826199868
 20
134.8311550741104
 30
0.0
  0
SPLINE
  5
E7
330
1F
100
AcDbEntity
  8
0
  6
HIDDEN
 62
     7
370
     0
100
AcDbSpline
210
0.0
220
0.0
230
1.0
 70
     8
 71
     3
 72
    13
 73
     9
 74
     0
 42
0.00000001
 43
0.00000001
 12
1.0
 22
0.0
 32
0.0
 13
1.0
 23
0.0
 33
0.0
 40
0.0
 40
0.0
 40
0.0
 40
0.0
 40
0.0699629445383582
 40
0.2387364499459919
 40
0.4122970284500191
 40
0.583861996836926
 40
0.759565338234476
 40
1.0
 40
1.0
 40
1.0
 40
1.0
 10
217.4778919075349
 20
135.3247299616245
 30
0.0
 10
217.4731473078769
 20
135.3257503875409
 30
0.0
 10
217.4569571820002
 20
135.3292324145241
 30
0.0
 10
217.5639780191158
 20
135.3061982232132
 30
0.0
 10
217.7795103909683
 20
135.2609860082917
 30
0.0
 10
218.1144370323132
 20
135.1944410158216
 30
0.0
 10
218.5896981566866
 20
135.105254594899
 30
0.0
 10
219.0215171805607
 20
135.0372571552113
 30
0.0
 10
219.2710119639257
 20
134.9979698483853
 30
0.0
  0
SPLINE
  5
E8
330
1F
100
AcDbEntity
  8
0
  6
HIDDEN
 62
     7
370
     0
100
AcDbSpline
210
0.0
220
0.0
230
1.0
 70
     8
 71
     3
 72
    13
 73
     9
 74
     0
 42
0.00000001
 43
0.00000001
 12
1.0
 22
0.0
 32
0.0
 13
1.0
 23
0.0
 33
0.0
 40
0.0
 40
0.0
 40
0.0
 40
0.0
 40
0.0567260040708731
 40
0.2573200890938487
 40
0.4632660246361728
 40
0.6721465793183542
 40
0.8870454255610299
 40
1.0
 40
1.0
 40
1.0
 40
1.0
 10
207.6758633707383
 20
95.82607856141607
 30
0.0
 10
207.755896530505
 20
95.83445579547988
 30
0.0
 10
208.1189423705728
 20
95.87245654400736
 30
0.0
 10
208.8318650866015
 20
95.91461679388847
 30
0.0
 10
209.7910533248578
 20
95.94266473153058
 30
0.0
 10
210.779277990804
 20
95.92808146556169
 30
0.0
 10
211.6113704005306
 20
95.8868682428551
 30
0.0
 10
212.081712565982
 20
95.8409421193804
 30
0.0
 10
212.2437584553579
 20
95.82511929916421
 30
0.0
  0
SPLINE
  5
E9
330
1F
100
AcDbEntity
  8
0
  6
HIDDEN
 62
     7
370
     0
100
AcDbSpline
210
0.0
220
0.0
230
1.0
 70
     8
 71
     3
 72
    29
 73
    25
 74
     0
 42
0.00000001
 43
0.00000001
 12
1.0
 22
0.0
 32
0.0
 13
1.0
 23
0.0
 33
0.0
 40
0.0
 40
0.0
 40
0.0
 40
0.0
 40
0.0036091954187995
 40
0.0506067293290962
 40
0.093605362617452
 40
0.1377382493049251
 40
0.1830599929483917
 40
0.2294438727742278
 40
0.2800572409020641
 40
0.331861971126522
 40
0.3881034623381988
 40
0.4457991208081804
 40
0.5053053882760365
 40
0.5664926884052578
 40
0.6267299297282972
 40
0.688762481926751
 40
0.710037758057591
 40
0.7460598929637193
 40
0.7480073713187658
 40
0.8092353685800071
 40
0.8640314328942267
 40
0.9209146911483586
 40
0.9685870609197388
 40
1.0
 40
1.0
 40
1.0
 40
1.0
 10
215.4556813989499
 20
95.32950854050199
 30
0.0
 10
215.4572205372769
 20
95.32917786163094
 30
0.0
 10
215.4788017341017
 20
95.32454121158003
 30
0.0
 10
215.3975025058018
 20
95.34210801775954
 30
0.0
 10
215.2106586148749
 20
95.38158005452983
 30
0.0
 10
214.9063392038626
 20
95.44326044518844
 30
0.0
 10
214.4982482481796
 20
95.5205914695896
 30
0.0
 10
213.9782661463043
 20
95.61023674148551
 30
0.0
 10
213.350688218661
 20
95.70477129131278
 30
0.0
 10
212.6062964361584
 20
95.79697508340097
 30
0.0
 10
211.7659636722586
 20
95.87455280065299
 30
0.0
 10
210.840638882525
 20
95.92639863798364
 30
0.0
 10
209.8657887551723
 20
95.94266805190904
 30
0.0
 10
208.8774498681377
 20
95.91879068761824
 30
0.0
 10
207.9130742113808
 20
95.85521245574944
 30
0.0
 10
207.1837821408401
 20
95.78376925706297
 30
0.0
 10
206.6596686479591
 20
95.71026506815963
 30
0.0
 10
206.39375963033
 20
95.67479328029312
 30
0.0
 10
205.9502599444784
 20
95.61494463789444
 30
0.0
 10
205.5195181391313
 20
95.53707321251795
 30
0.0
 10
204.9796076812148
 20
95.437321913662
 30
0.0
 10
204.6459912486494
 20
95.36817355387686
 30
0.0
 10
204.4744038296482
 20
95.33156010425535
 30
0.0
 10
204.4769001090897
 20
95.33207145742476
 30
0.0
 10
204.477891639314
 20
95.3322745685486
 30
0.0
  0
SPLINE
  5
EA
330
1F
100
AcDbEntity
  8
0
  6
HIDDEN
 62
     7
370
     0
100
AcDbSpline
210
0.0
220
0.0
230
1.0
 70
     8
 71
     3
 72
    21
 73
    17
 74
     0
 42
0.00000001
 43
0.00000001
 12
1.0
 22
0.0
 32
0.0
 13
1.0
 23
0.0
 33
0.0
 40
0.0
 40
0.0
 40
0.0
 40
0.0
 40
0.045163327311665
 40
0.0770443457647148
 40
0.1563176087869834
 40
0.2338099464506963
 40
0.3133697798111222
 40
0.394063298131771
 40
0.4770817677674653
 40
0.5579486693805841
 40
0.6413030168218526
 40
0.719481593251384
 40
0.800432659213894
 40
0.8706965053046728
 40
0.9436440449228714
 40
1.0
 40
1.0
 40
1.0
 40
1.0
 10
206.2710116957048
 20
134.9979698483853
 30
0.0
 10
206.4225129493047
 20
134.9779304422605
 30
0.0
 10
206.6809596949484
 20
134.9437451192054
 30
0.0
 10
207.1944879388145
 20
134.8724248180341
 30
0.0
 10
207.9054670304531
 20
134.8028706593754
 30
0.0
 10
208.8278855832916
 20
134.7410219489256
 30
0.0
 10
209.7916721138217
 20
134.7149172037233
 30
0.0
 10
210.7809258720318
 20
134.7279896532782
 30
0.0
 10
211.7533888653753
 20
134.7807350907721
 30
0.0
 10
212.6845512812314
 20
134.8674528224983
 30
0.0
 10
213.5195538407977
 20
134.9750271498283
 30
0.0
 10
214.2474727786498
 20
135.0908829421865
 30
0.0
 10
214.8095223632191
 20
135.194397225246
 30
0.0
 10
215.2060227986045
 20
135.2742265447005
 30
0.0
 10
215.4266375153105
 20
135.3211964265649
 30
0.0
 10
215.4468652799554
 20
135.3255837902337
 30
0.0
 10
215.4556813989499
 20
135.3274959896711
 30
0.0
  0
SPLINE
  5
EB
330
1F
100
AcDbEntity
  8
0
  6
HIDDEN
 62
     7
370
     0
100
AcDbSpline
210
0.0
220
0.0
230
1.0
 70
     8
 71
     3
 72
    13
 73
     9
 74
     0
 42
0.00000001
 43
0.00000001
 12
1.0
 22
0.0
 32
0.0
 13
1.0
 23
0.0
 33
0.0
 40
0.0
 40
0.0
 40
0.0
 40
0.0
 40
0.1101040784095844
 40
0.3109966390202263
 40
0.518193623351709
 40
0.7312438549598037
 40
0.9409860430969353
 40
1.0
 40
1.0
 40
1.0
 40
1.0
 10
212.2448648665765
 20
134.8314512346892
 30
0.0
 10
212.0866375753184
 20
134.8161431598731
 30
0.0
 10
211.6397135694746
 20
134.7729044362362
 30
0.0
 10
210.8391938107607
 20
134.7314479967617
 30
0.0
 10
209.8650769430448
 20
134.7137529195728
 30
0.0
 10
208.8819140930554
 20
134.739700241913
 30
0.0
 10
208.1383323406883
 20
134.7825179398691
 30
0.0
 10
207.7597220127032
 20
134.8223981138905
 30
0.0
 10
207.6765860770562
 20
134.8311550741104
 30
0.0
  0
SPLINE
  5
EC
330
1F
100
AcDbEntity
  8
0
  6
HIDDEN
 62
     7
370
     0
100
AcDbSpline
210
0.0
220
0.0
230
1.0
 70
     8
 71
     3
 72
    13
 73
     9
 74
     0
 42
0.00000001
 43
0.00000001
 12
1.0
 22
0.0
 32
0.0
 13
1.0
 23
0.0
 33
0.0
 40
0.0
 40
0.0
 40
0.0
 40
0.0
 40
0.0699629445383582
 40
0.2387364499459919
 40
0.4122970284500191
 40
0.583861996836926
 40
0.759565338234476
 40
1.0
 40
1.0
 40
1.0
 40
1.0
 10
204.477891639314
 20
135.3247299616245
 30
0.0
 10
204.473147039656
 20
135.3257503875409
 30
0.0
 10
204.4569569137793
 20
135.3292324145241
 30
0.0
 10
204.5639777508949
 20
135.3061982232132
 30
0.0
 10
204.7795101227474
 20
135.2609860082917
 30
0.0
 10
205.1144367640923
 20
135.1944410158216
 30
0.0
 10
205.5896978884657
 20
135.105254594899
 30
0.0
 10
206.0215169123398
 20
135.0372571552113
 30
0.0
 10
206.2710116957048
 20
134.9979698483853
 30
0.0
  0
LINE
  5
ED
330
1F
100
AcDbEntity
  8
0
  6
HIDDEN
 62
     7
370
     0
100
AcDbLine
 10
232.960366026
 20
134.3285016541
 30
0.0
 11
232.960366026
 21
96.328502876
 31
0.0
  0
LINE
  5
EE
330
1F
100
AcDbEntity
  8
0
  6
HIDDEN
 62
     7
370
     0
100
AcDbLine
 10
167.9603684102
 20
135.0285023277
 30
0.0
 11
167.9603684102
 21
95.6285022025
 31
0.0
  0
LINE
  5
EF
330
1F
100
AcDbEntity
  8
0
  6
HIDDEN
 62
     7
370
     0
100
AcDbLine
 10
167.9603684102
 20
99.528503028
 30
0.0
 11
167.9603684102
 21
131.1285015021
 31
0.0
  0
SPLINE
  5
F0
330
1F
100
AcDbEntity
  8
0
  6
HIDDEN
 62
     7
370
     0
100
AcDbSpline
210
0.0
220
0.0
230
1.0
 70
     8
 71
     3
 72
    18
 73
    14
 74
     0
 42
0.00000001
 43
0.00000001
 12
1.0
 22
0.0
 32
0.0
 13
1.0
 23
0.0
 33
0.0
 40
0.0
 40
0.0
 40
0.0
 40
0.0
 40
0.2500000000000014
 40
0.2500000000000014
 40
0.5000000000000029
 40
0.5000000000000029
 40
0.6250000000000021
 40
0.6250000000000021
 40
0.7500000000000014
 40
0.7500000000000014
 40
0.8750000000000007
 40
0.8750000000000007
 40
1.0
 40
1.0
 40
1.0
 40
1.0
 10
166.7042840926289
 20
105.0297646245647
 30
0.0
 10
166.7385851371616
 20
104.9664098381005
 30
0.0
 10
166.7764054084584
 20
104.9047639515165
 30
0.0
 10
166.8630237289192
 20
104.7854283158023
 30
0.0
 10
166.9113950636627
 20
104.7276702120554
 30
0.0
 10
167.0007980457812
 20
104.6452976575501
 30
0.0
 10
167.0333953296584
 20
104.6185485225126
 30
0.0
 10
167.1097772336033
 20
104.5673544723363
 30
0.0
 10
167.1528156709441
 20
104.5430841557791
 30
0.0
 10
167.2586287037759
 20
104.504003271013
 30
0.0
 10
167.3236671285071
 20
104.4901137847632
 30
0.0
 10
167.4568192003097
 20
104.4925676154797
 30
0.0
 10
167.5161883807728
 20
104.5077142662747
 30
0.0
 10
167.5653915213166
 20
104.5271761182186
 30
0.0
  0
SPLINE
  5
F1
330
1F
100
AcDbEntity
  8
0
  6
HIDDEN
 62
     7
370
     0
100
AcDbSpline
210
0.0
220
0.0
230
1.0
 70
     8
 71
     3
 72
    16
 73
    12
 74
     0
 42
0.00000001
 43
0.00000001
 12
1.0
 22
0.0
 32
0.0
 13
1.0
 23
0.0
 33
0.0
 40
0.0
 40
0.0
 40
0.0
 40
0.0
 40
0.0625000000000022
 40
0.0625000000000022
 40
0.1250000000000044
 40
0.1250000000000044
 40
0.2500000000000064
 40
0.2500000000000064
 40
0.5000000000000058
 40
0.5000000000000058
 40
1.0
 40
1.0
 40
1.0
 40
1.0
 10
167.5653915212858
 20
104.5271761182575
 30
0.0
 10
167.5774613545616
 20
104.5319502303535
 30
0.0
 10
167.5917370094949
 20
104.5349119150248
 30
0.0
 10
167.6232014216194
 20
104.5303761060505
 30
0.0
 10
167.6387019464298
 20
104.5223518339617
 30
0.0
 10
167.6741408430367
 20
104.4935759864989
 30
0.0
 10
167.68773345914
 20
104.4700282697815
 30
0.0
 10
167.7207277775328
 20
104.4032290392714
 30
0.0
 10
167.7315151708516
 20
104.3596912050688
 30
0.0
 10
167.7565684181307
 20
104.2320505347743
 30
0.0
 10
167.760368410192
 20
104.1524831730147
 30
0.0
 10
167.760368410192
 20
104.0757973279955
 30
0.0
  0
LINE
  5
F2
330
1F
100
AcDbEntity
  8
0
  6
HIDDEN
 62
     7
370
     0
100
AcDbLine
 10
167.7603684152
 20
101.2386822899
 30
0.0
 11
167.7603684152
 21
104.0757972573
 31
0.0
  0
LINE
  5
F3
330
1F
100
AcDbEntity
  8
0
  6
HIDDEN
 62
     7
370
     0
100
AcDbLine
 10
167.7450256762
 20
128.362720256
 30
0.0
 11
167.7206281825
 21
128.4653156822
 31
0.0
  0
SPLINE
  5
F4
330
1F
100
AcDbEntity
  8
0
  6
HIDDEN
 62
     7
370
     0
100
AcDbSpline
210
0.0
220
0.0
230
1.0
 70
     8
 71
     3
 72
     8
 73
     4
 74
     0
 42
0.00000001
 43
0.00000001
 12
1.0
 22
0.0
 32
0.0
 13
1.0
 23
0.0
 33
0.0
 40
0.0
 40
0.0
 40
0.0
 40
0.0
 40
1.0
 40
1.0
 40
1.0
 40
1.0
 10
166.7042840926289
 20
128.9860856324204
 30
0.0
 10
166.6799710963595
 20
129.0299342896919
 30
0.0
 10
166.6584742719311
 20
129.0728945412602
 30
0.0
 10
166.6390480666321
 20
129.1148087759955
 30
0.0
  0
SPLINE
  5
F5
330
1F
100
AcDbEntity
  8
0
  6
HIDDEN
 62
     7
370
     0
100
AcDbSpline
210
0.0
220
0.0
230
1.0
 70
     8
 71
     3
 72
    18
 73
    14
 74
     0
 42
0.00000001
 43
0.00000001
 12
1.0
 22
0.0
 32
0.0
 13
1.0
 23
0.0
 33
0.0
 40
0.0
 40
0.0
 40
0.0
 40
0.0
 40
0.2500000000000008
 40
0.2500000000000008
 40
0.5000000000000016
 40
0.5000000000000016
 40
0.6250000000000011
 40
0.6250000000000011
 40
0.7500000000000008
 40
0.7500000000000008
 40
0.8750000000000003
 40
0.8750000000000003
 40
1.0
 40
1.0
 40
1.0
 40
1.0
 10
166.7042840926289
 20
128.9860856324204
 30
0.0
 10
166.7385824116415
 20
128.9242283763787
 30
0.0
 10
166.7763968089535
 20
128.862157067403
 30
0.0
 10
166.8629848700271
 20
128.7387003433606
 30
0.0
 10
166.9113349757057
 20
128.6772047060471
 30
0.0
 10
167.0006515645055
 20
128.5877878740981
 30
0.0
 10
167.0332119199938
 20
128.5584512100638
 30
0.0
 10
167.1094575537227
 20
128.5021684338222
 30
0.0
 10
167.1526169235027
 20
128.475235765847
 30
0.0
 10
167.2583457475208
 20
128.4333198948919
 30
0.0
 10
167.3233429245755
 20
128.4194503395262
 30
0.0
 10
167.4568274145297
 20
128.4288287303278
 30
0.0
 10
167.5161548079752
 20
128.4501174092692
 30
0.0
 10
167.5653915213166
 20
128.475768022387
 30
0.0
  0
SPLINE
  5
F6
330
1F
100
AcDbEntity
  8
0
  6
HIDDEN
 62
     7
370
     0
100
AcDbSpline
210
0.0
220
0.0
230
1.0
 70
     8
 71
     3
 72
    16
 73
    12
 74
     0
 42
0.00000001
 43
0.00000001
 12
1.0
 22
0.0
 32
0.0
 13
1.0
 23
0.0
 33
0.0
 40
0.0
 40
0.0
 40
0.0
 40
0.0
 40
0.0625000000000001
 40
0.0625000000000001
 40
0.1250000000000003
 40
0.1250000000000003
 40
0.2500000000000006
 40
0.2500000000000006
 40
0.5000000000000011
 40
0.5000000000000011
 40
1.0
 40
1.0
 40
1.0
 40
1.0
 10
167.5653915212858
 20
128.475768022393
 30
0.0
 10
167.5774613545616
 20
128.4820559852329
 30
0.0
 10
167.5917370094949
 20
128.4883339572026
 30
0.0
 10
167.6232014216194
 20
128.497417824039
 30
0.0
 10
167.6387019464298
 20
128.499388313298
 30
0.0
 10
167.6741408430367
 20
128.4990748563564
 30
0.0
 10
167.68773345914
 20
128.4930531993545
 30
0.0
 10
167.7207277775328
 20
128.4728091858462
 30
0.0
 10
167.7315151708516
 20
128.4543983778473
 30
0.0
 10
167.7565684181307
 20
128.394432481029
 30
0.0
 10
167.760368410192
 20
128.3479923198163
 30
0.0
 10
167.760368410192
 20
128.2982020846247
 30
0.0
  0
LINE
  5
F7
330
1F
100
AcDbEntity
  8
0
  6
HIDDEN
 62
     7
370
     0
100
AcDbLine
 10
167.7603684152
 20
113.6115073518
 30
0.0
 11
167.7603684152
 21
128.2982019533
 31
0.0
  0
SPLINE
  5
F8
330
1F
100
AcDbEntity
  8
0
  6
HIDDEN
 62
     7
370
     0
100
AcDbSpline
210
0.0
220
0.0
230
1.0
 70
     8
 71
     3
 72
    16
 73
    12
 74
     0
 42
0.00000001
 43
0.00000001
 12
1.0
 22
0.0
 32
0.0
 13
1.0
 23
0.0
 33
0.0
 40
0.0
 40
0.0
 40
0.0
 40
0.0
 40
0.5000000000000008
 40
0.5000000000000008
 40
0.7500000000000004
 40
0.7500000000000004
 40
0.8750000000000003
 40
0.8750000000000003
 40
0.9375000000000002
 40
0.9375000000000002
 40
1.0
 40
1.0
 40
1.0
 40
1.0
 10
167.7603684101919
 20
113.6115073826394
 30
0.0
 10
167.7603684101919
 20
113.4847296151282
 30
0.0
 10
167.7564849850329
 20
113.3587401652802
 30
0.0
 10
167.7316696597583
 20
113.1724046533004
 30
0.0
 10
167.7208302120458
 20
113.1096828342472
 30
0.0
 10
167.6876144299969
 20
113.0221393834198
 30
0.0
 10
167.6742326863682
 20
112.9929595444166
 30
0.0
 10
167.6387230365059
 20
112.9637698971113
 30
0.0
 10
167.6233060700051
 20
112.9576935159935
 30
0.0
 10
167.5916050478565
 20
112.9622842238726
 30
0.0
 10
167.5774587629058
 20
112.9715029550211
 30
0.0
 10
167.5653915213161
 20
112.9825626546545
 30
0.0
  0
SPLINE
  5
F9
330
1F
100
AcDbEntity
  8
0
  6
HIDDEN
 62
     7
370
     0
100
AcDbSpline
210
0.0
220
0.0
230
1.0
 70
     8
 71
     3
 72
    18
 73
    14
 74
     0
 42
0.00000001
 43
0.00000001
 12
1.0
 22
0.0
 32
0.0
 13
1.0
 23
0.0
 33
0.0
 40
0.0
 40
0.0
 40
0.0
 40
0.0
 40
0.1250000000000002
 40
0.1250000000000002
 40
0.2500000000000003
 40
0.2500000000000003
 40
0.3750000000000005
 40
0.3750000000000005
 40
0.5000000000000007
 40
0.5000000000000007
 40
0.7500000000000003
 40
0.7500000000000003
 40
1.0
 40
1.0
 40
1.0
 40
1.0
 10
167.5653915213223
 20
112.9825626546629
 30
0.0
 10
167.5166873923055
 20
113.0272002823959
 30
0.0
 10
167.458179723101
 20
113.0633207297864
 30
0.0
 10
167.3264540604701
 20
113.0763207264523
 30
0.0
 10
167.2616964218498
 20
113.0497551450197
 30
0.0
 10
167.1564860052307
 20
112.9709088743238
 30
0.0
 10
167.1132699702905
 20
112.9204045687679
 30
0.0
 10
167.0370917488095
 20
112.8145144699932
 30
0.0
 10
167.0042369811254
 20
112.7586437268538
 30
0.0
 10
166.9138692622836
 20
112.5864390887278
 30
0.0
 10
166.8644468930942
 20
112.4651601322814
 30
0.0
 10
166.7767944310062
 20
112.2199464790762
 30
0.0
 10
166.7387316947717
 20
112.0954085090819
 30
0.0
 10
166.7042840926284
 20
111.9696565382728
 30
0.0
  0
SPLINE
  5
FA
330
1F
100
AcDbEntity
  8
0
  6
HIDDEN
 62
     7
370
     0
100
AcDbSpline
210
0.0
220
0.0
230
1.0
 70
     8
 71
     3
 72
     8
 73
     4
 74
     0
 42
0.00000001
 43
0.00000001
 12
1.0
 22
0.0
 32
0.0
 13
1.0
 23
0.0
 33
0.0
 40
0.0
 40
0.0
 40
0.0
 40
0.0
 40
1.0
 40
1.0
 40
1.0
 40
1.0
 10
166.7042840926285
 20
111.9696565382732
 30
0.0
 10
166.6799700474943
 20
111.8808974112593
 30
0.0
 10
166.6584734935254
 20
111.7914849677971
 30
0.0
 10
166.6390480666321
 20
111.7016025230255
 30
0.0
  0
SPLINE
  5
FB
330
1F
100
AcDbEntity
  8
0
  6
HIDDEN
 62
     7
370
     0
100
AcDbSpline
210
0.0
220
0.0
230
1.0
 70
     8
 71
     3
 72
     8
 73
     4
 74
     0
 42
0.00000001
 43
0.00000001
 12
1.0
 22
0.0
 32
0.0
 13
1.0
 23
0.0
 33
0.0
 40
0.0
 40
0.0
 40
0.0
 40
0.0
 40
1.0
 40
1.0
 40
1.0
 40
1.0
 10
166.6390480666321
 20
105.1690954962387
 30
0.0
 10
166.6584737467821
 20
105.1211249813023
 30
0.0
 10
166.6799703887382
 20
105.0746725723855
 30
0.0
 10
166.7042840926283
 20
105.0297646245636
 30
0.0
  0
LINE
  5
FC
330
1F
100
AcDbEntity
  8
0
  6
HIDDEN
 62
     7
370
     0
100
AcDbLine
 10
167.7603684152
 20
113.6115073518
 30
0.0
 11
167.7603684152
 21
128.2982019533
 31
0.0
  0
LINE
  5
FD
330
1F
100
AcDbEntity
  8
0
  6
HIDDEN
 62
     7
370
     0
100
AcDbLine
 10
144.9874009345
 20
105.7658087288
 30
0.0
 11
144.9874009345
 21
124.8911958014
 31
0.0
  0
LINE
  5
FE
330
1F
100
AcDbEntity
  8
0
  6
HIDDEN
 62
     7
370
     0
100
AcDbLine
 10
143.9603682016
 20
105.1762182091
 30
0.0
 11
143.9603682016
 21
125.480786321
 31
0.0
  0
LINE
  5
FF
330
1F
100
AcDbEntity
  8
0
  6
HIDDEN
 62
     7
370
     0
100
AcDbLine
 10
148.4874005769
 20
106.0975625937
 30
0.0
 11
148.4874005769
 21
124.5594419365
 31
0.0
  0
LINE
  5
100
330
1F
100
AcDbEntity
  8
0
  6
HIDDEN
 62
     7
370
     0
100
AcDbLine
 10
166.2603683877
 20
104.8661632289
 30
0.0
 11
166.2603683877
 21
102.2084032943
 31
0.0
  0
LINE
  5
101
330
1F
100
AcDbEntity
  8
0
  6
HIDDEN
 62
     7
370
     0
100
AcDbLine
 10
145.4603675161
 20
105.3187208076
 30
0.0
 11
145.4603675161
 21
102.900707518
 31
0.0
  0
SPLINE
  5
102
330
1F
100
AcDbEntity
  8
0
  6
HIDDEN
 62
     7
370
     0
100
AcDbSpline
210
0.0
220
0.0
230
1.0
 70
     8
 71
     3
 72
     8
 73
     4
 74
     0
 42
0.00000001
 43
0.00000001
 12
1.0
 22
0.0
 32
0.0
 13
1.0
 23
0.0
 33
0.0
 40
0.0000137050638847
 40
0.0000137050638847
 40
0.0000137050638847
 40
0.0000137050638847
 40
0.0027147143562631
 40
0.0027147143562631
 40
0.0027147143562631
 40
0.0027147143562631
 10
148.1603684101919
 20
102.8373554346666
 30
0.0
 10
147.260364724282
 20
102.8585100420124
 30
0.0
 10
146.3603645456866
 20
102.8796275501706
 30
0.0
 10
145.4603684101919
 20
102.9007079475013
 30
0.0
  0
SPLINE
  5
103
330
1F
100
AcDbEntity
  8
0
  6
HIDDEN
 62
     7
370
     0
100
AcDbSpline
210
0.0
220
0.0
230
1.0
 70
     8
 71
     3
 72
    12
 73
     8
 74
     0
 42
0.00000001
 43
0.00000001
 12
1.0
 22
0.0
 32
0.0
 13
1.0
 23
0.0
 33
0.0
 40
0.0
 40
0.0
 40
0.0
 40
0.0
 40
0.0084997310382616
 40
0.1429235708628755
 40
0.2918018616288257
 40
0.4448018181777062
 40
1.0
 40
1.0
 40
1.0
 40
1.0
 10
149.8643107120612
 20
102.6205992152003
 30
0.0
 10
149.8657430646182
 20
102.6204741383079
 30
0.0
 10
149.8898281728701
 20
102.6183709616279
 30
0.0
 10
149.7895786907233
 20
102.6269267543528
 30
0.0
 10
149.5909171753302
 20
102.6455671449814
 30
0.0
 10
149.0666729797813
 20
102.6997416128058
 30
0.0
 10
148.5586430585759
 20
102.7768810715925
 30
0.0
 10
148.1603685174802
 20
102.8373552312163
 30
0.0
  0
SPLINE
  5
104
330
1F
100
AcDbEntity
  8
0
  6
HIDDEN
 62
     7
370
     0
100
AcDbSpline
210
0.0
220
0.0
230
1.0
 70
     8
 71
     3
 72
    16
 73
    12
 74
     0
 42
0.00000001
 43
0.00000001
 12
1.0
 22
0.0
 32
0.0
 13
1.0
 23
0.0
 33
0.0
 40
0.0
 40
0.0
 40
0.0
 40
0.0
 40
0.0294149184833738
 40
0.1195345669680408
 40
0.2592248026627619
 40
0.4048613712711849
 40
0.5538497971638989
 40
0.7024241611296022
 40
0.8455169231220225
 40
0.9790347744104835
 40
1.0
 40
1.0
 40
1.0
 40
1.0
 10
154.5278908093193
 20
102.5698141952066
 30
0.0
 10
154.5753771015918
 20
102.5722717340773
 30
0.0
 10
154.7683490245607
 20
102.5822585319291
 30
0.0
 10
155.1614479509857
 20
102.6064413426296
 30
0.0
 10
155.9182865843836
 20
102.6228188618433
 30
0.0
 10
156.8295223899997
 20
102.6067872725193
 30
0.0
 10
157.7317334448238
 20
102.551878480647
 30
0.0
 10
158.4988622700059
 20
102.4747038618004
 30
0.0
 10
158.9853287474181
 20
102.4120201890482
 30
0.0
 10
159.1908566416546
 20
102.3824766040358
 30
0.0
 10
159.1477930158678
 20
102.388555685853
 30
0.0
 10
159.1419487599948
 20
102.3893806909231
 30
0.0
  0
SPLINE
  5
105
330
1F
100
AcDbEntity
  8
0
  6
HIDDEN
 62
     7
370
     0
100
AcDbSpline
210
0.0
220
0.0
230
1.0
 70
     8
 71
     3
 72
    11
 73
     7
 74
     0
 42
0.00000001
 43
0.00000001
 12
1.0
 22
0.0
 32
0.0
 13
1.0
 23
0.0
 33
0.0
 40
0.0
 40
0.0
 40
0.0
 40
0.0
 40
0.2238721561782772
 40
0.6645674282703254
 40
0.7379073042727123
 40
0.9999999999999999
 40
0.9999999999999999
 40
0.9999999999999999
 40
0.9999999999999999
 10
153.9272697050789
 20
102.5223446835784
 30
0.0
 10
153.9212569892232
 20
102.5217333846354
 30
0.0
 10
153.9034081634407
 20
102.5199187357153
 30
0.0
 10
154.0533504925332
 20
102.535218908369
 30
0.0
 10
154.3250061958867
 20
102.5548753313471
 30
0.0
 10
154.4388994676101
 20
102.5632615566601
 30
0.0
 10
154.5278908093193
 20
102.5698141952066
 30
0.0
  0
LINE
  5
106
330
1F
100
AcDbEntity
  8
0
  6
HIDDEN
 62
     7
370
     0
100
AcDbLine
 10
151.8874003892
 20
106.3285026525
 30
0.0
 11
151.8874003892
 21
124.3285018777
 31
0.0
  0
LINE
  5
107
330
1F
100
AcDbEntity
  8
0
  6
HIDDEN
 62
     7
370
     0
100
AcDbLine
 10
147.0874010925
 20
106.3285026525
 30
0.0
 11
147.0874010925
 21
124.3285018777
 31
0.0
  0
LINE
  5
108
330
1F
100
AcDbEntity
  8
0
  6
HIDDEN
 62
     7
370
     0
100
AcDbLine
 10
148.0874012564
 20
106.3285026525
 30
0.0
 11
148.0874012564
 21
124.3285018777
 31
0.0
  0
LINE
  5
109
330
1F
100
AcDbEntity
  8
0
  6
HIDDEN
 62
     7
370
     0
100
AcDbLine
 10
167.7603684152
 20
104.0757972573
 30
0.0
 11
167.7603684152
 21
102.1757427429
 31
0.0
  0
SPLINE
  5
10A
330
1F
100
AcDbEntity
  8
0
  6
HIDDEN
 62
     7
370
     0
100
AcDbSpline
210
0.0
220
0.0
230
1.0
 70
    11
 71
     3
 72
    60
 73
    56
 74
     0
 42
0.00000001
 43
0.00000001
 12
1.0
 22
0.0
 32
0.0
 13
1.0
 23
0.0
 33
0.0
 40
0.0
 40
0.0
 40
0.0
 40
0.0
 40
0.0624999999999999
 40
0.0624999999999999
 40
0.1249999999999998
 40
0.1249999999999998
 40
0.1874999999999996
 40
0.1874999999999996
 40
0.2187499999999996
 40
0.2187499999999996
 40
0.2499999999999995
 40
0.2499999999999995
 40
0.3124999999999998
 40
0.3124999999999998
 40
0.3750000000000001
 40
0.3750000000000001
 40
0.4062500000000001
 40
0.4062500000000001
 40
0.4375000000000001
 40
0.4375000000000001
 40
0.4687500000000001
 40
0.4687500000000001
 40
0.5000000000000001
 40
0.5000000000000001
 40
0.5312500000000001
 40
0.5312500000000001
 40
0.5625000000000002
 40
0.5625000000000002
 40
0.5937500000000002
 40
0.5937500000000002
 40
0.6250000000000003
 40
0.6250000000000003
 40
0.6562500000000003
 40
0.6562500000000003
 40
0.6875000000000004
 40
0.6875000000000004
 40
0.7187500000000003
 40
0.7187500000000003
 40
0.7500000000000002
 40
0.7500000000000002
 40
0.7812500000000002
 40
0.7812500000000002
 40
0.8125000000000001
 40
0.8125000000000001
 40
0.8437500000000001
 40
0.8437500000000001
 40
0.875
 40
0.875
 40
0.90625
 40
0.90625
 40
0.9375
 40
0.9375
 40
0.9687500000000001
 40
0.9687500000000001
 40
1.0
 40
1.0
 40
1.0
 40
1.0
 10
158.4603684101919
 20
106.4004565662788
 30
0.0
 10
158.3351785086132
 20
106.4285007555229
 30
0.0
 10
158.178311190045
 20
106.4613238419425
 30
0.0
 10
157.8012736702262
 20
106.5265960675967
 30
0.0
 10
157.5895603638052
 20
106.5574486925653
 30
0.0
 10
157.1236703818564
 20
106.6051843292581
 30
0.0
 10
156.8778311508048
 20
106.6210172440347
 30
0.0
 10
156.4983500977103
 20
106.6281891861452
 30
0.0
 10
156.3706043690163
 20
106.627790580556
 30
0.0
 10
156.1201381223482
 20
106.6216036850522
 30
0.0
 10
155.99630873954
 20
106.6158427530595
 30
0.0
 10
155.6290890654413
 20
106.5911478069355
 30
0.0
 10
155.3983200473556
 20
106.5652384738283
 30
0.0
 10
154.9784310859361
 20
106.5045018240622
 30
0.0
 10
154.7941727110485
 20
106.4705377292645
 30
0.0
 10
154.5634243235652
 20
106.4232943073633
 30
0.0
 10
154.4943774737762
 20
106.4082003317966
 30
0.0
 10
154.3758128099707
 20
106.3813218003032
 30
0.0
 10
154.3256044412211
 20
106.3693928450107
 30
0.0
 10
154.2437725888633
 20
106.3495423346265
 30
0.0
 10
154.2124216899806
 20
106.341686179821
 30
0.0
 10
154.171027311942
 20
106.331242595742
 30
0.0
 10
154.1605215368777
 20
106.3285413974357
 30
0.0
 10
154.160218584542
 20
106.3284639763352
 30
0.0
 10
154.1707031141585
 20
106.3311598249813
 30
0.0
 10
154.21184319162
 20
106.3415411838749
 30
0.0
 10
154.2424213121685
 20
106.3492074743081
 30
0.0
 10
154.3237040205198
 20
106.368938641552
 30
0.0
 10
154.3747049070818
 20
106.3810636081082
 30
0.0
 10
154.4932719554448
 20
106.4079566128036
 30
0.0
 10
154.5611607087166
 20
106.4228089959703
 30
0.0
 10
154.7143111464542
 20
106.4542080014005
 30
0.0
 10
154.7998673180267
 20
106.4707835470257
 30
0.0
 10
154.9825786889859
 20
106.5032102318842
 30
0.0
 10
155.0803859886678
 20
106.5192071105993
 30
0.0
 10
155.2891891005848
 20
106.5494937441653
 30
0.0
 10
155.4007712758726
 20
106.5638100962941
 30
0.0
 10
155.6294170753717
 20
106.5885043905174
 30
0.0
 10
155.7473718863428
 20
106.5990332141656
 30
0.0
 10
155.9907003313315
 20
106.6155318202689
 30
0.0
 10
156.1170442066746
 20
106.6214868279054
 30
0.0
 10
156.3681501876925
 20
106.6277695077177
 30
0.0
 10
156.4938321814154
 20
106.6281978618257
 30
0.0
 10
156.7454542512072
 20
106.6235926835824
 30
0.0
 10
156.872351871493
 20
106.6184645334665
 30
0.0
 10
157.1175424377541
 20
106.6034289349441
 30
0.0
 10
157.2367315947876
 20
106.5935460583253
 30
0.0
 10
157.4684166191424
 20
106.5699132616448
 30
0.0
 10
157.581591423493
 20
106.5560387534771
 30
0.0
 10
157.7936698404286
 20
106.5264191184199
 30
0.0
 10
157.8934586191295
 20
106.5106089243329
 30
0.0
 10
158.0807168061184
 20
106.4782466560018
 30
0.0
 10
158.1686118430618
 20
106.4615924010198
 30
0.0
 10
158.3268329186937
 20
106.4297560234502
 30
0.0
 10
158.3977708749854
 20
106.4144792398444
 30
0.0
 10
158.4603684101919
 20
106.4004565662788
 30
0.0
  0
SPLINE
  5
10B
330
1F
100
AcDbEntity
  8
0
  6
HIDDEN
 62
     7
370
     0
100
AcDbSpline
210
0.0
220
0.0
230
1.0
 70
    11
 71
     3
 72
    60
 73
    56
 74
     0
 42
0.00000001
 43
0.00000001
 12
1.0
 22
0.0
 32
0.0
 13
1.0
 23
0.0
 33
0.0
 40
0.0
 40
0.0
 40
0.0
 40
0.0
 40
0.0624999999999999
 40
0.0624999999999999
 40
0.1249999999999998
 40
0.1249999999999998
 40
0.1874999999999996
 40
0.1874999999999996
 40
0.2187499999999996
 40
0.2187499999999996
 40
0.2499999999999995
 40
0.2499999999999995
 40
0.3124999999999998
 40
0.3124999999999998
 40
0.3750000000000001
 40
0.3750000000000001
 40
0.4062500000000001
 40
0.4062500000000001
 40
0.4375000000000001
 40
0.4375000000000001
 40
0.4687500000000001
 40
0.4687500000000001
 40
0.5000000000000001
 40
0.5000000000000001
 40
0.5312500000000001
 40
0.5312500000000001
 40
0.5625000000000002
 40
0.5625000000000002
 40
0.5937500000000002
 40
0.5937500000000002
 40
0.6250000000000003
 40
0.6250000000000003
 40
0.6562500000000003
 40
0.6562500000000003
 40
0.6875000000000004
 40
0.6875000000000004
 40
0.7187500000000003
 40
0.7187500000000003
 40
0.7500000000000002
 40
0.7500000000000002
 40
0.7812500000000002
 40
0.7812500000000002
 40
0.8125000000000001
 40
0.8125000000000001
 40
0.8437500000000001
 40
0.8437500000000001
 40
0.875
 40
0.875
 40
0.90625
 40
0.90625
 40
0.9375
 40
0.9375
 40
0.9687500000000001
 40
0.9687500000000001
 40
1.0
 40
1.0
 40
1.0
 40
1.0
 10
158.4603684101919
 20
124.2565479638943
 30
0.0
 10
158.3351785086132
 20
124.2285037746502
 30
0.0
 10
158.178311190045
 20
124.1956806882307
 30
0.0
 10
157.8012736702262
 20
124.1304084625764
 30
0.0
 10
157.5895603638052
 20
124.0995558376078
 30
0.0
 10
157.1236703818564
 20
124.051820200915
 30
0.0
 10
156.8778311508048
 20
124.0359872861384
 30
0.0
 10
156.4983500977103
 20
124.0288153440279
 30
0.0
 10
156.3706043690163
 20
124.0292139496171
 30
0.0
 10
156.1201381223482
 20
124.035400845121
 30
0.0
 10
155.99630873954
 20
124.0411617771137
 30
0.0
 10
155.6290890654413
 20
124.0658567232377
 30
0.0
 10
155.3983200473556
 20
124.0917660563449
 30
0.0
 10
154.9784310859361
 20
124.1525027061109
 30
0.0
 10
154.7941727110485
 20
124.1864668009086
 30
0.0
 10
154.5634243235652
 20
124.2337102228098
 30
0.0
 10
154.4943774737762
 20
124.2488041983765
 30
0.0
 10
154.3758128099707
 20
124.2756827298699
 30
0.0
 10
154.3256044412211
 20
124.2876116851624
 30
0.0
 10
154.2437725888633
 20
124.3074621955466
 30
0.0
 10
154.2124216899806
 20
124.3153183503521
 30
0.0
 10
154.171027311942
 20
124.3257619344311
 30
0.0
 10
154.1605215368777
 20
124.3284631327374
 30
0.0
 10
154.160218584542
 20
124.3285405538379
 30
0.0
 10
154.1707031141585
 20
124.3258447051918
 30
0.0
 10
154.21184319162
 20
124.3154633462982
 30
0.0
 10
154.2424213121685
 20
124.307797055865
 30
0.0
 10
154.3237040205198
 20
124.2880658886211
 30
0.0
 10
154.3747049070818
 20
124.275940922065
 30
0.0
 10
154.4932719554448
 20
124.2490479173695
 30
0.0
 10
154.5611607087166
 20
124.2341955342029
 30
0.0
 10
154.7143111464542
 20
124.2027965287726
 30
0.0
 10
154.7998673180267
 20
124.1862209831474
 30
0.0
 10
154.9825786889859
 20
124.1537942982889
 30
0.0
 10
155.0803859886678
 20
124.1377974195738
 30
0.0
 10
155.2891891005848
 20
124.1075107860078
 30
0.0
 10
155.4007712758726
 20
124.093194433879
 30
0.0
 10
155.6294170753717
 20
124.0685001396558
 30
0.0
 10
155.7473718863428
 20
124.0579713160075
 30
0.0
 10
155.9907003313315
 20
124.0414727099042
 30
0.0
 10
156.1170442066746
 20
124.0355177022677
 30
0.0
 10
156.3681501876925
 20
124.0292350224554
 30
0.0
 10
156.4938321814154
 20
124.0288066683474
 30
0.0
 10
156.7454542512072
 20
124.0334118465907
 30
0.0
 10
156.872351871493
 20
124.0385399967066
 30
0.0
 10
157.1175424377541
 20
124.053575595229
 30
0.0
 10
157.2367315947876
 20
124.0634584718479
 30
0.0
 10
157.4684166191424
 20
124.0870912685283
 30
0.0
 10
157.581591423493
 20
124.100965776696
 30
0.0
 10
157.7936698404286
 20
124.1305854117533
 30
0.0
 10
157.8934586191295
 20
124.1463956058402
 30
0.0
 10
158.0807168061184
 20
124.1787578741713
 30
0.0
 10
158.1686118430618
 20
124.1954121291533
 30
0.0
 10
158.3268329186937
 20
124.2272485067229
 30
0.0
 10
158.3977708749854
 20
124.2425252903288
 30
0.0
 10
158.4603684101919
 20
124.2565479638943
 30
0.0
  0
SPLINE
  5
10C
330
1F
100
AcDbEntity
  8
0
  6
HIDDEN
 62
     7
370
     0
100
AcDbSpline
210
0.0
220
0.0
230
1.0
 70
    11
 71
     3
 72
    14
 73
    10
 74
     0
 42
0.00000001
 43
0.00000001
 12
1.0
 22
0.0
 32
0.0
 13
1.0
 23
0.0
 33
0.0
 40
0.0
 40
0.0
 40
0.0
 40
0.0
 40
0.2500000000000001
 40
0.2500000000000001
 40
0.5000000000000001
 40
0.5000000000000001
 40
0.75
 40
0.75
 40
1.0
 40
1.0
 40
1.0
 40
1.0
 10
158.4603684101919
 20
106.4004565662788
 30
0.0
 10
158.5585927566948
 20
106.378453017055
 30
0.0
 10
158.6339075946789
 20
106.3879474871184
 30
0.0
 10
158.7348743048732
 20
106.4135051481457
 30
0.0
 10
158.7602498911634
 20
106.4284440045087
 30
0.0
 10
158.7604861164297
 20
106.4285601261187
 30
0.0
 10
158.7347830470942
 20
106.4135132329579
 30
0.0
 10
158.6344629335777
 20
106.3880570188763
 30
0.0
 10
158.5585711054901
 20
106.378457867206
 30
0.0
 10
158.4603684101964
 20
106.4004565662724
 30
0.0
  0
SPLINE
  5
10D
330
1F
100
AcDbEntity
  8
0
  6
HIDDEN
 62
     7
370
     0
100
AcDbSpline
210
0.0
220
0.0
230
1.0
 70
    11
 71
     3
 72
    14
 73
    10
 74
     0
 42
0.00000001
 43
0.00000001
 12
1.0
 22
0.0
 32
0.0
 13
1.0
 23
0.0
 33
0.0
 40
0.0
 40
0.0
 40
0.0
 40
0.0
 40
0.2500000000000001
 40
0.2500000000000001
 40
0.5000000000000001
 40
0.5000000000000001
 40
0.75
 40
0.75
 40
1.0
 40
1.0
 40
1.0
 40
1.0
 10
158.4603684101919
 20
124.2565479638943
 30
0.0
 10
158.5585927566948
 20
124.2785515131181
 30
0.0
 10
158.6339075946789
 20
124.2690570430547
 30
0.0
 10
158.7348743048732
 20
124.2434993820274
 30
0.0
 10
158.7602498911634
 20
124.2285605256644
 30
0.0
 10
158.7604861164297
 20
124.2284444040544
 30
0.0
 10
158.7347830470942
 20
124.2434912972152
 30
0.0
 10
158.6344629335777
 20
124.2689475112968
 30
0.0
 10
158.5585711054901
 20
124.2785466629672
 30
0.0
 10
158.4603684101964
 20
124.2565479639007
 30
0.0
  0
LINE
  5
10E
330
1F
100
AcDbEntity
  8
0
  6
HIDDEN
 62
     7
370
     0
100
AcDbLine
 10
158.9603687976
 20
106.8285018032
 30
0.0
 11
158.9603687976
 21
123.828502727
 31
0.0
  0
LINE
  5
10F
330
1F
100
AcDbEntity
  8
0
  6
HIDDEN
 62
     7
370
     0
100
AcDbLine
 10
232.960366026
 20
123.6285021354
 30
0.0
 11
232.960366026
 21
107.042038237
 31
0.0
  0
LINE
  5
110
330
1F
100
AcDbEntity
  8
0
  6
HIDDEN
 62
     7
370
     0
100
AcDbLine
 10
185.1361248051
 20
107.0285023947
 30
0.0
 11
185.1361248051
 21
123.6285021354
 31
0.0
  0
LINE
  5
111
330
1F
100
AcDbEntity
  8
0
  6
HIDDEN
 62
     7
370
     0
100
AcDbLine
 10
185.9603676353
 20
107.3285018851
 30
0.0
 11
185.9603676353
 21
123.3285026451
 31
0.0
  0
LINE
  5
112
330
1F
100
AcDbEntity
  8
0
  6
HIDDEN
 62
     7
370
     0
100
AcDbLine
 10
173.9603684623
 20
107.4285026466
 30
0.0
 11
173.9603684623
 21
123.2285018836
 31
0.0
  0
SPLINE
  5
113
330
1F
100
AcDbEntity
  8
0
  6
HIDDEN
 62
     7
370
     0
100
AcDbSpline
210
0.0
220
0.0
230
1.0
 70
     8
 71
     3
 72
    74
 73
    70
 74
     0
 42
0.00000001
 43
0.00000001
 12
1.0
 22
0.0
 32
0.0
 13
1.0
 23
0.0
 33
0.0
 40
-0.03125
 40
-0.03125
 40
0.0
 40
0.0
 40
0.03125
 40
0.03125
 40
0.0625
 40
0.0625
 40
0.09375
 40
0.09375
 40
0.125
 40
0.125
 40
0.15625
 40
0.15625
 40
0.1875
 40
0.1875
 40
0.21875
 40
0.21875
 40
0.25
 40
0.25
 40
0.265625
 40
0.265625
 40
0.28125
 40
0.28125
 40
0.3125
 40
0.3125
 40
0.34375
 40
0.34375
 40
0.375
 40
0.375
 40
0.40625
 40
0.40625
 40
0.4375
 40
0.4375
 40
0.453125
 40
0.453125
 40
0.46875
 40
0.46875
 40
0.5
 40
0.5
 40
0.53125
 40
0.53125
 40
0.5625
 40
0.5625
 40
0.59375
 40
0.59375
 40
0.625
 40
0.625
 40
0.65625
 40
0.65625
 40
0.6875
 40
0.6875
 40
0.71875
 40
0.71875
 40
0.75
 40
0.75
 40
0.78125
 40
0.78125
 40
0.8125
 40
0.8125
 40
0.84375
 40
0.84375
 40
0.875
 40
0.875
 40
0.90625
 40
0.90625
 40
0.9375
 40
0.9375
 40
0.96875
 40
0.96875
 40
1.0
 40
1.0
 40
1.03125
 40
1.03125
 10
223.2469877995076
 20
119.5785022650866
 30
0.0
 10
222.6737490208762
 20
119.5785022650866
 30
0.0
 10
222.3933018200603
 20
119.5498212797925
 30
0.0
 10
221.8437031445801
 20
119.4387525526162
 30
0.0
 10
221.5720332080271
 20
119.3548761923165
 30
0.0
 10
221.0613662299309
 20
119.1407132186949
 30
0.0
 10
220.8200309875099
 20
119.010510885529
 30
0.0
 10
220.3630633332473
 20
118.7037412345854
 30
0.0
 10
220.1520040354084
 20
118.5299637551609
 30
0.0
 10
219.7673301319203
 20
118.1464399307339
 30
0.0
 10
219.591243901429
 20
117.9337187368501
 30
0.0
 10
219.2835474107296
 20
117.477720764497
 30
0.0
 10
219.1527215529358
 20
117.2366239216128
 30
0.0
 10
218.9374063600405
 20
116.7266722078042
 30
0.0
 10
218.8524503755904
 20
116.4539627159198
 30
0.0
 10
218.7399407762655
 20
115.902647187719
 30
0.0
 10
218.7110931379172
 20
115.6229792070251
 30
0.0
 10
218.7100260702423
 20
115.1972420446964
 30
0.0
 10
218.7169000955641
 20
115.0534401361957
 30
0.0
 10
218.7447411005999
 20
114.7706771145046
 30
0.0
 10
218.7656211166362
 20
114.631113493564
 30
0.0
 10
218.8484866288712
 20
114.2176683269137
 30
0.0
 10
218.9316618617303
 20
113.9464198136741
 30
0.0
 10
219.1473746307269
 20
113.4306859426041
 30
0.0
 10
219.2783775635683
 20
113.1881324318411
 30
0.0
 10
219.5851686138431
 20
112.7311447709371
 30
0.0
 10
219.7611753648092
 20
112.517530821654
 30
0.0
 10
220.1453721329007
 20
112.1328501319133
 30
0.0
 10
220.3551199272887
 20
111.9593336609597
 30
0.0
 10
220.8125749097335
 20
111.6507856066025
 30
0.0
 10
221.0532959741825
 20
111.5204484178938
 30
0.0
 10
221.4334783044757
 20
111.3598713361776
 30
0.0
 10
221.5634137096095
 20
111.3122181605165
 30
0.0
 10
221.830209497296
 20
111.2291411836858
 30
0.0
 10
221.9680884070847
 20
111.1935490837915
 30
0.0
 10
222.3832584489745
 20
111.1083987406527
 30
0.0
 10
222.6628169943707
 20
111.0795361759973
 30
0.0
 10
223.227613090135
 20
111.0775223836557
 30
0.0
 10
223.5155891587463
 20
111.1055409520425
 30
0.0
 10
224.0674740928399
 20
111.2155970463221
 30
0.0
 10
224.3358470278345
 20
111.2975326268367
 30
0.0
 10
224.8520278731588
 20
111.5124464310805
 30
0.0
 10
225.0939844207189
 20
111.6426907810653
 30
0.0
 10
225.5494553280869
 20
111.9470598941884
 30
0.0
 10
225.7636736368637
 20
112.1225605012761
 30
0.0
 10
226.1497293219541
 20
112.506347102564
 30
0.0
 10
226.3237463907129
 20
112.7157692340839
 30
0.0
 10
226.6334362530009
 20
113.1727522904215
 30
0.0
 10
226.7666329919831
 20
113.4176581803443
 30
0.0
 10
226.98216144497
 20
113.927018776706
 30
0.0
 10
227.0660185745376
 20
114.1938307498571
 30
0.0
 10
227.180812526101
 20
114.7525732903395
 30
0.0
 10
227.2095187897704
 20
115.0335146718817
 30
0.0
 10
227.2111812314314
 20
115.5984781662398
 30
0.0
 10
227.1830943598624
 20
115.8860878509082
 30
0.0
 10
227.0721345154129
 20
116.4401207371768
 30
0.0
 10
226.990070319364
 20
116.7079186864117
 30
0.0
 10
226.7736532468325
 20
117.2259073074677
 30
0.0
 10
226.6412277234668
 20
117.4707316773428
 30
0.0
 10
226.3350202941781
 20
117.9265008795524
 30
0.0
 10
226.1585918900631
 20
118.1407096906771
 30
0.0
 10
225.7721904791098
 20
118.5270645490655
 30
0.0
 10
225.5625189152418
 20
118.6999055857599
 30
0.0
 10
225.1081529984382
 20
119.0060787719821
 30
0.0
 10
224.8622356013438
 20
119.1392074514399
 30
0.0
 10
224.3537491123998
 20
119.3530597623519
 30
0.0
 10
224.088773937098
 20
119.4357236960402
 30
0.0
 10
223.5343179525877
 20
119.5490648862096
 30
0.0
 10
223.2469877995076
 20
119.5785022650866
 30
0.0
 10
222.6737490208762
 20
119.5785022650866
 30
0.0
  0
SPLINE
  5
114
330
1F
100
AcDbEntity
  8
0
  6
HIDDEN
 62
     7
370
     0
100
AcDbSpline
210
0.0
220
0.0
230
1.0
 70
     8
 71
     3
 72
    74
 73
    70
 74
     0
 42
0.00000001
 43
0.00000001
 12
1.0
 22
0.0
 32
0.0
 13
1.0
 23
0.0
 33
0.0
 40
-0.03125
 40
-0.03125
 40
0.0
 40
0.0
 40
0.03125
 40
0.03125
 40
0.0625
 40
0.0625
 40
0.09375
 40
0.09375
 40
0.125
 40
0.125
 40
0.15625
 40
0.15625
 40
0.1875
 40
0.1875
 40
0.21875
 40
0.21875
 40
0.2500000000000001
 40
0.2500000000000001
 40
0.2656250000000001
 40
0.2656250000000001
 40
0.2812500000000001
 40
0.2812500000000001
 40
0.3125000000000001
 40
0.3125000000000001
 40
0.3437500000000001
 40
0.3437500000000001
 40
0.3750000000000002
 40
0.3750000000000002
 40
0.4062500000000002
 40
0.4062500000000002
 40
0.4375000000000002
 40
0.4375000000000002
 40
0.4531250000000002
 40
0.4531250000000002
 40
0.4687500000000002
 40
0.4687500000000002
 40
0.5000000000000002
 40
0.5000000000000002
 40
0.5312500000000002
 40
0.5312500000000002
 40
0.5625000000000002
 40
0.5625000000000002
 40
0.5937500000000002
 40
0.5937500000000002
 40
0.6250000000000001
 40
0.6250000000000001
 40
0.6562500000000001
 40
0.6562500000000001
 40
0.6875000000000001
 40
0.6875000000000001
 40
0.7187500000000001
 40
0.7187500000000001
 40
0.7500000000000001
 40
0.7500000000000001
 40
0.7812500000000001
 40
0.7812500000000001
 40
0.8125000000000001
 40
0.8125000000000001
 40
0.8437500000000001
 40
0.8437500000000001
 40
0.875
 40
0.875
 40
0.90625
 40
0.90625
 40
0.9375
 40
0.9375
 40
0.96875
 40
0.96875
 40
1.0
 40
1.0
 40
1.03125
 40
1.03125
 10
210.2469877995076
 20
119.5785022650866
 30
0.0
 10
209.6737490208762
 20
119.5785022650866
 30
0.0
 10
209.3933018200603
 20
119.5498212797925
 30
0.0
 10
208.8437031445801
 20
119.4387525526162
 30
0.0
 10
208.5720332080271
 20
119.3548761923165
 30
0.0
 10
208.0613662299309
 20
119.1407132186949
 30
0.0
 10
207.8200309875099
 20
119.010510885529
 30
0.0
 10
207.3630633332473
 20
118.7037412345854
 30
0.0
 10
207.1520040354084
 20
118.5299637551609
 30
0.0
 10
206.7673301319203
 20
118.1464399307339
 30
0.0
 10
206.591243901429
 20
117.9337187368501
 30
0.0
 10
206.2835474107296
 20
117.477720764497
 30
0.0
 10
206.1527215529358
 20
117.2366239216128
 30
0.0
 10
205.9374063600405
 20
116.7266722078042
 30
0.0
 10
205.8524503755904
 20
116.4539627159198
 30
0.0
 10
205.7399407762655
 20
115.902647187719
 30
0.0
 10
205.7110931379172
 20
115.6229792070251
 30
0.0
 10
205.7100260702423
 20
115.1972420446964
 30
0.0
 10
205.7169000955641
 20
115.0534401361957
 30
0.0
 10
205.7447411005999
 20
114.7706771145046
 30
0.0
 10
205.7656211166362
 20
114.631113493564
 30
0.0
 10
205.8484866288713
 20
114.2176683269137
 30
0.0
 10
205.9316618617303
 20
113.9464198136741
 30
0.0
 10
206.1473746307269
 20
113.4306859426041
 30
0.0
 10
206.2783775635683
 20
113.1881324318411
 30
0.0
 10
206.5851686138431
 20
112.7311447709371
 30
0.0
 10
206.7611753648092
 20
112.517530821654
 30
0.0
 10
207.1453721329008
 20
112.1328501319133
 30
0.0
 10
207.3551199272888
 20
111.9593336609597
 30
0.0
 10
207.8125749097335
 20
111.6507856066025
 30
0.0
 10
208.0532959741825
 20
111.5204484178938
 30
0.0
 10
208.4334783044758
 20
111.3598713361776
 30
0.0
 10
208.5634137096095
 20
111.3122181605165
 30
0.0
 10
208.830209497296
 20
111.2291411836857
 30
0.0
 10
208.9680884070848
 20
111.1935490837915
 30
0.0
 10
209.3832584489745
 20
111.1083987406527
 30
0.0
 10
209.6628169943708
 20
111.0795361759973
 30
0.0
 10
210.227613090135
 20
111.0775223836557
 30
0.0
 10
210.5155891587463
 20
111.1055409520425
 30
0.0
 10
211.0674740928399
 20
111.2155970463221
 30
0.0
 10
211.3358470278345
 20
111.2975326268367
 30
0.0
 10
211.8520278731588
 20
111.5124464310805
 30
0.0
 10
212.093984420719
 20
111.6426907810653
 30
0.0
 10
212.5494553280869
 20
111.9470598941884
 30
0.0
 10
212.7636736368637
 20
112.1225605012761
 30
0.0
 10
213.1497293219541
 20
112.506347102564
 30
0.0
 10
213.3237463907129
 20
112.7157692340839
 30
0.0
 10
213.6334362530009
 20
113.1727522904215
 30
0.0
 10
213.7666329919832
 20
113.4176581803443
 30
0.0
 10
213.98216144497
 20
113.927018776706
 30
0.0
 10
214.0660185745376
 20
114.1938307498571
 30
0.0
 10
214.180812526101
 20
114.7525732903395
 30
0.0
 10
214.2095187897704
 20
115.0335146718817
 30
0.0
 10
214.2111812314313
 20
115.5984781662398
 30
0.0
 10
214.1830943598624
 20
115.8860878509082
 30
0.0
 10
214.0721345154129
 20
116.4401207371768
 30
0.0
 10
213.990070319364
 20
116.7079186864117
 30
0.0
 10
213.7736532468325
 20
117.2259073074677
 30
0.0
 10
213.6412277234668
 20
117.4707316773428
 30
0.0
 10
213.3350202941782
 20
117.9265008795524
 30
0.0
 10
213.1585918900632
 20
118.1407096906771
 30
0.0
 10
212.7721904791099
 20
118.5270645490655
 30
0.0
 10
212.5625189152417
 20
118.6999055857599
 30
0.0
 10
212.1081529984382
 20
119.0060787719821
 30
0.0
 10
211.8622356013439
 20
119.1392074514399
 30
0.0
 10
211.3537491123998
 20
119.3530597623519
 30
0.0
 10
211.088773937098
 20
119.4357236960402
 30
0.0
 10
210.5343179525877
 20
119.5490648862096
 30
0.0
 10
210.2469877995076
 20
119.5785022650866
 30
0.0
 10
209.6737490208762
 20
119.5785022650866
 30
0.0
  0
SPLINE
  5
115
330
1F
100
AcDbEntity
  8
0
  6
HIDDEN
 62
     7
370
     0
100
AcDbSpline
210
0.0
220
0.0
230
1.0
 70
     8
 71
     3
 72
    74
 73
    70
 74
     0
 42
0.00000001
 43
0.00000001
 12
1.0
 22
0.0
 32
0.0
 13
1.0
 23
0.0
 33
0.0
 40
-0.0312499999999998
 40
-0.0312499999999998
 40
0.0
 40
0.0
 40
0.03125
 40
0.03125
 40
0.0625000000000001
 40
0.0625000000000001
 40
0.0937500000000001
 40
0.0937500000000001
 40
0.1250000000000002
 40
0.1250000000000002
 40
0.1562500000000002
 40
0.1562500000000002
 40
0.1875000000000003
 40
0.1875000000000003
 40
0.2187500000000003
 40
0.2187500000000003
 40
0.2500000000000004
 40
0.2500000000000004
 40
0.2656250000000004
 40
0.2656250000000004
 40
0.2812500000000004
 40
0.2812500000000004
 40
0.3125000000000004
 40
0.3125000000000004
 40
0.3437500000000004
 40
0.3437500000000004
 40
0.3750000000000003
 40
0.3750000000000003
 40
0.4062500000000003
 40
0.4062500000000003
 40
0.4375000000000003
 40
0.4375000000000003
 40
0.4531250000000002
 40
0.4531250000000002
 40
0.4687500000000002
 40
0.4687500000000002
 40
0.5000000000000004
 40
0.5000000000000004
 40
0.5312500000000007
 40
0.5312500000000007
 40
0.562500000000001
 40
0.562500000000001
 40
0.5937500000000012
 40
0.5937500000000012
 40
0.6250000000000011
 40
0.6250000000000011
 40
0.656250000000001
 40
0.656250000000001
 40
0.687500000000001
 40
0.687500000000001
 40
0.7187500000000009
 40
0.7187500000000009
 40
0.7500000000000008
 40
0.7500000000000008
 40
0.7812500000000007
 40
0.7812500000000007
 40
0.8125000000000006
 40
0.8125000000000006
 40
0.8437500000000006
 40
0.8437500000000006
 40
0.8750000000000004
 40
0.8750000000000004
 40
0.9062500000000003
 40
0.9062500000000003
 40
0.9375000000000002
 40
0.9375000000000002
 40
0.9687500000000002
 40
0.9687500000000002
 40
1.0
 40
1.0
 40
1.03125
 40
1.03125
 10
197.2469877995076
 20
119.5785022650866
 30
0.0
 10
196.6737490208762
 20
119.5785022650866
 30
0.0
 10
196.3933018200603
 20
119.5498212797925
 30
0.0
 10
195.8437031445801
 20
119.4387525526162
 30
0.0
 10
195.5720332080271
 20
119.3548761923165
 30
0.0
 10
195.0613662299309
 20
119.1407132186949
 30
0.0
 10
194.8200309875099
 20
119.010510885529
 30
0.0
 10
194.3630633332473
 20
118.7037412345854
 30
0.0
 10
194.1520040354084
 20
118.5299637551609
 30
0.0
 10
193.7673301319203
 20
118.1464399307339
 30
0.0
 10
193.591243901429
 20
117.9337187368501
 30
0.0
 10
193.2835474107296
 20
117.477720764497
 30
0.0
 10
193.1527215529358
 20
117.2366239216128
 30
0.0
 10
192.9374063600405
 20
116.7266722078042
 30
0.0
 10
192.8524503755904
 20
116.4539627159198
 30
0.0
 10
192.7399407762655
 20
115.902647187719
 30
0.0
 10
192.7110931379172
 20
115.6229792070251
 30
0.0
 10
192.7100260702423
 20
115.1972420446964
 30
0.0
 10
192.7169000955641
 20
115.0534401361957
 30
0.0
 10
192.7447411005999
 20
114.7706771145046
 30
0.0
 10
192.7656211166362
 20
114.631113493564
 30
0.0
 10
192.8484866288713
 20
114.2176683269137
 30
0.0
 10
192.9316618617303
 20
113.9464198136741
 30
0.0
 10
193.1473746307269
 20
113.4306859426041
 30
0.0
 10
193.2783775635683
 20
113.1881324318411
 30
0.0
 10
193.5851686138431
 20
112.7311447709371
 30
0.0
 10
193.7611753648092
 20
112.517530821654
 30
0.0
 10
194.1453721329008
 20
112.1328501319133
 30
0.0
 10
194.3551199272888
 20
111.9593336609597
 30
0.0
 10
194.8125749097335
 20
111.6507856066025
 30
0.0
 10
195.0532959741825
 20
111.5204484178938
 30
0.0
 10
195.4334783044758
 20
111.3598713361776
 30
0.0
 10
195.5634137096095
 20
111.3122181605165
 30
0.0
 10
195.830209497296
 20
111.2291411836858
 30
0.0
 10
195.9680884070847
 20
111.1935490837915
 30
0.0
 10
196.3832584489745
 20
111.1083987406527
 30
0.0
 10
196.6628169943707
 20
111.0795361759973
 30
0.0
 10
197.227613090135
 20
111.0775223836557
 30
0.0
 10
197.5155891587463
 20
111.1055409520425
 30
0.0
 10
198.0674740928399
 20
111.2155970463221
 30
0.0
 10
198.3358470278345
 20
111.2975326268367
 30
0.0
 10
198.8520278731588
 20
111.5124464310805
 30
0.0
 10
199.0939844207189
 20
111.6426907810653
 30
0.0
 10
199.5494553280869
 20
111.9470598941884
 30
0.0
 10
199.7636736368637
 20
112.1225605012761
 30
0.0
 10
200.1497293219541
 20
112.506347102564
 30
0.0
 10
200.3237463907129
 20
112.7157692340839
 30
0.0
 10
200.6334362530009
 20
113.1727522904215
 30
0.0
 10
200.7666329919832
 20
113.4176581803443
 30
0.0
 10
200.98216144497
 20
113.927018776706
 30
0.0
 10
201.0660185745376
 20
114.1938307498571
 30
0.0
 10
201.180812526101
 20
114.7525732903395
 30
0.0
 10
201.2095187897704
 20
115.0335146718817
 30
0.0
 10
201.2111812314313
 20
115.5984781662398
 30
0.0
 10
201.1830943598624
 20
115.8860878509082
 30
0.0
 10
201.0721345154129
 20
116.4401207371768
 30
0.0
 10
200.990070319364
 20
116.7079186864117
 30
0.0
 10
200.7736532468325
 20
117.2259073074677
 30
0.0
 10
200.6412277234668
 20
117.4707316773428
 30
0.0
 10
200.3350202941782
 20
117.9265008795524
 30
0.0
 10
200.1585918900631
 20
118.1407096906771
 30
0.0
 10
199.7721904791098
 20
118.5270645490655
 30
0.0
 10
199.5625189152417
 20
118.6999055857599
 30
0.0
 10
199.1081529984382
 20
119.0060787719821
 30
0.0
 10
198.8622356013438
 20
119.1392074514399
 30
0.0
 10
198.3537491123998
 20
119.3530597623519
 30
0.0
 10
198.088773937098
 20
119.4357236960402
 30
0.0
 10
197.5343179525876
 20
119.5490648862096
 30
0.0
 10
197.2469877995076
 20
119.5785022650866
 30
0.0
 10
196.6737490208762
 20
119.5785022650866
 30
0.0
  0
SPLINE
  5
116
330
1F
100
AcDbEntity
  8
0
  6
HIDDEN
 62
     7
370
     0
100
AcDbSpline
210
0.0
220
0.0
230
1.0
 70
    11
 71
     3
 72
    49
 73
    45
 74
     0
 42
0.00000001
 43
0.00000001
 12
1.0
 22
0.0
 32
0.0
 13
1.0
 23
0.0
 33
0.0
 40
0.0
 40
0.0
 40
0.0
 40
0.0
 40
0.007732668752694
 40
0.0144117343820571
 40
0.0315194367974146
 40
0.0560814580002467
 40
0.0798481963019219
 40
0.1041971307258273
 40
0.1301983984208594
 40
0.1568453190201086
 40
0.1847622365458366
 40
0.213623798255305
 40
0.2393047880995879
 40
0.2577533032984298
 40
0.2659007777234699
 40
0.2891425344616115
 40
0.3130467193714475
 40
0.3366276310485245
 40
0.3607744852015812
 40
0.3867892073774267
 40
0.4134524721886852
 40
0.441375691041305
 40
0.4702445892468262
 40
0.4958185696807332
 40
0.5223761112088388
 40
0.5447185207055805
 40
0.5676617373280733
 40
0.6148567001574833
 40
0.6416246676155802
 40
0.6691050818813538
 40
0.6968300657115811
 40
0.725536270062222
 40
0.7505263099403826
 40
0.7577122240778655
 40
0.7763745062626216
 40
0.7994404502604359
 40
0.8231317297870964
 40
0.8471238476017121
 40
0.8716841909730562
 40
0.8982966212101351
 40
0.9256042454788134
 40
0.9534398389479269
 40
0.9822881375469907
 40
1.0
 40
1.0
 40
1.0
 40
1.0
 10
197.1698127095321
 20
108.5401600052623
 30
0.0
 10
197.0999955602556
 20
108.5456551411286
 30
0.0
 10
196.9698740921229
 20
108.5558966814081
 30
0.0
 10
196.6853376168368
 20
108.5337463959678
 30
0.0
 10
196.2456626232194
 20
108.5285787716916
 30
0.0
 10
195.6716762550236
 20
108.4360299949298
 30
0.0
 10
195.0711960737251
 20
108.300256154289
 30
0.0
 10
194.5095762644009
 20
108.1271581513893
 30
0.0
 10
193.9893174254579
 20
107.9328687555372
 30
0.0
 10
193.5239866735854
 20
107.7326068170814
 30
0.0
 10
193.1355714886357
 20
107.5478511225054
 30
0.0
 10
192.8705280977212
 20
107.4130804741211
 30
0.0
 10
192.7216668259459
 20
107.3345391726658
 30
0.0
 10
192.7309944049747
 20
107.3394342574456
 30
0.0
 10
192.7034544641716
 20
107.3248405165536
 30
0.0
 10
192.7868502086935
 20
107.3691223392413
 30
0.0
 10
192.9546747697214
 20
107.4562839396643
 30
0.0
 10
193.2212898810329
 20
107.5893463054663
 30
0.0
 10
193.5752096388462
 20
107.7552062155645
 30
0.0
 10
194.024640088163
 20
107.9470353807428
 30
0.0
 10
194.5740676945186
 20
108.1502135530571
 30
0.0
 10
195.2169274718716
 20
108.3407829684439
 30
0.0
 10
195.9150047142892
 20
108.4829183135839
 30
0.0
 10
196.6410748156168
 20
108.5557215442507
 30
0.0
 10
197.3212952085451
 20
108.5520742742333
 30
0.0
 10
197.9635621137423
 20
108.4853865584123
 30
0.0
 10
198.7527665207924
 20
108.3360429807404
 30
0.0
 10
199.4972869089528
 20
108.1029061286864
 30
0.0
 10
200.1416650490347
 20
107.8453791655451
 30
0.0
 10
200.5757781585599
 20
107.6493637295958
 30
0.0
 10
200.9199578930369
 20
107.4801446950805
 30
0.0
 10
201.1270625375583
 20
107.37277538631
 30
0.0
 10
201.2190090106843
 20
107.323923729952
 30
0.0
 10
201.1909385007114
 20
107.3387995530872
 30
0.0
 10
201.1982053701494
 20
107.3349997366692
 30
0.0
 10
201.0702714414535
 20
107.4024820828508
 30
0.0
 10
200.8610786874948
 20
107.509482446831
 30
0.0
 10
200.557018885448
 20
107.6576009171913
 30
0.0
 10
200.1613846054821
 20
107.8364400025358
 30
0.0
 10
199.6686115660226
 20
108.0354426207508
 30
0.0
 10
199.078557814475
 20
108.2365212348048
 30
0.0
 10
198.4017801898434
 20
108.4091094327404
 30
0.0
 10
197.7529680838837
 20
108.520425119026
 30
0.0
 10
197.3305166552921
 20
108.5347215334128
 30
0.0
 10
197.1698127095321
 20
108.5401600052623
 30
0.0
  0
SPLINE
  5
117
330
1F
100
AcDbEntity
  8
0
  6
HIDDEN
 62
     7
370
     0
100
AcDbSpline
210
0.0
220
0.0
230
1.0
 70
     8
 71
     3
 72
    74
 73
    70
 74
     0
 42
0.00000001
 43
0.00000001
 12
1.0
 22
0.0
 32
0.0
 13
1.0
 23
0.0
 33
0.0
 40
-0.0312499999999999
 40
-0.0312499999999999
 40
0.0
 40
0.0
 40
0.0312500000000002
 40
0.0312500000000002
 40
0.0625000000000003
 40
0.0625000000000003
 40
0.0937500000000005
 40
0.0937500000000005
 40
0.1250000000000007
 40
0.1250000000000007
 40
0.1562500000000008
 40
0.1562500000000008
 40
0.187500000000001
 40
0.187500000000001
 40
0.2187500000000011
 40
0.2187500000000011
 40
0.2500000000000013
 40
0.2500000000000013
 40
0.2656250000000013
 40
0.2656250000000013
 40
0.2812500000000014
 40
0.2812500000000014
 40
0.3125000000000017
 40
0.3125000000000017
 40
0.3437500000000019
 40
0.3437500000000019
 40
0.3750000000000021
 40
0.3750000000000021
 40
0.4062500000000023
 40
0.4062500000000023
 40
0.4375000000000026
 40
0.4375000000000026
 40
0.4531250000000027
 40
0.4531250000000027
 40
0.4687500000000028
 40
0.4687500000000028
 40
0.5000000000000027
 40
0.5000000000000027
 40
0.5312500000000024
 40
0.5312500000000024
 40
0.5625000000000023
 40
0.5625000000000023
 40
0.5937500000000021
 40
0.5937500000000021
 40
0.625000000000002
 40
0.625000000000002
 40
0.6562500000000018
 40
0.6562500000000018
 40
0.6875000000000017
 40
0.6875000000000017
 40
0.7187500000000014
 40
0.7187500000000014
 40
0.7500000000000013
 40
0.7500000000000013
 40
0.7812500000000011
 40
0.7812500000000011
 40
0.812500000000001
 40
0.812500000000001
 40
0.8437500000000008
 40
0.8437500000000008
 40
0.8750000000000007
 40
0.8750000000000007
 40
0.9062500000000004
 40
0.9062500000000004
 40
0.9375000000000003
 40
0.9375000000000003
 40
0.9687500000000001
 40
0.9687500000000001
 40
1.0
 40
1.0
 40
1.03125
 40
1.03125
 10
197.2469877995076
 20
122.1062231209496
 30
0.0
 10
196.6737490208762
 20
122.1062231209496
 30
0.0
 10
196.3933018200603
 20
122.1244346664569
 30
0.0
 10
195.8437031445801
 20
122.1921801422728
 30
0.0
 10
195.5720332080271
 20
122.2425026042665
 30
0.0
 10
195.0613662299309
 20
122.362856203953
 30
0.0
 10
194.8200309875099
 20
122.4328686795653
 30
0.0
 10
194.3630633332473
 20
122.583636414843
 30
0.0
 10
194.1520040354084
 20
122.6629061056909
 30
0.0
 10
193.7673301319203
 20
122.8186332841026
 30
0.0
 10
193.591243901429
 20
122.8961878655963
 30
0.0
 10
193.2835474107296
 20
123.0380987561296
 30
0.0
 10
193.1527215529357
 20
123.1019818205012
 30
0.0
 10
192.9374063600405
 20
123.2096845029132
 30
0.0
 10
192.8524503755904
 20
123.253790473603
 30
0.0
 10
192.7399407762655
 20
123.3126873845746
 30
0.0
 10
192.7110931379172
 20
123.3281172543425
 30
0.0
 10
192.7100260702423
 20
123.3286841327667
 30
0.0
 10
192.7169000955641
 20
123.3250255014003
 30
0.0
 10
192.7447411005999
 20
123.3102861599959
 30
0.0
 10
192.7656211166362
 20
123.2992519905148
 30
0.0
 10
192.8484866288713
 20
123.2558509453231
 30
0.0
 10
192.9316618617303
 20
123.2126166936483
 30
0.0
 10
193.1473746307269
 20
123.1046006075252
 30
0.0
 10
193.2783775635683
 20
123.0405735870485
 30
0.0
 10
193.5851686138431
 20
122.8989025943744
 30
0.0
 10
193.7611753648092
 20
122.8212656815707
 30
0.0
 10
194.1453721329008
 20
122.6654547328991
 30
0.0
 10
194.3551199272888
 20
122.5864793433713
 30
0.0
 10
194.8125749097335
 20
122.4351138720234
 30
0.0
 10
195.0532959741825
 20
122.3651062005868
 30
0.0
 10
195.4334783044758
 20
122.27499316425
 30
0.0
 10
195.5634137096095
 20
122.2474461972388
 30
0.0
 10
195.830209497296
 20
122.1985504358918
 30
0.0
 10
195.9680884070847
 20
122.177098255495
 30
0.0
 10
196.3832584489745
 20
122.1252033507917
 30
0.0
 10
196.6628169943707
 20
122.1068714337171
 30
0.0
 10
197.227613090135
 20
122.1056086874575
 30
0.0
 10
197.5155891587463
 20
122.1234087373112
 30
0.0
 10
198.0674740928399
 20
122.1905840832527
 30
0.0
 10
198.3358470278345
 20
122.2398326573307
 30
0.0
 10
198.8520278731588
 20
122.3607794131373
 30
0.0
 10
199.093984420719
 20
122.4308657945462
 30
0.0
 10
199.5494553280869
 20
122.5807172020997
 30
0.0
 10
199.7636736368637
 20
122.6609542395054
 30
0.0
 10
200.1497293219541
 20
122.8170505081541
 30
0.0
 10
200.3237463907129
 20
122.8936145432059
 30
0.0
 10
200.6334362530009
 20
123.0362931106257
 30
0.0
 10
200.7666329919832
 20
123.1013036412178
 30
0.0
 10
200.98216144497
 20
123.2090866584408
 30
0.0
 10
201.0660185745376
 20
123.2526092361536
 30
0.0
 10
201.180812526101
 20
123.312690173223
 30
0.0
 10
201.2095187897704
 20
123.3280509056251
 30
0.0
 10
201.2111812314313
 20
123.328934075013
 30
0.0
 10
201.1830943598624
 20
123.3139065011561
 30
0.0
 10
201.0721345154129
 20
123.2557897501889
 30
0.0
 10
200.990070319364
 20
123.2131217903525
 30
0.0
 10
200.7736532468325
 20
123.1047397117425
 30
0.0
 10
200.6412277234668
 20
123.040037861842
 30
0.0
 10
200.3350202941782
 20
122.8986628521544
 30
0.0
 10
200.1585918900631
 20
122.8208276026972
 30
0.0
 10
199.7721904791098
 20
122.6642127885912
 30
0.0
 10
199.5625189152417
 20
122.5854106534513
 30
0.0
 10
199.1081529984382
 20
122.4351548345946
 30
0.0
 10
198.8622356013438
 20
122.3636686390301
 30
0.0
 10
198.3537491123998
 20
122.2435566305685
 30
0.0
 10
198.088773937098
 20
122.1940056681469
 30
0.0
 10
197.5343179525876
 20
122.1249172039714
 30
0.0
 10
197.2469877995076
 20
122.1062231209496
 30
0.0
 10
196.6737490208762
 20
122.1062231209496
 30
0.0
  0
SPLINE
  5
118
330
1F
100
AcDbEntity
  8
0
  6
HIDDEN
 62
     7
370
     0
100
AcDbSpline
210
0.0
220
0.0
230
1.0
 70
    11
 71
     3
 72
    49
 73
    45
 74
     0
 42
0.00000001
 43
0.00000001
 12
1.0
 22
0.0
 32
0.0
 13
1.0
 23
0.0
 33
0.0
 40
0.0
 40
0.0
 40
0.0
 40
0.0
 40
0.0077327366854899
 40
0.014411802136513
 40
0.0315195040950721
 40
0.0560815246420654
 40
0.0798482001742245
 40
0.1041972480703227
 40
0.1301985150710863
 40
0.1568453914951839
 40
0.1847623430718667
 40
0.2136238794731723
 40
0.2393048550954393
 40
0.2577533743253328
 40
0.2659008485328245
 40
0.2891426132667988
 40
0.3130467975383611
 40
0.3366277085857963
 40
0.3607745259716928
 40
0.3867892474529105
 40
0.4134525628561911
 40
0.4413757230134713
 40
0.470244684075816
 40
0.4958186638268637
 40
0.5223762046458474
 40
0.5447186807343172
 40
0.567661768300193
 40
0.6148567871567807
 40
0.6416247539001371
 40
0.6691051674321469
 40
0.6968301505220802
 40
0.725536354106227
 40
0.7505263933171203
 40
0.7577123072627296
 40
0.7763745889491779
 40
0.7994405323311006
 40
0.8231318112251723
 40
0.8471239283991665
 40
0.8716842711147166
 40
0.898296700641208
 40
0.9256043785015091
 40
0.9534399712273751
 40
0.982288138019921
 40
0.9999999999999999
 40
0.9999999999999999
 40
0.9999999999999999
 40
0.9999999999999999
 10
223.169815108619
 20
108.5401600052623
 30
0.0
 10
223.0999973370812
 20
108.5456551571162
 30
0.0
 10
222.9698752406049
 20
108.5558966853681
 30
0.0
 10
222.6853381523242
 20
108.5337464299585
 30
0.0
 10
222.2456632046603
 20
108.5285787135085
 30
0.0
 10
221.6716770904557
 20
108.4360303095438
 30
0.0
 10
221.0711975618191
 20
108.3002553904051
 30
0.0
 10
220.5095753944941
 20
108.1271587409817
 30
0.0
 10
219.9893159733058
 20
107.9328689043216
 30
0.0
 10
219.5239877237758
 20
107.7326064510406
 30
0.0
 10
219.1355695792637
 20
107.5478513900701
 30
0.0
 10
218.8705277969878
 20
107.4130804101088
 30
0.0
 10
218.7216716317091
 20
107.3345391694713
 30
0.0
 10
218.7309926224629
 20
107.3394342577125
 30
0.0
 10
218.7034532352988
 20
107.3248405172537
 30
0.0
 10
218.7868514187711
 20
107.3691223178177
 30
0.0
 10
218.9546750100479
 20
107.456283962186
 30
0.0
 10
219.2212907736792
 20
107.5893461596683
 30
0.0
 10
219.5752080417171
 20
107.7552063555162
 30
0.0
 10
220.0246388986258
 20
107.9470356576212
 30
0.0
 10
220.5740679124405
 20
108.1502129908002
 30
0.0
 10
221.2169267535971
 20
108.340783519152
 30
0.0
 10
221.915004835155
 20
108.4829180772712
 30
0.0
 10
222.6410753346452
 20
108.5557216365688
 30
0.0
 10
223.3212962738991
 20
108.552074084379
 30
0.0
 10
223.9635629885726
 20
108.4853870774928
 30
0.0
 10
224.752766238277
 20
108.3360420277341
 30
0.0
 10
225.4972872480836
 20
108.1029064435487
 30
0.0
 10
226.1416655507137
 20
107.8453791301882
 30
0.0
 10
226.575778704507
 20
107.6493637392634
 30
0.0
 10
226.9199584268017
 20
107.4801446923583
 30
0.0
 10
227.1270630746525
 20
107.3727753869714
 30
0.0
 10
227.219009547077
 20
107.3239237299068
 30
0.0
 10
227.1909390371842
 20
107.3387995531115
 30
0.0
 10
227.1982059063821
 20
107.3349997365484
 30
0.0
 10
227.0702719788345
 20
107.4024820833801
 30
0.0
 10
226.8610792203463
 20
107.5094824448112
 30
0.0
 10
226.5570194355915
 20
107.6576009248989
 30
0.0
 10
226.1613850876102
 20
107.8364399719829
 30
0.0
 10
225.6686119853066
 20
108.0354428844517
 30
0.0
 10
225.0785566758448
 20
108.2365210134791
 30
0.0
 10
224.4017799061338
 20
108.409109040008
 30
0.0
 10
223.7529693549902
 20
108.520425285216
 30
0.0
 10
223.3305190711735
 20
108.5347215681231
 30
0.0
 10
223.169815108619
 20
108.5401600052623
 30
0.0
  0
SPLINE
  5
119
330
1F
100
AcDbEntity
  8
0
  6
HIDDEN
 62
     7
370
     0
100
AcDbSpline
210
0.0
220
0.0
230
1.0
 70
     8
 71
     3
 72
    74
 73
    70
 74
     0
 42
0.00000001
 43
0.00000001
 12
1.0
 22
0.0
 32
0.0
 13
1.0
 23
0.0
 33
0.0
 40
-0.03125
 40
-0.03125
 40
0.0
 40
0.0
 40
0.03125
 40
0.03125
 40
0.0625
 40
0.0625
 40
0.09375
 40
0.09375
 40
0.125
 40
0.125
 40
0.1562500000000001
 40
0.1562500000000001
 40
0.1875000000000001
 40
0.1875000000000001
 40
0.21875
 40
0.21875
 40
0.25
 40
0.25
 40
0.265625
 40
0.265625
 40
0.28125
 40
0.28125
 40
0.3125
 40
0.3125
 40
0.34375
 40
0.34375
 40
0.375
 40
0.375
 40
0.40625
 40
0.40625
 40
0.4375
 40
0.4375
 40
0.453125
 40
0.453125
 40
0.46875
 40
0.46875
 40
0.5
 40
0.5
 40
0.53125
 40
0.53125
 40
0.5625
 40
0.5625
 40
0.59375
 40
0.59375
 40
0.625
 40
0.625
 40
0.65625
 40
0.65625
 40
0.6875
 40
0.6875
 40
0.71875
 40
0.71875
 40
0.75
 40
0.75
 40
0.78125
 40
0.78125
 40
0.8125
 40
0.8125
 40
0.84375
 40
0.84375
 40
0.875
 40
0.875
 40
0.90625
 40
0.90625
 40
0.9375
 40
0.9375
 40
0.96875
 40
0.96875
 40
1.0
 40
1.0
 40
1.03125
 40
1.03125
 10
223.2469877995076
 20
122.1062231209496
 30
0.0
 10
222.6737490208762
 20
122.1062231209496
 30
0.0
 10
222.3933018200603
 20
122.1244346664569
 30
0.0
 10
221.8437031445801
 20
122.1921801422728
 30
0.0
 10
221.5720332080271
 20
122.2425026042665
 30
0.0
 10
221.0613662299309
 20
122.362856203953
 30
0.0
 10
220.8200309875099
 20
122.4328686795653
 30
0.0
 10
220.3630633332473
 20
122.583636414843
 30
0.0
 10
220.1520040354084
 20
122.6629061056909
 30
0.0
 10
219.7673301319203
 20
122.8186332841026
 30
0.0
 10
219.591243901429
 20
122.8961878655963
 30
0.0
 10
219.2835474107296
 20
123.0380987561296
 30
0.0
 10
219.1527215529358
 20
123.1019818205012
 30
0.0
 10
218.9374063600405
 20
123.2096845029132
 30
0.0
 10
218.8524503755904
 20
123.253790473603
 30
0.0
 10
218.7399407762655
 20
123.3126873845746
 30
0.0
 10
218.7110931379172
 20
123.3281172543425
 30
0.0
 10
218.7100260702423
 20
123.3286841327667
 30
0.0
 10
218.7169000955642
 20
123.3250255014003
 30
0.0
 10
218.7447411005999
 20
123.3102861599959
 30
0.0
 10
218.7656211166362
 20
123.2992519905149
 30
0.0
 10
218.8484866288712
 20
123.2558509453231
 30
0.0
 10
218.9316618617303
 20
123.2126166936483
 30
0.0
 10
219.1473746307269
 20
123.1046006075252
 30
0.0
 10
219.2783775635683
 20
123.0405735870485
 30
0.0
 10
219.5851686138431
 20
122.8989025943744
 30
0.0
 10
219.7611753648092
 20
122.8212656815707
 30
0.0
 10
220.1453721329007
 20
122.6654547328991
 30
0.0
 10
220.3551199272887
 20
122.5864793433713
 30
0.0
 10
220.8125749097335
 20
122.4351138720234
 30
0.0
 10
221.0532959741825
 20
122.3651062005868
 30
0.0
 10
221.4334783044757
 20
122.27499316425
 30
0.0
 10
221.5634137096095
 20
122.2474461972388
 30
0.0
 10
221.830209497296
 20
122.1985504358918
 30
0.0
 10
221.9680884070847
 20
122.177098255495
 30
0.0
 10
222.3832584489745
 20
122.1252033507917
 30
0.0
 10
222.6628169943707
 20
122.1068714337171
 30
0.0
 10
223.227613090135
 20
122.1056086874575
 30
0.0
 10
223.5155891587463
 20
122.1234087373112
 30
0.0
 10
224.0674740928399
 20
122.1905840832527
 30
0.0
 10
224.3358470278345
 20
122.2398326573307
 30
0.0
 10
224.8520278731588
 20
122.3607794131373
 30
0.0
 10
225.0939844207189
 20
122.4308657945462
 30
0.0
 10
225.5494553280869
 20
122.5807172020997
 30
0.0
 10
225.7636736368637
 20
122.6609542395054
 30
0.0
 10
226.1497293219541
 20
122.8170505081541
 30
0.0
 10
226.3237463907129
 20
122.8936145432059
 30
0.0
 10
226.6334362530009
 20
123.0362931106257
 30
0.0
 10
226.7666329919831
 20
123.1013036412178
 30
0.0
 10
226.98216144497
 20
123.2090866584408
 30
0.0
 10
227.0660185745376
 20
123.2526092361536
 30
0.0
 10
227.180812526101
 20
123.312690173223
 30
0.0
 10
227.2095187897704
 20
123.3280509056251
 30
0.0
 10
227.2111812314314
 20
123.328934075013
 30
0.0
 10
227.1830943598624
 20
123.3139065011561
 30
0.0
 10
227.0721345154129
 20
123.2557897501889
 30
0.0
 10
226.990070319364
 20
123.2131217903526
 30
0.0
 10
226.7736532468325
 20
123.1047397117425
 30
0.0
 10
226.6412277234668
 20
123.040037861842
 30
0.0
 10
226.3350202941782
 20
122.8986628521544
 30
0.0
 10
226.1585918900631
 20
122.8208276026972
 30
0.0
 10
225.7721904791099
 20
122.6642127885912
 30
0.0
 10
225.5625189152417
 20
122.5854106534513
 30
0.0
 10
225.1081529984382
 20
122.4351548345946
 30
0.0
 10
224.8622356013438
 20
122.3636686390301
 30
0.0
 10
224.3537491123998
 20
122.2435566305685
 30
0.0
 10
224.088773937098
 20
122.1940056681469
 30
0.0
 10
223.5343179525877
 20
122.1249172039714
 30
0.0
 10
223.2469877995076
 20
122.1062231209496
 30
0.0
 10
222.6737490208762
 20
122.1062231209496
 30
0.0
  0
SPLINE
  5
11A
330
1F
100
AcDbEntity
  8
0
  6
HIDDEN
 62
     7
370
     0
100
AcDbSpline
210
0.0
220
0.0
230
1.0
 70
    11
 71
     3
 72
    49
 73
    45
 74
     0
 42
0.00000001
 43
0.00000001
 12
1.0
 22
0.0
 32
0.0
 13
1.0
 23
0.0
 33
0.0
 40
0.0
 40
0.0
 40
0.0
 40
0.0
 40
0.0077327366854899
 40
0.014411802136513
 40
0.0315195040950721
 40
0.0560815246420654
 40
0.0798482001742245
 40
0.1041972480703227
 40
0.1301985150710863
 40
0.1568453914951839
 40
0.1847623430718667
 40
0.2136238794731723
 40
0.2393048550954393
 40
0.2577533743253328
 40
0.2659008485328245
 40
0.2891426132667988
 40
0.3130467975383611
 40
0.3366277085857963
 40
0.3607745259716928
 40
0.3867892474529105
 40
0.4134525628561911
 40
0.4413757230134713
 40
0.470244684075816
 40
0.4958186638268637
 40
0.5223762046458474
 40
0.5447186807343172
 40
0.567661768300193
 40
0.6148567871567807
 40
0.6416247539001371
 40
0.6691051674321469
 40
0.6968301505220802
 40
0.725536354106227
 40
0.7505263933171203
 40
0.7577123072627296
 40
0.7763745889491779
 40
0.7994405323311006
 40
0.8231318112251723
 40
0.8471239283991665
 40
0.8716842711147166
 40
0.898296700641208
 40
0.9256043785015091
 40
0.9534399712273751
 40
0.982288138019921
 40
0.9999999999999999
 40
0.9999999999999999
 40
0.9999999999999999
 40
0.9999999999999999
 10
210.1698148403981
 20
108.5401600052623
 30
0.0
 10
210.0999970688603
 20
108.5456551571162
 30
0.0
 10
209.969874972384
 20
108.5558966853681
 30
0.0
 10
209.6853378841033
 20
108.5337464299585
 30
0.0
 10
209.2456629364394
 20
108.5285787135085
 30
0.0
 10
208.6716768222348
 20
108.4360303095438
 30
0.0
 10
208.0711972935982
 20
108.3002553904051
 30
0.0
 10
207.5095751262732
 20
108.1271587409817
 30
0.0
 10
206.9893157050849
 20
107.9328689043216
 30
0.0
 10
206.5239874555549
 20
107.7326064510406
 30
0.0
 10
206.1355693110428
 20
107.5478513900701
 30
0.0
 10
205.8705275287669
 20
107.4130804101088
 30
0.0
 10
205.7216713634882
 20
107.3345391694713
 30
0.0
 10
205.7309923542419
 20
107.3394342577125
 30
0.0
 10
205.7034529670779
 20
107.3248405172537
 30
0.0
 10
205.7868511505502
 20
107.3691223178177
 30
0.0
 10
205.954674741827
 20
107.456283962186
 30
0.0
 10
206.2212905054583
 20
107.5893461596683
 30
0.0
 10
206.5752077734962
 20
107.7552063555162
 30
0.0
 10
207.0246386304049
 20
107.9470356576212
 30
0.0
 10
207.5740676442195
 20
108.1502129908002
 30
0.0
 10
208.2169264853761
 20
108.340783519152
 30
0.0
 10
208.9150045669341
 20
108.4829180772712
 30
0.0
 10
209.6410750664243
 20
108.5557216365688
 30
0.0
 10
210.3212960056782
 20
108.552074084379
 30
0.0
 10
210.9635627203517
 20
108.4853870774928
 30
0.0
 10
211.7527659700561
 20
108.3360420277341
 30
0.0
 10
212.4972869798627
 20
108.1029064435487
 30
0.0
 10
213.1416652824928
 20
107.8453791301882
 30
0.0
 10
213.5757784362861
 20
107.6493637392634
 30
0.0
 10
213.9199581585808
 20
107.4801446923583
 30
0.0
 10
214.1270628064316
 20
107.3727753869714
 30
0.0
 10
214.2190092788561
 20
107.3239237299068
 30
0.0
 10
214.1909387689633
 20
107.3387995531115
 30
0.0
 10
214.1982056381612
 20
107.3349997365484
 30
0.0
 10
214.0702717106136
 20
107.4024820833801
 30
0.0
 10
213.8610789521254
 20
107.5094824448112
 30
0.0
 10
213.5570191673706
 20
107.6576009248989
 30
0.0
 10
213.1613848193893
 20
107.8364399719829
 30
0.0
 10
212.6686117170857
 20
108.0354428844517
 30
0.0
 10
212.0785564076239
 20
108.2365210134791
 30
0.0
 10
211.4017796379129
 20
108.409109040008
 30
0.0
 10
210.7529690867693
 20
108.520425285216
 30
0.0
 10
210.3305188029526
 20
108.5347215681231
 30
0.0
 10
210.1698148403981
 20
108.5401600052623
 30
0.0
  0
SPLINE
  5
11B
330
1F
100
AcDbEntity
  8
0
  6
HIDDEN
 62
     7
370
     0
100
AcDbSpline
210
0.0
220
0.0
230
1.0
 70
     8
 71
     3
 72
    74
 73
    70
 74
     0
 42
0.00000001
 43
0.00000001
 12
1.0
 22
0.0
 32
0.0
 13
1.0
 23
0.0
 33
0.0
 40
-0.0312499999999999
 40
-0.0312499999999999
 40
0.0
 40
0.0
 40
0.03125
 40
0.03125
 40
0.0625
 40
0.0625
 40
0.09375
 40
0.09375
 40
0.125
 40
0.125
 40
0.15625
 40
0.15625
 40
0.1875
 40
0.1875
 40
0.2187499999999999
 40
0.2187499999999999
 40
0.2499999999999999
 40
0.2499999999999999
 40
0.2656249999999999
 40
0.2656249999999999
 40
0.2812499999999999
 40
0.2812499999999999
 40
0.3124999999999999
 40
0.3124999999999999
 40
0.3437499999999999
 40
0.3437499999999999
 40
0.3749999999999999
 40
0.3749999999999999
 40
0.4062499999999999
 40
0.4062499999999999
 40
0.4374999999999999
 40
0.4374999999999999
 40
0.453125
 40
0.453125
 40
0.46875
 40
0.46875
 40
0.4999999999999999
 40
0.4999999999999999
 40
0.5312499999999999
 40
0.5312499999999999
 40
0.5624999999999999
 40
0.5624999999999999
 40
0.5937499999999999
 40
0.5937499999999999
 40
0.6249999999999999
 40
0.6249999999999999
 40
0.65625
 40
0.65625
 40
0.6875
 40
0.6875
 40
0.71875
 40
0.71875
 40
0.75
 40
0.75
 40
0.78125
 40
0.78125
 40
0.8125
 40
0.8125
 40
0.84375
 40
0.84375
 40
0.875
 40
0.875
 40
0.9062500000000001
 40
0.9062500000000001
 40
0.9375000000000001
 40
0.9375000000000001
 40
0.9687500000000001
 40
0.9687500000000001
 40
1.0
 40
1.0
 40
1.03125
 40
1.03125
 10
210.2469877995076
 20
122.1062231209496
 30
0.0
 10
209.6737490208762
 20
122.1062231209496
 30
0.0
 10
209.3933018200603
 20
122.1244346664569
 30
0.0
 10
208.8437031445801
 20
122.1921801422728
 30
0.0
 10
208.5720332080271
 20
122.2425026042665
 30
0.0
 10
208.0613662299309
 20
122.362856203953
 30
0.0
 10
207.8200309875099
 20
122.4328686795653
 30
0.0
 10
207.3630633332473
 20
122.583636414843
 30
0.0
 10
207.1520040354084
 20
122.6629061056909
 30
0.0
 10
206.7673301319203
 20
122.8186332841026
 30
0.0
 10
206.591243901429
 20
122.8961878655963
 30
0.0
 10
206.2835474107296
 20
123.0380987561296
 30
0.0
 10
206.1527215529357
 20
123.1019818205012
 30
0.0
 10
205.9374063600405
 20
123.2096845029133
 30
0.0
 10
205.8524503755904
 20
123.253790473603
 30
0.0
 10
205.7399407762655
 20
123.3126873845746
 30
0.0
 10
205.7110931379172
 20
123.3281172543425
 30
0.0
 10
205.7100260702423
 20
123.3286841327667
 30
0.0
 10
205.7169000955641
 20
123.3250255014003
 30
0.0
 10
205.7447411005999
 20
123.3102861599959
 30
0.0
 10
205.7656211166362
 20
123.2992519905148
 30
0.0
 10
205.8484866288713
 20
123.2558509453231
 30
0.0
 10
205.9316618617303
 20
123.2126166936483
 30
0.0
 10
206.1473746307269
 20
123.1046006075252
 30
0.0
 10
206.2783775635683
 20
123.0405735870485
 30
0.0
 10
206.5851686138431
 20
122.8989025943744
 30
0.0
 10
206.7611753648092
 20
122.8212656815707
 30
0.0
 10
207.1453721329008
 20
122.6654547328991
 30
0.0
 10
207.3551199272888
 20
122.5864793433713
 30
0.0
 10
207.8125749097335
 20
122.4351138720234
 30
0.0
 10
208.0532959741824
 20
122.3651062005868
 30
0.0
 10
208.4334783044757
 20
122.27499316425
 30
0.0
 10
208.5634137096095
 20
122.2474461972388
 30
0.0
 10
208.830209497296
 20
122.1985504358918
 30
0.0
 10
208.9680884070848
 20
122.177098255495
 30
0.0
 10
209.3832584489745
 20
122.1252033507917
 30
0.0
 10
209.6628169943708
 20
122.1068714337171
 30
0.0
 10
210.227613090135
 20
122.1056086874575
 30
0.0
 10
210.5155891587463
 20
122.1234087373112
 30
0.0
 10
211.0674740928399
 20
122.1905840832527
 30
0.0
 10
211.3358470278345
 20
122.2398326573307
 30
0.0
 10
211.8520278731588
 20
122.3607794131373
 30
0.0
 10
212.0939844207189
 20
122.4308657945462
 30
0.0
 10
212.5494553280869
 20
122.5807172020997
 30
0.0
 10
212.7636736368637
 20
122.6609542395054
 30
0.0
 10
213.1497293219541
 20
122.8170505081541
 30
0.0
 10
213.3237463907129
 20
122.8936145432059
 30
0.0
 10
213.6334362530009
 20
123.0362931106257
 30
0.0
 10
213.7666329919832
 20
123.1013036412178
 30
0.0
 10
213.98216144497
 20
123.2090866584408
 30
0.0
 10
214.0660185745376
 20
123.2526092361536
 30
0.0
 10
214.180812526101
 20
123.312690173223
 30
0.0
 10
214.2095187897704
 20
123.3280509056251
 30
0.0
 10
214.2111812314313
 20
123.328934075013
 30
0.0
 10
214.1830943598624
 20
123.3139065011561
 30
0.0
 10
214.0721345154129
 20
123.2557897501889
 30
0.0
 10
213.990070319364
 20
123.2131217903525
 30
0.0
 10
213.7736532468325
 20
123.1047397117425
 30
0.0
 10
213.6412277234668
 20
123.040037861842
 30
0.0
 10
213.3350202941782
 20
122.8986628521544
 30
0.0
 10
213.1585918900631
 20
122.8208276026972
 30
0.0
 10
212.7721904791098
 20
122.6642127885912
 30
0.0
 10
212.5625189152418
 20
122.5854106534513
 30
0.0
 10
212.1081529984382
 20
122.4351548345946
 30
0.0
 10
211.8622356013439
 20
122.3636686390301
 30
0.0
 10
211.3537491123998
 20
122.2435566305685
 30
0.0
 10
211.0887739370981
 20
122.1940056681469
 30
0.0
 10
210.5343179525877
 20
122.1249172039714
 30
0.0
 10
210.2469877995076
 20
122.1062231209496
 30
0.0
 10
209.6737490208762
 20
122.1062231209496
 30
0.0
  0
LINE
  5
11C
330
1F
100
AcDbEntity
  8
0
  6
HIDDEN
 62
     7
370
     0
100
AcDbLine
 10
159.8603682001
 20
109.078502172
 30
0.0
 11
159.8603682001
 21
121.5785023582
 31
0.0
  0
LINE
  5
11D
330
1F
100
AcDbEntity
  8
0
  6
HIDDEN
 62
     7
370
     0
100
AcDbLine
 10
158.9603687976
 20
108.1818932493
 30
0.0
 11
158.9603687976
 21
122.4751112808
 31
0.0
  0
LINE
  5
11E
330
1F
100
AcDbEntity
  8
0
  6
HIDDEN
 62
     7
370
     0
100
AcDbLine
 10
173.9603684623
 20
121.5785023582
 30
0.0
 11
173.9603684623
 21
109.078502172
 31
0.0
  0
LINE
  5
11F
330
1F
100
AcDbEntity
  8
0
  6
HIDDEN
 62
     7
370
     0
100
AcDbLine
 10
192.7103682761
 20
96.57850152
 30
0.0
 11
201.210368738
 21
96.57850152
 31
0.0
  0
LINE
  5
120
330
1F
100
AcDbEntity
  8
0
  6
HIDDEN
 62
     7
370
     0
100
AcDbLine
 10
205.7103666817
 20
96.57850152
 30
0.0
 11
214.2103690062
 21
96.57850152
 31
0.0
  0
LINE
  5
121
330
1F
100
AcDbEntity
  8
0
  6
HIDDEN
 62
     7
370
     0
100
AcDbLine
 10
218.7103669499
 20
96.57850152
 30
0.0
 11
227.2103692745
 21
96.57850152
 31
0.0
  0
LINE
  5
122
330
1F
100
AcDbEntity
  8
0
  6
HIDDEN
 62
     7
370
     0
100
AcDbLine
 10
205.7103666817
 20
134.0785030101
 30
0.0
 11
214.2103690062
 21
134.0785030101
 31
0.0
  0
LINE
  5
123
330
1F
100
AcDbEntity
  8
0
  6
HIDDEN
 62
     7
370
     0
100
AcDbLine
 10
192.7103682761
 20
134.0785030101
 30
0.0
 11
201.210368738
 21
134.0785030101
 31
0.0
  0
LINE
  5
124
330
1F
100
AcDbEntity
  8
0
  6
HIDDEN
 62
     7
370
     0
100
AcDbLine
 10
218.7103669499
 20
134.0785030101
 30
0.0
 11
227.2103692745
 21
134.0785030101
 31
0.0
  0
SPLINE
  5
125
330
1F
100
AcDbEntity
  8
0
  6
HIDDEN
 62
     7
370
     0
100
AcDbSpline
210
0.0
220
0.0
230
1.0
 70
     8
 71
     3
 72
    10
 73
     6
 74
     0
 42
0.00000001
 43
0.00000001
 12
1.0
 22
0.0
 32
0.0
 13
1.0
 23
0.0
 33
0.0
 40
0.0
 40
0.0
 40
0.0
 40
0.0
 40
0.419472921172985
 40
0.8509369418539342
 40
1.0
 40
1.0
 40
1.0
 40
1.0
 10
166.2603683876538
 20
129.7012179915814
 30
0.0
 10
166.2022048367895
 20
129.8305516528865
 30
0.0
 10
166.0842150653367
 20
130.0929161219018
 30
0.0
 10
166.0151881411422
 20
130.2487159713038
 30
0.0
 10
166.0252424590762
 20
130.2260722931765
 30
0.0
 10
166.0278241256917
 20
130.2202580322532
 30
0.0
  0
LINE
  5
126
330
1F
100
AcDbEntity
  8
0
  6
HIDDEN
 62
     7
370
     0
100
AcDbLine
 10
145.4603675161
 20
128.6971293216
 30
0.0
 11
145.4603675161
 21
129.7260330816
 31
0.0
  0
LINE
  5
127
330
1F
100
AcDbEntity
  8
0
  6
HIDDEN
 62
     7
370
     0
100
AcDbLine
 10
166.2603683877
 20
129.1496869002
 30
0.0
 11
166.2603683877
 21
129.7012179916
 31
0.0
  0
LINE
  5
128
330
1F
100
AcDbEntity
  8
0
  6
HIDDEN
 62
     7
370
     0
100
AcDbLine
 10
143.9603682016
 20
127.9471296643
 30
0.0
 11
143.9603682016
 21
128.8600073953
 31
0.0
  0
SPLINE
  5
129
330
1F
100
AcDbEntity
  8
0
  6
HIDDEN
 62
     7
370
     0
100
AcDbSpline
210
0.0
220
0.0
230
1.0
 70
     8
 71
     3
 72
    24
 73
    20
 74
     0
 42
0.00000001
 43
0.00000001
 12
1.0
 22
0.0
 32
0.0
 13
1.0
 23
0.0
 33
0.0
 40
0.0
 40
0.0
 40
0.0
 40
0.0
 40
0.2500000000000043
 40
0.2500000000000043
 40
0.375000000000006
 40
0.375000000000006
 40
0.4375000000000064
 40
0.4375000000000064
 40
0.5000000000000068
 40
0.5000000000000068
 40
0.5312500000000062
 40
0.5312500000000062
 40
0.5625000000000056
 40
0.5625000000000056
 40
0.6250000000000043
 40
0.6250000000000043
 40
0.7500000000000031
 40
0.7500000000000031
 40
1.0
 40
1.0
 40
1.0
 40
1.0
 10
166.4653284322527
 20
129.4918733109912
 30
0.0
 10
166.449559387343
 20
129.5263043390418
 30
0.0
 10
166.4329452227823
 20
129.5606448907128
 30
0.0
 10
166.4044130952889
 20
129.6141936739591
 30
0.0
 10
166.394325461735
 20
129.6323705334977
 30
0.0
 10
166.3768376388861
 20
129.6614481382049
 30
0.0
 10
166.3706278309598
 20
129.671432339006
 30
0.0
 10
166.3563499713774
 20
129.6929515672622
 30
0.0
 10
166.3487788090256
 20
129.7041351787005
 30
0.0
 10
166.3313589838512
 20
129.7256709521933
 30
0.0
 10
166.3228749013966
 20
129.7353758118801
 30
0.0
 10
166.3068388277791
 20
129.7498573997389
 30
0.0
 10
166.3020184555013
 20
129.7527051370871
 30
0.0
 10
166.2906115548954
 20
129.7585484558309
 30
0.0
 10
166.286590593186
 20
129.7585922301091
 30
0.0
 10
166.2758365814068
 20
129.7571556402567
 30
0.0
 10
166.2719646957841
 20
129.7526404819883
 30
0.0
 10
166.2627967309832
 20
129.7359684429634
 30
0.0
 10
166.2607683964701
 20
129.7197842679184
 30
0.0
 10
166.2603684101919
 20
129.7012182799837
 30
0.0
  0
SPLINE
  5
12A
330
1F
100
AcDbEntity
  8
0
  6
HIDDEN
 62
     7
370
     0
100
AcDbSpline
210
0.0
220
0.0
230
1.0
 70
     8
 71
     3
 72
     8
 73
     4
 74
     0
 42
0.00000001
 43
0.00000001
 12
1.0
 22
0.0
 32
0.0
 13
1.0
 23
0.0
 33
0.0
 40
0.0
 40
0.0
 40
0.0
 40
0.0
 40
1.0
 40
1.0
 40
1.0
 40
1.0
 10
166.6390480666323
 20
129.1148087759955
 30
0.0
 10
166.5739428279621
 20
129.2552806908204
 30
0.0
 10
166.516055514975
 20
129.3811129182002
 30
0.0
 10
166.4653284322526
 20
129.4918733109913
 30
0.0
  0
LINE
  5
12B
330
1F
100
AcDbEntity
  8
0
  6
HIDDEN
 62
     7
370
     0
100
AcDbLine
 10
154.1603685696
 20
102.7867797588
 30
0.0
 11
158.760368206
 21
102.7867797588
 31
0.0
  0
SPLINE
  5
12C
330
1F
100
AcDbEntity
  8
0
  6
HIDDEN
 62
     7
370
     0
100
AcDbSpline
210
0.0
220
0.0
230
1.0
 70
     8
 71
     3
 72
    10
 73
     6
 74
     0
 42
0.00000001
 43
0.00000001
 12
1.0
 22
0.0
 32
0.0
 13
1.0
 23
0.0
 33
0.0
 40
0.0
 40
0.0
 40
0.0
 40
0.0
 40
0.5
 40
0.5
 40
1.0
 40
1.0
 40
1.0
 40
1.0
 10
145.4603684101918
 20
102.9007079475013
 30
0.0
 10
145.2001512876539
 20
103.0407742236175
 30
0.0
 10
144.9441167184036
 20
103.176950477372
 30
0.0
 10
144.4428531296709
 20
103.4405791954216
 30
0.0
 10
144.1975103709076
 20
103.5680853918832
 30
0.0
 10
143.9603684101918
 20
103.6900078957756
 30
0.0
  0
LINE
  5
12D
330
1F
100
AcDbEntity
  8
0
  6
HIDDEN
 62
     7
370
     0
100
AcDbLine
 10
148.1603685175
 20
102.8373552312
 30
0.0
 11
148.1603685175
 21
104.3285023247
 31
0.0
  0
LINE
  5
12E
330
1F
100
AcDbEntity
  8
0
  6
HIDDEN
 62
     7
370
     0
100
AcDbLine
 10
143.9603682016
 20
103.6900080566
 30
0.0
 11
143.9603682016
 21
104.3285023247
 31
0.0
  0
LINE
  5
12F
330
1F
100
AcDbEntity
  8
0
  6
HIDDEN
 62
     7
370
     0
100
AcDbLine
 10
154.1603685696
 20
126.3285022055
 30
0.0
 11
158.760368206
 21
126.3285022055
 31
0.0
  0
LINE
  5
130
330
1F
100
AcDbEntity
  8
0
  6
HIDDEN
 62
     7
370
     0
100
AcDbLine
 10
177.9603681867
 20
95.8285018628
 30
0.0
 11
181.9603688423
 21
95.8285018628
 31
0.0
  0
LINE
  5
131
330
1F
100
AcDbEntity
  8
0
  6
HIDDEN
 62
     7
370
     0
100
AcDbLine
 10
143.9603682016
 20
106.0687204649
 30
0.0
 11
143.9603682016
 21
103.6900080566
 31
0.0
  0
LINE
  5
132
330
1F
100
AcDbEntity
  8
0
  6
HIDDEN
 62
     7
370
     0
100
AcDbLine
 10
143.9603682016
 20
127.9471296643
 30
0.0
 11
143.9603682016
 21
111.9696564333
 31
0.0
  0
LINE
  5
133
330
1F
100
AcDbEntity
  8
0
  6
HIDDEN
 62
     7
370
     0
100
AcDbLine
 10
145.4603675161
 20
128.6971293216
 30
0.0
 11
145.4603675161
 21
111.9696564333
 31
0.0
  0
LINE
  5
134
330
1F
100
AcDbEntity
  8
0
  6
HIDDEN
 62
     7
370
     0
100
AcDbLine
 10
166.2603683877
 20
129.1496869002
 30
0.0
 11
166.2603683877
 21
111.9696564333
 31
0.0
  0
LINE
  5
135
330
1F
100
AcDbEntity
  8
0
  6
HIDDEN
 62
     7
370
     0
100
AcDbLine
 10
167.7603684152
 20
128.2982019533
 30
0.0
 11
167.7603684152
 21
113.6115073518
 31
0.0
  0
LINE
  5
136
330
1F
100
AcDbEntity
  8
0
  6
HIDDEN
 62
     7
370
     0
100
AcDbLine
 10
143.9603682016
 20
111.9696564333
 30
0.0
 11
143.9603682016
 21
106.0687204649
 31
0.0
  0
LINE
  5
137
330
1F
100
AcDbEntity
  8
0
  6
HIDDEN
 62
     7
370
     0
100
AcDbLine
 10
145.4603675161
 20
111.9696564333
 30
0.0
 11
145.4603675161
 21
105.3187208076
 31
0.0
  0
LINE
  5
138
330
1F
100
AcDbEntity
  8
0
  6
HIDDEN
 62
     7
370
     0
100
AcDbLine
 10
166.2603683877
 20
105.5906614115
 30
0.0
 11
166.2603683877
 21
104.8661632289
 31
0.0
  0
SPLINE
  5
139
330
1F
100
AcDbEntity
  8
0
  6
HIDDEN
 62
     7
370
     0
100
AcDbSpline
210
0.0
220
0.0
230
1.0
 70
     8
 71
     3
 72
     8
 73
     4
 74
     0
 42
0.00000001
 43
0.00000001
 12
1.0
 22
0.0
 32
0.0
 13
1.0
 23
0.0
 33
0.0
 40
0.0
 40
0.0
 40
0.0
 40
0.0
 40
1.0
 40
1.0
 40
1.0
 40
1.0
 10
166.4653284322584
 20
105.6950808535159
 30
0.0
 10
166.516055575463
 20
105.5050715541129
 30
0.0
 10
166.5739429050209
 20
105.3298686636854
 30
0.0
 10
166.6390480666323
 20
105.1690954962387
 30
0.0
  0
SPLINE
  5
13A
330
1F
100
AcDbEntity
  8
0
  6
HIDDEN
 62
     7
370
     0
100
AcDbSpline
210
0.0
220
0.0
230
1.0
 70
     8
 71
     3
 72
    24
 73
    20
 74
     0
 42
0.00000001
 43
0.00000001
 12
1.0
 22
0.0
 32
0.0
 13
1.0
 23
0.0
 33
0.0
 40
0.0
 40
0.0
 40
0.0
 40
0.0
 40
0.2499999999999942
 40
0.2499999999999942
 40
0.3749999999999945
 40
0.3749999999999945
 40
0.4374999999999936
 40
0.4374999999999936
 40
0.4687499999999944
 40
0.4687499999999944
 40
0.4999999999999953
 40
0.4999999999999953
 40
0.5624999999999973
 40
0.5624999999999973
 40
0.6249999999999993
 40
0.6249999999999993
 40
0.7500000000000007
 40
0.7500000000000007
 40
1.0
 40
1.0
 40
1.0
 40
1.0
 10
166.2603684101883
 20
105.5906616020605
 30
0.0
 10
166.2607730797641
 20
105.662371346828
 30
0.0
 10
166.2628165265785
 20
105.7358126646234
 30
0.0
 10
166.2722160918327
 20
105.8505222110768
 30
0.0
 10
166.2761669853615
 20
105.8893000947841
 30
0.0
 10
166.2873192936584
 20
105.950261535446
 30
0.0
 10
166.291540834585
 20
105.9711117114074
 30
0.0
 10
166.3037485561486
 20
106.0030608896435
 30
0.0
 10
166.3095393264008
 20
106.0155815710332
 30
0.0
 10
166.3264608395106
 20
106.028454622714
 30
0.0
 10
166.3338669554604
 20
106.0258202852838
 30
0.0
 10
166.3503242087036
 20
106.0153426528463
 30
0.0
 10
166.3577807266145
 20
106.0032864123181
 30
0.0
 10
166.3716886558892
 20
105.9789992401993
 30
0.0
 10
166.3777806017842
 20
105.9659690719856
 30
0.0
 10
166.3949748941352
 20
105.9258496379983
 30
0.0
 10
166.4049598443388
 20
105.8976753939433
 30
0.0
 10
166.4332058894377
 20
105.8121941976813
 30
0.0
 10
166.4496854263988
 20
105.7536750576498
 30
0.0
 10
166.4653284322585
 20
105.6950808535159
 30
0.0
  0
SPLINE
  5
13B
330
1F
100
AcDbEntity
  8
0
  6
HIDDEN
 62
     7
370
     0
100
AcDbSpline
210
0.0
220
0.0
230
1.0
 70
     8
 71
     3
 72
    16
 73
    12
 74
     0
 42
0.00000001
 43
0.00000001
 12
1.0
 22
0.0
 32
0.0
 13
1.0
 23
0.0
 33
0.0
 40
0.0
 40
0.0
 40
0.0
 40
0.0
 40
0.2500000000000003
 40
0.2500000000000003
 40
0.3750000000000002
 40
0.3750000000000002
 40
0.5000000000000001
 40
0.5000000000000001
 40
0.75
 40
0.75
 40
1.0
 40
1.0
 40
1.0
 40
1.0
 10
166.2603684101917
 20
110.6936269132221
 30
0.0
 10
166.1798310782924
 20
110.198212430984
 30
0.0
 10
166.1197937342651
 20
109.7150479816023
 30
0.0
 10
166.0590560271115
 20
109.008552774325
 30
0.0
 10
166.0437336519985
 20
108.7761135847484
 30
0.0
 10
166.0231508426943
 20
108.317553026863
 30
0.0
 10
166.0179512456687
 20
108.0909839095849
 30
0.0
 10
166.0178975924886
 20
107.4359653979013
 30
0.0
 10
166.0380951359663
 20
107.0268900475987
 30
0.0
 10
166.1187732243243
 20
106.2630565300248
 30
0.0
 10
166.1798193889317
 20
105.9077563765652
 30
0.0
 10
166.2603684101898
 20
105.5906616020612
 30
0.0
  0
SPLINE
  5
13C
330
1F
100
AcDbEntity
  8
0
  6
HIDDEN
 62
     7
370
     0
100
AcDbSpline
210
0.0
220
0.0
230
1.0
 70
     8
 71
     3
 72
    24
 73
    20
 74
     0
 42
0.00000001
 43
0.00000001
 12
1.0
 22
0.0
 32
0.0
 13
1.0
 23
0.0
 33
0.0
 40
0.0
 40
0.0
 40
0.0
 40
0.0
 40
0.2499999999999934
 40
0.2499999999999934
 40
0.3749999999999916
 40
0.3749999999999916
 40
0.437499999999992
 40
0.437499999999992
 40
0.4999999999999925
 40
0.4999999999999925
 40
0.5312499999999931
 40
0.5312499999999931
 40
0.5624999999999937
 40
0.5624999999999937
 40
0.6249999999999963
 40
0.6249999999999963
 40
0.7499999999999976
 40
0.7499999999999976
 40
1.0
 40
1.0
 40
1.0
 40
1.0
 10
166.4653284322522
 20
110.7985526307284
 30
0.0
 10
166.4495618439539
 20
110.7050698581521
 30
0.0
 10
166.4329503109993
 20
110.6117516964837
 30
0.0
 10
166.4044239630413
 20
110.472115135519
 30
0.0
 10
166.3943385292513
 20
110.4255689912803
 30
0.0
 10
166.3768557587163
 20
110.3561031693031
 30
0.0
 10
166.3706481022708
 20
110.3330028933447
 30
0.0
 10
166.3563766020256
 20
110.2871963712959
 30
0.0
 10
166.3488065315226
 20
110.2638752122633
 30
0.0
 10
166.3314102020873
 20
110.2333119596673
 30
0.0
 10
166.3229509291272
 20
110.2227572396261
 30
0.0
 10
166.3068899645797
 20
110.2245675290706
 30
0.0
 10
166.3020567287334
 20
110.2336064059724
 30
0.0
 10
166.2906308089981
 20
110.2598040793703
 30
0.0
 10
166.2866094531156
 20
110.2800489098486
 30
0.0
 10
166.2758489580845
 20
110.3418785703725
 30
0.0
 10
166.2719746490236
 20
110.3848082584244
 30
0.0
 10
166.2628017768965
 20
110.5148642020414
 30
0.0
 10
166.2607694061817
 20
110.6039552934771
 30
0.0
 10
166.2603684101919
 20
110.6936269132221
 30
0.0
  0
LINE
  5
13D
330
1F
100
AcDbEntity
  8
0
  6
HIDDEN
 62
     7
370
     0
100
AcDbLine
 10
166.2603683877
 20
111.9696564333
 30
0.0
 11
166.2603683877
 21
110.6936269266
 31
0.0
  0
SPLINE
  5
13E
330
1F
100
AcDbEntity
  8
0
  6
HIDDEN
 62
     7
370
     0
100
AcDbSpline
210
0.0
220
0.0
230
1.0
 70
     8
 71
     3
 72
     8
 73
     4
 74
     0
 42
0.00000001
 43
0.00000001
 12
1.0
 22
0.0
 32
0.0
 13
1.0
 23
0.0
 33
0.0
 40
0.0
 40
0.0
 40
0.0
 40
0.0
 40
1.0
 40
1.0
 40
1.0
 40
1.0
 10
166.6390480666323
 20
111.7016025230254
 30
0.0
 10
166.5739429050182
 20
111.4003576070046
 30
0.0
 10
166.5160555754582
 20
111.0993224549948
 30
0.0
 10
166.4653284322522
 20
110.7985526307284
 30
0.0
  0
CIRCLE
  5
13F
330
1F
100
AcDbEntity
  8
0
  6
HIDDEN
 62
     7
370
     0
100
AcDbCircle
 10
196.9603684102
 20
115.3285022651
 30
0.0
 40
4.249999999999986
  0
CIRCLE
  5
140
330
1F
100
AcDbEntity
  8
0
  6
HIDDEN
 62
     7
370
     0
100
AcDbCircle
 10
222.9603684102
 20
115.3285022651
 30
0.0
 40
4.25
  0
CIRCLE
  5
141
330
1F
100
AcDbEntity
  8
0
  6
HIDDEN
 62
     7
370
     0
100
AcDbCircle
 10
209.9603684102
 20
115.3285022651
 30
0.0
 40
4.249999999999986
  0
LINE
  5
142
330
1F
100
AcDbEntity
  8
0
  6
HIDDEN
 62
     7
370
     0
100
AcDbLine
 10
167.9603684102
 20
99.528503028
 30
0.0
 11
168.0532616306
 21
99.6213950043
 31
0.0
  0
LINE
  5
143
330
1F
100
AcDbEntity
  8
0
  6
HIDDEN
 62
     7
370
     0
100
AcDbLine
 10
168.0532616306
 20
131.0356095259
 30
0.0
 11
167.9603684102
 21
131.1285015021
 31
0.0
  0
ARC
  5
144
330
1F
100
AcDbEntity
  8
0
  6
HIDDEN
 62
     7
370
     0
100
AcDbCircle
 10
167.3461548478
 20
100.3285022651
 30
0.0
 40
1.0
100
AcDbArc
 50
315.0
 51
0.0
  0
ARC
  5
145
330
1F
100
AcDbEntity
  8
0
  6
HIDDEN
 62
     7
370
     0
100
AcDbCircle
 10
167.3461548478
 20
100.3285022651
 30
0.0
 40
1.0
100
AcDbArc
 50
0.0
 51
52.1052014664
  0
ARC
  5
146
330
1F
100
AcDbEntity
  8
0
  6
HIDDEN
 62
     7
370
     0
100
AcDbCircle
 10
167.3461548478
 20
130.3285022651
 30
0.0
 40
1.000000000000008
100
AcDbArc
 50
343.125
 51
45.0
  0
ARC
  5
147
330
1F
100
AcDbEntity
  8
0
  6
HIDDEN
 62
     7
370
     0
100
AcDbCircle
 10
167.3461548478
 20
130.3285022651
 30
0.0
 40
0.9999999999999998
100
AcDbArc
 50
307.8947985336
 51
343.125
  0
LINE
  5
148
330
1F
100
AcDbEntity
  8
0
  6
HIDDEN
 62
     7
370
     0
100
AcDbLine
 10
168.346154846
 20
100.3285026004
 30
0.0
 11
168.346154846
 21
130.3285019298
 31
0.0
  0
LINE
  5
149
330
1F
100
AcDbEntity
  8
0
  6
HIDDEN
 62
     7
370
     0
100
AcDbLine
 10
168.346154846
 20
100.3285026004
 30
0.0
 11
168.346154846
 21
130.3285019298
 31
0.0
  0
LINE
  5
14A
330
1F
100
AcDbEntity
  8
0
  6
HIDDEN
 62
     7
370
     0
100
AcDbLine
 10
143.9603682016
 20
105.172851478
 30
0.0
 11
144.9874009345
 21
105.7658087288
 31
0.0
  0
LINE
  5
14B
330
1F
100
AcDbEntity
  8
0
  6
HIDDEN
 62
     7
370
     0
100
AcDbLine
 10
144.9874009345
 20
124.8911958014
 30
0.0
 11
143.9603682016
 21
125.4841530521
 31
0.0
  0
LINE
  5
14C
330
1F
100
AcDbEntity
  8
0
  6
HIDDEN
 62
     7
370
     0
100
AcDbLine
 10
149.4603681718
 20
105.3285024886
 30
0.0
 11
150.4731870596
 21
105.3285024886
 31
0.0
  0
LINE
  5
14D
330
1F
100
AcDbEntity
  8
0
  6
HIDDEN
 62
     7
370
     0
100
AcDbLine
 10
150.4731870596
 20
125.3285020416
 30
0.0
 11
149.4603681718
 21
125.3285020416
 31
0.0
  0
ARC
  5
14E
330
1F
100
AcDbEntity
  8
0
  6
HIDDEN
 62
     7
370
     0
100
AcDbCircle
 10
149.4603684102
 20
106.3285022651
 30
0.0
 40
1.000000000000004
100
AcDbArc
 50
193.3524261238
 51
270.0
  0
ARC
  5
14F
330
1F
100
AcDbEntity
  8
0
  6
HIDDEN
 62
     7
370
     0
100
AcDbCircle
 10
149.4603684102
 20
124.3285022651
 30
0.0
 40
1.000000000000014
100
AcDbArc
 50
90.0
 51
166.6475738762
  0
ARC
  5
150
330
1F
100
AcDbEntity
  8
0
  6
HIDDEN
 62
     7
370
     0
100
AcDbCircle
 10
150.4731868799
 20
106.3285022651
 30
0.0
 40
1.0
100
AcDbArc
 50
270.0
 51
315.0
  0
ARC
  5
151
330
1F
100
AcDbEntity
  8
0
  6
HIDDEN
 62
     7
370
     0
100
AcDbCircle
 10
150.4731868799
 20
124.3285022651
 30
0.0
 40
1.000000000000014
100
AcDbArc
 50
45.0
 51
90.0
  0
LINE
  5
152
330
1F
100
AcDbEntity
  8
0
  6
HIDDEN
 62
     7
370
     0
100
AcDbLine
 10
151.1802937244
 20
105.6213950564
 30
0.0
 11
151.8874003892
 21
106.3285026525
 31
0.0
  0
LINE
  5
153
330
1F
100
AcDbEntity
  8
0
  6
HIDDEN
 62
     7
370
     0
100
AcDbLine
 10
151.8874003892
 20
124.3285018777
 30
0.0
 11
151.1802937244
 21
125.0356094738
 31
0.0
  0
LINE
  5
154
330
1F
100
AcDbEntity
  8
0
  6
HIDDEN
 62
     7
370
     0
100
AcDbLine
 10
144.9874009345
 20
105.7658087288
 30
0.0
 11
147.0874010925
 21
106.3285026525
 31
0.0
  0
LINE
  5
155
330
1F
100
AcDbEntity
  8
0
  6
HIDDEN
 62
     7
370
     0
100
AcDbLine
 10
147.0874010925
 20
124.3285018777
 30
0.0
 11
144.9874009345
 21
124.8911958014
 31
0.0
  0
LINE
  5
156
330
1F
100
AcDbEntity
  8
0
  6
HIDDEN
 62
     7
370
     0
100
AcDbLine
 10
148.4874005769
 20
124.5594419365
 30
0.0
 11
148.0874012564
 21
124.3285018777
 31
0.0
  0
LINE
  5
157
330
1F
100
AcDbEntity
  8
0
  6
HIDDEN
 62
     7
370
     0
100
AcDbLine
 10
148.0874012564
 20
106.3285026525
 30
0.0
 11
148.4874005769
 21
106.0975625937
 31
0.0
  0
LINE
  5
158
330
1F
100
AcDbEntity
  8
0
  6
HIDDEN
 62
     7
370
     0
100
AcDbLine
 10
151.8874003892
 20
106.3285026525
 30
0.0
 11
154.1793861766
 21
106.3285026525
 31
0.0
  0
LINE
  5
159
330
1F
100
AcDbEntity
  8
0
  6
HIDDEN
 62
     7
370
     0
100
AcDbLine
 10
154.1793861766
 20
124.3285018777
 30
0.0
 11
151.8874003892
 21
124.3285018777
 31
0.0
  0
LINE
  5
15A
330
1F
100
AcDbEntity
  8
0
  6
HIDDEN
 62
     7
370
     0
100
AcDbLine
 10
147.0874010925
 20
106.3285026525
 30
0.0
 11
148.0874012564
 21
106.3285026525
 31
0.0
  0
LINE
  5
15B
330
1F
100
AcDbEntity
  8
0
  6
HIDDEN
 62
     7
370
     0
100
AcDbLine
 10
148.0874012564
 20
124.3285018777
 30
0.0
 11
147.0874010925
 21
124.3285018777
 31
0.0
  0
ARC
  5
15C
330
1F
100
AcDbEntity
  8
0
  6
HIDDEN
 62
     7
370
     0
100
AcDbCircle
 10
158.4603684102
 20
106.8285022651
 30
0.0
 40
0.4999999999999749
100
AcDbArc
 50
305.4878521107
 51
0.0
  0
ARC
  5
15D
330
1F
100
AcDbEntity
  8
0
  6
HIDDEN
 62
     7
370
     0
100
AcDbCircle
 10
158.4603684102
 20
123.8285022651
 30
0.0
 40
0.4999999999999865
100
AcDbArc
 50
0.0
 51
54.5148009417
  0
ARC
  5
15E
330
1F
100
AcDbEntity
  8
0
  6
HIDDEN
 62
     7
370
     0
100
AcDbCircle
 10
232.6603684102
 20
123.6285022651
 30
0.0
 40
0.2999999999999972
100
AcDbArc
 50
270.0
 51
0.0
  0
ARC
  5
15F
330
1F
100
AcDbEntity
  8
0
  6
HIDDEN
 62
     7
370
     0
100
AcDbCircle
 10
232.6603684102
 20
107.0285022651
 30
0.0
 40
0.2999999999999972
100
AcDbArc
 50
0.0
 51
90.0
  0
LINE
  5
160
330
1F
100
AcDbEntity
  8
0
  6
HIDDEN
 62
     7
370
     0
100
AcDbLine
 10
185.1361248051
 20
107.0285023947
 30
0.0
 11
185.9603676353
 21
107.3285018851
 31
0.0
  0
LINE
  5
161
330
1F
100
AcDbEntity
  8
0
  6
HIDDEN
 62
     7
370
     0
100
AcDbLine
 10
185.9603676353
 20
123.3285026451
 30
0.0
 11
185.1361248051
 21
123.6285021354
 31
0.0
  0
LINE
  5
162
330
1F
100
AcDbEntity
  8
0
  6
HIDDEN
 62
     7
370
     0
100
AcDbLine
 10
185.1361248051
 20
123.6285021354
 30
0.0
 11
174.3603682485
 21
123.6285021354
 31
0.0
  0
LINE
  5
163
330
1F
100
AcDbEntity
  8
0
  6
HIDDEN
 62
     7
370
     0
100
AcDbLine
 10
174.3603682485
 20
107.0285023947
 30
0.0
 11
185.1361248051
 21
107.0285023947
 31
0.0
  0
ARC
  5
164
330
1F
100
AcDbEntity
  8
0
  6
HIDDEN
 62
     7
370
     0
100
AcDbCircle
 10
174.3603684102
 20
123.2285022651
 30
0.0
 40
0.4000000000000341
100
AcDbArc
 50
90.0
 51
180.0
  0
ARC
  5
165
330
1F
100
AcDbEntity
  8
0
  6
HIDDEN
 62
     7
370
     0
100
AcDbCircle
 10
174.3603684102
 20
107.4285022651
 30
0.0
 40
0.4000000000000341
100
AcDbArc
 50
180.0
 51
270.0
  0
LINE
  5
166
330
1F
100
AcDbEntity
  8
0
  6
HIDDEN
 62
     7
370
     0
100
AcDbLine
 10
192.7234775726
 20
123.3285026451
 30
0.0
 11
185.9603676353
 21
123.3285026451
 31
0.0
  0
LINE
  5
167
330
1F
100
AcDbEntity
  8
0
  6
HIDDEN
 62
     7
370
     0
100
AcDbLine
 10
205.7234759782
 20
123.3285026451
 30
0.0
 11
201.1986750518
 21
123.3285026451
 31
0.0
  0
LINE
  5
168
330
1F
100
AcDbEntity
  8
0
  6
HIDDEN
 62
     7
370
     0
100
AcDbLine
 10
218.7234762464
 20
123.3285026451
 30
0.0
 11
214.19867532
 21
123.3285026451
 31
0.0
  0
LINE
  5
169
330
1F
100
AcDbEntity
  8
0
  6
HIDDEN
 62
     7
370
     0
100
AcDbLine
 10
232.6603683983
 20
123.3285026451
 30
0.0
 11
227.1986755882
 21
123.3285026451
 31
0.0
  0
LINE
  5
16A
330
1F
100
AcDbEntity
  8
0
  6
HIDDEN
 62
     7
370
     0
100
AcDbLine
 10
227.1986755882
 20
107.3285018851
 30
0.0
 11
232.6603683983
 21
107.3285018851
 31
0.0
  0
LINE
  5
16B
330
1F
100
AcDbEntity
  8
0
  6
HIDDEN
 62
     7
370
     0
100
AcDbLine
 10
214.19867532
 20
107.3285018851
 30
0.0
 11
218.7234762464
 21
107.3285018851
 31
0.0
  0
LINE
  5
16C
330
1F
100
AcDbEntity
  8
0
  6
HIDDEN
 62
     7
370
     0
100
AcDbLine
 10
201.1986750518
 20
107.3285018851
 30
0.0
 11
205.7234759782
 21
107.3285018851
 31
0.0
  0
LINE
  5
16D
330
1F
100
AcDbEntity
  8
0
  6
HIDDEN
 62
     7
370
     0
100
AcDbLine
 10
185.9603676353
 20
107.3285018851
 30
0.0
 11
192.7234775726
 21
107.3285018851
 31
0.0
  0
LINE
  5
16E
330
1F
100
AcDbEntity
  8
0
  6
HIDDEN
 62
     7
370
     0
100
AcDbLine
 10
158.9603687976
 20
108.1785023038
 30
0.0
 11
159.8603682001
 21
109.078502172
 31
0.0
  0
LINE
  5
16F
330
1F
100
AcDbEntity
  8
0
  6
HIDDEN
 62
     7
370
     0
100
AcDbLine
 10
159.8603682001
 20
121.5785023582
 30
0.0
 11
158.9603687976
 21
122.4785022263
 31
0.0
  0
LINE
  5
170
330
1F
100
AcDbEntity
  8
0
  6
HIDDEN
 62
     7
370
     0
100
AcDbLine
 10
159.8603682001
 20
109.078502172
 30
0.0
 11
173.9603684623
 21
109.078502172
 31
0.0
  0
LINE
  5
171
330
1F
100
AcDbEntity
  8
0
  6
HIDDEN
 62
     7
370
     0
100
AcDbLine
 10
173.9603684623
 20
121.5785023582
 30
0.0
 11
159.8603682001
 21
121.5785023582
 31
0.0
  0
LINE
  5
172
330
1F
100
AcDbEntity
  8
0
  6
HIDDEN
 62
     7
370
     0
100
AcDbLine
 10
202.4603675459
 20
95.3285027121
 30
0.0
 11
201.210368738
 21
96.57850152
 31
0.0
  0
LINE
  5
173
330
1F
100
AcDbEntity
  8
0
  6
HIDDEN
 62
     7
370
     0
100
AcDbLine
 10
192.7103682761
 20
96.57850152
 30
0.0
 11
191.4603676055
 21
95.3285027121
 31
0.0
  0
LINE
  5
174
330
1F
100
AcDbEntity
  8
0
  6
HIDDEN
 62
     7
370
     0
100
AcDbLine
 10
215.4603678141
 20
95.3285027121
 30
0.0
 11
214.2103690062
 21
96.57850152
 31
0.0
  0
LINE
  5
175
330
1F
100
AcDbEntity
  8
0
  6
HIDDEN
 62
     7
370
     0
100
AcDbLine
 10
205.7103666817
 20
96.57850152
 30
0.0
 11
204.4603678738
 21
95.3285027121
 31
0.0
  0
LINE
  5
176
330
1F
100
AcDbEntity
  8
0
  6
HIDDEN
 62
     7
370
     0
100
AcDbLine
 10
228.4603680824
 20
95.3285027121
 30
0.0
 11
227.2103692745
 21
96.57850152
 31
0.0
  0
LINE
  5
177
330
1F
100
AcDbEntity
  8
0
  6
HIDDEN
 62
     7
370
     0
100
AcDbLine
 10
218.7103669499
 20
96.57850152
 30
0.0
 11
217.460368142
 21
95.3285027121
 31
0.0
  0
LINE
  5
178
330
1F
100
AcDbEntity
  8
0
  6
HIDDEN
 62
     7
370
     0
100
AcDbLine
 10
204.4603678738
 20
135.3285018181
 30
0.0
 11
205.7103666817
 21
134.0785030101
 31
0.0
  0
LINE
  5
179
330
1F
100
AcDbEntity
  8
0
  6
HIDDEN
 62
     7
370
     0
100
AcDbLine
 10
214.2103690062
 20
134.0785030101
 30
0.0
 11
215.4603678141
 21
135.3285018181
 31
0.0
  0
LINE
  5
17A
330
1F
100
AcDbEntity
  8
0
  6
HIDDEN
 62
     7
370
     0
100
AcDbLine
 10
191.4603676055
 20
135.3285018181
 30
0.0
 11
192.7103682761
 21
134.0785030101
 31
0.0
  0
LINE
  5
17B
330
1F
100
AcDbEntity
  8
0
  6
HIDDEN
 62
     7
370
     0
100
AcDbLine
 10
201.210368738
 20
134.0785030101
 30
0.0
 11
202.4603675459
 21
135.3285018181
 31
0.0
  0
LINE
  5
17C
330
1F
100
AcDbEntity
  8
0
  6
HIDDEN
 62
     7
370
     0
100
AcDbLine
 10
217.460368142
 20
135.3285018181
 30
0.0
 11
218.7103669499
 21
134.0785030101
 31
0.0
  0
LINE
  5
17D
330
1F
100
AcDbEntity
  8
0
  6
HIDDEN
 62
     7
370
     0
100
AcDbLine
 10
227.2103692745
 20
134.0785030101
 30
0.0
 11
228.4603680824
 21
135.3285018181
 31
0.0
  0
LINE
  5
17E
330
1F
100
AcDbEntity
  8
0
  6
HIDDEN
 62
     7
370
     0
100
AcDbLine
 10
214.2103690062
 20
96.57850152
 30
0.0
 11
214.2103690062
 21
107.3346961116
 31
0.0
  0
LINE
  5
17F
330
1F
100
AcDbEntity
  8
0
  6
HIDDEN
 62
     7
370
     0
100
AcDbLine
 10
205.7103666817
 20
107.3354476889
 30
0.0
 11
205.7103666817
 21
96.57850152
 31
0.0
  0
LINE
  5
180
330
1F
100
AcDbEntity
  8
0
  6
HIDDEN
 62
     7
370
     0
100
AcDbLine
 10
227.2103692745
 20
96.57850152
 30
0.0
 11
227.2103692745
 21
107.3346961116
 31
0.0
  0
LINE
  5
181
330
1F
100
AcDbEntity
  8
0
  6
HIDDEN
 62
     7
370
     0
100
AcDbLine
 10
218.7103669499
 20
107.3354476889
 30
0.0
 11
218.7103669499
 21
96.57850152
 31
0.0
  0
LINE
  5
182
330
1F
100
AcDbEntity
  8
0
  6
HIDDEN
 62
     7
370
     0
100
AcDbLine
 10
201.210368738
 20
96.57850152
 30
0.0
 11
201.210368738
 21
107.3346961116
 31
0.0
  0
LINE
  5
183
330
1F
100
AcDbEntity
  8
0
  6
HIDDEN
 62
     7
370
     0
100
AcDbLine
 10
192.7103682761
 20
107.3354476889
 30
0.0
 11
192.7103682761
 21
96.57850152
 31
0.0
  0
LINE
  5
184
330
1F
100
AcDbEntity
  8
0
  6
HIDDEN
 62
     7
370
     0
100
AcDbLine
 10
218.7103669499
 20
134.0785030101
 30
0.0
 11
218.7103669499
 21
123.3215568413
 31
0.0
  0
LINE
  5
185
330
1F
100
AcDbEntity
  8
0
  6
HIDDEN
 62
     7
370
     0
100
AcDbLine
 10
227.2103692745
 20
123.3223084186
 30
0.0
 11
227.2103692745
 21
134.0785030101
 31
0.0
  0
LINE
  5
186
330
1F
100
AcDbEntity
  8
0
  6
HIDDEN
 62
     7
370
     0
100
AcDbLine
 10
205.7103666817
 20
134.0785030101
 30
0.0
 11
205.7103666817
 21
123.3215568413
 31
0.0
  0
LINE
  5
187
330
1F
100
AcDbEntity
  8
0
  6
HIDDEN
 62
     7
370
     0
100
AcDbLine
 10
214.2103690062
 20
123.3223084186
 30
0.0
 11
214.2103690062
 21
134.0785030101
 31
0.0
  0
LINE
  5
188
330
1F
100
AcDbEntity
  8
0
  6
HIDDEN
 62
     7
370
     0
100
AcDbLine
 10
192.7103682761
 20
134.0785030101
 30
0.0
 11
192.7103682761
 21
123.3215568413
 31
0.0
  0
LINE
  5
189
330
1F
100
AcDbEntity
  8
0
  6
HIDDEN
 62
     7
370
     0
100
AcDbLine
 10
201.210368738
 20
123.3223084186
 30
0.0
 11
201.210368738
 21
134.0785030101
 31
0.0
  0
LINE
  5
18A
330
1F
100
AcDbEntity
  8
0
  6
HIDDEN
 62
     7
370
     0
100
AcDbLine
 10
159.1499059801
 20
102.3972419848
 30
0.0
 11
158.760368206
 21
102.7867797588
 31
0.0
  0
LINE
  5
18B
330
1F
100
AcDbEntity
  8
0
  6
HIDDEN
 62
     7
370
     0
100
AcDbLine
 10
154.1603685696
 20
102.7867797588
 30
0.0
 11
153.9116011341
 21
102.5380123233
 31
0.0
  0
LINE
  5
18C
330
1F
100
AcDbEntity
  8
0
  6
HIDDEN
 62
     7
370
     0
100
AcDbLine
 10
148.1603685175
 20
104.3285023247
 30
0.0
 11
143.9603682016
 21
104.3285023247
 31
0.0
  0
LINE
  5
18D
330
1F
100
AcDbEntity
  8
0
  6
HIDDEN
 62
     7
370
     0
100
AcDbLine
 10
149.8663130556
 20
102.6225577866
 30
0.0
 11
148.1603685175
 21
104.3285023247
 31
0.0
  0
LINE
  5
18E
330
1F
100
AcDbEntity
  8
0
  6
HIDDEN
 62
     7
370
     0
100
AcDbLine
 10
158.760368206
 20
102.7867797588
 30
0.0
 11
158.760368206
 21
106.42445868
 31
0.0
  0
LINE
  5
18F
330
1F
100
AcDbEntity
  8
0
  6
HIDDEN
 62
     7
370
     0
100
AcDbLine
 10
154.1603685696
 20
106.3332374965
 30
0.0
 11
154.1603685696
 21
102.7867797588
 31
0.0
  0
LINE
  5
190
330
1F
100
AcDbEntity
  8
0
  6
HIDDEN
 62
     7
370
     0
100
AcDbLine
 10
158.760368206
 20
124.2325458501
 30
0.0
 11
158.760368206
 21
126.3285022055
 31
0.0
  0
LINE
  5
191
330
1F
100
AcDbEntity
  8
0
  6
HIDDEN
 62
     7
370
     0
100
AcDbLine
 10
154.1603685696
 20
126.3285022055
 30
0.0
 11
154.1603685696
 21
124.3237670337
 31
0.0
  0
LINE
  5
192
330
1F
100
AcDbEntity
  8
0
  6
HIDDEN
 62
     7
370
     0
100
AcDbLine
 10
158.760368206
 20
126.3285022055
 30
0.0
 11
156.4603683878
 21
127.7104815294
 31
0.0
  0
LINE
  5
193
330
1F
100
AcDbEntity
  8
0
  6
HIDDEN
 62
     7
370
     0
100
AcDbLine
 10
156.4603683878
 20
127.7104815294
 30
0.0
 11
154.1603685696
 21
126.3285022055
 31
0.0
  0
LINE
  5
194
330
1F
100
AcDbEntity
  8
0
  6
HIDDEN
 62
     7
370
     0
100
AcDbLine
 10
181.9603688423
 20
95.8285018628
 30
0.0
 11
179.9603685145
 21
97.030222771
 31
0.0
  0
LINE
  5
195
330
1F
100
AcDbEntity
  8
0
  6
HIDDEN
 62
     7
370
     0
100
AcDbLine
 10
179.9603685145
 20
97.030222771
 30
0.0
 11
177.9603681867
 21
95.8285018628
 31
0.0
  0
LINE
  5
196
330
1F
100
AcDbEntity
  8
0
  6
HIDDEN
 62
     7
370
     0
100
AcDbLine
 10
177.9603681867
 20
95.8285018628
 30
0.0
 11
177.9603681867
 21
95.3285027121
 31
0.0
  0
LINE
  5
197
330
1F
100
AcDbEntity
  8
0
  6
HIDDEN
 62
     7
370
     0
100
AcDbLine
 10
181.9603688423
 20
95.3285027121
 30
0.0
 11
181.9603688423
 21
95.8285018628
 31
0.0
  0
DIMENSION
  5
198
330
1F
100
AcDbEntity
  8
VERMASSUNG
100
AcDbDimension
  2
_D
 10
133.9603684102
 20
95.3285022651
 30
0.0
 11
133.9603684102
 21
114.9681522171
 31
0.0
 70
   160
  1
PSC%%c<>
 71
     2
 42
-1.0
  3
SLDDIMSTYLE0
100
AcDbAlignedDimension
 13
168.2603684102
 23
135.3285022651
 33
0.0
 14
168.2603684102
 24
95.3285022651
 34
0.0
 50
90.0
100
AcDbRotatedDimension
  0
DIMENSION
  5
1A5
330
1F
100
AcDbEntity
  8
VERMASSUNG
100
AcDbDimension
  2
_D_1
 10
232.9603684102
 20
142.7082559503
 30
0.0
 11
202.0493635978
 21
142.7082559503
 31
0.0
 70
   160
  1
<>
 71
     2
 42
-1.0
  3
SLDDIMSTYLE0
100
AcDbAlignedDimension
 13
167.9603684102
 23
135.0285022651
 33
0.0
 14
232.9603684102
 24
134.3285022651
 34
0.0
100
AcDbRotatedDimension
  0
DIMENSION
  5
1AF
330
1F
100
AcDbEntity
  8
VERMASSUNG
100
AcDbDimension
  2
_D_2
 10
232.9603684102
 20
149.2524539511
 30
0.0
 11
188.3225859556
 21
149.2524539511
 31
0.0
 70
   160
  1
<>
 71
     2
 42
-1.0
  3
SLDDIMSTYLE0
100
AcDbAlignedDimension
 13
143.9603684102
 23
127.947129331
 33
0.0
 14
232.9603684102
 24
134.3285022651
 34
0.0
100
AcDbRotatedDimension
  0
DIMENSION
  5
1B9
330
1F
100
AcDbEntity
  8
VERMASSUNG
100
AcDbDimension
  2
_D_3
 10
243.735441656
 20
107.3285022651
 30
0.0
 11
243.735441656
 21
115.1012703845
 31
0.0
 70
   160
  1
%%c<>
 71
     2
 42
-1.0
  3
SLDDIMSTYLE0
100
AcDbAlignedDimension
 13
232.6603684102
 23
123.3285022651
 33
0.0
 14
232.6603684102
 24
107.3285022651
 34
0.0
 50
90.0
100
AcDbRotatedDimension
  0
LINE
  5
1C4
330
1F
100
AcDbEntity
  8
VERMASSUNG
  6
CENTERX2
370
     0
100
AcDbLine
 10
236.4588945848
 20
115.3285022651
 30
0.0
 11
139.8313311439
 21
115.3285022651
 31
0.0
  0
LINE
  5
1C5
330
1F
100
AcDbEntity
  8
0
  6
Continuous
 62
     7
370
    15
100
AcDbLine
 10
73.0981093863
 20
134.8504558031
 30
0.0
 11
73.0981093863
 21
134.6934199159
 31
0.0
  0
LINE
  5
1C6
330
1F
100
AcDbEntity
  8
0
  6
Continuous
 62
     7
370
    15
100
AcDbLine
 10
83.0981091628
 20
134.6934199159
 30
0.0
 11
83.0981091628
 21
134.8504558031
 31
0.0
  0
LINE
  5
1C7
330
1F
100
AcDbEntity
  8
0
  6
Continuous
 62
     7
370
    15
100
AcDbLine
 10
83.0981091628
 20
134.8504558031
 30
0.0
 11
82.2701093772
 21
135.3285018181
 31
0.0
  0
LINE
  5
1C8
330
1F
100
AcDbEntity
  8
0
  6
Continuous
 62
     7
370
    15
100
AcDbLine
 10
73.9261091718
 20
135.3285018181
 30
0.0
 11
73.0981093863
 21
134.8504558031
 31
0.0
  0
LINE
  5
1C9
330
1F
100
AcDbEntity
  8
0
  6
Continuous
 62
     7
370
    15
100
AcDbLine
 10
83.0981091628
 20
95.806548727
 30
0.0
 11
83.0981091628
 21
95.9635846143
 31
0.0
  0
LINE
  5
1CA
330
1F
100
AcDbEntity
  8
0
  6
Continuous
 62
     7
370
    15
100
AcDbLine
 10
73.0981093863
 20
95.9635846143
 30
0.0
 11
73.0981093863
 21
95.806548727
 31
0.0
  0
LINE
  5
1CB
330
1F
100
AcDbEntity
  8
0
  6
Continuous
 62
     7
370
    15
100
AcDbLine
 10
73.0981093863
 20
95.806548727
 30
0.0
 11
73.9261091718
 21
95.3285027121
 31
0.0
  0
LINE
  5
1CC
330
1F
100
AcDbEntity
  8
0
  6
Continuous
 62
     7
370
    15
100
AcDbLine
 10
82.2701093772
 20
95.3285027121
 30
0.0
 11
83.0981091628
 21
95.806548727
 31
0.0
  0
LINE
  5
1CD
330
1F
100
AcDbEntity
  8
0
  6
Continuous
 62
     7
370
    15
100
AcDbLine
 10
97.6200628126
 20
110.3285023768
 30
0.0
 11
98.0981088275
 21
111.1565021624
 31
0.0
  0
LINE
  5
1CE
330
1F
100
AcDbEntity
  8
0
  6
Continuous
 62
     7
370
    15
100
AcDbLine
 10
98.0981088275
 20
119.5005023678
 30
0.0
 11
97.6200628126
 21
120.3285021533
 31
0.0
  0
LINE
  5
1CF
330
1F
100
AcDbEntity
  8
0
  6
Continuous
 62
     7
370
    15
100
AcDbLine
 10
97.6200628126
 20
120.3285021533
 30
0.0
 11
97.4630269253
 21
120.3285021533
 31
0.0
  0
LINE
  5
1D0
330
1F
100
AcDbEntity
  8
0
  6
Continuous
 62
     7
370
    15
100
AcDbLine
 10
97.4630269253
 20
110.3285023768
 30
0.0
 11
97.6200628126
 21
110.3285023768
 31
0.0
  0
LINE
  5
1D1
330
1F
100
AcDbEntity
  8
0
  6
Continuous
 62
     7
370
    15
100
AcDbLine
 10
73.0981093863
 20
134.8504558031
 30
0.0
 11
73.7514652343
 21
134.8504558031
 31
0.0
  0
LINE
  5
1D2
330
1F
100
AcDbEntity
  8
0
  6
Continuous
 62
     7
370
    15
100
AcDbLine
 10
82.4447533147
 20
134.8504558031
 30
0.0
 11
83.0981091628
 21
134.8504558031
 31
0.0
  0
LINE
  5
1D3
330
1F
100
AcDbEntity
  8
0
  6
Continuous
 62
     7
370
    15
100
AcDbLine
 10
73.9261091718
 20
135.3285018181
 30
0.0
 11
82.2701093772
 21
135.3285018181
 31
0.0
  0
LINE
  5
1D4
330
1F
100
AcDbEntity
  8
0
  6
Continuous
 62
     7
370
    15
100
AcDbLine
 10
83.0981091628
 20
95.806548727
 30
0.0
 11
82.4447533147
 21
95.806548727
 31
0.0
  0
LINE
  5
1D5
330
1F
100
AcDbEntity
  8
0
  6
Continuous
 62
     7
370
    15
100
AcDbLine
 10
73.7514652343
 20
95.806548727
 30
0.0
 11
73.0981093863
 21
95.806548727
 31
0.0
  0
LINE
  5
1D6
330
1F
100
AcDbEntity
  8
0
  6
Continuous
 62
     7
370
    15
100
AcDbLine
 10
82.2701093772
 20
95.3285027121
 30
0.0
 11
73.9261091718
 21
95.3285027121
 31
0.0
  0
LINE
  5
1D7
330
1F
100
AcDbEntity
  8
0
  6
Continuous
 62
     7
370
    15
100
AcDbLine
 10
98.0981088275
 20
119.5005023678
 30
0.0
 11
98.0981088275
 21
111.1565021624
 31
0.0
  0
LINE
  5
1D8
330
1F
100
AcDbEntity
  8
0
  6
Continuous
 62
     7
370
    15
100
AcDbLine
 10
97.6200628126
 20
120.3285021533
 30
0.0
 11
97.6200628126
 21
119.6751463053
 31
0.0
  0
LINE
  5
1D9
330
1F
100
AcDbEntity
  8
0
  6
Continuous
 62
     7
370
    15
100
AcDbLine
 10
97.6200628126
 20
110.9818582249
 30
0.0
 11
97.6200628126
 21
110.3285023768
 31
0.0
  0
CIRCLE
  5
1DA
330
1F
100
AcDbEntity
  8
0
  6
Continuous
 62
     7
370
    15
100
AcDbCircle
 10
78.0981092745
 20
115.3285022651
 30
0.0
 40
19.99999999999997
  0
CIRCLE
  5
1DB
330
1F
100
AcDbEntity
  8
0
  6
Continuous
 62
     7
370
    15
100
AcDbCircle
 10
78.0981092745
 20
115.3285022651
 30
0.0
 40
8.0
  0
CIRCLE
  5
1DC
330
1F
100
AcDbEntity
  8
0
  6
Continuous
 62
     7
370
    15
100
AcDbCircle
 10
78.0981092745
 20
115.3285022651
 30
0.0
 40
6.249999999999986
  0
LINE
  5
1DD
330
1F
100
AcDbEntity
  8
0
  6
HIDDEN
 62
     7
370
     0
100
AcDbLine
 10
73.7514652343
 20
134.8504558031
 30
0.0
 11
82.4447533147
 21
134.8504558031
 31
0.0
  0
LINE
  5
1DE
330
1F
100
AcDbEntity
  8
0
  6
HIDDEN
 62
     7
370
     0
100
AcDbLine
 10
83.0981091628
 20
134.8504558031
 30
0.0
 11
73.0981093863
 21
134.8504558031
 31
0.0
  0
LINE
  5
1DF
330
1F
100
AcDbEntity
  8
0
  6
HIDDEN
 62
     7
370
     0
100
AcDbLine
 10
83.0981091628
 20
124.8285019596
 30
0.0
 11
73.0981093863
 21
124.8285019596
 31
0.0
  0
LINE
  5
1E0
330
1F
100
AcDbEntity
  8
0
  6
HIDDEN
 62
     7
370
     0
100
AcDbLine
 10
81.5981093826
 20
123.3285026451
 30
0.0
 11
74.5981091665
 21
123.3285026451
 31
0.0
  0
LINE
  5
1E1
330
1F
100
AcDbEntity
  8
0
  6
HIDDEN
 62
     7
370
     0
100
AcDbLine
 10
82.2701093772
 20
135.3285018181
 30
0.0
 11
73.9261091718
 21
135.3285018181
 31
0.0
  0
LINE
  5
1E2
330
1F
100
AcDbEntity
  8
0
  6
HIDDEN
 62
     7
370
     0
100
AcDbLine
 10
79.5414849914
 20
129.3285026972
 30
0.0
 11
80.9848607084
 21
129.3285026972
 31
0.0
  0
LINE
  5
1E3
330
1F
100
AcDbEntity
  8
0
  6
HIDDEN
 62
     7
370
     0
100
AcDbLine
 10
79.5414849914
 20
135.3285018181
 30
0.0
 11
80.9848607084
 21
135.3285018181
 31
0.0
  0
LINE
  5
1E4
330
1F
100
AcDbEntity
  8
0
  6
HIDDEN
 62
     7
370
     0
100
AcDbLine
 10
79.5414849914
 20
129.3285026972
 30
0.0
 11
79.5414849914
 21
135.3285018181
 31
0.0
  0
LINE
  5
1E5
330
1F
100
AcDbEntity
  8
0
  6
HIDDEN
 62
     7
370
     0
100
AcDbLine
 10
76.6547335576
 20
129.3285026972
 30
0.0
 11
79.5414849914
 21
129.3285026972
 31
0.0
  0
LINE
  5
1E6
330
1F
100
AcDbEntity
  8
0
  6
HIDDEN
 62
     7
370
     0
100
AcDbLine
 10
76.6547335576
 20
135.3285018181
 30
0.0
 11
79.5414849914
 21
135.3285018181
 31
0.0
  0
LINE
  5
1E7
330
1F
100
AcDbEntity
  8
0
  6
HIDDEN
 62
     7
370
     0
100
AcDbLine
 10
76.6547335576
 20
129.3285026972
 30
0.0
 11
76.6547335576
 21
135.3285018181
 31
0.0
  0
LINE
  5
1E8
330
1F
100
AcDbEntity
  8
0
  6
HIDDEN
 62
     7
370
     0
100
AcDbLine
 10
76.6547335576
 20
129.3285026972
 30
0.0
 11
75.2113578407
 21
129.3285026972
 31
0.0
  0
LINE
  5
1E9
330
1F
100
AcDbEntity
  8
0
  6
HIDDEN
 62
     7
370
     0
100
AcDbLine
 10
76.6547335576
 20
135.3285018181
 30
0.0
 11
75.2113578407
 21
135.3285018181
 31
0.0
  0
LINE
  5
1EA
330
1F
100
AcDbEntity
  8
0
  6
HIDDEN
 62
     7
370
     0
100
AcDbLine
 10
80.9848607084
 20
129.3285026972
 30
0.0
 11
80.9848607084
 21
135.3285018181
 31
0.0
  0
LINE
  5
1EB
330
1F
100
AcDbEntity
  8
0
  6
HIDDEN
 62
     7
370
     0
100
AcDbLine
 10
75.2113578407
 20
129.3285026972
 30
0.0
 11
75.2113578407
 21
135.3285018181
 31
0.0
  0
LINE
  5
1EC
330
1F
100
AcDbEntity
  8
0
  6
HIDDEN
 62
     7
370
     0
100
AcDbLine
 10
73.0981093863
 20
105.8285025706
 30
0.0
 11
83.0981091628
 21
105.8285025706
 31
0.0
  0
LINE
  5
1ED
330
1F
100
AcDbEntity
  8
0
  6
HIDDEN
 62
     7
370
     0
100
AcDbLine
 10
74.5981091665
 20
107.3285018851
 30
0.0
 11
81.5981093826
 21
107.3285018851
 31
0.0
  0
LINE
  5
1EE
330
1F
100
AcDbEntity
  8
0
  6
HIDDEN
 62
     7
370
     0
100
AcDbLine
 10
82.4447533147
 20
95.806548727
 30
0.0
 11
73.7514652343
 21
95.806548727
 31
0.0
  0
LINE
  5
1EF
330
1F
100
AcDbEntity
  8
0
  6
HIDDEN
 62
     7
370
     0
100
AcDbLine
 10
73.0981093863
 20
95.806548727
 30
0.0
 11
83.0981091628
 21
95.806548727
 31
0.0
  0
LINE
  5
1F0
330
1F
100
AcDbEntity
  8
0
  6
HIDDEN
 62
     7
370
     0
100
AcDbLine
 10
73.9261091718
 20
95.3285027121
 30
0.0
 11
82.2701093772
 21
95.3285027121
 31
0.0
  0
LINE
  5
1F1
330
1F
100
AcDbEntity
  8
0
  6
HIDDEN
 62
     7
370
     0
100
AcDbLine
 10
76.6547335576
 20
95.3285027121
 30
0.0
 11
75.2113578407
 21
95.3285027121
 31
0.0
  0
LINE
  5
1F2
330
1F
100
AcDbEntity
  8
0
  6
HIDDEN
 62
     7
370
     0
100
AcDbLine
 10
76.6547335576
 20
101.328501833
 30
0.0
 11
75.2113578407
 21
101.328501833
 31
0.0
  0
LINE
  5
1F3
330
1F
100
AcDbEntity
  8
0
  6
HIDDEN
 62
     7
370
     0
100
AcDbLine
 10
79.5414849914
 20
101.328501833
 30
0.0
 11
76.6547335576
 21
101.328501833
 31
0.0
  0
LINE
  5
1F4
330
1F
100
AcDbEntity
  8
0
  6
HIDDEN
 62
     7
370
     0
100
AcDbLine
 10
76.6547335576
 20
101.328501833
 30
0.0
 11
76.6547335576
 21
95.3285027121
 31
0.0
  0
LINE
  5
1F5
330
1F
100
AcDbEntity
  8
0
  6
HIDDEN
 62
     7
370
     0
100
AcDbLine
 10
79.5414849914
 20
95.3285027121
 30
0.0
 11
76.6547335576
 21
95.3285027121
 31
0.0
  0
LINE
  5
1F6
330
1F
100
AcDbEntity
  8
0
  6
HIDDEN
 62
     7
370
     0
100
AcDbLine
 10
79.5414849914
 20
101.328501833
 30
0.0
 11
79.5414849914
 21
95.3285027121
 31
0.0
  0
LINE
  5
1F7
330
1F
100
AcDbEntity
  8
0
  6
HIDDEN
 62
     7
370
     0
100
AcDbLine
 10
79.5414849914
 20
101.328501833
 30
0.0
 11
80.9848607084
 21
101.328501833
 31
0.0
  0
LINE
  5
1F8
330
1F
100
AcDbEntity
  8
0
  6
HIDDEN
 62
     7
370
     0
100
AcDbLine
 10
79.5414849914
 20
95.3285027121
 30
0.0
 11
80.9848607084
 21
95.3285027121
 31
0.0
  0
LINE
  5
1F9
330
1F
100
AcDbEntity
  8
0
  6
HIDDEN
 62
     7
370
     0
100
AcDbLine
 10
75.2113578407
 20
101.328501833
 30
0.0
 11
75.2113578407
 21
95.3285027121
 31
0.0
  0
LINE
  5
1FA
330
1F
100
AcDbEntity
  8
0
  6
HIDDEN
 62
     7
370
     0
100
AcDbLine
 10
80.9848607084
 20
101.328501833
 30
0.0
 11
80.9848607084
 21
95.3285027121
 31
0.0
  0
LINE
  5
1FB
330
1F
100
AcDbEntity
  8
0
  6
HIDDEN
 62
     7
370
     0
100
AcDbLine
 10
98.0981088275
 20
111.1565021624
 30
0.0
 11
98.0981088275
 21
119.5005023678
 31
0.0
  0
LINE
  5
1FC
330
1F
100
AcDbEntity
  8
0
  6
HIDDEN
 62
     7
370
     0
100
AcDbLine
 10
97.6200628126
 20
119.6751463053
 30
0.0
 11
97.6200628126
 21
110.9818582249
 31
0.0
  0
LINE
  5
1FD
330
1F
100
AcDbEntity
  8
0
  6
HIDDEN
 62
     7
370
     0
100
AcDbLine
 10
97.6200628126
 20
110.3285023768
 30
0.0
 11
97.6200628126
 21
120.3285021533
 31
0.0
  0
LINE
  5
1FE
330
1F
100
AcDbEntity
  8
0
  6
HIDDEN
 62
     7
370
     0
100
AcDbLine
 10
87.5981089691
 20
110.3285023768
 30
0.0
 11
87.5981089691
 21
120.3285021533
 31
0.0
  0
LINE
  5
1FF
330
1F
100
AcDbEntity
  8
0
  6
HIDDEN
 62
     7
370
     0
100
AcDbLine
 10
86.0981096545
 20
111.8285021571
 30
0.0
 11
86.0981096545
 21
118.8285023731
 31
0.0
  0
LINE
  5
200
330
1F
100
AcDbEntity
  8
0
  6
HIDDEN
 62
     7
370
     0
100
AcDbLine
 10
98.0981088275
 20
113.8851265482
 30
0.0
 11
98.0981088275
 21
112.4417508313
 31
0.0
  0
LINE
  5
201
330
1F
100
AcDbEntity
  8
0
  6
HIDDEN
 62
     7
370
     0
100
AcDbLine
 10
92.0981097067
 20
113.8851265482
 30
0.0
 11
98.0981088275
 21
113.8851265482
 31
0.0
  0
LINE
  5
202
330
1F
100
AcDbEntity
  8
0
  6
HIDDEN
 62
     7
370
     0
100
AcDbLine
 10
98.0981088275
 20
116.771877982
 30
0.0
 11
98.0981088275
 21
113.8851265482
 31
0.0
  0
LINE
  5
203
330
1F
100
AcDbEntity
  8
0
  6
HIDDEN
 62
     7
370
     0
100
AcDbLine
 10
92.0981097067
 20
116.771877982
 30
0.0
 11
92.0981097067
 21
113.8851265482
 31
0.0
  0
LINE
  5
204
330
1F
100
AcDbEntity
  8
0
  6
HIDDEN
 62
     7
370
     0
100
AcDbLine
 10
92.0981097067
 20
113.8851265482
 30
0.0
 11
92.0981097067
 21
112.4417508313
 31
0.0
  0
LINE
  5
205
330
1F
100
AcDbEntity
  8
0
  6
HIDDEN
 62
     7
370
     0
100
AcDbLine
 10
92.0981097067
 20
116.771877982
 30
0.0
 11
92.0981097067
 21
118.2152536989
 31
0.0
  0
LINE
  5
206
330
1F
100
AcDbEntity
  8
0
  6
HIDDEN
 62
     7
370
     0
100
AcDbLine
 10
92.0981097067
 20
116.771877982
 30
0.0
 11
98.0981088275
 21
116.771877982
 31
0.0
  0
LINE
  5
207
330
1F
100
AcDbEntity
  8
0
  6
HIDDEN
 62
     7
370
     0
100
AcDbLine
 10
98.0981088275
 20
116.771877982
 30
0.0
 11
98.0981088275
 21
118.2152536989
 31
0.0
  0
LINE
  5
208
330
1F
100
AcDbEntity
  8
0
  6
HIDDEN
 62
     7
370
     0
100
AcDbLine
 10
92.0981097067
 20
112.4417508313
 30
0.0
 11
98.0981088275
 21
112.4417508313
 31
0.0
  0
LINE
  5
209
330
1F
100
AcDbEntity
  8
0
  6
HIDDEN
 62
     7
370
     0
100
AcDbLine
 10
92.0981097067
 20
118.2152536989
 30
0.0
 11
98.0981088275
 21
118.2152536989
 31
0.0
  0
LINE
  5
20A
330
1F
100
AcDbEntity
  8
0
  6
HIDDEN
 62
     7
370
     0
100
AcDbLine
 10
73.0981093863
 20
134.6934199159
 30
0.0
 11
73.0981093863
 21
124.8285019596
 31
0.0
  0
LINE
  5
20B
330
1F
100
AcDbEntity
  8
0
  6
HIDDEN
 62
     7
370
     0
100
AcDbLine
 10
83.0981091628
 20
124.8285019596
 30
0.0
 11
83.0981091628
 21
134.6934199159
 31
0.0
  0
LINE
  5
20C
330
1F
100
AcDbEntity
  8
0
  6
HIDDEN
 62
     7
370
     0
100
AcDbLine
 10
73.0981093863
 20
124.8285019596
 30
0.0
 11
74.5981091665
 21
123.3285026451
 31
0.0
  0
LINE
  5
20D
330
1F
100
AcDbEntity
  8
0
  6
HIDDEN
 62
     7
370
     0
100
AcDbLine
 10
81.5981093826
 20
123.3285026451
 30
0.0
 11
83.0981091628
 21
124.8285019596
 31
0.0
  0
LINE
  5
20E
330
1F
100
AcDbEntity
  8
0
  6
HIDDEN
 62
     7
370
     0
100
AcDbLine
 10
83.0981091628
 20
105.8285025706
 30
0.0
 11
81.5981093826
 21
107.3285018851
 31
0.0
  0
LINE
  5
20F
330
1F
100
AcDbEntity
  8
0
  6
HIDDEN
 62
     7
370
     0
100
AcDbLine
 10
74.5981091665
 20
107.3285018851
 30
0.0
 11
73.0981093863
 21
105.8285025706
 31
0.0
  0
LINE
  5
210
330
1F
100
AcDbEntity
  8
0
  6
HIDDEN
 62
     7
370
     0
100
AcDbLine
 10
83.0981091628
 20
95.9635846143
 30
0.0
 11
83.0981091628
 21
105.8285025706
 31
0.0
  0
LINE
  5
211
330
1F
100
AcDbEntity
  8
0
  6
HIDDEN
 62
     7
370
     0
100
AcDbLine
 10
73.0981093863
 20
105.8285025706
 30
0.0
 11
73.0981093863
 21
95.9635846143
 31
0.0
  0
LINE
  5
212
330
1F
100
AcDbEntity
  8
0
  6
HIDDEN
 62
     7
370
     0
100
AcDbLine
 10
97.4630269253
 20
120.3285021533
 30
0.0
 11
87.5981089691
 21
120.3285021533
 31
0.0
  0
LINE
  5
213
330
1F
100
AcDbEntity
  8
0
  6
HIDDEN
 62
     7
370
     0
100
AcDbLine
 10
87.5981089691
 20
110.3285023768
 30
0.0
 11
97.4630269253
 21
110.3285023768
 31
0.0
  0
LINE
  5
214
330
1F
100
AcDbEntity
  8
0
  6
HIDDEN
 62
     7
370
     0
100
AcDbLine
 10
87.5981089691
 20
120.3285021533
 30
0.0
 11
86.0981096545
 21
118.8285023731
 31
0.0
  0
LINE
  5
215
330
1F
100
AcDbEntity
  8
0
  6
HIDDEN
 62
     7
370
     0
100
AcDbLine
 10
86.0981096545
 20
111.8285021571
 30
0.0
 11
87.5981089691
 21
110.3285023768
 31
0.0
  0
INSERT
  5
221
330
1F
100
AcDbEntity
  8
VERMASSUNG
100
AcDbBlockReference
  2
SW_CENTERMARKSYMBOL_0
 10
78.0981092745
 20
115.3285022651
 30
0.0
  0
OLE2FRAME
  5
222
330
1F
100
AcDbEntity
  8
0
100
AcDbOle2Frame
 70
     2
  3
Paintbrush-Bild
 10
13.8511154363
 20
38.264191557
 30
0.0
 11
51.6290888628
 21
31.9806341108
 31
0.0
 71
     2
 72
     0
 73
     1
 90
    12928
310
80552BED0767C5B32B40DDAF6807D121434000000000000000006FFBDDFB85D0
310
4940DDAF6807D121434000000000000000006FFBDDFB85D04940416F4BD60AFB
310
3F4000000000000000002BED0767C5B32B40416F4BD60AFB3F40000000000000
310
0000000000000100000000010000010000000100000000000100000000320000
310
D0CF11E0A1B11AE1000000000000000000000000000000003E000300FEFF0900
310
0600000000000000000000000100000001000000000000000010000002000000
310
01000000FEFFFFFF0000000000000000FFFFFFFFFFFFFFFFFFFFFFFFFFFFFFFF
310
FFFFFFFFFFFFFFFFFFFFFFFFFFFFFFFFFFFFFFFFFFFFFFFFFFFFFFFFFFFFFFFF
310
FFFFFFFFFFFFFFFFFFFFFFFFFFFFFFFFFFFFFFFFFFFFFFFFFFFFFFFFFFFFFFFF
310
FFFFFFFFFFFFFFFFFFFFFFFFFFFFFFFFFFFFFFFFFFFFFFFFFFFFFFFFFFFFFFFF
310
FFFFFFFFFFFFFFFFFFFFFFFFFFFFFFFFFFFFFFFFFFFFFFFFFFFFFFFFFFFFFFFF
310
FFFFFFFFFFFFFFFFFFFFFFFFFFFFFFFFFFFFFFFFFFFFFFFFFFFFFFFFFFFFFFFF
310
FFFFFFFFFFFFFFFFFFFFFFFFFFFFFFFFFFFFFFFFFFFFFFFFFFFFFFFFFFFFFFFF
310
FFFFFFFFFFFFFFFFFFFFFFFFFFFFFFFFFFFFFFFFFFFFFFFFFFFFFFFFFFFFFFFF
310
FFFFFFFFFFFFFFFFFFFFFFFFFFFFFFFFFFFFFFFFFFFFFFFFFFFFFFFFFFFFFFFF
310
FFFFFFFFFFFFFFFFFFFFFFFFFFFFFFFFFFFFFFFFFFFFFFFFFFFFFFFFFFFFFFFF
310
FFFFFFFFFFFFFFFFFFFFFFFFFFFFFFFFFFFFFFFFFFFFFFFFFFFFFFFFFFFFFFFF
310
FFFFFFFFFFFFFFFFFFFFFFFFFFFFFFFFFFFFFFFFFFFFFFFFFFFFFFFFFFFFFFFF
310
FFFFFFFFFFFFFFFFFFFFFFFFFFFFFFFFFFFFFFFFFFFFFFFFFFFFFFFFFFFFFFFF
310
FFFFFFFFFFFFFFFFFFFFFFFFFFFFFFFFFFFFFFFFFFFFFFFFFFFFFFFFFFFFFFFF
310
FDFFFFFFFEFFFFFFFEFFFFFFFEFFFFFF05000000060000000700000008000000
310
090000000A0000000B0000000C0000000D0000000E0000000F00000010000000
310
11000000120000001300000014000000150000001600000017000000FEFFFFFF
310
FFFFFFFFFFFFFFFFFFFFFFFFFFFFFFFFFFFFFFFFFFFFFFFFFFFFFFFFFFFFFFFF
310
FFFFFFFFFFFFFFFFFFFFFFFFFFFFFFFFFFFFFFFFFFFFFFFFFFFFFFFFFFFFFFFF
310
FFFFFFFFFFFFFFFFFFFFFFFFFFFFFFFFFFFFFFFFFFFFFFFFFFFFFFFFFFFFFFFF
310
FFFFFFFFFFFFFFFFFFFFFFFFFFFFFFFFFFFFFFFFFFFFFFFFFFFFFFFFFFFFFFFF
310
FFFFFFFFFFFFFFFFFFFFFFFFFFFFFFFFFFFFFFFFFFFFFFFFFFFFFFFFFFFFFFFF
310
FFFFFFFFFFFFFFFFFFFFFFFFFFFFFFFFFFFFFFFFFFFFFFFFFFFFFFFFFFFFFFFF
310
FFFFFFFFFFFFFFFFFFFFFFFFFFFFFFFFFFFFFFFFFFFFFFFFFFFFFFFFFFFFFFFF
310
FFFFFFFFFFFFFFFFFFFFFFFFFFFFFFFFFFFFFFFFFFFFFFFFFFFFFFFFFFFFFFFF
310
FFFFFFFFFFFFFFFFFFFFFFFFFFFFFFFFFFFFFFFFFFFFFFFFFFFFFFFFFFFFFFFF
310
FFFFFFFFFFFFFFFFFFFFFFFFFFFFFFFFFFFFFFFFFFFFFFFFFFFFFFFFFFFFFFFF
310
FFFFFFFFFFFFFFFFFFFFFFFFFFFFFFFFFFFFFFFFFFFFFFFFFFFFFFFFFFFFFFFF
310
FFFFFFFFFFFFFFFFFFFFFFFFFFFFFFFFFFFFFFFFFFFFFFFFFFFFFFFFFFFFFFFF
310
FFFFFFFFFFFFFFFFFFFFFFFFFFFFFFFFFFFFFFFFFFFFFFFFFFFFFFFFFFFFFFFF
310
52006F006F007400200045006E00740072007900000000000000000000000000
310
0000000000000000000000000000000000000000000000000000000000000000
310
16000500FFFFFFFFFFFFFFFF020000000A00030000000000C000000000000046
310
000000000000000000000000A04C52006D4DCD0103000000C000000000000000
310
01004F006C006500000000000000000000000000000000000000000000000000
310
0000000000000000000000000000000000000000000000000000000000000000
310
0A000200FFFFFFFFFFFFFFFFFFFFFFFF00000000000000000000000000000000
310
0000000000000000000000000000000000000000000000001400000000000000
310
010043006F006D0070004F0062006A0000000000000000000000000000000000
310
0000000000000000000000000000000000000000000000000000000000000000
310
120002010100000003000000FFFFFFFF00000000000000000000000000000000
310
0000000000000000000000000000000000000000010000004D00000000000000
310
01004F006C006500310030004E00610074006900760065000000000000000000
310
0000000000000000000000000000000000000000000000000000000000000000
310
1A000200FFFFFFFFFFFFFFFFFFFFFFFF00000000000000000000000000000000
310
0000000000000000000000000000000000000000040000002426000000000000
310
FEFFFFFF02000000FEFFFFFFFFFFFFFFFFFFFFFFFFFFFFFFFFFFFFFFFFFFFFFF
310
FFFFFFFFFFFFFFFFFFFFFFFFFFFFFFFFFFFFFFFFFFFFFFFFFFFFFFFFFFFFFFFF
310
FFFFFFFFFFFFFFFFFFFFFFFFFFFFFFFFFFFFFFFFFFFFFFFFFFFFFFFFFFFFFFFF
310
FFFFFFFFFFFFFFFFFFFFFFFFFFFFFFFFFFFFFFFFFFFFFFFFFFFFFFFFFFFFFFFF
310
FFFFFFFFFFFFFFFFFFFFFFFFFFFFFFFFFFFFFFFFFFFFFFFFFFFFFFFFFFFFFFFF
310
FFFFFFFFFFFFFFFFFFFFFFFFFFFFFFFFFFFFFFFFFFFFFFFFFFFFFFFFFFFFFFFF
310
FFFFFFFFFFFFFFFFFFFFFFFFFFFFFFFFFFFFFFFFFFFFFFFFFFFFFFFFFFFFFFFF
310
FFFFFFFFFFFFFFFFFFFFFFFFFFFFFFFFFFFFFFFFFFFFFFFFFFFFFFFFFFFFFFFF
310
FFFFFFFFFFFFFFFFFFFFFFFFFFFFFFFFFFFFFFFFFFFFFFFFFFFFFFFFFFFFFFFF
310
FFFFFFFFFFFFFFFFFFFFFFFFFFFFFFFFFFFFFFFFFFFFFFFFFFFFFFFFFFFFFFFF
310
FFFFFFFFFFFFFFFFFFFFFFFFFFFFFFFFFFFFFFFFFFFFFFFFFFFFFFFFFFFFFFFF
310
FFFFFFFFFFFFFFFFFFFFFFFFFFFFFFFFFFFFFFFFFFFFFFFFFFFFFFFFFFFFFFFF
310
FFFFFFFFFFFFFFFFFFFFFFFFFFFFFFFFFFFFFFFFFFFFFFFFFFFFFFFFFFFFFFFF
310
FFFFFFFFFFFFFFFFFFFFFFFFFFFFFFFFFFFFFFFFFFFFFFFFFFFFFFFFFFFFFFFF
310
FFFFFFFFFFFFFFFFFFFFFFFFFFFFFFFFFFFFFFFFFFFFFFFFFFFFFFFFFFFFFFFF
310
FFFFFFFFFFFFFFFFFFFFFFFFFFFFFFFFFFFFFFFFFFFFFFFFFFFFFFFFFFFFFFFF
310
0100000200000000000000000000000000000000000000000000000000000000
310
0000000000000000000000000000000000000000000000000000000000000000
310
0100FEFF030A0000FFFFFFFF0A00030000000000C00000000000004607000000
310
5042727573680007000000504272757368000700000050427275736800F439B2
310
7100000000000000000000000000000000000000000000000000000000000000
310
0000000000000000000000000000000000000000000000000000000000000000
310
0000000000000000000000000000000000000000000000000000000000000000
310
0000000000000000000000000000000000000000000000000000000000000000
310
0000000000000000000000000000000000000000000000000000000000000000
310
0000000000000000000000000000000000000000000000000000000000000000
310
0000000000000000000000000000000000000000000000000000000000000000
310
0000000000000000000000000000000000000000000000000000000000000000
310
0000000000000000000000000000000000000000000000000000000000000000
310
0000000000000000000000000000000000000000000000000000000000000000
310
0000000000000000000000000000000000000000000000000000000000000000
310
0000000000000000000000000000000000000000000000000000000000000000
310
20260000424D0E260000000000003E00000028000000B40200006E0000000100
310
01000000000000000000130B0000130B00000200000002000000000000FFFFFF
310
FFFFFFFFFFFFFFFFFFFFFFFFFFFFFFFFFFFFFFFFFFFFFFFFFFFFFFFFFFFFFFFF
310
FFFFFFFFFFFFFFFFFFFFFFFFFFFFFFFFFFFFFFFFFFFFFFFFFFFFFFFFFFFFFFFF
310
FFFFFFFFFFFFFFFFFFFFFFFFFFFFFFFFFFFFFFFFFFFFFFFFF000FFFFFFFFFFFF
310
FFFFFFFFFFFFFFFFFFFFFFFFFFFFFFFFFFFFFFFFFFFFFFFFFFFFFFFFFFFFFFFF
310
FFFFFFFFFFFFFFFFFFFFFFFFFFFFFFFFFFFFFFFFFFFFFFFFFFFFFFFFFFFFFFFF
310
FFFFFFFFFFFFFFFFFFFFFFFFFFFFFFFFF000FFFFFFFFFFFFFFFFFFFFFFFFFFFF
310
FFFFFFFFFFFFFFFFFFFFFFFFFFFFFFFFFFFFFFFFFFFFFFFFFFFFFFFFFFFFFFFF
310
FFFFFFFFFFFFFFFFFFFFFFFFFFFFFFFFFFFFFFFFFFFFFFFFFFFFFFFFFFFFFFFF
310
FFFFFFFFFFFFFFFFF000FFFFFFFFFFFFFFFFFFFFFFFFFFFFFFFFFFFFFFFFFFFF
310
FFFFFFFFFFFFFFFFFFFFFFFFFFFFFFFFFFFFFFFFFFFFFFFFFFFFFFFFFFFFFFFF
310
FFFFFFFFFFFFFFFFFFFFFFFFFFFFFFFFFFFFFFFFFFFFFFFFFFFFFFFFFFFFFFFF
310
F000FFFFFFFFFFFFFFFFFFFFFFFFFFFFFFFFFFFFFFFFFFFFFFFFFFFFFFFFFFFF
310
FFFFFFFFFFFFFFFFFFFFFFFFFFFFFFFFFFFFFFFFFFFFFFFFFFFFFFFFFFFFFFFF
310
FFFFFFFFFFFFFFFFFFFFFFFFFFFFFFFFFFFFFFFFFFFFFFFFF000FFFFFFFFFFFF
310
FFFFFFFFFFFFFFFFFFFFFFFFFFFFFFFFFFFFFFFFFFFFFFFFFFFFFFFFFFFFFFFF
310
FFFFFFFFFFFFFFFFFFFFFFFFFFFFFFFFFFFFFFFFFFFFFFFFFFFFFFFFFFFFFFFF
310
FFFFFFFFFFFFFFFFFFFFFFFFFFFFFFFFF000FFFFFFFFFFFFFFFFFFFFFFFFFFFF
310
FFFFFFFFFFFFFFFFFFFFFFFFFFFFFFFFFFFFFFFFFFFFFFFFFFFFFFFFFFFFFFFF
310
FFFFFFFFFFFFFFFFFFFFFFFFFFFFFFFFFFFFFFFFFFFFFFFFFFFFFFFFFFFFFFFF
310
FFFFFFFFFFFFFFFFF000FFFFFFFFFFFFFFFFFFFFFFFFFFFFFFFFFFFFFFFFFFFF
310
FFFFFFFFFFFFFFFFFFFFFFFFFFFFFFFFFFFFFFFFFFFFFFFFFFFFFFFFFFFFFFFF
310
FFFFFFFFFFFFFFFFFFFFFFFFFFFFFFFFFFFFFFFFFFFFFFFFFFFFFFFFFFFFFFFF
310
F000FFFFFFFFFFFFFFFFFFFFFFFFFFFFFFFFFFFFFFFFFFFFFFFFFFFFFFFFFFFF
310
FFFFFFFFFFFFFFFFFFFFFFFFFFFFFFFFFFFFFFFFFFFFFFFFFFFFFFFFFFFFFFFF
310
FFFFFFFFFFFFFFFFFFFFFFFFFFFFFFFFFFFFFFFFFFFFFFFFF000FFFFFFFFFFFF
310
FFFFFFFFFFFFFFFFFFFFFFFFFFFFFFFFFFFFFFFFFFFFFFFFFFFFFFFFFFFFFFFF
310
FFFFFFFFFFFFFFFFFFFFFFFFFFFFFFFFFFFFFFFFFFFFFFFFFFFFFFFFFFFFFFFF
310
FFFFFFFFFFFFFFFFFFFFFFFFFFFFFFFFF000FFFFFFFFFFFFFFFFFFFFFFFFFFFF
310
FFFFFFFFFFFFFFFFFFFFFFFFFFFFFFFFFFFFFFFFFFFFFFFFFFFFFFFFFFFFFFFF
310
FFFFFFFFFFFFFFFFFFFFFFFFFFFFFFFFFFFFFFFFFFFFFFFFFFFFFFFFFFFFFFFF
310
FFFFFFFFFFFFFFFFF000FFFFFFFFFFFFFFFFFFFFFFFFFFFFFFFFFFFFFFFFFFFF
310
FFFFFFFFFFFFFFFFFFFFFFFFFFFFFFFFFFFFFFFFFFFFFFFFFFFFFFFFFFFFFFFF
310
FFFFFFFFFFFFFFFFFFFFFFFFFFFFFFFFFFFFFFFFFFFFFFFFFFFFFFFFFFFFFFFF
310
F000FFFFFFFFFFFFFFFFFFFFFFFFFFFFFFFFFFFFFFFFFFFFFFFFFFFFFFFFFFFF
310
FFFFFFFFFFFFFFFFFFFFFFFFFFFFFFFFFFFFFFFFFFFFFFFFFFFFFFFFFFFFFFFF
310
FFFFFFFFFFFFFFFFFFFFFFFFFFFFFFFFFFFFFFFFFFFFFFFFF000FFFFFFFFFFFF
310
FFFFFFFFFFFFFFFFFFFFFFFFFFFFFFFFFFFFFFFFFFFFFFFFFFFFFFFFFFFFFFFF
310
FFFFFFFFFFFFFFFFFFFFFFFFFFFFFFFFFFFFFFFFFFFFFFFFFFFFFFFFFFFFFFFF
310
FFFFFFFFFFFFFFFFFFFFFFFFFFFFFFFFF000FFFFFFFFFFFFFFFFFFFFFFFFFFFF
310
FFFFFFFFFFFFFFFFFFFFFFFFFFFFFFFFFFFFFFFFFFFFFFFFFFFFFFFFFFFFFFFF
310
FFFFFFFFFFFFFFFFFFFFFFFFFFFFFFFFFFFFFFFFFFFFFFFFFFFFFFFFFFFFFFFF
310
FFFFFFFFFFFFFFFFF000FFFFFFFFFFFFFFFFFFFFFFFFFFFFFFFFFFFFFFFFFFFF
310
FFFFFFFFFFFFFFFFFFFFFFFFFFFFFFFFFFFFFFFFFFFFFFFFFFFFFFFFFFFFFFFF
310
FFFFFFFFFFFFFFFFFFFFFFFFFFFFFFFFFFFFFFFFFFFFFFFFFFFFFFFFFFFFFFFF
310
F000FFFFFFFFFFFFFFFFFFFFFFFFFFFFFFFFFFFFFFFFFFFFFFFFFFFFFFFFFFFF
310
FFFFFFFFFFFFFFFFFFFFFFFFFFFFFFFFFFFFFFFFFFFFFFFFFFFFFFFFFFFFFFFF
310
FFFFFFFFFFFFFFFFFFFFFFFFFFFFFFFFFFFFFFFFFFFFFFFFF000FFFFFFFFFFFF
310
FFFFFFFFFFFFFFFFFFFFFFFFFFFFFFFFFFFFFFFFFFFFFFFFFFFFFFFFFFFFFFFF
310
FFFFFFFFFFFFFFFFFFFFFFFFFFFFFFFFFFFFFFFFFFFFFFFFFFFFFFFFFFFFFFFF
310
FFFFFFFFFFFFFFFFFFFFFFFFFFFFFFFFF000FFFFFFFFFFFFFFFFFFFFFFFFFFFF
310
FFFFFFFFFFFFFFFFFFFFFFFFFFFFFFFFFFFFFFFFFFFFFFFFFFFFFFFFFFFFFFFF
310
FFFFFFFFFFFFFFFFFFFFFFFFFFFFFFFFFFFFFFFFFFFFFFFFFFFFFFFFFFFFFFFF
310
FFFFFFFFFFFFFFFFF000FFFFF80003FFFFFFFFFFFFFFFFFFFFFFFFFFFFFFFFFF
310
FFFFF00007FFFFFFFFFF00007FFFFFF800000000000000007FFFFFFFFFFFFFFF
310
FFFFFFFC001FFFFFFFFFFFFFFC001FFFFFFFFFFFFFFFFFFFFFFFFFFE0007FFFF
310
F000FFFF8000007FFFFFFFF8000FFFFFC0007FFFFF80007FFFFF0000007FFFFF
310
FFF8000007FFFFF800000000000000007FFFFFF0001FFFFFFFFFFFC00001FFFF
310
FFFFFFFFC00001FFFFFFFF000000000003FFFFE000007FFFF000FFFE0000000F
310
FFFFFFF0000FFFFF80007FFFFF80007FFFFC0000001FFFFFFFC0000001FFFFF8
310
00000000000000007FFFFFF0001FFFFFFFFFFE0000003FFFFFFFFFFE0000003F
310
FFFFFF000000000003FFFF0000000FFFF000FFF800000003FFFFFFF00007FFFF
310
80007FFFFF80007FFFF000000007FFFFFF000000003FFFF80000000000000000
310
7FFFFFF0001FFFFFFFFFF80000000FFFFFFFFFF80000000FFFFFFF0000000000
310
03FFFC00000003FFF000FFE000000000FFFFFFF00007FFFF80003FFFFF80007F
310
FFC000000001FFFFFC000000001FFFF800000000000000007FFFFFF0001FFFFF
310
FFFFE000000003FFFFFFFFE000000003FFFFFF000000000003FFF000000000FF
310
F000FF80000000007FFFFFF00007FFFF80003FFFFF80007FFF8000000000FFFF
310
F80000000007FFF800000000000000007FFFFFF0001FFFFFFFFFC000000001FF
310
FFFFFFC000000001FFFFFF000000000003FFC0000000007FF000FF0000000000
310
3FFFFFE00007FFFF00003FFFFF80007FFE00000000003FFFF00000000003FFF8
310
00000000000000007FFFFFF0001FFFFFFFFF8000000000FFFFFFFF8000000000
310
FFFFFF000000000003FF80000000003FF000FE00000000001FFFFFE00003FFFF
310
00003FFFFF80007FFC00000000001FFFE00000000001FFF8000001FFFE000000
310
7FFFFFF0001FFFFFFFFE00000000003FFFFFFE00000000003FFFFF0000000000
310
03FF00000000001FF000FC00000000000FFFFFE00003FFFF00001FFFFF80007F
310
F800000000001FFFC00000000000FFF8000001FFFE0000007FFFFFF0001FFFFF
310
FFFC00000000001FFFFFFC00000000001FFFFF000000000003FE00000000000F
310
F000F8000000000007FFFFE00003FFFF00001FFFFF80007FF800000000000FFF
310
800000000000FFF8000001FFFE0000007FFFFFF0001FFFFFFFF800000000000F
310
FFFFF800000000000FFFFF000000000003FC000000000007F000F80000000000
310
03FFFFC00003FFFE00001FFFFF80007FF0000000000007FF0000000000007FF8
310
000001FFFE0000007FFFFFF0001FFFFFFFF0000000000007FFFFF00000000000
310
07FFFF000000000003F8000000000003F000F0000000000003FFFFC00001FFFE
310
00001FFFFF80007FE0000000000007FE0000000000003FF8000001FFFE000000
310
7FFFFFF0001FFFFFFFF0000000000007FFFFF0000000000007FFFF0000000000
310
03F800001F800003F000E00001FFF00001FFFFC00001FFFE00000FFFFF80007F
310
E00001FFE00003FE00001FFF00003FF8000001FFFE0000007FFFFFF0001FFFFF
310
FFE000003E000003FFFFE000003E000003FFFF000000000003F00001FFF80001
310
F000E00007FFFC0001FFFFC00001FFFE00000FFFFF80007FC0000FFFFC0003FC
310
0000FFFFC0001FF8000001FFFE0000007FFFFFF0001FFFFFFFC00003FFE00001
310
FFFFC00003FFE00001FFFF0001FFFFFFFFF00007FFFE0001F000E0000FFFFF00
310
00FFFF800001FFFC00000FFFFF80007FC0001FFFFE0001FC0001FFFFE0001FF8
310
000001FFFE0000007FFFFFF0001FFFFFFF80000FFFF80000FFFF80000FFFF800
310
00FFFF0003FFFFFFFFE0000FFFFF8000F000C0003FFFFF8000FFFF800000FFFC
310
000007FFFF80007F80003FFFFF0001FC0003FFFFF0001FF8000001FFFE000000
310
7FFFFFF0001FFFFFFF80003FFFFE0000FFFF80003FFFFE0000FFFF0003FFFFFF
310
FFE0003FFFFF8000F000C0003FFFFF8000FFFF800000FFFC000007FFFF80007F
310
80007FFFFF8001F80007FFFFF8000FF8000001FFFE0000007FFFFFF0001FFFFF
310
FF00007FFFFF00007FFF00007FFFFF00007FFF0003FFFFFFFFE0003FFFFFC000
310
F000C0007FFFFFC000FFFF000000FFFC000007FFFF80007F8000FFFFFF8000F8
310
000FFFFFF8000FF8000001FFFE0000007FFFFFF0001FFFFFFF0000FFFFFF8000
310
7FFF0000FFFFFF80007FFF0003FFFFFFFFC0007FFFFFC00070008000FFFFFFC0
310
00FFFF000000FFF8000007FFFF80007F8000FFFFFF8000F8000FFFFFF8000FF8
310
000001FFFE0000007FFFFFF0001FFFFFFE0001FFFFFFC0003FFE0001FFFFFFC0
310
003FFF0003FFFFFFFFC0007FFFFFE00070008000FFFFFFC0007FFF0000007FF8
310
000003FFFF80007F0001FFFFFF8000F8000FFFFFF8000FF8000001FFFE000000
310
7FFFFFF0001FFFFFFE0001FFFFFFC0003FFE0001FFFFFFC0003FFF0003FFFFFF
310
FFC000FFFFFFE00070008000FFFFFFC0007FFF0000007FF8000003FFFF80007F
310
0001FFFFFF8000F8001FFFFFF8000FF8000001FFFE0000007FFFFFF0001FFFFF
310
FE0003FFFFFFE0003FFE0003FFFFFFE0003FFF0003FFFFFFFFC000FFFFFFE000
310
70008000FFFFFFC0007FFE0000007FF8000003FFFF80007F0001FFFFFF8000F0
310
001FFFFFF8000FF8000001FFFE0000007FFFFFF0001FFFFFFC0003FFFFFFE000
310
1FFC0003FFFFFFE0001FFF0003FFFFFFFFC000FFFFFFC00070008000FFFFFF80
310
007FFE0000007FF0000003FFFF80007F0001FFFFFF0000F0001FFFFFF8000FF8
310
000001FFFE0000007FFFFFF0001FFFFFFC0007FFFFFFF0001FFC0007FFFFFFF0
310
001FFF0003FFFFFFFFC000FFFFFFC00070008001FFFFFF0000FFFE0000003FF0
310
000001FFFF80007F0001FFFFFF0000F8001FFFFFF0000FF8000001FFFE000000
310
7FFFFFF0001FFFFFFC0007FFFFFFF0001FFC0007FFFFFFF0001FFF0003FFFFFF
310
FFC001FFFFFF80007000FFFFFFFFFE0000FFFE0008003FF0008001FFFF80007F
310
FFFFFFFFFC0000FFFFFFFFFFE0000FF8000001FFFE0000007FFFFFF0001FFFFF
310
F8000FFFFFFFF8000FF8000FFFFFFFF8000FFF0003FFFFFFFFFFFFFFFFFF0000
310
7000FFFFFFFFFC0000FFFC0008003FF0008001FFFF80007FFFFFFFFFF80001FF
310
FFFFFFFF80000FF8000001FFFE0000007FFFFFF0001FFFFFF8000FFFFFFFF800
310
0FF8000FFFFFFFF8000FFF0003FFFFFFFFFFFFFFFFFE0000F000FFFFFFFFE000
310
00FFFC000C003FE000C001FFFF80007FFFFFFFFFC00001FFFFFFFFFE00001FF8
310
000001FFFE0000007FFFFFF0001FFFFFF8000FFFFFFFF8000FF8000FFFFFFFF8
310
000FFF0003FFFFFFFFFFFFFFFFF00000F000FFFFFFFE000001FFFC000C001FE0
310
00C000FFFF80007FFFFFFFFE000001FFFFFFFFE000001FF80FFFFFFFFFFFFFC0
310
7FFFFFF0001FFFFFF8000FFFFFFFF8000FF8000FFFFFFFF8000FFF0003FFFFFF
310
FFFFFFFFFF800000F000FFFFFFC0000001FFFC001C001FE001C000FFFF80007F
310
FFFFFF80000003FFFFFFF80000001FF80FFFFFFFFFFFFFC07FFFFFF0001FFFFF
310
F8001FFFFFFFFC000FF8001FFFFFFFFC000FFF0003FFFFFFFFFFFFFFF0000001
310
F000FFFFF800000001FFF8001C001FE001C000FFFF80007FFFFFF800000003FF
310
FFFF800000003FF80FFFFFFFFFFFFFC07FFFFFF0001FFFFFF8001FFFFFFFFC00
310
0FF8001FFFFFFFFC000FFF0003FFFFFFFFFFFFFE00000001F000FFFFC0000000
310
03FFF8001E001FC001E000FFFF80007FFFFF8000000007FFFFFC000000003FF8
310
0FFFFFFFFFFFFFC07FFFFFF0001FFFFFF8001FFFFFFFFC000FF8001FFFFFFFFC
310
000FFF0003FFFFFFFFFFFFE000000003F000FFFE0000000007FFF8001E000FC0
310
01E0007FFF80007FFFFE0000000007FFFFE0000000007FF80FFFFFFFFFFFFFC0
310
7FFFFFF0001FFFFFF0001FFFFFFFFC0007F0001FFFFFFFFC0007FF0003FFFFFF
310
FFFFFF0000000003F000FFF80000000007FFF8001E000FC003E0007FFF80007F
310
FFF0000000000FFFFF8000000000FFF80FFFFFFFFFFFFFC07FFFFFF0001FFFFF
310
F0001FFFFFFFFC0007F0001FFFFFFFFC0007FF0003FFFFFFFFFFFC0000000007
310
F000FFE0000000000FFFF0003E000FC003E0007FFF80007FFFC0000000001FFF
310
FE0000000001FFF80FFFFFFFFFFFFFC07FFFFFF0001FFFFFF0001FFFFFFFFC00
310
07F0001FFFFFFFFC0007FF0003FFFFFFFFFFF0000000000FF000FFC000000000
310
1FFFF0003F000F8003F0003FFF80007FFF80000000003FFFF80000000003FFF8
310
0FFFFFFFFFFFFFC07FFFFFF0001FFFFFF0001FFFFFFFFC0007F0001FFFFFFFFC
310
0007FF0003FFFFFFFFFFE0000000001FF000FF00000000007FFFF0003F000780
310
03F0003FFF80007FFF00000000007FFFF00000000007FFF80FFFFFFFFFFFFFC0
310
7FFFFFF0001FFFFFF0001FFFFFFFFC0007F0001FFFFFFFFC0007FF0003FFFFFF
310
FFFF80000000007FF000FE0000000000FFFFE0003F00078007F0003FFF80007F
310
FE0000000001FFFFE0000000001FFFF80FFFFFFFFFFFFFC07FFFFFF0001FFFFF
310
F0001FFFFFFFFC0007F0001FFFFFFFFC0007FF0003FFFFFFFFFF0000000000FF
310
F000FC0000000003FFFFE0007F00078007F0003FFF80007FFC0000000007FFFF
310
C0000000007FFFF80FFFFFFFFFFFFFC07FFFFFF0001FFFFFF8001FFFFFFFFC00
310
0FF8001FFFFFFFFC000FFF0003FFFFFFFFFE0000000003FFF000FC000000000F
310
FFFFE0007F80070007F8001FFF80007FF8000000001FFFFF8000000001FFFFF8
310
0FFFFFFFFFFFFFC07FFFFFF0001FFFFFF8001FFFFFFFFC000FF8001FFFFFFFFC
310
000FFF0003FFFFFFFFFC000000000FFFF000F8000000007FFFFFE0007F800700
310
07F8001FFF80007FF000000000FFFFFF800000000FFFFFF80FFFFFFFFFFFFFC0
310
7FFFFFF0001FFFFFF8000FFFFFFFF8000FF8000FFFFFFFF8000FFF0003FFFFFF
310
FFFC000000007FFFF000F800000007FFFFFFC0007F8003000FF8001FFF80007F
310
F000000007FFFFFF000000007FFFFFF80FFFFFFFFFFFFFC07FFFFFF0001FFFFF
310
F8000FFFFFFFF8000FF8000FFFFFFFF8000FFF0003FFFFFFFFF80000000FFFFF
310
F000F0000000FFFFFFFFC000FF8003000FF8001FFF80007FE0000000FFFFFFFF
310
0000000FFFFFFFF8000001FFFE0000007FFFFFF0001FFFFFF8000FFFFFFFF800
310
0FF8000FFFFFFFF8000FFF0003FFFFFFFFF8000000FFFFFFF000F000000FFFFF
310
FFFFC000FFC002000FF8000FFF80007FE000001FFFFFFFFE000001FFFFFFFFF8
310
000001FFFE0000007FFFFFF0001FFFFFF8000FFFFFFFF8000FF8000FFFFFFFF8
310
000FFF0003FFFFFFFFF000001FFFFFFFF000E00000FFFFFFFFFFC000FFC00200
310
0FFC000FFF80007FE00001FFFFFFFFFE00001FFFFFFFFFF8000001FFFE000000
310
7FFFFFF0001FFFFFFC000FFFFFFFF8001FFC000FFFFFFFF8001FFF0003FFFFFF
310
FFF00001FFFFFFFFF000E00007FFFFFFFFFF8000FFC000001FFC000FFF80007F
310
C0000FFFFFFFFFFE0000FFFFFFFFFFF8000001FFFE0000007FFFFFF0001FFFFF
310
FC0007FFFFFFF0001FFC0007FFFFFFF0001FFF0003FFFFFFFFF00007FFFFFFFF
310
F000E0001FFFFFFFFFFF8000FFC000001FFC000FFF80007FC0003FFFFFFFFFFE
310
0001FFFFFFFFFFF8000001FFFE0000007FFFFFF0001FFFFFFC0007FFFFFFF000
310
1FFC0007FFFFFFF0001FFF0003FFFFFFFFF0001FFFFFFFFFF000E0003FFFFF00
310
03FF8001FFE000001FFC0007FF80007FC0007FFFFF0007FC0003FFFFF0003FF8
310
000001FFFE0000007FFFFFF0001FFFFFFC0003FFFFFFE0001FFC0003FFFFFFE0
310
001FFF0003FFFFFFFFF0003FFFFFFFFFF000E0003FFFFF0001FF8001FFE00000
310
1FFE0007FF80007FC0007FFFFE0003FC0007FFFFE0003FF8000001FFFE000000
310
7FFFFFF0001FFFFFFE0003FFFFFFE0003FFE0003FFFFFFE0003FFF0003FFFFFF
310
FFF0003FFFFF8001F000E0003FFFFF0001FF0001FFE000001FFE0007FF80007F
310
C0007FFFFE0003FC0007FFFFE0003FF8000001FFFE0000007FFFFFF0001FFFFF
310
FE0001FFFFFFC0003FFE0001FFFFFFC0003FFF0003FFFFFFFFF0003FFFFF0001
310
F000E0003FFFFF0003FF0001FFE000003FFE0007FF80007FC0007FFFFE0003FC
310
0007FFFFE0003FF8000001FFFE0000007FFFFFF0001FFFFFFF0001FFFFFFC000
310
7FFF0001FFFFFFC0007FFF0003FFFFFFFFF0003FFFFF0001F000E0003FFFFE00
310
03FF0003FFF000003FFE0003FF80007FC0007FFFFC0003FE0007FFFFE0003FF8
310
000001FFFE0000007FFFFFF0001FFFFFFF0000FFFFFF80007FFF0000FFFFFF80
310
007FFF0003FFFFFFFFF0003FFFFF0001F000E0003FFFFE0003FF0003FFF00000
310
3FFF0003FF80007FC0007FFFFC0007FE0007FFFFC0003FF8000001FFFE000000
310
7FFFFFF0001FFFFFFF80007FFFFF0000FFFF80007FFFFF0000FFFF0003FFFFFF
310
FFF0003FFFFF0003F000E0003FFFFC0003FE0003FFF000003FFF0003FF80007F
310
E0003FFFF80007FE0003FFFFC0007FF8000001FFFE0000007FFFFFF0001FFFFF
310
FF80003FFFFE0000FFFF80003FFFFE0000FFFF0003FFFFFFFFF0001FFFFE0003
310
F000F0001FFFF80003FE0003FFF000007FFF0001FF80007FE0003FFFF00007FE
310
0001FFFF80007FF8000001FFFE0000007FFFFFF0001FFFFFFFC0000FFFF80001
310
FFFFC0000FFFF80001FFFF0003FFFFFFFFF0001FFFFC0003F000F0000FFFF000
310
07FE0007FFF800007FFF0001FF80007FE0001FFFE00007FF0000FFFE00007FF8
310
000001FFFE0000007FFFFFF0001FFFFFFFC00003FFE00001FFFFC00003FFE000
310
01FFFF0003FFFFFFFFF8000FFFF80003F000F00003FFC00007FC0007FFF80000
310
7FFF8001FF80007FF00007FF80000FFF00007FF80000FFF8000001FFFE000000
310
7F80000000000001FFE000003E000003FFFFE000003E000003FFFF0003FFFFFF
310
FFF80003FFE00007F000F800000000000FFC0007FFF800007FFF8001FF80007F
310
F000000000000FFF000000000000FFF8000001FFFE0000007F80000000000001
310
FFF0000000000007FFFFF0000000000007FFFF0003FFFFFFFFFC00007E000007
310
F000F800000000000FFC0007FFF80000FFFF8000FF80007FF800000000001FFF
310
800000000001FFF8000001FFFE0000007F80000000000001FFF800000000000F
310
FFFFF800000000000FFFFF0003FFFFFFFFFC00000000000FF000FC0000000000
310
1FFC0007FFFC0000FFFF8000FF80007FF800000000003FFFC00000000001FFF8
310
000001FFFE0000007F80000000000001FFF800000000000FFFFFF80000000000
310
0FFFFF0003FFFFFFFFFE00000000001FF000FE00000000003FF8000FFFFC0000
310
FFFF8000FF80007FFC00000000003FFFC00000000003FFF8000001FFFE000000
310
7F80000000000001FFFC00000000001FFFFFFC00000000001FFFFF0003FFFFFF
310
FFFF00000000001FF000FF00000000003FF8000FFFFC0000FFFFC000FF80007F
310
FE00000000007FFFE00000000007FFF8000001FFFE0000007F80000000000001
310
FFFE00000000003FFFFFFE00000000003FFFFF0003FFFFFFFFFF80000000003F
310
F000FF80000000007FF8000FFFFC0001FFFFC0007F80007FFF0000000000FFFF
310
F0000000000FFFF800000000000000007F80000000000001FFFF8000000000FF
310
FFFFFF8000000000FFFFFF0003FFFFFFFFFFC0000000007FF000FFC000000000
310
FFF8000FFFFE0001FFFFC0007F80007FFF8000000001FFFFF8000000001FFFF8
310
00000000000000007F80000000000001FFFFC000000001FFFFFFFFC000000001
310
FFFFFF0003FFFFFFFFFFE000000000FFF000FFE000000003FFF0001FFFFE0001
310
FFFFC0007F80007FFFC000000007FFFFFE000000003FFFF80000000000000000
310
7F80000000000001FFFFE000000003FFFFFFFFE000000003FFFFFF0003FFFFFF
310
FFFFF000000003FFF000FFF80000000FFFF0001FFFFE0001FFFFE0007F80007F
310
FFF00000000FFFFFFF00000000FFFFF800000000000000007F80000000000001
310
FFFFF80000000FFFFFFFFFF80000000FFFFFFF0003FFFFFFFFFFFC0000000FFF
310
F000FFFE0000003FFFF0001FFFFE0003FFFFE0003F80007FFFFC0000003FFFFF
310
FFC0000003FFFFF800000000000000007F80000000000001FFFFFE0000003FFF
310
FFFFFFFE0000003FFFFFFF0003FFFFFFFFFFFF0000003FFFF000FFFF800000FF
310
FFF0001FFFFF0003FFFFE0003F80007FFFFF000001FFFFFFFFF800001FFFFFF8
310
00000000000000007F80000000000001FFFFFFC00001FFFFFFFFFFFFC00001FF
310
FFFFFF0003FFFFFFFFFFFFC00000FFFFF000FFFFF8000FFFFFFFFFFFFFFFFFFF
310
FFFFFFFFFFFFFFFFFFFFF0001FFFFFFFFFFF0000FFFFFFF80000000000000000
310
7FFFFFFFFFFFFFFFFFFFFFFC001FFFFFFFFFFFFFFC001FFFFFFFFFFFFFFFFFFF
310
FFFFFFFC001FFFFFF000FFFFFFFFFFFFFFFFFFFFFFFFFFFFFFFFFFFFFFFFFFFF
310
FFFFFFFFFFFFFFFFFFFFFFFFFFFFFFFFFFFFFFFFFFFFFFFFFFFFFFFFFFFFFFFF
310
FFFFFFFFFFFFFFFFFFFFFFFFFFFFFFFFFFFFFFFFFFFFFFFFFFFFFFFFFFFFFFFF
310
F000FFFFFFFFFFFFFFFFFFFFFFFFFFFFFFFFFFFFFFFFFFFFFFFFFFFFFFFFFFFF
310
FFFFFFFFFFFFFFFFFFFFFFFFFFFFFFFFFFFFFFFFFFFFFFFFFFFFFFFFFFFFFFFF
310
FFFFFFFFFFFFFFFFFFFFFFFFFFFFFFFFFFFFFFFFFFFFFFFFF000FFFFFFFFFFFF
310
FFFFFFFFFFFFFFFFFFFFFFFFFFFFFFFFFFFFFFFFFFFFFFFFFFFFFFFFFFFFFFFF
310
FFFFFFFFFFFFFFFFFFFFFFFFFFFFFFFFFFFFFFFFFFFFFFFFFFFFFFFFFFFFFFFF
310
FFFFFFFFFFFFFFFFFFFFFFFFFFFFFFFFF000FFFFFFFFFFFFFFFFFFFFFFFFFFFF
310
FFFFFFFFFFFFFFFFFFFFFFFFFFFFFFFFFFFFFFFFFFFFFFFFFFFFFFFFFFFFFFFF
310
FFFFFFFFFFFFFFFFFFFFFFFFFFFFFFFFFFFFFFFFFFFFFFFFFFFFFFFFFFFFFFFF
310
FFFFFFFFFFFFFFFFF000FFFFFFFFFFFFFFFFFFFFFFFFFFFFFFFFFFFFFFFFFFFF
310
FFFFFFFFFFFFFFFFFFFFFFFFFFFFFFFFFFFFFFFFFFFFFFFFFFFFFFFFFFFFFFFF
310
FFFFFFFFFFFFFFFFFFFFFFFFFFFFFFFFFFFFFFFFFFFFFFFFFFFFFFFFFFFFFFFF
310
F000FFFFFFFFFFFFFFFFFFFFFFFFFFFFFFFFFFFFFFFFFFFFFFFFFFFFFFFFFFFF
310
FFFFFFFFFFFFFFFFFFFFFFFFFFFFFFFFFFFFFFFFFFFFFFFFFFFFFFFFFFFFFFFF
310
FFFFFFFFFFFFFFFFFFFFFFFFFFFFFFFFFFFFFFFFFFFFFFFFF000FFFFFFFFFFFF
310
FFFFFFFFFFFFFFFFFFFFFFFFFFFFFFFFFFFFFFFFFFFFFFFFFFFFFFFFFFFFFFFF
310
FFFFFFFFFFFFFFFFFFFFFFFFFFFFFFFFFFFFFFFFFFFFFFFFFFFFFFFFFFFFFFFF
310
FFFFFFFFFFFFFFFFFFFFFFFFFFFFFFFFF000FFFFFFFFFFFFFFFFFFFFFFFFFFFF
310
FFFFFFFFFFFFFFFFFFFFFFFFFFFFFFFFFFFFFFFFFFFFFFFFFFFFFFFFFFFFFFFF
310
FFFFFFFFFFFFFFFFFFFFFFFFFFFFFFFFFFFFFFFFFFFFFFFFFFFFFFFFFFFFFFFF
310
FFFFFFFFFFFFFFFFF000FFFFFFFFFFFFFFFFFFFFFFFFFFFFFFFFFFFFFFFFFFFF
310
FFFFFFFFFFFFFFFFFFFFFFFFFFFFFFFFFFFFFFFFFFFFFFFFFFFFFFFFFFFFFFFF
310
FFFFFFFFFFFFFFFFFFFFFFFFFFFFFFFFFFFFFFFFFFFFFFFFFFFFFFFFFFFFFFFF
310
F000FFFFFFFFFFFFFFFFFFFFFFFFFFFFFFFFFFFFFFFFFFFFFFFFFFFFFFFFFFFF
310
FFFFFFFFFFFFFFFFFFFFFFFFFFFFFFFFFFFFFFFFFFFFFFFFFFFFFFFFFFFFFFFF
310
FFFFFFFFFFFFFFFFFFFFFFFFFFFFFFFFFFFFFFFFFFFFFFFFF000FFFFFFFFFFFF
310
FFFFFFFFFFFFFFFFFFFFFFFFFFFFFFFFFFFFFFFFFFFFFFFFFFFFFFFFFFFFFFFF
310
FFFFFFFFFFFFFFFFFFFFFFFFFFFFFFFFFFFFFFFFFFFFFFFFFFFFFFFFFFFFFFFF
310
FFFFFFFFFFFFFFFFFFFFFFFFFFFFFFFFF000FFFFFFFFFFFFFFFFFFFFFFFFFFFF
310
FFFFFFFFFFFFFFFFFFFFFFFFFFFFFFFFFFFFFFFFFFFFFFFFFFFFFFFFFFFFFFFF
310
FFFFFFFFFFFFFFFFFFFFFFFFFFFFFFFFFFFFFFFFFFFFFFFFFFFFFFFFFFFFFFFF
310
FFFFFFFFFFFFFFFFF000FFFFFFFFFFFFFFFFFFFFFFFFFFFFFFFFFFFFFFFFFFFF
310
FFFFFFFFFFFFFFFFFFFFFFFFFFFFFFFFFFFFFFFFFFFFFFFFFFFFFFFFFFFFFFFF
310
FFFFFFFFFFFFFFFFFFFFFFFFFFFFFFFFFFFFFFFFFFFFFFFFFFFFFFFFFFFFFFFF
310
F000FFFFFFFFFFFFFFFFFFFFFFFFFFFFFFFFFFFFFFFFFFFFFFFFFFFFFFFFFFFF
310
FFFFFFFFFFFFFFFFFFFFFFFFFFFFFFFFFFFFFFFFFFFFFFFFFFFFFFFFFFFFFFFF
310
FFFFFFFFFFFFFFFFFFFFFFFFFFFFFFFFFFFFFFFFFFFFFFFFF000FFFFFFFFFFFF
310
FFFFFFFFFFFFFFFFFFFFFFFFFFFFFFFFFFFFFFFFFFFFFFFFFFFFFFFFFFFFFFFF
310
FFFFFFFFFFFFFFFFFFFFFFFFFFFFFFFFFFFFFFFFFFFFFFFFFFFFFFFFFFFFFFFF
310
FFFFFFFFFFFFFFFFFFFFFFFFFFFFFFFFF000FFFFFFFFFFFFFFFFFFFFFFFFFFFF
310
FFFFFFFFFFFFFFFFFFFFFFFFFFFFFFFFFFFFFFFFFFFFFFFFFFFFFFFFFFFFFFFF
310
FFFFFFFFFFFFFFFFFFFFFFFFFFFFFFFFFFFFFFFFFFFFFFFFFFFFFFFFFFFFFFFF
310
FFFFFFFFFFFFFFFFF000FFFFFFFFFFFFFFFFFFFFFFFFFFFFFFFFFFFFFFFFFFFF
310
FFFFFFFFFFFFFFFFFFFFFFFFFFFFFFFFFFFFFFFFFFFFFFFFFFFFFFFFFFFFFFFF
310
FFFFFFFFFFFFFFFFFFFFFFFFFFFFFFFFFFFFFFFFFFFFFFFFFFFFFFFFFFFFFFFF
310
F000FFFFFFFFFFFFFFFFFFFFFFFFFFFFFFFFFFFFFFFFFFFFFFFFFFFFFFFFFFFF
310
FFFFFFFFFFFFFFFFFFFFFFFFFFFFFFFFFFFFFFFFFFFFFFFFFFFFFFFFFFFFFFFF
310
FFFFFFFFFFFFFFFFFFFFFFFFFFFFFFFFFFFFFFFFFFFFFFFFF000FFFFFFFFFFFF
310
FFFFFFFFFFFFFFFFFFFFFFFFFFFFFFFFFFFFFFFFFFFFFFFFFFFFFFFFFFFFFFFF
310
FFFFFFFFFFFFFFFFFFFFFFFFFFFFFFFFFFFFFFFFFFFFFFFFFFFFFFFFFFFFFFFF
310
FFFFFFFFFFFFFFFFFFFFFFFFFFFFFFFFF000FFFFFFFFFFFFFFFFFFFFFFFFFFFF
310
FFFFFFFFFFFFFFFFFFFFFFFFFFFFFFFFFFFFFFFFFFFFFFFFFFFFFFFFFFFFFFFF
310
FFFFFFFFFFFFFFFFFFFFFFFFFFFFFFFFFFFFFFFFFFFFFFFFFFFFFFFFFFFFFFFF
310
FFFFFFFFFFFFFFFFF000FFFFFFFFFFFFFFFFFFFFFFFFFFFFFFFFFFFFFFFFFFFF
310
FFFFFFFFFFFFFFFFFFFFFFFFFFFFFFFFFFFFFFFFFFFFFFFFFFFFFFFFFFFFFFFF
310
FFFFFFFFFFFFFFFFFFFFFFFFFFFFFFFFFFFFFFFFFFFFFFFFFFFFFFFFFFFFFFFF
310
F000FFFFFFFFFFFFFFFFFFFFFFFFFFFFFFFFFFFFFFFFFFFFFFFFFFFFFFFFFFFF
310
FFFFFFFFFFFFFFFFFFFFFFFFFFFFFFFFFFFFFFFFFFFFFFFFFFFFFFFFFFFFFFFF
310
FFFFFFFFFFFFFFFFFFFFFFFFFFFFFFFFFFFFFFFFFFFFFFFFF000FFFFFFFFFFFF
310
FFFFFFFFFFFFFFFFFFFFFFFFFFFFFFFFFFFFFFFFFFFFFFFFFFFFFFFFFFFFFFFF
310
FFFFFFFFFFFFFFFFFFFFFFFFFFFFFFFFFFFFFFFFFFFFFFFFFFFFFFFFFFFFFFFF
310
FFFFFFFFFFFFFFFFFFFFFFFFFFFFFFFFF0000000000000000000000000000000
310
0000000000000000000000000000000000000000000000000000000000000000
310
0000000000000000000000000000000000000000000000000000000000000000
310
0000000000000000000000000000000000000000000000000000000000000000
310
0000000000000000000000000000000000000000000000000000000000000000
310
0000000000000000000000000000000000000000000000000000000000000000
310
0000000000000000000000000000000000000000000000000000000000000000
310
0000000000000000000000000000000000000000000000000000000000000000
310
0000000000000000000000000000000000000000000000000000000000000000
310
0000000000000000000000000000000000000000000000000000000000000000
310
0000000000000000000000000000000000000000000000000000000000000000
310
0000000000000000000000000000000000000000000000000000000000000000
310
0000000000000000000000000000000000000000000000000000000000000000
310
0000000000000000000000000000000000000000000000000000000000000000
310
0000000000000000000000000000000000000000000000000000000000000000
310
0000000000000000000000000000000000000000000000000000000000000000
  1
OLE
  0
ENDSEC
  0
SECTION
  2
OBJECTS
  0
DICTIONARY
  5
C
330
0
100
AcDbDictionary
281
     1
  3
ACAD_GROUP
350
D
  3
ACAD_LAYOUT
350
1A
  3
ACAD_MLINESTYLE
350
17
  3
ACAD_PLOTSETTINGS
350
19
  3
ACAD_PLOTSTYLENAME
350
E
  0
DICTIONARY
  5
D
102
{ACAD_REACTORS
330
C
102
}
330
C
100
AcDbDictionary
281
     1
  0
DICTIONARY
  5
1A
102
{ACAD_REACTORS
330
C
102
}
330
C
100
AcDbDictionary
281
     1
  3
Layout1
350
1E
  3
Layout2
350
26
  3
Model
350
22
  0
DICTIONARY
  5
17
102
{ACAD_REACTORS
330
C
102
}
330
C
100
AcDbDictionary
281
     1
  3
Standard
350
18
  0
DICTIONARY
  5
19
102
{ACAD_REACTORS
330
C
102
}
330
C
100
AcDbDictionary
281
     1
  0
ACDBDICTIONARYWDFLT
  5
E
102
{ACAD_REACTORS
330
C
102
}
330
C
100
AcDbDictionary
281
     1
  3
Normal
350
F
100
AcDbDictionaryWithDefault
340
F
  0
LAYOUT
  5
1E
102
{ACAD_REACTORS
330
1A
102
}
330
1A
100
AcDbPlotSettings
  1

  2
none_device
  4

  6

 40
0.0
 41
0.0
 42
0.0
 43
0.0
 44
0.0
 45
0.0
 46
0.0
 47
0.0
 48
0.0
 49
0.0
140
0.0
141
0.0
142
1.0
143
1.0
 70
   688
 72
     0
 73
     0
 74
     5
  7

 75
    16
147
1.0
148
0.0
149
0.0
100
AcDbLayout
  1
Layout1
 70
     1
 71
     1
 10
0.0
 20
0.0
 11
420.0
 21
297.0
 12
0.0
 22
0.0
 32
0.0
 14
1.0000000000E+20
 24
1.0000000000E+20
 34
1.0000000000E+20
 15
-1.0000000000E+20
 25
-1.0000000000E+20
 35
-1.0000000000E+20
146
0.0
 13
0.0
 23
0.0
 33
0.0
 16
1.0
 26
0.0
 36
0.0
 17
0.0
 27
1.0
 37
0.0
 76
     0
330
1B
  0
LAYOUT
  5
26
102
{ACAD_REACTORS
330
1A
102
}
330
1A
100
AcDbPlotSettings
  1

  2
none_device
  4

  6

 40
0.0
 41
0.0
 42
0.0
 43
0.0
 44
0.0
 45
0.0
 46
0.0
 47
0.0
 48
0.0
 49
0.0
140
0.0
141
0.0
142
1.0
143
1.0
 70
   688
 72
     0
 73
     0
 74
     5
  7

 75
    16
147
1.0
148
0.0
149
0.0
100
AcDbLayout
  1
Layout2
 70
     1
 71
     2
 10
0.0
 20
0.0
 11
0.0
 21
0.0
 12
0.0
 22
0.0
 32
0.0
 14
0.0
 24
0.0
 34
0.0
 15
0.0
 25
0.0
 35
0.0
146
0.0
 13
0.0
 23
0.0
 33
0.0
 16
1.0
 26
0.0
 36
0.0
 17
0.0
 27
1.0
 37
0.0
 76
     0
330
23
  0
LAYOUT
  5
22
102
{ACAD_REACTORS
330
1A
102
}
330
1A
100
AcDbPlotSettings
  1

  2
none_device
  4

  6

 40
0.0
 41
0.0
 42
0.0
 43
0.0
 44
0.0
 45
0.0
 46
0.0
 47
0.0
 48
0.0
 49
0.0
140
0.0
141
0.0
142
1.0
143
1.0
 70
  1712
 72
     0
 73
     0
 74
     0
  7

 75
     0
147
1.0
148
0.0
149
0.0
100
AcDbLayout
  1
Model
 70
     1
 71
     0
 10
0.0
 20
0.0
 11
297.0
 21
210.0
 12
0.0
 22
0.0
 32
0.0
 14
0.0
 24
0.0
 34
0.0
 15
297.0
 25
210.0
 35
0.0
146
0.0
 13
0.0
 23
0.0
 33
0.0
 16
1.0
 26
0.0
 36
0.0
 17
0.0
 27
1.0
 37
0.0
 76
     0
330
1F
331
29
  0
MLINESTYLE
  5
18
102
{ACAD_REACTORS
330
17
102
}
330
17
100
AcDbMlineStyle
  2
Standard
 70
     0
  3

 62
   256
 51
90.0
 52
90.0
 71
     2
 49
0.5
 62
   256
  6
BYLAYER
 49
-0.5
 62
   256
  6
BYLAYER
  0
ACDBPLACEHOLDER
  5
F
102
{ACAD_REACTORS
330
E
102
}
330
E
  0
ENDSEC
  0
EOF
