  0
SECTION
  2
HEADER
  9
$ACADVER
  1
AC1015
  9
$ACADMAINTVER
 70
     6
  9
$DWGCODEPAGE
  3
ANSI_1252
  9
$INSBASE
 10
0.0
 20
0.0
 30
0.0
  9
$EXTMIN
 10
0.0
 20
0.0
 30
0.0
  9
$EXTMAX
 10
297.0
 20
210.0
 30
0.0
  9
$LIMMIN
 10
0.0
 20
0.0
  9
$LIMMAX
 10
297.0
 20
210.0
  9
$ORTHOMODE
 70
     0
  9
$REGENMODE
 70
     1
  9
$FILLMODE
 70
     1
  9
$QTEXTMODE
 70
     0
  9
$MIRRTEXT
 70
     1
  9
$LTSCALE
 40
1.0
  9
$ATTMODE
 70
     1
  9
$TEXTSIZE
 40
2.0
  9
$TRACEWID
 40
1.0
  9
$TEXTSTYLE
  7
Standard
  9
$CLAYER
  8
0
  9
$CELTYPE
  6
ByLayer
  9
$CECOLOR
 62
   256
  9
$CELTSCALE
 40
1.0
  9
$DISPSILH
 70
     0
  9
$DIMSCALE
 40
1.0
  9
$DIMASZ
 40
3.0
  9
$DIMEXO
 40
0.0
  9
$DIMDLI
 40
3.75
  9
$DIMRND
 40
0.0
  9
$DIMDLE
 40
0.0
  9
$DIMEXE
 40
1.0
  9
$DIMTP
 40
0.0
  9
$DIMTM
 40
0.0
  9
$DIMTXT
 40
2.0
  9
$DIMCEN
 40
2.5
  9
$DIMTSZ
 40
0.0
  9
$DIMTOL
 70
     0
  9
$DIMLIM
 70
     0
  9
$DIMTIH
 70
     1
  9
$DIMTOH
 70
     1
  9
$DIMSE1
 70
     0
  9
$DIMSE2
 70
     0
  9
$DIMTAD
 70
     1
  9
$DIMZIN
 70
     0
  9
$DIMBLK
  1

  9
$DIMASO
 70
     1
  9
$DIMSHO
 70
     1
  9
$DIMPOST
  1

  9
$DIMAPOST
  1

  9
$DIMALT
 70
     0
  9
$DIMALTD
 70
     3
  9
$DIMALTF
 40
0.0393700787
  9
$DIMLFAC
 40
2.0
  9
$DIMTOFL
 70
     1
  9
$DIMTVP
 40
0.0
  9
$DIMTIX
 70
     0
  9
$DIMSOXD
 70
     0
  9
$DIMSAH
 70
     0
  9
$DIMBLK1
  1

  9
$DIMBLK2
  1

  9
$DIMSTYLE
  2
ISO-25
  9
$DIMCLRD
 70
     0
  9
$DIMCLRE
 70
     0
  9
$DIMCLRT
 70
     0
  9
$DIMTFAC
 40
1.0
  9
$DIMGAP
 40
1.524
  9
$DIMJUST
 70
     0
  9
$DIMSD1
 70
     0
  9
$DIMSD2
 70
     0
  9
$DIMTOLJ
 70
     0
  9
$DIMTZIN
 70
     0
  9
$DIMALTZ
 70
     0
  9
$DIMALTTZ
 70
     0
  9
$DIMUPT
 70
     0
  9
$DIMDEC
 70
     2
  9
$DIMTDEC
 70
     3
  9
$DIMALTU
 70
     2
  9
$DIMALTTD
 70
     3
  9
$DIMTXSTY
  7
Standard
  9
$DIMAUNIT
 70
     0
  9
$DIMADEC
 70
     2
  9
$DIMALTRND
 40
0.0
  9
$DIMAZIN
 70
     0
  9
$DIMDSEP
 70
    44
  9
$DIMATFIT
 70
     3
  9
$DIMFRAC
 70
     0
  9
$DIMLDRBLK
  1

  9
$DIMLUNIT
 70
     2
  9
$DIMLWD
 70
    -2
  9
$DIMLWE
 70
    -2
  9
$DIMTMOVE
 70
     0
  9
$LUNITS
 70
     2
  9
$LUPREC
 70
     2
  9
$SKETCHINC
 40
1.0
  9
$FILLETRAD
 40
10.0
  9
$AUNITS
 70
     0
  9
$AUPREC
 70
     2
  9
$MENU
  1
.
  9
$ELEVATION
 40
0.0
  9
$PELEVATION
 40
0.0
  9
$THICKNESS
 40
0.0
  9
$LIMCHECK
 70
     0
  9
$CHAMFERA
 40
0.0
  9
$CHAMFERB
 40
0.0
  9
$CHAMFERC
 40
0.0
  9
$CHAMFERD
 40
0.0
  9
$SKPOLY
 70
     0
  9
$TDCREATE
 40
2458166.353037639
  9
$TDUCREATE
 40
2458166.311370972
  9
$TDUPDATE
 40
2458166.353040949
  9
$TDUUPDATE
 40
2458166.311374282
  9
$TDINDWG
 40
0.0000000116
  9
$TDUSRTIMER
 40
0.0000000116
  9
$USRTIMER
 70
     1
  9
$ANGBASE
 50
0.0
  9
$ANGDIR
 70
     0
  9
$PDMODE
 70
     0
  9
$PDSIZE
 40
-1.0
  9
$PLINEWID
 40
0.0
  9
$SPLFRAME
 70
     0
  9
$SPLINETYPE
 70
     6
  9
$SPLINESEGS
 70
     8
  9
$HANDSEED
  5
2FA
  9
$SURFTAB1
 70
     6
  9
$SURFTAB2
 70
     6
  9
$SURFTYPE
 70
     6
  9
$SURFU
 70
     6
  9
$SURFV
 70
     6
  9
$UCSBASE
  2

  9
$UCSNAME
  2

  9
$UCSORG
 10
0.0
 20
0.0
 30
0.0
  9
$UCSXDIR
 10
1.0
 20
0.0
 30
0.0
  9
$UCSYDIR
 10
0.0
 20
1.0
 30
0.0
  9
$UCSORTHOREF
  2

  9
$UCSORTHOVIEW
 70
     0
  9
$UCSORGTOP
 10
0.0
 20
0.0
 30
0.0
  9
$UCSORGBOTTOM
 10
0.0
 20
0.0
 30
0.0
  9
$UCSORGLEFT
 10
0.0
 20
0.0
 30
0.0
  9
$UCSORGRIGHT
 10
0.0
 20
0.0
 30
0.0
  9
$UCSORGFRONT
 10
0.0
 20
0.0
 30
0.0
  9
$UCSORGBACK
 10
0.0
 20
0.0
 30
0.0
  9
$PUCSBASE
  2

  9
$PUCSNAME
  2

  9
$PUCSORG
 10
0.0
 20
0.0
 30
0.0
  9
$PUCSXDIR
 10
1.0
 20
0.0
 30
0.0
  9
$PUCSYDIR
 10
0.0
 20
1.0
 30
0.0
  9
$PUCSORTHOREF
  2

  9
$PUCSORTHOVIEW
 70
     0
  9
$PUCSORGTOP
 10
0.0
 20
0.0
 30
0.0
  9
$PUCSORGBOTTOM
 10
0.0
 20
0.0
 30
0.0
  9
$PUCSORGLEFT
 10
0.0
 20
0.0
 30
0.0
  9
$PUCSORGRIGHT
 10
0.0
 20
0.0
 30
0.0
  9
$PUCSORGFRONT
 10
0.0
 20
0.0
 30
0.0
  9
$PUCSORGBACK
 10
0.0
 20
0.0
 30
0.0
  9
$USERI1
 70
     0
  9
$USERI2
 70
     0
  9
$USERI3
 70
     0
  9
$USERI4
 70
     0
  9
$USERI5
 70
     0
  9
$USERR1
 40
0.0
  9
$USERR2
 40
0.0
  9
$USERR3
 40
0.0
  9
$USERR4
 40
0.0
  9
$USERR5
 40
0.0
  9
$WORLDVIEW
 70
     1
  9
$SHADEDGE
 70
     3
  9
$SHADEDIF
 70
    70
  9
$TILEMODE
 70
     1
  9
$MAXACTVP
 70
    64
  9
$PINSBASE
 10
0.0
 20
0.0
 30
0.0
  9
$PLIMCHECK
 70
     0
  9
$PEXTMIN
 10
1.0000000000E+20
 20
1.0000000000E+20
 30
1.0000000000E+20
  9
$PEXTMAX
 10
-1.0000000000E+20
 20
-1.0000000000E+20
 30
-1.0000000000E+20
  9
$PLIMMIN
 10
0.0
 20
0.0
  9
$PLIMMAX
 10
420.0
 20
297.0
  9
$UNITMODE
 70
     0
  9
$VISRETAIN
 70
     1
  9
$PLINEGEN
 70
     0
  9
$PSLTSCALE
 70
     1
  9
$TREEDEPTH
 70
  3020
  9
$CMLSTYLE
  2
Standard
  9
$CMLJUST
 70
     0
  9
$CMLSCALE
 40
20.0
  9
$PROXYGRAPHICS
 70
     1
  9
$MEASUREMENT
 70
     1
  9
$CELWEIGHT
370
    -1
  9
$ENDCAPS
280
     0
  9
$JOINSTYLE
280
     0
  9
$LWDISPLAY
290
     1
  9
$INSUNITS
 70
     4
  9
$HYPERLINKBASE
  1

  9
$STYLESHEET
  1

  9
$XEDIT
290
     1
  9
$CEPSNTYPE
380
     0
  9
$PSTYLEMODE
290
     1
  9
$FINGERPRINTGUID
  2
{A3D61C42-C14A-4F9E-A97F-45447A9C99D7}
  9
$VERSIONGUID
  2
{FAEB1C32-E019-11D5-929B-00C0DF256EC4}
  9
$EXTNAMES
290
     1
  9
$PSVPSCALE
 40
0.0
  9
$OLESTARTUP
290
     0
  0
ENDSEC
  0
SECTION
  2
CLASSES
  0
CLASS
  1
ACDBDICTIONARYWDFLT
  2
AcDbDictionaryWithDefault
  3
ObjectDBX Classes
 90
        0
280
     0
281
     0
  0
CLASS
  1
VISUALSTYLE
  2
AcDbVisualStyle
  3
ObjectDBX Classes
 90
     4095
280
     0
281
     0
  0
CLASS
  1
MATERIAL
  2
AcDbMaterial
  3
ObjectDBX Classes
 90
     1153
280
     0
281
     0
  0
CLASS
  1
SCALE
  2
AcDbScale
  3
ObjectDBX Classes
 90
     1153
280
     0
281
     0
  0
CLASS
  1
TABLESTYLE
  2
AcDbTableStyle
  3
ObjectDBX Classes
 90
     4095
280
     0
281
     0
  0
CLASS
  1
MLEADERSTYLE
  2
AcDbMLeaderStyle
  3
ACDB_MLEADERSTYLE_CLASS
 90
     4095
280
     0
281
     0
  0
CLASS
  1
SUN
  2
AcDbSun
  3
SCENEOE
 90
     1153
280
     0
281
     0
  0
CLASS
  1
ACDBPLACEHOLDER
  2
AcDbPlaceHolder
  3
ObjectDBX Classes
 90
        0
280
     0
281
     0
  0
CLASS
  1
LAYOUT
  2
AcDbLayout
  3
ObjectDBX Classes
 90
        0
280
     0
281
     0
  0
ENDSEC
  0
SECTION
  2
TABLES
  0
TABLE
  2
VPORT
  5
8
330
0
100
AcDbSymbolTable
 70
     1
  0
VPORT
  5
29
330
8
100
AcDbSymbolTableRecord
100
AcDbViewportTableRecord
  2
*Active
 70
     0
 10
0.0
 20
0.0
 11
1.0
 21
1.0
 12
148.5
 22
105.0
 13
0.0
 23
0.0
 14
10.0
 24
10.0
 15
10.0
 25
10.0
 16
0.0
 26
0.0
 36
1.0
 17
0.0
 27
0.0
 37
0.0
 40
210.0
 41
1.4142857143
 42
50.0
 43
0.0
 44
0.0
 50
0.0
 51
0.0
 71
     0
 72
  2000
 73
     1
 74
     3
 75
     0
 76
     0
 77
     0
 78
     0
281
     0
 65
     1
110
0.0
120
0.0
130
0.0
111
1.0
121
0.0
131
0.0
112
0.0
122
1.0
132
0.0
 79
     0
146
0.0
  0
ENDTAB
  0
TABLE
  2
LTYPE
  5
5
330
0
100
AcDbSymbolTable
 70
     6
  0
LTYPE
  5
14
330
5
100
AcDbSymbolTableRecord
100
AcDbLinetypeTableRecord
  2
ByBlock
 70
     0
  3

 72
    65
 73
     0
 40
0.0
  0
LTYPE
  5
15
330
5
100
AcDbSymbolTableRecord
100
AcDbLinetypeTableRecord
  2
ByLayer
 70
     0
  3

 72
    65
 73
     0
 40
0.0
  0
LTYPE
  5
16
330
5
100
AcDbSymbolTableRecord
100
AcDbLinetypeTableRecord
  2
Continuous
 70
     0
  3
Solid line
 72
    65
 73
     0
 40
0.0
  0
LTYPE
  5
6E
330
5
100
AcDbSymbolTableRecord
100
AcDbLinetypeTableRecord
  2
HIDDEN
 70
     0
  3
Hidden __ __ __ __ __ __ __ __ __ __ __ __ __ __
 72
    65
 73
     2
 40
1.905
 49
1.27
 74
     0
 49
-0.635
 74
     0
  0
LTYPE
  5
6F
330
5
100
AcDbSymbolTableRecord
100
AcDbLinetypeTableRecord
  2
PHANTOM
 70
     0
  3
Phantom ______  __  __  ______  __  __  ______
 72
    65
 73
     6
 40
12.7
 49
6.35
 74
     0
 49
-1.27
 74
     0
 49
1.27
 74
     0
 49
-1.27
 74
     0
 49
1.27
 74
     0
 49
-1.27
 74
     0
  0
LTYPE
  5
70
330
5
100
AcDbSymbolTableRecord
100
AcDbLinetypeTableRecord
  2
CENTER
 70
     0
  3
Center ____ _ ____ _ ____ _ ____ _ ____ _ ____
 72
    65
 73
     4
 40
10.16
 49
6.35
 74
     0
 49
-1.27
 74
     0
 49
1.27
 74
     0
 49
-1.27
 74
     0
  0
LTYPE
  5
71
330
5
100
AcDbSymbolTableRecord
100
AcDbLinetypeTableRecord
  2
CENTERX2
 70
     0
  3
Center (2x) ________  __  ________  __  _____
 72
    65
 73
     4
 40
20.32
 49
12.7
 74
     0
 49
-2.54
 74
     0
 49
2.54
 74
     0
 49
-2.54
 74
     0
  0
LTYPE
  5
72
330
5
100
AcDbSymbolTableRecord
100
AcDbLinetypeTableRecord
  2
DOT2
 70
     0
  3
Dot (.5x) ........................................
 72
    65
 73
     2
 40
0.635
 49
0.0
 74
     0
 49
-0.635
 74
     0
  0
ENDTAB
  0
TABLE
  2
LAYER
  5
2
330
0
100
AcDbSymbolTable
 70
     5
  0
LAYER
  5
10
330
2
100
AcDbSymbolTableRecord
100
AcDbLayerTableRecord
  2
0
 70
     0
 62
     7
  6
Continuous
370
    -3
390
F
  0
LAYER
  5
73
330
2
100
AcDbSymbolTableRecord
100
AcDbLayerTableRecord
  2
FORMAT
 70
     0
 62
     7
  6
Continuous
370
    -3
390
F
  0
LAYER
  5
74
330
2
100
AcDbSymbolTableRecord
100
AcDbLayerTableRecord
  2
VERMASSUNG
 70
     0
 62
     7
  6
Continuous
370
    -3
390
F
  0
LAYER
  5
75
330
2
100
AcDbSymbolTableRecord
100
AcDbLayerTableRecord
  2
KOPF_DÜNN
 70
     0
 62
     7
  6
Continuous
370
    -3
390
F
  0
LAYER
  5
76
330
2
100
AcDbSymbolTableRecord
100
AcDbLayerTableRecord
  2
KOPF_DICK
 70
     0
 62
     7
  6
Continuous
370
    25
390
F
  0
ENDTAB
  0
TABLE
  2
STYLE
  5
3
330
0
100
AcDbSymbolTable
 70
     2
  0
STYLE
  5
11
330
3
100
AcDbSymbolTableRecord
100
AcDbTextStyleTableRecord
  2
Standard
 70
     0
 40
0.0
 41
1.0
 50
0.0
 71
     0
 42
2.0
  3
txt
  4

  0
STYLE
  5
77
330
3
100
AcDbSymbolTableRecord
100
AcDbTextStyleTableRecord
  2
SLDTEXTSTYLE0
 70
     0
 40
0.0
 41
0.7
 50
0.0
 71
     0
 42
2.0
  3
TXT
  4

  0
ENDTAB
  0
TABLE
  2
VIEW
  5
6
330
0
100
AcDbSymbolTable
 70
     0
  0
ENDTAB
  0
TABLE
  2
UCS
  5
7
330
0
100
AcDbSymbolTable
 70
     0
  0
ENDTAB
  0
TABLE
  2
APPID
  5
9
330
0
100
AcDbSymbolTable
 70
     1
  0
APPID
  5
12
330
9
100
AcDbSymbolTableRecord
100
AcDbRegAppTableRecord
  2
ACAD
 70
     0
  0
ENDTAB
  0
TABLE
  2
DIMSTYLE
  5
A
330
0
100
AcDbSymbolTable
 70
     4
100
AcDbDimStyleTable
  0
DIMSTYLE
105
27
330
A
100
AcDbSymbolTableRecord
100
AcDbDimStyleTableRecord
  2
ISO-25
 70
     0
 41
2.5
 42
0.625
 43
3.75
 44
1.25
 73
     0
 74
     0
 77
     1
 78
     8
140
2.5
141
2.5
143
0.0393700787
147
0.625
171
     3
172
     1
178
     0
271
     2
272
     2
274
     3
278
    44
283
     0
284
     8
340
11
  0
DIMSTYLE
105
204
102
{ACAD_REACTORS
330
203
330
219
330
231
330
23C
330
247
330
251
330
265
102
}
330
A
100
AcDbSymbolTableRecord
100
AcDbDimStyleTableRecord
  2
SLDDIMSTYLE0
 70
     0
 41
3.0
 44
0.0
 45
0.000000001
 73
     0
 74
     0
 77
     1
 78
    12
 79
     3
140
2.0
147
0.5
173
     1
178
     0
271
     2
272
     3
276
     2
284
    12
340
77
  0
DIMSTYLE
105
210
102
{ACAD_REACTORS
330
20F
102
}
330
A
100
AcDbSymbolTableRecord
100
AcDbDimStyleTableRecord
  2
SLDDIMSTYLE1
 70
     0
 41
3.0
 44
0.0
 45
0.000000001
 73
     0
 74
     0
 76
     1
 77
     1
 78
    12
 79
     3
140
2.0
147
0.5
173
     1
178
     0
271
     2
272
     3
276
     2
282
     1
284
    12
340
77
  0
DIMSTYLE
105
225
102
{ACAD_REACTORS
330
224
330
25B
102
}
330
A
100
AcDbSymbolTableRecord
100
AcDbDimStyleTableRecord
  2
SLDDIMSTYLE2
 70
     0
 41
3.0
 44
0.0
 45
0.000000001
 73
     0
 74
     0
 77
     1
 78
    12
 79
     3
140
2.0
147
0.5
173
     1
178
     0
271
     1
272
     3
276
     2
284
    12
340
77
  0
ENDTAB
  0
TABLE
  2
BLOCK_RECORD
  5
1
330
0
100
AcDbSymbolTable
 70
    11
  0
BLOCK_RECORD
  5
1F
330
1
100
AcDbSymbolTableRecord
100
AcDbBlockTableRecord
  2
*Model_Space
340
22
  0
BLOCK_RECORD
  5
1B
330
1
100
AcDbSymbolTableRecord
100
AcDbBlockTableRecord
  2
*Paper_Space
340
1E
  0
BLOCK_RECORD
  5
23
330
1
100
AcDbSymbolTableRecord
100
AcDbBlockTableRecord
  2
*Paper_Space0
340
26
  0
BLOCK_RECORD
  5
205
330
1
100
AcDbSymbolTableRecord
100
AcDbBlockTableRecord
  2
_D
340
0
  0
BLOCK_RECORD
  5
211
330
1
100
AcDbSymbolTableRecord
100
AcDbBlockTableRecord
  2
_D_1
340
0
  0
BLOCK_RECORD
  5
21A
330
1
100
AcDbSymbolTableRecord
100
AcDbBlockTableRecord
  2
_D_2
340
0
  0
BLOCK_RECORD
  5
226
330
1
100
AcDbSymbolTableRecord
100
AcDbBlockTableRecord
  2
_D_3
340
0
  0
BLOCK_RECORD
  5
232
330
1
100
AcDbSymbolTableRecord
100
AcDbBlockTableRecord
  2
_D_4
340
0
  0
BLOCK_RECORD
  5
23D
330
1
100
AcDbSymbolTableRecord
100
AcDbBlockTableRecord
  2
_D_5
340
0
  0
BLOCK_RECORD
  5
248
330
1
100
AcDbSymbolTableRecord
100
AcDbBlockTableRecord
  2
_D_6
340
0
  0
BLOCK_RECORD
  5
252
330
1
100
AcDbSymbolTableRecord
100
AcDbBlockTableRecord
  2
_D_7
340
0
  0
BLOCK_RECORD
  5
25C
330
1
100
AcDbSymbolTableRecord
100
AcDbBlockTableRecord
  2
_D_8
340
0
  0
BLOCK_RECORD
  5
266
330
1
100
AcDbSymbolTableRecord
100
AcDbBlockTableRecord
  2
_D_9
340
0
  0
ENDTAB
  0
ENDSEC
  0
SECTION
  2
BLOCKS
  0
BLOCK
  5
20
330
1F
100
AcDbEntity
  8
0
100
AcDbBlockBegin
  2
*Model_Space
 70
     0
 10
0.0
 20
0.0
 30
0.0
  3
*Model_Space
  1

  0
ENDBLK
  5
21
330
1F
100
AcDbEntity
  8
0
100
AcDbBlockEnd
  0
BLOCK
  5
1C
330
1B
100
AcDbEntity
 67
     1
  8
0
100
AcDbBlockBegin
  2
*Paper_Space
 70
     0
 10
0.0
 20
0.0
 30
0.0
  3
*Paper_Space
  1

  0
ENDBLK
  5
1D
330
1B
100
AcDbEntity
 67
     1
  8
0
100
AcDbBlockEnd
  0
BLOCK
  5
24
330
23
100
AcDbEntity
  8
0
100
AcDbBlockBegin
  2
*Paper_Space0
 70
     0
 10
0.0
 20
0.0
 30
0.0
  3
*Paper_Space0
  1

  0
ENDBLK
  5
25
330
23
100
AcDbEntity
  8
0
100
AcDbBlockEnd
  0
BLOCK
  5
206
330
205
100
AcDbEntity
  8
0
100
AcDbBlockBegin
  2
_D
 70
     0
 10
0.0
 20
0.0
 30
0.0
  3
_D
  1

  0
SOLID
  5
208
330
205
100
AcDbEntity
  8
VERMASSUNG
100
AcDbTrace
 10
258.723584754
 20
94.5838495678
 30
0.0
 11
259.173584754
 21
97.5838495678
 31
0.0
 12
258.273584754
 22
97.5838495678
 32
0.0
 13
258.273584754
 23
97.5838495678
 33
0.0
  0
SOLID
  5
209
330
205
100
AcDbEntity
  8
VERMASSUNG
100
AcDbTrace
 10
258.723584754
 20
127.5838495678
 30
0.0
 11
258.273584754
 21
124.5838495678
 31
0.0
 12
259.173584754
 22
124.5838495678
 32
0.0
 13
259.173584754
 23
124.5838495678
 33
0.0
  0
LINE
  5
20A
330
205
100
AcDbEntity
  8
VERMASSUNG
100
AcDbLine
 10
220.9485784299
 20
94.5838495678
 30
0.0
 11
259.723584754
 21
94.5838495678
 31
0.0
  0
LINE
  5
20B
330
205
100
AcDbEntity
  8
VERMASSUNG
100
AcDbLine
 10
220.9485784299
 20
127.5838495678
 30
0.0
 11
259.723584754
 21
127.5838495678
 31
0.0
  0
LINE
  5
20C
330
205
100
AcDbEntity
  8
VERMASSUNG
100
AcDbLine
 10
258.723584754
 20
94.5838495678
 30
0.0
 11
258.723584754
 21
127.5838495678
 31
0.0
  0
MTEXT
  5
20D
330
205
100
AcDbEntity
  8
VERMASSUNG
100
AcDbMText
 10
256.1454494491
 20
107.8788496105
 30
0.0
 40
2.0
 41
0.0
 71
     1
 72
     1
  1
%%c
  7
SLDTEXTSTYLE0
 11
1.615544574432587E-15
 21
1.0
 31
0.0
 73
     1
 44
1.0
  0
MTEXT
  5
20E
330
205
100
AcDbEntity
  8
VERMASSUNG
100
AcDbMText
 10
255.9454494978
 20
111.4888496249
 30
0.0
 40
2.0
 41
0.0
 71
     1
 72
     1
  1
33
  7
SLDTEXTSTYLE0
 11
1.615544574432587E-15
 21
1.0
 31
0.0
 73
     1
 44
1.0
  0
ENDBLK
  5
207
330
205
100
AcDbEntity
  8
0
100
AcDbBlockEnd
  0
BLOCK
  5
212
330
211
100
AcDbEntity
  8
0
100
AcDbBlockBegin
  2
_D_1
 70
     0
 10
0.0
 20
0.0
 30
0.0
  3
_D_1
  1

  0
SOLID
  5
214
330
211
100
AcDbEntity
  8
VERMASSUNG
100
AcDbTrace
 10
248.9485784299
 20
121.0838495678
 30
0.0
 11
248.4985784299
 21
118.0838495678
 31
0.0
 12
249.3985784299
 22
118.0838495678
 32
0.0
 13
249.3985784299
 23
118.0838495678
 33
0.0
  0
LINE
  5
215
330
211
100
AcDbEntity
  8
VERMASSUNG
100
AcDbLine
 10
217.4485784299
 20
121.0838495678
 30
0.0
 11
249.9485784299
 21
121.0838495678
 31
0.0
  0
LINE
  5
216
330
211
100
AcDbEntity
  8
VERMASSUNG
100
AcDbLine
 10
248.9485784299
 20
121.0838495678
 30
0.0
 11
248.9485784299
 21
107.8788496105
 31
0.0
  0
MTEXT
  5
217
330
211
100
AcDbEntity
  8
VERMASSUNG
100
AcDbMText
 10
246.3704431249
 20
107.8788496105
 30
0.0
 40
2.0
 41
0.0
 71
     1
 72
     1
  1
%%c
  7
SLDTEXTSTYLE0
 11
-5.267838178243384E-15
 21
1.0
 31
0.0
 73
     1
 44
1.0
  0
MTEXT
  5
218
330
211
100
AcDbEntity
  8
VERMASSUNG
100
AcDbMText
 10
246.1704431736
 20
111.4888496249
 30
0.0
 40
2.0
 41
0.0
 71
     1
 72
     1
  1
20
  7
SLDTEXTSTYLE0
 11
-5.267838178243384E-15
 21
1.0
 31
0.0
 73
     1
 44
1.0
  0
ENDBLK
  5
213
330
211
100
AcDbEntity
  8
0
100
AcDbBlockEnd
  0
BLOCK
  5
21B
330
21A
100
AcDbEntity
  8
0
100
AcDbBlockBegin
  2
_D_2
 70
     0
 10
0.0
 20
0.0
 30
0.0
  3
_D_2
  1

  0
SOLID
  5
21D
330
21A
100
AcDbEntity
  8
VERMASSUNG
100
AcDbTrace
 10
268.5165355745
 20
131.5838495678
 30
0.0
 11
268.0665355745
 21
128.5838495678
 31
0.0
 12
268.9665355745
 22
128.5838495678
 32
0.0
 13
268.9665355745
 23
128.5838495678
 33
0.0
  0
SOLID
  5
21E
330
21A
100
AcDbEntity
  8
VERMASSUNG
100
AcDbTrace
 10
268.5165355745
 20
90.5838495678
 30
0.0
 11
268.9665355745
 21
93.5838495678
 31
0.0
 12
268.0665355745
 22
93.5838495678
 32
0.0
 13
268.0665355745
 23
93.5838495678
 33
0.0
  0
LINE
  5
21F
330
21A
100
AcDbEntity
  8
VERMASSUNG
100
AcDbLine
 10
170.1237594852
 20
131.5838495678
 30
0.0
 11
269.5165355745
 21
131.5838495678
 31
0.0
  0
LINE
  5
220
330
21A
100
AcDbEntity
  8
VERMASSUNG
100
AcDbLine
 10
170.1237594852
 20
90.5838495678
 30
0.0
 11
269.5165355745
 21
90.5838495678
 31
0.0
  0
LINE
  5
221
330
21A
100
AcDbEntity
  8
VERMASSUNG
100
AcDbLine
 10
268.5165355745
 20
131.5838495678
 30
0.0
 11
268.5165355745
 21
90.5838495678
 31
0.0
  0
MTEXT
  5
222
330
21A
100
AcDbEntity
  8
VERMASSUNG
100
AcDbMText
 10
265.9384002696
 20
107.9788494407
 30
0.0
 40
2.0
 41
0.0
 71
     1
 72
     1
  1
%%c
  7
SLDTEXTSTYLE0
 11
-5.267838178243384E-15
 21
1.0
 31
0.0
 73
     1
 44
1.0
  0
MTEXT
  5
223
330
21A
100
AcDbEntity
  8
VERMASSUNG
100
AcDbMText
 10
265.7384003183
 20
111.588849455
 30
0.0
 40
2.0
 41
0.0
 71
     1
 72
     1
  1
41
  7
SLDTEXTSTYLE0
 11
-5.267838178243384E-15
 21
1.0
 31
0.0
 73
     1
 44
1.0
  0
ENDBLK
  5
21C
330
21A
100
AcDbEntity
  8
0
100
AcDbBlockEnd
  0
BLOCK
  5
227
330
226
100
AcDbEntity
  8
0
100
AcDbBlockBegin
  2
_D_3
 70
     0
 10
0.0
 20
0.0
 30
0.0
  3
_D_3
  1

  0
SOLID
  5
229
330
226
100
AcDbEntity
  8
VERMASSUNG
100
AcDbTrace
 10
38.9985534299
 20
142.5588495678
 30
0.0
 11
38.5485534299
 21
139.5588495678
 31
0.0
 12
39.4485534299
 22
139.5588495678
 32
0.0
 13
39.4485534299
 23
139.5588495678
 33
0.0
  0
SOLID
  5
22A
330
226
100
AcDbEntity
  8
VERMASSUNG
100
AcDbTrace
 10
38.9985534299
 20
79.6088495678
 30
0.0
 11
39.4485534299
 21
82.6088495678
 31
0.0
 12
38.5485534299
 22
82.6088495678
 32
0.0
 13
38.5485534299
 23
82.6088495678
 33
0.0
  0
LINE
  5
22B
330
226
100
AcDbEntity
  8
VERMASSUNG
100
AcDbLine
 10
101.1485784299
 20
142.5588495678
 30
0.0
 11
37.9985534299
 21
142.5588495678
 31
0.0
  0
LINE
  5
22C
330
226
100
AcDbEntity
  8
VERMASSUNG
100
AcDbLine
 10
101.1485784299
 20
79.6088495678
 30
0.0
 11
37.9985534299
 21
79.6088495678
 31
0.0
  0
LINE
  5
22D
330
226
100
AcDbEntity
  8
VERMASSUNG
100
AcDbLine
 10
38.9985534299
 20
142.5588495678
 30
0.0
 11
38.9985534299
 21
79.6088495678
 31
0.0
  0
MTEXT
  5
22E
330
226
100
AcDbEntity
  8
VERMASSUNG
100
AcDbMText
 10
36.4204178339
 20
104.7838500252
 30
0.0
 40
2.0
 41
0.0
 71
     1
 72
     1
  1
KM
  7
SLDTEXTSTYLE0
 11
-5.267838178243384E-15
 21
1.0
 31
0.0
 73
     1
 44
1.0
  0
MTEXT
  5
22F
330
226
100
AcDbEntity
  8
VERMASSUNG
100
AcDbMText
 10
36.4204178339
 20
108.1838498375
 30
0.0
 40
2.0
 41
0.0
 71
     1
 72
     1
  1
63
  7
SLDTEXTSTYLE0
 11
-5.267838178243384E-15
 21
1.0
 31
0.0
 73
     1
 44
1.0
  0
MTEXT
  5
230
330
226
100
AcDbEntity
  8
VERMASSUNG
100
AcDbMText
 10
36.4204178339
 20
112.1713497377
 30
0.0
 40
2.0
 41
0.0
 71
     1
 72
     1
  1
XMZ
  7
SLDTEXTSTYLE0
 11
-5.267838178243384E-15
 21
1.0
 31
0.0
 73
     1
 44
1.0
  0
ENDBLK
  5
228
330
226
100
AcDbEntity
  8
0
100
AcDbBlockEnd
  0
BLOCK
  5
233
330
232
100
AcDbEntity
  8
0
100
AcDbBlockBegin
  2
_D_4
 70
     0
 10
0.0
 20
0.0
 30
0.0
  3
_D_4
  1

  0
SOLID
  5
235
330
232
100
AcDbEntity
  8
VERMASSUNG
100
AcDbTrace
 10
169.4485784299
 20
148.7261337445
 30
0.0
 11
172.4485784299
 21
148.2761337445
 31
0.0
 12
172.4485784299
 22
149.1761337445
 32
0.0
 13
172.4485784299
 23
149.1761337445
 33
0.0
  0
SOLID
  5
236
330
232
100
AcDbEntity
  8
VERMASSUNG
100
AcDbTrace
 10
220.9485784299
 20
148.7261337445
 30
0.0
 11
217.9485784299
 21
149.1761337445
 31
0.0
 12
217.9485784299
 22
148.2761337445
 32
0.0
 13
217.9485784299
 23
148.2761337445
 33
0.0
  0
LINE
  5
237
330
232
100
AcDbEntity
  8
VERMASSUNG
100
AcDbLine
 10
169.4485784299
 20
120.9838495678
 30
0.0
 11
169.4485784299
 21
149.7261337445
 31
0.0
  0
LINE
  5
238
330
232
100
AcDbEntity
  8
VERMASSUNG
100
AcDbLine
 10
220.9485784299
 20
125.7350685845
 30
0.0
 11
220.9485784299
 21
149.7261337445
 31
0.0
  0
LINE
  5
239
330
232
100
AcDbEntity
  8
VERMASSUNG
100
AcDbLine
 10
169.4485784299
 20
148.7261337445
 30
0.0
 11
220.9485784299
 21
148.7261337445
 31
0.0
  0
MTEXT
  5
23A
330
232
100
AcDbEntity
  8
VERMASSUNG
100
AcDbMText
 10
189.7985787555
 20
151.3042693404
 30
0.0
 40
2.0
 41
0.0
 71
     1
 72
     1
  1
51.5
  7
SLDTEXTSTYLE0
 73
     1
 44
1.0
  0
MTEXT
  5
23B
330
232
100
AcDbEntity
  8
VERMASSUNG
100
AcDbMText
 10
195.3860787316
 20
151.3042693404
 30
0.0
 40
2.0
 41
0.0
 71
     1
 72
     1
  1
max.
  7
SLDTEXTSTYLE0
 73
     1
 44
1.0
  0
ENDBLK
  5
234
330
232
100
AcDbEntity
  8
0
100
AcDbBlockEnd
  0
BLOCK
  5
23E
330
23D
100
AcDbEntity
  8
0
100
AcDbBlockBegin
  2
_D_5
 70
     0
 10
0.0
 20
0.0
 30
0.0
  3
_D_5
  1

  0
SOLID
  5
240
330
23D
100
AcDbEntity
  8
VERMASSUNG
100
AcDbTrace
 10
179.9485784299
 20
141.6721239741
 30
0.0
 11
182.9485784299
 21
141.2221239741
 31
0.0
 12
182.9485784299
 22
142.1221239741
 32
0.0
 13
182.9485784299
 23
142.1221239741
 33
0.0
  0
SOLID
  5
241
330
23D
100
AcDbEntity
  8
VERMASSUNG
100
AcDbTrace
 10
220.9485784299
 20
141.6721239741
 30
0.0
 11
217.9485784299
 21
142.1221239741
 31
0.0
 12
217.9485784299
 22
141.2221239741
 32
0.0
 13
217.9485784299
 23
141.2221239741
 33
0.0
  0
LINE
  5
242
330
23D
100
AcDbEntity
  8
VERMASSUNG
100
AcDbLine
 10
179.9485784299
 20
121.0838495678
 30
0.0
 11
179.9485784299
 21
142.6721239741
 31
0.0
  0
LINE
  5
243
330
23D
100
AcDbEntity
  8
VERMASSUNG
100
AcDbLine
 10
220.9485784299
 20
125.7350685845
 30
0.0
 11
220.9485784299
 21
142.6721239741
 31
0.0
  0
LINE
  5
244
330
23D
100
AcDbEntity
  8
VERMASSUNG
100
AcDbLine
 10
179.9485784299
 20
141.6721239741
 30
0.0
 11
220.9485784299
 21
141.6721239741
 31
0.0
  0
MTEXT
  5
245
330
23D
100
AcDbEntity
  8
VERMASSUNG
100
AcDbMText
 10
196.3485784097
 20
144.2502595701
 30
0.0
 40
2.0
 41
0.0
 71
     1
 72
     1
  1
41
  7
SLDTEXTSTYLE0
 73
     1
 44
1.0
  0
MTEXT
  5
246
330
23D
100
AcDbEntity
  8
VERMASSUNG
100
AcDbMText
 10
200.1360784168
 20
144.2502595701
 30
0.0
 40
2.0
 41
0.0
 71
     1
 72
     1
  1
min.
  7
SLDTEXTSTYLE0
 73
     1
 44
1.0
  0
ENDBLK
  5
23F
330
23D
100
AcDbEntity
  8
0
100
AcDbBlockEnd
  0
BLOCK
  5
249
330
248
100
AcDbEntity
  8
0
100
AcDbBlockBegin
  2
_D_6
 70
     0
 10
0.0
 20
0.0
 30
0.0
  3
_D_6
  1

  0
SOLID
  5
24B
330
248
100
AcDbEntity
  8
VERMASSUNG
100
AcDbTrace
 10
100.9485784299
 20
156.6014094326
 30
0.0
 11
103.9485784299
 21
156.1514094326
 31
0.0
 12
103.9485784299
 22
157.0514094326
 32
0.0
 13
103.9485784299
 23
157.0514094326
 33
0.0
  0
SOLID
  5
24C
330
248
100
AcDbEntity
  8
VERMASSUNG
100
AcDbTrace
 10
220.9485784299
 20
156.6014094326
 30
0.0
 11
217.9485784299
 21
157.0514094326
 31
0.0
 12
217.9485784299
 22
156.1514094326
 32
0.0
 13
217.9485784299
 23
156.1514094326
 33
0.0
  0
LINE
  5
24D
330
248
100
AcDbEntity
  8
VERMASSUNG
100
AcDbLine
 10
100.9485784299
 20
142.3588495678
 30
0.0
 11
100.9485784299
 21
157.6014094326
 31
0.0
  0
LINE
  5
24E
330
248
100
AcDbEntity
  8
VERMASSUNG
100
AcDbLine
 10
220.9485784299
 20
122.1205438159
 30
0.0
 11
220.9485784299
 21
157.6014094326
 31
0.0
  0
LINE
  5
24F
330
248
100
AcDbEntity
  8
VERMASSUNG
100
AcDbLine
 10
100.9485784299
 20
156.6014094326
 30
0.0
 11
220.9485784299
 21
156.6014094326
 31
0.0
  0
MTEXT
  5
250
330
248
100
AcDbEntity
  8
VERMASSUNG
100
AcDbMText
 10
159.0485783978
 20
159.1795450285
 30
0.0
 40
2.0
 41
0.0
 71
     1
 72
     1
  1
120
  7
SLDTEXTSTYLE0
 73
     1
 44
1.0
  0
ENDBLK
  5
24A
330
248
100
AcDbEntity
  8
0
100
AcDbBlockEnd
  0
BLOCK
  5
253
330
252
100
AcDbEntity
  8
0
100
AcDbBlockBegin
  2
_D_7
 70
     0
 10
0.0
 20
0.0
 30
0.0
  3
_D_7
  1

  0
SOLID
  5
255
330
252
100
AcDbEntity
  8
VERMASSUNG
100
AcDbTrace
 10
220.9485784299
 20
164.5588495678
 30
0.0
 11
217.9485784299
 21
165.0088495678
 31
0.0
 12
217.9485784299
 22
164.1088495678
 32
0.0
 13
217.9485784299
 23
164.1088495678
 33
0.0
  0
SOLID
  5
256
330
252
100
AcDbEntity
  8
VERMASSUNG
100
AcDbTrace
 10
60.9985784299
 20
164.5588495678
 30
0.0
 11
63.9985784299
 21
164.1088495678
 31
0.0
 12
63.9985784299
 22
165.0088495678
 32
0.0
 13
63.9985784299
 23
165.0088495678
 33
0.0
  0
LINE
  5
257
330
252
100
AcDbEntity
  8
VERMASSUNG
100
AcDbLine
 10
220.9485784299
 20
125.7350685845
 30
0.0
 11
220.9485784299
 21
165.5588495678
 31
0.0
  0
LINE
  5
258
330
252
100
AcDbEntity
  8
VERMASSUNG
100
AcDbLine
 10
60.9985784299
 20
133.2869442916
 30
0.0
 11
60.9985784299
 21
165.5588495678
 31
0.0
  0
LINE
  5
259
330
252
100
AcDbEntity
  8
VERMASSUNG
100
AcDbLine
 10
220.9485784299
 20
164.5588495678
 30
0.0
 11
60.9985784299
 21
164.5588495678
 31
0.0
  0
MTEXT
  5
25A
330
252
100
AcDbEntity
  8
VERMASSUNG
100
AcDbMText
 10
137.3735784917
 20
167.1369851637
 30
0.0
 40
2.0
 41
0.0
 71
     1
 72
     1
  1
159.95
  7
SLDTEXTSTYLE0
 73
     1
 44
1.0
  0
ENDBLK
  5
254
330
252
100
AcDbEntity
  8
0
100
AcDbBlockEnd
  0
BLOCK
  5
25D
330
25C
100
AcDbEntity
  8
0
100
AcDbBlockBegin
  2
_D_8
 70
     0
 10
0.0
 20
0.0
 30
0.0
  3
_D_8
  1

  0
SOLID
  5
25F
330
25C
100
AcDbEntity
  8
VERMASSUNG
100
AcDbTrace
 10
170.1237594852
 20
77.1798492518
 30
0.0
 11
173.1237594852
 21
76.7298492518
 31
0.0
 12
173.1237594852
 22
77.6298492518
 32
0.0
 13
173.1237594852
 23
77.6298492518
 33
0.0
  0
SOLID
  5
260
330
25C
100
AcDbEntity
  8
VERMASSUNG
100
AcDbTrace
 10
220.9485784299
 20
77.1798492518
 30
0.0
 11
217.9485784299
 21
77.6298492518
 31
0.0
 12
217.9485784299
 22
76.7298492518
 32
0.0
 13
217.9485784299
 23
76.7298492518
 33
0.0
  0
LINE
  5
261
330
25C
100
AcDbEntity
  8
VERMASSUNG
100
AcDbLine
 10
170.1237594852
 20
90.5838495678
 30
0.0
 11
170.1237594852
 21
76.1798492518
 31
0.0
  0
LINE
  5
262
330
25C
100
AcDbEntity
  8
VERMASSUNG
100
AcDbLine
 10
220.9485784299
 20
96.4326305511
 30
0.0
 11
220.9485784299
 21
76.1798492518
 31
0.0
  0
LINE
  5
263
330
25C
100
AcDbEntity
  8
VERMASSUNG
100
AcDbLine
 10
170.1237594852
 20
77.1798492518
 30
0.0
 11
220.9485784299
 21
77.1798492518
 31
0.0
  0
MTEXT
  5
264
330
25C
100
AcDbEntity
  8
VERMASSUNG
100
AcDbMText
 10
193.1361690764
 20
79.7579848477
 30
0.0
 40
2.0
 41
0.0
 71
     1
 72
     1
  1
50.8
  7
SLDTEXTSTYLE0
 73
     1
 44
1.0
  0
ENDBLK
  5
25E
330
25C
100
AcDbEntity
  8
0
100
AcDbBlockEnd
  0
BLOCK
  5
267
330
266
100
AcDbEntity
  8
0
100
AcDbBlockBegin
  2
_D_9
 70
     0
 10
0.0
 20
0.0
 30
0.0
  3
_D_9
  1

  0
SOLID
  5
269
330
266
100
AcDbEntity
  8
VERMASSUNG
100
AcDbTrace
 10
118.9485784299
 20
68.1261048581
 30
0.0
 11
121.9485784299
 21
67.6761048581
 31
0.0
 12
121.9485784299
 22
68.5761048581
 32
0.0
 13
121.9485784299
 23
68.5761048581
 33
0.0
  0
SOLID
  5
26A
330
266
100
AcDbEntity
  8
VERMASSUNG
100
AcDbTrace
 10
220.9485784299
 20
68.1261048581
 30
0.0
 11
217.9485784299
 21
68.5761048581
 31
0.0
 12
217.9485784299
 22
67.6761048581
 32
0.0
 13
217.9485784299
 23
67.6761048581
 33
0.0
  0
LINE
  5
26B
330
266
100
AcDbEntity
  8
VERMASSUNG
100
AcDbLine
 10
118.9485784299
 20
79.6088495678
 30
0.0
 11
118.9485784299
 21
67.1261048581
 31
0.0
  0
LINE
  5
26C
330
266
100
AcDbEntity
  8
VERMASSUNG
100
AcDbLine
 10
220.9485784299
 20
96.4326305511
 30
0.0
 11
220.9485784299
 21
67.1261048581
 31
0.0
  0
LINE
  5
26D
330
266
100
AcDbEntity
  8
VERMASSUNG
100
AcDbLine
 10
118.9485784299
 20
68.1261048581
 30
0.0
 11
220.9485784299
 21
68.1261048581
 31
0.0
  0
MTEXT
  5
26E
330
266
100
AcDbEntity
  8
VERMASSUNG
100
AcDbMText
 10
168.0485783978
 20
70.7042404541
 30
0.0
 40
2.0
 41
0.0
 71
     1
 72
     1
  1
102
  7
SLDTEXTSTYLE0
 73
     1
 44
1.0
  0
ENDBLK
  5
268
330
266
100
AcDbEntity
  8
0
100
AcDbBlockEnd
  0
ENDSEC
  0
SECTION
  2
ENTITIES
  0
MTEXT
  5
78
330
1F
100
AcDbEntity
  8
KOPF_DÜNN
100
AcDbMText
 10
13.8892156294
 20
23.8442973028
 30
0.0
 40
3.0
 41
0.0
 71
     1
 72
     1
  1
KY6.S20.K01.120
  7
SLDTEXTSTYLE0
 73
     1
 44
1.0
  0
MTEXT
  5
79
330
1F
100
AcDbEntity
  8
VERMASSUNG
100
AcDbMText
 10
13.9329988022
 20
28.8834360957
 30
0.0
 40
3.0
 41
0.0
 71
     1
 72
     1
  1
Schrumpffutter_Heat shrink chuck
  7
SLDTEXTSTYLE0
 73
     1
 44
1.0
  0
MTEXT
  5
7A
330
1F
100
AcDbEntity
  8
VERMASSUNG
100
AcDbMText
 10
98.8601118557
 20
13.8365368761
 30
0.0
 40
2.0
 41
0.0
 71
     1
 72
     1
  1
Datum: 16.02.2018
  7
SLDTEXTSTYLE0
 73
     1
 44
1.0
  0
MTEXT
  5
7B
330
1F
100
AcDbEntity
  8
VERMASSUNG
100
AcDbMText
 10
13.933048693
 20
18.0482802738
 30
0.0
 40
2.0
 41
0.0
 71
     1
 72
     1
  1
KM63 XMZ / Ø20
  7
SLDTEXTSTYLE0
 73
     1
 44
1.0
  0
MTEXT
  5
7C
330
1F
100
AcDbEntity
  8
VERMASSUNG
100
AcDbMText
 10
13.9808475933
 20
13.9090974274
 30
0.0
 40
2.0
 41
0.0
 71
     1
 72
     1
  1
Gewicht: 1432g
  7
SLDTEXTSTYLE0
 73
     1
 44
1.0
  0
CIRCLE
  5
7D
330
1F
100
AcDbEntity
  8
0
  6
Continuous
 62
     7
370
    25
100
AcDbCircle
 10
354.5618137529
 20
111.0838495678
 30
0.0
 40
1.849999999999982
  0
SPLINE
  5
7E
330
1F
100
AcDbEntity
  8
0
  6
Continuous
 62
     7
370
    25
100
AcDbSpline
210
0.0
220
0.0
230
1.0
 70
     8
 71
     3
 72
    11
 73
     7
 74
     0
 42
0.000000001
 43
0.00000001
 40
0.0
 40
0.0
 40
0.0
 40
0.0
 40
0.1234466727345278
 40
0.4778177359845583
 40
0.81458141317089
 40
1.0
 40
1.0
 40
1.0
 40
1.0
 10
356.1932292020327
 20
111.6656431712699
 30
0.0
 10
356.1811745200998
 20
111.5997863710345
 30
0.0
 10
356.1345151756104
 20
111.3448783488851
 30
0.0
 10
356.0466861227104
 20
110.8650527578042
 30
0.0
 10
355.9508205911986
 20
110.3413231125877
 30
0.0
 10
355.8995683900358
 20
110.0613228543069
 30
0.0
 10
355.8813695514953
 20
109.961899231982
 30
0.0
  0
SPLINE
  5
7F
330
1F
100
AcDbEntity
  8
0
  6
Continuous
 62
     7
370
    25
100
AcDbSpline
210
0.0
220
0.0
230
1.0
 70
     8
 71
     3
 72
    11
 73
     7
 74
     0
 42
0.000000001
 43
0.00000001
 40
0.0
 40
0.0
 40
0.0
 40
0.0
 40
0.2164553920803214
 40
0.4403113588452198
 40
0.7519007546236887
 40
1.0
 40
1.0
 40
1.0
 40
1.0
 10
354.8736734034872
 20
112.7875935070706
 30
0.0
 10
354.9640642641135
 20
112.7107388248615
 30
0.0
 10
355.1479364342036
 20
112.5544018113462
 30
0.0
 10
355.4891539672233
 20
112.264282011097
 30
0.0
 10
355.8551707090895
 20
111.9530769103102
 30
0.0
 10
356.0893998943757
 20
111.7539238882015
 30
0.0
 10
356.1932292020327
 20
111.6656431712699
 30
0.0
  0
SPLINE
  5
80
330
1F
100
AcDbEntity
  8
0
  6
Continuous
 62
     7
370
    25
100
AcDbSpline
210
0.0
220
0.0
230
1.0
 70
     8
 71
     3
 72
    11
 73
     7
 74
     0
 42
0.000000001
 43
0.00000001
 40
0.0
 40
0.0
 40
0.0
 40
0.0
 40
0.2164554114603034
 40
0.4403113880397639
 40
0.7519007861324442
 40
0.9999999999999999
 40
0.9999999999999999
 40
0.9999999999999999
 40
0.9999999999999999
 10
353.2422579544044
 20
112.2057999035833
 30
0.0
 10
353.3540115151209
 20
112.2456533243187
 30
0.0
 10
353.5813394673559
 20
112.3267227458859
 30
0.0
 10
354.0031993466106
 20
112.4771659821988
 30
0.0
 10
354.4557192565722
 20
112.6385431848639
 30
0.0
 10
354.7453054187679
 20
112.7418150655246
 30
0.0
 10
354.8736734034872
 20
112.7875935070706
 30
0.0
  0
SPLINE
  5
81
330
1F
100
AcDbEntity
  8
0
  6
Continuous
 62
     7
370
    25
100
AcDbSpline
210
0.0
220
0.0
230
1.0
 70
     8
 71
     3
 72
    11
 73
     7
 74
     0
 42
0.000000001
 43
0.00000001
 40
0.0
 40
0.0
 40
0.0
 40
0.0
 40
0.1854185974715213
 40
0.5221822902316107
 40
0.8765533378886127
 40
1.0
 40
1.0
 40
1.0
 40
1.0
 10
352.930398303867
 20
110.5020559642953
 30
0.0
 10
352.9485971899236
 20
110.6014795851309
 30
0.0
 10
352.9998495245349
 20
110.8814798372038
 30
0.0
 10
353.0957149283361
 20
111.4052095107648
 30
0.0
 10
353.1835441442157
 20
111.8850350683869
 30
0.0
 10
353.2302033171655
 20
112.1399431023497
 30
0.0
 10
353.2422579544044
 20
112.2057999035833
 30
0.0
  0
SPLINE
  5
82
330
1F
100
AcDbEntity
  8
0
  6
Continuous
 62
     7
370
    25
100
AcDbSpline
210
0.0
220
0.0
230
1.0
 70
     8
 71
     3
 72
    11
 73
     7
 74
     0
 42
0.000000001
 43
0.00000001
 40
0.0
 40
0.0
 40
0.0
 40
0.0
 40
0.2164554114603034
 40
0.4403113880397639
 40
0.7519007861324442
 40
0.9999999999999999
 40
0.9999999999999999
 40
0.9999999999999999
 40
0.9999999999999999
 10
355.8813695514953
 20
109.961899231982
 30
0.0
 10
355.7696159907788
 20
109.9220458112465
 30
0.0
 10
355.5422880385437
 20
109.8409763896793
 30
0.0
 10
355.120428159289
 20
109.6905331533664
 30
0.0
 10
354.6679082493275
 20
109.5291559507014
 30
0.0
 10
354.3783220871318
 20
109.4258840700406
 30
0.0
 10
354.2499541024125
 20
109.3801056284946
 30
0.0
  0
SPLINE
  5
83
330
1F
100
AcDbEntity
  8
0
  6
Continuous
 62
     7
370
    25
100
AcDbSpline
210
0.0
220
0.0
230
1.0
 70
     8
 71
     3
 72
    11
 73
     7
 74
     0
 42
0.000000001
 43
0.00000001
 40
0.0
 40
0.0
 40
0.0
 40
0.0
 40
0.2164553920803214
 40
0.4403113588452198
 40
0.7519007546236887
 40
1.0
 40
1.0
 40
1.0
 40
1.0
 10
354.2499541024125
 20
109.3801056284946
 30
0.0
 10
354.1595632417862
 20
109.4569603107038
 30
0.0
 10
353.975691071696
 20
109.6132973242191
 30
0.0
 10
353.6344735386764
 20
109.9034171244682
 30
0.0
 10
353.2684567968102
 20
110.214622225255
 30
0.0
 10
353.034227611524
 20
110.4137752473637
 30
0.0
 10
352.930398303867
 20
110.5020559642953
 30
0.0
  0
ARC
  5
84
330
1F
100
AcDbEntity
  8
0
  6
Continuous
 62
     7
370
    25
100
AcDbCircle
 10
354.5618137529
 20
111.0838495678
 30
0.0
 40
1.500000000000007
100
AcDbArc
 50
169.6271967899
 51
229.6271967899
  0
ARC
  5
85
330
1F
100
AcDbEntity
  8
0
  6
Continuous
 62
     7
370
    25
100
AcDbCircle
 10
354.5618137529
 20
111.0838495678
 30
0.0
 40
1.500000000000007
100
AcDbArc
 50
229.6271967899
 51
289.6271967899
  0
ARC
  5
86
330
1F
100
AcDbEntity
  8
0
  6
Continuous
 62
     7
370
    25
100
AcDbCircle
 10
354.5618137529
 20
111.0838495678
 30
0.0
 40
1.500000000000007
100
AcDbArc
 50
49.6271967899
 51
109.6271967899
  0
ARC
  5
87
330
1F
100
AcDbEntity
  8
0
  6
Continuous
 62
     7
370
    25
100
AcDbCircle
 10
354.5618137529
 20
111.0838495678
 30
0.0
 40
1.499999999999988
100
AcDbArc
 50
109.6271967899
 51
169.6271967899
  0
ARC
  5
88
330
1F
100
AcDbEntity
  8
0
  6
Continuous
 62
     7
370
    25
100
AcDbCircle
 10
354.5618137529
 20
111.0838495678
 30
0.0
 40
1.500000000000007
100
AcDbArc
 50
349.6271967899
 51
49.6271967899
  0
ARC
  5
89
330
1F
100
AcDbEntity
  8
0
  6
Continuous
 62
     7
370
    25
100
AcDbCircle
 10
354.5618137529
 20
111.0838495678
 30
0.0
 40
1.499999999999993
100
AcDbArc
 50
289.6271967899
 51
349.6271967899
  0
SPLINE
  5
8A
330
1F
100
AcDbEntity
  8
0
  6
Continuous
 62
     7
370
    25
100
AcDbSpline
210
0.0
220
0.0
230
1.0
 70
     8
 71
     3
 72
     8
 73
     4
 74
     0
 42
0.000000001
 43
0.00000001
 40
0.0
 40
0.0
 40
0.0
 40
0.0
 40
1.0
 40
1.0
 40
1.0
 40
1.0
 10
344.172673643317
 20
106.7138486958177
 30
0.0
 10
344.1038352731302
 20
106.6507540224989
 30
0.0
 10
344.035403912674
 20
106.587031644368
 30
0.0
 10
343.9673876380094
 20
106.5226862120946
 30
0.0
  0
SPLINE
  5
8B
330
1F
100
AcDbEntity
  8
0
  6
Continuous
 62
     7
370
    25
100
AcDbSpline
210
0.0
220
0.0
230
1.0
 70
     8
 71
     3
 72
     8
 73
     4
 74
     0
 42
0.000000001
 43
0.00000001
 40
0.0
 40
0.0
 40
0.0
 40
0.0
 40
1.0
 40
1.0
 40
1.0
 40
1.0
 10
344.4307008845777
 20
106.5445868658904
 30
0.0
 10
344.3439974504172
 20
106.6007477855596
 30
0.0
 10
344.2579994029334
 20
106.6571725218855
 30
0.0
 10
344.172673643317
 20
106.7138486958177
 30
0.0
  0
ARC
  5
8C
330
1F
100
AcDbEntity
  8
0
  6
Continuous
 62
     7
370
    25
100
AcDbCircle
 10
354.5618137529
 20
111.0838495678
 30
0.0
 40
11.10154736189901
100
AcDbArc
 50
204.1348482805
 51
335.8651517195
  0
SPLINE
  5
8D
330
1F
100
AcDbEntity
  8
0
  6
Continuous
 62
     7
370
    25
100
AcDbSpline
210
0.0
220
0.0
230
1.0
 70
     8
 71
     3
 72
     8
 73
     4
 74
     0
 42
0.000000001
 43
0.00000001
 40
0.0
 40
0.0
 40
0.0
 40
0.0
 40
1.0
 40
1.0
 40
1.0
 40
1.0
 10
364.9509538625827
 20
106.7138486958177
 30
0.0
 10
364.8656281029663
 20
106.6571725218855
 30
0.0
 10
364.7796300554824
 20
106.6007477855596
 30
0.0
 10
364.692926621322
 20
106.5445868658904
 30
0.0
  0
SPLINE
  5
8E
330
1F
100
AcDbEntity
  8
0
  6
Continuous
 62
     7
370
    25
100
AcDbSpline
210
0.0
220
0.0
230
1.0
 70
     8
 71
     3
 72
     8
 73
     4
 74
     0
 42
0.000000001
 43
0.00000001
 40
0.0
 40
0.0
 40
0.0
 40
0.0
 40
1.0
 40
1.0
 40
1.0
 40
1.0
 10
365.1562398678903
 20
106.5226862120946
 30
0.0
 10
365.0882235932256
 20
106.587031644368
 30
0.0
 10
365.0197922327695
 20
106.6507540224989
 30
0.0
 10
364.9509538625827
 20
106.7138486958177
 30
0.0
  0
ARC
  5
8F
330
1F
100
AcDbEntity
  8
0
  6
Continuous
 62
     7
370
    25
100
AcDbCircle
 10
354.5618137529
 20
111.0838495678
 30
0.0
 40
11.53456006379116
100
AcDbArc
 50
203.2930774359
 51
336.7074733161
  0
ARC
  5
90
330
1F
100
AcDbEntity
  8
0
  6
Continuous
 62
     7
370
    25
100
AcDbCircle
 10
354.5618137529
 20
111.0838495678
 30
0.0
 40
11.10154736189899
100
AcDbArc
 50
29.4783538465
 51
150.5216461535
  0
SPLINE
  5
91
330
1F
100
AcDbEntity
  8
0
  6
Continuous
 62
     7
370
    25
100
AcDbSpline
210
0.0
220
0.0
230
1.0
 70
     8
 71
     3
 72
     8
 73
     4
 74
     0
 42
0.000000001
 43
0.00000001
 40
0.0
 40
0.0
 40
0.0
 40
0.0
 40
1.0
 40
1.0
 40
1.0
 40
1.0
 10
344.5858807036254
 20
116.3621488171718
 30
0.0
 10
344.6887766174493
 20
116.4241174262627
 30
0.0
 10
344.7926162870042
 20
116.4856960784033
 30
0.0
 10
344.8974541752308
 20
116.5468622696748
 30
0.0
  0
SPLINE
  5
92
330
1F
100
AcDbEntity
  8
0
  6
Continuous
 62
     7
370
    25
100
AcDbSpline
210
0.0
220
0.0
230
1.0
 70
     8
 71
     3
 72
     8
 73
     4
 74
     0
 42
0.000000001
 43
0.00000001
 40
0.0
 40
0.0
 40
0.0
 40
0.0
 40
1.0
 40
1.0
 40
1.0
 40
1.0
 10
344.3973443225115
 20
116.5363386380414
 30
0.0
 10
344.4599126308811
 20
116.4778881689338
 30
0.0
 10
344.522759224245
 20
116.4198241584007
 30
0.0
 10
344.5858807036278
 20
116.3621488171696
 30
0.0
  0
ARC
  5
93
330
1F
100
AcDbEntity
  8
0
  6
Continuous
 62
     7
370
    25
100
AcDbCircle
 10
354.5618137529
 20
111.0838495678
 30
0.0
 40
11.53456006379124
100
AcDbArc
 50
28.2102805322
 51
151.7902347364
  0
SPLINE
  5
94
330
1F
100
AcDbEntity
  8
0
  6
Continuous
 62
     7
370
    25
100
AcDbSpline
210
0.0
220
0.0
230
1.0
 70
     8
 71
     3
 72
     8
 73
     4
 74
     0
 42
0.000000001
 43
0.00000001
 40
0.0
 40
0.0
 40
0.0
 40
0.0
 40
1.0
 40
1.0
 40
1.0
 40
1.0
 10
364.5377468022722
 20
116.3621488171699
 30
0.0
 10
364.6008682816549
 20
116.419824158401
 30
0.0
 10
364.6637148750186
 20
116.477888168934
 30
0.0
 10
364.7262831833881
 20
116.5363386380414
 30
0.0
  0
SPLINE
  5
95
330
1F
100
AcDbEntity
  8
0
  6
Continuous
 62
     7
370
    25
100
AcDbSpline
210
0.0
220
0.0
230
1.0
 70
     8
 71
     3
 72
     8
 73
     4
 74
     0
 42
0.000000001
 43
0.00000001
 40
0.0
 40
0.0
 40
0.0
 40
0.0
 40
1.0
 40
1.0
 40
1.0
 40
1.0
 10
364.2261733306689
 20
116.5468622696748
 30
0.0
 10
364.3310112188951
 20
116.4856960784035
 30
0.0
 10
364.4348508884496
 20
116.4241174262632
 30
0.0
 10
364.5377468022731
 20
116.3621488171725
 30
0.0
  0
SPLINE
  5
96
330
1F
100
AcDbEntity
  8
0
  6
Continuous
 62
     7
370
    25
100
AcDbSpline
210
0.0
220
0.0
230
1.0
 70
     8
 71
     3
 72
     8
 73
     4
 74
     0
 42
0.000000001
 43
0.00000001
 40
0.0000004028655191
 40
0.0000004028655191
 40
0.0000004028655191
 40
0.0000004028655191
 40
0.0015137684369673
 40
0.0015137684369673
 40
0.0015137684369673
 40
0.0015137684369673
 10
346.1382190958078
 20
106.7615741639982
 30
0.0
 10
345.9315476082565
 20
106.6892802222835
 30
0.0
 10
345.7249286397158
 20
106.6169487363267
 30
0.0
 10
345.5183522649072
 20
106.5445868658904
 30
0.0
  0
LINE
  5
97
330
1F
100
AcDbEntity
  8
0
  6
Continuous
 62
     7
370
    25
100
AcDbLine
 10
345.5183521098
 20
106.5445870644
 30
0.0
 11
344.4307005218
 21
106.5445870644
 31
0.0
  0
LINE
  5
98
330
1F
100
AcDbEntity
  8
0
  6
Continuous
 62
     7
370
    25
100
AcDbLine
 10
344.3957284278
 20
106.9775994419
 30
0.0
 11
344.1726738772
 21
106.7138488887
 31
0.0
  0
LINE
  5
99
330
1F
100
AcDbEntity
  8
0
  6
Continuous
 62
     7
370
    25
100
AcDbLine
 10
346.1633386275
 20
106.9775994419
 30
0.0
 11
344.3959435633
 21
106.9775994419
 31
0.0
  0
LINE
  5
9A
330
1F
100
AcDbEntity
  8
0
  6
Continuous
 62
     7
370
    25
100
AcDbLine
 10
346.1739957517
 20
106.8200187309
 30
0.0
 11
346.1633386275
 21
106.9775994419
 31
0.0
  0
SPLINE
  5
9B
330
1F
100
AcDbEntity
  8
0
  6
Continuous
 62
     7
370
    25
100
AcDbSpline
210
0.0
220
0.0
230
1.0
 70
     8
 71
     3
 72
     8
 73
     4
 74
     0
 42
0.000000001
 43
0.00000001
 40
0.0006523765358269
 40
0.0006523765358269
 40
0.0006523765358269
 40
0.0006523765358269
 40
0.0009043636494504
 40
0.0009043636494504
 40
0.0009043636494504
 40
0.0009043636494504
 10
346.1750959708426
 20
106.8218122614468
 30
0.0
 10
346.1627789763252
 20
106.8017366804646
 30
0.0
 10
346.1504867789211
 20
106.7816572919422
 30
0.0
 10
346.1382190958078
 20
106.7615741639982
 30
0.0
  0
LINE
  5
9C
330
1F
100
AcDbEntity
  8
0
  6
Continuous
 62
     7
370
    25
100
AcDbLine
 10
344.5858802831
 20
116.3621486648
 30
0.0
 11
344.7942888549
 21
116.1138496845
 31
0.0
  0
LINE
  5
9D
330
1F
100
AcDbEntity
  8
0
  6
Continuous
 62
     7
370
    25
100
AcDbLine
 10
346.0445027983
 20
116.5468620619
 30
0.0
 11
344.8974542505
 21
116.5468620619
 31
0.0
  0
SPLINE
  5
9E
330
1F
100
AcDbEntity
  8
0
  6
Continuous
 62
     7
370
    25
100
AcDbSpline
210
0.0
220
0.0
230
1.0
 70
     8
 71
     3
 72
     8
 73
     4
 74
     0
 42
0.000000001
 43
0.00000001
 40
0.0000004089325119
 40
0.0000004089325119
 40
0.0000004089325119
 40
0.0000004089325119
 40
0.0015399868451459
 40
0.0015399868451459
 40
0.0015399868451459
 40
0.0015399868451459
 10
346.044502335521
 20
116.5468622696748
 30
0.0
 10
346.2562635943154
 20
116.4744073870214
 30
0.0
 10
346.4681839175056
 20
116.4020685169929
 30
0.0
 10
346.6803019007199
 20
116.3298749715671
 30
0.0
  0
LINE
  5
9F
330
1F
100
AcDbEntity
  8
0
  6
Continuous
 62
     7
370
    25
100
AcDbLine
 10
346.6803018188
 20
116.3298750779
 30
0.0
 11
346.6884546167
 21
116.3146623893
 31
0.0
  0
LINE
  5
A0
330
1F
100
AcDbEntity
  8
0
  6
Continuous
 62
     7
370
    25
100
AcDbLine
 10
346.6860844007
 20
116.1138496845
 30
0.0
 11
346.688455548
 21
116.314662855
 31
0.0
  0
LINE
  5
A1
330
1F
100
AcDbEntity
  8
0
  6
Continuous
 62
     7
370
    25
100
AcDbLine
 10
346.6860844007
 20
116.1138496845
 30
0.0
 11
344.7942888549
 21
116.1138496845
 31
0.0
  0
LINE
  5
A2
330
1F
100
AcDbEntity
  8
0
  6
Continuous
 62
     7
370
    25
100
AcDbLine
 10
364.9509536287
 20
106.7138488887
 30
0.0
 11
364.7278990781
 21
106.9775994419
 31
0.0
  0
LINE
  5
A3
330
1F
100
AcDbEntity
  8
0
  6
Continuous
 62
     7
370
    25
100
AcDbLine
 10
364.6929269841
 20
106.5445870644
 30
0.0
 11
363.6052753961
 21
106.5445870644
 31
0.0
  0
SPLINE
  5
A4
330
1F
100
AcDbEntity
  8
0
  6
Continuous
 62
     7
370
    25
100
AcDbSpline
210
0.0
220
0.0
230
1.0
 70
     8
 71
     3
 72
     8
 73
     4
 74
     0
 42
0.000000001
 43
0.00000001
 40
0.0000004024872366
 40
0.0000004024872366
 40
0.0000004024872366
 40
0.0000004024872366
 40
0.0015137680586847
 40
0.0015137680586847
 40
0.0015137680586847
 40
0.0015137680586847
 10
363.6052752409925
 20
106.5445868658904
 30
0.0
 10
363.3986988661838
 20
106.6169487363267
 30
0.0
 10
363.1920798976432
 20
106.6892802222835
 30
0.0
 10
362.9854084100919
 20
106.7615741639982
 30
0.0
  0
SPLINE
  5
A5
330
1F
100
AcDbEntity
  8
0
  6
Continuous
 62
     7
370
    25
100
AcDbSpline
210
0.0
220
0.0
230
1.0
 70
     8
 71
     3
 72
     8
 73
     4
 74
     0
 42
0.000000001
 43
0.00000001
 40
0.0000002414707367
 40
0.0000002414707367
 40
0.0000002414707367
 40
0.0000002414707367
 40
0.0002447240690309
 40
0.0002447240690309
 40
0.0002447240690309
 40
0.0002447240690309
 10
362.9854084100919
 20
106.7615741639982
 30
0.0
 10
362.9735060747367
 20
106.7810591899448
 30
0.0
 10
362.9615806635251
 20
106.8005406957691
 30
0.0
 10
362.9496319182301
 20
106.820018619281
 30
0.0
  0
LINE
  5
A6
330
1F
100
AcDbEntity
  8
0
  6
Continuous
 62
     7
370
    25
100
AcDbLine
 10
362.9602888784
 20
106.9775994419
 30
0.0
 11
362.9496317542
 21
106.8200187309
 31
0.0
  0
LINE
  5
A7
330
1F
100
AcDbEntity
  8
0
  6
Continuous
 62
     7
370
    25
100
AcDbLine
 10
364.7278990781
 20
106.9775994419
 30
0.0
 11
362.9551805741
 21
106.9775994419
 31
0.0
  0
SPLINE
  5
A8
330
1F
100
AcDbEntity
  8
0
  6
Continuous
 62
     7
370
    25
100
AcDbSpline
210
0.0
220
0.0
230
1.0
 70
     8
 71
     3
 72
     8
 73
     4
 74
     0
 42
0.000000001
 43
0.00000001
 40
0.000000410413179
 40
0.000000410413179
 40
0.000000410413179
 40
0.000000410413179
 40
0.0015399883258131
 40
0.0015399883258131
 40
0.0015399883258131
 40
0.0015399883258131
 10
362.4433256051798
 20
116.3298749715671
 30
0.0
 10
362.6554435883941
 20
116.4020685169929
 30
0.0
 10
362.8673639115843
 20
116.4744073870214
 30
0.0
 10
363.0791251703787
 20
116.5468622696748
 30
0.0
  0
LINE
  5
A9
330
1F
100
AcDbEntity
  8
0
  6
Continuous
 62
     7
370
    25
100
AcDbLine
 10
364.2261732554
 20
116.5468620619
 30
0.0
 11
363.0791247076
 21
116.5468620619
 31
0.0
  0
LINE
  5
AA
330
1F
100
AcDbEntity
  8
0
  6
Continuous
 62
     7
370
    25
100
AcDbLine
 10
364.329338651
 20
116.1138496845
 30
0.0
 11
364.5377472228
 21
116.3621486648
 31
0.0
  0
LINE
  5
AB
330
1F
100
AcDbEntity
  8
0
  6
Continuous
 62
     7
370
    25
100
AcDbLine
 10
364.3291486612
 20
116.1138496845
 30
0.0
 11
362.4375431052
 21
116.1138496845
 31
0.0
  0
LINE
  5
AC
330
1F
100
AcDbEntity
  8
0
  6
Continuous
 62
     7
370
    25
100
AcDbLine
 10
362.4351719579
 20
116.3146623893
 30
0.0
 11
362.4375431052
 21
116.1138496845
 31
0.0
  0
LINE
  5
AD
330
1F
100
AcDbEntity
  8
0
  6
Continuous
 62
     7
370
    25
100
AcDbLine
 10
362.4351728892
 20
116.3146623893
 30
0.0
 11
362.4433256871
 21
116.3298750779
 31
0.0
  0
ARC
  5
AE
330
1F
100
AcDbEntity
  8
0
  6
Continuous
 62
     7
370
    25
100
AcDbCircle
 10
354.5618137529
 20
111.0838495678
 30
0.0
 40
10.11874999999998
100
AcDbArc
 50
32.6761561262
 51
147.3238438738
  0
ARC
  5
AF
330
1F
100
AcDbEntity
  8
0
  6
Continuous
 62
     7
370
    25
100
AcDbCircle
 10
354.5618137529
 20
111.0838495678
 30
0.0
 40
10.11875
100
AcDbArc
 50
206.6538426687
 51
333.3461573313
  0
ARC
  5
B0
330
1F
100
AcDbEntity
  8
0
  6
Continuous
 62
     7
370
    25
100
AcDbCircle
 10
354.5618137529
 20
111.0838495678
 30
0.0
 40
9.467788105676657
100
AcDbArc
 50
207.1630537883
 51
332.8369462117
  0
ARC
  5
B1
330
1F
100
AcDbEntity
  8
0
  6
Continuous
 62
     7
370
    25
100
AcDbCircle
 10
354.5618137529
 20
111.0838495678
 30
0.0
 40
9.467788105676684
100
AcDbArc
 50
33.6481949792
 51
146.3518050208
  0
SPLINE
  5
B2
330
1F
100
AcDbEntity
  8
0
  6
Continuous
 62
     7
370
    25
100
AcDbSpline
210
0.0
220
0.0
230
1.0
 70
     8
 71
     3
 72
     8
 73
     4
 74
     0
 42
0.000000001
 43
0.00000001
 40
0.0
 40
0.0
 40
0.0
 40
0.0
 40
1.0
 40
1.0
 40
1.0
 40
1.0
 10
343.9673876378193
 20
106.5226862122059
 30
0.0
 10
343.9141448128777
 20
106.5232099384438
 30
0.0
 10
343.860849527262
 20
106.5240080317061
 30
0.0
 10
343.8075040217726
 20
106.525081079631
 30
0.0
  0
LINE
  5
B3
330
1F
100
AcDbEntity
  8
0
  6
Continuous
 62
     7
370
    25
100
AcDbLine
 10
344.2355912364
 20
106.9775994419
 30
0.0
 11
344.3957284278
 21
106.9775994419
 31
0.0
  0
LINE
  5
B4
330
1F
100
AcDbEntity
  8
0
  6
Continuous
 62
     7
370
    25
100
AcDbLine
 10
364.7278990781
 20
106.9775994419
 30
0.0
 11
364.8880362695
 21
106.9775994419
 31
0.0
  0
SPLINE
  5
B5
330
1F
100
AcDbEntity
  8
0
  6
Continuous
 62
     7
370
    25
100
AcDbSpline
210
0.0
220
0.0
230
1.0
 70
     8
 71
     3
 72
     8
 73
     4
 74
     0
 42
0.000000001
 43
0.00000001
 40
0.0
 40
0.0
 40
0.0
 40
0.0
 40
1.0
 40
1.0
 40
1.0
 40
1.0
 10
365.3161234841271
 20
106.525081079631
 30
0.0
 10
365.2627779786376
 20
106.5240080317061
 30
0.0
 10
365.2094826930219
 20
106.5232099384438
 30
0.0
 10
365.1562398680803
 20
106.5226862122059
 30
0.0
  0
LINE
  5
B6
330
1F
100
AcDbEntity
  8
0
  6
Continuous
 62
     7
370
    25
100
AcDbLine
 10
344.7942888549
 20
116.1138496845
 30
0.0
 11
344.67087185
 21
116.1138496845
 31
0.0
  0
SPLINE
  5
B7
330
1F
100
AcDbEntity
  8
0
  6
Continuous
 62
     7
370
    25
100
AcDbSpline
210
0.0
220
0.0
230
1.0
 70
     8
 71
     3
 72
     8
 73
     4
 74
     0
 42
0.000000001
 43
0.00000001
 40
0.0
 40
0.0
 40
0.0
 40
0.0
 40
1.0
 40
1.0
 40
1.0
 40
1.0
 10
344.2741228282701
 20
116.534295084719
 30
0.0
 10
344.3152382553119
 20
116.5351640223589
 30
0.0
 10
344.356312549923
 20
116.5358450599418
 30
0.0
 10
344.3973443224121
 20
116.5363386380033
 30
0.0
  0
SPLINE
  5
B8
330
1F
100
AcDbEntity
  8
0
  6
Continuous
 62
     7
370
    25
100
AcDbSpline
210
0.0
220
0.0
230
1.0
 70
     8
 71
     3
 72
     8
 73
     4
 74
     0
 42
0.000000001
 43
0.00000001
 40
0.0
 40
0.0
 40
0.0
 40
0.0
 40
1.0
 40
1.0
 40
1.0
 40
1.0
 10
364.7262831834876
 20
116.5363386380033
 30
0.0
 10
364.7673149559767
 20
116.5358450599418
 30
0.0
 10
364.8083892505877
 20
116.535164022359
 30
0.0
 10
364.8495046776296
 20
116.534295084719
 30
0.0
  0
LINE
  5
B9
330
1F
100
AcDbEntity
  8
0
  6
Continuous
 62
     7
370
    25
100
AcDbLine
 10
364.4527556559
 20
116.1138496845
 30
0.0
 11
364.329338651
 21
116.1138496845
 31
0.0
  0
SPLINE
  5
BA
330
1F
100
AcDbEntity
  8
0
  6
Continuous
 62
     7
370
    25
100
AcDbSpline
210
0.0
220
0.0
230
1.0
 70
     8
 71
     3
 72
     9
 73
     5
 74
     0
 42
0.000000001
 43
0.00000001
 40
0.0
 40
0.0
 40
0.0
 40
0.0
 40
0.5102121239851395
 40
0.9999999999999999
 40
0.9999999999999999
 40
0.9999999999999999
 40
0.9999999999999999
 10
346.6884548846351
 20
116.3146628261085
 30
0.0
 10
346.8179951024859
 20
116.3134178674177
 30
0.0
 10
347.0718899273267
 20
116.3109777868466
 30
0.0
 10
347.3298692003364
 20
116.3082853411535
 30
0.0
 10
347.4562243205197
 20
116.3069666138961
 30
0.0
  0
SPLINE
  5
BB
330
1F
100
AcDbEntity
  8
0
  6
Continuous
 62
     7
370
    25
100
AcDbSpline
210
0.0
220
0.0
230
1.0
 70
     8
 71
     3
 72
     8
 73
     4
 74
     0
 42
0.000000001
 43
0.00000001
 40
0.0
 40
0.0
 40
0.0
 40
0.0
 40
1.0
 40
1.0
 40
1.0
 40
1.0
 10
347.4562240668451
 20
116.3069661446189
 30
0.0
 10
347.4484630088997
 20
116.2964079094199
 30
0.0
 10
347.4407254838038
 20
116.2858323758935
 30
0.0
 10
347.4330115684343
 20
116.2752396491141
 30
0.0
  0
SPLINE
  5
BC
330
1F
100
AcDbEntity
  8
0
  6
Continuous
 62
     7
370
    25
100
AcDbSpline
210
0.0
220
0.0
230
1.0
 70
     8
 71
     3
 72
     8
 73
     4
 74
     0
 42
0.000000001
 43
0.00000001
 40
0.0
 40
0.0
 40
0.0
 40
0.0
 40
1.0
 40
1.0
 40
1.0
 40
1.0
 10
347.2614537356713
 20
116.1138499066509
 30
0.0
 10
347.3187141427057
 20
116.1677580836386
 30
0.0
 10
347.3759005338154
 20
116.2215550087218
 30
0.0
 10
347.4330115684343
 20
116.2752396491141
 30
0.0
  0
LINE
  5
BD
330
1F
100
AcDbEntity
  8
0
  6
Continuous
 62
     7
370
    25
100
AcDbLine
 10
347.261454556
 20
116.1138496845
 30
0.0
 11
346.6860844007
 21
116.1138496845
 31
0.0
  0
SPLINE
  5
BE
330
1F
100
AcDbEntity
  8
0
  6
Continuous
 62
     7
370
    25
100
AcDbSpline
210
0.0
220
0.0
230
1.0
 70
     8
 71
     3
 72
     9
 73
     5
 74
     0
 42
0.000000001
 43
0.00000001
 40
0.0
 40
0.0
 40
0.0
 40
0.0
 40
0.4897878789203994
 40
0.9999999999999999
 40
0.9999999999999999
 40
0.9999999999999999
 40
0.9999999999999999
 10
361.6674033176013
 20
116.3069664340204
 30
0.0
 10
361.7937583998225
 20
116.3082851597736
 30
0.0
 10
362.0517375937947
 20
116.31097760238
 30
0.0
 10
362.3056323420841
 20
116.3134176802159
 30
0.0
 10
362.4351725201398
 20
116.3146626375042
 30
0.0
  0
ARC
  5
BF
330
1F
100
AcDbEntity
  8
0
  6
Continuous
 62
     7
370
    25
100
AcDbCircle
 10
354.5618137529
 20
111.0838495678
 30
0.0
 40
8.818750000000028
100
AcDbArc
 50
36.3185452201
 51
143.6814533294
  0
SPLINE
  5
C0
330
1F
100
AcDbEntity
  8
0
  6
Continuous
 62
     7
370
    25
100
AcDbSpline
210
0.0
220
0.0
230
1.0
 70
     8
 71
     3
 72
     8
 73
     4
 74
     0
 42
0.000000001
 43
0.00000001
 40
0.0
 40
0.0
 40
0.0
 40
0.0
 40
1.0
 40
1.0
 40
1.0
 40
1.0
 10
361.6907313692465
 20
116.2750811348152
 30
0.0
 10
361.6829792565458
 20
116.2857268114878
 30
0.0
 10
361.6752032978786
 20
116.296355123682
 30
0.0
 10
361.6674035712751
 20
116.3069659647444
 30
0.0
  0
LINE
  5
C1
330
1F
100
AcDbEntity
  8
0
  6
Continuous
 62
     7
370
    25
100
AcDbLine
 10
362.4375431052
 20
116.1138496845
 30
0.0
 11
361.8621445446
 21
116.1138496845
 31
0.0
  0
SPLINE
  5
C2
330
1F
100
AcDbEntity
  8
0
  6
Continuous
 62
     7
370
    25
100
AcDbSpline
210
0.0
220
0.0
230
1.0
 70
     8
 71
     3
 72
     8
 73
     4
 74
     0
 42
0.000000001
 43
0.00000001
 40
0.0
 40
0.0
 40
0.0
 40
0.0
 40
1.0
 40
1.0
 40
1.0
 40
1.0
 10
361.6907313692465
 20
116.2750811348152
 30
0.0
 10
361.7477944969326
 20
116.2214491843994
 30
0.0
 10
361.8049328766628
 20
116.1677050980345
 30
0.0
 10
361.8621451701367
 20
116.1138499067843
 30
0.0
  0
ARC
  5
C3
330
1F
100
AcDbEntity
  8
0
  6
Continuous
 62
     7
370
    25
100
AcDbCircle
 10
354.5618137529
 20
111.0838495678
 30
0.0
 40
8.818749999999996
100
AcDbArc
 50
209.2047569376
 51
330.7952430624
  0
SPLINE
  5
C4
330
1F
100
AcDbEntity
  8
0
  6
Continuous
 62
     7
370
    25
100
AcDbSpline
210
0.0
220
0.0
230
1.0
 70
    24
 71
     3
 72
     8
 73
     4
 74
     0
 42
0.000000001
 43
0.00000001
 40
0.0
 40
0.0
 40
0.0
 40
0.0
 40
0.000136040218399
 40
0.000136040218399
 40
0.000136040218399
 40
0.000136040218399
 10
362.3029491497941
 20
106.8243091369314
 30
0.0
 10
362.28851015011
 20
106.8098701372474
 30
0.0
 10
362.2740396977478
 20
106.7953996848851
 30
0.0
 10
362.2595380991964
 20
106.7808980863337
 30
0.0
  0
SPLINE
  5
C5
330
1F
100
AcDbEntity
  8
0
  6
Continuous
 62
     7
370
    25
100
AcDbSpline
210
0.0
220
0.0
230
1.0
 70
     8
 71
     3
 72
     9
 73
     5
 74
     0
 42
0.000000001
 43
0.00000001
 40
0.0
 40
0.0
 40
0.0
 40
0.0
 40
0.5086448740973026
 40
1.0
 40
1.0
 40
1.0
 40
1.0
 10
362.9496318785504
 20
106.8200185311463
 30
0.0
 10
362.8404658295526
 20
106.8207123799913
 30
0.0
 10
362.6258444806368
 20
106.8220764925192
 30
0.0
 10
362.4093331679594
 20
106.8235733124571
 30
0.0
 10
362.3029492246594
 20
106.8243087826061
 30
0.0
  0
SPLINE
  5
C6
330
1F
100
AcDbEntity
  8
0
  6
Continuous
 62
     7
370
    25
100
AcDbSpline
210
0.0
220
0.0
230
1.0
 70
     8
 71
     3
 72
     9
 73
     5
 74
     0
 42
0.000000001
 43
0.00000001
 40
0.0
 40
0.0
 40
0.0
 40
0.0
 40
0.4913551252639757
 40
1.0
 40
1.0
 40
1.0
 40
1.0
 10
346.8206783117047
 20
106.8243087521415
 30
0.0
 10
346.7142943603126
 20
106.8235732818127
 30
0.0
 10
346.497783030885
 20
106.822076461507
 30
0.0
 10
346.2831616655182
 20
106.8207123486526
 30
0.0
 10
346.1739956080156
 20
106.8200184996407
 30
0.0
  0
SPLINE
  5
C7
330
1F
100
AcDbEntity
  8
0
  6
Continuous
 62
     7
370
    25
100
AcDbSpline
210
0.0
220
0.0
230
1.0
 70
    24
 71
     3
 72
     8
 73
     4
 74
     0
 42
0.000000001
 43
0.00000001
 40
0.0
 40
0.0
 40
0.0
 40
0.0
 40
0.0001360401227241
 40
0.0001360401227241
 40
0.0001360401227241
 40
0.0001360401227241
 10
346.8640894067033
 20
106.7808980863337
 30
0.0
 10
346.8495878183506
 20
106.7953996746864
 30
0.0
 10
346.8351173761434
 20
106.8098701168936
 30
0.0
 10
346.82067838657
 20
106.824309106467
 30
0.0
  0
LINE
  5
C8
330
1F
100
AcDbEntity
  8
0
  6
Continuous
 62
     7
370
    25
100
AcDbLine
 10
346.1633386275
 20
106.9775994419
 30
0.0
 11
346.6673881
 21
106.9775994419
 31
0.0
  0
SPLINE
  5
C9
330
1F
100
AcDbEntity
  8
0
  6
Continuous
 62
     7
370
    25
100
AcDbSpline
210
0.0
220
0.0
230
1.0
 70
     8
 71
     3
 72
     8
 73
     4
 74
     0
 42
0.000000001
 43
0.00000001
 40
0.0
 40
0.0
 40
0.0
 40
0.0
 40
1.0
 40
1.0
 40
1.0
 40
1.0
 10
346.820678586402
 20
106.8243089068798
 30
0.0
 10
346.7696098237976
 20
106.8753513986239
 30
0.0
 10
346.7185128641616
 20
106.9264483706498
 30
0.0
 10
346.667388022646
 20
106.977599470391
 30
0.0
  0
SPLINE
  5
CA
330
1F
100
AcDbEntity
  8
0
  6
Continuous
 62
     7
370
    25
100
AcDbSpline
210
0.0
220
0.0
230
1.0
 70
     8
 71
     3
 72
     8
 73
     4
 74
     0
 42
0.000000001
 43
0.00000001
 40
0.0
 40
0.0
 40
0.0
 40
0.0
 40
1.0
 40
1.0
 40
1.0
 40
1.0
 10
362.4562394832538
 20
106.9775994703911
 30
0.0
 10
362.4051146519085
 20
106.9264483808358
 30
0.0
 10
362.3540177024275
 20
106.8753514189648
 30
0.0
 10
362.3029489499622
 20
106.8243089373444
 30
0.0
  0
LINE
  5
CB
330
1F
100
AcDbEntity
  8
0
  6
Continuous
 62
     7
370
    25
100
AcDbLine
 10
362.4562394059
 20
106.9775994419
 30
0.0
 11
362.9602888784
 21
106.9775994419
 31
0.0
  0
CIRCLE
  5
CC
330
1F
100
AcDbEntity
  8
0
  6
Continuous
 62
     7
370
    25
100
AcDbCircle
 10
354.5618137529
 20
111.0838495678
 30
0.0
 40
12.47086902276419
  0
SPLINE
  5
CD
330
1F
100
AcDbEntity
  8
0
  6
Continuous
 62
     7
370
    25
100
AcDbSpline
210
0.0
220
0.0
230
1.0
 70
     8
 71
     3
 72
    23
 73
    19
 74
     0
 42
0.000000001
 43
0.00000001
 40
0.0
 40
0.0
 40
0.0
 40
0.0
 40
0.0521036415675031
 40
0.1035646240925967
 40
0.1544751946736949
 40
0.2049306267473421
 40
0.2550287880844035
 40
0.3048696389141012
 40
0.3545546704609132
 40
0.4041862979523234
 40
0.4538672252126086
 40
0.5036997999421611
 40
0.5901870230746071
 40
0.674271637822954
 40
0.7565997087222995
 40
0.8378563983721267
 40
0.9187511781367398
 40
1.0
 40
1.0
 40
1.0
 40
1.0
 10
343.7225616062923
 20
115.5742602805325
 30
0.0
 10
343.7358559612421
 20
115.603428173694
 30
0.0
 10
343.7622806953202
 20
115.661404196098
 30
0.0
 10
343.8014917015441
 20
115.74430349711
 30
0.0
 10
343.8399336563498
 20
115.8234854781276
 30
0.0
 10
343.8775212378164
 20
115.8987402949296
 30
0.0
 10
343.914177124124
 20
115.9701599491873
 30
0.0
 10
343.9498269881826
 20
116.0377565579689
 30
0.0
 10
343.9844007349438
 20
116.1015628794334
 30
0.0
 10
344.0178324288999
 20
116.1616064215026
 30
0.0
 10
344.0500593061248
 20
116.2179131182292
 30
0.0
 10
344.0885607430144
 20
116.2833181000529
 30
0.0
 10
344.1312222237278
 20
116.352879177889
 30
0.0
 10
344.1747152658509
 20
116.4196386745535
 30
0.0
 10
344.2111277626788
 20
116.4713627226513
 30
0.0
 10
344.240028569156
 20
116.5078110347032
 30
0.0
 10
344.2619460252544
 20
116.5304084315864
 30
0.0
 10
344.2700579897476
 20
116.5329976491477
 30
0.0
 10
344.2741228282701
 20
116.534295084719
 30
0.0
  0
SPLINE
  5
CE
330
1F
100
AcDbEntity
  8
0
  6
Continuous
 62
     7
370
    25
100
AcDbSpline
210
0.0
220
0.0
230
1.0
 70
     8
 71
     3
 72
     8
 73
     4
 74
     0
 42
0.000000001
 43
0.00000001
 40
0.0
 40
0.0
 40
0.0
 40
0.0
 40
1.0
 40
1.0
 40
1.0
 40
1.0
 10
343.6019236664296
 20
115.5720499231227
 30
0.0
 10
343.6421126800225
 20
115.5727802333402
 30
0.0
 10
343.6822749821126
 20
115.5733607591697
 30
0.0
 10
343.7224096925881
 20
115.5737917241195
 30
0.0
  0
SPLINE
  5
CF
330
1F
100
AcDbEntity
  8
0
  6
Continuous
 62
     7
370
    25
100
AcDbSpline
210
0.0
220
0.0
230
1.0
 70
     8
 71
     3
 72
    18
 73
    14
 74
     0
 42
0.000000001
 43
0.00000001
 40
0.0
 40
0.0
 40
0.0
 40
0.0
 40
0.0923824559411628
 40
0.1844689291573508
 40
0.2764953615950219
 40
0.3686975365494161
 40
0.4613092840003458
 40
0.5545607518442569
 40
0.6486768051537182
 40
0.7438756050146744
 40
0.8403674044302629
 40
0.9203921078121001
 40
1.0
 40
1.0
 40
1.0
 40
1.0
 10
343.654862655229
 20
115.8388669300045
 30
0.0
 10
343.6566983088817
 20
115.8386586177893
 30
0.0
 10
343.6603637349646
 20
115.8382426607672
 30
0.0
 10
343.6631590645838
 20
115.831438237301
 30
0.0
 10
343.6639613596623
 20
115.8201048586489
 30
0.0
 10
343.6625952226192
 20
115.8038044636223
 30
0.0
 10
343.6591336739903
 20
115.7826532247864
 30
0.0
 10
343.6535923682209
 20
115.75661752367
 30
0.0
 10
343.6460079001519
 20
115.7256931440187
 30
0.0
 10
343.6364308982151
 20
115.6898941125741
 30
0.0
 10
343.6255904221963
 20
115.6516432050429
 30
0.0
 10
343.6141017812573
 20
115.6124249916485
 30
0.0
 10
343.6060017963792
 20
115.5855700147991
 30
0.0
 10
343.6019623787365
 20
115.5721775864287
 30
0.0
  0
LINE
  5
D0
330
1F
100
AcDbEntity
  8
0
  6
Continuous
 62
     7
370
    25
100
AcDbLine
 10
343.6021074837
 20
115.8381190634
 30
0.0
 11
343.654862251
 21
115.8388669154
 31
0.0
  0
SPLINE
  5
D1
330
1F
100
AcDbEntity
  8
0
  6
Continuous
 62
     7
370
    25
100
AcDbSpline
210
0.0
220
0.0
230
1.0
 70
     8
 71
     3
 72
    25
 73
    21
 74
     0
 42
0.000000001
 43
0.00000001
 40
0.0
 40
0.0
 40
0.0
 40
0.0
 40
0.0280105225426465
 40
0.0559601148860768
 40
0.0839014045043132
 40
0.1118870776786367
 40
0.1399695827588937
 40
0.1682008401739883
 40
0.196631967042422
 40
0.2253130233141467
 40
0.2542927850735845
 40
0.3799486436587335
 40
0.5057850221667067
 40
0.6313085886338298
 40
0.7532068238012468
 40
0.8039473267955921
 40
0.8535894438554446
 40
0.9025339722394071
 40
0.9511970353791085
 40
1.0
 40
1.0
 40
1.0
 40
1.0
 10
342.6911458881762
 20
113.271187310317
 30
0.0
 10
342.6981249580871
 20
113.3084973238237
 30
0.0
 10
342.7120679166099
 20
113.3830361918173
 30
0.0
 10
342.7345898140528
 20
113.4943452373005
 30
0.0
 10
342.7582234261504
 20
113.605007446315
 30
0.0
 10
342.7830730166384
 20
113.7149915792592
 30
0.0
 10
342.8090916411246
 20
113.8242867228738
 30
0.0
 10
342.8362730224425
 20
113.9328776920759
 30
0.0
 10
342.864598663775
 20
114.0407484020183
 30
0.0
 10
342.8940574446076
 20
114.1478933477433
 30
0.0
 10
342.9584657325197
 20
114.3720682342553
 30
0.0
 10
343.0635674245916
 20
114.6987336482913
 30
0.0
 10
343.2090301853877
 20
115.0846802536111
 30
0.0
 10
343.3482935934974
 20
115.4067600663012
 30
0.0
 10
343.4454419463651
 20
115.6025806503329
 30
0.0
 10
343.5057373525913
 20
115.7119281008163
 30
0.0
 10
343.5406259354726
 20
115.7698561252317
 30
0.0
 10
343.5685204374004
 20
115.8103100779966
 30
0.0
 10
343.5898855297721
 20
115.8349242933956
 30
0.0
 10
343.5980294773448
 20
115.8370532209033
 30
0.0
 10
343.6021072959898
 20
115.8381192125747
 30
0.0
  0
ARC
  5
D2
330
1F
100
AcDbEntity
  8
0
  6
Continuous
 62
     7
370
    25
100
AcDbCircle
 10
354.5618137529
 20
111.0838495678
 30
0.0
 40
12.07050959801147
100
AcDbArc
 50
169.5595567507
 51
190.4404432494
  0
SPLINE
  5
D3
330
1F
100
AcDbEntity
  8
0
  6
Continuous
 62
     7
370
    25
100
AcDbSpline
210
0.0
220
0.0
230
1.0
 70
     8
 71
     3
 72
    26
 73
    22
 74
     0
 42
0.000000001
 43
0.00000001
 40
0.0
 40
0.0
 40
0.0
 40
0.0
 40
0.0241259796963635
 40
0.0482159912272988
 40
0.0723203915124065
 40
0.0964895678710797
 40
0.1207736231963513
 40
0.1452220711242836
 40
0.1698835501657706
 40
0.1948055644472379
 40
0.2200342569517627
 40
0.2456142191611387
 40
0.3690971486901655
 40
0.4940698769485187
 40
0.6192566784762451
 40
0.7454656653603225
 40
0.7971495824713707
 40
0.8481710308405392
 40
0.8988013269235234
 40
0.9493179290492194
 40
1.0
 40
1.0
 40
1.0
 40
1.0
 10
343.6021072959898
 20
106.3295799229905
 30
0.0
 10
343.6001969812494
 20
106.32986681618
 30
0.0
 10
343.5963791997572
 20
106.3304401748447
 30
0.0
 10
343.5884190745763
 20
106.3364988630912
 30
0.0
 10
343.5788399740009
 20
106.346378123822
 30
0.0
 10
343.5674927671322
 20
106.3604592149324
 30
0.0
 10
343.5544365838382
 20
106.3786547629566
 30
0.0
 10
343.5396806806109
 20
106.4010053056953
 30
0.0
 10
343.5232535003136
 20
106.4275195413873
 30
0.0
 10
343.5051853455933
 20
106.4582150521006
 30
0.0
 10
343.4855081991703
 20
106.4931161553405
 30
0.0
 10
343.4373088177421
 20
106.5818806904482
 30
0.0
 10
343.3489907783066
 20
106.7591609918971
 30
0.0
 10
343.2099311615399
 20
107.0802468987422
 30
0.0
 10
343.0642584816777
 20
107.4668295506326
 30
0.0
 10
342.9505198866682
 20
107.8205372547626
 30
0.0
 10
342.8708142681217
 20
108.1027909543754
 30
0.0
 10
342.8201646957674
 20
108.2972343851497
 30
0.0
 10
342.773198025902
 20
108.4944757620838
 30
0.0
 10
342.7296382038977
 20
108.6943788071789
 30
0.0
 10
342.7039906387662
 20
108.8290607469112
 30
0.0
 10
342.6911458881762
 20
108.8965118252483
 30
0.0
  0
LINE
  5
D4
330
1F
100
AcDbEntity
  8
0
  6
Continuous
 62
     7
370
    25
100
AcDbLine
 10
343.654862251
 20
106.3288322201
 30
0.0
 11
343.6021074837
 21
106.3295800722
 31
0.0
  0
SPLINE
  5
D5
330
1F
100
AcDbEntity
  8
0
  6
Continuous
 62
     7
370
    25
100
AcDbSpline
210
0.0
220
0.0
230
1.0
 70
     8
 71
     3
 72
    14
 73
    10
 74
     0
 42
0.000000001
 43
0.00000001
 40
0.0
 40
0.0
 40
0.0
 40
0.0
 40
0.0789261963172865
 40
0.158232872055133
 40
0.330847539457262
 40
0.5000195457610529
 40
0.6670357883572423
 40
0.8332395193657144
 40
1.0
 40
1.0
 40
1.0
 40
1.0
 10
343.6018657983772
 20
106.5958556828653
 30
0.0
 10
343.6058803449732
 20
106.5825525582277
 30
0.0
 10
343.6139287910853
 20
106.5558821785953
 30
0.0
 10
343.6288294978949
 20
106.5050674392755
 30
0.0
 10
343.6447264794913
 20
106.4480276230885
 30
0.0
 10
343.6578049744892
 20
106.3937244063606
 30
0.0
 10
343.6640375816064
 20
106.3555572636378
 30
0.0
 10
343.6638480017695
 20
106.3321485349609
 30
0.0
 10
343.6578611076387
 20
106.3299388802823
 30
0.0
 10
343.654862655229
 20
106.3288322055607
 30
0.0
  0
SPLINE
  5
D6
330
1F
100
AcDbEntity
  8
0
  6
Continuous
 62
     7
370
    25
100
AcDbSpline
210
0.0
220
0.0
230
1.0
 70
     8
 71
     3
 72
     8
 73
     4
 74
     0
 42
0.000000001
 43
0.00000001
 40
0.0
 40
0.0
 40
0.0
 40
0.0
 40
1.0
 40
1.0
 40
1.0
 40
1.0
 10
343.7491704896016
 20
106.5937946044149
 30
0.0
 10
343.7001025745729
 20
106.5942816576268
 30
0.0
 10
343.6509931370521
 20
106.5949927255017
 30
0.0
 10
343.6018437925268
 20
106.595928218736
 30
0.0
  0
SPLINE
  5
D7
330
1F
100
AcDbEntity
  8
0
  6
Continuous
 62
     7
370
    25
100
AcDbSpline
210
0.0
220
0.0
230
1.0
 70
     8
 71
     3
 72
    13
 73
     9
 74
     0
 42
0.000000001
 43
0.00000001
 40
0.0
 40
0.0
 40
0.0
 40
0.0
 40
0.1667030582307992
 40
0.3329480818053035
 40
0.4990671507274896
 40
0.6653938523718403
 40
0.832261271055009
 40
1.0
 40
1.0
 40
1.0
 40
1.0
 10
343.8075040217726
 20
106.525081079631
 30
0.0
 10
343.8056607079357
 20
106.5254981893967
 30
0.0
 10
343.8019791449658
 20
106.5263312628741
 30
0.0
 10
343.7944618911713
 20
106.5323457417005
 30
0.0
 10
343.7855110870548
 20
106.5418404739927
 30
0.0
 10
343.7749607986319
 20
106.5552500811024
 30
0.0
 10
343.7629876131148
 20
106.572167984726
 30
0.0
 10
343.7537812055083
 20
106.5865807198654
 30
0.0
 10
343.7491660150195
 20
106.5938058527269
 30
0.0
  0
SPLINE
  5
D8
330
1F
100
AcDbEntity
  8
0
  6
Continuous
 62
     7
370
    25
100
AcDbSpline
210
0.0
220
0.0
230
1.0
 70
     8
 71
     3
 72
    13
 73
     9
 74
     0
 42
0.000000001
 43
0.00000001
 40
0.0
 40
0.0
 40
0.0
 40
0.0
 40
0.1686319999748085
 40
0.3360343310905433
 40
0.502536782590866
 40
0.6684737453788339
 40
0.834182263691515
 40
1.0
 40
1.0
 40
1.0
 40
1.0
 10
365.3744628719981
 20
106.5938093025398
 30
0.0
 10
365.3698256269
 20
106.5865521425203
 30
0.0
 10
365.3605849516135
 20
106.5720907418781
 30
0.0
 10
365.3485695782464
 20
106.5551100451739
 30
0.0
 10
365.3380040244919
 20
106.5416772639944
 30
0.0
 10
365.3290646751989
 20
106.5321977954405
 30
0.0
 10
365.3215837946103
 20
106.5262325697426
 30
0.0
 10
365.3179439873209
 20
106.5254649939582
 30
0.0
 10
365.3161234841271
 20
106.525081079631
 30
0.0
  0
SPLINE
  5
D9
330
1F
100
AcDbEntity
  8
0
  6
Continuous
 62
     7
370
    25
100
AcDbSpline
210
0.0
220
0.0
230
1.0
 70
     8
 71
     3
 72
     8
 73
     4
 74
     0
 42
0.000000001
 43
0.00000001
 40
0.0
 40
0.0
 40
0.0
 40
0.0
 40
1.0
 40
1.0
 40
1.0
 40
1.0
 10
365.5217884839706
 20
106.5959283234825
 30
0.0
 10
365.4726375543623
 20
106.5949927932205
 30
0.0
 10
365.423526534283
 20
106.5942817027084
 30
0.0
 10
365.3744570393753
 20
106.5937946412104
 30
0.0
  0
SPLINE
  5
DA
330
1F
100
AcDbEntity
  8
0
  6
Continuous
 62
     7
370
    25
100
AcDbSpline
210
0.0
220
0.0
230
1.0
 70
     8
 71
     3
 72
    18
 73
    14
 74
     0
 42
0.000000001
 43
0.00000001
 40
0.0
 40
0.0
 40
0.0
 40
0.0
 40
0.0923325137111192
 40
0.1843692047063016
 40
0.2763458873810836
 40
0.3684982175655623
 40
0.4610598988303626
 40
0.554260954653301
 40
0.6483261285442131
 40
0.74347346365053
 40
0.8399130993119804
 40
0.9201660718299768
 40
1.0
 40
1.0
 40
1.0
 40
1.0
 10
365.4687648506707
 20
106.3288322055607
 30
0.0
 10
365.4669291970182
 20
106.3290405177765
 30
0.0
 10
365.4632637709356
 20
106.3294564747998
 30
0.0
 10
365.4604684413134
 20
106.3362608982571
 30
0.0
 10
365.4596661462465
 20
106.3475942769429
 30
0.0
 10
365.4610322832458
 20
106.3638946718433
 30
0.0
 10
365.4644938320398
 20
106.3850459111534
 30
0.0
 10
365.4700351371862
 20
106.411081610481
 30
0.0
 10
365.4776196076135
 20
106.4420059969037
 30
0.0
 10
365.4871966005939
 20
106.4778050026318
 30
0.0
 10
365.4980479476197
 20
106.5160942477455
 30
0.0
 10
365.5095627092517
 20
106.555399872162
 30
0.0
 10
365.5176944180727
 20
106.5823569500557
 30
0.0
 10
365.5217496296805
 20
106.5958002075052
 30
0.0
  0
LINE
  5
DB
330
1F
100
AcDbEntity
  8
0
  6
Continuous
 62
     7
370
    25
100
AcDbLine
 10
365.5215200222
 20
106.3295800722
 30
0.0
 11
365.4687652549
 21
106.3288322201
 31
0.0
  0
SPLINE
  5
DC
330
1F
100
AcDbEntity
  8
0
  6
Continuous
 62
     7
370
    25
100
AcDbSpline
210
0.0
220
0.0
230
1.0
 70
     8
 71
     3
 72
    25
 73
    21
 74
     0
 42
0.000000001
 43
0.00000001
 40
0.0
 40
0.0
 40
0.0
 40
0.0
 40
0.0280105225422753
 40
0.0559601148854256
 40
0.0839014045034749
 40
0.1118870776777086
 40
0.1399695827579646
 40
0.1682008401731476
 40
0.1966319670417595
 40
0.2253130233137476
 40
0.2542927850735311
 40
0.3799486436564626
 40
0.5057850221666382
 40
0.631308588631066
 40
0.7532068238011618
 40
0.8039473267946936
 40
0.8535894438541253
 40
0.9025339722380873
 40
0.9511970353782256
 40
1.0
 40
1.0
 40
1.0
 40
1.0
 10
366.4324816177235
 20
108.8965118252483
 30
0.0
 10
366.4255025478126
 20
108.8592018117421
 30
0.0
 10
366.41155958929
 20
108.7846629437493
 30
0.0
 10
366.3890376918474
 20
108.6733538982673
 30
0.0
 10
366.36540407975
 20
108.5626916892535
 30
0.0
 10
366.3405544892621
 20
108.4527075563096
 30
0.0
 10
366.3145358647759
 20
108.343412412695
 30
0.0
 10
366.2873544834579
 20
108.2348214434925
 30
0.0
 10
366.2590288421253
 20
108.1269507335494
 30
0.0
 10
366.2295700612924
 20
108.0198057878233
 30
0.0
 10
366.1651617733809
 20
107.7956309013128
 30
0.0
 10
366.060060081309
 20
107.4689654872768
 30
0.0
 10
365.9145973205138
 20
107.0830188819587
 30
0.0
 10
365.7753339124031
 20
106.7609390692661
 30
0.0
 10
365.678185559536
 20
106.5651184852351
 30
0.0
 10
365.6178901533084
 20
106.4557710347486
 30
0.0
 10
365.5830015704273
 20
106.3978430103333
 30
0.0
 10
365.5551070684994
 20
106.3573890575684
 30
0.0
 10
365.5337419761277
 20
106.3327748421695
 30
0.0
 10
365.525598028555
 20
106.3306459146619
 30
0.0
 10
365.5215202099099
 20
106.3295799229905
 30
0.0
  0
ARC
  5
DD
330
1F
100
AcDbEntity
  8
0
  6
Continuous
 62
     7
370
    25
100
AcDbCircle
 10
354.5618137529
 20
111.0838495678
 30
0.0
 40
12.07050959801141
100
AcDbArc
 50
349.5595567507
 51
10.4404432493
  0
SPLINE
  5
DE
330
1F
100
AcDbEntity
  8
0
  6
Continuous
 62
     7
370
    25
100
AcDbSpline
210
0.0
220
0.0
230
1.0
 70
     8
 71
     3
 72
    26
 73
    22
 74
     0
 42
0.000000001
 43
0.00000001
 40
0.0
 40
0.0
 40
0.0
 40
0.0
 40
0.0241259796962591
 40
0.0482159912271133
 40
0.0723203915121637
 40
0.0964895678708023
 40
0.1207736231960627
 40
0.1452220711240065
 40
0.1698835501655268
 40
0.1948055644470484
 40
0.220034256951649
 40
0.2456142191611191
 40
0.3690971486898426
 40
0.4940698769485092
 40
0.6192566784753767
 40
0.7454656653602836
 40
0.7971495824708205
 40
0.848171030839725
 40
0.8988013269227118
 40
0.9493179290486752
 40
1.0
 40
1.0
 40
1.0
 40
1.0
 10
365.5215202099099
 20
115.8381192125747
 30
0.0
 10
365.5234305246503
 20
115.8378323193853
 30
0.0
 10
365.5272483061425
 20
115.8372589607205
 30
0.0
 10
365.5352084313234
 20
115.8312002724741
 30
0.0
 10
365.5447875318988
 20
115.8213210117432
 30
0.0
 10
365.5561347387675
 20
115.8072399206328
 30
0.0
 10
365.5691909220614
 20
115.7890443726086
 30
0.0
 10
365.5839468252887
 20
115.76669382987
 30
0.0
 10
365.6003740055861
 20
115.7401795941779
 30
0.0
 10
365.6184421603063
 20
115.7094840834646
 30
0.0
 10
365.6381193067293
 20
115.6745829802247
 30
0.0
 10
365.6863186881574
 20
115.5858184451175
 30
0.0
 10
365.7746367275928
 20
115.4085381436686
 30
0.0
 10
365.9136963443593
 20
115.0874522368242
 30
0.0
 10
366.0593690242217
 20
114.7008695849331
 30
0.0
 10
366.173107619231
 20
114.3471618808041
 30
0.0
 10
366.2528132377775
 20
114.0649081811917
 30
0.0
 10
366.3034628101315
 20
113.8704647504184
 30
0.0
 10
366.350429479997
 20
113.6732233734843
 30
0.0
 10
366.3939893020016
 20
113.4733203283881
 30
0.0
 10
366.4196368671334
 20
113.3386383886548
 30
0.0
 10
366.4324816177235
 20
113.2711873103169
 30
0.0
  0
LINE
  5
DF
330
1F
100
AcDbEntity
  8
0
  6
Continuous
 62
     7
370
    25
100
AcDbLine
 10
365.4687652549
 20
115.8388669154
 30
0.0
 11
365.5215200222
 21
115.8381190634
 31
0.0
  0
SPLINE
  5
E0
330
1F
100
AcDbEntity
  8
0
  6
Continuous
 62
     7
370
    25
100
AcDbSpline
210
0.0
220
0.0
230
1.0
 70
     8
 71
     3
 72
    14
 73
    10
 74
     0
 42
0.000000001
 43
0.00000001
 40
0.0
 40
0.0
 40
0.0
 40
0.0
 40
0.0786889129232242
 40
0.1577561817122941
 40
0.3304686003115578
 40
0.4997364082435315
 40
0.6668472316653192
 40
0.8331450833767118
 40
1.0
 40
1.0
 40
1.0
 40
1.0
 10
365.5216731374474
 20
115.572135420787
 30
0.0
 10
365.5176751284928
 20
115.5853853253029
 30
0.0
 10
365.5096598871621
 20
115.6119488431711
 30
0.0
 10
365.4947872138727
 20
115.6626703709399
 30
0.0
 10
365.4789010491104
 20
115.7196714499638
 30
0.0
 10
365.4658225254661
 20
115.7739747455729
 30
0.0
 10
365.4595899258611
 20
115.8121418676101
 30
0.0
 10
365.4597795037374
 20
115.8355506016857
 30
0.0
 10
365.4657663981299
 20
115.8377602556438
 30
0.0
 10
365.4687648506707
 20
115.8388669300046
 30
0.0
  0
SPLINE
  5
E1
330
1F
100
AcDbEntity
  8
0
  6
Continuous
 62
     7
370
    25
100
AcDbSpline
210
0.0
220
0.0
230
1.0
 70
     8
 71
     3
 72
     8
 73
     4
 74
     0
 42
0.000000001
 43
0.00000001
 40
0.0
 40
0.0
 40
0.0
 40
0.0
 40
1.0
 40
1.0
 40
1.0
 40
1.0
 10
365.4012177967646
 20
115.5737917607524
 30
0.0
 10
365.4413509152714
 20
115.5733608068051
 30
0.0
 10
365.4815116231999
 20
115.5727803037926
 30
0.0
 10
365.5216990405429
 20
115.572050028233
 30
0.0
  0
SPLINE
  5
E2
330
1F
100
AcDbEntity
  8
0
  6
Continuous
 62
     7
370
    25
100
AcDbSpline
210
0.0
220
0.0
230
1.0
 70
     8
 71
     3
 72
    23
 73
    19
 74
     0
 42
0.000000001
 43
0.00000001
 40
0.0
 40
0.0
 40
0.0
 40
0.0
 40
0.0441308420121292
 40
0.0880968635211716
 40
0.1320155028408941
 40
0.1760048571434164
 40
0.2201827305793597
 40
0.2646656976937351
 40
0.3095682184569769
 40
0.355001836559425
 40
0.401074485474427
 40
0.4478899182339682
 40
0.4955472680213688
 40
0.5953670562452651
 40
0.6949121173401501
 40
0.7950007648984784
 40
0.8964386255170008
 40
1.0
 40
1.0
 40
1.0
 40
1.0
 10
364.8495046776296
 20
116.534295084719
 30
0.0
 10
364.8514890677364
 20
116.5340122274891
 30
0.0
 10
364.8554504366213
 20
116.5334475694485
 30
0.0
 10
364.8643107408518
 20
116.5270282162698
 30
0.0
 10
364.8752832189741
 20
116.5165069667632
 30
0.0
 10
364.8885626169945
 20
116.5014754304535
 30
0.0
 10
364.9040733406609
 20
116.482023185391
 30
0.0
 10
364.9218048024139
 20
116.4581032074389
 30
0.0
 10
364.9417214491171
 20
116.4297021167251
 30
0.0
 10
364.9637869831292
 20
116.3967943769244
 30
0.0
 10
364.9879579068233
 20
116.3593543942682
 30
0.0
 10
365.0141849168706
 20
116.3173543226383
 30
0.0
 10
365.0525214971017
 20
116.2540772141153
 30
0.0
 10
365.1048542764801
 20
116.164018351752
 30
0.0
 10
365.1732548876883
 20
116.0396722321853
 30
0.0
 10
365.2459399624838
 20
115.8999591542048
 30
0.0
 10
365.3223001983837
 20
115.7456231389764
 30
0.0
 10
365.3745890130339
 20
115.6319004847486
 30
0.0
 10
365.4010042409374
 20
115.5744501514542
 30
0.0
  0
SPLINE
  5
E3
330
1F
100
AcDbEntity
  8
0
  6
Continuous
 62
     7
370
    25
100
AcDbSpline
210
0.0
220
0.0
230
1.0
 70
    11
 71
     3
 72
    39
 73
    35
 74
     0
 42
0.000000001
 43
0.00000001
 40
0.0
 40
0.0
 40
0.0
 40
0.0
 40
0.0310664058348413
 40
0.0621048158426138
 40
0.0931361551796939
 40
0.1235538293503726
 40
0.1538561545809849
 40
0.1850588072749156
 40
0.2160250992946587
 40
0.2471867223797568
 40
0.2784462884304475
 40
0.3100516090231247
 40
0.3419834369138969
 40
0.3734259894013238
 40
0.4048604886787081
 40
0.436874065183343
 40
0.4685120685926471
 40
0.499805535863323
 40
0.5309508213226204
 40
0.5618649784438111
 40
0.5930416446590877
 40
0.623374245013332
 40
0.6540913579072549
 40
0.6849496782718453
 40
0.7158160645166705
 40
0.7471731804043553
 40
0.7784514311866318
 40
0.810129591156098
 40
0.8419598919688388
 40
0.8735175891922303
 40
0.9050808037886594
 40
0.9370235169792582
 40
0.9687441590030581
 40
1.0
 40
1.0
 40
1.0
 40
1.0
 10
357.4659403177472
 20
99.6522193840292
 30
0.0
 10
357.6556521467019
 20
99.69098796077668
 30
0.0
 10
357.9993929971507
 20
99.76741890655971
 30
0.0
 10
358.3823499843583
 20
99.85555844655295
 30
0.0
 10
358.6267904510734
 20
99.90250793319791
 30
0.0
 10
358.7077793878896
 20
99.89059900848416
 30
0.0
 10
358.6270569424079
 20
99.81864110176869
 30
0.0
 10
358.3871947487883
 20
99.69412083557133
 30
0.0
 10
358.010545014691
 20
99.53675184574615
 30
0.0
 10
357.5043020778631
 20
99.36472776105114
 30
0.0
 10
356.8870276841798
 20
99.19980335346551
 30
0.0
 10
356.1745518700399
 20
99.062090777387
 30
0.0
 10
355.3990866302674
 20
98.97045796487832
 30
0.0
 10
354.5886221966531
 20
98.93712538678282
 30
0.0
 10
353.7761177236906
 20
98.96637283233612
 30
0.0
 10
352.9966047335535
 20
99.0547017893237
 30
0.0
 10
352.2782764342181
 20
99.19020728895853
 30
0.0
 10
351.654904326818
 20
99.35398381044979
 30
0.0
 10
351.1418057322225
 20
99.52598995459512
 30
0.0
 10
350.756603622361
 20
99.68480196906629
 30
0.0
 10
350.50717901712
 20
99.81206093423175
 30
0.0
 10
350.4165769771735
 20
99.88766789118674
 30
0.0
 10
350.4847885481328
 20
99.90443728786663
 30
0.0
 10
350.7170044145355
 20
99.86165694565136
 30
0.0
 10
351.0942214517198
 20
99.7745302607415
 30
0.0
 10
351.6059263194874
 20
99.6598012054345
 30
0.0
 10
352.2293974502342
 20
99.54037906038198
 30
0.0
 10
352.9459421533671
 20
99.43575361033267
 30
0.0
 10
353.724273265978
 20
99.36510511740582
 30
0.0
 10
354.536104752828
 20
99.33902629297577
 30
0.0
 10
355.349879274825
 20
99.36205186466651
 30
0.0
 10
356.1322531189905
 20
99.43028430280418
 30
0.0
 10
356.8542661537244
 20
99.53353148251391
 30
0.0
 10
357.2750716735735
 20
99.61321440621043
 30
0.0
 10
357.4659403177471
 20
99.65221938402918
 30
0.0
  0
SPLINE
  5
E4
330
1F
100
AcDbEntity
  8
0
  6
Continuous
 62
     7
370
    25
100
AcDbSpline
210
0.0
220
0.0
230
1.0
 70
    11
 71
     3
 72
    39
 73
    35
 74
     0
 42
0.000000001
 43
0.00000001
 40
0.0
 40
0.0
 40
0.0
 40
0.0
 40
0.0312651429934057
 40
0.0629601069329321
 40
0.0948697276489808
 40
0.1264264963751833
 40
0.1579651393672472
 40
0.1898765439016956
 40
0.221552335268876
 40
0.2527844076550827
 40
0.2838418966734154
 40
0.3148645781100674
 40
0.3459127639308091
 40
0.3763475365526575
 40
0.4066751324671412
 40
0.4379141187435632
 40
0.4688932367345488
 40
0.5000738678969536
 40
0.5313369410958942
 40
0.5629183719104849
 40
0.5948445736343699
 40
0.6262809966135365
 40
0.6577486436587271
 40
0.6897584692806508
 40
0.7214430019610059
 40
0.7527623343195418
 40
0.7839279690572818
 40
0.8148885765585865
 40
0.8460375004982862
 40
0.8763409566916784
 40
0.906758919146387
 40
0.9378312724751761
 40
0.9689189660506093
 40
1.0
 40
1.0
 40
1.0
 40
1.0
 10
357.4658360679604
 20
122.5155118039718
 30
0.0
 10
357.2747621316787
 20
122.5545757618525
 30
0.0
 10
356.8538275692391
 20
122.6342947564126
 30
0.0
 10
356.1324381640755
 20
122.737410171763
 30
0.0
 10
355.350782115785
 20
122.8056110441869
 30
0.0
 10
354.5376943960742
 20
122.8286679368288
 30
0.0
 10
353.7254141792221
 20
122.8026836631826
 30
0.0
 10
352.9467837541727
 20
122.7320934979444
 30
0.0
 10
352.2301079642613
 20
122.6274779357052
 30
0.0
 10
351.6082326945996
 20
122.5083056106889
 30
0.0
 10
351.0987217611138
 20
122.3943684429626
 30
0.0
 10
350.7236024148696
 20
122.3082541640161
 30
0.0
 10
350.4876418400186
 20
122.2641984426803
 30
0.0
 10
350.4162412968371
 20
122.2797282433914
 30
0.0
 10
350.5068377266349
 20
122.3552371255753
 30
0.0
 10
350.7558140069943
 20
122.4824106534196
 30
0.0
 10
351.1407288268371
 20
122.6412613320318
 30
0.0
 10
351.6535141336593
 20
122.8132855932418
 30
0.0
 10
352.2759732565841
 20
122.9769586727765
 30
0.0
 10
352.9924734013906
 20
123.1123602461568
 30
0.0
 10
353.7705724355007
 20
123.2008779136396
 30
0.0
 10
354.5822951241477
 20
123.2305853221224
 30
0.0
 10
355.393737311849
 20
123.1976988774723
 30
0.0
 10
356.1708632033311
 20
123.1062179694275
 30
0.0
 10
356.8853012925016
 20
122.9683337794661
 30
0.0
 10
357.503524250737
 20
122.8032059546161
 30
0.0
 10
358.0098916114629
 20
122.6311554172635
 30
0.0
 10
358.3864441328766
 20
122.4738718955533
 30
0.0
 10
358.626139944308
 20
122.3494680980693
 30
0.0
 10
358.7076066525022
 20
122.277279924633
 30
0.0
 10
358.6275474100104
 20
122.265007416255
 30
0.0
 10
358.3832014040566
 20
122.3119028267611
 30
0.0
 10
358.0002279706077
 20
122.4000363749066
 30
0.0
 10
357.6557848393978
 20
122.4766778795166
 30
0.0
 10
357.4658360679604
 20
122.5155118039718
 30
0.0
  0
SPLINE
  5
E5
330
1F
100
AcDbEntity
  8
0
  6
Continuous
 62
     7
370
    25
100
AcDbSpline
210
0.0
220
0.0
230
1.0
 70
     8
 71
     3
 72
    23
 73
    19
 74
     0
 42
0.000000001
 43
0.00000001
 40
0.0
 40
0.0
 40
0.0
 40
0.0
 40
0.0449850911516383
 40
0.0909520670767777
 40
0.1379394291255006
 40
0.1859832248910951
 40
0.2351171761689533
 40
0.2853728096402591
 40
0.3367795876576951
 40
0.3893650370792399
 40
0.4431548745925064
 40
0.498173127394291
 40
0.5575107590849617
 40
0.6265492281305397
 40
0.7053073138942775
 40
0.7937970253739629
 40
0.8920262115920568
 40
1.0
 40
1.0
 40
1.0
 40
1.0
 10
344.6708720413926
 20
116.1138495677826
 30
0.0
 10
344.668709352027
 20
116.113420666123
 30
0.0
 10
344.6643367685064
 20
116.1125535012132
 30
0.0
 10
344.654055809315
 20
116.1054599336123
 30
0.0
 10
344.6409955312851
 20
116.0938471920332
 30
0.0
 10
344.6248763697309
 20
116.0770578218606
 30
0.0
 10
344.6057759420749
 20
116.0549858352459
 30
0.0
 10
344.583673589319
 20
116.0273883614826
 30
0.0
 10
344.5585731107833
 20
115.9940799302733
 30
0.0
 10
344.5304819794054
 20
115.9548795918665
 30
0.0
 10
344.4993660785533
 20
115.9096375463933
 30
0.0
 10
344.4647271476711
 20
115.857241614004
 30
0.0
 10
344.4240056393924
 20
115.7944591457848
 30
0.0
 10
344.3752847183676
 20
115.7167021465262
 30
0.0
 10
344.3175103800497
 20
115.6194175889477
 30
0.0
 10
344.2505997304046
 20
115.4996727552286
 30
0.0
 10
344.1746557661112
 20
115.3557525503244
 30
0.0
 10
344.120294601426
 20
115.2450183454314
 30
0.0
 10
344.0918295373115
 20
115.1870347415075
 30
0.0
  0
LINE
  5
E6
330
1F
100
AcDbEntity
  8
0
  6
Continuous
 62
     7
370
    25
100
AcDbLine
 10
344.0918294898
 20
115.1875609084
 30
0.0
 11
343.7224902397
 21
115.5736458039
 31
0.0
  0
LINE
  5
E7
330
1F
100
AcDbEntity
  8
0
  6
Continuous
 62
     7
370
    25
100
AcDbLine
 10
365.4011046699
 20
115.5735861993
 30
0.0
 11
365.031838063
 21
115.1875781378
 31
0.0
  0
SPLINE
  5
E8
330
1F
100
AcDbEntity
  8
0
  6
Continuous
 62
     7
370
    25
100
AcDbSpline
210
0.0
220
0.0
230
1.0
 70
     8
 71
     3
 72
    26
 73
    22
 74
     0
 42
0.000000001
 43
0.00000001
 40
0.0
 40
0.0
 40
0.0
 40
0.0
 40
0.0509383868653979
 40
0.0998291548270505
 40
0.1466728126490638
 40
0.1914699456369332
 40
0.2342212299774179
 40
0.274927450668867
 40
0.3135895241747119
 40
0.3502085273716571
 40
0.3847857350077695
 40
0.4173226688482998
 40
0.4478211631571791
 40
0.4762834534603437
 40
0.5027122992246547
 40
0.593906700502561
 40
0.6816015993191188
 40
0.7659159552051488
 40
0.846983628966416
 40
0.9249552229440475
 40
1.0
 40
1.0
 40
1.0
 40
1.0
 10
365.0318384532565
 20
115.1868440112578
 30
0.0
 10
365.0183805890583
 20
115.2144647924221
 30
0.0
 10
364.9920058392607
 20
115.2685960558754
 30
0.0
 10
364.9536336594817
 20
115.3449040929505
 30
0.0
 10
364.9171674769895
 20
115.4156562725423
 30
0.0
 10
364.8826312273657
 20
115.4808280992304
 30
0.0
 10
364.8500187755129
 20
115.5406863444822
 30
0.0
 10
364.81933149172
 20
115.5954515040235
 30
0.0
 10
364.7905688754188
 20
115.6453758953355
 30
0.0
 10
364.7637307109464
 20
115.6907181259306
 30
0.0
 10
364.7388171305182
 20
115.7317440648714
 30
0.0
 10
364.7158264837295
 20
115.7687214498185
 30
0.0
 10
364.6947629782399
 20
115.8019175658019
 30
0.0
 10
364.6756106078606
 20
115.8315932980691
 30
0.0
 10
364.6439395309158
 20
115.8802636231189
 30
0.0
 10
364.6024695854792
 20
115.9421589410376
 30
0.0
 10
364.5554800693355
 20
116.0074995484613
 30
0.0
 10
364.5168614996205
 20
116.0566179397532
 30
0.0
 10
364.4868130398992
 20
116.0900942282653
 30
0.0
 10
364.46452292893
 20
116.1102116605034
 30
0.0
 10
364.4566276134966
 20
116.1126524943529
 30
0.0
 10
364.452755464507
 20
116.1138495677826
 30
0.0
  0
SPLINE
  5
E9
330
1F
100
AcDbEntity
  8
0
  6
Continuous
 62
     7
370
    25
100
AcDbSpline
210
0.0
220
0.0
230
1.0
 70
     8
 71
     3
 72
     8
 73
     4
 74
     0
 42
0.000000001
 43
0.00000001
 40
0.0
 40
0.0
 40
0.0
 40
0.0
 40
1.0
 40
1.0
 40
1.0
 40
1.0
 10
362.3034942047502
 20
115.3068478942653
 30
0.0
 10
362.3670871850903
 20
115.2411791164186
 30
0.0
 10
362.4310436115256
 20
115.1768368187583
 30
0.0
 10
362.4952425312329
 20
115.1150995677826
 30
0.0
  0
SPLINE
  5
EA
330
1F
100
AcDbEntity
  8
0
  6
Continuous
 62
     7
370
    25
100
AcDbSpline
210
0.0
220
0.0
230
1.0
 70
     8
 71
     3
 72
    25
 73
    21
 74
     0
 42
0.000000001
 43
0.00000001
 40
0.0
 40
0.0
 40
0.0
 40
0.0
 40
0.0367725003254103
 40
0.074208401060063
 40
0.1123590542807964
 40
0.1512729822568881
 40
0.190995910016845
 40
0.2315708273504481
 40
0.2730380740418892
 40
0.3154354426077851
 40
0.3587982934432034
 40
0.4031596779810961
 40
0.4485504661847858
 40
0.494999475376923
 40
0.5532504315673752
 40
0.621829488573267
 40
0.7007739996560722
 40
0.7901076726660372
 40
0.8898461547533933
 40
1.0
 40
1.0
 40
1.0
 40
1.0
 10
361.8615730174387
 20
116.1138495677823
 30
0.0
 10
361.8617967915035
 20
116.1135248801485
 30
0.0
 10
361.8622483766665
 20
116.1128696472997
 30
0.0
 10
361.8669654165387
 20
116.107507275512
 30
0.0
 10
361.8746180256214
 20
116.0987516818115
 30
0.0
 10
361.8855110047584
 20
116.0861274637196
 30
0.0
 10
361.8995595911741
 20
116.0695711255892
 30
0.0
 10
361.9167864887834
 20
116.0489139482114
 30
0.0
 10
361.9371850415649
 20
116.0240262122436
 30
0.0
 10
361.960755854857
 20
115.9947786660502
 30
0.0
 10
361.9875012034167
 20
115.9610557308537
 30
0.0
 10
362.017409056849
 20
115.9227499157283
 30
0.0
 10
362.0505251491936
 20
115.8797790203904
 30
0.0
 10
362.0894510707676
 20
115.8283577387196
 30
0.0
 10
362.1382791504842
 20
115.7641415070305
 30
0.0
 10
362.2001997550852
 20
115.6812469779359
 30
0.0
 10
362.2745843134062
 20
115.5773012277215
 30
0.0
 10
362.3615587413947
 20
115.4492150174642
 30
0.0
 10
362.4609835913773
 20
115.2951252375579
 30
0.0
 10
362.5324027671068
 20
115.1770610016874
 30
0.0
 10
362.5698843507877
 20
115.1150995677826
 30
0.0
  0
LINE
  5
EB
330
1F
100
AcDbEntity
  8
0
  6
Continuous
 62
     7
370
    25
100
AcDbLine
 10
362.569884043
 20
115.1150993554
 30
0.0
 11
362.495242264
 21
115.1150993554
 31
0.0
  0
SPLINE
  5
EC
330
1F
100
AcDbEntity
  8
0
  6
Continuous
 62
     7
370
    25
100
AcDbSpline
210
0.0
220
0.0
230
1.0
 70
     8
 71
     3
 72
    23
 73
    19
 74
     0
 42
0.000000001
 43
0.00000001
 40
0.0
 40
0.0
 40
0.0
 40
0.0
 40
0.0511129009857221
 40
0.1016896331838983
 40
0.1518293139104713
 40
0.201633670189439
 40
0.2512064936754081
 40
0.3006530343006331
 40
0.3500793489716449
 40
0.3995916247932065
 40
0.4492954981442684
 40
0.4992953912354716
 40
0.5872572780521574
 40
0.6724255494349275
 40
0.7555067762540824
 40
0.8372616735271673
 40
0.9184882400167564
 40
1.0
 40
1.0
 40
1.0
 40
1.0
 10
362.3035568808756
 20
115.3070906103604
 30
0.0
 10
362.2875412969751
 20
115.3362192125914
 30
0.0
 10
362.2556781309121
 20
115.3941708611752
 30
0.0
 10
362.2086342924933
 20
115.4769286963934
 30
0.0
 10
362.1626557683183
 20
115.5560175548777
 30
0.0
 10
362.1178751015147
 20
115.6312345428118
 30
0.0
 10
362.0743913370789
 20
115.7026975978575
 30
0.0
 10
362.0323053734942
 20
115.7704390020458
 30
0.0
 10
361.9917109090969
 20
115.8345125137908
 30
0.0
 10
361.9526960027466
 20
115.894966112862
 30
0.0
 10
361.9153461802592
 20
115.9518436177903
 30
0.0
 10
361.8708179236671
 20
116.0185580908508
 30
0.0
 10
361.8221776631259
 20
116.0898783747153
 30
0.0
 10
361.7743385633701
 20
116.1584586271744
 30
0.0
 10
361.7366870512892
 20
116.2114749552165
 30
0.0
 10
361.7098643499017
 20
116.2487476113441
 30
0.0
 10
361.6931355190781
 20
116.2717850109241
 30
0.0
 10
361.6912871091142
 20
116.2743197361893
 30
0.0
 10
361.6903612844939
 20
116.2755893198327
 30
0.0
  0
SPLINE
  5
ED
330
1F
100
AcDbEntity
  8
0
  6
Continuous
 62
     7
370
    25
100
AcDbSpline
210
0.0
220
0.0
230
1.0
 70
     8
 71
     3
 72
     8
 73
     4
 74
     0
 42
0.000000001
 43
0.00000001
 40
0.0
 40
0.0
 40
0.0
 40
0.0
 40
1.0
 40
1.0
 40
1.0
 40
1.0
 10
364.9657064000219
 20
115.1150995677825
 30
0.0
 10
364.987591771665
 20
115.1394205839802
 30
0.0
 10
365.0094771433082
 20
115.1634451823026
 30
0.0
 10
365.0313625149514
 20
115.1871520343911
 30
0.0
  0
LINE
  5
EE
330
1F
100
AcDbEntity
  8
0
  6
Continuous
 62
     7
370
    25
100
AcDbLine
 10
364.9655465221
 20
115.1150993554
 30
0.0
 11
362.569884043
 21
115.1150993554
 31
0.0
  0
SPLINE
  5
EF
330
1F
100
AcDbEntity
  8
0
  6
Continuous
 62
     7
370
    25
100
AcDbSpline
210
0.0
220
0.0
230
1.0
 70
     8
 71
     3
 72
     8
 73
     4
 74
     0
 42
0.000000001
 43
0.00000001
 40
0.0
 40
0.0
 40
0.0
 40
0.0
 40
1.0
 40
1.0
 40
1.0
 40
1.0
 10
344.0921707651236
 20
115.1872556018712
 30
0.0
 10
344.1140875376111
 20
115.1635151533121
 30
0.0
 10
344.1360043100987
 20
115.1394560015255
 30
0.0
 10
344.1579210825863
 20
115.1150995677826
 30
0.0
  0
SPLINE
  5
F0
330
1F
100
AcDbEntity
  8
0
  6
Continuous
 62
     7
370
    25
100
AcDbSpline
210
0.0
220
0.0
230
1.0
 70
     8
 71
     3
 72
    26
 73
    22
 74
     0
 42
0.000000001
 43
0.00000001
 40
0.0
 40
0.0
 40
0.0
 40
0.0
 40
0.0524616379932503
 40
0.1026498591890872
 40
0.150565513457809
 40
0.1962095861957063
 40
0.2395832262568645
 40
0.2806877815599511
 40
0.3195248450380211
 40
0.3560963147430692
 40
0.3904044736547445
 40
0.4224520974433627
 40
0.4522426027417772
 40
0.4797802555366611
 40
0.5050704712281336
 40
0.5966394156799991
 40
0.6841917884819224
 40
0.7679874773571101
 40
0.8483228539139507
 40
0.925534163520116
 40
1.0
 40
1.0
 40
1.0
 40
1.0
 10
346.5535655970337
 20
115.1151144598003
 30
0.0
 10
346.571427081322
 20
115.1448879198414
 30
0.0
 10
346.6063760252978
 20
115.2031446117347
 30
0.0
 10
346.6571408587799
 20
115.2853435920993
 30
0.0
 10
346.7052108164216
 20
115.3614244610001
 30
0.0
 10
346.7505547891865
 20
115.4313758094664
 30
0.0
 10
346.7931807686918
 20
115.4954829714184
 30
0.0
 10
346.8330870672009
 20
115.5539908108886
 30
0.0
 10
346.8702743963162
 20
115.6071793885106
 30
0.0
 10
346.9047432189071
 20
115.6553374287478
 30
0.0
 10
346.9364933075394
 20
115.698762102024
 30
0.0
 10
346.9655277121405
 20
115.7377521931209
 30
0.0
 10
346.9918390013416
 20
115.7726062916474
 30
0.0
 10
347.0154556308858
 20
115.803611286098
 30
0.0
 10
347.0551013098916
 20
115.8558545047309
 30
0.0
 10
347.1066396066907
 20
115.9233838379881
 30
0.0
 10
347.1634657436718
 20
115.9955772841966
 30
0.0
 10
347.2076231716349
 20
116.0500612403191
 30
0.0
 10
347.2388007945769
 20
116.0873260314875
 30
0.0
 10
347.2582603612161
 20
116.1097903837622
 30
0.0
 10
347.2604019588965
 20
116.1125129331894
 30
0.0
 10
347.2614533754532
 20
116.1138495677826
 30
0.0
  0
LINE
  5
F1
330
1F
100
AcDbEntity
  8
0
  6
Continuous
 62
     7
370
    25
100
AcDbLine
 10
346.5535655802
 20
115.1150993554
 30
0.0
 11
344.1579207963
 21
115.1150993554
 31
0.0
  0
LINE
  5
F2
330
1F
100
AcDbEntity
  8
0
  6
Continuous
 62
     7
370
    25
100
AcDbLine
 10
346.6283852419
 20
115.1150993554
 30
0.0
 11
346.5532656944
 21
115.1150993554
 31
0.0
  0
SPLINE
  5
F3
330
1F
100
AcDbEntity
  8
0
  6
Continuous
 62
     7
370
    25
100
AcDbSpline
210
0.0
220
0.0
230
1.0
 70
     8
 71
     3
 72
     8
 73
     4
 74
     0
 42
0.000000001
 43
0.00000001
 40
0.0
 40
0.0
 40
0.0
 40
0.0
 40
1.0
 40
1.0
 40
1.0
 40
1.0
 10
346.6283849746667
 20
115.1150995677825
 30
0.0
 10
346.6922937773267
 20
115.1770684312137
 30
0.0
 10
346.7560686966786
 20
115.2410444963303
 30
0.0
 10
346.8194287625595
 20
115.3065791526761
 30
0.0
  0
SPLINE
  5
F4
330
1F
100
AcDbEntity
  8
0
  6
Continuous
 62
     7
370
    25
100
AcDbSpline
210
0.0
220
0.0
230
1.0
 70
     8
 71
     3
 72
    24
 73
    20
 74
     0
 42
0.000000001
 43
0.00000001
 40
0.0
 40
0.0
 40
0.0
 40
0.0
 40
0.0410257106287842
 40
0.0818520099077639
 40
0.1225800578354648
 40
0.1633117464058233
 40
0.2041489402806705
 40
0.2451927184749161
 40
0.2865426449235763
 40
0.3282960933646444
 40
0.370547647549383
 40
0.4133885920102291
 40
0.4569065022351533
 40
0.5011849368587563
 40
0.6001856774947433
 40
0.6987388860447942
 40
0.7976800645453981
 40
0.8978349910029445
 40
1.0
 40
1.0
 40
1.0
 40
1.0
 10
347.4330115684343
 20
116.2752396491141
 30
0.0
 10
347.4328168049933
 20
116.2749722989565
 30
0.0
 10
347.4324282247868
 20
116.2744388981352
 30
0.0
 10
347.4283734371125
 20
116.2688671521361
 30
0.0
 10
347.4217794781326
 20
116.2597864029823
 30
0.0
 10
347.4124152172227
 20
116.2468489426216
 30
0.0
 10
347.4003671034526
 20
116.2301304997157
 30
0.0
 10
347.3856445339922
 20
116.209588488944
 30
0.0
 10
347.368285541145
 20
116.1852071148972
 30
0.0
 10
347.3483283699916
 20
116.1569583708253
 30
0.0
 10
347.3258193202961
 20
116.1248128234242
 30
0.0
 10
347.3008100845346
 20
116.088735983458
 30
0.0
 10
347.2733607150099
 20
116.0486923909387
 30
0.0
 10
347.2314376019426
 20
115.9867719475975
 30
0.0
 10
347.1722314267314
 20
115.8974594565009
 30
0.0
 10
347.0924518336112
 20
115.7729148644722
 30
0.0
 10
347.0064710486247
 20
115.6331300719824
 30
0.0
 10
346.9151862614028
 20
115.4787172529963
 30
0.0
 10
346.8519819073447
 20
115.3646712313454
 30
0.0
 10
346.8200657573792
 20
115.3070816873301
 30
0.0
  0
LINE
  5
F5
330
1F
100
AcDbEntity
  8
0
  6
Continuous
 62
     7
370
    25
100
AcDbLine
 10
343.7491726315
 20
106.5937944239
 30
0.0
 11
344.1734105533
 21
107.0425875968
 31
0.0
  0
SPLINE
  5
F6
330
1F
100
AcDbEntity
  8
0
  6
Continuous
 62
     7
370
    25
100
AcDbSpline
210
0.0
220
0.0
230
1.0
 70
     8
 71
     3
 72
    13
 73
     9
 74
     0
 42
0.000000001
 43
0.00000001
 40
0.0
 40
0.0
 40
0.0
 40
0.0
 40
0.170632084649598
 40
0.3395984165075754
 40
0.5069574111411415
 40
0.6727691830249297
 40
0.8370955447763889
 40
1.0
 40
1.0
 40
1.0
 40
1.0
 10
344.1734102658276
 20
107.0425668262533
 30
0.0
 10
344.1784157362364
 20
107.035615453172
 30
0.0
 10
344.1883778124087
 20
107.0217805680399
 30
0.0
 10
344.2012516403006
 20
107.0056528095829
 30
0.0
 10
344.2125179527965
 20
106.9929840794239
 30
0.0
 10
344.2219953162318
 20
106.9841276415849
 30
0.0
 10
344.2298775489265
 20
106.9786156131052
 30
0.0
 10
344.2336924551599
 20
106.9779372670243
 30
0.0
 10
344.2355916198762
 20
106.9775995677826
 30
0.0
  0
SPLINE
  5
F7
330
1F
100
AcDbEntity
  8
0
  6
Continuous
 62
     7
370
    25
100
AcDbSpline
210
0.0
220
0.0
230
1.0
 70
     8
 71
     3
 72
    13
 73
     9
 74
     0
 42
0.000000001
 43
0.00000001
 40
0.0
 40
0.0
 40
0.0
 40
0.0
 40
0.1621004456571512
 40
0.325943455157606
 40
0.4915935308260523
 40
0.6591130873964648
 40
0.8285624736043361
 40
1.0
 40
1.0
 40
1.0
 40
1.0
 10
364.8880358860234
 20
106.9775995677826
 30
0.0
 10
364.8899129923656
 20
106.9779340508832
 30
0.0
 10
364.8936873837586
 20
106.9786066127449
 30
0.0
 10
364.9015344609375
 20
106.9840798971406
 30
0.0
 10
364.9110005207125
 20
106.9928993618009
 30
0.0
 10
364.9222814355149
 20
107.0055521187949
 30
0.0
 10
364.9351960540126
 20
107.0217041201914
 30
0.0
 10
364.9451917682583
 20
107.0355899201344
 30
0.0
 10
364.95021877417
 20
107.042573312885
 30
0.0
  0
LINE
  5
F8
330
1F
100
AcDbEntity
  8
0
  6
Continuous
 62
     7
370
    25
100
AcDbLine
 10
364.9502318537
 20
107.0425736269
 30
0.0
 11
365.3744539431
 21
106.5937944239
 31
0.0
  0
SPLINE
  5
F9
330
1F
100
AcDbEntity
  8
0
  6
Continuous
 62
     7
370
    25
100
AcDbSpline
210
0.0
220
0.0
230
1.0
 70
     8
 71
     3
 72
     8
 73
     4
 74
     0
 42
0.000000001
 43
0.00000001
 40
0.0
 40
0.0
 40
0.0
 40
0.0
 40
1.0
 40
1.0
 40
1.0
 40
1.0
 10
364.9502318151629
 20
107.0425739259522
 30
0.0
 10
364.9480483309218
 20
107.0454225914686
 30
0.0
 10
364.9458648466806
 20
107.0483633828661
 30
0.0
 10
364.9436813624395
 20
107.0513958801426
 30
0.0
  0
LINE
  5
FA
330
1F
100
AcDbEntity
  8
0
  6
Continuous
 62
     7
370
    25
100
AcDbLine
 10
364.9427784792
 20
107.0525997801
 30
0.0
 11
362.5039678252
 21
107.0525997801
 31
0.0
  0
LINE
  5
FB
330
1F
100
AcDbEntity
  8
0
  6
Continuous
 62
     7
370
    25
100
AcDbLine
 10
362.495242264
 20
107.0525997801
 30
0.0
 11
362.5039640999
 21
107.0525997801
 31
0.0
  0
SPLINE
  5
FC
330
1F
100
AcDbEntity
  8
0
  6
Continuous
 62
     7
370
    25
100
AcDbSpline
210
0.0
220
0.0
230
1.0
 70
     8
 71
     3
 72
     8
 73
     4
 74
     0
 42
0.000000001
 43
0.00000001
 40
0.0
 40
0.0
 40
0.0
 40
0.0
 40
1.0
 40
1.0
 40
1.0
 40
1.0
 10
344.1808489098696
 20
107.0525995677902
 30
0.0
 10
344.1783629911831
 20
107.0491378684782
 30
0.0
 10
344.1758770724966
 20
107.0457937165693
 30
0.0
 10
344.1733911538101
 20
107.0425677246289
 30
0.0
  0
LINE
  5
FD
330
1F
100
AcDbEntity
  8
0
  6
Continuous
 62
     7
370
    25
100
AcDbLine
 10
346.6181528008
 20
107.0525997801
 30
0.0
 11
344.1810650936
 21
107.0525997801
 31
0.0
  0
LINE
  5
FE
330
1F
100
AcDbEntity
  8
0
  6
Continuous
 62
     7
370
    25
100
AcDbLine
 10
346.6196624747
 20
107.0525997801
 30
0.0
 11
346.6283852419
 21
107.0525997801
 31
0.0
  0
SPLINE
  5
FF
330
1F
100
AcDbEntity
  8
0
  6
Continuous
 62
     7
370
    25
100
AcDbSpline
210
0.0
220
0.0
230
1.0
 70
     8
 71
     3
 72
    14
 73
    10
 74
     0
 42
0.000000001
 43
0.00000001
 40
0.0
 40
0.0
 40
0.0
 40
0.0
 40
0.0310276388071746
 40
0.0622853718672815
 40
0.1248003166904892
 40
0.2498289731753984
 40
0.499889260361071
 40
0.7606803621682141
 40
1.0
 40
1.0
 40
1.0
 40
1.0
 10
343.6017197584906
 20
106.5958613931672
 30
0.0
 10
343.6060490519558
 20
106.6006453154453
 30
0.0
 10
343.6147397439893
 20
106.6102486365336
 30
0.0
 10
343.6321405226515
 20
106.6295429505314
 30
0.0
 10
343.6626166824964
 20
106.6633078969851
 30
0.0
 10
343.7234380753158
 20
106.7307266558468
 30
0.0
 10
343.811328417729
 20
106.8281933307137
 30
0.0
 10
343.9141660978125
 20
106.9423378426107
 30
0.0
 10
343.9813722092542
 20
107.0171226556173
 30
0.0
 10
344.0135325709011
 20
107.0529096782614
 30
0.0
  0
LINE
  5
100
330
1F
100
AcDbEntity
  8
0
  6
Continuous
 62
     7
370
    25
100
AcDbLine
 10
344.0132044441
 20
107.0525997801
 30
0.0
 11
344.1808490267
 21
107.0525997801
 31
0.0
  0
LINE
  5
101
330
1F
100
AcDbEntity
  8
0
  6
Continuous
 62
     7
370
    25
100
AcDbLine
 10
364.9427784792
 20
107.0525997801
 30
0.0
 11
365.1104305124
 21
107.0525997801
 31
0.0
  0
SPLINE
  5
102
330
1F
100
AcDbEntity
  8
0
  6
Continuous
 62
     7
370
    25
100
AcDbSpline
210
0.0
220
0.0
230
1.0
 70
     8
 71
     3
 72
    11
 73
     7
 74
     0
 42
0.000000001
 43
0.00000001
 40
0.0
 40
0.0
 40
0.0
 40
0.0
 40
0.2392913844325938
 40
0.5001130135003002
 40
0.7515028526498353
 40
0.9999999999999999
 40
0.9999999999999999
 40
0.9999999999999999
 40
0.9999999999999999
 10
365.1101270056202
 20
107.0528863702942
 30
0.0
 10
365.1422835585999
 20
107.0171096517169
 30
0.0
 10
365.2094899507255
 20
106.9423372039612
 30
0.0
 10
365.3125180404729
 20
106.8278784906385
 30
0.0
 10
365.41760870509
 20
106.7117193045185
 30
0.0
 10
365.4872835251697
 20
106.6343313632229
 30
0.0
 10
365.5219193418634
 20
106.595861302648
 30
0.0
  0
LINE
  5
103
330
1F
100
AcDbEntity
  8
0
  6
Continuous
 62
     7
370
    25
100
AcDbLine
 10
344.1579207963
 20
115.1150993554
 30
0.0
 11
344.0133487991
 21
115.1150993554
 31
0.0
  0
SPLINE
  5
104
330
1F
100
AcDbEntity
  8
0
  6
Continuous
 62
     7
370
    25
100
AcDbSpline
210
0.0
220
0.0
230
1.0
 70
     8
 71
     3
 72
    11
 73
     7
 74
     0
 42
0.000000001
 43
0.00000001
 40
0.0
 40
0.0
 40
0.0
 40
0.0
 40
0.2392845094479873
 40
0.5001120454076898
 40
0.7515010915036774
 40
1.0
 40
1.0
 40
1.0
 40
1.0
 10
344.0136514087401
 20
115.114813781586
 30
0.0
 10
343.9814902789702
 20
115.1506116306478
 30
0.0
 10
343.914272520374
 20
115.2254302453456
 30
0.0
 10
343.811227871876
 20
115.3399585096007
 30
0.0
 10
343.7061196429892
 20
115.456189503275
 30
0.0
 10
343.6364341263618
 20
115.5336239989661
 30
0.0
 10
343.601792813922
 20
115.5721174003022
 30
0.0
  0
SPLINE
  5
105
330
1F
100
AcDbEntity
  8
0
  6
Continuous
 62
     7
370
    25
100
AcDbSpline
210
0.0
220
0.0
230
1.0
 70
     8
 71
     3
 72
    14
 73
    10
 74
     0
 42
0.000000001
 43
0.00000001
 40
0.0
 40
0.0
 40
0.0
 40
0.0
 40
0.031029414748255
 40
0.0622870907562092
 40
0.1248019217225762
 40
0.249830351143087
 40
0.4998901825554788
 40
0.7606872170552411
 40
1.0
 40
1.0
 40
1.0
 40
1.0
 10
365.5218230766524
 20
115.572117292026
 30
0.0
 10
365.5174928803368
 20
115.567330105456
 30
0.0
 10
365.5088006335417
 20
115.5577205164009
 30
0.0
 10
365.4913970051943
 20
115.5384145226949
 30
0.0
 10
365.4609162696592
 20
115.504629307043
 30
0.0
 10
365.4000856479369
 20
115.4371701760954
 30
0.0
 10
365.3121807447703
 20
115.3396436703851
 30
0.0
 10
365.2093265001533
 20
115.2254296636106
 30
0.0
 10
365.1421090420069
 20
115.1505987035056
 30
0.0
 10
365.1099441126046
 20
115.1147905575974
 30
0.0
  0
LINE
  5
106
330
1F
100
AcDbEntity
  8
0
  6
Continuous
 62
     7
370
    25
100
AcDbLine
 10
365.1102712563
 20
115.1150993554
 30
0.0
 11
364.9657067096
 21
115.1150993554
 31
0.0
  0
LINE
  5
107
330
1F
100
AcDbEntity
  8
0
  6
Continuous
 62
     7
370
    25
100
AcDbLine
 10
342.6911454833
 20
108.8965118414
 30
0.0
 11
343.1312084383
 21
108.9775995369
 31
0.0
  0
SPLINE
  5
108
330
1F
100
AcDbEntity
  8
0
  6
Continuous
 62
     7
370
    25
100
AcDbSpline
210
0.0
220
0.0
230
1.0
 70
     8
 71
     3
 72
    25
 73
    21
 74
     0
 42
0.000000001
 43
0.00000001
 40
0.0
 40
0.0
 40
0.0
 40
0.0
 40
0.0274788704223154
 40
0.0560416006850518
 40
0.0856947086352136
 40
0.116444016653826
 40
0.1482947438681133
 40
0.1812515840470034
 40
0.2153187716748716
 40
0.2505001382254911
 40
0.333051455250936
 40
0.5015081958163736
 40
0.5771663066143947
 40
0.648898130302521
 40
0.716747770006283
 40
0.7807674423488066
 40
0.84101941313403
 40
0.8975784849924567
 40
0.9505352047788314
 40
1.0
 40
1.0
 40
1.0
 40
1.0
 10
343.1312085455386
 20
108.9775995677826
 30
0.0
 10
343.137916712882
 20
108.9484173632651
 30
0.0
 10
343.1515976404388
 20
108.8889019091164
 30
0.0
 10
343.1743623690927
 20
108.7985114120577
 30
0.0
 10
343.1992400063331
 20
108.7053798029366
 30
0.0
 10
343.2263792443505
 20
108.6097937586616
 30
0.0
 10
343.2557406513819
 20
108.5120402890484
 30
0.0
 10
343.2873258216699
 20
108.4124596129909
 30
0.0
 10
343.3211726915347
 20
108.3114504734124
 30
0.0
 10
343.3728739214675
 20
108.1646836661613
 30
0.0
 10
343.4772329344812
 20
107.900417253247
 30
0.0
 10
343.598106162165
 20
107.6304476234185
 30
0.0
 10
343.7115992086221
 20
107.4130379487022
 30
0.0
 10
343.7828721762379
 20
107.2833343779717
 30
0.0
 10
343.8449467483638
 20
107.1794593006468
 30
0.0
 10
343.8975307605311
 20
107.0995986668283
 30
0.0
 10
343.9407773064586
 20
107.0415800406777
 30
0.0
 10
343.9743841186787
 20
107.0034764820254
 30
0.0
 10
343.9993311015514
 20
106.9814739510306
 30
0.0
 10
344.0082906384134
 20
106.9788613376793
 30
0.0
 10
344.0126176751314
 20
106.9775995677826
 30
0.0
  0
LINE
  5
109
330
1F
100
AcDbEntity
  8
0
  6
Continuous
 62
     7
370
    25
100
AcDbLine
 10
366.4324820226
 20
113.2711872941
 30
0.0
 11
365.9924190676
 21
113.1900995987
 31
0.0
  0
SPLINE
  5
10A
330
1F
100
AcDbEntity
  8
0
  6
Continuous
 62
     7
370
    25
100
AcDbSpline
210
0.0
220
0.0
230
1.0
 70
     8
 71
     3
 72
    25
 73
    21
 74
     0
 42
0.000000001
 43
0.00000001
 40
0.0
 40
0.0
 40
0.0
 40
0.0
 40
0.0274788704223041
 40
0.0560416006850305
 40
0.0856947086351823
 40
0.1164440166537841
 40
0.1482947438680617
 40
0.1812515840469434
 40
0.2153187716748025
 40
0.2505001382254136
 40
0.3330514552861967
 40
0.5015081958164245
 40
0.5771663066128696
 40
0.6488981302998588
 40
0.7167477700029257
 40
0.7807674423452041
 40
0.8410194131306359
 40
0.8975784849897311
 40
0.950535204777236
 40
1.0
 40
1.0
 40
1.0
 40
1.0
 10
365.9924189603611
 20
113.1900995677826
 30
0.0
 10
365.9857107930176
 20
113.2192817723001
 30
0.0
 10
365.9720298654609
 20
113.2787972264488
 30
0.0
 10
365.949265136807
 20
113.3691877235075
 30
0.0
 10
365.9243874995666
 20
113.4623193326287
 30
0.0
 10
365.8972482615491
 20
113.5579053769036
 30
0.0
 10
365.8678868545178
 20
113.6556588465168
 30
0.0
 10
365.8363016842297
 20
113.7552395225743
 30
0.0
 10
365.802454814365
 20
113.8562486621529
 30
0.0
 10
365.7507535844197
 20
114.003015469438
 30
0.0
 10
365.6463945714087
 20
114.2672818823505
 30
0.0
 10
365.525521343723
 20
114.5372515121696
 30
0.0
 10
365.4120282972777
 20
114.7546611868599
 30
0.0
 10
365.3407553296622
 20
114.8843647575889
 30
0.0
 10
365.2786807575364
 20
114.9882398349136
 30
0.0
 10
365.2260967453691
 20
115.0681004687329
 30
0.0
 10
365.1828501994416
 20
115.1261190948848
 30
0.0
 10
365.1492433872214
 20
115.1642226535385
 30
0.0
 10
365.1242964043486
 20
115.1862251845344
 30
0.0
 10
365.1153368674863
 20
115.1888377978858
 30
0.0
 10
365.1110098307683
 20
115.1900995677826
 30
0.0
  0
SPLINE
  5
10B
330
1F
100
AcDbEntity
  8
0
  6
Continuous
 62
     7
370
    25
100
AcDbSpline
210
0.0
220
0.0
230
1.0
 70
     8
 71
     3
 72
    25
 73
    21
 74
     0
 42
0.000000001
 43
0.00000001
 40
0.0
 40
0.0
 40
0.0
 40
0.0
 40
0.0288821753110086
 40
0.0583636594013118
 40
0.0884647204314734
 40
0.1192044006626603
 40
0.150600580009491
 40
0.1826700399677263
 40
0.2154285269580574
 40
0.248890814337993
 40
0.361059447124065
 40
0.4984670131067773
 40
0.5822693905007604
 40
0.666112764278331
 40
0.7499972937224478
 40
0.8007709755049082
 40
0.8511237700832938
 40
0.9010896024531745
 40
0.9507031914125761
 40
1.0
 40
1.0
 40
1.0
 40
1.0
 10
344.0126176751314
 20
115.1900995677826
 30
0.0
 10
344.0103274067537
 20
115.1896713258067
 30
0.0
 10
344.0056993466407
 20
115.1888059557799
 30
0.0
 10
343.9953890835534
 20
115.1817310230783
 30
0.0
 10
343.9825530143225
 20
115.1701624819179
 30
0.0
 10
343.9669394555799
 20
115.1534569058054
 30
0.0
 10
343.9486180121672
 20
115.1315199947892
 30
0.0
 10
343.9275704263361
 20
115.1041223593045
 30
0.0
 10
343.903798854344
 20
115.0710878786224
 30
0.0
 10
343.8567423249075
 20
115.0020972124946
 30
0.0
 10
343.7690479070507
 20
114.862071243073
 30
0.0
 10
343.6514962525172
 20
114.6427759418685
 30
0.0
 10
343.5399740881758
 20
114.4058458810973
 30
0.0
 10
343.4485147708278
 20
114.1900040071874
 30
0.0
 10
343.3676331196502
 20
113.9884423863056
 30
0.0
 10
343.3014882177822
 20
113.8095743059134
 30
0.0
 10
343.2521376569551
 20
113.6581981047695
 30
0.0
 10
343.2071706400902
 20
113.5039539496466
 30
0.0
 10
343.1664129261709
 20
113.347798094571
 30
0.0
 10
343.1429182569537
 20
113.2425533876229
 30
0.0
 10
343.1312085455386
 20
113.1900995677826
 30
0.0
  0
LINE
  5
10C
330
1F
100
AcDbEntity
  8
0
  6
Continuous
 62
     7
370
    25
100
AcDbLine
 10
342.6911454833
 20
113.2711872941
 30
0.0
 11
343.1312084383
 21
113.1900995987
 31
0.0
  0
SPLINE
  5
10D
330
1F
100
AcDbEntity
  8
0
  6
Continuous
 62
     7
370
    25
100
AcDbSpline
210
0.0
220
0.0
230
1.0
 70
     8
 71
     3
 72
    25
 73
    21
 74
     0
 42
0.000000001
 43
0.00000001
 40
0.0
 40
0.0
 40
0.0
 40
0.0
 40
0.0288821753116583
 40
0.0583636594024247
 40
0.088464720432864
 40
0.1192044006641432
 40
0.1506005800108822
 40
0.1826700399688414
 40
0.2154285269587146
 40
0.2488908143380118
 40
0.3610594471217245
 40
0.498467013106778
 40
0.5822693905006526
 40
0.6661127642782239
 40
0.7499972937224496
 40
0.8007709755032478
 40
0.8511237700807983
 40
0.901089602450676
 40
0.9507031914109089
 40
1.0
 40
1.0
 40
1.0
 40
1.0
 10
365.1110098307683
 20
106.9775995677826
 30
0.0
 10
365.113300099146
 20
106.9780278097585
 30
0.0
 10
365.117928159259
 20
106.9788931797854
 30
0.0
 10
365.1282384223465
 20
106.9859681124873
 30
0.0
 10
365.1410744915774
 20
106.997536653648
 30
0.0
 10
365.1566880503201
 20
107.0142422297607
 30
0.0
 10
365.1750094937327
 20
107.0361791407771
 30
0.0
 10
365.1960570795638
 20
107.0635767762617
 30
0.0
 10
365.2198286515557
 20
107.0966112569435
 30
0.0
 10
365.266885180992
 20
107.16560192307
 30
0.0
 10
365.3545795988497
 20
107.3056278924906
 30
0.0
 10
365.4721312533818
 20
107.5249231936948
 30
0.0
 10
365.5836534177226
 20
107.7618532544681
 30
0.0
 10
365.6751127350707
 20
107.977695128378
 30
0.0
 10
365.7559943862486
 20
108.1792567492581
 30
0.0
 10
365.8221392881167
 20
108.3581248296476
 30
0.0
 10
365.8714898489432
 20
108.5095010307888
 30
0.0
 10
365.916456865808
 20
108.6637451859116
 30
0.0
 10
365.9572145797278
 20
108.8199010409898
 30
0.0
 10
365.9807092489456
 20
108.9251457479405
 30
0.0
 10
365.9924189603611
 20
108.9775995677826
 30
0.0
  0
LINE
  5
10E
330
1F
100
AcDbEntity
  8
0
  6
Continuous
 62
     7
370
    25
100
AcDbLine
 10
366.4324820226
 20
108.8965118414
 30
0.0
 11
365.9924190676
 21
108.9775995369
 31
0.0
  0
SPLINE
  5
10F
330
1F
100
AcDbEntity
  8
0
  6
Continuous
 62
     7
370
    25
100
AcDbSpline
210
0.0
220
0.0
230
1.0
 70
     8
 71
     3
 72
    12
 73
     8
 74
     0
 42
0.000000001
 43
0.00000001
 40
0.0
 40
0.0
 40
0.0
 40
0.0
 40
0.2971540265968837
 40
0.5953109213084592
 40
0.7630993176302537
 40
0.9170814912125203
 40
1.0
 40
1.0
 40
1.0
 40
1.0
 10
345.6639560124284
 20
113.1900995987025
 30
0.0
 10
345.7462848424402
 20
113.4514356102544
 30
0.0
 10
345.9112203548607
 20
113.9749896188933
 30
0.0
 10
346.1775105087938
 20
114.5313033185958
 30
0.0
 10
346.3703208369259
 20
114.8694951508237
 30
0.0
 10
346.4717796568333
 20
115.0443721849609
 30
0.0
 10
346.5048936766184
 20
115.0967621459517
 30
0.0
 10
346.5164840406185
 20
115.1150993554411
 30
0.0
  0
SPLINE
  5
110
330
1F
100
AcDbEntity
  8
0
  6
Continuous
 62
     7
370
    25
100
AcDbSpline
210
0.0
220
0.0
230
1.0
 70
     8
 71
     3
 72
    12
 73
     8
 74
     0
 42
0.000000001
 43
0.00000001
 40
0.0
 40
0.0
 40
0.0
 40
0.0
 40
0.2971540265968837
 40
0.5953109213084592
 40
0.7630993176302537
 40
0.9170814912125203
 40
1.0
 40
1.0
 40
1.0
 40
1.0
 10
363.4596714934713
 20
108.9775995368627
 30
0.0
 10
363.3773426634594
 20
108.7162635253109
 30
0.0
 10
363.2124071510389
 20
108.1927095166719
 30
0.0
 10
362.9461169971059
 20
107.6363958169694
 30
0.0
 10
362.7533066689738
 20
107.2982039847415
 30
0.0
 10
362.6518478490664
 20
107.1233269506043
 30
0.0
 10
362.6187338292812
 20
107.0709369896135
 30
0.0
 10
362.6071434652811
 20
107.0525997801242
 30
0.0
  0
SPLINE
  5
111
330
1F
100
AcDbEntity
  8
0
  6
Continuous
 62
     7
370
    25
100
AcDbSpline
210
0.0
220
0.0
230
1.0
 70
     8
 71
     3
 72
    11
 73
     7
 74
     0
 42
0.000000001
 43
0.00000001
 40
0.0
 40
0.0
 40
0.0
 40
0.0
 40
0.1078686449390932
 40
0.4034673949314601
 40
0.7028907467952099
 40
1.0
 40
1.0
 40
1.0
 40
1.0
 10
346.5154148823029
 20
107.0525997801242
 30
0.0
 10
346.4989689980554
 20
107.0785643477274
 30
0.0
 10
346.4374554963475
 20
107.1756811369234
 30
0.0
 10
346.2219468938852
 20
107.5513580446165
 30
0.0
 10
345.9101788344993
 20
108.1906210642369
 30
0.0
 10
345.7458177539193
 20
108.7159526767415
 30
0.0
 10
345.6639560124284
 20
108.9775995368627
 30
0.0
  0
LINE
  5
112
330
1F
100
AcDbEntity
  8
0
  6
Continuous
 62
     7
370
    25
100
AcDbLine
 10
345.980216395
 20
113.1152361649
 30
0.0
 11
345.6639560124
 21
113.1900995987
 31
0.0
  0
SPLINE
  5
113
330
1F
100
AcDbEntity
  8
0
  6
Continuous
 62
     7
370
    25
100
AcDbSpline
210
0.0
220
0.0
230
1.0
 70
     8
 71
     3
 72
    25
 73
    21
 74
     0
 42
0.000000001
 43
0.00000001
 40
0.0
 40
0.0
 40
0.0
 40
0.0
 40
0.0278144320063462
 40
0.0555680196245754
 40
0.083331625367772
 40
0.111176035216759
 40
0.1391714221532265
 40
0.1673868326284763
 40
0.1958897140434718
 40
0.2247454979318961
 40
0.254017249222145
 40
0.3796724410016501
 40
0.5056484635002454
 40
0.629752729069345
 40
0.7535891720571729
 40
0.8038564806093713
 40
0.853339684343451
 40
0.9023264398358534
 40
0.9511131859219439
 40
1.0
 40
1.0
 40
1.0
 40
1.0
 10
346.8478376636613
 20
115.3575978589651
 30
0.0
 10
346.8476899123466
 20
115.3573313164116
 30
0.0
 10
346.8473947329248
 20
115.3567988143693
 30
0.0
 10
346.8437700339091
 20
115.3502513656733
 30
0.0
 10
346.8378241382388
 20
115.339482122387
 30
0.0
 10
346.8293494153237
 20
115.3240713864627
 30
0.0
 10
346.8184344284845
 20
115.3041150102089
 30
0.0
 10
346.8050983602461
 20
115.2795649137385
 30
0.0
 10
346.7893905955593
 20
115.2504082899825
 30
0.0
 10
346.7713590074014
 20
115.2166123185492
 30
0.0
 10
346.7289414626529
 20
115.1362055604913
 30
0.0
 10
346.6484204228994
 20
114.9792171108207
 30
0.0
 10
346.5149940760249
 20
114.6974313730733
 30
0.0
 10
346.3709170993418
 20
114.3595592634463
 30
0.0
 10
346.2552393478904
 20
114.050878349708
 30
0.0
 10
346.1727278726732
 20
113.804847629953
 30
0.0
 10
346.1198062481481
 20
113.6360217386798
 30
0.0
 10
346.0699491137706
 20
113.4647061676681
 30
0.0
 10
346.0229311205401
 20
113.2910238174473
 30
0.0
 10
345.9944641098115
 20
113.1738721291439
 30
0.0
 10
345.9802160220127
 20
113.1152362731825
 30
0.0
  0
LINE
  5
114
330
1F
100
AcDbEntity
  8
0
  6
Continuous
 62
     7
370
    25
100
AcDbLine
 10
345.980216395
 20
109.0524629707
 30
0.0
 11
345.6639560124
 21
108.9775995369
 31
0.0
  0
SPLINE
  5
115
330
1F
100
AcDbEntity
  8
0
  6
Continuous
 62
     7
370
    25
100
AcDbSpline
210
0.0
220
0.0
230
1.0
 70
     8
 71
     3
 72
    25
 73
    21
 74
     0
 42
0.000000001
 43
0.00000001
 40
0.0
 40
0.0
 40
0.0
 40
0.0
 40
0.0269872354797669
 40
0.0539362690259618
 40
0.0809037148829035
 40
0.1079460716545392
 40
0.1351193706855853
 40
0.162478838835575
 40
0.190078585418252
 40
0.2179713214290535
 40
0.2462081170984584
 40
0.3700050494705653
 40
0.4947542611659071
 40
0.6210439034695193
 40
0.7446557472315123
 40
0.7967060293738726
 40
0.8478613449329371
 40
0.8985210411990388
 40
0.9490962115257747
 40
1.0
 40
1.0
 40
1.0
 40
1.0
 10
345.9802160220127
 20
109.0524628623828
 30
0.0
 10
345.9879967667368
 20
109.0200664573551
 30
0.0
 10
346.0035472421078
 20
108.9553195062137
 30
0.0
 10
346.028232648081
 20
108.8586729697851
 30
0.0
 10
346.05385260508
 20
108.7625788812937
 30
0.0
 10
346.0804954687075
 20
108.667066610577
 30
0.0
 10
346.108120653992
 20
108.5721418831844
 30
0.0
 10
346.1367224330513
 20
108.4778157270487
 30
0.0
 10
346.1662845226928
 20
108.3840993825994
 30
0.0
 10
346.1967976697399
 20
108.2909952987091
 30
0.0
 10
346.2635318743292
 20
108.0947300565961
 30
0.0
 10
346.370715050425
 20
107.8086569409928
 30
0.0
 10
346.5144951407337
 20
107.4713670449994
 30
0.0
 10
346.6477435969455
 20
107.1898578681759
 30
0.0
 10
346.7354147731588
 20
107.0188669379975
 30
0.0
 10
346.7862898089511
 20
106.9229541196151
 30
0.0
 10
346.8139589636025
 20
106.8717369161604
 30
0.0
 10
346.8336578817201
 20
106.8357541220754
 30
0.0
 10
346.8459053904235
 20
106.8135842337534
 30
0.0
 10
346.8471921835796
 20
106.8112647660198
 30
0.0
 10
346.8478376636613
 20
106.8101012766001
 30
0.0
  0
LINE
  5
116
330
1F
100
AcDbEntity
  8
0
  6
Continuous
 62
     7
370
    25
100
AcDbLine
 10
363.1434111109
 20
109.0524629707
 30
0.0
 11
363.4596714935
 21
108.9775995369
 31
0.0
  0
SPLINE
  5
117
330
1F
100
AcDbEntity
  8
0
  6
Continuous
 62
     7
370
    25
100
AcDbSpline
210
0.0
220
0.0
230
1.0
 70
     8
 71
     3
 72
    25
 73
    21
 74
     0
 42
0.000000001
 43
0.00000001
 40
0.0
 40
0.0
 40
0.0
 40
0.0
 40
0.0278144320057649
 40
0.0555680196235595
 40
0.083331625366468
 40
0.1111760352153128
 40
0.1391714221517827
 40
0.1673868326271739
 40
0.195889714042447
 40
0.2247454979312803
 40
0.2540172492220635
 40
0.3796724409988544
 40
0.505648463500191
 40
0.6297527290689083
 40
0.7535891720572004
 40
0.803856480609888
 40
0.85333968434422
 40
0.902326439836625
 40
0.9511131859224594
 40
1.0
 40
1.0
 40
1.0
 40
1.0
 10
362.2757898422383
 20
106.8101012766001
 30
0.0
 10
362.275937593553
 20
106.8103678191537
 30
0.0
 10
362.2762327729748
 20
106.8109003211959
 30
0.0
 10
362.2798574719906
 20
106.817447769892
 30
0.0
 10
362.2858033676609
 20
106.8282170131783
 30
0.0
 10
362.294278090576
 20
106.8436277491026
 30
0.0
 10
362.3051930774151
 20
106.8635841253564
 30
0.0
 10
362.3185291456535
 20
106.8881342218268
 30
0.0
 10
362.3342369103405
 20
106.9172908455828
 30
0.0
 10
362.3522684984984
 20
106.9510868170162
 30
0.0
 10
362.3946860432454
 20
107.0314935750714
 30
0.0
 10
362.4752070829992
 20
107.1884820247427
 30
0.0
 10
362.6086334298736
 20
107.4702677624895
 30
0.0
 10
362.7527104065572
 20
107.8081398721173
 30
0.0
 10
362.8683881580092
 20
108.1168207858571
 30
0.0
 10
362.950899633227
 20
108.3628515056138
 30
0.0
 10
363.0038212577524
 20
108.5316773968879
 30
0.0
 10
363.0536783921297
 20
108.7029929678996
 30
0.0
 10
363.10069638536
 20
108.8766753181195
 30
0.0
 10
363.1291633960882
 20
108.993827006422
 30
0.0
 10
363.1434114838869
 20
109.0524628623828
 30
0.0
  0
SPLINE
  5
118
330
1F
100
AcDbEntity
  8
0
  6
Continuous
 62
     7
370
    25
100
AcDbSpline
210
0.0
220
0.0
230
1.0
 70
     8
 71
     3
 72
    11
 73
     7
 74
     0
 42
0.000000001
 43
0.00000001
 40
0.0
 40
0.0
 40
0.0
 40
0.0
 40
0.1078686449390932
 40
0.4034673949314601
 40
0.7028907467952099
 40
1.0
 40
1.0
 40
1.0
 40
1.0
 10
362.6082126235968
 20
115.1150993554411
 30
0.0
 10
362.6246585078443
 20
115.0891347878378
 30
0.0
 10
362.6861720095521
 20
114.9920179986419
 30
0.0
 10
362.9016806120146
 20
114.6163410909487
 30
0.0
 10
363.2134486714004
 20
113.9770780713284
 30
0.0
 10
363.3778097519803
 20
113.4517464588237
 30
0.0
 10
363.4596714934713
 20
113.1900995987025
 30
0.0
  0
LINE
  5
119
330
1F
100
AcDbEntity
  8
0
  6
Continuous
 62
     7
370
    25
100
AcDbLine
 10
363.1434111109
 20
113.1152361649
 30
0.0
 11
363.4596714935
 21
113.1900995987
 31
0.0
  0
SPLINE
  5
11A
330
1F
100
AcDbEntity
  8
0
  6
Continuous
 62
     7
370
    25
100
AcDbSpline
210
0.0
220
0.0
230
1.0
 70
     8
 71
     3
 72
    12
 73
     8
 74
     0
 42
0.000000001
 43
0.00000001
 40
0.0
 40
0.0
 40
0.0
 40
0.0
 40
0.1404141540052139
 40
0.2845308631549995
 40
0.5710083094680874
 40
0.8589424285223366
 40
0.9999999999999999
 40
0.9999999999999999
 40
0.9999999999999999
 40
0.9999999999999999
 10
363.1434111109382
 20
113.1152361648646
 30
0.0
 10
363.1066402376073
 20
113.26078222369
 30
0.0
 10
363.0321288865123
 20
113.5557122187449
 30
0.0
 10
362.8517854025555
 20
114.1139627886302
 30
0.0
 10
362.6055640217477
 20
114.7218191236615
 30
0.0
 10
362.3873889813866
 20
115.1526062632539
 30
0.0
 10
362.3244531372808
 20
115.2684817601459
 30
0.0
 10
362.3037590830034
 20
115.3065830020723
 30
0.0
  0
ARC
  5
11B
330
1F
100
AcDbEntity
  8
0
  6
Continuous
 62
     7
370
    25
100
AcDbCircle
 10
354.5618137529
 20
111.0838495678
 30
0.0
 40
11.62303852141071
100
AcDbArc
 50
169.5595567507
 51
190.4404432494
  0
ARC
  5
11C
330
1F
100
AcDbEntity
  8
0
  6
Continuous
 62
     7
370
    25
100
AcDbCircle
 10
354.5618137529
 20
111.0838495678
 30
0.0
 40
9.143750000000006
100
AcDbArc
 50
166.6824039243
 51
193.3175960757
  0
ARC
  5
11D
330
1F
100
AcDbEntity
  8
0
  6
Continuous
 62
     7
370
    25
100
AcDbCircle
 10
354.5618137529
 20
111.0838495678
 30
0.0
 40
8.818750000000026
100
AcDbArc
 50
166.6824039243
 51
193.3175960757
  0
ARC
  5
11E
330
1F
100
AcDbEntity
  8
0
  6
Continuous
 62
     7
370
    25
100
AcDbCircle
 10
354.5618137529
 20
111.0838495678
 30
0.0
 40
9.143750000000006
100
AcDbArc
 50
346.6824039243
 51
13.3175960757
  0
ARC
  5
11F
330
1F
100
AcDbEntity
  8
0
  6
Continuous
 62
     7
370
    25
100
AcDbCircle
 10
354.5618137529
 20
111.0838495678
 30
0.0
 40
8.81874999999997
100
AcDbArc
 50
346.6824039243
 51
13.3175960757
  0
ARC
  5
120
330
1F
100
AcDbEntity
  8
0
  6
Continuous
 62
     7
370
    25
100
AcDbCircle
 10
354.5618137529
 20
111.0838495678
 30
0.0
 40
11.6230385214107
100
AcDbArc
 50
349.5595567507
 51
10.4404432493
  0
CIRCLE
  5
121
330
1F
100
AcDbEntity
  8
0
  6
Continuous
 62
     7
370
    25
100
AcDbCircle
 10
354.5618137529
 20
111.0838495678
 30
0.0
 40
7.774999999999977
  0
CIRCLE
  5
122
330
1F
100
AcDbEntity
  8
0
  6
Continuous
 62
     7
370
    25
100
AcDbCircle
 10
354.5618137529
 20
111.0838495678
 30
0.0
 40
2.615470053837896
  0
CIRCLE
  5
123
330
1F
100
AcDbEntity
  8
0
  6
Continuous
 62
     7
370
    25
100
AcDbCircle
 10
354.5618137529
 20
111.0838495678
 30
0.0
 40
2.5
  0
CIRCLE
  5
124
330
1F
100
AcDbEntity
  8
0
  6
Continuous
 62
     7
370
    25
100
AcDbCircle
 10
354.5618137529
 20
111.0838495678
 30
0.0
 40
15.73749999999995
  0
CIRCLE
  5
125
330
1F
100
AcDbEntity
  8
0
  6
Continuous
 62
     7
370
    25
100
AcDbCircle
 10
354.5618137529
 20
111.0838495678
 30
0.0
 40
13.42499999999995
  0
CIRCLE
  5
126
330
1F
100
AcDbEntity
  8
0
  6
Continuous
 62
     7
370
    25
100
AcDbCircle
 10
354.5618137529
 20
111.0838495678
 30
0.0
 40
2.0
  0
LINE
  5
127
330
1F
100
AcDbEntity
  8
0
  6
CENTER
 62
     7
370
    18
100
AcDbLine
 10
354.5618137529
 20
111.0838495678
 30
0.0
 11
354.5618137529
 21
130.5868011679
 31
0.0
  0
LINE
  5
128
330
1F
100
AcDbEntity
  8
0
  6
CENTER
 62
     7
370
    18
100
AcDbLine
 10
354.5618137529
 20
111.0838495678
 30
0.0
 11
374.0763137529
 21
111.0838495678
 31
0.0
  0
LINE
  5
129
330
1F
100
AcDbEntity
  8
0
  6
Continuous
 62
     7
370
    18
100
AcDbLine
 10
366.5618137529
 20
128.5868011679
 30
0.0
 11
354.5618137529
 21
128.5868011679
 31
0.0
  0
SOLID
  5
12A
330
1F
100
AcDbEntity
  8
0
  6
Continuous
 62
     7
370
    18
100
AcDbTrace
 10
354.5618137529
 20
128.5868011679
 30
0.0
 11
360.5618137529
 21
127.0868011679
 31
0.0
 12
360.5618137529
 22
130.0868011679
 32
0.0
 13
360.5618137529
 23
130.0868011679
 33
0.0
  0
LINE
  5
12B
330
1F
100
AcDbEntity
  8
0
  6
Continuous
 62
     7
370
    18
100
AcDbLine
 10
384.0763137529
 20
111.0838495678
 30
0.0
 11
372.0763137529
 21
111.0838495678
 31
0.0
  0
SOLID
  5
12C
330
1F
100
AcDbEntity
  8
0
  6
Continuous
 62
     7
370
    18
100
AcDbTrace
 10
372.0763137529
 20
111.0838495678
 30
0.0
 11
378.0763137529
 21
109.5838495678
 31
0.0
 12
378.0763137529
 22
112.5838495678
 32
0.0
 13
378.0763137529
 23
112.5838495678
 33
0.0
  0
MTEXT
  5
12D
330
1F
100
AcDbEntity
  8
0
  6
Continuous
 62
     7
100
AcDbMText
 10
363.414433009
 20
135.2330943845
 30
0.0
 40
3.5
 41
0.0
 71
     1
 72
     1
  1
A
  7
SLDTEXTSTYLE0
 73
     1
 44
1.0
  0
MTEXT
  5
12E
330
1F
100
AcDbEntity
  8
0
  6
Continuous
 62
     7
100
AcDbMText
 10
380.928933009
 20
108.8706339266
 30
0.0
 40
3.5
 41
0.0
 71
     1
 72
     1
  1
A
  7
SLDTEXTSTYLE0
 73
     1
 44
1.0
  0
LINE
  5
12F
330
1F
100
AcDbEntity
  8
0
  6
Continuous
 62
     7
370
    25
100
AcDbLine
 10
114.1827762344
 20
79.6088495678
 30
0.0
 11
118.9485784299
 21
79.6088495678
 31
0.0
  0
LINE
  5
130
330
1F
100
AcDbEntity
  8
0
  6
Continuous
 62
     7
370
    25
100
AcDbLine
 10
101.1485784299
 20
79.6088495678
 30
0.0
 11
107.5143806253
 21
79.6088495678
 31
0.0
  0
ARC
  5
131
330
1F
100
AcDbEntity
  8
0
  6
Continuous
 62
     7
370
    25
100
AcDbCircle
 10
101.1485784299
 20
79.8088495678
 30
0.0
 40
0.2000000000000028
100
AcDbArc
 50
180.0
 51
270.0
  0
LINE
  5
132
330
1F
100
AcDbEntity
  8
0
  6
Continuous
 62
     7
370
    25
100
AcDbLine
 10
107.5143806253
 20
79.6088495678
 30
0.0
 11
108.9735784299
 21
82.1362543036
 31
0.0
  0
LINE
  5
133
330
1F
100
AcDbEntity
  8
0
  6
Continuous
 62
     7
370
    25
100
AcDbLine
 10
112.7235784299
 20
82.1362543036
 30
0.0
 11
114.1827762344
 21
79.6088495678
 31
0.0
  0
ARC
  5
134
330
1F
100
AcDbEntity
  8
0
  6
Continuous
 62
     7
370
    25
100
AcDbCircle
 10
109.9735784299
 20
82.2338495678
 30
0.0
 40
1.000000000000014
100
AcDbArc
 50
90.0
 51
180.0
  0
ARC
  5
135
330
1F
100
AcDbEntity
  8
0
  6
Continuous
 62
     7
370
    25
100
AcDbCircle
 10
111.7235784299
 20
82.2338495678
 30
0.0
 40
1.0
100
AcDbArc
 50
0.0
 51
90.0
  0
LINE
  5
136
330
1F
100
AcDbEntity
  8
0
  6
Continuous
 62
     7
370
    25
100
AcDbLine
 10
109.9735784299
 20
83.2338495678
 30
0.0
 11
111.7235784299
 21
83.2338495678
 31
0.0
  0
ARC
  5
137
330
1F
100
AcDbEntity
  8
0
  6
Continuous
 62
     7
370
    25
100
AcDbCircle
 10
100.5196435553
 20
85.5338495678
 30
0.0
 40
0.8000000000000004
100
AcDbArc
 50
57.576802718
 51
107.5
  0
LINE
  5
138
330
1F
100
AcDbEntity
  8
0
  6
Continuous
 62
     7
370
    25
100
AcDbLine
 10
99.7883963898
 20
86.1421115223
 30
0.0
 11
100.2790789157
 21
86.2968231284
 31
0.0
  0
LINE
  5
139
330
1F
100
AcDbEntity
  8
0
  6
Continuous
 62
     7
370
    25
100
AcDbLine
 10
86.4621329618
 20
86.811329047
 30
0.0
 11
99.7883963898
 21
86.1421115223
 31
0.0
  0
LINE
  5
13A
330
1F
100
AcDbEntity
  8
0
  6
Continuous
 62
     7
370
    25
100
AcDbLine
 10
62.4985784299
 20
88.0147294402
 30
0.0
 11
70.5534152934
 21
87.6102321092
 31
0.0
  0
ARC
  5
13B
330
1F
100
AcDbEntity
  8
0
  6
Continuous
 62
     7
370
    25
100
AcDbCircle
 10
121.9485784299
 20
87.5838495678
 30
0.0
 40
3.000000000000014
100
AcDbArc
 50
90.0
 51
180.0
  0
LINE
  5
13C
330
1F
100
AcDbEntity
  8
0
  6
Continuous
 62
     7
370
    25
100
AcDbLine
 10
60.9985784299
 20
88.880754844
 30
0.0
 11
62.4985784299
 21
88.0147294402
 31
0.0
  0
LINE
  5
13D
330
1F
100
AcDbEntity
  8
0
  6
Continuous
 62
     7
370
    25
100
AcDbLine
 10
121.9485784299
 20
90.5838495678
 30
0.0
 11
170.1237594852
 21
90.5838495678
 31
0.0
  0
LINE
  5
13E
330
1F
100
AcDbEntity
  8
0
  6
Continuous
 62
     7
370
    25
100
AcDbLine
 10
170.1237594852
 20
90.5838495678
 30
0.0
 11
219.1054966213
 21
94.4387958836
 31
0.0
  0
ARC
  5
13F
330
1F
100
AcDbEntity
  8
0
  6
Continuous
 62
     7
370
    25
100
AcDbCircle
 10
218.9485784299
 20
96.4326305511
 30
0.0
 40
2.0
100
AcDbArc
 50
274.5
 51
0.0
  0
LINE
  5
140
330
1F
100
AcDbEntity
  8
0
  6
Continuous
 62
     7
370
    25
100
AcDbLine
 10
169.9485784299
 20
116.5838495678
 30
0.0
 11
169.4485784299
 21
117.0838495678
 31
0.0
  0
LINE
  5
141
330
1F
100
AcDbEntity
  8
0
  6
Continuous
 62
     7
370
    25
100
AcDbLine
 10
169.4485784299
 20
117.0838495678
 30
0.0
 11
154.4485784299
 21
117.0838495678
 31
0.0
  0
LINE
  5
142
330
1F
100
AcDbEntity
  8
0
  6
Continuous
 62
     7
370
    25
100
AcDbLine
 10
154.4485784299
 20
117.0838495678
 30
0.0
 11
153.9485784299
 21
116.5838495678
 31
0.0
  0
LINE
  5
143
330
1F
100
AcDbEntity
  8
0
  6
Continuous
 62
     7
370
    25
100
AcDbLine
 10
171.9485784299
 20
116.5589517892
 30
0.0
 11
173.9485784299
 21
116.5589517892
 31
0.0
  0
LINE
  5
144
330
1F
100
AcDbEntity
  8
0
  6
Continuous
 62
     7
370
    25
100
AcDbLine
 10
171.9485784299
 20
116.5838495678
 30
0.0
 11
169.9485784299
 21
116.5838495678
 31
0.0
  0
SPLINE
  5
145
330
1F
100
AcDbEntity
  8
0
  6
Continuous
 62
     7
370
    25
100
AcDbSpline
210
0.0
220
0.0
230
1.0
 70
     8
 71
     3
 72
    11
 73
     7
 74
     0
 42
0.000000001
 43
0.00000001
 40
0.0
 40
0.0
 40
0.0
 40
0.0
 40
0.2701949965567402
 40
0.5496278655746627
 40
0.9385757634130538
 40
1.0
 40
1.0
 40
1.0
 40
1.0
 10
154.1844768147251
 20
113.3277503003254
 30
0.0
 10
154.293116441011
 20
113.4074554086088
 30
0.0
 10
154.5141100444208
 20
113.5695907149597
 30
0.0
 10
154.6986686568333
 20
113.8705080509769
 30
0.0
 10
154.614581164039
 20
114.1112223578872
 30
0.0
 10
154.4816504006583
 20
114.2499825476536
 30
0.0
 10
154.4635205697131
 20
114.2689074279327
 30
0.0
  0
SPLINE
  5
146
330
1F
100
AcDbEntity
  8
0
  6
Continuous
 62
     7
370
    25
100
AcDbSpline
210
0.0
220
0.0
230
1.0
 70
     8
 71
     3
 72
    10
 73
     6
 74
     0
 42
0.000000001
 43
0.00000001
 40
0.0
 40
0.0
 40
0.0
 40
0.0
 40
0.2702476582550776
 40
0.8114648036973564
 40
1.0
 40
1.0
 40
1.0
 40
1.0
 10
154.5422798449972
 20
111.0838495677829
 30
0.0
 10
154.5899384857578
 20
111.2896092645713
 30
0.0
 10
154.733041703817
 20
111.9074379371351
 30
0.0
 10
154.4900110162096
 20
112.6869220361943
 30
0.0
 10
154.247206567953
 20
113.1961807455092
 30
0.0
 10
154.1844768147251
 20
113.3277503003254
 30
0.0
  0
LINE
  5
147
330
1F
100
AcDbEntity
  8
0
  6
Continuous
 62
     7
370
    25
100
AcDbLine
 10
153.9485784299
 20
114.7838495678
 30
0.0
 11
154.4635205697
 21
114.2689074279
 31
0.0
  0
LINE
  5
148
330
1F
100
AcDbEntity
  8
0
  6
Continuous
 62
     7
370
    25
100
AcDbLine
 10
153.9485784299
 20
114.7838495678
 30
0.0
 11
153.9485784299
 21
111.0838495678
 31
0.0
  0
LINE
  5
149
330
1F
100
AcDbEntity
  8
0
  6
Continuous
 62
     7
370
    25
100
AcDbLine
 10
166.9485784299
 20
113.9095439178
 30
0.0
 11
166.9485784299
 21
114.0838495678
 31
0.0
  0
LINE
  5
14A
330
1F
100
AcDbEntity
  8
0
  6
Continuous
 62
     7
370
    25
100
AcDbLine
 10
166.9485784299
 20
111.6240063165
 30
0.0
 11
166.9485784299
 21
113.9095439178
 31
0.0
  0
LINE
  5
14B
330
1F
100
AcDbEntity
  8
0
  6
Continuous
 62
     7
370
    25
100
AcDbLine
 10
166.9485784299
 20
111.0838495678
 30
0.0
 11
166.9485784299
 21
111.6240063165
 31
0.0
  0
LINE
  5
14C
330
1F
100
AcDbEntity
  8
0
  6
Continuous
 62
     7
370
    25
100
AcDbLine
 10
160.9485784298
 20
111.6240063165
 30
0.0
 11
160.9485784298
 21
111.0838495678
 31
0.0
  0
LINE
  5
14D
330
1F
100
AcDbEntity
  8
0
  6
Continuous
 62
     7
370
    25
100
AcDbLine
 10
160.9485784298
 20
113.9095439178
 30
0.0
 11
160.9485784298
 21
111.6240063165
 31
0.0
  0
LINE
  5
14E
330
1F
100
AcDbEntity
  8
0
  6
Continuous
 62
     7
370
    25
100
AcDbLine
 10
160.9485784298
 20
114.0838495678
 30
0.0
 11
160.9485784298
 21
113.9095439178
 31
0.0
  0
LINE
  5
14F
330
1F
100
AcDbEntity
  8
0
  6
Continuous
 62
     7
370
    25
100
AcDbLine
 10
160.9485784298
 20
114.0838495678
 30
0.0
 11
166.9485784299
 21
114.0838495678
 31
0.0
  0
LINE
  5
150
330
1F
100
AcDbEntity
  8
0
  6
Continuous
 62
     7
370
    25
100
AcDbLine
 10
171.9485784299
 20
114.2689074279
 30
0.0
 11
171.9485784299
 21
116.5838495678
 31
0.0
  0
LINE
  5
151
330
1F
100
AcDbEntity
  8
0
  6
Continuous
 62
     7
370
    25
100
AcDbLine
 10
166.9485784299
 20
114.2689074279
 30
0.0
 11
171.9485784299
 21
114.2689074279
 31
0.0
  0
LINE
  5
152
330
1F
100
AcDbEntity
  8
0
  6
Continuous
 62
     7
370
    25
100
AcDbLine
 10
166.9485784299
 20
114.0838495678
 30
0.0
 11
166.9485784299
 21
114.2689074279
 31
0.0
  0
LINE
  5
153
330
1F
100
AcDbEntity
  8
0
  6
Continuous
 62
     7
370
    25
100
AcDbLine
 10
160.9485784298
 20
114.2689074279
 30
0.0
 11
160.9485784298
 21
114.0838495678
 31
0.0
  0
LINE
  5
154
330
1F
100
AcDbEntity
  8
0
  6
Continuous
 62
     7
370
    25
100
AcDbLine
 10
154.4635205697
 20
114.2689074279
 30
0.0
 11
160.9485784298
 21
114.2689074279
 31
0.0
  0
LINE
  5
155
330
1F
100
AcDbEntity
  8
0
  6
Continuous
 62
     7
370
    25
100
AcDbLine
 10
153.9485784299
 20
116.5838495678
 30
0.0
 11
153.9485784299
 21
114.7838495678
 31
0.0
  0
LINE
  5
156
330
1F
100
AcDbEntity
  8
0
  6
Continuous
 62
     7
370
    25
100
AcDbLine
 10
160.9485784298
 20
113.3277503003
 30
0.0
 11
154.1844768147
 21
113.3277503003
 31
0.0
  0
LINE
  5
157
330
1F
100
AcDbEntity
  8
0
  6
Continuous
 62
     7
370
    25
100
AcDbLine
 10
173.2485784299
 20
113.9095439178
 30
0.0
 11
171.9485784299
 21
113.9095439178
 31
0.0
  0
SPLINE
  5
158
330
1F
100
AcDbEntity
  8
0
  6
Continuous
 62
     7
370
    25
100
AcDbSpline
210
0.0
220
0.0
230
1.0
 70
     8
 71
     3
 72
     9
 73
     5
 74
     0
 42
0.000000001
 43
0.00000001
 40
0.0
 40
0.0
 40
0.0
 40
0.0
 40
0.5039876238385124
 40
1.0
 40
1.0
 40
1.0
 40
1.0
 10
173.2485784298628
 20
113.9095439178305
 30
0.0
 10
173.2754101380874
 20
113.8071853505324
 30
0.0
 10
173.3286489617321
 20
113.6040879678657
 30
0.0
 10
173.5853521076338
 20
113.419371803786
 30
0.0
 10
173.7126800450006
 20
113.3277503003254
 30
0.0
  0
LINE
  5
159
330
1F
100
AcDbEntity
  8
0
  6
Continuous
 62
     7
370
    25
100
AcDbLine
 10
166.9485784299
 20
113.3277503003
 30
0.0
 11
173.712680045
 21
113.3277503003
 31
0.0
  0
LINE
  5
15A
330
1F
100
AcDbEntity
  8
0
  6
Continuous
 62
     7
370
    25
100
AcDbLine
 10
171.9485784299
 20
113.9095439178
 30
0.0
 11
171.9485784299
 21
114.2689074279
 31
0.0
  0
LINE
  5
15B
330
1F
100
AcDbEntity
  8
0
  6
Continuous
 62
     7
370
    25
100
AcDbLine
 10
173.9485784299
 20
116.5589517892
 30
0.0
 11
173.9485784299
 21
114.6809579667
 31
0.0
  0
LINE
  5
15C
330
1F
100
AcDbEntity
  8
0
  6
Continuous
 62
     7
370
    25
100
AcDbLine
 10
173.9485784299
 20
114.6809579667
 30
0.0
 11
173.2485784299
 21
113.9095439178
 31
0.0
  0
SPLINE
  5
15D
330
1F
100
AcDbEntity
  8
0
  6
Continuous
 62
     7
370
    25
100
AcDbSpline
210
0.0
220
0.0
230
1.0
 70
     8
 71
     3
 72
    10
 73
     6
 74
     0
 42
0.000000001
 43
0.00000001
 40
0.0
 40
0.0
 40
0.0
 40
0.0
 40
0.1885351963026425
 40
0.7297523417449229
 40
1.0
 40
1.0
 40
1.0
 40
1.0
 10
173.7126800450006
 20
113.3277503003254
 30
0.0
 10
173.6499502917725
 20
113.1961807455092
 30
0.0
 10
173.407145843516
 20
112.6869220361943
 30
0.0
 10
173.1641151559086
 20
111.9074379371351
 30
0.0
 10
173.3072183739678
 20
111.2896092645713
 30
0.0
 10
173.3548770147284
 20
111.0838495677829
 30
0.0
  0
LINE
  5
15E
330
1F
100
AcDbEntity
  8
0
  6
Continuous
 62
     7
370
    25
100
AcDbLine
 10
173.9485784299
 20
114.6809579667
 30
0.0
 11
173.9485784299
 21
111.0838495678
 31
0.0
  0
LINE
  5
15F
330
1F
100
AcDbEntity
  8
0
  6
Continuous
 62
     7
370
    25
100
AcDbLine
 10
114.1827762344
 20
79.6088495678
 30
0.0
 11
114.1827762344
 21
106.1941422881
 31
0.0
  0
SPLINE
  5
160
330
1F
100
AcDbEntity
  8
0
  6
Continuous
 62
     7
370
    25
100
AcDbSpline
210
0.0
220
0.0
230
1.0
 70
     8
 71
     3
 72
    20
 73
    16
 74
     0
 42
0.000000001
 43
0.00000001
 40
0.0
 40
0.0
 40
0.0
 40
0.0
 40
0.1249999999999996
 40
0.1249999999999996
 40
0.2499999999999992
 40
0.2499999999999992
 40
0.3749999999999989
 40
0.3749999999999989
 40
0.4999999999999987
 40
0.4999999999999987
 40
0.7499999999999994
 40
0.7499999999999994
 40
0.8749999999999997
 40
0.8749999999999997
 40
1.0
 40
1.0
 40
1.0
 40
1.0
 10
117.7360784298628
 20
111.083849567783
 30
0.0
 10
117.7360784298628
 20
110.8171814803018
 30
0.0
 10
117.7140314008191
 20
110.5488693050277
 30
0.0
 10
117.6250253631143
 20
110.0160262697944
 30
0.0
 10
117.5591463949148
 20
109.7567360598085
 30
0.0
 10
117.3869714872076
 20
109.251609093787
 30
0.0
 10
117.2802649163007
 20
109.0050288778657
 30
0.0
 10
117.0275880134244
 20
108.528612227126
 30
0.0
 10
116.8841307492297
 20
108.3031921653611
 30
0.0
 10
116.4058085569493
 20
107.6625844837474
 30
0.0
 10
116.0177815739837
 20
107.2798187686443
 30
0.0
 10
115.3759769255383
 20
106.8039165204727
 30
0.0
 10
115.1511722978911
 20
106.660320884321
 30
0.0
 10
114.6798632402689
 20
106.4029894989304
 30
0.0
 10
114.43416664038
 20
106.2899371204085
 30
0.0
 10
114.1827762344329
 20
106.1941422880978
 30
0.0
  0
LINE
  5
161
330
1F
100
AcDbEntity
  8
0
  6
Continuous
 62
     7
370
    25
100
AcDbLine
 10
118.9485784299
 20
79.6088495678
 30
0.0
 11
118.9485784299
 21
111.0838495678
 31
0.0
  0
LINE
  5
162
330
1F
100
AcDbEntity
  8
0
  6
Continuous
 62
     7
370
    25
100
AcDbLine
 10
118.9485784299
 20
142.5588495678
 30
0.0
 11
114.1827762344
 21
142.5588495678
 31
0.0
  0
SPLINE
  5
163
330
1F
100
AcDbEntity
  8
0
  6
Continuous
 62
     7
370
    25
100
AcDbSpline
210
0.0
220
0.0
230
1.0
 70
     8
 71
     3
 72
    14
 73
    10
 74
     0
 42
0.000000001
 43
0.00000001
 40
0.0
 40
0.0
 40
0.0
 40
0.0
 40
0.25
 40
0.25
 40
0.5
 40
0.5
 40
0.75
 40
0.75
 40
1.0
 40
1.0
 40
1.0
 40
1.0
 10
107.5143806252927
 20
107.7889514822661
 30
0.0
 10
107.3175047397677
 20
108.0164480501953
 30
0.0
 10
107.1413964183782
 20
108.2580348252664
 30
0.0
 10
106.831660024605
 20
108.7701920596406
 30
0.0
 10
106.6971020231115
 20
109.0437248627487
 30
0.0
 10
106.4818598704023
 20
109.6038299972861
 30
0.0
 10
106.4002166328834
 20
109.8908024926961
 30
0.0
 10
106.2896936106133
 20
110.4788414777404
 30
0.0
 10
106.2610784298628
 20
110.7832849335111
 30
0.0
 10
106.2610784298628
 20
111.0838495677829
 30
0.0
  0
LINE
  5
164
330
1F
100
AcDbEntity
  8
0
  6
Continuous
 62
     7
370
    25
100
AcDbLine
 10
107.5143806253
 20
79.6088495678
 30
0.0
 11
107.5143806253
 21
107.7889514823
 31
0.0
  0
LINE
  5
165
330
1F
100
AcDbEntity
  8
0
  6
Continuous
 62
     7
370
    25
100
AcDbLine
 10
107.5143806253
 20
142.5588495678
 30
0.0
 11
101.1485784299
 21
142.5588495678
 31
0.0
  0
LINE
  5
166
330
1F
100
AcDbEntity
  8
0
  6
Continuous
 62
     7
370
    25
100
AcDbLine
 10
100.9485784299
 20
79.8088495678
 30
0.0
 11
100.9485784299
 21
111.0838495678
 31
0.0
  0
LINE
  5
167
330
1F
100
AcDbEntity
  8
0
  6
Continuous
 62
     7
370
    25
100
AcDbLine
 10
100.9485784299
 20
111.0838495678
 30
0.0
 11
101.1485784299
 21
111.0838495678
 31
0.0
  0
ARC
  5
168
330
1F
100
AcDbEntity
  8
0
  6
Continuous
 62
     7
370
    25
100
AcDbCircle
 10
101.1485784299
 20
142.3588495678
 30
0.0
 40
0.2000000000000028
100
AcDbArc
 50
90.0
 51
180.0
  0
ARC
  5
169
330
1F
100
AcDbEntity
  8
0
  6
Continuous
 62
     7
370
    25
100
AcDbCircle
 10
111.9985784299
 20
111.0838495678
 30
0.0
 40
3.737500000000011
100
AcDbArc
 50
180.0
 51
206.113804444
  0
SPLINE
  5
16A
330
1F
100
AcDbEntity
  8
0
  6
Continuous
 62
     7
370
    25
100
AcDbSpline
210
0.0
220
0.0
230
1.0
 70
     8
 71
     3
 72
    10
 73
     6
 74
     0
 42
0.000000001
 43
0.00000001
 40
0.0
 40
0.0
 40
0.0
 40
0.0
 40
0.5
 40
0.5
 40
1.0
 40
1.0
 40
1.0
 40
1.0
 10
108.6425966224095
 20
109.4387683059473
 30
0.0
 10
108.4657114759861
 20
109.1403179905907
 30
0.0
 10
108.2801621011087
 20
108.8613252864633
 30
0.0
 10
107.9022131610611
 20
108.3160059923376
 30
0.0
 10
107.7094266188819
 20
108.0506706065161
 30
0.0
 10
107.5143806252927
 20
107.7889514822662
 30
0.0
  0
SPLINE
  5
16B
330
1F
100
AcDbEntity
  8
0
  6
Continuous
 62
     7
370
    25
100
AcDbSpline
210
0.0
220
0.0
230
1.0
 70
     8
 71
     3
 72
     8
 73
     4
 74
     0
 42
0.000000001
 43
0.00000001
 40
0.0
 40
0.0
 40
0.0
 40
0.0
 40
1.0
 40
1.0
 40
1.0
 40
1.0
 10
114.1827762344324
 20
106.1941422880967
 30
0.0
 10
113.8343748297522
 20
106.6321176145106
 30
0.0
 10
113.4898064445193
 20
107.0752007530954
 30
0.0
 10
113.1514221451985
 20
107.528591824944
 30
0.0
  0
ARC
  5
16C
330
1F
100
AcDbEntity
  8
0
  6
Continuous
 62
     7
370
    25
100
AcDbCircle
 10
111.9985784299
 20
111.0838495678
 30
0.0
 40
3.737499999999993
100
AcDbArc
 50
287.9660359156
 51
0.0
  0
SPLINE
  5
16D
330
1F
100
AcDbEntity
  8
0
  6
Continuous
 62
     7
370
    25
100
AcDbSpline
210
0.0
220
0.0
230
1.0
 70
     8
 71
     3
 72
     8
 73
     4
 74
     0
 42
0.000000001
 43
0.00000001
 40
0.0
 40
0.0
 40
0.0
 40
0.0
 40
1.0
 40
1.0
 40
1.0
 40
1.0
 10
108.9735784298629
 20
108.8887911972605
 30
0.0
 10
108.8552816704329
 20
109.051815425719
 30
0.0
 10
108.7438531882615
 20
109.2322039247414
 30
0.0
 10
108.6425966224095
 20
109.4387683059473
 30
0.0
  0
LINE
  5
16E
330
1F
100
AcDbEntity
  8
0
  6
Continuous
 62
     7
370
    25
100
AcDbLine
 10
108.9735784299
 20
82.1362543036
 30
0.0
 11
108.9735784299
 21
108.8887911973
 31
0.0
  0
SPLINE
  5
16F
330
1F
100
AcDbEntity
  8
0
  6
Continuous
 62
     7
370
    25
100
AcDbSpline
210
0.0
220
0.0
230
1.0
 70
     8
 71
     3
 72
     8
 73
     4
 74
     0
 42
0.000000001
 43
0.00000001
 40
0.0
 40
0.0
 40
0.0
 40
0.0
 40
1.0
 40
1.0
 40
1.0
 40
1.0
 10
113.1514221451988
 20
107.5285918249448
 30
0.0
 10
113.0098840569169
 20
107.4826960538477
 30
0.0
 10
112.86727358818
 20
107.4457552029104
 30
0.0
 10
112.723578429863
 20
107.4173415219698
 30
0.0
  0
LINE
  5
170
330
1F
100
AcDbEntity
  8
0
  6
Continuous
 62
     7
370
    25
100
AcDbLine
 10
112.7235784299
 20
82.1362543036
 30
0.0
 11
112.7235784299
 21
107.417341522
 31
0.0
  0
SPLINE
  5
171
330
1F
100
AcDbEntity
  8
0
  6
Continuous
 62
     7
370
    25
100
AcDbSpline
210
0.0
220
0.0
230
1.0
 70
     8
 71
     3
 72
    14
 73
    10
 74
     0
 42
0.000000001
 43
0.00000001
 40
0.0
 40
0.0
 40
0.0
 40
0.0
 40
0.25
 40
0.25
 40
0.5
 40
0.5
 40
0.75
 40
0.75
 40
1.0
 40
1.0
 40
1.0
 40
1.0
 10
109.9735784298628
 20
107.9424675072879
 30
0.0
 10
109.8392303435063
 20
108.0290710689154
 30
0.0
 10
109.7160536696503
 20
108.1205394662389
 30
0.0
 10
109.4873070647323
 20
108.3117308528698
 30
0.0
 10
109.3853851007651
 20
108.4085927050107
 30
0.0
 10
109.2059616983364
 20
108.596467319746
 30
0.0
 10
109.1295204101536
 20
108.6867026710973
 30
0.0
 10
109.0122304373035
 20
108.8345090350746
 30
0.0
 10
108.9735784298628
 20
108.8887911972606
 30
0.0
 10
108.9735784298628
 20
108.8887911972606
 30
0.0
  0
SPLINE
  5
172
330
1F
100
AcDbEntity
  8
0
  6
Continuous
 62
     7
370
    25
100
AcDbSpline
210
0.0
220
0.0
230
1.0
 70
     8
 71
     3
 72
    14
 73
    10
 74
     0
 42
0.000000001
 43
0.00000001
 40
0.0
 40
0.0
 40
0.0
 40
0.0
 40
0.25
 40
0.25
 40
0.5
 40
0.5
 40
0.75
 40
0.75
 40
1.0
 40
1.0
 40
1.0
 40
1.0
 10
112.7235784298629
 20
107.4173415219704
 30
0.0
 10
112.7235784298631
 20
107.4173415219704
 30
0.0
 10
112.697661907292
 20
107.411964790982
 30
0.0
 10
112.5982170607144
 20
107.3944202033816
 30
0.0
 10
112.5259186683022
 20
107.3825707997353
 30
0.0
 10
112.3412147737783
 20
107.360926981735
 30
0.0
 10
112.2316375119023
 20
107.3516377210506
 30
0.0
 10
111.9883073336842
 20
107.344382184693
 30
0.0
 10
111.8567710747641
 20
107.3466535908524
 30
0.0
 10
111.7235784298628
 20
107.3564803547855
 30
0.0
  0
SPLINE
  5
173
330
1F
100
AcDbEntity
  8
0
  6
Continuous
 62
     7
370
    25
100
AcDbSpline
210
0.0
220
0.0
230
1.0
 70
     8
 71
     3
 72
    10
 73
     6
 74
     0
 42
0.000000001
 43
0.00000001
 40
0.0
 40
0.0
 40
0.0
 40
0.0
 40
0.5
 40
0.5
 40
1.0
 40
1.0
 40
1.0
 40
1.0
 10
111.7235784298628
 20
107.3564803547856
 30
0.0
 10
111.4111145275747
 20
107.3795334971547
 30
0.0
 10
111.1082255455769
 20
107.440768199561
 30
0.0
 10
110.5208823607728
 20
107.636940163485
 30
0.0
 10
110.2364147002009
 20
107.7730377985848
 30
0.0
 10
109.9735784298628
 20
107.9424675072879
 30
0.0
  0
LINE
  5
174
330
1F
100
AcDbEntity
  8
0
  6
Continuous
 62
     7
370
    25
100
AcDbLine
 10
100.9485784299
 20
137.9338495678
 30
0.0
 11
101.2826171159
 21
136.8744142074
 31
0.0
  0
LINE
  5
175
330
1F
100
AcDbEntity
  8
0
  6
Continuous
 62
     7
370
    25
100
AcDbLine
 10
100.9485784299
 20
137.9338495678
 30
0.0
 11
100.9485784299
 21
135.9585608344
 31
0.0
  0
ARC
  5
176
330
1F
100
AcDbEntity
  8
0
  6
Continuous
 62
     7
370
    25
100
AcDbCircle
 10
100.5196435553
 20
136.6338495678
 30
0.0
 40
0.8000000000000139
100
AcDbArc
 50
252.5
 51
17.5
  0
LINE
  5
177
330
1F
100
AcDbEntity
  8
0
  6
Continuous
 62
     7
370
    25
100
AcDbLine
 10
99.7883963898
 20
86.1421115223
 30
0.0
 11
99.7883963898
 21
111.0838495678
 31
0.0
  0
LINE
  5
178
330
1F
100
AcDbEntity
  8
0
  6
Continuous
 62
     7
370
    25
100
AcDbLine
 10
100.2790789157
 20
135.8708760072
 30
0.0
 11
99.7883963898
 21
136.0255876133
 31
0.0
  0
SPLINE
  5
179
330
1F
100
AcDbEntity
  8
0
  6
Continuous
 62
     7
370
    25
100
AcDbSpline
210
0.0
220
0.0
230
1.0
 70
     8
 71
     3
 72
    22
 73
    18
 74
     0
 42
0.000000001
 43
0.00000001
 40
0.0
 40
0.0
 40
0.0
 40
0.0
 40
0.0016445471980148
 40
0.0768294870796052
 40
0.1514593100030175
 40
0.22504370777528
 40
0.2982167779920988
 40
0.3713078397240427
 40
0.4444589911202457
 40
0.5161649089031308
 40
0.5876183127519701
 40
0.6612190000115734
 40
0.7342074239846584
 40
0.8076706235403146
 40
0.8813280608505004
 40
0.9557355653715373
 40
1.0
 40
1.0
 40
1.0
 40
1.0
 10
70.70829554857205
 20
134.5081407158136
 30
0.0
 10
70.7094741907694
 20
134.5077770820955
 30
0.0
 10
70.76453766087243
 20
134.4907889457373
 30
0.0
 10
71.16098284830808
 20
134.3735150951076
 30
0.0
 10
71.87705622783247
 20
134.1729005472261
 30
0.0
 10
72.8867318883768
 20
133.9322867325459
 30
0.0
 10
74.1027108463194
 20
133.7050140434287
 30
0.0
 10
75.50691162766937
 20
133.5326250351953
 30
0.0
 10
77.02397167019107
 20
133.4445551631076
 30
0.0
 10
78.59828467825376
 20
133.4756084679428
 30
0.0
 10
80.16404809420243
 20
133.6266106188846
 30
0.0
 10
81.65412266227662
 20
133.8810281368855
 30
0.0
 10
83.02499092535952
 20
134.1984635924497
 30
0.0
 10
84.21395982978603
 20
134.5435103720989
 30
0.0
 10
85.18010818023122
 20
134.8671032866529
 30
0.0
 10
85.83719712382428
 20
135.1125982306508
 30
0.0
 10
86.05302676070387
 20
135.1959539777183
 30
0.0
 10
86.13353085392934
 20
135.2270455318247
 30
0.0
  0
SPLINE
  5
17A
330
1F
100
AcDbEntity
  8
0
  6
Continuous
 62
     7
370
    25
100
AcDbSpline
210
0.0
220
0.0
230
1.0
 70
     8
 71
     3
 72
     9
 73
     5
 74
     0
 42
0.000000001
 43
0.00000001
 40
0.0
 40
0.0
 40
0.0
 40
0.0
 40
0.0362226197548793
 40
1.0
 40
1.0
 40
1.0
 40
1.0
 10
86.30444565744733
 20
135.2926011985203
 30
0.0
 10
86.30998833155955
 20
135.2947267496791
 30
0.0
 10
86.46300526268546
 20
135.3534069658828
 30
0.0
 10
86.46500032315701
 20
135.3550383495796
 30
0.0
 10
86.46692311731174
 20
135.356610640285
 30
0.0
  0
LINE
  5
17B
330
1F
100
AcDbEntity
  8
0
  6
Continuous
 62
     7
370
    25
100
AcDbLine
 10
70.5490125446
 20
134.5572459293
 30
0.0
 11
62.4985784299
 21
134.1529696954
 31
0.0
  0
LINE
  5
17C
330
1F
100
AcDbEntity
  8
0
  6
Continuous
 62
     7
370
    25
100
AcDbLine
 10
62.4985784299
 20
88.0147294402
 30
0.0
 11
62.4985784299
 21
101.9617265332
 31
0.0
  0
SPLINE
  5
17D
330
1F
100
AcDbEntity
  8
0
  6
Continuous
 62
     7
370
    25
100
AcDbSpline
210
0.0
220
0.0
230
1.0
 70
     8
 71
     3
 72
     8
 73
     4
 74
     0
 42
0.000000001
 43
0.00000001
 40
0.0
 40
0.0
 40
0.0
 40
0.0
 40
1.0
 40
1.0
 40
1.0
 40
1.0
 10
68.31675288280978
 20
101.9663125914796
 30
0.0
 10
66.37736139849837
 20
101.96416649563
 30
0.0
 10
64.43796991418695
 20
101.9625703091052
 30
0.0
 10
62.49857842987554
 20
101.9615228566295
 30
0.0
  0
SPLINE
  5
17E
330
1F
100
AcDbEntity
  8
0
  6
Continuous
 62
     7
370
    25
100
AcDbSpline
210
0.0
220
0.0
230
1.0
 70
     8
 71
     3
 72
    13
 73
     9
 74
     0
 42
0.000000001
 43
0.00000001
 40
0.0
 40
0.0
 40
0.0
 40
0.0
 40
0.1686319999748085
 40
0.3360343310905433
 40
0.502536782590866
 40
0.6684737453788339
 40
0.834182263691515
 40
1.0
 40
1.0
 40
1.0
 40
1.0
 10
69.40024793227676
 20
102.1037690372972
 30
0.0
 10
69.34075803621703
 20
102.0892547172584
 30
0.0
 10
69.22221204594194
 20
102.0603319159738
 30
0.0
 10
69.04233535035608
 20
102.0263705225655
 30
0.0
 10
68.86194506272805
 20
101.9995049602066
 30
0.0
 10
68.68083289069423
 20
101.9805460230986
 30
0.0
 10
68.49907205352677
 20
101.9686155717029
 30
0.0
 10
68.37753928563214
 20
101.9670804201341
 30
0.0
 10
68.31675288280977
 20
101.9663125914796
 30
0.0
  0
SPLINE
  5
17F
330
1F
100
AcDbEntity
  8
0
  6
Continuous
 62
     7
370
    25
100
AcDbSpline
210
0.0
220
0.0
230
1.0
 70
     8
 71
     3
 72
     8
 73
     4
 74
     0
 42
0.000000001
 43
0.00000001
 40
0.0
 40
0.0
 40
0.0
 40
0.0
 40
1.0
 40
1.0
 40
1.0
 40
1.0
 10
74.79244134876961
 20
102.1080070791826
 30
0.0
 10
72.99504667733179
 20
102.1061360186587
 30
0.0
 10
71.19765200589396
 20
102.1047138376345
 30
0.0
 10
69.40025733445613
 20
102.1037397146385
 30
0.0
  0
SPLINE
  5
180
330
1F
100
AcDbEntity
  8
0
  6
Continuous
 62
     7
370
    25
100
AcDbSpline
210
0.0
220
0.0
230
1.0
 70
     8
 71
     3
 72
    18
 73
    14
 74
     0
 42
0.000000001
 43
0.00000001
 40
0.0
 40
0.0
 40
0.0
 40
0.0
 40
0.0923325137111192
 40
0.1843692047063016
 40
0.2763458873810836
 40
0.3684982175655623
 40
0.4610598988303626
 40
0.554260954653301
 40
0.6483261285442131
 40
0.74347346365053
 40
0.8399130993119804
 40
0.9201660718299768
 40
1.0
 40
1.0
 40
1.0
 40
1.0
 10
76.98876299737191
 20
101.573814843339
 30
0.0
 10
76.91843269385886
 20
101.5742314677706
 30
0.0
 10
76.77799741700692
 20
101.5750633818173
 30
0.0
 10
76.5676348905043
 20
101.5886722287318
 30
0.0
 10
76.35819122758794
 20
101.6113389861035
 30
0.0
 10
76.14964155721543
 20
101.6439397759042
 30
0.0
 10
75.94199793994015
 20
101.6862422545245
 30
0.0
 10
75.73525975240057
 20
101.7383136531796
 30
0.0
 10
75.5294376604357
 20
101.800162426025
 30
0.0
 10
75.32450598164357
 20
101.8717604374812
 30
0.0
 10
75.13302523624787
 20
101.9483389277086
 30
0.0
 10
74.95530208419325
 20
102.0269501765417
 30
0.0
 10
74.84696808962923
 20
102.0808643323291
 30
0.0
 10
74.79294288017596
 20
102.107750847228
 30
0.0
  0
LINE
  5
181
330
1F
100
AcDbEntity
  8
0
  6
Continuous
 62
     7
370
    25
100
AcDbLine
 10
78.9036362767
 20
101.5753102782
 30
0.0
 11
76.9887629974
 21
101.5738148433
 31
0.0
  0
SPLINE
  5
182
330
1F
100
AcDbEntity
  8
0
  6
Continuous
 62
     7
370
    25
100
AcDbSpline
210
0.0
220
0.0
230
1.0
 70
     8
 71
     3
 72
    25
 73
    21
 74
     0
 42
0.000000001
 43
0.00000001
 40
0.0
 40
0.0
 40
0.0
 40
0.0
 40
0.0280105225422753
 40
0.0559601148854256
 40
0.0839014045034749
 40
0.1118870776777086
 40
0.1399695827579646
 40
0.1682008401731476
 40
0.1966319670417595
 40
0.2253130233137476
 40
0.2542927850735311
 40
0.3799486436564626
 40
0.5057850221666382
 40
0.631308588631066
 40
0.7532068238011618
 40
0.8039473267946936
 40
0.8535894438541253
 40
0.9025339722380873
 40
0.9511970353782256
 40
1.0
 40
1.0
 40
1.0
 40
1.0
 10
83.84352058306425
 20
106.7091740827143
 30
0.0
 10
83.84355780479807
 20
106.6345540557018
 30
0.0
 10
83.84363216729871
 20
106.4854763197163
 30
0.0
 10
83.83121611665213
 20
106.2628582287522
 30
0.0
 10
83.80961155629835
 20
106.0415338107247
 30
0.0
 10
83.77792608663833
 20
105.8215655448368
 30
0.0
 10
83.73639994831838
 20
105.6029752576078
 30
0.0
 10
83.6849691925885
 20
105.3857933192027
 30
0.0
 10
83.62365531787727
 20
105.1700518993165
 30
0.0
 10
83.55244498237779
 20
104.9557620078643
 30
0.0
 10
83.38160837517667
 20
104.5074122348434
 30
0.0
 10
83.04387614174061
 20
103.8540814067712
 30
0.0
 10
82.4323214775459
 20
103.0821881961351
 30
0.0
 10
81.6960866423934
 20
102.4380285707499
 30
0.0
 10
81.00960057074911
 20
102.0463874026878
 30
0.0
 10
80.4608964246003
 20
101.8276925017148
 30
0.0
 10
80.07886024609871
 20
101.7118364528844
 30
0.0
 10
79.69169414739416
 20
101.6309285473545
 30
0.0
 10
79.29946747860403
 20
101.5817001165567
 30
0.0
 10
79.03570621048527
 20
101.5774422615415
 30
0.0
 10
78.90363627666137
 20
101.5753102781988
 30
0.0
  0
LINE
  5
183
330
1F
100
AcDbEntity
  8
0
  6
Continuous
 62
     7
370
    25
100
AcDbLine
 10
83.8435205831
 20
111.0838495678
 30
0.0
 11
83.8435205831
 21
106.7091740827
 31
0.0
  0
LINE
  5
184
330
1F
100
AcDbEntity
  8
0
  6
Continuous
 62
     7
370
    25
100
AcDbLine
 10
99.7883963898
 20
136.0255876133
 30
0.0
 11
86.4669231173
 21
135.3566106403
 31
0.0
  0
SPLINE
  5
185
330
1F
100
AcDbEntity
  8
0
  6
Continuous
 62
     7
370
    25
100
AcDbSpline
210
0.0
220
0.0
230
1.0
 70
     8
 71
     3
 72
    20
 73
    16
 74
     0
 42
0.000000001
 43
0.00000001
 40
0.0
 40
0.0
 40
0.0
 40
0.0
 40
0.0829621378684852
 40
0.1658495135106162
 40
0.2487180070857352
 40
0.3299477216398518
 40
0.4108693994445728
 40
0.4941953814850553
 40
0.5768901676626217
 40
0.6601065810557766
 40
0.7435845489350842
 40
0.8279858465401873
 40
0.9132590745392868
 40
0.9972257035811788
 40
1.0
 40
1.0
 40
1.0
 40
1.0
 10
72.86099452458977
 20
88.22058920027607
 30
0.0
 10
73.24674036066106
 20
88.29750762688022
 30
0.0
 10
74.01788441377825
 20
88.4512751642178
 30
0.0
 10
75.42563256494807
 20
88.62719038560333
 30
0.0
 10
76.9334839328227
 20
88.72118667293238
 30
0.0
 10
78.50597290784054
 20
88.69734229106577
 30
0.0
 10
80.07326993905262
 20
88.55343724616519
 30
0.0
 10
81.5690459658341
 20
88.30437964336616
 30
0.0
 10
82.94929984150681
 20
87.9896989508275
 30
0.0
 10
84.14689402456244
 20
87.64543759884698
 30
0.0
 10
85.13375605438466
 20
87.31639037302723
 30
0.0
 10
85.88099430058266
 20
87.03792946481947
 30
0.0
 10
86.32819572994823
 20
86.86607366978785
 30
0.0
 10
86.51495034209822
 20
86.79222299818943
 30
0.0
 10
86.46385212820002
 20
86.81237428926252
 30
0.0
 10
86.4622178178549
 20
86.81301880226906
 30
0.0
  0
SPLINE
  5
186
330
1F
100
AcDbEntity
  8
0
  6
Continuous
 62
     7
370
    25
100
AcDbSpline
210
0.0
220
0.0
230
1.0
 70
     8
 71
     3
 72
    11
 73
     7
 74
     0
 42
0.000000001
 43
0.00000001
 40
0.0
 40
0.0
 40
0.0
 40
0.0
 40
0.2435512231731408
 40
0.4981153923403549
 40
0.7509097881719458
 40
1.0
 40
1.0
 40
1.0
 40
1.0
 10
70.55350040684618
 20
87.61192699089294
 30
0.0
 10
70.57945132837146
 20
87.6201625274311
 30
0.0
 10
70.63252662517657
 20
87.63700599658058
 30
0.0
 10
71.11022160883905
 20
87.77790743871809
 30
0.0
 10
71.82156105710582
 20
87.9831979891663
 30
0.0
 10
72.51622570428049
 20
88.14184910736351
 30
0.0
 10
72.86099452458977
 20
88.22058920027607
 30
0.0
  0
LINE
  5
187
330
1F
100
AcDbEntity
  8
0
  6
Continuous
 62
     7
370
    25
100
AcDbLine
 10
83.8435205831
 20
106.7091740827
 30
0.0
 11
82.9485784299
 21
106.8713495678
 31
0.0
  0
LINE
  5
188
330
1F
100
AcDbEntity
  8
0
  6
Continuous
 62
     7
370
    25
100
AcDbLine
 10
82.9485784299
 20
106.8713495678
 30
0.0
 11
82.9485784299
 21
111.0838495678
 31
0.0
  0
SPLINE
  5
189
330
1F
100
AcDbEntity
  8
0
  6
Continuous
 62
     7
370
    25
100
AcDbSpline
210
0.0
220
0.0
230
1.0
 70
     8
 71
     3
 72
    25
 73
    21
 74
     0
 42
0.000000001
 43
0.00000001
 40
0.0
 40
0.0
 40
0.0
 40
0.0
 40
0.0288821753116583
 40
0.0583636594024247
 40
0.088464720432864
 40
0.1192044006641432
 40
0.1506005800108822
 40
0.1826700399688414
 40
0.2154285269587146
 40
0.2488908143380118
 40
0.3610594471217245
 40
0.498467013106778
 40
0.5822693905006526
 40
0.6661127642782239
 40
0.7499972937224496
 40
0.8007709755032478
 40
0.8511237700807983
 40
0.901089602450676
 40
0.9507031914109089
 40
1.0
 40
1.0
 40
1.0
 40
1.0
 10
78.9485784298628
 20
102.8713495677829
 30
0.0
 10
79.01137888310153
 20
102.8722060517347
 30
0.0
 10
79.13828290690144
 20
102.8739367917884
 30
0.0
 10
79.32963731461591
 20
102.8880866571922
 30
0.0
 10
79.52354212729452
 20
102.9112237395136
 30
0.0
 10
79.71944284802294
 20
102.9446348917391
 30
0.0
 10
79.91678051602707
 20
102.9885087137718
 30
0.0
 10
80.11493385781223
 20
103.0433039847411
 30
0.0
 10
80.31324960182042
 20
103.1093729461047
 30
0.0
 10
80.66457058932299
 20
103.2473542783577
 30
0.0
 10
81.18968235964545
 20
103.5274062171989
 30
0.0
 10
81.72667418813099
 20
103.9659968196072
 30
0.0
 10
82.13873391816941
 20
104.4398569411539
 30
0.0
 10
82.42565250622188
 20
104.8715406889737
 30
0.0
 10
82.6240791934291
 20
105.2746639307339
 30
0.0
 10
82.75616506747741
 20
105.6324000915128
 30
0.0
 10
82.8417989472752
 20
105.9351524937952
 30
0.0
 10
82.90288115862823
 20
106.2436408040409
 30
0.0
 10
82.94138210199374
 20
106.5559525141973
 30
0.0
 10
82.94618478108721
 20
106.7664419280987
 30
0.0
 10
82.94857842986279
 20
106.8713495677829
 30
0.0
  0
ARC
  5
18A
330
1F
100
AcDbEntity
  8
0
  6
Continuous
 62
     7
370
    25
100
AcDbCircle
 10
121.9485784299
 20
134.5838495678
 30
0.0
 40
3.000000000000014
100
AcDbArc
 50
180.0
 51
270.0
  0
SPLINE
  5
18B
330
1F
100
AcDbEntity
  8
0
  6
Continuous
 62
     7
370
    25
100
AcDbSpline
210
0.0
220
0.0
230
1.0
 70
     8
 71
     3
 72
    13
 73
     9
 74
     0
 42
0.000000001
 43
0.00000001
 40
0.0
 40
0.0
 40
0.0
 40
0.0
 40
0.1722587823678385
 40
0.3421398271425444
 40
0.5097456258111679
 40
0.6751828993453325
 40
0.8385626190248169
 40
1.0
 40
1.0
 40
1.0
 40
1.0
 10
75.94859679877305
 20
103.0213443905327
 30
0.0
 10
76.0094601884456
 20
103.0050806628332
 30
0.0
 10
76.13034685289101
 20
102.9727777003525
 30
0.0
 10
76.31340801086345
 20
102.9353900456588
 30
0.0
 10
76.49551069380409
 20
102.9062571107487
 30
0.0
 10
76.67645214212074
 20
102.8860703951433
 30
0.0
 10
76.85579114581702
 20
102.8736235908427
 30
0.0
 10
76.9746373742304
 20
102.8721045476153
 30
0.0
 10
77.03370515057334
 20
102.8713495677829
 30
0.0
  0
LINE
  5
18C
330
1F
100
AcDbEntity
  8
0
  6
Continuous
 62
     7
370
    25
100
AcDbLine
 10
76.9887629974
 20
101.5738148433
 30
0.0
 11
77.0337051506
 21
102.8713495678
 31
0.0
  0
SPLINE
  5
18D
330
1F
100
AcDbEntity
  8
0
  6
Continuous
 62
     7
370
    25
100
AcDbSpline
210
0.0
220
0.0
230
1.0
 70
     8
 71
     3
 72
    11
 73
     7
 74
     0
 42
0.000000001
 43
0.00000001
 40
0.0
 40
0.0
 40
0.0
 40
0.0
 40
0.2392913844325938
 40
0.5001130135003002
 40
0.7515028526498353
 40
0.9999999999999999
 40
0.9999999999999999
 40
0.9999999999999999
 40
0.9999999999999999
 10
75.62110593771685
 20
103.021923172806
 30
0.0
 10
75.55228100176991
 20
102.9503697356514
 30
0.0
 10
75.40843860559671
 20
102.8008248401401
 30
0.0
 10
75.20068980723013
 20
102.5719074134946
 30
0.0
 10
74.99270360260903
 20
102.3395890412548
 30
0.0
 10
74.85970267883877
 20
102.1848131586635
 30
0.0
 10
74.79358703461432
 20
102.1078730375136
 30
0.0
  0
SPLINE
  5
18E
330
1F
100
AcDbEntity
  8
0
  6
Continuous
 62
     7
370
    25
100
AcDbSpline
210
0.0
220
0.0
230
1.0
 70
    24
 71
     3
 72
     9
 73
     5
 74
     0
 42
0.000000001
 43
0.00000001
 40
0.0
 40
0.0
 40
0.0
 40
0.0
 40
0.509083966986604
 40
1.0
 40
1.0
 40
1.0
 40
1.0
 10
75.62333620603633
 20
103.0213495677829
 30
0.0
 10
75.67806960614868
 20
103.0213495677829
 30
0.0
 10
75.7855831081675
 20
103.0213495677829
 30
0.0
 10
75.89497566853845
 20
103.0213495677829
 30
0.0
 10
75.94867823031694
 20
103.0213495677829
 30
0.0
  0
LINE
  5
18F
330
1F
100
AcDbEntity
  8
0
  6
Continuous
 62
     7
370
    25
100
AcDbLine
 10
69.3747283414
 20
103.001297794
 30
0.0
 11
69.400142833
 21
102.1037396234
 31
0.0
  0
SPLINE
  5
190
330
1F
100
AcDbEntity
  8
0
  6
Continuous
 62
     7
370
    25
100
AcDbSpline
210
0.0
220
0.0
230
1.0
 70
     8
 71
     3
 72
     8
 73
     4
 74
     0
 42
0.000000001
 43
0.00000001
 40
0.0
 40
0.0
 40
0.0
 40
0.0
 40
1.0
 40
1.0
 40
1.0
 40
1.0
 10
69.37473953259102
 20
103.0012982841221
 30
0.0
 10
69.39654238907306
 20
103.0069956151548
 30
0.0
 10
69.41829709847056
 20
103.0128771979498
 30
0.0
 10
69.44000055378862
 20
103.0189421925028
 30
0.0
  0
LINE
  5
191
330
1F
100
AcDbEntity
  8
0
  6
Continuous
 62
     7
370
    25
100
AcDbLine
 10
69.4485784299
 20
103.0213495678
 30
0.0
 11
75.6222514022
 21
103.0213495678
 31
0.0
  0
LINE
  5
192
330
1F
100
AcDbEntity
  8
0
  6
Continuous
 62
     7
370
    25
100
AcDbLine
 10
77.0337051506
 20
102.8713495678
 30
0.0
 11
78.9485784299
 21
102.8713495678
 31
0.0
  0
SPLINE
  5
193
330
1F
100
AcDbEntity
  8
0
  6
Continuous
 62
     7
370
    25
100
AcDbSpline
210
0.0
220
0.0
230
1.0
 70
     8
 71
     3
 72
    13
 73
     9
 74
     0
 42
0.000000001
 43
0.00000001
 40
0.0
 40
0.0
 40
0.0
 40
0.0
 40
0.1621004456571512
 40
0.325943455157606
 40
0.4915935308260523
 40
0.6591130873964648
 40
0.8285624736043361
 40
1.0
 40
1.0
 40
1.0
 40
1.0
 10
68.36345170915226
 20
102.8713495677829
 30
0.0
 10
68.4190066672178
 20
102.8720185339841
 30
0.0
 10
68.53071379368255
 20
102.8733636577075
 30
0.0
 10
68.69856148307632
 20
102.8843102264988
 30
0.0
 10
68.86734790194471
 20
102.9019491558195
 30
0.0
 10
69.03667225847654
 20
102.9272546698074
 30
0.0
 10
69.20641890665391
 20
102.9595586726004
 30
0.0
 10
69.31841180531156
 20
102.9873302724864
 30
0.0
 10
69.37473484034129
 20
103.0012970579876
 30
0.0
  0
LINE
  5
194
330
1F
100
AcDbEntity
  8
0
  6
Continuous
 62
     7
370
    25
100
AcDbLine
 10
61.5849186083
 20
102.3438478239
 30
0.0
 11
62.4985784299
 21
102.8713495678
 31
0.0
  0
LINE
  5
195
330
1F
100
AcDbEntity
  8
0
  6
Continuous
 62
     7
370
    25
100
AcDbLine
 10
62.4985784299
 20
102.8713495678
 30
0.0
 11
68.3634517092
 21
102.8713495678
 31
0.0
  0
SPLINE
  5
196
330
1F
100
AcDbEntity
  8
0
  6
Continuous
 62
     7
370
    25
100
AcDbSpline
210
0.0
220
0.0
230
1.0
 70
     8
 71
     3
 72
     8
 73
     4
 74
     0
 42
0.000000001
 43
0.00000001
 40
0.0
 40
0.0
 40
0.0
 40
0.0
 40
1.0
 40
1.0
 40
1.0
 40
1.0
 10
62.49857842941184
 20
101.9615228564069
 30
0.0
 10
62.19402515570632
 20
102.0902137209537
 30
0.0
 10
61.88947188200078
 20
102.2176584772154
 30
0.0
 10
61.58491860829526
 20
102.3438478238531
 30
0.0
  0
LINE
  5
197
330
1F
100
AcDbEntity
  8
0
  6
Continuous
 62
     7
370
    25
100
AcDbLine
 10
60.9985784299
 20
88.880754844
 30
0.0
 11
60.9985784299
 21
102.005324164
 31
0.0
  0
SPLINE
  5
198
330
1F
100
AcDbEntity
  8
0
  6
Continuous
 62
     7
370
    25
100
AcDbSpline
210
0.0
220
0.0
230
1.0
 70
    24
 71
     3
 72
     8
 73
     4
 74
     0
 42
0.000000001
 43
0.00000001
 40
0.0
 40
0.0
 40
0.0
 40
0.0
 40
1.0
 40
1.0
 40
1.0
 40
1.0
 10
61.58491860829525
 20
102.3438478238531
 30
0.0
 10
61.3885865826369
 20
102.2304954759887
 30
0.0
 10
61.19312556239669
 20
102.117646003337
 30
0.0
 10
60.99857842986278
 20
102.0053241639985
 30
0.0
  0
LINE
  5
199
330
1F
100
AcDbEntity
  8
0
  6
Continuous
 62
     7
370
    25
100
AcDbLine
 10
170.1237594852
 20
90.5838495678
 30
0.0
 11
170.1237594852
 21
111.0838495678
 31
0.0
  0
LINE
  5
19A
330
1F
100
AcDbEntity
  8
0
  6
Continuous
 62
     7
370
    25
100
AcDbLine
 10
170.1237594852
 20
131.5838495678
 30
0.0
 11
121.9485784299
 21
131.5838495678
 31
0.0
  0
LINE
  5
19B
330
1F
100
AcDbEntity
  8
0
  6
Continuous
 62
     7
370
    25
100
AcDbLine
 10
219.1054966213
 20
127.7289032519
 30
0.0
 11
170.1237594852
 21
131.5838495678
 31
0.0
  0
LINE
  5
19C
330
1F
100
AcDbEntity
  8
0
  6
Continuous
 62
     7
370
    25
100
AcDbLine
 10
92.7238189034
 20
129.3338495678
 30
0.0
 11
94.1485784299
 21
129.3338495678
 31
0.0
  0
ARC
  5
19D
330
1F
100
AcDbEntity
  8
0
  6
Continuous
 62
     7
370
    25
100
AcDbCircle
 10
92.7238189034
 20
128.5338495678
 30
0.0
 40
0.7999999999999996
100
AcDbArc
 50
90.0
 51
120.0
  0
ARC
  5
19E
330
1F
100
AcDbEntity
  8
0
  6
Continuous
 62
     7
370
    25
100
AcDbCircle
 10
94.1485784299
 20
128.5338495678
 30
0.0
 40
0.7999999999999972
100
AcDbArc
 50
0.0
 51
90.0
  0
LINE
  5
19F
330
1F
100
AcDbEntity
  8
0
  6
Continuous
 62
     7
370
    25
100
AcDbLine
 10
91.4485784299
 20
128.7213495678
 30
0.0
 11
91.4485784299
 21
111.0838495678
 31
0.0
  0
LINE
  5
1A0
330
1F
100
AcDbEntity
  8
0
  6
Continuous
 62
     7
370
    25
100
AcDbLine
 10
91.4485784299
 20
128.7213495678
 30
0.0
 11
92.3238189034
 21
129.2266698908
 31
0.0
  0
LINE
  5
1A1
330
1F
100
AcDbEntity
  8
0
  6
Continuous
 62
     7
370
    25
100
AcDbLine
 10
61.7502444797
 20
102.4392987602
 30
0.0
 11
61.6137757073
 21
102.3605084777
 31
0.0
  0
SPLINE
  5
1A2
330
1F
100
AcDbEntity
  8
0
  6
Continuous
 62
     7
370
    25
100
AcDbSpline
210
0.0
220
0.0
230
1.0
 70
     8
 71
     3
 72
    32
 73
    28
 74
     0
 42
0.000000001
 43
0.00000001
 40
0.0
 40
0.0
 40
0.0
 40
0.0
 40
0.1250000000000014
 40
0.1250000000000014
 40
0.1875000000000016
 40
0.1875000000000016
 40
0.2500000000000019
 40
0.2500000000000019
 40
0.3125000000000021
 40
0.3125000000000021
 40
0.3750000000000023
 40
0.3750000000000023
 40
0.5000000000000023
 40
0.5000000000000023
 40
0.562500000000002
 40
0.562500000000002
 40
0.6250000000000018
 40
0.6250000000000018
 40
0.7500000000000011
 40
0.7500000000000011
 40
0.8125000000000009
 40
0.8125000000000009
 40
0.8750000000000006
 40
0.8750000000000006
 40
0.9375000000000003
 40
0.9375000000000003
 40
1.0
 40
1.0
 40
1.0
 40
1.0
 10
75.41620876120342
 20
127.2565183219924
 30
0.0
 10
74.93213451724941
 20
127.2568777146121
 30
0.0
 10
74.44873694668252
 20
127.2718369207934
 30
0.0
 10
73.72483159694652
 20
127.318820967302
 30
0.0
 10
73.48416916340966
 20
127.3385975224266
 30
0.0
 10
73.01282305433402
 20
127.3855616059257
 30
0.0
 10
72.78098723804376
 20
127.4128154551102
 30
0.0
 10
72.32528415148747
 20
127.4744433837227
 30
0.0
 10
72.10141582854612
 20
127.5088184845182
 30
0.0
 10
71.66208823653834
 20
127.5841379281712
 30
0.0
 10
71.44537084387193
 20
127.6253558789195
 30
0.0
 10
70.81902886519909
 20
127.7555926981003
 30
0.0
 10
70.43463623084568
 20
127.8506326099995
 30
0.0
 10
69.90709448522588
 20
127.9968995719519
 30
0.0
 10
69.73946033369477
 20
128.0462682071426
 30
0.0
 10
69.4210555864542
 20
128.1446719146429
 30
0.0
 10
69.27147471191505
 20
128.1933551792754
 30
0.0
 10
68.85845464236664
 20
128.3329779824438
 30
0.0
 10
68.62690287120749
 20
128.4185646610243
 30
0.0
 10
68.34359335611781
 20
128.5275277089404
 30
0.0
 10
68.26002567434601
 20
128.5605763615148
 30
0.0
 10
68.11810084202182
 20
128.6175797577552
 30
0.0
 10
68.05911273057929
 20
128.6417764633655
 30
0.0
 10
67.96439682686946
 20
128.6809787437446
 30
0.0
 10
67.9286688597227
 20
128.6959859102416
 30
0.0
 10
67.88070458200527
 20
128.7161949079686
 30
0.0
 10
67.86857827457179
 20
128.7213495677829
 30
0.0
 10
67.86857827457179
 20
128.7213495677829
 30
0.0
  0
SPLINE
  5
1A3
330
1F
100
AcDbEntity
  8
0
  6
Continuous
 62
     7
370
    25
100
AcDbSpline
210
0.0
220
0.0
230
1.0
 70
     8
 71
     3
 72
    31
 73
    27
 74
     0
 42
0.000000001
 43
0.00000001
 40
0.0
 40
0.0
 40
0.0
 40
0.0
 40
0.0161756722762514
 40
0.0323169137831927
 40
0.0484425619887081
 40
0.0645715089965129
 40
0.0807226353345255
 40
0.0969147439454943
 40
0.1131664955259531
 40
0.1294963463054529
 40
0.1459224892616187
 40
0.1624627996348689
 40
0.1791347854483647
 40
0.1959555435640385
 40
0.2945755146277942
 40
0.3932797312250808
 40
0.4928176221933276
 40
0.5924285912823386
 40
0.693902091744817
 40
0.7927115381487353
 40
0.8267756331435523
 40
0.8608043324964888
 40
0.8949846314009914
 40
0.9295010594357863
 40
0.9645328322468294
 40
0.9999999999999999
 40
0.9999999999999999
 40
0.9999999999999999
 40
0.9999999999999999
 10
86.42452781994687
 20
128.7213495677829
 30
0.0
 10
86.4237947194957
 20
128.721003176355
 30
0.0
 10
86.4223300790362
 20
128.7203111308115
 30
0.0
 10
86.40927369937114
 20
128.7147287687651
 30
0.0
 10
86.38825913884833
 20
128.7058620057709
 30
0.0
 10
86.35851193350764
 20
128.693420905056
 30
0.0
 10
86.32023962085204
 20
128.6775302465008
 30
0.0
 10
86.27338693993089
 20
128.6582045026736
 30
0.0
 10
86.21796920989391
 20
128.6354884131541
 30
0.0
 10
86.15398324606345
 20
128.6094194087794
 30
0.0
 10
86.08142976191287
 20
128.5800369614112
 30
0.0
 10
86.00031306443323
 20
128.5473827140765
 30
0.0
 10
85.91061940968322
 20
128.511490267042
 30
0.0
 10
85.65357356302675
 20
128.4092523593752
 30
0.0
 10
85.12553757743385
 20
128.2027281459085
 30
0.0
 10
84.1469029301877
 20
127.8656428325586
 30
0.0
 10
82.9610266272689
 20
127.5224979732308
 30
0.0
 10
81.59056036219566
 20
127.2253860725702
 30
0.0
 10
80.10470309023106
 20
127.0153426448372
 30
0.0
 10
78.88455045646602
 20
126.9571172419687
 30
0.0
 10
78.01812642352118
 20
126.9708095832287
 30
0.0
 10
77.48988149504436
 20
126.9961776688398
 30
0.0
 10
76.96510826383818
 20
127.0382002845573
 30
0.0
 10
76.4441190242457
 20
127.0964842477854
 30
0.0
 10
75.92687807918723
 20
127.1691077930308
 30
0.0
 10
75.59124096685338
 20
127.2279881107206
 30
0.0
 10
75.42238597879164
 20
127.257610089266
 30
0.0
  0
LINE
  5
1A4
330
1F
100
AcDbEntity
  8
0
  6
Continuous
 62
     7
370
    25
100
AcDbLine
 10
86.4245278199
 20
128.7213495678
 30
0.0
 11
91.4485784299
 21
128.7213495678
 31
0.0
  0
LINE
  5
1A5
330
1F
100
AcDbEntity
  8
0
  6
Continuous
 62
     7
370
    25
100
AcDbLine
 10
83.5985784299
 20
115.1466229786
 30
0.0
 11
83.5985784299
 21
111.0838495678
 31
0.0
  0
SPLINE
  5
1A6
330
1F
100
AcDbEntity
  8
0
  6
Continuous
 62
     7
370
    25
100
AcDbSpline
210
0.0
220
0.0
230
1.0
 70
     8
 71
     3
 72
    25
 73
    21
 74
     0
 42
0.000000001
 43
0.00000001
 40
0.0
 40
0.0
 40
0.0
 40
0.0
 40
0.0278144320063462
 40
0.0555680196245754
 40
0.083331625367772
 40
0.111176035216759
 40
0.1391714221532265
 40
0.1673868326284763
 40
0.1958897140434718
 40
0.2247454979318961
 40
0.254017249222145
 40
0.3796724410016501
 40
0.5056484635002454
 40
0.629752729069345
 40
0.7535891720571729
 40
0.8038564806093713
 40
0.853339684343451
 40
0.9023264398358534
 40
0.9511131859219439
 40
1.0
 40
1.0
 40
1.0
 40
1.0
 10
78.9485784298628
 20
119.6313461501479
 30
0.0
 10
79.0172337838251
 20
119.6308130650408
 30
0.0
 10
79.15439430737779
 20
119.6297480609564
 30
0.0
 10
79.35963688996357
 20
119.6166531635642
 30
0.0
 10
79.56395790646064
 20
119.5951146769917
 30
0.0
 10
79.76735895854964
 20
119.5642932051431
 30
0.0
 10
79.96983458939552
 20
119.5243804526356
 30
0.0
 10
80.17138345364316
 20
119.4752802596946
 30
0.0
 10
80.37199747444585
 20
119.4169670121828
 30
0.0
 10
80.57169523877815
 20
119.349375069316
 30
0.0
 10
80.98726005945743
 20
119.1885615532003
 30
0.0
 10
81.59003647599997
 20
118.874584653859
 30
0.0
 10
82.28409303150487
 20
118.3110131783643
 30
0.0
 10
82.850866660902
 20
117.6352689591103
 30
0.0
 10
83.18844446657327
 20
117.0179071316337
 30
0.0
 10
83.37690687586213
 20
116.5258456921237
 30
0.0
 10
83.4761680933866
 20
116.1881939095773
 30
0.0
 10
83.54651268209348
 20
115.8455627675538
 30
0.0
 10
83.59051128061208
 20
115.4981980671122
 30
0.0
 10
83.59588754409236
 20
115.2638946905054
 30
0.0
 10
83.5985784298628
 20
115.1466229785826
 30
0.0
  0
LINE
  5
1A7
330
1F
100
AcDbEntity
  8
0
  6
Continuous
 62
     7
370
    25
100
AcDbLine
 10
77.0337051506
 20
119.6313461501
 30
0.0
 11
78.9485784299
 21
119.6313461501
 31
0.0
  0
SPLINE
  5
1A8
330
1F
100
AcDbEntity
  8
0
  6
Continuous
 62
     7
370
    25
100
AcDbSpline
210
0.0
220
0.0
230
1.0
 70
     8
 71
     3
 72
    12
 73
     8
 74
     0
 42
0.000000001
 43
0.00000001
 40
0.0
 40
0.0
 40
0.0
 40
0.0
 40
0.1992838848975294
 40
0.3984605265796777
 40
0.5979968004971673
 40
0.7983570684833388
 40
1.0
 40
1.0
 40
1.0
 40
1.0
 10
76.03267130823436
 20
119.5291518374245
 30
0.0
 10
76.0981245855348
 20
119.5421741901891
 30
0.0
 10
76.22899591691677
 20
119.5682118878313
 30
0.0
 10
76.42784536854053
 20
119.5966424468053
 30
0.0
 10
76.62825188441158
 20
119.6170736077868
 30
0.0
 10
76.83042280182883
 20
119.6295126848574
 30
0.0
 10
76.96580038547991
 20
119.630733696432
 30
0.0
 10
77.03370515057334
 20
119.6313461501479
 30
0.0
  0
LINE
  5
1A9
330
1F
100
AcDbEntity
  8
0
  6
Continuous
 62
     7
370
    25
100
AcDbLine
 10
70.6079083007
 20
119.5289879134
 30
0.0
 11
76.0318983192
 21
119.5289879134
 31
0.0
  0
SPLINE
  5
1AA
330
1F
100
AcDbEntity
  8
0
  6
Continuous
 62
     7
370
    25
100
AcDbSpline
210
0.0
220
0.0
230
1.0
 70
     8
 71
     3
 72
    24
 73
    20
 74
     0
 42
0.000000001
 43
0.00000001
 40
0.0
 40
0.0
 40
0.0
 40
0.0
 40
0.0410257106287842
 40
0.0818520099077639
 40
0.1225800578354648
 40
0.1633117464058233
 40
0.2041489402806705
 40
0.2451927184749161
 40
0.2865426449235763
 40
0.3282960933646444
 40
0.370547647549383
 40
0.4133885920102291
 40
0.4569065022351533
 40
0.5011849368587563
 40
0.6001856774947433
 40
0.6987388860447942
 40
0.7976800645453981
 40
0.8978349910029445
 40
1.0
 40
1.0
 40
1.0
 40
1.0
 10
66.83592139371267
 20
121.4666297304458
 30
0.0
 10
66.89896048166719
 20
121.4660950301307
 30
0.0
 10
67.02473224704907
 20
121.4650282284881
 30
0.0
 10
67.21267040855989
 20
121.4538847364899
 30
0.0
 10
67.39926050138449
 20
121.4357232381823
 30
0.0
 10
67.58450228391962
 20
121.4098483174608
 30
0.0
 10
67.76839146714752
 20
121.3764114316492
 30
0.0
 10
67.95092513312032
 20
121.3353274101056
 30
0.0
 10
68.13210054005964
 20
121.2865646620121
 30
0.0
 10
68.31191532403577
 20
121.2300671738683
 30
0.0
 10
68.49036852311534
 20
121.1657760790661
 30
0.0
 10
68.66745656126501
 20
121.0936223991337
 30
0.0
 10
68.84318868555076
 20
121.013535214095
 30
0.0
 10
69.08820331914706
 20
120.8896943274126
 30
0.0
 10
69.39238639832928
 20
120.7110693452194
 30
0.0
 10
69.73969387977436
 20
120.4619801611621
 30
0.0
 10
70.05886814324678
 20
120.1824105761825
 30
0.0
 10
70.35278004551148
 20
119.8735849382103
 30
0.0
 10
70.52230413220333
 20
119.6454928949086
 30
0.0
 10
70.60790830068613
 20
119.530313806878
 30
0.0
  0
LINE
  5
1AB
330
1F
100
AcDbEntity
  8
0
  6
Continuous
 62
     7
370
    25
100
AcDbLine
 10
64.0443796768
 20
121.4666297304
 30
0.0
 11
66.8359213937
 21
121.4666297304
 31
0.0
  0
SPLINE
  5
1AC
330
1F
100
AcDbEntity
  8
0
  6
Continuous
 62
     7
370
    25
100
AcDbSpline
210
0.0
220
0.0
230
1.0
 70
     8
 71
     3
 72
     8
 73
     4
 74
     0
 42
0.000000001
 43
0.00000001
 40
0.0
 40
0.0
 40
0.0
 40
0.0
 40
1.0
 40
1.0
 40
1.0
 40
1.0
 10
63.99857560510405
 20
121.5300827214555
 30
0.0
 10
64.01384362900173
 20
121.5089662510574
 30
0.0
 10
64.02911165289943
 20
121.4878151840047
 30
0.0
 10
64.0443796767971
 20
121.4666297304458
 30
0.0
  0
LINE
  5
1AD
330
1F
100
AcDbEntity
  8
0
  6
Continuous
 62
     7
370
    25
100
AcDbLine
 10
63.9985784299
 20
128.7213495678
 30
0.0
 11
63.9985784299
 21
121.5300827215
 31
0.0
  0
LINE
  5
1AE
330
1F
100
AcDbEntity
  8
0
  6
Continuous
 62
     7
370
    25
100
AcDbLine
 10
63.9985784299
 20
128.7213495678
 30
0.0
 11
67.8685782746
 21
128.7213495678
 31
0.0
  0
LINE
  5
1AF
330
1F
100
AcDbEntity
  8
0
  6
Continuous
 62
     7
370
    25
100
AcDbLine
 10
220.9485784299
 20
96.4326305511
 30
0.0
 11
220.9485784299
 21
111.0838495678
 31
0.0
  0
ARC
  5
1B0
330
1F
100
AcDbEntity
  8
0
  6
Continuous
 62
     7
370
    25
100
AcDbCircle
 10
218.9485784299
 20
125.7350685845
 30
0.0
 40
2.000000000000004
100
AcDbArc
 50
0.0
 51
85.5
  0
ARC
  5
1B1
330
1F
100
AcDbEntity
  8
0
  6
Continuous
 62
     7
370
    25
100
AcDbCircle
 10
98.6485784299
 20
125.4338495678
 30
0.0
 40
1.200000000000017
100
AcDbArc
 50
0.0
 51
90.0
  0
LINE
  5
1B2
330
1F
100
AcDbEntity
  8
0
  6
Continuous
 62
     7
370
    25
100
AcDbLine
 10
94.9485784299
 20
126.6338495678
 30
0.0
 11
98.6485784299
 21
126.6338495678
 31
0.0
  0
LINE
  5
1B3
330
1F
100
AcDbEntity
  8
0
  6
Continuous
 62
     7
370
    25
100
AcDbLine
 10
94.9485784299
 20
126.6338495678
 30
0.0
 11
94.9485784299
 21
111.0838495678
 31
0.0
  0
ARC
  5
1B4
330
1F
100
AcDbEntity
  8
0
  6
Continuous
 62
     7
370
    25
100
AcDbCircle
 10
220.4485784299
 20
122.1205438159
 30
0.0
 40
0.5
100
AcDbArc
 50
280.0
 51
0.0
  0
LINE
  5
1B5
330
1F
100
AcDbEntity
  8
0
  6
Continuous
 62
     7
370
    25
100
AcDbLine
 10
220.9485784299
 20
122.1205438159
 30
0.0
 11
220.9485784299
 21
111.0838495678
 31
0.0
  0
LINE
  5
1B6
330
1F
100
AcDbEntity
  8
0
  6
Continuous
 62
     7
370
    25
100
AcDbLine
 10
217.4485784299
 20
121.0838495678
 30
0.0
 11
217.4485784299
 21
111.0838495678
 31
0.0
  0
LINE
  5
1B7
330
1F
100
AcDbEntity
  8
0
  6
Continuous
 62
     7
370
    25
100
AcDbLine
 10
217.4485784299
 20
121.0838495678
 30
0.0
 11
220.5354025187
 21
121.6281399393
 31
0.0
  0
ARC
  5
1B8
330
1F
100
AcDbEntity
  8
0
  6
Continuous
 62
     7
370
    25
100
AcDbCircle
 10
179.0538044117
 20
120.9838495678
 30
0.0
 40
0.3999999999999977
100
AcDbArc
 50
70.0
 51
90.0
  0
LINE
  5
1B9
330
1F
100
AcDbEntity
  8
0
  6
Continuous
 62
     7
370
    25
100
AcDbLine
 10
169.8485784299
 20
121.3838495678
 30
0.0
 11
179.0538044117
 21
121.3838495678
 31
0.0
  0
ARC
  5
1BA
330
1F
100
AcDbEntity
  8
0
  6
Continuous
 62
     7
370
    25
100
AcDbCircle
 10
169.8485784299
 20
120.9838495678
 30
0.0
 40
0.3999999999999915
100
AcDbArc
 50
90.0
 51
180.0
  0
LINE
  5
1BB
330
1F
100
AcDbEntity
  8
0
  6
Continuous
 62
     7
370
    25
100
AcDbLine
 10
179.9485784299
 20
121.0838495678
 30
0.0
 11
179.9485784299
 21
111.0838495678
 31
0.0
  0
LINE
  5
1BC
330
1F
100
AcDbEntity
  8
0
  6
Continuous
 62
     7
370
    25
100
AcDbLine
 10
179.1906124691
 20
121.3597266161
 30
0.0
 11
179.9485784299
 21
121.0838495678
 31
0.0
  0
LINE
  5
1BD
330
1F
100
AcDbEntity
  8
0
  6
Continuous
 62
     7
370
    25
100
AcDbLine
 10
179.9485784299
 20
121.0838495678
 30
0.0
 11
217.4485784299
 21
121.0838495678
 31
0.0
  0
LINE
  5
1BE
330
1F
100
AcDbEntity
  8
0
  6
Continuous
 62
     7
370
    25
100
AcDbLine
 10
168.9485784299
 20
116.5838495678
 30
0.0
 11
169.4485784299
 21
117.0838495678
 31
0.0
  0
LINE
  5
1BF
330
1F
100
AcDbEntity
  8
0
  6
Continuous
 62
     7
370
    25
100
AcDbLine
 10
103.6735784299
 20
116.8338495678
 30
0.0
 11
104.4985784299
 21
116.8338495678
 31
0.0
  0
LINE
  5
1C0
330
1F
100
AcDbEntity
  8
0
  6
Continuous
 62
     7
370
    25
100
AcDbLine
 10
148.9485784299
 20
116.5838495678
 30
0.0
 11
148.9485784299
 21
111.0838495678
 31
0.0
  0
LINE
  5
1C1
330
1F
100
AcDbEntity
  8
0
  6
Continuous
 62
     7
370
    25
100
AcDbLine
 10
148.0472875013
 20
115.0838495678
 30
0.0
 11
148.0472875013
 21
111.0838495678
 31
0.0
  0
LINE
  5
1C2
330
1F
100
AcDbEntity
  8
0
  6
Continuous
 62
     7
370
    25
100
AcDbLine
 10
148.0472875013
 20
115.0838495678
 30
0.0
 11
148.9485784299
 21
116.5838495678
 31
0.0
  0
LINE
  5
1C3
330
1F
100
AcDbEntity
  8
0
  6
Continuous
 62
     7
370
    25
100
AcDbLine
 10
148.9485784299
 20
116.5838495678
 30
0.0
 11
168.9485784299
 21
116.5838495678
 31
0.0
  0
LINE
  5
1C4
330
1F
100
AcDbEntity
  8
0
  6
Continuous
 62
     7
370
    25
100
AcDbLine
 10
100.2485784299
 20
116.0838495678
 30
0.0
 11
100.2485784299
 21
111.0838495678
 31
0.0
  0
LINE
  5
1C5
330
1F
100
AcDbEntity
  8
0
  6
Continuous
 62
     7
370
    25
100
AcDbLine
 10
99.8485784299
 20
116.3147896755
 30
0.0
 11
100.2485784299
 21
116.0838495678
 31
0.0
  0
LINE
  5
1C6
330
1F
100
AcDbEntity
  8
0
  6
Continuous
 62
     7
370
    25
100
AcDbLine
 10
99.8485784299
 20
116.3147896755
 30
0.0
 11
99.8485784299
 21
111.0838495678
 31
0.0
  0
LINE
  5
1C7
330
1F
100
AcDbEntity
  8
0
  6
Continuous
 62
     7
370
    25
100
AcDbLine
 10
100.2485784299
 20
116.0838495678
 30
0.0
 11
103.6735784299
 21
116.0838495678
 31
0.0
  0
LINE
  5
1C8
330
1F
100
AcDbEntity
  8
0
  6
Continuous
 62
     7
370
    25
100
AcDbLine
 10
103.6735784299
 20
116.0838495678
 30
0.0
 11
103.6735784299
 21
111.0838495678
 31
0.0
  0
LINE
  5
1C9
330
1F
100
AcDbEntity
  8
0
  6
Continuous
 62
     7
370
    25
100
AcDbLine
 10
104.4985784299
 20
115.0838495678
 30
0.0
 11
148.0472875013
 21
115.0838495678
 31
0.0
  0
LINE
  5
1CA
330
1F
100
AcDbEntity
  8
0
  6
Continuous
 62
     7
370
    25
100
AcDbLine
 10
104.4985784299
 20
115.0838495678
 30
0.0
 11
104.4985784299
 21
111.0838495678
 31
0.0
  0
SPLINE
  5
1CB
330
1F
100
AcDbEntity
  8
0
  6
Continuous
 62
     7
370
    25
100
AcDbSpline
210
0.0
220
0.0
230
1.0
 70
     8
 71
     3
 72
    37
 73
    33
 74
     0
 42
0.000000001
 43
0.00000001
 40
0.0
 40
0.0
 40
0.0
 40
0.0
 40
0.0114878548102806
 40
0.0231559765621659
 40
0.035007648435437
 40
0.0470460033795326
 40
0.0592740307999938
 40
0.0716945830965814
 40
0.0843103820274689
 40
0.0971240248798039
 40
0.1101379904320561
 40
0.1233546446979444
 40
0.1811510010973278
 40
0.2483631736114462
 40
0.2888373415819287
 40
0.3232297457604653
 40
0.3515392131491969
 40
0.3737664266256209
 40
0.4399300285953861
 40
0.4987424063270027
 40
0.5023253005651627
 40
0.5613100074513706
 40
0.6252595444338116
 40
0.6818650083849761
 40
0.7483890016987857
 40
0.7860781471964633
 40
0.8194856599799726
 40
0.8486127715281662
 40
0.8734622727747356
 40
0.938992615660407
 40
0.9981523731393468
 40
1.0
 40
1.0
 40
1.0
 40
1.0
 10
85.7985784298628
 20
134.5475018711361
 30
0.0
 10
85.79765197858427
 20
134.5470583541277
 30
0.0
 10
85.79578453819218
 20
134.5461643604602
 30
0.0
 10
85.78051147785243
 20
134.5389723830019
 30
0.0
 10
85.75560977538855
 20
134.5275211394095
 30
0.0
 10
85.7197555034527
 20
134.511371380635
 30
0.0
 10
85.67278799261507
 20
134.4906437010813
 30
0.0
 10
85.61424508219419
 20
134.4653051820796
 30
0.0
 10
85.54376694261657
 20
134.4353647615251
 30
0.0
 10
85.46099237833906
 20
134.400820787483
 30
0.0
 10
85.36557583322089
 20
134.3616710458685
 30
0.0
 10
85.13600699983242
 20
134.2689723747073
 30
0.0
 10
84.65158878585979
 20
134.0802494841928
 30
0.0
 10
83.87258881431443
 20
133.8021596842216
 30
0.0
 10
83.08137036289423
 20
133.5515728168922
 30
0.0
 10
82.45031986965144
 20
133.3765560555624
 30
0.0
 10
81.89728191331508
 20
133.2367214149634
 30
0.0
 10
81.10432398441864
 20
133.0563105696173
 30
0.0
 10
80.03398964408544
 20
132.8672442479752
 30
0.0
 10
79.05299936465026
 20
132.7619574402655
 30
0.0
 10
78.12503213553059
 20
132.7049246683125
 30
0.0
 10
77.15257664177022
 20
132.6903300699427
 30
0.0
 10
75.82644643633684
 20
132.7685232864339
 30
0.0
 10
74.55641095184312
 20
132.9290030080281
 30
0.0
 10
73.59663495117348
 20
133.1141145462417
 30
0.0
 10
72.89798330382867
 20
133.2816041499718
 30
0.0
 10
72.45417516567355
 20
133.3952273561801
 30
0.0
 10
72.12163810374358
 20
133.4884111910887
 30
0.0
 10
71.73447969350035
 20
133.6030760553472
 30
0.0
 10
71.39723173138852
 20
133.7104218644074
 30
0.0
 10
71.29950766505964
 20
133.7479874376939
 30
0.0
 10
71.29860574478768
 20
133.7481188465104
 30
0.0
 10
71.29857842986279
 20
133.7481228262657
 30
0.0
  0
LINE
  5
1CC
330
1F
100
AcDbEntity
  8
0
  6
Continuous
 62
     7
370
    25
100
AcDbLine
 10
85.7985784299
 20
134.5475018711
 30
0.0
 11
85.7985784299
 21
129.1900755885
 31
0.0
  0
SPLINE
  5
1CD
330
1F
100
AcDbEntity
  8
0
  6
Continuous
 62
     7
370
    25
100
AcDbSpline
210
0.0
220
0.0
230
1.0
 70
     8
 71
     3
 72
    30
 73
    26
 74
     0
 42
0.000000001
 43
0.00000001
 40
0.0
 40
0.0
 40
0.0
 40
0.0
 40
0.0192411700742053
 40
0.0381353539376959
 40
0.0566868884861281
 40
0.0749003554931361
 40
0.0927805967284114
 40
0.1103327298326391
 40
0.1275621649289903
 40
0.1444746219341829
 40
0.2455865830531989
 40
0.3577720192516816
 40
0.4505017408956459
 40
0.5720127868619868
 40
0.616806984019995
 40
0.6590088499432769
 40
0.6986242498774695
 40
0.7356603299341565
 40
0.7701258931915091
 40
0.8073679165907856
 40
0.8483950324891418
 40
0.8881367798820065
 40
0.926626462211046
 40
0.9639007443615102
 40
1.0
 40
1.0
 40
1.0
 40
1.0
 10
76.6277598392507
 20
127.5259842781909
 30
0.0
 10
76.71079231913033
 20
127.514857172866
 30
0.0
 10
76.87535991020317
 20
127.4928036231999
 30
0.0
 10
77.1232414258837
 20
127.4647517339373
 30
0.0
 10
77.36851810132609
 20
127.4408002034113
 30
0.0
 10
77.61107593493738
 20
127.421270251218
 30
0.0
 10
77.85051061204626
 20
127.4060779590413
 30
0.0
 10
78.08652380745335
 20
127.3952463978105
 30
0.0
 10
78.31884185276411
 20
127.3887658325574
 30
0.0
 10
78.92739262238814
 20
127.3831343409712
 30
0.0
 10
79.96570511960816
 20
127.4431077404559
 30
0.0
 10
81.28105664770945
 20
127.6425302136307
 30
0.0
 10
82.56060186060103
 20
127.9480115743145
 30
0.0
 10
83.45204240469116
 20
128.2279543772335
 30
0.0
 10
84.06970727355218
 20
128.4554034737488
 30
0.0
 10
84.41303035883553
 20
128.5856821342489
 30
0.0
 10
84.70472144373102
 20
128.7017730722068
 30
0.0
 10
84.94926679955688
 20
128.8031413016101
 30
0.0
 10
85.16162147999624
 20
128.8944793541277
 30
0.0
 10
85.35268445462087
 20
128.9785544380749
 30
0.0
 10
85.51793185879335
 20
129.0535473920402
 30
0.0
 10
85.64747240903746
 20
129.1145358915859
 30
0.0
 10
85.73583877825999
 20
129.1577735533513
 30
0.0
 10
85.78898462352363
 20
129.1850036392302
 30
0.0
 10
85.7954148194648
 20
129.1884030853601
 30
0.0
 10
85.7985784298628
 20
129.1900755885345
 30
0.0
  0
SPLINE
  5
1CE
330
1F
100
AcDbEntity
  8
0
  6
Continuous
 62
     7
370
    25
100
AcDbSpline
210
0.0
220
0.0
230
1.0
 70
     8
 71
     3
 72
    38
 73
    34
 74
     0
 42
0.000000001
 43
0.00000001
 40
0.0
 40
0.0
 40
0.0
 40
0.0
 40
0.1250000000000008
 40
0.1250000000000008
 40
0.2500000000000017
 40
0.2500000000000017
 40
0.312500000000002
 40
0.312500000000002
 40
0.3750000000000022
 40
0.3750000000000022
 40
0.4375000000000024
 40
0.4375000000000024
 40
0.5000000000000026
 40
0.5000000000000026
 40
0.5625000000000029
 40
0.5625000000000029
 40
0.625000000000003
 40
0.625000000000003
 40
0.6875000000000032
 40
0.6875000000000032
 40
0.7187500000000031
 40
0.7187500000000031
 40
0.750000000000003
 40
0.750000000000003
 40
0.7812500000000029
 40
0.7812500000000029
 40
0.8125000000000028
 40
0.8125000000000028
 40
0.8750000000000018
 40
0.8750000000000018
 40
0.9375000000000009
 40
0.9375000000000009
 40
1.0
 40
1.0
 40
1.0
 40
1.0
 10
71.29857842986279
 20
133.6198974526868
 30
0.0
 10
71.29857842986293
 20
133.6198974526868
 30
0.0
 10
71.36038418742642
 20
133.5972533700248
 30
0.0
 10
71.61000673286198
 20
133.5046689809687
 30
0.0
 10
71.79373436380011
 20
133.436281401016
 30
0.0
 10
72.1501232003852
 20
133.3004393018142
 30
0.0
 10
72.28328366189075
 20
133.2492463167577
 30
0.0
 10
72.57436267258716
 20
133.1355577116452
 30
0.0
 10
72.73085262409646
 20
133.0736311041389
 30
0.0
 10
73.06423406538437
 20
132.9387459954484
 30
0.0
 10
73.2411378237475
 20
132.8658077411617
 30
0.0
 10
73.6143794712208
 20
132.7068318063658
 30
0.0
 10
73.81212346210195
 20
132.6201920364893
 30
0.0
 10
74.21814689535505
 20
132.4332743639369
 30
0.0
 10
74.42620028874205
 20
132.3332394501278
 30
0.0
 10
74.8484945614762
 20
132.1139758999488
 30
0.0
 10
75.06285986455127
 20
131.9949727082842
 30
0.0
 10
75.49070217613067
 20
131.7246988579603
 30
0.0
 10
75.70710382723729
 20
131.5714500324486
 30
0.0
 10
76.0057362701174
 20
131.3053815088654
 30
0.0
 10
76.10092885958709
 20
131.2106092625927
 30
0.0
 10
76.27855411144388
 20
131.0048524054027
 30
0.0
 10
76.36116842207223
 20
130.8929938636321
 30
0.0
 10
76.50324869709381
 20
130.6594783594098
 30
0.0
 10
76.56363424633875
 20
130.536917293454
 30
0.0
 10
76.6630847384936
 20
130.2804465302288
 30
0.0
 10
76.70237617751837
 20
130.1452065166791
 30
0.0
 10
76.78907276367141
 20
129.7369245137146
 30
0.0
 10
76.80778109066614
 20
129.4606643359297
 30
0.0
 10
76.80428507003442
 20
128.903916557294
 30
0.0
 10
76.78180544982582
 20
128.6256863133032
 30
0.0
 10
76.71617780204373
 20
128.0743004931185
 30
0.0
 10
76.67268025835425
 20
127.8000468240161
 30
0.0
 10
76.62320071124421
 20
127.5266173520545
 30
0.0
  0
LINE
  5
1CF
330
1F
100
AcDbEntity
  8
0
  6
Continuous
 62
     7
370
    25
100
AcDbLine
 10
71.2985784299
 20
133.6198974527
 30
0.0
 11
71.2985784299
 21
133.7481228262
 31
0.0
  0
SPLINE
  5
1D0
330
1F
100
AcDbEntity
  8
0
  6
Continuous
 62
     7
370
    25
100
AcDbSpline
210
0.0
220
0.0
230
1.0
 70
     8
 71
     3
 72
    14
 73
    10
 74
     0
 42
0.000000001
 43
0.00000001
 40
0.0
 40
0.0
 40
0.0
 40
0.0
 40
0.0003951392850831
 40
0.0003951392850831
 40
0.0003951392850831
 40
0.0008159035679249
 40
0.0008159035679249
 40
0.0008159035679249
 40
0.0012369936130997
 40
0.0012369936130997
 40
0.0012369936130997
 40
0.0012369936130997
 10
75.42646237959433
 20
127.2588225647832
 30
0.0
 10
75.55497161770103
 20
127.2876965324966
 30
0.0
 10
75.68353512543004
 20
127.3163847459729
 30
0.0
 10
75.81208550371343
 20
127.3448875900104
 30
0.0
 10
75.94897075137702
 20
127.3752384837011
 30
0.0
 10
76.08586639727685
 20
127.4053844487301
 30
0.0
 10
76.22268665862592
 20
127.4353362682986
 30
0.0
 10
76.35961264757081
 20
127.4653112330785
 30
0.0
 10
76.49648971953499
 20
127.4950972825237
 30
0.0
 10
76.63322656872212
 20
127.5247197556925
 30
0.0
  0
LINE
  5
1D1
330
1F
100
AcDbEntity
  8
0
  6
Continuous
 62
     7
370
    25
100
AcDbLine
 10
67.8685782746
 20
128.7213495678
 30
0.0
 11
71.2985784299
 21
133.6198974527
 31
0.0
  0
LINE
  5
1D2
330
1F
100
AcDbEntity
  8
0
  6
Continuous
 62
     7
370
    25
100
AcDbLine
 10
70.5490165815
 20
134.5572352774
 30
0.0
 11
71.2986065605
 21
133.7481239397
 31
0.0
  0
LINE
  5
1D3
330
1F
100
AcDbEntity
  8
0
  6
Continuous
 62
     7
370
    25
100
AcDbLine
 10
85.798591378
 20
134.547502127
 30
0.0
 11
86.4669215239
 21
135.3566139494
 31
0.0
  0
LINE
  5
1D4
330
1F
100
AcDbEntity
  8
0
  6
Continuous
 62
     7
370
    25
100
AcDbLine
 10
61.7502444797
 20
130.0194257791
 30
0.0
 11
63.9985784299
 21
128.7213495678
 31
0.0
  0
LINE
  5
1D5
330
1F
100
AcDbEntity
  8
0
  6
Continuous
 62
     7
370
    25
100
AcDbLine
 10
60.9985784299
 20
131.3213495678
 30
0.0
 11
61.7502444797
 21
130.0194257791
 31
0.0
  0
LINE
  5
1D6
330
1F
100
AcDbEntity
  8
0
  6
Continuous
 62
     7
370
    25
100
AcDbLine
 10
60.9985784299
 20
133.2869442916
 30
0.0
 11
60.9985784299
 21
131.3213495678
 31
0.0
  0
LINE
  5
1D7
330
1F
100
AcDbEntity
  8
0
  6
Continuous
 62
     7
370
    25
100
AcDbLine
 10
62.4985784299
 20
134.1529696954
 30
0.0
 11
60.9985784299
 21
133.2869442916
 31
0.0
  0
LINE
  5
1D8
330
1F
100
AcDbEntity
  8
0
  6
Continuous
 62
     7
370
    25
100
AcDbLine
 10
111.7235784299
 20
138.9338495678
 30
0.0
 11
109.9735784299
 21
138.9338495678
 31
0.0
  0
ARC
  5
1D9
330
1F
100
AcDbEntity
  8
0
  6
Continuous
 62
     7
370
    25
100
AcDbCircle
 10
111.7235784299
 20
139.9338495678
 30
0.0
 40
1.0
100
AcDbArc
 50
270.0
 51
0.0
  0
LINE
  5
1DA
330
1F
100
AcDbEntity
  8
0
  6
Continuous
 62
     7
370
    25
100
AcDbLine
 10
112.7235784299
 20
140.031444832
 30
0.0
 11
112.7235784299
 21
139.9338495678
 31
0.0
  0
LINE
  5
1DB
330
1F
100
AcDbEntity
  8
0
  6
Continuous
 62
     7
370
    25
100
AcDbLine
 10
114.1827762344
 20
142.5588495678
 30
0.0
 11
112.7235784299
 21
140.031444832
 31
0.0
  0
LINE
  5
1DC
330
1F
100
AcDbEntity
  8
0
  6
Continuous
 62
     7
370
    25
100
AcDbLine
 10
86.4245275716
 20
128.7213508581
 30
0.0
 11
85.7985815581
 21
129.1900757134
 31
0.0
  0
LINE
  5
1DD
330
1F
100
AcDbEntity
  8
0
  6
Continuous
 62
     7
370
    25
100
AcDbLine
 10
108.9735784299
 20
140.031444832
 30
0.0
 11
107.5143806253
 21
142.5588495678
 31
0.0
  0
LINE
  5
1DE
330
1F
100
AcDbEntity
  8
0
  6
Continuous
 62
     7
370
    25
100
AcDbLine
 10
108.9735784299
 20
139.9338495678
 30
0.0
 11
108.9735784299
 21
140.031444832
 31
0.0
  0
ARC
  5
1DF
330
1F
100
AcDbEntity
  8
0
  6
Continuous
 62
     7
370
    25
100
AcDbCircle
 10
109.9735784299
 20
139.9338495678
 30
0.0
 40
1.000000000000014
100
AcDbArc
 50
180.0
 51
270.0
  0
LINE
  5
1E0
330
1F
100
AcDbEntity
  8
0
  6
Continuous
 62
     7
370
    25
100
AcDbLine
 10
103.6735784299
 20
116.0838495678
 30
0.0
 11
103.6735784299
 21
116.8338495678
 31
0.0
  0
LINE
  5
1E1
330
1F
100
AcDbEntity
  8
0
  6
Continuous
 62
     7
370
    25
100
AcDbLine
 10
104.4985784299
 20
116.8338495678
 30
0.0
 11
104.4985784299
 21
115.0838495678
 31
0.0
  0
LINE
  5
1E2
330
1F
100
AcDbEntity
  8
0
  6
Continuous
 62
     7
370
    25
100
AcDbLine
 10
169.4485784299
 20
117.0838495678
 30
0.0
 11
169.4485784299
 21
120.9838495678
 31
0.0
  0
LINE
  5
1E3
330
1F
100
AcDbEntity
  8
0
  6
Continuous
 62
     7
370
    25
100
AcDbLine
 10
99.8485784299
 20
125.4338495678
 30
0.0
 11
99.8485784299
 21
116.3147896755
 31
0.0
  0
LINE
  5
1E4
330
1F
100
AcDbEntity
  8
0
  6
Continuous
 62
     7
370
    25
100
AcDbLine
 10
220.9485784299
 20
122.1205438159
 30
0.0
 11
220.9485784299
 21
125.7350685845
 31
0.0
  0
LINE
  5
1E5
330
1F
100
AcDbEntity
  8
0
  6
Continuous
 62
     7
370
    25
100
AcDbLine
 10
94.9485784299
 20
128.5338495678
 30
0.0
 11
94.9485784299
 21
126.6338495678
 31
0.0
  0
LINE
  5
1E6
330
1F
100
AcDbEntity
  8
0
  6
Continuous
 62
     7
370
    25
100
AcDbLine
 10
100.9485784299
 20
142.3588495678
 30
0.0
 11
100.9485784299
 21
137.9338495678
 31
0.0
  0
LINE
  5
1E7
330
1F
100
AcDbEntity
  8
0
  6
Continuous
 62
     7
370
    25
100
AcDbLine
 10
118.9485784299
 20
134.5838495678
 30
0.0
 11
118.9485784299
 21
142.5588495678
 31
0.0
  0
SPLINE
  5
1E8
330
1F
100
AcDbEntity
  8
0
  6
Continuous
 62
     7
370
    25
100
AcDbSpline
210
0.0
220
0.0
230
1.0
 70
     8
 71
     3
 72
     9
 73
     5
 74
     0
 42
0.000000001
 43
0.00000001
 40
0.0
 40
0.0
 40
0.0
 40
0.0
 40
0.5102121239851395
 40
0.9999999999999999
 40
0.9999999999999999
 40
0.9999999999999999
 40
0.9999999999999999
 10
61.8029418265339
 20
121.5454760844347
 30
0.0
 10
62.17780388351268
 20
121.542986167053
 30
0.0
 10
62.91252193382248
 20
121.538106005911
 30
0.0
 10
63.64152252427921
 20
121.5327211145246
 30
0.0
 10
63.99857817509261
 20
121.53008366001
 30
0.0
  0
LINE
  5
1E9
330
1F
100
AcDbEntity
  8
0
  6
Continuous
 62
     7
370
    25
100
AcDbLine
 10
61.7502444797
 20
121.5759003754
 30
0.0
 11
61.8029418284
 21
121.5454755469
 31
0.0
  0
LINE
  5
1EA
330
1F
100
AcDbEntity
  8
0
  6
Continuous
 62
     7
370
    25
100
AcDbLine
 10
61.7502444797
 20
130.0194257791
 30
0.0
 11
61.7502444797
 21
121.5759003754
 31
0.0
  0
SPLINE
  5
1EB
330
1F
100
AcDbEntity
  8
0
  6
Continuous
 62
     7
370
    25
100
AcDbSpline
210
0.0
220
0.0
230
1.0
 70
    24
 71
     3
 72
     8
 73
     4
 74
     0
 42
0.000000001
 43
0.00000001
 40
0.0000004089325119
 40
0.0000004089325119
 40
0.0000004089325119
 40
0.0000004089325119
 40
0.0015399868451459
 40
0.0015399868451459
 40
0.0015399868451459
 40
0.0015399868451459
 10
60.9985784298628
 20
122.0098749715673
 30
0.0
 10
61.24956950588725
 20
121.8649652062604
 30
0.0
 10
61.5001587023902
 20
121.7202874662034
 30
0.0
 10
61.75024447970235
 20
121.5759003753518
 30
0.0
  0
LINE
  5
1EC
330
1F
100
AcDbEntity
  8
0
  6
Continuous
 62
     7
370
    25
100
AcDbLine
 10
60.9985784299
 20
131.3213495678
 30
0.0
 11
60.9985784299
 21
122.0098749716
 31
0.0
  0
SPLINE
  5
1ED
330
1F
100
AcDbEntity
  8
0
  6
Continuous
 62
     7
370
    25
100
AcDbSpline
210
0.0
220
0.0
230
1.0
 70
     8
 71
     3
 72
     8
 73
     4
 74
     0
 42
0.000000001
 43
0.00000001
 40
0.0
 40
0.0
 40
0.0
 40
0.0
 40
1.0
 40
1.0
 40
1.0
 40
1.0
 10
64.12826017261956
 20
121.1438502455194
 30
0.0
 10
64.10031195250004
 20
121.2516665994949
 30
0.0
 10
64.07235186433132
 20
121.3592604496612
 30
0.0
 10
64.0443796767971
 20
121.4666297304458
 30
0.0
  0
LINE
  5
1EE
330
1F
100
AcDbEntity
  8
0
  6
Continuous
 62
     7
370
    25
100
AcDbLine
 10
64.1282633112
 20
121.1438495678
 30
0.0
 11
62.4985776431
 21
121.1438495678
 31
0.0
  0
LINE
  5
1EF
330
1F
100
AcDbEntity
  8
0
  6
Continuous
 62
     7
370
    25
100
AcDbLine
 10
62.498577843
 20
121.1438499066
 30
0.0
 11
61.802941365
 21
121.5454758144
 31
0.0
  0
LINE
  5
1F0
330
1F
100
AcDbEntity
  8
0
  6
Continuous
 62
     7
370
    25
100
AcDbLine
 10
70.5525393271
 20
119.1463495678
 30
0.0
 11
70.3003676991
 21
119.1463495678
 31
0.0
  0
SPLINE
  5
1F1
330
1F
100
AcDbEntity
  8
0
  6
Continuous
 62
     7
370
    25
100
AcDbSpline
210
0.0
220
0.0
230
1.0
 70
     8
 71
     3
 72
    26
 73
    22
 74
     0
 42
0.000000001
 43
0.00000001
 40
0.0
 40
0.0
 40
0.0
 40
0.0
 40
0.0524616379932503
 40
0.1026498591890872
 40
0.150565513457809
 40
0.1962095861957063
 40
0.2395832262568645
 40
0.2806877815599511
 40
0.3195248450380211
 40
0.3560963147430692
 40
0.3904044736547445
 40
0.4224520974433627
 40
0.4522426027417772
 40
0.4797802555366611
 40
0.5050704712281336
 40
0.5966394156799991
 40
0.6841917884819224
 40
0.7679874773571101
 40
0.8483228539139507
 40
0.925534163520116
 40
1.0
 40
1.0
 40
1.0
 40
1.0
 10
70.2985612051934
 20
119.1463793518183
 30
0.0
 10
70.26292480616212
 20
119.2059262719005
 30
0.0
 10
70.19319630582368
 20
119.3224396556871
 30
0.0
 10
70.07971814506384
 20
119.4868376164164
 30
0.0
 10
69.9641925953388
 20
119.6389993542179
 30
0.0
 10
69.84707089932868
 20
119.7789020511505
 30
0.0
 10
69.72969919884929
 20
119.9071163750545
 30
0.0
 10
69.61307823281565
 20
120.0241320539948
 30
0.0
 10
69.49817531237062
 20
120.1305092092389
 30
0.0
 10
69.38585108668128
 20
120.2268252897132
 30
0.0
 10
69.27688211264643
 20
120.3136746362657
 30
0.0
 10
69.17196307180976
 20
120.3916548184595
 30
0.0
 10
69.07170574586102
 20
120.4613630155125
 30
0.0
 10
68.97666840327788
 20
120.5233730044136
 30
0.0
 10
68.80656149884712
 20
120.6278594416794
 30
0.0
 10
68.55364246744203
 20
120.7629181081939
 30
0.0
 10
68.2076613103809
 20
120.9073050006109
 30
0.0
 10
67.85970276105655
 20
121.0162729128559
 30
0.0
 10
67.5135630006805
 20
121.0908024951927
 30
0.0
 10
67.17249821724639
 20
121.1357311997421
 30
0.0
 10
66.94675160573074
 20
121.1411762985965
 30
0.0
 10
66.83592139371267
 20
121.1438495677829
 30
0.0
  0
SPLINE
  5
1F2
330
1F
100
AcDbEntity
  8
0
  6
Continuous
 62
     7
370
    25
100
AcDbSpline
210
0.0
220
0.0
230
1.0
 70
     8
 71
     3
 72
     8
 73
     4
 74
     0
 42
0.000000001
 43
0.00000001
 40
0.0
 40
0.0
 40
0.0
 40
0.0
 40
1.0
 40
1.0
 40
1.0
 40
1.0
 10
70.55253932709529
 20
119.1463495677827
 30
0.0
 10
70.58154403352286
 20
119.270287294645
 30
0.0
 10
70.60057655320432
 20
119.3982394248784
 30
0.0
 10
70.60882814539596
 20
119.5293087375698
 30
0.0
  0
LINE
  5
1F3
330
1F
100
AcDbEntity
  8
0
  6
Continuous
 62
     7
370
    25
100
AcDbLine
 10
66.8359213937
 20
121.1438495678
 30
0.0
 11
64.1282633112
 21
121.1438495678
 31
0.0
  0
LINE
  5
1F4
330
1F
100
AcDbEntity
  8
0
  6
Continuous
 62
     7
370
    25
100
AcDbLine
 10
83.5985784299
 20
115.1466229786
 30
0.0
 11
82.9485784299
 21
115.2963495678
 31
0.0
  0
SPLINE
  5
1F5
330
1F
100
AcDbEntity
  8
0
  6
Continuous
 62
     7
370
    25
100
AcDbSpline
210
0.0
220
0.0
230
1.0
 70
     8
 71
     3
 72
    26
 73
    22
 74
     0
 42
0.000000001
 43
0.00000001
 40
0.0
 40
0.0
 40
0.0
 40
0.0
 40
0.0305951740572542
 40
0.0629166281868252
 40
0.0969720532897518
 40
0.1327680143285475
 40
0.1703101548822826
 40
0.2096033578521445
 40
0.2506518729756858
 40
0.3342141733898277
 40
0.4179517165474626
 40
0.5018670561020881
 40
0.5659795686746639
 40
0.6277136397870199
 40
0.687135819210908
 40
0.7443207393864881
 40
0.7993521466017559
 40
0.8523240127975756
 40
0.903341702807647
 40
0.9525231537633125
 40
1.0
 40
1.0
 40
1.0
 40
1.0
 10
82.94857842986279
 20
115.2963495677829
 30
0.0
 10
82.94767021801816
 20
115.3608847351701
 30
0.0
 10
82.94580255003768
 20
115.4935963557635
 30
0.0
 10
82.93020996097609
 20
115.6964104472871
 30
0.0
 10
82.90356609978895
 20
115.9081234881875
 30
0.0
 10
82.86341167071053
 20
116.1278354815604
 30
0.0
 10
82.80851355402739
 20
116.3545823524317
 30
0.0
 10
82.7372705854156
 20
116.5872133562147
 30
0.0
 10
82.61885819113303
 20
116.9026116706914
 30
0.0
 10
82.43072729472514
 20
117.2870935692263
 30
0.0
 10
82.14671053149058
 20
117.7171211837559
 30
0.0
 10
81.83729257494085
 20
118.0756078960967
 30
0.0
 10
81.52138296413928
 20
118.3673745523862
 30
0.0
 10
81.21463755601593
 20
118.5998336392233
 30
0.0
 10
80.89621844219383
 20
118.7966438737873
 30
0.0
 10
80.57024756603676
 20
118.9587445760456
 30
0.0
 10
80.24070873091154
 20
119.0872144595253
 30
0.0
 10
79.91114681606497
 20
119.1837982788982
 30
0.0
 10
79.58472849276573
 20
119.2496505081844
 30
0.0
 10
79.26421030046184
 20
119.2892154560099
 30
0.0
 10
79.05254478693107
 20
119.2939996542252
 30
0.0
 10
78.9485784298628
 20
119.2963495677829
 30
0.0
  0
SPLINE
  5
1F6
330
1F
100
AcDbEntity
  8
0
  6
Continuous
 62
     7
370
    25
100
AcDbSpline
210
0.0
220
0.0
230
1.0
 70
     8
 71
     3
 72
    13
 73
     9
 74
     0
 42
0.000000001
 43
0.00000001
 40
0.0
 40
0.0
 40
0.0
 40
0.0
 40
0.1604061687300809
 40
0.3231296684563272
 40
0.4883154213007764
 40
0.6561019685773533
 40
0.8266215117792448
 40
1.0
 40
1.0
 40
1.0
 40
1.0
 10
77.03370515057334
 20
119.2963495677829
 30
0.0
 10
76.97465519905819
 20
119.2955939977449
 30
0.0
 10
76.85570222233345
 20
119.2940719422167
 30
0.0
 10
76.67644858872762
 20
119.2816268830892
 30
0.0
 10
76.49551560703996
 20
119.2614427019585
 30
0.0
 10
76.31338711264118
 20
119.2323073358179
 30
0.0
 10
76.13022010484684
 20
119.1948911839987
 30
0.0
 10
76.0094807899725
 20
119.1626253116417
 30
0.0
 10
75.94860925838762
 20
119.1463582567032
 30
0.0
  0
SPLINE
  5
1F7
330
1F
100
AcDbEntity
  8
0
  6
Continuous
 62
     7
370
    25
100
AcDbSpline
210
0.0
220
0.0
230
1.0
 70
    24
 71
     3
 72
    10
 73
     6
 74
     0
 42
0.000000001
 43
0.00000001
 40
0.0
 40
0.0
 40
0.0
 40
0.0
 40
0.3216623556917455
 40
0.6548175346390357
 40
1.0
 40
1.0
 40
1.0
 40
1.0
 10
75.94875726476758
 20
119.1463495677829
 30
0.0
 10
75.88021135691028
 20
119.1463495677829
 30
0.0
 10
75.74067043271302
 20
119.1463495677829
 30
0.0
 10
75.53106201736249
 20
119.1463495677829
 30
0.0
 10
75.39138502220864
 20
119.1463495677829
 30
0.0
 10
75.32030825100782
 20
119.1463495677829
 30
0.0
  0
SPLINE
  5
1F8
330
1F
100
AcDbEntity
  8
0
  6
Continuous
 62
     7
370
    25
100
AcDbSpline
210
0.0
220
0.0
230
1.0
 70
     8
 71
     3
 72
     8
 73
     4
 74
     0
 42
0.000000001
 43
0.00000001
 40
0.0
 40
0.0
 40
0.0
 40
0.0
 40
1.0
 40
1.0
 40
1.0
 40
1.0
 10
76.03490854626142
 20
119.5247959169658
 30
0.0
 10
75.76561221620499
 20
119.4281065317725
 30
0.0
 10
75.52945153079119
 20
119.3001073623957
 30
0.0
 10
75.32025401460729
 20
119.1466307647511
 30
0.0
  0
LINE
  5
1F9
330
1F
100
AcDbEntity
  8
0
  6
Continuous
 62
     7
370
    25
100
AcDbLine
 10
75.3207997262
 20
103.0213495678
 30
0.0
 11
75.4402804345
 21
103.0213495678
 31
0.0
  0
LINE
  5
1FA
330
1F
100
AcDbEntity
  8
0
  6
Continuous
 62
     7
370
    25
100
AcDbLine
 10
78.9485784299
 20
119.2963495678
 30
0.0
 11
77.0337051506
 21
119.2963495678
 31
0.0
  0
LINE
  5
1FB
330
1F
100
AcDbEntity
  8
0
  6
Continuous
 62
     7
370
    25
100
AcDbLine
 10
75.3206666118
 20
119.1463495678
 30
0.0
 11
70.5525393271
 21
119.1463495678
 31
0.0
  0
LINE
  5
1FC
330
1F
100
AcDbEntity
  8
0
  6
Continuous
 62
     7
370
    25
100
AcDbLine
 10
82.9485784299
 20
111.0838495678
 30
0.0
 11
82.9485784299
 21
115.2963495678
 31
0.0
  0
LINE
  5
1FD
330
1F
100
AcDbEntity
  8
VERMASSUNG
  6
CENTERX2
100
AcDbLine
 10
236.9435784299
 20
111.0838495678
 30
0.0
 11
45.0035784299
 21
111.0838495678
 31
0.0
  0
HATCH
  5
1FE
330
1F
100
AcDbEntity
  8
0
  6
Continuous
 62
     7
370
    18
100
AcDbHatch
 10
0.0
 20
0.0
 30
0.0
210
0.0
220
0.0
230
1.0
  2
ANSI31
 70
     0
 71
     0
 91
        1
 92
        0
 93
       50
 72
     2
 10
109.9735784298628
 20
139.9338495677829
 40
1.000000000000003
 50
90.0
 51
180.0
 73
     0
 72
     1
 10
108.9735784298628
 20
139.9338495677829
 11
108.9735784298628
 21
140.0314448319745
 72
     1
 10
108.9735784298628
 20
140.0314448319745
 11
107.5143806252927
 21
142.5588495677829
 72
     1
 10
107.5143806252927
 20
142.5588495677829
 11
101.1485784298628
 21
142.5588495677829
 72
     2
 10
101.1485784298628
 20
142.3588495677829
 40
0.2000000000000028
 50
90.0
 51
180.0
 73
     1
 72
     1
 10
100.9485784298628
 20
142.3588495677829
 11
100.9485784298628
 21
137.9338495677829
 72
     1
 10
100.9485784298628
 20
137.9338495677829
 11
101.2826171158914
 21
136.8744142073863
 72
     2
 10
100.5196435552929
 20
136.6338495677829
 40
0.8000000000000049
 50
342.4999999999978
 51
467.5000000000012
 73
     0
 72
     1
 10
100.2790789156894
 20
135.8708760071843
 11
99.78839638983209
 21
136.0255876133112
 72
     1
 10
99.78839638983209
 20
136.0255876133112
 11
86.46692311731258
 21
135.356610640285
 72
     1
 10
86.46692152391402
 20
135.3566139493535
 11
85.7985913779845
 21
134.5475021269623
 72
     1
 10
85.7985913779845
 20
134.5475021269623
 11
85.79857842986281
 21
129.1900755885345
 72
     1
 10
85.7985815580965
 20
129.190075713415
 11
86.42452757163868
 21
128.7213508580749
 72
     1
 10
86.42452781994761
 20
128.7213495677829
 11
91.44857842986285
 21
128.7213495677829
 72
     1
 10
91.44857842986285
 20
128.7213495677829
 11
92.32381890344365
 21
129.2266698908105
 72
     2
 10
92.72381890344366
 20
128.5338495677829
 40
0.7999999999999937
 50
240.0000000000003
 51
269.9999999999998
 73
     0
 72
     1
 10
92.72381890344364
 20
129.3338495677829
 11
94.14857842986282
 21
129.3338495677829
 72
     2
 10
94.14857842986282
 20
128.5338495677829
 40
0.7999999999999977
 50
270.0000000000008
 51
360.0000000000008
 73
     0
 72
     1
 10
94.94857842986282
 20
128.5338495677829
 11
94.94857842986282
 21
126.6338495677829
 72
     1
 10
94.94857842986282
 20
126.6338495677829
 11
98.64857842986281
 21
126.6338495677829
 72
     2
 10
98.64857842986281
 20
125.4338495677829
 40
1.2
 50
270.0000000000008
 51
360.0000000000008
 73
     0
 72
     1
 10
99.84857842986281
 20
125.4338495677829
 11
99.84857842986281
 21
116.3147896754587
 72
     1
 10
99.84857842986281
 20
116.3147896754587
 11
100.2485784298628
 21
116.0838495677829
 72
     1
 10
100.2485784298628
 20
116.0838495677829
 11
103.6735784298628
 21
116.0838495677829
 72
     1
 10
103.6735784298628
 20
116.0838495677829
 11
103.6735784298628
 21
116.8338495677829
 72
     1
 10
103.6735784298628
 20
116.8338495677829
 11
104.4985784298628
 21
116.8338495677829
 72
     1
 10
104.4985784298628
 20
116.8338495677829
 11
104.4985784298628
 21
115.0838495677829
 72
     1
 10
104.4985784298628
 20
115.0838495677829
 11
148.0472875013214
 21
115.0838495677828
 72
     1
 10
148.0472875013214
 20
115.0838495677828
 11
148.9485784298628
 21
116.5838495677828
 72
     1
 10
148.9485784298628
 20
116.5838495677828
 11
168.9485784298628
 21
116.5838495677828
 72
     1
 10
168.9485784298628
 20
116.5838495677828
 11
169.4485784298628
 21
117.0838495677828
 72
     1
 10
169.4485784298628
 20
117.0838495677828
 11
169.4485784298628
 21
120.9838495677828
 72
     2
 10
169.8485784298628
 20
120.9838495677828
 40
0.3999999999999985
 50
180.0
 51
269.9999999999968
 73
     0
 72
     1
 10
169.8485784298628
 20
121.3838495677828
 11
179.053804411743
 21
121.3838495677828
 72
     2
 10
179.053804411743
 20
120.9838495677828
 40
0.4000000000000004
 50
270.0000000000008
 51
290.0000000000031
 73
     0
 72
     1
 10
179.1906124690733
 20
121.3597266160972
 11
179.9485784298628
 21
121.0838495677828
 72
     1
 10
179.9485784298628
 20
121.0838495677828
 11
217.4485784298628
 21
121.0838495677827
 72
     1
 10
217.4485784298628
 20
121.0838495677827
 11
220.5354025186962
 21
121.6281399393449
 72
     2
 10
220.4485784298628
 20
122.120543815851
 40
0.5000000000000032
 50
279.9999999999962
 51
360.0000000000008
 73
     1
 72
     1
 10
220.9485784298628
 20
122.120543815851
 11
220.9485784298628
 21
125.7350685844663
 72
     2
 10
218.9485784298628
 20
125.7350685844663
 40
1.999999999999995
 50
0.0
 51
85.49999999999963
 73
     1
 72
     1
 10
219.1054966213185
 20
127.7289032519326
 11
170.123759485164
 21
131.5838495677828
 72
     1
 10
170.123759485164
 20
131.5838495677828
 11
121.9485784298628
 21
131.5838495677829
 72
     2
 10
121.9485784298628
 20
134.5838495677829
 40
3.0
 50
90.0
 51
180.0000000000014
 73
     0
 72
     1
 10
118.9485784298628
 20
134.5838495677829
 11
118.9485784298628
 21
142.5588495677829
 72
     1
 10
118.9485784298628
 20
142.5588495677829
 11
114.1827762344329
 21
142.5588495677829
 72
     1
 10
114.1827762344329
 20
142.5588495677829
 11
112.7235784298628
 21
140.0314448319745
 72
     1
 10
112.7235784298628
 20
140.0314448319745
 11
112.7235784298628
 21
139.9338495677829
 72
     2
 10
111.7235784298628
 20
139.9338495677829
 40
1.000000000000003
 50
0.0
 51
90.00000000000082
 73
     0
 72
     1
 10
111.7235784298628
 20
138.9338495677829
 11
109.9735784298628
 21
138.9338495677829
 97
        0
 75
     0
 76
     1
 52
0.0
 41
1.0
 77
     0
 78
     1
 53
45.0
 43
0.0
 44
0.0
 45
-2.245064030267288
 46
2.245064030267288
 79
     0
 98
        1
 10
0.0
 20
0.0
  0
HATCH
  5
1FF
330
1F
100
AcDbEntity
  8
0
  6
Continuous
 62
     7
370
    18
100
AcDbHatch
 10
0.0
 20
0.0
 30
0.0
210
0.0
220
0.0
230
1.0
  2
ANSI31
 70
     0
 71
     0
 91
        1
 92
        0
 93
        9
 72
     1
 10
71.29860656045098
 20
133.7481239396658
 11
70.54901658151527
 21
134.5572352774334
 72
     1
 10
70.54901658151527
 20
134.5572352774334
 11
62.49857842986283
 21
134.1529696953653
 72
     1
 10
62.49857842986283
 20
134.1529696953653
 11
60.99857842986282
 21
133.2869442915809
 72
     1
 10
60.99857842986282
 20
133.2869442915809
 11
60.99857842986282
 21
131.3213495677829
 72
     1
 10
60.99857842986282
 20
131.3213495677829
 11
61.75024447970236
 21
130.0194257791362
 72
     1
 10
61.75024447970236
 20
130.0194257791362
 11
63.99857842986281
 21
128.7213495677829
 72
     1
 10
63.99857842986281
 20
128.7213495677829
 11
67.86857827457176
 21
128.7213495677829
 72
     1
 10
67.86857827457176
 20
128.7213495677829
 11
71.29857842986283
 21
133.6198974526869
 72
     1
 10
71.29857842986281
 20
133.6198974526868
 11
71.29857842986281
 21
133.7481228261726
 97
        0
 75
     0
 76
     1
 52
0.0
 41
1.0
 77
     0
 78
     1
 53
45.0
 43
0.0
 44
0.0
 45
-2.245064030267288
 46
2.245064030267288
 79
     0
 98
        1
 10
0.0
 20
0.0
  0
HATCH
  5
200
330
1F
100
AcDbEntity
  8
0
  6
Continuous
 62
     7
370
    18
100
AcDbHatch
 10
0.0
 20
0.0
 30
0.0
210
0.0
220
0.0
230
1.0
  2
ANSI31
 70
     0
 71
     0
 91
        1
 92
        0
 93
       12
 72
     1
 10
169.9485784298628
 20
116.5838495677828
 11
169.4485784298628
 21
117.0838495677828
 72
     1
 10
169.4485784298628
 20
117.0838495677828
 11
154.4485784298628
 21
117.0838495677828
 72
     1
 10
154.4485784298628
 20
117.0838495677828
 11
153.9485784298628
 21
116.5838495677828
 72
     1
 10
153.9485784298628
 20
116.5838495677828
 11
153.9485784298628
 21
114.7838495677828
 72
     1
 10
153.9485784298628
 20
114.7838495677828
 11
154.4635205697131
 21
114.2689074279327
 72
     1
 10
154.4635205697131
 20
114.2689074279327
 11
160.948578429796
 21
114.2689074279326
 72
     1
 10
160.948578429796
 20
114.2689074279326
 11
160.948578429796
 21
114.0838495677828
 72
     1
 10
160.948578429796
 20
114.0838495677828
 11
166.9485784298628
 21
114.0838495677828
 72
     1
 10
166.9485784298628
 20
114.0838495677828
 11
166.9485784298628
 21
114.2689074279326
 72
     1
 10
166.9485784298628
 20
114.2689074279326
 11
171.9485784298628
 21
114.2689074279326
 72
     1
 10
171.9485784298628
 20
114.2689074279326
 11
171.9485784298628
 21
116.5838495677828
 72
     1
 10
171.9485784298628
 20
116.5838495677828
 11
169.9485784298628
 21
116.5838495677828
 97
        0
 75
     0
 76
     1
 52
0.0
 41
1.0
 77
     0
 78
     1
 53
45.0
 43
0.0
 44
0.0
 45
-2.245064030267288
 46
2.245064030267288
 79
     0
 98
        1
 10
0.0
 20
0.0
  0
POINT
  5
201
330
1F
100
AcDbEntity
  8
VERMASSUNG
100
AcDbPoint
 10
220.9485784299
 20
127.5838495678
 30
0.0
  0
POINT
  5
202
330
1F
100
AcDbEntity
  8
VERMASSUNG
100
AcDbPoint
 10
220.9485784299
 20
94.5838495678
 30
0.0
  0
DIMENSION
  5
203
330
1F
100
AcDbEntity
  8
VERMASSUNG
100
AcDbDimension
  2
_D
 10
258.723584754
 20
127.5838495678
 30
0.0
 11
258.723584754
 21
111.0838495678
 31
0.0
 70
   160
  1
%%c<>
 71
     2
 42
-1.0
  3
SLDDIMSTYLE0
100
AcDbAlignedDimension
 13
220.9485784299
 23
94.5838495678
 33
0.0
 14
220.9485784299
 24
127.5838495678
 34
0.0
 50
90.0
100
AcDbRotatedDimension
  0
DIMENSION
  5
20F
330
1F
100
AcDbEntity
  8
VERMASSUNG
100
AcDbDimension
  2
_D_1
 10
248.9485784299
 20
101.0838495678
 30
0.0
 11
248.9485784299
 21
111.0838495678
 31
0.0
 70
   160
  1
%%c<>
 71
     2
 42
-1.0
  3
SLDDIMSTYLE1
100
AcDbAlignedDimension
 13
217.4485784299
 23
121.0838495678
 33
0.0
 14
217.4485784299
 24
101.0838495678
 34
0.0
 50
90.0
100
AcDbRotatedDimension
  0
DIMENSION
  5
219
330
1F
100
AcDbEntity
  8
VERMASSUNG
100
AcDbDimension
  2
_D_2
 10
268.5165355745
 20
90.5838495678
 30
0.0
 11
268.5165355745
 21
111.0838495678
 31
0.0
 70
   160
  1
%%c<>
 71
     2
 42
-1.0
  3
SLDDIMSTYLE0
100
AcDbAlignedDimension
 13
170.1237594852
 23
131.5838495678
 33
0.0
 14
170.1237594852
 24
90.5838495678
 34
0.0
 50
90.0
100
AcDbRotatedDimension
  0
DIMENSION
  5
224
330
1F
100
AcDbEntity
  8
VERMASSUNG
100
AcDbDimension
  2
_D_3
 10
38.9985534299
 20
79.6088495678
 30
0.0
 11
38.9985534299
 21
111.0838495678
 31
0.0
 70
   160
  1
KM<> XMZ
 71
     2
 42
-1.0
  3
SLDDIMSTYLE2
100
AcDbAlignedDimension
 13
101.1485784299
 23
142.5588495678
 33
0.0
 14
101.1485784299
 24
79.6088495678
 34
0.0
 50
90.0
100
AcDbRotatedDimension
  0
DIMENSION
  5
231
330
1F
100
AcDbEntity
  8
VERMASSUNG
100
AcDbDimension
  2
_D_4
 10
220.9485784299
 20
148.7261337445
 30
0.0
 11
195.1985784299
 21
148.7261337445
 31
0.0
 70
   160
  1
<> max.
 71
     2
 42
-1.0
  3
SLDDIMSTYLE0
100
AcDbAlignedDimension
 13
169.4485784299
 23
120.9838495678
 33
0.0
 14
220.9485784299
 24
125.7350685845
 34
0.0
 50
0.0
100
AcDbRotatedDimension
  0
DIMENSION
  5
23C
330
1F
100
AcDbEntity
  8
VERMASSUNG
100
AcDbDimension
  2
_D_5
 10
220.9485784299
 20
141.6721239741
 30
0.0
 11
200.4485784299
 21
141.6721239741
 31
0.0
 70
   160
  1
<> min.
 71
     2
 42
-1.0
  3
SLDDIMSTYLE0
100
AcDbAlignedDimension
 13
179.9485784299
 23
121.0838495678
 33
0.0
 14
220.9485784299
 24
125.7350685845
 34
0.0
 50
0.0
100
AcDbRotatedDimension
  0
DIMENSION
  5
247
330
1F
100
AcDbEntity
  8
VERMASSUNG
100
AcDbDimension
  2
_D_6
 10
220.9485784299
 20
156.6014094326
 30
0.0
 11
160.9485784299
 21
156.6014094326
 31
0.0
 70
   160
  1
<>
 71
     2
 42
-1.0
  3
SLDDIMSTYLE0
100
AcDbAlignedDimension
 13
100.9485784299
 23
142.3588495678
 33
0.0
 14
220.9485784299
 24
122.1205438159
 34
0.0
 50
0.0
100
AcDbRotatedDimension
  0
DIMENSION
  5
251
330
1F
100
AcDbEntity
  8
VERMASSUNG
100
AcDbDimension
  2
_D_7
 10
60.9985784299
 20
164.5588495678
 30
0.0
 11
140.9735784299
 21
164.5588495678
 31
0.0
 70
   160
  1
<>
 71
     2
 42
-1.0
  3
SLDDIMSTYLE0
100
AcDbAlignedDimension
 13
220.9485784299
 23
125.7350685845
 33
0.0
 14
60.9985784299
 24
133.2869442916
 34
0.0
 50
0.0
100
AcDbRotatedDimension
  0
DIMENSION
  5
25B
330
1F
100
AcDbEntity
  8
VERMASSUNG
100
AcDbDimension
  2
_D_8
 10
220.9485784299
 20
77.1798492518
 30
0.0
 11
195.5361689575
 21
77.1798492518
 31
0.0
 70
   160
  1
<>
 71
     2
 42
-1.0
  3
SLDDIMSTYLE2
100
AcDbAlignedDimension
 13
170.1237594852
 23
90.5838495678
 33
0.0
 14
220.9485784299
 24
96.4326305511
 34
0.0
 50
0.0
100
AcDbRotatedDimension
  0
DIMENSION
  5
265
330
1F
100
AcDbEntity
  8
VERMASSUNG
100
AcDbDimension
  2
_D_9
 10
220.9485784299
 20
68.1261048581
 30
0.0
 11
169.9485784299
 21
68.1261048581
 31
0.0
 70
   160
  1
<>
 71
     2
 42
-1.0
  3
SLDDIMSTYLE0
100
AcDbAlignedDimension
 13
118.9485784299
 23
79.6088495678
 33
0.0
 14
220.9485784299
 24
96.4326305511
 34
0.0
 50
0.0
100
AcDbRotatedDimension
  0
LINE
  5
26F
330
1F
100
AcDbEntity
  8
0
  6
Continuous
 62
     7
370
    25
100
AcDbLine
 10
262.0121832309
 20
19.0130601606
 30
0.0
 11
280.2383646228
 21
10.7134542614
 31
0.0
  0
LINE
  5
270
330
1F
100
AcDbEntity
  8
0
  6
Continuous
 62
     7
370
    25
100
AcDbLine
 10
288.5473168275
 20
25.1065409245
 30
0.0
 11
272.2454647204
 21
36.7395445058
 31
0.0
  0
SPLINE
  5
271
330
1F
100
AcDbEntity
  8
0
  6
Continuous
 62
     7
370
    25
100
AcDbSpline
210
0.0
220
0.0
230
1.0
 70
     8
 71
     3
 72
    33
 73
    29
 74
     0
 42
0.000000001
 43
0.00000001
 40
0.0
 40
0.0
 40
0.0
 40
0.0
 40
0.0153994214321659
 40
0.0526782909431996
 40
0.090310883539152
 40
0.1287657927106138
 40
0.1682458247453334
 40
0.2086509799972792
 40
0.2496742294375257
 40
0.2909798570713361
 40
0.3322966733743908
 40
0.3735229127282949
 40
0.4146433886650003
 40
0.4556787674548996
 40
0.4966658156899572
 40
0.537648194322678
 40
0.5786649739743983
 40
0.6197562627270317
 40
0.660970379459682
 40
0.702352242970361
 40
0.7439339770518605
 40
0.7857140168286726
 40
0.8276009026387556
 40
0.8693004568278578
 40
0.9103981841030885
 40
0.9504669966007728
 40
0.9893260703857811
 40
1.0
 40
1.0
 40
1.0
 40
1.0
 10
280.2899177918036
 20
10.70649053679803
 30
0.0
 10
280.3698265520114
 20
10.66755870405044
 30
0.0
 10
280.6431781800368
 20
10.5343808167211
 30
0.0
 10
281.1619332324518
 20
10.42226756996079
 30
0.0
 10
281.8294828850139
 20
10.36896722550653
 30
0.0
 10
282.5294665910326
 20
10.43304597666307
 30
0.0
 10
283.2526008005298
 20
10.60666749255217
 30
0.0
 10
283.9917938182641
 20
10.89235289161268
 30
0.0
 10
284.7353445728818
 20
11.28658543264961
 30
0.0
 10
285.4703357026131
 20
11.78289476882841
 30
0.0
 10
286.1843670838427
 20
12.37185353403671
 30
0.0
 10
286.866683315392
 20
13.04283864063604
 30
0.0
 10
287.5081267426182
 20
13.78503892898564
 30
0.0
 10
288.1004676120024
 20
14.58739013074709
 30
0.0
 10
288.6360429134983
 20
15.43851689439146
 30
0.0
 10
289.1077447049927
 20
16.32666199046084
 30
0.0
 10
289.5089905562056
 20
17.23980373826252
 30
0.0
 10
289.8338663192517
 20
18.16581957754483
 30
0.0
 10
290.0770615457564
 20
19.09274450944429
 30
0.0
 10
290.2338270453753
 20
20.00883178939751
 30
0.0
 10
290.2997733589197
 20
20.90249580011695
 30
0.0
 10
290.2707712096824
 20
21.76175436837724
 30
0.0
 10
290.1434877678923
 20
22.57347127189333
 30
0.0
 10
289.9157530689378
 20
23.32163844786519
 30
0.0
 10
289.5916508302616
 20
23.99277945422574
 30
0.0
 10
289.1714968303599
 20
24.56031757803675
 30
0.0
 10
288.8045007341908
 20
24.93755734977417
 30
0.0
 10
288.5607598620937
 20
25.08659216399938
 30
0.0
 10
288.5082358329751
 20
25.11870786480368
 30
0.0
  0
SPLINE
  5
272
330
1F
100
AcDbEntity
  8
0
  6
Continuous
 62
     7
370
    25
100
AcDbSpline
210
0.0
220
0.0
230
1.0
 70
     8
 71
     3
 72
    12
 73
     8
 74
     0
 42
0.000000001
 43
0.00000001
 40
0.0
 40
0.0
 40
0.0
 40
0.0
 40
0.1420601668923814
 40
0.4189590483870886
 40
0.6907509083953213
 40
0.9448626742695809
 40
1.0
 40
1.0
 40
1.0
 40
1.0
 10
281.5310087959144
 20
13.6400228471834
 30
0.0
 10
281.4809617037724
 20
13.69916790460051
 30
0.0
 10
281.3333645091683
 20
13.87359651125589
 30
0.0
 10
281.1628595404635
 20
14.26912907750628
 30
0.0
 10
281.027416438835
 20
14.79543039335787
 30
0.0
 10
280.986456423035
 20
15.22953556181508
 30
0.0
 10
280.9843873403465
 20
15.47347447445885
 30
0.0
 10
280.9840184348614
 20
15.51696737274021
 30
0.0
  0
SPLINE
  5
273
330
1F
100
AcDbEntity
  8
0
  6
Continuous
 62
     7
370
    25
100
AcDbSpline
210
0.0
220
0.0
230
1.0
 70
     8
 71
     3
 72
    13
 73
     9
 74
     0
 42
0.000000001
 43
0.00000001
 40
0.0
 40
0.0
 40
0.0
 40
0.0
 40
0.1467564348536879
 40
0.3413167100175746
 40
0.5356471424090268
 40
0.7301617762963499
 40
0.9260512015723705
 40
1.0
 40
1.0
 40
1.0
 40
1.0
 10
284.3319816637381
 20
21.77373731143334
 30
0.0
 10
284.4709593959822
 20
21.87089283367211
 30
0.0
 10
284.7941848980363
 20
22.09685092023666
 30
0.0
 10
285.2993176354976
 20
22.33800117104627
 30
0.0
 10
285.8307672646183
 20
22.51075304953682
 30
0.0
 10
286.3267304466476
 20
22.56949205219869
 30
0.0
 10
286.6948416181418
 20
22.55400263036723
 30
0.0
 10
286.8762963030554
 20
22.48553718724968
 30
0.0
 10
286.9260237128132
 20
22.46677432562516
 30
0.0
  0
SPLINE
  5
274
330
1F
100
AcDbEntity
  8
0
  6
Continuous
 62
     7
370
    25
100
AcDbSpline
210
0.0
220
0.0
230
1.0
 70
     8
 71
     3
 72
     9
 73
     5
 74
     0
 42
0.000000001
 43
0.00000001
 40
0.0
 40
0.0
 40
0.0
 40
0.0
 40
0.7708323404946649
 40
1.0
 40
1.0
 40
1.0
 40
1.0
 10
280.9840184348614
 20
15.51696737274021
 30
0.0
 10
280.9835489736471
 20
15.62840761118076
 30
0.0
 10
280.9829399420981
 20
15.7729789175287
 30
0.0
 10
281.003686724841
 20
15.92862866411342
 30
0.0
 10
281.0084412164844
 20
15.96429855224084
 30
0.0
  0
LINE
  5
275
330
1F
100
AcDbEntity
  8
0
  6
Continuous
 62
     7
370
    25
100
AcDbLine
 10
244.6864853917
 20
28.9966286304
 30
0.0
 11
261.7189850572
 21
19.1639758674
 31
0.0
  0
LINE
  5
276
330
1F
100
AcDbEntity
  8
0
  6
Continuous
 62
     7
370
    25
100
AcDbLine
 10
271.9681522866
 20
36.9179774026
 30
0.0
 11
254.9356526211
 21
46.7506301656
 31
0.0
  0
LINE
  5
277
330
1F
100
AcDbEntity
  8
0
  6
Continuous
 62
     7
370
    25
100
AcDbLine
 10
239.1973328545
 20
25.8292010611
 30
0.0
 11
240.8822980035
 21
24.8564913853
 31
0.0
  0
LINE
  5
278
330
1F
100
AcDbEntity
  8
0
  6
Continuous
 62
     7
370
    25
100
AcDbLine
 10
256.618519318
 20
52.1153797791
 30
0.0
 11
254.933554169
 21
53.088089455
 31
0.0
  0
LINE
  5
279
330
1F
100
AcDbEntity
  8
0
  6
Continuous
 62
     7
370
    25
100
AcDbLine
 10
234.5890479231
 20
28.4895073258
 30
0.0
 11
236.8396988995
 21
27.1902341729
 31
0.0
  0
LINE
  5
27A
330
1F
100
AcDbEntity
  8
0
  6
Continuous
 62
     7
370
    25
100
AcDbLine
 10
252.575920214
 20
54.4491225668
 30
0.0
 11
250.3252692376
 21
55.7483957196
 31
0.0
  0
LINE
  5
27B
330
1F
100
AcDbEntity
  8
0
  6
Continuous
 62
     7
370
    25
100
AcDbLine
 10
243.5478800474
 20
55.5282776272
 30
0.0
 11
234.3506678638
 21
60.1089302371
 31
0.0
  0
LINE
  5
27C
330
1F
100
AcDbEntity
  8
0
  6
Continuous
 62
     7
370
    25
100
AcDbLine
 10
222.8243200741
 20
40.1425467814
 30
0.0
 11
231.3904200798
 21
34.4686571851
 31
0.0
  0
LINE
  5
27D
330
1F
100
AcDbEntity
  8
0
  6
Continuous
 62
     7
370
    25
100
AcDbLine
 10
227.8037575158
 20
41.0890366471
 30
0.0
 11
227.8037575158
 21
40.7237179421
 31
0.0
  0
LINE
  5
27E
330
1F
100
AcDbEntity
  8
0
  6
Continuous
 62
     7
370
    25
100
AcDbLine
 10
231.7017242761
 20
60.4858986138
 30
0.0
 11
231.0621741674
 21
60.3986868583
 31
0.0
  0
LINE
  5
27F
330
1F
100
AcDbEntity
  8
0
  6
Continuous
 62
     7
370
    25
100
AcDbLine
 10
280.2750392957
 20
10.6970698791
 30
0.0
 11
280.2383646228
 21
10.7134542614
 31
0.0
  0
LWPOLYLINE
  5
280
330
1F
100
AcDbEntity
  8
0
  6
Continuous
 62
     7
370
    25
100
AcDbPolyline
 90
       22
 70
   128
 43
0.0
 10
259.5957239645
 20
23.8568849463
 10
259.6447315297
 20
24.8568210834
 10
259.791091071
 20
25.8998174717
 10
260.032822345
 20
26.9717689464
 10
260.3666583124
 20
28.0581799653
 10
260.7880826751
 20
29.1443582389
 10
261.2913977058
 20
30.2156153907
 10
261.8697960301
 20
31.2574641006
 10
262.5154561148
 20
32.2558156264
 10
263.2196463182
 20
33.1971680083
 10
263.9728440869
 20
34.068791991
 10
264.7648633836
 20
34.8589000247
 10
265.5849936404
 20
35.5568078503
 10
266.42214398
 20
36.1530770728
 10
267.2649933638
 20
36.6396436652
 10
268.1021437034
 20
37.0099276512
 10
268.9222739602
 20
37.2589220647
 10
269.7142932569
 20
37.3832600464
 10
270.4674910256
 20
37.3812596969
 10
271.171681229
 20
37.2529480179
 10
271.8173413137
 20
37.0000597583
 10
272.2454647204
 20
36.7395445058
  0
LWPOLYLINE
  5
281
330
1F
100
AcDbEntity
  8
0
  6
Continuous
 62
     7
370
    25
100
AcDbPolyline
 90
        9
 70
   128
 43
0.0
 10
262.0121832309
 20
19.0130601606
 10
261.8697960301
 20
19.0818935117
 10
261.2913977058
 20
19.4559377311
 10
260.7880826751
 20
19.9460797177
 10
260.3666583124
 20
20.545691779
 10
260.032822345
 20
21.2466639943
 10
259.791091071
 20
22.0395184807
 10
259.6447315297
 20
22.9135317397
 10
259.5957239645
 20
23.8568849463
  0
ARC
  5
282
330
1F
100
AcDbEntity
  8
0
  6
Continuous
 62
     7
370
    25
100
AcDbCircle
 10
289.5248389972
 20
14.9495804037
 30
0.0
 40
8.644629676231764
100
AcDbArc
 50
126.7069615094
 51
173.7692348576
  0
LWPOLYLINE
  5
283
330
1F
100
AcDbEntity
  8
0
  6
Continuous
 62
     7
370
    25
100
AcDbPolyline
 90
        3
 70
   128
 43
0.0
 10
281.7227644443
 20
13.4113262926
 10
281.6864769955
 20
13.4452202967
 10
281.5043110723
 20
13.6467330596
  0
LWPOLYLINE
  5
284
330
1F
100
AcDbEntity
  8
0
  6
Continuous
 62
     7
370
    25
100
AcDbPolyline
 90
       20
 70
   128
 43
0.0
 10
286.2501260631
 20
22.5959219358
 10
286.3654502127
 20
22.5001868025
 10
286.6848261891
 20
22.1200620821
 10
286.9193859134
 20
21.6379700982
 10
287.0627309672
 20
21.0670606152
 10
287.1109509132
 20
20.4229063788
 10
287.0627309672
 20
19.7230785779
 10
286.9193859134
 20
18.9866664186
 10
286.6848261891
 20
18.2337575416
 10
286.3654502127
 20
17.4848891677
 10
285.9699690464
 20
16.7604885091
 10
285.5091708015
 20
16.0803152768
 10
284.9956249526
 20
15.4629233006
 10
284.4433393175
 20
14.9251526201
 10
283.8673791719
 20
14.4816725289
 10
283.2834550007
 20
14.1445802801
 10
282.7074948551
 20
13.9230709419
 10
282.15520922
 20
13.823186201
 10
281.641663371
 20
13.8476507608
 10
281.2662623792
 20
13.957220399
  0
LWPOLYLINE
  5
285
330
1F
100
AcDbEntity
  8
0
  6
Continuous
 62
     7
370
    25
100
AcDbPolyline
 90
       36
 70
   128
 43
0.0
 10
237.6223156623
 20
32.0618242353
 10
237.671212592
 20
33.2933740902
 10
237.8174740102
 20
34.570556461
 10
238.0598144378
 20
35.8821472262
 10
238.3961041421
 20
37.2166204396
 10
238.8233882338
 20
38.5622483298
 10
239.3379110335
 20
39.9072052907
 10
239.9351509747
 20
41.2396722521
 10
240.6098601162
 20
42.5479397186
 10
241.3561082646
 20
43.8205096674
 10
242.1673382924
 20
45.0461989665
 10
243.0364201382
 20
46.2142367081
 10
243.9557169904
 20
47.3143579302
 10
244.917149496
 20
48.3368946756
 10
245.912268858
 20
49.2728607767
 10
246.932330264
 20
50.1140307468
 10
247.9683687006
 20
50.8530124444
 10
249.01127979
 20
51.483312751
 10
250.0518983214
 20
51.9993912713
 10
251.081079334
 20
52.3967124644
 10
252.0897782131
 20
52.6717857988
 10
253.0691310318
 20
52.8221938819
 10
254.0105302841
 20
52.8466133653
 10
254.9057036632
 20
52.7448315253
 10
255.7467841965
 20
52.517741123
 10
256.5263797217
 20
52.1673394473
 10
257.237640059
 20
51.6967047344
 10
257.8743143039
 20
51.109972968
 10
258.4308074622
 20
50.4123013719
 10
258.9022291824
 20
49.6098204965
 10
259.2844359025
 20
48.7095821226
 10
259.5740690455
 20
47.719497851
 10
259.7685839954
 20
46.6482689467
 10
259.8662711706
 20
45.505309578
 10
259.8662711706
 20
44.3006632588
 10
259.8463739068
 20
43.9157315005
  0
LWPOLYLINE
  5
286
330
1F
100
AcDbEntity
  8
0
  6
Continuous
 62
     7
370
    25
100
AcDbPolyline
 90
       19
 70
   128
 43
0.0
 10
249.5972065951
 20
26.161730203
 10
249.01127979
 20
25.7897538081
 10
247.9683687006
 20
25.2159346013
 10
246.932330264
 20
24.7587317816
 10
245.912268858
 20
24.4221639211
 10
244.917149496
 20
24.2091896627
 10
243.9557169904
 20
24.1216800652
 10
243.0364201382
 20
24.1604037342
 10
242.1673382924
 20
24.3250209351
 10
241.3561082646
 20
24.6140839807
 10
240.6098601162
 20
25.025054157
 10
239.9351509747
 20
25.5543190303
 10
239.3379110335
 20
26.1972274333
 10
238.8233882338
 20
26.9481290144
 10
238.3961041421
 20
27.8004251932
 10
238.0598144378
 20
28.7466265787
 10
237.8174740102
 20
29.7784170418
 10
237.671212592
 20
30.8867295738
 10
237.6223156623
 20
32.0618242353
  0
SPLINE
  5
287
330
1F
100
AcDbEntity
  8
0
  6
Continuous
 62
     7
370
    25
100
AcDbSpline
210
0.0
220
0.0
230
1.0
 70
     8
 71
     3
 72
    25
 73
    21
 74
     0
 42
0.000000001
 43
0.00000001
 40
0.0
 40
0.0
 40
0.0
 40
0.0
 40
0.1249999999999998
 40
0.1249999999999998
 40
0.2499999999999997
 40
0.2499999999999997
 40
0.3749999999999995
 40
0.3749999999999995
 40
0.4999999999999993
 40
0.4999999999999993
 40
0.5624999999999996
 40
0.5624999999999996
 40
0.6249999999999998
 40
0.6875000000000001
 40
0.6875000000000001
 40
0.7500000000000003
 40
0.7500000000000003
 40
0.8750000000000001
 40
0.8750000000000001
 40
1.0
 40
1.0
 40
1.0
 40
1.0
 10
242.4559048108513
 20
48.49363868974189
 30
0.0
 10
242.4850281091123
 20
48.3824531692127
 30
0.0
 10
242.4974171499716
 20
48.26721095678468
 30
0.0
 10
242.4904396648713
 20
48.02811538894888
 30
0.0
 10
242.4704220770192
 20
47.90334141907361
 30
0.0
 10
242.400199919306
 20
47.65697250986119
 30
0.0
 10
242.3495492647124
 20
47.53276136250007
 30
0.0
 10
242.2196345210571
 20
47.28913286718991
 30
0.0
 10
242.1419335730679
 20
47.17207577213175
 30
0.0
 10
242.0065599908418
 20
47.00341925428171
 30
0.0
 10
241.9579254935346
 20
46.94805223300955
 30
0.0
 10
241.8564861581526
 20
46.84233242161253
 30
0.0
 10
241.7506161754119
 20
46.74117146299209
 30
0.0
 10
241.6360243830844
 20
46.64899714131529
 30
0.0
 10
241.5169417138662
 20
46.56146029857517
 30
0.0
 10
241.4549837008088
 20
46.51996182906299
 30
0.0
 10
241.2671199972882
 20
46.40584150732488
 30
0.0
 10
241.1377425609342
 20
46.34223407621028
 30
0.0
 10
240.8700593078722
 20
46.24096577523605
 30
0.0
 10
240.7341876214071
 20
46.20442486701126
 30
0.0
 10
240.5986703546795
 20
46.18325668266119
 30
0.0
  0
LWPOLYLINE
  5
288
330
1F
100
AcDbEntity
  8
0
  6
Continuous
 62
     7
370
    25
100
AcDbPolyline
 90
       14
 70
   128
 43
0.0
 10
242.4559049226
 20
48.4936387223
 10
243.4578912574
 20
49.5323660999
 10
244.4937541096
 20
50.47649689
 10
245.5537664475
 20
51.3171655785
 10
246.6279740003
 20
52.0464773795
 10
247.7062895949
 20
52.657582467
 10
248.778587451
 20
53.1447448591
 10
249.8347980114
 20
53.5033880368
 10
250.8650029784
 20
53.7301444841
 10
251.8595286626
 20
53.8228852425
 10
252.8090355856
 20
53.7807396977
 10
253.7046073842
 20
53.6041020358
 10
254.5378341156
 20
53.2946329463
 10
254.933554169
 20
53.088089455
  0
LWPOLYLINE
  5
289
330
1F
100
AcDbEntity
  8
0
  6
Continuous
 62
     7
370
    25
100
AcDbPolyline
 90
       20
 70
   128
 43
0.0
 10
239.1973328545
 20
25.8292010611
 10
239.1559578201
 20
25.8533397543
 10
238.4409286326
 20
26.3592637211
 10
237.8055892574
 20
26.9862249899
 10
237.2558086433
 20
27.7284282827
 10
236.7966674611
 20
28.5790167895
 10
236.4324080545
 20
29.5301311084
 10
236.1663955859
 20
30.5729830144
 10
236.0010884021
 20
31.6979368319
 10
235.9380143262
 20
32.8945984225
 10
235.9777548531
 20
34.1519100903
 10
236.119943832
 20
35.4582551692
 10
236.3632674666
 20
36.8015632284
 10
236.7054768274
 20
38.1694221085
 10
237.1434109009
 20
39.5491934029
 10
237.6730222724
 20
40.9281279509
 10
238.2894179562
 20
42.2934846558
 10
238.9869028595
 20
43.6326479727
 10
239.7590318071
 20
44.9332446343
 10
240.5986701279
 20
46.1832561942
  0
LWPOLYLINE
  5
28A
330
1F
100
AcDbEntity
  8
0
  6
Continuous
 62
     7
370
    25
100
AcDbPolyline
 90
       12
 70
   128
 43
0.0
 10
240.7932835302
 20
48.6179152028
 10
241.7088625694
 20
49.5923970873
 10
242.6575752878
 20
50.4813722671
 10
243.6304783216
 20
51.2764618505
 10
244.6184004095
 20
51.9701706015
 10
245.6120285798
 20
52.5559595083
 10
246.6019962716
 20
53.0283050194
 10
247.5789710861
 20
53.3827557856
 10
248.5337435664
 20
53.6159702227
 10
249.4573133847
 20
53.7257495364
 10
250.3409740887
 20
53.7110592683
 10
250.5938341064
 20
53.6828018359
  0
SPLINE
  5
28B
330
1F
100
AcDbEntity
  8
0
  6
Continuous
 62
     7
370
    25
100
AcDbSpline
210
0.0
220
0.0
230
1.0
 70
     8
 71
     3
 72
    26
 73
    22
 74
     0
 42
0.000000001
 43
0.00000001
 40
0.0
 40
0.0
 40
0.0
 40
0.0
 40
0.1250000000000009
 40
0.1250000000000009
 40
0.2500000000000019
 40
0.2500000000000019
 40
0.3125000000000011
 40
0.3125000000000011
 40
0.3750000000000004
 40
0.3750000000000004
 40
0.4375000000000002
 40
0.4375000000000002
 40
0.5000000000000001
 40
0.5000000000000001
 40
0.5625
 40
0.5625
 40
0.6249999999999999
 40
0.6249999999999999
 40
0.7500000000000001
 40
0.7500000000000001
 40
1.0
 40
1.0
 40
1.0
 40
1.0
 10
239.4490903252237
 20
46.94575191661671
 30
0.0
 10
239.4254527289917
 20
47.05532777618971
 30
0.0
 10
239.4078849501099
 20
47.16621703455423
 30
0.0
 10
239.3890723672405
 20
47.39154699441718
 30
0.0
 10
239.3878925924731
 20
47.50722390773556
 30
0.0
 10
239.4039905957085
 20
47.67857941759511
 30
0.0
 10
239.4123093128087
 20
47.73537792968927
 30
0.0
 10
239.4360664620657
 20
47.84820414208636
 30
0.0
 10
239.4516888411147
 20
47.90465699575251
 30
0.0
 10
239.4905460535117
 20
48.01324011216111
 30
0.0
 10
239.5137720102142
 20
48.06562007238666
 30
0.0
 10
239.5687706596925
 20
48.16607684765877
 30
0.0
 10
239.6008489267152
 20
48.21435571543021
 30
0.0
 10
239.6712636752502
 20
48.30205269101396
 30
0.0
 10
239.7098420973769
 20
48.34204181898991
 30
0.0
 10
239.7935503609731
 20
48.41452050310551
 30
0.0
 10
239.838679070915
 20
48.44685712748212
 30
0.0
 10
239.9779597131051
 20
48.53005689483577
 30
0.0
 10
240.0787487846667
 20
48.56888561747186
 30
0.0
 10
240.3818210558994
 20
48.64430190492704
 30
0.0
 10
240.5903451463845
 20
48.64417175855628
 30
0.0
 10
240.7932835660749
 20
48.61791552923005
 30
0.0
  0
LWPOLYLINE
  5
28C
330
1F
100
AcDbEntity
  8
0
  6
Continuous
 62
     7
370
    25
100
AcDbPolyline
 90
       17
 70
   128
 43
0.0
 10
236.5121116963
 20
29.2899006265
 10
236.4516876035
 20
29.3696324654
 10
235.9655296328
 20
30.139558927
 10
235.573420379
 20
31.0149527667
 10
235.2793427191
 20
31.9869220886
 10
235.0862844697
 20
33.0455927621
 10
234.9962061177
 20
34.1802102321
 10
235.01002304
 20
35.3792487421
 10
235.1275949667
 20
36.6305280662
 10
235.3477272979
 20
37.9213368941
 10
235.6681842751
 20
39.238562964
 10
236.0857100542
 20
40.5688254764
 10
236.5960636087
 20
41.8986104531
 10
237.1940602175
 20
43.2144098981
 10
237.8736254662
 20
44.5028569646
 10
238.6278564912
 20
45.7508639735
 10
239.4490904686
 20
46.9457516856
  0
LINE
  5
28D
330
1F
100
AcDbEntity
  8
0
  6
Continuous
 62
     7
370
    25
100
AcDbLine
 10
237.9736980543
 20
26.7018307415
 30
0.0
 11
238.0953333652
 21
26.759315348
 31
0.0
  0
LWPOLYLINE
  5
28E
330
1F
100
AcDbEntity
  8
0
  6
Continuous
 62
     7
370
    25
100
AcDbPolyline
 90
       38
 70
   128
 43
0.0
 10
237.9736980543
 20
26.7018307415
 10
237.1700202149
 20
27.014920664
 10
236.4332195459
 20
27.4504901679
 10
235.7698334187
 20
28.0046751081
 10
235.1857472455
 20
28.6725581595
 10
234.6861444302
 20
29.4482144497
 10
234.2754563187
 20
30.3247617537
 10
233.9573279549
 20
31.2944236165
 10
233.7345805434
 20
32.3485958959
 10
233.6091903763
 20
33.4779259489
 10
233.582271711
 20
34.672394905
 10
233.6540609649
 20
35.9214037429
 10
233.8239233011
 20
37.213872055
 10
234.0903506527
 20
38.538332345
 10
234.4509795035
 20
39.8830330215
 10
234.9026093271
 20
41.2360438626
 10
235.4412341972
 20
42.585360577
 10
236.0620750565
 20
43.919011646
 10
236.7596238386
 20
45.2251651639
 10
237.5276908837
 20
46.4922311164
 10
238.3594615732
 20
47.7089689805
 10
239.2475575745
 20
48.8645823964
 10
240.1840980855
 20
49.9488191627
 10
241.1607745793
 20
50.9520600132
 10
242.1689214334
 20
51.8654027369
 10
243.1995939671
 20
52.6807444903
 10
244.2436478782
 20
53.3908512302
 10
245.2918199973
 20
53.9894233432
 10
246.334810606
 20
54.4711484901
 10
247.3633659191
 20
54.831754546
 10
248.3683604853
 20
55.0680404381
 10
249.3408772827
 20
55.1779109772
 10
250.2722880612
 20
55.160391299
 10
251.1543294043
 20
55.0156357925
 10
251.9791748398
 20
54.7449301842
 10
252.7395072796
 20
54.3506748014
 10
253.4285792768
 20
53.8363691669
 10
253.6659582302
 20
53.6148202503
  0
LWPOLYLINE
  5
28F
330
1F
100
AcDbEntity
  8
0
  6
Continuous
 62
     7
370
    25
100
AcDbPolyline
 90
       16
 70
   128
 43
0.0
 10
231.757251221
 20
39.4723610065
 10
231.7665643575
 20
39.5151631667
 10
232.1028540617
 20
40.8496363801
 10
232.5301381534
 20
42.1952642703
 10
233.0446609531
 20
43.5402212312
 10
233.6419008943
 20
44.8726881926
 10
234.3166100358
 20
46.180955659
 10
235.0628581842
 20
47.4535256079
 10
235.874088212
 20
48.679214907
 10
236.7431700578
 20
49.8472526486
 10
237.66246691
 20
50.9473738707
 10
238.6238994156
 20
51.9699106161
 10
239.6190187776
 20
52.9058767172
 10
240.6390801836
 20
53.7470466873
 10
241.6751186202
 20
54.4860283849
 10
242.3989752985
 20
54.9354976628
  0
LWPOLYLINE
  5
290
330
1F
100
AcDbEntity
  8
0
  6
Continuous
 62
     7
370
    25
100
AcDbPolyline
 90
       24
 70
   128
 43
0.0
 10
231.3290654636
 20
35.7764809166
 10
231.3776522189
 20
37.0002055424
 10
231.5229837721
 20
38.2692720553
 10
231.7637845228
 20
39.5725286719
 10
232.0979372501
 20
40.8985221642
 10
232.5225061627
 20
42.2355996644
 10
233.033759289
 20
43.5720108501
 10
233.6272046967
 20
44.8960111737
 10
234.2976260549
 20
46.1959645215
 10
235.0391326829
 20
47.4604481529
 10
235.8452076243
 20
48.6783500352
 10
236.7087675743
 20
49.8389657969
 10
237.6222228076
 20
50.9320964417
 10
238.577546325
 20
51.9481354148
 10
239.5663426719
 20
52.878154719
 10
240.5799220243
 20
53.7139796234
 10
241.6093772384
 20
54.4482658428
 10
242.6456613944
 20
55.074561033
 10
243.679667645
 20
55.587360012
 10
244.7023088991
 20
55.9821568443
 10
245.7045984938
 20
56.2554822859
 10
246.6777277376
 20
56.4049333401
 10
247.6131454301
 20
56.4291986305
 10
248.3783962096
 20
56.3502134003
  0
LWPOLYLINE
  5
291
330
1F
100
AcDbEntity
  8
0
  6
Continuous
 62
     7
370
    25
100
AcDbPolyline
 90
        3
 70
   128
 43
0.0
 10
231.4814572726
 20
33.7518767562
 10
231.3776522189
 20
34.6088533644
 10
231.3482324015
 20
35.0360565629
  0
SPLINE
  5
292
330
1F
100
AcDbEntity
  8
0
  6
Continuous
 62
     7
370
    25
100
AcDbSpline
210
0.0
220
0.0
230
1.0
 70
     8
 71
     3
 72
    10
 73
     6
 74
     0
 42
0.000000001
 43
0.00000001
 40
0.0
 40
0.0
 40
0.0
 40
0.0
 40
0.5
 40
0.5
 40
1.0
 40
1.0
 40
1.0
 40
1.0
 10
240.175778392855
 20
45.48269863579699
 30
0.0
 10
240.0718139020707
 20
45.55603700886737
 30
0.0
 10
239.9820056256434
 20
45.64327276666077
 30
0.0
 10
239.8299631976447
 20
45.84420330785677
 30
0.0
 10
239.7680576092838
 20
45.95837407405374
 30
0.0
 10
239.7236079046933
 20
46.08139175721384
 30
0.0
  0
SPLINE
  5
293
330
1F
100
AcDbEntity
  8
0
  6
Continuous
 62
     7
370
    25
100
AcDbSpline
210
0.0
220
0.0
230
1.0
 70
     8
 71
     3
 72
    14
 73
    10
 74
     0
 42
0.000000001
 43
0.00000001
 40
0.0
 40
0.0
 40
0.0
 40
0.0
 40
0.25
 40
0.25
 40
0.5
 40
0.5
 40
0.75
 40
0.75
 40
1.0
 40
1.0
 40
1.0
 40
1.0
 10
239.7236079046933
 20
46.08139175721384
 30
0.0
 10
239.7008871018282
 20
46.14427317687139
 30
0.0
 10
239.6789725914788
 20
46.2133196063448
 30
0.0
 10
239.6368615374159
 20
46.36097212296357
 30
0.0
 10
239.6173399835029
 20
46.43737190982188
 30
0.0
 10
239.5789937413291
 20
46.59170420121748
 30
0.0
 10
239.5606341484453
 20
46.66865679754913
 30
0.0
 10
239.5186307038636
 20
46.81404696506511
 30
0.0
 10
239.4948543828506
 20
46.88063787125814
 30
0.0
 10
239.4663928787484
 20
46.92113348648948
 30
0.0
  0
LINE
  5
294
330
1F
100
AcDbEntity
  8
0
  6
Continuous
 62
     7
370
    25
100
AcDbLine
 10
239.466393067
 20
46.9211338782
 30
0.0
 11
239.4490904686
 21
46.9457516856
 31
0.0
  0
LINE
  5
295
330
1F
100
AcDbEntity
  8
0
  6
Continuous
 62
     7
370
    25
100
AcDbLine
 10
240.7932835302
 20
48.6179152028
 30
0.0
 11
240.8105861286
 21
48.5932973955
 31
0.0
  0
SPLINE
  5
296
330
1F
100
AcDbEntity
  8
0
  6
Continuous
 62
     7
370
    25
100
AcDbSpline
210
0.0
220
0.0
230
1.0
 70
     8
 71
     3
 72
    16
 73
    12
 74
     0
 42
0.000000001
 43
0.00000001
 40
0.0
 40
0.0
 40
0.0
 40
0.0
 40
0.1250000000000001
 40
0.1250000000000001
 40
0.2500000000000003
 40
0.2500000000000003
 40
0.5000000000000002
 40
0.5000000000000002
 40
0.7500000000000001
 40
0.7500000000000001
 40
1.0
 40
1.0
 40
1.0
 40
1.0
 10
240.8105861195996
 20
48.59329709910276
 30
0.0
 10
240.8247385260037
 20
48.57316076328997
 30
0.0
 10
240.8463969304774
 20
48.55636334261255
 30
0.0
 10
240.8988148595127
 20
48.52951782128107
 30
0.0
 10
240.9294077386511
 20
48.51929233672008
 30
0.0
 10
241.0284885875086
 20
48.49479189628739
 30
0.0
 10
241.1023711251245
 20
48.4865319738859
 30
0.0
 10
241.2554707175158
 20
48.47534600718097
 30
0.0
 10
241.3335546921634
 20
48.47274933542979
 30
0.0
 10
241.4928983259055
 20
48.47072033459608
 30
0.0
 10
241.5715512207371
 20
48.47135792325831
 30
0.0
 10
241.6473036885297
 20
48.47445102407334
 30
0.0
  0
SPLINE
  5
297
330
1F
100
AcDbEntity
  8
0
  6
Continuous
 62
     7
370
    25
100
AcDbSpline
210
0.0
220
0.0
230
1.0
 70
     8
 71
     3
 72
    10
 73
     6
 74
     0
 42
0.000000001
 43
0.00000001
 40
0.0
 40
0.0
 40
0.0
 40
0.0
 40
0.5
 40
0.5
 40
1.0
 40
1.0
 40
1.0
 40
1.0
 10
241.6473036885297
 20
48.47445102407334
 30
0.0
 10
241.7954980284305
 20
48.48050204850711
 30
0.0
 10
241.9377224941611
 20
48.47033981829397
 30
0.0
 10
242.2101138845018
 20
48.4192893823539
 30
0.0
 10
242.3402412143704
 20
48.37792827970934
 30
0.0
 10
242.4583165565557
 20
48.32215441175706
 30
0.0
  0
ARC
  5
298
330
1F
100
AcDbEntity
  8
0
  6
Continuous
 62
     7
370
    25
100
AcDbCircle
 10
225.1283565069
 20
43.5860847174
 30
0.0
 40
4.143252031907309
100
AcDbArc
 50
211.7444095219
 51
236.2139194594
  0
SPLINE
  5
299
330
1F
100
AcDbEntity
  8
0
  6
Continuous
 62
     7
370
    25
100
AcDbSpline
210
0.0
220
0.0
230
1.0
 70
     8
 71
     3
 72
     8
 73
     4
 74
     0
 42
0.000000001
 43
0.00000001
 40
0.0
 40
0.0
 40
0.0
 40
0.0
 40
1.0
 40
1.0
 40
1.0
 40
1.0
 10
223.0353628874189
 20
40.4814499925184
 30
0.0
 10
222.5585895955948
 20
40.78954280045104
 30
0.0
 10
222.0817872187499
 20
41.09777224602379
 30
0.0
 10
221.6049547742242
 20
41.4061374022437
 30
0.0
  0
SPLINE
  5
29A
330
1F
100
AcDbEntity
  8
0
  6
Continuous
 62
     7
370
    25
100
AcDbSpline
210
0.0
220
0.0
230
1.0
 70
     8
 71
     3
 72
    23
 73
    19
 74
     0
 42
0.000000001
 43
0.00000001
 40
0.0
 40
0.0
 40
0.0
 40
0.0
 40
0.0521036415675031
 40
0.1035646240925967
 40
0.1544751946736949
 40
0.2049306267473421
 40
0.2550287880844035
 40
0.3048696389141012
 40
0.3545546704609132
 40
0.4041862979523234
 40
0.4538672252126086
 40
0.5036997999421611
 40
0.5901870230746071
 40
0.674271637822954
 40
0.7565997087222995
 40
0.8378563983721267
 40
0.9187511781367398
 40
1.0
 40
1.0
 40
1.0
 40
1.0
 10
223.9159276909605
 20
40.3067192943983
 30
0.0
 10
223.9106587520204
 20
40.29679783216347
 30
0.0
 10
223.9001858625201
 20
40.27707728143253
 30
0.0
 10
223.8809395667574
 20
40.2525094524803
 30
0.0
 10
223.8591438264247
 20
40.23182087022106
 30
0.0
 10
223.8344925352198
 20
40.21528993492409
 30
0.0
 10
223.8069960206808
 20
40.20277243534793
 30
0.0
 10
223.7765849666735
 20
40.19423781152553
 30
0.0
 10
223.7432145949009
 20
40.18962793887746
 30
0.0
 10
223.706838706629
 20
40.18889319574099
 30
0.0
 10
223.66741033504
 20
40.19198827829228
 30
0.0
 10
223.61456194349
 20
40.20052405377141
 30
0.0
 10
223.5460229497199
 20
40.21812049261847
 30
0.0
 10
223.4583017177655
 20
40.24975710070434
 30
0.0
 10
223.3635707982715
 20
40.29193675803706
 30
0.0
 10
223.2615365509416
 20
40.34467319376405
 30
0.0
 10
223.1526226377525
 20
40.40698974967487
 30
0.0
 10
223.0745063267665
 20
40.45659380792598
 30
0.0
 10
223.0353628874189
 20
40.48144999251839
 30
0.0
  0
SPLINE
  5
29B
330
1F
100
AcDbEntity
  8
0
  6
Continuous
 62
     7
370
    25
100
AcDbSpline
210
0.0
220
0.0
230
1.0
 70
     8
 71
     3
 72
     8
 73
     4
 74
     0
 42
0.000000001
 43
0.00000001
 40
0.0
 40
0.0
 40
0.0
 40
0.0
 40
1.0
 40
1.0
 40
1.0
 40
1.0
 10
225.3894307174144
 20
39.35939915784209
 30
0.0
 10
224.898063405373
 20
39.67527377780958
 30
0.0
 10
224.4066772054468
 20
39.99125979909905
 30
0.0
 10
223.9152714953028
 20
40.30735667994174
 30
0.0
  0
SPLINE
  5
29C
330
1F
100
AcDbEntity
  8
0
  6
Continuous
 62
     7
370
    25
100
AcDbSpline
210
0.0
220
0.0
230
1.0
 70
     8
 71
     3
 72
    18
 73
    14
 74
     0
 42
0.000000001
 43
0.00000001
 40
0.0
 40
0.0
 40
0.0
 40
0.0
 40
0.0923824559411628
 40
0.1844689291573508
 40
0.2764953615950219
 40
0.3686975365494161
 40
0.4613092840003458
 40
0.5545607518442569
 40
0.6486768051537182
 40
0.7438756050146744
 40
0.8403674044302629
 40
0.9203921078121001
 40
1.0
 40
1.0
 40
1.0
 40
1.0
 10
226.202994836614
 20
38.71509143329775
 30
0.0
 10
226.1794273224909
 20
38.73036540756329
 30
0.0
 10
226.1323678018395
 20
38.76086442004393
 30
0.0
 10
226.0599700138767
 20
38.81049699265484
 30
0.0
 10
225.9864878049812
 20
38.86282653532336
 30
0.0
 10
225.9117883572362
 20
38.91814422103123
 30
0.0
 10
225.8359275674681
 20
38.97638253614481
 30
0.0
 10
225.7589162866813
 20
39.0375754477824
 30
0.0
 10
225.6807841546003
 20
39.10173916436394
 30
0.0
 10
225.6015579199565
 20
39.16888812423106
 30
0.0
 10
225.5262614355466
 20
39.23473903397723
 30
0.0
 10
225.4554341274245
 20
39.29827062078555
 30
0.0
 10
225.4115297566174
 20
39.33893136579904
 30
0.0
 10
225.3896348898121
 20
39.35920865436759
 30
0.0
  0
LINE
  5
29D
330
1F
100
AcDbEntity
  8
0
  6
Continuous
 62
     7
370
    25
100
AcDbLine
 10
226.8427013685
 20
38.3033376268
 30
0.0
 11
226.2029945261
 21
38.7150912944
 31
0.0
  0
SPLINE
  5
29E
330
1F
100
AcDbEntity
  8
0
  6
Continuous
 62
     7
370
    25
100
AcDbSpline
210
0.0
220
0.0
230
1.0
 70
     8
 71
     3
 72
    25
 73
    21
 74
     0
 42
0.000000001
 43
0.00000001
 40
0.0
 40
0.0
 40
0.0
 40
0.0
 40
0.0280105225426465
 40
0.0559601148860768
 40
0.0839014045043132
 40
0.1118870776786367
 40
0.1399695827588937
 40
0.1682008401739883
 40
0.196631967042422
 40
0.2253130233141467
 40
0.2542927850735845
 40
0.3799486436587335
 40
0.5057850221667067
 40
0.6313085886338298
 40
0.7532068238012468
 40
0.8039473267955921
 40
0.8535894438554446
 40
0.9025339722394071
 40
0.9511970353791085
 40
1.0
 40
1.0
 40
1.0
 40
1.0
 10
227.9450669616043
 20
39.01924361717482
 30
0.0
 10
227.9500150691348
 20
38.99161975606734
 30
0.0
 10
227.9599005207704
 20
38.93643212296202
 30
0.0
 10
227.9714361703736
 20
38.8572714155921
 30
0.0
 10
227.9805092921863
 20
38.78096807649372
 30
0.0
 10
227.9868781008993
 20
38.70777231552411
 30
0.0
 10
227.9905943397094
 20
38.63762484731072
 30
0.0
 10
227.9916309606922
 20
38.57054856079794
 30
0.0
 10
227.9899824854653
 20
38.5065446515715
 30
0.0
 10
227.9856363335964
 20
38.44561579830466
 30
0.0
 10
227.9707800090288
 20
38.32372767680749
 30
0.0
 10
227.9256917519637
 20
38.16882680515234
 30
0.0
 10
227.8123322314711
 20
38.03788368681029
 30
0.0
 10
227.6505080094768
 20
37.98200728600028
 30
0.0
 10
227.476492790345
 20
38.00188133838306
 30
0.0
 10
227.3251318696589
 20
38.04919914073854
 30
0.0
 10
227.2147316369606
 20
38.09411456447389
 30
0.0
 10
227.0975721415118
 20
38.15149029576507
 30
0.0
 10
226.974006474578
 20
38.22016736021789
 30
0.0
 10
226.8865114244829
 20
38.27558760617108
 30
0.0
 10
226.8427011048013
 20
38.30333750390137
 30
0.0
  0
ARC
  5
29F
330
1F
100
AcDbEntity
  8
0
  6
Continuous
 62
     7
370
    25
100
AcDbCircle
 10
239.138088126
 20
40.8052939858
 30
0.0
 40
11.33462419218396
100
AcDbArc
 50
170.9338462887
 51
189.0661537113
  0
SPLINE
  5
2A0
330
1F
100
AcDbEntity
  8
0
  6
Continuous
 62
     7
370
    25
100
AcDbSpline
210
0.0
220
0.0
230
1.0
 70
     8
 71
     3
 72
    26
 73
    22
 74
     0
 42
0.000000001
 43
0.00000001
 40
0.0
 40
0.0
 40
0.0
 40
0.0
 40
0.0241259796963635
 40
0.0482159912272988
 40
0.0723203915124065
 40
0.0964895678710797
 40
0.1207736231963513
 40
0.1452220711242836
 40
0.1698835501657706
 40
0.1948055644472379
 40
0.2200342569517627
 40
0.2456142191611387
 40
0.3690971486901655
 40
0.4940698769485187
 40
0.6192566784762451
 40
0.7454656653603225
 40
0.7971495824713707
 40
0.8481710308405392
 40
0.8988013269235234
 40
0.9493179290492194
 40
1.0
 40
1.0
 40
1.0
 40
1.0
 10
226.8427011048013
 20
46.06744789526594
 30
0.0
 10
226.8644193341773
 20
46.05311637187086
 30
0.0
 10
226.9078234143534
 20
46.02447469120182
 30
0.0
 10
226.9711305317148
 20
45.97648239327301
 30
0.0
 10
227.0329920994328
 20
45.92488319538733
 30
0.0
 10
227.0932966145693
 20
45.86930840251409
 30
0.0
 10
227.1520864665091
 20
45.80985316188695
 30
0.0
 10
227.2093669849389
 20
45.74648885304954
 30
0.0
 10
227.2651581242651
 20
45.67922007508562
 30
0.0
 10
227.319479371687
 20
45.6080459611255
 30
0.0
 10
227.3723583468959
 20
45.53295682137721
 30
0.0
 10
227.4891531716322
 20
45.35370237267536
 30
0.0
 10
227.6510227295587
 20
45.04339690083198
 30
0.0
 10
227.8142076370905
 20
44.57348311270028
 30
0.0
 10
227.925719042264
 20
44.07452007879024
 30
0.0
 10
227.9728528803725
 20
43.66563640573324
 30
0.0
 10
227.987971819905
 20
43.36136444914253
 30
0.0
 10
227.9899249588876
 20
43.16011520744721
 30
0.0
 10
227.9834469332484
 20
42.96445528772462
 30
0.0
 10
227.9693200105613
 20
42.77381899982716
 30
0.0
 10
227.9531601188764
 20
42.65223572608834
 30
0.0
 10
227.9450669616043
 20
42.59134468948945
 30
0.0
  0
LINE
  5
2A1
330
1F
100
AcDbEntity
  8
0
  6
Continuous
 62
     7
370
    25
100
AcDbLine
 10
226.2029945261
 20
46.4804227456
 30
0.0
 11
226.8427013685
 21
46.0674477745
 31
0.0
  0
SPLINE
  5
2A2
330
1F
100
AcDbEntity
  8
0
  6
Continuous
 62
     7
370
    25
100
AcDbSpline
210
0.0
220
0.0
230
1.0
 70
     8
 71
     3
 72
    14
 73
    10
 74
     0
 42
0.000000001
 43
0.00000001
 40
0.0
 40
0.0
 40
0.0
 40
0.0
 40
0.0789261963172865
 40
0.158232872055133
 40
0.330847539457262
 40
0.5000195457610529
 40
0.6670357883572423
 40
0.8332395193657144
 40
1.0
 40
1.0
 40
1.0
 40
1.0
 10
225.3890421207627
 20
46.68900517855054
 30
0.0
 10
225.4107590020986
 20
46.69060834240911
 30
0.0
 10
225.4542974553142
 20
46.69382239849637
 30
0.0
 10
225.5458225739632
 20
46.69464343856426
 30
0.0
 10
225.6627309073963
 20
46.68670745678094
 30
0.0
 10
225.803551245778
 20
46.66043178790314
 30
0.0
 10
225.94076355359
 20
46.61747418937089
 30
0.0
 10
226.0746942280065
 20
46.55911706456126
 30
0.0
 10
226.1601803199657
 20
46.50668351841127
 30
0.0
 10
226.202994836614
 20
46.48042290825683
 30
0.0
  0
SPLINE
  5
2A3
330
1F
100
AcDbEntity
  8
0
  6
Continuous
 62
     7
370
    25
100
AcDbSpline
210
0.0
220
0.0
230
1.0
 70
     8
 71
     3
 72
     8
 73
     4
 74
     0
 42
0.000000001
 43
0.00000001
 40
0.0
 40
0.0
 40
0.0
 40
0.0
 40
1.0
 40
1.0
 40
1.0
 40
1.0
 10
223.5867385377583
 20
47.85139658996325
 30
0.0
 10
224.1874967614544
 20
47.46412910680434
 30
0.0
 10
224.7882256243148
 20
47.07666175688104
 30
0.0
 10
225.3889262686617
 20
46.68899486429142
 30
0.0
  0
SPLINE
  5
2A4
330
1F
100
AcDbEntity
  8
0
  6
Continuous
 62
     7
370
    25
100
AcDbSpline
210
0.0
220
0.0
230
1.0
 70
     8
 71
     3
 72
    13
 73
     9
 74
     0
 42
0.000000001
 43
0.00000001
 40
0.0
 40
0.0
 40
0.0
 40
0.0
 40
0.1667030582307992
 40
0.3329480818053035
 40
0.4990671507274896
 40
0.6653938523718403
 40
0.832261271055009
 40
1.0
 40
1.0
 40
1.0
 40
1.0
 10
223.2449100027239
 20
48.15246136904902
 30
0.0
 10
223.2652111851639
 20
48.13889626236979
 30
0.0
 10
223.3057577703525
 20
48.11180332060695
 30
0.0
 10
223.3649074073402
 20
48.06660874759923
 30
0.0
 10
223.4226789522426
 20
48.01819759911628
 30
0.0
 10
223.4789286897023
 20
47.96616248434583
 30
0.0
 10
223.5338558984484
 20
47.91086451713681
 30
0.0
 10
223.569076608039
 20
47.87124726197645
 30
0.0
 10
223.5867328199799
 20
47.85138705297553
 30
0.0
  0
SPLINE
  5
2A5
330
1F
100
AcDbEntity
  8
0
  6
Continuous
 62
     7
370
    25
100
AcDbSpline
210
0.0
220
0.0
230
1.0
 70
     8
 71
     3
 72
     8
 73
     4
 74
     0
 42
0.000000001
 43
0.00000001
 40
0.0
 40
0.0
 40
0.0
 40
0.0
 40
1.0
 40
1.0
 40
1.0
 40
1.0
 10
221.3009294869332
 20
49.4071832214285
 30
0.0
 10
221.9489595593334
 20
48.98918790554374
 30
0.0
 10
222.5969525364353
 20
48.57094714312611
 30
0.0
 10
223.2449100027239
 20
48.15246136904902
 30
0.0
  0
LWPOLYLINE
  5
2A6
330
1F
100
AcDbEntity
  8
0
  6
Continuous
 62
     7
370
    25
100
AcDbPolyline
 90
       19
 70
   128
 43
0.0
 10
221.3009301372
 20
49.4071832719
 10
221.7038223989
 20
50.5741472573
 10
222.1937775372
 20
51.7341516821
 10
222.7647777724
 20
52.8729490781
 10
223.4098089471
 20
53.9765517689
 10
224.1209494293
 20
55.0314063875
 10
224.889464614
 20
56.0245560361
 10
225.7059155826
 20
56.9438026349
 10
226.5602745134
 20
57.7778568175
 10
227.4420478289
 20
58.5164729014
 10
228.3404054765
 20
59.150580555
 10
229.2443136254
 20
59.6723902989
 10
230.1426702852
 20
60.0754938512
 10
231.0244417074
 20
60.354940588
 10
231.8787976747
 20
60.507297394
 10
232.6952450214
 20
60.5306938021
 10
233.4637555962
 20
60.4248418725
 10
234.17489081
 20
60.1910419319
 10
234.3506678638
 20
60.1089302371
  0
SPLINE
  5
2A7
330
1F
100
AcDbEntity
  8
0
  6
Continuous
 62
     7
370
    25
100
AcDbSpline
210
0.0
220
0.0
230
1.0
 70
    11
 71
     3
 72
    39
 73
    35
 74
     0
 42
0.000000001
 43
0.00000001
 40
0.0
 40
0.0
 40
0.0
 40
0.0
 40
0.0310664058348413
 40
0.0621048158426138
 40
0.0931361551796939
 40
0.1235538293503726
 40
0.1538561545809849
 40
0.1850588072749156
 40
0.2160250992946587
 40
0.2471867223797568
 40
0.2784462884304475
 40
0.3100516090231247
 40
0.3419834369138969
 40
0.3734259894013238
 40
0.4048604886787081
 40
0.436874065183343
 40
0.4685120685926471
 40
0.499805535863323
 40
0.5309508213226204
 40
0.5618649784438111
 40
0.5930416446590877
 40
0.623374245013332
 40
0.6540913579072549
 40
0.6849496782718453
 40
0.7158160645166705
 40
0.7471731804043553
 40
0.7784514311866318
 40
0.810129591156098
 40
0.8419598919688388
 40
0.8735175891922303
 40
0.9050808037886594
 40
0.9370235169792582
 40
0.9687441590030581
 40
1.0
 40
1.0
 40
1.0
 40
1.0
 10
234.5095149681386
 20
58.41237359676991
 30
0.0
 10
234.7724005883367
 20
58.38383910947981
 30
0.0
 10
235.2992891988202
 20
58.2978966211582
 30
0.0
 10
236.0633012678962
 20
58.09752150108576
 30
0.0
 10
236.7704514559471
 20
57.85051939486623
 30
0.0
 10
237.3833625205426
 20
57.57253751671313
 30
0.0
 10
237.880493846213
 20
57.27840381938441
 30
0.0
 10
238.2396855672865
 20
56.97689729119218
 30
0.0
 10
238.4614048360453
 20
56.66989978628977
 30
0.0
 10
238.5266567134274
 20
56.35939452488807
 30
0.0
 10
238.4398095023135
 20
56.04025004013926
 30
0.0
 10
238.1974639145552
 20
55.71093007456705
 30
0.0
 10
237.8175260518288
 20
55.3719893530094
 30
0.0
 10
237.3037200986689
 20
55.03415088859877
 30
0.0
 10
236.6778292877589
 20
54.70825298728792
 30
0.0
 10
235.9643583012671
 20
54.41160609404844
 30
0.0
 10
235.2004558250027
 20
54.15550278561148
 30
0.0
 10
234.4146627421011
 20
53.9664752176207
 30
0.0
 10
233.6331252870611
 20
53.85829929556745
 30
0.0
 10
232.8770123023087
 20
53.85063541219773
 30
0.0
 10
232.1746477159152
 20
53.94855744758388
 30
0.0
 10
231.5556273688725
 20
54.17020588108638
 30
0.0
 10
231.0465701038588
 20
54.50607396799811
 30
0.0
 10
230.6736265104249
 20
54.94588453417888
 30
0.0
 10
230.4450245591765
 20
55.45695917470152
 30
0.0
 10
230.3761782524572
 20
56.00814426246496
 30
0.0
 10
230.4607946656823
 20
56.56581619077672
 30
0.0
 10
230.7039034556171
 20
57.09589633169571
 30
0.0
 10
231.0860332984349
 20
57.56842068080843
 30
0.0
 10
231.6021688728452
 20
57.95454219170166
 30
0.0
 10
232.2291467333472
 20
58.23816637903479
 30
0.0
 10
232.9450541657109
 20
58.40790359776121
 30
0.0
 10
233.7134975578966
 20
58.46944243247253
 30
0.0
 10
234.245026337269
 20
58.44108208021696
 30
0.0
 10
234.5095149681385
 20
58.4123735967699
 30
0.0
  0
LINE
  5
2A8
330
1F
100
AcDbEntity
  8
0
  6
Continuous
 62
     7
370
    25
100
AcDbLine
 10
225.2849775551
 20
41.9732469794
 30
0.0
 11
225.5957292326
 21
41.8068662789
 31
0.0
  0
LINE
  5
2A9
330
1F
100
AcDbEntity
  8
0
  6
Continuous
 62
     7
370
    25
100
AcDbLine
 10
224.2980195352
 20
42.5430057166
 30
0.0
 11
225.2849775551
 21
41.9732469794
 31
0.0
  0
ARC
  5
2AA
330
1F
100
AcDbEntity
  8
0
  6
Continuous
 62
     7
370
    25
100
AcDbCircle
 10
226.518989446
 20
46.1364864807
 30
0.0
 40
4.484274790565297
100
AcDbArc
 50
267.6840627222
 51
286.9866336569
  0
SPLINE
  5
2AB
330
1F
100
AcDbEntity
  8
0
  6
Continuous
 62
     7
370
    25
100
AcDbSpline
210
0.0
220
0.0
230
1.0
 70
     8
 71
     3
 72
    12
 73
     8
 74
     0
 42
0.000000001
 43
0.00000001
 40
0.0
 40
0.0
 40
0.0
 40
0.0
 40
0.1523598330305601
 40
0.3826801306822303
 40
0.6138741683107227
 40
0.8254372814239916
 40
1.0
 40
1.0
 40
1.0
 40
1.0
 10
235.8480209264379
 20
55.40987788143418
 30
0.0
 10
235.6430535880561
 20
55.52202428116694
 30
0.0
 10
235.1282398981395
 20
55.80370087565797
 30
0.0
 10
234.1151645708503
 20
56.21986684812507
 30
0.0
 10
232.9077857898912
 20
56.50310847607259
 30
0.0
 10
231.8054553045402
 20
56.53405531881337
 30
0.0
 10
231.2405162720092
 20
56.32632794149168
 30
0.0
 10
230.985114314267
 20
56.23241696032449
 30
0.0
  0
SPLINE
  5
2AC
330
1F
100
AcDbEntity
  8
0
  6
Continuous
 62
     7
370
    25
100
AcDbSpline
210
0.0
220
0.0
230
1.0
 70
     8
 71
     3
 72
    10
 73
     6
 74
     0
 42
0.000000001
 43
0.00000001
 40
0.0
 40
0.0
 40
0.0
 40
0.0
 40
0.3798174073072795
 40
0.9603711649033085
 40
1.0
 40
1.0
 40
1.0
 40
1.0
 10
236.9879010482974
 20
54.8816509539157
 30
0.0
 10
236.858248431049
 20
54.95197951575307
 30
0.0
 10
236.5304208152945
 20
55.12980581217418
 30
0.0
 10
236.1224922702844
 20
55.3028586625766
 30
0.0
 10
235.8658594888525
 20
55.40206409482491
 30
0.0
 10
235.8494609986408
 20
55.40840318876528
 30
0.0
  0
SPLINE
  5
2AD
330
1F
100
AcDbEntity
  8
0
  6
Continuous
 62
     7
370
    25
100
AcDbSpline
210
0.0
220
0.0
230
1.0
 70
     8
 71
     3
 72
    24
 73
    20
 74
     0
 42
0.000000001
 43
0.00000001
 40
0.0
 40
0.0
 40
0.0
 40
0.0
 40
0.0618858212107145
 40
0.1150115607194259
 40
0.1593831488268445
 40
0.2428114970815824
 40
0.318331853291959
 40
0.3935543804326023
 40
0.4204843226990471
 40
0.4483397435477174
 40
0.4771286702554668
 40
0.5451537905345539
 40
0.6363475754294583
 40
0.6968782859867285
 40
0.7498596693403015
 40
0.7959701295389731
 40
0.8771179302751783
 40
0.9543004207779655
 40
1.0
 40
1.0
 40
1.0
 40
1.0
 10
234.4546364011363
 20
57.83851569681315
 30
0.0
 10
234.2706796118001
 20
57.85741026177909
 30
0.0
 10
233.9288055438378
 20
57.8925248221636
 30
0.0
 10
233.464587570861
 20
57.88603427377633
 30
0.0
 10
232.9551259585881
 20
57.83831008097903
 30
0.0
 10
232.4160308592135
 20
57.7136934828121
 30
0.0
 10
231.8731928744899
 20
57.47120319886911
 30
0.0
 10
231.5327998589948
 20
57.21383044824321
 30
0.0
 10
231.3261731504438
 20
56.99902334774438
 30
0.0
 10
231.2081890942328
 20
56.85251999644541
 30
0.0
 10
231.0560186900417
 20
56.62276917222496
 30
0.0
 10
230.8893380514621
 20
56.24982647679794
 30
0.0
 10
230.8209764706248
 20
55.78726742410505
 30
0.0
 10
230.8713319342442
 20
55.35893472590323
 30
0.0
 10
230.9767610777595
 20
55.03900783225885
 30
0.0
 10
231.1589604044455
 20
54.69854231706564
 30
0.0
 10
231.4598388295159
 20
54.36259406021057
 30
0.0
 10
231.8495237241144
 20
54.08953475949554
 30
0.0
 10
232.1424426803089
 20
53.99557968856825
 30
0.0
 10
232.2513786143651
 20
53.96063799840329
 30
0.0
  0
SPLINE
  5
2AE
330
1F
100
AcDbEntity
  8
0
  6
Continuous
 62
     7
370
    25
100
AcDbSpline
210
0.0
220
0.0
230
1.0
 70
     8
 71
     3
 72
    22
 73
    18
 74
     0
 42
0.000000001
 43
0.00000001
 40
0.0
 40
0.0
 40
0.0
 40
0.0
 40
0.0114834662766631
 40
0.0705129490302074
 40
0.1365111498489265
 40
0.2095181088460596
 40
0.2722005662080079
 40
0.326136633712203
 40
0.3713257586344869
 40
0.4077706656115294
 40
0.5121571560731971
 40
0.6052135161672628
 40
0.6996579575918662
 40
0.7500000558373026
 40
0.8024654985564912
 40
0.8926083568347373
 40
1.0
 40
1.0
 40
1.0
 40
1.0
 10
237.7920955158384
 20
55.3927785127368
 30
0.0
 10
237.8039495859982
 20
55.4040774956463
 30
0.0
 10
237.8767381870046
 20
55.47345764505385
 30
0.0
 10
237.9733594042161
 20
55.60514089647008
 30
0.0
 10
238.07154150497
 20
55.79397558422733
 30
0.0
 10
238.1022924244006
 20
55.9799231867193
 30
0.0
 10
238.0730092892429
 20
56.1517420256515
 30
0.0
 10
238.0044883571604
 20
56.2985470730257
 30
0.0
 10
237.9166809826396
 20
56.41975830907009
 30
0.0
 10
237.7623883455377
 20
56.58534136779792
 30
0.0
 10
237.4945628936487
 20
56.79550566173654
 30
0.0
 10
237.0429924843864
 20
57.05094945612951
 30
0.0
 10
236.5954299115729
 20
57.25758615660698
 30
0.0
 10
236.1865361336431
 20
57.41609037271189
 30
0.0
 10
235.7644565361011
 20
57.55860712078162
 30
0.0
 10
235.1861439176973
 20
57.72186368957605
 30
0.0
 10
234.7122653240088
 20
57.7974321395085
 30
0.0
 10
234.4546364011363
 20
57.83851569681314
 30
0.0
  0
LINE
  5
2AF
330
1F
100
AcDbEntity
  8
0
  6
Continuous
 62
     7
370
    25
100
AcDbLine
 10
227.9450666792
 20
42.5913445087
 30
0.0
 11
227.9398286162
 21
42.8874279316
 31
0.0
  0
LINE
  5
2B0
330
1F
100
AcDbEntity
  8
0
  6
Continuous
 62
     7
370
    25
100
AcDbLine
 10
227.9398286162
 20
42.8874279316
 30
0.0
 11
227.9829283786
 21
43.5390896283
 31
0.0
  0
LINE
  5
2B1
330
1F
100
AcDbEntity
  8
0
  6
Continuous
 62
     7
370
    25
100
AcDbLine
 10
227.552744057
 20
45.2705506351
 30
0.0
 11
227.1488652957
 21
45.6967127186
 31
0.0
  0
SPLINE
  5
2B2
330
1F
100
AcDbEntity
  8
0
  6
Continuous
 62
     7
370
    25
100
AcDbSpline
210
0.0
220
0.0
230
1.0
 70
     8
 71
     3
 72
    19
 73
    15
 74
     0
 42
0.000000001
 43
0.00000001
 40
0.0
 40
0.0
 40
0.0
 40
0.0
 40
0.0210492621018804
 40
0.1455865440207667
 40
0.2712169722633744
 40
0.3929514297049947
 40
0.5136082229787104
 40
0.6366369099308349
 40
0.699422462668311
 40
0.7643939711952468
 40
0.8122544601557282
 40
0.8606584764820763
 40
0.9188817427801165
 40
1.0
 40
1.0
 40
1.0
 40
1.0
 10
230.8653918487939
 20
55.58376574935534
 30
0.0
 10
230.857923273808
 20
55.63852609626074
 30
0.0
 10
230.8062671152364
 20
56.01727427359589
 30
0.0
 10
231.049038009896
 20
56.62742518241006
 30
0.0
 10
231.6333684773109
 20
57.31679888564963
 30
0.0
 10
232.5394948449512
 20
57.73409843588168
 30
0.0
 10
233.6138409734132
 20
57.85452439357033
 30
0.0
 10
234.567774842509
 20
57.69382484998273
 30
0.0
 10
235.3024373850782
 20
57.39645875114093
 30
0.0
 10
235.7752406245505
 20
57.09880067373623
 30
0.0
 10
236.13221079467
 20
56.72788886895887
 30
0.0
 10
236.3270589361782
 20
56.2955675736513
 30
0.0
 10
236.3560879664224
 20
55.79262624242615
 30
0.0
 10
236.2937143648021
 20
55.45888122985096
 30
0.0
 10
236.257403308828
 20
55.2645901593041
 30
0.0
  0
SPLINE
  5
2B3
330
1F
100
AcDbEntity
  8
0
  6
Continuous
 62
     7
370
    25
100
AcDbSpline
210
0.0
220
0.0
230
1.0
 70
     8
 71
     3
 72
    10
 73
     6
 74
     0
 42
0.000000001
 43
0.00000001
 40
0.0
 40
0.0
 40
0.0
 40
0.0
 40
0.2952118939789638
 40
0.9806889752106586
 40
1.0
 40
1.0
 40
1.0
 40
1.0
 10
236.2601311648162
 20
55.26335160588171
 30
0.0
 10
236.342954789693
 20
55.22458642808825
 30
0.0
 10
236.6180934865418
 20
55.0958091556968
 30
0.0
 10
236.8930248006444
 20
54.95462415583741
 30
0.0
 10
237.0414898653188
 20
54.86063656144021
 30
0.0
 10
237.0455577724242
 20
54.85806132393296
 30
0.0
  0
ARC
  5
2B4
330
1F
100
AcDbEntity
  8
0
  6
Continuous
 62
     7
370
    25
100
AcDbCircle
 10
240.2702397302
 20
41.0501326135
 30
0.0
 40
12.4665429179168
100
AcDbArc
 50
171.5249863735
 51
179.8211981812
  0
SPLINE
  5
2B5
330
1F
100
AcDbEntity
  8
0
  6
Continuous
 62
     7
370
    25
100
AcDbSpline
210
0.0
220
0.0
230
1.0
 70
     8
 71
     3
 72
    14
 73
    10
 74
     0
 42
0.000000001
 43
0.00000001
 40
0.0
 40
0.0
 40
0.0
 40
0.0
 40
0.0003951393068452
 40
0.0003951393068452
 40
0.0003951393068452
 40
0.0008163352168663
 40
0.0008163352168663
 40
0.0008163352168663
 40
0.0012378579337219
 40
0.0012378579337219
 40
0.0012378579337219
 40
0.0012378579337219
 10
235.8520535019776
 20
55.40859892804985
 30
0.0
 10
235.8975153162089
 20
55.39416206542482
 30
0.0
 10
235.9424029208299
 20
55.37929620485921
 30
0.0
 10
235.986686613505
 20
55.36401241725373
 30
0.0
 10
236.0338899057444
 20
55.34772097791605
 30
0.0
 10
236.0804157188035
 20
55.33095149983214
 30
0.0
 10
236.1262266280452
 20
55.31372268903685
 30
0.0
 10
236.1720730160343
 20
55.29648053520521
 30
0.0
 10
236.2172122516067
 20
55.2787748290007
 30
0.0
 10
236.2616058096491
 20
55.26063197230992
 30
0.0
  0
LINE
  5
2B6
330
1F
100
AcDbEntity
  8
0
  6
Continuous
 62
     7
370
    25
100
AcDbLine
 10
227.1488652957
 20
45.6967127186
 30
0.0
 11
226.5089286213
 21
46.1089443587
 31
0.0
  0
LINE
  5
2B7
330
1F
100
AcDbEntity
  8
0
  6
Continuous
 62
     7
370
    25
100
AcDbLine
 10
226.2029945261
 20
46.4804227456
 30
0.0
 11
226.5089286213
 21
46.1089443587
 31
0.0
  0
SPLINE
  5
2B8
330
1F
100
AcDbEntity
  8
0
  6
Continuous
 62
     7
370
    25
100
AcDbSpline
210
0.0
220
0.0
230
1.0
 70
     8
 71
     3
 72
    13
 73
     9
 74
     0
 42
0.000000001
 43
0.00000001
 40
0.0
 40
0.0
 40
0.0
 40
0.0
 40
0.161854229885178
 40
0.3254858841554281
 40
0.4910085196607404
 40
0.6585318472791263
 40
0.8281616954204583
 40
0.9999999999999999
 40
0.9999999999999999
 40
0.9999999999999999
 40
0.9999999999999999
 10
226.508929032956
 20
46.10894436261994
 30
0.0
 10
226.4893516409386
 20
46.12150733965311
 30
0.0
 10
226.4499818650929
 20
46.14677125577172
 30
0.0
 10
226.3884459253225
 20
46.17946495268657
 30
0.0
 10
226.3248892660731
 20
46.20841102639346
 30
0.0
 10
226.2592711634164
 20
46.23292339385907
 30
0.0
 10
226.1918438943616
 20
46.25335845721257
 30
0.0
 10
226.145959294163
 20
46.26295511220235
 30
0.0
 10
226.1228686139881
 20
46.26778447303713
 30
0.0
  0
SPLINE
  5
2B9
330
1F
100
AcDbEntity
  8
0
  6
Continuous
 62
     7
370
    25
100
AcDbSpline
210
0.0
220
0.0
230
1.0
 70
     8
 71
     3
 72
     9
 73
     5
 74
     0
 42
0.000000001
 43
0.00000001
 40
0.0
 40
0.0
 40
0.0
 40
0.0
 40
0.4907282259506175
 40
1.0
 40
1.0
 40
1.0
 40
1.0
 10
226.1228627866961
 20
46.26775647600611
 30
0.0
 10
226.0987692642183
 20
46.27585200822425
 30
0.0
 10
226.0496717776591
 20
46.29234898514552
 30
0.0
 10
225.9989710838389
 20
46.30714265416177
 30
0.0
 10
225.9731506515516
 20
46.31467665222636
 30
0.0
  0
SPLINE
  5
2BA
330
1F
100
AcDbEntity
  8
0
  6
Continuous
 62
     7
370
    25
100
AcDbSpline
210
0.0
220
0.0
230
1.0
 70
     8
 71
     3
 72
    14
 73
    10
 74
     0
 42
0.000000001
 43
0.00000001
 40
0.0
 40
0.0
 40
0.0
 40
0.0
 40
0.0310276388071746
 40
0.0622853718672815
 40
0.1248003166904892
 40
0.2498289731753984
 40
0.499889260361071
 40
0.7606803621682141
 40
1.0
 40
1.0
 40
1.0
 40
1.0
 10
225.3892099622632
 20
46.68878439487222
 30
0.0
 10
225.3952022016677
 20
46.68495335121858
 30
0.0
 10
225.407231117627
 20
46.67726285372088
 30
0.0
 10
225.4312909256761
 20
46.6618249642142
 30
0.0
 10
225.4735245983224
 20
46.63475451128336
 30
0.0
 10
225.5580871728346
 20
46.58054248648799
 30
0.0
 10
225.6813741423048
 20
46.50153930462196
 30
0.0
 10
225.8275058487588
 20
46.40793312994452
 30
0.0
 10
225.9258724652995
 20
46.34495005355205
 30
0.0
 10
225.9729441659837
 20
46.31481055476293
 30
0.0
  0
LINE
  5
2BB
330
1F
100
AcDbEntity
  8
0
  6
Continuous
 62
     7
370
    25
100
AcDbLine
 10
223.586709807
 20
47.8514150719
 30
0.0
 11
223.8776771612
 21
47.6633365327
 31
0.0
  0
SPLINE
  5
2BC
330
1F
100
AcDbEntity
  8
0
  6
Continuous
 62
     7
370
    25
100
AcDbSpline
210
0.0
220
0.0
230
1.0
 70
     8
 71
     3
 72
     8
 73
     4
 74
     0
 42
0.000000001
 43
0.00000001
 40
0.0
 40
0.0
 40
0.0
 40
0.0
 40
1.0
 40
1.0
 40
1.0
 40
1.0
 10
223.9090654645585
 20
47.64311400256105
 30
0.0
 10
223.8986229587067
 20
47.64993942745846
 30
0.0
 10
223.8881570258169
 20
47.65668239424497
 30
0.0
 10
223.8776692610004
 20
47.66334148189797
 30
0.0
  0
SPLINE
  5
2BD
330
1F
100
AcDbEntity
  8
0
  6
Continuous
 62
     7
370
    25
100
AcDbSpline
210
0.0
220
0.0
230
1.0
 70
     8
 71
     3
 72
     8
 73
     4
 74
     0
 42
0.000000001
 43
0.00000001
 40
0.0
 40
0.0
 40
0.0
 40
0.0
 40
1.0
 40
1.0
 40
1.0
 40
1.0
 10
221.1230610857347
 20
49.52136965437013
 30
0.0
 10
221.1820608499047
 20
49.48262898745116
 30
0.0
 10
221.2413484134152
 20
49.44456701015187
 30
0.0
 10
221.3009294869036
 20
49.40718322169158
 30
0.0
  0
SPLINE
  5
2BE
330
1F
100
AcDbEntity
  8
0
  6
Continuous
 62
     7
370
    25
100
AcDbSpline
210
0.0
220
0.0
230
1.0
 70
     8
 71
     3
 72
     8
 73
     4
 74
     0
 42
0.000000001
 43
0.00000001
 40
0.0
 40
0.0
 40
0.0
 40
0.0
 40
1.0
 40
1.0
 40
1.0
 40
1.0
 10
221.0982113396351
 20
49.88457983230844
 30
0.0
 10
221.1056855517257
 20
49.7636219915966
 30
0.0
 10
221.1139816556158
 20
49.64255014918595
 30
0.0
 10
221.1230610857347
 20
49.52136965437013
 30
0.0
  0
LWPOLYLINE
  5
2BF
330
1F
100
AcDbEntity
  8
0
  6
Continuous
 62
     7
370
    25
100
AcDbPolyline
 90
       15
 70
   128
 43
0.0
 10
221.0982116984
 20
49.8845791669
 10
221.5136630624
 20
51.0488305434
 10
222.0181944248
 20
52.2033761385
 10
222.6051465837
 20
53.3329769007
 10
223.2667717629
 20
54.4227212598
 10
223.9943356866
 20
55.4582239788
 10
224.7782344709
 20
56.425816068
 10
225.6081204061
 20
57.3127253833
 10
226.4730386042
 20
58.1072437254
 10
227.3615716321
 20
58.7988833385
 10
228.2619905652
 20
59.3785143028
 10
229.1624094983
 20
59.8384849101
 10
230.0509425262
 20
60.1727236946
 10
230.9158607243
 20
60.3768186479
 10
231.0621741674
 20
60.3986868583
  0
SPLINE
  5
2C0
330
1F
100
AcDbEntity
  8
0
  6
Continuous
 62
     7
370
    25
100
AcDbSpline
210
0.0
220
0.0
230
1.0
 70
     8
 71
     3
 72
    10
 73
     6
 74
     0
 42
0.000000001
 43
0.00000001
 40
0.0
 40
0.0
 40
0.0
 40
0.0
 40
0.2409818396634726
 40
0.5031433556203718
 40
1.0
 40
1.0
 40
1.0
 40
1.0
 10
227.1488652956738
 20
38.99087109535462
 30
0.0
 10
227.2311111666768
 20
38.93919457343407
 30
0.0
 10
227.4028314240213
 20
38.83129972674269
 30
0.0
 10
227.6805527830482
 20
38.70157701627844
 30
0.0
 10
227.8015300300922
 20
38.72435495738343
 30
0.0
 10
227.8807222710077
 20
38.73926549836217
 30
0.0
  0
LINE
  5
2C1
330
1F
100
AcDbEntity
  8
0
  6
Continuous
 62
     7
370
    25
100
AcDbLine
 10
222.3656912395
 20
48.7199438283
 30
0.0
 11
221.6038125372
 21
49.210578236
 31
0.0
  0
LINE
  5
2C2
330
1F
100
AcDbEntity
  8
0
  6
Continuous
 62
     7
370
    25
100
AcDbLine
 10
221.6038125372
 20
49.210578236
 30
0.0
 11
221.1230612169
 21
49.5213696121
 31
0.0
  0
LINE
  5
2C3
330
1F
100
AcDbEntity
  8
0
  6
Continuous
 62
     7
370
    25
100
AcDbLine
 10
226.2029945261
 20
38.7150912944
 30
0.0
 11
226.5089286213
 21
39.4031027355
 31
0.0
  0
LINE
  5
2C4
330
1F
100
AcDbEntity
  8
0
  6
Continuous
 62
     7
370
    25
100
AcDbLine
 10
226.5089286213
 20
39.4031027355
 30
0.0
 11
227.1488652957
 21
38.9908710954
 31
0.0
  0
SPLINE
  5
2C5
330
1F
100
AcDbEntity
  8
0
  6
Continuous
 62
     7
370
    25
100
AcDbSpline
210
0.0
220
0.0
230
1.0
 70
     8
 71
     3
 72
    13
 73
     9
 74
     0
 42
0.000000001
 43
0.00000001
 40
0.0
 40
0.0
 40
0.0
 40
0.0
 40
0.172258782378417
 40
0.342139827159501
 40
0.5097456258302661
 40
0.6751828993623331
 40
0.8385626190354498
 40
1.0
 40
1.0
 40
1.0
 40
1.0
 10
226.1228571021828
 20
39.68441244087325
 30
0.0
 10
226.1460086261379
 20
39.66629284993579
 30
0.0
 10
226.1919921068936
 20
39.63030377799447
 30
0.0
 10
226.2595331196129
 20
39.57930379457281
 30
0.0
 10
226.3251927343011
 20
39.53097911438104
 30
0.0
 10
226.3887168055489
 20
39.48554810847521
 30
0.0
 10
226.4501471842626
 20
39.44272254072232
 30
0.0
 10
226.489413351229
 20
39.41625672355209
 30
0.0
 10
226.508929032956
 20
39.40310294500823
 30
0.0
  0
SPLINE
  5
2C6
330
1F
100
AcDbEntity
  8
0
  6
Continuous
 62
     7
370
    25
100
AcDbSpline
210
0.0
220
0.0
230
1.0
 70
     8
 71
     3
 72
    11
 73
     7
 74
     0
 42
0.000000001
 43
0.00000001
 40
0.0
 40
0.0
 40
0.0
 40
0.0
 40
0.2392845094479873
 40
0.5001120454076898
 40
0.7515010915036774
 40
1.0
 40
1.0
 40
1.0
 40
1.0
 10
225.9734766907066
 20
39.73172643308612
 30
0.0
 10
225.9264074587021
 20
39.70341191037333
 30
0.0
 10
225.8280313041075
 20
39.64423367981713
 30
0.0
 10
225.6817340825237
 20
39.55104577935722
 30
0.0
 10
225.5338933388799
 20
39.45567386338476
 30
0.0
 10
225.4376068761609
 20
39.39113860812195
 30
0.0
 10
225.3897419883019
 20
39.35905753806411
 30
0.0
  0
SPLINE
  5
2C7
330
1F
100
AcDbEntity
  8
0
  6
Continuous
 62
     7
370
    25
100
AcDbSpline
210
0.0
220
0.0
230
1.0
 70
     8
 71
     3
 72
     9
 73
     5
 74
     0
 42
0.000000001
 43
0.00000001
 40
0.0
 40
0.0
 40
0.0
 40
0.0
 40
0.5090669353869915
 40
1.0
 40
1.0
 40
1.0
 40
1.0
 10
225.9740476942908
 20
39.73102747887435
 30
0.0
 10
225.9996962689148
 20
39.72353477071447
 30
0.0
 10
226.0500797702603
 20
39.7088162580022
 30
0.0
 10
226.0988872817556
 20
39.69242390015003
 30
0.0
 10
226.1228485029501
 20
39.68437634967344
 30
0.0
  0
LINE
  5
2C8
330
1F
100
AcDbEntity
  8
0
  6
Continuous
 62
     7
370
    25
100
AcDbLine
 10
227.8039662744
 20
40.6549060461
 30
0.0
 11
226.1228503181
 21
39.6844184619
 31
0.0
  0
LINE
  5
2C9
330
1F
100
AcDbEntity
  8
0
  6
Continuous
 62
     7
370
    25
100
AcDbLine
 10
224.1163626668
 20
40.8082397606
 30
0.0
 11
223.9160670133
 21
40.3070823463
 31
0.0
  0
SPLINE
  5
2CA
330
1F
100
AcDbEntity
  8
0
  6
Continuous
 62
     7
370
    25
100
AcDbSpline
210
0.0
220
0.0
230
1.0
 70
     8
 71
     3
 72
     8
 73
     4
 74
     0
 42
0.000000001
 43
0.00000001
 40
0.0
 40
0.0
 40
0.0
 40
0.0
 40
1.0
 40
1.0
 40
1.0
 40
1.0
 10
224.1159194961506
 20
40.80902351273569
 30
0.0
 10
224.1420948307199
 20
40.83119088971396
 30
0.0
 10
224.1679158706853
 20
40.85382303080558
 30
0.0
 10
224.1933734243937
 20
40.87690775089686
 30
0.0
  0
LINE
  5
2CB
330
1F
100
AcDbEntity
  8
0
  6
Continuous
 62
     7
370
    25
100
AcDbLine
 10
224.1933735201
 20
40.8769076353
 30
0.0
 11
225.9736662794
 21
39.7311367502
 31
0.0
  0
LINE
  5
2CC
330
1F
100
AcDbEntity
  8
0
  6
Continuous
 62
     7
370
    25
100
AcDbLine
 10
227.8037575158
 20
40.7529559813
 30
0.0
 11
227.7157581888
 21
40.8604470497
 31
0.0
  0
LINE
  5
2CD
330
1F
100
AcDbEntity
  8
0
  6
Continuous
 62
     7
370
    25
100
AcDbLine
 10
225.8873501922
 20
41.8548195526
 30
0.0
 11
224.1933735201
 21
40.8769076353
 31
0.0
  0
LINE
  5
2CE
330
1F
100
AcDbEntity
  8
0
  6
Continuous
 62
     7
370
    25
100
AcDbLine
 10
226.0300442747
 20
41.8335273909
 30
0.0
 11
225.8877703436
 21
41.8543321751
 31
0.0
  0
LINE
  5
2CF
330
1F
100
AcDbEntity
  8
0
  6
Continuous
 62
     7
370
    25
100
AcDbLine
 10
227.7158319458
 20
40.8603428832
 30
0.0
 11
226.0300442747
 21
41.8335273909
 31
0.0
  0
LINE
  5
2D0
330
1F
100
AcDbEntity
  8
0
  6
Continuous
 62
     7
370
    25
100
AcDbLine
 10
227.8037575158
 20
40.8095788004
 30
0.0
 11
227.7157851892
 21
40.8603698566
 31
0.0
  0
SPLINE
  5
2D1
330
1F
100
AcDbEntity
  8
0
  6
Continuous
 62
     7
370
    25
100
AcDbSpline
210
0.0
220
0.0
230
1.0
 70
     8
 71
     3
 72
    19
 73
    15
 74
     0
 42
0.000000001
 43
0.00000001
 40
0.0
 40
0.0
 40
0.0
 40
0.0
 40
0.0637853009127854
 40
0.1289628367668835
 40
0.1955871994312377
 40
0.2637095015417503
 40
0.3333775579368785
 40
0.404636070956767
 40
0.4775268158870349
 40
0.5520888236349092
 40
0.6283585584292241
 40
0.7063700889344752
 40
0.8377041805690577
 40
0.9999999999999999
 40
0.9999999999999999
 40
0.9999999999999999
 40
0.9999999999999999
 10
223.3318503901893
 20
40.97751160008757
 30
0.0
 10
223.3525397591944
 20
40.96415246007724
 30
0.0
 10
223.3943700818492
 20
40.93714259153634
 30
0.0
 10
223.4548610554439
 20
40.89962062600982
 30
0.0
 10
223.5143452536232
 20
40.86410088491915
 30
0.0
 10
223.5724264130949
 20
40.83112075600264
 30
0.0
 10
223.6289585301821
 20
40.80091431973231
 30
0.0
 10
223.6837035849359
 20
40.77380087977078
 30
0.0
 10
223.7364259625282
 20
40.75006926202079
 30
0.0
 10
223.7868675954592
 20
40.73002900857611
 30
0.0
 10
223.8347505139246
 20
40.7139091470378
 30
0.0
 10
223.8897146682947
 20
40.6996311773562
 30
0.0
 10
223.9525459822543
 20
40.68949262010148
 30
0.0
 10
223.9910534979123
 20
40.69596687141475
 30
0.0
 10
224.0123374631094
 20
40.69954533492439
 30
0.0
  0
LINE
  5
2D2
330
1F
100
AcDbEntity
  8
0
  6
Continuous
 62
     7
370
    25
100
AcDbLine
 10
224.0369731508
 20
40.7256157892
 30
0.0
 11
224.1157772208
 21
40.8090073929
 31
0.0
  0
SPLINE
  5
2D3
330
1F
100
AcDbEntity
  8
0
  6
Continuous
 62
     7
370
    25
100
AcDbSpline
210
0.0
220
0.0
230
1.0
 70
     8
 71
     3
 72
     9
 73
     5
 74
     0
 42
0.000000001
 43
0.00000001
 40
0.0
 40
0.0
 40
0.0
 40
0.0
 40
0.5232016984460688
 40
1.0
 40
1.0
 40
1.0
 40
1.0
 10
225.7211724125037
 20
41.75888733182045
 30
0.0
 10
225.6521482498551
 20
41.78392949693695
 30
0.0
 10
225.5202217617461
 20
41.83179280699667
 30
0.0
 10
225.2787843489275
 20
41.96939093768334
 30
0.0
 10
225.163667400564
 20
42.03499749269174
 30
0.0
  0
LINE
  5
2D4
330
1F
100
AcDbEntity
  8
0
  6
Continuous
 62
     7
370
    25
100
AcDbLine
 10
221.4341662035
 20
41.8008870553
 30
0.0
 11
221.8856373179
 21
41.9131510282
 31
0.0
  0
LINE
  5
2D5
330
1F
100
AcDbEntity
  8
0
  6
Continuous
 62
     7
370
    25
100
AcDbLine
 10
221.8856373179
 20
41.9131510282
 30
0.0
 11
223.3318497897
 21
40.9775116952
 31
0.0
  0
SPLINE
  5
2D6
330
1F
100
AcDbEntity
  8
0
  6
Continuous
 62
     7
370
    25
100
AcDbSpline
210
0.0
220
0.0
230
1.0
 70
     8
 71
     3
 72
     8
 73
     4
 74
     0
 42
0.000000001
 43
0.00000001
 40
0.0
 40
0.0
 40
0.0
 40
0.0
 40
1.0
 40
1.0
 40
1.0
 40
1.0
 10
221.604954774206
 20
41.40613740230424
 30
0.0
 10
221.547829505282
 20
41.53792358609988
 30
0.0
 10
221.4909010135644
 20
41.66950780776067
 30
0.0
 10
221.434166895615
 20
41.80088687466203
 30
0.0
  0
LINE
  5
2D7
330
1F
100
AcDbEntity
  8
0
  6
Continuous
 62
     7
370
    25
100
AcDbLine
 10
223.223338777
 20
42.6853896429
 30
0.0
 11
221.8856373179
 21
41.9131510282
 31
0.0
  0
LINE
  5
2D8
330
1F
100
AcDbEntity
  8
0
  6
Continuous
 62
     7
370
    25
100
AcDbLine
 10
224.2063672618
 20
42.5876362401
 30
0.0
 11
223.223338777
 21
42.6853896429
 31
0.0
  0
LINE
  5
2D9
330
1F
100
AcDbEntity
  8
0
  6
Continuous
 62
     7
370
    25
100
AcDbLine
 10
225.1636674006
 20
42.0349974927
 30
0.0
 11
224.206366274
 21
42.5876356698
 31
0.0
  0
SPLINE
  5
2DA
330
1F
100
AcDbEntity
  8
0
  6
Continuous
 62
     7
370
    25
100
AcDbSpline
210
0.0
220
0.0
230
1.0
 70
     8
 71
     3
 72
     8
 73
     4
 74
     0
 42
0.000000001
 43
0.00000001
 40
0.0
 40
0.0
 40
0.0
 40
0.0
 40
1.0
 40
1.0
 40
1.0
 40
1.0
 10
221.4341668956172
 20
41.80088687465692
 30
0.0
 10
221.4310295578671
 20
41.83610318152944
 30
0.0
 10
221.4290371539691
 20
41.87174743775714
 30
0.0
 10
221.4282557565971
 20
41.90784433975201
 30
0.0
  0
LINE
  5
2DB
330
1F
100
AcDbEntity
  8
0
  6
Continuous
 62
     7
370
    25
100
AcDbLine
 10
222.2393422317
 20
42.3760740544
 30
0.0
 11
221.4282564251
 21
41.9078441849
 31
0.0
  0
SPLINE
  5
2DC
330
1F
100
AcDbEntity
  8
0
  6
Continuous
 62
     7
370
    25
100
AcDbSpline
210
0.0
220
0.0
230
1.0
 70
     8
 71
     3
 72
     8
 73
     4
 74
     0
 42
0.000000001
 43
0.00000001
 40
0.0000004089325119
 40
0.0000004089325119
 40
0.0000004089325119
 40
0.0000004089325119
 40
0.0015399868451459
 40
0.0015399868451459
 40
0.0015399868451459
 40
0.0015399868451459
 10
222.2393412890858
 20
42.37607405110813
 30
0.0
 10
222.4778178571091
 20
42.47045043692448
 30
0.0
 10
222.7162648147777
 20
42.56487904885469
 30
0.0
 10
222.9546735536281
 20
42.65937243181715
 30
0.0
  0
LINE
  5
2DD
330
1F
100
AcDbEntity
  8
0
  6
Continuous
 62
     7
370
    25
100
AcDbLine
 10
222.9546730326
 20
42.6593725789
 30
0.0
 11
222.9790694724
 21
42.6643666054
 31
0.0
  0
LINE
  5
2DE
330
1F
100
AcDbEntity
  8
0
  6
Continuous
 62
     7
370
    25
100
AcDbLine
 10
223.223338777
 20
42.6853896429
 30
0.0
 11
222.979070131
 21
42.6643666053
 31
0.0
  0
SPLINE
  5
2DF
330
1F
100
AcDbEntity
  8
0
  6
Continuous
 62
     7
370
    25
100
AcDbSpline
210
0.0
220
0.0
230
1.0
 70
     8
 71
     3
 72
     8
 73
     4
 74
     0
 42
0.000000001
 43
0.00000001
 40
0.0
 40
0.0
 40
0.0
 40
0.0
 40
1.0
 40
1.0
 40
1.0
 40
1.0
 10
224.2063654681361
 20
42.58763642440412
 30
0.0
 10
224.2369735022594
 20
42.57269641659799
 30
0.0
 10
224.2675250032313
 20
42.55781945920462
 30
0.0
 10
224.2980189413458
 20
42.5430058955237
 30
0.0
  0
ARC
  5
2E0
330
1F
100
AcDbEntity
  8
0
  6
Continuous
 62
     7
370
    25
100
AcDbCircle
 10
225.0870489484
 20
48.0163563696
 30
0.0
 40
6.54976210019634
100
AcDbArc
 50
283.6682343678
 51
294.9135532271
  0
LWPOLYLINE
  5
2E1
330
1F
100
AcDbEntity
  8
0
  6
Continuous
 62
     7
370
    18
100
AcDbPolyline
 90
       20
 70
   128
 43
0.0
 10
278.2763116037
 20
14.6464163156
 10
278.3246263801
 20
15.5433204424
 10
278.4687784802
 20
16.4812811429
 10
278.7064001072
 20
17.4448966993
 10
279.0335900434
 20
18.4183448113
 10
279.4449755536
 20
19.3856412433
 10
279.9338016173
 20
20.3309030308
 10
280.4920422235
 20
21.238609309
 10
281.1105304325
 20
22.0938551049
 10
281.7791109941
 20
22.882597618
 10
282.4868059715
 20
23.5918856744
 10
283.2219948527
 20
24.2100724496
 10
283.9726058586
 20
24.7270084175
 10
284.7263140404
 20
25.1342043803
 10
285.4707434947
 20
25.4249744402
 10
286.1936706888
 20
25.594544251
 10
286.8832252345
 20
25.6401296601
 10
287.5280845291
 20
25.5609817707
 10
288.1176603293
 20
25.358400352
 10
288.5473168275
 20
25.1065409245
  0
LWPOLYLINE
  5
2E2
330
1F
100
AcDbEntity
  8
0
  6
Continuous
 62
     7
370
    18
100
AcDbPolyline
 90
        8
 70
   128
 43
0.0
 10
280.2383646228
 20
10.7134542614
 10
279.9338016173
 20
10.875626836
 10
279.4449755536
 20
11.2565020636
 10
279.0335900434
 20
11.7488228957
 10
278.7064001072
 20
12.3445055483
 10
278.4687784802
 20
13.0337690139
 10
278.3246263801
 20
13.8052952423
 10
278.2763116037
 20
14.6464163156
  0
LWPOLYLINE
  5
2E3
330
1F
100
AcDbEntity
  8
0
  6
Continuous
 62
     7
370
    18
100
AcDbPolyline
 90
       47
 70
   128
 43
0.0
 10
279.6328655457
 20
14.6771855365
 10
279.681112492
 20
15.5195404307
 10
279.824953759
 20
16.401907996
 10
280.0617100585
 20
17.3078516488
 10
280.3869714472
 20
18.2204956104
 10
280.794678657
 20
19.1228389706
 10
281.2772366941
 20
19.9980726
 10
281.825656426
 20
20.8298920671
 10
282.4297223457
 20
21.6028034238
 10
283.0781814092
 20
22.3024076957
 10
283.7589540992
 20
22.915672918
 10
284.4593589477
 20
23.4311755378
 10
285.1663487062
 20
23.839312038
 10
285.8667535546
 20
24.1324796432
 10
286.5475262447
 20
24.3052178382
 10
287.1959853081
 20
24.3543084646
 10
287.8000512278
 20
24.2788367734
 10
288.3484709597
 20
24.0802092508
 10
288.8310289968
 20
23.7621252718
 10
289.2387362066
 20
23.3305106363
 10
289.5639975953
 20
22.7934054805
 10
289.8007538948
 20
22.1608148326
 10
289.9445951619
 20
21.4445228593
 10
289.9928421082
 20
20.6578727035
 10
289.9445951619
 20
19.8155178094
 10
289.8007538948
 20
18.9331502441
 10
289.5639975953
 20
18.0272065913
 10
289.2387362066
 20
17.1145626297
 10
288.8310289968
 20
16.2122192694
 10
288.3484709597
 20
15.33698564
 10
287.8000512278
 20
14.5051661729
 10
287.1959853081
 20
13.7322548163
 10
286.5475262447
 20
13.0326505444
 10
285.8667535546
 20
12.4193853221
 10
285.1663487062
 20
11.9038827023
 10
284.4593589477
 20
11.4957462021
 10
283.7589540992
 20
11.2025785969
 10
283.0781814092
 20
11.0298404019
 10
282.4297223457
 20
10.9807497755
 10
281.825656426
 20
11.0562214667
 10
281.2772366941
 20
11.2548489892
 10
280.794678657
 20
11.5729329683
 10
280.3869714472
 20
12.0045476038
 10
280.0617100585
 20
12.5416527596
 10
279.824953759
 20
13.1742434075
 10
279.681112492
 20
13.8905353808
 10
279.6328655457
 20
14.6771855365
  0
LINE
  5
2E4
330
1F
100
AcDbEntity
  8
0
  6
Continuous
 62
     7
370
    18
100
AcDbLine
 10
280.9107932247
 20
15.4149174825
 30
0.0
 11
280.9312746174
 21
15.8878093145
 31
0.0
  0
LWPOLYLINE
  5
2E5
330
1F
100
AcDbEntity
  8
0
  6
Continuous
 62
     7
370
    18
100
AcDbPolyline
 90
       33
 70
   128
 43
0.0
 10
284.3577488228
 20
21.8800061748
 10
284.8128538269
 20
22.17348468
 10
285.4232705852
 20
22.4703950059
 10
286.0186568882
 20
22.6490430704
 10
286.5843523828
 20
22.7050291653
 10
287.1064275356
 20
22.6369758784
 10
287.5720273931
 20
22.4465579095
 10
287.969687354
 20
22.1384645882
 10
288.2896151907
 20
21.7202818802
 10
288.523934217
 20
21.2023070972
 10
288.6668736073
 20
20.5972941236
 10
288.7149144292
 20
19.9201407575
 10
288.6668736073
 20
19.1875206392
 10
288.523934217
 20
18.4174733583
 10
288.2896151907
 20
17.6289595861
 10
287.969687354
 20
16.8413960604
 10
287.5720273931
 20
16.0741743211
 10
287.1064275356
 20
15.3461861992
 10
286.5843523828
 20
14.6753577714
 10
286.0186568882
 20
14.0782057506
 10
285.4232705852
 20
13.5694354218
 10
284.8128538269
 20
13.16157356
 10
284.2024370687
 20
12.8646632342
 10
283.6070507656
 20
12.6860151696
 10
283.041355271
 20
12.6300290748
 10
282.5192801182
 20
12.6980823617
 10
282.0536802607
 20
12.8885003305
 10
281.6560202999
 20
13.1965936519
 10
281.3360924632
 20
13.6147763598
 10
281.1017734369
 20
14.1327511428
 10
280.9588340465
 20
14.7377641165
 10
280.9107932247
 20
15.4149174825
 10
280.9107932247
 20
15.4149174825
  0
LWPOLYLINE
  5
2E6
330
1F
100
AcDbEntity
  8
0
  6
Continuous
 62
     7
370
    18
100
AcDbPolyline
 90
       23
 70
   128
 43
0.0
 10
286.9295615785
 20
22.4793469587
 10
287.024512666
 20
22.4475648639
 10
287.4572007739
 20
22.2174277745
 10
287.8176185611
 20
21.871634863
 10
288.09643083
 20
21.4191418361
 10
288.2864169693
 20
20.8716681045
 10
288.3826563344
 20
20.2433929844
 10
288.3826563344
 20
19.5505884291
 10
288.2864169693
 20
18.8111977031
 10
288.09643083
 20
18.0443706442
 10
287.8176185611
 20
17.2699678237
 10
287.4572007739
 20
16.5080453926
 10
287.024512666
 20
15.7783372475
 10
286.53076036
 20
15.0997423112
 10
285.9887317203
 20
14.4898355347
 10
285.4124651869
 20
13.9644139799
 10
284.8168856833
 20
13.5370845394
 10
284.2174184212
 20
13.2189158956
 10
283.6295892045
 20
13.0181480845
 10
283.0686226356
 20
12.9399810772
 10
282.5490473178
 20
12.9864388846
 10
282.0843201964
 20
13.1563186651
 10
281.7227644443
 20
13.4113262926
  0
LWPOLYLINE
  5
2E7
330
1F
100
AcDbEntity
  8
0
  6
Continuous
 62
     7
370
    18
100
AcDbPolyline
 90
        8
 70
   128
 43
0.0
 10
242.563224299
 20
33.6895377093
 10
242.6122318642
 20
32.7461845027
 10
242.7585914055
 20
31.8721712437
 10
243.0003226795
 20
31.0793167573
 10
243.3341586469
 20
30.3783445421
 10
243.7555830095
 20
29.7787324807
 10
244.2588980403
 20
29.2885904941
 10
244.6864853917
 20
28.9966286304
  0
LWPOLYLINE
  5
2E8
330
1F
100
AcDbEntity
  8
0
  6
Continuous
 62
     7
370
    18
100
AcDbPolyline
 90
       22
 70
   128
 43
0.0
 10
254.9356526211
 20
46.7506301656
 10
254.7848416482
 20
46.8327125213
 10
254.1391815635
 20
47.0856007809
 10
253.4349913601
 20
47.2139124599
 10
252.6817935914
 20
47.2159128094
 10
251.8897742947
 20
47.0915748277
 10
251.0696440379
 20
46.8425804142
 10
250.2324936983
 20
46.4722964282
 10
249.3896443145
 20
45.9857298358
 10
248.5524939749
 20
45.3894606133
 10
247.732363718
 20
44.6915527877
 10
246.9403444214
 20
43.901444754
 10
246.1871466527
 20
43.0298207713
 10
245.4829564492
 20
42.0884683894
 10
244.8372963646
 20
41.0901168636
 10
244.2588980403
 20
40.0482681537
 10
243.7555830095
 20
38.9770110019
 10
243.3341586469
 20
37.8908327283
 10
243.0003226795
 20
36.8044217094
 10
242.7585914055
 20
35.7324702347
 10
242.6122318642
 20
34.6894738464
 10
242.563224299
 20
33.6895377093
  0
LWPOLYLINE
  5
2E9
330
1F
100
AcDbEntity
  8
0
  6
Continuous
 62
     7
370
    18
100
AcDbPolyline
 90
       28
 70
   128
 43
0.0
 10
240.4419042663
 20
33.6895380895
 10
240.490608901
 20
34.7549868973
 10
240.6361525056
 20
35.8641777595
 10
240.8768281328
 20
37.0041063506
 10
241.2098139193
 20
38.1614079902
 10
241.6312066718
 20
39.3225142952
 10
242.1360659894
 20
40.4738126829
 10
242.718471557
 20
41.6018047322
 10
243.3715965729
 20
42.6932664438
 10
244.0877831524
 20
43.7354005162
 10
244.858634853
 20
44.7159901405
 10
245.675114139
 20
45.6235381557
 10
246.527648243
 20
46.4474034475
 10
247.4062421879
 20
47.1779285522
 10
248.3005952676
 20
47.8065472039
 10
249.2002220539
 20
48.3258906931
 10
250.0945751336
 20
48.7298701277
 10
250.9731690785
 20
49.0137479997
 10
251.8257031825
 20
49.1741976326
 10
252.6421824685
 20
49.2093365353
 10
253.4130341691
 20
49.1187533403
 10
254.1292207486
 20
48.9035106917
 10
254.7823457645
 20
48.5661310724
 10
255.3647513321
 20
48.1105701783
 10
255.8696106497
 20
47.5421699514
 10
256.2910034022
 20
46.8675933623
 10
256.6239891887
 20
46.0947489284
 10
256.7475071137
 20
45.7046691152
  0
LWPOLYLINE
  5
2EA
330
1F
100
AcDbEntity
  8
0
  6
Continuous
 62
     7
370
    18
100
AcDbPolyline
 90
       13
 70
   128
 43
0.0
 10
246.4983398843
 20
27.9506670097
 10
245.675114139
 20
27.7976735319
 10
244.858634853
 20
27.7625346291
 10
244.0877831524
 20
27.8531178242
 10
243.3715965729
 20
28.0683604728
 10
242.718471557
 20
28.4057400921
 10
242.1360659894
 20
28.8613009861
 10
241.6312066718
 20
29.4297012131
 10
241.2098139193
 20
30.1042778021
 10
240.8768281328
 20
30.877122236
 10
240.6361525056
 20
31.7391726628
 10
240.490608901
 20
32.680322456
 10
240.4419042663
 20
33.6895380895
  0
ARC
  5
2EB
330
1F
100
AcDbEntity
  8
0
  6
Continuous
 62
     7
370
    18
100
AcDbCircle
 10
249.2843763728
 20
35.572616378
 30
0.0
 40
17.95572678150234
100
AcDbArc
 50
167.4561534803
 51
179.6099872796
  0
LWPOLYLINE
  5
2EC
330
1F
100
AcDbEntity
  8
0
  6
Continuous
 62
     7
370
    18
100
AcDbPolyline
 90
       11
 70
   128
 43
0.0
 10
242.3989752985
 20
54.9354976628
 10
242.7180297096
 20
55.1163286915
 10
243.758648241
 20
55.6324072118
 10
244.7878292536
 20
56.0297284048
 10
245.7965281327
 20
56.3048017393
 10
246.7758809514
 20
56.4552098224
 10
247.7172802037
 20
56.4796293058
 10
248.6124535828
 20
56.3778474658
 10
249.4535341161
 20
56.1507570635
 10
250.2331296413
 20
55.8003553878
 10
250.3252692376
 20
55.7483957196
  0
LWPOLYLINE
  5
2ED
330
1F
100
AcDbEntity
  8
0
  6
Continuous
 62
     7
370
    18
100
AcDbPolyline
 90
       10
 70
   128
 43
0.0
 10
234.5890479231
 20
28.4895073258
 10
234.3166100358
 20
28.6580700975
 10
233.6419008943
 20
29.1873349708
 10
233.0446609531
 20
29.8302433738
 10
232.5301381534
 20
30.5811449549
 10
232.1028540617
 20
31.4334411337
 10
231.7665643575
 20
32.3796425192
 10
231.5242239298
 20
33.4114329823
 10
231.3779625117
 20
34.5197455143
 10
231.3290655819
 20
35.6948401758
  0
LWPOLYLINE
  5
2EE
330
1F
100
AcDbEntity
  8
0
  6
Continuous
 62
     7
370
    18
100
AcDbPolyline
 90
       13
 70
   128
 43
0.0
 10
235.9531470204
 20
32.359203548
 10
235.9169329994
 20
32.5406111863
 10
235.7725523844
 20
33.6116845294
 10
235.7313492301
 20
34.7533275482
 10
235.793756859
 20
35.9535262071
 10
235.9591180435
 20
37.1996502417
 10
236.2256935676
 20
38.4785871179
 10
236.5906780317
 20
39.7768778563
 10
237.0502301457
 20
41.0808605312
 10
237.5995142173
 20
42.3768126633
 10
238.2327495427
 20
43.6510966534
 10
238.9432729687
 20
44.8903031241
 10
239.7236080395
 20
46.0813919792
  0
LWPOLYLINE
  5
2EF
330
1F
100
AcDbEntity
  8
0
  6
Continuous
 62
     7
370
    18
100
AcDbPolyline
 90
       16
 70
   128
 43
0.0
 10
236.4649427873
 20
29.4292758471
 10
235.9959208033
 20
30.1761031614
 10
235.6054216908
 20
31.0484435915
 10
235.3125676066
 20
32.0169580156
 10
235.1203312208
 20
33.0718139401
 10
235.0306644591
 20
34.2023027234
 10
235.0444774301
 20
35.3969475643
 10
235.1616298639
 20
36.6436204238
 10
235.3809324291
 20
37.9296648394
 10
235.7001592451
 20
39.2420253931
 10
236.1160689561
 20
40.5673788889
 10
236.624439633
 20
41.8922700928
 10
237.2201096041
 20
43.2032484213
 10
237.8970327722
 20
44.4870059611
 10
238.6483359083
 20
45.7305082625
 10
239.466393067
 20
46.9211338782
  0
ARC
  5
2F0
330
1F
100
AcDbEntity
  8
0
  6
Continuous
 62
     7
370
    18
100
AcDbCircle
 10
252.5495216722
 20
39.1382617778
 30
0.0
 40
14.35349360837026
100
AcDbArc
 50
109.931969941
 51
139.4246766989
  0
LWPOLYLINE
  5
2F1
330
1F
100
AcDbEntity
  8
0
  6
Continuous
 62
     7
370
    18
100
AcDbPolyline
 90
       12
 70
   128
 43
0.0
 10
240.8105861286
 20
48.5932973955
 10
241.7229307265
 20
49.5640329729
 10
242.6682591846
 20
50.4495753605
 10
243.6376643592
 20
51.2415810247
 10
244.6220128554
 20
51.9325879964
 10
245.6120304731
 20
52.51608649
 10
246.5983895057
 20
52.9865776659
 10
247.5717965729
 20
53.3396288973
 10
248.523080743
 20
53.5719147563
 10
249.4432788134
 20
53.6812457131
 10
250.3237215397
 20
53.6665928196
 10
250.4495496388
 20
53.6539504846
  0
LINE
  5
2F2
330
1F
100
AcDbEntity
  8
0
  6
Continuous
 62
     7
370
    18
100
AcDbLine
 10
226.8427013685
 20
46.0674477745
 30
0.0
 11
227.1488652957
 21
45.6967127186
 31
0.0
  0
LINE
  5
2F3
330
1F
100
AcDbEntity
  8
0
  6
Continuous
 62
     7
370
    18
100
AcDbLine
 10
226.8427013685
 20
38.3033376268
 30
0.0
 11
227.1488652957
 21
38.9908710954
 31
0.0
  0
LINE
  5
2F4
330
1F
100
AcDbEntity
  8
0
  6
Continuous
 62
     7
370
    18
100
AcDbLine
 10
227.8847756125
 20
39.4157030784
 30
0.0
 11
227.1488725397
 21
38.9908752772
 31
0.0
  0
LINE
  5
2F5
330
1F
100
AcDbEntity
  8
0
  6
Continuous
 62
     7
370
    18
100
AcDbLine
 10
227.8182000554
 20
40.1589290462
 30
0.0
 11
226.5089286213
 21
39.4031027355
 31
0.0
  0
LINE
  5
2F6
330
1F
100
AcDbEntity
  8
0
  6
Continuous
 62
     7
370
    18
100
AcDbLine
 10
223.3318497897
 20
40.9775116952
 30
0.0
 11
223.0353625155
 21
40.4814500773
 31
0.0
  0
LINE
  5
2F7
330
1F
100
AcDbEntity
  8
0
  6
Continuous
 62
     7
370
    18
100
AcDbLine
 10
225.1636674006
 20
42.0349974927
 30
0.0
 11
223.3319103758
 21
40.9775466708
 31
0.0
  0
LINE
  5
2F8
330
1F
100
AcDbEntity
  8
0
  6
Continuous
 62
     7
370
    18
100
AcDbLine
 10
225.1636674006
 20
42.0349974927
 30
0.0
 11
225.2849775551
 21
41.9732469794
 31
0.0
  0
OLE2FRAME
  5
2F9
330
1F
100
AcDbEntity
  8
0
100
AcDbOle2Frame
 70
     2
  3
Paintbrush-Bild
 10
13.8511154363
 20
38.264191557
 30
0.0
 11
51.6290888628
 21
31.9806341108
 31
0.0
 71
     2
 72
     0
 73
     1
 90
    12928
310
80552BED0767C5B32B40DDAF6807D121434000000000000000006FFBDDFB85D0
310
4940DDAF6807D121434000000000000000006FFBDDFB85D04940416F4BD60AFB
310
3F4000000000000000002BED0767C5B32B40416F4BD60AFB3F40000000000000
310
0000000000000100000000010000010000000100000000000100000000320000
310
D0CF11E0A1B11AE1000000000000000000000000000000003E000300FEFF0900
310
0600000000000000000000000100000001000000000000000010000002000000
310
01000000FEFFFFFF0000000000000000FFFFFFFFFFFFFFFFFFFFFFFFFFFFFFFF
310
FFFFFFFFFFFFFFFFFFFFFFFFFFFFFFFFFFFFFFFFFFFFFFFFFFFFFFFFFFFFFFFF
310
FFFFFFFFFFFFFFFFFFFFFFFFFFFFFFFFFFFFFFFFFFFFFFFFFFFFFFFFFFFFFFFF
310
FFFFFFFFFFFFFFFFFFFFFFFFFFFFFFFFFFFFFFFFFFFFFFFFFFFFFFFFFFFFFFFF
310
FFFFFFFFFFFFFFFFFFFFFFFFFFFFFFFFFFFFFFFFFFFFFFFFFFFFFFFFFFFFFFFF
310
FFFFFFFFFFFFFFFFFFFFFFFFFFFFFFFFFFFFFFFFFFFFFFFFFFFFFFFFFFFFFFFF
310
FFFFFFFFFFFFFFFFFFFFFFFFFFFFFFFFFFFFFFFFFFFFFFFFFFFFFFFFFFFFFFFF
310
FFFFFFFFFFFFFFFFFFFFFFFFFFFFFFFFFFFFFFFFFFFFFFFFFFFFFFFFFFFFFFFF
310
FFFFFFFFFFFFFFFFFFFFFFFFFFFFFFFFFFFFFFFFFFFFFFFFFFFFFFFFFFFFFFFF
310
FFFFFFFFFFFFFFFFFFFFFFFFFFFFFFFFFFFFFFFFFFFFFFFFFFFFFFFFFFFFFFFF
310
FFFFFFFFFFFFFFFFFFFFFFFFFFFFFFFFFFFFFFFFFFFFFFFFFFFFFFFFFFFFFFFF
310
FFFFFFFFFFFFFFFFFFFFFFFFFFFFFFFFFFFFFFFFFFFFFFFFFFFFFFFFFFFFFFFF
310
FFFFFFFFFFFFFFFFFFFFFFFFFFFFFFFFFFFFFFFFFFFFFFFFFFFFFFFFFFFFFFFF
310
FFFFFFFFFFFFFFFFFFFFFFFFFFFFFFFFFFFFFFFFFFFFFFFFFFFFFFFFFFFFFFFF
310
FDFFFFFFFEFFFFFFFEFFFFFFFEFFFFFF05000000060000000700000008000000
310
090000000A0000000B0000000C0000000D0000000E0000000F00000010000000
310
11000000120000001300000014000000150000001600000017000000FEFFFFFF
310
FFFFFFFFFFFFFFFFFFFFFFFFFFFFFFFFFFFFFFFFFFFFFFFFFFFFFFFFFFFFFFFF
310
FFFFFFFFFFFFFFFFFFFFFFFFFFFFFFFFFFFFFFFFFFFFFFFFFFFFFFFFFFFFFFFF
310
FFFFFFFFFFFFFFFFFFFFFFFFFFFFFFFFFFFFFFFFFFFFFFFFFFFFFFFFFFFFFFFF
310
FFFFFFFFFFFFFFFFFFFFFFFFFFFFFFFFFFFFFFFFFFFFFFFFFFFFFFFFFFFFFFFF
310
FFFFFFFFFFFFFFFFFFFFFFFFFFFFFFFFFFFFFFFFFFFFFFFFFFFFFFFFFFFFFFFF
310
FFFFFFFFFFFFFFFFFFFFFFFFFFFFFFFFFFFFFFFFFFFFFFFFFFFFFFFFFFFFFFFF
310
FFFFFFFFFFFFFFFFFFFFFFFFFFFFFFFFFFFFFFFFFFFFFFFFFFFFFFFFFFFFFFFF
310
FFFFFFFFFFFFFFFFFFFFFFFFFFFFFFFFFFFFFFFFFFFFFFFFFFFFFFFFFFFFFFFF
310
FFFFFFFFFFFFFFFFFFFFFFFFFFFFFFFFFFFFFFFFFFFFFFFFFFFFFFFFFFFFFFFF
310
FFFFFFFFFFFFFFFFFFFFFFFFFFFFFFFFFFFFFFFFFFFFFFFFFFFFFFFFFFFFFFFF
310
FFFFFFFFFFFFFFFFFFFFFFFFFFFFFFFFFFFFFFFFFFFFFFFFFFFFFFFFFFFFFFFF
310
FFFFFFFFFFFFFFFFFFFFFFFFFFFFFFFFFFFFFFFFFFFFFFFFFFFFFFFFFFFFFFFF
310
FFFFFFFFFFFFFFFFFFFFFFFFFFFFFFFFFFFFFFFFFFFFFFFFFFFFFFFFFFFFFFFF
310
52006F006F007400200045006E00740072007900000000000000000000000000
310
0000000000000000000000000000000000000000000000000000000000000000
310
16000500FFFFFFFFFFFFFFFF020000000A00030000000000C000000000000046
310
00000000000000000000000010E4BFB9F7A6D30103000000C000000000000000
310
01004F006C006500000000000000000000000000000000000000000000000000
310
0000000000000000000000000000000000000000000000000000000000000000
310
0A000200FFFFFFFFFFFFFFFFFFFFFFFF00000000000000000000000000000000
310
0000000000000000000000000000000000000000000000001400000000000000
310
010043006F006D0070004F0062006A0000000000000000000000000000000000
310
0000000000000000000000000000000000000000000000000000000000000000
310
120002010100000003000000FFFFFFFF00000000000000000000000000000000
310
0000000000000000000000000000000000000000010000004D00000000000000
310
01004F006C006500310030004E00610074006900760065000000000000000000
310
0000000000000000000000000000000000000000000000000000000000000000
310
1A000200FFFFFFFFFFFFFFFFFFFFFFFF00000000000000000000000000000000
310
0000000000000000000000000000000000000000040000002426000000000000
310
FEFFFFFF02000000FEFFFFFFFFFFFFFFFFFFFFFFFFFFFFFFFFFFFFFFFFFFFFFF
310
FFFFFFFFFFFFFFFFFFFFFFFFFFFFFFFFFFFFFFFFFFFFFFFFFFFFFFFFFFFFFFFF
310
FFFFFFFFFFFFFFFFFFFFFFFFFFFFFFFFFFFFFFFFFFFFFFFFFFFFFFFFFFFFFFFF
310
FFFFFFFFFFFFFFFFFFFFFFFFFFFFFFFFFFFFFFFFFFFFFFFFFFFFFFFFFFFFFFFF
310
FFFFFFFFFFFFFFFFFFFFFFFFFFFFFFFFFFFFFFFFFFFFFFFFFFFFFFFFFFFFFFFF
310
FFFFFFFFFFFFFFFFFFFFFFFFFFFFFFFFFFFFFFFFFFFFFFFFFFFFFFFFFFFFFFFF
310
FFFFFFFFFFFFFFFFFFFFFFFFFFFFFFFFFFFFFFFFFFFFFFFFFFFFFFFFFFFFFFFF
310
FFFFFFFFFFFFFFFFFFFFFFFFFFFFFFFFFFFFFFFFFFFFFFFFFFFFFFFFFFFFFFFF
310
FFFFFFFFFFFFFFFFFFFFFFFFFFFFFFFFFFFFFFFFFFFFFFFFFFFFFFFFFFFFFFFF
310
FFFFFFFFFFFFFFFFFFFFFFFFFFFFFFFFFFFFFFFFFFFFFFFFFFFFFFFFFFFFFFFF
310
FFFFFFFFFFFFFFFFFFFFFFFFFFFFFFFFFFFFFFFFFFFFFFFFFFFFFFFFFFFFFFFF
310
FFFFFFFFFFFFFFFFFFFFFFFFFFFFFFFFFFFFFFFFFFFFFFFFFFFFFFFFFFFFFFFF
310
FFFFFFFFFFFFFFFFFFFFFFFFFFFFFFFFFFFFFFFFFFFFFFFFFFFFFFFFFFFFFFFF
310
FFFFFFFFFFFFFFFFFFFFFFFFFFFFFFFFFFFFFFFFFFFFFFFFFFFFFFFFFFFFFFFF
310
FFFFFFFFFFFFFFFFFFFFFFFFFFFFFFFFFFFFFFFFFFFFFFFFFFFFFFFFFFFFFFFF
310
FFFFFFFFFFFFFFFFFFFFFFFFFFFFFFFFFFFFFFFFFFFFFFFFFFFFFFFFFFFFFFFF
310
0100000200000000000000000000000000000000000000000000000000000000
310
0000000000000000000000000000000000000000000000000000000000000000
310
0100FEFF030A0000FFFFFFFF0A00030000000000C00000000000004607000000
310
5042727573680007000000504272757368000700000050427275736800F439B2
310
7100000000000000000000000000000000000000000000000000000000000000
310
0000000000000000000000000000000000000000000000000000000000000000
310
0000000000000000000000000000000000000000000000000000000000000000
310
0000000000000000000000000000000000000000000000000000000000000000
310
0000000000000000000000000000000000000000000000000000000000000000
310
0000000000000000000000000000000000000000000000000000000000000000
310
0000000000000000000000000000000000000000000000000000000000000000
310
0000000000000000000000000000000000000000000000000000000000000000
310
0000000000000000000000000000000000000000000000000000000000000000
310
0000000000000000000000000000000000000000000000000000000000000000
310
0000000000000000000000000000000000000000000000000000000000000000
310
0000000000000000000000000000000000000000000000000000000000000000
310
20260000424D0E260000000000003E00000028000000B40200006E0000000100
310
01000000000000000000130B0000130B00000200000002000000000000FFFFFF
310
FFFFFFFFFFFFFFFFFFFFFFFFFFFFFFFFFFFFFFFFFFFFFFFFFFFFFFFFFFFFFFFF
310
FFFFFFFFFFFFFFFFFFFFFFFFFFFFFFFFFFFFFFFFFFFFFFFFFFFFFFFFFFFFFFFF
310
FFFFFFFFFFFFFFFFFFFFFFFFFFFFFFFFFFFFFFFFFFFFFFFFF000FFFFFFFFFFFF
310
FFFFFFFFFFFFFFFFFFFFFFFFFFFFFFFFFFFFFFFFFFFFFFFFFFFFFFFFFFFFFFFF
310
FFFFFFFFFFFFFFFFFFFFFFFFFFFFFFFFFFFFFFFFFFFFFFFFFFFFFFFFFFFFFFFF
310
FFFFFFFFFFFFFFFFFFFFFFFFFFFFFFFFF000FFFFFFFFFFFFFFFFFFFFFFFFFFFF
310
FFFFFFFFFFFFFFFFFFFFFFFFFFFFFFFFFFFFFFFFFFFFFFFFFFFFFFFFFFFFFFFF
310
FFFFFFFFFFFFFFFFFFFFFFFFFFFFFFFFFFFFFFFFFFFFFFFFFFFFFFFFFFFFFFFF
310
FFFFFFFFFFFFFFFFF000FFFFFFFFFFFFFFFFFFFFFFFFFFFFFFFFFFFFFFFFFFFF
310
FFFFFFFFFFFFFFFFFFFFFFFFFFFFFFFFFFFFFFFFFFFFFFFFFFFFFFFFFFFFFFFF
310
FFFFFFFFFFFFFFFFFFFFFFFFFFFFFFFFFFFFFFFFFFFFFFFFFFFFFFFFFFFFFFFF
310
F000FFFFFFFFFFFFFFFFFFFFFFFFFFFFFFFFFFFFFFFFFFFFFFFFFFFFFFFFFFFF
310
FFFFFFFFFFFFFFFFFFFFFFFFFFFFFFFFFFFFFFFFFFFFFFFFFFFFFFFFFFFFFFFF
310
FFFFFFFFFFFFFFFFFFFFFFFFFFFFFFFFFFFFFFFFFFFFFFFFF000FFFFFFFFFFFF
310
FFFFFFFFFFFFFFFFFFFFFFFFFFFFFFFFFFFFFFFFFFFFFFFFFFFFFFFFFFFFFFFF
310
FFFFFFFFFFFFFFFFFFFFFFFFFFFFFFFFFFFFFFFFFFFFFFFFFFFFFFFFFFFFFFFF
310
FFFFFFFFFFFFFFFFFFFFFFFFFFFFFFFFF000FFFFFFFFFFFFFFFFFFFFFFFFFFFF
310
FFFFFFFFFFFFFFFFFFFFFFFFFFFFFFFFFFFFFFFFFFFFFFFFFFFFFFFFFFFFFFFF
310
FFFFFFFFFFFFFFFFFFFFFFFFFFFFFFFFFFFFFFFFFFFFFFFFFFFFFFFFFFFFFFFF
310
FFFFFFFFFFFFFFFFF000FFFFFFFFFFFFFFFFFFFFFFFFFFFFFFFFFFFFFFFFFFFF
310
FFFFFFFFFFFFFFFFFFFFFFFFFFFFFFFFFFFFFFFFFFFFFFFFFFFFFFFFFFFFFFFF
310
FFFFFFFFFFFFFFFFFFFFFFFFFFFFFFFFFFFFFFFFFFFFFFFFFFFFFFFFFFFFFFFF
310
F000FFFFFFFFFFFFFFFFFFFFFFFFFFFFFFFFFFFFFFFFFFFFFFFFFFFFFFFFFFFF
310
FFFFFFFFFFFFFFFFFFFFFFFFFFFFFFFFFFFFFFFFFFFFFFFFFFFFFFFFFFFFFFFF
310
FFFFFFFFFFFFFFFFFFFFFFFFFFFFFFFFFFFFFFFFFFFFFFFFF000FFFFFFFFFFFF
310
FFFFFFFFFFFFFFFFFFFFFFFFFFFFFFFFFFFFFFFFFFFFFFFFFFFFFFFFFFFFFFFF
310
FFFFFFFFFFFFFFFFFFFFFFFFFFFFFFFFFFFFFFFFFFFFFFFFFFFFFFFFFFFFFFFF
310
FFFFFFFFFFFFFFFFFFFFFFFFFFFFFFFFF000FFFFFFFFFFFFFFFFFFFFFFFFFFFF
310
FFFFFFFFFFFFFFFFFFFFFFFFFFFFFFFFFFFFFFFFFFFFFFFFFFFFFFFFFFFFFFFF
310
FFFFFFFFFFFFFFFFFFFFFFFFFFFFFFFFFFFFFFFFFFFFFFFFFFFFFFFFFFFFFFFF
310
FFFFFFFFFFFFFFFFF000FFFFFFFFFFFFFFFFFFFFFFFFFFFFFFFFFFFFFFFFFFFF
310
FFFFFFFFFFFFFFFFFFFFFFFFFFFFFFFFFFFFFFFFFFFFFFFFFFFFFFFFFFFFFFFF
310
FFFFFFFFFFFFFFFFFFFFFFFFFFFFFFFFFFFFFFFFFFFFFFFFFFFFFFFFFFFFFFFF
310
F000FFFFFFFFFFFFFFFFFFFFFFFFFFFFFFFFFFFFFFFFFFFFFFFFFFFFFFFFFFFF
310
FFFFFFFFFFFFFFFFFFFFFFFFFFFFFFFFFFFFFFFFFFFFFFFFFFFFFFFFFFFFFFFF
310
FFFFFFFFFFFFFFFFFFFFFFFFFFFFFFFFFFFFFFFFFFFFFFFFF000FFFFFFFFFFFF
310
FFFFFFFFFFFFFFFFFFFFFFFFFFFFFFFFFFFFFFFFFFFFFFFFFFFFFFFFFFFFFFFF
310
FFFFFFFFFFFFFFFFFFFFFFFFFFFFFFFFFFFFFFFFFFFFFFFFFFFFFFFFFFFFFFFF
310
FFFFFFFFFFFFFFFFFFFFFFFFFFFFFFFFF000FFFFFFFFFFFFFFFFFFFFFFFFFFFF
310
FFFFFFFFFFFFFFFFFFFFFFFFFFFFFFFFFFFFFFFFFFFFFFFFFFFFFFFFFFFFFFFF
310
FFFFFFFFFFFFFFFFFFFFFFFFFFFFFFFFFFFFFFFFFFFFFFFFFFFFFFFFFFFFFFFF
310
FFFFFFFFFFFFFFFFF000FFFFFFFFFFFFFFFFFFFFFFFFFFFFFFFFFFFFFFFFFFFF
310
FFFFFFFFFFFFFFFFFFFFFFFFFFFFFFFFFFFFFFFFFFFFFFFFFFFFFFFFFFFFFFFF
310
FFFFFFFFFFFFFFFFFFFFFFFFFFFFFFFFFFFFFFFFFFFFFFFFFFFFFFFFFFFFFFFF
310
F000FFFFFFFFFFFFFFFFFFFFFFFFFFFFFFFFFFFFFFFFFFFFFFFFFFFFFFFFFFFF
310
FFFFFFFFFFFFFFFFFFFFFFFFFFFFFFFFFFFFFFFFFFFFFFFFFFFFFFFFFFFFFFFF
310
FFFFFFFFFFFFFFFFFFFFFFFFFFFFFFFFFFFFFFFFFFFFFFFFF000FFFFFFFFFFFF
310
FFFFFFFFFFFFFFFFFFFFFFFFFFFFFFFFFFFFFFFFFFFFFFFFFFFFFFFFFFFFFFFF
310
FFFFFFFFFFFFFFFFFFFFFFFFFFFFFFFFFFFFFFFFFFFFFFFFFFFFFFFFFFFFFFFF
310
FFFFFFFFFFFFFFFFFFFFFFFFFFFFFFFFF000FFFFFFFFFFFFFFFFFFFFFFFFFFFF
310
FFFFFFFFFFFFFFFFFFFFFFFFFFFFFFFFFFFFFFFFFFFFFFFFFFFFFFFFFFFFFFFF
310
FFFFFFFFFFFFFFFFFFFFFFFFFFFFFFFFFFFFFFFFFFFFFFFFFFFFFFFFFFFFFFFF
310
FFFFFFFFFFFFFFFFF000FFFFF80003FFFFFFFFFFFFFFFFFFFFFFFFFFFFFFFFFF
310
FFFFF00007FFFFFFFFFF00007FFFFFF800000000000000007FFFFFFFFFFFFFFF
310
FFFFFFFC001FFFFFFFFFFFFFFC001FFFFFFFFFFFFFFFFFFFFFFFFFFE0007FFFF
310
F000FFFF8000007FFFFFFFF8000FFFFFC0007FFFFF80007FFFFF0000007FFFFF
310
FFF8000007FFFFF800000000000000007FFFFFF0001FFFFFFFFFFFC00001FFFF
310
FFFFFFFFC00001FFFFFFFF000000000003FFFFE000007FFFF000FFFE0000000F
310
FFFFFFF0000FFFFF80007FFFFF80007FFFFC0000001FFFFFFFC0000001FFFFF8
310
00000000000000007FFFFFF0001FFFFFFFFFFE0000003FFFFFFFFFFE0000003F
310
FFFFFF000000000003FFFF0000000FFFF000FFF800000003FFFFFFF00007FFFF
310
80007FFFFF80007FFFF000000007FFFFFF000000003FFFF80000000000000000
310
7FFFFFF0001FFFFFFFFFF80000000FFFFFFFFFF80000000FFFFFFF0000000000
310
03FFFC00000003FFF000FFE000000000FFFFFFF00007FFFF80003FFFFF80007F
310
FFC000000001FFFFFC000000001FFFF800000000000000007FFFFFF0001FFFFF
310
FFFFE000000003FFFFFFFFE000000003FFFFFF000000000003FFF000000000FF
310
F000FF80000000007FFFFFF00007FFFF80003FFFFF80007FFF8000000000FFFF
310
F80000000007FFF800000000000000007FFFFFF0001FFFFFFFFFC000000001FF
310
FFFFFFC000000001FFFFFF000000000003FFC0000000007FF000FF0000000000
310
3FFFFFE00007FFFF00003FFFFF80007FFE00000000003FFFF00000000003FFF8
310
00000000000000007FFFFFF0001FFFFFFFFF8000000000FFFFFFFF8000000000
310
FFFFFF000000000003FF80000000003FF000FE00000000001FFFFFE00003FFFF
310
00003FFFFF80007FFC00000000001FFFE00000000001FFF8000001FFFE000000
310
7FFFFFF0001FFFFFFFFE00000000003FFFFFFE00000000003FFFFF0000000000
310
03FF00000000001FF000FC00000000000FFFFFE00003FFFF00001FFFFF80007F
310
F800000000001FFFC00000000000FFF8000001FFFE0000007FFFFFF0001FFFFF
310
FFFC00000000001FFFFFFC00000000001FFFFF000000000003FE00000000000F
310
F000F8000000000007FFFFE00003FFFF00001FFFFF80007FF800000000000FFF
310
800000000000FFF8000001FFFE0000007FFFFFF0001FFFFFFFF800000000000F
310
FFFFF800000000000FFFFF000000000003FC000000000007F000F80000000000
310
03FFFFC00003FFFE00001FFFFF80007FF0000000000007FF0000000000007FF8
310
000001FFFE0000007FFFFFF0001FFFFFFFF0000000000007FFFFF00000000000
310
07FFFF000000000003F8000000000003F000F0000000000003FFFFC00001FFFE
310
00001FFFFF80007FE0000000000007FE0000000000003FF8000001FFFE000000
310
7FFFFFF0001FFFFFFFF0000000000007FFFFF0000000000007FFFF0000000000
310
03F800001F800003F000E00001FFF00001FFFFC00001FFFE00000FFFFF80007F
310
E00001FFE00003FE00001FFF00003FF8000001FFFE0000007FFFFFF0001FFFFF
310
FFE000003E000003FFFFE000003E000003FFFF000000000003F00001FFF80001
310
F000E00007FFFC0001FFFFC00001FFFE00000FFFFF80007FC0000FFFFC0003FC
310
0000FFFFC0001FF8000001FFFE0000007FFFFFF0001FFFFFFFC00003FFE00001
310
FFFFC00003FFE00001FFFF0001FFFFFFFFF00007FFFE0001F000E0000FFFFF00
310
00FFFF800001FFFC00000FFFFF80007FC0001FFFFE0001FC0001FFFFE0001FF8
310
000001FFFE0000007FFFFFF0001FFFFFFF80000FFFF80000FFFF80000FFFF800
310
00FFFF0003FFFFFFFFE0000FFFFF8000F000C0003FFFFF8000FFFF800000FFFC
310
000007FFFF80007F80003FFFFF0001FC0003FFFFF0001FF8000001FFFE000000
310
7FFFFFF0001FFFFFFF80003FFFFE0000FFFF80003FFFFE0000FFFF0003FFFFFF
310
FFE0003FFFFF8000F000C0003FFFFF8000FFFF800000FFFC000007FFFF80007F
310
80007FFFFF8001F80007FFFFF8000FF8000001FFFE0000007FFFFFF0001FFFFF
310
FF00007FFFFF00007FFF00007FFFFF00007FFF0003FFFFFFFFE0003FFFFFC000
310
F000C0007FFFFFC000FFFF000000FFFC000007FFFF80007F8000FFFFFF8000F8
310
000FFFFFF8000FF8000001FFFE0000007FFFFFF0001FFFFFFF0000FFFFFF8000
310
7FFF0000FFFFFF80007FFF0003FFFFFFFFC0007FFFFFC00070008000FFFFFFC0
310
00FFFF000000FFF8000007FFFF80007F8000FFFFFF8000F8000FFFFFF8000FF8
310
000001FFFE0000007FFFFFF0001FFFFFFE0001FFFFFFC0003FFE0001FFFFFFC0
310
003FFF0003FFFFFFFFC0007FFFFFE00070008000FFFFFFC0007FFF0000007FF8
310
000003FFFF80007F0001FFFFFF8000F8000FFFFFF8000FF8000001FFFE000000
310
7FFFFFF0001FFFFFFE0001FFFFFFC0003FFE0001FFFFFFC0003FFF0003FFFFFF
310
FFC000FFFFFFE00070008000FFFFFFC0007FFF0000007FF8000003FFFF80007F
310
0001FFFFFF8000F8001FFFFFF8000FF8000001FFFE0000007FFFFFF0001FFFFF
310
FE0003FFFFFFE0003FFE0003FFFFFFE0003FFF0003FFFFFFFFC000FFFFFFE000
310
70008000FFFFFFC0007FFE0000007FF8000003FFFF80007F0001FFFFFF8000F0
310
001FFFFFF8000FF8000001FFFE0000007FFFFFF0001FFFFFFC0003FFFFFFE000
310
1FFC0003FFFFFFE0001FFF0003FFFFFFFFC000FFFFFFC00070008000FFFFFF80
310
007FFE0000007FF0000003FFFF80007F0001FFFFFF0000F0001FFFFFF8000FF8
310
000001FFFE0000007FFFFFF0001FFFFFFC0007FFFFFFF0001FFC0007FFFFFFF0
310
001FFF0003FFFFFFFFC000FFFFFFC00070008001FFFFFF0000FFFE0000003FF0
310
000001FFFF80007F0001FFFFFF0000F8001FFFFFF0000FF8000001FFFE000000
310
7FFFFFF0001FFFFFFC0007FFFFFFF0001FFC0007FFFFFFF0001FFF0003FFFFFF
310
FFC001FFFFFF80007000FFFFFFFFFE0000FFFE0008003FF0008001FFFF80007F
310
FFFFFFFFFC0000FFFFFFFFFFE0000FF8000001FFFE0000007FFFFFF0001FFFFF
310
F8000FFFFFFFF8000FF8000FFFFFFFF8000FFF0003FFFFFFFFFFFFFFFFFF0000
310
7000FFFFFFFFFC0000FFFC0008003FF0008001FFFF80007FFFFFFFFFF80001FF
310
FFFFFFFF80000FF8000001FFFE0000007FFFFFF0001FFFFFF8000FFFFFFFF800
310
0FF8000FFFFFFFF8000FFF0003FFFFFFFFFFFFFFFFFE0000F000FFFFFFFFE000
310
00FFFC000C003FE000C001FFFF80007FFFFFFFFFC00001FFFFFFFFFE00001FF8
310
000001FFFE0000007FFFFFF0001FFFFFF8000FFFFFFFF8000FF8000FFFFFFFF8
310
000FFF0003FFFFFFFFFFFFFFFFF00000F000FFFFFFFE000001FFFC000C001FE0
310
00C000FFFF80007FFFFFFFFE000001FFFFFFFFE000001FF80FFFFFFFFFFFFFC0
310
7FFFFFF0001FFFFFF8000FFFFFFFF8000FF8000FFFFFFFF8000FFF0003FFFFFF
310
FFFFFFFFFF800000F000FFFFFFC0000001FFFC001C001FE001C000FFFF80007F
310
FFFFFF80000003FFFFFFF80000001FF80FFFFFFFFFFFFFC07FFFFFF0001FFFFF
310
F8001FFFFFFFFC000FF8001FFFFFFFFC000FFF0003FFFFFFFFFFFFFFF0000001
310
F000FFFFF800000001FFF8001C001FE001C000FFFF80007FFFFFF800000003FF
310
FFFF800000003FF80FFFFFFFFFFFFFC07FFFFFF0001FFFFFF8001FFFFFFFFC00
310
0FF8001FFFFFFFFC000FFF0003FFFFFFFFFFFFFE00000001F000FFFFC0000000
310
03FFF8001E001FC001E000FFFF80007FFFFF8000000007FFFFFC000000003FF8
310
0FFFFFFFFFFFFFC07FFFFFF0001FFFFFF8001FFFFFFFFC000FF8001FFFFFFFFC
310
000FFF0003FFFFFFFFFFFFE000000003F000FFFE0000000007FFF8001E000FC0
310
01E0007FFF80007FFFFE0000000007FFFFE0000000007FF80FFFFFFFFFFFFFC0
310
7FFFFFF0001FFFFFF0001FFFFFFFFC0007F0001FFFFFFFFC0007FF0003FFFFFF
310
FFFFFF0000000003F000FFF80000000007FFF8001E000FC003E0007FFF80007F
310
FFF0000000000FFFFF8000000000FFF80FFFFFFFFFFFFFC07FFFFFF0001FFFFF
310
F0001FFFFFFFFC0007F0001FFFFFFFFC0007FF0003FFFFFFFFFFFC0000000007
310
F000FFE0000000000FFFF0003E000FC003E0007FFF80007FFFC0000000001FFF
310
FE0000000001FFF80FFFFFFFFFFFFFC07FFFFFF0001FFFFFF0001FFFFFFFFC00
310
07F0001FFFFFFFFC0007FF0003FFFFFFFFFFF0000000000FF000FFC000000000
310
1FFFF0003F000F8003F0003FFF80007FFF80000000003FFFF80000000003FFF8
310
0FFFFFFFFFFFFFC07FFFFFF0001FFFFFF0001FFFFFFFFC0007F0001FFFFFFFFC
310
0007FF0003FFFFFFFFFFE0000000001FF000FF00000000007FFFF0003F000780
310
03F0003FFF80007FFF00000000007FFFF00000000007FFF80FFFFFFFFFFFFFC0
310
7FFFFFF0001FFFFFF0001FFFFFFFFC0007F0001FFFFFFFFC0007FF0003FFFFFF
310
FFFF80000000007FF000FE0000000000FFFFE0003F00078007F0003FFF80007F
310
FE0000000001FFFFE0000000001FFFF80FFFFFFFFFFFFFC07FFFFFF0001FFFFF
310
F0001FFFFFFFFC0007F0001FFFFFFFFC0007FF0003FFFFFFFFFF0000000000FF
310
F000FC0000000003FFFFE0007F00078007F0003FFF80007FFC0000000007FFFF
310
C0000000007FFFF80FFFFFFFFFFFFFC07FFFFFF0001FFFFFF8001FFFFFFFFC00
310
0FF8001FFFFFFFFC000FFF0003FFFFFFFFFE0000000003FFF000FC000000000F
310
FFFFE0007F80070007F8001FFF80007FF8000000001FFFFF8000000001FFFFF8
310
0FFFFFFFFFFFFFC07FFFFFF0001FFFFFF8001FFFFFFFFC000FF8001FFFFFFFFC
310
000FFF0003FFFFFFFFFC000000000FFFF000F8000000007FFFFFE0007F800700
310
07F8001FFF80007FF000000000FFFFFF800000000FFFFFF80FFFFFFFFFFFFFC0
310
7FFFFFF0001FFFFFF8000FFFFFFFF8000FF8000FFFFFFFF8000FFF0003FFFFFF
310
FFFC000000007FFFF000F800000007FFFFFFC0007F8003000FF8001FFF80007F
310
F000000007FFFFFF000000007FFFFFF80FFFFFFFFFFFFFC07FFFFFF0001FFFFF
310
F8000FFFFFFFF8000FF8000FFFFFFFF8000FFF0003FFFFFFFFF80000000FFFFF
310
F000F0000000FFFFFFFFC000FF8003000FF8001FFF80007FE0000000FFFFFFFF
310
0000000FFFFFFFF8000001FFFE0000007FFFFFF0001FFFFFF8000FFFFFFFF800
310
0FF8000FFFFFFFF8000FFF0003FFFFFFFFF8000000FFFFFFF000F000000FFFFF
310
FFFFC000FFC002000FF8000FFF80007FE000001FFFFFFFFE000001FFFFFFFFF8
310
000001FFFE0000007FFFFFF0001FFFFFF8000FFFFFFFF8000FF8000FFFFFFFF8
310
000FFF0003FFFFFFFFF000001FFFFFFFF000E00000FFFFFFFFFFC000FFC00200
310
0FFC000FFF80007FE00001FFFFFFFFFE00001FFFFFFFFFF8000001FFFE000000
310
7FFFFFF0001FFFFFFC000FFFFFFFF8001FFC000FFFFFFFF8001FFF0003FFFFFF
310
FFF00001FFFFFFFFF000E00007FFFFFFFFFF8000FFC000001FFC000FFF80007F
310
C0000FFFFFFFFFFE0000FFFFFFFFFFF8000001FFFE0000007FFFFFF0001FFFFF
310
FC0007FFFFFFF0001FFC0007FFFFFFF0001FFF0003FFFFFFFFF00007FFFFFFFF
310
F000E0001FFFFFFFFFFF8000FFC000001FFC000FFF80007FC0003FFFFFFFFFFE
310
0001FFFFFFFFFFF8000001FFFE0000007FFFFFF0001FFFFFFC0007FFFFFFF000
310
1FFC0007FFFFFFF0001FFF0003FFFFFFFFF0001FFFFFFFFFF000E0003FFFFF00
310
03FF8001FFE000001FFC0007FF80007FC0007FFFFF0007FC0003FFFFF0003FF8
310
000001FFFE0000007FFFFFF0001FFFFFFC0003FFFFFFE0001FFC0003FFFFFFE0
310
001FFF0003FFFFFFFFF0003FFFFFFFFFF000E0003FFFFF0001FF8001FFE00000
310
1FFE0007FF80007FC0007FFFFE0003FC0007FFFFE0003FF8000001FFFE000000
310
7FFFFFF0001FFFFFFE0003FFFFFFE0003FFE0003FFFFFFE0003FFF0003FFFFFF
310
FFF0003FFFFF8001F000E0003FFFFF0001FF0001FFE000001FFE0007FF80007F
310
C0007FFFFE0003FC0007FFFFE0003FF8000001FFFE0000007FFFFFF0001FFFFF
310
FE0001FFFFFFC0003FFE0001FFFFFFC0003FFF0003FFFFFFFFF0003FFFFF0001
310
F000E0003FFFFF0003FF0001FFE000003FFE0007FF80007FC0007FFFFE0003FC
310
0007FFFFE0003FF8000001FFFE0000007FFFFFF0001FFFFFFF0001FFFFFFC000
310
7FFF0001FFFFFFC0007FFF0003FFFFFFFFF0003FFFFF0001F000E0003FFFFE00
310
03FF0003FFF000003FFE0003FF80007FC0007FFFFC0003FE0007FFFFE0003FF8
310
000001FFFE0000007FFFFFF0001FFFFFFF0000FFFFFF80007FFF0000FFFFFF80
310
007FFF0003FFFFFFFFF0003FFFFF0001F000E0003FFFFE0003FF0003FFF00000
310
3FFF0003FF80007FC0007FFFFC0007FE0007FFFFC0003FF8000001FFFE000000
310
7FFFFFF0001FFFFFFF80007FFFFF0000FFFF80007FFFFF0000FFFF0003FFFFFF
310
FFF0003FFFFF0003F000E0003FFFFC0003FE0003FFF000003FFF0003FF80007F
310
E0003FFFF80007FE0003FFFFC0007FF8000001FFFE0000007FFFFFF0001FFFFF
310
FF80003FFFFE0000FFFF80003FFFFE0000FFFF0003FFFFFFFFF0001FFFFE0003
310
F000F0001FFFF80003FE0003FFF000007FFF0001FF80007FE0003FFFF00007FE
310
0001FFFF80007FF8000001FFFE0000007FFFFFF0001FFFFFFFC0000FFFF80001
310
FFFFC0000FFFF80001FFFF0003FFFFFFFFF0001FFFFC0003F000F0000FFFF000
310
07FE0007FFF800007FFF0001FF80007FE0001FFFE00007FF0000FFFE00007FF8
310
000001FFFE0000007FFFFFF0001FFFFFFFC00003FFE00001FFFFC00003FFE000
310
01FFFF0003FFFFFFFFF8000FFFF80003F000F00003FFC00007FC0007FFF80000
310
7FFF8001FF80007FF00007FF80000FFF00007FF80000FFF8000001FFFE000000
310
7F80000000000001FFE000003E000003FFFFE000003E000003FFFF0003FFFFFF
310
FFF80003FFE00007F000F800000000000FFC0007FFF800007FFF8001FF80007F
310
F000000000000FFF000000000000FFF8000001FFFE0000007F80000000000001
310
FFF0000000000007FFFFF0000000000007FFFF0003FFFFFFFFFC00007E000007
310
F000F800000000000FFC0007FFF80000FFFF8000FF80007FF800000000001FFF
310
800000000001FFF8000001FFFE0000007F80000000000001FFF800000000000F
310
FFFFF800000000000FFFFF0003FFFFFFFFFC00000000000FF000FC0000000000
310
1FFC0007FFFC0000FFFF8000FF80007FF800000000003FFFC00000000001FFF8
310
000001FFFE0000007F80000000000001FFF800000000000FFFFFF80000000000
310
0FFFFF0003FFFFFFFFFE00000000001FF000FE00000000003FF8000FFFFC0000
310
FFFF8000FF80007FFC00000000003FFFC00000000003FFF8000001FFFE000000
310
7F80000000000001FFFC00000000001FFFFFFC00000000001FFFFF0003FFFFFF
310
FFFF00000000001FF000FF00000000003FF8000FFFFC0000FFFFC000FF80007F
310
FE00000000007FFFE00000000007FFF8000001FFFE0000007F80000000000001
310
FFFE00000000003FFFFFFE00000000003FFFFF0003FFFFFFFFFF80000000003F
310
F000FF80000000007FF8000FFFFC0001FFFFC0007F80007FFF0000000000FFFF
310
F0000000000FFFF800000000000000007F80000000000001FFFF8000000000FF
310
FFFFFF8000000000FFFFFF0003FFFFFFFFFFC0000000007FF000FFC000000000
310
FFF8000FFFFE0001FFFFC0007F80007FFF8000000001FFFFF8000000001FFFF8
310
00000000000000007F80000000000001FFFFC000000001FFFFFFFFC000000001
310
FFFFFF0003FFFFFFFFFFE000000000FFF000FFE000000003FFF0001FFFFE0001
310
FFFFC0007F80007FFFC000000007FFFFFE000000003FFFF80000000000000000
310
7F80000000000001FFFFE000000003FFFFFFFFE000000003FFFFFF0003FFFFFF
310
FFFFF000000003FFF000FFF80000000FFFF0001FFFFE0001FFFFE0007F80007F
310
FFF00000000FFFFFFF00000000FFFFF800000000000000007F80000000000001
310
FFFFF80000000FFFFFFFFFF80000000FFFFFFF0003FFFFFFFFFFFC0000000FFF
310
F000FFFE0000003FFFF0001FFFFE0003FFFFE0003F80007FFFFC0000003FFFFF
310
FFC0000003FFFFF800000000000000007F80000000000001FFFFFE0000003FFF
310
FFFFFFFE0000003FFFFFFF0003FFFFFFFFFFFF0000003FFFF000FFFF800000FF
310
FFF0001FFFFF0003FFFFE0003F80007FFFFF000001FFFFFFFFF800001FFFFFF8
310
00000000000000007F80000000000001FFFFFFC00001FFFFFFFFFFFFC00001FF
310
FFFFFF0003FFFFFFFFFFFFC00000FFFFF000FFFFF8000FFFFFFFFFFFFFFFFFFF
310
FFFFFFFFFFFFFFFFFFFFF0001FFFFFFFFFFF0000FFFFFFF80000000000000000
310
7FFFFFFFFFFFFFFFFFFFFFFC001FFFFFFFFFFFFFFC001FFFFFFFFFFFFFFFFFFF
310
FFFFFFFC001FFFFFF000FFFFFFFFFFFFFFFFFFFFFFFFFFFFFFFFFFFFFFFFFFFF
310
FFFFFFFFFFFFFFFFFFFFFFFFFFFFFFFFFFFFFFFFFFFFFFFFFFFFFFFFFFFFFFFF
310
FFFFFFFFFFFFFFFFFFFFFFFFFFFFFFFFFFFFFFFFFFFFFFFFFFFFFFFFFFFFFFFF
310
F000FFFFFFFFFFFFFFFFFFFFFFFFFFFFFFFFFFFFFFFFFFFFFFFFFFFFFFFFFFFF
310
FFFFFFFFFFFFFFFFFFFFFFFFFFFFFFFFFFFFFFFFFFFFFFFFFFFFFFFFFFFFFFFF
310
FFFFFFFFFFFFFFFFFFFFFFFFFFFFFFFFFFFFFFFFFFFFFFFFF000FFFFFFFFFFFF
310
FFFFFFFFFFFFFFFFFFFFFFFFFFFFFFFFFFFFFFFFFFFFFFFFFFFFFFFFFFFFFFFF
310
FFFFFFFFFFFFFFFFFFFFFFFFFFFFFFFFFFFFFFFFFFFFFFFFFFFFFFFFFFFFFFFF
310
FFFFFFFFFFFFFFFFFFFFFFFFFFFFFFFFF000FFFFFFFFFFFFFFFFFFFFFFFFFFFF
310
FFFFFFFFFFFFFFFFFFFFFFFFFFFFFFFFFFFFFFFFFFFFFFFFFFFFFFFFFFFFFFFF
310
FFFFFFFFFFFFFFFFFFFFFFFFFFFFFFFFFFFFFFFFFFFFFFFFFFFFFFFFFFFFFFFF
310
FFFFFFFFFFFFFFFFF000FFFFFFFFFFFFFFFFFFFFFFFFFFFFFFFFFFFFFFFFFFFF
310
FFFFFFFFFFFFFFFFFFFFFFFFFFFFFFFFFFFFFFFFFFFFFFFFFFFFFFFFFFFFFFFF
310
FFFFFFFFFFFFFFFFFFFFFFFFFFFFFFFFFFFFFFFFFFFFFFFFFFFFFFFFFFFFFFFF
310
F000FFFFFFFFFFFFFFFFFFFFFFFFFFFFFFFFFFFFFFFFFFFFFFFFFFFFFFFFFFFF
310
FFFFFFFFFFFFFFFFFFFFFFFFFFFFFFFFFFFFFFFFFFFFFFFFFFFFFFFFFFFFFFFF
310
FFFFFFFFFFFFFFFFFFFFFFFFFFFFFFFFFFFFFFFFFFFFFFFFF000FFFFFFFFFFFF
310
FFFFFFFFFFFFFFFFFFFFFFFFFFFFFFFFFFFFFFFFFFFFFFFFFFFFFFFFFFFFFFFF
310
FFFFFFFFFFFFFFFFFFFFFFFFFFFFFFFFFFFFFFFFFFFFFFFFFFFFFFFFFFFFFFFF
310
FFFFFFFFFFFFFFFFFFFFFFFFFFFFFFFFF000FFFFFFFFFFFFFFFFFFFFFFFFFFFF
310
FFFFFFFFFFFFFFFFFFFFFFFFFFFFFFFFFFFFFFFFFFFFFFFFFFFFFFFFFFFFFFFF
310
FFFFFFFFFFFFFFFFFFFFFFFFFFFFFFFFFFFFFFFFFFFFFFFFFFFFFFFFFFFFFFFF
310
FFFFFFFFFFFFFFFFF000FFFFFFFFFFFFFFFFFFFFFFFFFFFFFFFFFFFFFFFFFFFF
310
FFFFFFFFFFFFFFFFFFFFFFFFFFFFFFFFFFFFFFFFFFFFFFFFFFFFFFFFFFFFFFFF
310
FFFFFFFFFFFFFFFFFFFFFFFFFFFFFFFFFFFFFFFFFFFFFFFFFFFFFFFFFFFFFFFF
310
F000FFFFFFFFFFFFFFFFFFFFFFFFFFFFFFFFFFFFFFFFFFFFFFFFFFFFFFFFFFFF
310
FFFFFFFFFFFFFFFFFFFFFFFFFFFFFFFFFFFFFFFFFFFFFFFFFFFFFFFFFFFFFFFF
310
FFFFFFFFFFFFFFFFFFFFFFFFFFFFFFFFFFFFFFFFFFFFFFFFF000FFFFFFFFFFFF
310
FFFFFFFFFFFFFFFFFFFFFFFFFFFFFFFFFFFFFFFFFFFFFFFFFFFFFFFFFFFFFFFF
310
FFFFFFFFFFFFFFFFFFFFFFFFFFFFFFFFFFFFFFFFFFFFFFFFFFFFFFFFFFFFFFFF
310
FFFFFFFFFFFFFFFFFFFFFFFFFFFFFFFFF000FFFFFFFFFFFFFFFFFFFFFFFFFFFF
310
FFFFFFFFFFFFFFFFFFFFFFFFFFFFFFFFFFFFFFFFFFFFFFFFFFFFFFFFFFFFFFFF
310
FFFFFFFFFFFFFFFFFFFFFFFFFFFFFFFFFFFFFFFFFFFFFFFFFFFFFFFFFFFFFFFF
310
FFFFFFFFFFFFFFFFF000FFFFFFFFFFFFFFFFFFFFFFFFFFFFFFFFFFFFFFFFFFFF
310
FFFFFFFFFFFFFFFFFFFFFFFFFFFFFFFFFFFFFFFFFFFFFFFFFFFFFFFFFFFFFFFF
310
FFFFFFFFFFFFFFFFFFFFFFFFFFFFFFFFFFFFFFFFFFFFFFFFFFFFFFFFFFFFFFFF
310
F000FFFFFFFFFFFFFFFFFFFFFFFFFFFFFFFFFFFFFFFFFFFFFFFFFFFFFFFFFFFF
310
FFFFFFFFFFFFFFFFFFFFFFFFFFFFFFFFFFFFFFFFFFFFFFFFFFFFFFFFFFFFFFFF
310
FFFFFFFFFFFFFFFFFFFFFFFFFFFFFFFFFFFFFFFFFFFFFFFFF000FFFFFFFFFFFF
310
FFFFFFFFFFFFFFFFFFFFFFFFFFFFFFFFFFFFFFFFFFFFFFFFFFFFFFFFFFFFFFFF
310
FFFFFFFFFFFFFFFFFFFFFFFFFFFFFFFFFFFFFFFFFFFFFFFFFFFFFFFFFFFFFFFF
310
FFFFFFFFFFFFFFFFFFFFFFFFFFFFFFFFF000FFFFFFFFFFFFFFFFFFFFFFFFFFFF
310
FFFFFFFFFFFFFFFFFFFFFFFFFFFFFFFFFFFFFFFFFFFFFFFFFFFFFFFFFFFFFFFF
310
FFFFFFFFFFFFFFFFFFFFFFFFFFFFFFFFFFFFFFFFFFFFFFFFFFFFFFFFFFFFFFFF
310
FFFFFFFFFFFFFFFFF000FFFFFFFFFFFFFFFFFFFFFFFFFFFFFFFFFFFFFFFFFFFF
310
FFFFFFFFFFFFFFFFFFFFFFFFFFFFFFFFFFFFFFFFFFFFFFFFFFFFFFFFFFFFFFFF
310
FFFFFFFFFFFFFFFFFFFFFFFFFFFFFFFFFFFFFFFFFFFFFFFFFFFFFFFFFFFFFFFF
310
F000FFFFFFFFFFFFFFFFFFFFFFFFFFFFFFFFFFFFFFFFFFFFFFFFFFFFFFFFFFFF
310
FFFFFFFFFFFFFFFFFFFFFFFFFFFFFFFFFFFFFFFFFFFFFFFFFFFFFFFFFFFFFFFF
310
FFFFFFFFFFFFFFFFFFFFFFFFFFFFFFFFFFFFFFFFFFFFFFFFF000FFFFFFFFFFFF
310
FFFFFFFFFFFFFFFFFFFFFFFFFFFFFFFFFFFFFFFFFFFFFFFFFFFFFFFFFFFFFFFF
310
FFFFFFFFFFFFFFFFFFFFFFFFFFFFFFFFFFFFFFFFFFFFFFFFFFFFFFFFFFFFFFFF
310
FFFFFFFFFFFFFFFFFFFFFFFFFFFFFFFFF000FFFFFFFFFFFFFFFFFFFFFFFFFFFF
310
FFFFFFFFFFFFFFFFFFFFFFFFFFFFFFFFFFFFFFFFFFFFFFFFFFFFFFFFFFFFFFFF
310
FFFFFFFFFFFFFFFFFFFFFFFFFFFFFFFFFFFFFFFFFFFFFFFFFFFFFFFFFFFFFFFF
310
FFFFFFFFFFFFFFFFF000FFFFFFFFFFFFFFFFFFFFFFFFFFFFFFFFFFFFFFFFFFFF
310
FFFFFFFFFFFFFFFFFFFFFFFFFFFFFFFFFFFFFFFFFFFFFFFFFFFFFFFFFFFFFFFF
310
FFFFFFFFFFFFFFFFFFFFFFFFFFFFFFFFFFFFFFFFFFFFFFFFFFFFFFFFFFFFFFFF
310
F000FFFFFFFFFFFFFFFFFFFFFFFFFFFFFFFFFFFFFFFFFFFFFFFFFFFFFFFFFFFF
310
FFFFFFFFFFFFFFFFFFFFFFFFFFFFFFFFFFFFFFFFFFFFFFFFFFFFFFFFFFFFFFFF
310
FFFFFFFFFFFFFFFFFFFFFFFFFFFFFFFFFFFFFFFFFFFFFFFFF000FFFFFFFFFFFF
310
FFFFFFFFFFFFFFFFFFFFFFFFFFFFFFFFFFFFFFFFFFFFFFFFFFFFFFFFFFFFFFFF
310
FFFFFFFFFFFFFFFFFFFFFFFFFFFFFFFFFFFFFFFFFFFFFFFFFFFFFFFFFFFFFFFF
310
FFFFFFFFFFFFFFFFFFFFFFFFFFFFFFFFF0000000000000000000000000000000
310
0000000000000000000000000000000000000000000000000000000000000000
310
0000000000000000000000000000000000000000000000000000000000000000
310
0000000000000000000000000000000000000000000000000000000000000000
310
0000000000000000000000000000000000000000000000000000000000000000
310
0000000000000000000000000000000000000000000000000000000000000000
310
0000000000000000000000000000000000000000000000000000000000000000
310
0000000000000000000000000000000000000000000000000000000000000000
310
0000000000000000000000000000000000000000000000000000000000000000
310
0000000000000000000000000000000000000000000000000000000000000000
310
0000000000000000000000000000000000000000000000000000000000000000
310
0000000000000000000000000000000000000000000000000000000000000000
310
0000000000000000000000000000000000000000000000000000000000000000
310
0000000000000000000000000000000000000000000000000000000000000000
310
0000000000000000000000000000000000000000000000000000000000000000
310
0000000000000000000000000000000000000000000000000000000000000000
  1
OLE
  0
ENDSEC
  0
SECTION
  2
OBJECTS
  0
DICTIONARY
  5
C
330
0
100
AcDbDictionary
281
     1
  3
ACAD_GROUP
350
D
  3
ACAD_LAYOUT
350
1A
  3
ACAD_MLINESTYLE
350
17
  3
ACAD_PLOTSETTINGS
350
19
  3
ACAD_PLOTSTYLENAME
350
E
  3
ACAD_SCALELIST
350
47
  0
DICTIONARY
  5
D
102
{ACAD_REACTORS
330
C
102
}
330
C
100
AcDbDictionary
281
     1
  0
DICTIONARY
  5
1A
102
{ACAD_REACTORS
330
C
102
}
330
C
100
AcDbDictionary
281
     1
  3
Layout1
350
1E
  3
Layout2
350
26
  3
Model
350
22
  0
DICTIONARY
  5
17
102
{ACAD_REACTORS
330
C
102
}
330
C
100
AcDbDictionary
281
     1
  3
Standard
350
18
  0
DICTIONARY
  5
19
102
{ACAD_REACTORS
330
C
102
}
330
C
100
AcDbDictionary
281
     1
  0
ACDBDICTIONARYWDFLT
  5
E
102
{ACAD_REACTORS
330
C
102
}
330
C
100
AcDbDictionary
281
     1
  3
Normal
350
F
100
AcDbDictionaryWithDefault
340
F
  0
DICTIONARY
  5
47
102
{ACAD_REACTORS
330
C
102
}
330
C
100
AcDbDictionary
281
     1
  3
A0
350
48
  3
A1
350
49
  3
A2
350
4A
  3
A3
350
4B
  3
A4
350
4C
  3
A5
350
4D
  3
A6
350
4E
  3
A7
350
4F
  3
A8
350
50
  3
A9
350
51
  3
B0
350
52
  3
B1
350
53
  3
B2
350
54
  3
B3
350
55
  3
B4
350
56
  3
B5
350
57
  3
B6
350
58
  3
B7
350
59
  3
B8
350
5A
  3
B9
350
5B
  3
C0
350
5C
  3
C1
350
5D
  3
C2
350
5E
  3
C3
350
5F
  3
C4
350
60
  3
C5
350
61
  3
C6
350
62
  3
C7
350
63
  3
C8
350
64
  3
C9
350
65
  3
D0
350
66
  3
D1
350
67
  3
D2
350
68
  0
LAYOUT
  5
1E
102
{ACAD_REACTORS
330
1A
102
}
330
1A
100
AcDbPlotSettings
  1

  2
none_device
  4

  6

 40
0.0
 41
0.0
 42
0.0
 43
0.0
 44
0.0
 45
0.0
 46
0.0
 47
0.0
 48
0.0
 49
0.0
140
0.0
141
0.0
142
1.0
143
1.0
 70
   688
 72
     1
 73
     0
 74
     5
  7

 75
    16
147
1.0
148
0.0
149
0.0
100
AcDbLayout
  1
Layout1
 70
     1
 71
     1
 10
0.0
 20
0.0
 11
420.0
 21
297.0
 12
0.0
 22
0.0
 32
0.0
 14
1.0000000000E+20
 24
1.0000000000E+20
 34
1.0000000000E+20
 15
-1.0000000000E+20
 25
-1.0000000000E+20
 35
-1.0000000000E+20
146
0.0
 13
0.0
 23
0.0
 33
0.0
 16
1.0
 26
0.0
 36
0.0
 17
0.0
 27
1.0
 37
0.0
 76
     0
330
1B
  0
LAYOUT
  5
26
102
{ACAD_REACTORS
330
1A
102
}
330
1A
100
AcDbPlotSettings
  1

  2
none_device
  4

  6

 40
0.0
 41
0.0
 42
0.0
 43
0.0
 44
0.0
 45
0.0
 46
0.0
 47
0.0
 48
0.0
 49
0.0
140
0.0
141
0.0
142
1.0
143
1.0
 70
   688
 72
     1
 73
     0
 74
     5
  7

 75
    16
147
1.0
148
0.0
149
0.0
100
AcDbLayout
  1
Layout2
 70
     1
 71
     2
 10
0.0
 20
0.0
 11
0.0
 21
0.0
 12
0.0
 22
0.0
 32
0.0
 14
0.0
 24
0.0
 34
0.0
 15
0.0
 25
0.0
 35
0.0
146
0.0
 13
0.0
 23
0.0
 33
0.0
 16
1.0
 26
0.0
 36
0.0
 17
0.0
 27
1.0
 37
0.0
 76
     0
330
23
  0
LAYOUT
  5
22
102
{ACAD_REACTORS
330
1A
102
}
330
1A
100
AcDbPlotSettings
  1

  2
none_device
  4
Letter_(8.50_x_11.00_Inches)
  6

 40
6.35
 41
6.35
 42
6.35000508
 43
6.35000508
 44
215.9
 45
279.4
 46
0.0
 47
0.0
 48
0.0
 49
0.0
140
0.0
141
0.0
142
1.0
143
1.0
 70
  1712
 72
     1
 73
     0
 74
     0
  7

 75
     0
147
1.0
148
0.0
149
0.0
100
AcDbLayout
  1
Model
 70
     1
 71
     0
 10
0.0
 20
0.0
 11
297.0
 21
210.0
 12
0.0
 22
0.0
 32
0.0
 14
0.0
 24
0.0
 34
0.0
 15
297.0
 25
210.0
 35
0.0
146
0.0
 13
0.0
 23
0.0
 33
0.0
 16
1.0
 26
0.0
 36
0.0
 17
0.0
 27
1.0
 37
0.0
 76
     0
330
1F
331
29
  0
MLINESTYLE
  5
18
102
{ACAD_REACTORS
330
17
102
}
330
17
100
AcDbMlineStyle
  2
Standard
 70
     0
  3

 62
   256
 51
90.0
 52
90.0
 71
     2
 49
0.5
 62
   256
  6
BYLAYER
 49
-0.5
 62
   256
  6
BYLAYER
  0
ACDBPLACEHOLDER
  5
F
102
{ACAD_REACTORS
330
E
102
}
330
E
  0
SCALE
  5
48
102
{ACAD_REACTORS
330
47
102
}
330
47
100
AcDbScale
 70
     0
300
1:1
140
1.0
141
1.0
290
     1
  0
SCALE
  5
49
102
{ACAD_REACTORS
330
47
102
}
330
47
100
AcDbScale
 70
     0
300
1:2
140
1.0
141
2.0
290
     0
  0
SCALE
  5
4A
102
{ACAD_REACTORS
330
47
102
}
330
47
100
AcDbScale
 70
     0
300
1:4
140
1.0
141
4.0
290
     0
  0
SCALE
  5
4B
102
{ACAD_REACTORS
330
47
102
}
330
47
100
AcDbScale
 70
     0
300
1:5
140
1.0
141
5.0
290
     0
  0
SCALE
  5
4C
102
{ACAD_REACTORS
330
47
102
}
330
47
100
AcDbScale
 70
     0
300
1:8
140
1.0
141
8.0
290
     0
  0
SCALE
  5
4D
102
{ACAD_REACTORS
330
47
102
}
330
47
100
AcDbScale
 70
     0
300
1:10
140
1.0
141
10.0
290
     0
  0
SCALE
  5
4E
102
{ACAD_REACTORS
330
47
102
}
330
47
100
AcDbScale
 70
     0
300
1:16
140
1.0
141
16.0
290
     0
  0
SCALE
  5
4F
102
{ACAD_REACTORS
330
47
102
}
330
47
100
AcDbScale
 70
     0
300
1:20
140
1.0
141
20.0
290
     0
  0
SCALE
  5
50
102
{ACAD_REACTORS
330
47
102
}
330
47
100
AcDbScale
 70
     0
300
1:30
140
1.0
141
30.0
290
     0
  0
SCALE
  5
51
102
{ACAD_REACTORS
330
47
102
}
330
47
100
AcDbScale
 70
     0
300
1:40
140
1.0
141
40.0
290
     0
  0
SCALE
  5
52
102
{ACAD_REACTORS
330
47
102
}
330
47
100
AcDbScale
 70
     0
300
1:50
140
1.0
141
50.0
290
     0
  0
SCALE
  5
53
102
{ACAD_REACTORS
330
47
102
}
330
47
100
AcDbScale
 70
     0
300
1:100
140
1.0
141
100.0
290
     0
  0
SCALE
  5
54
102
{ACAD_REACTORS
330
47
102
}
330
47
100
AcDbScale
 70
     0
300
2:1
140
2.0
141
1.0
290
     0
  0
SCALE
  5
55
102
{ACAD_REACTORS
330
47
102
}
330
47
100
AcDbScale
 70
     0
300
4:1
140
4.0
141
1.0
290
     0
  0
SCALE
  5
56
102
{ACAD_REACTORS
330
47
102
}
330
47
100
AcDbScale
 70
     0
300
8:1
140
8.0
141
1.0
290
     0
  0
SCALE
  5
57
102
{ACAD_REACTORS
330
47
102
}
330
47
100
AcDbScale
 70
     0
300
10:1
140
10.0
141
1.0
290
     0
  0
SCALE
  5
58
102
{ACAD_REACTORS
330
47
102
}
330
47
100
AcDbScale
 70
     0
300
100:1
140
100.0
141
1.0
290
     0
  0
SCALE
  5
59
102
{ACAD_REACTORS
330
47
102
}
330
47
100
AcDbScale
 70
     0
300
1/128" = 1'-0"
140
0.0078125
141
12.0
290
     0
  0
SCALE
  5
5A
102
{ACAD_REACTORS
330
47
102
}
330
47
100
AcDbScale
 70
     0
300
1/64" = 1'-0"
140
0.015625
141
12.0
290
     0
  0
SCALE
  5
5B
102
{ACAD_REACTORS
330
47
102
}
330
47
100
AcDbScale
 70
     0
300
1/32" = 1'-0"
140
0.03125
141
12.0
290
     0
  0
SCALE
  5
5C
102
{ACAD_REACTORS
330
47
102
}
330
47
100
AcDbScale
 70
     0
300
1/16" = 1'-0"
140
0.0625
141
12.0
290
     0
  0
SCALE
  5
5D
102
{ACAD_REACTORS
330
47
102
}
330
47
100
AcDbScale
 70
     0
300
3/32" = 1'-0"
140
0.09375
141
12.0
290
     0
  0
SCALE
  5
5E
102
{ACAD_REACTORS
330
47
102
}
330
47
100
AcDbScale
 70
     0
300
1/8" = 1'-0"
140
0.125
141
12.0
290
     0
  0
SCALE
  5
5F
102
{ACAD_REACTORS
330
47
102
}
330
47
100
AcDbScale
 70
     0
300
3/16" = 1'-0"
140
0.1875
141
12.0
290
     0
  0
SCALE
  5
60
102
{ACAD_REACTORS
330
47
102
}
330
47
100
AcDbScale
 70
     0
300
1/4" = 1'-0"
140
0.25
141
12.0
290
     0
  0
SCALE
  5
61
102
{ACAD_REACTORS
330
47
102
}
330
47
100
AcDbScale
 70
     0
300
3/8" = 1'-0"
140
0.375
141
12.0
290
     0
  0
SCALE
  5
62
102
{ACAD_REACTORS
330
47
102
}
330
47
100
AcDbScale
 70
     0
300
1/2" = 1'-0"
140
0.5
141
12.0
290
     0
  0
SCALE
  5
63
102
{ACAD_REACTORS
330
47
102
}
330
47
100
AcDbScale
 70
     0
300
3/4" = 1'-0"
140
0.75
141
12.0
290
     0
  0
SCALE
  5
64
102
{ACAD_REACTORS
330
47
102
}
330
47
100
AcDbScale
 70
     0
300
1" = 1'-0"
140
1.0
141
12.0
290
     0
  0
SCALE
  5
65
102
{ACAD_REACTORS
330
47
102
}
330
47
100
AcDbScale
 70
     0
300
1-1/2" = 1'-0"
140
1.5
141
12.0
290
     0
  0
SCALE
  5
66
102
{ACAD_REACTORS
330
47
102
}
330
47
100
AcDbScale
 70
     0
300
3" = 1'-0"
140
3.0
141
12.0
290
     0
  0
SCALE
  5
67
102
{ACAD_REACTORS
330
47
102
}
330
47
100
AcDbScale
 70
     0
300
6" = 1'-0"
140
6.0
141
12.0
290
     0
  0
SCALE
  5
68
102
{ACAD_REACTORS
330
47
102
}
330
47
100
AcDbScale
 70
     0
300
1'-0" = 1'-0"
140
12.0
141
12.0
290
     0
  0
ENDSEC
  0
EOF
