  0
SECTION
  2
HEADER
  9
$ACADVER
  1
AC1015
  9
$ACADMAINTVER
 70
     6
  9
$DWGCODEPAGE
  3
ANSI_1252
  9
$INSBASE
 10
0.0
 20
0.0
 30
0.0
  9
$EXTMIN
 10
0.0
 20
0.0
 30
0.0
  9
$EXTMAX
 10
297.0
 20
210.0
 30
0.0
  9
$LIMMIN
 10
0.0
 20
0.0
  9
$LIMMAX
 10
297.0
 20
210.0
  9
$ORTHOMODE
 70
     0
  9
$REGENMODE
 70
     1
  9
$FILLMODE
 70
     1
  9
$QTEXTMODE
 70
     0
  9
$MIRRTEXT
 70
     1
  9
$LTSCALE
 40
1.0
  9
$ATTMODE
 70
     1
  9
$TEXTSIZE
 40
2.0
  9
$TRACEWID
 40
1.0
  9
$TEXTSTYLE
  7
Standard
  9
$CLAYER
  8
0
  9
$CELTYPE
  6
ByLayer
  9
$CECOLOR
 62
   256
  9
$CELTSCALE
 40
1.0
  9
$DISPSILH
 70
     0
  9
$DIMSCALE
 40
1.0
  9
$DIMASZ
 40
3.0
  9
$DIMEXO
 40
0.0
  9
$DIMDLI
 40
3.75
  9
$DIMRND
 40
0.0
  9
$DIMDLE
 40
0.0
  9
$DIMEXE
 40
1.0
  9
$DIMTP
 40
0.0
  9
$DIMTM
 40
0.0
  9
$DIMTXT
 40
2.0
  9
$DIMCEN
 40
2.5
  9
$DIMTSZ
 40
0.0
  9
$DIMTOL
 70
     0
  9
$DIMLIM
 70
     0
  9
$DIMTIH
 70
     1
  9
$DIMTOH
 70
     1
  9
$DIMSE1
 70
     0
  9
$DIMSE2
 70
     0
  9
$DIMTAD
 70
     1
  9
$DIMZIN
 70
     0
  9
$DIMBLK
  1

  9
$DIMASO
 70
     1
  9
$DIMSHO
 70
     1
  9
$DIMPOST
  1

  9
$DIMAPOST
  1

  9
$DIMALT
 70
     0
  9
$DIMALTD
 70
     3
  9
$DIMALTF
 40
0.0393700787
  9
$DIMLFAC
 40
2.0
  9
$DIMTOFL
 70
     1
  9
$DIMTVP
 40
0.0
  9
$DIMTIX
 70
     0
  9
$DIMSOXD
 70
     0
  9
$DIMSAH
 70
     0
  9
$DIMBLK1
  1

  9
$DIMBLK2
  1

  9
$DIMSTYLE
  2
ISO-25
  9
$DIMCLRD
 70
     0
  9
$DIMCLRE
 70
     0
  9
$DIMCLRT
 70
     0
  9
$DIMTFAC
 40
1.0
  9
$DIMGAP
 40
1.524
  9
$DIMJUST
 70
     0
  9
$DIMSD1
 70
     0
  9
$DIMSD2
 70
     0
  9
$DIMTOLJ
 70
     0
  9
$DIMTZIN
 70
     0
  9
$DIMALTZ
 70
     0
  9
$DIMALTTZ
 70
     0
  9
$DIMUPT
 70
     0
  9
$DIMDEC
 70
     2
  9
$DIMTDEC
 70
     3
  9
$DIMALTU
 70
     2
  9
$DIMALTTD
 70
     3
  9
$DIMTXSTY
  7
Standard
  9
$DIMAUNIT
 70
     0
  9
$DIMADEC
 70
     2
  9
$DIMALTRND
 40
0.0
  9
$DIMAZIN
 70
     0
  9
$DIMDSEP
 70
    44
  9
$DIMATFIT
 70
     3
  9
$DIMFRAC
 70
     0
  9
$DIMLDRBLK
  1

  9
$DIMLUNIT
 70
     2
  9
$DIMLWD
 70
    -2
  9
$DIMLWE
 70
    -2
  9
$DIMTMOVE
 70
     0
  9
$LUNITS
 70
     2
  9
$LUPREC
 70
     2
  9
$SKETCHINC
 40
1.0
  9
$FILLETRAD
 40
10.0
  9
$AUNITS
 70
     0
  9
$AUPREC
 70
     2
  9
$MENU
  1
.
  9
$ELEVATION
 40
0.0
  9
$PELEVATION
 40
0.0
  9
$THICKNESS
 40
0.0
  9
$LIMCHECK
 70
     0
  9
$CHAMFERA
 40
0.0
  9
$CHAMFERB
 40
0.0
  9
$CHAMFERC
 40
0.0
  9
$CHAMFERD
 40
0.0
  9
$SKPOLY
 70
     0
  9
$TDCREATE
 40
2458166.344320544
  9
$TDUCREATE
 40
2458166.302653878
  9
$TDUPDATE
 40
2458166.344323391
  9
$TDUUPDATE
 40
2458166.302656725
  9
$TDINDWG
 40
0.0000000116
  9
$TDUSRTIMER
 40
0.0000000116
  9
$USRTIMER
 70
     1
  9
$ANGBASE
 50
0.0
  9
$ANGDIR
 70
     0
  9
$PDMODE
 70
     0
  9
$PDSIZE
 40
-1.0
  9
$PLINEWID
 40
0.0
  9
$SPLFRAME
 70
     0
  9
$SPLINETYPE
 70
     6
  9
$SPLINESEGS
 70
     8
  9
$HANDSEED
  5
272
  9
$SURFTAB1
 70
     6
  9
$SURFTAB2
 70
     6
  9
$SURFTYPE
 70
     6
  9
$SURFU
 70
     6
  9
$SURFV
 70
     6
  9
$UCSBASE
  2

  9
$UCSNAME
  2

  9
$UCSORG
 10
0.0
 20
0.0
 30
0.0
  9
$UCSXDIR
 10
1.0
 20
0.0
 30
0.0
  9
$UCSYDIR
 10
0.0
 20
1.0
 30
0.0
  9
$UCSORTHOREF
  2

  9
$UCSORTHOVIEW
 70
     0
  9
$UCSORGTOP
 10
0.0
 20
0.0
 30
0.0
  9
$UCSORGBOTTOM
 10
0.0
 20
0.0
 30
0.0
  9
$UCSORGLEFT
 10
0.0
 20
0.0
 30
0.0
  9
$UCSORGRIGHT
 10
0.0
 20
0.0
 30
0.0
  9
$UCSORGFRONT
 10
0.0
 20
0.0
 30
0.0
  9
$UCSORGBACK
 10
0.0
 20
0.0
 30
0.0
  9
$PUCSBASE
  2

  9
$PUCSNAME
  2

  9
$PUCSORG
 10
0.0
 20
0.0
 30
0.0
  9
$PUCSXDIR
 10
1.0
 20
0.0
 30
0.0
  9
$PUCSYDIR
 10
0.0
 20
1.0
 30
0.0
  9
$PUCSORTHOREF
  2

  9
$PUCSORTHOVIEW
 70
     0
  9
$PUCSORGTOP
 10
0.0
 20
0.0
 30
0.0
  9
$PUCSORGBOTTOM
 10
0.0
 20
0.0
 30
0.0
  9
$PUCSORGLEFT
 10
0.0
 20
0.0
 30
0.0
  9
$PUCSORGRIGHT
 10
0.0
 20
0.0
 30
0.0
  9
$PUCSORGFRONT
 10
0.0
 20
0.0
 30
0.0
  9
$PUCSORGBACK
 10
0.0
 20
0.0
 30
0.0
  9
$USERI1
 70
     0
  9
$USERI2
 70
     0
  9
$USERI3
 70
     0
  9
$USERI4
 70
     0
  9
$USERI5
 70
     0
  9
$USERR1
 40
0.0
  9
$USERR2
 40
0.0
  9
$USERR3
 40
0.0
  9
$USERR4
 40
0.0
  9
$USERR5
 40
0.0
  9
$WORLDVIEW
 70
     1
  9
$SHADEDGE
 70
     3
  9
$SHADEDIF
 70
    70
  9
$TILEMODE
 70
     1
  9
$MAXACTVP
 70
    64
  9
$PINSBASE
 10
0.0
 20
0.0
 30
0.0
  9
$PLIMCHECK
 70
     0
  9
$PEXTMIN
 10
1.0000000000E+20
 20
1.0000000000E+20
 30
1.0000000000E+20
  9
$PEXTMAX
 10
-1.0000000000E+20
 20
-1.0000000000E+20
 30
-1.0000000000E+20
  9
$PLIMMIN
 10
0.0
 20
0.0
  9
$PLIMMAX
 10
420.0
 20
297.0
  9
$UNITMODE
 70
     0
  9
$VISRETAIN
 70
     1
  9
$PLINEGEN
 70
     0
  9
$PSLTSCALE
 70
     1
  9
$TREEDEPTH
 70
  3020
  9
$CMLSTYLE
  2
Standard
  9
$CMLJUST
 70
     0
  9
$CMLSCALE
 40
20.0
  9
$PROXYGRAPHICS
 70
     1
  9
$MEASUREMENT
 70
     1
  9
$CELWEIGHT
370
    -1
  9
$ENDCAPS
280
     0
  9
$JOINSTYLE
280
     0
  9
$LWDISPLAY
290
     1
  9
$INSUNITS
 70
     4
  9
$HYPERLINKBASE
  1

  9
$STYLESHEET
  1

  9
$XEDIT
290
     1
  9
$CEPSNTYPE
380
     0
  9
$PSTYLEMODE
290
     1
  9
$FINGERPRINTGUID
  2
{C8E6556F-9AF2-4A40-BA9B-10B306621635}
  9
$VERSIONGUID
  2
{FAEB1C32-E019-11D5-929B-00C0DF256EC4}
  9
$EXTNAMES
290
     1
  9
$PSVPSCALE
 40
0.0
  9
$OLESTARTUP
290
     0
  0
ENDSEC
  0
SECTION
  2
CLASSES
  0
CLASS
  1
ACDBDICTIONARYWDFLT
  2
AcDbDictionaryWithDefault
  3
ObjectDBX Classes
 90
        0
280
     0
281
     0
  0
CLASS
  1
VISUALSTYLE
  2
AcDbVisualStyle
  3
ObjectDBX Classes
 90
     4095
280
     0
281
     0
  0
CLASS
  1
MATERIAL
  2
AcDbMaterial
  3
ObjectDBX Classes
 90
     1153
280
     0
281
     0
  0
CLASS
  1
SCALE
  2
AcDbScale
  3
ObjectDBX Classes
 90
     1153
280
     0
281
     0
  0
CLASS
  1
TABLESTYLE
  2
AcDbTableStyle
  3
ObjectDBX Classes
 90
     4095
280
     0
281
     0
  0
CLASS
  1
MLEADERSTYLE
  2
AcDbMLeaderStyle
  3
ACDB_MLEADERSTYLE_CLASS
 90
     4095
280
     0
281
     0
  0
CLASS
  1
SUN
  2
AcDbSun
  3
SCENEOE
 90
     1153
280
     0
281
     0
  0
CLASS
  1
ACDBPLACEHOLDER
  2
AcDbPlaceHolder
  3
ObjectDBX Classes
 90
        0
280
     0
281
     0
  0
CLASS
  1
LAYOUT
  2
AcDbLayout
  3
ObjectDBX Classes
 90
        0
280
     0
281
     0
  0
ENDSEC
  0
SECTION
  2
TABLES
  0
TABLE
  2
VPORT
  5
8
330
0
100
AcDbSymbolTable
 70
     1
  0
VPORT
  5
29
330
8
100
AcDbSymbolTableRecord
100
AcDbViewportTableRecord
  2
*Active
 70
     0
 10
0.0
 20
0.0
 11
1.0
 21
1.0
 12
148.5
 22
105.0
 13
0.0
 23
0.0
 14
10.0
 24
10.0
 15
10.0
 25
10.0
 16
0.0
 26
0.0
 36
1.0
 17
0.0
 27
0.0
 37
0.0
 40
210.0
 41
1.4142857143
 42
50.0
 43
0.0
 44
0.0
 50
0.0
 51
0.0
 71
     0
 72
  2000
 73
     1
 74
     3
 75
     0
 76
     0
 77
     0
 78
     0
281
     0
 65
     1
110
0.0
120
0.0
130
0.0
111
1.0
121
0.0
131
0.0
112
0.0
122
1.0
132
0.0
 79
     0
146
0.0
  0
ENDTAB
  0
TABLE
  2
LTYPE
  5
5
330
0
100
AcDbSymbolTable
 70
     6
  0
LTYPE
  5
14
330
5
100
AcDbSymbolTableRecord
100
AcDbLinetypeTableRecord
  2
ByBlock
 70
     0
  3

 72
    65
 73
     0
 40
0.0
  0
LTYPE
  5
15
330
5
100
AcDbSymbolTableRecord
100
AcDbLinetypeTableRecord
  2
ByLayer
 70
     0
  3

 72
    65
 73
     0
 40
0.0
  0
LTYPE
  5
16
330
5
100
AcDbSymbolTableRecord
100
AcDbLinetypeTableRecord
  2
Continuous
 70
     0
  3
Solid line
 72
    65
 73
     0
 40
0.0
  0
LTYPE
  5
6E
330
5
100
AcDbSymbolTableRecord
100
AcDbLinetypeTableRecord
  2
HIDDEN
 70
     0
  3
Hidden __ __ __ __ __ __ __ __ __ __ __ __ __ __
 72
    65
 73
     2
 40
1.905
 49
1.27
 74
     0
 49
-0.635
 74
     0
  0
LTYPE
  5
6F
330
5
100
AcDbSymbolTableRecord
100
AcDbLinetypeTableRecord
  2
PHANTOM
 70
     0
  3
Phantom ______  __  __  ______  __  __  ______
 72
    65
 73
     6
 40
12.7
 49
6.35
 74
     0
 49
-1.27
 74
     0
 49
1.27
 74
     0
 49
-1.27
 74
     0
 49
1.27
 74
     0
 49
-1.27
 74
     0
  0
LTYPE
  5
70
330
5
100
AcDbSymbolTableRecord
100
AcDbLinetypeTableRecord
  2
CENTER
 70
     0
  3
Center ____ _ ____ _ ____ _ ____ _ ____ _ ____
 72
    65
 73
     4
 40
10.16
 49
6.35
 74
     0
 49
-1.27
 74
     0
 49
1.27
 74
     0
 49
-1.27
 74
     0
  0
LTYPE
  5
71
330
5
100
AcDbSymbolTableRecord
100
AcDbLinetypeTableRecord
  2
CENTERX2
 70
     0
  3
Center (2x) ________  __  ________  __  _____
 72
    65
 73
     4
 40
20.32
 49
12.7
 74
     0
 49
-2.54
 74
     0
 49
2.54
 74
     0
 49
-2.54
 74
     0
  0
LTYPE
  5
72
330
5
100
AcDbSymbolTableRecord
100
AcDbLinetypeTableRecord
  2
DOT2
 70
     0
  3
Dot (.5x) ........................................
 72
    65
 73
     2
 40
0.635
 49
0.0
 74
     0
 49
-0.635
 74
     0
  0
ENDTAB
  0
TABLE
  2
LAYER
  5
2
330
0
100
AcDbSymbolTable
 70
     5
  0
LAYER
  5
10
330
2
100
AcDbSymbolTableRecord
100
AcDbLayerTableRecord
  2
0
 70
     0
 62
     7
  6
Continuous
370
    -3
390
F
  0
LAYER
  5
73
330
2
100
AcDbSymbolTableRecord
100
AcDbLayerTableRecord
  2
FORMAT
 70
     0
 62
     7
  6
Continuous
370
    -3
390
F
  0
LAYER
  5
74
330
2
100
AcDbSymbolTableRecord
100
AcDbLayerTableRecord
  2
VERMASSUNG
 70
     0
 62
     7
  6
Continuous
370
    -3
390
F
  0
LAYER
  5
75
330
2
100
AcDbSymbolTableRecord
100
AcDbLayerTableRecord
  2
KOPF_DÜNN
 70
     0
 62
     7
  6
Continuous
370
    -3
390
F
  0
LAYER
  5
76
330
2
100
AcDbSymbolTableRecord
100
AcDbLayerTableRecord
  2
KOPF_DICK
 70
     0
 62
     7
  6
Continuous
370
    25
390
F
  0
ENDTAB
  0
TABLE
  2
STYLE
  5
3
330
0
100
AcDbSymbolTable
 70
     2
  0
STYLE
  5
11
330
3
100
AcDbSymbolTableRecord
100
AcDbTextStyleTableRecord
  2
Standard
 70
     0
 40
0.0
 41
1.0
 50
0.0
 71
     0
 42
2.0
  3
txt
  4

  0
STYLE
  5
77
330
3
100
AcDbSymbolTableRecord
100
AcDbTextStyleTableRecord
  2
SLDTEXTSTYLE0
 70
     0
 40
0.0
 41
0.7
 50
0.0
 71
     0
 42
2.0
  3
TXT
  4

  0
ENDTAB
  0
TABLE
  2
VIEW
  5
6
330
0
100
AcDbSymbolTable
 70
     0
  0
ENDTAB
  0
TABLE
  2
UCS
  5
7
330
0
100
AcDbSymbolTable
 70
     0
  0
ENDTAB
  0
TABLE
  2
APPID
  5
9
330
0
100
AcDbSymbolTable
 70
     1
  0
APPID
  5
12
330
9
100
AcDbSymbolTableRecord
100
AcDbRegAppTableRecord
  2
ACAD
 70
     0
  0
ENDTAB
  0
TABLE
  2
DIMSTYLE
  5
A
330
0
100
AcDbSymbolTable
 70
     4
100
AcDbDimStyleTable
  0
DIMSTYLE
105
27
330
A
100
AcDbSymbolTableRecord
100
AcDbDimStyleTableRecord
  2
ISO-25
 70
     0
 41
2.5
 42
0.625
 43
3.75
 44
1.25
 73
     0
 74
     0
 77
     1
 78
     8
140
2.5
141
2.5
143
0.0393700787
147
0.625
171
     3
172
     1
178
     0
271
     2
272
     2
274
     3
278
    44
283
     0
284
     8
340
11
  0
DIMSTYLE
105
205
102
{ACAD_REACTORS
330
204
330
21A
330
230
330
23A
330
244
330
24F
330
25A
102
}
330
A
100
AcDbSymbolTableRecord
100
AcDbDimStyleTableRecord
  2
SLDDIMSTYLE0
 70
     0
 41
3.0
 44
0.0
 45
0.000000001
 73
     0
 74
     0
 77
     1
 78
    12
 79
     3
140
2.0
147
0.5
173
     1
178
     0
271
     2
272
     3
276
     2
284
    12
340
77
  0
DIMSTYLE
105
211
102
{ACAD_REACTORS
330
210
102
}
330
A
100
AcDbSymbolTableRecord
100
AcDbDimStyleTableRecord
  2
SLDDIMSTYLE1
 70
     0
 41
3.0
 44
0.0
 45
0.000000001
 73
     0
 74
     0
 76
     1
 77
     1
 78
    12
 79
     3
140
2.0
147
0.5
173
     1
178
     0
271
     2
272
     3
276
     2
282
     1
284
    12
340
77
  0
DIMSTYLE
105
226
102
{ACAD_REACTORS
330
225
330
264
102
}
330
A
100
AcDbSymbolTableRecord
100
AcDbDimStyleTableRecord
  2
SLDDIMSTYLE2
 70
     0
 41
3.0
 44
0.0
 45
0.000000001
 73
     0
 74
     0
 77
     1
 78
    12
 79
     3
140
2.0
147
0.5
173
     1
178
     0
271
     1
272
     3
276
     2
284
    12
340
77
  0
ENDTAB
  0
TABLE
  2
BLOCK_RECORD
  5
1
330
0
100
AcDbSymbolTable
 70
    11
  0
BLOCK_RECORD
  5
1F
330
1
100
AcDbSymbolTableRecord
100
AcDbBlockTableRecord
  2
*Model_Space
340
22
  0
BLOCK_RECORD
  5
1B
330
1
100
AcDbSymbolTableRecord
100
AcDbBlockTableRecord
  2
*Paper_Space
340
1E
  0
BLOCK_RECORD
  5
23
330
1
100
AcDbSymbolTableRecord
100
AcDbBlockTableRecord
  2
*Paper_Space0
340
26
  0
BLOCK_RECORD
  5
206
330
1
100
AcDbSymbolTableRecord
100
AcDbBlockTableRecord
  2
_D
340
0
  0
BLOCK_RECORD
  5
212
330
1
100
AcDbSymbolTableRecord
100
AcDbBlockTableRecord
  2
_D_1
340
0
  0
BLOCK_RECORD
  5
21B
330
1
100
AcDbSymbolTableRecord
100
AcDbBlockTableRecord
  2
_D_2
340
0
  0
BLOCK_RECORD
  5
227
330
1
100
AcDbSymbolTableRecord
100
AcDbBlockTableRecord
  2
_D_3
340
0
  0
BLOCK_RECORD
  5
231
330
1
100
AcDbSymbolTableRecord
100
AcDbBlockTableRecord
  2
_D_4
340
0
  0
BLOCK_RECORD
  5
23B
330
1
100
AcDbSymbolTableRecord
100
AcDbBlockTableRecord
  2
_D_5
340
0
  0
BLOCK_RECORD
  5
245
330
1
100
AcDbSymbolTableRecord
100
AcDbBlockTableRecord
  2
_D_6
340
0
  0
BLOCK_RECORD
  5
250
330
1
100
AcDbSymbolTableRecord
100
AcDbBlockTableRecord
  2
_D_7
340
0
  0
BLOCK_RECORD
  5
25B
330
1
100
AcDbSymbolTableRecord
100
AcDbBlockTableRecord
  2
_D_8
340
0
  0
BLOCK_RECORD
  5
265
330
1
100
AcDbSymbolTableRecord
100
AcDbBlockTableRecord
  2
_D_9
340
0
  0
ENDTAB
  0
ENDSEC
  0
SECTION
  2
BLOCKS
  0
BLOCK
  5
20
330
1F
100
AcDbEntity
  8
0
100
AcDbBlockBegin
  2
*Model_Space
 70
     0
 10
0.0
 20
0.0
 30
0.0
  3
*Model_Space
  1

  0
ENDBLK
  5
21
330
1F
100
AcDbEntity
  8
0
100
AcDbBlockEnd
  0
BLOCK
  5
1C
330
1B
100
AcDbEntity
 67
     1
  8
0
100
AcDbBlockBegin
  2
*Paper_Space
 70
     0
 10
0.0
 20
0.0
 30
0.0
  3
*Paper_Space
  1

  0
ENDBLK
  5
1D
330
1B
100
AcDbEntity
 67
     1
  8
0
100
AcDbBlockEnd
  0
BLOCK
  5
24
330
23
100
AcDbEntity
  8
0
100
AcDbBlockBegin
  2
*Paper_Space0
 70
     0
 10
0.0
 20
0.0
 30
0.0
  3
*Paper_Space0
  1

  0
ENDBLK
  5
25
330
23
100
AcDbEntity
  8
0
100
AcDbBlockEnd
  0
BLOCK
  5
207
330
206
100
AcDbEntity
  8
0
100
AcDbBlockBegin
  2
_D
 70
     0
 10
0.0
 20
0.0
 30
0.0
  3
_D
  1

  0
SOLID
  5
209
330
206
100
AcDbEntity
  8
VERMASSUNG
100
AcDbTrace
 10
269.4652433584
 20
99.3989022498
 30
0.0
 11
269.9152433584
 21
102.3989022498
 31
0.0
 12
269.0152433584
 22
102.3989022498
 32
0.0
 13
269.0152433584
 23
102.3989022498
 33
0.0
  0
SOLID
  5
20A
330
206
100
AcDbEntity
  8
VERMASSUNG
100
AcDbTrace
 10
269.4652433584
 20
132.3989022498
 30
0.0
 11
269.0152433584
 21
129.3989022498
 31
0.0
 12
269.9152433584
 22
129.3989022498
 32
0.0
 13
269.9152433584
 23
129.3989022498
 33
0.0
  0
LINE
  5
20B
330
206
100
AcDbEntity
  8
VERMASSUNG
100
AcDbLine
 10
230.561143939
 20
99.3989022498
 30
0.0
 11
270.4652433584
 21
99.3989022498
 31
0.0
  0
LINE
  5
20C
330
206
100
AcDbEntity
  8
VERMASSUNG
100
AcDbLine
 10
230.561143939
 20
132.3989022498
 30
0.0
 11
270.4652433584
 21
132.3989022498
 31
0.0
  0
LINE
  5
20D
330
206
100
AcDbEntity
  8
VERMASSUNG
100
AcDbLine
 10
269.4652433584
 20
99.3989022498
 30
0.0
 11
269.4652433584
 21
132.3989022498
 31
0.0
  0
MTEXT
  5
20E
330
206
100
AcDbEntity
  8
VERMASSUNG
100
AcDbMText
 10
266.8871080535
 20
112.6939022926
 30
0.0
 40
2.0
 41
0.0
 71
     1
 72
     1
  1
%%c
  7
SLDTEXTSTYLE0
 11
1.615544574432587E-15
 21
1.0
 31
0.0
 73
     1
 44
1.0
  0
MTEXT
  5
20F
330
206
100
AcDbEntity
  8
VERMASSUNG
100
AcDbMText
 10
266.6871081022
 20
116.3039023069
 30
0.0
 40
2.0
 41
0.0
 71
     1
 72
     1
  1
33
  7
SLDTEXTSTYLE0
 11
1.615544574432587E-15
 21
1.0
 31
0.0
 73
     1
 44
1.0
  0
ENDBLK
  5
208
330
206
100
AcDbEntity
  8
0
100
AcDbBlockEnd
  0
BLOCK
  5
213
330
212
100
AcDbEntity
  8
0
100
AcDbBlockBegin
  2
_D_1
 70
     0
 10
0.0
 20
0.0
 30
0.0
  3
_D_1
  1

  0
SOLID
  5
215
330
212
100
AcDbEntity
  8
VERMASSUNG
100
AcDbTrace
 10
258.561143939
 20
124.8989022498
 30
0.0
 11
258.111143939
 21
121.8989022498
 31
0.0
 12
259.011143939
 22
121.8989022498
 32
0.0
 13
259.011143939
 23
121.8989022498
 33
0.0
  0
LINE
  5
216
330
212
100
AcDbEntity
  8
VERMASSUNG
100
AcDbLine
 10
227.061143939
 20
124.8989022498
 30
0.0
 11
259.561143939
 21
124.8989022498
 31
0.0
  0
LINE
  5
217
330
212
100
AcDbEntity
  8
VERMASSUNG
100
AcDbLine
 10
258.561143939
 20
124.8989022498
 30
0.0
 11
258.561143939
 21
112.8939021857
 31
0.0
  0
MTEXT
  5
218
330
212
100
AcDbEntity
  8
VERMASSUNG
100
AcDbMText
 10
255.9830086341
 20
112.8939021857
 30
0.0
 40
2.0
 41
0.0
 71
     1
 72
     1
  1
%%c
  7
SLDTEXTSTYLE0
 11
-5.267838178243384E-15
 21
1.0
 31
0.0
 73
     1
 44
1.0
  0
MTEXT
  5
219
330
212
100
AcDbEntity
  8
VERMASSUNG
100
AcDbMText
 10
255.7830086828
 20
116.5039022
 30
0.0
 40
2.0
 41
0.0
 71
     1
 72
     1
  1
18
  7
SLDTEXTSTYLE0
 11
-5.267838178243384E-15
 21
1.0
 31
0.0
 73
     1
 44
1.0
  0
ENDBLK
  5
214
330
212
100
AcDbEntity
  8
0
100
AcDbBlockEnd
  0
BLOCK
  5
21C
330
21B
100
AcDbEntity
  8
0
100
AcDbBlockBegin
  2
_D_2
 70
     0
 10
0.0
 20
0.0
 30
0.0
  3
_D_2
  1

  0
SOLID
  5
21E
330
21B
100
AcDbEntity
  8
VERMASSUNG
100
AcDbTrace
 10
280.0964268501
 20
136.3989022498
 30
0.0
 11
279.6464268501
 21
133.3989022498
 31
0.0
 12
280.5464268501
 22
133.3989022498
 32
0.0
 13
280.5464268501
 23
133.3989022498
 33
0.0
  0
SOLID
  5
21F
330
21B
100
AcDbEntity
  8
VERMASSUNG
100
AcDbTrace
 10
280.0964268501
 20
95.3989022498
 30
0.0
 11
280.5464268501
 21
98.3989022498
 31
0.0
 12
279.6464268501
 22
98.3989022498
 32
0.0
 13
279.6464268501
 23
98.3989022498
 33
0.0
  0
LINE
  5
220
330
21B
100
AcDbEntity
  8
VERMASSUNG
100
AcDbLine
 10
179.7363249943
 20
136.3989022498
 30
0.0
 11
281.0964268501
 21
136.3989022498
 31
0.0
  0
LINE
  5
221
330
21B
100
AcDbEntity
  8
VERMASSUNG
100
AcDbLine
 10
179.7363249943
 20
95.3989022498
 30
0.0
 11
281.0964268501
 21
95.3989022498
 31
0.0
  0
LINE
  5
222
330
21B
100
AcDbEntity
  8
VERMASSUNG
100
AcDbLine
 10
280.0964268501
 20
136.3989022498
 30
0.0
 11
280.0964268501
 21
95.3989022498
 31
0.0
  0
MTEXT
  5
223
330
21B
100
AcDbEntity
  8
VERMASSUNG
100
AcDbMText
 10
277.5182915452
 20
112.7939021227
 30
0.0
 40
2.0
 41
0.0
 71
     1
 72
     1
  1
%%c
  7
SLDTEXTSTYLE0
 11
-5.267838178243384E-15
 21
1.0
 31
0.0
 73
     1
 44
1.0
  0
MTEXT
  5
224
330
21B
100
AcDbEntity
  8
VERMASSUNG
100
AcDbMText
 10
277.3182915939
 20
116.403902137
 30
0.0
 40
2.0
 41
0.0
 71
     1
 72
     1
  1
41
  7
SLDTEXTSTYLE0
 11
-5.267838178243384E-15
 21
1.0
 31
0.0
 73
     1
 44
1.0
  0
ENDBLK
  5
21D
330
21B
100
AcDbEntity
  8
0
100
AcDbBlockEnd
  0
BLOCK
  5
228
330
227
100
AcDbEntity
  8
0
100
AcDbBlockBegin
  2
_D_3
 70
     0
 10
0.0
 20
0.0
 30
0.0
  3
_D_3
  1

  0
SOLID
  5
22A
330
227
100
AcDbEntity
  8
VERMASSUNG
100
AcDbTrace
 10
179.7363249943
 20
77.3461706783
 30
0.0
 11
182.7363249943
 21
76.8961706783
 31
0.0
 12
182.7363249943
 22
77.7961706783
 32
0.0
 13
182.7363249943
 23
77.7961706783
 33
0.0
  0
SOLID
  5
22B
330
227
100
AcDbEntity
  8
VERMASSUNG
100
AcDbTrace
 10
230.561143939
 20
77.3461706783
 30
0.0
 11
227.561143939
 21
77.7961706783
 31
0.0
 12
227.561143939
 22
76.8961706783
 32
0.0
 13
227.561143939
 23
76.8961706783
 33
0.0
  0
LINE
  5
22C
330
227
100
AcDbEntity
  8
VERMASSUNG
100
AcDbLine
 10
179.7363249943
 20
95.3989022498
 30
0.0
 11
179.7363249943
 21
76.3461706783
 31
0.0
  0
LINE
  5
22D
330
227
100
AcDbEntity
  8
VERMASSUNG
100
AcDbLine
 10
230.561143939
 20
101.2476832331
 30
0.0
 11
230.561143939
 21
76.3461706783
 31
0.0
  0
LINE
  5
22E
330
227
100
AcDbEntity
  8
VERMASSUNG
100
AcDbLine
 10
179.7363249943
 20
77.3461706783
 30
0.0
 11
230.561143939
 21
77.3461706783
 31
0.0
  0
MTEXT
  5
22F
330
227
100
AcDbEntity
  8
VERMASSUNG
100
AcDbMText
 10
202.7487345855
 20
79.9243062743
 30
0.0
 40
2.0
 41
0.0
 71
     1
 72
     1
  1
50.8
  7
SLDTEXTSTYLE0
 73
     1
 44
1.0
  0
ENDBLK
  5
229
330
227
100
AcDbEntity
  8
0
100
AcDbBlockEnd
  0
BLOCK
  5
232
330
231
100
AcDbEntity
  8
0
100
AcDbBlockBegin
  2
_D_4
 70
     0
 10
0.0
 20
0.0
 30
0.0
  3
_D_4
  1

  0
SOLID
  5
234
330
231
100
AcDbEntity
  8
VERMASSUNG
100
AcDbTrace
 10
128.561143939
 20
69.6116581774
 30
0.0
 11
131.561143939
 21
69.1616581774
 31
0.0
 12
131.561143939
 22
70.0616581774
 32
0.0
 13
131.561143939
 23
70.0616581774
 33
0.0
  0
SOLID
  5
235
330
231
100
AcDbEntity
  8
VERMASSUNG
100
AcDbTrace
 10
230.561143939
 20
69.6116581774
 30
0.0
 11
227.561143939
 21
70.0616581774
 31
0.0
 12
227.561143939
 22
69.1616581774
 32
0.0
 13
227.561143939
 23
69.1616581774
 33
0.0
  0
LINE
  5
236
330
231
100
AcDbEntity
  8
VERMASSUNG
100
AcDbLine
 10
128.561143939
 20
84.4239022498
 30
0.0
 11
128.561143939
 21
68.6116581774
 31
0.0
  0
LINE
  5
237
330
231
100
AcDbEntity
  8
VERMASSUNG
100
AcDbLine
 10
230.561143939
 20
101.2476832331
 30
0.0
 11
230.561143939
 21
68.6116581774
 31
0.0
  0
LINE
  5
238
330
231
100
AcDbEntity
  8
VERMASSUNG
100
AcDbLine
 10
128.561143939
 20
69.6116581774
 30
0.0
 11
230.561143939
 21
69.6116581774
 31
0.0
  0
MTEXT
  5
239
330
231
100
AcDbEntity
  8
VERMASSUNG
100
AcDbMText
 10
177.6611439069
 20
72.1897937734
 30
0.0
 40
2.0
 41
0.0
 71
     1
 72
     1
  1
102
  7
SLDTEXTSTYLE0
 73
     1
 44
1.0
  0
ENDBLK
  5
233
330
231
100
AcDbEntity
  8
0
100
AcDbBlockEnd
  0
BLOCK
  5
23C
330
23B
100
AcDbEntity
  8
0
100
AcDbBlockBegin
  2
_D_5
 70
     0
 10
0.0
 20
0.0
 30
0.0
  3
_D_5
  1

  0
SOLID
  5
23E
330
23B
100
AcDbEntity
  8
VERMASSUNG
100
AcDbTrace
 10
110.561143939
 20
163.3739022498
 30
0.0
 11
113.561143939
 21
162.9239022498
 31
0.0
 12
113.561143939
 22
163.8239022498
 32
0.0
 13
113.561143939
 23
163.8239022498
 33
0.0
  0
SOLID
  5
23F
330
23B
100
AcDbEntity
  8
VERMASSUNG
100
AcDbTrace
 10
230.561143939
 20
163.3739022498
 30
0.0
 11
227.561143939
 21
163.8239022498
 31
0.0
 12
227.561143939
 22
162.9239022498
 32
0.0
 13
227.561143939
 23
162.9239022498
 33
0.0
  0
LINE
  5
240
330
23B
100
AcDbEntity
  8
VERMASSUNG
100
AcDbLine
 10
110.561143939
 20
147.1739022498
 30
0.0
 11
110.561143939
 21
164.3739022498
 31
0.0
  0
LINE
  5
241
330
23B
100
AcDbEntity
  8
VERMASSUNG
100
AcDbLine
 10
230.561143939
 20
130.5501212665
 30
0.0
 11
230.561143939
 21
164.3739022498
 31
0.0
  0
LINE
  5
242
330
23B
100
AcDbEntity
  8
VERMASSUNG
100
AcDbLine
 10
110.561143939
 20
163.3739022498
 30
0.0
 11
230.561143939
 21
163.3739022498
 31
0.0
  0
MTEXT
  5
243
330
23B
100
AcDbEntity
  8
VERMASSUNG
100
AcDbMText
 10
168.6611439069
 20
165.9520378458
 30
0.0
 40
2.0
 41
0.0
 71
     1
 72
     1
  1
120
  7
SLDTEXTSTYLE0
 73
     1
 44
1.0
  0
ENDBLK
  5
23D
330
23B
100
AcDbEntity
  8
0
100
AcDbBlockEnd
  0
BLOCK
  5
246
330
245
100
AcDbEntity
  8
0
100
AcDbBlockBegin
  2
_D_6
 70
     0
 10
0.0
 20
0.0
 30
0.0
  3
_D_6
  1

  0
SOLID
  5
248
330
245
100
AcDbEntity
  8
VERMASSUNG
100
AcDbTrace
 10
181.061143939
 20
155.5253269619
 30
0.0
 11
184.061143939
 21
155.0753269619
 31
0.0
 12
184.061143939
 22
155.9753269619
 32
0.0
 13
184.061143939
 23
155.9753269619
 33
0.0
  0
SOLID
  5
249
330
245
100
AcDbEntity
  8
VERMASSUNG
100
AcDbTrace
 10
230.561143939
 20
155.5253269619
 30
0.0
 11
227.561143939
 21
155.9753269619
 31
0.0
 12
227.561143939
 22
155.0753269619
 32
0.0
 13
227.561143939
 23
155.0753269619
 33
0.0
  0
LINE
  5
24A
330
245
100
AcDbEntity
  8
VERMASSUNG
100
AcDbLine
 10
181.061143939
 20
124.7989022498
 30
0.0
 11
181.061143939
 21
156.5253269619
 31
0.0
  0
LINE
  5
24B
330
245
100
AcDbEntity
  8
VERMASSUNG
100
AcDbLine
 10
230.561143939
 20
130.5501212665
 30
0.0
 11
230.561143939
 21
156.5253269619
 31
0.0
  0
LINE
  5
24C
330
245
100
AcDbEntity
  8
VERMASSUNG
100
AcDbLine
 10
181.061143939
 20
155.5253269619
 30
0.0
 11
230.561143939
 21
155.5253269619
 31
0.0
  0
MTEXT
  5
24D
330
245
100
AcDbEntity
  8
VERMASSUNG
100
AcDbMText
 10
200.1111447742
 20
158.1034625578
 30
0.0
 40
2.0
 41
0.0
 71
     1
 72
     1
  1
49.5
  7
SLDTEXTSTYLE0
 73
     1
 44
1.0
  0
MTEXT
  5
24E
330
245
100
AcDbEntity
  8
VERMASSUNG
100
AcDbMText
 10
206.2986446624
 20
158.1034625578
 30
0.0
 40
2.0
 41
0.0
 71
     1
 72
     1
  1
max.
  7
SLDTEXTSTYLE0
 73
     1
 44
1.0
  0
ENDBLK
  5
247
330
245
100
AcDbEntity
  8
0
100
AcDbBlockEnd
  0
BLOCK
  5
251
330
250
100
AcDbEntity
  8
0
100
AcDbBlockBegin
  2
_D_7
 70
     0
 10
0.0
 20
0.0
 30
0.0
  3
_D_7
  1

  0
SOLID
  5
253
330
250
100
AcDbEntity
  8
VERMASSUNG
100
AcDbTrace
 10
191.561143939
 20
148.3343238846
 30
0.0
 11
194.561143939
 21
147.8843238846
 31
0.0
 12
194.561143939
 22
148.7843238846
 32
0.0
 13
194.561143939
 23
148.7843238846
 33
0.0
  0
SOLID
  5
254
330
250
100
AcDbEntity
  8
VERMASSUNG
100
AcDbTrace
 10
230.561143939
 20
148.3343238846
 30
0.0
 11
227.561143939
 21
148.7843238846
 31
0.0
 12
227.561143939
 22
147.8843238846
 32
0.0
 13
227.561143939
 23
147.8843238846
 33
0.0
  0
LINE
  5
255
330
250
100
AcDbEntity
  8
VERMASSUNG
100
AcDbLine
 10
191.561143939
 20
124.8989022498
 30
0.0
 11
191.561143939
 21
149.3343238846
 31
0.0
  0
LINE
  5
256
330
250
100
AcDbEntity
  8
VERMASSUNG
100
AcDbLine
 10
230.561143939
 20
130.5501212665
 30
0.0
 11
230.561143939
 21
149.3343238846
 31
0.0
  0
LINE
  5
257
330
250
100
AcDbEntity
  8
VERMASSUNG
100
AcDbLine
 10
191.561143939
 20
148.3343238846
 30
0.0
 11
230.561143939
 21
148.3343238846
 31
0.0
  0
MTEXT
  5
258
330
250
100
AcDbEntity
  8
VERMASSUNG
100
AcDbMText
 10
206.8611440887
 20
150.9124594806
 30
0.0
 40
2.0
 41
0.0
 71
     1
 72
     1
  1
39
  7
SLDTEXTSTYLE0
 73
     1
 44
1.0
  0
MTEXT
  5
259
330
250
100
AcDbEntity
  8
VERMASSUNG
100
AcDbMText
 10
210.8486439889
 20
150.9124594806
 30
0.0
 40
2.0
 41
0.0
 71
     1
 72
     1
  1
min.
  7
SLDTEXTSTYLE0
 73
     1
 44
1.0
  0
ENDBLK
  5
252
330
250
100
AcDbEntity
  8
0
100
AcDbBlockEnd
  0
BLOCK
  5
25C
330
25B
100
AcDbEntity
  8
0
100
AcDbBlockBegin
  2
_D_8
 70
     0
 10
0.0
 20
0.0
 30
0.0
  3
_D_8
  1

  0
SOLID
  5
25E
330
25B
100
AcDbEntity
  8
VERMASSUNG
100
AcDbTrace
 10
70.611143939
 20
170.9797691309
 30
0.0
 11
73.611143939
 21
170.5297691309
 31
0.0
 12
73.611143939
 22
171.4297691309
 32
0.0
 13
73.611143939
 23
171.4297691309
 33
0.0
  0
SOLID
  5
25F
330
25B
100
AcDbEntity
  8
VERMASSUNG
100
AcDbTrace
 10
230.561143939
 20
170.9797691309
 30
0.0
 11
227.561143939
 21
171.4297691309
 31
0.0
 12
227.561143939
 22
170.5297691309
 32
0.0
 13
227.561143939
 23
170.5297691309
 33
0.0
  0
LINE
  5
260
330
25B
100
AcDbEntity
  8
VERMASSUNG
100
AcDbLine
 10
70.611143939
 20
138.1019969736
 30
0.0
 11
70.611143939
 21
171.9797691309
 31
0.0
  0
LINE
  5
261
330
25B
100
AcDbEntity
  8
VERMASSUNG
100
AcDbLine
 10
230.561143939
 20
130.5501212665
 30
0.0
 11
230.561143939
 21
171.9797691309
 31
0.0
  0
LINE
  5
262
330
25B
100
AcDbEntity
  8
VERMASSUNG
100
AcDbLine
 10
70.611143939
 20
170.9797691309
 30
0.0
 11
230.561143939
 21
170.9797691309
 31
0.0
  0
MTEXT
  5
263
330
25B
100
AcDbEntity
  8
VERMASSUNG
100
AcDbMText
 10
146.9861440008
 20
173.5579047269
 30
0.0
 40
2.0
 41
0.0
 71
     1
 72
     1
  1
159.95
  7
SLDTEXTSTYLE0
 73
     1
 44
1.0
  0
ENDBLK
  5
25D
330
25B
100
AcDbEntity
  8
0
100
AcDbBlockEnd
  0
BLOCK
  5
266
330
265
100
AcDbEntity
  8
0
100
AcDbBlockBegin
  2
_D_9
 70
     0
 10
0.0
 20
0.0
 30
0.0
  3
_D_9
  1

  0
SOLID
  5
268
330
265
100
AcDbEntity
  8
VERMASSUNG
100
AcDbTrace
 10
47.0689325834
 20
147.3739022498
 30
0.0
 11
46.6189325834
 21
144.3739022498
 31
0.0
 12
47.5189325834
 22
144.3739022498
 32
0.0
 13
47.5189325834
 23
144.3739022498
 33
0.0
  0
SOLID
  5
269
330
265
100
AcDbEntity
  8
VERMASSUNG
100
AcDbTrace
 10
47.0689325834
 20
84.4239022498
 30
0.0
 11
47.5189325834
 21
87.4239022498
 31
0.0
 12
46.6189325834
 22
87.4239022498
 32
0.0
 13
46.6189325834
 23
87.4239022498
 33
0.0
  0
LINE
  5
26A
330
265
100
AcDbEntity
  8
VERMASSUNG
100
AcDbLine
 10
110.761143939
 20
147.3739022498
 30
0.0
 11
46.0689325834
 21
147.3739022498
 31
0.0
  0
LINE
  5
26B
330
265
100
AcDbEntity
  8
VERMASSUNG
100
AcDbLine
 10
110.761143939
 20
84.4239022498
 30
0.0
 11
46.0689325834
 21
84.4239022498
 31
0.0
  0
LINE
  5
26C
330
265
100
AcDbEntity
  8
VERMASSUNG
100
AcDbLine
 10
47.0689325834
 20
147.3739022498
 30
0.0
 11
47.0689325834
 21
84.4239022498
 31
0.0
  0
MTEXT
  5
26D
330
265
100
AcDbEntity
  8
VERMASSUNG
100
AcDbMText
 10
44.2907973272
 20
107.7939036315
 30
0.0
 40
2.0
 41
0.0
 71
     1
 72
     1
  1
KM
  7
SLDTEXTSTYLE0
 11
-5.267838178243384E-15
 21
1.0
 31
0.0
 73
     1
 44
1.0
  0
MTEXT
  5
26E
330
265
100
AcDbEntity
  8
VERMASSUNG
100
AcDbMText
 10
44.4907972785
 20
111.1939034437
 30
0.0
 40
2.0
 41
0.0
 71
     1
 72
     1
  1
%%c
  7
SLDTEXTSTYLE0
 11
-5.267838178243384E-15
 21
1.0
 31
0.0
 73
     1
 44
1.0
  0
MTEXT
  5
26F
330
265
100
AcDbEntity
  8
VERMASSUNG
100
AcDbMText
 10
44.2907973272
 20
114.803903458
 30
0.0
 40
2.0
 41
0.0
 71
     1
 72
     1
  1
63
  7
SLDTEXTSTYLE0
 11
-5.267838178243384E-15
 21
1.0
 31
0.0
 73
     1
 44
1.0
  0
MTEXT
  5
270
330
265
100
AcDbEntity
  8
VERMASSUNG
100
AcDbMText
 10
44.2907973272
 20
118.7914033582
 30
0.0
 40
2.0
 41
0.0
 71
     1
 72
     1
  1
XMZ
  7
SLDTEXTSTYLE0
 11
-5.267838178243384E-15
 21
1.0
 31
0.0
 73
     1
 44
1.0
  0
ENDBLK
  5
267
330
265
100
AcDbEntity
  8
0
100
AcDbBlockEnd
  0
ENDSEC
  0
SECTION
  2
ENTITIES
  0
MTEXT
  5
78
330
1F
100
AcDbEntity
  8
KOPF_DÜNN
100
AcDbMText
 10
13.8892156294
 20
23.8442973028
 30
0.0
 40
3.0
 41
0.0
 71
     1
 72
     1
  1
KY6.S18.K01.120
  7
SLDTEXTSTYLE0
 73
     1
 44
1.0
  0
MTEXT
  5
79
330
1F
100
AcDbEntity
  8
VERMASSUNG
100
AcDbMText
 10
13.9329988022
 20
28.8834360957
 30
0.0
 40
3.0
 41
0.0
 71
     1
 72
     1
  1
Schrumpffutter_Heat shrink chuck
  7
SLDTEXTSTYLE0
 73
     1
 44
1.0
  0
MTEXT
  5
7A
330
1F
100
AcDbEntity
  8
VERMASSUNG
100
AcDbMText
 10
98.8601118557
 20
13.8365368761
 30
0.0
 40
2.0
 41
0.0
 71
     1
 72
     1
  1
Datum: 16.02.2018
  7
SLDTEXTSTYLE0
 73
     1
 44
1.0
  0
MTEXT
  5
7B
330
1F
100
AcDbEntity
  8
VERMASSUNG
100
AcDbMText
 10
13.933048693
 20
18.0482802738
 30
0.0
 40
2.0
 41
0.0
 71
     1
 72
     1
  1
KM63 XMZ / Ø18
  7
SLDTEXTSTYLE0
 73
     1
 44
1.0
  0
MTEXT
  5
7C
330
1F
100
AcDbEntity
  8
VERMASSUNG
100
AcDbMText
 10
13.9808475933
 20
13.9090974274
 30
0.0
 40
2.0
 41
0.0
 71
     1
 72
     1
  1
Gewicht: 1460g
  7
SLDTEXTSTYLE0
 73
     1
 44
1.0
  0
CIRCLE
  5
7D
330
1F
100
AcDbEntity
  8
0
  6
Continuous
 62
     7
370
    25
100
AcDbCircle
 10
388.3092953697
 20
115.8989022498
 30
0.0
 40
1.849999999999979
  0
SPLINE
  5
7E
330
1F
100
AcDbEntity
  8
0
  6
Continuous
 62
     7
370
    25
100
AcDbSpline
210
0.0
220
0.0
230
1.0
 70
     8
 71
     3
 72
    11
 73
     7
 74
     0
 42
0.000000001
 43
0.00000001
 40
0.0
 40
0.0
 40
0.0
 40
0.0
 40
0.1234466727345278
 40
0.4778177359845583
 40
0.81458141317089
 40
1.0
 40
1.0
 40
1.0
 40
1.0
 10
389.9407108188286
 20
116.4806958533055
 30
0.0
 10
389.9286561368957
 20
116.4148390530701
 30
0.0
 10
389.8819967924063
 20
116.1599310309207
 30
0.0
 10
389.7941677395063
 20
115.6801054398398
 30
0.0
 10
389.6983022079946
 20
115.1563757946233
 30
0.0
 10
389.6470500068317
 20
114.8763755363424
 30
0.0
 10
389.6288511682912
 20
114.7769519140175
 30
0.0
  0
SPLINE
  5
7F
330
1F
100
AcDbEntity
  8
0
  6
Continuous
 62
     7
370
    25
100
AcDbSpline
210
0.0
220
0.0
230
1.0
 70
     8
 71
     3
 72
    11
 73
     7
 74
     0
 42
0.000000001
 43
0.00000001
 40
0.0
 40
0.0
 40
0.0
 40
0.0
 40
0.2164553920803214
 40
0.4403113588452198
 40
0.7519007546236887
 40
1.0
 40
1.0
 40
1.0
 40
1.0
 10
388.6211550202831
 20
117.6026461891061
 30
0.0
 10
388.7115458809094
 20
117.525791506897
 30
0.0
 10
388.8954180509996
 20
117.3694544933817
 30
0.0
 10
389.2366355840192
 20
117.0793346931326
 30
0.0
 10
389.6026523258853
 20
116.7681295923458
 30
0.0
 10
389.8368815111716
 20
116.5689765702371
 30
0.0
 10
389.9407108188286
 20
116.4806958533055
 30
0.0
  0
SPLINE
  5
80
330
1F
100
AcDbEntity
  8
0
  6
Continuous
 62
     7
370
    25
100
AcDbSpline
210
0.0
220
0.0
230
1.0
 70
     8
 71
     3
 72
    11
 73
     7
 74
     0
 42
0.000000001
 43
0.00000001
 40
0.0
 40
0.0
 40
0.0
 40
0.0
 40
0.2164554114603034
 40
0.4403113880397639
 40
0.7519007861324442
 40
0.9999999999999999
 40
0.9999999999999999
 40
0.9999999999999999
 40
0.9999999999999999
 10
386.9897395712002
 20
117.0208525856188
 30
0.0
 10
387.1014931319168
 20
117.0607060063543
 30
0.0
 10
387.3288210841519
 20
117.1417754279215
 30
0.0
 10
387.7506809634065
 20
117.2922186642344
 30
0.0
 10
388.2032008733681
 20
117.4535958668994
 30
0.0
 10
388.4927870355638
 20
117.5568677475602
 30
0.0
 10
388.6211550202831
 20
117.6026461891061
 30
0.0
  0
SPLINE
  5
81
330
1F
100
AcDbEntity
  8
0
  6
Continuous
 62
     7
370
    25
100
AcDbSpline
210
0.0
220
0.0
230
1.0
 70
     8
 71
     3
 72
    11
 73
     7
 74
     0
 42
0.000000001
 43
0.00000001
 40
0.0
 40
0.0
 40
0.0
 40
0.0
 40
0.1854185974715213
 40
0.5221822902316107
 40
0.8765533378886127
 40
1.0
 40
1.0
 40
1.0
 40
1.0
 10
386.6778799206629
 20
115.3171086463309
 30
0.0
 10
386.6960788067196
 20
115.4165322671664
 30
0.0
 10
386.7473311413308
 20
115.6965325192393
 30
0.0
 10
386.8431965451321
 20
116.2202621928004
 30
0.0
 10
386.9310257610117
 20
116.7000877504225
 30
0.0
 10
386.9776849339614
 20
116.9549957843853
 30
0.0
 10
386.9897395712002
 20
117.0208525856188
 30
0.0
  0
SPLINE
  5
82
330
1F
100
AcDbEntity
  8
0
  6
Continuous
 62
     7
370
    25
100
AcDbSpline
210
0.0
220
0.0
230
1.0
 70
     8
 71
     3
 72
    11
 73
     7
 74
     0
 42
0.000000001
 43
0.00000001
 40
0.0
 40
0.0
 40
0.0
 40
0.0
 40
0.2164554114603034
 40
0.4403113880397639
 40
0.7519007861324442
 40
0.9999999999999999
 40
0.9999999999999999
 40
0.9999999999999999
 40
0.9999999999999999
 10
389.6288511682912
 20
114.7769519140175
 30
0.0
 10
389.5170976075747
 20
114.737098493282
 30
0.0
 10
389.2897696553397
 20
114.6560290717149
 30
0.0
 10
388.867909776085
 20
114.5055858354019
 30
0.0
 10
388.4153898661234
 20
114.3442086327369
 30
0.0
 10
388.1258037039277
 20
114.2409367520762
 30
0.0
 10
387.9974357192083
 20
114.1951583105302
 30
0.0
  0
SPLINE
  5
83
330
1F
100
AcDbEntity
  8
0
  6
Continuous
 62
     7
370
    25
100
AcDbSpline
210
0.0
220
0.0
230
1.0
 70
     8
 71
     3
 72
    11
 73
     7
 74
     0
 42
0.000000001
 43
0.00000001
 40
0.0
 40
0.0
 40
0.0
 40
0.0
 40
0.2164553920803214
 40
0.4403113588452198
 40
0.7519007546236887
 40
1.0
 40
1.0
 40
1.0
 40
1.0
 10
387.9974357192083
 20
114.1951583105302
 30
0.0
 10
387.9070448585821
 20
114.2720129927393
 30
0.0
 10
387.7231726884919
 20
114.4283500062546
 30
0.0
 10
387.3819551554723
 20
114.7184698065038
 30
0.0
 10
387.0159384136061
 20
115.0296749072905
 30
0.0
 10
386.7817092283199
 20
115.2288279293993
 30
0.0
 10
386.6778799206629
 20
115.3171086463309
 30
0.0
  0
ARC
  5
84
330
1F
100
AcDbEntity
  8
0
  6
Continuous
 62
     7
370
    25
100
AcDbCircle
 10
388.3092953697
 20
115.8989022498
 30
0.0
 40
1.49999999999997
100
AcDbArc
 50
169.6271967899
 51
229.6271967899
  0
ARC
  5
85
330
1F
100
AcDbEntity
  8
0
  6
Continuous
 62
     7
370
    25
100
AcDbCircle
 10
388.3092953697
 20
115.8989022498
 30
0.0
 40
1.500000000000026
100
AcDbArc
 50
229.6271967899
 51
289.6271967899
  0
ARC
  5
86
330
1F
100
AcDbEntity
  8
0
  6
Continuous
 62
     7
370
    25
100
AcDbCircle
 10
388.3092953697
 20
115.8989022498
 30
0.0
 40
1.500000000000044
100
AcDbArc
 50
49.6271967899
 51
109.6271967899
  0
ARC
  5
87
330
1F
100
AcDbEntity
  8
0
  6
Continuous
 62
     7
370
    25
100
AcDbCircle
 10
388.3092953697
 20
115.8989022498
 30
0.0
 40
1.499999999999988
100
AcDbArc
 50
109.6271967899
 51
169.6271967899
  0
ARC
  5
88
330
1F
100
AcDbEntity
  8
0
  6
Continuous
 62
     7
370
    25
100
AcDbCircle
 10
388.3092953697
 20
115.8989022498
 30
0.0
 40
1.500000000000044
100
AcDbArc
 50
349.6271967899
 51
49.6271967899
  0
ARC
  5
89
330
1F
100
AcDbEntity
  8
0
  6
Continuous
 62
     7
370
    25
100
AcDbCircle
 10
388.3092953697
 20
115.8989022498
 30
0.0
 40
1.500000000000034
100
AcDbArc
 50
289.6271967899
 51
349.6271967899
  0
SPLINE
  5
8A
330
1F
100
AcDbEntity
  8
0
  6
Continuous
 62
     7
370
    25
100
AcDbSpline
210
0.0
220
0.0
230
1.0
 70
     8
 71
     3
 72
     8
 73
     4
 74
     0
 42
0.000000001
 43
0.00000001
 40
0.0
 40
0.0
 40
0.0
 40
0.0
 40
1.0
 40
1.0
 40
1.0
 40
1.0
 10
377.9201552601128
 20
111.5289013778533
 30
0.0
 10
377.8513168899261
 20
111.4658067045344
 30
0.0
 10
377.78288552947
 20
111.4020843264036
 30
0.0
 10
377.7148692548053
 20
111.3377388941302
 30
0.0
  0
SPLINE
  5
8B
330
1F
100
AcDbEntity
  8
0
  6
Continuous
 62
     7
370
    25
100
AcDbSpline
210
0.0
220
0.0
230
1.0
 70
     8
 71
     3
 72
     8
 73
     4
 74
     0
 42
0.000000001
 43
0.00000001
 40
0.0
 40
0.0
 40
0.0
 40
0.0
 40
1.0
 40
1.0
 40
1.0
 40
1.0
 10
378.1781825013736
 20
111.359639547926
 30
0.0
 10
378.0914790672131
 20
111.4158004675952
 30
0.0
 10
378.0054810197293
 20
111.4722252039211
 30
0.0
 10
377.9201552601128
 20
111.5289013778533
 30
0.0
  0
ARC
  5
8C
330
1F
100
AcDbEntity
  8
0
  6
Continuous
 62
     7
370
    25
100
AcDbCircle
 10
388.3092953697
 20
115.8989022498
 30
0.0
 40
11.10154736189901
100
AcDbArc
 50
204.1348482805
 51
335.8651517195
  0
SPLINE
  5
8D
330
1F
100
AcDbEntity
  8
0
  6
Continuous
 62
     7
370
    25
100
AcDbSpline
210
0.0
220
0.0
230
1.0
 70
     8
 71
     3
 72
     8
 73
     4
 74
     0
 42
0.000000001
 43
0.00000001
 40
0.0
 40
0.0
 40
0.0
 40
0.0
 40
1.0
 40
1.0
 40
1.0
 40
1.0
 10
398.6984354793786
 20
111.5289013778533
 30
0.0
 10
398.6131097197622
 20
111.4722252039211
 30
0.0
 10
398.5271116722784
 20
111.4158004675952
 30
0.0
 10
398.4404082381179
 20
111.359639547926
 30
0.0
  0
SPLINE
  5
8E
330
1F
100
AcDbEntity
  8
0
  6
Continuous
 62
     7
370
    25
100
AcDbSpline
210
0.0
220
0.0
230
1.0
 70
     8
 71
     3
 72
     8
 73
     4
 74
     0
 42
0.000000001
 43
0.00000001
 40
0.0
 40
0.0
 40
0.0
 40
0.0
 40
1.0
 40
1.0
 40
1.0
 40
1.0
 10
398.9037214846862
 20
111.3377388941302
 30
0.0
 10
398.8357052100215
 20
111.4020843264036
 30
0.0
 10
398.7672738495654
 20
111.4658067045344
 30
0.0
 10
398.6984354793786
 20
111.5289013778533
 30
0.0
  0
ARC
  5
8F
330
1F
100
AcDbEntity
  8
0
  6
Continuous
 62
     7
370
    25
100
AcDbCircle
 10
388.3092953697
 20
115.8989022498
 30
0.0
 40
11.53456006379121
100
AcDbArc
 50
203.2930774359
 51
336.7074733161
  0
ARC
  5
90
330
1F
100
AcDbEntity
  8
0
  6
Continuous
 62
     7
370
    25
100
AcDbCircle
 10
388.3092953697
 20
115.8989022498
 30
0.0
 40
11.10154736189904
100
AcDbArc
 50
29.4783538465
 51
150.5216461535
  0
SPLINE
  5
91
330
1F
100
AcDbEntity
  8
0
  6
Continuous
 62
     7
370
    25
100
AcDbSpline
210
0.0
220
0.0
230
1.0
 70
     8
 71
     3
 72
     8
 73
     4
 74
     0
 42
0.000000001
 43
0.00000001
 40
0.0
 40
0.0
 40
0.0
 40
0.0
 40
1.0
 40
1.0
 40
1.0
 40
1.0
 10
378.3333623204213
 20
121.1772014992074
 30
0.0
 10
378.4362582342452
 20
121.2391701082983
 30
0.0
 10
378.5400979038001
 20
121.3007487604389
 30
0.0
 10
378.6449357920267
 20
121.3619149517104
 30
0.0
  0
SPLINE
  5
92
330
1F
100
AcDbEntity
  8
0
  6
Continuous
 62
     7
370
    25
100
AcDbSpline
210
0.0
220
0.0
230
1.0
 70
     8
 71
     3
 72
     8
 73
     4
 74
     0
 42
0.000000001
 43
0.00000001
 40
0.0
 40
0.0
 40
0.0
 40
0.0
 40
1.0
 40
1.0
 40
1.0
 40
1.0
 10
378.1448259393075
 20
121.351391320077
 30
0.0
 10
378.2073942476771
 20
121.2929408509694
 30
0.0
 10
378.2702408410409
 20
121.2348768404363
 30
0.0
 10
378.3333623204238
 20
121.1772014992051
 30
0.0
  0
ARC
  5
93
330
1F
100
AcDbEntity
  8
0
  6
Continuous
 62
     7
370
    25
100
AcDbCircle
 10
388.3092953697
 20
115.8989022498
 30
0.0
 40
11.53456006379119
100
AcDbArc
 50
28.2102805322
 51
151.7902347364
  0
SPLINE
  5
94
330
1F
100
AcDbEntity
  8
0
  6
Continuous
 62
     7
370
    25
100
AcDbSpline
210
0.0
220
0.0
230
1.0
 70
     8
 71
     3
 72
     8
 73
     4
 74
     0
 42
0.000000001
 43
0.00000001
 40
0.0
 40
0.0
 40
0.0
 40
0.0
 40
1.0
 40
1.0
 40
1.0
 40
1.0
 10
398.2852284190681
 20
121.1772014992054
 30
0.0
 10
398.3483498984509
 20
121.2348768404365
 30
0.0
 10
398.4111964918146
 20
121.2929408509695
 30
0.0
 10
398.473764800184
 20
121.351391320077
 30
0.0
  0
SPLINE
  5
95
330
1F
100
AcDbEntity
  8
0
  6
Continuous
 62
     7
370
    25
100
AcDbSpline
210
0.0
220
0.0
230
1.0
 70
     8
 71
     3
 72
     8
 73
     4
 74
     0
 42
0.000000001
 43
0.00000001
 40
0.0
 40
0.0
 40
0.0
 40
0.0
 40
1.0
 40
1.0
 40
1.0
 40
1.0
 10
397.9736549474649
 20
121.3619149517104
 30
0.0
 10
398.078492835691
 20
121.3007487604391
 30
0.0
 10
398.1823325052455
 20
121.2391701082988
 30
0.0
 10
398.285228419069
 20
121.1772014992081
 30
0.0
  0
SPLINE
  5
96
330
1F
100
AcDbEntity
  8
0
  6
Continuous
 62
     7
370
    25
100
AcDbSpline
210
0.0
220
0.0
230
1.0
 70
     8
 71
     3
 72
     8
 73
     4
 74
     0
 42
0.000000001
 43
0.00000001
 40
0.0000004028655191
 40
0.0000004028655191
 40
0.0000004028655191
 40
0.0000004028655191
 40
0.0015137684369673
 40
0.0015137684369673
 40
0.0015137684369673
 40
0.0015137684369673
 10
379.8857007126037
 20
111.5766268460337
 30
0.0
 10
379.6790292250524
 20
111.504332904319
 30
0.0
 10
379.4724102565118
 20
111.4320014183623
 30
0.0
 10
379.2658338817031
 20
111.359639547926
 30
0.0
  0
LINE
  5
97
330
1F
100
AcDbEntity
  8
0
  6
Continuous
 62
     7
370
    25
100
AcDbLine
 10
379.2658337266
 20
111.3596397464
 30
0.0
 11
378.1781821386
 21
111.3596397464
 31
0.0
  0
LINE
  5
98
330
1F
100
AcDbEntity
  8
0
  6
Continuous
 62
     7
370
    25
100
AcDbLine
 10
378.1432100446
 20
111.7926521239
 30
0.0
 11
377.920155494
 21
111.5289015708
 31
0.0
  0
LINE
  5
99
330
1F
100
AcDbEntity
  8
0
  6
Continuous
 62
     7
370
    25
100
AcDbLine
 10
379.9108202443
 20
111.7926521239
 30
0.0
 11
378.1434251801
 21
111.7926521239
 31
0.0
  0
LINE
  5
9A
330
1F
100
AcDbEntity
  8
0
  6
Continuous
 62
     7
370
    25
100
AcDbLine
 10
379.9214773685
 20
111.635071413
 30
0.0
 11
379.9108202443
 21
111.7926521239
 31
0.0
  0
SPLINE
  5
9B
330
1F
100
AcDbEntity
  8
0
  6
Continuous
 62
     7
370
    25
100
AcDbSpline
210
0.0
220
0.0
230
1.0
 70
     8
 71
     3
 72
     8
 73
     4
 74
     0
 42
0.000000001
 43
0.00000001
 40
0.0006523765358269
 40
0.0006523765358269
 40
0.0006523765358269
 40
0.0006523765358269
 40
0.0009043636494504
 40
0.0009043636494504
 40
0.0009043636494504
 40
0.0009043636494504
 10
379.9225775876386
 20
111.6368649434824
 30
0.0
 10
379.9102605931211
 20
111.6167893625002
 30
0.0
 10
379.897968395717
 20
111.5967099739777
 30
0.0
 10
379.8857007126037
 20
111.5766268460337
 30
0.0
  0
LINE
  5
9C
330
1F
100
AcDbEntity
  8
0
  6
Continuous
 62
     7
370
    25
100
AcDbLine
 10
378.3333618999
 20
121.1772013468
 30
0.0
 11
378.5417704717
 21
120.9289023665
 31
0.0
  0
LINE
  5
9D
330
1F
100
AcDbEntity
  8
0
  6
Continuous
 62
     7
370
    25
100
AcDbLine
 10
379.7919844151
 20
121.361914744
 30
0.0
 11
378.6449358673
 21
121.361914744
 31
0.0
  0
SPLINE
  5
9E
330
1F
100
AcDbEntity
  8
0
  6
Continuous
 62
     7
370
    25
100
AcDbSpline
210
0.0
220
0.0
230
1.0
 70
     8
 71
     3
 72
     8
 73
     4
 74
     0
 42
0.000000001
 43
0.00000001
 40
0.0000004089325119
 40
0.0000004089325119
 40
0.0000004089325119
 40
0.0000004089325119
 40
0.0015399868451459
 40
0.0015399868451459
 40
0.0015399868451459
 40
0.0015399868451459
 10
379.7919839523169
 20
121.3619149517104
 30
0.0
 10
380.0037452111113
 20
121.2894600690569
 30
0.0
 10
380.2156655343015
 20
121.2171211990284
 30
0.0
 10
380.4277835175158
 20
121.1449276536026
 30
0.0
  0
LINE
  5
9F
330
1F
100
AcDbEntity
  8
0
  6
Continuous
 62
     7
370
    25
100
AcDbLine
 10
380.4277834356
 20
121.14492776
 30
0.0
 11
380.4359362335
 21
121.1297150714
 31
0.0
  0
LINE
  5
A0
330
1F
100
AcDbEntity
  8
0
  6
Continuous
 62
     7
370
    25
100
AcDbLine
 10
380.4335660175
 20
120.9289023665
 30
0.0
 11
380.4359371648
 21
121.129715537
 31
0.0
  0
LINE
  5
A1
330
1F
100
AcDbEntity
  8
0
  6
Continuous
 62
     7
370
    25
100
AcDbLine
 10
380.4335660175
 20
120.9289023665
 30
0.0
 11
378.5417704717
 21
120.9289023665
 31
0.0
  0
LINE
  5
A2
330
1F
100
AcDbEntity
  8
0
  6
Continuous
 62
     7
370
    25
100
AcDbLine
 10
398.6984352455
 20
111.5289015708
 30
0.0
 11
398.4753806949
 21
111.7926521239
 31
0.0
  0
LINE
  5
A3
330
1F
100
AcDbEntity
  8
0
  6
Continuous
 62
     7
370
    25
100
AcDbLine
 10
398.4404086009
 20
111.3596397464
 30
0.0
 11
397.3527570129
 21
111.3596397464
 31
0.0
  0
SPLINE
  5
A4
330
1F
100
AcDbEntity
  8
0
  6
Continuous
 62
     7
370
    25
100
AcDbSpline
210
0.0
220
0.0
230
1.0
 70
     8
 71
     3
 72
     8
 73
     4
 74
     0
 42
0.000000001
 43
0.00000001
 40
0.0000004024872366
 40
0.0000004024872366
 40
0.0000004024872366
 40
0.0000004024872366
 40
0.0015137680586847
 40
0.0015137680586847
 40
0.0015137680586847
 40
0.0015137680586847
 10
397.3527568577884
 20
111.359639547926
 30
0.0
 10
397.1461804829797
 20
111.4320014183623
 30
0.0
 10
396.9395615144391
 20
111.504332904319
 30
0.0
 10
396.7328900268878
 20
111.5766268460337
 30
0.0
  0
SPLINE
  5
A5
330
1F
100
AcDbEntity
  8
0
  6
Continuous
 62
     7
370
    25
100
AcDbSpline
210
0.0
220
0.0
230
1.0
 70
     8
 71
     3
 72
     8
 73
     4
 74
     0
 42
0.000000001
 43
0.00000001
 40
0.0000002414707367
 40
0.0000002414707367
 40
0.0000002414707367
 40
0.0000002414707367
 40
0.0002447240690309
 40
0.0002447240690309
 40
0.0002447240690309
 40
0.0002447240690309
 10
396.7328900268878
 20
111.5766268460337
 30
0.0
 10
396.7209876915327
 20
111.5961118719803
 30
0.0
 10
396.709062280321
 20
111.6155933778047
 30
0.0
 10
396.6971135350261
 20
111.6350713013165
 30
0.0
  0
LINE
  5
A6
330
1F
100
AcDbEntity
  8
0
  6
Continuous
 62
     7
370
    25
100
AcDbLine
 10
396.7077704952
 20
111.7926521239
 30
0.0
 11
396.697113371
 21
111.635071413
 31
0.0
  0
LINE
  5
A7
330
1F
100
AcDbEntity
  8
0
  6
Continuous
 62
     7
370
    25
100
AcDbLine
 10
398.4753806949
 20
111.7926521239
 30
0.0
 11
396.7026621909
 21
111.7926521239
 31
0.0
  0
SPLINE
  5
A8
330
1F
100
AcDbEntity
  8
0
  6
Continuous
 62
     7
370
    25
100
AcDbSpline
210
0.0
220
0.0
230
1.0
 70
     8
 71
     3
 72
     8
 73
     4
 74
     0
 42
0.000000001
 43
0.00000001
 40
0.000000410413179
 40
0.000000410413179
 40
0.000000410413179
 40
0.000000410413179
 40
0.0015399883258131
 40
0.0015399883258131
 40
0.0015399883258131
 40
0.0015399883258131
 10
396.1908072219757
 20
121.1449276536026
 30
0.0
 10
396.40292520519
 20
121.2171211990284
 30
0.0
 10
396.6148455283802
 20
121.2894600690569
 30
0.0
 10
396.8266067871746
 20
121.3619149517104
 30
0.0
  0
LINE
  5
A9
330
1F
100
AcDbEntity
  8
0
  6
Continuous
 62
     7
370
    25
100
AcDbLine
 10
397.9736548722
 20
121.361914744
 30
0.0
 11
396.8266063244
 21
121.361914744
 31
0.0
  0
LINE
  5
AA
330
1F
100
AcDbEntity
  8
0
  6
Continuous
 62
     7
370
    25
100
AcDbLine
 10
398.0768202678
 20
120.9289023665
 30
0.0
 11
398.2852288396
 21
121.1772013468
 31
0.0
  0
LINE
  5
AB
330
1F
100
AcDbEntity
  8
0
  6
Continuous
 62
     7
370
    25
100
AcDbLine
 10
398.076630278
 20
120.9289023665
 30
0.0
 11
396.185024722
 21
120.9289023665
 31
0.0
  0
LINE
  5
AC
330
1F
100
AcDbEntity
  8
0
  6
Continuous
 62
     7
370
    25
100
AcDbLine
 10
396.1826535747
 20
121.1297150714
 30
0.0
 11
396.185024722
 21
120.9289023665
 31
0.0
  0
LINE
  5
AD
330
1F
100
AcDbEntity
  8
0
  6
Continuous
 62
     7
370
    25
100
AcDbLine
 10
396.182654506
 20
121.1297150714
 30
0.0
 11
396.1908073038
 21
121.14492776
 31
0.0
  0
ARC
  5
AE
330
1F
100
AcDbEntity
  8
0
  6
Continuous
 62
     7
370
    25
100
AcDbCircle
 10
388.3092953697
 20
115.8989022498
 30
0.0
 40
10.11875000000003
100
AcDbArc
 50
32.6761561262
 51
147.3238438738
  0
ARC
  5
AF
330
1F
100
AcDbEntity
  8
0
  6
Continuous
 62
     7
370
    25
100
AcDbCircle
 10
388.3092953697
 20
115.8989022498
 30
0.0
 40
10.11875000000005
100
AcDbArc
 50
206.6538426687
 51
333.3461573313
  0
ARC
  5
B0
330
1F
100
AcDbEntity
  8
0
  6
Continuous
 62
     7
370
    25
100
AcDbCircle
 10
388.3092953697
 20
115.8989022498
 30
0.0
 40
9.467788105676709
100
AcDbArc
 50
207.1630537883
 51
332.8369462117
  0
ARC
  5
B1
330
1F
100
AcDbEntity
  8
0
  6
Continuous
 62
     7
370
    25
100
AcDbCircle
 10
388.3092953697
 20
115.8989022498
 30
0.0
 40
9.467788105676732
100
AcDbArc
 50
33.6481949792
 51
146.3518050208
  0
SPLINE
  5
B2
330
1F
100
AcDbEntity
  8
0
  6
Continuous
 62
     7
370
    25
100
AcDbSpline
210
0.0
220
0.0
230
1.0
 70
     8
 71
     3
 72
     8
 73
     4
 74
     0
 42
0.000000001
 43
0.00000001
 40
0.0
 40
0.0
 40
0.0
 40
0.0
 40
1.0
 40
1.0
 40
1.0
 40
1.0
 10
377.7148692546153
 20
111.3377388942415
 30
0.0
 10
377.6616264296736
 20
111.3382626204793
 30
0.0
 10
377.608331144058
 20
111.3390607137417
 30
0.0
 10
377.5549856385685
 20
111.3401337616665
 30
0.0
  0
LINE
  5
B3
330
1F
100
AcDbEntity
  8
0
  6
Continuous
 62
     7
370
    25
100
AcDbLine
 10
377.9830728531
 20
111.7926521239
 30
0.0
 11
378.1432100446
 21
111.7926521239
 31
0.0
  0
LINE
  5
B4
330
1F
100
AcDbEntity
  8
0
  6
Continuous
 62
     7
370
    25
100
AcDbLine
 10
398.4753806949
 20
111.7926521239
 30
0.0
 11
398.6355178863
 21
111.7926521239
 31
0.0
  0
SPLINE
  5
B5
330
1F
100
AcDbEntity
  8
0
  6
Continuous
 62
     7
370
    25
100
AcDbSpline
210
0.0
220
0.0
230
1.0
 70
     8
 71
     3
 72
     8
 73
     4
 74
     0
 42
0.000000001
 43
0.00000001
 40
0.0
 40
0.0
 40
0.0
 40
0.0
 40
1.0
 40
1.0
 40
1.0
 40
1.0
 10
399.063605100923
 20
111.3401337616665
 30
0.0
 10
399.0102595954336
 20
111.3390607137417
 30
0.0
 10
398.9569643098179
 20
111.3382626204793
 30
0.0
 10
398.9037214848762
 20
111.3377388942415
 30
0.0
  0
LINE
  5
B6
330
1F
100
AcDbEntity
  8
0
  6
Continuous
 62
     7
370
    25
100
AcDbLine
 10
378.5417704717
 20
120.9289023665
 30
0.0
 11
378.4183534668
 21
120.9289023665
 31
0.0
  0
SPLINE
  5
B7
330
1F
100
AcDbEntity
  8
0
  6
Continuous
 62
     7
370
    25
100
AcDbSpline
210
0.0
220
0.0
230
1.0
 70
     8
 71
     3
 72
     8
 73
     4
 74
     0
 42
0.000000001
 43
0.00000001
 40
0.0
 40
0.0
 40
0.0
 40
0.0
 40
1.0
 40
1.0
 40
1.0
 40
1.0
 10
378.021604445066
 20
121.3493477667545
 30
0.0
 10
378.0627198721078
 20
121.3502167043945
 30
0.0
 10
378.1037941667189
 20
121.3508977419774
 30
0.0
 10
378.144825939208
 20
121.3513913200388
 30
0.0
  0
SPLINE
  5
B8
330
1F
100
AcDbEntity
  8
0
  6
Continuous
 62
     7
370
    25
100
AcDbSpline
210
0.0
220
0.0
230
1.0
 70
     8
 71
     3
 72
     8
 73
     4
 74
     0
 42
0.000000001
 43
0.00000001
 40
0.0
 40
0.0
 40
0.0
 40
0.0
 40
1.0
 40
1.0
 40
1.0
 40
1.0
 10
398.4737648002835
 20
121.3513913200389
 30
0.0
 10
398.5147965727726
 20
121.3508977419774
 30
0.0
 10
398.5558708673836
 20
121.3502167043945
 30
0.0
 10
398.5969862944255
 20
121.3493477667546
 30
0.0
  0
LINE
  5
B9
330
1F
100
AcDbEntity
  8
0
  6
Continuous
 62
     7
370
    25
100
AcDbLine
 10
398.2002372727
 20
120.9289023665
 30
0.0
 11
398.0768202678
 21
120.9289023665
 31
0.0
  0
SPLINE
  5
BA
330
1F
100
AcDbEntity
  8
0
  6
Continuous
 62
     7
370
    25
100
AcDbSpline
210
0.0
220
0.0
230
1.0
 70
     8
 71
     3
 72
     9
 73
     5
 74
     0
 42
0.000000001
 43
0.00000001
 40
0.0
 40
0.0
 40
0.0
 40
0.0
 40
0.5102121239851395
 40
0.9999999999999999
 40
0.9999999999999999
 40
0.9999999999999999
 40
0.9999999999999999
 10
380.435936501431
 20
121.1297155081441
 30
0.0
 10
380.5654767192818
 20
121.1284705494533
 30
0.0
 10
380.8193715441226
 20
121.1260304688822
 30
0.0
 10
381.0773508171324
 20
121.123338023189
 30
0.0
 10
381.2037059373156
 20
121.1220192959317
 30
0.0
  0
SPLINE
  5
BB
330
1F
100
AcDbEntity
  8
0
  6
Continuous
 62
     7
370
    25
100
AcDbSpline
210
0.0
220
0.0
230
1.0
 70
     8
 71
     3
 72
     8
 73
     4
 74
     0
 42
0.000000001
 43
0.00000001
 40
0.0
 40
0.0
 40
0.0
 40
0.0
 40
1.0
 40
1.0
 40
1.0
 40
1.0
 10
381.203705683641
 20
121.1220188266545
 30
0.0
 10
381.1959446256956
 20
121.1114605914554
 30
0.0
 10
381.1882071005997
 20
121.1008850579291
 30
0.0
 10
381.1804931852302
 20
121.0902923311497
 30
0.0
  0
SPLINE
  5
BC
330
1F
100
AcDbEntity
  8
0
  6
Continuous
 62
     7
370
    25
100
AcDbSpline
210
0.0
220
0.0
230
1.0
 70
     8
 71
     3
 72
     8
 73
     4
 74
     0
 42
0.000000001
 43
0.00000001
 40
0.0
 40
0.0
 40
0.0
 40
0.0
 40
1.0
 40
1.0
 40
1.0
 40
1.0
 10
381.0089353524672
 20
120.9289025886865
 30
0.0
 10
381.0661957595016
 20
120.9828107656742
 30
0.0
 10
381.1233821506113
 20
121.0366076907573
 30
0.0
 10
381.1804931852302
 20
121.0902923311497
 30
0.0
  0
LINE
  5
BD
330
1F
100
AcDbEntity
  8
0
  6
Continuous
 62
     7
370
    25
100
AcDbLine
 10
381.0089361728
 20
120.9289023665
 30
0.0
 11
380.4335660175
 21
120.9289023665
 31
0.0
  0
SPLINE
  5
BE
330
1F
100
AcDbEntity
  8
0
  6
Continuous
 62
     7
370
    25
100
AcDbSpline
210
0.0
220
0.0
230
1.0
 70
     8
 71
     3
 72
     9
 73
     5
 74
     0
 42
0.000000001
 43
0.00000001
 40
0.0
 40
0.0
 40
0.0
 40
0.0
 40
0.4897878789203994
 40
0.9999999999999999
 40
0.9999999999999999
 40
0.9999999999999999
 40
0.9999999999999999
 10
395.4148849343972
 20
121.1220191160559
 30
0.0
 10
395.5412400166184
 20
121.1233378418092
 30
0.0
 10
395.7992192105906
 20
121.1260302844155
 30
0.0
 10
396.05311395888
 20
121.1284703622515
 30
0.0
 10
396.1826541369357
 20
121.1297153195398
 30
0.0
  0
ARC
  5
BF
330
1F
100
AcDbEntity
  8
0
  6
Continuous
 62
     7
370
    25
100
AcDbCircle
 10
388.3092953697
 20
115.8989022498
 30
0.0
 40
8.818750000000001
100
AcDbArc
 50
36.3185452201
 51
143.6814533294
  0
SPLINE
  5
C0
330
1F
100
AcDbEntity
  8
0
  6
Continuous
 62
     7
370
    25
100
AcDbSpline
210
0.0
220
0.0
230
1.0
 70
     8
 71
     3
 72
     8
 73
     4
 74
     0
 42
0.000000001
 43
0.00000001
 40
0.0
 40
0.0
 40
0.0
 40
0.0
 40
1.0
 40
1.0
 40
1.0
 40
1.0
 10
395.4382129860423
 20
121.0901338168508
 30
0.0
 10
395.4304608733417
 20
121.1007794935234
 30
0.0
 10
395.4226849146744
 20
121.1114078057176
 30
0.0
 10
395.414885188071
 20
121.12201864678
 30
0.0
  0
LINE
  5
C1
330
1F
100
AcDbEntity
  8
0
  6
Continuous
 62
     7
370
    25
100
AcDbLine
 10
396.185024722
 20
120.9289023665
 30
0.0
 11
395.6096261614
 21
120.9289023665
 31
0.0
  0
SPLINE
  5
C2
330
1F
100
AcDbEntity
  8
0
  6
Continuous
 62
     7
370
    25
100
AcDbSpline
210
0.0
220
0.0
230
1.0
 70
     8
 71
     3
 72
     8
 73
     4
 74
     0
 42
0.000000001
 43
0.00000001
 40
0.0
 40
0.0
 40
0.0
 40
0.0
 40
1.0
 40
1.0
 40
1.0
 40
1.0
 10
395.4382129860423
 20
121.0901338168508
 30
0.0
 10
395.4952761137285
 20
121.036501866435
 30
0.0
 10
395.5524144934587
 20
120.9827577800701
 30
0.0
 10
395.6096267869326
 20
120.9289025888199
 30
0.0
  0
ARC
  5
C3
330
1F
100
AcDbEntity
  8
0
  6
Continuous
 62
     7
370
    25
100
AcDbCircle
 10
388.3092953697
 20
115.8989022498
 30
0.0
 40
8.818749999999996
100
AcDbArc
 50
209.2047569376
 51
330.7952430624
  0
SPLINE
  5
C4
330
1F
100
AcDbEntity
  8
0
  6
Continuous
 62
     7
370
    25
100
AcDbSpline
210
0.0
220
0.0
230
1.0
 70
    24
 71
     3
 72
     8
 73
     4
 74
     0
 42
0.000000001
 43
0.00000001
 40
0.0
 40
0.0
 40
0.0
 40
0.0
 40
0.000136040218399
 40
0.000136040218399
 40
0.000136040218399
 40
0.000136040218399
 10
396.05043076659
 20
111.639361818967
 30
0.0
 10
396.035991766906
 20
111.6249228192829
 30
0.0
 10
396.0215213145437
 20
111.6104523669207
 30
0.0
 10
396.0070197159923
 20
111.5959507683692
 30
0.0
  0
SPLINE
  5
C5
330
1F
100
AcDbEntity
  8
0
  6
Continuous
 62
     7
370
    25
100
AcDbSpline
210
0.0
220
0.0
230
1.0
 70
     8
 71
     3
 72
     9
 73
     5
 74
     0
 42
0.000000001
 43
0.00000001
 40
0.0
 40
0.0
 40
0.0
 40
0.0
 40
0.5086448740973026
 40
1.0
 40
1.0
 40
1.0
 40
1.0
 10
396.6971134953463
 20
111.6350712131819
 30
0.0
 10
396.5879474463484
 20
111.6357650620269
 30
0.0
 10
396.3733260974327
 20
111.6371291745548
 30
0.0
 10
396.1568147847553
 20
111.6386259944926
 30
0.0
 10
396.0504308414554
 20
111.6393614646417
 30
0.0
  0
SPLINE
  5
C6
330
1F
100
AcDbEntity
  8
0
  6
Continuous
 62
     7
370
    25
100
AcDbSpline
210
0.0
220
0.0
230
1.0
 70
     8
 71
     3
 72
     9
 73
     5
 74
     0
 42
0.000000001
 43
0.00000001
 40
0.0
 40
0.0
 40
0.0
 40
0.0
 40
0.4913551252639757
 40
1.0
 40
1.0
 40
1.0
 40
1.0
 10
380.5681599285006
 20
111.639361434177
 30
0.0
 10
380.4617759771086
 20
111.6386259638482
 30
0.0
 10
380.2452646476809
 20
111.6371291435425
 30
0.0
 10
380.0306432823141
 20
111.6357650306882
 30
0.0
 10
379.9214772248114
 20
111.6350711816763
 30
0.0
  0
SPLINE
  5
C7
330
1F
100
AcDbEntity
  8
0
  6
Continuous
 62
     7
370
    25
100
AcDbSpline
210
0.0
220
0.0
230
1.0
 70
    24
 71
     3
 72
     8
 73
     4
 74
     0
 42
0.000000001
 43
0.00000001
 40
0.0
 40
0.0
 40
0.0
 40
0.0
 40
0.0001360401227241
 40
0.0001360401227241
 40
0.0001360401227241
 40
0.0001360401227241
 10
380.6115710234993
 20
111.5959507683692
 30
0.0
 10
380.5970694351465
 20
111.6104523567219
 30
0.0
 10
380.5825989929393
 20
111.6249227989291
 30
0.0
 10
380.568160003366
 20
111.6393617885025
 30
0.0
  0
LINE
  5
C8
330
1F
100
AcDbEntity
  8
0
  6
Continuous
 62
     7
370
    25
100
AcDbLine
 10
379.9108202443
 20
111.7926521239
 30
0.0
 11
380.4148697168
 21
111.7926521239
 31
0.0
  0
SPLINE
  5
C9
330
1F
100
AcDbEntity
  8
0
  6
Continuous
 62
     7
370
    25
100
AcDbSpline
210
0.0
220
0.0
230
1.0
 70
     8
 71
     3
 72
     8
 73
     4
 74
     0
 42
0.000000001
 43
0.00000001
 40
0.0
 40
0.0
 40
0.0
 40
0.0
 40
1.0
 40
1.0
 40
1.0
 40
1.0
 10
380.5681602031979
 20
111.6393615889154
 30
0.0
 10
380.5170914405935
 20
111.6904040806594
 30
0.0
 10
380.4659944809575
 20
111.7415010526854
 30
0.0
 10
380.4148696394419
 20
111.7926521524266
 30
0.0
  0
SPLINE
  5
CA
330
1F
100
AcDbEntity
  8
0
  6
Continuous
 62
     7
370
    25
100
AcDbSpline
210
0.0
220
0.0
230
1.0
 70
     8
 71
     3
 72
     8
 73
     4
 74
     0
 42
0.000000001
 43
0.00000001
 40
0.0
 40
0.0
 40
0.0
 40
0.0
 40
1.0
 40
1.0
 40
1.0
 40
1.0
 10
396.2037211000497
 20
111.7926521524267
 30
0.0
 10
396.1525962687045
 20
111.7415010628714
 30
0.0
 10
396.1014993192234
 20
111.6904041010004
 30
0.0
 10
396.0504305667582
 20
111.6393616193799
 30
0.0
  0
LINE
  5
CB
330
1F
100
AcDbEntity
  8
0
  6
Continuous
 62
     7
370
    25
100
AcDbLine
 10
396.2037210227
 20
111.7926521239
 30
0.0
 11
396.7077704952
 21
111.7926521239
 31
0.0
  0
CIRCLE
  5
CC
330
1F
100
AcDbEntity
  8
0
  6
Continuous
 62
     7
370
    25
100
AcDbCircle
 10
388.3092953697
 20
115.8989022498
 30
0.0
 40
12.47086902276413
  0
SPLINE
  5
CD
330
1F
100
AcDbEntity
  8
0
  6
Continuous
 62
     7
370
    25
100
AcDbSpline
210
0.0
220
0.0
230
1.0
 70
     8
 71
     3
 72
    23
 73
    19
 74
     0
 42
0.000000001
 43
0.00000001
 40
0.0
 40
0.0
 40
0.0
 40
0.0
 40
0.0521036415675031
 40
0.1035646240925967
 40
0.1544751946736949
 40
0.2049306267473421
 40
0.2550287880844035
 40
0.3048696389141012
 40
0.3545546704609132
 40
0.4041862979523234
 40
0.4538672252126086
 40
0.5036997999421611
 40
0.5901870230746071
 40
0.674271637822954
 40
0.7565997087222995
 40
0.8378563983721267
 40
0.9187511781367398
 40
1.0
 40
1.0
 40
1.0
 40
1.0
 10
377.4700432230882
 20
120.3893129625681
 30
0.0
 10
377.483337578038
 20
120.4184808557296
 30
0.0
 10
377.5097623121162
 20
120.4764568781336
 30
0.0
 10
377.54897331834
 20
120.5593561791456
 30
0.0
 10
377.5874152731457
 20
120.6385381601632
 30
0.0
 10
377.6250028546124
 20
120.7137929769651
 30
0.0
 10
377.6616587409199
 20
120.7852126312228
 30
0.0
 10
377.6973086049785
 20
120.8528092400044
 30
0.0
 10
377.7318823517398
 20
120.916615561469
 30
0.0
 10
377.7653140456957
 20
120.9766591035381
 30
0.0
 10
377.7975409229207
 20
121.0329658002648
 30
0.0
 10
377.8360423598103
 20
121.0983707820885
 30
0.0
 10
377.8787038405238
 20
121.1679318599246
 30
0.0
 10
377.9221968826468
 20
121.2346913565891
 30
0.0
 10
377.9586093794748
 20
121.2864154046869
 30
0.0
 10
377.9875101859519
 20
121.3228637167387
 30
0.0
 10
378.0094276420502
 20
121.3454611136219
 30
0.0
 10
378.0175396065435
 20
121.3480503311833
 30
0.0
 10
378.021604445066
 20
121.3493477667545
 30
0.0
  0
SPLINE
  5
CE
330
1F
100
AcDbEntity
  8
0
  6
Continuous
 62
     7
370
    25
100
AcDbSpline
210
0.0
220
0.0
230
1.0
 70
     8
 71
     3
 72
     8
 73
     4
 74
     0
 42
0.000000001
 43
0.00000001
 40
0.0
 40
0.0
 40
0.0
 40
0.0
 40
1.0
 40
1.0
 40
1.0
 40
1.0
 10
377.3494052832255
 20
120.3871026051582
 30
0.0
 10
377.3895942968185
 20
120.3878329153758
 30
0.0
 10
377.4297565989085
 20
120.3884134412053
 30
0.0
 10
377.469891309384
 20
120.388844406155
 30
0.0
  0
SPLINE
  5
CF
330
1F
100
AcDbEntity
  8
0
  6
Continuous
 62
     7
370
    25
100
AcDbSpline
210
0.0
220
0.0
230
1.0
 70
     8
 71
     3
 72
    18
 73
    14
 74
     0
 42
0.000000001
 43
0.00000001
 40
0.0
 40
0.0
 40
0.0
 40
0.0
 40
0.0923824559411628
 40
0.1844689291573508
 40
0.2764953615950219
 40
0.3686975365494161
 40
0.4613092840003458
 40
0.5545607518442569
 40
0.6486768051537182
 40
0.7438756050146744
 40
0.8403674044302629
 40
0.9203921078121001
 40
1.0
 40
1.0
 40
1.0
 40
1.0
 10
377.4023442720249
 20
120.6539196120401
 30
0.0
 10
377.4041799256776
 20
120.6537112998249
 30
0.0
 10
377.4078453517606
 20
120.6532953428027
 30
0.0
 10
377.4106406813797
 20
120.6464909193366
 30
0.0
 10
377.4114429764583
 20
120.6351575406844
 30
0.0
 10
377.4100768394151
 20
120.6188571456579
 30
0.0
 10
377.4066152907862
 20
120.597705906822
 30
0.0
 10
377.4010739850168
 20
120.5716702057055
 30
0.0
 10
377.3934895169479
 20
120.5407458260543
 30
0.0
 10
377.383912515011
 20
120.5049467946096
 30
0.0
 10
377.3730720389922
 20
120.4666958870784
 30
0.0
 10
377.3615833980533
 20
120.4274776736841
 30
0.0
 10
377.3534834131751
 20
120.4006226968346
 30
0.0
 10
377.3494439955325
 20
120.3872302684643
 30
0.0
  0
LINE
  5
D0
330
1F
100
AcDbEntity
  8
0
  6
Continuous
 62
     7
370
    25
100
AcDbLine
 10
377.3495891005
 20
120.6531717454
 30
0.0
 11
377.4023438678
 21
120.6539195975
 31
0.0
  0
SPLINE
  5
D1
330
1F
100
AcDbEntity
  8
0
  6
Continuous
 62
     7
370
    25
100
AcDbSpline
210
0.0
220
0.0
230
1.0
 70
     8
 71
     3
 72
    25
 73
    21
 74
     0
 42
0.000000001
 43
0.00000001
 40
0.0
 40
0.0
 40
0.0
 40
0.0
 40
0.0280105225426465
 40
0.0559601148860768
 40
0.0839014045043132
 40
0.1118870776786367
 40
0.1399695827588937
 40
0.1682008401739883
 40
0.196631967042422
 40
0.2253130233141467
 40
0.2542927850735845
 40
0.3799486436587335
 40
0.5057850221667067
 40
0.6313085886338298
 40
0.7532068238012468
 40
0.8039473267955921
 40
0.8535894438554446
 40
0.9025339722394071
 40
0.9511970353791085
 40
1.0
 40
1.0
 40
1.0
 40
1.0
 10
376.4386275049721
 20
118.0862399923525
 30
0.0
 10
376.445606574883
 20
118.1235500058593
 30
0.0
 10
376.4595495334058
 20
118.1980888738529
 30
0.0
 10
376.4820714308487
 20
118.3093979193361
 30
0.0
 10
376.5057050429463
 20
118.4200601283505
 30
0.0
 10
376.5305546334343
 20
118.5300442612948
 30
0.0
 10
376.5565732579205
 20
118.6393394049094
 30
0.0
 10
376.5837546392384
 20
118.7479303741115
 30
0.0
 10
376.6120802805709
 20
118.8558010840539
 30
0.0
 10
376.6415390614035
 20
118.9629460297789
 30
0.0
 10
376.7059473493156
 20
119.1871209162908
 30
0.0
 10
376.8110490413875
 20
119.5137863303268
 30
0.0
 10
376.9565118021836
 20
119.8997329356467
 30
0.0
 10
377.0957752102934
 20
120.2218127483368
 30
0.0
 10
377.192923563161
 20
120.4176333323685
 30
0.0
 10
377.2532189693873
 20
120.5269807828519
 30
0.0
 10
377.2881075522685
 20
120.5849088072672
 30
0.0
 10
377.3160020541964
 20
120.6253627600322
 30
0.0
 10
377.337367146568
 20
120.6499769754312
 30
0.0
 10
377.3455110941406
 20
120.6521059029388
 30
0.0
 10
377.3495889127857
 20
120.6531718946102
 30
0.0
  0
ARC
  5
D2
330
1F
100
AcDbEntity
  8
0
  6
Continuous
 62
     7
370
    25
100
AcDbCircle
 10
388.3092953697
 20
115.8989022498
 30
0.0
 40
12.07050959801141
100
AcDbArc
 50
169.5595567507
 51
190.4404432494
  0
SPLINE
  5
D3
330
1F
100
AcDbEntity
  8
0
  6
Continuous
 62
     7
370
    25
100
AcDbSpline
210
0.0
220
0.0
230
1.0
 70
     8
 71
     3
 72
    26
 73
    22
 74
     0
 42
0.000000001
 43
0.00000001
 40
0.0
 40
0.0
 40
0.0
 40
0.0
 40
0.0241259796963635
 40
0.0482159912272988
 40
0.0723203915124065
 40
0.0964895678710797
 40
0.1207736231963513
 40
0.1452220711242836
 40
0.1698835501657706
 40
0.1948055644472379
 40
0.2200342569517627
 40
0.2456142191611387
 40
0.3690971486901655
 40
0.4940698769485187
 40
0.6192566784762451
 40
0.7454656653603225
 40
0.7971495824713707
 40
0.8481710308405392
 40
0.8988013269235234
 40
0.9493179290492194
 40
1.0
 40
1.0
 40
1.0
 40
1.0
 10
377.3495889127857
 20
111.1446326050261
 30
0.0
 10
377.3476785980453
 20
111.1449194982155
 30
0.0
 10
377.3438608165531
 20
111.1454928568803
 30
0.0
 10
377.3359006913722
 20
111.1515515451267
 30
0.0
 10
377.3263215907967
 20
111.1614308058576
 30
0.0
 10
377.3149743839281
 20
111.175511896968
 30
0.0
 10
377.3019182006341
 20
111.1937074449921
 30
0.0
 10
377.2871622974068
 20
111.2160579877308
 30
0.0
 10
377.2707351171094
 20
111.2425722234229
 30
0.0
 10
377.2526669623892
 20
111.2732677341362
 30
0.0
 10
377.2329898159662
 20
111.3081688373761
 30
0.0
 10
377.1847904345379
 20
111.3969333724838
 30
0.0
 10
377.0964723951026
 20
111.5742136739326
 30
0.0
 10
376.9574127783358
 20
111.8952995807777
 30
0.0
 10
376.8117400984736
 20
112.2818822326682
 30
0.0
 10
376.6980015034642
 20
112.6355899367982
 30
0.0
 10
376.6182958849176
 20
112.9178436364109
 30
0.0
 10
376.5676463125633
 20
113.1122870671852
 30
0.0
 10
376.520679642698
 20
113.3095284441194
 30
0.0
 10
376.4771198206936
 20
113.5094314892145
 30
0.0
 10
376.4514722555621
 20
113.6441134289467
 30
0.0
 10
376.4386275049721
 20
113.7115645072839
 30
0.0
  0
LINE
  5
D4
330
1F
100
AcDbEntity
  8
0
  6
Continuous
 62
     7
370
    25
100
AcDbLine
 10
377.4023438678
 20
111.1438849022
 30
0.0
 11
377.3495891005
 21
111.1446327542
 31
0.0
  0
SPLINE
  5
D5
330
1F
100
AcDbEntity
  8
0
  6
Continuous
 62
     7
370
    25
100
AcDbSpline
210
0.0
220
0.0
230
1.0
 70
     8
 71
     3
 72
    14
 73
    10
 74
     0
 42
0.000000001
 43
0.00000001
 40
0.0
 40
0.0
 40
0.0
 40
0.0
 40
0.0789261963172865
 40
0.158232872055133
 40
0.330847539457262
 40
0.5000195457610529
 40
0.6670357883572423
 40
0.8332395193657144
 40
1.0
 40
1.0
 40
1.0
 40
1.0
 10
377.349347415173
 20
111.4109083649009
 30
0.0
 10
377.3533619617691
 20
111.3976052402632
 30
0.0
 10
377.3614104078812
 20
111.3709348606308
 30
0.0
 10
377.3763111146908
 20
111.320120121311
 30
0.0
 10
377.3922080962873
 20
111.2630803051241
 30
0.0
 10
377.4052865912851
 20
111.2087770883961
 30
0.0
 10
377.4115191984023
 20
111.1706099456733
 30
0.0
 10
377.4113296185654
 20
111.1472012169965
 30
0.0
 10
377.4053427244347
 20
111.1449915623179
 30
0.0
 10
377.4023442720249
 20
111.1438848875962
 30
0.0
  0
SPLINE
  5
D6
330
1F
100
AcDbEntity
  8
0
  6
Continuous
 62
     7
370
    25
100
AcDbSpline
210
0.0
220
0.0
230
1.0
 70
     8
 71
     3
 72
     8
 73
     4
 74
     0
 42
0.000000001
 43
0.00000001
 40
0.0
 40
0.0
 40
0.0
 40
0.0
 40
1.0
 40
1.0
 40
1.0
 40
1.0
 10
377.4966521063976
 20
111.4088472864505
 30
0.0
 10
377.4475841913688
 20
111.4093343396624
 30
0.0
 10
377.3984747538479
 20
111.4100454075373
 30
0.0
 10
377.3493254093227
 20
111.4109809007716
 30
0.0
  0
SPLINE
  5
D7
330
1F
100
AcDbEntity
  8
0
  6
Continuous
 62
     7
370
    25
100
AcDbSpline
210
0.0
220
0.0
230
1.0
 70
     8
 71
     3
 72
    13
 73
     9
 74
     0
 42
0.000000001
 43
0.00000001
 40
0.0
 40
0.0
 40
0.0
 40
0.0
 40
0.1667030582307992
 40
0.3329480818053035
 40
0.4990671507274896
 40
0.6653938523718403
 40
0.832261271055009
 40
1.0
 40
1.0
 40
1.0
 40
1.0
 10
377.5549856385685
 20
111.3401337616665
 30
0.0
 10
377.5531423247316
 20
111.3405508714323
 30
0.0
 10
377.5494607617617
 20
111.3413839449097
 30
0.0
 10
377.5419435079672
 20
111.3473984237361
 30
0.0
 10
377.5329927038507
 20
111.3568931560283
 30
0.0
 10
377.5224424154277
 20
111.3703027631379
 30
0.0
 10
377.5104692299107
 20
111.3872206667615
 30
0.0
 10
377.5012628223043
 20
111.401633401901
 30
0.0
 10
377.4966476318154
 20
111.4088585347625
 30
0.0
  0
SPLINE
  5
D8
330
1F
100
AcDbEntity
  8
0
  6
Continuous
 62
     7
370
    25
100
AcDbSpline
210
0.0
220
0.0
230
1.0
 70
     8
 71
     3
 72
    13
 73
     9
 74
     0
 42
0.000000001
 43
0.00000001
 40
0.0
 40
0.0
 40
0.0
 40
0.0
 40
0.1686319999748085
 40
0.3360343310905433
 40
0.502536782590866
 40
0.6684737453788339
 40
0.834182263691515
 40
1.0
 40
1.0
 40
1.0
 40
1.0
 10
399.121944488794
 20
111.4088619845753
 30
0.0
 10
399.1173072436958
 20
111.4016048245559
 30
0.0
 10
399.1080665684094
 20
111.3871434239136
 30
0.0
 10
399.0960511950424
 20
111.3701627272095
 30
0.0
 10
399.0854856412878
 20
111.35672994603
 30
0.0
 10
399.0765462919948
 20
111.347250477476
 30
0.0
 10
399.0690654114063
 20
111.3412852517782
 30
0.0
 10
399.0654256041168
 20
111.3405176759938
 30
0.0
 10
399.063605100923
 20
111.3401337616665
 30
0.0
  0
SPLINE
  5
D9
330
1F
100
AcDbEntity
  8
0
  6
Continuous
 62
     7
370
    25
100
AcDbSpline
210
0.0
220
0.0
230
1.0
 70
     8
 71
     3
 72
     8
 73
     4
 74
     0
 42
0.000000001
 43
0.00000001
 40
0.0
 40
0.0
 40
0.0
 40
0.0
 40
1.0
 40
1.0
 40
1.0
 40
1.0
 10
399.2692701007665
 20
111.4109810055181
 30
0.0
 10
399.2201191711582
 20
111.4100454752561
 30
0.0
 10
399.1710081510789
 20
111.409334384744
 30
0.0
 10
399.1219386561712
 20
111.408847323246
 30
0.0
  0
SPLINE
  5
DA
330
1F
100
AcDbEntity
  8
0
  6
Continuous
 62
     7
370
    25
100
AcDbSpline
210
0.0
220
0.0
230
1.0
 70
     8
 71
     3
 72
    18
 73
    14
 74
     0
 42
0.000000001
 43
0.00000001
 40
0.0
 40
0.0
 40
0.0
 40
0.0
 40
0.0923325137111192
 40
0.1843692047063016
 40
0.2763458873810836
 40
0.3684982175655623
 40
0.4610598988303626
 40
0.554260954653301
 40
0.6483261285442131
 40
0.74347346365053
 40
0.8399130993119804
 40
0.9201660718299768
 40
1.0
 40
1.0
 40
1.0
 40
1.0
 10
399.2162464674666
 20
111.1438848875962
 30
0.0
 10
399.2144108138141
 20
111.144093199812
 30
0.0
 10
399.2107453877315
 20
111.1445091568354
 30
0.0
 10
399.2079500581092
 20
111.1513135802927
 30
0.0
 10
399.2071477630424
 20
111.1626469589785
 30
0.0
 10
399.2085139000417
 20
111.1789473538788
 30
0.0
 10
399.2119754488357
 20
111.200098593189
 30
0.0
 10
399.2175167539821
 20
111.2261342925166
 30
0.0
 10
399.2251012244094
 20
111.2570586789392
 30
0.0
 10
399.2346782173898
 20
111.2928576846673
 30
0.0
 10
399.2455295644156
 20
111.3311469297811
 30
0.0
 10
399.2570443260476
 20
111.3704525541976
 30
0.0
 10
399.2651760348687
 20
111.3974096320913
 30
0.0
 10
399.2692312464765
 20
111.4108528895407
 30
0.0
  0
LINE
  5
DB
330
1F
100
AcDbEntity
  8
0
  6
Continuous
 62
     7
370
    25
100
AcDbLine
 10
399.269001639
 20
111.1446327542
 30
0.0
 11
399.2162468717
 21
111.1438849022
 31
0.0
  0
SPLINE
  5
DC
330
1F
100
AcDbEntity
  8
0
  6
Continuous
 62
     7
370
    25
100
AcDbSpline
210
0.0
220
0.0
230
1.0
 70
     8
 71
     3
 72
    25
 73
    21
 74
     0
 42
0.000000001
 43
0.00000001
 40
0.0
 40
0.0
 40
0.0
 40
0.0
 40
0.0280105225422753
 40
0.0559601148854256
 40
0.0839014045034749
 40
0.1118870776777086
 40
0.1399695827579646
 40
0.1682008401731476
 40
0.1966319670417595
 40
0.2253130233137476
 40
0.2542927850735311
 40
0.3799486436564626
 40
0.5057850221666382
 40
0.631308588631066
 40
0.7532068238011618
 40
0.8039473267946936
 40
0.8535894438541253
 40
0.9025339722380873
 40
0.9511970353782256
 40
1.0
 40
1.0
 40
1.0
 40
1.0
 10
400.1799632345194
 20
113.7115645072839
 30
0.0
 10
400.1729841646086
 20
113.6742544937777
 30
0.0
 10
400.1590412060859
 20
113.5997156257849
 30
0.0
 10
400.1365193086433
 20
113.4884065803028
 30
0.0
 10
400.1128856965459
 20
113.3777443712891
 30
0.0
 10
400.088036106058
 20
113.2677602383452
 30
0.0
 10
400.0620174815718
 20
113.1584650947306
 30
0.0
 10
400.0348361002539
 20
113.0498741255281
 30
0.0
 10
400.0065104589212
 20
112.942003415585
 30
0.0
 10
399.9770516780883
 20
112.8348584698589
 30
0.0
 10
399.9126433901768
 20
112.6106835833484
 30
0.0
 10
399.807541698105
 20
112.2840181693124
 30
0.0
 10
399.6620789373097
 20
111.8980715639943
 30
0.0
 10
399.5228155291991
 20
111.5759917513017
 30
0.0
 10
399.4256671763319
 20
111.3801711672706
 30
0.0
 10
399.3653717701043
 20
111.2708237167841
 30
0.0
 10
399.3304831872232
 20
111.2128956923689
 30
0.0
 10
399.3025886852953
 20
111.172441739604
 30
0.0
 10
399.2812235929236
 20
111.1478275242051
 30
0.0
 10
399.2730796453509
 20
111.1456985966975
 30
0.0
 10
399.2690018267058
 20
111.1446326050261
 30
0.0
  0
ARC
  5
DD
330
1F
100
AcDbEntity
  8
0
  6
Continuous
 62
     7
370
    25
100
AcDbCircle
 10
388.3092953697
 20
115.8989022498
 30
0.0
 40
12.07050959801147
100
AcDbArc
 50
349.5595567507
 51
10.4404432493
  0
SPLINE
  5
DE
330
1F
100
AcDbEntity
  8
0
  6
Continuous
 62
     7
370
    25
100
AcDbSpline
210
0.0
220
0.0
230
1.0
 70
     8
 71
     3
 72
    26
 73
    22
 74
     0
 42
0.000000001
 43
0.00000001
 40
0.0
 40
0.0
 40
0.0
 40
0.0
 40
0.0241259796962591
 40
0.0482159912271133
 40
0.0723203915121637
 40
0.0964895678708023
 40
0.1207736231960627
 40
0.1452220711240065
 40
0.1698835501655268
 40
0.1948055644470484
 40
0.220034256951649
 40
0.2456142191611191
 40
0.3690971486898426
 40
0.4940698769485092
 40
0.6192566784753767
 40
0.7454656653602836
 40
0.7971495824708205
 40
0.848171030839725
 40
0.8988013269227118
 40
0.9493179290486752
 40
1.0
 40
1.0
 40
1.0
 40
1.0
 10
399.2690018267058
 20
120.6531718946103
 30
0.0
 10
399.2709121414462
 20
120.6528850014208
 30
0.0
 10
399.2747299229384
 20
120.6523116427561
 30
0.0
 10
399.2826900481193
 20
120.6462529545096
 30
0.0
 10
399.2922691486947
 20
120.6363736937788
 30
0.0
 10
399.3036163555634
 20
120.6222926026684
 30
0.0
 10
399.3166725388573
 20
120.6040970546442
 30
0.0
 10
399.3314284420846
 20
120.5817465119055
 30
0.0
 10
399.347855622382
 20
120.5552322762135
 30
0.0
 10
399.3659237771022
 20
120.5245367655002
 30
0.0
 10
399.3856009235253
 20
120.4896356622603
 30
0.0
 10
399.4338003049534
 20
120.400871127153
 30
0.0
 10
399.5221183443887
 20
120.2235908257042
 30
0.0
 10
399.6611779611553
 20
119.9025049188598
 30
0.0
 10
399.8068506410176
 20
119.5159222669686
 30
0.0
 10
399.9205892360268
 20
119.1622145628397
 30
0.0
 10
400.0002948545734
 20
118.8799608632273
 30
0.0
 10
400.0509444269275
 20
118.685517432454
 30
0.0
 10
400.0979110967929
 20
118.4882760555199
 30
0.0
 10
400.1414709187976
 20
118.2883730104237
 30
0.0
 10
400.1671184839293
 20
118.1536910706904
 30
0.0
 10
400.1799632345194
 20
118.0862399923525
 30
0.0
  0
LINE
  5
DF
330
1F
100
AcDbEntity
  8
0
  6
Continuous
 62
     7
370
    25
100
AcDbLine
 10
399.2162468717
 20
120.6539195975
 30
0.0
 11
399.269001639
 21
120.6531717454
 31
0.0
  0
SPLINE
  5
E0
330
1F
100
AcDbEntity
  8
0
  6
Continuous
 62
     7
370
    25
100
AcDbSpline
210
0.0
220
0.0
230
1.0
 70
     8
 71
     3
 72
    14
 73
    10
 74
     0
 42
0.000000001
 43
0.00000001
 40
0.0
 40
0.0
 40
0.0
 40
0.0
 40
0.0786889129232242
 40
0.1577561817122941
 40
0.3304686003115578
 40
0.4997364082435315
 40
0.6668472316653192
 40
0.8331450833767118
 40
1.0
 40
1.0
 40
1.0
 40
1.0
 10
399.2691547542433
 20
120.3871881028226
 30
0.0
 10
399.2651567452887
 20
120.4004380073384
 30
0.0
 10
399.257141503958
 20
120.4270015252067
 30
0.0
 10
399.2422688306685
 20
120.4777230529755
 30
0.0
 10
399.2263826659063
 20
120.5347241319994
 30
0.0
 10
399.213304142262
 20
120.5890274276084
 30
0.0
 10
399.2070715426569
 20
120.6271945496457
 30
0.0
 10
399.2072611205334
 20
120.6506032837212
 30
0.0
 10
399.2132480149257
 20
120.6528129376793
 30
0.0
 10
399.2162464674666
 20
120.6539196120401
 30
0.0
  0
SPLINE
  5
E1
330
1F
100
AcDbEntity
  8
0
  6
Continuous
 62
     7
370
    25
100
AcDbSpline
210
0.0
220
0.0
230
1.0
 70
     8
 71
     3
 72
     8
 73
     4
 74
     0
 42
0.000000001
 43
0.00000001
 40
0.0
 40
0.0
 40
0.0
 40
0.0
 40
1.0
 40
1.0
 40
1.0
 40
1.0
 10
399.1486994135606
 20
120.3888444427879
 30
0.0
 10
399.1888325320673
 20
120.3884134888406
 30
0.0
 10
399.2289932399958
 20
120.3878329858281
 30
0.0
 10
399.2691806573388
 20
120.3871027102686
 30
0.0
  0
SPLINE
  5
E2
330
1F
100
AcDbEntity
  8
0
  6
Continuous
 62
     7
370
    25
100
AcDbSpline
210
0.0
220
0.0
230
1.0
 70
     8
 71
     3
 72
    23
 73
    19
 74
     0
 42
0.000000001
 43
0.00000001
 40
0.0
 40
0.0
 40
0.0
 40
0.0
 40
0.0441308420121292
 40
0.0880968635211716
 40
0.1320155028408941
 40
0.1760048571434164
 40
0.2201827305793597
 40
0.2646656976937351
 40
0.3095682184569769
 40
0.355001836559425
 40
0.401074485474427
 40
0.4478899182339682
 40
0.4955472680213688
 40
0.5953670562452651
 40
0.6949121173401501
 40
0.7950007648984784
 40
0.8964386255170008
 40
1.0
 40
1.0
 40
1.0
 40
1.0
 10
398.5969862944255
 20
121.3493477667546
 30
0.0
 10
398.5989706845323
 20
121.3490649095246
 30
0.0
 10
398.6029320534172
 20
121.3485002514841
 30
0.0
 10
398.6117923576477
 20
121.3420808983053
 30
0.0
 10
398.62276483577
 20
121.3315596487987
 30
0.0
 10
398.6360442337905
 20
121.316528112489
 30
0.0
 10
398.6515549574568
 20
121.2970758674266
 30
0.0
 10
398.6692864192099
 20
121.2731558894745
 30
0.0
 10
398.689203065913
 20
121.2447547987607
 30
0.0
 10
398.7112685999252
 20
121.21184705896
 30
0.0
 10
398.7354395236192
 20
121.1744070763038
 30
0.0
 10
398.7616665336666
 20
121.1324070046739
 30
0.0
 10
398.8000031138976
 20
121.0691298961508
 30
0.0
 10
398.8523358932761
 20
120.9790710337876
 30
0.0
 10
398.9207365044842
 20
120.8547249142209
 30
0.0
 10
398.9934215792797
 20
120.7150118362404
 30
0.0
 10
399.0697818151796
 20
120.560675821012
 30
0.0
 10
399.1220706298298
 20
120.4469531667842
 30
0.0
 10
399.1484858577333
 20
120.3895028334898
 30
0.0
  0
SPLINE
  5
E3
330
1F
100
AcDbEntity
  8
0
  6
Continuous
 62
     7
370
    25
100
AcDbSpline
210
0.0
220
0.0
230
1.0
 70
    11
 71
     3
 72
    39
 73
    35
 74
     0
 42
0.000000001
 43
0.00000001
 40
0.0
 40
0.0
 40
0.0
 40
0.0
 40
0.0310664058348413
 40
0.0621048158426138
 40
0.0931361551796939
 40
0.1235538293503726
 40
0.1538561545809849
 40
0.1850588072749156
 40
0.2160250992946587
 40
0.2471867223797568
 40
0.2784462884304475
 40
0.3100516090231247
 40
0.3419834369138969
 40
0.3734259894013238
 40
0.4048604886787081
 40
0.436874065183343
 40
0.4685120685926471
 40
0.499805535863323
 40
0.5309508213226204
 40
0.5618649784438111
 40
0.5930416446590877
 40
0.623374245013332
 40
0.6540913579072549
 40
0.6849496782718453
 40
0.7158160645166705
 40
0.7471731804043553
 40
0.7784514311866318
 40
0.810129591156098
 40
0.8419598919688388
 40
0.8735175891922303
 40
0.9050808037886594
 40
0.9370235169792582
 40
0.9687441590030581
 40
1.0
 40
1.0
 40
1.0
 40
1.0
 10
391.2134219345431
 20
104.4672720660648
 30
0.0
 10
391.4031337634977
 20
104.5060406428123
 30
0.0
 10
391.7468746139466
 20
104.5824715885953
 30
0.0
 10
392.1298316011542
 20
104.6706111285885
 30
0.0
 10
392.3742720678693
 20
104.7175606152335
 30
0.0
 10
392.4552610046856
 20
104.7056516905197
 30
0.0
 10
392.3745385592039
 20
104.6336937838043
 30
0.0
 10
392.1346763655842
 20
104.5091735176069
 30
0.0
 10
391.7580266314869
 20
104.3518045277817
 30
0.0
 10
391.2517836946591
 20
104.1797804430867
 30
0.0
 10
390.6345093009757
 20
104.0148560355011
 30
0.0
 10
389.9220334868359
 20
103.8771434594226
 30
0.0
 10
389.1465682470633
 20
103.7855106469139
 30
0.0
 10
388.336103813449
 20
103.7521780688184
 30
0.0
 10
387.5235993404865
 20
103.7814255143717
 30
0.0
 10
386.7440863503494
 20
103.8697544713593
 30
0.0
 10
386.025758051014
 20
104.0052599709941
 30
0.0
 10
385.4023859436139
 20
104.1690364924854
 30
0.0
 10
384.8892873490183
 20
104.3410426366307
 30
0.0
 10
384.5040852391569
 20
104.4998546511019
 30
0.0
 10
384.2546606339159
 20
104.6271136162673
 30
0.0
 10
384.1640585939695
 20
104.7027205732223
 30
0.0
 10
384.2322701649287
 20
104.7194899699022
 30
0.0
 10
384.4644860313314
 20
104.6767096276869
 30
0.0
 10
384.8417030685157
 20
104.5895829427771
 30
0.0
 10
385.3534079362833
 20
104.4748538874701
 30
0.0
 10
385.9768790670302
 20
104.3554317424175
 30
0.0
 10
386.693423770163
 20
104.2508062923682
 30
0.0
 10
387.4717548827739
 20
104.1801577994414
 30
0.0
 10
388.2835863696238
 20
104.1540789750113
 30
0.0
 10
389.097360891621
 20
104.1771045467021
 30
0.0
 10
389.8797347357865
 20
104.2453369848397
 30
0.0
 10
390.6017477705204
 20
104.3485841645495
 30
0.0
 10
391.0225532903694
 20
104.428267088246
 30
0.0
 10
391.2134219345431
 20
104.4672720660647
 30
0.0
  0
SPLINE
  5
E4
330
1F
100
AcDbEntity
  8
0
  6
Continuous
 62
     7
370
    25
100
AcDbSpline
210
0.0
220
0.0
230
1.0
 70
    11
 71
     3
 72
    39
 73
    35
 74
     0
 42
0.000000001
 43
0.00000001
 40
0.0
 40
0.0
 40
0.0
 40
0.0
 40
0.0312651429934057
 40
0.0629601069329321
 40
0.0948697276489808
 40
0.1264264963751833
 40
0.1579651393672472
 40
0.1898765439016956
 40
0.221552335268876
 40
0.2527844076550827
 40
0.2838418966734154
 40
0.3148645781100674
 40
0.3459127639308091
 40
0.3763475365526575
 40
0.4066751324671412
 40
0.4379141187435632
 40
0.4688932367345488
 40
0.5000738678969536
 40
0.5313369410958942
 40
0.5629183719104849
 40
0.5948445736343699
 40
0.6262809966135365
 40
0.6577486436587271
 40
0.6897584692806508
 40
0.7214430019610059
 40
0.7527623343195418
 40
0.7839279690572818
 40
0.8148885765585865
 40
0.8460375004982862
 40
0.8763409566916784
 40
0.906758919146387
 40
0.9378312724751761
 40
0.9689189660506093
 40
1.0
 40
1.0
 40
1.0
 40
1.0
 10
391.2133176847562
 20
127.3305644860073
 30
0.0
 10
391.0222437484746
 20
127.369628443888
 30
0.0
 10
390.6013091860351
 20
127.4493474384481
 30
0.0
 10
389.8799197808714
 20
127.5524628537985
 30
0.0
 10
389.098263732581
 20
127.6206637262225
 30
0.0
 10
388.2851760128702
 20
127.6437206188644
 30
0.0
 10
387.4728957960181
 20
127.6177363452182
 30
0.0
 10
386.6942653709687
 20
127.54714617998
 30
0.0
 10
385.9775895810571
 20
127.4425306177408
 30
0.0
 10
385.3557143113956
 20
127.3233582927244
 30
0.0
 10
384.8462033779097
 20
127.2094211249981
 30
0.0
 10
384.4710840316654
 20
127.1233068460517
 30
0.0
 10
384.2351234568146
 20
127.0792511247158
 30
0.0
 10
384.163722913633
 20
127.094780925427
 30
0.0
 10
384.2543193434308
 20
127.1702898076109
 30
0.0
 10
384.5032956237902
 20
127.2974633354551
 30
0.0
 10
384.888210443633
 20
127.4563140140674
 30
0.0
 10
385.4009957504552
 20
127.6283382752774
 30
0.0
 10
386.02345487338
 20
127.7920113548121
 30
0.0
 10
386.7399550181865
 20
127.9274129281923
 30
0.0
 10
387.5180540522966
 20
128.0159305956751
 30
0.0
 10
388.3297767409436
 20
128.0456380041579
 30
0.0
 10
389.1412189286449
 20
128.0127515595078
 30
0.0
 10
389.918344820127
 20
127.921270651463
 30
0.0
 10
390.6327829092975
 20
127.7833864615016
 30
0.0
 10
391.2510058675329
 20
127.6182586366517
 30
0.0
 10
391.7573732282588
 20
127.4462080992991
 30
0.0
 10
392.1339257496725
 20
127.2889245775889
 30
0.0
 10
392.3736215611039
 20
127.1645207801049
 30
0.0
 10
392.4550882692981
 20
127.0923326066686
 30
0.0
 10
392.3750290268063
 20
127.0800600982905
 30
0.0
 10
392.1306830208526
 20
127.1269555087967
 30
0.0
 10
391.7477095874036
 20
127.2150890569422
 30
0.0
 10
391.4032664561938
 20
127.2917305615521
 30
0.0
 10
391.2133176847562
 20
127.3305644860073
 30
0.0
  0
SPLINE
  5
E5
330
1F
100
AcDbEntity
  8
0
  6
Continuous
 62
     7
370
    25
100
AcDbSpline
210
0.0
220
0.0
230
1.0
 70
     8
 71
     3
 72
    23
 73
    19
 74
     0
 42
0.000000001
 43
0.00000001
 40
0.0
 40
0.0
 40
0.0
 40
0.0
 40
0.0449850911516383
 40
0.0909520670767777
 40
0.1379394291255006
 40
0.1859832248910951
 40
0.2351171761689533
 40
0.2853728096402591
 40
0.3367795876576951
 40
0.3893650370792399
 40
0.4431548745925064
 40
0.498173127394291
 40
0.5575107590849617
 40
0.6265492281305397
 40
0.7053073138942775
 40
0.7937970253739629
 40
0.8920262115920568
 40
1.0
 40
1.0
 40
1.0
 40
1.0
 10
378.4183536581885
 20
120.9289022498182
 30
0.0
 10
378.4161909688229
 20
120.9284733481586
 30
0.0
 10
378.4118183853024
 20
120.9276061832488
 30
0.0
 10
378.4015374261109
 20
120.9205126156478
 30
0.0
 10
378.388477148081
 20
120.9088998740688
 30
0.0
 10
378.3723579865268
 20
120.8921105038962
 30
0.0
 10
378.3532575588708
 20
120.8700385172815
 30
0.0
 10
378.3311552061149
 20
120.8424410435181
 30
0.0
 10
378.3060547275792
 20
120.8091326123088
 30
0.0
 10
378.2779635962013
 20
120.7699322739021
 30
0.0
 10
378.2468476953492
 20
120.7246902284289
 30
0.0
 10
378.2122087644671
 20
120.6722942960396
 30
0.0
 10
378.1714872561883
 20
120.6095118278204
 30
0.0
 10
378.1227663351635
 20
120.5317548285617
 30
0.0
 10
378.0649919968456
 20
120.4344702709833
 30
0.0
 10
377.9980813472006
 20
120.3147254372642
 30
0.0
 10
377.9221373829071
 20
120.17080523236
 30
0.0
 10
377.8677762182219
 20
120.0600710274669
 30
0.0
 10
377.8393111541075
 20
120.0020874235431
 30
0.0
  0
LINE
  5
E6
330
1F
100
AcDbEntity
  8
0
  6
Continuous
 62
     7
370
    25
100
AcDbLine
 10
377.8393111066
 20
120.0026135904
 30
0.0
 11
377.4699718565
 21
120.388698486
 31
0.0
  0
LINE
  5
E7
330
1F
100
AcDbEntity
  8
0
  6
Continuous
 62
     7
370
    25
100
AcDbLine
 10
399.1485862867
 20
120.3886388813
 30
0.0
 11
398.7793196798
 21
120.0026308199
 31
0.0
  0
SPLINE
  5
E8
330
1F
100
AcDbEntity
  8
0
  6
Continuous
 62
     7
370
    25
100
AcDbSpline
210
0.0
220
0.0
230
1.0
 70
     8
 71
     3
 72
    26
 73
    22
 74
     0
 42
0.000000001
 43
0.00000001
 40
0.0
 40
0.0
 40
0.0
 40
0.0
 40
0.0509383868653979
 40
0.0998291548270505
 40
0.1466728126490638
 40
0.1914699456369332
 40
0.2342212299774179
 40
0.274927450668867
 40
0.3135895241747119
 40
0.3502085273716571
 40
0.3847857350077695
 40
0.4173226688482998
 40
0.4478211631571791
 40
0.4762834534603437
 40
0.5027122992246547
 40
0.593906700502561
 40
0.6816015993191188
 40
0.7659159552051488
 40
0.846983628966416
 40
0.9249552229440475
 40
1.0
 40
1.0
 40
1.0
 40
1.0
 10
398.7793200700523
 20
120.0018966932933
 30
0.0
 10
398.7658622058543
 20
120.0295174744577
 30
0.0
 10
398.7394874560566
 20
120.0836487379109
 30
0.0
 10
398.7011152762776
 20
120.1599567749861
 30
0.0
 10
398.6646490937854
 20
120.2307089545779
 30
0.0
 10
398.6301128441616
 20
120.295880781266
 30
0.0
 10
398.5975003923088
 20
120.3557390265177
 30
0.0
 10
398.5668131085159
 20
120.4105041860591
 30
0.0
 10
398.5380504922147
 20
120.4604285773711
 30
0.0
 10
398.5112123277423
 20
120.5057708079662
 30
0.0
 10
398.4862987473141
 20
120.546796746907
 30
0.0
 10
398.4633081005254
 20
120.5837741318541
 30
0.0
 10
398.4422445950357
 20
120.6169702478374
 30
0.0
 10
398.4230922246566
 20
120.6466459801047
 30
0.0
 10
398.3914211477117
 20
120.6953163051544
 30
0.0
 10
398.3499512022751
 20
120.7572116230732
 30
0.0
 10
398.3029616861314
 20
120.8225522304969
 30
0.0
 10
398.2643431164164
 20
120.8716706217887
 30
0.0
 10
398.2342946566951
 20
120.9051469103009
 30
0.0
 10
398.2120045457259
 20
120.9252643425389
 30
0.0
 10
398.2041092302925
 20
120.9277051763885
 30
0.0
 10
398.200237081303
 20
120.9289022498182
 30
0.0
  0
SPLINE
  5
E9
330
1F
100
AcDbEntity
  8
0
  6
Continuous
 62
     7
370
    25
100
AcDbSpline
210
0.0
220
0.0
230
1.0
 70
     8
 71
     3
 72
     8
 73
     4
 74
     0
 42
0.000000001
 43
0.00000001
 40
0.0
 40
0.0
 40
0.0
 40
0.0
 40
1.0
 40
1.0
 40
1.0
 40
1.0
 10
396.0509758215462
 20
120.1219005763009
 30
0.0
 10
396.1145688018862
 20
120.0562317984541
 30
0.0
 10
396.1785252283215
 20
119.9918895007939
 30
0.0
 10
396.2427241480289
 20
119.9301522498182
 30
0.0
  0
SPLINE
  5
EA
330
1F
100
AcDbEntity
  8
0
  6
Continuous
 62
     7
370
    25
100
AcDbSpline
210
0.0
220
0.0
230
1.0
 70
     8
 71
     3
 72
    25
 73
    21
 74
     0
 42
0.000000001
 43
0.00000001
 40
0.0
 40
0.0
 40
0.0
 40
0.0
 40
0.0367725003254103
 40
0.074208401060063
 40
0.1123590542807964
 40
0.1512729822568881
 40
0.190995910016845
 40
0.2315708273504481
 40
0.2730380740418892
 40
0.3154354426077851
 40
0.3587982934432034
 40
0.4031596779810961
 40
0.4485504661847858
 40
0.494999475376923
 40
0.5532504315673752
 40
0.621829488573267
 40
0.7007739996560722
 40
0.7901076726660372
 40
0.8898461547533933
 40
1.0
 40
1.0
 40
1.0
 40
1.0
 10
395.6090546342346
 20
120.9289022498178
 30
0.0
 10
395.6092784082995
 20
120.9285775621841
 30
0.0
 10
395.6097299934624
 20
120.9279223293353
 30
0.0
 10
395.6144470333347
 20
120.9225599575475
 30
0.0
 10
395.6220996424173
 20
120.9138043638471
 30
0.0
 10
395.6329926215543
 20
120.9011801457552
 30
0.0
 10
395.6470412079701
 20
120.8846238076248
 30
0.0
 10
395.6642681055793
 20
120.863966630247
 30
0.0
 10
395.6846666583608
 20
120.8390788942792
 30
0.0
 10
395.7082374716529
 20
120.8098313480858
 30
0.0
 10
395.7349828202126
 20
120.7761084128893
 30
0.0
 10
395.764890673645
 20
120.7378025977639
 30
0.0
 10
395.7980067659895
 20
120.6948317024259
 30
0.0
 10
395.8369326875635
 20
120.6434104207552
 30
0.0
 10
395.8857607672801
 20
120.5791941890661
 30
0.0
 10
395.9476813718811
 20
120.4962996599715
 30
0.0
 10
396.0220659302021
 20
120.392353909757
 30
0.0
 10
396.1090403581907
 20
120.2642676994998
 30
0.0
 10
396.2084652081732
 20
120.1101779195935
 30
0.0
 10
396.2798843839027
 20
119.992113683723
 30
0.0
 10
396.3173659675837
 20
119.9301522498182
 30
0.0
  0
LINE
  5
EB
330
1F
100
AcDbEntity
  8
0
  6
Continuous
 62
     7
370
    25
100
AcDbLine
 10
396.3173656598
 20
119.9301520375
 30
0.0
 11
396.2427238808
 21
119.9301520375
 31
0.0
  0
SPLINE
  5
EC
330
1F
100
AcDbEntity
  8
0
  6
Continuous
 62
     7
370
    25
100
AcDbSpline
210
0.0
220
0.0
230
1.0
 70
     8
 71
     3
 72
    23
 73
    19
 74
     0
 42
0.000000001
 43
0.00000001
 40
0.0
 40
0.0
 40
0.0
 40
0.0
 40
0.0511129009857221
 40
0.1016896331838983
 40
0.1518293139104713
 40
0.201633670189439
 40
0.2512064936754081
 40
0.3006530343006331
 40
0.3500793489716449
 40
0.3995916247932065
 40
0.4492954981442684
 40
0.4992953912354716
 40
0.5872572780521574
 40
0.6724255494349275
 40
0.7555067762540824
 40
0.8372616735271673
 40
0.9184882400167564
 40
1.0
 40
1.0
 40
1.0
 40
1.0
 10
396.0510384976715
 20
120.122143292396
 30
0.0
 10
396.035022913771
 20
120.1512718946269
 30
0.0
 10
396.0031597477081
 20
120.2092235432108
 30
0.0
 10
395.9561159092892
 20
120.291981378429
 30
0.0
 10
395.9101373851142
 20
120.3710702369133
 30
0.0
 10
395.8653567183106
 20
120.4462872248474
 30
0.0
 10
395.8218729538748
 20
120.5177502798931
 30
0.0
 10
395.7797869902901
 20
120.5854916840814
 30
0.0
 10
395.7391925258928
 20
120.6495651958264
 30
0.0
 10
395.7001776195425
 20
120.7100187948976
 30
0.0
 10
395.6628277970551
 20
120.7668962998259
 30
0.0
 10
395.618299540463
 20
120.8336107728864
 30
0.0
 10
395.5696592799218
 20
120.9049310567509
 30
0.0
 10
395.5218201801659
 20
120.9735113092099
 30
0.0
 10
395.484168668085
 20
121.0265276372521
 30
0.0
 10
395.4573459666976
 20
121.0638002933796
 30
0.0
 10
395.440617135874
 20
121.0868376929596
 30
0.0
 10
395.4387687259102
 20
121.0893724182249
 30
0.0
 10
395.4378429012898
 20
121.0906420018682
 30
0.0
  0
SPLINE
  5
ED
330
1F
100
AcDbEntity
  8
0
  6
Continuous
 62
     7
370
    25
100
AcDbSpline
210
0.0
220
0.0
230
1.0
 70
     8
 71
     3
 72
     8
 73
     4
 74
     0
 42
0.000000001
 43
0.00000001
 40
0.0
 40
0.0
 40
0.0
 40
0.0
 40
1.0
 40
1.0
 40
1.0
 40
1.0
 10
398.7131880168178
 20
119.9301522498181
 30
0.0
 10
398.7350733884609
 20
119.9544732660157
 30
0.0
 10
398.7569587601041
 20
119.9784978643382
 30
0.0
 10
398.7788441317472
 20
120.0022047164267
 30
0.0
  0
LINE
  5
EE
330
1F
100
AcDbEntity
  8
0
  6
Continuous
 62
     7
370
    25
100
AcDbLine
 10
398.7130281389
 20
119.9301520375
 30
0.0
 11
396.3173656598
 21
119.9301520375
 31
0.0
  0
SPLINE
  5
EF
330
1F
100
AcDbEntity
  8
0
  6
Continuous
 62
     7
370
    25
100
AcDbSpline
210
0.0
220
0.0
230
1.0
 70
     8
 71
     3
 72
     8
 73
     4
 74
     0
 42
0.000000001
 43
0.00000001
 40
0.0
 40
0.0
 40
0.0
 40
0.0
 40
1.0
 40
1.0
 40
1.0
 40
1.0
 10
377.8396523819194
 20
120.0023082839068
 30
0.0
 10
377.8615691544071
 20
119.9785678353477
 30
0.0
 10
377.8834859268946
 20
119.9545086835611
 30
0.0
 10
377.9054026993821
 20
119.9301522498182
 30
0.0
  0
SPLINE
  5
F0
330
1F
100
AcDbEntity
  8
0
  6
Continuous
 62
     7
370
    25
100
AcDbSpline
210
0.0
220
0.0
230
1.0
 70
     8
 71
     3
 72
    26
 73
    22
 74
     0
 42
0.000000001
 43
0.00000001
 40
0.0
 40
0.0
 40
0.0
 40
0.0
 40
0.0524616379932503
 40
0.1026498591890872
 40
0.150565513457809
 40
0.1962095861957063
 40
0.2395832262568645
 40
0.2806877815599511
 40
0.3195248450380211
 40
0.3560963147430692
 40
0.3904044736547445
 40
0.4224520974433627
 40
0.4522426027417772
 40
0.4797802555366611
 40
0.5050704712281336
 40
0.5966394156799991
 40
0.6841917884819224
 40
0.7679874773571101
 40
0.8483228539139507
 40
0.925534163520116
 40
1.0
 40
1.0
 40
1.0
 40
1.0
 10
380.3010472138296
 20
119.9301671418359
 30
0.0
 10
380.3189086981179
 20
119.959940601877
 30
0.0
 10
380.3538576420937
 20
120.0181972937703
 30
0.0
 10
380.4046224755758
 20
120.1003962741349
 30
0.0
 10
380.4526924332176
 20
120.1764771430357
 30
0.0
 10
380.4980364059824
 20
120.246428491502
 30
0.0
 10
380.5406623854877
 20
120.310535653454
 30
0.0
 10
380.5805686839969
 20
120.3690434929241
 30
0.0
 10
380.6177560131122
 20
120.4222320705462
 30
0.0
 10
380.652224835703
 20
120.4703901107833
 30
0.0
 10
380.6839749243353
 20
120.5138147840596
 30
0.0
 10
380.7130093289364
 20
120.5528048751565
 30
0.0
 10
380.7393206181375
 20
120.587658973683
 30
0.0
 10
380.7629372476817
 20
120.6186639681335
 30
0.0
 10
380.8025829266875
 20
120.6709071867664
 30
0.0
 10
380.8541212234866
 20
120.7384365200237
 30
0.0
 10
380.9109473604678
 20
120.8106299662322
 30
0.0
 10
380.9551047884308
 20
120.8651139223547
 30
0.0
 10
380.9862824113728
 20
120.9023787135231
 30
0.0
 10
381.0057419780119
 20
120.9248430657978
 30
0.0
 10
381.0078835756923
 20
120.927565615225
 30
0.0
 10
381.0089349922491
 20
120.9289022498182
 30
0.0
  0
LINE
  5
F1
330
1F
100
AcDbEntity
  8
0
  6
Continuous
 62
     7
370
    25
100
AcDbLine
 10
380.301047197
 20
119.9301520375
 30
0.0
 11
377.9054024131
 21
119.9301520375
 31
0.0
  0
LINE
  5
F2
330
1F
100
AcDbEntity
  8
0
  6
Continuous
 62
     7
370
    25
100
AcDbLine
 10
380.3758668587
 20
119.9301520375
 30
0.0
 11
380.3007473112
 21
119.9301520375
 31
0.0
  0
SPLINE
  5
F3
330
1F
100
AcDbEntity
  8
0
  6
Continuous
 62
     7
370
    25
100
AcDbSpline
210
0.0
220
0.0
230
1.0
 70
     8
 71
     3
 72
     8
 73
     4
 74
     0
 42
0.000000001
 43
0.00000001
 40
0.0
 40
0.0
 40
0.0
 40
0.0
 40
1.0
 40
1.0
 40
1.0
 40
1.0
 10
380.3758665914626
 20
119.9301522498181
 30
0.0
 10
380.4397753941225
 20
119.9921211132493
 30
0.0
 10
380.5035503134745
 20
120.0560971783659
 30
0.0
 10
380.5669103793554
 20
120.1216318347116
 30
0.0
  0
SPLINE
  5
F4
330
1F
100
AcDbEntity
  8
0
  6
Continuous
 62
     7
370
    25
100
AcDbSpline
210
0.0
220
0.0
230
1.0
 70
     8
 71
     3
 72
    24
 73
    20
 74
     0
 42
0.000000001
 43
0.00000001
 40
0.0
 40
0.0
 40
0.0
 40
0.0
 40
0.0410257106287842
 40
0.0818520099077639
 40
0.1225800578354648
 40
0.1633117464058233
 40
0.2041489402806705
 40
0.2451927184749161
 40
0.2865426449235763
 40
0.3282960933646444
 40
0.370547647549383
 40
0.4133885920102291
 40
0.4569065022351533
 40
0.5011849368587563
 40
0.6001856774947433
 40
0.6987388860447942
 40
0.7976800645453981
 40
0.8978349910029445
 40
1.0
 40
1.0
 40
1.0
 40
1.0
 10
381.1804931852302
 20
121.0902923311497
 30
0.0
 10
381.1802984217892
 20
121.0900249809921
 30
0.0
 10
381.1799098415827
 20
121.0894915801708
 30
0.0
 10
381.1758550539084
 20
121.0839198341717
 30
0.0
 10
381.1692610949286
 20
121.0748390850179
 30
0.0
 10
381.1598968340186
 20
121.0619016246571
 30
0.0
 10
381.1478487202485
 20
121.0451831817513
 30
0.0
 10
381.1331261507881
 20
121.0246411709795
 30
0.0
 10
381.1157671579409
 20
121.0002597969328
 30
0.0
 10
381.0958099867876
 20
120.9720110528609
 30
0.0
 10
381.073300937092
 20
120.9398655054598
 30
0.0
 10
381.0482917013306
 20
120.9037886654936
 30
0.0
 10
381.0208423318058
 20
120.8637450729742
 30
0.0
 10
380.9789192187386
 20
120.801824629633
 30
0.0
 10
380.9197130435273
 20
120.7125121385364
 30
0.0
 10
380.839933450407
 20
120.5879675465078
 30
0.0
 10
380.7539526654207
 20
120.448182754018
 30
0.0
 10
380.6626678781987
 20
120.2937699350319
 30
0.0
 10
380.5994635241407
 20
120.179723913381
 30
0.0
 10
380.5675473741751
 20
120.1221343693657
 30
0.0
  0
LINE
  5
F5
330
1F
100
AcDbEntity
  8
0
  6
Continuous
 62
     7
370
    25
100
AcDbLine
 10
377.4966542483
 20
111.408847106
 30
0.0
 11
377.9208921701
 21
111.8576402788
 31
0.0
  0
SPLINE
  5
F6
330
1F
100
AcDbEntity
  8
0
  6
Continuous
 62
     7
370
    25
100
AcDbSpline
210
0.0
220
0.0
230
1.0
 70
     8
 71
     3
 72
    13
 73
     9
 74
     0
 42
0.000000001
 43
0.00000001
 40
0.0
 40
0.0
 40
0.0
 40
0.0
 40
0.170632084649598
 40
0.3395984165075754
 40
0.5069574111411415
 40
0.6727691830249297
 40
0.8370955447763889
 40
1.0
 40
1.0
 40
1.0
 40
1.0
 10
377.9208918826234
 20
111.8576195082889
 30
0.0
 10
377.9258973530323
 20
111.8506681352076
 30
0.0
 10
377.9358594292046
 20
111.8368332500754
 30
0.0
 10
377.9487332570965
 20
111.8207054916185
 30
0.0
 10
377.9599995695924
 20
111.8080367614595
 30
0.0
 10
377.9694769330277
 20
111.7991803236205
 30
0.0
 10
377.9773591657225
 20
111.7936682951407
 30
0.0
 10
377.9811740719559
 20
111.7929899490599
 30
0.0
 10
377.9830732366721
 20
111.7926522498182
 30
0.0
  0
SPLINE
  5
F7
330
1F
100
AcDbEntity
  8
0
  6
Continuous
 62
     7
370
    25
100
AcDbSpline
210
0.0
220
0.0
230
1.0
 70
     8
 71
     3
 72
    13
 73
     9
 74
     0
 42
0.000000001
 43
0.00000001
 40
0.0
 40
0.0
 40
0.0
 40
0.0
 40
0.1621004456571512
 40
0.325943455157606
 40
0.4915935308260523
 40
0.6591130873964648
 40
0.8285624736043361
 40
1.0
 40
1.0
 40
1.0
 40
1.0
 10
398.6355175028193
 20
111.7926522498182
 30
0.0
 10
398.6373946091616
 20
111.7929867329188
 30
0.0
 10
398.6411690005544
 20
111.7936592947805
 30
0.0
 10
398.6490160777333
 20
111.7991325791761
 30
0.0
 10
398.6584821375084
 20
111.8079520438365
 30
0.0
 10
398.6697630523108
 20
111.8206048008304
 30
0.0
 10
398.6826776708086
 20
111.8367568022269
 30
0.0
 10
398.6926733850543
 20
111.8506426021699
 30
0.0
 10
398.6977003909658
 20
111.8576259949206
 30
0.0
  0
LINE
  5
F8
330
1F
100
AcDbEntity
  8
0
  6
Continuous
 62
     7
370
    25
100
AcDbLine
 10
398.6977134705
 20
111.857626309
 30
0.0
 11
399.1219355599
 21
111.408847106
 31
0.0
  0
SPLINE
  5
F9
330
1F
100
AcDbEntity
  8
0
  6
Continuous
 62
     7
370
    25
100
AcDbSpline
210
0.0
220
0.0
230
1.0
 70
     8
 71
     3
 72
     8
 73
     4
 74
     0
 42
0.000000001
 43
0.00000001
 40
0.0
 40
0.0
 40
0.0
 40
0.0
 40
1.0
 40
1.0
 40
1.0
 40
1.0
 10
398.6977134319587
 20
111.8576266079878
 30
0.0
 10
398.6955299477176
 20
111.8604752735041
 30
0.0
 10
398.6933464634765
 20
111.8634160649016
 30
0.0
 10
398.6911629792354
 20
111.8664485621782
 30
0.0
  0
LINE
  5
FA
330
1F
100
AcDbEntity
  8
0
  6
Continuous
 62
     7
370
    25
100
AcDbLine
 10
398.690260096
 20
111.8676524622
 30
0.0
 11
396.251449442
 21
111.8676524622
 31
0.0
  0
LINE
  5
FB
330
1F
100
AcDbEntity
  8
0
  6
Continuous
 62
     7
370
    25
100
AcDbLine
 10
396.2427238808
 20
111.8676524622
 30
0.0
 11
396.2514457167
 21
111.8676524622
 31
0.0
  0
SPLINE
  5
FC
330
1F
100
AcDbEntity
  8
0
  6
Continuous
 62
     7
370
    25
100
AcDbSpline
210
0.0
220
0.0
230
1.0
 70
     8
 71
     3
 72
     8
 73
     4
 74
     0
 42
0.000000001
 43
0.00000001
 40
0.0
 40
0.0
 40
0.0
 40
0.0
 40
1.0
 40
1.0
 40
1.0
 40
1.0
 10
377.9283305266655
 20
111.8676522498258
 30
0.0
 10
377.925844607979
 20
111.8641905505138
 30
0.0
 10
377.9233586892925
 20
111.8608463986049
 30
0.0
 10
377.920872770606
 20
111.8576204066645
 30
0.0
  0
LINE
  5
FD
330
1F
100
AcDbEntity
  8
0
  6
Continuous
 62
     7
370
    25
100
AcDbLine
 10
380.3656344176
 20
111.8676524622
 30
0.0
 11
377.9285467104
 21
111.8676524622
 31
0.0
  0
LINE
  5
FE
330
1F
100
AcDbEntity
  8
0
  6
Continuous
 62
     7
370
    25
100
AcDbLine
 10
380.3671440915
 20
111.8676524622
 30
0.0
 11
380.3758668587
 21
111.8676524622
 31
0.0
  0
SPLINE
  5
FF
330
1F
100
AcDbEntity
  8
0
  6
Continuous
 62
     7
370
    25
100
AcDbSpline
210
0.0
220
0.0
230
1.0
 70
     8
 71
     3
 72
    14
 73
    10
 74
     0
 42
0.000000001
 43
0.00000001
 40
0.0
 40
0.0
 40
0.0
 40
0.0
 40
0.0310276388071746
 40
0.0622853718672815
 40
0.1248003166904892
 40
0.2498289731753984
 40
0.499889260361071
 40
0.7606803621682141
 40
1.0
 40
1.0
 40
1.0
 40
1.0
 10
377.3492013752866
 20
111.4109140752028
 30
0.0
 10
377.3535306687517
 20
111.4156979974809
 30
0.0
 10
377.3622213607852
 20
111.4253013185692
 30
0.0
 10
377.3796221394473
 20
111.444595632567
 30
0.0
 10
377.4100982992923
 20
111.4783605790206
 30
0.0
 10
377.4709196921117
 20
111.5457793378824
 30
0.0
 10
377.558810034525
 20
111.6432460127493
 30
0.0
 10
377.6616477146085
 20
111.7573905246462
 30
0.0
 10
377.7288538260501
 20
111.8321753376528
 30
0.0
 10
377.761014187697
 20
111.867962360297
 30
0.0
  0
LINE
  5
100
330
1F
100
AcDbEntity
  8
0
  6
Continuous
 62
     7
370
    25
100
AcDbLine
 10
377.7606860608
 20
111.8676524622
 30
0.0
 11
377.9283306435
 21
111.8676524622
 31
0.0
  0
LINE
  5
101
330
1F
100
AcDbEntity
  8
0
  6
Continuous
 62
     7
370
    25
100
AcDbLine
 10
398.690260096
 20
111.8676524622
 30
0.0
 11
398.8579121292
 21
111.8676524622
 31
0.0
  0
SPLINE
  5
102
330
1F
100
AcDbEntity
  8
0
  6
Continuous
 62
     7
370
    25
100
AcDbSpline
210
0.0
220
0.0
230
1.0
 70
     8
 71
     3
 72
    11
 73
     7
 74
     0
 42
0.000000001
 43
0.00000001
 40
0.0
 40
0.0
 40
0.0
 40
0.0
 40
0.2392913844325938
 40
0.5001130135003002
 40
0.7515028526498353
 40
0.9999999999999999
 40
0.9999999999999999
 40
0.9999999999999999
 40
0.9999999999999999
 10
398.8576086224161
 20
111.8679390523297
 30
0.0
 10
398.8897651753958
 20
111.8321623337524
 30
0.0
 10
398.9569715675214
 20
111.7573898859968
 30
0.0
 10
399.0599996572689
 20
111.642931172674
 30
0.0
 10
399.1650903218859
 20
111.5267719865541
 30
0.0
 10
399.2347651419657
 20
111.4493840452585
 30
0.0
 10
399.2694009586593
 20
111.4109139846835
 30
0.0
  0
LINE
  5
103
330
1F
100
AcDbEntity
  8
0
  6
Continuous
 62
     7
370
    25
100
AcDbLine
 10
377.9054024131
 20
119.9301520375
 30
0.0
 11
377.7608304158
 21
119.9301520375
 31
0.0
  0
SPLINE
  5
104
330
1F
100
AcDbEntity
  8
0
  6
Continuous
 62
     7
370
    25
100
AcDbSpline
210
0.0
220
0.0
230
1.0
 70
     8
 71
     3
 72
    11
 73
     7
 74
     0
 42
0.000000001
 43
0.00000001
 40
0.0
 40
0.0
 40
0.0
 40
0.0
 40
0.2392845094479873
 40
0.5001120454076898
 40
0.7515010915036774
 40
1.0
 40
1.0
 40
1.0
 40
1.0
 10
377.761133025536
 20
119.9298664636215
 30
0.0
 10
377.7289718957661
 20
119.9656643126834
 30
0.0
 10
377.66175413717
 20
120.0404829273811
 30
0.0
 10
377.5587094886719
 20
120.1550111916363
 30
0.0
 10
377.4536012597851
 20
120.2712421853106
 30
0.0
 10
377.3839157431577
 20
120.3486766810017
 30
0.0
 10
377.349274430718
 20
120.3871700823377
 30
0.0
  0
SPLINE
  5
105
330
1F
100
AcDbEntity
  8
0
  6
Continuous
 62
     7
370
    25
100
AcDbSpline
210
0.0
220
0.0
230
1.0
 70
     8
 71
     3
 72
    14
 73
    10
 74
     0
 42
0.000000001
 43
0.00000001
 40
0.0
 40
0.0
 40
0.0
 40
0.0
 40
0.031029414748255
 40
0.0622870907562092
 40
0.1248019217225762
 40
0.249830351143087
 40
0.4998901825554788
 40
0.7606872170552411
 40
1.0
 40
1.0
 40
1.0
 40
1.0
 10
399.2693046934483
 20
120.3871699740616
 30
0.0
 10
399.2649744971327
 20
120.3823827874916
 30
0.0
 10
399.2562822503377
 20
120.3727731984364
 30
0.0
 10
399.2388786219902
 20
120.3534672047305
 30
0.0
 10
399.2083978864551
 20
120.3196819890785
 30
0.0
 10
399.1475672647328
 20
120.252222858131
 30
0.0
 10
399.0596623615662
 20
120.1546963524207
 30
0.0
 10
398.9568081169493
 20
120.0404823456462
 30
0.0
 10
398.8895906588028
 20
119.9656513855412
 30
0.0
 10
398.8574257294005
 20
119.929843239633
 30
0.0
  0
LINE
  5
106
330
1F
100
AcDbEntity
  8
0
  6
Continuous
 62
     7
370
    25
100
AcDbLine
 10
398.8577528731
 20
119.9301520375
 30
0.0
 11
398.7131883264
 21
119.9301520375
 31
0.0
  0
LINE
  5
107
330
1F
100
AcDbEntity
  8
0
  6
Continuous
 62
     7
370
    25
100
AcDbLine
 10
376.4386271001
 20
113.7115645235
 30
0.0
 11
376.8786900551
 21
113.7926522189
 31
0.0
  0
SPLINE
  5
108
330
1F
100
AcDbEntity
  8
0
  6
Continuous
 62
     7
370
    25
100
AcDbSpline
210
0.0
220
0.0
230
1.0
 70
     8
 71
     3
 72
    25
 73
    21
 74
     0
 42
0.000000001
 43
0.00000001
 40
0.0
 40
0.0
 40
0.0
 40
0.0
 40
0.0274788704223154
 40
0.0560416006850518
 40
0.0856947086352136
 40
0.116444016653826
 40
0.1482947438681133
 40
0.1812515840470034
 40
0.2153187716748716
 40
0.2505001382254911
 40
0.333051455250936
 40
0.5015081958163736
 40
0.5771663066143947
 40
0.648898130302521
 40
0.716747770006283
 40
0.7807674423488066
 40
0.84101941313403
 40
0.8975784849924567
 40
0.9505352047788314
 40
1.0
 40
1.0
 40
1.0
 40
1.0
 10
376.8786901623345
 20
113.7926522498182
 30
0.0
 10
376.8853983296779
 20
113.7634700453007
 30
0.0
 10
376.8990792572347
 20
113.703954591152
 30
0.0
 10
376.9218439858886
 20
113.6135640940933
 30
0.0
 10
376.946721623129
 20
113.5204324849721
 30
0.0
 10
376.9738608611465
 20
113.4248464406972
 30
0.0
 10
377.0032222681778
 20
113.327092971084
 30
0.0
 10
377.0348074384658
 20
113.2275122950265
 30
0.0
 10
377.0686543083306
 20
113.1265031554479
 30
0.0
 10
377.1203555382634
 20
112.9797363481968
 30
0.0
 10
377.2247145512771
 20
112.7154699352825
 30
0.0
 10
377.3455877789609
 20
112.445500305454
 30
0.0
 10
377.459080825418
 20
112.2280906307378
 30
0.0
 10
377.5303537930338
 20
112.0983870600072
 30
0.0
 10
377.5924283651597
 20
111.9945119826824
 30
0.0
 10
377.645012377327
 20
111.9146513488639
 30
0.0
 10
377.6882589232545
 20
111.8566327227133
 30
0.0
 10
377.7218657354746
 20
111.8185291640609
 30
0.0
 10
377.7468127183473
 20
111.7965266330662
 30
0.0
 10
377.7557722552093
 20
111.7939140197149
 30
0.0
 10
377.7600992919273
 20
111.7926522498182
 30
0.0
  0
LINE
  5
109
330
1F
100
AcDbEntity
  8
0
  6
Continuous
 62
     7
370
    25
100
AcDbLine
 10
400.1799636394
 20
118.0862399762
 30
0.0
 11
399.7399006844
 21
118.0051522807
 31
0.0
  0
SPLINE
  5
10A
330
1F
100
AcDbEntity
  8
0
  6
Continuous
 62
     7
370
    25
100
AcDbSpline
210
0.0
220
0.0
230
1.0
 70
     8
 71
     3
 72
    25
 73
    21
 74
     0
 42
0.000000001
 43
0.00000001
 40
0.0
 40
0.0
 40
0.0
 40
0.0
 40
0.0274788704223041
 40
0.0560416006850305
 40
0.0856947086351823
 40
0.1164440166537841
 40
0.1482947438680617
 40
0.1812515840469434
 40
0.2153187716748025
 40
0.2505001382254136
 40
0.3330514552861967
 40
0.5015081958164245
 40
0.5771663066128696
 40
0.6488981302998588
 40
0.7167477700029257
 40
0.7807674423452041
 40
0.8410194131306359
 40
0.8975784849897311
 40
0.950535204777236
 40
1.0
 40
1.0
 40
1.0
 40
1.0
 10
399.739900577157
 20
118.0051522498182
 30
0.0
 10
399.7331924098135
 20
118.0343344543357
 30
0.0
 10
399.7195114822567
 20
118.0938499084844
 30
0.0
 10
399.6967467536029
 20
118.1842404055431
 30
0.0
 10
399.6718691163625
 20
118.2773720146642
 30
0.0
 10
399.644729878345
 20
118.3729580589391
 30
0.0
 10
399.6153684713137
 20
118.4707115285524
 30
0.0
 10
399.5837833010257
 20
118.5702922046099
 30
0.0
 10
399.5499364311609
 20
118.6713013441884
 30
0.0
 10
399.4982352012156
 20
118.8180681514736
 30
0.0
 10
399.3938761882047
 20
119.0823345643861
 30
0.0
 10
399.2730029605189
 20
119.3523041942052
 30
0.0
 10
399.1595099140737
 20
119.5697138688955
 30
0.0
 10
399.088236946458
 20
119.6994174396244
 30
0.0
 10
399.0261623743323
 20
119.8032925169491
 30
0.0
 10
398.9735783621651
 20
119.8831531507684
 30
0.0
 10
398.9303318162375
 20
119.9411717769203
 30
0.0
 10
398.8967250040173
 20
119.9792753355741
 30
0.0
 10
398.8717780211445
 20
120.0012778665699
 30
0.0
 10
398.8628184842823
 20
120.0038904799214
 30
0.0
 10
398.8584914475642
 20
120.0051522498182
 30
0.0
  0
SPLINE
  5
10B
330
1F
100
AcDbEntity
  8
0
  6
Continuous
 62
     7
370
    25
100
AcDbSpline
210
0.0
220
0.0
230
1.0
 70
     8
 71
     3
 72
    25
 73
    21
 74
     0
 42
0.000000001
 43
0.00000001
 40
0.0
 40
0.0
 40
0.0
 40
0.0
 40
0.0288821753110086
 40
0.0583636594013118
 40
0.0884647204314734
 40
0.1192044006626603
 40
0.150600580009491
 40
0.1826700399677263
 40
0.2154285269580574
 40
0.248890814337993
 40
0.361059447124065
 40
0.4984670131067773
 40
0.5822693905007604
 40
0.666112764278331
 40
0.7499972937224478
 40
0.8007709755049082
 40
0.8511237700832938
 40
0.9010896024531745
 40
0.9507031914125761
 40
1.0
 40
1.0
 40
1.0
 40
1.0
 10
377.7600992919273
 20
120.0051522498182
 30
0.0
 10
377.7578090235496
 20
120.0047240078423
 30
0.0
 10
377.7531809634366
 20
120.0038586378155
 30
0.0
 10
377.7428707003493
 20
119.9967837051138
 30
0.0
 10
377.7300346311184
 20
119.9852151639534
 30
0.0
 10
377.7144210723758
 20
119.968509587841
 30
0.0
 10
377.6960996289632
 20
119.9465726768248
 30
0.0
 10
377.675052043132
 20
119.9191750413401
 30
0.0
 10
377.65128047114
 20
119.886140560658
 30
0.0
 10
377.6042239417035
 20
119.8171498945302
 30
0.0
 10
377.5165295238465
 20
119.6771239251085
 30
0.0
 10
377.3989778693132
 20
119.457828623904
 30
0.0
 10
377.2874557049718
 20
119.2208985631328
 30
0.0
 10
377.1959963876237
 20
119.005056689223
 30
0.0
 10
377.1151147364462
 20
118.8034950683411
 30
0.0
 10
377.0489698345781
 20
118.624626987949
 30
0.0
 10
376.999619273751
 20
118.4732507868051
 30
0.0
 10
376.954652256886
 20
118.3190066316821
 30
0.0
 10
376.9138945429669
 20
118.1628507766065
 30
0.0
 10
376.8903998737496
 20
118.0576060696585
 30
0.0
 10
376.8786901623346
 20
118.0051522498182
 30
0.0
  0
LINE
  5
10C
330
1F
100
AcDbEntity
  8
0
  6
Continuous
 62
     7
370
    25
100
AcDbLine
 10
376.4386271001
 20
118.0862399762
 30
0.0
 11
376.8786900551
 21
118.0051522807
 31
0.0
  0
SPLINE
  5
10D
330
1F
100
AcDbEntity
  8
0
  6
Continuous
 62
     7
370
    25
100
AcDbSpline
210
0.0
220
0.0
230
1.0
 70
     8
 71
     3
 72
    25
 73
    21
 74
     0
 42
0.000000001
 43
0.00000001
 40
0.0
 40
0.0
 40
0.0
 40
0.0
 40
0.0288821753116583
 40
0.0583636594024247
 40
0.088464720432864
 40
0.1192044006641432
 40
0.1506005800108822
 40
0.1826700399688414
 40
0.2154285269587146
 40
0.2488908143380118
 40
0.3610594471217245
 40
0.498467013106778
 40
0.5822693905006526
 40
0.6661127642782239
 40
0.7499972937224496
 40
0.8007709755032478
 40
0.8511237700807983
 40
0.901089602450676
 40
0.9507031914109089
 40
1.0
 40
1.0
 40
1.0
 40
1.0
 10
398.8584914475642
 20
111.7926522498182
 30
0.0
 10
398.8607817159419
 20
111.7930804917941
 30
0.0
 10
398.8654097760549
 20
111.7939458618209
 30
0.0
 10
398.8757200391424
 20
111.8010207945228
 30
0.0
 10
398.8885561083733
 20
111.8125893356835
 30
0.0
 10
398.904169667116
 20
111.8292949117963
 30
0.0
 10
398.9224911105286
 20
111.8512318228126
 30
0.0
 10
398.9435386963597
 20
111.8786294582973
 30
0.0
 10
398.9673102683516
 20
111.9116639389791
 30
0.0
 10
399.0143667977879
 20
111.9806546051056
 30
0.0
 10
399.1020612156457
 20
112.1206805745262
 30
0.0
 10
399.2196128701777
 20
112.3399758757303
 30
0.0
 10
399.3311350345186
 20
112.5769059365037
 30
0.0
 10
399.4225943518666
 20
112.7927478104136
 30
0.0
 10
399.5034760030445
 20
112.9943094312937
 30
0.0
 10
399.5696209049126
 20
113.1731775116831
 30
0.0
 10
399.6189714657391
 20
113.3245537128243
 30
0.0
 10
399.663938482604
 20
113.4787978679472
 30
0.0
 10
399.7046961965237
 20
113.6349537230254
 30
0.0
 10
399.7281908657415
 20
113.7401984299761
 30
0.0
 10
399.739900577157
 20
113.7926522498182
 30
0.0
  0
LINE
  5
10E
330
1F
100
AcDbEntity
  8
0
  6
Continuous
 62
     7
370
    25
100
AcDbLine
 10
400.1799636394
 20
113.7115645235
 30
0.0
 11
399.7399006844
 21
113.7926522189
 31
0.0
  0
SPLINE
  5
10F
330
1F
100
AcDbEntity
  8
0
  6
Continuous
 62
     7
370
    25
100
AcDbSpline
210
0.0
220
0.0
230
1.0
 70
     8
 71
     3
 72
    12
 73
     8
 74
     0
 42
0.000000001
 43
0.00000001
 40
0.0
 40
0.0
 40
0.0
 40
0.0
 40
0.2971540265968837
 40
0.5953109213084592
 40
0.7630993176302537
 40
0.9170814912125203
 40
1.0
 40
1.0
 40
1.0
 40
1.0
 10
379.4114376292243
 20
118.0051522807381
 30
0.0
 10
379.4937664592362
 20
118.2664882922899
 30
0.0
 10
379.6587019716567
 20
118.7900423009288
 30
0.0
 10
379.9249921255897
 20
119.3463560006314
 30
0.0
 10
380.1178024537218
 20
119.6845478328593
 30
0.0
 10
380.2192612736293
 20
119.8594248669965
 30
0.0
 10
380.2523752934143
 20
119.9118148279873
 30
0.0
 10
380.2639656574144
 20
119.9301520374766
 30
0.0
  0
SPLINE
  5
110
330
1F
100
AcDbEntity
  8
0
  6
Continuous
 62
     7
370
    25
100
AcDbSpline
210
0.0
220
0.0
230
1.0
 70
     8
 71
     3
 72
    12
 73
     8
 74
     0
 42
0.000000001
 43
0.00000001
 40
0.0
 40
0.0
 40
0.0
 40
0.0
 40
0.2971540265968837
 40
0.5953109213084592
 40
0.7630993176302537
 40
0.9170814912125203
 40
1.0
 40
1.0
 40
1.0
 40
1.0
 10
397.2071531102671
 20
113.7926522188983
 30
0.0
 10
397.1248242802554
 20
113.5313162073464
 30
0.0
 10
396.9598887678349
 20
113.0077621987075
 30
0.0
 10
396.6935986139018
 20
112.4514484990049
 30
0.0
 10
396.5007882857697
 20
112.113256666777
 30
0.0
 10
396.3993294658623
 20
111.9383796326399
 30
0.0
 10
396.3662154460771
 20
111.8859896716491
 30
0.0
 10
396.354625082077
 20
111.8676524621597
 30
0.0
  0
SPLINE
  5
111
330
1F
100
AcDbEntity
  8
0
  6
Continuous
 62
     7
370
    25
100
AcDbSpline
210
0.0
220
0.0
230
1.0
 70
     8
 71
     3
 72
    11
 73
     7
 74
     0
 42
0.000000001
 43
0.00000001
 40
0.0
 40
0.0
 40
0.0
 40
0.0
 40
0.1078686449390932
 40
0.4034673949314601
 40
0.7028907467952099
 40
1.0
 40
1.0
 40
1.0
 40
1.0
 10
380.2628964990988
 20
111.8676524621597
 30
0.0
 10
380.2464506148513
 20
111.893617029763
 30
0.0
 10
380.1849371131435
 20
111.9907338189589
 30
0.0
 10
379.969428510681
 20
112.3664107266521
 30
0.0
 10
379.6576604512952
 20
113.0056737462724
 30
0.0
 10
379.4932993707152
 20
113.5310053587771
 30
0.0
 10
379.4114376292243
 20
113.7926522188983
 30
0.0
  0
LINE
  5
112
330
1F
100
AcDbEntity
  8
0
  6
Continuous
 62
     7
370
    25
100
AcDbLine
 10
379.7276980118
 20
117.9302888469
 30
0.0
 11
379.4114376292
 21
118.0051522807
 31
0.0
  0
SPLINE
  5
113
330
1F
100
AcDbEntity
  8
0
  6
Continuous
 62
     7
370
    25
100
AcDbSpline
210
0.0
220
0.0
230
1.0
 70
     8
 71
     3
 72
    25
 73
    21
 74
     0
 42
0.000000001
 43
0.00000001
 40
0.0
 40
0.0
 40
0.0
 40
0.0
 40
0.0278144320063462
 40
0.0555680196245754
 40
0.083331625367772
 40
0.111176035216759
 40
0.1391714221532265
 40
0.1673868326284763
 40
0.1958897140434718
 40
0.2247454979318961
 40
0.254017249222145
 40
0.3796724410016501
 40
0.5056484635002454
 40
0.629752729069345
 40
0.7535891720571729
 40
0.8038564806093713
 40
0.853339684343451
 40
0.9023264398358534
 40
0.9511131859219439
 40
1.0
 40
1.0
 40
1.0
 40
1.0
 10
380.5953192804573
 20
120.1726505410007
 30
0.0
 10
380.5951715291425
 20
120.1723839984471
 30
0.0
 10
380.5948763497208
 20
120.1718514964049
 30
0.0
 10
380.591251650705
 20
120.1653040477088
 30
0.0
 10
380.5853057550347
 20
120.1545348044226
 30
0.0
 10
380.5768310321196
 20
120.1391240684983
 30
0.0
 10
380.5659160452805
 20
120.1191676922445
 30
0.0
 10
380.5525799770421
 20
120.094617595774
 30
0.0
 10
380.5368722123551
 20
120.0654609720181
 30
0.0
 10
380.5188406241973
 20
120.0316650005847
 30
0.0
 10
380.4764230794489
 20
119.9512582425269
 30
0.0
 10
380.3959020396954
 20
119.7942697928562
 30
0.0
 10
380.2624756928208
 20
119.5124840551089
 30
0.0
 10
380.1183987161377
 20
119.1746119454819
 30
0.0
 10
380.0027209646863
 20
118.8659310317436
 30
0.0
 10
379.9202094894691
 20
118.6199003119886
 30
0.0
 10
379.8672878649439
 20
118.4510744207154
 30
0.0
 10
379.8174307305666
 20
118.2797588497036
 30
0.0
 10
379.770412737336
 20
118.1060764994829
 30
0.0
 10
379.7419457266075
 20
117.9889248111794
 30
0.0
 10
379.7276976388086
 20
117.930288955218
 30
0.0
  0
LINE
  5
114
330
1F
100
AcDbEntity
  8
0
  6
Continuous
 62
     7
370
    25
100
AcDbLine
 10
379.7276980118
 20
113.8675156527
 30
0.0
 11
379.4114376292
 21
113.7926522189
 31
0.0
  0
SPLINE
  5
115
330
1F
100
AcDbEntity
  8
0
  6
Continuous
 62
     7
370
    25
100
AcDbSpline
210
0.0
220
0.0
230
1.0
 70
     8
 71
     3
 72
    25
 73
    21
 74
     0
 42
0.000000001
 43
0.00000001
 40
0.0
 40
0.0
 40
0.0
 40
0.0
 40
0.0269872354797669
 40
0.0539362690259618
 40
0.0809037148829035
 40
0.1079460716545392
 40
0.1351193706855853
 40
0.162478838835575
 40
0.190078585418252
 40
0.2179713214290535
 40
0.2462081170984584
 40
0.3700050494705653
 40
0.4947542611659071
 40
0.6210439034695193
 40
0.7446557472315123
 40
0.7967060293738726
 40
0.8478613449329371
 40
0.8985210411990388
 40
0.9490962115257747
 40
1.0
 40
1.0
 40
1.0
 40
1.0
 10
379.7276976388086
 20
113.8675155444183
 30
0.0
 10
379.7354783835327
 20
113.8351191393906
 30
0.0
 10
379.7510288589037
 20
113.7703721882493
 30
0.0
 10
379.775714264877
 20
113.6737256518206
 30
0.0
 10
379.8013342218759
 20
113.5776315633293
 30
0.0
 10
379.8279770855034
 20
113.4821192926126
 30
0.0
 10
379.8556022707879
 20
113.3871945652199
 30
0.0
 10
379.8842040498472
 20
113.2928684090842
 30
0.0
 10
379.9137661394887
 20
113.199152064635
 30
0.0
 10
379.9442792865358
 20
113.1060479807447
 30
0.0
 10
380.0110134911251
 20
112.9097827386317
 30
0.0
 10
380.1181966672208
 20
112.6237096230283
 30
0.0
 10
380.2619767575296
 20
112.286419727035
 30
0.0
 10
380.3952252137415
 20
112.0049105502115
 30
0.0
 10
380.4828963899547
 20
111.8339196200331
 30
0.0
 10
380.533771425747
 20
111.7380068016506
 30
0.0
 10
380.5614405803984
 20
111.686789598196
 30
0.0
 10
380.5811394985159
 20
111.6508068041109
 30
0.0
 10
380.5933870072195
 20
111.6286369157889
 30
0.0
 10
380.5946738003755
 20
111.6263174480553
 30
0.0
 10
380.5953192804573
 20
111.6251539586357
 30
0.0
  0
LINE
  5
116
330
1F
100
AcDbEntity
  8
0
  6
Continuous
 62
     7
370
    25
100
AcDbLine
 10
396.8908927277
 20
113.8675156527
 30
0.0
 11
397.2071531103
 21
113.7926522189
 31
0.0
  0
SPLINE
  5
117
330
1F
100
AcDbEntity
  8
0
  6
Continuous
 62
     7
370
    25
100
AcDbSpline
210
0.0
220
0.0
230
1.0
 70
     8
 71
     3
 72
    25
 73
    21
 74
     0
 42
0.000000001
 43
0.00000001
 40
0.0
 40
0.0
 40
0.0
 40
0.0
 40
0.0278144320057649
 40
0.0555680196235595
 40
0.083331625366468
 40
0.1111760352153128
 40
0.1391714221517827
 40
0.1673868326271739
 40
0.195889714042447
 40
0.2247454979312803
 40
0.2540172492220635
 40
0.3796724409988544
 40
0.505648463500191
 40
0.6297527290689083
 40
0.7535891720572004
 40
0.803856480609888
 40
0.85333968434422
 40
0.902326439836625
 40
0.9511131859224594
 40
1.0
 40
1.0
 40
1.0
 40
1.0
 10
396.0232714590343
 20
111.6251539586357
 30
0.0
 10
396.0234192103489
 20
111.6254205011892
 30
0.0
 10
396.0237143897708
 20
111.6259530032315
 30
0.0
 10
396.0273390887865
 20
111.6325004519276
 30
0.0
 10
396.0332849844568
 20
111.6432696952138
 30
0.0
 10
396.0417597073719
 20
111.6586804311382
 30
0.0
 10
396.0526746942111
 20
111.6786368073919
 30
0.0
 10
396.0660107624495
 20
111.7031869038624
 30
0.0
 10
396.0817185271364
 20
111.7323435276183
 30
0.0
 10
396.0997501152943
 20
111.7661394990518
 30
0.0
 10
396.1421676600414
 20
111.846546257107
 30
0.0
 10
396.2226886997951
 20
112.0035347067782
 30
0.0
 10
396.3561150466696
 20
112.2853204445251
 30
0.0
 10
396.5001920233531
 20
112.6231925541529
 30
0.0
 10
396.6158697748051
 20
112.9318734678927
 30
0.0
 10
396.6983812500229
 20
113.1779041876493
 30
0.0
 10
396.7513028745483
 20
113.3467300789234
 30
0.0
 10
396.8011600089256
 20
113.5180456499352
 30
0.0
 10
396.8481780021559
 20
113.6917280001551
 30
0.0
 10
396.8766450128842
 20
113.8088796884576
 30
0.0
 10
396.8908931006828
 20
113.8675155444183
 30
0.0
  0
SPLINE
  5
118
330
1F
100
AcDbEntity
  8
0
  6
Continuous
 62
     7
370
    25
100
AcDbSpline
210
0.0
220
0.0
230
1.0
 70
     8
 71
     3
 72
    11
 73
     7
 74
     0
 42
0.000000001
 43
0.00000001
 40
0.0
 40
0.0
 40
0.0
 40
0.0
 40
0.1078686449390932
 40
0.4034673949314601
 40
0.7028907467952099
 40
1.0
 40
1.0
 40
1.0
 40
1.0
 10
396.3556942403927
 20
119.9301520374766
 30
0.0
 10
396.3721401246402
 20
119.9041874698734
 30
0.0
 10
396.4336536263481
 20
119.8070706806774
 30
0.0
 10
396.6491622288105
 20
119.4313937729843
 30
0.0
 10
396.9609302881963
 20
118.7921307533639
 30
0.0
 10
397.1252913687762
 20
118.2667991408593
 30
0.0
 10
397.2071531102671
 20
118.0051522807381
 30
0.0
  0
LINE
  5
119
330
1F
100
AcDbEntity
  8
0
  6
Continuous
 62
     7
370
    25
100
AcDbLine
 10
396.8908927277
 20
117.9302888469
 30
0.0
 11
397.2071531103
 21
118.0051522807
 31
0.0
  0
SPLINE
  5
11A
330
1F
100
AcDbEntity
  8
0
  6
Continuous
 62
     7
370
    25
100
AcDbSpline
210
0.0
220
0.0
230
1.0
 70
     8
 71
     3
 72
    12
 73
     8
 74
     0
 42
0.000000001
 43
0.00000001
 40
0.0
 40
0.0
 40
0.0
 40
0.0
 40
0.1404141540052139
 40
0.2845308631549995
 40
0.5710083094680874
 40
0.8589424285223366
 40
0.9999999999999999
 40
0.9999999999999999
 40
0.9999999999999999
 40
0.9999999999999999
 10
396.8908927277341
 20
117.9302888469002
 30
0.0
 10
396.8541218544032
 20
118.0758349057256
 30
0.0
 10
396.7796105033082
 20
118.3707649007804
 30
0.0
 10
396.5992670193514
 20
118.9290154706657
 30
0.0
 10
396.3530456385436
 20
119.5368718056971
 30
0.0
 10
396.1348705981825
 20
119.9676589452895
 30
0.0
 10
396.0719347540768
 20
120.0835344421815
 30
0.0
 10
396.0512406997993
 20
120.1216356841079
 30
0.0
  0
ARC
  5
11B
330
1F
100
AcDbEntity
  8
0
  6
Continuous
 62
     7
370
    25
100
AcDbCircle
 10
388.3092953697
 20
115.8989022498
 30
0.0
 40
11.62303852141066
100
AcDbArc
 50
169.5595567507
 51
190.4404432494
  0
ARC
  5
11C
330
1F
100
AcDbEntity
  8
0
  6
Continuous
 62
     7
370
    25
100
AcDbCircle
 10
388.3092953697
 20
115.8989022498
 30
0.0
 40
9.143750000000006
100
AcDbArc
 50
166.6824039243
 51
193.3175960757
  0
ARC
  5
11D
330
1F
100
AcDbEntity
  8
0
  6
Continuous
 62
     7
370
    25
100
AcDbCircle
 10
388.3092953697
 20
115.8989022498
 30
0.0
 40
8.818749999999966
100
AcDbArc
 50
166.6824039243
 51
193.3175960757
  0
ARC
  5
11E
330
1F
100
AcDbEntity
  8
0
  6
Continuous
 62
     7
370
    25
100
AcDbCircle
 10
388.3092953697
 20
115.8989022498
 30
0.0
 40
9.143750000000006
100
AcDbArc
 50
346.6824039243
 51
13.3175960757
  0
ARC
  5
11F
330
1F
100
AcDbEntity
  8
0
  6
Continuous
 62
     7
370
    25
100
AcDbCircle
 10
388.3092953697
 20
115.8989022498
 30
0.0
 40
8.818750000000023
100
AcDbArc
 50
346.6824039243
 51
13.3175960757
  0
ARC
  5
120
330
1F
100
AcDbEntity
  8
0
  6
Continuous
 62
     7
370
    25
100
AcDbCircle
 10
388.3092953697
 20
115.8989022498
 30
0.0
 40
11.6230385214107
100
AcDbArc
 50
349.5595567507
 51
10.4404432493
  0
CIRCLE
  5
121
330
1F
100
AcDbEntity
  8
0
  6
Continuous
 62
     7
370
    25
100
AcDbCircle
 10
388.3092953697
 20
115.8989022498
 30
0.0
 40
7.774999999999977
  0
CIRCLE
  5
122
330
1F
100
AcDbEntity
  8
0
  6
Continuous
 62
     7
370
    25
100
AcDbCircle
 10
388.3092953697
 20
115.8989022498
 30
0.0
 40
2.615470053837839
  0
CIRCLE
  5
123
330
1F
100
AcDbEntity
  8
0
  6
Continuous
 62
     7
370
    25
100
AcDbCircle
 10
388.3092953697
 20
115.8989022498
 30
0.0
 40
2.5
  0
CIRCLE
  5
124
330
1F
100
AcDbEntity
  8
0
  6
Continuous
 62
     7
370
    25
100
AcDbCircle
 10
388.3092953697
 20
115.8989022498
 30
0.0
 40
15.73750000000001
  0
CIRCLE
  5
125
330
1F
100
AcDbEntity
  8
0
  6
Continuous
 62
     7
370
    25
100
AcDbCircle
 10
388.3092953697
 20
115.8989022498
 30
0.0
 40
13.42499999999995
  0
CIRCLE
  5
126
330
1F
100
AcDbEntity
  8
0
  6
Continuous
 62
     7
370
    25
100
AcDbCircle
 10
388.3092953697
 20
115.8989022498
 30
0.0
 40
2.0
  0
LINE
  5
127
330
1F
100
AcDbEntity
  8
0
  6
CENTER
 62
     7
370
    18
100
AcDbLine
 10
388.3092953697
 20
115.8989022498
 30
0.0
 11
388.3092953697
 21
135.4018538499
 31
0.0
  0
LINE
  5
128
330
1F
100
AcDbEntity
  8
0
  6
CENTER
 62
     7
370
    18
100
AcDbLine
 10
388.3092953697
 20
115.8989022498
 30
0.0
 11
407.8237953697
 21
115.8989022498
 31
0.0
  0
LINE
  5
129
330
1F
100
AcDbEntity
  8
0
  6
Continuous
 62
     7
370
    18
100
AcDbLine
 10
400.3092953697
 20
133.4018538499
 30
0.0
 11
388.3092953697
 21
133.4018538499
 31
0.0
  0
SOLID
  5
12A
330
1F
100
AcDbEntity
  8
0
  6
Continuous
 62
     7
370
    18
100
AcDbTrace
 10
388.3092953697
 20
133.4018538499
 30
0.0
 11
394.3092953697
 21
131.9018538499
 31
0.0
 12
394.3092953697
 22
134.9018538499
 32
0.0
 13
394.3092953697
 23
134.9018538499
 33
0.0
  0
LINE
  5
12B
330
1F
100
AcDbEntity
  8
0
  6
Continuous
 62
     7
370
    18
100
AcDbLine
 10
417.8237953697
 20
115.8989022498
 30
0.0
 11
405.8237953697
 21
115.8989022498
 31
0.0
  0
SOLID
  5
12C
330
1F
100
AcDbEntity
  8
0
  6
Continuous
 62
     7
370
    18
100
AcDbTrace
 10
405.8237953697
 20
115.8989022498
 30
0.0
 11
411.8237953697
 21
114.3989022498
 31
0.0
 12
411.8237953697
 22
117.3989022498
 32
0.0
 13
411.8237953697
 23
117.3989022498
 33
0.0
  0
MTEXT
  5
12D
330
1F
100
AcDbEntity
  8
0
  6
Continuous
 62
     7
100
AcDbMText
 10
397.1619146258
 20
140.0481470665
 30
0.0
 40
3.5
 41
0.0
 71
     1
 72
     1
  1
A
  7
SLDTEXTSTYLE0
 73
     1
 44
1.0
  0
MTEXT
  5
12E
330
1F
100
AcDbEntity
  8
0
  6
Continuous
 62
     7
100
AcDbMText
 10
414.6764146258
 20
113.6856866087
 30
0.0
 40
3.5
 41
0.0
 71
     1
 72
     1
  1
A
  7
SLDTEXTSTYLE0
 73
     1
 44
1.0
  0
LINE
  5
12F
330
1F
100
AcDbEntity
  8
0
  6
Continuous
 62
     7
370
    25
100
AcDbLine
 10
123.7953417435
 20
84.4239022498
 30
0.0
 11
128.561143939
 21
84.4239022498
 31
0.0
  0
LINE
  5
130
330
1F
100
AcDbEntity
  8
0
  6
Continuous
 62
     7
370
    25
100
AcDbLine
 10
110.761143939
 20
84.4239022498
 30
0.0
 11
117.1269461344
 21
84.4239022498
 31
0.0
  0
ARC
  5
131
330
1F
100
AcDbEntity
  8
0
  6
Continuous
 62
     7
370
    25
100
AcDbCircle
 10
110.761143939
 20
84.6239022498
 30
0.0
 40
0.2000000000000028
100
AcDbArc
 50
180.0
 51
270.0
  0
LINE
  5
132
330
1F
100
AcDbEntity
  8
0
  6
Continuous
 62
     7
370
    25
100
AcDbLine
 10
117.1269461344
 20
84.4239022498
 30
0.0
 11
118.586143939
 21
86.9513069856
 31
0.0
  0
LINE
  5
133
330
1F
100
AcDbEntity
  8
0
  6
Continuous
 62
     7
370
    25
100
AcDbLine
 10
122.336143939
 20
86.9513069856
 30
0.0
 11
123.7953417435
 21
84.4239022498
 31
0.0
  0
ARC
  5
134
330
1F
100
AcDbEntity
  8
0
  6
Continuous
 62
     7
370
    25
100
AcDbCircle
 10
119.586143939
 20
87.0489022498
 30
0.0
 40
1.0
100
AcDbArc
 50
90.0
 51
180.0
  0
ARC
  5
135
330
1F
100
AcDbEntity
  8
0
  6
Continuous
 62
     7
370
    25
100
AcDbCircle
 10
121.336143939
 20
87.0489022498
 30
0.0
 40
1.0
100
AcDbArc
 50
0.0
 51
90.0
  0
LINE
  5
136
330
1F
100
AcDbEntity
  8
0
  6
Continuous
 62
     7
370
    25
100
AcDbLine
 10
119.586143939
 20
88.0489022498
 30
0.0
 11
121.336143939
 21
88.0489022498
 31
0.0
  0
ARC
  5
137
330
1F
100
AcDbEntity
  8
0
  6
Continuous
 62
     7
370
    25
100
AcDbCircle
 10
110.1322090644
 20
90.3489022498
 30
0.0
 40
0.8000000000000038
100
AcDbArc
 50
57.576802718
 51
107.5
  0
LINE
  5
138
330
1F
100
AcDbEntity
  8
0
  6
Continuous
 62
     7
370
    25
100
AcDbLine
 10
109.4009618989
 20
90.9571642043
 30
0.0
 11
109.8916444248
 21
91.1118758104
 31
0.0
  0
LINE
  5
139
330
1F
100
AcDbEntity
  8
0
  6
Continuous
 62
     7
370
    25
100
AcDbLine
 10
96.0746984709
 20
91.6263817291
 30
0.0
 11
109.4009618989
 21
90.9571642043
 31
0.0
  0
LINE
  5
13A
330
1F
100
AcDbEntity
  8
0
  6
Continuous
 62
     7
370
    25
100
AcDbLine
 10
72.111143939
 20
92.8297821222
 30
0.0
 11
80.1659808025
 21
92.4252847913
 31
0.0
  0
ARC
  5
13B
330
1F
100
AcDbEntity
  8
0
  6
Continuous
 62
     7
370
    25
100
AcDbCircle
 10
131.561143939
 20
92.3989022498
 30
0.0
 40
3.0
100
AcDbArc
 50
90.0
 51
180.0
  0
LINE
  5
13C
330
1F
100
AcDbEntity
  8
0
  6
Continuous
 62
     7
370
    25
100
AcDbLine
 10
70.611143939
 20
93.695807526
 30
0.0
 11
72.111143939
 21
92.8297821222
 31
0.0
  0
LINE
  5
13D
330
1F
100
AcDbEntity
  8
0
  6
Continuous
 62
     7
370
    25
100
AcDbLine
 10
131.561143939
 20
95.3989022498
 30
0.0
 11
179.7363249943
 21
95.3989022498
 31
0.0
  0
LINE
  5
13E
330
1F
100
AcDbEntity
  8
0
  6
Continuous
 62
     7
370
    25
100
AcDbLine
 10
179.7363249943
 20
95.3989022498
 30
0.0
 11
228.7180621304
 21
99.2538485657
 31
0.0
  0
ARC
  5
13F
330
1F
100
AcDbEntity
  8
0
  6
Continuous
 62
     7
370
    25
100
AcDbCircle
 10
228.561143939
 20
101.2476832331
 30
0.0
 40
2.000000000000004
100
AcDbArc
 50
274.5
 51
0.0
  0
LINE
  5
140
330
1F
100
AcDbEntity
  8
0
  6
Continuous
 62
     7
370
    25
100
AcDbLine
 10
181.561143939
 20
121.3989022498
 30
0.0
 11
181.061143939
 21
121.8989022498
 31
0.0
  0
LINE
  5
141
330
1F
100
AcDbEntity
  8
0
  6
Continuous
 62
     7
370
    25
100
AcDbLine
 10
181.061143939
 20
121.8989022498
 30
0.0
 11
166.061143939
 21
121.8989022498
 31
0.0
  0
LINE
  5
142
330
1F
100
AcDbEntity
  8
0
  6
Continuous
 62
     7
370
    25
100
AcDbLine
 10
166.061143939
 20
121.8989022498
 30
0.0
 11
165.561143939
 21
121.3989022498
 31
0.0
  0
LINE
  5
143
330
1F
100
AcDbEntity
  8
0
  6
Continuous
 62
     7
370
    25
100
AcDbLine
 10
183.561143939
 20
121.3740044712
 30
0.0
 11
185.561143939
 21
121.3740044712
 31
0.0
  0
LINE
  5
144
330
1F
100
AcDbEntity
  8
0
  6
Continuous
 62
     7
370
    25
100
AcDbLine
 10
183.561143939
 20
121.3989022498
 30
0.0
 11
181.561143939
 21
121.3989022498
 31
0.0
  0
SPLINE
  5
145
330
1F
100
AcDbEntity
  8
0
  6
Continuous
 62
     7
370
    25
100
AcDbSpline
210
0.0
220
0.0
230
1.0
 70
     8
 71
     3
 72
    11
 73
     7
 74
     0
 42
0.000000001
 43
0.00000001
 40
0.0
 40
0.0
 40
0.0
 40
0.0
 40
0.2701949965567373
 40
0.5496278655746568
 40
0.9385757634130438
 40
1.0
 40
1.0
 40
1.0
 40
1.0
 10
165.7970423238385
 20
118.1428029823611
 30
0.0
 10
165.9056819501244
 20
118.2225080906444
 30
0.0
 10
166.1266755535342
 20
118.3846433969953
 30
0.0
 10
166.3112341659467
 20
118.6855607330126
 30
0.0
 10
166.2271466731524
 20
118.9262750399229
 30
0.0
 10
166.0942159097717
 20
119.0650352296892
 30
0.0
 10
166.0760860788265
 20
119.0839601099684
 30
0.0
  0
SPLINE
  5
146
330
1F
100
AcDbEntity
  8
0
  6
Continuous
 62
     7
370
    25
100
AcDbSpline
210
0.0
220
0.0
230
1.0
 70
     8
 71
     3
 72
    12
 73
     8
 74
     0
 42
0.000000001
 43
0.00000001
 40
0.0
 40
0.0
 40
0.0
 40
0.0
 40
0.0051754582622629
 40
0.2676156070063289
 40
0.5346954428204962
 40
0.811358021276011
 40
1.0
 40
1.0
 40
1.0
 40
1.0
 10
166.2102781477697
 20
115.8989022498185
 30
0.0
 10
166.2113261410259
 20
115.9027710085314
 30
0.0
 10
166.2655163860597
 20
116.1028190349741
 30
0.0
 10
166.274638971474
 20
116.5239244181373
 30
0.0
 10
166.1986210849383
 20
117.1436006472202
 30
0.0
 10
166.017352764325
 20
117.6857664522058
 30
0.0
 10
165.8605946100655
 20
118.0109630372522
 30
0.0
 10
165.7970423238385
 20
118.1428029823611
 30
0.0
  0
LINE
  5
147
330
1F
100
AcDbEntity
  8
0
  6
Continuous
 62
     7
370
    25
100
AcDbLine
 10
165.561143939
 20
119.5989022498
 30
0.0
 11
166.0760860788
 21
119.08396011
 31
0.0
  0
LINE
  5
148
330
1F
100
AcDbEntity
  8
0
  6
Continuous
 62
     7
370
    25
100
AcDbLine
 10
165.561143939
 20
119.5989022498
 30
0.0
 11
165.561143939
 21
115.8989022498
 31
0.0
  0
LINE
  5
149
330
1F
100
AcDbEntity
  8
0
  6
Continuous
 62
     7
370
    25
100
AcDbLine
 10
178.561143939
 20
118.7245965999
 30
0.0
 11
178.561143939
 21
118.8989022498
 31
0.0
  0
LINE
  5
14A
330
1F
100
AcDbEntity
  8
0
  6
Continuous
 62
     7
370
    25
100
AcDbLine
 10
178.561143939
 20
116.4390589986
 30
0.0
 11
178.561143939
 21
118.7245965999
 31
0.0
  0
LINE
  5
14B
330
1F
100
AcDbEntity
  8
0
  6
Continuous
 62
     7
370
    25
100
AcDbLine
 10
178.561143939
 20
115.8989022498
 30
0.0
 11
178.561143939
 21
116.4390589986
 31
0.0
  0
LINE
  5
14C
330
1F
100
AcDbEntity
  8
0
  6
Continuous
 62
     7
370
    25
100
AcDbLine
 10
172.5611439389
 20
116.4390589986
 30
0.0
 11
172.5611439389
 21
115.8989022498
 31
0.0
  0
LINE
  5
14D
330
1F
100
AcDbEntity
  8
0
  6
Continuous
 62
     7
370
    25
100
AcDbLine
 10
172.5611439389
 20
118.7245965999
 30
0.0
 11
172.5611439389
 21
116.4390589986
 31
0.0
  0
LINE
  5
14E
330
1F
100
AcDbEntity
  8
0
  6
Continuous
 62
     7
370
    25
100
AcDbLine
 10
172.5611439389
 20
118.8989022498
 30
0.0
 11
172.5611439389
 21
118.7245965999
 31
0.0
  0
LINE
  5
14F
330
1F
100
AcDbEntity
  8
0
  6
Continuous
 62
     7
370
    25
100
AcDbLine
 10
172.5611439389
 20
118.8989022498
 30
0.0
 11
178.561143939
 21
118.8989022498
 31
0.0
  0
LINE
  5
150
330
1F
100
AcDbEntity
  8
0
  6
Continuous
 62
     7
370
    25
100
AcDbLine
 10
183.561143939
 20
119.08396011
 30
0.0
 11
183.561143939
 21
121.3989022498
 31
0.0
  0
LINE
  5
151
330
1F
100
AcDbEntity
  8
0
  6
Continuous
 62
     7
370
    25
100
AcDbLine
 10
178.561143939
 20
119.08396011
 30
0.0
 11
183.561143939
 21
119.08396011
 31
0.0
  0
LINE
  5
152
330
1F
100
AcDbEntity
  8
0
  6
Continuous
 62
     7
370
    25
100
AcDbLine
 10
178.561143939
 20
118.8989022498
 30
0.0
 11
178.561143939
 21
119.08396011
 31
0.0
  0
LINE
  5
153
330
1F
100
AcDbEntity
  8
0
  6
Continuous
 62
     7
370
    25
100
AcDbLine
 10
172.5611439389
 20
119.08396011
 30
0.0
 11
172.5611439389
 21
118.8989022498
 31
0.0
  0
LINE
  5
154
330
1F
100
AcDbEntity
  8
0
  6
Continuous
 62
     7
370
    25
100
AcDbLine
 10
166.0760860788
 20
119.08396011
 30
0.0
 11
172.5611439389
 21
119.08396011
 31
0.0
  0
LINE
  5
155
330
1F
100
AcDbEntity
  8
0
  6
Continuous
 62
     7
370
    25
100
AcDbLine
 10
165.561143939
 20
121.3989022498
 30
0.0
 11
165.561143939
 21
119.5989022498
 31
0.0
  0
LINE
  5
156
330
1F
100
AcDbEntity
  8
0
  6
Continuous
 62
     7
370
    25
100
AcDbLine
 10
172.5611439389
 20
118.1428029824
 30
0.0
 11
165.7970423238
 21
118.1428029824
 31
0.0
  0
LINE
  5
157
330
1F
100
AcDbEntity
  8
0
  6
Continuous
 62
     7
370
    25
100
AcDbLine
 10
184.861143939
 20
118.7245965999
 30
0.0
 11
183.561143939
 21
118.7245965999
 31
0.0
  0
SPLINE
  5
158
330
1F
100
AcDbEntity
  8
0
  6
Continuous
 62
     7
370
    25
100
AcDbSpline
210
0.0
220
0.0
230
1.0
 70
     8
 71
     3
 72
     9
 73
     5
 74
     0
 42
0.000000001
 43
0.00000001
 40
0.0
 40
0.0
 40
0.0
 40
0.0
 40
0.5039876238385124
 40
1.0
 40
1.0
 40
1.0
 40
1.0
 10
184.8611439389762
 20
118.7245965998661
 30
0.0
 10
184.8879756472008
 20
118.6222380325681
 30
0.0
 10
184.9412144708455
 20
118.4191406499013
 30
0.0
 10
185.1979176167471
 20
118.2344244858216
 30
0.0
 10
185.325245554114
 20
118.142802982361
 30
0.0
  0
LINE
  5
159
330
1F
100
AcDbEntity
  8
0
  6
Continuous
 62
     7
370
    25
100
AcDbLine
 10
178.561143939
 20
118.1428029824
 30
0.0
 11
185.3252455541
 21
118.1428029824
 31
0.0
  0
LINE
  5
15A
330
1F
100
AcDbEntity
  8
0
  6
Continuous
 62
     7
370
    25
100
AcDbLine
 10
183.561143939
 20
118.7245965999
 30
0.0
 11
183.561143939
 21
119.08396011
 31
0.0
  0
LINE
  5
15B
330
1F
100
AcDbEntity
  8
0
  6
Continuous
 62
     7
370
    25
100
AcDbLine
 10
185.561143939
 20
121.3740044712
 30
0.0
 11
185.561143939
 21
119.4960106487
 31
0.0
  0
LINE
  5
15C
330
1F
100
AcDbEntity
  8
0
  6
Continuous
 62
     7
370
    25
100
AcDbLine
 10
185.561143939
 20
119.4960106487
 30
0.0
 11
184.861143939
 21
118.7245965999
 31
0.0
  0
SPLINE
  5
15D
330
1F
100
AcDbEntity
  8
0
  6
Continuous
 62
     7
370
    25
100
AcDbSpline
210
0.0
220
0.0
230
1.0
 70
     8
 71
     3
 72
    10
 73
     6
 74
     0
 42
0.000000001
 43
0.00000001
 40
0.0
 40
0.0
 40
0.0
 40
0.0
 40
0.188535196302644
 40
0.729752341744929
 40
1.0
 40
1.0
 40
1.0
 40
1.0
 10
185.325245554114
 20
118.142802982361
 30
0.0
 10
185.262515800886
 20
118.0112334275448
 30
0.0
 10
185.0197113526294
 20
117.5019747182299
 30
0.0
 10
184.776680665022
 20
116.7224906191707
 30
0.0
 10
184.9197838830812
 20
116.1046619466069
 30
0.0
 10
184.9674425238418
 20
115.8989022498185
 30
0.0
  0
LINE
  5
15E
330
1F
100
AcDbEntity
  8
0
  6
Continuous
 62
     7
370
    25
100
AcDbLine
 10
185.561143939
 20
119.4960106487
 30
0.0
 11
185.561143939
 21
115.8989022498
 31
0.0
  0
LINE
  5
15F
330
1F
100
AcDbEntity
  8
0
  6
Continuous
 62
     7
370
    25
100
AcDbLine
 10
123.7953417435
 20
84.4239022498
 30
0.0
 11
123.7953417435
 21
111.0091949701
 31
0.0
  0
SPLINE
  5
160
330
1F
100
AcDbEntity
  8
0
  6
Continuous
 62
     7
370
    25
100
AcDbSpline
210
0.0
220
0.0
230
1.0
 70
     8
 71
     3
 72
    20
 73
    16
 74
     0
 42
0.000000001
 43
0.00000001
 40
0.0
 40
0.0
 40
0.0
 40
0.0
 40
0.1250000000000001
 40
0.1250000000000001
 40
0.2500000000000001
 40
0.2500000000000001
 40
0.3750000000000002
 40
0.3750000000000002
 40
0.5000000000000002
 40
0.5000000000000002
 40
0.7500000000000001
 40
0.7500000000000001
 40
0.875
 40
0.875
 40
1.0
 40
1.0
 40
1.0
 40
1.0
 10
127.3486439389762
 20
115.8989022498184
 30
0.0
 10
127.3486439389762
 20
115.6322341623372
 30
0.0
 10
127.3265969099325
 20
115.3639219870631
 30
0.0
 10
127.2375908722276
 20
114.8310789518298
 30
0.0
 10
127.1717119040282
 20
114.5717887418439
 30
0.0
 10
126.999536996321
 20
114.0666617758224
 30
0.0
 10
126.892830425414
 20
113.8200815599012
 30
0.0
 10
126.6401535225378
 20
113.3436649091615
 30
0.0
 10
126.4966962583431
 20
113.1182448473966
 30
0.0
 10
126.0183740660626
 20
112.4776371657829
 30
0.0
 10
125.630347083097
 20
112.0948714506799
 30
0.0
 10
124.9885424346517
 20
111.6189692025083
 30
0.0
 10
124.7637378070045
 20
111.4753735663566
 30
0.0
 10
124.2924287493823
 20
111.218042180966
 30
0.0
 10
124.0467321494934
 20
111.1049898024441
 30
0.0
 10
123.7953417435463
 20
111.0091949701334
 30
0.0
  0
LINE
  5
161
330
1F
100
AcDbEntity
  8
0
  6
Continuous
 62
     7
370
    25
100
AcDbLine
 10
128.561143939
 20
84.4239022498
 30
0.0
 11
128.561143939
 21
115.8989022498
 31
0.0
  0
LINE
  5
162
330
1F
100
AcDbEntity
  8
0
  6
Continuous
 62
     7
370
    25
100
AcDbLine
 10
128.561143939
 20
147.3739022498
 30
0.0
 11
123.7953417435
 21
147.3739022498
 31
0.0
  0
SPLINE
  5
163
330
1F
100
AcDbEntity
  8
0
  6
Continuous
 62
     7
370
    25
100
AcDbSpline
210
0.0
220
0.0
230
1.0
 70
     8
 71
     3
 72
    14
 73
    10
 74
     0
 42
0.000000001
 43
0.00000001
 40
0.0
 40
0.0
 40
0.0
 40
0.0
 40
0.2500000000000001
 40
0.2500000000000001
 40
0.5000000000000002
 40
0.5000000000000002
 40
0.7500000000000001
 40
0.7500000000000001
 40
1.0
 40
1.0
 40
1.0
 40
1.0
 10
117.1269461344061
 20
112.6040041643017
 30
0.0
 10
116.9300702488811
 20
112.8315007322309
 30
0.0
 10
116.7539619274917
 20
113.073087507302
 30
0.0
 10
116.4442255337185
 20
113.5852447416761
 30
0.0
 10
116.3096675322249
 20
113.8587775447842
 30
0.0
 10
116.0944253795158
 20
114.4188826793216
 30
0.0
 10
116.0127821419968
 20
114.7058551747316
 30
0.0
 10
115.9022591197268
 20
115.2938941597759
 30
0.0
 10
115.8736439389762
 20
115.5983376155465
 30
0.0
 10
115.8736439389762
 20
115.8989022498182
 30
0.0
  0
LINE
  5
164
330
1F
100
AcDbEntity
  8
0
  6
Continuous
 62
     7
370
    25
100
AcDbLine
 10
117.1269461344
 20
84.4239022498
 30
0.0
 11
117.1269461344
 21
112.6040041643
 31
0.0
  0
LINE
  5
165
330
1F
100
AcDbEntity
  8
0
  6
Continuous
 62
     7
370
    25
100
AcDbLine
 10
117.1269461344
 20
147.3739022498
 30
0.0
 11
110.761143939
 21
147.3739022498
 31
0.0
  0
LINE
  5
166
330
1F
100
AcDbEntity
  8
0
  6
Continuous
 62
     7
370
    25
100
AcDbLine
 10
110.561143939
 20
84.6239022498
 30
0.0
 11
110.561143939
 21
115.8989022498
 31
0.0
  0
LINE
  5
167
330
1F
100
AcDbEntity
  8
0
  6
Continuous
 62
     7
370
    25
100
AcDbLine
 10
110.561143939
 20
115.8989022498
 30
0.0
 11
110.761143939
 21
115.8989022498
 31
0.0
  0
ARC
  5
168
330
1F
100
AcDbEntity
  8
0
  6
Continuous
 62
     7
370
    25
100
AcDbCircle
 10
110.761143939
 20
147.1739022498
 30
0.0
 40
0.2000000000000171
100
AcDbArc
 50
90.0
 51
180.0
  0
SPLINE
  5
169
330
1F
100
AcDbEntity
  8
0
  6
Continuous
 62
     7
370
    25
100
AcDbSpline
210
0.0
220
0.0
230
1.0
 70
     8
 71
     3
 72
     8
 73
     4
 74
     0
 42
0.000000001
 43
0.00000001
 40
0.0
 40
0.0
 40
0.0
 40
0.0
 40
1.0
 40
1.0
 40
1.0
 40
1.0
 10
123.7953417435459
 20
111.0091949701323
 30
0.0
 10
123.4469403388656
 20
111.4471702965462
 30
0.0
 10
123.1023719536327
 20
111.890253435131
 30
0.0
 10
122.7639876543119
 20
112.3436445069796
 30
0.0
  0
ARC
  5
16A
330
1F
100
AcDbEntity
  8
0
  6
Continuous
 62
     7
370
    25
100
AcDbCircle
 10
121.611143939
 20
115.8989022498
 30
0.0
 40
3.737499999999997
100
AcDbArc
 50
287.9660359156
 51
360.0
  0
ARC
  5
16B
330
1F
100
AcDbEntity
  8
0
  6
Continuous
 62
     7
370
    25
100
AcDbCircle
 10
121.611143939
 20
115.8989022498
 30
0.0
 40
3.737499999999997
100
AcDbArc
 50
180.0
 51
206.113804444
  0
SPLINE
  5
16C
330
1F
100
AcDbEntity
  8
0
  6
Continuous
 62
     7
370
    25
100
AcDbSpline
210
0.0
220
0.0
230
1.0
 70
     8
 71
     3
 72
    10
 73
     6
 74
     0
 42
0.000000001
 43
0.00000001
 40
0.0
 40
0.0
 40
0.0
 40
0.0
 40
0.5
 40
0.5
 40
1.0
 40
1.0
 40
1.0
 40
1.0
 10
118.255162131523
 20
114.2538209879829
 30
0.0
 10
118.0782769850995
 20
113.9553706726263
 30
0.0
 10
117.8927276102222
 20
113.6763779684989
 30
0.0
 10
117.5147786701746
 20
113.1310586743732
 30
0.0
 10
117.3219921279954
 20
112.8657232885517
 30
0.0
 10
117.1269461344061
 20
112.6040041643018
 30
0.0
  0
SPLINE
  5
16D
330
1F
100
AcDbEntity
  8
0
  6
Continuous
 62
     7
370
    25
100
AcDbSpline
210
0.0
220
0.0
230
1.0
 70
     8
 71
     3
 72
     8
 73
     4
 74
     0
 42
0.000000001
 43
0.00000001
 40
0.0
 40
0.0
 40
0.0
 40
0.0
 40
1.0
 40
1.0
 40
1.0
 40
1.0
 10
118.5861439389763
 20
113.7038438792961
 30
0.0
 10
118.4678471795463
 20
113.8668681077546
 30
0.0
 10
118.3564186973749
 20
114.047256606777
 30
0.0
 10
118.255162131523
 20
114.2538209879829
 30
0.0
  0
LINE
  5
16E
330
1F
100
AcDbEntity
  8
0
  6
Continuous
 62
     7
370
    25
100
AcDbLine
 10
118.586143939
 20
86.9513069856
 30
0.0
 11
118.586143939
 21
113.7038438793
 31
0.0
  0
SPLINE
  5
16F
330
1F
100
AcDbEntity
  8
0
  6
Continuous
 62
     7
370
    25
100
AcDbSpline
210
0.0
220
0.0
230
1.0
 70
     8
 71
     3
 72
     8
 73
     4
 74
     0
 42
0.000000001
 43
0.00000001
 40
0.0
 40
0.0
 40
0.0
 40
0.0
 40
1.0
 40
1.0
 40
1.0
 40
1.0
 10
122.7639876543122
 20
112.3436445069804
 30
0.0
 10
122.6224495660303
 20
112.2977487358833
 30
0.0
 10
122.4798390972934
 20
112.260807884946
 30
0.0
 10
122.3361439389764
 20
112.2323942040054
 30
0.0
  0
LINE
  5
170
330
1F
100
AcDbEntity
  8
0
  6
Continuous
 62
     7
370
    25
100
AcDbLine
 10
122.336143939
 20
86.9513069856
 30
0.0
 11
122.336143939
 21
112.232394204
 31
0.0
  0
SPLINE
  5
171
330
1F
100
AcDbEntity
  8
0
  6
Continuous
 62
     7
370
    25
100
AcDbSpline
210
0.0
220
0.0
230
1.0
 70
     8
 71
     3
 72
    14
 73
    10
 74
     0
 42
0.000000001
 43
0.00000001
 40
0.0
 40
0.0
 40
0.0
 40
0.0
 40
0.25
 40
0.25
 40
0.5
 40
0.5
 40
0.75
 40
0.75
 40
1.0
 40
1.0
 40
1.0
 40
1.0
 10
119.5861439389762
 20
112.7575201893235
 30
0.0
 10
119.4517958526197
 20
112.8441237509511
 30
0.0
 10
119.3286191787638
 20
112.9355921482745
 30
0.0
 10
119.0998725738458
 20
113.1267835349054
 30
0.0
 10
118.9979506098786
 20
113.2236453870463
 30
0.0
 10
118.8185272074498
 20
113.4115200017816
 30
0.0
 10
118.7420859192671
 20
113.5017553531329
 30
0.0
 10
118.6247959464169
 20
113.6495617171103
 30
0.0
 10
118.5861439389762
 20
113.7038438792962
 30
0.0
 10
118.5861439389762
 20
113.7038438792962
 30
0.0
  0
SPLINE
  5
172
330
1F
100
AcDbEntity
  8
0
  6
Continuous
 62
     7
370
    25
100
AcDbSpline
210
0.0
220
0.0
230
1.0
 70
     8
 71
     3
 72
    14
 73
    10
 74
     0
 42
0.000000001
 43
0.00000001
 40
0.0
 40
0.0
 40
0.0
 40
0.0
 40
0.25
 40
0.25
 40
0.5
 40
0.5
 40
0.75
 40
0.75
 40
1.0
 40
1.0
 40
1.0
 40
1.0
 10
122.3361439389763
 20
112.232394204006
 30
0.0
 10
122.3361439389765
 20
112.232394204006
 30
0.0
 10
122.3102274164054
 20
112.2270174730176
 30
0.0
 10
122.2107825698278
 20
112.2094728854172
 30
0.0
 10
122.1384841774156
 20
112.1976234817709
 30
0.0
 10
121.9537802828917
 20
112.1759796637706
 30
0.0
 10
121.8442030210158
 20
112.1666904030862
 30
0.0
 10
121.6008728427976
 20
112.1594348667286
 30
0.0
 10
121.4693365838775
 20
112.161706272888
 30
0.0
 10
121.3361439389762
 20
112.1715330368211
 30
0.0
  0
SPLINE
  5
173
330
1F
100
AcDbEntity
  8
0
  6
Continuous
 62
     7
370
    25
100
AcDbSpline
210
0.0
220
0.0
230
1.0
 70
     8
 71
     3
 72
    10
 73
     6
 74
     0
 42
0.000000001
 43
0.00000001
 40
0.0
 40
0.0
 40
0.0
 40
0.0
 40
0.5
 40
0.5
 40
1.0
 40
1.0
 40
1.0
 40
1.0
 10
121.3361439389762
 20
112.1715330368212
 30
0.0
 10
121.0236800366881
 20
112.1945861791903
 30
0.0
 10
120.7207910546903
 20
112.2558208815967
 30
0.0
 10
120.1334478698863
 20
112.4519928455206
 30
0.0
 10
119.8489802093143
 20
112.5880904806204
 30
0.0
 10
119.5861439389762
 20
112.7575201893235
 30
0.0
  0
LINE
  5
174
330
1F
100
AcDbEntity
  8
0
  6
Continuous
 62
     7
370
    25
100
AcDbLine
 10
110.561143939
 20
142.7489022498
 30
0.0
 11
110.895182625
 21
141.6894668894
 31
0.0
  0
LINE
  5
175
330
1F
100
AcDbEntity
  8
0
  6
Continuous
 62
     7
370
    25
100
AcDbLine
 10
110.561143939
 20
142.7489022498
 30
0.0
 11
110.561143939
 21
140.7736135165
 31
0.0
  0
ARC
  5
176
330
1F
100
AcDbEntity
  8
0
  6
Continuous
 62
     7
370
    25
100
AcDbCircle
 10
110.1322090644
 20
141.4489022498
 30
0.0
 40
0.8000000000000181
100
AcDbArc
 50
252.5
 51
17.5
  0
LINE
  5
177
330
1F
100
AcDbEntity
  8
0
  6
Continuous
 62
     7
370
    25
100
AcDbLine
 10
109.4009618989
 20
90.9571642043
 30
0.0
 11
109.4009618989
 21
115.8989022498
 31
0.0
  0
LINE
  5
178
330
1F
100
AcDbEntity
  8
0
  6
Continuous
 62
     7
370
    25
100
AcDbLine
 10
109.8916444248
 20
140.6859286892
 30
0.0
 11
109.4009618989
 21
140.8406402953
 31
0.0
  0
SPLINE
  5
179
330
1F
100
AcDbEntity
  8
0
  6
Continuous
 62
     7
370
    25
100
AcDbSpline
210
0.0
220
0.0
230
1.0
 70
     8
 71
     3
 72
    22
 73
    18
 74
     0
 42
0.000000001
 43
0.00000001
 40
0.0
 40
0.0
 40
0.0
 40
0.0
 40
0.0016445471980176
 40
0.0768294870796076
 40
0.1514593100030195
 40
0.2250437077752816
 40
0.2982167779921
 40
0.3713078397240436
 40
0.4444589911202461
 40
0.5161649089031309
 40
0.5876183127519697
 40
0.6612190000115726
 40
0.7342074239846574
 40
0.8076706235403133
 40
0.8813280608504986
 40
0.9557355653715351
 40
1.0
 40
1.0
 40
1.0
 40
1.0
 10
80.32086105768548
 20
139.3231933978493
 30
0.0
 10
80.32203969988281
 20
139.3228297641311
 30
0.0
 10
80.37710316998604
 20
139.3058416277728
 30
0.0
 10
80.77354835742143
 20
139.1885677771433
 30
0.0
 10
81.48962173694592
 20
138.9879532292617
 30
0.0
 10
82.49929739749022
 20
138.7473394145816
 30
0.0
 10
83.71527635543282
 20
138.5200667254643
 30
0.0
 10
85.11947713678278
 20
138.3476777172309
 30
0.0
 10
86.63653717930451
 20
138.2596078451432
 30
0.0
 10
88.21085018736719
 20
138.2906611499784
 30
0.0
 10
89.77661360331585
 20
138.4416633009202
 30
0.0
 10
91.26668817139006
 20
138.6960808189211
 30
0.0
 10
92.63755643447294
 20
139.0135162744854
 30
0.0
 10
93.82652533889946
 20
139.3585630541345
 30
0.0
 10
94.79267368934462
 20
139.6821559686886
 30
0.0
 10
95.44976263293772
 20
139.9276509126864
 30
0.0
 10
95.66559226981728
 20
140.0110066597539
 30
0.0
 10
95.74609636304278
 20
140.0420982138603
 30
0.0
  0
SPLINE
  5
17A
330
1F
100
AcDbEntity
  8
0
  6
Continuous
 62
     7
370
    25
100
AcDbSpline
210
0.0
220
0.0
230
1.0
 70
     8
 71
     3
 72
     9
 73
     5
 74
     0
 42
0.000000001
 43
0.00000001
 40
0.0
 40
0.0
 40
0.0
 40
0.0
 40
0.0362226197548477
 40
1.0
 40
1.0
 40
1.0
 40
1.0
 10
95.91701116656074
 20
140.107653880556
 30
0.0
 10
95.92255384067298
 20
140.1097794317147
 30
0.0
 10
96.07557077179887
 20
140.1684596479185
 30
0.0
 10
96.07756583227042
 20
140.1700910316152
 30
0.0
 10
96.07948862642515
 20
140.1716633223206
 30
0.0
  0
LINE
  5
17B
330
1F
100
AcDbEntity
  8
0
  6
Continuous
 62
     7
370
    25
100
AcDbLine
 10
80.1615780537
 20
139.3722986114
 30
0.0
 11
72.111143939
 21
138.9680223774
 31
0.0
  0
LINE
  5
17C
330
1F
100
AcDbEntity
  8
0
  6
Continuous
 62
     7
370
    25
100
AcDbLine
 10
72.111143939
 20
92.8297821222
 30
0.0
 11
72.111143939
 21
106.7767792152
 31
0.0
  0
SPLINE
  5
17D
330
1F
100
AcDbEntity
  8
0
  6
Continuous
 62
     7
370
    25
100
AcDbSpline
210
0.0
220
0.0
230
1.0
 70
     8
 71
     3
 72
     8
 73
     4
 74
     0
 42
0.000000001
 43
0.00000001
 40
0.0
 40
0.0
 40
0.0
 40
0.0
 40
1.0
 40
1.0
 40
1.0
 40
1.0
 10
77.92931839192319
 20
106.7813652735152
 30
0.0
 10
75.98992690761177
 20
106.7792191776656
 30
0.0
 10
74.05053542330037
 20
106.7776229911408
 30
0.0
 10
72.11114393898896
 20
106.7765755386651
 30
0.0
  0
SPLINE
  5
17E
330
1F
100
AcDbEntity
  8
0
  6
Continuous
 62
     7
370
    25
100
AcDbSpline
210
0.0
220
0.0
230
1.0
 70
     8
 71
     3
 72
    13
 73
     9
 74
     0
 42
0.000000001
 43
0.00000001
 40
0.0
 40
0.0
 40
0.0
 40
0.0
 40
0.1686319999748085
 40
0.3360343310905433
 40
0.502536782590866
 40
0.6684737453788339
 40
0.834182263691515
 40
1.0
 40
1.0
 40
1.0
 40
1.0
 10
79.0128134413902
 20
106.9188217193328
 30
0.0
 10
78.95332354533043
 20
106.904307399294
 30
0.0
 10
78.83477755505538
 20
106.8753845980094
 30
0.0
 10
78.65490085946949
 20
106.8414232046011
 30
0.0
 10
78.47451057184149
 20
106.8145576422422
 30
0.0
 10
78.29339839980764
 20
106.7955987051342
 30
0.0
 10
78.1116375626402
 20
106.7836682537385
 30
0.0
 10
77.99010479474555
 20
106.7821331021697
 30
0.0
 10
77.92931839192319
 20
106.7813652735152
 30
0.0
  0
SPLINE
  5
17F
330
1F
100
AcDbEntity
  8
0
  6
Continuous
 62
     7
370
    25
100
AcDbSpline
210
0.0
220
0.0
230
1.0
 70
     8
 71
     3
 72
     8
 73
     4
 74
     0
 42
0.000000001
 43
0.00000001
 40
0.0
 40
0.0
 40
0.0
 40
0.0
 40
1.0
 40
1.0
 40
1.0
 40
1.0
 10
84.40500685788304
 20
106.9230597612183
 30
0.0
 10
82.60761218644521
 20
106.9211887006943
 30
0.0
 10
80.81021751500737
 20
106.9197665196701
 30
0.0
 10
79.01282284356952
 20
106.9187923966741
 30
0.0
  0
SPLINE
  5
180
330
1F
100
AcDbEntity
  8
0
  6
Continuous
 62
     7
370
    25
100
AcDbSpline
210
0.0
220
0.0
230
1.0
 70
     8
 71
     3
 72
    18
 73
    14
 74
     0
 42
0.000000001
 43
0.00000001
 40
0.0
 40
0.0
 40
0.0
 40
0.0
 40
0.0923325137111192
 40
0.1843692047063016
 40
0.2763458873810836
 40
0.3684982175655623
 40
0.4610598988303626
 40
0.554260954653301
 40
0.6483261285442131
 40
0.74347346365053
 40
0.8399130993119804
 40
0.9201660718299768
 40
1.0
 40
1.0
 40
1.0
 40
1.0
 10
86.60132850648533
 20
106.3888675253746
 30
0.0
 10
86.53099820297227
 20
106.3892841498062
 30
0.0
 10
86.39056292612034
 20
106.3901160638529
 30
0.0
 10
86.18020039961772
 20
106.4037249107674
 30
0.0
 10
85.97075673670135
 20
106.4263916681391
 30
0.0
 10
85.76220706632886
 20
106.4589924579398
 30
0.0
 10
85.55456344905357
 20
106.5012949365601
 30
0.0
 10
85.34782526151399
 20
106.5533663352153
 30
0.0
 10
85.14200316954914
 20
106.6152151080606
 30
0.0
 10
84.93707149075699
 20
106.6868131195168
 30
0.0
 10
84.74559074536128
 20
106.7633916097442
 30
0.0
 10
84.56786759330667
 20
106.8420028585773
 30
0.0
 10
84.45953359874265
 20
106.8959170143647
 30
0.0
 10
84.40550838928938
 20
106.9228035292637
 30
0.0
  0
LINE
  5
181
330
1F
100
AcDbEntity
  8
0
  6
Continuous
 62
     7
370
    25
100
AcDbLine
 10
88.5162017858
 20
106.3903629602
 30
0.0
 11
86.6013285065
 21
106.3888675254
 31
0.0
  0
SPLINE
  5
182
330
1F
100
AcDbEntity
  8
0
  6
Continuous
 62
     7
370
    25
100
AcDbSpline
210
0.0
220
0.0
230
1.0
 70
     8
 71
     3
 72
    25
 73
    21
 74
     0
 42
0.000000001
 43
0.00000001
 40
0.0
 40
0.0
 40
0.0
 40
0.0
 40
0.0280105225422753
 40
0.0559601148854256
 40
0.0839014045034749
 40
0.1118870776777086
 40
0.1399695827579646
 40
0.1682008401731476
 40
0.1966319670417595
 40
0.2253130233137476
 40
0.2542927850735311
 40
0.3799486436564626
 40
0.5057850221666382
 40
0.631308588631066
 40
0.7532068238011618
 40
0.8039473267946936
 40
0.8535894438541253
 40
0.9025339722380873
 40
0.9511970353782256
 40
1.0
 40
1.0
 40
1.0
 40
1.0
 10
93.45608609217766
 20
111.5242267647499
 30
0.0
 10
93.45612331391148
 20
111.4496067377374
 30
0.0
 10
93.45619767641212
 20
111.300529001752
 30
0.0
 10
93.44378162576555
 20
111.0779109107878
 30
0.0
 10
93.42217706541179
 20
110.8565864927603
 30
0.0
 10
93.39049159575174
 20
110.6366182268725
 30
0.0
 10
93.3489654574318
 20
110.4180279396434
 30
0.0
 10
93.2975347017019
 20
110.2008460012383
 30
0.0
 10
93.2362208269907
 20
109.9851045813521
 30
0.0
 10
93.16501049149122
 20
109.7708146898999
 30
0.0
 10
92.99417388429008
 20
109.322464916879
 30
0.0
 10
92.65644165085403
 20
108.6691340888069
 30
0.0
 10
92.04488698665932
 20
107.8972408781707
 30
0.0
 10
91.30865215150679
 20
107.2530812527855
 30
0.0
 10
90.62216607986254
 20
106.8614400847234
 30
0.0
 10
90.07346193371373
 20
106.6427451837504
 30
0.0
 10
89.69142575521214
 20
106.52688913492
 30
0.0
 10
89.30425965650758
 20
106.4459812293901
 30
0.0
 10
88.91203298771745
 20
106.3967527985924
 30
0.0
 10
88.64827171959868
 20
106.3924949435771
 30
0.0
 10
88.5162017857748
 20
106.3903629602344
 30
0.0
  0
LINE
  5
183
330
1F
100
AcDbEntity
  8
0
  6
Continuous
 62
     7
370
    25
100
AcDbLine
 10
93.4560860922
 20
115.8989022498
 30
0.0
 11
93.4560860922
 21
111.5242267647
 31
0.0
  0
LINE
  5
184
330
1F
100
AcDbEntity
  8
0
  6
Continuous
 62
     7
370
    25
100
AcDbLine
 10
109.4009618989
 20
140.8406402953
 30
0.0
 11
96.0794886264
 21
140.1716633223
 31
0.0
  0
SPLINE
  5
185
330
1F
100
AcDbEntity
  8
0
  6
Continuous
 62
     7
370
    25
100
AcDbSpline
210
0.0
220
0.0
230
1.0
 70
     8
 71
     3
 72
    20
 73
    16
 74
     0
 42
0.000000001
 43
0.00000001
 40
0.0
 40
0.0
 40
0.0
 40
0.0
 40
0.0829621378684844
 40
0.1658495135106147
 40
0.248718007085733
 40
0.3299477216398489
 40
0.4108693994445691
 40
0.4941953814850509
 40
0.5768901676626165
 40
0.6601065810557706
 40
0.7435845489350774
 40
0.8279858465401798
 40
0.9132590745392786
 40
0.9972257035811698
 40
1.0
 40
1.0
 40
1.0
 40
1.0
 10
82.47356003370318
 20
93.03564188231167
 30
0.0
 10
82.85930586977449
 20
93.11256030891582
 30
0.0
 10
83.63044992289167
 20
93.2663278462534
 30
0.0
 10
85.0381980740615
 20
93.44224306763894
 30
0.0
 10
86.5460494419361
 20
93.53623935496798
 30
0.0
 10
88.11853841695397
 20
93.51239497310138
 30
0.0
 10
89.68583544816605
 20
93.36848992820079
 30
0.0
 10
91.18161147494752
 20
93.11943232540175
 30
0.0
 10
92.56186535062025
 20
92.80475163286313
 30
0.0
 10
93.75945953367584
 20
92.46049028088258
 30
0.0
 10
94.74632156349809
 20
92.13144305506285
 30
0.0
 10
95.49355980969608
 20
91.85298214685508
 30
0.0
 10
95.94076123906169
 20
91.68112635182348
 30
0.0
 10
96.12751585121158
 20
91.60727568022499
 30
0.0
 10
96.07641763731344
 20
91.62742697129814
 30
0.0
 10
96.07478332696832
 20
91.62807148430468
 30
0.0
  0
SPLINE
  5
186
330
1F
100
AcDbEntity
  8
0
  6
Continuous
 62
     7
370
    25
100
AcDbSpline
210
0.0
220
0.0
230
1.0
 70
     8
 71
     3
 72
    11
 73
     7
 74
     0
 42
0.000000001
 43
0.00000001
 40
0.0
 40
0.0
 40
0.0
 40
0.0
 40
0.2435512231731604
 40
0.4981153923403679
 40
0.7509097881719522
 40
1.0
 40
1.0
 40
1.0
 40
1.0
 10
80.16606591595959
 20
92.42697967292855
 30
0.0
 10
80.19201683748487
 20
92.4352152094667
 30
0.0
 10
80.24509213428998
 20
92.4520586786162
 30
0.0
 10
80.72278711795248
 20
92.5929601207537
 30
0.0
 10
81.43412656621923
 20
92.7982506712019
 30
0.0
 10
82.12879121339391
 20
92.95690178939913
 30
0.0
 10
82.47356003370318
 20
93.03564188231167
 30
0.0
  0
LINE
  5
187
330
1F
100
AcDbEntity
  8
0
  6
Continuous
 62
     7
370
    25
100
AcDbLine
 10
93.4560860922
 20
111.5242267647
 30
0.0
 11
92.561143939
 21
111.6864022498
 31
0.0
  0
LINE
  5
188
330
1F
100
AcDbEntity
  8
0
  6
Continuous
 62
     7
370
    25
100
AcDbLine
 10
92.561143939
 20
111.6864022498
 30
0.0
 11
92.561143939
 21
115.8989022498
 31
0.0
  0
SPLINE
  5
189
330
1F
100
AcDbEntity
  8
0
  6
Continuous
 62
     7
370
    25
100
AcDbSpline
210
0.0
220
0.0
230
1.0
 70
     8
 71
     3
 72
    25
 73
    21
 74
     0
 42
0.000000001
 43
0.00000001
 40
0.0
 40
0.0
 40
0.0
 40
0.0
 40
0.0288821753116583
 40
0.0583636594024247
 40
0.088464720432864
 40
0.1192044006641432
 40
0.1506005800108822
 40
0.1826700399688414
 40
0.2154285269587146
 40
0.2488908143380118
 40
0.3610594471217245
 40
0.498467013106778
 40
0.5822693905006526
 40
0.6661127642782239
 40
0.7499972937224496
 40
0.8007709755032478
 40
0.8511237700807983
 40
0.901089602450676
 40
0.9507031914109089
 40
1.0
 40
1.0
 40
1.0
 40
1.0
 10
88.56114393897623
 20
107.6864022498185
 30
0.0
 10
88.62394439221495
 20
107.6872587337703
 30
0.0
 10
88.75084841601486
 20
107.688989473824
 30
0.0
 10
88.94220282372933
 20
107.7031393392278
 30
0.0
 10
89.13610763640794
 20
107.7262764215492
 30
0.0
 10
89.33200835713636
 20
107.7596875737747
 30
0.0
 10
89.52934602514051
 20
107.8035613958074
 30
0.0
 10
89.72749936692566
 20
107.8583566667767
 30
0.0
 10
89.92581511093384
 20
107.9244256281403
 30
0.0
 10
90.27713609843642
 20
108.0624069603933
 30
0.0
 10
90.80224786875887
 20
108.3424588992345
 30
0.0
 10
91.3392396972444
 20
108.7810495016428
 30
0.0
 10
91.75129942728283
 20
109.2549096231895
 30
0.0
 10
92.0382180153353
 20
109.6865933710093
 30
0.0
 10
92.2366447025425
 20
110.0897166127695
 30
0.0
 10
92.36873057659082
 20
110.4474527735485
 30
0.0
 10
92.45436445638863
 20
110.7502051758308
 30
0.0
 10
92.51544666774166
 20
111.0586934860765
 30
0.0
 10
92.55394761110716
 20
111.3710051962329
 30
0.0
 10
92.55875029020063
 20
111.5814946101343
 30
0.0
 10
92.56114393897622
 20
111.6864022498185
 30
0.0
  0
ARC
  5
18A
330
1F
100
AcDbEntity
  8
0
  6
Continuous
 62
     7
370
    25
100
AcDbCircle
 10
131.561143939
 20
139.3989022498
 30
0.0
 40
3.0
100
AcDbArc
 50
180.0
 51
270.0
  0
SPLINE
  5
18B
330
1F
100
AcDbEntity
  8
0
  6
Continuous
 62
     7
370
    25
100
AcDbSpline
210
0.0
220
0.0
230
1.0
 70
     8
 71
     3
 72
    13
 73
     9
 74
     0
 42
0.000000001
 43
0.00000001
 40
0.0
 40
0.0
 40
0.0
 40
0.0
 40
0.1722587823678385
 40
0.3421398271425444
 40
0.5097456258111679
 40
0.6751828993453325
 40
0.8385626190248169
 40
1.0
 40
1.0
 40
1.0
 40
1.0
 10
85.56116230788648
 20
107.8363970725683
 30
0.0
 10
85.62202569755902
 20
107.8201333448688
 30
0.0
 10
85.74291236200443
 20
107.7878303823881
 30
0.0
 10
85.92597351997686
 20
107.7504427276944
 30
0.0
 10
86.1080762029175
 20
107.7213097927843
 30
0.0
 10
86.28901765123418
 20
107.7011230771789
 30
0.0
 10
86.46835665493045
 20
107.6886762728783
 30
0.0
 10
86.58720288334382
 20
107.6871572296509
 30
0.0
 10
86.64627065968676
 20
107.6864022498185
 30
0.0
  0
LINE
  5
18C
330
1F
100
AcDbEntity
  8
0
  6
Continuous
 62
     7
370
    25
100
AcDbLine
 10
86.6013285065
 20
106.3888675254
 30
0.0
 11
86.6462706597
 21
107.6864022498
 31
0.0
  0
SPLINE
  5
18D
330
1F
100
AcDbEntity
  8
0
  6
Continuous
 62
     7
370
    25
100
AcDbSpline
210
0.0
220
0.0
230
1.0
 70
     8
 71
     3
 72
    11
 73
     7
 74
     0
 42
0.000000001
 43
0.00000001
 40
0.0
 40
0.0
 40
0.0
 40
0.0
 40
0.2392913844325938
 40
0.5001130135003002
 40
0.7515028526498353
 40
0.9999999999999999
 40
0.9999999999999999
 40
0.9999999999999999
 40
0.9999999999999999
 10
85.23367144683026
 20
107.8369758548416
 30
0.0
 10
85.16484651088334
 20
107.765422417687
 30
0.0
 10
85.02100411471014
 20
107.6158775221757
 30
0.0
 10
84.81325531634356
 20
107.3869600955302
 30
0.0
 10
84.60526911172245
 20
107.1546417232904
 30
0.0
 10
84.4722681879522
 20
106.9998658406991
 30
0.0
 10
84.40615254372774
 20
106.9229257195492
 30
0.0
  0
SPLINE
  5
18E
330
1F
100
AcDbEntity
  8
0
  6
Continuous
 62
     7
370
    25
100
AcDbSpline
210
0.0
220
0.0
230
1.0
 70
    24
 71
     3
 72
     9
 73
     5
 74
     0
 42
0.000000001
 43
0.00000001
 40
0.0
 40
0.0
 40
0.0
 40
0.0
 40
0.509083966986604
 40
1.0
 40
1.0
 40
1.0
 40
1.0
 10
85.23590171514975
 20
107.8364022498185
 30
0.0
 10
85.2906351152621
 20
107.8364022498185
 30
0.0
 10
85.39814861728092
 20
107.8364022498185
 30
0.0
 10
85.50754117765187
 20
107.8364022498185
 30
0.0
 10
85.56124373943035
 20
107.8364022498185
 30
0.0
  0
LINE
  5
18F
330
1F
100
AcDbEntity
  8
0
  6
Continuous
 62
     7
370
    25
100
AcDbLine
 10
78.9872938506
 20
107.8163504761
 30
0.0
 11
79.0127083422
 21
106.9187923054
 31
0.0
  0
SPLINE
  5
190
330
1F
100
AcDbEntity
  8
0
  6
Continuous
 62
     7
370
    25
100
AcDbSpline
210
0.0
220
0.0
230
1.0
 70
     8
 71
     3
 72
     8
 73
     4
 74
     0
 42
0.000000001
 43
0.00000001
 40
0.0
 40
0.0
 40
0.0
 40
0.0
 40
1.0
 40
1.0
 40
1.0
 40
1.0
 10
78.98730504170443
 20
107.8163509661577
 30
0.0
 10
79.00910789818647
 20
107.8220482971904
 30
0.0
 10
79.03086260758398
 20
107.8279298799854
 30
0.0
 10
79.05256606290206
 20
107.8339948745385
 30
0.0
  0
LINE
  5
191
330
1F
100
AcDbEntity
  8
0
  6
Continuous
 62
     7
370
    25
100
AcDbLine
 10
79.061143939
 20
107.8364022498
 30
0.0
 11
85.2348169113
 21
107.8364022498
 31
0.0
  0
LINE
  5
192
330
1F
100
AcDbEntity
  8
0
  6
Continuous
 62
     7
370
    25
100
AcDbLine
 10
86.6462706597
 20
107.6864022498
 30
0.0
 11
88.561143939
 21
107.6864022498
 31
0.0
  0
SPLINE
  5
193
330
1F
100
AcDbEntity
  8
0
  6
Continuous
 62
     7
370
    25
100
AcDbSpline
210
0.0
220
0.0
230
1.0
 70
     8
 71
     3
 72
    13
 73
     9
 74
     0
 42
0.000000001
 43
0.00000001
 40
0.0
 40
0.0
 40
0.0
 40
0.0
 40
0.1621004456571512
 40
0.325943455157606
 40
0.4915935308260523
 40
0.6591130873964648
 40
0.8285624736043361
 40
1.0
 40
1.0
 40
1.0
 40
1.0
 10
77.97601721826568
 20
107.6864022498185
 30
0.0
 10
78.03157217633122
 20
107.6870712160198
 30
0.0
 10
78.14327930279596
 20
107.6884163397431
 30
0.0
 10
78.31112699218973
 20
107.6993629085344
 30
0.0
 10
78.47991341105812
 20
107.7170018378551
 30
0.0
 10
78.64923776758995
 20
107.742307351843
 30
0.0
 10
78.81898441576733
 20
107.774611354636
 30
0.0
 10
78.93097731442496
 20
107.802382954522
 30
0.0
 10
78.98730034945471
 20
107.8163497400233
 30
0.0
  0
LINE
  5
194
330
1F
100
AcDbEntity
  8
0
  6
Continuous
 62
     7
370
    25
100
AcDbLine
 10
71.1974841174
 20
107.1589005059
 30
0.0
 11
72.111143939
 21
107.6864022498
 31
0.0
  0
LINE
  5
195
330
1F
100
AcDbEntity
  8
0
  6
Continuous
 62
     7
370
    25
100
AcDbLine
 10
72.111143939
 20
107.6864022498
 30
0.0
 11
77.9760172183
 21
107.6864022498
 31
0.0
  0
SPLINE
  5
196
330
1F
100
AcDbEntity
  8
0
  6
Continuous
 62
     7
370
    25
100
AcDbSpline
210
0.0
220
0.0
230
1.0
 70
     8
 71
     3
 72
     8
 73
     4
 74
     0
 42
0.000000001
 43
0.00000001
 40
0.0
 40
0.0
 40
0.0
 40
0.0
 40
1.0
 40
1.0
 40
1.0
 40
1.0
 10
72.11114393852527
 20
106.7765755384425
 30
0.0
 10
71.80659066481974
 20
106.9052664029893
 30
0.0
 10
71.50203739111421
 20
107.032711159251
 30
0.0
 10
71.19748411740868
 20
107.1589005058887
 30
0.0
  0
LINE
  5
197
330
1F
100
AcDbEntity
  8
0
  6
Continuous
 62
     7
370
    25
100
AcDbLine
 10
70.611143939
 20
93.695807526
 30
0.0
 11
70.611143939
 21
106.820376846
 31
0.0
  0
SPLINE
  5
198
330
1F
100
AcDbEntity
  8
0
  6
Continuous
 62
     7
370
    25
100
AcDbSpline
210
0.0
220
0.0
230
1.0
 70
    24
 71
     3
 72
     8
 73
     4
 74
     0
 42
0.000000001
 43
0.00000001
 40
0.0
 40
0.0
 40
0.0
 40
0.0
 40
1.0
 40
1.0
 40
1.0
 40
1.0
 10
71.19748411740868
 20
107.1589005058887
 30
0.0
 10
71.00115209175033
 20
107.0455481580243
 30
0.0
 10
70.80569107151011
 20
106.9326986853726
 30
0.0
 10
70.61114393897621
 20
106.8203768460341
 30
0.0
  0
LINE
  5
199
330
1F
100
AcDbEntity
  8
0
  6
Continuous
 62
     7
370
    25
100
AcDbLine
 10
179.7363249943
 20
95.3989022498
 30
0.0
 11
179.7363249943
 21
115.8989022498
 31
0.0
  0
LINE
  5
19A
330
1F
100
AcDbEntity
  8
0
  6
Continuous
 62
     7
370
    25
100
AcDbLine
 10
179.7363249943
 20
136.3989022498
 30
0.0
 11
131.561143939
 21
136.3989022498
 31
0.0
  0
LINE
  5
19B
330
1F
100
AcDbEntity
  8
0
  6
Continuous
 62
     7
370
    25
100
AcDbLine
 10
228.7180621304
 20
132.543955934
 30
0.0
 11
179.7363249943
 21
136.3989022498
 31
0.0
  0
LINE
  5
19C
330
1F
100
AcDbEntity
  8
0
  6
Continuous
 62
     7
370
    25
100
AcDbLine
 10
102.3363844126
 20
134.1489022498
 30
0.0
 11
103.761143939
 21
134.1489022498
 31
0.0
  0
ARC
  5
19D
330
1F
100
AcDbEntity
  8
0
  6
Continuous
 62
     7
370
    25
100
AcDbCircle
 10
103.761143939
 20
133.3489022498
 30
0.0
 40
0.8000000000000398
100
AcDbArc
 50
0.0
 51
90.0
  0
ARC
  5
19E
330
1F
100
AcDbEntity
  8
0
  6
Continuous
 62
     7
370
    25
100
AcDbCircle
 10
102.3363844126
 20
133.3489022498
 30
0.0
 40
0.8000000000000242
100
AcDbArc
 50
90.0
 51
120.0
  0
LINE
  5
19F
330
1F
100
AcDbEntity
  8
0
  6
Continuous
 62
     7
370
    25
100
AcDbLine
 10
101.061143939
 20
133.5364022498
 30
0.0
 11
101.061143939
 21
115.8989022498
 31
0.0
  0
LINE
  5
1A0
330
1F
100
AcDbEntity
  8
0
  6
Continuous
 62
     7
370
    25
100
AcDbLine
 10
101.061143939
 20
133.5364022498
 30
0.0
 11
101.9363844126
 21
134.0417225728
 31
0.0
  0
LINE
  5
1A1
330
1F
100
AcDbEntity
  8
0
  6
Continuous
 62
     7
370
    25
100
AcDbLine
 10
71.3628099888
 20
107.2543514422
 30
0.0
 11
71.2263412164
 21
107.1755611598
 31
0.0
  0
SPLINE
  5
1A2
330
1F
100
AcDbEntity
  8
0
  6
Continuous
 62
     7
370
    25
100
AcDbSpline
210
0.0
220
0.0
230
1.0
 70
     8
 71
     3
 72
    32
 73
    28
 74
     0
 42
0.000000001
 43
0.00000001
 40
0.0
 40
0.0
 40
0.0
 40
0.0
 40
0.1249999999999992
 40
0.1249999999999992
 40
0.1874999999999992
 40
0.1874999999999992
 40
0.2499999999999992
 40
0.2499999999999992
 40
0.3124999999999992
 40
0.3124999999999992
 40
0.3749999999999991
 40
0.3749999999999991
 40
0.499999999999999
 40
0.499999999999999
 40
0.5624999999999991
 40
0.5624999999999991
 40
0.6249999999999993
 40
0.6249999999999993
 40
0.7499999999999993
 40
0.7499999999999993
 40
0.8124999999999996
 40
0.8124999999999996
 40
0.8749999999999997
 40
0.8749999999999997
 40
0.9374999999999999
 40
0.9374999999999999
 40
1.0
 40
1.0
 40
1.0
 40
1.0
 10
85.02877427031684
 20
132.071571004028
 30
0.0
 10
84.54470002636283
 20
132.0719303966477
 30
0.0
 10
84.06130245579594
 20
132.086889602829
 30
0.0
 10
83.33739710605992
 20
132.1338736493376
 30
0.0
 10
83.09673467252307
 20
132.1536502044622
 30
0.0
 10
82.62538856344743
 20
132.2006142879613
 30
0.0
 10
82.39355274715717
 20
132.2278681371458
 30
0.0
 10
81.93784966060089
 20
132.2894960657584
 30
0.0
 10
81.71398133765955
 20
132.3238711665538
 30
0.0
 10
81.27465374565173
 20
132.3991906102069
 30
0.0
 10
81.05793635298534
 20
132.4404085609551
 30
0.0
 10
80.4315943743125
 20
132.5706453801359
 30
0.0
 10
80.0472017399591
 20
132.6656852920351
 30
0.0
 10
79.51965999433926
 20
132.8119522539875
 30
0.0
 10
79.35202584280817
 20
132.8613208891782
 30
0.0
 10
79.03362109556764
 20
132.9597245966785
 30
0.0
 10
78.88404022102849
 20
133.008407861311
 30
0.0
 10
78.47102015148003
 20
133.1480306644794
 30
0.0
 10
78.23946838032089
 20
133.2336173430599
 30
0.0
 10
77.95615886523123
 20
133.342580390976
 30
0.0
 10
77.87259118345943
 20
133.3756290435504
 30
0.0
 10
77.73066635113524
 20
133.4326324397908
 30
0.0
 10
77.67167823969271
 20
133.4568291454012
 30
0.0
 10
77.57696233598288
 20
133.4960314257802
 30
0.0
 10
77.54123436883611
 20
133.5110385922772
 30
0.0
 10
77.49327009111867
 20
133.5312475900042
 30
0.0
 10
77.4811437836852
 20
133.5364022498185
 30
0.0
 10
77.4811437836852
 20
133.5364022498185
 30
0.0
  0
SPLINE
  5
1A3
330
1F
100
AcDbEntity
  8
0
  6
Continuous
 62
     7
370
    25
100
AcDbSpline
210
0.0
220
0.0
230
1.0
 70
     8
 71
     3
 72
    31
 73
    27
 74
     0
 42
0.000000001
 43
0.00000001
 40
0.0
 40
0.0
 40
0.0
 40
0.0
 40
0.0161756722762543
 40
0.0323169137831935
 40
0.0484425619887098
 40
0.0645715089965155
 40
0.080722635334528
 40
0.0969147439454967
 40
0.1131664955259563
 40
0.1294963463054579
 40
0.1459224892616237
 40
0.1624627996348737
 40
0.1791347854483713
 40
0.1959555435640442
 40
0.2945755146277992
 40
0.3932797312250851
 40
0.4928176221933313
 40
0.5924285912823416
 40
0.6939020917448192
 40
0.7927115381487368
 40
0.8267756331435536
 40
0.8608043324964899
 40
0.8949846314009923
 40
0.929501059435787
 40
0.9645328322468298
 40
1.0
 40
1.0
 40
1.0
 40
1.0
 10
96.0370933290603
 20
133.5364022498185
 30
0.0
 10
96.03636022860911
 20
133.5360558583906
 30
0.0
 10
96.03489558814962
 20
133.5353638128471
 30
0.0
 10
96.02183920848456
 20
133.5297814508007
 30
0.0
 10
96.00082464796175
 20
133.5209146878065
 30
0.0
 10
95.97107744262108
 20
133.5084735870916
 30
0.0
 10
95.93280512996546
 20
133.4925829285364
 30
0.0
 10
95.88595244904432
 20
133.4732571847092
 30
0.0
 10
95.83053471900735
 20
133.4505410951897
 30
0.0
 10
95.7665487551769
 20
133.424472090815
 30
0.0
 10
95.6939952710263
 20
133.3950896434469
 30
0.0
 10
95.61287857354664
 20
133.3624353961121
 30
0.0
 10
95.52318491879666
 20
133.3265429490776
 30
0.0
 10
95.26613907214015
 20
133.2243050414108
 30
0.0
 10
94.73810308654728
 20
133.0177808279441
 30
0.0
 10
93.7594684393011
 20
132.6806955145942
 30
0.0
 10
92.5735921363823
 20
132.3375506552664
 30
0.0
 10
91.20312587130908
 20
132.0404387546058
 30
0.0
 10
89.71726859934448
 20
131.8303953268729
 30
0.0
 10
88.49711596557945
 20
131.7721699240043
 30
0.0
 10
87.6306919326346
 20
131.7858622652643
 30
0.0
 10
87.10244700415778
 20
131.8112303508754
 30
0.0
 10
86.5776737729516
 20
131.8532529665929
 30
0.0
 10
86.05668453335912
 20
131.911536929821
 30
0.0
 10
85.53944358830066
 20
131.9841604750664
 30
0.0
 10
85.20380647596679
 20
132.0430407927562
 30
0.0
 10
85.03495148790506
 20
132.0726627713016
 30
0.0
  0
LINE
  5
1A4
330
1F
100
AcDbEntity
  8
0
  6
Continuous
 62
     7
370
    25
100
AcDbLine
 10
96.0370933291
 20
133.5364022498
 30
0.0
 11
101.061143939
 21
133.5364022498
 31
0.0
  0
LINE
  5
1A5
330
1F
100
AcDbEntity
  8
0
  6
Continuous
 62
     7
370
    25
100
AcDbLine
 10
93.211143939
 20
119.9616756606
 30
0.0
 11
93.211143939
 21
115.8989022498
 31
0.0
  0
SPLINE
  5
1A6
330
1F
100
AcDbEntity
  8
0
  6
Continuous
 62
     7
370
    25
100
AcDbSpline
210
0.0
220
0.0
230
1.0
 70
     8
 71
     3
 72
    25
 73
    21
 74
     0
 42
0.000000001
 43
0.00000001
 40
0.0
 40
0.0
 40
0.0
 40
0.0
 40
0.0278144320063462
 40
0.0555680196245754
 40
0.083331625367772
 40
0.111176035216759
 40
0.1391714221532265
 40
0.1673868326284763
 40
0.1958897140434718
 40
0.2247454979318961
 40
0.254017249222145
 40
0.3796724410016501
 40
0.5056484635002454
 40
0.629752729069345
 40
0.7535891720571729
 40
0.8038564806093713
 40
0.853339684343451
 40
0.9023264398358534
 40
0.9511131859219439
 40
1.0
 40
1.0
 40
1.0
 40
1.0
 10
88.56114393897622
 20
124.4463988321835
 30
0.0
 10
88.62979929293854
 20
124.4458657470764
 30
0.0
 10
88.7669598164912
 20
124.444800742992
 30
0.0
 10
88.97220239907699
 20
124.4317058455998
 30
0.0
 10
89.17652341557407
 20
124.4101673590273
 30
0.0
 10
89.37992446766307
 20
124.3793458871787
 30
0.0
 10
89.58240009850894
 20
124.3394331346712
 30
0.0
 10
89.78394896275658
 20
124.2903329417302
 30
0.0
 10
89.98456298355927
 20
124.2320196942184
 30
0.0
 10
90.18426074789157
 20
124.1644277513516
 30
0.0
 10
90.59982556857085
 20
124.003614235236
 30
0.0
 10
91.20260198511339
 20
123.6896373358946
 30
0.0
 10
91.89665854061829
 20
123.1260658603999
 30
0.0
 10
92.46343217001542
 20
122.4503216411459
 30
0.0
 10
92.80100997568668
 20
121.8329598136694
 30
0.0
 10
92.98947238497554
 20
121.3408983741594
 30
0.0
 10
93.08873360250003
 20
121.0032465916129
 30
0.0
 10
93.1590781912069
 20
120.6606154495894
 30
0.0
 10
93.2030767897255
 20
120.3132507491478
 30
0.0
 10
93.20845305320577
 20
120.078947372541
 30
0.0
 10
93.21114393897622
 20
119.9616756606182
 30
0.0
  0
LINE
  5
1A7
330
1F
100
AcDbEntity
  8
0
  6
Continuous
 62
     7
370
    25
100
AcDbLine
 10
86.6462706597
 20
124.4463988322
 30
0.0
 11
88.561143939
 21
124.4463988322
 31
0.0
  0
SPLINE
  5
1A8
330
1F
100
AcDbEntity
  8
0
  6
Continuous
 62
     7
370
    25
100
AcDbSpline
210
0.0
220
0.0
230
1.0
 70
     8
 71
     3
 72
    12
 73
     8
 74
     0
 42
0.000000001
 43
0.00000001
 40
0.0
 40
0.0
 40
0.0
 40
0.0
 40
0.1992838848975294
 40
0.3984605265796777
 40
0.5979968004971673
 40
0.7983570684833388
 40
1.0
 40
1.0
 40
1.0
 40
1.0
 10
85.64523681734777
 20
124.3442045194601
 30
0.0
 10
85.71069009464823
 20
124.3572268722247
 30
0.0
 10
85.8415614260302
 20
124.3832645698669
 30
0.0
 10
86.04041087765394
 20
124.4116951288409
 30
0.0
 10
86.24081739352502
 20
124.4321262898224
 30
0.0
 10
86.44298831094225
 20
124.444565366893
 30
0.0
 10
86.57836589459333
 20
124.4457863784676
 30
0.0
 10
86.64627065968676
 20
124.4463988321835
 30
0.0
  0
LINE
  5
1A9
330
1F
100
AcDbEntity
  8
0
  6
Continuous
 62
     7
370
    25
100
AcDbLine
 10
80.2204738098
 20
124.3440405954
 30
0.0
 11
85.6444638283
 21
124.3440405954
 31
0.0
  0
SPLINE
  5
1AA
330
1F
100
AcDbEntity
  8
0
  6
Continuous
 62
     7
370
    25
100
AcDbSpline
210
0.0
220
0.0
230
1.0
 70
     8
 71
     3
 72
    24
 73
    20
 74
     0
 42
0.000000001
 43
0.00000001
 40
0.0
 40
0.0
 40
0.0
 40
0.0
 40
0.0410257106287842
 40
0.0818520099077639
 40
0.1225800578354648
 40
0.1633117464058233
 40
0.2041489402806705
 40
0.2451927184749161
 40
0.2865426449235763
 40
0.3282960933646444
 40
0.370547647549383
 40
0.4133885920102291
 40
0.4569065022351533
 40
0.5011849368587563
 40
0.6001856774947433
 40
0.6987388860447942
 40
0.7976800645453981
 40
0.8978349910029445
 40
1.0
 40
1.0
 40
1.0
 40
1.0
 10
76.44848690282609
 20
126.2816824124815
 30
0.0
 10
76.51152599078061
 20
126.2811477121664
 30
0.0
 10
76.63729775616251
 20
126.2800809105237
 30
0.0
 10
76.82523591767333
 20
126.2689374185255
 30
0.0
 10
77.01182601049791
 20
126.2507759202179
 30
0.0
 10
77.19706779303304
 20
126.2249009994964
 30
0.0
 10
77.38095697626096
 20
126.1914641136848
 30
0.0
 10
77.56349064223372
 20
126.1503800921412
 30
0.0
 10
77.74466604917305
 20
126.1016173440477
 30
0.0
 10
77.92448083314919
 20
126.0451198559039
 30
0.0
 10
78.10293403222876
 20
125.9808287611017
 30
0.0
 10
78.28002207037844
 20
125.9086750811693
 30
0.0
 10
78.45575419466417
 20
125.8285878961306
 30
0.0
 10
78.7007688282605
 20
125.7047470094482
 30
0.0
 10
79.00495190744269
 20
125.526122027255
 30
0.0
 10
79.35225938888779
 20
125.2770328431977
 30
0.0
 10
79.67143365236021
 20
124.9974632582181
 30
0.0
 10
79.9653455546249
 20
124.6886376202459
 30
0.0
 10
80.13486964131674
 20
124.4605455769442
 30
0.0
 10
80.22047380979956
 20
124.3453664889136
 30
0.0
  0
LINE
  5
1AB
330
1F
100
AcDbEntity
  8
0
  6
Continuous
 62
     7
370
    25
100
AcDbLine
 10
73.6569451859
 20
126.2816824125
 30
0.0
 11
76.4484869028
 21
126.2816824125
 31
0.0
  0
SPLINE
  5
1AC
330
1F
100
AcDbEntity
  8
0
  6
Continuous
 62
     7
370
    25
100
AcDbSpline
210
0.0
220
0.0
230
1.0
 70
     8
 71
     3
 72
     8
 73
     4
 74
     0
 42
0.000000001
 43
0.00000001
 40
0.0
 40
0.0
 40
0.0
 40
0.0
 40
1.0
 40
1.0
 40
1.0
 40
1.0
 10
73.61114111421747
 20
126.3451354034912
 30
0.0
 10
73.62640913811516
 20
126.324018933093
 30
0.0
 10
73.64167716201284
 20
126.3028678660403
 30
0.0
 10
73.65694518591053
 20
126.2816824124815
 30
0.0
  0
LINE
  5
1AD
330
1F
100
AcDbEntity
  8
0
  6
Continuous
 62
     7
370
    25
100
AcDbLine
 10
73.611143939
 20
133.5364022498
 30
0.0
 11
73.611143939
 21
126.3451354035
 31
0.0
  0
LINE
  5
1AE
330
1F
100
AcDbEntity
  8
0
  6
Continuous
 62
     7
370
    25
100
AcDbLine
 10
73.611143939
 20
133.5364022498
 30
0.0
 11
77.4811437837
 21
133.5364022498
 31
0.0
  0
LINE
  5
1AF
330
1F
100
AcDbEntity
  8
0
  6
Continuous
 62
     7
370
    25
100
AcDbLine
 10
230.561143939
 20
101.2476832331
 30
0.0
 11
230.561143939
 21
115.8989022498
 31
0.0
  0
ARC
  5
1B0
330
1F
100
AcDbEntity
  8
0
  6
Continuous
 62
     7
370
    25
100
AcDbCircle
 10
228.561143939
 20
130.5501212665
 30
0.0
 40
2.0
100
AcDbArc
 50
0.0
 51
85.5
  0
ARC
  5
1B1
330
1F
100
AcDbEntity
  8
0
  6
Continuous
 62
     7
370
    25
100
AcDbCircle
 10
108.261143939
 20
130.2489022498
 30
0.0
 40
1.200000000000017
100
AcDbArc
 50
0.0
 51
90.0
  0
LINE
  5
1B2
330
1F
100
AcDbEntity
  8
0
  6
Continuous
 62
     7
370
    25
100
AcDbLine
 10
104.561143939
 20
131.4489022498
 30
0.0
 11
108.261143939
 21
131.4489022498
 31
0.0
  0
LINE
  5
1B3
330
1F
100
AcDbEntity
  8
0
  6
Continuous
 62
     7
370
    25
100
AcDbLine
 10
104.561143939
 20
131.4489022498
 30
0.0
 11
104.561143939
 21
115.8989022498
 31
0.0
  0
ARC
  5
1B4
330
1F
100
AcDbEntity
  8
0
  6
Continuous
 62
     7
370
    25
100
AcDbCircle
 10
230.061143939
 20
125.9355964979
 30
0.0
 40
0.5000000000000568
100
AcDbArc
 50
280.0
 51
0.0
  0
LINE
  5
1B5
330
1F
100
AcDbEntity
  8
0
  6
Continuous
 62
     7
370
    25
100
AcDbLine
 10
230.561143939
 20
125.9355964979
 30
0.0
 11
230.561143939
 21
115.8989022498
 31
0.0
  0
LINE
  5
1B6
330
1F
100
AcDbEntity
  8
0
  6
Continuous
 62
     7
370
    25
100
AcDbLine
 10
227.061143939
 20
124.8989022498
 30
0.0
 11
227.061143939
 21
115.8989022498
 31
0.0
  0
LINE
  5
1B7
330
1F
100
AcDbEntity
  8
0
  6
Continuous
 62
     7
370
    25
100
AcDbLine
 10
227.061143939
 20
124.8989022498
 30
0.0
 11
230.1479680278
 21
125.4431926214
 31
0.0
  0
ARC
  5
1B8
330
1F
100
AcDbEntity
  8
0
  6
Continuous
 62
     7
370
    25
100
AcDbCircle
 10
190.6663699209
 20
124.7989022498
 30
0.0
 40
0.4000000000000057
100
AcDbArc
 50
70.0
 51
90.0
  0
LINE
  5
1B9
330
1F
100
AcDbEntity
  8
0
  6
Continuous
 62
     7
370
    25
100
AcDbLine
 10
181.461143939
 20
125.1989022498
 30
0.0
 11
190.6663699209
 21
125.1989022498
 31
0.0
  0
ARC
  5
1BA
330
1F
100
AcDbEntity
  8
0
  6
Continuous
 62
     7
370
    25
100
AcDbCircle
 10
181.461143939
 20
124.7989022498
 30
0.0
 40
0.4000000000000057
100
AcDbArc
 50
90.0
 51
180.0
  0
LINE
  5
1BB
330
1F
100
AcDbEntity
  8
0
  6
Continuous
 62
     7
370
    25
100
AcDbLine
 10
191.561143939
 20
124.8989022498
 30
0.0
 11
191.561143939
 21
115.8989022498
 31
0.0
  0
LINE
  5
1BC
330
1F
100
AcDbEntity
  8
0
  6
Continuous
 62
     7
370
    25
100
AcDbLine
 10
190.8031779782
 20
125.1747792981
 30
0.0
 11
191.561143939
 21
124.8989022498
 31
0.0
  0
LINE
  5
1BD
330
1F
100
AcDbEntity
  8
0
  6
Continuous
 62
     7
370
    25
100
AcDbLine
 10
191.561143939
 20
124.8989022498
 30
0.0
 11
227.061143939
 21
124.8989022498
 31
0.0
  0
LINE
  5
1BE
330
1F
100
AcDbEntity
  8
0
  6
Continuous
 62
     7
370
    25
100
AcDbLine
 10
180.561143939
 20
121.3989022498
 30
0.0
 11
181.061143939
 21
121.8989022498
 31
0.0
  0
LINE
  5
1BF
330
1F
100
AcDbEntity
  8
0
  6
Continuous
 62
     7
370
    25
100
AcDbLine
 10
113.286143939
 20
121.6489022498
 30
0.0
 11
114.111143939
 21
121.6489022498
 31
0.0
  0
LINE
  5
1C0
330
1F
100
AcDbEntity
  8
0
  6
Continuous
 62
     7
370
    25
100
AcDbLine
 10
160.561143939
 20
121.3989022498
 30
0.0
 11
160.561143939
 21
115.8989022498
 31
0.0
  0
LINE
  5
1C1
330
1F
100
AcDbEntity
  8
0
  6
Continuous
 62
     7
370
    25
100
AcDbLine
 10
159.6598530104
 20
119.8989022498
 30
0.0
 11
159.6598530104
 21
115.8989022498
 31
0.0
  0
LINE
  5
1C2
330
1F
100
AcDbEntity
  8
0
  6
Continuous
 62
     7
370
    25
100
AcDbLine
 10
159.6598530104
 20
119.8989022498
 30
0.0
 11
160.561143939
 21
121.3989022498
 31
0.0
  0
LINE
  5
1C3
330
1F
100
AcDbEntity
  8
0
  6
Continuous
 62
     7
370
    25
100
AcDbLine
 10
160.561143939
 20
121.3989022498
 30
0.0
 11
180.561143939
 21
121.3989022498
 31
0.0
  0
LINE
  5
1C4
330
1F
100
AcDbEntity
  8
0
  6
Continuous
 62
     7
370
    25
100
AcDbLine
 10
109.861143939
 20
120.8989022498
 30
0.0
 11
109.861143939
 21
115.8989022498
 31
0.0
  0
LINE
  5
1C5
330
1F
100
AcDbEntity
  8
0
  6
Continuous
 62
     7
370
    25
100
AcDbLine
 10
109.461143939
 20
121.1298423575
 30
0.0
 11
109.861143939
 21
120.8989022498
 31
0.0
  0
LINE
  5
1C6
330
1F
100
AcDbEntity
  8
0
  6
Continuous
 62
     7
370
    25
100
AcDbLine
 10
109.461143939
 20
121.1298423575
 30
0.0
 11
109.461143939
 21
115.8989022498
 31
0.0
  0
LINE
  5
1C7
330
1F
100
AcDbEntity
  8
0
  6
Continuous
 62
     7
370
    25
100
AcDbLine
 10
109.861143939
 20
120.8989022498
 30
0.0
 11
113.286143939
 21
120.8989022498
 31
0.0
  0
LINE
  5
1C8
330
1F
100
AcDbEntity
  8
0
  6
Continuous
 62
     7
370
    25
100
AcDbLine
 10
113.286143939
 20
120.8989022498
 30
0.0
 11
113.286143939
 21
115.8989022498
 31
0.0
  0
LINE
  5
1C9
330
1F
100
AcDbEntity
  8
0
  6
Continuous
 62
     7
370
    25
100
AcDbLine
 10
114.111143939
 20
119.8989022498
 30
0.0
 11
159.6598530104
 21
119.8989022498
 31
0.0
  0
LINE
  5
1CA
330
1F
100
AcDbEntity
  8
0
  6
Continuous
 62
     7
370
    25
100
AcDbLine
 10
114.111143939
 20
119.8989022498
 30
0.0
 11
114.111143939
 21
115.8989022498
 31
0.0
  0
SPLINE
  5
1CB
330
1F
100
AcDbEntity
  8
0
  6
Continuous
 62
     7
370
    25
100
AcDbSpline
210
0.0
220
0.0
230
1.0
 70
     8
 71
     3
 72
    38
 73
    34
 74
     0
 42
0.000000001
 43
0.00000001
 40
0.0
 40
0.0
 40
0.0
 40
0.0
 40
0.1250000000000004
 40
0.1250000000000004
 40
0.2500000000000008
 40
0.2500000000000008
 40
0.3125000000000011
 40
0.3125000000000011
 40
0.3750000000000014
 40
0.3750000000000014
 40
0.4375000000000017
 40
0.4375000000000017
 40
0.500000000000002
 40
0.500000000000002
 40
0.5625000000000023
 40
0.5625000000000023
 40
0.6250000000000027
 40
0.6250000000000027
 40
0.6875000000000029
 40
0.6875000000000029
 40
0.7187500000000028
 40
0.7187500000000028
 40
0.7500000000000027
 40
0.7500000000000027
 40
0.7812500000000026
 40
0.7812500000000026
 40
0.8125000000000024
 40
0.8125000000000024
 40
0.8750000000000016
 40
0.8750000000000016
 40
0.9375000000000008
 40
0.9375000000000008
 40
1.0
 40
1.0
 40
1.0
 40
1.0
 10
80.91114393897621
 20
138.4349501347225
 30
0.0
 10
80.91114393897621
 20
138.4349501347224
 30
0.0
 10
80.97294969653962
 20
138.4123060520605
 30
0.0
 10
81.222572241975
 20
138.3197216630045
 30
0.0
 10
81.40629987291312
 20
138.2513340830518
 30
0.0
 10
81.7626887094981
 20
138.11549198385
 30
0.0
 10
81.89584917100363
 20
138.0642989987935
 30
0.0
 10
82.18692818170001
 20
137.9506103936811
 30
0.0
 10
82.34341813320931
 20
137.8886837861747
 30
0.0
 10
82.67679957449722
 20
137.7537986774842
 30
0.0
 10
82.85370333286035
 20
137.6808604231975
 30
0.0
 10
83.22694498033366
 20
137.5218844884017
 30
0.0
 10
83.42468897121479
 20
137.4352447185251
 30
0.0
 10
83.83071240446795
 20
137.2483270459727
 30
0.0
 10
84.03876579785495
 20
137.1482921321637
 30
0.0
 10
84.46106007058916
 20
136.9290285819847
 30
0.0
 10
84.67542537366424
 20
136.81002539032
 30
0.0
 10
85.10326768524368
 20
136.5397515399962
 30
0.0
 10
85.31966933635034
 20
136.3865027144845
 30
0.0
 10
85.61830177923049
 20
136.1204341909013
 30
0.0
 10
85.71349436870021
 20
136.0256619446286
 30
0.0
 10
85.89111962055703
 20
135.8199050874387
 30
0.0
 10
85.97373393118544
 20
135.7080465456681
 30
0.0
 10
86.11581420620705
 20
135.4745310414457
 30
0.0
 10
86.17619975545203
 20
135.3519699754899
 30
0.0
 10
86.2756502476069
 20
135.0954992122647
 30
0.0
 10
86.31494168663173
 20
134.960259198715
 30
0.0
 10
86.4016382727848
 20
134.5519771957505
 30
0.0
 10
86.42034659977952
 20
134.2757170179655
 30
0.0
 10
86.41685057914786
 20
133.7189692393298
 30
0.0
 10
86.39437095893926
 20
133.440738995339
 30
0.0
 10
86.32874331115715
 20
132.8893531751542
 30
0.0
 10
86.28524576746769
 20
132.6150995060517
 30
0.0
 10
86.23576622035762
 20
132.3416700340901
 30
0.0
  0
SPLINE
  5
1CC
330
1F
100
AcDbEntity
  8
0
  6
Continuous
 62
     7
370
    25
100
AcDbSpline
210
0.0
220
0.0
230
1.0
 70
     8
 71
     3
 72
    14
 73
    10
 74
     0
 42
0.000000001
 43
0.00000001
 40
0.0
 40
0.0
 40
0.0
 40
0.0
 40
0.0003951392850831
 40
0.0003951392850831
 40
0.0003951392850831
 40
0.0008159035679249
 40
0.0008159035679249
 40
0.0008159035679249
 40
0.0012369936130997
 40
0.0012369936130997
 40
0.0012369936130997
 40
0.0012369936130997
 10
85.03902788870774
 20
132.0738752468188
 30
0.0
 10
85.16753712681445
 20
132.1027492145323
 30
0.0
 10
85.29610063454346
 20
132.1314374280085
 30
0.0
 10
85.42465101282684
 20
132.159940272046
 30
0.0
 10
85.56153626049044
 20
132.1902911657367
 30
0.0
 10
85.69843190639025
 20
132.2204371307657
 30
0.0
 10
85.83525216773933
 20
132.2503889503342
 30
0.0
 10
85.97217815668424
 20
132.2803639151141
 30
0.0
 10
86.10905522864842
 20
132.3101499645593
 30
0.0
 10
86.24579207783556
 20
132.339772437728
 30
0.0
  0
LINE
  5
1CD
330
1F
100
AcDbEntity
  8
0
  6
Continuous
 62
     7
370
    25
100
AcDbLine
 10
77.4811437837
 20
133.5364022498
 30
0.0
 11
80.911143939
 21
138.4349501347
 31
0.0
  0
SPLINE
  5
1CE
330
1F
100
AcDbEntity
  8
0
  6
Continuous
 62
     7
370
    25
100
AcDbSpline
210
0.0
220
0.0
230
1.0
 70
     8
 71
     3
 72
    37
 73
    33
 74
     0
 42
0.000000001
 43
0.00000001
 40
0.0
 40
0.0
 40
0.0
 40
0.0
 40
0.0114878548102811
 40
0.0231559765621668
 40
0.0350076484354383
 40
0.0470460033795344
 40
0.0592740307999961
 40
0.0716945830965843
 40
0.0843103820274722
 40
0.0971240248798078
 40
0.1101379904320606
 40
0.1233546446979495
 40
0.1811510010973322
 40
0.2483631736114496
 40
0.2888373415819316
 40
0.3232297457604678
 40
0.3515392131491989
 40
0.3737664266256226
 40
0.4399300285953869
 40
0.4987424063270027
 40
0.5023253005651627
 40
0.5613100074513698
 40
0.6252595444338099
 40
0.6818650083849737
 40
0.7483890016987823
 40
0.7860781471964594
 40
0.8194856599799683
 40
0.8486127715281614
 40
0.8734622727747305
 40
0.9389926156604012
 40
0.99815237313934
 40
1.0
 40
1.0
 40
1.0
 40
1.0
 10
95.41114393897621
 20
139.3625545531717
 30
0.0
 10
95.41021748769771
 20
139.3621110361633
 30
0.0
 10
95.40835004730562
 20
139.3612170424958
 30
0.0
 10
95.39307698696587
 20
139.3540250650376
 30
0.0
 10
95.36817528450199
 20
139.3425738214451
 30
0.0
 10
95.33232101256614
 20
139.3264240626706
 30
0.0
 10
95.28535350172851
 20
139.3056963831169
 30
0.0
 10
95.22681059130763
 20
139.2803578641152
 30
0.0
 10
95.15633245173
 20
139.2504174435607
 30
0.0
 10
95.0735578874525
 20
139.2158734695187
 30
0.0
 10
94.97814134233431
 20
139.1767237279041
 30
0.0
 10
94.74857250894583
 20
139.0840250567429
 30
0.0
 10
94.2641542949732
 20
138.8953021662284
 30
0.0
 10
93.48515432342782
 20
138.6172123662572
 30
0.0
 10
92.69393587200767
 20
138.3666254989278
 30
0.0
 10
92.06288537876486
 20
138.191608737598
 30
0.0
 10
91.50984742242849
 20
138.051774096999
 30
0.0
 10
90.71688949353205
 20
137.8713632516529
 30
0.0
 10
89.64655515319888
 20
137.6822969300108
 30
0.0
 10
88.66556487376367
 20
137.5770101223011
 30
0.0
 10
87.73759764464403
 20
137.5199773503481
 30
0.0
 10
86.76514215088363
 20
137.5053827519783
 30
0.0
 10
85.43901194545026
 20
137.5835759684695
 30
0.0
 10
84.16897646095653
 20
137.7440556900637
 30
0.0
 10
83.20920046028691
 20
137.9291672282773
 30
0.0
 10
82.51054881294209
 20
138.0966568320074
 30
0.0
 10
82.06674067478697
 20
138.2102800382157
 30
0.0
 10
81.73420361285699
 20
138.3034638731243
 30
0.0
 10
81.34704520261377
 20
138.4181287373829
 30
0.0
 10
81.00979724050197
 20
138.5254745464429
 30
0.0
 10
80.91207317417296
 20
138.5630401197296
 30
0.0
 10
80.9111712539011
 20
138.5631715285461
 30
0.0
 10
80.91114393897622
 20
138.5631755083013
 30
0.0
  0
LINE
  5
1CF
330
1F
100
AcDbEntity
  8
0
  6
Continuous
 62
     7
370
    25
100
AcDbLine
 10
95.411143939
 20
139.3625545532
 30
0.0
 11
95.411143939
 21
134.0051282706
 31
0.0
  0
SPLINE
  5
1D0
330
1F
100
AcDbEntity
  8
0
  6
Continuous
 62
     7
370
    25
100
AcDbSpline
210
0.0
220
0.0
230
1.0
 70
     8
 71
     3
 72
    30
 73
    26
 74
     0
 42
0.000000001
 43
0.00000001
 40
0.0
 40
0.0
 40
0.0
 40
0.0
 40
0.0192411700742051
 40
0.0381353539376955
 40
0.0566868884861276
 40
0.0749003554931353
 40
0.0927805967284104
 40
0.1103327298326379
 40
0.127562164928989
 40
0.1444746219341814
 40
0.2455865830531964
 40
0.3577720192516778
 40
0.4505017408956412
 40
0.5720127868619808
 40
0.6168069840199893
 40
0.6590088499432715
 40
0.6986242498774657
 40
0.7356603299341531
 40
0.7701258931915056
 40
0.8073679165907838
 40
0.8483950324891402
 40
0.8881367798820049
 40
0.9266264622110462
 40
0.9639007443615101
 40
0.9999999999999999
 40
0.9999999999999999
 40
0.9999999999999999
 40
0.9999999999999999
 10
86.24032534836412
 20
132.3410369602265
 30
0.0
 10
86.32335782824376
 20
132.3299098549017
 30
0.0
 10
86.48792541931657
 20
132.3078563052355
 30
0.0
 10
86.73580693499713
 20
132.2798044159729
 30
0.0
 10
86.98108361043951
 20
132.255852885447
 30
0.0
 10
87.22364144405078
 20
132.2363229332536
 30
0.0
 10
87.46307612115967
 20
132.2211306410769
 30
0.0
 10
87.69908931656676
 20
132.2102990798461
 30
0.0
 10
87.93140736187753
 20
132.2038185145929
 30
0.0
 10
88.53995813150156
 20
132.1981870230069
 30
0.0
 10
89.57827062872158
 20
132.2581604224915
 30
0.0
 10
90.89362215682287
 20
132.4575828956663
 30
0.0
 10
92.17316736971443
 20
132.7630642563502
 30
0.0
 10
93.06460791380458
 20
133.0430070592691
 30
0.0
 10
93.68227278266562
 20
133.2704561557844
 30
0.0
 10
94.02559586794897
 20
133.4007348162845
 30
0.0
 10
94.31728695284447
 20
133.5168257542424
 30
0.0
 10
94.5618323086703
 20
133.6181939836457
 30
0.0
 10
94.7741869891097
 20
133.7095320361633
 30
0.0
 10
94.96524996373432
 20
133.7936071201106
 30
0.0
 10
95.1304973679068
 20
133.8686000740758
 30
0.0
 10
95.26003791815091
 20
133.9295885736215
 30
0.0
 10
95.34840428737343
 20
133.9728262353869
 30
0.0
 10
95.40155013263707
 20
134.0000563212658
 30
0.0
 10
95.40798032857823
 20
134.0034557673957
 30
0.0
 10
95.41114393897621
 20
134.0051282705701
 30
0.0
  0
LINE
  5
1D1
330
1F
100
AcDbEntity
  8
0
  6
Continuous
 62
     7
370
    25
100
AcDbLine
 10
80.911143939
 20
138.4349501347
 30
0.0
 11
80.911143939
 21
138.5631755082
 31
0.0
  0
LINE
  5
1D2
330
1F
100
AcDbEntity
  8
0
  6
Continuous
 62
     7
370
    25
100
AcDbLine
 10
71.3628099888
 20
134.8344784612
 30
0.0
 11
73.611143939
 21
133.5364022498
 31
0.0
  0
LINE
  5
1D3
330
1F
100
AcDbEntity
  8
0
  6
Continuous
 62
     7
370
    25
100
AcDbLine
 10
70.611143939
 20
136.1364022498
 30
0.0
 11
71.3628099888
 21
134.8344784612
 31
0.0
  0
LINE
  5
1D4
330
1F
100
AcDbEntity
  8
0
  6
Continuous
 62
     7
370
    25
100
AcDbLine
 10
70.611143939
 20
138.1019969736
 30
0.0
 11
70.611143939
 21
136.1364022498
 31
0.0
  0
LINE
  5
1D5
330
1F
100
AcDbEntity
  8
0
  6
Continuous
 62
     7
370
    25
100
AcDbLine
 10
72.111143939
 20
138.9680223774
 30
0.0
 11
70.611143939
 21
138.1019969736
 31
0.0
  0
LINE
  5
1D6
330
1F
100
AcDbEntity
  8
0
  6
Continuous
 62
     7
370
    25
100
AcDbLine
 10
80.1615820906
 20
139.3722879595
 30
0.0
 11
80.9111720696
 21
138.5631766217
 31
0.0
  0
LINE
  5
1D7
330
1F
100
AcDbEntity
  8
0
  6
Continuous
 62
     7
370
    25
100
AcDbLine
 10
95.4111568871
 20
139.362554809
 30
0.0
 11
96.079487033
 21
140.1716666314
 31
0.0
  0
LINE
  5
1D8
330
1F
100
AcDbEntity
  8
0
  6
Continuous
 62
     7
370
    25
100
AcDbLine
 10
121.336143939
 20
143.7489022498
 30
0.0
 11
119.586143939
 21
143.7489022498
 31
0.0
  0
ARC
  5
1D9
330
1F
100
AcDbEntity
  8
0
  6
Continuous
 62
     7
370
    25
100
AcDbCircle
 10
121.336143939
 20
144.7489022498
 30
0.0
 40
1.0
100
AcDbArc
 50
270.0
 51
0.0
  0
LINE
  5
1DA
330
1F
100
AcDbEntity
  8
0
  6
Continuous
 62
     7
370
    25
100
AcDbLine
 10
122.336143939
 20
144.846497514
 30
0.0
 11
122.336143939
 21
144.7489022498
 31
0.0
  0
LINE
  5
1DB
330
1F
100
AcDbEntity
  8
0
  6
Continuous
 62
     7
370
    25
100
AcDbLine
 10
123.7953417435
 20
147.3739022498
 30
0.0
 11
122.336143939
 21
144.846497514
 31
0.0
  0
LINE
  5
1DC
330
1F
100
AcDbEntity
  8
0
  6
Continuous
 62
     7
370
    25
100
AcDbLine
 10
96.0370930808
 20
133.5364035401
 30
0.0
 11
95.4111470672
 21
134.0051283955
 31
0.0
  0
LINE
  5
1DD
330
1F
100
AcDbEntity
  8
0
  6
Continuous
 62
     7
370
    25
100
AcDbLine
 10
118.586143939
 20
144.846497514
 30
0.0
 11
117.1269461344
 21
147.3739022498
 31
0.0
  0
LINE
  5
1DE
330
1F
100
AcDbEntity
  8
0
  6
Continuous
 62
     7
370
    25
100
AcDbLine
 10
118.586143939
 20
144.7489022498
 30
0.0
 11
118.586143939
 21
144.846497514
 31
0.0
  0
ARC
  5
1DF
330
1F
100
AcDbEntity
  8
0
  6
Continuous
 62
     7
370
    25
100
AcDbCircle
 10
119.586143939
 20
144.7489022498
 30
0.0
 40
1.0
100
AcDbArc
 50
180.0
 51
270.0
  0
LINE
  5
1E0
330
1F
100
AcDbEntity
  8
0
  6
Continuous
 62
     7
370
    25
100
AcDbLine
 10
113.286143939
 20
120.8989022498
 30
0.0
 11
113.286143939
 21
121.6489022498
 31
0.0
  0
LINE
  5
1E1
330
1F
100
AcDbEntity
  8
0
  6
Continuous
 62
     7
370
    25
100
AcDbLine
 10
114.111143939
 20
121.6489022498
 30
0.0
 11
114.111143939
 21
119.8989022498
 31
0.0
  0
LINE
  5
1E2
330
1F
100
AcDbEntity
  8
0
  6
Continuous
 62
     7
370
    25
100
AcDbLine
 10
181.061143939
 20
121.8989022498
 30
0.0
 11
181.061143939
 21
124.7989022498
 31
0.0
  0
LINE
  5
1E3
330
1F
100
AcDbEntity
  8
0
  6
Continuous
 62
     7
370
    25
100
AcDbLine
 10
109.461143939
 20
130.2489022498
 30
0.0
 11
109.461143939
 21
121.1298423575
 31
0.0
  0
LINE
  5
1E4
330
1F
100
AcDbEntity
  8
0
  6
Continuous
 62
     7
370
    25
100
AcDbLine
 10
230.561143939
 20
125.9355964979
 30
0.0
 11
230.561143939
 21
130.5501212665
 31
0.0
  0
LINE
  5
1E5
330
1F
100
AcDbEntity
  8
0
  6
Continuous
 62
     7
370
    25
100
AcDbLine
 10
104.561143939
 20
133.3489022498
 30
0.0
 11
104.561143939
 21
131.4489022498
 31
0.0
  0
LINE
  5
1E6
330
1F
100
AcDbEntity
  8
0
  6
Continuous
 62
     7
370
    25
100
AcDbLine
 10
110.561143939
 20
147.1739022498
 30
0.0
 11
110.561143939
 21
142.7489022498
 31
0.0
  0
LINE
  5
1E7
330
1F
100
AcDbEntity
  8
0
  6
Continuous
 62
     7
370
    25
100
AcDbLine
 10
128.561143939
 20
139.3989022498
 30
0.0
 11
128.561143939
 21
147.3739022498
 31
0.0
  0
SPLINE
  5
1E8
330
1F
100
AcDbEntity
  8
0
  6
Continuous
 62
     7
370
    25
100
AcDbSpline
210
0.0
220
0.0
230
1.0
 70
     8
 71
     3
 72
     9
 73
     5
 74
     0
 42
0.000000001
 43
0.00000001
 40
0.0
 40
0.0
 40
0.0
 40
0.0
 40
0.5102121239851395
 40
0.9999999999999999
 40
0.9999999999999999
 40
0.9999999999999999
 40
0.9999999999999999
 10
71.41550733564732
 20
126.3605287664703
 30
0.0
 10
71.7903693926261
 20
126.3580388490886
 30
0.0
 10
72.5250874429359
 20
126.3531586879466
 30
0.0
 10
73.25408803339263
 20
126.3477737965603
 30
0.0
 10
73.61114368420601
 20
126.3451363420455
 30
0.0
  0
LINE
  5
1E9
330
1F
100
AcDbEntity
  8
0
  6
Continuous
 62
     7
370
    25
100
AcDbLine
 10
71.3628099888
 20
126.3909530574
 30
0.0
 11
71.4155073375
 21
126.3605282289
 31
0.0
  0
LINE
  5
1EA
330
1F
100
AcDbEntity
  8
0
  6
Continuous
 62
     7
370
    25
100
AcDbLine
 10
71.3628099888
 20
134.8344784612
 30
0.0
 11
71.3628099888
 21
126.3909530574
 31
0.0
  0
SPLINE
  5
1EB
330
1F
100
AcDbEntity
  8
0
  6
Continuous
 62
     7
370
    25
100
AcDbSpline
210
0.0
220
0.0
230
1.0
 70
    24
 71
     3
 72
     8
 73
     4
 74
     0
 42
0.000000001
 43
0.00000001
 40
0.0000004089325119
 40
0.0000004089325119
 40
0.0000004089325119
 40
0.0000004089325119
 40
0.0015399868451459
 40
0.0015399868451459
 40
0.0015399868451459
 40
0.0015399868451459
 10
70.61114393897621
 20
126.8249276536029
 30
0.0
 10
70.86213501500067
 20
126.680017888296
 30
0.0
 10
71.1127242115036
 20
126.535340148239
 30
0.0
 10
71.36280998881575
 20
126.3909530573874
 30
0.0
  0
LINE
  5
1EC
330
1F
100
AcDbEntity
  8
0
  6
Continuous
 62
     7
370
    25
100
AcDbLine
 10
70.611143939
 20
136.1364022498
 30
0.0
 11
70.611143939
 21
126.8249276536
 31
0.0
  0
SPLINE
  5
1ED
330
1F
100
AcDbEntity
  8
0
  6
Continuous
 62
     7
370
    25
100
AcDbSpline
210
0.0
220
0.0
230
1.0
 70
     8
 71
     3
 72
     8
 73
     4
 74
     0
 42
0.000000001
 43
0.00000001
 40
0.0
 40
0.0
 40
0.0
 40
0.0
 40
1.0
 40
1.0
 40
1.0
 40
1.0
 10
73.74082568173299
 20
125.958902927555
 30
0.0
 10
73.71287746161345
 20
126.0667192815305
 30
0.0
 10
73.68491737344473
 20
126.1743131316968
 30
0.0
 10
73.65694518591052
 20
126.2816824124814
 30
0.0
  0
LINE
  5
1EE
330
1F
100
AcDbEntity
  8
0
  6
Continuous
 62
     7
370
    25
100
AcDbLine
 10
73.7408288203
 20
125.9589022498
 30
0.0
 11
72.1111431522
 21
125.9589022498
 31
0.0
  0
LINE
  5
1EF
330
1F
100
AcDbEntity
  8
0
  6
Continuous
 62
     7
370
    25
100
AcDbLine
 10
72.1111433521
 20
125.9589025886
 30
0.0
 11
71.4155068741
 21
126.3605284965
 31
0.0
  0
LINE
  5
1F0
330
1F
100
AcDbEntity
  8
0
  6
Continuous
 62
     7
370
    25
100
AcDbLine
 10
80.1651048362
 20
123.9614022498
 30
0.0
 11
79.9129332082
 21
123.9614022498
 31
0.0
  0
SPLINE
  5
1F1
330
1F
100
AcDbEntity
  8
0
  6
Continuous
 62
     7
370
    25
100
AcDbSpline
210
0.0
220
0.0
230
1.0
 70
     8
 71
     3
 72
    26
 73
    22
 74
     0
 42
0.000000001
 43
0.00000001
 40
0.0
 40
0.0
 40
0.0
 40
0.0
 40
0.0524616379932503
 40
0.1026498591890872
 40
0.150565513457809
 40
0.1962095861957063
 40
0.2395832262568645
 40
0.2806877815599511
 40
0.3195248450380211
 40
0.3560963147430692
 40
0.3904044736547445
 40
0.4224520974433627
 40
0.4522426027417772
 40
0.4797802555366611
 40
0.5050704712281336
 40
0.5966394156799991
 40
0.6841917884819224
 40
0.7679874773571101
 40
0.8483228539139507
 40
0.925534163520116
 40
1.0
 40
1.0
 40
1.0
 40
1.0
 10
79.9111267143068
 20
123.9614320338539
 30
0.0
 10
79.87549031527553
 20
124.0209789539361
 30
0.0
 10
79.8057618149371
 20
124.1374923377228
 30
0.0
 10
79.69228365417725
 20
124.301890298452
 30
0.0
 10
79.57675810445222
 20
124.4540520362535
 30
0.0
 10
79.45963640844208
 20
124.5939547331861
 30
0.0
 10
79.34226470796271
 20
124.7221690570901
 30
0.0
 10
79.22564374192909
 20
124.8391847360304
 30
0.0
 10
79.11074082148406
 20
124.9455618912745
 30
0.0
 10
78.99841659579471
 20
125.0418779717488
 30
0.0
 10
78.88944762175987
 20
125.1287273183013
 30
0.0
 10
78.78452858092318
 20
125.2067075004951
 30
0.0
 10
78.68427125497445
 20
125.2764156975481
 30
0.0
 10
78.58923391239131
 20
125.3384256864492
 30
0.0
 10
78.41912700796055
 20
125.442912123715
 30
0.0
 10
78.16620797655547
 20
125.5779707902295
 30
0.0
 10
77.82022681949432
 20
125.7223576826465
 30
0.0
 10
77.47226827016998
 20
125.8313255948916
 30
0.0
 10
77.12612850979392
 20
125.9058551772283
 30
0.0
 10
76.78506372635982
 20
125.9507838817777
 30
0.0
 10
76.55931711484416
 20
125.9562289806321
 30
0.0
 10
76.4484869028261
 20
125.9589022498185
 30
0.0
  0
SPLINE
  5
1F2
330
1F
100
AcDbEntity
  8
0
  6
Continuous
 62
     7
370
    25
100
AcDbSpline
210
0.0
220
0.0
230
1.0
 70
     8
 71
     3
 72
     8
 73
     4
 74
     0
 42
0.000000001
 43
0.00000001
 40
0.0
 40
0.0
 40
0.0
 40
0.0
 40
1.0
 40
1.0
 40
1.0
 40
1.0
 10
80.1651048362087
 20
123.9614022498184
 30
0.0
 10
80.19410954263628
 20
124.0853399766807
 30
0.0
 10
80.21314206231773
 20
124.213292106914
 30
0.0
 10
80.22139365450938
 20
124.3443614196054
 30
0.0
  0
LINE
  5
1F3
330
1F
100
AcDbEntity
  8
0
  6
Continuous
 62
     7
370
    25
100
AcDbLine
 10
76.4484869028
 20
125.9589022498
 30
0.0
 11
73.7408288203
 21
125.9589022498
 31
0.0
  0
LINE
  5
1F4
330
1F
100
AcDbEntity
  8
0
  6
Continuous
 62
     7
370
    25
100
AcDbLine
 10
93.211143939
 20
119.9616756606
 30
0.0
 11
92.561143939
 21
120.1114022498
 31
0.0
  0
SPLINE
  5
1F5
330
1F
100
AcDbEntity
  8
0
  6
Continuous
 62
     7
370
    25
100
AcDbSpline
210
0.0
220
0.0
230
1.0
 70
     8
 71
     3
 72
    26
 73
    22
 74
     0
 42
0.000000001
 43
0.00000001
 40
0.0
 40
0.0
 40
0.0
 40
0.0
 40
0.0305951740572542
 40
0.0629166281868252
 40
0.0969720532897518
 40
0.1327680143285475
 40
0.1703101548822826
 40
0.2096033578521445
 40
0.2506518729756858
 40
0.3342141733898277
 40
0.4179517165474626
 40
0.5018670561020881
 40
0.5659795686746639
 40
0.6277136397870199
 40
0.687135819210908
 40
0.7443207393864881
 40
0.7993521466017559
 40
0.8523240127975756
 40
0.903341702807647
 40
0.9525231537633125
 40
1.0
 40
1.0
 40
1.0
 40
1.0
 10
92.56114393897622
 20
120.1114022498185
 30
0.0
 10
92.56023572713158
 20
120.1759374172057
 30
0.0
 10
92.5583680591511
 20
120.3086490377991
 30
0.0
 10
92.54277547008951
 20
120.5114631293227
 30
0.0
 10
92.51613160890237
 20
120.7231761702231
 30
0.0
 10
92.47597717982394
 20
120.942888163596
 30
0.0
 10
92.42107906314078
 20
121.1696350344673
 30
0.0
 10
92.34983609452902
 20
121.4022660382503
 30
0.0
 10
92.23142370024645
 20
121.717664352727
 30
0.0
 10
92.04329280383857
 20
122.102146251262
 30
0.0
 10
91.759276040604
 20
122.5321738657915
 30
0.0
 10
91.44985808405427
 20
122.8906605781323
 30
0.0
 10
91.13394847325267
 20
123.1824272344218
 30
0.0
 10
90.82720306512935
 20
123.4148863212589
 30
0.0
 10
90.50878395130725
 20
123.6116965558229
 30
0.0
 10
90.18281307515018
 20
123.7737972580812
 30
0.0
 10
89.85327424002496
 20
123.9022671415609
 30
0.0
 10
89.5237123251784
 20
123.9988509609338
 30
0.0
 10
89.19729400187914
 20
124.06470319022
 30
0.0
 10
88.87677580957526
 20
124.1042681380455
 30
0.0
 10
88.66511029604449
 20
124.1090523362608
 30
0.0
 10
88.56114393897622
 20
124.1114022498185
 30
0.0
  0
SPLINE
  5
1F6
330
1F
100
AcDbEntity
  8
0
  6
Continuous
 62
     7
370
    25
100
AcDbSpline
210
0.0
220
0.0
230
1.0
 70
     8
 71
     3
 72
    13
 73
     9
 74
     0
 42
0.000000001
 43
0.00000001
 40
0.0
 40
0.0
 40
0.0
 40
0.0
 40
0.1604061687300809
 40
0.3231296684563272
 40
0.4883154213007764
 40
0.6561019685773533
 40
0.8266215117792448
 40
1.0
 40
1.0
 40
1.0
 40
1.0
 10
86.64627065968676
 20
124.1114022498185
 30
0.0
 10
86.5872207081716
 20
124.1106466797805
 30
0.0
 10
86.46826773144687
 20
124.1091246242523
 30
0.0
 10
86.28901409784105
 20
124.0966795651248
 30
0.0
 10
86.10808111615339
 20
124.0764953839941
 30
0.0
 10
85.9259526217546
 20
124.0473600178535
 30
0.0
 10
85.74278561396027
 20
124.0099438660343
 30
0.0
 10
85.62204629908591
 20
123.9776779936773
 30
0.0
 10
85.56117476750104
 20
123.9614109387388
 30
0.0
  0
SPLINE
  5
1F7
330
1F
100
AcDbEntity
  8
0
  6
Continuous
 62
     7
370
    25
100
AcDbSpline
210
0.0
220
0.0
230
1.0
 70
    24
 71
     3
 72
    10
 73
     6
 74
     0
 42
0.000000001
 43
0.00000001
 40
0.0
 40
0.0
 40
0.0
 40
0.0
 40
0.3216623556917455
 40
0.6548175346390357
 40
1.0
 40
1.0
 40
1.0
 40
1.0
 10
85.561322773881
 20
123.9614022498185
 30
0.0
 10
85.49277686602372
 20
123.9614022498185
 30
0.0
 10
85.35323594182644
 20
123.9614022498185
 30
0.0
 10
85.1436275264759
 20
123.9614022498185
 30
0.0
 10
85.00395053132206
 20
123.9614022498185
 30
0.0
 10
84.93287376012124
 20
123.9614022498185
 30
0.0
  0
SPLINE
  5
1F8
330
1F
100
AcDbEntity
  8
0
  6
Continuous
 62
     7
370
    25
100
AcDbSpline
210
0.0
220
0.0
230
1.0
 70
     8
 71
     3
 72
     8
 73
     4
 74
     0
 42
0.000000001
 43
0.00000001
 40
0.0
 40
0.0
 40
0.0
 40
0.0
 40
1.0
 40
1.0
 40
1.0
 40
1.0
 10
85.64747405537484
 20
124.3398485990014
 30
0.0
 10
85.3781777253184
 20
124.2431592138081
 30
0.0
 10
85.14201703990462
 20
124.1151600444313
 30
0.0
 10
84.9328195237207
 20
123.9616834467867
 30
0.0
  0
SPLINE
  5
1F9
330
1F
100
AcDbEntity
  8
0
  6
Continuous
 62
     7
370
    25
100
AcDbSpline
210
0.0
220
0.0
230
1.0
 70
     8
 71
     3
 72
    13
 73
     9
 74
     0
 42
0.000000001
 43
0.00000001
 40
0.0
 40
0.0
 40
0.0
 40
0.0
 40
0.1729721449870872
 40
0.3432476269514002
 40
0.5109528657483393
 40
0.6762201802332181
 40
0.8391878283027183
 40
1.0
 40
1.0
 40
1.0
 40
1.0
 10
85.56117080836093
 20
107.8363946767542
 30
0.0
 10
85.62189780834223
 20
107.820164138544
 30
0.0
 10
85.74240506479681
 20
107.7879560987744
 30
0.0
 10
85.92530443356152
 20
107.7505657138396
 30
0.0
 10
86.10733992583194
 20
107.7214097805154
 30
0.0
 10
86.28835879165689
 20
107.7011812584574
 30
0.0
 10
86.46787906229376
 20
107.6886904518648
 30
0.0
 10
86.58707129053779
 20
107.6871615911754
 30
0.0
 10
86.64627065968675
 20
107.6864022498185
 30
0.0
  0
LINE
  5
1FA
330
1F
100
AcDbEntity
  8
0
  6
Continuous
 62
     7
370
    25
100
AcDbLine
 10
84.9333652353
 20
107.8364022498
 30
0.0
 11
85.0528459436
 21
107.8364022498
 31
0.0
  0
LINE
  5
1FB
330
1F
100
AcDbEntity
  8
0
  6
Continuous
 62
     7
370
    25
100
AcDbLine
 10
88.561143939
 20
124.1114022498
 30
0.0
 11
86.6462706597
 21
124.1114022498
 31
0.0
  0
LINE
  5
1FC
330
1F
100
AcDbEntity
  8
0
  6
Continuous
 62
     7
370
    25
100
AcDbLine
 10
84.9332321209
 20
123.9614022498
 30
0.0
 11
80.1651048362
 21
123.9614022498
 31
0.0
  0
LINE
  5
1FD
330
1F
100
AcDbEntity
  8
0
  6
Continuous
 62
     7
370
    25
100
AcDbLine
 10
92.561143939
 20
115.8989022498
 30
0.0
 11
92.561143939
 21
120.1114022498
 31
0.0
  0
LINE
  5
1FE
330
1F
100
AcDbEntity
  8
VERMASSUNG
  6
CENTERX2
100
AcDbLine
 10
246.556143939
 20
115.8989022498
 30
0.0
 11
54.616143939
 21
115.8989022498
 31
0.0
  0
HATCH
  5
1FF
330
1F
100
AcDbEntity
  8
0
  6
Continuous
 62
     7
370
    18
100
AcDbHatch
 10
0.0
 20
0.0
 30
0.0
210
0.0
220
0.0
230
1.0
  2
ANSI31
 70
     0
 71
     0
 91
        1
 92
        0
 93
       50
 72
     2
 10
119.5861439389762
 20
144.7489022498185
 40
1.000000000000003
 50
90.0
 51
180.0
 73
     0
 72
     1
 10
118.5861439389762
 20
144.7489022498185
 11
118.5861439389763
 21
144.8464975140101
 72
     1
 10
118.5861439389763
 20
144.8464975140101
 11
117.1269461344062
 21
147.3739022498185
 72
     1
 10
117.1269461344062
 20
147.3739022498185
 11
110.7611439389762
 21
147.3739022498185
 72
     2
 10
110.7611439389762
 20
147.1739022498185
 40
0.2000000000000028
 50
90.0
 51
180.0
 73
     1
 72
     1
 10
110.5611439389763
 20
147.1739022498185
 11
110.5611439389762
 21
142.7489022498185
 72
     1
 10
110.5611439389762
 20
142.7489022498185
 11
110.8951826250049
 21
141.6894668894219
 72
     2
 10
110.1322090644063
 20
141.4489022498185
 40
0.8000000000000049
 50
342.4999999999998
 51
467.5000000000012
 73
     0
 72
     1
 10
109.8916444248029
 20
140.6859286892199
 11
109.4009618989455
 21
140.8406402953468
 72
     1
 10
109.4009618989455
 20
140.8406402953468
 11
96.079488626426
 21
140.1716633223207
 72
     1
 10
96.07948703302745
 20
140.1716666313891
 11
95.41115688709792
 21
139.3625548089979
 72
     1
 10
95.41115688709792
 20
139.3625548089979
 11
95.41114393897624
 21
134.0051282705701
 72
     1
 10
95.41114706720992
 20
134.0051283954506
 11
96.0370930807521
 21
133.5364035401105
 72
     1
 10
96.03709332906102
 20
133.5364022498185
 11
101.0611439389763
 21
133.5364022498185
 72
     1
 10
101.0611439389763
 20
133.5364022498185
 11
101.9363844125571
 21
134.0417225728461
 72
     2
 10
102.3363844125571
 20
133.3489022498185
 40
0.7999999999999923
 50
239.9999999999994
 51
270.0000000000008
 73
     0
 72
     1
 10
102.3363844125571
 20
134.1489022498185
 11
103.7611439389762
 21
134.1489022498185
 72
     2
 10
103.7611439389762
 20
133.3489022498185
 40
0.7999999999999977
 50
270.0000000000008
 51
360.0000000000008
 73
     0
 72
     1
 10
104.5611439389762
 20
133.3489022498185
 11
104.5611439389762
 21
131.4489022498185
 72
     1
 10
104.5611439389762
 20
131.4489022498185
 11
108.2611439389762
 21
131.4489022498185
 72
     2
 10
108.2611439389762
 20
130.2489022498185
 40
1.2
 50
270.0000000000008
 51
360.0000000000008
 73
     0
 72
     1
 10
109.4611439389762
 20
130.2489022498185
 11
109.4611439389762
 21
121.1298423574944
 72
     1
 10
109.4611439389762
 20
121.1298423574944
 11
109.8611439389762
 21
120.8989022498185
 72
     1
 10
109.8611439389762
 20
120.8989022498185
 11
113.2861439389762
 21
120.8989022498185
 72
     1
 10
113.2861439389762
 20
120.8989022498185
 11
113.2861439389762
 21
121.6489022498185
 72
     1
 10
113.2861439389762
 20
121.6489022498185
 11
114.1111439389762
 21
121.6489022498185
 72
     1
 10
114.1111439389762
 20
121.6489022498185
 11
114.1111439389762
 21
119.8989022498185
 72
     1
 10
114.1111439389762
 20
119.8989022498185
 11
159.6598530104349
 21
119.8989022498184
 72
     1
 10
159.6598530104349
 20
119.8989022498184
 11
160.5611439389762
 21
121.3989022498184
 72
     1
 10
160.5611439389762
 20
121.3989022498184
 11
180.5611439389762
 21
121.3989022498184
 72
     1
 10
180.5611439389762
 20
121.3989022498184
 11
181.0611439389762
 21
121.8989022498184
 72
     1
 10
181.0611439389762
 20
121.8989022498184
 11
181.0611439389762
 21
124.7989022498184
 72
     2
 10
181.4611439389762
 20
124.7989022498184
 40
0.3999999999999985
 50
180.0
 51
270.0000000000008
 73
     0
 72
     1
 10
181.4611439389762
 20
125.1989022498184
 11
190.6663699208565
 21
125.1989022498184
 72
     2
 10
190.6663699208565
 20
124.7989022498184
 40
0.3999999999999996
 50
270.0000000000008
 51
289.9999999999954
 73
     0
 72
     1
 10
190.8031779781867
 20
125.1747792981328
 11
191.5611439389762
 21
124.8989022498184
 72
     1
 10
191.5611439389762
 20
124.8989022498184
 11
227.0611439389762
 21
124.8989022498183
 72
     1
 10
227.0611439389762
 20
124.8989022498183
 11
230.1479680278097
 21
125.4431926213805
 72
     2
 10
230.0611439389762
 20
125.9355964978866
 40
0.5000000000000084
 50
279.9999999999991
 51
360.0000000000008
 73
     1
 72
     1
 10
230.5611439389762
 20
125.9355964978866
 11
230.5611439389762
 21
130.5501212665019
 72
     2
 10
228.5611439389762
 20
130.5501212665019
 40
2.000000000000005
 50
0.0
 51
85.49999999999963
 73
     1
 72
     1
 10
228.7180621304319
 20
132.5439559339682
 11
179.7363249942774
 21
136.3989022498184
 72
     1
 10
179.7363249942774
 20
136.3989022498184
 11
131.5611439389762
 21
136.3989022498185
 72
     2
 10
131.5611439389762
 20
139.3989022498185
 40
3.0
 50
90.0
 51
180.0
 73
     0
 72
     1
 10
128.5611439389762
 20
139.3989022498185
 11
128.5611439389762
 21
147.3739022498185
 72
     1
 10
128.5611439389762
 20
147.3739022498185
 11
123.7953417435463
 21
147.3739022498185
 72
     1
 10
123.7953417435463
 20
147.3739022498185
 11
122.3361439389762
 21
144.8464975140101
 72
     1
 10
122.3361439389762
 20
144.8464975140101
 11
122.3361439389762
 21
144.7489022498185
 72
     2
 10
121.3361439389762
 20
144.7489022498185
 40
1.000000000000003
 50
0.0
 51
90.0
 73
     0
 72
     1
 10
121.3361439389762
 20
143.7489022498185
 11
119.5861439389762
 21
143.7489022498185
 97
        0
 75
     0
 76
     1
 52
0.0
 41
1.0
 77
     0
 78
     1
 53
45.0
 43
0.0
 44
0.0
 45
-2.245064030267288
 46
2.245064030267288
 79
     0
 98
        1
 10
0.0
 20
0.0
  0
HATCH
  5
200
330
1F
100
AcDbEntity
  8
0
  6
Continuous
 62
     7
370
    18
100
AcDbHatch
 10
0.0
 20
0.0
 30
0.0
210
0.0
220
0.0
230
1.0
  2
ANSI31
 70
     0
 71
     0
 91
        1
 92
        0
 93
        9
 72
     1
 10
80.91117206956442
 20
138.5631766217014
 11
80.16158209062871
 21
139.372287959469
 72
     1
 10
80.16158209062871
 20
139.372287959469
 11
72.11114393897624
 21
138.9680223774009
 72
     1
 10
72.11114393897624
 20
138.9680223774009
 11
70.61114393897624
 21
138.1019969736165
 72
     1
 10
70.61114393897624
 20
138.1019969736165
 11
70.61114393897624
 21
136.1364022498185
 72
     1
 10
70.61114393897624
 20
136.1364022498185
 11
71.36280998881578
 21
134.8344784611719
 72
     1
 10
71.36280998881578
 20
134.8344784611719
 11
73.61114393897624
 21
133.5364022498186
 72
     1
 10
73.61114393897624
 20
133.5364022498186
 11
77.48114378368518
 21
133.5364022498186
 72
     1
 10
77.48114378368518
 20
133.5364022498186
 11
80.91114393897625
 21
138.4349501347225
 72
     1
 10
80.91114393897625
 20
138.4349501347225
 11
80.91114393897625
 21
138.5631755082082
 97
        0
 75
     0
 76
     1
 52
0.0
 41
1.0
 77
     0
 78
     1
 53
45.0
 43
0.0
 44
0.0
 45
-2.245064030267288
 46
2.245064030267288
 79
     0
 98
        1
 10
0.0
 20
0.0
  0
HATCH
  5
201
330
1F
100
AcDbEntity
  8
0
  6
Continuous
 62
     7
370
    18
100
AcDbHatch
 10
0.0
 20
0.0
 30
0.0
210
0.0
220
0.0
230
1.0
  2
ANSI31
 70
     0
 71
     0
 91
        1
 92
        0
 93
       12
 72
     1
 10
181.5611439389762
 20
121.3989022498184
 11
181.0611439389762
 21
121.8989022498184
 72
     1
 10
181.0611439389762
 20
121.8989022498184
 11
166.0611439389762
 21
121.8989022498184
 72
     1
 10
166.0611439389762
 20
121.8989022498184
 11
165.5611439389762
 21
121.3989022498184
 72
     1
 10
165.5611439389762
 20
121.3989022498184
 11
165.5611439389762
 21
119.5989022498184
 72
     1
 10
165.5611439389762
 20
119.5989022498184
 11
166.0760860788265
 21
119.0839601099683
 72
     1
 10
166.0760860788265
 20
119.0839601099683
 11
172.5611439389094
 21
119.0839601099682
 72
     1
 10
172.5611439389094
 20
119.0839601099682
 11
172.5611439389094
 21
118.8989022498184
 72
     1
 10
172.5611439389094
 20
118.8989022498184
 11
178.5611439389762
 21
118.8989022498184
 72
     1
 10
178.5611439389762
 20
118.8989022498184
 11
178.5611439389762
 21
119.0839601099682
 72
     1
 10
178.5611439389762
 20
119.0839601099682
 11
183.5611439389762
 21
119.0839601099682
 72
     1
 10
183.5611439389762
 20
119.0839601099682
 11
183.5611439389762
 21
121.3989022498184
 72
     1
 10
183.5611439389762
 20
121.3989022498184
 11
181.5611439389762
 21
121.3989022498184
 97
        0
 75
     0
 76
     1
 52
0.0
 41
1.0
 77
     0
 78
     1
 53
45.0
 43
0.0
 44
0.0
 45
-2.245064030267288
 46
2.245064030267288
 79
     0
 98
        1
 10
0.0
 20
0.0
  0
POINT
  5
202
330
1F
100
AcDbEntity
  8
VERMASSUNG
100
AcDbPoint
 10
230.561143939
 20
99.3989022498
 30
0.0
  0
POINT
  5
203
330
1F
100
AcDbEntity
  8
VERMASSUNG
100
AcDbPoint
 10
230.561143939
 20
132.3989022498
 30
0.0
  0
DIMENSION
  5
204
330
1F
100
AcDbEntity
  8
VERMASSUNG
100
AcDbDimension
  2
_D
 10
269.4652433584
 20
132.3989022498
 30
0.0
 11
269.4652433584
 21
115.8989022498
 31
0.0
 70
   160
  1
%%c<>
 71
     2
 42
-1.0
  3
SLDDIMSTYLE0
100
AcDbAlignedDimension
 13
230.561143939
 23
99.3989022498
 33
0.0
 14
230.561143939
 24
132.3989022498
 34
0.0
 50
90.0
100
AcDbRotatedDimension
  0
DIMENSION
  5
210
330
1F
100
AcDbEntity
  8
VERMASSUNG
100
AcDbDimension
  2
_D_1
 10
258.561143939
 20
106.8989022498
 30
0.0
 11
258.561143939
 21
115.8989022498
 31
0.0
 70
   160
  1
%%c<>
 71
     2
 42
-1.0
  3
SLDDIMSTYLE1
100
AcDbAlignedDimension
 13
227.061143939
 23
124.8989022498
 33
0.0
 14
227.061143939
 24
106.8989022498
 34
0.0
 50
90.0
100
AcDbRotatedDimension
  0
DIMENSION
  5
21A
330
1F
100
AcDbEntity
  8
VERMASSUNG
100
AcDbDimension
  2
_D_2
 10
280.0964268501
 20
95.3989022498
 30
0.0
 11
280.0964268501
 21
115.8989022498
 31
0.0
 70
   160
  1
%%c<>
 71
     2
 42
-1.0
  3
SLDDIMSTYLE0
100
AcDbAlignedDimension
 13
179.7363249943
 23
136.3989022498
 33
0.0
 14
179.7363249943
 24
95.3989022498
 34
0.0
 50
90.0
100
AcDbRotatedDimension
  0
DIMENSION
  5
225
330
1F
100
AcDbEntity
  8
VERMASSUNG
100
AcDbDimension
  2
_D_3
 10
230.561143939
 20
77.3461706783
 30
0.0
 11
205.1487344666
 21
77.3461706783
 31
0.0
 70
   160
  1
<>
 71
     2
 42
-1.0
  3
SLDDIMSTYLE2
100
AcDbAlignedDimension
 13
179.7363249943
 23
95.3989022498
 33
0.0
 14
230.561143939
 24
101.2476832331
 34
0.0
 50
0.0
100
AcDbRotatedDimension
  0
DIMENSION
  5
230
330
1F
100
AcDbEntity
  8
VERMASSUNG
100
AcDbDimension
  2
_D_4
 10
230.561143939
 20
69.6116581774
 30
0.0
 11
179.561143939
 21
69.6116581774
 31
0.0
 70
   160
  1
<>
 71
     2
 42
-1.0
  3
SLDDIMSTYLE0
100
AcDbAlignedDimension
 13
128.561143939
 23
84.4239022498
 33
0.0
 14
230.561143939
 24
101.2476832331
 34
0.0
 50
0.0
100
AcDbRotatedDimension
  0
DIMENSION
  5
23A
330
1F
100
AcDbEntity
  8
VERMASSUNG
100
AcDbDimension
  2
_D_5
 10
230.561143939
 20
163.3739022498
 30
0.0
 11
170.561143939
 21
163.3739022498
 31
0.0
 70
   160
  1
<>
 71
     2
 42
-1.0
  3
SLDDIMSTYLE0
100
AcDbAlignedDimension
 13
110.561143939
 23
147.1739022498
 33
0.0
 14
230.561143939
 24
130.5501212665
 34
0.0
 50
0.0
100
AcDbRotatedDimension
  0
DIMENSION
  5
244
330
1F
100
AcDbEntity
  8
VERMASSUNG
100
AcDbDimension
  2
_D_6
 10
230.561143939
 20
155.5253269619
 30
0.0
 11
205.811143939
 21
155.5253269619
 31
0.0
 70
   160
  1
<> max.
 71
     2
 42
-1.0
  3
SLDDIMSTYLE0
100
AcDbAlignedDimension
 13
181.061143939
 23
124.7989022498
 33
0.0
 14
230.561143939
 24
130.5501212665
 34
0.0
100
AcDbRotatedDimension
  0
DIMENSION
  5
24F
330
1F
100
AcDbEntity
  8
VERMASSUNG
100
AcDbDimension
  2
_D_7
 10
230.561143939
 20
148.3343238846
 30
0.0
 11
211.061143939
 21
148.3343238846
 31
0.0
 70
   160
  1
<> min.
 71
     2
 42
-1.0
  3
SLDDIMSTYLE0
100
AcDbAlignedDimension
 13
191.561143939
 23
124.8989022498
 33
0.0
 14
230.561143939
 24
130.5501212665
 34
0.0
100
AcDbRotatedDimension
  0
DIMENSION
  5
25A
330
1F
100
AcDbEntity
  8
VERMASSUNG
100
AcDbDimension
  2
_D_8
 10
230.561143939
 20
170.9797691309
 30
0.0
 11
150.586143939
 21
170.9797691309
 31
0.0
 70
   160
  1
<>
 71
     2
 42
-1.0
  3
SLDDIMSTYLE0
100
AcDbAlignedDimension
 13
70.611143939
 23
138.1019969736
 33
0.0
 14
230.561143939
 24
130.5501212665
 34
0.0
100
AcDbRotatedDimension
  0
DIMENSION
  5
264
330
1F
100
AcDbEntity
  8
VERMASSUNG
100
AcDbDimension
  2
_D_9
 10
47.0689325834
 20
84.4239022498
 30
0.0
 11
47.0689325834
 21
115.8989022498
 31
0.0
 70
   160
  1
KM%%c<> XMZ
 71
     2
 42
-1.0
  3
SLDDIMSTYLE2
100
AcDbAlignedDimension
 13
110.761143939
 23
147.3739022498
 33
0.0
 14
110.761143939
 24
84.4239022498
 34
0.0
 50
90.0
100
AcDbRotatedDimension
  0
OLE2FRAME
  5
271
330
1F
100
AcDbEntity
  8
0
100
AcDbOle2Frame
 70
     2
  3
Paintbrush-Bild
 10
13.8511154363
 20
38.264191557
 30
0.0
 11
51.6290888628
 21
31.9806341108
 31
0.0
 71
     2
 72
     0
 73
     1
 90
    12928
310
80552BED0767C5B32B40DDAF6807D121434000000000000000006FFBDDFB85D0
310
4940DDAF6807D121434000000000000000006FFBDDFB85D04940416F4BD60AFB
310
3F4000000000000000002BED0767C5B32B40416F4BD60AFB3F40000000000000
310
0000000000000100000000010000010000000100000000000100000000320000
310
D0CF11E0A1B11AE1000000000000000000000000000000003E000300FEFF0900
310
0600000000000000000000000100000001000000000000000010000002000000
310
01000000FEFFFFFF0000000000000000FFFFFFFFFFFFFFFFFFFFFFFFFFFFFFFF
310
FFFFFFFFFFFFFFFFFFFFFFFFFFFFFFFFFFFFFFFFFFFFFFFFFFFFFFFFFFFFFFFF
310
FFFFFFFFFFFFFFFFFFFFFFFFFFFFFFFFFFFFFFFFFFFFFFFFFFFFFFFFFFFFFFFF
310
FFFFFFFFFFFFFFFFFFFFFFFFFFFFFFFFFFFFFFFFFFFFFFFFFFFFFFFFFFFFFFFF
310
FFFFFFFFFFFFFFFFFFFFFFFFFFFFFFFFFFFFFFFFFFFFFFFFFFFFFFFFFFFFFFFF
310
FFFFFFFFFFFFFFFFFFFFFFFFFFFFFFFFFFFFFFFFFFFFFFFFFFFFFFFFFFFFFFFF
310
FFFFFFFFFFFFFFFFFFFFFFFFFFFFFFFFFFFFFFFFFFFFFFFFFFFFFFFFFFFFFFFF
310
FFFFFFFFFFFFFFFFFFFFFFFFFFFFFFFFFFFFFFFFFFFFFFFFFFFFFFFFFFFFFFFF
310
FFFFFFFFFFFFFFFFFFFFFFFFFFFFFFFFFFFFFFFFFFFFFFFFFFFFFFFFFFFFFFFF
310
FFFFFFFFFFFFFFFFFFFFFFFFFFFFFFFFFFFFFFFFFFFFFFFFFFFFFFFFFFFFFFFF
310
FFFFFFFFFFFFFFFFFFFFFFFFFFFFFFFFFFFFFFFFFFFFFFFFFFFFFFFFFFFFFFFF
310
FFFFFFFFFFFFFFFFFFFFFFFFFFFFFFFFFFFFFFFFFFFFFFFFFFFFFFFFFFFFFFFF
310
FFFFFFFFFFFFFFFFFFFFFFFFFFFFFFFFFFFFFFFFFFFFFFFFFFFFFFFFFFFFFFFF
310
FFFFFFFFFFFFFFFFFFFFFFFFFFFFFFFFFFFFFFFFFFFFFFFFFFFFFFFFFFFFFFFF
310
FDFFFFFFFEFFFFFFFEFFFFFFFEFFFFFF05000000060000000700000008000000
310
090000000A0000000B0000000C0000000D0000000E0000000F00000010000000
310
11000000120000001300000014000000150000001600000017000000FEFFFFFF
310
FFFFFFFFFFFFFFFFFFFFFFFFFFFFFFFFFFFFFFFFFFFFFFFFFFFFFFFFFFFFFFFF
310
FFFFFFFFFFFFFFFFFFFFFFFFFFFFFFFFFFFFFFFFFFFFFFFFFFFFFFFFFFFFFFFF
310
FFFFFFFFFFFFFFFFFFFFFFFFFFFFFFFFFFFFFFFFFFFFFFFFFFFFFFFFFFFFFFFF
310
FFFFFFFFFFFFFFFFFFFFFFFFFFFFFFFFFFFFFFFFFFFFFFFFFFFFFFFFFFFFFFFF
310
FFFFFFFFFFFFFFFFFFFFFFFFFFFFFFFFFFFFFFFFFFFFFFFFFFFFFFFFFFFFFFFF
310
FFFFFFFFFFFFFFFFFFFFFFFFFFFFFFFFFFFFFFFFFFFFFFFFFFFFFFFFFFFFFFFF
310
FFFFFFFFFFFFFFFFFFFFFFFFFFFFFFFFFFFFFFFFFFFFFFFFFFFFFFFFFFFFFFFF
310
FFFFFFFFFFFFFFFFFFFFFFFFFFFFFFFFFFFFFFFFFFFFFFFFFFFFFFFFFFFFFFFF
310
FFFFFFFFFFFFFFFFFFFFFFFFFFFFFFFFFFFFFFFFFFFFFFFFFFFFFFFFFFFFFFFF
310
FFFFFFFFFFFFFFFFFFFFFFFFFFFFFFFFFFFFFFFFFFFFFFFFFFFFFFFFFFFFFFFF
310
FFFFFFFFFFFFFFFFFFFFFFFFFFFFFFFFFFFFFFFFFFFFFFFFFFFFFFFFFFFFFFFF
310
FFFFFFFFFFFFFFFFFFFFFFFFFFFFFFFFFFFFFFFFFFFFFFFFFFFFFFFFFFFFFFFF
310
FFFFFFFFFFFFFFFFFFFFFFFFFFFFFFFFFFFFFFFFFFFFFFFFFFFFFFFFFFFFFFFF
310
52006F006F007400200045006E00740072007900000000000000000000000000
310
0000000000000000000000000000000000000000000000000000000000000000
310
16000500FFFFFFFFFFFFFFFF020000000A00030000000000C000000000000046
310
0000000000000000000000004026CFF8F5A6D30103000000C000000000000000
310
01004F006C006500000000000000000000000000000000000000000000000000
310
0000000000000000000000000000000000000000000000000000000000000000
310
0A000200FFFFFFFFFFFFFFFFFFFFFFFF00000000000000000000000000000000
310
0000000000000000000000000000000000000000000000001400000000000000
310
010043006F006D0070004F0062006A0000000000000000000000000000000000
310
0000000000000000000000000000000000000000000000000000000000000000
310
120002010100000003000000FFFFFFFF00000000000000000000000000000000
310
0000000000000000000000000000000000000000010000004D00000000000000
310
01004F006C006500310030004E00610074006900760065000000000000000000
310
0000000000000000000000000000000000000000000000000000000000000000
310
1A000200FFFFFFFFFFFFFFFFFFFFFFFF00000000000000000000000000000000
310
0000000000000000000000000000000000000000040000002426000000000000
310
FEFFFFFF02000000FEFFFFFFFFFFFFFFFFFFFFFFFFFFFFFFFFFFFFFFFFFFFFFF
310
FFFFFFFFFFFFFFFFFFFFFFFFFFFFFFFFFFFFFFFFFFFFFFFFFFFFFFFFFFFFFFFF
310
FFFFFFFFFFFFFFFFFFFFFFFFFFFFFFFFFFFFFFFFFFFFFFFFFFFFFFFFFFFFFFFF
310
FFFFFFFFFFFFFFFFFFFFFFFFFFFFFFFFFFFFFFFFFFFFFFFFFFFFFFFFFFFFFFFF
310
FFFFFFFFFFFFFFFFFFFFFFFFFFFFFFFFFFFFFFFFFFFFFFFFFFFFFFFFFFFFFFFF
310
FFFFFFFFFFFFFFFFFFFFFFFFFFFFFFFFFFFFFFFFFFFFFFFFFFFFFFFFFFFFFFFF
310
FFFFFFFFFFFFFFFFFFFFFFFFFFFFFFFFFFFFFFFFFFFFFFFFFFFFFFFFFFFFFFFF
310
FFFFFFFFFFFFFFFFFFFFFFFFFFFFFFFFFFFFFFFFFFFFFFFFFFFFFFFFFFFFFFFF
310
FFFFFFFFFFFFFFFFFFFFFFFFFFFFFFFFFFFFFFFFFFFFFFFFFFFFFFFFFFFFFFFF
310
FFFFFFFFFFFFFFFFFFFFFFFFFFFFFFFFFFFFFFFFFFFFFFFFFFFFFFFFFFFFFFFF
310
FFFFFFFFFFFFFFFFFFFFFFFFFFFFFFFFFFFFFFFFFFFFFFFFFFFFFFFFFFFFFFFF
310
FFFFFFFFFFFFFFFFFFFFFFFFFFFFFFFFFFFFFFFFFFFFFFFFFFFFFFFFFFFFFFFF
310
FFFFFFFFFFFFFFFFFFFFFFFFFFFFFFFFFFFFFFFFFFFFFFFFFFFFFFFFFFFFFFFF
310
FFFFFFFFFFFFFFFFFFFFFFFFFFFFFFFFFFFFFFFFFFFFFFFFFFFFFFFFFFFFFFFF
310
FFFFFFFFFFFFFFFFFFFFFFFFFFFFFFFFFFFFFFFFFFFFFFFFFFFFFFFFFFFFFFFF
310
FFFFFFFFFFFFFFFFFFFFFFFFFFFFFFFFFFFFFFFFFFFFFFFFFFFFFFFFFFFFFFFF
310
0100000200000000000000000000000000000000000000000000000000000000
310
0000000000000000000000000000000000000000000000000000000000000000
310
0100FEFF030A0000FFFFFFFF0A00030000000000C00000000000004607000000
310
5042727573680007000000504272757368000700000050427275736800F439B2
310
7100000000000000000000000000000000000000000000000000000000000000
310
0000000000000000000000000000000000000000000000000000000000000000
310
0000000000000000000000000000000000000000000000000000000000000000
310
0000000000000000000000000000000000000000000000000000000000000000
310
0000000000000000000000000000000000000000000000000000000000000000
310
0000000000000000000000000000000000000000000000000000000000000000
310
0000000000000000000000000000000000000000000000000000000000000000
310
0000000000000000000000000000000000000000000000000000000000000000
310
0000000000000000000000000000000000000000000000000000000000000000
310
0000000000000000000000000000000000000000000000000000000000000000
310
0000000000000000000000000000000000000000000000000000000000000000
310
0000000000000000000000000000000000000000000000000000000000000000
310
20260000424D0E260000000000003E00000028000000B40200006E0000000100
310
01000000000000000000130B0000130B00000200000002000000000000FFFFFF
310
FFFFFFFFFFFFFFFFFFFFFFFFFFFFFFFFFFFFFFFFFFFFFFFFFFFFFFFFFFFFFFFF
310
FFFFFFFFFFFFFFFFFFFFFFFFFFFFFFFFFFFFFFFFFFFFFFFFFFFFFFFFFFFFFFFF
310
FFFFFFFFFFFFFFFFFFFFFFFFFFFFFFFFFFFFFFFFFFFFFFFFF000FFFFFFFFFFFF
310
FFFFFFFFFFFFFFFFFFFFFFFFFFFFFFFFFFFFFFFFFFFFFFFFFFFFFFFFFFFFFFFF
310
FFFFFFFFFFFFFFFFFFFFFFFFFFFFFFFFFFFFFFFFFFFFFFFFFFFFFFFFFFFFFFFF
310
FFFFFFFFFFFFFFFFFFFFFFFFFFFFFFFFF000FFFFFFFFFFFFFFFFFFFFFFFFFFFF
310
FFFFFFFFFFFFFFFFFFFFFFFFFFFFFFFFFFFFFFFFFFFFFFFFFFFFFFFFFFFFFFFF
310
FFFFFFFFFFFFFFFFFFFFFFFFFFFFFFFFFFFFFFFFFFFFFFFFFFFFFFFFFFFFFFFF
310
FFFFFFFFFFFFFFFFF000FFFFFFFFFFFFFFFFFFFFFFFFFFFFFFFFFFFFFFFFFFFF
310
FFFFFFFFFFFFFFFFFFFFFFFFFFFFFFFFFFFFFFFFFFFFFFFFFFFFFFFFFFFFFFFF
310
FFFFFFFFFFFFFFFFFFFFFFFFFFFFFFFFFFFFFFFFFFFFFFFFFFFFFFFFFFFFFFFF
310
F000FFFFFFFFFFFFFFFFFFFFFFFFFFFFFFFFFFFFFFFFFFFFFFFFFFFFFFFFFFFF
310
FFFFFFFFFFFFFFFFFFFFFFFFFFFFFFFFFFFFFFFFFFFFFFFFFFFFFFFFFFFFFFFF
310
FFFFFFFFFFFFFFFFFFFFFFFFFFFFFFFFFFFFFFFFFFFFFFFFF000FFFFFFFFFFFF
310
FFFFFFFFFFFFFFFFFFFFFFFFFFFFFFFFFFFFFFFFFFFFFFFFFFFFFFFFFFFFFFFF
310
FFFFFFFFFFFFFFFFFFFFFFFFFFFFFFFFFFFFFFFFFFFFFFFFFFFFFFFFFFFFFFFF
310
FFFFFFFFFFFFFFFFFFFFFFFFFFFFFFFFF000FFFFFFFFFFFFFFFFFFFFFFFFFFFF
310
FFFFFFFFFFFFFFFFFFFFFFFFFFFFFFFFFFFFFFFFFFFFFFFFFFFFFFFFFFFFFFFF
310
FFFFFFFFFFFFFFFFFFFFFFFFFFFFFFFFFFFFFFFFFFFFFFFFFFFFFFFFFFFFFFFF
310
FFFFFFFFFFFFFFFFF000FFFFFFFFFFFFFFFFFFFFFFFFFFFFFFFFFFFFFFFFFFFF
310
FFFFFFFFFFFFFFFFFFFFFFFFFFFFFFFFFFFFFFFFFFFFFFFFFFFFFFFFFFFFFFFF
310
FFFFFFFFFFFFFFFFFFFFFFFFFFFFFFFFFFFFFFFFFFFFFFFFFFFFFFFFFFFFFFFF
310
F000FFFFFFFFFFFFFFFFFFFFFFFFFFFFFFFFFFFFFFFFFFFFFFFFFFFFFFFFFFFF
310
FFFFFFFFFFFFFFFFFFFFFFFFFFFFFFFFFFFFFFFFFFFFFFFFFFFFFFFFFFFFFFFF
310
FFFFFFFFFFFFFFFFFFFFFFFFFFFFFFFFFFFFFFFFFFFFFFFFF000FFFFFFFFFFFF
310
FFFFFFFFFFFFFFFFFFFFFFFFFFFFFFFFFFFFFFFFFFFFFFFFFFFFFFFFFFFFFFFF
310
FFFFFFFFFFFFFFFFFFFFFFFFFFFFFFFFFFFFFFFFFFFFFFFFFFFFFFFFFFFFFFFF
310
FFFFFFFFFFFFFFFFFFFFFFFFFFFFFFFFF000FFFFFFFFFFFFFFFFFFFFFFFFFFFF
310
FFFFFFFFFFFFFFFFFFFFFFFFFFFFFFFFFFFFFFFFFFFFFFFFFFFFFFFFFFFFFFFF
310
FFFFFFFFFFFFFFFFFFFFFFFFFFFFFFFFFFFFFFFFFFFFFFFFFFFFFFFFFFFFFFFF
310
FFFFFFFFFFFFFFFFF000FFFFFFFFFFFFFFFFFFFFFFFFFFFFFFFFFFFFFFFFFFFF
310
FFFFFFFFFFFFFFFFFFFFFFFFFFFFFFFFFFFFFFFFFFFFFFFFFFFFFFFFFFFFFFFF
310
FFFFFFFFFFFFFFFFFFFFFFFFFFFFFFFFFFFFFFFFFFFFFFFFFFFFFFFFFFFFFFFF
310
F000FFFFFFFFFFFFFFFFFFFFFFFFFFFFFFFFFFFFFFFFFFFFFFFFFFFFFFFFFFFF
310
FFFFFFFFFFFFFFFFFFFFFFFFFFFFFFFFFFFFFFFFFFFFFFFFFFFFFFFFFFFFFFFF
310
FFFFFFFFFFFFFFFFFFFFFFFFFFFFFFFFFFFFFFFFFFFFFFFFF000FFFFFFFFFFFF
310
FFFFFFFFFFFFFFFFFFFFFFFFFFFFFFFFFFFFFFFFFFFFFFFFFFFFFFFFFFFFFFFF
310
FFFFFFFFFFFFFFFFFFFFFFFFFFFFFFFFFFFFFFFFFFFFFFFFFFFFFFFFFFFFFFFF
310
FFFFFFFFFFFFFFFFFFFFFFFFFFFFFFFFF000FFFFFFFFFFFFFFFFFFFFFFFFFFFF
310
FFFFFFFFFFFFFFFFFFFFFFFFFFFFFFFFFFFFFFFFFFFFFFFFFFFFFFFFFFFFFFFF
310
FFFFFFFFFFFFFFFFFFFFFFFFFFFFFFFFFFFFFFFFFFFFFFFFFFFFFFFFFFFFFFFF
310
FFFFFFFFFFFFFFFFF000FFFFFFFFFFFFFFFFFFFFFFFFFFFFFFFFFFFFFFFFFFFF
310
FFFFFFFFFFFFFFFFFFFFFFFFFFFFFFFFFFFFFFFFFFFFFFFFFFFFFFFFFFFFFFFF
310
FFFFFFFFFFFFFFFFFFFFFFFFFFFFFFFFFFFFFFFFFFFFFFFFFFFFFFFFFFFFFFFF
310
F000FFFFFFFFFFFFFFFFFFFFFFFFFFFFFFFFFFFFFFFFFFFFFFFFFFFFFFFFFFFF
310
FFFFFFFFFFFFFFFFFFFFFFFFFFFFFFFFFFFFFFFFFFFFFFFFFFFFFFFFFFFFFFFF
310
FFFFFFFFFFFFFFFFFFFFFFFFFFFFFFFFFFFFFFFFFFFFFFFFF000FFFFFFFFFFFF
310
FFFFFFFFFFFFFFFFFFFFFFFFFFFFFFFFFFFFFFFFFFFFFFFFFFFFFFFFFFFFFFFF
310
FFFFFFFFFFFFFFFFFFFFFFFFFFFFFFFFFFFFFFFFFFFFFFFFFFFFFFFFFFFFFFFF
310
FFFFFFFFFFFFFFFFFFFFFFFFFFFFFFFFF000FFFFFFFFFFFFFFFFFFFFFFFFFFFF
310
FFFFFFFFFFFFFFFFFFFFFFFFFFFFFFFFFFFFFFFFFFFFFFFFFFFFFFFFFFFFFFFF
310
FFFFFFFFFFFFFFFFFFFFFFFFFFFFFFFFFFFFFFFFFFFFFFFFFFFFFFFFFFFFFFFF
310
FFFFFFFFFFFFFFFFF000FFFFF80003FFFFFFFFFFFFFFFFFFFFFFFFFFFFFFFFFF
310
FFFFF00007FFFFFFFFFF00007FFFFFF800000000000000007FFFFFFFFFFFFFFF
310
FFFFFFFC001FFFFFFFFFFFFFFC001FFFFFFFFFFFFFFFFFFFFFFFFFFE0007FFFF
310
F000FFFF8000007FFFFFFFF8000FFFFFC0007FFFFF80007FFFFF0000007FFFFF
310
FFF8000007FFFFF800000000000000007FFFFFF0001FFFFFFFFFFFC00001FFFF
310
FFFFFFFFC00001FFFFFFFF000000000003FFFFE000007FFFF000FFFE0000000F
310
FFFFFFF0000FFFFF80007FFFFF80007FFFFC0000001FFFFFFFC0000001FFFFF8
310
00000000000000007FFFFFF0001FFFFFFFFFFE0000003FFFFFFFFFFE0000003F
310
FFFFFF000000000003FFFF0000000FFFF000FFF800000003FFFFFFF00007FFFF
310
80007FFFFF80007FFFF000000007FFFFFF000000003FFFF80000000000000000
310
7FFFFFF0001FFFFFFFFFF80000000FFFFFFFFFF80000000FFFFFFF0000000000
310
03FFFC00000003FFF000FFE000000000FFFFFFF00007FFFF80003FFFFF80007F
310
FFC000000001FFFFFC000000001FFFF800000000000000007FFFFFF0001FFFFF
310
FFFFE000000003FFFFFFFFE000000003FFFFFF000000000003FFF000000000FF
310
F000FF80000000007FFFFFF00007FFFF80003FFFFF80007FFF8000000000FFFF
310
F80000000007FFF800000000000000007FFFFFF0001FFFFFFFFFC000000001FF
310
FFFFFFC000000001FFFFFF000000000003FFC0000000007FF000FF0000000000
310
3FFFFFE00007FFFF00003FFFFF80007FFE00000000003FFFF00000000003FFF8
310
00000000000000007FFFFFF0001FFFFFFFFF8000000000FFFFFFFF8000000000
310
FFFFFF000000000003FF80000000003FF000FE00000000001FFFFFE00003FFFF
310
00003FFFFF80007FFC00000000001FFFE00000000001FFF8000001FFFE000000
310
7FFFFFF0001FFFFFFFFE00000000003FFFFFFE00000000003FFFFF0000000000
310
03FF00000000001FF000FC00000000000FFFFFE00003FFFF00001FFFFF80007F
310
F800000000001FFFC00000000000FFF8000001FFFE0000007FFFFFF0001FFFFF
310
FFFC00000000001FFFFFFC00000000001FFFFF000000000003FE00000000000F
310
F000F8000000000007FFFFE00003FFFF00001FFFFF80007FF800000000000FFF
310
800000000000FFF8000001FFFE0000007FFFFFF0001FFFFFFFF800000000000F
310
FFFFF800000000000FFFFF000000000003FC000000000007F000F80000000000
310
03FFFFC00003FFFE00001FFFFF80007FF0000000000007FF0000000000007FF8
310
000001FFFE0000007FFFFFF0001FFFFFFFF0000000000007FFFFF00000000000
310
07FFFF000000000003F8000000000003F000F0000000000003FFFFC00001FFFE
310
00001FFFFF80007FE0000000000007FE0000000000003FF8000001FFFE000000
310
7FFFFFF0001FFFFFFFF0000000000007FFFFF0000000000007FFFF0000000000
310
03F800001F800003F000E00001FFF00001FFFFC00001FFFE00000FFFFF80007F
310
E00001FFE00003FE00001FFF00003FF8000001FFFE0000007FFFFFF0001FFFFF
310
FFE000003E000003FFFFE000003E000003FFFF000000000003F00001FFF80001
310
F000E00007FFFC0001FFFFC00001FFFE00000FFFFF80007FC0000FFFFC0003FC
310
0000FFFFC0001FF8000001FFFE0000007FFFFFF0001FFFFFFFC00003FFE00001
310
FFFFC00003FFE00001FFFF0001FFFFFFFFF00007FFFE0001F000E0000FFFFF00
310
00FFFF800001FFFC00000FFFFF80007FC0001FFFFE0001FC0001FFFFE0001FF8
310
000001FFFE0000007FFFFFF0001FFFFFFF80000FFFF80000FFFF80000FFFF800
310
00FFFF0003FFFFFFFFE0000FFFFF8000F000C0003FFFFF8000FFFF800000FFFC
310
000007FFFF80007F80003FFFFF0001FC0003FFFFF0001FF8000001FFFE000000
310
7FFFFFF0001FFFFFFF80003FFFFE0000FFFF80003FFFFE0000FFFF0003FFFFFF
310
FFE0003FFFFF8000F000C0003FFFFF8000FFFF800000FFFC000007FFFF80007F
310
80007FFFFF8001F80007FFFFF8000FF8000001FFFE0000007FFFFFF0001FFFFF
310
FF00007FFFFF00007FFF00007FFFFF00007FFF0003FFFFFFFFE0003FFFFFC000
310
F000C0007FFFFFC000FFFF000000FFFC000007FFFF80007F8000FFFFFF8000F8
310
000FFFFFF8000FF8000001FFFE0000007FFFFFF0001FFFFFFF0000FFFFFF8000
310
7FFF0000FFFFFF80007FFF0003FFFFFFFFC0007FFFFFC00070008000FFFFFFC0
310
00FFFF000000FFF8000007FFFF80007F8000FFFFFF8000F8000FFFFFF8000FF8
310
000001FFFE0000007FFFFFF0001FFFFFFE0001FFFFFFC0003FFE0001FFFFFFC0
310
003FFF0003FFFFFFFFC0007FFFFFE00070008000FFFFFFC0007FFF0000007FF8
310
000003FFFF80007F0001FFFFFF8000F8000FFFFFF8000FF8000001FFFE000000
310
7FFFFFF0001FFFFFFE0001FFFFFFC0003FFE0001FFFFFFC0003FFF0003FFFFFF
310
FFC000FFFFFFE00070008000FFFFFFC0007FFF0000007FF8000003FFFF80007F
310
0001FFFFFF8000F8001FFFFFF8000FF8000001FFFE0000007FFFFFF0001FFFFF
310
FE0003FFFFFFE0003FFE0003FFFFFFE0003FFF0003FFFFFFFFC000FFFFFFE000
310
70008000FFFFFFC0007FFE0000007FF8000003FFFF80007F0001FFFFFF8000F0
310
001FFFFFF8000FF8000001FFFE0000007FFFFFF0001FFFFFFC0003FFFFFFE000
310
1FFC0003FFFFFFE0001FFF0003FFFFFFFFC000FFFFFFC00070008000FFFFFF80
310
007FFE0000007FF0000003FFFF80007F0001FFFFFF0000F0001FFFFFF8000FF8
310
000001FFFE0000007FFFFFF0001FFFFFFC0007FFFFFFF0001FFC0007FFFFFFF0
310
001FFF0003FFFFFFFFC000FFFFFFC00070008001FFFFFF0000FFFE0000003FF0
310
000001FFFF80007F0001FFFFFF0000F8001FFFFFF0000FF8000001FFFE000000
310
7FFFFFF0001FFFFFFC0007FFFFFFF0001FFC0007FFFFFFF0001FFF0003FFFFFF
310
FFC001FFFFFF80007000FFFFFFFFFE0000FFFE0008003FF0008001FFFF80007F
310
FFFFFFFFFC0000FFFFFFFFFFE0000FF8000001FFFE0000007FFFFFF0001FFFFF
310
F8000FFFFFFFF8000FF8000FFFFFFFF8000FFF0003FFFFFFFFFFFFFFFFFF0000
310
7000FFFFFFFFFC0000FFFC0008003FF0008001FFFF80007FFFFFFFFFF80001FF
310
FFFFFFFF80000FF8000001FFFE0000007FFFFFF0001FFFFFF8000FFFFFFFF800
310
0FF8000FFFFFFFF8000FFF0003FFFFFFFFFFFFFFFFFE0000F000FFFFFFFFE000
310
00FFFC000C003FE000C001FFFF80007FFFFFFFFFC00001FFFFFFFFFE00001FF8
310
000001FFFE0000007FFFFFF0001FFFFFF8000FFFFFFFF8000FF8000FFFFFFFF8
310
000FFF0003FFFFFFFFFFFFFFFFF00000F000FFFFFFFE000001FFFC000C001FE0
310
00C000FFFF80007FFFFFFFFE000001FFFFFFFFE000001FF80FFFFFFFFFFFFFC0
310
7FFFFFF0001FFFFFF8000FFFFFFFF8000FF8000FFFFFFFF8000FFF0003FFFFFF
310
FFFFFFFFFF800000F000FFFFFFC0000001FFFC001C001FE001C000FFFF80007F
310
FFFFFF80000003FFFFFFF80000001FF80FFFFFFFFFFFFFC07FFFFFF0001FFFFF
310
F8001FFFFFFFFC000FF8001FFFFFFFFC000FFF0003FFFFFFFFFFFFFFF0000001
310
F000FFFFF800000001FFF8001C001FE001C000FFFF80007FFFFFF800000003FF
310
FFFF800000003FF80FFFFFFFFFFFFFC07FFFFFF0001FFFFFF8001FFFFFFFFC00
310
0FF8001FFFFFFFFC000FFF0003FFFFFFFFFFFFFE00000001F000FFFFC0000000
310
03FFF8001E001FC001E000FFFF80007FFFFF8000000007FFFFFC000000003FF8
310
0FFFFFFFFFFFFFC07FFFFFF0001FFFFFF8001FFFFFFFFC000FF8001FFFFFFFFC
310
000FFF0003FFFFFFFFFFFFE000000003F000FFFE0000000007FFF8001E000FC0
310
01E0007FFF80007FFFFE0000000007FFFFE0000000007FF80FFFFFFFFFFFFFC0
310
7FFFFFF0001FFFFFF0001FFFFFFFFC0007F0001FFFFFFFFC0007FF0003FFFFFF
310
FFFFFF0000000003F000FFF80000000007FFF8001E000FC003E0007FFF80007F
310
FFF0000000000FFFFF8000000000FFF80FFFFFFFFFFFFFC07FFFFFF0001FFFFF
310
F0001FFFFFFFFC0007F0001FFFFFFFFC0007FF0003FFFFFFFFFFFC0000000007
310
F000FFE0000000000FFFF0003E000FC003E0007FFF80007FFFC0000000001FFF
310
FE0000000001FFF80FFFFFFFFFFFFFC07FFFFFF0001FFFFFF0001FFFFFFFFC00
310
07F0001FFFFFFFFC0007FF0003FFFFFFFFFFF0000000000FF000FFC000000000
310
1FFFF0003F000F8003F0003FFF80007FFF80000000003FFFF80000000003FFF8
310
0FFFFFFFFFFFFFC07FFFFFF0001FFFFFF0001FFFFFFFFC0007F0001FFFFFFFFC
310
0007FF0003FFFFFFFFFFE0000000001FF000FF00000000007FFFF0003F000780
310
03F0003FFF80007FFF00000000007FFFF00000000007FFF80FFFFFFFFFFFFFC0
310
7FFFFFF0001FFFFFF0001FFFFFFFFC0007F0001FFFFFFFFC0007FF0003FFFFFF
310
FFFF80000000007FF000FE0000000000FFFFE0003F00078007F0003FFF80007F
310
FE0000000001FFFFE0000000001FFFF80FFFFFFFFFFFFFC07FFFFFF0001FFFFF
310
F0001FFFFFFFFC0007F0001FFFFFFFFC0007FF0003FFFFFFFFFF0000000000FF
310
F000FC0000000003FFFFE0007F00078007F0003FFF80007FFC0000000007FFFF
310
C0000000007FFFF80FFFFFFFFFFFFFC07FFFFFF0001FFFFFF8001FFFFFFFFC00
310
0FF8001FFFFFFFFC000FFF0003FFFFFFFFFE0000000003FFF000FC000000000F
310
FFFFE0007F80070007F8001FFF80007FF8000000001FFFFF8000000001FFFFF8
310
0FFFFFFFFFFFFFC07FFFFFF0001FFFFFF8001FFFFFFFFC000FF8001FFFFFFFFC
310
000FFF0003FFFFFFFFFC000000000FFFF000F8000000007FFFFFE0007F800700
310
07F8001FFF80007FF000000000FFFFFF800000000FFFFFF80FFFFFFFFFFFFFC0
310
7FFFFFF0001FFFFFF8000FFFFFFFF8000FF8000FFFFFFFF8000FFF0003FFFFFF
310
FFFC000000007FFFF000F800000007FFFFFFC0007F8003000FF8001FFF80007F
310
F000000007FFFFFF000000007FFFFFF80FFFFFFFFFFFFFC07FFFFFF0001FFFFF
310
F8000FFFFFFFF8000FF8000FFFFFFFF8000FFF0003FFFFFFFFF80000000FFFFF
310
F000F0000000FFFFFFFFC000FF8003000FF8001FFF80007FE0000000FFFFFFFF
310
0000000FFFFFFFF8000001FFFE0000007FFFFFF0001FFFFFF8000FFFFFFFF800
310
0FF8000FFFFFFFF8000FFF0003FFFFFFFFF8000000FFFFFFF000F000000FFFFF
310
FFFFC000FFC002000FF8000FFF80007FE000001FFFFFFFFE000001FFFFFFFFF8
310
000001FFFE0000007FFFFFF0001FFFFFF8000FFFFFFFF8000FF8000FFFFFFFF8
310
000FFF0003FFFFFFFFF000001FFFFFFFF000E00000FFFFFFFFFFC000FFC00200
310
0FFC000FFF80007FE00001FFFFFFFFFE00001FFFFFFFFFF8000001FFFE000000
310
7FFFFFF0001FFFFFFC000FFFFFFFF8001FFC000FFFFFFFF8001FFF0003FFFFFF
310
FFF00001FFFFFFFFF000E00007FFFFFFFFFF8000FFC000001FFC000FFF80007F
310
C0000FFFFFFFFFFE0000FFFFFFFFFFF8000001FFFE0000007FFFFFF0001FFFFF
310
FC0007FFFFFFF0001FFC0007FFFFFFF0001FFF0003FFFFFFFFF00007FFFFFFFF
310
F000E0001FFFFFFFFFFF8000FFC000001FFC000FFF80007FC0003FFFFFFFFFFE
310
0001FFFFFFFFFFF8000001FFFE0000007FFFFFF0001FFFFFFC0007FFFFFFF000
310
1FFC0007FFFFFFF0001FFF0003FFFFFFFFF0001FFFFFFFFFF000E0003FFFFF00
310
03FF8001FFE000001FFC0007FF80007FC0007FFFFF0007FC0003FFFFF0003FF8
310
000001FFFE0000007FFFFFF0001FFFFFFC0003FFFFFFE0001FFC0003FFFFFFE0
310
001FFF0003FFFFFFFFF0003FFFFFFFFFF000E0003FFFFF0001FF8001FFE00000
310
1FFE0007FF80007FC0007FFFFE0003FC0007FFFFE0003FF8000001FFFE000000
310
7FFFFFF0001FFFFFFE0003FFFFFFE0003FFE0003FFFFFFE0003FFF0003FFFFFF
310
FFF0003FFFFF8001F000E0003FFFFF0001FF0001FFE000001FFE0007FF80007F
310
C0007FFFFE0003FC0007FFFFE0003FF8000001FFFE0000007FFFFFF0001FFFFF
310
FE0001FFFFFFC0003FFE0001FFFFFFC0003FFF0003FFFFFFFFF0003FFFFF0001
310
F000E0003FFFFF0003FF0001FFE000003FFE0007FF80007FC0007FFFFE0003FC
310
0007FFFFE0003FF8000001FFFE0000007FFFFFF0001FFFFFFF0001FFFFFFC000
310
7FFF0001FFFFFFC0007FFF0003FFFFFFFFF0003FFFFF0001F000E0003FFFFE00
310
03FF0003FFF000003FFE0003FF80007FC0007FFFFC0003FE0007FFFFE0003FF8
310
000001FFFE0000007FFFFFF0001FFFFFFF0000FFFFFF80007FFF0000FFFFFF80
310
007FFF0003FFFFFFFFF0003FFFFF0001F000E0003FFFFE0003FF0003FFF00000
310
3FFF0003FF80007FC0007FFFFC0007FE0007FFFFC0003FF8000001FFFE000000
310
7FFFFFF0001FFFFFFF80007FFFFF0000FFFF80007FFFFF0000FFFF0003FFFFFF
310
FFF0003FFFFF0003F000E0003FFFFC0003FE0003FFF000003FFF0003FF80007F
310
E0003FFFF80007FE0003FFFFC0007FF8000001FFFE0000007FFFFFF0001FFFFF
310
FF80003FFFFE0000FFFF80003FFFFE0000FFFF0003FFFFFFFFF0001FFFFE0003
310
F000F0001FFFF80003FE0003FFF000007FFF0001FF80007FE0003FFFF00007FE
310
0001FFFF80007FF8000001FFFE0000007FFFFFF0001FFFFFFFC0000FFFF80001
310
FFFFC0000FFFF80001FFFF0003FFFFFFFFF0001FFFFC0003F000F0000FFFF000
310
07FE0007FFF800007FFF0001FF80007FE0001FFFE00007FF0000FFFE00007FF8
310
000001FFFE0000007FFFFFF0001FFFFFFFC00003FFE00001FFFFC00003FFE000
310
01FFFF0003FFFFFFFFF8000FFFF80003F000F00003FFC00007FC0007FFF80000
310
7FFF8001FF80007FF00007FF80000FFF00007FF80000FFF8000001FFFE000000
310
7F80000000000001FFE000003E000003FFFFE000003E000003FFFF0003FFFFFF
310
FFF80003FFE00007F000F800000000000FFC0007FFF800007FFF8001FF80007F
310
F000000000000FFF000000000000FFF8000001FFFE0000007F80000000000001
310
FFF0000000000007FFFFF0000000000007FFFF0003FFFFFFFFFC00007E000007
310
F000F800000000000FFC0007FFF80000FFFF8000FF80007FF800000000001FFF
310
800000000001FFF8000001FFFE0000007F80000000000001FFF800000000000F
310
FFFFF800000000000FFFFF0003FFFFFFFFFC00000000000FF000FC0000000000
310
1FFC0007FFFC0000FFFF8000FF80007FF800000000003FFFC00000000001FFF8
310
000001FFFE0000007F80000000000001FFF800000000000FFFFFF80000000000
310
0FFFFF0003FFFFFFFFFE00000000001FF000FE00000000003FF8000FFFFC0000
310
FFFF8000FF80007FFC00000000003FFFC00000000003FFF8000001FFFE000000
310
7F80000000000001FFFC00000000001FFFFFFC00000000001FFFFF0003FFFFFF
310
FFFF00000000001FF000FF00000000003FF8000FFFFC0000FFFFC000FF80007F
310
FE00000000007FFFE00000000007FFF8000001FFFE0000007F80000000000001
310
FFFE00000000003FFFFFFE00000000003FFFFF0003FFFFFFFFFF80000000003F
310
F000FF80000000007FF8000FFFFC0001FFFFC0007F80007FFF0000000000FFFF
310
F0000000000FFFF800000000000000007F80000000000001FFFF8000000000FF
310
FFFFFF8000000000FFFFFF0003FFFFFFFFFFC0000000007FF000FFC000000000
310
FFF8000FFFFE0001FFFFC0007F80007FFF8000000001FFFFF8000000001FFFF8
310
00000000000000007F80000000000001FFFFC000000001FFFFFFFFC000000001
310
FFFFFF0003FFFFFFFFFFE000000000FFF000FFE000000003FFF0001FFFFE0001
310
FFFFC0007F80007FFFC000000007FFFFFE000000003FFFF80000000000000000
310
7F80000000000001FFFFE000000003FFFFFFFFE000000003FFFFFF0003FFFFFF
310
FFFFF000000003FFF000FFF80000000FFFF0001FFFFE0001FFFFE0007F80007F
310
FFF00000000FFFFFFF00000000FFFFF800000000000000007F80000000000001
310
FFFFF80000000FFFFFFFFFF80000000FFFFFFF0003FFFFFFFFFFFC0000000FFF
310
F000FFFE0000003FFFF0001FFFFE0003FFFFE0003F80007FFFFC0000003FFFFF
310
FFC0000003FFFFF800000000000000007F80000000000001FFFFFE0000003FFF
310
FFFFFFFE0000003FFFFFFF0003FFFFFFFFFFFF0000003FFFF000FFFF800000FF
310
FFF0001FFFFF0003FFFFE0003F80007FFFFF000001FFFFFFFFF800001FFFFFF8
310
00000000000000007F80000000000001FFFFFFC00001FFFFFFFFFFFFC00001FF
310
FFFFFF0003FFFFFFFFFFFFC00000FFFFF000FFFFF8000FFFFFFFFFFFFFFFFFFF
310
FFFFFFFFFFFFFFFFFFFFF0001FFFFFFFFFFF0000FFFFFFF80000000000000000
310
7FFFFFFFFFFFFFFFFFFFFFFC001FFFFFFFFFFFFFFC001FFFFFFFFFFFFFFFFFFF
310
FFFFFFFC001FFFFFF000FFFFFFFFFFFFFFFFFFFFFFFFFFFFFFFFFFFFFFFFFFFF
310
FFFFFFFFFFFFFFFFFFFFFFFFFFFFFFFFFFFFFFFFFFFFFFFFFFFFFFFFFFFFFFFF
310
FFFFFFFFFFFFFFFFFFFFFFFFFFFFFFFFFFFFFFFFFFFFFFFFFFFFFFFFFFFFFFFF
310
F000FFFFFFFFFFFFFFFFFFFFFFFFFFFFFFFFFFFFFFFFFFFFFFFFFFFFFFFFFFFF
310
FFFFFFFFFFFFFFFFFFFFFFFFFFFFFFFFFFFFFFFFFFFFFFFFFFFFFFFFFFFFFFFF
310
FFFFFFFFFFFFFFFFFFFFFFFFFFFFFFFFFFFFFFFFFFFFFFFFF000FFFFFFFFFFFF
310
FFFFFFFFFFFFFFFFFFFFFFFFFFFFFFFFFFFFFFFFFFFFFFFFFFFFFFFFFFFFFFFF
310
FFFFFFFFFFFFFFFFFFFFFFFFFFFFFFFFFFFFFFFFFFFFFFFFFFFFFFFFFFFFFFFF
310
FFFFFFFFFFFFFFFFFFFFFFFFFFFFFFFFF000FFFFFFFFFFFFFFFFFFFFFFFFFFFF
310
FFFFFFFFFFFFFFFFFFFFFFFFFFFFFFFFFFFFFFFFFFFFFFFFFFFFFFFFFFFFFFFF
310
FFFFFFFFFFFFFFFFFFFFFFFFFFFFFFFFFFFFFFFFFFFFFFFFFFFFFFFFFFFFFFFF
310
FFFFFFFFFFFFFFFFF000FFFFFFFFFFFFFFFFFFFFFFFFFFFFFFFFFFFFFFFFFFFF
310
FFFFFFFFFFFFFFFFFFFFFFFFFFFFFFFFFFFFFFFFFFFFFFFFFFFFFFFFFFFFFFFF
310
FFFFFFFFFFFFFFFFFFFFFFFFFFFFFFFFFFFFFFFFFFFFFFFFFFFFFFFFFFFFFFFF
310
F000FFFFFFFFFFFFFFFFFFFFFFFFFFFFFFFFFFFFFFFFFFFFFFFFFFFFFFFFFFFF
310
FFFFFFFFFFFFFFFFFFFFFFFFFFFFFFFFFFFFFFFFFFFFFFFFFFFFFFFFFFFFFFFF
310
FFFFFFFFFFFFFFFFFFFFFFFFFFFFFFFFFFFFFFFFFFFFFFFFF000FFFFFFFFFFFF
310
FFFFFFFFFFFFFFFFFFFFFFFFFFFFFFFFFFFFFFFFFFFFFFFFFFFFFFFFFFFFFFFF
310
FFFFFFFFFFFFFFFFFFFFFFFFFFFFFFFFFFFFFFFFFFFFFFFFFFFFFFFFFFFFFFFF
310
FFFFFFFFFFFFFFFFFFFFFFFFFFFFFFFFF000FFFFFFFFFFFFFFFFFFFFFFFFFFFF
310
FFFFFFFFFFFFFFFFFFFFFFFFFFFFFFFFFFFFFFFFFFFFFFFFFFFFFFFFFFFFFFFF
310
FFFFFFFFFFFFFFFFFFFFFFFFFFFFFFFFFFFFFFFFFFFFFFFFFFFFFFFFFFFFFFFF
310
FFFFFFFFFFFFFFFFF000FFFFFFFFFFFFFFFFFFFFFFFFFFFFFFFFFFFFFFFFFFFF
310
FFFFFFFFFFFFFFFFFFFFFFFFFFFFFFFFFFFFFFFFFFFFFFFFFFFFFFFFFFFFFFFF
310
FFFFFFFFFFFFFFFFFFFFFFFFFFFFFFFFFFFFFFFFFFFFFFFFFFFFFFFFFFFFFFFF
310
F000FFFFFFFFFFFFFFFFFFFFFFFFFFFFFFFFFFFFFFFFFFFFFFFFFFFFFFFFFFFF
310
FFFFFFFFFFFFFFFFFFFFFFFFFFFFFFFFFFFFFFFFFFFFFFFFFFFFFFFFFFFFFFFF
310
FFFFFFFFFFFFFFFFFFFFFFFFFFFFFFFFFFFFFFFFFFFFFFFFF000FFFFFFFFFFFF
310
FFFFFFFFFFFFFFFFFFFFFFFFFFFFFFFFFFFFFFFFFFFFFFFFFFFFFFFFFFFFFFFF
310
FFFFFFFFFFFFFFFFFFFFFFFFFFFFFFFFFFFFFFFFFFFFFFFFFFFFFFFFFFFFFFFF
310
FFFFFFFFFFFFFFFFFFFFFFFFFFFFFFFFF000FFFFFFFFFFFFFFFFFFFFFFFFFFFF
310
FFFFFFFFFFFFFFFFFFFFFFFFFFFFFFFFFFFFFFFFFFFFFFFFFFFFFFFFFFFFFFFF
310
FFFFFFFFFFFFFFFFFFFFFFFFFFFFFFFFFFFFFFFFFFFFFFFFFFFFFFFFFFFFFFFF
310
FFFFFFFFFFFFFFFFF000FFFFFFFFFFFFFFFFFFFFFFFFFFFFFFFFFFFFFFFFFFFF
310
FFFFFFFFFFFFFFFFFFFFFFFFFFFFFFFFFFFFFFFFFFFFFFFFFFFFFFFFFFFFFFFF
310
FFFFFFFFFFFFFFFFFFFFFFFFFFFFFFFFFFFFFFFFFFFFFFFFFFFFFFFFFFFFFFFF
310
F000FFFFFFFFFFFFFFFFFFFFFFFFFFFFFFFFFFFFFFFFFFFFFFFFFFFFFFFFFFFF
310
FFFFFFFFFFFFFFFFFFFFFFFFFFFFFFFFFFFFFFFFFFFFFFFFFFFFFFFFFFFFFFFF
310
FFFFFFFFFFFFFFFFFFFFFFFFFFFFFFFFFFFFFFFFFFFFFFFFF000FFFFFFFFFFFF
310
FFFFFFFFFFFFFFFFFFFFFFFFFFFFFFFFFFFFFFFFFFFFFFFFFFFFFFFFFFFFFFFF
310
FFFFFFFFFFFFFFFFFFFFFFFFFFFFFFFFFFFFFFFFFFFFFFFFFFFFFFFFFFFFFFFF
310
FFFFFFFFFFFFFFFFFFFFFFFFFFFFFFFFF000FFFFFFFFFFFFFFFFFFFFFFFFFFFF
310
FFFFFFFFFFFFFFFFFFFFFFFFFFFFFFFFFFFFFFFFFFFFFFFFFFFFFFFFFFFFFFFF
310
FFFFFFFFFFFFFFFFFFFFFFFFFFFFFFFFFFFFFFFFFFFFFFFFFFFFFFFFFFFFFFFF
310
FFFFFFFFFFFFFFFFF000FFFFFFFFFFFFFFFFFFFFFFFFFFFFFFFFFFFFFFFFFFFF
310
FFFFFFFFFFFFFFFFFFFFFFFFFFFFFFFFFFFFFFFFFFFFFFFFFFFFFFFFFFFFFFFF
310
FFFFFFFFFFFFFFFFFFFFFFFFFFFFFFFFFFFFFFFFFFFFFFFFFFFFFFFFFFFFFFFF
310
F000FFFFFFFFFFFFFFFFFFFFFFFFFFFFFFFFFFFFFFFFFFFFFFFFFFFFFFFFFFFF
310
FFFFFFFFFFFFFFFFFFFFFFFFFFFFFFFFFFFFFFFFFFFFFFFFFFFFFFFFFFFFFFFF
310
FFFFFFFFFFFFFFFFFFFFFFFFFFFFFFFFFFFFFFFFFFFFFFFFF000FFFFFFFFFFFF
310
FFFFFFFFFFFFFFFFFFFFFFFFFFFFFFFFFFFFFFFFFFFFFFFFFFFFFFFFFFFFFFFF
310
FFFFFFFFFFFFFFFFFFFFFFFFFFFFFFFFFFFFFFFFFFFFFFFFFFFFFFFFFFFFFFFF
310
FFFFFFFFFFFFFFFFFFFFFFFFFFFFFFFFF000FFFFFFFFFFFFFFFFFFFFFFFFFFFF
310
FFFFFFFFFFFFFFFFFFFFFFFFFFFFFFFFFFFFFFFFFFFFFFFFFFFFFFFFFFFFFFFF
310
FFFFFFFFFFFFFFFFFFFFFFFFFFFFFFFFFFFFFFFFFFFFFFFFFFFFFFFFFFFFFFFF
310
FFFFFFFFFFFFFFFFF000FFFFFFFFFFFFFFFFFFFFFFFFFFFFFFFFFFFFFFFFFFFF
310
FFFFFFFFFFFFFFFFFFFFFFFFFFFFFFFFFFFFFFFFFFFFFFFFFFFFFFFFFFFFFFFF
310
FFFFFFFFFFFFFFFFFFFFFFFFFFFFFFFFFFFFFFFFFFFFFFFFFFFFFFFFFFFFFFFF
310
F000FFFFFFFFFFFFFFFFFFFFFFFFFFFFFFFFFFFFFFFFFFFFFFFFFFFFFFFFFFFF
310
FFFFFFFFFFFFFFFFFFFFFFFFFFFFFFFFFFFFFFFFFFFFFFFFFFFFFFFFFFFFFFFF
310
FFFFFFFFFFFFFFFFFFFFFFFFFFFFFFFFFFFFFFFFFFFFFFFFF000FFFFFFFFFFFF
310
FFFFFFFFFFFFFFFFFFFFFFFFFFFFFFFFFFFFFFFFFFFFFFFFFFFFFFFFFFFFFFFF
310
FFFFFFFFFFFFFFFFFFFFFFFFFFFFFFFFFFFFFFFFFFFFFFFFFFFFFFFFFFFFFFFF
310
FFFFFFFFFFFFFFFFFFFFFFFFFFFFFFFFF0000000000000000000000000000000
310
0000000000000000000000000000000000000000000000000000000000000000
310
0000000000000000000000000000000000000000000000000000000000000000
310
0000000000000000000000000000000000000000000000000000000000000000
310
0000000000000000000000000000000000000000000000000000000000000000
310
0000000000000000000000000000000000000000000000000000000000000000
310
0000000000000000000000000000000000000000000000000000000000000000
310
0000000000000000000000000000000000000000000000000000000000000000
310
0000000000000000000000000000000000000000000000000000000000000000
310
0000000000000000000000000000000000000000000000000000000000000000
310
0000000000000000000000000000000000000000000000000000000000000000
310
0000000000000000000000000000000000000000000000000000000000000000
310
0000000000000000000000000000000000000000000000000000000000000000
310
0000000000000000000000000000000000000000000000000000000000000000
310
0000000000000000000000000000000000000000000000000000000000000000
310
0000000000000000000000000000000000000000000000000000000000000000
  1
OLE
  0
ENDSEC
  0
SECTION
  2
OBJECTS
  0
DICTIONARY
  5
C
330
0
100
AcDbDictionary
281
     1
  3
ACAD_GROUP
350
D
  3
ACAD_LAYOUT
350
1A
  3
ACAD_MLINESTYLE
350
17
  3
ACAD_PLOTSETTINGS
350
19
  3
ACAD_PLOTSTYLENAME
350
E
  3
ACAD_SCALELIST
350
47
  0
DICTIONARY
  5
D
102
{ACAD_REACTORS
330
C
102
}
330
C
100
AcDbDictionary
281
     1
  0
DICTIONARY
  5
1A
102
{ACAD_REACTORS
330
C
102
}
330
C
100
AcDbDictionary
281
     1
  3
Layout1
350
1E
  3
Layout2
350
26
  3
Model
350
22
  0
DICTIONARY
  5
17
102
{ACAD_REACTORS
330
C
102
}
330
C
100
AcDbDictionary
281
     1
  3
Standard
350
18
  0
DICTIONARY
  5
19
102
{ACAD_REACTORS
330
C
102
}
330
C
100
AcDbDictionary
281
     1
  0
ACDBDICTIONARYWDFLT
  5
E
102
{ACAD_REACTORS
330
C
102
}
330
C
100
AcDbDictionary
281
     1
  3
Normal
350
F
100
AcDbDictionaryWithDefault
340
F
  0
DICTIONARY
  5
47
102
{ACAD_REACTORS
330
C
102
}
330
C
100
AcDbDictionary
281
     1
  3
A0
350
48
  3
A1
350
49
  3
A2
350
4A
  3
A3
350
4B
  3
A4
350
4C
  3
A5
350
4D
  3
A6
350
4E
  3
A7
350
4F
  3
A8
350
50
  3
A9
350
51
  3
B0
350
52
  3
B1
350
53
  3
B2
350
54
  3
B3
350
55
  3
B4
350
56
  3
B5
350
57
  3
B6
350
58
  3
B7
350
59
  3
B8
350
5A
  3
B9
350
5B
  3
C0
350
5C
  3
C1
350
5D
  3
C2
350
5E
  3
C3
350
5F
  3
C4
350
60
  3
C5
350
61
  3
C6
350
62
  3
C7
350
63
  3
C8
350
64
  3
C9
350
65
  3
D0
350
66
  3
D1
350
67
  3
D2
350
68
  0
LAYOUT
  5
1E
102
{ACAD_REACTORS
330
1A
102
}
330
1A
100
AcDbPlotSettings
  1

  2
none_device
  4

  6

 40
0.0
 41
0.0
 42
0.0
 43
0.0
 44
0.0
 45
0.0
 46
0.0
 47
0.0
 48
0.0
 49
0.0
140
0.0
141
0.0
142
1.0
143
1.0
 70
   688
 72
     1
 73
     0
 74
     5
  7

 75
    16
147
1.0
148
0.0
149
0.0
100
AcDbLayout
  1
Layout1
 70
     1
 71
     1
 10
0.0
 20
0.0
 11
420.0
 21
297.0
 12
0.0
 22
0.0
 32
0.0
 14
1.0000000000E+20
 24
1.0000000000E+20
 34
1.0000000000E+20
 15
-1.0000000000E+20
 25
-1.0000000000E+20
 35
-1.0000000000E+20
146
0.0
 13
0.0
 23
0.0
 33
0.0
 16
1.0
 26
0.0
 36
0.0
 17
0.0
 27
1.0
 37
0.0
 76
     0
330
1B
  0
LAYOUT
  5
26
102
{ACAD_REACTORS
330
1A
102
}
330
1A
100
AcDbPlotSettings
  1

  2
none_device
  4

  6

 40
0.0
 41
0.0
 42
0.0
 43
0.0
 44
0.0
 45
0.0
 46
0.0
 47
0.0
 48
0.0
 49
0.0
140
0.0
141
0.0
142
1.0
143
1.0
 70
   688
 72
     1
 73
     0
 74
     5
  7

 75
    16
147
1.0
148
0.0
149
0.0
100
AcDbLayout
  1
Layout2
 70
     1
 71
     2
 10
0.0
 20
0.0
 11
0.0
 21
0.0
 12
0.0
 22
0.0
 32
0.0
 14
0.0
 24
0.0
 34
0.0
 15
0.0
 25
0.0
 35
0.0
146
0.0
 13
0.0
 23
0.0
 33
0.0
 16
1.0
 26
0.0
 36
0.0
 17
0.0
 27
1.0
 37
0.0
 76
     0
330
23
  0
LAYOUT
  5
22
102
{ACAD_REACTORS
330
1A
102
}
330
1A
100
AcDbPlotSettings
  1

  2
none_device
  4
Letter_(8.50_x_11.00_Inches)
  6

 40
6.35
 41
6.35
 42
6.35000508
 43
6.35000508
 44
215.9
 45
279.4
 46
0.0
 47
0.0
 48
0.0
 49
0.0
140
0.0
141
0.0
142
1.0
143
1.0
 70
  1712
 72
     1
 73
     0
 74
     0
  7

 75
     0
147
1.0
148
0.0
149
0.0
100
AcDbLayout
  1
Model
 70
     1
 71
     0
 10
0.0
 20
0.0
 11
297.0
 21
210.0
 12
0.0
 22
0.0
 32
0.0
 14
0.0
 24
0.0
 34
0.0
 15
297.0
 25
210.0
 35
0.0
146
0.0
 13
0.0
 23
0.0
 33
0.0
 16
1.0
 26
0.0
 36
0.0
 17
0.0
 27
1.0
 37
0.0
 76
     0
330
1F
331
29
  0
MLINESTYLE
  5
18
102
{ACAD_REACTORS
330
17
102
}
330
17
100
AcDbMlineStyle
  2
Standard
 70
     0
  3

 62
   256
 51
90.0
 52
90.0
 71
     2
 49
0.5
 62
   256
  6
BYLAYER
 49
-0.5
 62
   256
  6
BYLAYER
  0
ACDBPLACEHOLDER
  5
F
102
{ACAD_REACTORS
330
E
102
}
330
E
  0
SCALE
  5
48
102
{ACAD_REACTORS
330
47
102
}
330
47
100
AcDbScale
 70
     0
300
1:1
140
1.0
141
1.0
290
     1
  0
SCALE
  5
49
102
{ACAD_REACTORS
330
47
102
}
330
47
100
AcDbScale
 70
     0
300
1:2
140
1.0
141
2.0
290
     0
  0
SCALE
  5
4A
102
{ACAD_REACTORS
330
47
102
}
330
47
100
AcDbScale
 70
     0
300
1:4
140
1.0
141
4.0
290
     0
  0
SCALE
  5
4B
102
{ACAD_REACTORS
330
47
102
}
330
47
100
AcDbScale
 70
     0
300
1:5
140
1.0
141
5.0
290
     0
  0
SCALE
  5
4C
102
{ACAD_REACTORS
330
47
102
}
330
47
100
AcDbScale
 70
     0
300
1:8
140
1.0
141
8.0
290
     0
  0
SCALE
  5
4D
102
{ACAD_REACTORS
330
47
102
}
330
47
100
AcDbScale
 70
     0
300
1:10
140
1.0
141
10.0
290
     0
  0
SCALE
  5
4E
102
{ACAD_REACTORS
330
47
102
}
330
47
100
AcDbScale
 70
     0
300
1:16
140
1.0
141
16.0
290
     0
  0
SCALE
  5
4F
102
{ACAD_REACTORS
330
47
102
}
330
47
100
AcDbScale
 70
     0
300
1:20
140
1.0
141
20.0
290
     0
  0
SCALE
  5
50
102
{ACAD_REACTORS
330
47
102
}
330
47
100
AcDbScale
 70
     0
300
1:30
140
1.0
141
30.0
290
     0
  0
SCALE
  5
51
102
{ACAD_REACTORS
330
47
102
}
330
47
100
AcDbScale
 70
     0
300
1:40
140
1.0
141
40.0
290
     0
  0
SCALE
  5
52
102
{ACAD_REACTORS
330
47
102
}
330
47
100
AcDbScale
 70
     0
300
1:50
140
1.0
141
50.0
290
     0
  0
SCALE
  5
53
102
{ACAD_REACTORS
330
47
102
}
330
47
100
AcDbScale
 70
     0
300
1:100
140
1.0
141
100.0
290
     0
  0
SCALE
  5
54
102
{ACAD_REACTORS
330
47
102
}
330
47
100
AcDbScale
 70
     0
300
2:1
140
2.0
141
1.0
290
     0
  0
SCALE
  5
55
102
{ACAD_REACTORS
330
47
102
}
330
47
100
AcDbScale
 70
     0
300
4:1
140
4.0
141
1.0
290
     0
  0
SCALE
  5
56
102
{ACAD_REACTORS
330
47
102
}
330
47
100
AcDbScale
 70
     0
300
8:1
140
8.0
141
1.0
290
     0
  0
SCALE
  5
57
102
{ACAD_REACTORS
330
47
102
}
330
47
100
AcDbScale
 70
     0
300
10:1
140
10.0
141
1.0
290
     0
  0
SCALE
  5
58
102
{ACAD_REACTORS
330
47
102
}
330
47
100
AcDbScale
 70
     0
300
100:1
140
100.0
141
1.0
290
     0
  0
SCALE
  5
59
102
{ACAD_REACTORS
330
47
102
}
330
47
100
AcDbScale
 70
     0
300
1/128" = 1'-0"
140
0.0078125
141
12.0
290
     0
  0
SCALE
  5
5A
102
{ACAD_REACTORS
330
47
102
}
330
47
100
AcDbScale
 70
     0
300
1/64" = 1'-0"
140
0.015625
141
12.0
290
     0
  0
SCALE
  5
5B
102
{ACAD_REACTORS
330
47
102
}
330
47
100
AcDbScale
 70
     0
300
1/32" = 1'-0"
140
0.03125
141
12.0
290
     0
  0
SCALE
  5
5C
102
{ACAD_REACTORS
330
47
102
}
330
47
100
AcDbScale
 70
     0
300
1/16" = 1'-0"
140
0.0625
141
12.0
290
     0
  0
SCALE
  5
5D
102
{ACAD_REACTORS
330
47
102
}
330
47
100
AcDbScale
 70
     0
300
3/32" = 1'-0"
140
0.09375
141
12.0
290
     0
  0
SCALE
  5
5E
102
{ACAD_REACTORS
330
47
102
}
330
47
100
AcDbScale
 70
     0
300
1/8" = 1'-0"
140
0.125
141
12.0
290
     0
  0
SCALE
  5
5F
102
{ACAD_REACTORS
330
47
102
}
330
47
100
AcDbScale
 70
     0
300
3/16" = 1'-0"
140
0.1875
141
12.0
290
     0
  0
SCALE
  5
60
102
{ACAD_REACTORS
330
47
102
}
330
47
100
AcDbScale
 70
     0
300
1/4" = 1'-0"
140
0.25
141
12.0
290
     0
  0
SCALE
  5
61
102
{ACAD_REACTORS
330
47
102
}
330
47
100
AcDbScale
 70
     0
300
3/8" = 1'-0"
140
0.375
141
12.0
290
     0
  0
SCALE
  5
62
102
{ACAD_REACTORS
330
47
102
}
330
47
100
AcDbScale
 70
     0
300
1/2" = 1'-0"
140
0.5
141
12.0
290
     0
  0
SCALE
  5
63
102
{ACAD_REACTORS
330
47
102
}
330
47
100
AcDbScale
 70
     0
300
3/4" = 1'-0"
140
0.75
141
12.0
290
     0
  0
SCALE
  5
64
102
{ACAD_REACTORS
330
47
102
}
330
47
100
AcDbScale
 70
     0
300
1" = 1'-0"
140
1.0
141
12.0
290
     0
  0
SCALE
  5
65
102
{ACAD_REACTORS
330
47
102
}
330
47
100
AcDbScale
 70
     0
300
1-1/2" = 1'-0"
140
1.5
141
12.0
290
     0
  0
SCALE
  5
66
102
{ACAD_REACTORS
330
47
102
}
330
47
100
AcDbScale
 70
     0
300
3" = 1'-0"
140
3.0
141
12.0
290
     0
  0
SCALE
  5
67
102
{ACAD_REACTORS
330
47
102
}
330
47
100
AcDbScale
 70
     0
300
6" = 1'-0"
140
6.0
141
12.0
290
     0
  0
SCALE
  5
68
102
{ACAD_REACTORS
330
47
102
}
330
47
100
AcDbScale
 70
     0
300
1'-0" = 1'-0"
140
12.0
141
12.0
290
     0
  0
ENDSEC
  0
EOF
