  0
SECTION
  2
HEADER
  9
$ACADVER
  1
AC1015
  9
$ACADMAINTVER
 70
     6
  9
$DWGCODEPAGE
  3
ANSI_1252
  9
$INSBASE
 10
0.0
 20
0.0
 30
0.0
  9
$EXTMIN
 10
0.0
 20
0.0
 30
0.0
  9
$EXTMAX
 10
297.0
 20
210.0
 30
0.0
  9
$LIMMIN
 10
0.0
 20
0.0
  9
$LIMMAX
 10
297.0
 20
210.0
  9
$ORTHOMODE
 70
     0
  9
$REGENMODE
 70
     1
  9
$FILLMODE
 70
     1
  9
$QTEXTMODE
 70
     0
  9
$MIRRTEXT
 70
     1
  9
$LTSCALE
 40
1.0
  9
$ATTMODE
 70
     1
  9
$TEXTSIZE
 40
2.0
  9
$TRACEWID
 40
1.0
  9
$TEXTSTYLE
  7
Standard
  9
$CLAYER
  8
0
  9
$CELTYPE
  6
ByLayer
  9
$CECOLOR
 62
   256
  9
$CELTSCALE
 40
1.0
  9
$DISPSILH
 70
     0
  9
$DIMSCALE
 40
1.0
  9
$DIMASZ
 40
3.0
  9
$DIMEXO
 40
0.0
  9
$DIMDLI
 40
3.75
  9
$DIMRND
 40
0.0
  9
$DIMDLE
 40
0.0
  9
$DIMEXE
 40
1.0
  9
$DIMTP
 40
0.0
  9
$DIMTM
 40
0.0
  9
$DIMTXT
 40
2.0
  9
$DIMCEN
 40
2.5
  9
$DIMTSZ
 40
0.0
  9
$DIMTOL
 70
     0
  9
$DIMLIM
 70
     0
  9
$DIMTIH
 70
     1
  9
$DIMTOH
 70
     1
  9
$DIMSE1
 70
     0
  9
$DIMSE2
 70
     0
  9
$DIMTAD
 70
     1
  9
$DIMZIN
 70
     0
  9
$DIMBLK
  1

  9
$DIMASO
 70
     1
  9
$DIMSHO
 70
     1
  9
$DIMPOST
  1

  9
$DIMAPOST
  1

  9
$DIMALT
 70
     0
  9
$DIMALTD
 70
     3
  9
$DIMALTF
 40
0.0393700787
  9
$DIMLFAC
 40
2.0
  9
$DIMTOFL
 70
     1
  9
$DIMTVP
 40
0.0
  9
$DIMTIX
 70
     0
  9
$DIMSOXD
 70
     0
  9
$DIMSAH
 70
     0
  9
$DIMBLK1
  1

  9
$DIMBLK2
  1

  9
$DIMSTYLE
  2
ISO-25
  9
$DIMCLRD
 70
     0
  9
$DIMCLRE
 70
     0
  9
$DIMCLRT
 70
     0
  9
$DIMTFAC
 40
1.0
  9
$DIMGAP
 40
1.524
  9
$DIMJUST
 70
     0
  9
$DIMSD1
 70
     0
  9
$DIMSD2
 70
     0
  9
$DIMTOLJ
 70
     0
  9
$DIMTZIN
 70
     0
  9
$DIMALTZ
 70
     0
  9
$DIMALTTZ
 70
     0
  9
$DIMUPT
 70
     0
  9
$DIMDEC
 70
     2
  9
$DIMTDEC
 70
     3
  9
$DIMALTU
 70
     2
  9
$DIMALTTD
 70
     3
  9
$DIMTXSTY
  7
Standard
  9
$DIMAUNIT
 70
     0
  9
$DIMADEC
 70
     2
  9
$DIMALTRND
 40
0.0
  9
$DIMAZIN
 70
     0
  9
$DIMDSEP
 70
    44
  9
$DIMATFIT
 70
     3
  9
$DIMFRAC
 70
     0
  9
$DIMLDRBLK
  1

  9
$DIMLUNIT
 70
     2
  9
$DIMLWD
 70
    -2
  9
$DIMLWE
 70
    -2
  9
$DIMTMOVE
 70
     0
  9
$LUNITS
 70
     2
  9
$LUPREC
 70
     2
  9
$SKETCHINC
 40
1.0
  9
$FILLETRAD
 40
10.0
  9
$AUNITS
 70
     0
  9
$AUPREC
 70
     2
  9
$MENU
  1
.
  9
$ELEVATION
 40
0.0
  9
$PELEVATION
 40
0.0
  9
$THICKNESS
 40
0.0
  9
$LIMCHECK
 70
     0
  9
$CHAMFERA
 40
0.0
  9
$CHAMFERB
 40
0.0
  9
$CHAMFERC
 40
0.0
  9
$CHAMFERD
 40
0.0
  9
$SKPOLY
 70
     0
  9
$TDCREATE
 40
2458164.712070428
  9
$TDUCREATE
 40
2458164.670403762
  9
$TDUPDATE
 40
2458164.712074005
  9
$TDUUPDATE
 40
2458164.670407338
  9
$TDINDWG
 40
0.0000000116
  9
$TDUSRTIMER
 40
0.0000000116
  9
$USRTIMER
 70
     1
  9
$ANGBASE
 50
0.0
  9
$ANGDIR
 70
     0
  9
$PDMODE
 70
     0
  9
$PDSIZE
 40
-1.0
  9
$PLINEWID
 40
0.0
  9
$SPLFRAME
 70
     0
  9
$SPLINETYPE
 70
     6
  9
$SPLINESEGS
 70
     8
  9
$HANDSEED
  5
2FE
  9
$SURFTAB1
 70
     6
  9
$SURFTAB2
 70
     6
  9
$SURFTYPE
 70
     6
  9
$SURFU
 70
     6
  9
$SURFV
 70
     6
  9
$UCSBASE
  2

  9
$UCSNAME
  2

  9
$UCSORG
 10
0.0
 20
0.0
 30
0.0
  9
$UCSXDIR
 10
1.0
 20
0.0
 30
0.0
  9
$UCSYDIR
 10
0.0
 20
1.0
 30
0.0
  9
$UCSORTHOREF
  2

  9
$UCSORTHOVIEW
 70
     0
  9
$UCSORGTOP
 10
0.0
 20
0.0
 30
0.0
  9
$UCSORGBOTTOM
 10
0.0
 20
0.0
 30
0.0
  9
$UCSORGLEFT
 10
0.0
 20
0.0
 30
0.0
  9
$UCSORGRIGHT
 10
0.0
 20
0.0
 30
0.0
  9
$UCSORGFRONT
 10
0.0
 20
0.0
 30
0.0
  9
$UCSORGBACK
 10
0.0
 20
0.0
 30
0.0
  9
$PUCSBASE
  2

  9
$PUCSNAME
  2

  9
$PUCSORG
 10
0.0
 20
0.0
 30
0.0
  9
$PUCSXDIR
 10
1.0
 20
0.0
 30
0.0
  9
$PUCSYDIR
 10
0.0
 20
1.0
 30
0.0
  9
$PUCSORTHOREF
  2

  9
$PUCSORTHOVIEW
 70
     0
  9
$PUCSORGTOP
 10
0.0
 20
0.0
 30
0.0
  9
$PUCSORGBOTTOM
 10
0.0
 20
0.0
 30
0.0
  9
$PUCSORGLEFT
 10
0.0
 20
0.0
 30
0.0
  9
$PUCSORGRIGHT
 10
0.0
 20
0.0
 30
0.0
  9
$PUCSORGFRONT
 10
0.0
 20
0.0
 30
0.0
  9
$PUCSORGBACK
 10
0.0
 20
0.0
 30
0.0
  9
$USERI1
 70
     0
  9
$USERI2
 70
     0
  9
$USERI3
 70
     0
  9
$USERI4
 70
     0
  9
$USERI5
 70
     0
  9
$USERR1
 40
0.0
  9
$USERR2
 40
0.0
  9
$USERR3
 40
0.0
  9
$USERR4
 40
0.0
  9
$USERR5
 40
0.0
  9
$WORLDVIEW
 70
     1
  9
$SHADEDGE
 70
     3
  9
$SHADEDIF
 70
    70
  9
$TILEMODE
 70
     1
  9
$MAXACTVP
 70
    64
  9
$PINSBASE
 10
0.0
 20
0.0
 30
0.0
  9
$PLIMCHECK
 70
     0
  9
$PEXTMIN
 10
1.0000000000E+20
 20
1.0000000000E+20
 30
1.0000000000E+20
  9
$PEXTMAX
 10
-1.0000000000E+20
 20
-1.0000000000E+20
 30
-1.0000000000E+20
  9
$PLIMMIN
 10
0.0
 20
0.0
  9
$PLIMMAX
 10
420.0
 20
297.0
  9
$UNITMODE
 70
     0
  9
$VISRETAIN
 70
     1
  9
$PLINEGEN
 70
     0
  9
$PSLTSCALE
 70
     1
  9
$TREEDEPTH
 70
  3020
  9
$CMLSTYLE
  2
Standard
  9
$CMLJUST
 70
     0
  9
$CMLSCALE
 40
20.0
  9
$PROXYGRAPHICS
 70
     1
  9
$MEASUREMENT
 70
     1
  9
$CELWEIGHT
370
    -1
  9
$ENDCAPS
280
     0
  9
$JOINSTYLE
280
     0
  9
$LWDISPLAY
290
     1
  9
$INSUNITS
 70
     4
  9
$HYPERLINKBASE
  1

  9
$STYLESHEET
  1

  9
$XEDIT
290
     1
  9
$CEPSNTYPE
380
     0
  9
$PSTYLEMODE
290
     1
  9
$FINGERPRINTGUID
  2
{19900E6F-1822-433E-9D14-0A132DFA0526}
  9
$VERSIONGUID
  2
{FAEB1C32-E019-11D5-929B-00C0DF256EC4}
  9
$EXTNAMES
290
     1
  9
$PSVPSCALE
 40
0.0
  9
$OLESTARTUP
290
     0
  0
ENDSEC
  0
SECTION
  2
CLASSES
  0
CLASS
  1
ACDBDICTIONARYWDFLT
  2
AcDbDictionaryWithDefault
  3
ObjectDBX Classes
 90
        0
280
     0
281
     0
  0
CLASS
  1
VISUALSTYLE
  2
AcDbVisualStyle
  3
ObjectDBX Classes
 90
     4095
280
     0
281
     0
  0
CLASS
  1
MATERIAL
  2
AcDbMaterial
  3
ObjectDBX Classes
 90
     1153
280
     0
281
     0
  0
CLASS
  1
SCALE
  2
AcDbScale
  3
ObjectDBX Classes
 90
     1153
280
     0
281
     0
  0
CLASS
  1
TABLESTYLE
  2
AcDbTableStyle
  3
ObjectDBX Classes
 90
     4095
280
     0
281
     0
  0
CLASS
  1
MLEADERSTYLE
  2
AcDbMLeaderStyle
  3
ACDB_MLEADERSTYLE_CLASS
 90
     4095
280
     0
281
     0
  0
CLASS
  1
SUN
  2
AcDbSun
  3
SCENEOE
 90
     1153
280
     0
281
     0
  0
CLASS
  1
ACDBPLACEHOLDER
  2
AcDbPlaceHolder
  3
ObjectDBX Classes
 90
        0
280
     0
281
     0
  0
CLASS
  1
LAYOUT
  2
AcDbLayout
  3
ObjectDBX Classes
 90
        0
280
     0
281
     0
  0
ENDSEC
  0
SECTION
  2
TABLES
  0
TABLE
  2
VPORT
  5
8
330
0
100
AcDbSymbolTable
 70
     1
  0
VPORT
  5
29
330
8
100
AcDbSymbolTableRecord
100
AcDbViewportTableRecord
  2
*Active
 70
     0
 10
0.0
 20
0.0
 11
1.0
 21
1.0
 12
148.5
 22
105.0
 13
0.0
 23
0.0
 14
10.0
 24
10.0
 15
10.0
 25
10.0
 16
0.0
 26
0.0
 36
1.0
 17
0.0
 27
0.0
 37
0.0
 40
210.0
 41
1.4142857143
 42
50.0
 43
0.0
 44
0.0
 50
0.0
 51
0.0
 71
     0
 72
  2000
 73
     1
 74
     3
 75
     0
 76
     0
 77
     0
 78
     0
281
     0
 65
     1
110
0.0
120
0.0
130
0.0
111
1.0
121
0.0
131
0.0
112
0.0
122
1.0
132
0.0
 79
     0
146
0.0
  0
ENDTAB
  0
TABLE
  2
LTYPE
  5
5
330
0
100
AcDbSymbolTable
 70
     6
  0
LTYPE
  5
14
330
5
100
AcDbSymbolTableRecord
100
AcDbLinetypeTableRecord
  2
ByBlock
 70
     0
  3

 72
    65
 73
     0
 40
0.0
  0
LTYPE
  5
15
330
5
100
AcDbSymbolTableRecord
100
AcDbLinetypeTableRecord
  2
ByLayer
 70
     0
  3

 72
    65
 73
     0
 40
0.0
  0
LTYPE
  5
16
330
5
100
AcDbSymbolTableRecord
100
AcDbLinetypeTableRecord
  2
Continuous
 70
     0
  3
Solid line
 72
    65
 73
     0
 40
0.0
  0
LTYPE
  5
6E
330
5
100
AcDbSymbolTableRecord
100
AcDbLinetypeTableRecord
  2
HIDDEN
 70
     0
  3
Hidden __ __ __ __ __ __ __ __ __ __ __ __ __ __
 72
    65
 73
     2
 40
1.905
 49
1.27
 74
     0
 49
-0.635
 74
     0
  0
LTYPE
  5
6F
330
5
100
AcDbSymbolTableRecord
100
AcDbLinetypeTableRecord
  2
PHANTOM
 70
     0
  3
Phantom ______  __  __  ______  __  __  ______
 72
    65
 73
     6
 40
12.7
 49
6.35
 74
     0
 49
-1.27
 74
     0
 49
1.27
 74
     0
 49
-1.27
 74
     0
 49
1.27
 74
     0
 49
-1.27
 74
     0
  0
LTYPE
  5
70
330
5
100
AcDbSymbolTableRecord
100
AcDbLinetypeTableRecord
  2
CENTER
 70
     0
  3
Center ____ _ ____ _ ____ _ ____ _ ____ _ ____
 72
    65
 73
     4
 40
10.16
 49
6.35
 74
     0
 49
-1.27
 74
     0
 49
1.27
 74
     0
 49
-1.27
 74
     0
  0
LTYPE
  5
71
330
5
100
AcDbSymbolTableRecord
100
AcDbLinetypeTableRecord
  2
CENTERX2
 70
     0
  3
Center (2x) ________  __  ________  __  _____
 72
    65
 73
     4
 40
20.32
 49
12.7
 74
     0
 49
-2.54
 74
     0
 49
2.54
 74
     0
 49
-2.54
 74
     0
  0
LTYPE
  5
72
330
5
100
AcDbSymbolTableRecord
100
AcDbLinetypeTableRecord
  2
DOT2
 70
     0
  3
Dot (.5x) ........................................
 72
    65
 73
     2
 40
0.635
 49
0.0
 74
     0
 49
-0.635
 74
     0
  0
ENDTAB
  0
TABLE
  2
LAYER
  5
2
330
0
100
AcDbSymbolTable
 70
     5
  0
LAYER
  5
10
330
2
100
AcDbSymbolTableRecord
100
AcDbLayerTableRecord
  2
0
 70
     0
 62
     7
  6
Continuous
370
    -3
390
F
  0
LAYER
  5
73
330
2
100
AcDbSymbolTableRecord
100
AcDbLayerTableRecord
  2
FORMAT
 70
     0
 62
     7
  6
Continuous
370
    -3
390
F
  0
LAYER
  5
74
330
2
100
AcDbSymbolTableRecord
100
AcDbLayerTableRecord
  2
VERMASSUNG
 70
     0
 62
     7
  6
Continuous
370
    -3
390
F
  0
LAYER
  5
75
330
2
100
AcDbSymbolTableRecord
100
AcDbLayerTableRecord
  2
KOPF_DÜNN
 70
     0
 62
     7
  6
Continuous
370
    -3
390
F
  0
LAYER
  5
76
330
2
100
AcDbSymbolTableRecord
100
AcDbLayerTableRecord
  2
KOPF_DICK
 70
     0
 62
     7
  6
Continuous
370
    25
390
F
  0
ENDTAB
  0
TABLE
  2
STYLE
  5
3
330
0
100
AcDbSymbolTable
 70
     2
  0
STYLE
  5
11
330
3
100
AcDbSymbolTableRecord
100
AcDbTextStyleTableRecord
  2
Standard
 70
     0
 40
0.0
 41
1.0
 50
0.0
 71
     0
 42
2.0
  3
txt
  4

  0
STYLE
  5
77
330
3
100
AcDbSymbolTableRecord
100
AcDbTextStyleTableRecord
  2
SLDTEXTSTYLE0
 70
     0
 40
0.0
 41
0.7
 50
0.0
 71
     0
 42
2.0
  3
TXT
  4

  0
ENDTAB
  0
TABLE
  2
VIEW
  5
6
330
0
100
AcDbSymbolTable
 70
     0
  0
ENDTAB
  0
TABLE
  2
UCS
  5
7
330
0
100
AcDbSymbolTable
 70
     0
  0
ENDTAB
  0
TABLE
  2
APPID
  5
9
330
0
100
AcDbSymbolTable
 70
     1
  0
APPID
  5
12
330
9
100
AcDbSymbolTableRecord
100
AcDbRegAppTableRecord
  2
ACAD
 70
     0
  0
ENDTAB
  0
TABLE
  2
DIMSTYLE
  5
A
330
0
100
AcDbSymbolTable
 70
     5
100
AcDbDimStyleTable
  0
DIMSTYLE
105
27
330
A
100
AcDbSymbolTableRecord
100
AcDbDimStyleTableRecord
  2
ISO-25
 70
     0
 41
2.5
 42
0.625
 43
3.75
 44
1.25
 73
     0
 74
     0
 77
     1
 78
     8
140
2.5
141
2.5
143
0.0393700787
147
0.625
171
     3
172
     1
178
     0
271
     2
272
     2
274
     3
278
    44
283
     0
284
     8
340
11
  0
DIMSTYLE
105
1FF
102
{ACAD_REACTORS
330
1FE
330
21E
330
229
330
234
330
23E
330
248
330
25E
330
268
102
}
330
A
100
AcDbSymbolTableRecord
100
AcDbDimStyleTableRecord
  2
SLDDIMSTYLE0
 70
     0
 41
3.0
 44
0.0
 45
0.000000001
 73
     0
 74
     0
 77
     1
 78
    12
 79
     3
140
2.0
147
0.5
173
     1
178
     0
271
     2
272
     3
276
     2
284
    12
340
77
  0
DIMSTYLE
105
20B
102
{ACAD_REACTORS
330
20A
102
}
330
A
100
AcDbSymbolTableRecord
100
AcDbDimStyleTableRecord
  2
SLDDIMSTYLE1
 70
     0
 41
3.0
 44
0.0
 73
     0
 74
     0
 77
     1
 78
    12
 79
     3
140
2.0
147
0.5
173
     1
178
     0
179
     2
272
     3
276
     2
284
    12
340
77
  0
DIMSTYLE
105
215
102
{ACAD_REACTORS
330
214
102
}
330
A
100
AcDbSymbolTableRecord
100
AcDbDimStyleTableRecord
  2
SLDDIMSTYLE2
 70
     0
 41
3.0
 44
0.0
 45
0.000000001
 73
     0
 74
     0
 76
     1
 77
     1
 78
    12
 79
     3
140
2.0
147
0.5
173
     1
178
     0
271
     2
272
     3
276
     2
282
     1
284
    12
340
77
  0
DIMSTYLE
105
254
102
{ACAD_REACTORS
330
253
102
}
330
A
100
AcDbSymbolTableRecord
100
AcDbDimStyleTableRecord
  2
SLDDIMSTYLE3
 70
     0
 41
3.0
 44
0.0
 45
0.000000001
 73
     0
 74
     0
 77
     1
 78
    12
 79
     3
140
2.0
147
0.5
173
     1
178
     0
271
     1
272
     3
276
     2
284
    12
340
77
  0
ENDTAB
  0
TABLE
  2
BLOCK_RECORD
  5
1
330
0
100
AcDbSymbolTable
 70
    12
  0
BLOCK_RECORD
  5
1F
330
1
100
AcDbSymbolTableRecord
100
AcDbBlockTableRecord
  2
*Model_Space
340
22
  0
BLOCK_RECORD
  5
1B
330
1
100
AcDbSymbolTableRecord
100
AcDbBlockTableRecord
  2
*Paper_Space
340
1E
  0
BLOCK_RECORD
  5
23
330
1
100
AcDbSymbolTableRecord
100
AcDbBlockTableRecord
  2
*Paper_Space0
340
26
  0
BLOCK_RECORD
  5
200
330
1
100
AcDbSymbolTableRecord
100
AcDbBlockTableRecord
  2
_D
340
0
  0
BLOCK_RECORD
  5
20C
330
1
100
AcDbSymbolTableRecord
100
AcDbBlockTableRecord
  2
_D_1
340
0
  0
BLOCK_RECORD
  5
216
330
1
100
AcDbSymbolTableRecord
100
AcDbBlockTableRecord
  2
_D_2
340
0
  0
BLOCK_RECORD
  5
21F
330
1
100
AcDbSymbolTableRecord
100
AcDbBlockTableRecord
  2
_D_3
340
0
  0
BLOCK_RECORD
  5
22A
330
1
100
AcDbSymbolTableRecord
100
AcDbBlockTableRecord
  2
_D_4
340
0
  0
BLOCK_RECORD
  5
235
330
1
100
AcDbSymbolTableRecord
100
AcDbBlockTableRecord
  2
_D_5
340
0
  0
BLOCK_RECORD
  5
23F
330
1
100
AcDbSymbolTableRecord
100
AcDbBlockTableRecord
  2
_D_6
340
0
  0
BLOCK_RECORD
  5
249
330
1
100
AcDbSymbolTableRecord
100
AcDbBlockTableRecord
  2
_D_7
340
0
  0
BLOCK_RECORD
  5
255
330
1
100
AcDbSymbolTableRecord
100
AcDbBlockTableRecord
  2
_D_8
340
0
  0
BLOCK_RECORD
  5
25F
330
1
100
AcDbSymbolTableRecord
100
AcDbBlockTableRecord
  2
_D_9
340
0
  0
BLOCK_RECORD
  5
269
330
1
100
AcDbSymbolTableRecord
100
AcDbBlockTableRecord
  2
_D_10
340
0
  0
ENDTAB
  0
ENDSEC
  0
SECTION
  2
BLOCKS
  0
BLOCK
  5
20
330
1F
100
AcDbEntity
  8
0
100
AcDbBlockBegin
  2
*Model_Space
 70
     0
 10
0.0
 20
0.0
 30
0.0
  3
*Model_Space
  1

  0
ENDBLK
  5
21
330
1F
100
AcDbEntity
  8
0
100
AcDbBlockEnd
  0
BLOCK
  5
1C
330
1B
100
AcDbEntity
 67
     1
  8
0
100
AcDbBlockBegin
  2
*Paper_Space
 70
     0
 10
0.0
 20
0.0
 30
0.0
  3
*Paper_Space
  1

  0
ENDBLK
  5
1D
330
1B
100
AcDbEntity
 67
     1
  8
0
100
AcDbBlockEnd
  0
BLOCK
  5
24
330
23
100
AcDbEntity
  8
0
100
AcDbBlockBegin
  2
*Paper_Space0
 70
     0
 10
0.0
 20
0.0
 30
0.0
  3
*Paper_Space0
  1

  0
ENDBLK
  5
25
330
23
100
AcDbEntity
  8
0
100
AcDbBlockEnd
  0
BLOCK
  5
201
330
200
100
AcDbEntity
  8
0
100
AcDbBlockBegin
  2
_D
 70
     0
 10
0.0
 20
0.0
 30
0.0
  3
_D
  1

  0
SOLID
  5
203
330
200
100
AcDbEntity
  8
VERMASSUNG
100
AcDbTrace
 10
267.0152055328
 20
122.2426956917
 30
0.0
 11
266.5652055328
 21
119.2426956917
 31
0.0
 12
267.4652055328
 22
119.2426956917
 32
0.0
 13
267.4652055328
 23
119.2426956917
 33
0.0
  0
SOLID
  5
204
330
200
100
AcDbEntity
  8
VERMASSUNG
100
AcDbTrace
 10
267.0152055328
 20
95.2426956917
 30
0.0
 11
267.4652055328
 21
98.2426956917
 31
0.0
 12
266.5652055328
 22
98.2426956917
 32
0.0
 13
266.5652055328
 23
98.2426956917
 33
0.0
  0
LINE
  5
205
330
200
100
AcDbEntity
  8
VERMASSUNG
100
AcDbLine
 10
227.0152055328
 20
122.2426956917
 30
0.0
 11
268.0152055328
 21
122.2426956917
 31
0.0
  0
LINE
  5
206
330
200
100
AcDbEntity
  8
VERMASSUNG
100
AcDbLine
 10
227.0152055328
 20
95.2426956917
 30
0.0
 11
268.0152055328
 21
95.2426956917
 31
0.0
  0
LINE
  5
207
330
200
100
AcDbEntity
  8
VERMASSUNG
100
AcDbLine
 10
267.0152055328
 20
122.2426956917
 30
0.0
 11
267.0152055328
 21
95.2426956917
 31
0.0
  0
MTEXT
  5
208
330
200
100
AcDbEntity
  8
VERMASSUNG
100
AcDbMText
 10
264.4370702278
 20
105.5376957345
 30
0.0
 40
2.0
 41
0.0
 71
     1
 72
     1
  1
%%c
  7
SLDTEXTSTYLE0
 11
-7.044195017643634E-15
 21
1.0
 31
0.0
 73
     1
 44
1.0
  0
MTEXT
  5
209
330
200
100
AcDbEntity
  8
VERMASSUNG
100
AcDbMText
 10
264.2370702766
 20
109.1476957488
 30
0.0
 40
2.0
 41
0.0
 71
     1
 72
     1
  1
27
  7
SLDTEXTSTYLE0
 11
-7.044195017643634E-15
 21
1.0
 31
0.0
 73
     1
 44
1.0
  0
ENDBLK
  5
202
330
200
100
AcDbEntity
  8
0
100
AcDbBlockEnd
  0
BLOCK
  5
20D
330
20C
100
AcDbEntity
  8
0
100
AcDbBlockBegin
  2
_D_1
 70
     0
 10
0.0
 20
0.0
 30
0.0
  3
_D_1
  1

  0
ARC
  5
20F
330
20C
100
AcDbEntity
  8
VERMASSUNG
100
AcDbCircle
 10
398.5489694711
 20
108.7426956917
 30
0.0
 40
191.0682034886497
100
AcDbArc
 50
175.5
 51
180.0
  0
ARC
  5
210
330
20C
100
AcDbEntity
  8
VERMASSUNG
100
AcDbCircle
 10
398.5489694711
 20
108.7426956917
 30
0.0
 40
191.0682034886497
100
AcDbArc
 50
172.5333705231
 51
175.5
  0
SOLID
  5
211
330
20C
100
AcDbEntity
  8
VERMASSUNG
100
AcDbTrace
 10
208.0697654881
 20
123.7337341597
 30
0.0
 11
207.4089963494
 21
120.773010575
 31
0.0
 12
208.3067486102
 22
120.7094426725
 32
0.0
 13
208.3067486102
 23
120.7094426725
 33
0.0
  0
SOLID
  5
212
330
20C
100
AcDbEntity
  8
VERMASSUNG
100
AcDbTrace
 10
207.4807659825
 20
108.7426956917
 30
0.0
 11
207.9543017401
 21
111.7390708161
 31
0.0
 12
207.0543294697
 22
111.7461357028
 32
0.0
 13
207.0543294697
 23
111.7461357028
 33
0.0
  0
MTEXT
  5
213
330
20C
100
AcDbEntity
  8
VERMASSUNG
100
AcDbMText
 10
205.798096761
 20
127.6087554
 30
0.0
 40
2.0
 41
0.0
 71
     1
 72
     1
  1
4°30'
  7
SLDTEXTSTYLE0
 11
0.1135868254314265
 21
0.9935280736287277
 31
0.0
 73
     1
 44
1.0
  0
ENDBLK
  5
20E
330
20C
100
AcDbEntity
  8
0
100
AcDbBlockEnd
  0
BLOCK
  5
217
330
216
100
AcDbEntity
  8
0
100
AcDbBlockBegin
  2
_D_2
 70
     0
 10
0.0
 20
0.0
 30
0.0
  3
_D_2
  1

  0
SOLID
  5
219
330
216
100
AcDbEntity
  8
VERMASSUNG
100
AcDbTrace
 10
257.7788839193
 20
115.7426956917
 30
0.0
 11
257.3288839193
 21
112.7426956917
 31
0.0
 12
258.2288839193
 22
112.7426956917
 32
0.0
 13
258.2288839193
 23
112.7426956917
 33
0.0
  0
LINE
  5
21A
330
216
100
AcDbEntity
  8
VERMASSUNG
100
AcDbLine
 10
223.5152055328
 20
115.7426956917
 30
0.0
 11
258.7788839193
 21
115.7426956917
 31
0.0
  0
LINE
  5
21B
330
216
100
AcDbEntity
  8
VERMASSUNG
100
AcDbLine
 10
257.7788839193
 20
115.7426956917
 30
0.0
 11
257.7788839193
 21
105.6376955646
 31
0.0
  0
MTEXT
  5
21C
330
216
100
AcDbEntity
  8
VERMASSUNG
100
AcDbMText
 10
255.2007486144
 20
105.6376955646
 30
0.0
 40
2.0
 41
0.0
 71
     1
 72
     1
  1
%%c
  7
SLDTEXTSTYLE0
 11
-6.156016597943509E-15
 21
1.0
 31
0.0
 73
     1
 44
1.0
  0
MTEXT
  5
21D
330
216
100
AcDbEntity
  8
VERMASSUNG
100
AcDbMText
 10
255.0007486631
 20
109.2476955789
 30
0.0
 40
2.0
 41
0.0
 71
     1
 72
     1
  1
14
  7
SLDTEXTSTYLE0
 11
-6.156016597943509E-15
 21
1.0
 31
0.0
 73
     1
 44
1.0
  0
ENDBLK
  5
218
330
216
100
AcDbEntity
  8
0
100
AcDbBlockEnd
  0
BLOCK
  5
220
330
21F
100
AcDbEntity
  8
0
100
AcDbBlockBegin
  2
_D_3
 70
     0
 10
0.0
 20
0.0
 30
0.0
  3
_D_3
  1

  0
SOLID
  5
222
330
21F
100
AcDbEntity
  8
VERMASSUNG
100
AcDbTrace
 10
191.0152055328
 20
139.2427581844
 30
0.0
 11
194.0152055328
 21
138.7927581844
 31
0.0
 12
194.0152055328
 22
139.6927581844
 32
0.0
 13
194.0152055328
 23
139.6927581844
 33
0.0
  0
SOLID
  5
223
330
21F
100
AcDbEntity
  8
VERMASSUNG
100
AcDbTrace
 10
227.0152055328
 20
139.2427581844
 30
0.0
 11
224.0152055328
 21
139.6927581844
 31
0.0
 12
224.0152055328
 22
138.7927581844
 32
0.0
 13
224.0152055328
 23
138.7927581844
 33
0.0
  0
LINE
  5
224
330
21F
100
AcDbEntity
  8
VERMASSUNG
100
AcDbLine
 10
191.0152055328
 20
115.7426956917
 30
0.0
 11
191.0152055328
 21
140.2427581844
 31
0.0
  0
LINE
  5
225
330
21F
100
AcDbEntity
  8
VERMASSUNG
100
AcDbLine
 10
227.0152055328
 20
120.3939147084
 30
0.0
 11
227.0152055328
 21
140.2427581844
 31
0.0
  0
LINE
  5
226
330
21F
100
AcDbEntity
  8
VERMASSUNG
100
AcDbLine
 10
191.0152055328
 20
139.2427581844
 30
0.0
 11
227.0152055328
 21
139.2427581844
 31
0.0
  0
MTEXT
  5
227
330
21F
100
AcDbEntity
  8
VERMASSUNG
100
AcDbMText
 10
204.8152056825
 20
141.8208937803
 30
0.0
 40
2.0
 41
0.0
 71
     1
 72
     1
  1
36
  7
SLDTEXTSTYLE0
 73
     1
 44
1.0
  0
MTEXT
  5
228
330
21F
100
AcDbEntity
  8
VERMASSUNG
100
AcDbMText
 10
208.8027055827
 20
141.8208937803
 30
0.0
 40
2.0
 41
0.0
 71
     1
 72
     1
  1
min.
  7
SLDTEXTSTYLE0
 73
     1
 44
1.0
  0
ENDBLK
  5
221
330
21F
100
AcDbEntity
  8
0
100
AcDbBlockEnd
  0
BLOCK
  5
22B
330
22A
100
AcDbEntity
  8
0
100
AcDbBlockBegin
  2
_D_4
 70
     0
 10
0.0
 20
0.0
 30
0.0
  3
_D_4
  1

  0
SOLID
  5
22D
330
22A
100
AcDbEntity
  8
VERMASSUNG
100
AcDbTrace
 10
180.5152055328
 20
147.5565051756
 30
0.0
 11
183.5152055328
 21
147.1065051756
 31
0.0
 12
183.5152055328
 22
148.0065051756
 32
0.0
 13
183.5152055328
 23
148.0065051756
 33
0.0
  0
SOLID
  5
22E
330
22A
100
AcDbEntity
  8
VERMASSUNG
100
AcDbTrace
 10
227.0152055328
 20
147.5565051756
 30
0.0
 11
224.0152055328
 21
148.0065051756
 31
0.0
 12
224.0152055328
 22
147.1065051756
 32
0.0
 13
224.0152055328
 23
147.1065051756
 33
0.0
  0
LINE
  5
22F
330
22A
100
AcDbEntity
  8
VERMASSUNG
100
AcDbLine
 10
180.5152055328
 20
115.6426956917
 30
0.0
 11
180.5152055328
 21
148.5565051756
 31
0.0
  0
LINE
  5
230
330
22A
100
AcDbEntity
  8
VERMASSUNG
100
AcDbLine
 10
227.0152055328
 20
120.3939147084
 30
0.0
 11
227.0152055328
 21
148.5565051756
 31
0.0
  0
LINE
  5
231
330
22A
100
AcDbEntity
  8
VERMASSUNG
100
AcDbLine
 10
180.5152055328
 20
147.5565051756
 30
0.0
 11
227.0152055328
 21
147.5565051756
 31
0.0
  0
MTEXT
  5
232
330
22A
100
AcDbEntity
  8
VERMASSUNG
100
AcDbMText
 10
198.065206368
 20
150.1346407716
 30
0.0
 40
2.0
 41
0.0
 71
     1
 72
     1
  1
46.5
  7
SLDTEXTSTYLE0
 73
     1
 44
1.0
  0
MTEXT
  5
233
330
22A
100
AcDbEntity
  8
VERMASSUNG
100
AcDbMText
 10
204.2527062562
 20
150.1346407716
 30
0.0
 40
2.0
 41
0.0
 71
     1
 72
     1
  1
max.
  7
SLDTEXTSTYLE0
 73
     1
 44
1.0
  0
ENDBLK
  5
22C
330
22A
100
AcDbEntity
  8
0
100
AcDbBlockEnd
  0
BLOCK
  5
236
330
235
100
AcDbEntity
  8
0
100
AcDbBlockBegin
  2
_D_5
 70
     0
 10
0.0
 20
0.0
 30
0.0
  3
_D_5
  1

  0
SOLID
  5
238
330
235
100
AcDbEntity
  8
VERMASSUNG
100
AcDbTrace
 10
227.0152055328
 20
156.2176956917
 30
0.0
 11
224.0152055328
 21
156.6676956917
 31
0.0
 12
224.0152055328
 22
155.7676956917
 32
0.0
 13
224.0152055328
 23
155.7676956917
 33
0.0
  0
SOLID
  5
239
330
235
100
AcDbEntity
  8
VERMASSUNG
100
AcDbTrace
 10
107.0152055328
 20
156.2176956917
 30
0.0
 11
110.0152055328
 21
155.7676956917
 31
0.0
 12
110.0152055328
 22
156.6676956917
 32
0.0
 13
110.0152055328
 23
156.6676956917
 33
0.0
  0
LINE
  5
23A
330
235
100
AcDbEntity
  8
VERMASSUNG
100
AcDbLine
 10
227.0152055328
 20
120.3939147084
 30
0.0
 11
227.0152055328
 21
157.2176956917
 31
0.0
  0
LINE
  5
23B
330
235
100
AcDbEntity
  8
VERMASSUNG
100
AcDbLine
 10
107.0152055328
 20
140.0176956917
 30
0.0
 11
107.0152055328
 21
157.2176956917
 31
0.0
  0
LINE
  5
23C
330
235
100
AcDbEntity
  8
VERMASSUNG
100
AcDbLine
 10
227.0152055328
 20
156.2176956917
 30
0.0
 11
107.0152055328
 21
156.2176956917
 31
0.0
  0
MTEXT
  5
23D
330
235
100
AcDbEntity
  8
VERMASSUNG
100
AcDbMText
 10
165.1152055007
 20
158.7958312876
 30
0.0
 40
2.0
 41
0.0
 71
     1
 72
     1
  1
120
  7
SLDTEXTSTYLE0
 73
     1
 44
1.0
  0
ENDBLK
  5
237
330
235
100
AcDbEntity
  8
0
100
AcDbBlockEnd
  0
BLOCK
  5
240
330
23F
100
AcDbEntity
  8
0
100
AcDbBlockBegin
  2
_D_6
 70
     0
 10
0.0
 20
0.0
 30
0.0
  3
_D_6
  1

  0
SOLID
  5
242
330
23F
100
AcDbEntity
  8
VERMASSUNG
100
AcDbTrace
 10
227.0152055328
 20
165.4841056722
 30
0.0
 11
224.0152055328
 21
165.9341056722
 31
0.0
 12
224.0152055328
 22
165.0341056722
 32
0.0
 13
224.0152055328
 23
165.0341056722
 33
0.0
  0
SOLID
  5
243
330
23F
100
AcDbEntity
  8
VERMASSUNG
100
AcDbTrace
 10
67.0652055328
 20
165.4841056722
 30
0.0
 11
70.0652055328
 21
165.0341056722
 31
0.0
 12
70.0652055328
 22
165.9341056722
 32
0.0
 13
70.0652055328
 23
165.9341056722
 33
0.0
  0
LINE
  5
244
330
23F
100
AcDbEntity
  8
VERMASSUNG
100
AcDbLine
 10
227.0152055328
 20
120.3939147084
 30
0.0
 11
227.0152055328
 21
166.4841056722
 31
0.0
  0
LINE
  5
245
330
23F
100
AcDbEntity
  8
VERMASSUNG
100
AcDbLine
 10
67.0652055328
 20
130.9457904155
 30
0.0
 11
67.0652055328
 21
166.4841056722
 31
0.0
  0
LINE
  5
246
330
23F
100
AcDbEntity
  8
VERMASSUNG
100
AcDbLine
 10
227.0152055328
 20
165.4841056722
 30
0.0
 11
67.0652055328
 21
165.4841056722
 31
0.0
  0
MTEXT
  5
247
330
23F
100
AcDbEntity
  8
VERMASSUNG
100
AcDbMText
 10
143.4402055946
 20
168.0622412681
 30
0.0
 40
2.0
 41
0.0
 71
     1
 72
     1
  1
159.95
  7
SLDTEXTSTYLE0
 73
     1
 44
1.0
  0
ENDBLK
  5
241
330
23F
100
AcDbEntity
  8
0
100
AcDbBlockEnd
  0
BLOCK
  5
24A
330
249
100
AcDbEntity
  8
0
100
AcDbBlockBegin
  2
_D_7
 70
     0
 10
0.0
 20
0.0
 30
0.0
  3
_D_7
  1

  0
SOLID
  5
24C
330
249
100
AcDbEntity
  8
VERMASSUNG
100
AcDbTrace
 10
276.8825344527
 20
125.7426956917
 30
0.0
 11
276.4325344527
 21
122.7426956917
 31
0.0
 12
277.3325344527
 22
122.7426956917
 32
0.0
 13
277.3325344527
 23
122.7426956917
 33
0.0
  0
SOLID
  5
24D
330
249
100
AcDbEntity
  8
VERMASSUNG
100
AcDbTrace
 10
276.8825344527
 20
91.7426956917
 30
0.0
 11
277.3325344527
 21
94.7426956917
 31
0.0
 12
276.4325344527
 22
94.7426956917
 32
0.0
 13
276.4325344527
 23
94.7426956917
 33
0.0
  0
LINE
  5
24E
330
249
100
AcDbEntity
  8
VERMASSUNG
100
AcDbLine
 10
182.5434889562
 20
125.7426956917
 30
0.0
 11
277.8825344527
 21
125.7426956917
 31
0.0
  0
LINE
  5
24F
330
249
100
AcDbEntity
  8
VERMASSUNG
100
AcDbLine
 10
182.5434889562
 20
91.7426956917
 30
0.0
 11
277.8825344527
 21
91.7426956917
 31
0.0
  0
LINE
  5
250
330
249
100
AcDbEntity
  8
VERMASSUNG
100
AcDbLine
 10
276.8825344527
 20
125.7426956917
 30
0.0
 11
276.8825344527
 21
91.7426956917
 31
0.0
  0
MTEXT
  5
251
330
249
100
AcDbEntity
  8
VERMASSUNG
100
AcDbMText
 10
274.3043991478
 20
105.4376956715
 30
0.0
 40
2.0
 41
0.0
 71
     1
 72
     1
  1
%%c
  7
SLDTEXTSTYLE0
 11
-6.156016597943509E-15
 21
1.0
 31
0.0
 73
     1
 44
1.0
  0
MTEXT
  5
252
330
249
100
AcDbEntity
  8
VERMASSUNG
100
AcDbMText
 10
274.1043991965
 20
109.0476956858
 30
0.0
 40
2.0
 41
0.0
 71
     1
 72
     1
  1
34
  7
SLDTEXTSTYLE0
 11
-6.156016597943509E-15
 21
1.0
 31
0.0
 73
     1
 44
1.0
  0
ENDBLK
  5
24B
330
249
100
AcDbEntity
  8
0
100
AcDbBlockEnd
  0
BLOCK
  5
256
330
255
100
AcDbEntity
  8
0
100
AcDbBlockBegin
  2
_D_8
 70
     0
 10
0.0
 20
0.0
 30
0.0
  3
_D_8
  1

  0
SOLID
  5
258
330
255
100
AcDbEntity
  8
VERMASSUNG
100
AcDbTrace
 10
182.5434889562
 20
78.5685621945
 30
0.0
 11
185.5434889562
 21
78.1185621945
 31
0.0
 12
185.5434889562
 22
79.0185621945
 32
0.0
 13
185.5434889562
 23
79.0185621945
 33
0.0
  0
SOLID
  5
259
330
255
100
AcDbEntity
  8
VERMASSUNG
100
AcDbTrace
 10
227.0152055328
 20
78.5685621945
 30
0.0
 11
224.0152055328
 21
79.0185621945
 31
0.0
 12
224.0152055328
 22
78.1185621945
 32
0.0
 13
224.0152055328
 23
78.1185621945
 33
0.0
  0
LINE
  5
25A
330
255
100
AcDbEntity
  8
VERMASSUNG
100
AcDbLine
 10
182.5434889562
 20
91.7426956917
 30
0.0
 11
182.5434889562
 21
77.5685621945
 31
0.0
  0
LINE
  5
25B
330
255
100
AcDbEntity
  8
VERMASSUNG
100
AcDbLine
 10
227.0152055328
 20
97.091476675
 30
0.0
 11
227.0152055328
 21
77.5685621945
 31
0.0
  0
LINE
  5
25C
330
255
100
AcDbEntity
  8
VERMASSUNG
100
AcDbLine
 10
182.5434889562
 20
78.5685621945
 30
0.0
 11
227.0152055328
 21
78.5685621945
 31
0.0
  0
MTEXT
  5
25D
330
255
100
AcDbEntity
  8
VERMASSUNG
100
AcDbMText
 10
202.1793472374
 20
81.1466977904
 30
0.0
 40
2.0
 41
0.0
 71
     1
 72
     1
  1
44.5
  7
SLDTEXTSTYLE0
 73
     1
 44
1.0
  0
ENDBLK
  5
257
330
255
100
AcDbEntity
  8
0
100
AcDbBlockEnd
  0
BLOCK
  5
260
330
25F
100
AcDbEntity
  8
0
100
AcDbBlockBegin
  2
_D_9
 70
     0
 10
0.0
 20
0.0
 30
0.0
  3
_D_9
  1

  0
SOLID
  5
262
330
25F
100
AcDbEntity
  8
VERMASSUNG
100
AcDbTrace
 10
125.0152055328
 20
68.9264627624
 30
0.0
 11
128.0152055328
 21
68.4764627624
 31
0.0
 12
128.0152055328
 22
69.3764627624
 32
0.0
 13
128.0152055328
 23
69.3764627624
 33
0.0
  0
SOLID
  5
263
330
25F
100
AcDbEntity
  8
VERMASSUNG
100
AcDbTrace
 10
227.0152055328
 20
68.9264627624
 30
0.0
 11
224.0152055328
 21
69.3764627624
 31
0.0
 12
224.0152055328
 22
68.4764627624
 32
0.0
 13
224.0152055328
 23
68.4764627624
 33
0.0
  0
LINE
  5
264
330
25F
100
AcDbEntity
  8
VERMASSUNG
100
AcDbLine
 10
125.0152055328
 20
77.2676956917
 30
0.0
 11
125.0152055328
 21
67.9264627624
 31
0.0
  0
LINE
  5
265
330
25F
100
AcDbEntity
  8
VERMASSUNG
100
AcDbLine
 10
227.0152055328
 20
97.091476675
 30
0.0
 11
227.0152055328
 21
67.9264627624
 31
0.0
  0
LINE
  5
266
330
25F
100
AcDbEntity
  8
VERMASSUNG
100
AcDbLine
 10
125.0152055328
 20
68.9264627624
 30
0.0
 11
227.0152055328
 21
68.9264627624
 31
0.0
  0
MTEXT
  5
267
330
25F
100
AcDbEntity
  8
VERMASSUNG
100
AcDbMText
 10
174.1152055007
 20
71.5045983583
 30
0.0
 40
2.0
 41
0.0
 71
     1
 72
     1
  1
102
  7
SLDTEXTSTYLE0
 73
     1
 44
1.0
  0
ENDBLK
  5
261
330
25F
100
AcDbEntity
  8
0
100
AcDbBlockEnd
  0
BLOCK
  5
26A
330
269
100
AcDbEntity
  8
0
100
AcDbBlockBegin
  2
_D_10
 70
     0
 10
0.0
 20
0.0
 30
0.0
  3
_D_10
  1

  0
SOLID
  5
26C
330
269
100
AcDbEntity
  8
VERMASSUNG
100
AcDbTrace
 10
45.0651805328
 20
140.2176956917
 30
0.0
 11
44.6151805328
 21
137.2176956917
 31
0.0
 12
45.5151805328
 22
137.2176956917
 32
0.0
 13
45.5151805328
 23
137.2176956917
 33
0.0
  0
SOLID
  5
26D
330
269
100
AcDbEntity
  8
VERMASSUNG
100
AcDbTrace
 10
45.0651805328
 20
77.2676956917
 30
0.0
 11
45.5151805328
 21
80.2676956917
 31
0.0
 12
44.6151805328
 22
80.2676956917
 32
0.0
 13
44.6151805328
 23
80.2676956917
 33
0.0
  0
LINE
  5
26E
330
269
100
AcDbEntity
  8
VERMASSUNG
100
AcDbLine
 10
107.2152055328
 20
140.2176956917
 30
0.0
 11
44.0651805328
 21
140.2176956917
 31
0.0
  0
LINE
  5
26F
330
269
100
AcDbEntity
  8
VERMASSUNG
100
AcDbLine
 10
107.2152055328
 20
77.2676956917
 30
0.0
 11
44.0651805328
 21
77.2676956917
 31
0.0
  0
LINE
  5
270
330
269
100
AcDbEntity
  8
VERMASSUNG
100
AcDbLine
 10
45.0651805328
 20
140.2176956917
 30
0.0
 11
45.0651805328
 21
77.2676956917
 31
0.0
  0
MTEXT
  5
271
330
269
100
AcDbEntity
  8
VERMASSUNG
100
AcDbMText
 10
42.2870452766
 20
98.9376962359
 30
0.0
 40
2.0
 41
0.0
 71
     1
 72
     1
  1
KM
  7
SLDTEXTSTYLE0
 11
-6.156016597943509E-15
 21
1.0
 31
0.0
 73
     1
 44
1.0
  0
MTEXT
  5
272
330
269
100
AcDbEntity
  8
VERMASSUNG
100
AcDbMText
 10
42.4870452278
 20
102.3376960481
 30
0.0
 40
2.0
 41
0.0
 71
     1
 72
     1
  1
%%c
  7
SLDTEXTSTYLE0
 11
-6.156016597943509E-15
 21
1.0
 31
0.0
 73
     1
 44
1.0
  0
MTEXT
  5
273
330
269
100
AcDbEntity
  8
VERMASSUNG
100
AcDbMText
 10
42.2870452766
 20
105.9476960624
 30
0.0
 40
2.0
 41
0.0
 71
     1
 72
     1
  1
62.95
  7
SLDTEXTSTYLE0
 11
-6.156016597943509E-15
 21
1.0
 31
0.0
 73
     1
 44
1.0
  0
MTEXT
  5
274
330
269
100
AcDbEntity
  8
VERMASSUNG
100
AcDbMText
 10
42.2870452766
 20
113.3351957748
 30
0.0
 40
2.0
 41
0.0
 71
     1
 72
     1
  1
XMZ
  7
SLDTEXTSTYLE0
 11
-6.156016597943509E-15
 21
1.0
 31
0.0
 73
     1
 44
1.0
  0
ENDBLK
  5
26B
330
269
100
AcDbEntity
  8
0
100
AcDbBlockEnd
  0
ENDSEC
  0
SECTION
  2
ENTITIES
  0
MTEXT
  5
78
330
1F
100
AcDbEntity
  8
KOPF_DÜNN
100
AcDbMText
 10
13.8892156294
 20
23.8442973028
 30
0.0
 40
3.0
 41
0.0
 71
     1
 72
     1
  1
-KY6.S14.K01.120
  7
SLDTEXTSTYLE0
 73
     1
 44
1.0
  0
MTEXT
  5
79
330
1F
100
AcDbEntity
  8
VERMASSUNG
100
AcDbMText
 10
13.9329988022
 20
28.8834360957
 30
0.0
 40
3.0
 41
0.0
 71
     1
 72
     1
  1
Schrumpffutter_Heat shrink chuck
  7
SLDTEXTSTYLE0
 73
     1
 44
1.0
  0
MTEXT
  5
7A
330
1F
100
AcDbEntity
  8
VERMASSUNG
100
AcDbMText
 10
98.8601118557
 20
13.8365368761
 30
0.0
 40
2.0
 41
0.0
 71
     1
 72
     1
  1
Datum: 12.02.2018
  7
SLDTEXTSTYLE0
 73
     1
 44
1.0
  0
MTEXT
  5
7B
330
1F
100
AcDbEntity
  8
VERMASSUNG
100
AcDbMText
 10
13.933048693
 20
18.0482802738
 30
0.0
 40
2.0
 41
0.0
 71
     1
 72
     1
  1
KM63 XMZ / Ø14
  7
SLDTEXTSTYLE0
 73
     1
 44
1.0
  0
MTEXT
  5
7C
330
1F
100
AcDbEntity
  8
VERMASSUNG
100
AcDbMText
 10
13.9808475933
 20
13.9090974274
 30
0.0
 40
2.0
 41
0.0
 71
     1
 72
     1
  1
Gewicht: 1208g
  7
SLDTEXTSTYLE0
 73
     1
 44
1.0
  0
SPLINE
  5
7D
330
1F
100
AcDbEntity
  8
0
  6
Continuous
 62
     7
370
    25
100
AcDbSpline
210
0.0
220
0.0
230
1.0
 70
     8
 71
     3
 72
     8
 73
     4
 74
     0
 42
0.000000001
 43
0.00000001
 40
0.0
 40
0.0
 40
0.0
 40
0.0
 40
1.0
 40
1.0
 40
1.0
 40
1.0
 10
353.0525326521614
 20
104.3726948197207
 30
0.0
 10
352.9836942819747
 20
104.3096001464018
 30
0.0
 10
352.9152629215185
 20
104.245877768271
 30
0.0
 10
352.8472466468539
 20
104.1815323359976
 30
0.0
  0
SPLINE
  5
7E
330
1F
100
AcDbEntity
  8
0
  6
Continuous
 62
     7
370
    25
100
AcDbSpline
210
0.0
220
0.0
230
1.0
 70
     8
 71
     3
 72
     8
 73
     4
 74
     0
 42
0.000000001
 43
0.00000001
 40
0.0
 40
0.0
 40
0.0
 40
0.0
 40
1.0
 40
1.0
 40
1.0
 40
1.0
 10
353.3105598934221
 20
104.2034329897934
 30
0.0
 10
353.2238564592617
 20
104.2595939094626
 30
0.0
 10
353.1378584117779
 20
104.3160186457885
 30
0.0
 10
353.0525326521614
 20
104.3726948197207
 30
0.0
  0
ARC
  5
7F
330
1F
100
AcDbEntity
  8
0
  6
Continuous
 62
     7
370
    25
100
AcDbCircle
 10
363.4416727618
 20
108.7426956917
 30
0.0
 40
11.10154736189901
100
AcDbArc
 50
204.1348482805
 51
335.8651517195
  0
SPLINE
  5
80
330
1F
100
AcDbEntity
  8
0
  6
Continuous
 62
     7
370
    25
100
AcDbSpline
210
0.0
220
0.0
230
1.0
 70
     8
 71
     3
 72
     8
 73
     4
 74
     0
 42
0.000000001
 43
0.00000001
 40
0.0
 40
0.0
 40
0.0
 40
0.0
 40
1.0
 40
1.0
 40
1.0
 40
1.0
 10
373.8308128714272
 20
104.3726948197207
 30
0.0
 10
373.7454871118107
 20
104.3160186457885
 30
0.0
 10
373.6594890643269
 20
104.2595939094626
 30
0.0
 10
373.5727856301665
 20
104.2034329897934
 30
0.0
  0
SPLINE
  5
81
330
1F
100
AcDbEntity
  8
0
  6
Continuous
 62
     7
370
    25
100
AcDbSpline
210
0.0
220
0.0
230
1.0
 70
     8
 71
     3
 72
     8
 73
     4
 74
     0
 42
0.000000001
 43
0.00000001
 40
0.0
 40
0.0
 40
0.0
 40
0.0
 40
1.0
 40
1.0
 40
1.0
 40
1.0
 10
374.0360988767348
 20
104.1815323359976
 30
0.0
 10
373.96808260207
 20
104.245877768271
 30
0.0
 10
373.8996512416139
 20
104.3096001464018
 30
0.0
 10
373.8308128714272
 20
104.3726948197207
 30
0.0
  0
ARC
  5
82
330
1F
100
AcDbEntity
  8
0
  6
Continuous
 62
     7
370
    25
100
AcDbCircle
 10
363.4416727618
 20
108.7426956917
 30
0.0
 40
11.53456006379121
100
AcDbArc
 50
203.2930774359
 51
336.7074733161
  0
SPLINE
  5
83
330
1F
100
AcDbEntity
  8
0
  6
Continuous
 62
     7
370
    25
100
AcDbSpline
210
0.0
220
0.0
230
1.0
 70
     8
 71
     3
 72
     8
 73
     4
 74
     0
 42
0.000000001
 43
0.00000001
 40
0.0000004028655191
 40
0.0000004028655191
 40
0.0000004028655191
 40
0.0000004028655191
 40
0.0015137684369673
 40
0.0015137684369673
 40
0.0015137684369673
 40
0.0015137684369673
 10
355.0180781046523
 20
104.4204202879012
 30
0.0
 10
354.811406617101
 20
104.3481263461864
 30
0.0
 10
354.6047876485603
 20
104.2757948602297
 30
0.0
 10
354.3982112737517
 20
104.2034329897934
 30
0.0
  0
LINE
  5
84
330
1F
100
AcDbEntity
  8
0
  6
Continuous
 62
     7
370
    25
100
AcDbLine
 10
354.3982111186
 20
104.2034331883
 30
0.0
 11
353.3105595306
 21
104.2034331883
 31
0.0
  0
LINE
  5
85
330
1F
100
AcDbEntity
  8
0
  6
Continuous
 62
     7
370
    25
100
AcDbLine
 10
353.2755874366
 20
104.6364455658
 30
0.0
 11
353.052532886
 21
104.3726950126
 31
0.0
  0
LINE
  5
86
330
1F
100
AcDbEntity
  8
0
  6
Continuous
 62
     7
370
    25
100
AcDbLine
 10
355.0431976364
 20
104.6364455658
 30
0.0
 11
353.2758025721
 21
104.6364455658
 31
0.0
  0
LINE
  5
87
330
1F
100
AcDbEntity
  8
0
  6
Continuous
 62
     7
370
    25
100
AcDbLine
 10
355.0538547606
 20
104.4788648548
 30
0.0
 11
355.0431976364
 21
104.6364455658
 31
0.0
  0
SPLINE
  5
88
330
1F
100
AcDbEntity
  8
0
  6
Continuous
 62
     7
370
    25
100
AcDbSpline
210
0.0
220
0.0
230
1.0
 70
     8
 71
     3
 72
     8
 73
     4
 74
     0
 42
0.000000001
 43
0.00000001
 40
0.0006523765358268
 40
0.0006523765358268
 40
0.0006523765358268
 40
0.0006523765358268
 40
0.0009043636494504
 40
0.0009043636494504
 40
0.0009043636494504
 40
0.0009043636494504
 10
355.0549549796871
 20
104.4806583853498
 30
0.0
 10
355.0426379851697
 20
104.4605828043676
 30
0.0
 10
355.0303457877656
 20
104.4405034158451
 30
0.0
 10
355.0180781046523
 20
104.4204202879012
 30
0.0
  0
LINE
  5
89
330
1F
100
AcDbEntity
  8
0
  6
Continuous
 62
     7
370
    25
100
AcDbLine
 10
353.465739292
 20
114.0209947887
 30
0.0
 11
353.6741478637
 21
113.7726958084
 31
0.0
  0
SPLINE
  5
8A
330
1F
100
AcDbEntity
  8
0
  6
Continuous
 62
     7
370
    25
100
AcDbSpline
210
0.0
220
0.0
230
1.0
 70
     8
 71
     3
 72
     8
 73
     4
 74
     0
 42
0.000000001
 43
0.00000001
 40
0.0
 40
0.0
 40
0.0
 40
0.0
 40
1.0
 40
1.0
 40
1.0
 40
1.0
 10
353.4657397124699
 20
114.0209949410748
 30
0.0
 10
353.5686356262938
 20
114.0829635501657
 30
0.0
 10
353.6724752958486
 20
114.1445422023063
 30
0.0
 10
353.7773131840752
 20
114.2057083935778
 30
0.0
  0
LINE
  5
8B
330
1F
100
AcDbEntity
  8
0
  6
Continuous
 62
     7
370
    25
100
AcDbLine
 10
354.9243618072
 20
114.2057081858
 30
0.0
 11
353.7773132593
 21
114.2057081858
 31
0.0
  0
SPLINE
  5
8C
330
1F
100
AcDbEntity
  8
0
  6
Continuous
 62
     7
370
    25
100
AcDbSpline
210
0.0
220
0.0
230
1.0
 70
     8
 71
     3
 72
     8
 73
     4
 74
     0
 42
0.000000001
 43
0.00000001
 40
0.0000004089325119
 40
0.0000004089325119
 40
0.0000004089325119
 40
0.0000004089325119
 40
0.0015399868451459
 40
0.0015399868451459
 40
0.0015399868451459
 40
0.0015399868451459
 10
354.9243613443654
 20
114.2057083935778
 30
0.0
 10
355.1361226031598
 20
114.1332535109243
 30
0.0
 10
355.3480429263501
 20
114.0609146408958
 30
0.0
 10
355.5601609095644
 20
113.98872109547
 30
0.0
  0
LINE
  5
8D
330
1F
100
AcDbEntity
  8
0
  6
Continuous
 62
     7
370
    25
100
AcDbLine
 10
355.5601608277
 20
113.9887212018
 30
0.0
 11
355.5683136255
 21
113.9735085132
 31
0.0
  0
LINE
  5
8E
330
1F
100
AcDbEntity
  8
0
  6
Continuous
 62
     7
370
    25
100
AcDbLine
 10
355.5659434096
 20
113.7726958084
 30
0.0
 11
355.5683145568
 21
113.9735089789
 31
0.0
  0
LINE
  5
8F
330
1F
100
AcDbEntity
  8
0
  6
Continuous
 62
     7
370
    25
100
AcDbLine
 10
355.5659434096
 20
113.7726958084
 30
0.0
 11
353.6741478637
 21
113.7726958084
 31
0.0
  0
ARC
  5
90
330
1F
100
AcDbEntity
  8
0
  6
Continuous
 62
     7
370
    25
100
AcDbCircle
 10
363.4416727618
 20
108.7426956917
 30
0.0
 40
11.10154736189899
100
AcDbArc
 50
29.4783538465
 51
150.5216461535
  0
SPLINE
  5
91
330
1F
100
AcDbEntity
  8
0
  6
Continuous
 62
     7
370
    25
100
AcDbSpline
210
0.0
220
0.0
230
1.0
 70
     8
 71
     3
 72
     8
 73
     4
 74
     0
 42
0.000000001
 43
0.00000001
 40
0.0
 40
0.0
 40
0.0
 40
0.0
 40
1.0
 40
1.0
 40
1.0
 40
1.0
 10
353.277203331356
 20
114.1951847619444
 30
0.0
 10
353.3397716397257
 20
114.1367342928368
 30
0.0
 10
353.4026182330894
 20
114.0786702823037
 30
0.0
 10
353.4657397124723
 20
114.0209949410725
 30
0.0
  0
ARC
  5
92
330
1F
100
AcDbEntity
  8
0
  6
Continuous
 62
     7
370
    25
100
AcDbCircle
 10
363.4416727618
 20
108.7426956917
 30
0.0
 40
11.53456006379119
100
AcDbArc
 50
28.2102805322
 51
151.7902347364
  0
SPLINE
  5
93
330
1F
100
AcDbEntity
  8
0
  6
Continuous
 62
     7
370
    25
100
AcDbSpline
210
0.0
220
0.0
230
1.0
 70
     8
 71
     3
 72
     8
 73
     4
 74
     0
 42
0.000000001
 43
0.00000001
 40
0.0
 40
0.0
 40
0.0
 40
0.0
 40
1.0
 40
1.0
 40
1.0
 40
1.0
 10
373.4176058111167
 20
114.0209949410728
 30
0.0
 10
373.4807272904994
 20
114.0786702823039
 30
0.0
 10
373.5435738838631
 20
114.1367342928369
 30
0.0
 10
373.6061421922326
 20
114.1951847619444
 30
0.0
  0
SPLINE
  5
94
330
1F
100
AcDbEntity
  8
0
  6
Continuous
 62
     7
370
    25
100
AcDbSpline
210
0.0
220
0.0
230
1.0
 70
     8
 71
     3
 72
     8
 73
     4
 74
     0
 42
0.000000001
 43
0.00000001
 40
0.0
 40
0.0
 40
0.0
 40
0.0
 40
1.0
 40
1.0
 40
1.0
 40
1.0
 10
373.1060323395134
 20
114.2057083935778
 30
0.0
 10
373.2108702277396
 20
114.1445422023065
 30
0.0
 10
373.3147098972941
 20
114.0829635501662
 30
0.0
 10
373.4176058111176
 20
114.0209949410755
 30
0.0
  0
LINE
  5
95
330
1F
100
AcDbEntity
  8
0
  6
Continuous
 62
     7
370
    25
100
AcDbLine
 10
373.8308126376
 20
104.3726950126
 30
0.0
 11
373.607758087
 21
104.6364455658
 31
0.0
  0
LINE
  5
96
330
1F
100
AcDbEntity
  8
0
  6
Continuous
 62
     7
370
    25
100
AcDbLine
 10
373.572785993
 20
104.2034331883
 30
0.0
 11
372.485134405
 21
104.2034331883
 31
0.0
  0
SPLINE
  5
97
330
1F
100
AcDbEntity
  8
0
  6
Continuous
 62
     7
370
    25
100
AcDbSpline
210
0.0
220
0.0
230
1.0
 70
     8
 71
     3
 72
     8
 73
     4
 74
     0
 42
0.000000001
 43
0.00000001
 40
0.0000004024872366
 40
0.0000004024872366
 40
0.0000004024872366
 40
0.0000004024872366
 40
0.0015137680586847
 40
0.0015137680586847
 40
0.0015137680586847
 40
0.0015137680586847
 10
372.4851342498369
 20
104.2034329897934
 30
0.0
 10
372.2785578750283
 20
104.2757948602297
 30
0.0
 10
372.0719389064877
 20
104.3481263461864
 30
0.0
 10
371.8652674189364
 20
104.4204202879012
 30
0.0
  0
SPLINE
  5
98
330
1F
100
AcDbEntity
  8
0
  6
Continuous
 62
     7
370
    25
100
AcDbSpline
210
0.0
220
0.0
230
1.0
 70
     8
 71
     3
 72
     8
 73
     4
 74
     0
 42
0.000000001
 43
0.00000001
 40
0.0000002414707367
 40
0.0000002414707367
 40
0.0000002414707367
 40
0.0000002414707367
 40
0.0002447240690309
 40
0.0002447240690309
 40
0.0002447240690309
 40
0.0002447240690309
 10
371.8652674189364
 20
104.4204202879012
 30
0.0
 10
371.8533650835813
 20
104.4399053138477
 30
0.0
 10
371.8414396723695
 20
104.4593868196721
 30
0.0
 10
371.8294909270746
 20
104.4788647431839
 30
0.0
  0
LINE
  5
99
330
1F
100
AcDbEntity
  8
0
  6
Continuous
 62
     7
370
    25
100
AcDbLine
 10
371.8401478872
 20
104.6364455658
 30
0.0
 11
371.829490763
 21
104.4788648548
 31
0.0
  0
LINE
  5
9A
330
1F
100
AcDbEntity
  8
0
  6
Continuous
 62
     7
370
    25
100
AcDbLine
 10
373.607758087
 20
104.6364455658
 30
0.0
 11
371.8350395829
 21
104.6364455658
 31
0.0
  0
SPLINE
  5
9B
330
1F
100
AcDbEntity
  8
0
  6
Continuous
 62
     7
370
    25
100
AcDbSpline
210
0.0
220
0.0
230
1.0
 70
     8
 71
     3
 72
     8
 73
     4
 74
     0
 42
0.000000001
 43
0.00000001
 40
0.000000410413179
 40
0.000000410413179
 40
0.000000410413179
 40
0.000000410413179
 40
0.0015399883258131
 40
0.0015399883258131
 40
0.0015399883258131
 40
0.0015399883258131
 10
371.3231846140242
 20
113.98872109547
 30
0.0
 10
371.5353025972386
 20
114.0609146408958
 30
0.0
 10
371.7472229204287
 20
114.1332535109243
 30
0.0
 10
371.9589841792232
 20
114.2057083935778
 30
0.0
  0
LINE
  5
9C
330
1F
100
AcDbEntity
  8
0
  6
Continuous
 62
     7
370
    25
100
AcDbLine
 10
373.1060322643
 20
114.2057081858
 30
0.0
 11
371.9589837164
 21
114.2057081858
 31
0.0
  0
LINE
  5
9D
330
1F
100
AcDbEntity
  8
0
  6
Continuous
 62
     7
370
    25
100
AcDbLine
 10
373.2091976598
 20
113.7726958084
 30
0.0
 11
373.4176062316
 21
114.0209947887
 31
0.0
  0
LINE
  5
9E
330
1F
100
AcDbEntity
  8
0
  6
Continuous
 62
     7
370
    25
100
AcDbLine
 10
373.20900767
 20
113.7726958084
 30
0.0
 11
371.317402114
 21
113.7726958084
 31
0.0
  0
LINE
  5
9F
330
1F
100
AcDbEntity
  8
0
  6
Continuous
 62
     7
370
    25
100
AcDbLine
 10
371.3150309668
 20
113.9735085132
 30
0.0
 11
371.317402114
 21
113.7726958084
 31
0.0
  0
LINE
  5
A0
330
1F
100
AcDbEntity
  8
0
  6
Continuous
 62
     7
370
    25
100
AcDbLine
 10
371.3150318981
 20
113.9735085132
 30
0.0
 11
371.3231846959
 21
113.9887212018
 31
0.0
  0
ARC
  5
A1
330
1F
100
AcDbEntity
  8
0
  6
Continuous
 62
     7
370
    25
100
AcDbCircle
 10
363.4416727618
 20
108.7426956917
 30
0.0
 40
10.11875
100
AcDbArc
 50
206.6538426687
 51
333.3461573313
  0
ARC
  5
A2
330
1F
100
AcDbEntity
  8
0
  6
Continuous
 62
     7
370
    25
100
AcDbCircle
 10
363.4416727618
 20
108.7426956917
 30
0.0
 40
10.11875000000003
100
AcDbArc
 50
32.6761561262
 51
147.3238438738
  0
ARC
  5
A3
330
1F
100
AcDbEntity
  8
0
  6
Continuous
 62
     7
370
    25
100
AcDbCircle
 10
363.4416727618
 20
108.7426956917
 30
0.0
 40
9.467788105676684
100
AcDbArc
 50
33.6481949792
 51
146.3518050208
  0
ARC
  5
A4
330
1F
100
AcDbEntity
  8
0
  6
Continuous
 62
     7
370
    25
100
AcDbCircle
 10
363.4416727618
 20
108.7426956917
 30
0.0
 40
9.467788105676709
100
AcDbArc
 50
207.1630537883
 51
332.8369462117
  0
SPLINE
  5
A5
330
1F
100
AcDbEntity
  8
0
  6
Continuous
 62
     7
370
    25
100
AcDbSpline
210
0.0
220
0.0
230
1.0
 70
     8
 71
     3
 72
     8
 73
     4
 74
     0
 42
0.000000001
 43
0.00000001
 40
0.0
 40
0.0
 40
0.0
 40
0.0
 40
1.0
 40
1.0
 40
1.0
 40
1.0
 10
352.8472466466638
 20
104.1815323361089
 30
0.0
 10
352.7940038217222
 20
104.1820560623467
 30
0.0
 10
352.7407085361065
 20
104.1828541556091
 30
0.0
 10
352.6873630306171
 20
104.1839272035339
 30
0.0
  0
LINE
  5
A6
330
1F
100
AcDbEntity
  8
0
  6
Continuous
 62
     7
370
    25
100
AcDbLine
 10
353.1154502452
 20
104.6364455658
 30
0.0
 11
353.2755874366
 21
104.6364455658
 31
0.0
  0
LINE
  5
A7
330
1F
100
AcDbEntity
  8
0
  6
Continuous
 62
     7
370
    25
100
AcDbLine
 10
373.607758087
 20
104.6364455658
 30
0.0
 11
373.7678952784
 21
104.6364455658
 31
0.0
  0
SPLINE
  5
A8
330
1F
100
AcDbEntity
  8
0
  6
Continuous
 62
     7
370
    25
100
AcDbSpline
210
0.0
220
0.0
230
1.0
 70
     8
 71
     3
 72
     8
 73
     4
 74
     0
 42
0.000000001
 43
0.00000001
 40
0.0
 40
0.0
 40
0.0
 40
0.0
 40
1.0
 40
1.0
 40
1.0
 40
1.0
 10
374.1959824929716
 20
104.1839272035339
 30
0.0
 10
374.1426369874821
 20
104.1828541556091
 30
0.0
 10
374.0893417018664
 20
104.1820560623467
 30
0.0
 10
374.0360988769247
 20
104.1815323361089
 30
0.0
  0
LINE
  5
A9
330
1F
100
AcDbEntity
  8
0
  6
Continuous
 62
     7
370
    25
100
AcDbLine
 10
353.6741478637
 20
113.7726958084
 30
0.0
 11
353.5507308588
 21
113.7726958084
 31
0.0
  0
SPLINE
  5
AA
330
1F
100
AcDbEntity
  8
0
  6
Continuous
 62
     7
370
    25
100
AcDbSpline
210
0.0
220
0.0
230
1.0
 70
     8
 71
     3
 72
     8
 73
     4
 74
     0
 42
0.000000001
 43
0.00000001
 40
0.0
 40
0.0
 40
0.0
 40
0.0
 40
1.0
 40
1.0
 40
1.0
 40
1.0
 10
353.1539818371145
 20
114.1931412086219
 30
0.0
 10
353.1950972641564
 20
114.1940101462619
 30
0.0
 10
353.2361715587675
 20
114.1946911838448
 30
0.0
 10
353.2772033312565
 20
114.1951847619062
 30
0.0
  0
SPLINE
  5
AB
330
1F
100
AcDbEntity
  8
0
  6
Continuous
 62
     7
370
    25
100
AcDbSpline
210
0.0
220
0.0
230
1.0
 70
     8
 71
     3
 72
     8
 73
     4
 74
     0
 42
0.000000001
 43
0.00000001
 40
0.0
 40
0.0
 40
0.0
 40
0.0
 40
1.0
 40
1.0
 40
1.0
 40
1.0
 10
373.6061421923321
 20
114.1951847619063
 30
0.0
 10
373.6471739648211
 20
114.1946911838448
 30
0.0
 10
373.6882482594322
 20
114.1940101462619
 30
0.0
 10
373.729363686474
 20
114.193141208622
 30
0.0
  0
LINE
  5
AC
330
1F
100
AcDbEntity
  8
0
  6
Continuous
 62
     7
370
    25
100
AcDbLine
 10
373.3326146648
 20
113.7726958084
 30
0.0
 11
373.2091976598
 21
113.7726958084
 31
0.0
  0
SPLINE
  5
AD
330
1F
100
AcDbEntity
  8
0
  6
Continuous
 62
     7
370
    25
100
AcDbSpline
210
0.0
220
0.0
230
1.0
 70
     8
 71
     3
 72
     9
 73
     5
 74
     0
 42
0.000000001
 43
0.00000001
 40
0.0
 40
0.0
 40
0.0
 40
0.0
 40
0.5102121239851395
 40
0.9999999999999999
 40
0.9999999999999999
 40
0.9999999999999999
 40
0.9999999999999999
 10
355.5683138934795
 20
113.9735089500115
 30
0.0
 10
355.6978541113303
 20
113.9722639913207
 30
0.0
 10
355.9517489361712
 20
113.9698239107496
 30
0.0
 10
356.2097282091809
 20
113.9671314650565
 30
0.0
 10
356.3360833293642
 20
113.9658127377991
 30
0.0
  0
SPLINE
  5
AE
330
1F
100
AcDbEntity
  8
0
  6
Continuous
 62
     7
370
    25
100
AcDbSpline
210
0.0
220
0.0
230
1.0
 70
     8
 71
     3
 72
     8
 73
     4
 74
     0
 42
0.000000001
 43
0.00000001
 40
0.0
 40
0.0
 40
0.0
 40
0.0
 40
1.0
 40
1.0
 40
1.0
 40
1.0
 10
356.3360830756896
 20
113.9658122685219
 30
0.0
 10
356.3283220177441
 20
113.9552540333228
 30
0.0
 10
356.3205844926483
 20
113.9446784997965
 30
0.0
 10
356.3128705772788
 20
113.9340857730171
 30
0.0
  0
SPLINE
  5
AF
330
1F
100
AcDbEntity
  8
0
  6
Continuous
 62
     7
370
    25
100
AcDbSpline
210
0.0
220
0.0
230
1.0
 70
     8
 71
     3
 72
     8
 73
     4
 74
     0
 42
0.000000001
 43
0.00000001
 40
0.0
 40
0.0
 40
0.0
 40
0.0
 40
1.0
 40
1.0
 40
1.0
 40
1.0
 10
356.1413127445157
 20
113.7726960305539
 30
0.0
 10
356.1985731515502
 20
113.8266042075416
 30
0.0
 10
356.2557595426599
 20
113.8804011326247
 30
0.0
 10
356.3128705772788
 20
113.9340857730171
 30
0.0
  0
LINE
  5
B0
330
1F
100
AcDbEntity
  8
0
  6
Continuous
 62
     7
370
    25
100
AcDbLine
 10
356.1413135648
 20
113.7726958084
 30
0.0
 11
355.5659434096
 21
113.7726958084
 31
0.0
  0
SPLINE
  5
B1
330
1F
100
AcDbEntity
  8
0
  6
Continuous
 62
     7
370
    25
100
AcDbSpline
210
0.0
220
0.0
230
1.0
 70
     8
 71
     3
 72
     9
 73
     5
 74
     0
 42
0.000000001
 43
0.00000001
 40
0.0
 40
0.0
 40
0.0
 40
0.0
 40
0.4897878789203994
 40
0.9999999999999999
 40
0.9999999999999999
 40
0.9999999999999999
 40
0.9999999999999999
 10
370.5472623264458
 20
113.9658125579233
 30
0.0
 10
370.6736174086669
 20
113.9671312836766
 30
0.0
 10
370.9315966026392
 20
113.9698237262829
 30
0.0
 10
371.1854913509285
 20
113.9722638041189
 30
0.0
 10
371.3150315289843
 20
113.9735087614072
 30
0.0
  0
ARC
  5
B2
330
1F
100
AcDbEntity
  8
0
  6
Continuous
 62
     7
370
    25
100
AcDbCircle
 10
363.4416727618
 20
108.7426956917
 30
0.0
 40
8.818750000000001
100
AcDbArc
 50
36.3185452201
 51
143.6814533294
  0
SPLINE
  5
B3
330
1F
100
AcDbEntity
  8
0
  6
Continuous
 62
     7
370
    25
100
AcDbSpline
210
0.0
220
0.0
230
1.0
 70
     8
 71
     3
 72
     8
 73
     4
 74
     0
 42
0.000000001
 43
0.00000001
 40
0.0
 40
0.0
 40
0.0
 40
0.0
 40
1.0
 40
1.0
 40
1.0
 40
1.0
 10
370.5705903780909
 20
113.9339272587182
 30
0.0
 10
370.5628382653903
 20
113.9445729353908
 30
0.0
 10
370.555062306723
 20
113.955201247585
 30
0.0
 10
370.5472625801196
 20
113.9658120886474
 30
0.0
  0
LINE
  5
B4
330
1F
100
AcDbEntity
  8
0
  6
Continuous
 62
     7
370
    25
100
AcDbLine
 10
371.317402114
 20
113.7726958084
 30
0.0
 11
370.7420035534
 21
113.7726958084
 31
0.0
  0
SPLINE
  5
B5
330
1F
100
AcDbEntity
  8
0
  6
Continuous
 62
     7
370
    25
100
AcDbSpline
210
0.0
220
0.0
230
1.0
 70
     8
 71
     3
 72
     8
 73
     4
 74
     0
 42
0.000000001
 43
0.00000001
 40
0.0
 40
0.0
 40
0.0
 40
0.0
 40
1.0
 40
1.0
 40
1.0
 40
1.0
 10
370.5705903780909
 20
113.9339272587182
 30
0.0
 10
370.627653505777
 20
113.8802953083024
 30
0.0
 10
370.6847918855073
 20
113.8265512219375
 30
0.0
 10
370.7420041789811
 20
113.7726960306873
 30
0.0
  0
ARC
  5
B6
330
1F
100
AcDbEntity
  8
0
  6
Continuous
 62
     7
370
    25
100
AcDbCircle
 10
363.4416727618
 20
108.7426956917
 30
0.0
 40
8.818750000000044
100
AcDbArc
 50
209.2047569376
 51
330.7952430624
  0
SPLINE
  5
B7
330
1F
100
AcDbEntity
  8
0
  6
Continuous
 62
     7
370
    25
100
AcDbSpline
210
0.0
220
0.0
230
1.0
 70
    24
 71
     3
 72
     8
 73
     4
 74
     0
 42
0.000000001
 43
0.00000001
 40
0.0
 40
0.0
 40
0.0
 40
0.0
 40
0.000136040218399
 40
0.000136040218399
 40
0.000136040218399
 40
0.000136040218399
 10
371.1828081586386
 20
104.4831552608344
 30
0.0
 10
371.1683691589545
 20
104.4687162611503
 30
0.0
 10
371.1538987065923
 20
104.4542458087881
 30
0.0
 10
371.1393971080408
 20
104.4397442102366
 30
0.0
  0
SPLINE
  5
B8
330
1F
100
AcDbEntity
  8
0
  6
Continuous
 62
     7
370
    25
100
AcDbSpline
210
0.0
220
0.0
230
1.0
 70
     8
 71
     3
 72
     9
 73
     5
 74
     0
 42
0.000000001
 43
0.00000001
 40
0.0
 40
0.0
 40
0.0
 40
0.0
 40
0.5086448740973026
 40
1.0
 40
1.0
 40
1.0
 40
1.0
 10
371.8294908873949
 20
104.4788646550493
 30
0.0
 10
371.720324838397
 20
104.4795585038943
 30
0.0
 10
371.5057034894813
 20
104.4809226164222
 30
0.0
 10
371.2891921768039
 20
104.48241943636
 30
0.0
 10
371.1828082335039
 20
104.4831549065091
 30
0.0
  0
SPLINE
  5
B9
330
1F
100
AcDbEntity
  8
0
  6
Continuous
 62
     7
370
    25
100
AcDbSpline
210
0.0
220
0.0
230
1.0
 70
     8
 71
     3
 72
     9
 73
     5
 74
     0
 42
0.000000001
 43
0.00000001
 40
0.0
 40
0.0
 40
0.0
 40
0.0
 40
0.4913551252639924
 40
1.0
 40
1.0
 40
1.0
 40
1.0
 10
355.7005373205491
 20
104.4831548760445
 30
0.0
 10
355.5941533691571
 20
104.4824194057156
 30
0.0
 10
355.3776420397294
 20
104.4809225854099
 30
0.0
 10
355.1630206743627
 20
104.4795584725556
 30
0.0
 10
355.05385461686
 20
104.4788646235437
 30
0.0
  0
SPLINE
  5
BA
330
1F
100
AcDbEntity
  8
0
  6
Continuous
 62
     7
370
    25
100
AcDbSpline
210
0.0
220
0.0
230
1.0
 70
    24
 71
     3
 72
     8
 73
     4
 74
     0
 42
0.000000001
 43
0.00000001
 40
0.0
 40
0.0
 40
0.0
 40
0.0
 40
0.0001360401227241
 40
0.0001360401227241
 40
0.0001360401227241
 40
0.0001360401227241
 10
355.7439484155478
 20
104.4397442102366
 30
0.0
 10
355.7294468271951
 20
104.4542457985893
 30
0.0
 10
355.7149763849879
 20
104.4687162407966
 30
0.0
 10
355.7005373954145
 20
104.4831552303699
 30
0.0
  0
LINE
  5
BB
330
1F
100
AcDbEntity
  8
0
  6
Continuous
 62
     7
370
    25
100
AcDbLine
 10
355.0431976364
 20
104.6364455658
 30
0.0
 11
355.5472471089
 21
104.6364455658
 31
0.0
  0
SPLINE
  5
BC
330
1F
100
AcDbEntity
  8
0
  6
Continuous
 62
     7
370
    25
100
AcDbSpline
210
0.0
220
0.0
230
1.0
 70
     8
 71
     3
 72
     8
 73
     4
 74
     0
 42
0.000000001
 43
0.00000001
 40
0.0
 40
0.0
 40
0.0
 40
0.0
 40
1.0
 40
1.0
 40
1.0
 40
1.0
 10
355.7005375952464
 20
104.4831550307828
 30
0.0
 10
355.649468832642
 20
104.5341975225269
 30
0.0
 10
355.5983718730061
 20
104.5852944945528
 30
0.0
 10
355.5472470314904
 20
104.636445594294
 30
0.0
  0
SPLINE
  5
BD
330
1F
100
AcDbEntity
  8
0
  6
Continuous
 62
     7
370
    25
100
AcDbSpline
210
0.0
220
0.0
230
1.0
 70
     8
 71
     3
 72
     8
 73
     4
 74
     0
 42
0.000000001
 43
0.00000001
 40
0.0
 40
0.0
 40
0.0
 40
0.0
 40
1.0
 40
1.0
 40
1.0
 40
1.0
 10
371.3360984920982
 20
104.6364455942941
 30
0.0
 10
371.2849736607531
 20
104.5852945047388
 30
0.0
 10
371.233876711272
 20
104.5341975428678
 30
0.0
 10
371.1828079588067
 20
104.4831550612473
 30
0.0
  0
LINE
  5
BE
330
1F
100
AcDbEntity
  8
0
  6
Continuous
 62
     7
370
    25
100
AcDbLine
 10
371.3360984147
 20
104.6364455658
 30
0.0
 11
371.8401478872
 21
104.6364455658
 31
0.0
  0
CIRCLE
  5
BF
330
1F
100
AcDbEntity
  8
0
  6
Continuous
 62
     7
370
    25
100
AcDbCircle
 10
363.4416727618
 20
108.7426956917
 30
0.0
 40
12.47086902276419
  0
SPLINE
  5
C0
330
1F
100
AcDbEntity
  8
0
  6
Continuous
 62
     7
370
    25
100
AcDbSpline
210
0.0
220
0.0
230
1.0
 70
     8
 71
     3
 72
    23
 73
    19
 74
     0
 42
0.000000001
 43
0.00000001
 40
0.0
 40
0.0
 40
0.0
 40
0.0
 40
0.0521036415680443
 40
0.103564624093566
 40
0.1544751946749824
 40
0.2049306267488185
 40
0.2550287880859467
 40
0.3048696389155856
 40
0.3545546704622095
 40
0.4041862979533031
 40
0.4538672252131345
 40
0.503699799942109
 40
0.5901870230745642
 40
0.6742716378229198
 40
0.7565997087222741
 40
0.8378563983721098
 40
0.9187511781367312
 40
1.0
 40
1.0
 40
1.0
 40
1.0
 10
352.6024206151368
 20
113.2331064044355
 30
0.0
 10
352.6157149700866
 20
113.2622742975972
 30
0.0
 10
352.6421397041649
 20
113.3202503200016
 30
0.0
 10
352.6813507103891
 20
113.403149621014
 30
0.0
 10
352.719792665195
 20
113.4823316020319
 30
0.0
 10
352.7573802466617
 20
113.5575864188341
 30
0.0
 10
352.7940361329693
 20
113.6290060730919
 30
0.0
 10
352.829685997028
 20
113.6966026818734
 30
0.0
 10
352.8642597437891
 20
113.7604090033377
 30
0.0
 10
352.8976914377449
 20
113.8204525454066
 30
0.0
 10
352.9299183149695
 20
113.8767592421327
 30
0.0
 10
352.968419751859
 20
113.9421642239561
 30
0.0
 10
353.0110812325723
 20
114.011725301792
 30
0.0
 10
353.0545742746953
 20
114.0784847984565
 30
0.0
 10
353.0909867715233
 20
114.1302088465543
 30
0.0
 10
353.1198875780005
 20
114.1666571586061
 30
0.0
 10
353.1418050340988
 20
114.1892545554893
 30
0.0
 10
353.1499169985921
 20
114.1918437730507
 30
0.0
 10
353.1539818371145
 20
114.193141208622
 30
0.0
  0
SPLINE
  5
C1
330
1F
100
AcDbEntity
  8
0
  6
Continuous
 62
     7
370
    25
100
AcDbSpline
210
0.0
220
0.0
230
1.0
 70
     8
 71
     3
 72
     8
 73
     4
 74
     0
 42
0.000000001
 43
0.00000001
 40
0.0
 40
0.0
 40
0.0
 40
0.0
 40
1.0
 40
1.0
 40
1.0
 40
1.0
 10
352.4817826752737
 20
113.2308960470256
 30
0.0
 10
352.5219716888669
 20
113.2316263572432
 30
0.0
 10
352.5621339909569
 20
113.2322068830727
 30
0.0
 10
352.6022687014326
 20
113.2326378480224
 30
0.0
  0
SPLINE
  5
C2
330
1F
100
AcDbEntity
  8
0
  6
Continuous
 62
     7
370
    25
100
AcDbSpline
210
0.0
220
0.0
230
1.0
 70
     8
 71
     3
 72
    18
 73
    14
 74
     0
 42
0.000000001
 43
0.00000001
 40
0.0
 40
0.0
 40
0.0
 40
0.0
 40
0.0923824559454013
 40
0.1844689291647927
 40
0.2764953616046289
 40
0.368697536560166
 40
0.4613092840112267
 40
0.5545607518542827
 40
0.648676805161927
 40
0.7438756050201499
 40
0.8403674044321215
 40
0.9203921078133473
 40
1.0
 40
1.0
 40
1.0
 40
1.0
 10
352.5347216640735
 20
113.4977130539075
 30
0.0
 10
352.5365573177262
 20
113.4975047416923
 30
0.0
 10
352.5402227438093
 20
113.4970887846702
 30
0.0
 10
352.5430180734288
 20
113.4902843612041
 30
0.0
 10
352.5438203685074
 20
113.478950982552
 30
0.0
 10
352.5424542314643
 20
113.4626505875255
 30
0.0
 10
352.5389926828354
 20
113.4414993486896
 30
0.0
 10
352.5334513770659
 20
113.4154636475731
 30
0.0
 10
352.5258669089969
 20
113.3845392679219
 30
0.0
 10
352.5162899070598
 20
113.3487402364772
 30
0.0
 10
352.5054494310407
 20
113.3104893289455
 30
0.0
 10
352.4939607901013
 20
113.2712711155505
 30
0.0
 10
352.4858608052231
 20
113.244416138701
 30
0.0
 10
352.4818213875805
 20
113.2310237103307
 30
0.0
  0
LINE
  5
C3
330
1F
100
AcDbEntity
  8
0
  6
Continuous
 62
     7
370
    25
100
AcDbLine
 10
352.4819664926
 20
113.4969651873
 30
0.0
 11
352.5347212598
 21
113.4977130393
 31
0.0
  0
SPLINE
  5
C4
330
1F
100
AcDbEntity
  8
0
  6
Continuous
 62
     7
370
    25
100
AcDbSpline
210
0.0
220
0.0
230
1.0
 70
     8
 71
     3
 72
    25
 73
    21
 74
     0
 42
0.000000001
 43
0.00000001
 40
0.0
 40
0.0
 40
0.0
 40
0.0
 40
0.0280105225429284
 40
0.0559601148865716
 40
0.0839014045049481
 40
0.1118870776793418
 40
0.139969582759596
 40
0.1682008401746174
 40
0.1966319670429139
 40
0.2253130233144346
 40
0.2542927850736023
 40
0.3799486436577953
 40
0.5057850221666315
 40
0.6313085886301525
 40
0.7532068238011418
 40
0.8039473267944002
 40
0.8535894438536894
 40
0.9025339722376491
 40
0.9511970353779324
 40
1.0
 40
1.0
 40
1.0
 40
1.0
 10
351.5710048970207
 20
110.9300334342199
 30
0.0
 10
351.5779839669316
 20
110.967343447727
 30
0.0
 10
351.5919269254546
 20
111.0418823157213
 30
0.0
 10
351.6144488228976
 20
111.1531913612054
 30
0.0
 10
351.6380824349953
 20
111.2638535702204
 30
0.0
 10
351.6629320254834
 20
111.373837703165
 30
0.0
 10
351.6889506499697
 20
111.4831328467795
 30
0.0
 10
351.7161320312876
 20
111.5917238159814
 30
0.0
 10
351.7444576726199
 20
111.6995945259232
 30
0.0
 10
351.7739164534523
 20
111.8067394716473
 30
0.0
 10
351.8383247413639
 20
112.0309143581572
 30
0.0
 10
351.9434264334353
 20
112.3575797721917
 30
0.0
 10
352.0888891942305
 20
112.7435263775101
 30
0.0
 10
352.2281526023406
 20
113.0656061902013
 30
0.0
 10
352.3253009552077
 20
113.2614267742322
 30
0.0
 10
352.3855963614357
 20
113.3707742247197
 30
0.0
 10
352.4204849443168
 20
113.4287022491349
 30
0.0
 10
352.4483794462446
 20
113.4691562018998
 30
0.0
 10
352.4697445386163
 20
113.4937704172987
 30
0.0
 10
352.4778884861891
 20
113.4958993448062
 30
0.0
 10
352.4819663048343
 20
113.4969653364776
 30
0.0
  0
ARC
  5
C5
330
1F
100
AcDbEntity
  8
0
  6
Continuous
 62
     7
370
    25
100
AcDbCircle
 10
363.4416727618
 20
108.7426956917
 30
0.0
 40
12.07050959801136
100
AcDbArc
 50
169.5595567507
 51
190.4404432494
  0
SPLINE
  5
C6
330
1F
100
AcDbEntity
  8
0
  6
Continuous
 62
     7
370
    25
100
AcDbSpline
210
0.0
220
0.0
230
1.0
 70
     8
 71
     3
 72
    26
 73
    22
 74
     0
 42
0.000000001
 43
0.00000001
 40
0.0
 40
0.0
 40
0.0
 40
0.0
 40
0.0241259796961556
 40
0.0482159912269293
 40
0.0723203915119221
 40
0.0964895678705268
 40
0.1207736231957763
 40
0.1452220711237314
 40
0.1698835501652852
 40
0.1948055644468628
 40
0.220034256951538
 40
0.2456142191611052
 40
0.3690971486895253
 40
0.4940698769485128
 40
0.6192566784762408
 40
0.7454656653603202
 40
0.7971495824713681
 40
0.848171030840538
 40
0.8988013269235222
 40
0.9493179290492182
 40
1.0
 40
1.0
 40
1.0
 40
1.0
 10
352.4819663048343
 20
103.9884260468936
 30
0.0
 10
352.4800559900938
 20
103.988712940083
 30
0.0
 10
352.4762382086017
 20
103.9892862987477
 30
0.0
 10
352.4682780834208
 20
103.9953449869942
 30
0.0
 10
352.4586989828454
 20
104.005224247725
 30
0.0
 10
352.4473517759767
 20
104.0193053388354
 30
0.0
 10
352.4342955926828
 20
104.0375008868596
 30
0.0
 10
352.4195396894555
 20
104.0598514295983
 30
0.0
 10
352.4031125091581
 20
104.0863656652903
 30
0.0
 10
352.3850443544379
 20
104.1170611760036
 30
0.0
 10
352.3653672080148
 20
104.1519622792435
 30
0.0
 10
352.3171678265869
 20
104.2407268143504
 30
0.0
 10
352.2288497871515
 20
104.4180071157991
 30
0.0
 10
352.0897901703846
 20
104.7390930226446
 30
0.0
 10
351.9441174905222
 20
105.1256756745356
 30
0.0
 10
351.8303788955127
 20
105.4793833786656
 30
0.0
 10
351.7506732769662
 20
105.7616370782783
 30
0.0
 10
351.7000237046119
 20
105.9560805090527
 30
0.0
 10
351.6530570347466
 20
106.1533218859868
 30
0.0
 10
351.6094972127422
 20
106.3532249310819
 30
0.0
 10
351.5838496476106
 20
106.4879068708141
 30
0.0
 10
351.5710048970207
 20
106.5553579491513
 30
0.0
  0
LINE
  5
C7
330
1F
100
AcDbEntity
  8
0
  6
Continuous
 62
     7
370
    25
100
AcDbLine
 10
352.5347212598
 20
103.9876783441
 30
0.0
 11
352.4819664926
 21
103.9884261961
 31
0.0
  0
SPLINE
  5
C8
330
1F
100
AcDbEntity
  8
0
  6
Continuous
 62
     7
370
    25
100
AcDbSpline
210
0.0
220
0.0
230
1.0
 70
     8
 71
     3
 72
    14
 73
    10
 74
     0
 42
0.000000001
 43
0.00000001
 40
0.0
 40
0.0
 40
0.0
 40
0.0
 40
0.0789261963157259
 40
0.1582328720528836
 40
0.330847539454808
 40
0.5000195457586954
 40
0.6670357883553091
 40
0.833239519364563
 40
1.0
 40
1.0
 40
1.0
 40
1.0
 10
352.4817248072217
 20
104.2547018067682
 30
0.0
 10
352.4857393538176
 20
104.2413986821309
 30
0.0
 10
352.4937877999295
 20
104.214728302499
 30
0.0
 10
352.508688506739
 20
104.1639135631794
 30
0.0
 10
352.5245854883357
 20
104.1068737469921
 30
0.0
 10
352.5376639833336
 20
104.0525705302639
 30
0.0
 10
352.5438965904509
 20
104.0144033875409
 30
0.0
 10
352.543707010614
 20
103.9909946588639
 30
0.0
 10
352.5377201164832
 20
103.9887850041853
 30
0.0
 10
352.5347216640735
 20
103.9876783294637
 30
0.0
  0
SPLINE
  5
C9
330
1F
100
AcDbEntity
  8
0
  6
Continuous
 62
     7
370
    25
100
AcDbSpline
210
0.0
220
0.0
230
1.0
 70
     8
 71
     3
 72
     8
 73
     4
 74
     0
 42
0.000000001
 43
0.00000001
 40
0.0
 40
0.0
 40
0.0
 40
0.0
 40
1.0
 40
1.0
 40
1.0
 40
1.0
 10
352.6290294984461
 20
104.2526407283179
 30
0.0
 10
352.5799615834173
 20
104.2531277815298
 30
0.0
 10
352.5308521458966
 20
104.2538388494047
 30
0.0
 10
352.4817028013712
 20
104.254774342639
 30
0.0
  0
SPLINE
  5
CA
330
1F
100
AcDbEntity
  8
0
  6
Continuous
 62
     7
370
    25
100
AcDbSpline
210
0.0
220
0.0
230
1.0
 70
     8
 71
     3
 72
    13
 73
     9
 74
     0
 42
0.000000001
 43
0.00000001
 40
0.0
 40
0.0
 40
0.0
 40
0.0
 40
0.1667030582308063
 40
0.3329480818053115
 40
0.4990671507274935
 40
0.6653938523718516
 40
0.8322612710550141
 40
1.0
 40
1.0
 40
1.0
 40
1.0
 10
352.6873630306171
 20
104.1839272035339
 30
0.0
 10
352.6855197167802
 20
104.1843443132997
 30
0.0
 10
352.6818381538102
 20
104.1851773867771
 30
0.0
 10
352.6743209000157
 20
104.1911918656035
 30
0.0
 10
352.6653700958993
 20
104.2006865978957
 30
0.0
 10
352.6548198074763
 20
104.2140962050053
 30
0.0
 10
352.6428466219592
 20
104.2310141086289
 30
0.0
 10
352.6336402143529
 20
104.2454268437684
 30
0.0
 10
352.629025023864
 20
104.2526519766299
 30
0.0
  0
SPLINE
  5
CB
330
1F
100
AcDbEntity
  8
0
  6
Continuous
 62
     7
370
    25
100
AcDbSpline
210
0.0
220
0.0
230
1.0
 70
     8
 71
     3
 72
    13
 73
     9
 74
     0
 42
0.000000001
 43
0.00000001
 40
0.0
 40
0.0
 40
0.0
 40
0.0
 40
0.1686319999748089
 40
0.3360343310905561
 40
0.5025367825908729
 40
0.6684737453788404
 40
0.8341822636915154
 40
1.0
 40
1.0
 40
1.0
 40
1.0
 10
374.2543218808426
 20
104.2526554264427
 30
0.0
 10
374.2496846357444
 20
104.2453982664233
 30
0.0
 10
374.240443960458
 20
104.230936865781
 30
0.0
 10
374.2284285870909
 20
104.2139561690769
 30
0.0
 10
374.2178630333363
 20
104.2005233878974
 30
0.0
 10
374.2089236840433
 20
104.1910439193434
 30
0.0
 10
374.2014428034548
 20
104.1850786936456
 30
0.0
 10
374.1978029961654
 20
104.1843111178612
 30
0.0
 10
374.1959824929716
 20
104.1839272035339
 30
0.0
  0
SPLINE
  5
CC
330
1F
100
AcDbEntity
  8
0
  6
Continuous
 62
     7
370
    25
100
AcDbSpline
210
0.0
220
0.0
230
1.0
 70
     8
 71
     3
 72
     8
 73
     4
 74
     0
 42
0.000000001
 43
0.00000001
 40
0.0
 40
0.0
 40
0.0
 40
0.0
 40
1.0
 40
1.0
 40
1.0
 40
1.0
 10
374.4016474928152
 20
104.2547744473855
 30
0.0
 10
374.3524965632068
 20
104.2538389171235
 30
0.0
 10
374.3033855431275
 20
104.2531278266114
 30
0.0
 10
374.2543160482197
 20
104.2526407651134
 30
0.0
  0
SPLINE
  5
CD
330
1F
100
AcDbEntity
  8
0
  6
Continuous
 62
     7
370
    25
100
AcDbSpline
210
0.0
220
0.0
230
1.0
 70
     8
 71
     3
 72
    18
 73
    14
 74
     0
 42
0.000000001
 43
0.00000001
 40
0.0
 40
0.0
 40
0.0
 40
0.0
 40
0.0923325137124559
 40
0.1843692047086504
 40
0.2763458873841173
 40
0.3684982175689556
 40
0.4610598988338003
 40
0.5542609546564705
 40
0.6483261285468145
 40
0.7434734636522684
 40
0.839913099312583
 40
0.920166071830381
 40
1.0
 40
1.0
 40
1.0
 40
1.0
 10
374.3486238595151
 20
103.9876783294637
 30
0.0
 10
374.3467882058627
 20
103.9878866416795
 30
0.0
 10
374.3431227797801
 20
103.9883025987028
 30
0.0
 10
374.3403274501576
 20
103.99510702216
 30
0.0
 10
374.3395251550908
 20
104.0064404008459
 30
0.0
 10
374.34089129209
 20
104.0227407957462
 30
0.0
 10
374.3443528408841
 20
104.0438920350563
 30
0.0
 10
374.3498941460305
 20
104.0699277343839
 30
0.0
 10
374.3574786164578
 20
104.1008521208066
 30
0.0
 10
374.3670556094383
 20
104.1366511265347
 30
0.0
 10
374.3779069564642
 20
104.1749403716486
 30
0.0
 10
374.3894217180963
 20
104.2142459960653
 30
0.0
 10
374.3975534269174
 20
104.241203073959
 30
0.0
 10
374.4016086385251
 20
104.2546463314085
 30
0.0
  0
LINE
  5
CE
330
1F
100
AcDbEntity
  8
0
  6
Continuous
 62
     7
370
    25
100
AcDbLine
 10
374.401379031
 20
103.9884261961
 30
0.0
 11
374.3486242638
 21
103.9876783441
 31
0.0
  0
SPLINE
  5
CF
330
1F
100
AcDbEntity
  8
0
  6
Continuous
 62
     7
370
    25
100
AcDbSpline
210
0.0
220
0.0
230
1.0
 70
     8
 71
     3
 72
    25
 73
    21
 74
     0
 42
0.000000001
 43
0.00000001
 40
0.0
 40
0.0
 40
0.0
 40
0.0
 40
0.0280105225422327
 40
0.0559601148853515
 40
0.0839014045033802
 40
0.1118870776776037
 40
0.1399695827578598
 40
0.168200840173054
 40
0.1966319670416873
 40
0.2253130233137065
 40
0.2542927850735304
 40
0.3799486436555246
 40
0.5057850221666196
 40
0.6313085886311499
 40
0.7532068238012074
 40
0.8039473267951883
 40
0.8535894438548528
 40
0.9025339722388155
 40
0.9511970353787135
 40
1.0
 40
1.0
 40
1.0
 40
1.0
 10
375.312340626568
 20
106.5553579491513
 30
0.0
 10
375.3053615566571
 20
106.5180479356451
 30
0.0
 10
375.2914185981346
 20
106.4435090676525
 30
0.0
 10
375.2688967006919
 20
106.3322000221705
 30
0.0
 10
375.2452630885946
 20
106.2215378131569
 30
0.0
 10
375.2204134981067
 20
106.111553680213
 30
0.0
 10
375.1943948736205
 20
106.0022585365984
 30
0.0
 10
375.1672134923025
 20
105.8936675673959
 30
0.0
 10
375.1388878509698
 20
105.7857968574527
 30
0.0
 10
375.109429070137
 20
105.6786519117265
 30
0.0
 10
375.0450207822257
 20
105.454477025217
 30
0.0
 10
374.939919090154
 20
105.1278116111812
 30
0.0
 10
374.7944563293586
 20
104.7418650058626
 30
0.0
 10
374.6551929212471
 20
104.4197851931676
 30
0.0
 10
374.5580445683802
 20
104.2239646091374
 30
0.0
 10
374.4977491621528
 20
104.1146171586517
 30
0.0
 10
374.4628605792716
 20
104.0566891342365
 30
0.0
 10
374.4349660773438
 20
104.0162351814715
 30
0.0
 10
374.4136009849721
 20
103.9916209660726
 30
0.0
 10
374.4054570373995
 20
103.9894920385649
 30
0.0
 10
374.4013792187544
 20
103.9884260468935
 30
0.0
  0
ARC
  5
D0
330
1F
100
AcDbEntity
  8
0
  6
Continuous
 62
     7
370
    25
100
AcDbCircle
 10
363.4416727618
 20
108.7426956917
 30
0.0
 40
12.07050959801141
100
AcDbArc
 50
349.5595567507
 51
10.4404432493
  0
SPLINE
  5
D1
330
1F
100
AcDbEntity
  8
0
  6
Continuous
 62
     7
370
    25
100
AcDbSpline
210
0.0
220
0.0
230
1.0
 70
     8
 71
     3
 72
    26
 73
    22
 74
     0
 42
0.000000001
 43
0.00000001
 40
0.0
 40
0.0
 40
0.0
 40
0.0
 40
0.0241259796960501
 40
0.0482159912267432
 40
0.0723203915116785
 40
0.0964895678702493
 40
0.1207736231954871
 40
0.1452220711234535
 40
0.1698835501650412
 40
0.1948055644466733
 40
0.2200342569514245
 40
0.2456142191610881
 40
0.369097148689205
 40
0.4940698769485085
 40
0.6192566784761016
 40
0.7454656653603114
 40
0.7971495824712787
 40
0.8481710308404068
 40
0.8988013269233927
 40
0.9493179290491323
 40
1.0
 40
1.0
 40
1.0
 40
1.0
 10
374.4013792187544
 20
113.4969653364776
 30
0.0
 10
374.4032895334948
 20
113.4966784432882
 30
0.0
 10
374.4071073149869
 20
113.4961050846234
 30
0.0
 10
374.4150674401678
 20
113.490046396377
 30
0.0
 10
374.4246465407431
 20
113.4801671356461
 30
0.0
 10
374.4359937476118
 20
113.4660860445357
 30
0.0
 10
374.4490499309057
 20
113.4478904965116
 30
0.0
 10
374.4638058341331
 20
113.4255399537729
 30
0.0
 10
374.4802330144304
 20
113.3990257180808
 30
0.0
 10
374.4983011691507
 20
113.3683302073675
 30
0.0
 10
374.5179783155738
 20
113.3334291041276
 30
0.0
 10
374.5661776970015
 20
113.2446645690212
 30
0.0
 10
374.6544957364369
 20
113.0673842675725
 30
0.0
 10
374.7935553532039
 20
112.7462983607269
 30
0.0
 10
374.9392280330664
 20
112.3597157088357
 30
0.0
 10
375.0529666280758
 20
112.0060080047058
 30
0.0
 10
375.1326722466223
 20
111.7237543050931
 30
0.0
 10
375.1833218189766
 20
111.529310874319
 30
0.0
 10
375.230288488842
 20
111.3320694973849
 30
0.0
 10
375.2738483108463
 20
111.1321664522896
 30
0.0
 10
375.2994958759779
 20
110.9974845125572
 30
0.0
 10
375.312340626568
 20
110.9300334342199
 30
0.0
  0
LINE
  5
D2
330
1F
100
AcDbEntity
  8
0
  6
Continuous
 62
     7
370
    25
100
AcDbLine
 10
374.3486242638
 20
113.4977130393
 30
0.0
 11
374.401379031
 21
113.4969651873
 31
0.0
  0
SPLINE
  5
D3
330
1F
100
AcDbEntity
  8
0
  6
Continuous
 62
     7
370
    25
100
AcDbSpline
210
0.0
220
0.0
230
1.0
 70
     8
 71
     3
 72
    14
 73
    10
 74
     0
 42
0.000000001
 43
0.00000001
 40
0.0
 40
0.0
 40
0.0
 40
0.0
 40
0.0786889129238317
 40
0.1577561817131888
 40
0.330468600315448
 40
0.4997364082489096
 40
0.666847231670587
 40
0.8331450833801949
 40
1.0
 40
1.0
 40
1.0
 40
1.0
 10
374.4015321462916
 20
113.2309815446905
 30
0.0
 10
374.397534137337
 20
113.2442314492064
 30
0.0
 10
374.3895188960063
 20
113.2707949670746
 30
0.0
 10
374.3746462227171
 20
113.321516494843
 30
0.0
 10
374.3587600579552
 20
113.3785175738664
 30
0.0
 10
374.345681534311
 20
113.4328208694755
 30
0.0
 10
374.3394489347059
 20
113.4709879915129
 30
0.0
 10
374.3396385125821
 20
113.4943967255885
 30
0.0
 10
374.3456254069744
 20
113.4966063795467
 30
0.0
 10
374.3486238595151
 20
113.4977130539075
 30
0.0
  0
SPLINE
  5
D4
330
1F
100
AcDbEntity
  8
0
  6
Continuous
 62
     7
370
    25
100
AcDbSpline
210
0.0
220
0.0
230
1.0
 70
     8
 71
     3
 72
     8
 73
     4
 74
     0
 42
0.000000001
 43
0.00000001
 40
0.0
 40
0.0
 40
0.0
 40
0.0
 40
1.0
 40
1.0
 40
1.0
 40
1.0
 10
374.2810768056091
 20
113.2326378846553
 30
0.0
 10
374.3212099241157
 20
113.232206930708
 30
0.0
 10
374.3613706320443
 20
113.2316264276955
 30
0.0
 10
374.4015580493872
 20
113.230896152136
 30
0.0
  0
SPLINE
  5
D5
330
1F
100
AcDbEntity
  8
0
  6
Continuous
 62
     7
370
    25
100
AcDbSpline
210
0.0
220
0.0
230
1.0
 70
     8
 71
     3
 72
    23
 73
    19
 74
     0
 42
0.000000001
 43
0.00000001
 40
0.0
 40
0.0
 40
0.0
 40
0.0
 40
0.0441308420121337
 40
0.0880968635211806
 40
0.1320155028409076
 40
0.1760048571434343
 40
0.2201827305793822
 40
0.2646656976937621
 40
0.3095682184570084
 40
0.3550018365594612
 40
0.4010744854744679
 40
0.4478899182340139
 40
0.4955472680214194
 40
0.5953670562442849
 40
0.6949121173386639
 40
0.7950007648970017
 40
0.8964386255160219
 40
1.0
 40
1.0
 40
1.0
 40
1.0
 10
373.729363686474
 20
114.193141208622
 30
0.0
 10
373.7313480765808
 20
114.192858351392
 30
0.0
 10
373.7353094454658
 20
114.1922936933515
 30
0.0
 10
373.7441697496963
 20
114.1858743401727
 30
0.0
 10
373.7551422278186
 20
114.1753530906661
 30
0.0
 10
373.768421625839
 20
114.1603215543564
 30
0.0
 10
373.7839323495053
 20
114.140869309294
 30
0.0
 10
373.8016638112584
 20
114.1169493313419
 30
0.0
 10
373.8215804579615
 20
114.0885482406281
 30
0.0
 10
373.8436459919737
 20
114.0556405008274
 30
0.0
 10
373.8678169156678
 20
114.0182005181712
 30
0.0
 10
373.8940439257152
 20
113.9762004465413
 30
0.0
 10
373.932380505946
 20
113.9129233380186
 30
0.0
 10
373.9847132853241
 20
113.8228644756559
 30
0.0
 10
374.053113896532
 20
113.6985183560896
 30
0.0
 10
374.1257989713275
 20
113.5588052781091
 30
0.0
 10
374.2021592072277
 20
113.4044692628802
 30
0.0
 10
374.2544480218781
 20
113.290746608652
 30
0.0
 10
374.2808632497819
 20
113.2332962753572
 30
0.0
  0
SPLINE
  5
D6
330
1F
100
AcDbEntity
  8
0
  6
Continuous
 62
     7
370
    25
100
AcDbSpline
210
0.0
220
0.0
230
1.0
 70
    11
 71
     3
 72
    39
 73
    35
 74
     0
 42
0.000000001
 43
0.00000001
 40
0.0
 40
0.0
 40
0.0
 40
0.0
 40
0.0310664058348413
 40
0.0621048158426138
 40
0.0931361551796939
 40
0.1235538293503726
 40
0.1538561545809849
 40
0.1850588072749156
 40
0.2160250992946587
 40
0.2471867223797568
 40
0.2784462884304475
 40
0.3100516090231247
 40
0.3419834369138969
 40
0.3734259894013238
 40
0.4048604886787081
 40
0.436874065183343
 40
0.4685120685926471
 40
0.499805535863323
 40
0.5309508213226204
 40
0.5618649784438111
 40
0.5930416446590877
 40
0.623374245013332
 40
0.6540913579072549
 40
0.6849496782718453
 40
0.7158160645166705
 40
0.7471731804043553
 40
0.7784514311866318
 40
0.810129591156098
 40
0.8419598919688388
 40
0.8735175891922303
 40
0.9050808037886594
 40
0.9370235169792582
 40
0.9687441590030581
 40
1.0
 40
1.0
 40
1.0
 40
1.0
 10
366.3457993265916
 20
97.31106550793217
 30
0.0
 10
366.5355111555463
 20
97.34983408467966
 30
0.0
 10
366.8792520059951
 20
97.42626503046269
 30
0.0
 10
367.2622089932028
 20
97.51440457045592
 30
0.0
 10
367.5066494599179
 20
97.56135405710089
 30
0.0
 10
367.5876383967341
 20
97.54944513238713
 30
0.0
 10
367.5069159512524
 20
97.47748722567167
 30
0.0
 10
367.2670537576328
 20
97.3529669594743
 30
0.0
 10
366.8904040235355
 20
97.19559796964911
 30
0.0
 10
366.3841610867076
 20
97.02357388495412
 30
0.0
 10
365.7668866930243
 20
96.85864947736847
 30
0.0
 10
365.0544108788844
 20
96.72093690128996
 30
0.0
 10
364.2789456391118
 20
96.62930408878128
 30
0.0
 10
363.4684812054976
 20
96.5959715106858
 30
0.0
 10
362.6559767325351
 20
96.62521895623908
 30
0.0
 10
361.876463742398
 20
96.71354791322668
 30
0.0
 10
361.1581354430625
 20
96.8490534128615
 30
0.0
 10
360.5347633356625
 20
97.01282993435277
 30
0.0
 10
360.0216647410669
 20
97.1848360784981
 30
0.0
 10
359.6364626312055
 20
97.34364809296926
 30
0.0
 10
359.3870380259644
 20
97.47090705813473
 30
0.0
 10
359.296435986018
 20
97.54651401508971
 30
0.0
 10
359.3646475569772
 20
97.5632834117696
 30
0.0
 10
359.59686342338
 20
97.52050306955434
 30
0.0
 10
359.9740804605642
 20
97.43337638464448
 30
0.0
 10
360.4857853283319
 20
97.31864732933748
 30
0.0
 10
361.1092564590787
 20
97.19922518428496
 30
0.0
 10
361.8258011622115
 20
97.09459973423564
 30
0.0
 10
362.6041322748225
 20
97.02395124130878
 30
0.0
 10
363.4159637616724
 20
96.99787241687875
 30
0.0
 10
364.2297382836695
 20
97.02089798856949
 30
0.0
 10
365.012112127835
 20
97.08913042670716
 30
0.0
 10
365.7341251625689
 20
97.19237760641688
 30
0.0
 10
366.154930682418
 20
97.27206053011341
 30
0.0
 10
366.3457993265916
 20
97.31106550793217
 30
0.0
  0
SPLINE
  5
D7
330
1F
100
AcDbEntity
  8
0
  6
Continuous
 62
     7
370
    25
100
AcDbSpline
210
0.0
220
0.0
230
1.0
 70
    11
 71
     3
 72
    39
 73
    35
 74
     0
 42
0.000000001
 43
0.00000001
 40
0.0
 40
0.0
 40
0.0
 40
0.0
 40
0.0312651429934057
 40
0.0629601069329321
 40
0.0948697276489808
 40
0.1264264963751833
 40
0.1579651393672472
 40
0.1898765439016956
 40
0.221552335268876
 40
0.2527844076550827
 40
0.2838418966734154
 40
0.3148645781100674
 40
0.3459127639308091
 40
0.3763475365526575
 40
0.4066751324671412
 40
0.4379141187435632
 40
0.4688932367345488
 40
0.5000738678969536
 40
0.5313369410958942
 40
0.5629183719104849
 40
0.5948445736343699
 40
0.6262809966135365
 40
0.6577486436587271
 40
0.6897584692806508
 40
0.7214430019610059
 40
0.7527623343195418
 40
0.7839279690572818
 40
0.8148885765585865
 40
0.8460375004982862
 40
0.8763409566916784
 40
0.906758919146387
 40
0.9378312724751761
 40
0.9689189660506093
 40
1.0
 40
1.0
 40
1.0
 40
1.0
 10
366.3456950768049
 20
120.1743579278748
 30
0.0
 10
366.1546211405232
 20
120.2134218857554
 30
0.0
 10
365.7336865780836
 20
120.2931408803155
 30
0.0
 10
365.0122971729199
 20
120.3962562956659
 30
0.0
 10
364.2306411246295
 20
120.4644571680899
 30
0.0
 10
363.4175534049187
 20
120.4875140607318
 30
0.0
 10
362.6052731880666
 20
120.4615297870856
 30
0.0
 10
361.8266427630172
 20
120.3909396218474
 30
0.0
 10
361.1099669731057
 20
120.2863240596082
 30
0.0
 10
360.4880917034441
 20
120.1671517345918
 30
0.0
 10
359.9785807699583
 20
120.0532145668655
 30
0.0
 10
359.603461423714
 20
119.9671002879191
 30
0.0
 10
359.3675008488631
 20
119.9230445665832
 30
0.0
 10
359.2961003056815
 20
119.9385743672944
 30
0.0
 10
359.3866967354793
 20
120.0140832494783
 30
0.0
 10
359.6356730158388
 20
120.1412567773225
 30
0.0
 10
360.0205878356816
 20
120.3001074559348
 30
0.0
 10
360.5333731425037
 20
120.4721317171448
 30
0.0
 10
361.1558322654286
 20
120.6358047966795
 30
0.0
 10
361.8723324102351
 20
120.7712063700597
 30
0.0
 10
362.6504314443451
 20
120.8597240375425
 30
0.0
 10
363.4621541329922
 20
120.8894314460253
 30
0.0
 10
364.2735963206935
 20
120.8565450013752
 30
0.0
 10
365.0507222121756
 20
120.7650640933305
 30
0.0
 10
365.765160301346
 20
120.627179903369
 30
0.0
 10
366.3833832595815
 20
120.4620520785191
 30
0.0
 10
366.8897506203074
 20
120.2900015411665
 30
0.0
 10
367.266303141721
 20
120.1327180194563
 30
0.0
 10
367.5059989531525
 20
120.0083142219723
 30
0.0
 10
367.5874656613467
 20
119.936126048536
 30
0.0
 10
367.5074064188549
 20
119.923853540158
 30
0.0
 10
367.2630604129012
 20
119.9707489506641
 30
0.0
 10
366.8800869794522
 20
120.0588824988096
 30
0.0
 10
366.5356438482423
 20
120.1355240034195
 30
0.0
 10
366.3456950768048
 20
120.1743579278747
 30
0.0
  0
SPLINE
  5
D8
330
1F
100
AcDbEntity
  8
0
  6
Continuous
 62
     7
370
    25
100
AcDbSpline
210
0.0
220
0.0
230
1.0
 70
     8
 71
     3
 72
    23
 73
    19
 74
     0
 42
0.000000001
 43
0.00000001
 40
0.0
 40
0.0
 40
0.0
 40
0.0
 40
0.0449850911547978
 40
0.0909520670823913
 40
0.1379394291328585
 40
0.1859832248994873
 40
0.2351171761776766
 40
0.285372809648614
 40
0.3367795876649866
 40
0.389365037084781
 40
0.4431548745956124
 40
0.4981731273942906
 40
0.557510759134935
 40
0.6265492282104752
 40
0.7053073139841747
 40
0.7937970254538392
 40
0.8920262116419598
 40
1.0
 40
1.0
 40
1.0
 40
1.0
 10
353.5507310502371
 20
113.7726956916856
 30
0.0
 10
353.5485683608714
 20
113.7722667900259
 30
0.0
 10
353.5441957773505
 20
113.771399625116
 30
0.0
 10
353.5339148181588
 20
113.7643060575142
 30
0.0
 10
353.5208545401287
 20
113.7526933159341
 30
0.0
 10
353.5047353785744
 20
113.7359039457603
 30
0.0
 10
353.4856349509184
 20
113.7138319591445
 30
0.0
 10
353.4635325981626
 20
113.6862344853805
 30
0.0
 10
353.438432119627
 20
113.652926054171
 30
0.0
 10
353.4103409882492
 20
113.613725715765
 30
0.0
 10
353.3792250873977
 20
113.5684836702934
 30
0.0
 10
353.344586156504
 20
113.5160877378904
 30
0.0
 10
353.303864648208
 20
113.4533052696423
 30
0.0
 10
353.2551437271638
 20
113.3755482703422
 30
0.0
 10
353.1973693888393
 20
113.2782637127409
 30
0.0
 10
353.130458739201
 20
113.1585188790249
 30
0.0
 10
353.0545147749277
 20
113.0145986741571
 30
0.0
 10
353.0001536102595
 20
112.9038644693074
 30
0.0
 10
352.971688546156
 20
112.8458808654105
 30
0.0
  0
LINE
  5
D9
330
1F
100
AcDbEntity
  8
0
  6
Continuous
 62
     7
370
    25
100
AcDbLine
 10
352.9716884986
 20
112.8464070323
 30
0.0
 11
352.6023492486
 21
113.2324919278
 31
0.0
  0
LINE
  5
DA
330
1F
100
AcDbEntity
  8
0
  6
Continuous
 62
     7
370
    25
100
AcDbLine
 10
374.2809636787
 20
113.2324323232
 30
0.0
 11
373.9116970718
 21
112.8464242617
 31
0.0
  0
SPLINE
  5
DB
330
1F
100
AcDbEntity
  8
0
  6
Continuous
 62
     7
370
    25
100
AcDbSpline
210
0.0
220
0.0
230
1.0
 70
     8
 71
     3
 72
    26
 73
    22
 74
     0
 42
0.000000001
 43
0.00000001
 40
0.0
 40
0.0
 40
0.0
 40
0.0
 40
0.0509383868653979
 40
0.0998291548270505
 40
0.1466728126490638
 40
0.1914699456369332
 40
0.2342212299774179
 40
0.274927450668867
 40
0.3135895241747119
 40
0.3502085273716571
 40
0.3847857350077695
 40
0.4173226688482998
 40
0.4478211631571791
 40
0.4762834534603437
 40
0.5027122992246547
 40
0.593906700502561
 40
0.6816015993191188
 40
0.7659159552051488
 40
0.846983628966416
 40
0.9249552229440475
 40
1.0
 40
1.0
 40
1.0
 40
1.0
 10
373.9116974621009
 20
112.8456901351608
 30
0.0
 10
373.8982395979028
 20
112.8733109163251
 30
0.0
 10
373.8718648481051
 20
112.9274421797784
 30
0.0
 10
373.8334926683262
 20
113.0037502168535
 30
0.0
 10
373.797026485834
 20
113.0745023964453
 30
0.0
 10
373.7624902362102
 20
113.1396742231334
 30
0.0
 10
373.7298777843574
 20
113.1995324683851
 30
0.0
 10
373.6991905005644
 20
113.2542976279265
 30
0.0
 10
373.6704278842632
 20
113.3042220192385
 30
0.0
 10
373.6435897197909
 20
113.3495642498336
 30
0.0
 10
373.6186761393627
 20
113.3905901887744
 30
0.0
 10
373.5956854925739
 20
113.4275675737215
 30
0.0
 10
373.5746219870843
 20
113.4607636897048
 30
0.0
 10
373.5554696167051
 20
113.4904394219721
 30
0.0
 10
373.5237985397603
 20
113.5391097470218
 30
0.0
 10
373.4823285943237
 20
113.6010050649406
 30
0.0
 10
373.4353390781799
 20
113.6663456723643
 30
0.0
 10
373.396720508465
 20
113.7154640636561
 30
0.0
 10
373.3666720487437
 20
113.7489403521683
 30
0.0
 10
373.3443819377745
 20
113.7690577844063
 30
0.0
 10
373.3364866223411
 20
113.7714986182559
 30
0.0
 10
373.3326144733516
 20
113.7726956916856
 30
0.0
  0
SPLINE
  5
DC
330
1F
100
AcDbEntity
  8
0
  6
Continuous
 62
     7
370
    25
100
AcDbSpline
210
0.0
220
0.0
230
1.0
 70
     8
 71
     3
 72
     8
 73
     4
 74
     0
 42
0.000000001
 43
0.00000001
 40
0.0
 40
0.0
 40
0.0
 40
0.0
 40
1.0
 40
1.0
 40
1.0
 40
1.0
 10
371.1833532135946
 20
112.9656940181683
 30
0.0
 10
371.2469461939347
 20
112.9000252403215
 30
0.0
 10
371.31090262037
 20
112.8356829426613
 30
0.0
 10
371.3751015400774
 20
112.7739456916856
 30
0.0
  0
SPLINE
  5
DD
330
1F
100
AcDbEntity
  8
0
  6
Continuous
 62
     7
370
    25
100
AcDbSpline
210
0.0
220
0.0
230
1.0
 70
     8
 71
     3
 72
    25
 73
    21
 74
     0
 42
0.000000001
 43
0.00000001
 40
0.0
 40
0.0
 40
0.0
 40
0.0
 40
0.0367725003254103
 40
0.074208401060063
 40
0.1123590542807964
 40
0.1512729822568881
 40
0.190995910016845
 40
0.2315708273504481
 40
0.2730380740418892
 40
0.3154354426077851
 40
0.3587982934432034
 40
0.4031596779810961
 40
0.4485504661847858
 40
0.494999475376923
 40
0.5532504315673752
 40
0.621829488573267
 40
0.7007739996560722
 40
0.7901076726660372
 40
0.8898461547533933
 40
1.0
 40
1.0
 40
1.0
 40
1.0
 10
370.7414320262832
 20
113.7726956916852
 30
0.0
 10
370.741655800348
 20
113.7723710040515
 30
0.0
 10
370.742107385511
 20
113.7717157712027
 30
0.0
 10
370.7468244253832
 20
113.766353399415
 30
0.0
 10
370.7544770344658
 20
113.7575978057145
 30
0.0
 10
370.7653700136028
 20
113.7449735876226
 30
0.0
 10
370.7794186000186
 20
113.7284172494922
 30
0.0
 10
370.7966454976279
 20
113.7077600721144
 30
0.0
 10
370.8170440504093
 20
113.6828723361466
 30
0.0
 10
370.8406148637014
 20
113.6536247899532
 30
0.0
 10
370.8673602122612
 20
113.6199018547567
 30
0.0
 10
370.8972680656935
 20
113.5815960396313
 30
0.0
 10
370.930384158038
 20
113.5386251442933
 30
0.0
 10
370.9693100796121
 20
113.4872038626226
 30
0.0
 10
371.0181381593287
 20
113.4229876309335
 30
0.0
 10
371.0800587639297
 20
113.3400931018389
 30
0.0
 10
371.1544433222507
 20
113.2361473516245
 30
0.0
 10
371.2414177502392
 20
113.1080611413672
 30
0.0
 10
371.3408426002218
 20
112.9539713614609
 30
0.0
 10
371.4122617759513
 20
112.8359071255904
 30
0.0
 10
371.4497433596322
 20
112.7739456916856
 30
0.0
  0
LINE
  5
DE
330
1F
100
AcDbEntity
  8
0
  6
Continuous
 62
     7
370
    25
100
AcDbLine
 10
371.4497430519
 20
112.7739454793
 30
0.0
 11
371.3751012728
 21
112.7739454793
 31
0.0
  0
SPLINE
  5
DF
330
1F
100
AcDbEntity
  8
0
  6
Continuous
 62
     7
370
    25
100
AcDbSpline
210
0.0
220
0.0
230
1.0
 70
     8
 71
     3
 72
    23
 73
    19
 74
     0
 42
0.000000001
 43
0.00000001
 40
0.0
 40
0.0
 40
0.0
 40
0.0
 40
0.0511129009862429
 40
0.1016896331848205
 40
0.1518293139116737
 40
0.2016336701908097
 40
0.2512064936768345
 40
0.3006530343020046
 40
0.3500793489728619
 40
0.3995916247941682
 40
0.4492954981448858
 40
0.499295391235657
 40
0.5872572780531917
 40
0.6724255494364949
 40
0.7555067762558334
 40
0.8372616735287293
 40
0.9184882400177381
 40
0.9999999999999999
 40
0.9999999999999999
 40
0.9999999999999999
 40
0.9999999999999999
 10
371.1834158897201
 20
112.9659367342634
 30
0.0
 10
371.1674003058194
 20
112.9950653364947
 30
0.0
 10
371.1355371397561
 20
113.0530169850791
 30
0.0
 10
371.0884933013368
 20
113.1357748202982
 30
0.0
 10
371.0425147771614
 20
113.2148636787829
 30
0.0
 10
370.9977341103576
 20
113.2900806667174
 30
0.0
 10
370.9542503459217
 20
113.3615437217632
 30
0.0
 10
370.912164382337
 20
113.4292851259514
 30
0.0
 10
370.8715699179399
 20
113.493358637696
 30
0.0
 10
370.8325550115899
 20
113.5538122367667
 30
0.0
 10
370.7952051891029
 20
113.6106897416943
 30
0.0
 10
370.7506769325113
 20
113.6774042147541
 30
0.0
 10
370.7020366719705
 20
113.7487244986181
 30
0.0
 10
370.6541975722146
 20
113.8173047510772
 30
0.0
 10
370.6165460601337
 20
113.8703210791193
 30
0.0
 10
370.5897233587463
 20
113.907593735247
 30
0.0
 10
370.5729945279226
 20
113.930631134827
 30
0.0
 10
370.5711461179587
 20
113.9331658600923
 30
0.0
 10
370.5702202933384
 20
113.9344354437357
 30
0.0
  0
SPLINE
  5
E0
330
1F
100
AcDbEntity
  8
0
  6
Continuous
 62
     7
370
    25
100
AcDbSpline
210
0.0
220
0.0
230
1.0
 70
     8
 71
     3
 72
     8
 73
     4
 74
     0
 42
0.000000001
 43
0.00000001
 40
0.0
 40
0.0
 40
0.0
 40
0.0
 40
1.0
 40
1.0
 40
1.0
 40
1.0
 10
373.8455654088663
 20
112.7739456916855
 30
0.0
 10
373.8674507805095
 20
112.7982667078831
 30
0.0
 10
373.8893361521526
 20
112.8222913062056
 30
0.0
 10
373.9112215237958
 20
112.8459981582941
 30
0.0
  0
LINE
  5
E1
330
1F
100
AcDbEntity
  8
0
  6
Continuous
 62
     7
370
    25
100
AcDbLine
 10
373.845405531
 20
112.7739454793
 30
0.0
 11
371.4497430519
 21
112.7739454793
 31
0.0
  0
SPLINE
  5
E2
330
1F
100
AcDbEntity
  8
0
  6
Continuous
 62
     7
370
    25
100
AcDbSpline
210
0.0
220
0.0
230
1.0
 70
     8
 71
     3
 72
     8
 73
     4
 74
     0
 42
0.000000001
 43
0.00000001
 40
0.0
 40
0.0
 40
0.0
 40
0.0
 40
1.0
 40
1.0
 40
1.0
 40
1.0
 10
352.972029773968
 20
112.8461017257742
 30
0.0
 10
352.9939465464556
 20
112.8223612772151
 30
0.0
 10
353.0158633189432
 20
112.7983021254285
 30
0.0
 10
353.0377800914307
 20
112.7739456916856
 30
0.0
  0
SPLINE
  5
E3
330
1F
100
AcDbEntity
  8
0
  6
Continuous
 62
     7
370
    25
100
AcDbSpline
210
0.0
220
0.0
230
1.0
 70
     8
 71
     3
 72
    26
 73
    22
 74
     0
 42
0.000000001
 43
0.00000001
 40
0.0
 40
0.0
 40
0.0
 40
0.0
 40
0.0524616379932503
 40
0.1026498591890872
 40
0.150565513457809
 40
0.1962095861957063
 40
0.2395832262568645
 40
0.2806877815599511
 40
0.3195248450380211
 40
0.3560963147430692
 40
0.3904044736547445
 40
0.4224520974433627
 40
0.4522426027417772
 40
0.4797802555366611
 40
0.5050704712281336
 40
0.5966394156799991
 40
0.6841917884819224
 40
0.7679874773571101
 40
0.8483228539139507
 40
0.925534163520116
 40
1.0
 40
1.0
 40
1.0
 40
1.0
 10
355.4334246058782
 20
112.7739605837033
 30
0.0
 10
355.4512860901665
 20
112.8037340437444
 30
0.0
 10
355.4862350341423
 20
112.8619907356377
 30
0.0
 10
355.5369998676243
 20
112.9441897160023
 30
0.0
 10
355.5850698252661
 20
113.0202705849031
 30
0.0
 10
355.6304137980309
 20
113.0902219333694
 30
0.0
 10
355.6730397775363
 20
113.1543290953214
 30
0.0
 10
355.7129460760454
 20
113.2128369347916
 30
0.0
 10
355.7501334051607
 20
113.2660255124136
 30
0.0
 10
355.7846022277515
 20
113.3141835526507
 30
0.0
 10
355.8163523163839
 20
113.357608225927
 30
0.0
 10
355.845386720985
 20
113.3965983170239
 30
0.0
 10
355.8716980101861
 20
113.4314524155504
 30
0.0
 10
355.8953146397303
 20
113.462457410001
 30
0.0
 10
355.934960318736
 20
113.5147006286338
 30
0.0
 10
355.9864986155351
 20
113.5822299618911
 30
0.0
 10
356.0433247525163
 20
113.6544234080996
 30
0.0
 10
356.0874821804794
 20
113.7089073642221
 30
0.0
 10
356.1186598034213
 20
113.7461721553905
 30
0.0
 10
356.1381193700605
 20
113.7686365076652
 30
0.0
 10
356.1402609677409
 20
113.7713590570924
 30
0.0
 10
356.1413123842976
 20
113.7726956916856
 30
0.0
  0
LINE
  5
E4
330
1F
100
AcDbEntity
  8
0
  6
Continuous
 62
     7
370
    25
100
AcDbLine
 10
355.4334245891
 20
112.7739454793
 30
0.0
 11
353.0377798051
 21
112.7739454793
 31
0.0
  0
LINE
  5
E5
330
1F
100
AcDbEntity
  8
0
  6
Continuous
 62
     7
370
    25
100
AcDbLine
 10
355.5082442508
 20
112.7739454793
 30
0.0
 11
355.4331247032
 21
112.7739454793
 31
0.0
  0
SPLINE
  5
E6
330
1F
100
AcDbEntity
  8
0
  6
Continuous
 62
     7
370
    25
100
AcDbSpline
210
0.0
220
0.0
230
1.0
 70
     8
 71
     3
 72
     8
 73
     4
 74
     0
 42
0.000000001
 43
0.00000001
 40
0.0
 40
0.0
 40
0.0
 40
0.0
 40
1.0
 40
1.0
 40
1.0
 40
1.0
 10
355.5082439835111
 20
112.7739456916855
 30
0.0
 10
355.5721527861711
 20
112.8359145551167
 30
0.0
 10
355.635927705523
 20
112.8998906202333
 30
0.0
 10
355.699287771404
 20
112.9654252765791
 30
0.0
  0
SPLINE
  5
E7
330
1F
100
AcDbEntity
  8
0
  6
Continuous
 62
     7
370
    25
100
AcDbSpline
210
0.0
220
0.0
230
1.0
 70
     8
 71
     3
 72
    24
 73
    20
 74
     0
 42
0.000000001
 43
0.00000001
 40
0.0
 40
0.0
 40
0.0
 40
0.0
 40
0.0410257106287712
 40
0.0818520099077378
 40
0.1225800578354259
 40
0.1633117464057714
 40
0.2041489402806048
 40
0.2451927184748369
 40
0.2865426449234839
 40
0.3282960933645376
 40
0.3705476475492641
 40
0.4133885920100953
 40
0.4569065022350026
 40
0.5011849368585917
 40
0.6001856774977958
 40
0.6987388860494295
 40
0.7976800645500018
 40
0.8978349910059672
 40
1.0
 40
1.0
 40
1.0
 40
1.0
 10
356.3128705772788
 20
113.9340857730171
 30
0.0
 10
356.3126758138378
 20
113.9338184228595
 30
0.0
 10
356.3122872336313
 20
113.9332850220382
 30
0.0
 10
356.3082324459569
 20
113.9277132760391
 30
0.0
 10
356.3016384869771
 20
113.9186325268853
 30
0.0
 10
356.2922742260672
 20
113.9056950665245
 30
0.0
 10
356.2802261122972
 20
113.8889766236187
 30
0.0
 10
356.2655035428367
 20
113.8684346128469
 30
0.0
 10
356.2481445499894
 20
113.8440532388002
 30
0.0
 10
356.2281873788361
 20
113.8158044947283
 30
0.0
 10
356.2056783291406
 20
113.7836589473272
 30
0.0
 10
356.1806690933792
 20
113.747582107361
 30
0.0
 10
356.1532197238543
 20
113.7075385148416
 30
0.0
 10
356.1112966107863
 20
113.6456180714993
 30
0.0
 10
356.0520904355741
 20
113.5563055804012
 30
0.0
 10
355.9723108424529
 20
113.4317609883709
 30
0.0
 10
355.8863300574666
 20
113.291976195881
 30
0.0
 10
355.7950452702457
 20
113.1375633768967
 30
0.0
 10
355.7318409161886
 20
113.0235173552473
 30
0.0
 10
355.6999247662237
 20
112.9659278112331
 30
0.0
  0
LINE
  5
E8
330
1F
100
AcDbEntity
  8
0
  6
Continuous
 62
     7
370
    25
100
AcDbLine
 10
352.6290316403
 20
104.2526405479
 30
0.0
 11
353.0532695622
 21
104.7014337207
 31
0.0
  0
SPLINE
  5
E9
330
1F
100
AcDbEntity
  8
0
  6
Continuous
 62
     7
370
    25
100
AcDbSpline
210
0.0
220
0.0
230
1.0
 70
     8
 71
     3
 72
    13
 73
     9
 74
     0
 42
0.000000001
 43
0.00000001
 40
0.0
 40
0.0
 40
0.0
 40
0.0
 40
0.1706320847147904
 40
0.3395984166119918
 40
0.5069574112587142
 40
0.6727691831295072
 40
0.8370955448417806
 40
1.0
 40
1.0
 40
1.0
 40
1.0
 10
353.053269274672
 20
104.7014129501563
 30
0.0
 10
353.0582747450815
 20
104.6944615770724
 30
0.0
 10
353.0682368212542
 20
104.6806266919362
 30
0.0
 10
353.0811106491477
 20
104.6644989334774
 30
0.0
 10
353.092376961644
 20
104.6518302033198
 30
0.0
 10
353.101854325079
 20
104.6429737654839
 30
0.0
 10
353.1097365577727
 20
104.6374617370074
 30
0.0
 10
353.1135514640051
 20
104.636783390927
 30
0.0
 10
353.1154506287207
 20
104.6364456916856
 30
0.0
  0
SPLINE
  5
EA
330
1F
100
AcDbEntity
  8
0
  6
Continuous
 62
     7
370
    25
100
AcDbSpline
210
0.0
220
0.0
230
1.0
 70
     8
 71
     3
 72
    13
 73
     9
 74
     0
 42
0.000000001
 43
0.00000001
 40
0.0
 40
0.0
 40
0.0
 40
0.0
 40
0.1621004456454283
 40
0.3259434551388595
 40
0.4915935308049779
 40
0.6591130873777451
 40
0.8285624735926473
 40
1.0
 40
1.0
 40
1.0
 40
1.0
 10
373.7678948948679
 20
104.6364456916856
 30
0.0
 10
373.76977200121
 20
104.6367801747862
 30
0.0
 10
373.7735463926027
 20
104.6374527366477
 30
0.0
 10
373.7813934697814
 20
104.6429260210428
 30
0.0
 10
373.7908595295565
 20
104.6517454857026
 30
0.0
 10
373.8021404443589
 20
104.6643982426963
 30
0.0
 10
373.8150550628569
 20
104.6805502440931
 30
0.0
 10
373.8250507771027
 20
104.6944360440369
 30
0.0
 10
373.8300777830144
 20
104.701419436788
 30
0.0
  0
LINE
  5
EB
330
1F
100
AcDbEntity
  8
0
  6
Continuous
 62
     7
370
    25
100
AcDbLine
 10
373.8300908626
 20
104.7014197509
 30
0.0
 11
374.2543129519
 21
104.2526405479
 31
0.0
  0
SPLINE
  5
EC
330
1F
100
AcDbEntity
  8
0
  6
Continuous
 62
     7
370
    25
100
AcDbSpline
210
0.0
220
0.0
230
1.0
 70
     8
 71
     3
 72
     8
 73
     4
 74
     0
 42
0.000000001
 43
0.00000001
 40
0.0
 40
0.0
 40
0.0
 40
0.0
 40
1.0
 40
1.0
 40
1.0
 40
1.0
 10
373.8300908240073
 20
104.7014200498552
 30
0.0
 10
373.8279073397662
 20
104.7042687153715
 30
0.0
 10
373.8257238555251
 20
104.707209506769
 30
0.0
 10
373.823540371284
 20
104.7102420040456
 30
0.0
  0
LINE
  5
ED
330
1F
100
AcDbEntity
  8
0
  6
Continuous
 62
     7
370
    25
100
AcDbLine
 10
373.822637488
 20
104.711445904
 30
0.0
 11
371.383826834
 21
104.711445904
 31
0.0
  0
LINE
  5
EE
330
1F
100
AcDbEntity
  8
0
  6
Continuous
 62
     7
370
    25
100
AcDbLine
 10
371.3751012728
 20
104.711445904
 30
0.0
 11
371.3838231087
 21
104.711445904
 31
0.0
  0
SPLINE
  5
EF
330
1F
100
AcDbEntity
  8
0
  6
Continuous
 62
     7
370
    25
100
AcDbSpline
210
0.0
220
0.0
230
1.0
 70
     8
 71
     3
 72
     8
 73
     4
 74
     0
 42
0.000000001
 43
0.00000001
 40
0.0
 40
0.0
 40
0.0
 40
0.0
 40
1.0
 40
1.0
 40
1.0
 40
1.0
 10
353.0607079187141
 20
104.7114456916932
 30
0.0
 10
353.0582220000276
 20
104.7079839923812
 30
0.0
 10
353.0557360813411
 20
104.7046398404723
 30
0.0
 10
353.0532501626545
 20
104.7014138485319
 30
0.0
  0
LINE
  5
F0
330
1F
100
AcDbEntity
  8
0
  6
Continuous
 62
     7
370
    25
100
AcDbLine
 10
355.4980118096
 20
104.711445904
 30
0.0
 11
353.0609241024
 21
104.711445904
 31
0.0
  0
LINE
  5
F1
330
1F
100
AcDbEntity
  8
0
  6
Continuous
 62
     7
370
    25
100
AcDbLine
 10
355.4995214835
 20
104.711445904
 30
0.0
 11
355.5082442508
 21
104.711445904
 31
0.0
  0
SPLINE
  5
F2
330
1F
100
AcDbEntity
  8
0
  6
Continuous
 62
     7
370
    25
100
AcDbSpline
210
0.0
220
0.0
230
1.0
 70
     8
 71
     3
 72
    14
 73
    10
 74
     0
 42
0.000000001
 43
0.00000001
 40
0.0
 40
0.0
 40
0.0
 40
0.0
 40
0.0310276388067353
 40
0.062285371866867
 40
0.124800316690094
 40
0.2498289731750666
 40
0.4998892603608338
 40
0.7606803621459556
 40
1.0
 40
1.0
 40
1.0
 40
1.0
 10
352.4815787673351
 20
104.2547075170702
 30
0.0
 10
352.4859080608002
 20
104.2594914393482
 30
0.0
 10
352.4945987528336
 20
104.2690947604364
 30
0.0
 10
352.5119995314957
 20
104.2883890744342
 30
0.0
 10
352.5424756913407
 20
104.3221540208878
 30
0.0
 10
352.6032970841601
 20
104.3895727797497
 30
0.0
 10
352.6911874265704
 20
104.4870394546129
 30
0.0
 10
352.794025106654
 20
104.6011839665112
 30
0.0
 10
352.8612312180957
 20
104.6759687795172
 30
0.0
 10
352.8933915797456
 20
104.7117558021644
 30
0.0
  0
LINE
  5
F3
330
1F
100
AcDbEntity
  8
0
  6
Continuous
 62
     7
370
    25
100
AcDbLine
 10
352.8930634529
 20
104.711445904
 30
0.0
 11
353.0607080356
 21
104.711445904
 31
0.0
  0
LINE
  5
F4
330
1F
100
AcDbEntity
  8
0
  6
Continuous
 62
     7
370
    25
100
AcDbLine
 10
373.822637488
 20
104.711445904
 30
0.0
 11
373.9902895213
 21
104.711445904
 31
0.0
  0
SPLINE
  5
F5
330
1F
100
AcDbEntity
  8
0
  6
Continuous
 62
     7
370
    25
100
AcDbSpline
210
0.0
220
0.0
230
1.0
 70
     8
 71
     3
 72
    11
 73
     7
 74
     0
 42
0.000000001
 43
0.00000001
 40
0.0
 40
0.0
 40
0.0
 40
0.0
 40
0.2392913842439378
 40
0.5001130134995628
 40
0.7515028526562008
 40
1.0
 40
1.0
 40
1.0
 40
1.0
 10
373.9899860144647
 20
104.7117324941972
 30
0.0
 10
374.0221425674192
 20
104.6759557756457
 30
0.0
 10
374.0893489595451
 20
104.6011833278852
 30
0.0
 10
374.1923770492921
 20
104.4867246145669
 30
0.0
 10
374.2974677139345
 20
104.3705654284367
 30
0.0
 10
374.3671425340148
 20
104.2931774871302
 30
0.0
 10
374.4017783507078
 20
104.2547074265509
 30
0.0
  0
LINE
  5
F6
330
1F
100
AcDbEntity
  8
0
  6
Continuous
 62
     7
370
    25
100
AcDbLine
 10
353.0377798051
 20
112.7739454793
 30
0.0
 11
352.8932078079
 21
112.7739454793
 31
0.0
  0
SPLINE
  5
F7
330
1F
100
AcDbEntity
  8
0
  6
Continuous
 62
     7
370
    25
100
AcDbSpline
210
0.0
220
0.0
230
1.0
 70
     8
 71
     3
 72
    11
 73
     7
 74
     0
 42
0.000000001
 43
0.00000001
 40
0.0
 40
0.0
 40
0.0
 40
0.0
 40
0.2392845095296998
 40
0.5001120454061866
 40
0.751501091500065
 40
1.0
 40
1.0
 40
1.0
 40
1.0
 10
352.8935104175846
 20
112.7736599054889
 30
0.0
 10
352.8613492878038
 20
112.809457754562
 30
0.0
 10
352.794131529208
 20
112.8842763692573
 30
0.0
 10
352.6910868807099
 20
112.9988046335142
 30
0.0
 10
352.5859786518341
 20
113.1150356271842
 30
0.0
 10
352.5162931352068
 20
113.192470122871
 30
0.0
 10
352.4816518227667
 20
113.2309635242055
 30
0.0
  0
SPLINE
  5
F8
330
1F
100
AcDbEntity
  8
0
  6
Continuous
 62
     7
370
    25
100
AcDbSpline
210
0.0
220
0.0
230
1.0
 70
     8
 71
     3
 72
    14
 73
    10
 74
     0
 42
0.000000001
 43
0.00000001
 40
0.0
 40
0.0
 40
0.0
 40
0.0
 40
0.0310294147466985
 40
0.0622870907546828
 40
0.1248019217211628
 40
0.249830351141896
 40
0.4998901825547203
 40
0.760687217145559
 40
1.0
 40
1.0
 40
1.0
 40
1.0
 10
374.4016820854969
 20
113.2309634159288
 30
0.0
 10
374.3973518891816
 20
113.2261762293592
 30
0.0
 10
374.3886596423866
 20
113.2165666403044
 30
0.0
 10
374.3712560140394
 20
113.1972606465986
 30
0.0
 10
374.3407752785042
 20
113.1634754309466
 30
0.0
 10
374.2799446567819
 20
113.0960162999991
 30
0.0
 10
374.1920397536024
 20
112.9984897942734
 30
0.0
 10
374.0891855089862
 20
112.8842757875042
 30
0.0
 10
374.0219680508393
 20
112.8094448273963
 30
0.0
 10
373.9898031214491
 20
112.7736366815004
 30
0.0
  0
LINE
  5
F9
330
1F
100
AcDbEntity
  8
0
  6
Continuous
 62
     7
370
    25
100
AcDbLine
 10
373.9901302651
 20
112.7739454793
 30
0.0
 11
373.8455657185
 21
112.7739454793
 31
0.0
  0
LINE
  5
FA
330
1F
100
AcDbEntity
  8
0
  6
Continuous
 62
     7
370
    25
100
AcDbLine
 10
351.5710044921
 20
106.5553579653
 30
0.0
 11
352.0110674471
 21
106.6364456608
 31
0.0
  0
SPLINE
  5
FB
330
1F
100
AcDbEntity
  8
0
  6
Continuous
 62
     7
370
    25
100
AcDbSpline
210
0.0
220
0.0
230
1.0
 70
     8
 71
     3
 72
    25
 73
    21
 74
     0
 42
0.000000001
 43
0.00000001
 40
0.0
 40
0.0
 40
0.0
 40
0.0
 40
0.0274788704224787
 40
0.0560416006853318
 40
0.0856947086355637
 40
0.1164440166541994
 40
0.1482947438684638
 40
0.181251584047285
 40
0.2153187716750382
 40
0.2505001382254961
 40
0.3330514552490632
 40
0.5015081958163724
 40
0.5771663066145021
 40
0.648898130302707
 40
0.7167477700065175
 40
0.7807674423490577
 40
0.8410194131342656
 40
0.8975784849926469
 40
0.9505352047789419
 40
1.0
 40
1.0
 40
1.0
 40
1.0
 10
352.011067554383
 20
106.6364456916856
 30
0.0
 10
352.0177757217265
 20
106.6072634871679
 30
0.0
 10
352.0314566492834
 20
106.5477480330189
 30
0.0
 10
352.0542213779373
 20
106.4573575359598
 30
0.0
 10
352.0790990151777
 20
106.3642259268385
 30
0.0
 10
352.1062382531953
 20
106.2686398825635
 30
0.0
 10
352.1355996602265
 20
106.1708864129503
 30
0.0
 10
352.1671848305145
 20
106.0713057368931
 30
0.0
 10
352.2010317003792
 20
105.9702965973149
 30
0.0
 10
352.2527329303114
 20
105.8235297900659
 30
0.0
 10
352.3570919433251
 20
105.5592633771517
 30
0.0
 10
352.4779651710089
 20
105.2892937473226
 30
0.0
 10
352.5914582174665
 20
105.071884072605
 30
0.0
 10
352.6627311850824
 20
104.9421805018743
 30
0.0
 10
352.7248057572083
 20
104.8383054245495
 30
0.0
 10
352.7773897693756
 20
104.758444790731
 30
0.0
 10
352.8206363153031
 20
104.7004261645805
 30
0.0
 10
352.8542431275232
 20
104.6623226059282
 30
0.0
 10
352.8791901103959
 20
104.6403200749336
 30
0.0
 10
352.8881496472578
 20
104.6377074615823
 30
0.0
 10
352.8924766839758
 20
104.6364456916856
 30
0.0
  0
LINE
  5
FC
330
1F
100
AcDbEntity
  8
0
  6
Continuous
 62
     7
370
    25
100
AcDbLine
 10
375.3123410315
 20
110.930033418
 30
0.0
 11
374.8722780765
 21
110.8489457226
 31
0.0
  0
SPLINE
  5
FD
330
1F
100
AcDbEntity
  8
0
  6
Continuous
 62
     7
370
    25
100
AcDbSpline
210
0.0
220
0.0
230
1.0
 70
     8
 71
     3
 72
    25
 73
    21
 74
     0
 42
0.000000001
 43
0.00000001
 40
0.0
 40
0.0
 40
0.0
 40
0.0
 40
0.0274788704243672
 40
0.0560416006885685
 40
0.0856947086396085
 40
0.1164440166585125
 40
0.1482947438725051
 40
0.1812515840505162
 40
0.2153187716769223
 40
0.2505001382254963
 40
0.333051455256513
 40
0.501508195816399
 40
0.577166306614471
 40
0.6488981303026332
 40
0.7167477700064154
 40
0.7807674423489445
 40
0.8410194131341566
 40
0.8975784849925574
 40
0.9505352047788891
 40
1.0
 40
1.0
 40
1.0
 40
1.0
 10
374.8722779692055
 20
110.8489456916856
 30
0.0
 10
374.8655698018616
 20
110.8781278962053
 30
0.0
 10
374.8518888743041
 20
110.9376433503577
 30
0.0
 10
374.8291241456491
 20
111.0280338474211
 30
0.0
 10
374.8042465084081
 20
111.1211654565449
 30
0.0
 10
374.7771072703904
 20
111.2167515008207
 30
0.0
 10
374.7477458633593
 20
111.3145049704329
 30
0.0
 10
374.716160693072
 20
111.4140856464875
 30
0.0
 10
374.6823138232082
 20
111.5150947860614
 30
0.0
 10
374.6306125932735
 20
111.6618615933141
 30
0.0
 10
374.5262535802609
 20
111.9261280062262
 30
0.0
 10
374.4053803525771
 20
112.1960976360536
 30
0.0
 10
374.2918873061221
 20
112.4135073107661
 30
0.0
 10
374.2206143385062
 20
112.5432108814967
 30
0.0
 10
374.1585397663803
 20
112.6470859588215
 30
0.0
 10
374.105955754213
 20
112.72694659264
 30
0.0
 10
374.0627092082855
 20
112.7849652187905
 30
0.0
 10
374.0291023960654
 20
112.8230687774429
 30
0.0
 10
374.0041554131927
 20
112.8450713084376
 30
0.0
 10
373.9951958763308
 20
112.8476839217889
 30
0.0
 10
373.9908688396127
 20
112.8489456916856
 30
0.0
  0
SPLINE
  5
FE
330
1F
100
AcDbEntity
  8
0
  6
Continuous
 62
     7
370
    25
100
AcDbSpline
210
0.0
220
0.0
230
1.0
 70
     8
 71
     3
 72
    25
 73
    21
 74
     0
 42
0.000000001
 43
0.00000001
 40
0.0
 40
0.0
 40
0.0
 40
0.0
 40
0.0288821753103607
 40
0.058363659400202
 40
0.0884647204300861
 40
0.1192044006611817
 40
0.1506005800081054
 40
0.1826700399666173
 40
0.2154285269574062
 40
0.2488908143379818
 40
0.3610594471128721
 40
0.4984670131067379
 40
0.5822693905005261
 40
0.666112764278099
 40
0.7499972937224157
 40
0.8007709755018196
 40
0.851123770078672
 40
0.901089602448554
 40
0.9507031914094958
 40
1.0
 40
1.0
 40
1.0
 40
1.0
 10
352.8924766839758
 20
112.8489456916856
 30
0.0
 10
352.8901864155982
 20
112.8485174497097
 30
0.0
 10
352.8855583554853
 20
112.8476520796829
 30
0.0
 10
352.875248092398
 20
112.8405771469815
 30
0.0
 10
352.8624120231672
 20
112.8290086058214
 30
0.0
 10
352.8467984644246
 20
112.8123030297093
 30
0.0
 10
352.828477021012
 20
112.7903661186933
 30
0.0
 10
352.8074294351807
 20
112.7629684832085
 30
0.0
 10
352.7836578631885
 20
112.7299340025261
 30
0.0
 10
352.7366013337557
 20
112.6609433364022
 30
0.0
 10
352.6489069158969
 20
112.520917366983
 30
0.0
 10
352.5313552613652
 20
112.3016220657804
 30
0.0
 10
352.4198330970225
 20
112.064692005
 30
0.0
 10
352.3283737796744
 20
111.8488501310901
 30
0.0
 10
352.2474921284962
 20
111.6472885102115
 30
0.0
 10
352.1813472266281
 20
111.4684204298242
 30
0.0
 10
352.1319966658022
 20
111.3170442286853
 30
0.0
 10
352.0870296489373
 20
111.1628000735626
 30
0.0
 10
352.0462719350172
 20
111.0066442184822
 30
0.0
 10
352.0227772657989
 20
110.9013995115292
 30
0.0
 10
352.011067554383
 20
110.8489456916856
 30
0.0
  0
LINE
  5
FF
330
1F
100
AcDbEntity
  8
0
  6
Continuous
 62
     7
370
    25
100
AcDbLine
 10
351.5710044921
 20
110.930033418
 30
0.0
 11
352.0110674471
 21
110.8489457226
 31
0.0
  0
SPLINE
  5
100
330
1F
100
AcDbEntity
  8
0
  6
Continuous
 62
     7
370
    25
100
AcDbSpline
210
0.0
220
0.0
230
1.0
 70
     8
 71
     3
 72
    25
 73
    21
 74
     0
 42
0.000000001
 43
0.00000001
 40
0.0
 40
0.0
 40
0.0
 40
0.0
 40
0.0288821753108476
 40
0.0583636594010358
 40
0.088464720431129
 40
0.1192044006622933
 40
0.1506005800091479
 40
0.1826700399674522
 40
0.2154285269578988
 40
0.2488908143379949
 40
0.3610594471186867
 40
0.4984670131067664
 40
0.582269390500644
 40
0.666112764278217
 40
0.7499972937224437
 40
0.8007709755032449
 40
0.8511237700807972
 40
0.9010896024506762
 40
0.9507031914109091
 40
0.9999999999999999
 40
0.9999999999999999
 40
0.9999999999999999
 40
0.9999999999999999
 10
373.9908688396127
 20
104.6364456916856
 30
0.0
 10
373.9931591079904
 20
104.6368739336615
 30
0.0
 10
373.9977871681034
 20
104.6377393036883
 30
0.0
 10
374.0080974311907
 20
104.6448142363898
 30
0.0
 10
374.0209335004216
 20
104.6563827775502
 30
0.0
 10
374.0365470591642
 20
104.6730883536625
 30
0.0
 10
374.0548685025769
 20
104.6950252646787
 30
0.0
 10
374.075916088408
 20
104.7224229001634
 30
0.0
 10
374.0996876604001
 20
104.7554573808456
 30
0.0
 10
374.146744189835
 20
104.8244480469715
 30
0.0
 10
374.2344386076928
 20
104.9644740163918
 30
0.0
 10
374.3519902622253
 20
105.1837693175954
 30
0.0
 10
374.4635124265671
 20
105.4206993783711
 30
0.0
 10
374.5549717439152
 20
105.636541252281
 30
0.0
 10
374.6358533950931
 20
105.8381028731611
 30
0.0
 10
374.7019982969612
 20
106.0169709535506
 30
0.0
 10
374.7513488577877
 20
106.1683471546917
 30
0.0
 10
374.7963158746526
 20
106.3225913098146
 30
0.0
 10
374.8370735885723
 20
106.4787471648928
 30
0.0
 10
374.8605682577901
 20
106.5839918718435
 30
0.0
 10
374.8722779692055
 20
106.6364456916856
 30
0.0
  0
LINE
  5
101
330
1F
100
AcDbEntity
  8
0
  6
Continuous
 62
     7
370
    25
100
AcDbLine
 10
375.3123410315
 20
106.5553579653
 30
0.0
 11
374.8722780765
 21
106.6364456608
 31
0.0
  0
SPLINE
  5
102
330
1F
100
AcDbEntity
  8
0
  6
Continuous
 62
     7
370
    25
100
AcDbSpline
210
0.0
220
0.0
230
1.0
 70
     8
 71
     3
 72
    12
 73
     8
 74
     0
 42
0.000000001
 43
0.00000001
 40
0.0
 40
0.0
 40
0.0
 40
0.0
 40
0.2971540265968837
 40
0.5953109213084592
 40
0.7630993176302537
 40
0.9170814912125203
 40
1.0
 40
1.0
 40
1.0
 40
1.0
 10
354.5438150212728
 20
110.8489457226055
 30
0.0
 10
354.6261438512847
 20
111.1102817341573
 30
0.0
 10
354.7910793637053
 20
111.6338357427963
 30
0.0
 10
355.0573695176382
 20
112.1901494424988
 30
0.0
 10
355.2501798457704
 20
112.5283412747267
 30
0.0
 10
355.3516386656778
 20
112.7032183088639
 30
0.0
 10
355.3847526854629
 20
112.7556082698547
 30
0.0
 10
355.396343049463
 20
112.773945479344
 30
0.0
  0
SPLINE
  5
103
330
1F
100
AcDbEntity
  8
0
  6
Continuous
 62
     7
370
    25
100
AcDbSpline
210
0.0
220
0.0
230
1.0
 70
     8
 71
     3
 72
    12
 73
     8
 74
     0
 42
0.000000001
 43
0.00000001
 40
0.0
 40
0.0
 40
0.0
 40
0.0
 40
0.2971540265968837
 40
0.5953109213084592
 40
0.7630993176302537
 40
0.9170814912125203
 40
1.0
 40
1.0
 40
1.0
 40
1.0
 10
372.3395305023157
 20
106.6364456607657
 30
0.0
 10
372.2572016723039
 20
106.3751096492138
 30
0.0
 10
372.0922661598834
 20
105.8515556405749
 30
0.0
 10
371.8259760059503
 20
105.2952419408723
 30
0.0
 10
371.6331656778182
 20
104.9570501086445
 30
0.0
 10
371.5317068579108
 20
104.7821730745073
 30
0.0
 10
371.4985928381257
 20
104.7297831135165
 30
0.0
 10
371.4870024741256
 20
104.7114459040271
 30
0.0
  0
SPLINE
  5
104
330
1F
100
AcDbEntity
  8
0
  6
Continuous
 62
     7
370
    25
100
AcDbSpline
210
0.0
220
0.0
230
1.0
 70
     8
 71
     3
 72
    11
 73
     7
 74
     0
 42
0.000000001
 43
0.00000001
 40
0.0
 40
0.0
 40
0.0
 40
0.0
 40
0.1078686449390932
 40
0.4034673949314601
 40
0.7028907467952099
 40
1.0
 40
1.0
 40
1.0
 40
1.0
 10
355.3952738911473
 20
104.7114459040271
 30
0.0
 10
355.3788280068998
 20
104.7374104716304
 30
0.0
 10
355.317314505192
 20
104.8345272608263
 30
0.0
 10
355.1018059027296
 20
105.2102041685195
 30
0.0
 10
354.7900378433437
 20
105.8494671881398
 30
0.0
 10
354.6256767627638
 20
106.3747988006445
 30
0.0
 10
354.5438150212728
 20
106.6364456607657
 30
0.0
  0
LINE
  5
105
330
1F
100
AcDbEntity
  8
0
  6
Continuous
 62
     7
370
    25
100
AcDbLine
 10
354.8600754038
 20
110.7740822888
 30
0.0
 11
354.5438150213
 21
110.8489457226
 31
0.0
  0
SPLINE
  5
106
330
1F
100
AcDbEntity
  8
0
  6
Continuous
 62
     7
370
    25
100
AcDbSpline
210
0.0
220
0.0
230
1.0
 70
     8
 71
     3
 72
    25
 73
    21
 74
     0
 42
0.000000001
 43
0.00000001
 40
0.0
 40
0.0
 40
0.0
 40
0.0
 40
0.027814432005302
 40
0.0555680196227503
 40
0.0833316253654294
 40
0.11117603521416
 40
0.1391714221506294
 40
0.1673868326261325
 40
0.1958897140416249
 40
0.2247454979307827
 40
0.2540172492219888
 40
0.3796724409981995
 40
0.5056484635001904
 40
0.6297527290679305
 40
0.7535891720571253
 40
0.8038564806088785
 40
0.8533396843427347
 40
0.9023264398351395
 40
0.9511131859214658
 40
1.0
 40
1.0
 40
1.0
 40
1.0
 10
355.7276966725058
 20
113.0164439828681
 30
0.0
 10
355.7275489211911
 20
113.0161774403145
 30
0.0
 10
355.7272537417693
 20
113.0156449382723
 30
0.0
 10
355.7236290427535
 20
113.0090974895761
 30
0.0
 10
355.7176831470832
 20
112.9983282462899
 30
0.0
 10
355.7092084241681
 20
112.9829175103655
 30
0.0
 10
355.698293437329
 20
112.9629611341118
 30
0.0
 10
355.6849573690906
 20
112.9384110376413
 30
0.0
 10
355.6692496044036
 20
112.9092544138854
 30
0.0
 10
355.6512180162457
 20
112.8754584424519
 30
0.0
 10
355.6088004714994
 20
112.795051684398
 30
0.0
 10
355.5282794317458
 20
112.6380632347273
 30
0.0
 10
355.394853084871
 20
112.35627749698
 30
0.0
 10
355.2507761081868
 20
112.0184053873507
 30
0.0
 10
355.1350983567355
 20
111.7097244736128
 30
0.0
 10
355.0525868815182
 20
111.4636937538575
 30
0.0
 10
354.9996652569932
 20
111.2948678625851
 30
0.0
 10
354.9498081226157
 20
111.1235522915733
 30
0.0
 10
354.9027901293849
 20
110.9498699413517
 30
0.0
 10
354.8743231186562
 20
110.8327182530474
 30
0.0
 10
354.8600750308572
 20
110.7740823970855
 30
0.0
  0
LINE
  5
107
330
1F
100
AcDbEntity
  8
0
  6
Continuous
 62
     7
370
    25
100
AcDbLine
 10
354.8600754038
 20
106.7113090946
 30
0.0
 11
354.5438150213
 21
106.6364456608
 31
0.0
  0
SPLINE
  5
108
330
1F
100
AcDbEntity
  8
0
  6
Continuous
 62
     7
370
    25
100
AcDbSpline
210
0.0
220
0.0
230
1.0
 70
     8
 71
     3
 72
    25
 73
    21
 74
     0
 42
0.000000001
 43
0.00000001
 40
0.0
 40
0.0
 40
0.0
 40
0.0
 40
0.0269872354804321
 40
0.0539362690271246
 40
0.0809037148843963
 40
0.1079460716561957
 40
0.1351193706872409
 40
0.1624788388370686
 40
0.1900785854194262
 40
0.2179713214297554
 40
0.246208117098541
 40
0.3700050494723939
 40
0.4947542611659231
 40
0.6210439034695978
 40
0.7446557472315233
 40
0.7967060293739181
 40
0.847861344933
 40
0.8985210411991005
 40
0.9490962115258148
 40
1.0
 40
1.0
 40
1.0
 40
1.0
 10
354.8600750308572
 20
106.7113089862857
 30
0.0
 10
354.8678557755815
 20
106.6789125812572
 30
0.0
 10
354.8834062509528
 20
106.6141656301145
 30
0.0
 10
354.9080916569266
 20
106.5175190936841
 30
0.0
 10
354.9337116139259
 20
106.4214250051916
 30
0.0
 10
354.9603544775536
 20
106.3259127344743
 30
0.0
 10
354.9879796628381
 20
106.2309880070816
 30
0.0
 10
355.0165814418973
 20
106.1366618509465
 30
0.0
 10
355.0461435315385
 20
106.0429455064984
 30
0.0
 10
355.0766566785851
 20
105.9498414226099
 30
0.0
 10
355.1433908831744
 20
105.7535761804969
 30
0.0
 10
355.2505740592698
 20
105.4675030648949
 30
0.0
 10
355.394354149579
 20
105.1302131689007
 30
0.0
 10
355.52760260579
 20
104.8487039920789
 30
0.0
 10
355.6152737820033
 20
104.6777130619004
 30
0.0
 10
355.6661488177955
 20
104.5818002435181
 30
0.0
 10
355.693817972447
 20
104.5305830400634
 30
0.0
 10
355.7135168905645
 20
104.4946002459783
 30
0.0
 10
355.725764399268
 20
104.4724303576563
 30
0.0
 10
355.727051192424
 20
104.4701108899228
 30
0.0
 10
355.7276966725058
 20
104.4689474005031
 30
0.0
  0
LINE
  5
109
330
1F
100
AcDbEntity
  8
0
  6
Continuous
 62
     7
370
    25
100
AcDbLine
 10
372.0232701198
 20
106.7113090946
 30
0.0
 11
372.3395305023
 21
106.6364456608
 31
0.0
  0
SPLINE
  5
10A
330
1F
100
AcDbEntity
  8
0
  6
Continuous
 62
     7
370
    25
100
AcDbSpline
210
0.0
220
0.0
230
1.0
 70
     8
 71
     3
 72
    25
 73
    21
 74
     0
 42
0.000000001
 43
0.00000001
 40
0.0
 40
0.0
 40
0.0
 40
0.0
 40
0.0278144320056454
 40
0.0555680196233507
 40
0.0833316253662005
 40
0.1111760352150161
 40
0.1391714221514855
 40
0.1673868326269053
 40
0.1958897140422358
 40
0.2247454979311527
 40
0.2540172492220453
 40
0.3796724409991508
 40
0.5056484635002105
 40
0.6297527290695686
 40
0.7535891720571993
 40
0.8038564806098877
 40
0.8533396843442195
 40
0.9023264398366247
 40
0.9511131859224594
 40
1.0
 40
1.0
 40
1.0
 40
1.0
 10
371.1556488510828
 20
104.4689474005031
 30
0.0
 10
371.1557966023975
 20
104.4692139430566
 30
0.0
 10
371.1560917818192
 20
104.4697464450989
 30
0.0
 10
371.1597164808351
 20
104.476293893795
 30
0.0
 10
371.1656623765054
 20
104.4870631370813
 30
0.0
 10
371.1741370994205
 20
104.5024738730056
 30
0.0
 10
371.1850520862596
 20
104.5224302492593
 30
0.0
 10
371.198388154498
 20
104.5469803457298
 30
0.0
 10
371.214095919185
 20
104.5761369694857
 30
0.0
 10
371.2321275073429
 20
104.6099329409192
 30
0.0
 10
371.2745450520898
 20
104.6903396989743
 30
0.0
 10
371.3550660918434
 20
104.8473281486451
 30
0.0
 10
371.4884924387185
 20
105.1291138863933
 30
0.0
 10
371.6325694154021
 20
105.4669859960213
 30
0.0
 10
371.748247166854
 20
105.7756669097608
 30
0.0
 10
371.8307586420715
 20
106.0216976295168
 30
0.0
 10
371.8836802665969
 20
106.1905235207908
 30
0.0
 10
371.9335374009742
 20
106.3618390918026
 30
0.0
 10
371.9805553942044
 20
106.5355214420225
 30
0.0
 10
372.0090224049327
 20
106.652673130325
 30
0.0
 10
372.0232704927314
 20
106.7113089862857
 30
0.0
  0
SPLINE
  5
10B
330
1F
100
AcDbEntity
  8
0
  6
Continuous
 62
     7
370
    25
100
AcDbSpline
210
0.0
220
0.0
230
1.0
 70
     8
 71
     3
 72
    11
 73
     7
 74
     0
 42
0.000000001
 43
0.00000001
 40
0.0
 40
0.0
 40
0.0
 40
0.0
 40
0.1078686449390932
 40
0.4034673949314601
 40
0.7028907467952099
 40
1.0
 40
1.0
 40
1.0
 40
1.0
 10
371.4880716324412
 20
112.773945479344
 30
0.0
 10
371.5045175166888
 20
112.7479809117408
 30
0.0
 10
371.5660310183966
 20
112.6508641225448
 30
0.0
 10
371.781539620859
 20
112.2751872148517
 30
0.0
 10
372.0933076802448
 20
111.6359241952313
 30
0.0
 10
372.2576687608248
 20
111.1105925827267
 30
0.0
 10
372.3395305023157
 20
110.8489457226055
 30
0.0
  0
LINE
  5
10C
330
1F
100
AcDbEntity
  8
0
  6
Continuous
 62
     7
370
    25
100
AcDbLine
 10
372.0232701198
 20
110.7740822888
 30
0.0
 11
372.3395305023
 21
110.8489457226
 31
0.0
  0
SPLINE
  5
10D
330
1F
100
AcDbEntity
  8
0
  6
Continuous
 62
     7
370
    25
100
AcDbSpline
210
0.0
220
0.0
230
1.0
 70
     8
 71
     3
 72
    12
 73
     8
 74
     0
 42
0.000000001
 43
0.00000001
 40
0.0
 40
0.0
 40
0.0
 40
0.0
 40
0.1404141540052139
 40
0.2845308631549995
 40
0.5710083094680874
 40
0.8589424285223366
 40
0.9999999999999999
 40
0.9999999999999999
 40
0.9999999999999999
 40
0.9999999999999999
 10
372.0232701197826
 20
110.7740822887676
 30
0.0
 10
371.9864992464518
 20
110.919628347593
 30
0.0
 10
371.9119878953567
 20
111.2145583426478
 30
0.0
 10
371.7316444113999
 20
111.7728089125331
 30
0.0
 10
371.4854230305922
 20
112.3806652475645
 30
0.0
 10
371.2672479902311
 20
112.8114523871569
 30
0.0
 10
371.2043121461253
 20
112.9273278840489
 30
0.0
 10
371.1836180918478
 20
112.9654291259753
 30
0.0
  0
ARC
  5
10E
330
1F
100
AcDbEntity
  8
0
  6
Continuous
 62
     7
370
    25
100
AcDbCircle
 10
363.4416727618
 20
108.7426956917
 30
0.0
 40
11.62303852141071
100
AcDbArc
 50
169.5595567507
 51
190.4404432494
  0
ARC
  5
10F
330
1F
100
AcDbEntity
  8
0
  6
Continuous
 62
     7
370
    25
100
AcDbCircle
 10
363.4416727618
 20
108.7426956917
 30
0.0
 40
9.143750000000006
100
AcDbArc
 50
166.6824039243
 51
193.3175960757
  0
ARC
  5
110
330
1F
100
AcDbEntity
  8
0
  6
Continuous
 62
     7
370
    25
100
AcDbCircle
 10
363.4416727618
 20
108.7426956917
 30
0.0
 40
8.81874999999997
100
AcDbArc
 50
166.6824039243
 51
193.3175960757
  0
ARC
  5
111
330
1F
100
AcDbEntity
  8
0
  6
Continuous
 62
     7
370
    25
100
AcDbCircle
 10
363.4416727618
 20
108.7426956917
 30
0.0
 40
9.143750000000006
100
AcDbArc
 50
346.6824039243
 51
13.3175960757
  0
ARC
  5
112
330
1F
100
AcDbEntity
  8
0
  6
Continuous
 62
     7
370
    25
100
AcDbCircle
 10
363.4416727618
 20
108.7426956917
 30
0.0
 40
8.818750000000026
100
AcDbArc
 50
346.6824039243
 51
13.3175960757
  0
ARC
  5
113
330
1F
100
AcDbEntity
  8
0
  6
Continuous
 62
     7
370
    25
100
AcDbCircle
 10
363.4416727618
 20
108.7426956917
 30
0.0
 40
11.6230385214107
100
AcDbArc
 50
349.5595567507
 51
10.4404432493
  0
CIRCLE
  5
114
330
1F
100
AcDbEntity
  8
0
  6
Continuous
 62
     7
370
    25
100
AcDbCircle
 10
363.4416727618
 20
108.7426956917
 30
0.0
 40
7.774999999999977
  0
CIRCLE
  5
115
330
1F
100
AcDbEntity
  8
0
  6
Continuous
 62
     7
370
    25
100
AcDbCircle
 10
363.4416727618
 20
108.7426956917
 30
0.0
 40
2.615470053837896
  0
CIRCLE
  5
116
330
1F
100
AcDbEntity
  8
0
  6
Continuous
 62
     7
370
    25
100
AcDbCircle
 10
363.4416727618
 20
108.7426956917
 30
0.0
 40
2.5
  0
CIRCLE
  5
117
330
1F
100
AcDbEntity
  8
0
  6
Continuous
 62
     7
370
    25
100
AcDbCircle
 10
363.4416727618
 20
108.7426956917
 30
0.0
 40
15.73749999999995
  0
CIRCLE
  5
118
330
1F
100
AcDbEntity
  8
0
  6
Continuous
 62
     7
370
    25
100
AcDbCircle
 10
363.4416727618
 20
108.7426956917
 30
0.0
 40
13.42499999999995
  0
CIRCLE
  5
119
330
1F
100
AcDbEntity
  8
0
  6
Continuous
 62
     7
370
    25
100
AcDbCircle
 10
363.4416727618
 20
108.7426956917
 30
0.0
 40
2.0
  0
LINE
  5
11A
330
1F
100
AcDbEntity
  8
0
  6
Continuous
 62
     7
370
    25
100
AcDbLine
 10
364.5413025551
 20
107.8077370591
 30
0.0
 11
364.8011855584
 21
109.227523714
 31
0.0
  0
LINE
  5
11B
330
1F
100
AcDbEntity
  8
0
  6
Continuous
 62
     7
370
    25
100
AcDbLine
 10
364.8011855584
 20
109.227523714
 30
0.0
 11
363.7015557942
 21
110.1624822884
 31
0.0
  0
LINE
  5
11C
330
1F
100
AcDbEntity
  8
0
  6
Continuous
 62
     7
370
    25
100
AcDbLine
 10
363.7015557942
 20
110.1624822884
 30
0.0
 11
362.3420429685
 21
109.6776543243
 31
0.0
  0
LINE
  5
11D
330
1F
100
AcDbEntity
  8
0
  6
Continuous
 62
     7
370
    25
100
AcDbLine
 10
362.3420429685
 20
109.6776543243
 30
0.0
 11
362.0821599652
 21
108.2578676694
 31
0.0
  0
LINE
  5
11E
330
1F
100
AcDbEntity
  8
0
  6
Continuous
 62
     7
370
    25
100
AcDbLine
 10
362.0821599652
 20
108.2578676694
 30
0.0
 11
363.1817897294
 21
107.322909095
 31
0.0
  0
LINE
  5
11F
330
1F
100
AcDbEntity
  8
0
  6
Continuous
 62
     7
370
    25
100
AcDbLine
 10
363.1817897294
 20
107.322909095
 30
0.0
 11
364.5413025551
 21
107.8077370591
 31
0.0
  0
ARC
  5
120
330
1F
100
AcDbEntity
  8
0
  6
Continuous
 62
     7
370
    25
100
AcDbCircle
 10
363.4416727618
 20
108.7426956917
 30
0.0
 40
1.24999999999999
100
AcDbArc
 50
109.6271967899
 51
169.6271967899
  0
ARC
  5
121
330
1F
100
AcDbEntity
  8
0
  6
Continuous
 62
     7
370
    25
100
AcDbCircle
 10
363.4416727618
 20
108.7426956917
 30
0.0
 40
1.250000000000013
100
AcDbArc
 50
169.6271967899
 51
229.6271967899
  0
ARC
  5
122
330
1F
100
AcDbEntity
  8
0
  6
Continuous
 62
     7
370
    25
100
AcDbCircle
 10
363.4416727618
 20
108.7426956917
 30
0.0
 40
1.250000000000013
100
AcDbArc
 50
349.6271967899
 51
49.6271967899
  0
ARC
  5
123
330
1F
100
AcDbEntity
  8
0
  6
Continuous
 62
     7
370
    25
100
AcDbCircle
 10
363.4416727618
 20
108.7426956917
 30
0.0
 40
1.250000000000003
100
AcDbArc
 50
289.6271967899
 51
349.6271967899
  0
ARC
  5
124
330
1F
100
AcDbEntity
  8
0
  6
Continuous
 62
     7
370
    25
100
AcDbCircle
 10
363.4416727618
 20
108.7426956917
 30
0.0
 40
1.250000000000013
100
AcDbArc
 50
229.6271967899
 51
289.6271967899
  0
ARC
  5
125
330
1F
100
AcDbEntity
  8
0
  6
Continuous
 62
     7
370
    25
100
AcDbCircle
 10
363.4416727618
 20
108.7426956917
 30
0.0
 40
1.250000000000013
100
AcDbArc
 50
49.6271967899
 51
109.6271967899
  0
LINE
  5
126
330
1F
100
AcDbEntity
  8
0
  6
CENTER
 62
     7
370
    18
100
AcDbLine
 10
363.4416727618
 20
108.7426956917
 30
0.0
 11
363.4416727618
 21
128.2456472918
 31
0.0
  0
LINE
  5
127
330
1F
100
AcDbEntity
  8
0
  6
CENTER
 62
     7
370
    18
100
AcDbLine
 10
363.4416727618
 20
108.7426956917
 30
0.0
 11
382.9561727618
 21
108.7426956917
 31
0.0
  0
LINE
  5
128
330
1F
100
AcDbEntity
  8
0
  6
Continuous
 62
     7
370
    18
100
AcDbLine
 10
375.4416727618
 20
126.2456472918
 30
0.0
 11
363.4416727618
 21
126.2456472918
 31
0.0
  0
SOLID
  5
129
330
1F
100
AcDbEntity
  8
0
  6
Continuous
 62
     7
370
    18
100
AcDbTrace
 10
363.4416727618
 20
126.2456472918
 30
0.0
 11
369.4416727618
 21
124.7456472918
 31
0.0
 12
369.4416727618
 22
127.7456472918
 32
0.0
 13
369.4416727618
 23
127.7456472918
 33
0.0
  0
LINE
  5
12A
330
1F
100
AcDbEntity
  8
0
  6
Continuous
 62
     7
370
    18
100
AcDbLine
 10
392.9561727618
 20
108.7426956917
 30
0.0
 11
380.9561727618
 21
108.7426956917
 31
0.0
  0
SOLID
  5
12B
330
1F
100
AcDbEntity
  8
0
  6
Continuous
 62
     7
370
    18
100
AcDbTrace
 10
380.9561727618
 20
108.7426956917
 30
0.0
 11
386.9561727618
 21
107.2426956917
 31
0.0
 12
386.9561727618
 22
110.2426956917
 32
0.0
 13
386.9561727618
 23
110.2426956917
 33
0.0
  0
MTEXT
  5
12C
330
1F
100
AcDbEntity
  8
0
  6
Continuous
 62
     7
100
AcDbMText
 10
372.2942920178
 20
132.8919405084
 30
0.0
 40
3.5
 41
0.0
 71
     1
 72
     1
  1
A
  7
SLDTEXTSTYLE0
 73
     1
 44
1.0
  0
MTEXT
  5
12D
330
1F
100
AcDbEntity
  8
0
  6
Continuous
 62
     7
100
AcDbMText
 10
389.8087920178
 20
106.5294800505
 30
0.0
 40
3.5
 41
0.0
 71
     1
 72
     1
  1
A
  7
SLDTEXTSTYLE0
 73
     1
 44
1.0
  0
LINE
  5
12E
330
1F
100
AcDbEntity
  8
0
  6
Continuous
 62
     7
370
    25
100
AcDbLine
 10
120.2494033373
 20
77.2676956917
 30
0.0
 11
125.0152055328
 21
77.2676956917
 31
0.0
  0
ARC
  5
12F
330
1F
100
AcDbEntity
  8
0
  6
Continuous
 62
     7
370
    25
100
AcDbCircle
 10
107.2152055328
 20
77.4676956917
 30
0.0
 40
0.2000000000000028
100
AcDbArc
 50
180.0
 51
270.0
  0
LINE
  5
130
330
1F
100
AcDbEntity
  8
0
  6
Continuous
 62
     7
370
    25
100
AcDbLine
 10
107.2152055328
 20
77.2676956917
 30
0.0
 11
113.5810077282
 21
77.2676956917
 31
0.0
  0
LINE
  5
131
330
1F
100
AcDbEntity
  8
0
  6
Continuous
 62
     7
370
    25
100
AcDbLine
 10
113.5810077282
 20
77.2676956917
 30
0.0
 11
115.0402055328
 21
79.7951004275
 31
0.0
  0
LINE
  5
132
330
1F
100
AcDbEntity
  8
0
  6
Continuous
 62
     7
370
    25
100
AcDbLine
 10
118.7902055328
 20
79.7951004275
 30
0.0
 11
120.2494033373
 21
77.2676956917
 31
0.0
  0
ARC
  5
133
330
1F
100
AcDbEntity
  8
0
  6
Continuous
 62
     7
370
    25
100
AcDbCircle
 10
116.0402055328
 20
79.8926956917
 30
0.0
 40
1.000000000000014
100
AcDbArc
 50
90.0
 51
180.0
  0
ARC
  5
134
330
1F
100
AcDbEntity
  8
0
  6
Continuous
 62
     7
370
    25
100
AcDbCircle
 10
117.7902055328
 20
79.8926956917
 30
0.0
 40
1.0
100
AcDbArc
 50
0.0
 51
90.0
  0
LINE
  5
135
330
1F
100
AcDbEntity
  8
0
  6
Continuous
 62
     7
370
    25
100
AcDbLine
 10
116.0402055328
 20
80.8926956917
 30
0.0
 11
117.7902055328
 21
80.8926956917
 31
0.0
  0
ARC
  5
136
330
1F
100
AcDbEntity
  8
0
  6
Continuous
 62
     7
370
    25
100
AcDbCircle
 10
106.5862706582
 20
83.1926956917
 30
0.0
 40
0.8000000000000081
100
AcDbArc
 50
57.576802718
 51
107.5
  0
LINE
  5
137
330
1F
100
AcDbEntity
  8
0
  6
Continuous
 62
     7
370
    25
100
AcDbLine
 10
105.8550234927
 20
83.8009576462
 30
0.0
 11
106.3457060186
 21
83.9556692523
 31
0.0
  0
LINE
  5
138
330
1F
100
AcDbEntity
  8
0
  6
Continuous
 62
     7
370
    25
100
AcDbLine
 10
92.5287600647
 20
84.4701751709
 30
0.0
 11
105.8550234927
 21
83.8009576462
 31
0.0
  0
LINE
  5
139
330
1F
100
AcDbEntity
  8
0
  6
Continuous
 62
     7
370
    25
100
AcDbLine
 10
68.5652055328
 20
85.6735755641
 30
0.0
 11
76.6200423963
 21
85.2690782331
 31
0.0
  0
LINE
  5
13A
330
1F
100
AcDbEntity
  8
0
  6
Continuous
 62
     7
370
    25
100
AcDbLine
 10
67.0652055328
 20
86.5396009679
 30
0.0
 11
68.5652055328
 21
85.6735755641
 31
0.0
  0
ARC
  5
13B
330
1F
100
AcDbEntity
  8
0
  6
Continuous
 62
     7
370
    25
100
AcDbCircle
 10
128.0152055328
 20
88.7426956917
 30
0.0
 40
3.000000000000014
100
AcDbArc
 50
90.0
 51
180.0
  0
LINE
  5
13C
330
1F
100
AcDbEntity
  8
0
  6
Continuous
 62
     7
370
    25
100
AcDbLine
 10
182.5434889562
 20
91.7426956917
 30
0.0
 11
225.1721237242
 21
95.0976420075
 31
0.0
  0
LINE
  5
13D
330
1F
100
AcDbEntity
  8
0
  6
Continuous
 62
     7
370
    25
100
AcDbLine
 10
128.0152055328
 20
91.7426956917
 30
0.0
 11
182.5434889562
 21
91.7426956917
 31
0.0
  0
ARC
  5
13E
330
1F
100
AcDbEntity
  8
0
  6
Continuous
 62
     7
370
    25
100
AcDbCircle
 10
225.0152055328
 20
97.091476675
 30
0.0
 40
2.0
100
AcDbArc
 50
274.5
 51
0.0
  0
LINE
  5
13F
330
1F
100
AcDbEntity
  8
0
  6
Continuous
 62
     7
370
    25
100
AcDbLine
 10
181.0152055328
 20
113.2426956917
 30
0.0
 11
180.5152055328
 21
113.7426956917
 31
0.0
  0
LINE
  5
140
330
1F
100
AcDbEntity
  8
0
  6
Continuous
 62
     7
370
    25
100
AcDbLine
 10
180.5152055328
 20
113.7426956917
 30
0.0
 11
165.0152055328
 21
113.7426956917
 31
0.0
  0
LINE
  5
141
330
1F
100
AcDbEntity
  8
0
  6
Continuous
 62
     7
370
    25
100
AcDbLine
 10
165.0152055328
 20
113.7426956917
 30
0.0
 11
164.5152055328
 21
113.2426956917
 31
0.0
  0
LINE
  5
142
330
1F
100
AcDbEntity
  8
0
  6
Continuous
 62
     7
370
    25
100
AcDbLine
 10
182.5152055328
 20
113.2385257226
 30
0.0
 11
184.5152055328
 21
113.2385257226
 31
0.0
  0
LINE
  5
143
330
1F
100
AcDbEntity
  8
0
  6
Continuous
 62
     7
370
    25
100
AcDbLine
 10
182.5152055328
 20
113.2426956917
 30
0.0
 11
181.0152055328
 21
113.2426956917
 31
0.0
  0
LINE
  5
144
330
1F
100
AcDbEntity
  8
0
  6
Continuous
 62
     7
370
    25
100
AcDbLine
 10
178.5152055328
 20
111.0974409834
 30
0.0
 11
178.5152055328
 21
111.2426956917
 31
0.0
  0
LINE
  5
145
330
1F
100
AcDbEntity
  8
0
  6
Continuous
 62
     7
370
    25
100
AcDbLine
 10
178.5152055328
 20
109.1928263157
 30
0.0
 11
178.5152055328
 21
111.0974409834
 31
0.0
  0
LINE
  5
146
330
1F
100
AcDbEntity
  8
0
  6
Continuous
 62
     7
370
    25
100
AcDbLine
 10
178.5152055328
 20
108.7426956917
 30
0.0
 11
178.5152055328
 21
109.1928263157
 31
0.0
  0
LINE
  5
147
330
1F
100
AcDbEntity
  8
0
  6
Continuous
 62
     7
370
    25
100
AcDbLine
 10
170.5152055327
 20
109.1928263157
 30
0.0
 11
170.5152055327
 21
108.7426956917
 31
0.0
  0
LINE
  5
148
330
1F
100
AcDbEntity
  8
0
  6
Continuous
 62
     7
370
    25
100
AcDbLine
 10
170.5152055327
 20
111.0974409834
 30
0.0
 11
170.5152055327
 21
109.1928263157
 31
0.0
  0
LINE
  5
149
330
1F
100
AcDbEntity
  8
0
  6
Continuous
 62
     7
370
    25
100
AcDbLine
 10
170.5152055327
 20
111.2426956917
 30
0.0
 11
170.5152055327
 21
111.0974409834
 31
0.0
  0
LINE
  5
14A
330
1F
100
AcDbEntity
  8
0
  6
Continuous
 62
     7
370
    25
100
AcDbLine
 10
170.5152055327
 20
111.2426956917
 30
0.0
 11
178.5152055328
 21
111.2426956917
 31
0.0
  0
LINE
  5
14B
330
1F
100
AcDbEntity
  8
0
  6
Continuous
 62
     7
370
    25
100
AcDbLine
 10
182.5152055328
 20
111.3969105751
 30
0.0
 11
182.5152055328
 21
113.2426956917
 31
0.0
  0
LINE
  5
14C
330
1F
100
AcDbEntity
  8
0
  6
Continuous
 62
     7
370
    25
100
AcDbLine
 10
178.5152055328
 20
111.3969105751
 30
0.0
 11
182.5152055328
 21
111.3969105751
 31
0.0
  0
LINE
  5
14D
330
1F
100
AcDbEntity
  8
0
  6
Continuous
 62
     7
370
    25
100
AcDbLine
 10
178.5152055328
 20
111.2426956917
 30
0.0
 11
178.5152055328
 21
111.3969105751
 31
0.0
  0
LINE
  5
14E
330
1F
100
AcDbEntity
  8
0
  6
Continuous
 62
     7
370
    25
100
AcDbLine
 10
170.5152055327
 20
111.3969105751
 30
0.0
 11
170.5152055327
 21
111.2426956917
 31
0.0
  0
LINE
  5
14F
330
1F
100
AcDbEntity
  8
0
  6
Continuous
 62
     7
370
    25
100
AcDbLine
 10
164.5152055327
 20
111.3969105751
 30
0.0
 11
170.5152055327
 21
111.3969105751
 31
0.0
  0
LINE
  5
150
330
1F
100
AcDbEntity
  8
0
  6
Continuous
 62
     7
370
    25
100
AcDbLine
 10
164.5152055328
 20
113.2426956917
 30
0.0
 11
164.5152055327
 21
111.3969105751
 31
0.0
  0
LINE
  5
151
330
1F
100
AcDbEntity
  8
0
  6
Continuous
 62
     7
370
    25
100
AcDbLine
 10
184.5152055328
 20
111.1944065863
 30
0.0
 11
182.5152055328
 21
111.1944065863
 31
0.0
  0
LINE
  5
152
330
1F
100
AcDbEntity
  8
0
  6
Continuous
 62
     7
370
    25
100
AcDbLine
 10
184.5152055328
 20
111.1944065863
 30
0.0
 11
184.5152055328
 21
110.6126129688
 31
0.0
  0
LINE
  5
153
330
1F
100
AcDbEntity
  8
0
  6
Continuous
 62
     7
370
    25
100
AcDbLine
 10
178.5152055328
 20
110.6126129688
 30
0.0
 11
184.5152055328
 21
110.6126129688
 31
0.0
  0
LINE
  5
154
330
1F
100
AcDbEntity
  8
0
  6
Continuous
 62
     7
370
    25
100
AcDbLine
 10
182.5152055328
 20
111.1944065863
 30
0.0
 11
182.5152055328
 21
111.3969105751
 31
0.0
  0
LINE
  5
155
330
1F
100
AcDbEntity
  8
0
  6
Continuous
 62
     7
370
    25
100
AcDbLine
 10
170.5152055327
 20
110.6126129688
 30
0.0
 11
164.5152055327
 21
110.6126129688
 31
0.0
  0
LINE
  5
156
330
1F
100
AcDbEntity
  8
0
  6
Continuous
 62
     7
370
    25
100
AcDbLine
 10
164.5152055327
 20
111.3969105751
 30
0.0
 11
164.5152055327
 21
110.6126129688
 31
0.0
  0
LINE
  5
157
330
1F
100
AcDbEntity
  8
0
  6
Continuous
 62
     7
370
    25
100
AcDbLine
 10
184.5152055328
 20
113.2385257226
 30
0.0
 11
184.5152055328
 21
111.1944065863
 31
0.0
  0
LINE
  5
158
330
1F
100
AcDbEntity
  8
0
  6
Continuous
 62
     7
370
    25
100
AcDbLine
 10
184.5152055328
 20
110.6126129688
 30
0.0
 11
184.5152055328
 21
108.7426956917
 31
0.0
  0
LINE
  5
159
330
1F
100
AcDbEntity
  8
0
  6
Continuous
 62
     7
370
    25
100
AcDbLine
 10
164.5152055327
 20
110.6126129688
 30
0.0
 11
164.5152055327
 21
108.7426956917
 31
0.0
  0
LINE
  5
15A
330
1F
100
AcDbEntity
  8
0
  6
Continuous
 62
     7
370
    25
100
AcDbLine
 10
120.2494033373
 20
77.2676956917
 30
0.0
 11
120.2494033373
 21
103.852988412
 31
0.0
  0
SPLINE
  5
15B
330
1F
100
AcDbEntity
  8
0
  6
Continuous
 62
     7
370
    25
100
AcDbSpline
210
0.0
220
0.0
230
1.0
 70
     8
 71
     3
 72
    20
 73
    16
 74
     0
 42
0.000000001
 43
0.00000001
 40
0.0
 40
0.0
 40
0.0
 40
0.0
 40
0.1249999999999996
 40
0.1249999999999996
 40
0.2499999999999992
 40
0.2499999999999992
 40
0.3749999999999989
 40
0.3749999999999989
 40
0.4999999999999987
 40
0.4999999999999987
 40
0.7499999999999994
 40
0.7499999999999994
 40
0.8749999999999997
 40
0.8749999999999997
 40
1.0
 40
1.0
 40
1.0
 40
1.0
 10
123.8027055327671
 20
108.7426956916859
 30
0.0
 10
123.8027055327671
 20
108.4760276042046
 30
0.0
 10
123.7806585037234
 20
108.2077154289306
 30
0.0
 10
123.6916524660186
 20
107.6748723936972
 30
0.0
 10
123.6257734978191
 20
107.4155821837113
 30
0.0
 10
123.4535985901119
 20
106.9104552176898
 30
0.0
 10
123.346892019205
 20
106.6638750017686
 30
0.0
 10
123.0942151163288
 20
106.1874583510288
 30
0.0
 10
122.950757852134
 20
105.962038289264
 30
0.0
 10
122.4724356598536
 20
105.3214306076503
 30
0.0
 10
122.084408676888
 20
104.9386648925472
 30
0.0
 10
121.4426040284426
 20
104.4627626443756
 30
0.0
 10
121.2177994007955
 20
104.3191670082238
 30
0.0
 10
120.7464903431732
 20
104.0618356228333
 30
0.0
 10
120.5007937432843
 20
103.9487832443114
 30
0.0
 10
120.2494033373372
 20
103.8529884120007
 30
0.0
  0
LINE
  5
15C
330
1F
100
AcDbEntity
  8
0
  6
Continuous
 62
     7
370
    25
100
AcDbLine
 10
125.0152055328
 20
77.2676956917
 30
0.0
 11
125.0152055328
 21
108.7426956917
 31
0.0
  0
LINE
  5
15D
330
1F
100
AcDbEntity
  8
0
  6
Continuous
 62
     7
370
    25
100
AcDbLine
 10
125.0152055328
 20
140.2176956917
 30
0.0
 11
120.2494033373
 21
140.2176956917
 31
0.0
  0
LINE
  5
15E
330
1F
100
AcDbEntity
  8
0
  6
Continuous
 62
     7
370
    25
100
AcDbLine
 10
107.0152055328
 20
77.4676956917
 30
0.0
 11
107.0152055328
 21
108.7426956917
 31
0.0
  0
LINE
  5
15F
330
1F
100
AcDbEntity
  8
0
  6
Continuous
 62
     7
370
    25
100
AcDbLine
 10
107.0152055328
 20
108.7426956917
 30
0.0
 11
107.2152055328
 21
108.7426956917
 31
0.0
  0
ARC
  5
160
330
1F
100
AcDbEntity
  8
0
  6
Continuous
 62
     7
370
    25
100
AcDbCircle
 10
107.2152055328
 20
140.0176956917
 30
0.0
 40
0.2000000000000171
100
AcDbArc
 50
90.0
 51
179.9999999999
  0
SPLINE
  5
161
330
1F
100
AcDbEntity
  8
0
  6
Continuous
 62
     7
370
    25
100
AcDbSpline
210
0.0
220
0.0
230
1.0
 70
     8
 71
     3
 72
    14
 73
    10
 74
     0
 42
0.000000001
 43
0.00000001
 40
0.0
 40
0.0
 40
0.0
 40
0.0
 40
0.25
 40
0.25
 40
0.5
 40
0.5
 40
0.75
 40
0.75
 40
1.0
 40
1.0
 40
1.0
 40
1.0
 10
113.581007728197
 20
105.447797606169
 30
0.0
 10
113.384131842672
 20
105.6752941740982
 30
0.0
 10
113.2080235212826
 20
105.9168809491693
 30
0.0
 10
112.8982871275093
 20
106.4290381835435
 30
0.0
 10
112.7637291260158
 20
106.7025709866516
 30
0.0
 10
112.5484869733067
 20
107.262676121189
 30
0.0
 10
112.4668437357877
 20
107.549648616599
 30
0.0
 10
112.3563207135177
 20
108.1376876016433
 30
0.0
 10
112.3277055327671
 20
108.442131057414
 30
0.0
 10
112.3277055327671
 20
108.7426956916857
 30
0.0
  0
LINE
  5
162
330
1F
100
AcDbEntity
  8
0
  6
Continuous
 62
     7
370
    25
100
AcDbLine
 10
113.5810077282
 20
77.2676956917
 30
0.0
 11
113.5810077282
 21
105.4477976062
 31
0.0
  0
LINE
  5
163
330
1F
100
AcDbEntity
  8
0
  6
Continuous
 62
     7
370
    25
100
AcDbLine
 10
113.5810077282
 20
140.2176956917
 30
0.0
 11
107.2152055328
 21
140.2176956917
 31
0.0
  0
ARC
  5
164
330
1F
100
AcDbEntity
  8
0
  6
Continuous
 62
     7
370
    25
100
AcDbCircle
 10
118.0652055328
 20
108.7426956917
 30
0.0
 40
3.737500000000008
100
AcDbArc
 50
180.0
 51
206.113804444
  0
SPLINE
  5
165
330
1F
100
AcDbEntity
  8
0
  6
Continuous
 62
     7
370
    25
100
AcDbSpline
210
0.0
220
0.0
230
1.0
 70
     8
 71
     3
 72
    10
 73
     6
 74
     0
 42
0.000000001
 43
0.00000001
 40
0.0
 40
0.0
 40
0.0
 40
0.0
 40
0.5
 40
0.5
 40
1.0
 40
1.0
 40
1.0
 40
1.0
 10
114.7092237253138
 20
107.0976144298501
 30
0.0
 10
114.5323385788904
 20
106.7991641144936
 30
0.0
 10
114.346789204013
 20
106.5201714103662
 30
0.0
 10
113.9688402639655
 20
105.9748521162404
 30
0.0
 10
113.7760537217863
 20
105.709516730419
 30
0.0
 10
113.581007728197
 20
105.447797606169
 30
0.0
  0
SPLINE
  5
166
330
1F
100
AcDbEntity
  8
0
  6
Continuous
 62
     7
370
    25
100
AcDbSpline
210
0.0
220
0.0
230
1.0
 70
     8
 71
     3
 72
     8
 73
     4
 74
     0
 42
0.000000001
 43
0.00000001
 40
0.0
 40
0.0
 40
0.0
 40
0.0
 40
1.0
 40
1.0
 40
1.0
 40
1.0
 10
120.2494033373368
 20
103.8529884119995
 30
0.0
 10
119.9010019326565
 20
104.2909637384135
 30
0.0
 10
119.5564335474236
 20
104.7340468769983
 30
0.0
 10
119.2180492481028
 20
105.1874379488468
 30
0.0
  0
ARC
  5
167
330
1F
100
AcDbEntity
  8
0
  6
Continuous
 62
     7
370
    25
100
AcDbCircle
 10
118.0652055328
 20
108.7426956917
 30
0.0
 40
3.737499999999997
100
AcDbArc
 50
287.9660359156
 51
0.0
  0
SPLINE
  5
168
330
1F
100
AcDbEntity
  8
0
  6
Continuous
 62
     7
370
    25
100
AcDbSpline
210
0.0
220
0.0
230
1.0
 70
     8
 71
     3
 72
     8
 73
     4
 74
     0
 42
0.000000001
 43
0.00000001
 40
0.0
 40
0.0
 40
0.0
 40
0.0
 40
1.0
 40
1.0
 40
1.0
 40
1.0
 10
115.0402055327672
 20
106.5476373211634
 30
0.0
 10
114.9219087733372
 20
106.7106615496218
 30
0.0
 10
114.8104802911658
 20
106.8910500486443
 30
0.0
 10
114.7092237253138
 20
107.0976144298501
 30
0.0
  0
LINE
  5
169
330
1F
100
AcDbEntity
  8
0
  6
Continuous
 62
     7
370
    25
100
AcDbLine
 10
115.0402055328
 20
79.7951004275
 30
0.0
 11
115.0402055328
 21
106.5476373212
 31
0.0
  0
SPLINE
  5
16A
330
1F
100
AcDbEntity
  8
0
  6
Continuous
 62
     7
370
    25
100
AcDbSpline
210
0.0
220
0.0
230
1.0
 70
     8
 71
     3
 72
     8
 73
     4
 74
     0
 42
0.000000001
 43
0.00000001
 40
0.0
 40
0.0
 40
0.0
 40
0.0
 40
1.0
 40
1.0
 40
1.0
 40
1.0
 10
119.2180492481031
 20
105.1874379488477
 30
0.0
 10
119.0765111598212
 20
105.1415421777506
 30
0.0
 10
118.9339006910843
 20
105.1046013268133
 30
0.0
 10
118.7902055327673
 20
105.0761876458727
 30
0.0
  0
LINE
  5
16B
330
1F
100
AcDbEntity
  8
0
  6
Continuous
 62
     7
370
    25
100
AcDbLine
 10
118.7902055328
 20
79.7951004275
 30
0.0
 11
118.7902055328
 21
105.0761876459
 31
0.0
  0
SPLINE
  5
16C
330
1F
100
AcDbEntity
  8
0
  6
Continuous
 62
     7
370
    25
100
AcDbSpline
210
0.0
220
0.0
230
1.0
 70
     8
 71
     3
 72
    14
 73
    10
 74
     0
 42
0.000000001
 43
0.00000001
 40
0.0
 40
0.0
 40
0.0
 40
0.0
 40
0.25
 40
0.25
 40
0.5
 40
0.5
 40
0.75
 40
0.75
 40
1.0
 40
1.0
 40
1.0
 40
1.0
 10
116.0402055327671
 20
105.6013136311907
 30
0.0
 10
115.9058574464106
 20
105.6879171928183
 30
0.0
 10
115.7826807725547
 20
105.7793855901417
 30
0.0
 10
115.5539341676367
 20
105.9705769767726
 30
0.0
 10
115.4520122036695
 20
106.0674388289136
 30
0.0
 10
115.2725888012407
 20
106.2553134436489
 30
0.0
 10
115.1961475130579
 20
106.3455487950001
 30
0.0
 10
115.0788575402078
 20
106.4933551589775
 30
0.0
 10
115.0402055327671
 20
106.5476373211635
 30
0.0
 10
115.0402055327671
 20
106.5476373211635
 30
0.0
  0
SPLINE
  5
16D
330
1F
100
AcDbEntity
  8
0
  6
Continuous
 62
     7
370
    25
100
AcDbSpline
210
0.0
220
0.0
230
1.0
 70
     8
 71
     3
 72
    14
 73
    10
 74
     0
 42
0.000000001
 43
0.00000001
 40
0.0
 40
0.0
 40
0.0
 40
0.0
 40
0.25
 40
0.25
 40
0.5
 40
0.5
 40
0.75
 40
0.75
 40
1.0
 40
1.0
 40
1.0
 40
1.0
 10
118.7902055327672
 20
105.0761876458732
 30
0.0
 10
118.7902055327674
 20
105.0761876458733
 30
0.0
 10
118.7642890101963
 20
105.0708109148849
 30
0.0
 10
118.6648441636187
 20
105.0532663272844
 30
0.0
 10
118.5925457712065
 20
105.0414169236381
 30
0.0
 10
118.4078418766826
 20
105.0197731056378
 30
0.0
 10
118.2982646148067
 20
105.0104838449535
 30
0.0
 10
118.0549344365885
 20
105.0032283085959
 30
0.0
 10
117.9233981776684
 20
105.0054997147552
 30
0.0
 10
117.7902055327671
 20
105.0153264786884
 30
0.0
  0
SPLINE
  5
16E
330
1F
100
AcDbEntity
  8
0
  6
Continuous
 62
     7
370
    25
100
AcDbSpline
210
0.0
220
0.0
230
1.0
 70
     8
 71
     3
 72
    10
 73
     6
 74
     0
 42
0.000000001
 43
0.00000001
 40
0.0
 40
0.0
 40
0.0
 40
0.0
 40
0.5
 40
0.5
 40
1.0
 40
1.0
 40
1.0
 40
1.0
 10
117.7902055327671
 20
105.0153264786885
 30
0.0
 10
117.477741630479
 20
105.0383796210575
 30
0.0
 10
117.1748526484812
 20
105.0996143234639
 30
0.0
 10
116.5875094636772
 20
105.2957862873878
 30
0.0
 10
116.3030418031052
 20
105.4318839224877
 30
0.0
 10
116.0402055327671
 20
105.6013136311907
 30
0.0
  0
LINE
  5
16F
330
1F
100
AcDbEntity
  8
0
  6
Continuous
 62
     7
370
    25
100
AcDbLine
 10
107.0152055328
 20
135.5926956917
 30
0.0
 11
107.3492442188
 21
134.5332603313
 31
0.0
  0
LINE
  5
170
330
1F
100
AcDbEntity
  8
0
  6
Continuous
 62
     7
370
    25
100
AcDbLine
 10
107.0152055328
 20
135.5926956917
 30
0.0
 11
107.0152055328
 21
133.6174069583
 31
0.0
  0
ARC
  5
171
330
1F
100
AcDbEntity
  8
0
  6
Continuous
 62
     7
370
    25
100
AcDbCircle
 10
106.5862706582
 20
134.2926956917
 30
0.0
 40
0.799999999999991
100
AcDbArc
 50
252.5
 51
17.5
  0
LINE
  5
172
330
1F
100
AcDbEntity
  8
0
  6
Continuous
 62
     7
370
    25
100
AcDbLine
 10
105.8550234927
 20
83.8009576462
 30
0.0
 11
105.8550234927
 21
108.7426956917
 31
0.0
  0
LINE
  5
173
330
1F
100
AcDbEntity
  8
0
  6
Continuous
 62
     7
370
    25
100
AcDbLine
 10
106.3457060186
 20
133.5297221311
 30
0.0
 11
105.8550234927
 21
133.6844337372
 31
0.0
  0
SPLINE
  5
174
330
1F
100
AcDbEntity
  8
0
  6
Continuous
 62
     7
370
    25
100
AcDbSpline
210
0.0
220
0.0
230
1.0
 70
     8
 71
     3
 72
    22
 73
    18
 74
     0
 42
0.000000001
 43
0.00000001
 40
0.0
 40
0.0
 40
0.0
 40
0.0
 40
0.0016445446536851
 40
0.0768294850106593
 40
0.1514593084059455
 40
0.2250437066434717
 40
0.2982167773229535
 40
0.371307839517042
 40
0.4444589913757693
 40
0.516164909612041
 40
0.5876183139126699
 40
0.66121900163764
 40
0.7342074260722207
 40
0.8076706260923743
 40
0.8813280638682858
 40
0.9557355688597908
 40
0.9999999999999999
 40
0.9999999999999999
 40
0.9999999999999999
 40
0.9999999999999999
 10
76.77492265707322
 20
132.1669868379916
 30
0.0
 10
76.77610129747337
 20
132.1666232048285
 30
0.0
 10
76.8311647673244
 20
132.1496350685756
 30
0.0
 10
77.22760995263617
 20
132.0323612185962
 30
0.0
 10
77.94368333036235
 20
131.8317466712379
 30
0.0
 10
78.95335899138024
 20
131.59113285642
 30
0.0
 10
80.16933794919721
 20
131.3638601673393
 30
0.0
 10
81.57353873058085
 20
131.1914711590961
 30
0.0
 10
83.09059877309332
 20
131.1034012870109
 30
0.0
 10
84.66491178115946
 20
131.1344545918458
 30
0.0
 10
86.23067519710321
 20
131.2854567427862
 30
0.0
 10
87.72074976519403
 20
131.5398742607931
 30
0.0
 10
89.09161802821541
 20
131.8573097163352
 30
0.0
 10
90.28058693287261
 20
132.2023564960672
 30
0.0
 10
91.24673528245056
 20
132.5259494103097
 30
0.0
 10
91.90382421599689
 20
132.7714443505135
 30
0.0
 10
92.11965384721263
 20
132.8548000953615
 30
0.0
 10
92.20015793402858
 20
132.8858916469805
 30
0.0
  0
SPLINE
  5
175
330
1F
100
AcDbEntity
  8
0
  6
Continuous
 62
     7
370
    25
100
AcDbSpline
210
0.0
220
0.0
230
1.0
 70
     8
 71
     3
 72
     9
 73
     5
 74
     0
 42
0.000000001
 43
0.00000001
 40
0.0
 40
0.0
 40
0.0
 40
0.0
 40
0.0362226682115871
 40
1.0
 40
1.0
 40
1.0
 40
1.0
 10
92.37107273754657
 20
132.9514473136762
 30
0.0
 10
92.37661541944053
 20
132.9535728678185
 30
0.0
 10
92.52963236069914
 20
133.012253087894
 30
0.0
 10
92.53162742371035
 20
133.0138844725943
 30
0.0
 10
92.53355022021604
 20
133.0154567641879
 30
0.0
  0
LINE
  5
176
330
1F
100
AcDbEntity
  8
0
  6
Continuous
 62
     7
370
    25
100
AcDbLine
 10
76.6156396475
 20
132.2160920532
 30
0.0
 11
68.5652055328
 21
131.8118158193
 31
0.0
  0
LINE
  5
177
330
1F
100
AcDbEntity
  8
0
  6
Continuous
 62
     7
370
    25
100
AcDbLine
 10
68.5652055328
 20
85.6735755641
 30
0.0
 11
68.5652055328
 21
99.6205726571
 31
0.0
  0
SPLINE
  5
178
330
1F
100
AcDbEntity
  8
0
  6
Continuous
 62
     7
370
    25
100
AcDbSpline
210
0.0
220
0.0
230
1.0
 70
     8
 71
     3
 72
     8
 73
     4
 74
     0
 42
0.000000001
 43
0.00000001
 40
0.0
 40
0.0
 40
0.0
 40
0.0
 40
1.0
 40
1.0
 40
1.0
 40
1.0
 10
74.3833799857141
 20
99.62515871538244
 30
0.0
 10
72.44398850140269
 20
99.62301261953283
 30
0.0
 10
70.50459701709126
 20
99.62141643300806
 30
0.0
 10
68.56520553277986
 20
99.62036898053238
 30
0.0
  0
SPLINE
  5
179
330
1F
100
AcDbEntity
  8
0
  6
Continuous
 62
     7
370
    25
100
AcDbSpline
210
0.0
220
0.0
230
1.0
 70
     8
 71
     3
 72
    13
 73
     9
 74
     0
 42
0.000000001
 43
0.00000001
 40
0.0
 40
0.0
 40
0.0
 40
0.0
 40
0.1686319999748089
 40
0.3360343310905561
 40
0.5025367825908729
 40
0.6684737453788404
 40
0.8341822636915154
 40
1.0
 40
1.0
 40
1.0
 40
1.0
 10
75.46687503518108
 20
99.76261516120007
 30
0.0
 10
75.40738513912135
 20
99.74810084116123
 30
0.0
 10
75.28883914884626
 20
99.71917803987667
 30
0.0
 10
75.10896245326039
 20
99.68521664646842
 30
0.0
 10
74.92857216563236
 20
99.65835108410943
 30
0.0
 10
74.74745999359855
 20
99.63939214700149
 30
0.0
 10
74.56569915643111
 20
99.6274616956058
 30
0.0
 10
74.44416638853646
 20
99.62592654403697
 30
0.0
 10
74.38337998571409
 20
99.62515871538243
 30
0.0
  0
SPLINE
  5
17A
330
1F
100
AcDbEntity
  8
0
  6
Continuous
 62
     7
370
    25
100
AcDbSpline
210
0.0
220
0.0
230
1.0
 70
     8
 71
     3
 72
     8
 73
     4
 74
     0
 42
0.000000001
 43
0.00000001
 40
0.0
 40
0.0
 40
0.0
 40
0.0
 40
1.0
 40
1.0
 40
1.0
 40
1.0
 10
80.85906845167729
 20
99.76685320308552
 30
0.0
 10
79.06167378023835
 20
99.76498214256154
 30
0.0
 10
77.2642791087994
 20
99.76355996153741
 30
0.0
 10
75.46688443736046
 20
99.76258583854141
 30
0.0
  0
SPLINE
  5
17B
330
1F
100
AcDbEntity
  8
0
  6
Continuous
 62
     7
370
    25
100
AcDbSpline
210
0.0
220
0.0
230
1.0
 70
     8
 71
     3
 72
    18
 73
    14
 74
     0
 42
0.000000001
 43
0.00000001
 40
0.0
 40
0.0
 40
0.0
 40
0.0
 40
0.0923325137124559
 40
0.1843692047086504
 40
0.2763458873841173
 40
0.3684982175689556
 40
0.4610598988338003
 40
0.5542609546564705
 40
0.6483261285468145
 40
0.7434734636522684
 40
0.839913099312583
 40
0.920166071830381
 40
1.0
 40
1.0
 40
1.0
 40
1.0
 10
83.05539010027623
 20
99.23266096724193
 30
0.0
 10
82.98505979676219
 20
99.23307759167353
 30
0.0
 10
82.84462451990854
 20
99.23390950572016
 30
0.0
 10
82.63426199340368
 20
99.24751835263467
 30
0.0
 10
82.42481833048586
 20
99.27018511000632
 30
0.0
 10
82.21626866011263
 20
99.30278589980702
 30
0.0
 10
82.00862504283734
 20
99.34508837842728
 30
0.0
 10
81.80188685529848
 20
99.39715977708241
 30
0.0
 10
81.5960647633351
 20
99.45900854992779
 30
0.0
 10
81.39113308454515
 20
99.530606561384
 30
0.0
 10
81.19965233915154
 20
99.60718505161175
 30
0.0
 10
81.02192918709872
 20
99.68579630044522
 30
0.0
 10
80.9135951925353
 20
99.73971045623261
 30
0.0
 10
80.85956998308238
 20
99.76659697113156
 30
0.0
  0
LINE
  5
17C
330
1F
100
AcDbEntity
  8
0
  6
Continuous
 62
     7
370
    25
100
AcDbLine
 10
84.9702633796
 20
99.2341564021
 30
0.0
 11
83.0553901003
 21
99.2326609672
 31
0.0
  0
SPLINE
  5
17D
330
1F
100
AcDbEntity
  8
0
  6
Continuous
 62
     7
370
    25
100
AcDbSpline
210
0.0
220
0.0
230
1.0
 70
     8
 71
     3
 72
    25
 73
    21
 74
     0
 42
0.000000001
 43
0.00000001
 40
0.0
 40
0.0
 40
0.0
 40
0.0
 40
0.0280105225422327
 40
0.0559601148853515
 40
0.0839014045033802
 40
0.1118870776776037
 40
0.1399695827578598
 40
0.168200840173054
 40
0.1966319670416873
 40
0.2253130233137065
 40
0.2542927850735304
 40
0.3799486436555246
 40
0.5057850221666196
 40
0.6313085886311499
 40
0.7532068238012074
 40
0.8039473267951883
 40
0.8535894438548528
 40
0.9025339722388155
 40
0.9511970353787135
 40
1.0
 40
1.0
 40
1.0
 40
1.0
 10
89.91014768596851
 20
104.3680202066172
 30
0.0
 10
89.91018490770232
 20
104.2934001796048
 30
0.0
 10
89.91025927020294
 20
104.1443224436195
 30
0.0
 10
89.89784321955639
 20
103.9217043526556
 30
0.0
 10
89.87623865920261
 20
103.7003799346284
 30
0.0
 10
89.84455318954257
 20
103.4804116687405
 30
0.0
 10
89.80302705122266
 20
103.2618213815115
 30
0.0
 10
89.75159629549273
 20
103.0446394431063
 30
0.0
 10
89.69028242078153
 20
102.8288980232199
 30
0.0
 10
89.61907208528203
 20
102.6146081317675
 30
0.0
 10
89.44823547808208
 20
102.1662583587485
 30
0.0
 10
89.11050324464482
 20
101.512927530677
 30
0.0
 10
88.4989485804515
 20
100.7410343200399
 30
0.0
 10
87.76271374529993
 20
100.0968746946498
 30
0.0
 10
87.07622767365255
 20
99.7052335265894
 30
0.0
 10
86.52752352750109
 20
99.48653862561808
 30
0.0
 10
86.14548734899766
 20
99.37068257678754
 30
0.0
 10
85.75832125029316
 20
99.28977467125765
 30
0.0
 10
85.36609458150504
 20
99.24054624045976
 30
0.0
 10
85.10233331338826
 20
99.23628838544447
 30
0.0
 10
84.9702633795657
 20
99.23415640210169
 30
0.0
  0
LINE
  5
17E
330
1F
100
AcDbEntity
  8
0
  6
Continuous
 62
     7
370
    25
100
AcDbLine
 10
89.910147686
 20
108.7426956917
 30
0.0
 11
89.910147686
 21
104.3680202066
 31
0.0
  0
LINE
  5
17F
330
1F
100
AcDbEntity
  8
0
  6
Continuous
 62
     7
370
    25
100
AcDbLine
 10
105.8550234927
 20
133.6844337372
 30
0.0
 11
92.5335502202
 21
133.0154567642
 31
0.0
  0
SPLINE
  5
180
330
1F
100
AcDbEntity
  8
0
  6
Continuous
 62
     7
370
    25
100
AcDbSpline
210
0.0
220
0.0
230
1.0
 70
     8
 71
     3
 72
    20
 73
    16
 74
     0
 42
0.000000001
 43
0.00000001
 40
0.0
 40
0.0
 40
0.0
 40
0.0
 40
0.0829621378684852
 40
0.1658495135106162
 40
0.2487180070857354
 40
0.329947721639852
 40
0.410869399444573
 40
0.4941953814850556
 40
0.5768901676626219
 40
0.6601065810557769
 40
0.7435845489350845
 40
0.8279858465401877
 40
0.9132590745392873
 40
0.9972257035811793
 40
1.0
 40
1.0
 40
1.0
 40
1.0
 10
78.92762162749408
 20
85.87943532417894
 30
0.0
 10
79.31336746356537
 20
85.95635375078308
 30
0.0
 10
80.08451151668255
 20
86.11012128812067
 30
0.0
 10
81.49225966785241
 20
86.2860365095062
 30
0.0
 10
83.000111035727
 20
86.38003279683524
 30
0.0
 10
84.57260001074485
 20
86.35618841496863
 30
0.0
 10
86.13989704195694
 20
86.21228337006806
 30
0.0
 10
87.63567306873841
 20
85.96322576726902
 30
0.0
 10
89.01592694441113
 20
85.64854507473038
 30
0.0
 10
90.21352112746675
 20
85.30428372274984
 30
0.0
 10
91.20038315728898
 20
84.97523649693011
 30
0.0
 10
91.94762140348698
 20
84.69677558872233
 30
0.0
 10
92.39482283285258
 20
84.52491979369076
 30
0.0
 10
92.58157744500248
 20
84.4510691220922
 30
0.0
 10
92.53047923110432
 20
84.4712204131654
 30
0.0
 10
92.52884492075921
 20
84.47186492617193
 30
0.0
  0
SPLINE
  5
181
330
1F
100
AcDbEntity
  8
0
  6
Continuous
 62
     7
370
    25
100
AcDbSpline
210
0.0
220
0.0
230
1.0
 70
     8
 71
     3
 72
    11
 73
     7
 74
     0
 42
0.000000001
 43
0.00000001
 40
0.0
 40
0.0
 40
0.0
 40
0.0
 40
0.2435512231731394
 40
0.498115392340354
 40
0.7509097881719452
 40
0.9999999999999999
 40
0.9999999999999999
 40
0.9999999999999999
 40
0.9999999999999999
 10
76.6201275097505
 20
85.27077311479582
 30
0.0
 10
76.64607843127577
 20
85.27900865133397
 30
0.0
 10
76.69915372808089
 20
85.29585212048345
 30
0.0
 10
77.17684871174336
 20
85.43675356262096
 30
0.0
 10
77.88818816001013
 20
85.64204411306916
 30
0.0
 10
78.58285280718479
 20
85.80069523126637
 30
0.0
 10
78.92762162749409
 20
85.87943532417894
 30
0.0
  0
LINE
  5
182
330
1F
100
AcDbEntity
  8
0
  6
Continuous
 62
     7
370
    25
100
AcDbLine
 10
89.910147686
 20
104.3680202066
 30
0.0
 11
89.0152055328
 21
104.5301956917
 31
0.0
  0
LINE
  5
183
330
1F
100
AcDbEntity
  8
0
  6
Continuous
 62
     7
370
    25
100
AcDbLine
 10
89.0152055328
 20
104.5301956917
 30
0.0
 11
89.0152055328
 21
108.7426956917
 31
0.0
  0
SPLINE
  5
184
330
1F
100
AcDbEntity
  8
0
  6
Continuous
 62
     7
370
    25
100
AcDbSpline
210
0.0
220
0.0
230
1.0
 70
     8
 71
     3
 72
    25
 73
    21
 74
     0
 42
0.000000001
 43
0.00000001
 40
0.0
 40
0.0
 40
0.0
 40
0.0
 40
0.0288821753108476
 40
0.0583636594010358
 40
0.088464720431129
 40
0.1192044006622933
 40
0.1506005800091479
 40
0.1826700399674522
 40
0.2154285269578988
 40
0.2488908143379949
 40
0.3610594471186867
 40
0.4984670131067664
 40
0.582269390500644
 40
0.666112764278217
 40
0.7499972937224437
 40
0.8007709755032449
 40
0.8511237700807972
 40
0.9010896024506762
 40
0.9507031914109091
 40
0.9999999999999999
 40
0.9999999999999999
 40
0.9999999999999999
 40
0.9999999999999999
 10
85.01520553276711
 20
100.5301956916858
 30
0.0
 10
85.0780059860041
 20
100.5310521756376
 30
0.0
 10
85.20491000980095
 20
100.5327829156911
 30
0.0
 10
85.39626441751167
 20
100.5469327810943
 30
0.0
 10
85.59016923018808
 20
100.570069863415
 30
0.0
 10
85.78606995091585
 20
100.6034810156397
 30
0.0
 10
85.98340761892084
 20
100.647354837672
 30
0.0
 10
86.18156096070834
 20
100.7021501086414
 30
0.0
 10
86.3798767047202
 20
100.7682190700058
 30
0.0
 10
86.73119769222009
 20
100.9062004022575
 30
0.0
 10
87.2563094625446
 20
101.1862523410982
 30
0.0
 10
87.79330129103118
 20
101.6248429435054
 30
0.0
 10
88.20536102107374
 20
102.0987030650568
 30
0.0
 10
88.4922796091262
 20
102.5303868128766
 30
0.0
 10
88.69070629633342
 20
102.9335100546367
 30
0.0
 10
88.82279217038172
 20
103.2912462154157
 30
0.0
 10
88.90842605017953
 20
103.5939986176981
 30
0.0
 10
88.96950826153254
 20
103.9024869279438
 30
0.0
 10
89.00800920489806
 20
104.2147986381001
 30
0.0
 10
89.01281188399153
 20
104.4252880520015
 30
0.0
 10
89.01520553276711
 20
104.5301956916858
 30
0.0
  0
SPLINE
  5
185
330
1F
100
AcDbEntity
  8
0
  6
Continuous
 62
     7
370
    25
100
AcDbSpline
210
0.0
220
0.0
230
1.0
 70
     8
 71
     3
 72
    13
 73
     9
 74
     0
 42
0.000000001
 43
0.00000001
 40
0.0
 40
0.0
 40
0.0
 40
0.0
 40
0.172258782357889
 40
0.342139827126599
 40
0.509745625793203
 40
0.6751828993293467
 40
0.8385626190148152
 40
1.0
 40
1.0
 40
1.0
 40
1.0
 10
82.01522390167736
 20
100.6801905144356
 30
0.0
 10
82.07608729134634
 20
100.663926786737
 30
0.0
 10
82.19697395578602
 20
100.6316238242577
 30
0.0
 10
82.38003511375186
 20
100.5942361695647
 30
0.0
 10
82.56213779669022
 20
100.5651032346541
 30
0.0
 10
82.74307924500899
 20
100.5449165190476
 30
0.0
 10
82.92241824871181
 20
100.5324697147458
 30
0.0
 10
83.04126447713105
 20
100.5309506715183
 30
0.0
 10
83.10033225347766
 20
100.5301956916858
 30
0.0
  0
LINE
  5
186
330
1F
100
AcDbEntity
  8
0
  6
Continuous
 62
     7
370
    25
100
AcDbLine
 10
83.0553901003
 20
99.2326609672
 30
0.0
 11
83.1003322535
 21
100.5301956917
 31
0.0
  0
SPLINE
  5
187
330
1F
100
AcDbEntity
  8
0
  6
Continuous
 62
     7
370
    25
100
AcDbSpline
210
0.0
220
0.0
230
1.0
 70
     8
 71
     3
 72
    11
 73
     7
 74
     0
 42
0.000000001
 43
0.00000001
 40
0.0
 40
0.0
 40
0.0
 40
0.0
 40
0.2392913842439378
 40
0.5001130134995628
 40
0.7515028526562008
 40
1.0
 40
1.0
 40
1.0
 40
1.0
 10
81.68773304062125
 20
100.6807692967089
 30
0.0
 10
81.61890810473395
 20
100.6092158596059
 30
0.0
 10
81.47506570857216
 20
100.4596709640851
 30
0.0
 10
81.26731691018986
 20
100.2307535374485
 30
0.0
 10
81.05933070547366
 20
99.99843516518801
 30
0.0
 10
80.92632978172907
 20
99.84365928257493
 30
0.0
 10
80.86021413751915
 20
99.7667191614163
 30
0.0
  0
SPLINE
  5
188
330
1F
100
AcDbEntity
  8
0
  6
Continuous
 62
     7
370
    25
100
AcDbSpline
210
0.0
220
0.0
230
1.0
 70
    24
 71
     3
 72
     9
 73
     5
 74
     0
 42
0.000000001
 43
0.00000001
 40
0.0
 40
0.0
 40
0.0
 40
0.0
 40
0.5090839669866035
 40
1.0
 40
1.0
 40
1.0
 40
1.0
 10
81.68996330894063
 20
100.6801956916858
 30
0.0
 10
81.74469670905299
 20
100.6801956916858
 30
0.0
 10
81.8522102110718
 20
100.6801956916858
 30
0.0
 10
81.96160277144276
 20
100.6801956916858
 30
0.0
 10
82.01530533322124
 20
100.6801956916858
 30
0.0
  0
LINE
  5
189
330
1F
100
AcDbEntity
  8
0
  6
Continuous
 62
     7
370
    25
100
AcDbLine
 10
75.4413554444
 20
100.6601439179
 30
0.0
 11
75.4667699359
 21
99.7625857473
 31
0.0
  0
SPLINE
  5
18A
330
1F
100
AcDbEntity
  8
0
  6
Continuous
 62
     7
370
    25
100
AcDbSpline
210
0.0
220
0.0
230
1.0
 70
     8
 71
     3
 72
     8
 73
     4
 74
     0
 42
0.000000001
 43
0.00000001
 40
0.0
 40
0.0
 40
0.0
 40
0.0
 40
1.0
 40
1.0
 40
1.0
 40
1.0
 10
75.44136663549536
 20
100.660144408025
 30
0.0
 10
75.46316949197738
 20
100.6658417390577
 30
0.0
 10
75.4849242013749
 20
100.6717233218527
 30
0.0
 10
75.50662765669296
 20
100.6777883164057
 30
0.0
  0
LINE
  5
18B
330
1F
100
AcDbEntity
  8
0
  6
Continuous
 62
     7
370
    25
100
AcDbLine
 10
75.5152055328
 20
100.6801956917
 30
0.0
 11
81.6888785051
 21
100.6801956917
 31
0.0
  0
LINE
  5
18C
330
1F
100
AcDbEntity
  8
0
  6
Continuous
 62
     7
370
    25
100
AcDbLine
 10
83.1003322535
 20
100.5301956917
 30
0.0
 11
85.0152055328
 21
100.5301956917
 31
0.0
  0
SPLINE
  5
18D
330
1F
100
AcDbEntity
  8
0
  6
Continuous
 62
     7
370
    25
100
AcDbSpline
210
0.0
220
0.0
230
1.0
 70
     8
 71
     3
 72
    13
 73
     9
 74
     0
 42
0.000000001
 43
0.00000001
 40
0.0
 40
0.0
 40
0.0
 40
0.0
 40
0.1621004456454283
 40
0.3259434551388595
 40
0.4915935308049779
 40
0.6591130873777451
 40
0.8285624735926473
 40
1.0
 40
1.0
 40
1.0
 40
1.0
 10
74.43007881205658
 20
100.5301956916858
 30
0.0
 10
74.48563377011808
 20
100.5308646578869
 30
0.0
 10
74.59734089657641
 20
100.5322097816101
 30
0.0
 10
74.76518858596296
 20
100.5431563504003
 30
0.0
 10
74.93397500482905
 20
100.5607952797199
 30
0.0
 10
75.1032993613634
 20
100.5861007937072
 30
0.0
 10
75.273046009548
 20
100.6184047965009
 30
0.0
 10
75.38503890821197
 20
100.6461763963884
 30
0.0
 10
75.44136194324564
 20
100.6601431818905
 30
0.0
  0
LINE
  5
18E
330
1F
100
AcDbEntity
  8
0
  6
Continuous
 62
     7
370
    25
100
AcDbLine
 10
67.6515457112
 20
100.0026939478
 30
0.0
 11
68.5652055328
 21
100.5301956917
 31
0.0
  0
LINE
  5
18F
330
1F
100
AcDbEntity
  8
0
  6
Continuous
 62
     7
370
    25
100
AcDbLine
 10
68.5652055328
 20
100.5301956917
 30
0.0
 11
74.4300788121
 21
100.5301956917
 31
0.0
  0
SPLINE
  5
190
330
1F
100
AcDbEntity
  8
0
  6
Continuous
 62
     7
370
    25
100
AcDbSpline
210
0.0
220
0.0
230
1.0
 70
     8
 71
     3
 72
     8
 73
     4
 74
     0
 42
0.000000001
 43
0.00000001
 40
0.0
 40
0.0
 40
0.0
 40
0.0
 40
1.0
 40
1.0
 40
1.0
 40
1.0
 10
68.56520553231616
 20
99.62036898030976
 30
0.0
 10
68.26065225861063
 20
99.74905984485656
 30
0.0
 10
67.9560989849051
 20
99.87650460111828
 30
0.0
 10
67.65154571119957
 20
100.002693947756
 30
0.0
  0
LINE
  5
191
330
1F
100
AcDbEntity
  8
0
  6
Continuous
 62
     7
370
    25
100
AcDbLine
 10
67.0652055328
 20
86.5396009679
 30
0.0
 11
67.0652055328
 21
99.6641702879
 31
0.0
  0
SPLINE
  5
192
330
1F
100
AcDbEntity
  8
0
  6
Continuous
 62
     7
370
    25
100
AcDbSpline
210
0.0
220
0.0
230
1.0
 70
    24
 71
     3
 72
     8
 73
     4
 74
     0
 42
0.000000001
 43
0.00000001
 40
0.0
 40
0.0
 40
0.0
 40
0.0
 40
1.0
 40
1.0
 40
1.0
 40
1.0
 10
67.65154571119956
 20
100.002693947756
 30
0.0
 10
67.45521368554122
 20
99.88934159989161
 30
0.0
 10
67.25975266530101
 20
99.77649212723985
 30
0.0
 10
67.0652055327671
 20
99.66417028790134
 30
0.0
  0
ARC
  5
193
330
1F
100
AcDbEntity
  8
0
  6
Continuous
 62
     7
370
    25
100
AcDbCircle
 10
128.0152055328
 20
128.7426956917
 30
0.0
 40
3.0
100
AcDbArc
 50
180.0
 51
270.0
  0
ARC
  5
194
330
1F
100
AcDbEntity
  8
0
  6
Continuous
 62
     7
370
    25
100
AcDbCircle
 10
100.2152055328
 20
126.1926956917
 30
0.0
 40
0.7999999999999972
100
AcDbArc
 50
0.0
 51
90.0
  0
LINE
  5
195
330
1F
100
AcDbEntity
  8
0
  6
Continuous
 62
     7
370
    25
100
AcDbLine
 10
98.7904460063
 20
126.9926956917
 30
0.0
 11
100.2152055328
 21
126.9926956917
 31
0.0
  0
ARC
  5
196
330
1F
100
AcDbEntity
  8
0
  6
Continuous
 62
     7
370
    25
100
AcDbCircle
 10
98.7904460063
 20
126.1926956917
 30
0.0
 40
0.8000000000000048
100
AcDbArc
 50
90.0
 51
120.0
  0
LINE
  5
197
330
1F
100
AcDbEntity
  8
0
  6
Continuous
 62
     7
370
    25
100
AcDbLine
 10
97.5152055328
 20
126.3801956917
 30
0.0
 11
97.5152055328
 21
108.7426956917
 31
0.0
  0
LINE
  5
198
330
1F
100
AcDbEntity
  8
0
  6
Continuous
 62
     7
370
    25
100
AcDbLine
 10
97.5152055328
 20
126.3801956917
 30
0.0
 11
98.3904460063
 21
126.8855160147
 31
0.0
  0
LINE
  5
199
330
1F
100
AcDbEntity
  8
0
  6
Continuous
 62
     7
370
    25
100
AcDbLine
 10
67.8168715826
 20
100.0981448841
 30
0.0
 11
67.6804028102
 21
100.0193546016
 31
0.0
  0
SPLINE
  5
19A
330
1F
100
AcDbEntity
  8
0
  6
Continuous
 62
     7
370
    25
100
AcDbSpline
210
0.0
220
0.0
230
1.0
 70
     8
 71
     3
 72
    32
 73
    28
 74
     0
 42
0.000000001
 43
0.00000001
 40
0.0
 40
0.0
 40
0.0
 40
0.0
 40
0.1249999999999999
 40
0.1249999999999999
 40
0.1874999999999998
 40
0.1874999999999998
 40
0.2499999999999997
 40
0.2499999999999997
 40
0.3124999999999997
 40
0.3124999999999997
 40
0.3749999999999996
 40
0.3749999999999996
 40
0.4999999999999997
 40
0.4999999999999997
 40
0.5624999999999998
 40
0.5624999999999998
 40
0.625
 40
0.625
 40
0.7500000000000004
 40
0.7500000000000004
 40
0.8125000000000002
 40
0.8125000000000002
 40
0.8750000000000002
 40
0.8750000000000002
 40
0.9375000000000001
 40
0.9375000000000001
 40
1.0
 40
1.0
 40
1.0
 40
1.0
 10
81.48283586410773
 20
124.9153644458953
 30
0.0
 10
80.99876162015373
 20
124.915723838515
 30
0.0
 10
80.51536404958684
 20
124.9306830446963
 30
0.0
 10
79.79145869985084
 20
124.9776670912049
 30
0.0
 10
79.55079626631401
 20
124.9974436463295
 30
0.0
 10
79.07945015723838
 20
125.0444077298285
 30
0.0
 10
78.84761434094814
 20
125.071661579013
 30
0.0
 10
78.39191125439183
 20
125.1332895076256
 30
0.0
 10
78.16804293145049
 20
125.1676646084211
 30
0.0
 10
77.7287153394427
 20
125.2429840520741
 30
0.0
 10
77.51199794677629
 20
125.2842020028224
 30
0.0
 10
76.88565596810346
 20
125.4144388220031
 30
0.0
 10
76.50126333375009
 20
125.5094787339024
 30
0.0
 10
75.97372158813026
 20
125.6557456958548
 30
0.0
 10
75.80608743659917
 20
125.7051143310454
 30
0.0
 10
75.48768268935859
 20
125.8035180385457
 30
0.0
 10
75.33810181481945
 20
125.8522013031782
 30
0.0
 10
74.92508174527102
 20
125.9918241063466
 30
0.0
 10
74.69352997411188
 20
126.0774107849271
 30
0.0
 10
74.41022045902221
 20
126.1863738328432
 30
0.0
 10
74.32665277725037
 20
126.2194224854177
 30
0.0
 10
74.18472794492617
 20
126.276425881658
 30
0.0
 10
74.12573983348364
 20
126.3006225872684
 30
0.0
 10
74.0310239297738
 20
126.3398248676474
 30
0.0
 10
73.99529596262704
 20
126.3548320341445
 30
0.0
 10
73.9473316849096
 20
126.3750410318714
 30
0.0
 10
73.93520537747612
 20
126.3801956916858
 30
0.0
 10
73.93520537747611
 20
126.3801956916858
 30
0.0
  0
SPLINE
  5
19B
330
1F
100
AcDbEntity
  8
0
  6
Continuous
 62
     7
370
    25
100
AcDbSpline
210
0.0
220
0.0
230
1.0
 70
     8
 71
     3
 72
    31
 73
    27
 74
     0
 42
0.000000001
 43
0.00000001
 40
0.0
 40
0.0
 40
0.0
 40
0.0
 40
0.0161756722759874
 40
0.0323169137827082
 40
0.0484425619880558
 40
0.0645715089957403
 40
0.0807226353336809
 40
0.0969147439446245
 40
0.1131664955251064
 40
0.1294963463046755
 40
0.1459224892609556
 40
0.1624627996343655
 40
0.1791347854480653
 40
0.1959555435639838
 40
0.2945755146264949
 40
0.3932797312250501
 40
0.4928176221931537
 40
0.5924285912823347
 40
0.6939020917450021
 40
0.7927115381487283
 40
0.8267756331435546
 40
0.8608043324965008
 40
0.8949846314010114
 40
0.9295010594358154
 40
0.9645328322468685
 40
1.0
 40
1.0
 40
1.0
 40
1.0
 10
92.4911549228512
 20
126.3801956916858
 30
0.0
 10
92.4904218224
 20
126.3798493002578
 30
0.0
 10
92.4889571819405
 20
126.3791572547144
 30
0.0
 10
92.47590080227539
 20
126.3735748926682
 30
0.0
 10
92.45488624175258
 20
126.3647081296742
 30
0.0
 10
92.42513903641188
 20
126.3522670289595
 30
0.0
 10
92.38686672375623
 20
126.3363763704046
 30
0.0
 10
92.34001404283508
 20
126.3170506265776
 30
0.0
 10
92.28459631279809
 20
126.2943345370582
 30
0.0
 10
92.22061034896764
 20
126.2682655326836
 30
0.0
 10
92.14805686481704
 20
126.2388830853154
 30
0.0
 10
92.0669401673374
 20
126.2062288379804
 30
0.0
 10
91.97724651258737
 20
126.1703363909455
 30
0.0
 10
91.72020066593676
 20
126.0680984832791
 30
0.0
 10
91.1921646803433
 20
125.8615742698125
 30
0.0
 10
90.21353003309672
 20
125.5244889564634
 30
0.0
 10
89.02765373017564
 20
125.181344097133
 30
0.0
 10
87.6571874650996
 20
124.8842321964731
 30
0.0
 10
86.17133019313425
 20
124.6741887687404
 30
0.0
 10
84.95117755936928
 20
124.6159633658715
 30
0.0
 10
84.08475352642537
 20
124.6296557071316
 30
0.0
 10
83.55650859794842
 20
124.6550237927427
 30
0.0
 10
83.03173536674211
 20
124.6970464084602
 30
0.0
 10
82.51074612714953
 20
124.7553303716883
 30
0.0
 10
81.99350518209118
 20
124.8279539169337
 30
0.0
 10
81.65786806975748
 20
124.8868342346235
 30
0.0
 10
81.48901308169596
 20
124.9164562131689
 30
0.0
  0
LINE
  5
19C
330
1F
100
AcDbEntity
  8
0
  6
Continuous
 62
     7
370
    25
100
AcDbLine
 10
92.4911549229
 20
126.3801956917
 30
0.0
 11
97.5152055328
 21
126.3801956917
 31
0.0
  0
LINE
  5
19D
330
1F
100
AcDbEntity
  8
0
  6
Continuous
 62
     7
370
    25
100
AcDbLine
 10
89.6652055328
 20
112.8054691025
 30
0.0
 11
89.6652055328
 21
108.7426956917
 31
0.0
  0
SPLINE
  5
19E
330
1F
100
AcDbEntity
  8
0
  6
Continuous
 62
     7
370
    25
100
AcDbSpline
210
0.0
220
0.0
230
1.0
 70
     8
 71
     3
 72
    25
 73
    21
 74
     0
 42
0.000000001
 43
0.00000001
 40
0.0
 40
0.0
 40
0.0
 40
0.0
 40
0.027814432005302
 40
0.0555680196227503
 40
0.0833316253654294
 40
0.11117603521416
 40
0.1391714221506294
 40
0.1673868326261325
 40
0.1958897140416249
 40
0.2247454979307827
 40
0.2540172492219888
 40
0.3796724409981995
 40
0.5056484635001904
 40
0.6297527290679305
 40
0.7535891720571253
 40
0.8038564806088785
 40
0.8533396843427347
 40
0.9023264398351395
 40
0.9511131859214658
 40
1.0
 40
1.0
 40
1.0
 40
1.0
 10
85.0152055327671
 20
117.2901922740508
 30
0.0
 10
85.08386088672685
 20
117.2896591889437
 30
0.0
 10
85.221021410275
 20
117.2885941848592
 30
0.0
 10
85.42626399285498
 20
117.2754992874669
 30
0.0
 10
85.63058500934817
 20
117.2539608008944
 30
0.0
 10
85.83398606143521
 20
117.2231393290457
 30
0.0
 10
86.03646169228105
 20
117.1832265765382
 30
0.0
 10
86.2380105565306
 20
117.1341263835972
 30
0.0
 10
86.43862457733714
 20
117.0758131360854
 30
0.0
 10
86.63832234167512
 20
117.0082211932184
 30
0.0
 10
87.05388716235387
 20
116.8474076771105
 30
0.0
 10
87.6566635789001
 20
116.5334307777692
 30
0.0
 10
88.35072013440082
 20
115.9698593022746
 30
0.0
 10
88.91749376380467
 20
115.294115083016
 30
0.0
 10
89.25507156947505
 20
114.6767532555402
 30
0.0
 10
89.44353397876681
 20
114.1846918160295
 30
0.0
 10
89.54279519629112
 20
113.8470400334847
 30
0.0
 10
89.61313978499797
 20
113.5044088914612
 30
0.0
 10
89.65713838351647
 20
113.1570441910179
 30
0.0
 10
89.6625146469967
 20
112.9227408144094
 30
0.0
 10
89.66520553276713
 20
112.8054691024855
 30
0.0
  0
LINE
  5
19F
330
1F
100
AcDbEntity
  8
0
  6
Continuous
 62
     7
370
    25
100
AcDbLine
 10
83.1003322535
 20
117.2901922741
 30
0.0
 11
85.0152055328
 21
117.2901922741
 31
0.0
  0
SPLINE
  5
1A0
330
1F
100
AcDbEntity
  8
0
  6
Continuous
 62
     7
370
    25
100
AcDbSpline
210
0.0
220
0.0
230
1.0
 70
     8
 71
     3
 72
    12
 73
     8
 74
     0
 42
0.000000001
 43
0.00000001
 40
0.0
 40
0.0
 40
0.0
 40
0.0
 40
0.1992838849036612
 40
0.3984605265888784
 40
0.5979968005063592
 40
0.7983570684894559
 40
1.0
 40
1.0
 40
1.0
 40
1.0
 10
82.09929841118135
 20
117.1879979613268
 30
0.0
 10
82.16475168848105
 20
117.2010203140915
 30
0.0
 10
82.29562301986046
 20
117.2270580117335
 30
0.0
 10
82.4944724714787
 20
117.2554885707078
 30
0.0
 10
82.69487898734123
 20
117.2759197316894
 30
0.0
 10
82.89704990474684
 20
117.2883588087602
 30
0.0
 10
83.03242748838913
 20
117.2895798203349
 30
0.0
 10
83.10033225347766
 20
117.2901922740508
 30
0.0
  0
LINE
  5
1A1
330
1F
100
AcDbEntity
  8
0
  6
Continuous
 62
     7
370
    25
100
AcDbLine
 10
76.6745354036
 20
117.1878340373
 30
0.0
 11
82.0985254221
 21
117.1878340373
 31
0.0
  0
SPLINE
  5
1A2
330
1F
100
AcDbEntity
  8
0
  6
Continuous
 62
     7
370
    25
100
AcDbSpline
210
0.0
220
0.0
230
1.0
 70
     8
 71
     3
 72
    24
 73
    20
 74
     0
 42
0.000000001
 43
0.00000001
 40
0.0
 40
0.0
 40
0.0
 40
0.0
 40
0.0410257106287712
 40
0.0818520099077378
 40
0.1225800578354259
 40
0.1633117464057714
 40
0.2041489402806048
 40
0.2451927184748369
 40
0.2865426449234839
 40
0.3282960933645376
 40
0.3705476475492641
 40
0.4133885920100953
 40
0.4569065022350026
 40
0.5011849368585917
 40
0.6001856774977958
 40
0.6987388860494295
 40
0.7976800645500018
 40
0.8978349910059672
 40
1.0
 40
1.0
 40
1.0
 40
1.0
 10
72.90254849661699
 20
119.1254758543487
 30
0.0
 10
72.9655875845715
 20
119.1249411540336
 30
0.0
 10
73.09135934995341
 20
119.123874352391
 30
0.0
 10
73.2792975114642
 20
119.1127308603928
 30
0.0
 10
73.4658876042888
 20
119.0945693620851
 30
0.0
 10
73.65112938682394
 20
119.0686944413637
 30
0.0
 10
73.83501857005186
 20
119.0352575555521
 30
0.0
 10
74.01755223602463
 20
118.9941735340084
 30
0.0
 10
74.19872764296395
 20
118.9454107859149
 30
0.0
 10
74.37854242694009
 20
118.8889132977712
 30
0.0
 10
74.55699562601964
 20
118.824622202969
 30
0.0
 10
74.7340836641693
 20
118.7524685230366
 30
0.0
 10
74.90981578845505
 20
118.6723813379979
 30
0.0
 10
75.15483042205555
 20
118.5485404513132
 30
0.0
 10
75.45901350124424
 20
118.3699154691169
 30
0.0
 10
75.80632098269598
 20
118.1208262850564
 30
0.0
 10
76.12549524616865
 20
117.8412567000767
 30
0.0
 10
76.41940714842762
 20
117.5324310621079
 30
0.0
 10
76.58893123511196
 20
117.3043390188092
 30
0.0
 10
76.67453540359041
 20
117.1891599307809
 30
0.0
  0
LINE
  5
1A3
330
1F
100
AcDbEntity
  8
0
  6
Continuous
 62
     7
370
    25
100
AcDbLine
 10
70.1110067797
 20
119.1254758543
 30
0.0
 11
72.9025484966
 21
119.1254758543
 31
0.0
  0
SPLINE
  5
1A4
330
1F
100
AcDbEntity
  8
0
  6
Continuous
 62
     7
370
    25
100
AcDbSpline
210
0.0
220
0.0
230
1.0
 70
     8
 71
     3
 72
     8
 73
     4
 74
     0
 42
0.000000001
 43
0.00000001
 40
0.0
 40
0.0
 40
0.0
 40
0.0
 40
1.0
 40
1.0
 40
1.0
 40
1.0
 10
70.06520270800837
 20
119.1889288453584
 30
0.0
 10
70.08047073190605
 20
119.1678123749603
 30
0.0
 10
70.09573875580374
 20
119.1466613079076
 30
0.0
 10
70.11100677970141
 20
119.1254758543487
 30
0.0
  0
LINE
  5
1A5
330
1F
100
AcDbEntity
  8
0
  6
Continuous
 62
     7
370
    25
100
AcDbLine
 10
70.0652055328
 20
126.3801956917
 30
0.0
 11
70.0652055328
 21
119.1889288454
 31
0.0
  0
LINE
  5
1A6
330
1F
100
AcDbEntity
  8
0
  6
Continuous
 62
     7
370
    25
100
AcDbLine
 10
70.0652055328
 20
126.3801956917
 30
0.0
 11
73.9352053775
 21
126.3801956917
 31
0.0
  0
LINE
  5
1A7
330
1F
100
AcDbEntity
  8
0
  6
Continuous
 62
     7
370
    25
100
AcDbLine
 10
182.5434889562
 20
91.7426956917
 30
0.0
 11
182.5434889562
 21
108.7426956917
 31
0.0
  0
LINE
  5
1A8
330
1F
100
AcDbEntity
  8
0
  6
Continuous
 62
     7
370
    25
100
AcDbLine
 10
225.1721237242
 20
122.3877493758
 30
0.0
 11
182.5434889562
 21
125.7426956917
 31
0.0
  0
LINE
  5
1A9
330
1F
100
AcDbEntity
  8
0
  6
Continuous
 62
     7
370
    25
100
AcDbLine
 10
182.5434889562
 20
125.7426956917
 30
0.0
 11
128.0152055328
 21
125.7426956917
 31
0.0
  0
ARC
  5
1AA
330
1F
100
AcDbEntity
  8
0
  6
Continuous
 62
     7
370
    25
100
AcDbCircle
 10
104.7152055328
 20
123.0926956917
 30
0.0
 40
1.200000000000017
100
AcDbArc
 50
0.0
 51
90.0
  0
LINE
  5
1AB
330
1F
100
AcDbEntity
  8
0
  6
Continuous
 62
     7
370
    25
100
AcDbLine
 10
101.0152055328
 20
124.2926956917
 30
0.0
 11
104.7152055328
 21
124.2926956917
 31
0.0
  0
LINE
  5
1AC
330
1F
100
AcDbEntity
  8
0
  6
Continuous
 62
     7
370
    25
100
AcDbLine
 10
101.0152055328
 20
124.2926956917
 30
0.0
 11
101.0152055328
 21
108.7426956917
 31
0.0
  0
LINE
  5
1AD
330
1F
100
AcDbEntity
  8
0
  6
Continuous
 62
     7
370
    25
100
AcDbLine
 10
227.0152055328
 20
97.0914766764
 30
0.0
 11
227.0152055328
 21
108.7426956917
 31
0.0
  0
ARC
  5
1AE
330
1F
100
AcDbEntity
  8
0
  6
Continuous
 62
     7
370
    25
100
AcDbCircle
 10
225.0152055328
 20
120.3939147084
 30
0.0
 40
2.0
100
AcDbArc
 50
0.0
 51
85.5
  0
ARC
  5
1AF
330
1F
100
AcDbEntity
  8
0
  6
Continuous
 62
     7
370
    25
100
AcDbCircle
 10
226.5152055328
 20
116.7793899398
 30
0.0
 40
0.5000000000000014
100
AcDbArc
 50
280.0
 51
0.0
  0
LINE
  5
1B0
330
1F
100
AcDbEntity
  8
0
  6
Continuous
 62
     7
370
    25
100
AcDbLine
 10
227.0152055328
 20
116.7793899398
 30
0.0
 11
227.0152055328
 21
108.7426956917
 31
0.0
  0
LINE
  5
1B1
330
1F
100
AcDbEntity
  8
0
  6
Continuous
 62
     7
370
    25
100
AcDbLine
 10
223.5152055328
 20
115.7426956917
 30
0.0
 11
223.5152055328
 21
108.7426956917
 31
0.0
  0
LINE
  5
1B2
330
1F
100
AcDbEntity
  8
0
  6
Continuous
 62
     7
370
    25
100
AcDbLine
 10
223.5152055328
 20
115.7426956917
 30
0.0
 11
226.6020296216
 21
116.2869860632
 31
0.0
  0
LINE
  5
1B3
330
1F
100
AcDbEntity
  8
0
  6
Continuous
 62
     7
370
    25
100
AcDbLine
 10
180.9152055328
 20
116.0426956917
 30
0.0
 11
190.1204315146
 21
116.0426956917
 31
0.0
  0
ARC
  5
1B4
330
1F
100
AcDbEntity
  8
0
  6
Continuous
 62
     7
370
    25
100
AcDbCircle
 10
190.1204315146
 20
115.6426956917
 30
0.0
 40
0.3999999999999941
100
AcDbArc
 50
70.0
 51
90.0
  0
ARC
  5
1B5
330
1F
100
AcDbEntity
  8
0
  6
Continuous
 62
     7
370
    25
100
AcDbCircle
 10
180.9152055328
 20
115.6426956917
 30
0.0
 40
0.3999999999999915
100
AcDbArc
 50
90.0
 51
180.0
  0
LINE
  5
1B6
330
1F
100
AcDbEntity
  8
0
  6
Continuous
 62
     7
370
    25
100
AcDbLine
 10
191.0152055328
 20
115.7426956917
 30
0.0
 11
191.0152055328
 21
108.7426956917
 31
0.0
  0
LINE
  5
1B7
330
1F
100
AcDbEntity
  8
0
  6
Continuous
 62
     7
370
    25
100
AcDbLine
 10
190.257239572
 20
116.01857274
 30
0.0
 11
191.0152055328
 21
115.7426956917
 31
0.0
  0
LINE
  5
1B8
330
1F
100
AcDbEntity
  8
0
  6
Continuous
 62
     7
370
    25
100
AcDbLine
 10
191.0152055328
 20
115.7426956917
 30
0.0
 11
223.5152055328
 21
115.7426956917
 31
0.0
  0
LINE
  5
1B9
330
1F
100
AcDbEntity
  8
0
  6
Continuous
 62
     7
370
    25
100
AcDbLine
 10
109.7402055328
 20
114.4926956917
 30
0.0
 11
110.5652055328
 21
114.4926956917
 31
0.0
  0
LINE
  5
1BA
330
1F
100
AcDbEntity
  8
0
  6
Continuous
 62
     7
370
    25
100
AcDbLine
 10
106.3152055328
 20
113.7426956917
 30
0.0
 11
106.3152055328
 21
108.7426956917
 31
0.0
  0
LINE
  5
1BB
330
1F
100
AcDbEntity
  8
0
  6
Continuous
 62
     7
370
    25
100
AcDbLine
 10
105.9152055328
 20
113.9736357994
 30
0.0
 11
106.3152055328
 21
113.7426956917
 31
0.0
  0
LINE
  5
1BC
330
1F
100
AcDbEntity
  8
0
  6
Continuous
 62
     7
370
    25
100
AcDbLine
 10
105.9152055328
 20
113.9736357994
 30
0.0
 11
105.9152055328
 21
108.7426956917
 31
0.0
  0
LINE
  5
1BD
330
1F
100
AcDbEntity
  8
0
  6
Continuous
 62
     7
370
    25
100
AcDbLine
 10
106.3152055328
 20
113.7426956917
 30
0.0
 11
109.7402055328
 21
113.7426956917
 31
0.0
  0
LINE
  5
1BE
330
1F
100
AcDbEntity
  8
0
  6
Continuous
 62
     7
370
    25
100
AcDbLine
 10
109.7402055328
 20
113.7426956917
 30
0.0
 11
109.7402055328
 21
108.7426956917
 31
0.0
  0
LINE
  5
1BF
330
1F
100
AcDbEntity
  8
0
  6
Continuous
 62
     7
370
    25
100
AcDbLine
 10
180.0152055328
 20
113.2426956917
 30
0.0
 11
180.5152055328
 21
113.7426956917
 31
0.0
  0
LINE
  5
1C0
330
1F
100
AcDbEntity
  8
0
  6
Continuous
 62
     7
370
    25
100
AcDbLine
 10
157.0152055328
 20
113.2426956917
 30
0.0
 11
157.0152055328
 21
108.7426956917
 31
0.0
  0
LINE
  5
1C1
330
1F
100
AcDbEntity
  8
0
  6
Continuous
 62
     7
370
    25
100
AcDbLine
 10
156.7147752233
 20
112.7426956917
 30
0.0
 11
156.7147752233
 21
108.7426956917
 31
0.0
  0
LINE
  5
1C2
330
1F
100
AcDbEntity
  8
0
  6
Continuous
 62
     7
370
    25
100
AcDbLine
 10
156.7147752233
 20
112.7426956917
 30
0.0
 11
157.0152055328
 21
113.2426956917
 31
0.0
  0
LINE
  5
1C3
330
1F
100
AcDbEntity
  8
0
  6
Continuous
 62
     7
370
    25
100
AcDbLine
 10
157.0152055328
 20
113.2426956917
 30
0.0
 11
180.0152055328
 21
113.2426956917
 31
0.0
  0
LINE
  5
1C4
330
1F
100
AcDbEntity
  8
0
  6
Continuous
 62
     7
370
    25
100
AcDbLine
 10
110.5652055328
 20
112.7426956917
 30
0.0
 11
156.7147752233
 21
112.7426956917
 31
0.0
  0
LINE
  5
1C5
330
1F
100
AcDbEntity
  8
0
  6
Continuous
 62
     7
370
    25
100
AcDbLine
 10
110.5652055328
 20
112.7426956917
 30
0.0
 11
110.5652055328
 21
108.7426956917
 31
0.0
  0
SPLINE
  5
1C6
330
1F
100
AcDbEntity
  8
0
  6
Continuous
 62
     7
370
    25
100
AcDbSpline
210
0.0
220
0.0
230
1.0
 70
     8
 71
     3
 72
    37
 73
    33
 74
     0
 42
0.000000001
 43
0.00000001
 40
0.0
 40
0.0
 40
0.0
 40
0.0
 40
0.01148785481028
 40
0.0231559765621647
 40
0.0350076484354351
 40
0.04704600337953
 40
0.0592740307999904
 40
0.0716945830965773
 40
0.0843103820274639
 40
0.0971240248797982
 40
0.1101379904320495
 40
0.1233546446979371
 40
0.1811510010973216
 40
0.2483631736114412
 40
0.2888373415819245
 40
0.3232297457604618
 40
0.3515392131491938
 40
0.3737664266256183
 40
0.4399300285953848
 40
0.4987424063270025
 40
0.5023253005651624
 40
0.5613100074513716
 40
0.6252595444338138
 40
0.6818650083849794
 40
0.7483890016987903
 40
0.7860781471964686
 40
0.8194856599799786
 40
0.8486127715281727
 40
0.8734622727747426
 40
0.9389926156604154
 40
0.9981523731393562
 40
1.0
 40
1.0
 40
1.0
 40
1.0
 10
91.8652055327671
 20
132.206347995039
 30
0.0
 10
91.86427908148859
 20
132.2059044780305
 30
0.0
 10
91.86241164109649
 20
132.2050104843631
 30
0.0
 10
91.84713858075673
 20
132.1978185069048
 30
0.0
 10
91.82223687829286
 20
132.1863672633124
 30
0.0
 10
91.786382606357
 20
132.1702175045379
 30
0.0
 10
91.73941509551936
 20
132.1494898249842
 30
0.0
 10
91.6808721850985
 20
132.1241513059824
 30
0.0
 10
91.61039404552086
 20
132.094210885428
 30
0.0
 10
91.52761948124335
 20
132.0596669113859
 30
0.0
 10
91.4322029361252
 20
132.0205171697714
 30
0.0
 10
91.20263410273671
 20
131.9278184986101
 30
0.0
 10
90.7182158887641
 20
131.7390956080956
 30
0.0
 10
89.9392159172187
 20
131.4610058081244
 30
0.0
 10
89.14799746579855
 20
131.2104189407951
 30
0.0
 10
88.51694697255577
 20
131.0354021794652
 30
0.0
 10
87.96390901621938
 20
130.8955675388663
 30
0.0
 10
87.17095108732295
 20
130.7151566935201
 30
0.0
 10
86.1006167469898
 20
130.526090371878
 30
0.0
 10
85.11962646755453
 20
130.4208035641684
 30
0.0
 10
84.19165923843495
 20
130.3637707922153
 30
0.0
 10
83.2192037446745
 20
130.3491761938456
 30
0.0
 10
81.89307353924116
 20
130.4273694103368
 30
0.0
 10
80.62303805474743
 20
130.587849131931
 30
0.0
 10
79.6632620540778
 20
130.7729606701446
 30
0.0
 10
78.96461040673297
 20
130.9404502738747
 30
0.0
 10
78.52080226857787
 20
131.0540734800829
 30
0.0
 10
78.18826520664787
 20
131.1472573149915
 30
0.0
 10
77.80110679640465
 20
131.2619221792501
 30
0.0
 10
77.46385883429286
 20
131.3692679883102
 30
0.0
 10
77.36613476796383
 20
131.4068335615968
 30
0.0
 10
77.365232847692
 20
131.4069649704133
 30
0.0
 10
77.3652055327671
 20
131.4069689501686
 30
0.0
  0
LINE
  5
1C7
330
1F
100
AcDbEntity
  8
0
  6
Continuous
 62
     7
370
    25
100
AcDbLine
 10
91.8652055328
 20
132.206347995
 30
0.0
 11
91.8652055328
 21
126.8489217124
 31
0.0
  0
SPLINE
  5
1C8
330
1F
100
AcDbEntity
  8
0
  6
Continuous
 62
     7
370
    25
100
AcDbSpline
210
0.0
220
0.0
230
1.0
 70
     8
 71
     3
 72
    30
 73
    26
 74
     0
 42
0.000000001
 43
0.00000001
 40
0.0
 40
0.0
 40
0.0
 40
0.0
 40
0.0192411700742059
 40
0.0381353539376965
 40
0.0566868884861289
 40
0.0749003554931377
 40
0.0927805967284122
 40
0.1103327298326407
 40
0.1275621649289921
 40
0.1444746219341849
 40
0.2455865830532538
 40
0.3577720192516873
 40
0.4505017408957424
 40
0.5720127868619957
 40
0.6168069840199084
 40
0.6590088499431367
 40
0.6986242498773184
 40
0.7356603299340362
 40
0.7701258931914615
 40
0.8073679165907545
 40
0.8483950324890639
 40
0.8881367798819078
 40
0.9266264622109542
 40
0.9639007443614509
 40
1.0
 40
1.0
 40
1.0
 40
1.0
 10
82.69438694215502
 20
125.1848304020938
 30
0.0
 10
82.77741942203465
 20
125.1737032967689
 30
0.0
 10
82.94198701310748
 20
125.1516497471028
 30
0.0
 10
83.18986852878803
 20
125.1235978578401
 30
0.0
 10
83.4351452042304
 20
125.0996463273142
 30
0.0
 10
83.67770303784168
 20
125.0801163751208
 30
0.0
 10
83.91713771495057
 20
125.0649240829442
 30
0.0
 10
84.15315091035765
 20
125.0540925217133
 30
0.0
 10
84.38546895566843
 20
125.0476119564602
 30
0.0
 10
84.99401972529267
 20
125.0419804648741
 30
0.0
 10
86.03233222251272
 20
125.1019538643587
 30
0.0
 10
87.34768375061434
 20
125.3013763375337
 30
0.0
 10
88.62722896350566
 20
125.6068576982176
 30
0.0
 10
89.5186695075954
 20
125.8868005011363
 30
0.0
 10
90.13633437645578
 20
126.1142495976514
 30
0.0
 10
90.4796574617388
 20
126.2445282581513
 30
0.0
 10
90.77134854663433
 20
126.3606191961092
 30
0.0
 10
91.01589390246046
 20
126.4619874255126
 30
0.0
 10
91.22824858290015
 20
126.5533254780303
 30
0.0
 10
91.41931155752486
 20
126.6374005619777
 30
0.0
 10
91.58455896169734
 20
126.712393515943
 30
0.0
 10
91.71409951194148
 20
126.7733820154887
 30
0.0
 10
91.80246588116411
 20
126.8166196772542
 30
0.0
 10
91.85561172642791
 20
126.843849763133
 30
0.0
 10
91.8620419223691
 20
126.8472492092629
 30
0.0
 10
91.8652055327671
 20
126.8489217124374
 30
0.0
  0
SPLINE
  5
1C9
330
1F
100
AcDbEntity
  8
0
  6
Continuous
 62
     7
370
    25
100
AcDbSpline
210
0.0
220
0.0
230
1.0
 70
     8
 71
     3
 72
    38
 73
    34
 74
     0
 42
0.000000001
 43
0.00000001
 40
0.0
 40
0.0
 40
0.0
 40
0.0
 40
0.1249999999999997
 40
0.1249999999999997
 40
0.2499999999999994
 40
0.2499999999999994
 40
0.3124999999999992
 40
0.3124999999999992
 40
0.3749999999999991
 40
0.3749999999999991
 40
0.4374999999999989
 40
0.4374999999999989
 40
0.4999999999999987
 40
0.4999999999999987
 40
0.5624999999999984
 40
0.5624999999999984
 40
0.6249999999999983
 40
0.6249999999999983
 40
0.6874999999999982
 40
0.6874999999999982
 40
0.7187499999999987
 40
0.7187499999999987
 40
0.7499999999999991
 40
0.7499999999999991
 40
0.7812499999999996
 40
0.7812499999999996
 40
0.8125
 40
0.8125
 40
0.875
 40
0.875
 40
0.9374999999999999
 40
0.9374999999999999
 40
1.0
 40
1.0
 40
1.0
 40
1.0
 10
77.3652055327671
 20
131.2787435765897
 30
0.0
 10
77.36520553276725
 20
131.2787435765896
 30
0.0
 10
77.42701129033077
 20
131.2560994939276
 30
0.0
 10
77.67663383576634
 20
131.1635151048716
 30
0.0
 10
77.8603614667045
 20
131.0951275249189
 30
0.0
 10
78.21675030328959
 20
130.959285425717
 30
0.0
 10
78.34991076479514
 20
130.9080924406605
 30
0.0
 10
78.64098977549153
 20
130.7944038355481
 30
0.0
 10
78.79747972700085
 20
130.7324772280417
 30
0.0
 10
79.13086116828876
 20
130.5975921193512
 30
0.0
 10
79.3077649266519
 20
130.5246538650646
 30
0.0
 10
79.6810065741252
 20
130.3656779302686
 30
0.0
 10
79.87875056500633
 20
130.2790381603921
 30
0.0
 10
80.28477399825945
 20
130.0921204878397
 30
0.0
 10
80.49282739164644
 20
129.9920855740306
 30
0.0
 10
80.91512166438059
 20
129.7728220238517
 30
0.0
 10
81.12948696745568
 20
129.653818832187
 30
0.0
 10
81.55732927903505
 20
129.3835449818631
 30
0.0
 10
81.77373093014165
 20
129.2302961563514
 30
0.0
 10
82.07236337302176
 20
128.9642276327682
 30
0.0
 10
82.16755596249145
 20
128.8694553864955
 30
0.0
 10
82.34518121434823
 20
128.6636985293056
 30
0.0
 10
82.42779552497659
 20
128.5518399875349
 30
0.0
 10
82.56987579999816
 20
128.3183244833126
 30
0.0
 10
82.63026134924309
 20
128.1957634173568
 30
0.0
 10
82.72971184139791
 20
127.9392926541316
 30
0.0
 10
82.76900328042272
 20
127.8040526405819
 30
0.0
 10
82.85569986657573
 20
127.3957706376174
 30
0.0
 10
82.87440819357043
 20
127.1195104598325
 30
0.0
 10
82.87091217293874
 20
126.5627626811968
 30
0.0
 10
82.84843255273015
 20
126.2845324372061
 30
0.0
 10
82.78280490494802
 20
125.7331466170214
 30
0.0
 10
82.73930736125857
 20
125.458892947919
 30
0.0
 10
82.6898278141485
 20
125.1854634759573
 30
0.0
  0
LINE
  5
1CA
330
1F
100
AcDbEntity
  8
0
  6
Continuous
 62
     7
370
    25
100
AcDbLine
 10
77.3652055328
 20
131.2787435766
 30
0.0
 11
77.3652055328
 21
131.4069689501
 31
0.0
  0
SPLINE
  5
1CB
330
1F
100
AcDbEntity
  8
0
  6
Continuous
 62
     7
370
    25
100
AcDbSpline
210
0.0
220
0.0
230
1.0
 70
     8
 71
     3
 72
    14
 73
    10
 74
     0
 42
0.000000001
 43
0.00000001
 40
0.0
 40
0.0
 40
0.0
 40
0.0
 40
0.0003951392850831
 40
0.0003951392850831
 40
0.0003951392850831
 40
0.0008159035679249
 40
0.0008159035679249
 40
0.0008159035679249
 40
0.0012369936130997
 40
0.0012369936130997
 40
0.0012369936130997
 40
0.0012369936130997
 10
81.49308948249862
 20
124.917668688686
 30
0.0
 10
81.62159872060533
 20
124.9465426563995
 30
0.0
 10
81.75016222833433
 20
124.9752308698758
 30
0.0
 10
81.87871260661773
 20
125.0037337139132
 30
0.0
 10
82.01559785428132
 20
125.034084607604
 30
0.0
 10
82.15249350018114
 20
125.064230572633
 30
0.0
 10
82.28931376153022
 20
125.0941823922015
 30
0.0
 10
82.42623975047512
 20
125.1241573569814
 30
0.0
 10
82.5631168224393
 20
125.1539434064266
 30
0.0
 10
82.69985367162647
 20
125.1835658795953
 30
0.0
  0
LINE
  5
1CC
330
1F
100
AcDbEntity
  8
0
  6
Continuous
 62
     7
370
    25
100
AcDbLine
 10
73.9352053775
 20
126.3801956917
 30
0.0
 11
77.3652055328
 21
131.2787435766
 31
0.0
  0
LINE
  5
1CD
330
1F
100
AcDbEntity
  8
0
  6
Continuous
 62
     7
370
    25
100
AcDbLine
 10
76.6156436844
 20
132.2160814013
 30
0.0
 11
77.3652336634
 21
131.4069700636
 31
0.0
  0
LINE
  5
1CE
330
1F
100
AcDbEntity
  8
0
  6
Continuous
 62
     7
370
    25
100
AcDbLine
 10
91.8652184809
 20
132.2063482509
 30
0.0
 11
92.5335486268
 21
133.0154600733
 31
0.0
  0
LINE
  5
1CF
330
1F
100
AcDbEntity
  8
0
  6
Continuous
 62
     7
370
    25
100
AcDbLine
 10
67.8168715826
 20
127.678271903
 30
0.0
 11
70.0652055328
 21
126.3801956917
 31
0.0
  0
LINE
  5
1D0
330
1F
100
AcDbEntity
  8
0
  6
Continuous
 62
     7
370
    25
100
AcDbLine
 10
67.0652055328
 20
128.9801956917
 30
0.0
 11
67.8168715826
 21
127.678271903
 31
0.0
  0
LINE
  5
1D1
330
1F
100
AcDbEntity
  8
0
  6
Continuous
 62
     7
370
    25
100
AcDbLine
 10
67.0652055328
 20
130.9457904155
 30
0.0
 11
67.0652055328
 21
128.9801956917
 31
0.0
  0
LINE
  5
1D2
330
1F
100
AcDbEntity
  8
0
  6
Continuous
 62
     7
370
    25
100
AcDbLine
 10
68.5652055328
 20
131.8118158193
 30
0.0
 11
67.0652055328
 21
130.9457904155
 31
0.0
  0
ARC
  5
1D3
330
1F
100
AcDbEntity
  8
0
  6
Continuous
 62
     7
370
    25
100
AcDbCircle
 10
116.0402055328
 20
137.5926956917
 30
0.0
 40
1.000000000000014
100
AcDbArc
 50
180.0
 51
270.0
  0
LINE
  5
1D4
330
1F
100
AcDbEntity
  8
0
  6
Continuous
 62
     7
370
    25
100
AcDbLine
 10
117.7902055328
 20
136.5926956917
 30
0.0
 11
116.0402055328
 21
136.5926956917
 31
0.0
  0
ARC
  5
1D5
330
1F
100
AcDbEntity
  8
0
  6
Continuous
 62
     7
370
    25
100
AcDbCircle
 10
117.7902055328
 20
137.5926956917
 30
0.0
 40
1.0
100
AcDbArc
 50
270.0
 51
0.0
  0
LINE
  5
1D6
330
1F
100
AcDbEntity
  8
0
  6
Continuous
 62
     7
370
    25
100
AcDbLine
 10
118.7902055328
 20
137.6902909559
 30
0.0
 11
118.7902055328
 21
137.5926956917
 31
0.0
  0
LINE
  5
1D7
330
1F
100
AcDbEntity
  8
0
  6
Continuous
 62
     7
370
    25
100
AcDbLine
 10
120.2494033373
 20
140.2176956917
 30
0.0
 11
118.7902055328
 21
137.6902909559
 31
0.0
  0
LINE
  5
1D8
330
1F
100
AcDbEntity
  8
0
  6
Continuous
 62
     7
370
    25
100
AcDbLine
 10
92.4911546745
 20
126.380196982
 30
0.0
 11
91.865208661
 21
126.8489218373
 31
0.0
  0
LINE
  5
1D9
330
1F
100
AcDbEntity
  8
0
  6
Continuous
 62
     7
370
    25
100
AcDbLine
 10
115.0402055328
 20
137.6902909559
 30
0.0
 11
113.5810077282
 21
140.2176956917
 31
0.0
  0
LINE
  5
1DA
330
1F
100
AcDbEntity
  8
0
  6
Continuous
 62
     7
370
    25
100
AcDbLine
 10
115.0402055328
 20
137.5926956917
 30
0.0
 11
115.0402055328
 21
137.6902909559
 31
0.0
  0
LINE
  5
1DB
330
1F
100
AcDbEntity
  8
0
  6
Continuous
 62
     7
370
    25
100
AcDbLine
 10
109.7402055328
 20
113.7426956917
 30
0.0
 11
109.7402055328
 21
114.4926956917
 31
0.0
  0
LINE
  5
1DC
330
1F
100
AcDbEntity
  8
0
  6
Continuous
 62
     7
370
    25
100
AcDbLine
 10
110.5652055328
 20
114.4926956917
 30
0.0
 11
110.5652055328
 21
112.7426956917
 31
0.0
  0
LINE
  5
1DD
330
1F
100
AcDbEntity
  8
0
  6
Continuous
 62
     7
370
    25
100
AcDbLine
 10
180.5152055328
 20
113.7426956917
 30
0.0
 11
180.5152055328
 21
115.6426956917
 31
0.0
  0
LINE
  5
1DE
330
1F
100
AcDbEntity
  8
0
  6
Continuous
 62
     7
370
    25
100
AcDbLine
 10
227.0152055328
 20
116.7793899398
 30
0.0
 11
227.0152055328
 21
120.3939147084
 31
0.0
  0
LINE
  5
1DF
330
1F
100
AcDbEntity
  8
0
  6
Continuous
 62
     7
370
    25
100
AcDbLine
 10
105.9152055328
 20
123.0926956917
 30
0.0
 11
105.9152055328
 21
113.9736357994
 31
0.0
  0
LINE
  5
1E0
330
1F
100
AcDbEntity
  8
0
  6
Continuous
 62
     7
370
    25
100
AcDbLine
 10
101.0152055328
 20
126.1926956917
 30
0.0
 11
101.0152055328
 21
124.2926956917
 31
0.0
  0
LINE
  5
1E1
330
1F
100
AcDbEntity
  8
0
  6
Continuous
 62
     7
370
    25
100
AcDbLine
 10
107.0152055328
 20
140.0176956917
 30
0.0
 11
107.0152055328
 21
135.5926956917
 31
0.0
  0
LINE
  5
1E2
330
1F
100
AcDbEntity
  8
0
  6
Continuous
 62
     7
370
    25
100
AcDbLine
 10
125.0152055328
 20
128.7426956917
 30
0.0
 11
125.0152055328
 21
140.2176956917
 31
0.0
  0
SPLINE
  5
1E3
330
1F
100
AcDbEntity
  8
0
  6
Continuous
 62
     7
370
    25
100
AcDbSpline
210
0.0
220
0.0
230
1.0
 70
     8
 71
     3
 72
     9
 73
     5
 74
     0
 42
0.000000001
 43
0.00000001
 40
0.0
 40
0.0
 40
0.0
 40
0.0
 40
0.5102121239851395
 40
0.9999999999999999
 40
0.9999999999999999
 40
0.9999999999999999
 40
0.9999999999999999
 10
67.86956892943822
 20
119.2043222083376
 30
0.0
 10
68.244430986417
 20
119.2018322909559
 30
0.0
 10
68.9791490367268
 20
119.1969521298139
 30
0.0
 10
69.70814962718353
 20
119.1915672384275
 30
0.0
 10
70.06520527799692
 20
119.1889297839128
 30
0.0
  0
LINE
  5
1E4
330
1F
100
AcDbEntity
  8
0
  6
Continuous
 62
     7
370
    25
100
AcDbLine
 10
67.8168715826
 20
119.2347464993
 30
0.0
 11
67.8695689313
 21
119.2043216708
 31
0.0
  0
LINE
  5
1E5
330
1F
100
AcDbEntity
  8
0
  6
Continuous
 62
     7
370
    25
100
AcDbLine
 10
67.8168715826
 20
127.678271903
 30
0.0
 11
67.8168715826
 21
119.2347464993
 31
0.0
  0
SPLINE
  5
1E6
330
1F
100
AcDbEntity
  8
0
  6
Continuous
 62
     7
370
    25
100
AcDbSpline
210
0.0
220
0.0
230
1.0
 70
    24
 71
     3
 72
     8
 73
     4
 74
     0
 42
0.000000001
 43
0.00000001
 40
0.0000004089325119
 40
0.0000004089325119
 40
0.0000004089325119
 40
0.0000004089325119
 40
0.0015399868451459
 40
0.0015399868451459
 40
0.0015399868451459
 40
0.0015399868451459
 10
67.06520553276711
 20
119.6687210954702
 30
0.0
 10
67.31619660879157
 20
119.5238113301633
 30
0.0
 10
67.56678580529451
 20
119.3791335901063
 30
0.0
 10
67.81687158260665
 20
119.2347464992546
 30
0.0
  0
LINE
  5
1E7
330
1F
100
AcDbEntity
  8
0
  6
Continuous
 62
     7
370
    25
100
AcDbLine
 10
67.0652055328
 20
128.9801956917
 30
0.0
 11
67.0652055328
 21
119.6687210955
 31
0.0
  0
SPLINE
  5
1E8
330
1F
100
AcDbEntity
  8
0
  6
Continuous
 62
     7
370
    25
100
AcDbSpline
210
0.0
220
0.0
230
1.0
 70
     8
 71
     3
 72
     8
 73
     4
 74
     0
 42
0.000000001
 43
0.00000001
 40
0.0
 40
0.0
 40
0.0
 40
0.0
 40
1.0
 40
1.0
 40
1.0
 40
1.0
 10
70.19488727552388
 20
118.8026963694223
 30
0.0
 10
70.16693905540434
 20
118.9105127233978
 30
0.0
 10
70.13897896723564
 20
119.0181065735641
 30
0.0
 10
70.11100677970141
 20
119.1254758543487
 30
0.0
  0
LINE
  5
1E9
330
1F
100
AcDbEntity
  8
0
  6
Continuous
 62
     7
370
    25
100
AcDbLine
 10
70.1948904141
 20
118.8026956917
 30
0.0
 11
68.565204746
 21
118.8026956917
 31
0.0
  0
LINE
  5
1EA
330
1F
100
AcDbEntity
  8
0
  6
Continuous
 62
     7
370
    25
100
AcDbLine
 10
68.5652049459
 20
118.8026960305
 30
0.0
 11
67.8695684679
 21
119.2043219383
 31
0.0
  0
LINE
  5
1EB
330
1F
100
AcDbEntity
  8
0
  6
Continuous
 62
     7
370
    25
100
AcDbLine
 10
76.61916643
 20
116.8051956917
 30
0.0
 11
76.366994802
 21
116.8051956917
 31
0.0
  0
SPLINE
  5
1EC
330
1F
100
AcDbEntity
  8
0
  6
Continuous
 62
     7
370
    25
100
AcDbSpline
210
0.0
220
0.0
230
1.0
 70
     8
 71
     3
 72
    26
 73
    22
 74
     0
 42
0.000000001
 43
0.00000001
 40
0.0
 40
0.0
 40
0.0
 40
0.0
 40
0.0524616379932503
 40
0.1026498591890872
 40
0.150565513457809
 40
0.1962095861957063
 40
0.2395832262568645
 40
0.2806877815599511
 40
0.3195248450380211
 40
0.3560963147430692
 40
0.3904044736547445
 40
0.4224520974433627
 40
0.4522426027417772
 40
0.4797802555366611
 40
0.5050704712281336
 40
0.5966394156799991
 40
0.6841917884819224
 40
0.7679874773571101
 40
0.8483228539139507
 40
0.925534163520116
 40
1.0
 40
1.0
 40
1.0
 40
1.0
 10
76.36518830809771
 20
116.8052254757211
 30
0.0
 10
76.32955190906642
 20
116.8647723958034
 30
0.0
 10
76.25982340872798
 20
116.98128577959
 30
0.0
 10
76.14634524796816
 20
117.1456837403192
 30
0.0
 10
76.03081969824312
 20
117.2978454781208
 30
0.0
 10
75.91369800223299
 20
117.4377481750533
 30
0.0
 10
75.79632630175361
 20
117.5659624989574
 30
0.0
 10
75.67970533571996
 20
117.6829781778977
 30
0.0
 10
75.56480241527494
 20
117.7893553331418
 30
0.0
 10
75.4524781895856
 20
117.885671413616
 30
0.0
 10
75.34350921555075
 20
117.9725207601686
 30
0.0
 10
75.23859017471408
 20
118.0505009423624
 30
0.0
 10
75.13833284876534
 20
118.1202091394154
 30
0.0
 10
75.0432955061822
 20
118.1822191283165
 30
0.0
 10
74.87318860175144
 20
118.2867055655823
 30
0.0
 10
74.62026957034634
 20
118.4217642320967
 30
0.0
 10
74.27428841328522
 20
118.5661511245138
 30
0.0
 10
73.92632986396087
 20
118.6751190367588
 30
0.0
 10
73.58019010358483
 20
118.7496486190955
 30
0.0
 10
73.2391253201507
 20
118.7945773236449
 30
0.0
 10
73.01337870863506
 20
118.8000224224994
 30
0.0
 10
72.90254849661699
 20
118.8026956916858
 30
0.0
  0
SPLINE
  5
1ED
330
1F
100
AcDbEntity
  8
0
  6
Continuous
 62
     7
370
    25
100
AcDbSpline
210
0.0
220
0.0
230
1.0
 70
     8
 71
     3
 72
     8
 73
     4
 74
     0
 42
0.000000001
 43
0.00000001
 40
0.0
 40
0.0
 40
0.0
 40
0.0
 40
1.0
 40
1.0
 40
1.0
 40
1.0
 10
76.61916642999961
 20
116.8051956916856
 30
0.0
 10
76.64817113642718
 20
116.9291334185479
 30
0.0
 10
76.6672036561086
 20
117.0570855487813
 30
0.0
 10
76.67545524830022
 20
117.1881548614728
 30
0.0
  0
LINE
  5
1EE
330
1F
100
AcDbEntity
  8
0
  6
Continuous
 62
     7
370
    25
100
AcDbLine
 10
72.9025484966
 20
118.8026956917
 30
0.0
 11
70.1948904141
 21
118.8026956917
 31
0.0
  0
LINE
  5
1EF
330
1F
100
AcDbEntity
  8
0
  6
Continuous
 62
     7
370
    25
100
AcDbLine
 10
89.6652055328
 20
112.8054691025
 30
0.0
 11
89.0152055328
 21
112.9551956917
 31
0.0
  0
SPLINE
  5
1F0
330
1F
100
AcDbEntity
  8
0
  6
Continuous
 62
     7
370
    25
100
AcDbSpline
210
0.0
220
0.0
230
1.0
 70
     8
 71
     3
 72
    26
 73
    22
 74
     0
 42
0.000000001
 43
0.00000001
 40
0.0
 40
0.0
 40
0.0
 40
0.0
 40
0.0305951740572524
 40
0.0629166281868209
 40
0.0969720532897471
 40
0.1327680143285421
 40
0.1703101548822788
 40
0.2096033578521422
 40
0.2506518729756868
 40
0.3342141733898287
 40
0.4179517165474635
 40
0.501867056102089
 40
0.565979568674667
 40
0.627713639787025
 40
0.6871358192109138
 40
0.7443207393864949
 40
0.7993521466017615
 40
0.8523240127975814
 40
0.9033417028076514
 40
0.9525231537633153
 40
1.0
 40
1.0
 40
1.0
 40
1.0
 10
89.01520553276711
 20
112.9551956916858
 30
0.0
 10
89.01429732092248
 20
113.019730859073
 30
0.0
 10
89.012429652942
 20
113.1524424796663
 30
0.0
 10
88.9968370638804
 20
113.3552565711899
 30
0.0
 10
88.97019320269325
 20
113.5669696120903
 30
0.0
 10
88.93003877361485
 20
113.7866816054633
 30
0.0
 10
88.87514065693169
 20
114.0134284763345
 30
0.0
 10
88.80389768831992
 20
114.2460594801176
 30
0.0
 10
88.68548529403736
 20
114.5614577945943
 30
0.0
 10
88.49735439762945
 20
114.9459396931292
 30
0.0
 10
88.2133376343949
 20
115.3759673076588
 30
0.0
 10
87.90391967784517
 20
115.7344540199996
 30
0.0
 10
87.58801006704357
 20
116.0262206762891
 30
0.0
 10
87.28126465892022
 20
116.2586797631262
 30
0.0
 10
86.96284554509812
 20
116.4554899976902
 30
0.0
 10
86.63687466894105
 20
116.6175906999485
 30
0.0
 10
86.30733583381581
 20
116.7460605834281
 30
0.0
 10
85.97777391896925
 20
116.8426444028011
 30
0.0
 10
85.65135559567001
 20
116.9084966320873
 30
0.0
 10
85.33083740336613
 20
116.9480615799127
 30
0.0
 10
85.11917188983537
 20
116.9528457781281
 30
0.0
 10
85.01520553276711
 20
116.9551956916858
 30
0.0
  0
SPLINE
  5
1F1
330
1F
100
AcDbEntity
  8
0
  6
Continuous
 62
     7
370
    25
100
AcDbSpline
210
0.0
220
0.0
230
1.0
 70
     8
 71
     3
 72
    13
 73
     9
 74
     0
 42
0.000000001
 43
0.00000001
 40
0.0
 40
0.0
 40
0.0
 40
0.0
 40
0.1604061687541733
 40
0.3231296684948323
 40
0.4883154213440354
 40
0.6561019686157298
 40
0.8266215118031817
 40
1.0
 40
1.0
 40
1.0
 40
1.0
 10
83.10033225347766
 20
116.9551956916858
 30
0.0
 10
83.0412823019536
 20
116.9544401216475
 30
0.0
 10
82.92232932521462
 20
116.9529180661189
 30
0.0
 10
82.74307569159292
 20
116.9404730069888
 30
0.0
 10
82.56214270990014
 20
116.9202888258554
 30
0.0
 10
82.38001421550695
 20
116.8911534597135
 30
0.0
 10
82.19684720772855
 20
116.8537373078959
 30
0.0
 10
82.07610789286815
 20
116.8214714355423
 30
0.0
 10
82.01523636129191
 20
116.805204380606
 30
0.0
  0
SPLINE
  5
1F2
330
1F
100
AcDbEntity
  8
0
  6
Continuous
 62
     7
370
    25
100
AcDbSpline
210
0.0
220
0.0
230
1.0
 70
    24
 71
     3
 72
    10
 73
     6
 74
     0
 42
0.000000001
 43
0.00000001
 40
0.0
 40
0.0
 40
0.0
 40
0.0
 40
0.321662355691734
 40
0.6548175346390224
 40
1.0
 40
1.0
 40
1.0
 40
1.0
 10
82.01538436767187
 20
116.8051956916858
 30
0.0
 10
81.9468384598146
 20
116.8051956916858
 30
0.0
 10
81.80729753561731
 20
116.8051956916858
 30
0.0
 10
81.59768912026676
 20
116.8051956916858
 30
0.0
 10
81.45801212511293
 20
116.8051956916858
 30
0.0
 10
81.3869353539121
 20
116.8051956916858
 30
0.0
  0
SPLINE
  5
1F3
330
1F
100
AcDbEntity
  8
0
  6
Continuous
 62
     7
370
    25
100
AcDbSpline
210
0.0
220
0.0
230
1.0
 70
     8
 71
     3
 72
     8
 73
     4
 74
     0
 42
0.000000001
 43
0.00000001
 40
0.0
 40
0.0
 40
0.0
 40
0.0
 40
1.0
 40
1.0
 40
1.0
 40
1.0
 10
82.1015356492015
 20
117.1836420408815
 30
0.0
 10
81.83223931913045
 20
117.086952655687
 30
0.0
 10
81.596078633705
 20
116.9589534863056
 30
0.0
 10
81.38688111751155
 20
116.805476888654
 30
0.0
  0
LINE
  5
1F4
330
1F
100
AcDbEntity
  8
0
  6
Continuous
 62
     7
370
    25
100
AcDbLine
 10
81.3874268291
 20
100.6801956917
 30
0.0
 11
81.5069075374
 21
100.6801956917
 31
0.0
  0
LINE
  5
1F5
330
1F
100
AcDbEntity
  8
0
  6
Continuous
 62
     7
370
    25
100
AcDbLine
 10
85.0152055328
 20
116.9551956917
 30
0.0
 11
83.1003322535
 21
116.9551956917
 31
0.0
  0
LINE
  5
1F6
330
1F
100
AcDbEntity
  8
0
  6
Continuous
 62
     7
370
    25
100
AcDbLine
 10
81.3872937147
 20
116.8051956917
 30
0.0
 11
76.61916643
 21
116.8051956917
 31
0.0
  0
LINE
  5
1F7
330
1F
100
AcDbEntity
  8
0
  6
Continuous
 62
     7
370
    25
100
AcDbLine
 10
89.0152055328
 20
108.7426956917
 30
0.0
 11
89.0152055328
 21
112.9551956917
 31
0.0
  0
LINE
  5
1F8
330
1F
100
AcDbEntity
  8
VERMASSUNG
  6
CENTERX2
100
AcDbLine
 10
243.0102055328
 20
108.7426956917
 30
0.0
 11
51.0702055328
 21
108.7426956917
 31
0.0
  0
HATCH
  5
1F9
330
1F
100
AcDbEntity
  8
0
  6
Continuous
 62
     7
370
    18
100
AcDbHatch
 10
0.0
 20
0.0
 30
0.0
210
0.0
220
0.0
230
1.0
  2
ANSI31
 70
     0
 71
     0
 91
        1
 92
        0
 93
       50
 72
     1
 10
115.0402055327671
 20
137.5926956916857
 11
115.0402055327671
 21
137.6902909558774
 72
     1
 10
115.0402055327671
 20
137.6902909558774
 11
113.581007728197
 21
140.2176956916858
 72
     1
 10
113.581007728197
 20
140.2176956916858
 11
107.2152055327671
 21
140.2176956916858
 72
     2
 10
107.2152055327671
 20
140.0176956916858
 40
0.2000000000000028
 50
90.0
 51
180.0
 73
     1
 72
     1
 10
107.0152055327671
 20
140.0176956916858
 11
107.0152055327671
 21
135.5926956916858
 72
     1
 10
107.0152055327671
 20
135.5926956916858
 11
107.3492442187957
 21
134.5332603312892
 72
     2
 10
106.5862706581972
 20
134.2926956916858
 40
0.8000000000000049
 50
342.4999999999998
 51
467.5000000000022
 73
     0
 72
     1
 10
106.3457060185937
 20
133.5297221310872
 11
105.8550234927364
 21
133.6844337372141
 72
     1
 10
105.8550234927364
 20
133.6844337372141
 11
92.53355022021688
 21
133.0154567641879
 72
     1
 10
92.53354862681833
 20
133.0154600732563
 11
91.8652184808888
 21
132.2063482508652
 72
     1
 10
91.8652184808888
 20
132.2063482508652
 11
91.8652055327671
 21
126.8489217124373
 72
     1
 10
91.8652086610008
 20
126.8489218373178
 11
92.491154674543
 21
126.3801969819778
 72
     1
 10
92.4911549228519
 20
126.3801956916858
 11
97.51520553276714
 21
126.3801956916858
 72
     1
 10
97.51520553276714
 20
126.3801956916858
 11
98.39044600634796
 21
126.8855160147133
 72
     2
 10
98.79044600634795
 20
126.1926956916858
 40
0.7999999999999923
 50
240.0000000000007
 51
270.0000000000008
 73
     0
 72
     1
 10
98.79044600634795
 20
126.9926956916858
 11
100.2152055327671
 21
126.9926956916858
 72
     2
 10
100.2152055327671
 20
126.1926956916858
 40
0.7999999999999977
 50
270.0000000000008
 51
360.0000000000008
 73
     0
 72
     1
 10
101.0152055327671
 20
126.1926956916858
 11
101.0152055327671
 21
124.2926956916858
 72
     1
 10
101.0152055327671
 20
124.2926956916858
 11
104.7152055327671
 21
124.2926956916858
 72
     2
 10
104.7152055327671
 20
123.0926956916858
 40
1.2
 50
270.0000000000008
 51
360.0000000000008
 73
     0
 72
     1
 10
105.9152055327671
 20
123.0926956916858
 11
105.9152055327671
 21
113.9736357993616
 72
     1
 10
105.9152055327671
 20
113.9736357993616
 11
106.3152055327671
 21
113.7426956916858
 72
     1
 10
106.3152055327671
 20
113.7426956916858
 11
109.7402055327671
 21
113.7426956916858
 72
     1
 10
109.7402055327671
 20
113.7426956916858
 11
109.7402055327671
 21
114.4926956916858
 72
     1
 10
109.7402055327671
 20
114.4926956916858
 11
110.5652055327671
 21
114.4926956916858
 72
     1
 10
110.5652055327671
 20
114.4926956916858
 11
110.5652055327671
 21
112.7426956916858
 72
     1
 10
110.5652055327671
 20
112.7426956916858
 11
156.7147752232533
 21
112.7426956916857
 72
     1
 10
156.7147752232533
 20
112.7426956916857
 11
157.0152055327671
 21
113.2426956916857
 72
     1
 10
157.0152055327671
 20
113.2426956916857
 11
180.0152055327672
 21
113.2426956916857
 72
     1
 10
180.0152055327672
 20
113.2426956916857
 11
180.5152055327672
 21
113.7426956916857
 72
     1
 10
180.5152055327672
 20
113.7426956916857
 11
180.5152055327672
 21
115.6426956916857
 72
     2
 10
180.9152055327671
 20
115.6426956916857
 40
0.3999999999999915
 50
180.0
 51
270.0000000000008
 73
     0
 72
     1
 10
180.9152055327671
 20
116.0426956916857
 11
190.1204315146473
 21
116.0426956916857
 72
     2
 10
190.1204315146473
 20
115.6426956916857
 40
0.4000000000000009
 50
270.0000000000008
 51
290.0000000000024
 73
     0
 72
     1
 10
190.2572395719776
 20
116.0185727400001
 11
191.0152055327671
 21
115.7426956916857
 72
     1
 10
191.0152055327671
 20
115.7426956916857
 11
223.5152055327671
 21
115.7426956916857
 72
     1
 10
223.5152055327671
 20
115.7426956916857
 11
226.6020296216006
 21
116.2869860632478
 72
     2
 10
226.5152055327671
 20
116.7793899397539
 40
0.500000000000002
 50
280.0000000000026
 51
360.0000000000008
 73
     1
 72
     1
 10
227.0152055327671
 20
116.7793899397539
 11
227.0152055327671
 21
120.3939147083693
 72
     2
 10
225.0152055327671
 20
120.3939147083693
 40
2.000000000000001
 50
0.0
 51
85.50000000000047
 73
     1
 72
     1
 10
225.1721237242228
 20
122.3877493758355
 11
182.5434889561536
 21
125.7426956916859
 72
     1
 10
182.5434889561536
 20
125.7426956916859
 11
128.0152055327671
 21
125.7426956916859
 72
     2
 10
128.0152055327671
 20
128.7426956916859
 40
3.0
 50
90.0
 51
180.0
 73
     0
 72
     1
 10
125.0152055327671
 20
128.7426956916859
 11
125.0152055327671
 21
140.2176956916857
 72
     1
 10
125.0152055327671
 20
140.2176956916857
 11
120.2494033373372
 21
140.2176956916857
 72
     1
 10
120.2494033373372
 20
140.2176956916857
 11
118.7902055327671
 21
137.6902909558774
 72
     1
 10
118.7902055327671
 20
137.6902909558774
 11
118.7902055327671
 21
137.5926956916857
 72
     2
 10
117.7902055327671
 20
137.5926956916857
 40
1.000000000000003
 50
0.0
 51
90.0
 73
     0
 72
     1
 10
117.7902055327671
 20
136.5926956916857
 11
116.0402055327671
 21
136.5926956916857
 72
     2
 10
116.0402055327671
 20
137.5926956916857
 40
1.000000000000003
 50
90.0
 51
180.0
 73
     0
 97
        0
 75
     0
 76
     1
 52
0.0
 41
1.0
 77
     0
 78
     1
 53
45.0
 43
0.0
 44
0.0
 45
-2.245064030267288
 46
2.245064030267288
 79
     0
 98
        1
 10
0.0
 20
0.0
  0
HATCH
  5
1FA
330
1F
100
AcDbEntity
  8
0
  6
Continuous
 62
     7
370
    18
100
AcDbHatch
 10
0.0
 20
0.0
 30
0.0
210
0.0
220
0.0
230
1.0
  2
ANSI31
 70
     0
 71
     0
 91
        1
 92
        0
 93
        9
 72
     1
 10
77.3652336633553
 20
131.4069700635687
 11
76.61564368441958
 21
132.2160814013363
 72
     1
 10
76.61564368441958
 20
132.2160814013363
 11
68.56520553276712
 21
131.8118158192682
 72
     1
 10
68.56520553276712
 20
131.8118158192682
 11
67.06520553276712
 21
130.9457904154837
 72
     1
 10
67.06520553276712
 20
130.9457904154837
 11
67.06520553276712
 21
128.9801956916858
 72
     1
 10
67.06520553276712
 20
128.9801956916858
 11
67.81687158260665
 21
127.6782719030391
 72
     1
 10
67.81687158260665
 20
127.6782719030391
 11
70.06520553276712
 21
126.3801956916858
 72
     1
 10
70.06520553276712
 20
126.3801956916858
 11
73.93520537747608
 21
126.3801956916858
 72
     1
 10
73.93520537747608
 20
126.3801956916858
 11
77.36520553276713
 21
131.2787435765897
 72
     1
 10
77.36520553276713
 20
131.2787435765897
 11
77.36520553276713
 21
131.4069689500754
 97
        0
 75
     0
 76
     1
 52
0.0
 41
1.0
 77
     0
 78
     1
 53
45.0
 43
0.0
 44
0.0
 45
-2.245064030267288
 46
2.245064030267288
 79
     0
 98
        1
 10
0.0
 20
0.0
  0
HATCH
  5
1FB
330
1F
100
AcDbEntity
  8
0
  6
Continuous
 62
     7
370
    18
100
AcDbHatch
 10
0.0
 20
0.0
 30
0.0
210
0.0
220
0.0
230
1.0
  2
ANSI31
 70
     0
 71
     0
 91
        1
 92
        0
 93
       11
 72
     1
 10
181.0152055327672
 20
113.2426956916857
 11
180.5152055327672
 21
113.7426956916857
 72
     1
 10
180.5152055327672
 20
113.7426956916857
 11
165.0152055327672
 21
113.7426956916857
 72
     1
 10
165.0152055327672
 20
113.7426956916857
 11
164.5152055327672
 21
113.2426956916857
 72
     1
 10
164.5152055327672
 20
113.2426956916857
 11
164.5152055327003
 21
111.3969105751438
 72
     1
 10
164.5152055327003
 20
111.3969105751438
 11
170.5152055327003
 21
111.3969105751438
 72
     1
 10
170.5152055327003
 20
111.3969105751438
 11
170.5152055327003
 21
111.2426956916857
 72
     1
 10
170.5152055327003
 20
111.2426956916857
 11
178.5152055327672
 21
111.2426956916857
 72
     1
 10
178.5152055327672
 20
111.2426956916857
 11
178.5152055327672
 21
111.3969105751438
 72
     1
 10
178.5152055327672
 20
111.3969105751438
 11
182.5152055327672
 21
111.3969105751438
 72
     1
 10
182.5152055327672
 20
111.3969105751438
 11
182.5152055327672
 21
113.2426956916857
 72
     1
 10
182.5152055327672
 20
113.2426956916857
 11
181.0152055327672
 21
113.2426956916857
 97
        0
 75
     0
 76
     1
 52
0.0
 41
1.0
 77
     0
 78
     1
 53
45.0
 43
0.0
 44
0.0
 45
-2.245064030267288
 46
2.245064030267288
 79
     0
 98
        1
 10
0.0
 20
0.0
  0
POINT
  5
1FC
330
1F
100
AcDbEntity
  8
VERMASSUNG
100
AcDbPoint
 10
227.0152055328
 20
95.2426956917
 30
0.0
  0
POINT
  5
1FD
330
1F
100
AcDbEntity
  8
VERMASSUNG
100
AcDbPoint
 10
227.0152055328
 20
122.2426956917
 30
0.0
  0
DIMENSION
  5
1FE
330
1F
100
AcDbEntity
  8
VERMASSUNG
100
AcDbDimension
  2
_D
 10
267.0152055328
 20
95.2426956917
 30
0.0
 11
267.0152055328
 21
108.7426956917
 31
0.0
 70
   160
  1
%%c<>
 71
     2
 42
-1.0
  3
SLDDIMSTYLE0
100
AcDbAlignedDimension
 13
227.0152055328
 23
122.2426956917
 33
0.0
 14
227.0152055328
 24
95.2426956917
 34
0.0
 50
90.0
100
AcDbRotatedDimension
  0
DIMENSION
  5
20A
330
1F
100
AcDbEntity
  8
VERMASSUNG
100
AcDbDimension
  2
_D_1
 10
51.0702055328
 20
108.7426956917
 30
0.0
 11
208.7173453274
 21
130.4455263668
 31
0.0
 70
   162
  1
<>
 71
     1
 42
-1.0
  3
SLDDIMSTYLE1
100
AcDb2LineAngularDimension
 13
225.1721237242
 23
122.3877493758
 33
0.0
 14
182.5434889562
 24
125.7426956917
 34
0.0
 15
243.0102055328
 25
108.7426956917
 35
0.0
 16
207.6280726429
 26
116.2439981581
 36
0.0
  0
DIMENSION
  5
214
330
1F
100
AcDbEntity
  8
VERMASSUNG
100
AcDbDimension
  2
_D_2
 10
257.7788839193
 20
101.7426956917
 30
0.0
 11
257.7788839193
 21
108.7426956917
 31
0.0
 70
   160
  1
%%c<>
 71
     2
 42
-1.0
  3
SLDDIMSTYLE2
100
AcDbAlignedDimension
 13
223.5152055328
 23
115.7426956917
 33
0.0
 14
223.5152055328
 24
101.7426956917
 34
0.0
 50
90.0
100
AcDbRotatedDimension
  0
DIMENSION
  5
21E
330
1F
100
AcDbEntity
  8
VERMASSUNG
100
AcDbDimension
  2
_D_3
 10
227.0152055328
 20
139.2427581844
 30
0.0
 11
209.0152055328
 21
139.2427581844
 31
0.0
 70
   160
  1
<> min.
 71
     2
 42
-1.0
  3
SLDDIMSTYLE0
100
AcDbAlignedDimension
 13
191.0152055328
 23
115.7426956917
 33
0.0
 14
227.0152055328
 24
120.3939147084
 34
0.0
100
AcDbRotatedDimension
  0
DIMENSION
  5
229
330
1F
100
AcDbEntity
  8
VERMASSUNG
100
AcDbDimension
  2
_D_4
 10
227.0152055328
 20
147.5565051756
 30
0.0
 11
203.7652055328
 21
147.5565051756
 31
0.0
 70
   160
  1
<> max.
 71
     2
 42
-1.0
  3
SLDDIMSTYLE0
100
AcDbAlignedDimension
 13
180.5152055328
 23
115.6426956917
 33
0.0
 14
227.0152055328
 24
120.3939147084
 34
0.0
 50
0.0
100
AcDbRotatedDimension
  0
DIMENSION
  5
234
330
1F
100
AcDbEntity
  8
VERMASSUNG
100
AcDbDimension
  2
_D_5
 10
107.0152055328
 20
156.2176956917
 30
0.0
 11
167.0152055328
 21
156.2176956917
 31
0.0
 70
   160
  1
<>
 71
     2
 42
-1.0
  3
SLDDIMSTYLE0
100
AcDbAlignedDimension
 13
227.0152055328
 23
120.3939147084
 33
0.0
 14
107.0152055328
 24
140.0176956917
 34
0.0
 50
0.0
100
AcDbRotatedDimension
  0
DIMENSION
  5
23E
330
1F
100
AcDbEntity
  8
VERMASSUNG
100
AcDbDimension
  2
_D_6
 10
67.0652055328
 20
165.4841056722
 30
0.0
 11
147.0402055328
 21
165.4841056722
 31
0.0
 70
   160
  1
<>
 71
     2
 42
-1.0
  3
SLDDIMSTYLE0
100
AcDbAlignedDimension
 13
227.0152055328
 23
120.3939147084
 33
0.0
 14
67.0652055328
 24
130.9457904155
 34
0.0
 50
0.0
100
AcDbRotatedDimension
  0
DIMENSION
  5
248
330
1F
100
AcDbEntity
  8
VERMASSUNG
100
AcDbDimension
  2
_D_7
 10
276.8825344527
 20
91.7426956917
 30
0.0
 11
276.8825344527
 21
108.7426956917
 31
0.0
 70
   160
  1
%%c<>
 71
     2
 42
-1.0
  3
SLDDIMSTYLE0
100
AcDbAlignedDimension
 13
182.5434889562
 23
125.7426956917
 33
0.0
 14
182.5434889562
 24
91.7426956917
 34
0.0
 50
90.0
100
AcDbRotatedDimension
  0
DIMENSION
  5
253
330
1F
100
AcDbEntity
  8
VERMASSUNG
100
AcDbDimension
  2
_D_8
 10
227.0152055328
 20
78.5685621945
 30
0.0
 11
204.7793472445
 21
78.5685621945
 31
0.0
 70
   160
  1
<>
 71
     2
 42
-1.0
  3
SLDDIMSTYLE3
100
AcDbAlignedDimension
 13
182.5434889562
 23
91.7426956917
 33
0.0
 14
227.0152055328
 24
97.091476675
 34
0.0
 50
0.0
100
AcDbRotatedDimension
  0
DIMENSION
  5
25E
330
1F
100
AcDbEntity
  8
VERMASSUNG
100
AcDbDimension
  2
_D_9
 10
227.0152055328
 20
68.9264627624
 30
0.0
 11
176.0152055328
 21
68.9264627624
 31
0.0
 70
   160
  1
<>
 71
     2
 42
-1.0
  3
SLDDIMSTYLE0
100
AcDbAlignedDimension
 13
125.0152055328
 23
77.2676956917
 33
0.0
 14
227.0152055328
 24
97.091476675
 34
0.0
 50
0.0
100
AcDbRotatedDimension
  0
DIMENSION
  5
268
330
1F
100
AcDbEntity
  8
VERMASSUNG
100
AcDbDimension
  2
_D_10
 10
45.0651805328
 20
77.2676956917
 30
0.0
 11
45.0651805328
 21
108.7426956917
 31
0.0
 70
   160
  1
KM%%c<> XMZ
 71
     2
 42
-1.0
  3
SLDDIMSTYLE0
100
AcDbAlignedDimension
 13
107.2152055328
 23
140.2176956917
 33
0.0
 14
107.2152055328
 24
77.2676956917
 34
0.0
 50
90.0
100
AcDbRotatedDimension
  0
LINE
  5
275
330
1F
100
AcDbEntity
  8
0
  6
Continuous
 62
     7
370
    25
100
AcDbLine
 10
263.9114425651
 20
17.3828949375
 30
0.0
 11
279.7736243462
 21
10.1597766471
 31
0.0
  0
LINE
  5
276
330
1F
100
AcDbEntity
  8
0
  6
Continuous
 62
     7
370
    25
100
AcDbLine
 10
286.5850229615
 20
21.958743803
 30
0.0
 11
272.3975781453
 21
32.082906049
 31
0.0
  0
SPLINE
  5
277
330
1F
100
AcDbEntity
  8
0
  6
Continuous
 62
     7
370
    25
100
AcDbSpline
210
0.0
220
0.0
230
1.0
 70
     8
 71
     3
 72
    31
 73
    27
 74
     0
 42
0.000000001
 43
0.00000001
 40
0.0
 40
0.0
 40
0.0
 40
0.0
 40
0.0059588730363551
 40
0.0467041280440702
 40
0.0875959416559729
 40
0.1293929562887302
 40
0.172532258923276
 40
0.2170020731753003
 40
0.2624046162862715
 40
0.3082304274789422
 40
0.3540545672660109
 40
0.3997453882168336
 40
0.4452993629771709
 40
0.4907646888347551
 40
0.5362106940151534
 40
0.5817071928860984
 40
0.627317732963677
 40
0.6731250731963199
 40
0.719204558582018
 40
0.7656008627091455
 40
0.8122730773083238
 40
0.8588800129130876
 40
0.9048047055964623
 40
0.9493590156465143
 40
0.9922255066151868
 40
1.0
 40
1.0
 40
1.0
 40
1.0
 10
279.7782153892553
 20
10.16605328000036
 30
0.0
 10
279.8035450463393
 20
10.15184311928561
 30
0.0
 10
280.0020724424671
 20
10.04046750153047
 30
0.0
 10
280.4252738201602
 20
9.936289917855994
 30
0.0
 10
281.0307594375429
 20
9.863189886269614
 30
0.0
 10
281.6680453994614
 20
9.91048442112833
 30
0.0
 10
282.3259541662933
 20
10.06506837229824
 30
0.0
 10
282.9990118959919
 20
10.33135975374366
 30
0.0
 10
283.6749299787488
 20
10.70589611135938
 30
0.0
 10
284.3393351283248
 20
11.18161188052131
 30
0.0
 10
284.9782504206752
 20
11.74735921290122
 30
0.0
 10
285.5798641642035
 20
12.39061512432565
 30
0.0
 10
286.134546449768
 20
13.09893814935418
 30
0.0
 10
286.6337547070081
 20
13.85981215887716
 30
0.0
 10
287.0696134991718
 20
14.6604803591552
 30
0.0
 10
287.4348642465148
 20
15.48789875243624
 30
0.0
 10
287.7229172075819
 20
16.32900725432809
 30
0.0
 10
287.9277970448509
 20
17.17096829698435
 30
0.0
 10
288.0439718027257
 20
18.00132362030391
 30
0.0
 10
288.065996580039
 20
18.80749749301932
 30
0.0
 10
287.9887885363204
 20
19.57574854055232
 30
0.0
 10
287.8078855438897
 20
20.28837522298754
 30
0.0
 10
287.5259767293222
 20
20.92966182231081
 30
0.0
 10
287.1418999181577
 20
21.46703299246676
 30
0.0
 10
286.8159295743391
 20
21.81097266643083
 30
0.0
 10
286.6039015123179
 20
21.93740472679723
 30
0.0
 10
286.5713505896488
 20
21.95681480007081
 30
0.0
  0
LINE
  5
278
330
1F
100
AcDbEntity
  8
0
  6
Continuous
 62
     7
370
    25
100
AcDbLine
 10
280.8790688465
 20
14.160846542
 30
0.0
 11
280.872906187
 21
14.2544375757
 31
0.0
  0
SPLINE
  5
279
330
1F
100
AcDbEntity
  8
0
  6
Continuous
 62
     7
370
    25
100
AcDbSpline
210
0.0
220
0.0
230
1.0
 70
     8
 71
     3
 72
    11
 73
     7
 74
     0
 42
0.000000001
 43
0.00000001
 40
0.0
 40
0.0
 40
0.0
 40
0.0
 40
0.1581806385906647
 40
0.4836213185932964
 40
0.7981257372704281
 40
1.0
 40
1.0
 40
1.0
 40
1.0
 10
281.3172773683484
 20
12.86412450760614
 30
0.0
 10
281.2749928347677
 20
12.90580776920176
 30
0.0
 10
281.1457121461282
 20
13.03325012950421
 30
0.0
 10
281.0011533878892
 20
13.35736329512208
 30
0.0
 10
280.8955819005823
 20
13.75606687144764
 30
0.0
 10
280.883710053524
 20
14.04707798979159
 30
0.0
 10
280.8790688464827
 20
14.16084654197455
 30
0.0
  0
SPLINE
  5
27A
330
1F
100
AcDbEntity
  8
0
  6
Continuous
 62
     7
370
    25
100
AcDbSpline
210
0.0
220
0.0
230
1.0
 70
     8
 71
     3
 72
    17
 73
    13
 74
     0
 42
0.000000001
 43
0.00000001
 40
0.0
 40
0.0
 40
0.0
 40
0.0
 40
0.0375961813563595
 40
0.1542143644334204
 40
0.270740833631972
 40
0.3870173527537006
 40
0.5029146045797483
 40
0.6183514264169498
 40
0.733412881473299
 40
0.8484706877566555
 40
0.964570557690184
 40
1.0
 40
1.0
 40
1.0
 40
1.0
 10
281.5808876311739
 20
16.75190368658066
 30
0.0
 10
281.6134246922359
 20
16.81678528958464
 30
0.0
 10
281.746887241122
 20
17.08292070040839
 30
0.0
 10
282.0436364859426
 20
17.51882249521474
 30
0.0
 10
282.4569940110926
 20
18.03546055895672
 30
0.0
 10
282.9072840294797
 20
18.47980062010685
 30
0.0
 10
283.3729501504217
 20
18.84024294087038
 30
0.0
 10
283.8382851610002
 20
19.10487484181307
 30
0.0
 10
284.2871522451582
 20
19.26977838824905
 30
0.0
 10
284.6987726629498
 20
19.32483341315963
 30
0.0
 10
284.9894554979297
 20
19.31036133440197
 30
0.0
 10
285.1230391074756
 20
19.24882628643129
 30
0.0
 10
285.1542726207666
 20
19.2344386250618
 30
0.0
  0
SPLINE
  5
27B
330
1F
100
AcDbEntity
  8
0
  6
Continuous
 62
     7
370
    25
100
AcDbSpline
210
0.0
220
0.0
230
1.0
 70
     8
 71
     3
 72
    12
 73
     8
 74
     0
 42
0.000000001
 43
0.00000001
 40
0.0
 40
0.0
 40
0.0
 40
0.0
 40
0.1237530215694612
 40
0.3611945548858424
 40
0.5993486819234061
 40
0.8380424747423756
 40
1.0
 40
1.0
 40
1.0
 40
1.0
 10
280.872906186977
 20
14.25443757571519
 30
0.0
 10
280.8751366922176
 20
14.34905285920608
 30
0.0
 10
280.8816468067775
 20
14.6252038959443
 30
0.0
 10
280.9543034669613
 20
15.11969717104031
 30
0.0
 10
281.1200424317624
 20
15.72980501078224
 30
0.0
 10
281.3293063552783
 20
16.28382235848177
 30
0.0
 10
281.5084652344627
 20
16.61715768246717
 30
0.0
 10
281.5808876311739
 20
16.75190368658066
 30
0.0
  0
LINE
  5
27C
330
1F
100
AcDbEntity
  8
0
  6
Continuous
 62
     7
370
    25
100
AcDbLine
 10
244.3896420252
 20
28.6373782086
 30
0.0
 11
263.6683026644
 21
17.5080443162
 31
0.0
  0
LINE
  5
27D
330
1F
100
AcDbEntity
  8
0
  6
Continuous
 62
     7
370
    25
100
AcDbLine
 10
272.1676117689
 20
32.2308749225
 30
0.0
 11
252.8889511298
 21
43.3602088149
 31
0.0
  0
LINE
  5
27E
330
1F
100
AcDbEntity
  8
0
  6
Continuous
 62
     7
370
    25
100
AcDbLine
 10
238.0255604256
 20
23.9543651749
 30
0.0
 11
239.7105255746
 21
22.9816554991
 31
0.0
  0
LINE
  5
27F
330
1F
100
AcDbEntity
  8
0
  6
Continuous
 62
     7
370
    25
100
AcDbLine
 10
255.4467468891
 20
50.2405438929
 30
0.0
 11
253.7617817401
 21
51.2132535687
 31
0.0
  0
LINE
  5
280
330
1F
100
AcDbEntity
  8
0
  6
Continuous
 62
     7
370
    25
100
AcDbLine
 10
233.4172754942
 20
26.6146714396
 30
0.0
 11
235.6679264706
 21
25.3153982867
 31
0.0
  0
LINE
  5
281
330
1F
100
AcDbEntity
  8
0
  6
Continuous
 62
     7
370
    25
100
AcDbLine
 10
251.4041477852
 20
52.5742866805
 30
0.0
 11
249.1534968087
 21
53.8735598334
 31
0.0
  0
LINE
  5
282
330
1F
100
AcDbEntity
  8
0
  6
Continuous
 62
     7
370
    25
100
AcDbLine
 10
242.3761076185
 20
53.653441741
 30
0.0
 11
233.1788954349
 21
58.2340943509
 31
0.0
  0
LINE
  5
283
330
1F
100
AcDbEntity
  8
0
  6
Continuous
 62
     7
370
    25
100
AcDbLine
 10
221.6525476452
 20
38.2677108952
 30
0.0
 11
230.2186476509
 21
32.5938212989
 31
0.0
  0
LINE
  5
284
330
1F
100
AcDbEntity
  8
0
  6
Continuous
 62
     7
370
    25
100
AcDbLine
 10
226.6319850869
 20
39.2142007609
 30
0.0
 11
226.6319850869
 21
38.8488820559
 31
0.0
  0
LINE
  5
285
330
1F
100
AcDbEntity
  8
0
  6
Continuous
 62
     7
370
    25
100
AcDbLine
 10
230.5299518473
 20
58.6110627276
 30
0.0
 11
229.8904017385
 21
58.5238509721
 31
0.0
  0
LWPOLYLINE
  5
286
330
1F
100
AcDbEntity
  8
0
  6
Continuous
 62
     7
370
    25
100
AcDbPolyline
 90
       20
 70
   128
 43
0.0
 10
261.9075492499
 20
21.3997249555
 10
261.9568946485
 20
22.3157552927
 10
262.1041208343
 20
23.2737174948
 10
262.346809632
 20
24.2578816138
 10
262.6809765181
 20
25.2520876168
 10
263.1011344996
 20
26.2400111618
 10
263.6003846644
 20
27.2054303215
 10
264.1705294503
 20
28.1324928755
 10
264.8022066595
 20
29.0059761857
 10
265.4850443804
 20
29.8115382298
 10
266.2078303991
 20
30.5359515227
 10
266.9586967556
 20
31.167321067
 10
267.7253141796
 20
31.6952798684
 10
268.4950947575
 20
32.1111595461
 10
269.2553987153
 20
32.4081294774
 10
269.9937420248
 20
32.5813158865
 10
270.6980008815
 20
32.6278731182
 10
271.3566115732
 20
32.5470374219
 10
271.9587596466
 20
32.340136535
 10
272.3975781453
 20
32.082906049
  0
LWPOLYLINE
  5
287
330
1F
100
AcDbEntity
  8
0
  6
Continuous
 62
     7
370
    25
100
AcDbPolyline
 90
        8
 70
   128
 43
0.0
 10
263.9114425651
 20
17.3828949375
 10
263.6003846644
 20
17.5485257562
 10
263.1011344996
 20
17.9375229451
 10
262.6809765181
 20
18.4403424104
 10
262.346809632
 20
19.0487275392
 10
262.1041208343
 20
19.7526891367
 10
261.9568946485
 20
20.5406676028
 10
261.9075492499
 20
21.3997249555
  0
LINE
  5
288
330
1F
100
AcDbEntity
  8
0
  6
Continuous
 62
     7
370
    25
100
AcDbLine
 10
281.3886049826
 20
12.7714333941
 30
0.0
 11
281.2977095415
 21
12.8624367263
 31
0.0
  0
LWPOLYLINE
  5
289
330
1F
100
AcDbEntity
  8
0
  6
Continuous
 62
     7
370
    25
100
AcDbPolyline
 90
       17
 70
   128
 43
0.0
 10
284.4275219995
 20
19.3202564117
 10
284.4614269989
 20
19.2827429229
 10
284.690129793
 20
18.9206782935
 10
284.8309643105
 20
18.4658593148
 10
284.8785184679
 20
17.9357644985
 10
284.8309643105
 20
17.3507648206
 10
284.690129793
 20
16.7333417691
 10
284.4614269989
 20
16.1072225143
 10
284.1536446986
 20
15.4964683229
 10
283.7786108453
 20
14.9245502474
 10
283.3507378502
 20
14.4134468797
 10
282.8864685819
 20
13.9827994334
 10
282.4036446574
 20
13.6491573289
 10
281.9208207329
 20
13.425342796
 10
281.4565514646
 20
13.3199563549
 10
281.0286784695
 20
13.3370480778
 10
280.9736987288
 20
13.3489802417
  0
LWPOLYLINE
  5
28A
330
1F
100
AcDbEntity
  8
0
  6
Continuous
 62
     7
370
    25
100
AcDbPolyline
 90
       37
 70
   128
 43
0.0
 10
236.4505432334
 20
30.1869883491
 10
236.4994401632
 20
31.418538204
 10
236.6457015813
 20
32.6957205748
 10
236.888042009
 20
34.0073113399
 10
237.2243317132
 20
35.3417845534
 10
237.6516158049
 20
36.6874124436
 10
238.1661386046
 20
38.0323694045
 10
238.7633785458
 20
39.3648363659
 10
239.4380876873
 20
40.6731038323
 10
240.1843358357
 20
41.9456737812
 10
240.9955658635
 20
43.1713630803
 10
241.8646477093
 20
44.3394008219
 10
242.7839445615
 20
45.439522044
 10
243.7453770671
 20
46.4620587894
 10
244.7404964291
 20
47.3980248905
 10
245.7605578351
 20
48.2391948605
 10
246.7965962717
 20
48.9781765582
 10
247.8395073611
 20
49.6084768648
 10
248.8801258925
 20
50.124555385
 10
249.9093069051
 20
50.5218765781
 10
250.9180057842
 20
50.7969499126
 10
251.8973586029
 20
50.9473579957
 10
252.8387578552
 20
50.9717774791
 10
253.7339312343
 20
50.8699956391
 10
254.5750117676
 20
50.6429052367
 10
255.3546072929
 20
50.2925035611
 10
256.0658676302
 20
49.8218688482
 10
256.702541875
 20
49.2351370817
 10
257.2590350333
 20
48.5374654857
 10
257.7304567535
 20
47.7349846102
 10
258.1126634736
 20
46.8347462364
 10
258.4022966166
 20
45.8446619647
 10
258.5968115665
 20
44.7734330605
 10
258.6944987417
 20
43.6304736917
 10
258.6944987417
 20
42.4258273726
 10
258.5968115665
 20
41.1700807921
 10
258.4511191308
 20
40.1492376708
  0
LWPOLYLINE
  5
28B
330
1F
100
AcDbEntity
  8
0
  6
Continuous
 62
     7
370
    25
100
AcDbPolyline
 90
       21
 70
   128
 43
0.0
 10
249.9518098616
 20
25.4264073497
 10
249.9093069051
 20
25.3912578951
 10
248.8801258925
 20
24.6003119839
 10
247.8395073611
 20
23.9149179219
 10
246.7965962717
 20
23.3410987151
 10
245.7605578351
 20
22.8838958953
 10
244.7404964291
 20
22.5473280349
 10
243.7453770671
 20
22.3343537765
 10
242.7839445615
 20
22.246844179
 10
241.8646477093
 20
22.2855678479
 10
240.9955658635
 20
22.4501850489
 10
240.1843358357
 20
22.7392480945
 10
239.4380876873
 20
23.1502182708
 10
238.7633785458
 20
23.6794831441
 10
238.1661386046
 20
24.3223915471
 10
237.6516158049
 20
25.0732931282
 10
237.2243317132
 20
25.925589307
 10
236.888042009
 20
26.8717906925
 10
236.6457015813
 20
27.9035811556
 10
236.4994401632
 20
29.0118936875
 10
236.4505432334
 20
30.1869883491
  0
SPLINE
  5
28C
330
1F
100
AcDbEntity
  8
0
  6
Continuous
 62
     7
370
    25
100
AcDbSpline
210
0.0
220
0.0
230
1.0
 70
     8
 71
     3
 72
    25
 73
    21
 74
     0
 42
0.000000001
 43
0.00000001
 40
0.0
 40
0.0
 40
0.0
 40
0.0
 40
0.1249999999999998
 40
0.1249999999999998
 40
0.2499999999999997
 40
0.2499999999999997
 40
0.3749999999999995
 40
0.3749999999999995
 40
0.4999999999999993
 40
0.4999999999999993
 40
0.5624999999999996
 40
0.5624999999999996
 40
0.6249999999999998
 40
0.6875000000000001
 40
0.6875000000000001
 40
0.7500000000000003
 40
0.7500000000000003
 40
0.8750000000000001
 40
0.8750000000000001
 40
1.0
 40
1.0
 40
1.0
 40
1.0
 10
241.2841323819675
 20
46.61880280352747
 30
0.0
 10
241.3132556802285
 20
46.50761728299828
 30
0.0
 10
241.3256447210877
 20
46.39237507057025
 30
0.0
 10
241.3186672359874
 20
46.15327950273446
 30
0.0
 10
241.2986496481354
 20
46.02850553285919
 30
0.0
 10
241.2284274904222
 20
45.78213662364676
 30
0.0
 10
241.1777768358285
 20
45.65792547628565
 30
0.0
 10
241.0478620921733
 20
45.41429698097548
 30
0.0
 10
240.9701611441841
 20
45.29723988591732
 30
0.0
 10
240.8347875619579
 20
45.12858336806728
 30
0.0
 10
240.7861530646508
 20
45.07321634679512
 30
0.0
 10
240.6847137292688
 20
44.96749653539811
 30
0.0
 10
240.5788437465281
 20
44.86633557677766
 30
0.0
 10
240.4642519542006
 20
44.77416125510086
 30
0.0
 10
240.3451692849824
 20
44.68662441236074
 30
0.0
 10
240.283211271925
 20
44.64512594284856
 30
0.0
 10
240.0953475684044
 20
44.53100562111045
 30
0.0
 10
239.9659701320504
 20
44.46739818999585
 30
0.0
 10
239.6982868789883
 20
44.36612988902162
 30
0.0
 10
239.5624151925233
 20
44.32958898079683
 30
0.0
 10
239.4268979257956
 20
44.30842079644676
 30
0.0
  0
LWPOLYLINE
  5
28D
330
1F
100
AcDbEntity
  8
0
  6
Continuous
 62
     7
370
    25
100
AcDbPolyline
 90
       14
 70
   128
 43
0.0
 10
241.2841324937
 20
46.618802836
 10
242.2861188286
 20
47.6575302136
 10
243.3219816807
 20
48.6016610038
 10
244.3819940186
 20
49.4423296923
 10
245.4562015714
 20
50.1716414933
 10
246.534517166
 20
50.7827465808
 10
247.6068150221
 20
51.2699089728
 10
248.6630255825
 20
51.6285521505
 10
249.6932305495
 20
51.8553085979
 10
250.6877562337
 20
51.9480493563
 10
251.6372631567
 20
51.9059038115
 10
252.5328349553
 20
51.7292661496
 10
253.3660616867
 20
51.4197970601
 10
253.7617817401
 20
51.2132535687
  0
LWPOLYLINE
  5
28E
330
1F
100
AcDbEntity
  8
0
  6
Continuous
 62
     7
370
    25
100
AcDbPolyline
 90
       20
 70
   128
 43
0.0
 10
238.0255604256
 20
23.9543651749
 10
237.9841853912
 20
23.9785038681
 10
237.2691562037
 20
24.4844278348
 10
236.6338168286
 20
25.1113891036
 10
236.0840362144
 20
25.8535923965
 10
235.6248950322
 20
26.7041809033
 10
235.2606356256
 20
27.6552952222
 10
234.994623157
 20
28.6981471282
 10
234.8293159732
 20
29.8231009457
 10
234.7662418973
 20
31.0197625363
 10
234.8059824242
 20
32.2770742041
 10
234.9481714031
 20
33.583419283
 10
235.1914950377
 20
34.9267273422
 10
235.5337043985
 20
36.2945862223
 10
235.971638472
 20
37.6743575167
 10
236.5012498435
 20
39.0532920647
 10
237.1176455273
 20
40.4186487696
 10
237.8151304306
 20
41.7578120865
 10
238.5872593782
 20
43.0584087481
 10
239.426897699
 20
44.308420308
  0
LWPOLYLINE
  5
28F
330
1F
100
AcDbEntity
  8
0
  6
Continuous
 62
     7
370
    25
100
AcDbPolyline
 90
       12
 70
   128
 43
0.0
 10
239.6215111013
 20
46.7430793166
 10
240.5370901405
 20
47.7175612011
 10
241.4858028589
 20
48.6065363808
 10
242.4587058927
 20
49.4016259643
 10
243.4466279806
 20
50.0953347153
 10
244.4402561509
 20
50.6811236221
 10
245.4302238427
 20
51.1534691332
 10
246.4071986572
 20
51.5079198994
 10
247.3619711375
 20
51.7411343365
 10
248.2855409558
 20
51.8509136501
 10
249.1692016598
 20
51.8362233821
 10
249.4220616775
 20
51.8079659497
  0
SPLINE
  5
290
330
1F
100
AcDbEntity
  8
0
  6
Continuous
 62
     7
370
    25
100
AcDbSpline
210
0.0
220
0.0
230
1.0
 70
     8
 71
     3
 72
    26
 73
    22
 74
     0
 42
0.000000001
 43
0.00000001
 40
0.0
 40
0.0
 40
0.0
 40
0.0
 40
0.1250000000000009
 40
0.1250000000000009
 40
0.2500000000000019
 40
0.2500000000000019
 40
0.3125000000000011
 40
0.3125000000000011
 40
0.3750000000000004
 40
0.3750000000000004
 40
0.4375000000000002
 40
0.4375000000000002
 40
0.5000000000000001
 40
0.5000000000000001
 40
0.5625
 40
0.5625
 40
0.6249999999999999
 40
0.6249999999999999
 40
0.7500000000000001
 40
0.7500000000000001
 40
1.0
 40
1.0
 40
1.0
 40
1.0
 10
238.2773178963399
 20
45.07091603040229
 30
0.0
 10
238.2536803001078
 20
45.18049188997528
 30
0.0
 10
238.2361125212261
 20
45.2913811483398
 30
0.0
 10
238.2172999383566
 20
45.51671110820276
 30
0.0
 10
238.2161201635893
 20
45.63238802152113
 30
0.0
 10
238.2322181668246
 20
45.80374353138068
 30
0.0
 10
238.2405368839249
 20
45.86054204347484
 30
0.0
 10
238.2642940331818
 20
45.97336825587193
 30
0.0
 10
238.2799164122308
 20
46.02982110953808
 30
0.0
 10
238.3187736246279
 20
46.13840422594669
 30
0.0
 10
238.3419995813303
 20
46.19078418617223
 30
0.0
 10
238.3969982308087
 20
46.29124096144434
 30
0.0
 10
238.4290764978313
 20
46.33951982921578
 30
0.0
 10
238.4994912463664
 20
46.42721680479953
 30
0.0
 10
238.5380696684931
 20
46.46720593277548
 30
0.0
 10
238.6217779320893
 20
46.53968461689108
 30
0.0
 10
238.6669066420312
 20
46.57202124126769
 30
0.0
 10
238.8061872842213
 20
46.65522100862134
 30
0.0
 10
238.9069763557829
 20
46.69404973125743
 30
0.0
 10
239.2100486270156
 20
46.76946601871261
 30
0.0
 10
239.4185727175006
 20
46.76933587234185
 30
0.0
 10
239.621511137191
 20
46.74307964301563
 30
0.0
  0
LWPOLYLINE
  5
291
330
1F
100
AcDbEntity
  8
0
  6
Continuous
 62
     7
370
    25
100
AcDbPolyline
 90
       17
 70
   128
 43
0.0
 10
235.3403392674
 20
27.4150647403
 10
235.2799151746
 20
27.4947965792
 10
234.7937572039
 20
28.2647230408
 10
234.4016479501
 20
29.1401168805
 10
234.1075702902
 20
30.1120862024
 10
233.9145120408
 20
31.1707568759
 10
233.8244336888
 20
32.3053743459
 10
233.8382506111
 20
33.5044128559
 10
233.9558225378
 20
34.75569218
 10
234.175954869
 20
36.0465010079
 10
234.4964118462
 20
37.3637270778
 10
234.9139376254
 20
38.6939895902
 10
235.4242911798
 20
40.0237745669
 10
236.0222877886
 20
41.3395740119
 10
236.7018530373
 20
42.6280210784
 10
237.4560840623
 20
43.8760280873
 10
238.2773180397
 20
45.0709157994
  0
LINE
  5
292
330
1F
100
AcDbEntity
  8
0
  6
Continuous
 62
     7
370
    25
100
AcDbLine
 10
236.8019256254
 20
24.8269948553
 30
0.0
 11
236.9235609363
 21
24.8844794618
 31
0.0
  0
LWPOLYLINE
  5
293
330
1F
100
AcDbEntity
  8
0
  6
Continuous
 62
     7
370
    25
100
AcDbPolyline
 90
       38
 70
   128
 43
0.0
 10
236.8019256254
 20
24.8269948553
 10
235.998247786
 20
25.1400847778
 10
235.2614471171
 20
25.5756542817
 10
234.5980609898
 20
26.1298392219
 10
234.0139748167
 20
26.7977222733
 10
233.5143720013
 20
27.5733785634
 10
233.1036838898
 20
28.4499258675
 10
232.785555526
 20
29.4195877302
 10
232.5628081145
 20
30.4737600097
 10
232.4374179475
 20
31.6030900627
 10
232.4104992822
 20
32.7975590188
 10
232.4822885361
 20
34.0465678567
 10
232.6521508723
 20
35.3390361688
 10
232.9185782239
 20
36.6634964588
 10
233.2792070746
 20
38.0081971352
 10
233.7308368982
 20
39.3612079763
 10
234.2694617683
 20
40.7105246908
 10
234.8903026276
 20
42.0441757598
 10
235.5878514097
 20
43.3503292777
 10
236.3559184548
 20
44.6173952302
 10
237.1876891444
 20
45.8341330943
 10
238.0757851457
 20
46.9897465102
 10
239.0123256566
 20
48.0739832765
 10
239.9890021504
 20
49.077224127
 10
240.9971490045
 20
49.9905668507
 10
242.0278215382
 20
50.8059086041
 10
243.0718754493
 20
51.516015344
 10
244.1200475685
 20
52.1145874569
 10
245.1630381771
 20
52.5963126039
 10
246.1915934902
 20
52.9569186598
 10
247.1965880564
 20
53.1932045519
 10
248.1691048538
 20
53.303075091
 10
249.1005156323
 20
53.2855554128
 10
249.9825569754
 20
53.1407999063
 10
250.8074024109
 20
52.870094298
 10
251.5677348508
 20
52.4758389152
 10
252.2568068479
 20
51.9615332806
 10
252.4941858013
 20
51.7399843641
  0
LWPOLYLINE
  5
294
330
1F
100
AcDbEntity
  8
0
  6
Continuous
 62
     7
370
    25
100
AcDbPolyline
 90
       16
 70
   128
 43
0.0
 10
230.5854787921
 20
37.5975251203
 10
230.5947919286
 20
37.6403272804
 10
230.9310816328
 20
38.9748004939
 10
231.3583657245
 20
40.3204283841
 10
231.8728885242
 20
41.665385345
 10
232.4701284654
 20
42.9978523063
 10
233.1448376069
 20
44.3061197728
 10
233.8910857554
 20
45.5786897217
 10
234.7023157831
 20
46.8043790208
 10
235.5713976289
 20
47.9724167624
 10
236.4906944812
 20
49.0725379845
 10
237.4521269867
 20
50.0950747299
 10
238.4472463487
 20
51.031040831
 10
239.4673077547
 20
51.872210801
 10
240.5033461913
 20
52.6111924987
 10
241.2272028696
 20
53.0606617765
  0
LWPOLYLINE
  5
295
330
1F
100
AcDbEntity
  8
0
  6
Continuous
 62
     7
370
    25
100
AcDbPolyline
 90
       24
 70
   128
 43
0.0
 10
230.1572930347
 20
33.9016450304
 10
230.20587979
 20
35.1253696562
 10
230.3512113433
 20
36.3944361691
 10
230.5920120939
 20
37.6976927857
 10
230.9261648212
 20
39.0236862779
 10
231.3507337339
 20
40.3607637781
 10
231.8619868601
 20
41.6971749639
 10
232.4554322678
 20
43.0211752875
 10
233.125853626
 20
44.3211286353
 10
233.867360254
 20
45.5856122667
 10
234.6734351954
 20
46.803514149
 10
235.5369951454
 20
47.9641299107
 10
236.4504503787
 20
49.0572605555
 10
237.4057738961
 20
50.0732995285
 10
238.394570243
 20
51.0033188328
 10
239.4081495954
 20
51.8391437372
 10
240.4376048095
 20
52.5734299566
 10
241.4738889656
 20
53.1997251467
 10
242.5078952161
 20
53.7125241258
 10
243.5305364702
 20
54.1073209581
 10
244.5328260649
 20
54.3806463997
 10
245.5059553087
 20
54.5300974539
 10
246.4413730012
 20
54.5543627443
 10
247.2066237808
 20
54.4753775141
  0
LWPOLYLINE
  5
296
330
1F
100
AcDbEntity
  8
0
  6
Continuous
 62
     7
370
    25
100
AcDbPolyline
 90
        3
 70
   128
 43
0.0
 10
230.3096848437
 20
31.8770408699
 10
230.20587979
 20
32.7340174781
 10
230.1764599726
 20
33.1612206767
  0
SPLINE
  5
297
330
1F
100
AcDbEntity
  8
0
  6
Continuous
 62
     7
370
    25
100
AcDbSpline
210
0.0
220
0.0
230
1.0
 70
     8
 71
     3
 72
    10
 73
     6
 74
     0
 42
0.000000001
 43
0.00000001
 40
0.0
 40
0.0
 40
0.0
 40
0.0
 40
0.5
 40
0.5
 40
1.0
 40
1.0
 40
1.0
 40
1.0
 10
239.0040059639712
 20
43.60786274958256
 30
0.0
 10
238.9000414731869
 20
43.68120112265294
 30
0.0
 10
238.8102331967595
 20
43.76843688044635
 30
0.0
 10
238.6581907687609
 20
43.96936742164234
 30
0.0
 10
238.5962851803999
 20
44.08353818783932
 30
0.0
 10
238.5518354758095
 20
44.20655587099942
 30
0.0
  0
SPLINE
  5
298
330
1F
100
AcDbEntity
  8
0
  6
Continuous
 62
     7
370
    25
100
AcDbSpline
210
0.0
220
0.0
230
1.0
 70
     8
 71
     3
 72
    14
 73
    10
 74
     0
 42
0.000000001
 43
0.00000001
 40
0.0
 40
0.0
 40
0.0
 40
0.0
 40
0.25
 40
0.25
 40
0.5
 40
0.5
 40
0.75
 40
0.75
 40
1.0
 40
1.0
 40
1.0
 40
1.0
 10
238.5518354758095
 20
44.20655587099942
 30
0.0
 10
238.5291146729443
 20
44.26943729065696
 30
0.0
 10
238.5072001625949
 20
44.33848372013037
 30
0.0
 10
238.4650891085321
 20
44.48613623674915
 30
0.0
 10
238.445567554619
 20
44.56253602360745
 30
0.0
 10
238.4072213124453
 20
44.71686831500306
 30
0.0
 10
238.3888617195615
 20
44.7938209113347
 30
0.0
 10
238.3468582749798
 20
44.93921107885068
 30
0.0
 10
238.3230819539668
 20
45.00580198504371
 30
0.0
 10
238.2946204498646
 20
45.04629760027506
 30
0.0
  0
LINE
  5
299
330
1F
100
AcDbEntity
  8
0
  6
Continuous
 62
     7
370
    25
100
AcDbLine
 10
238.2946206381
 20
45.046297992
 30
0.0
 11
238.2773180397
 21
45.0709157994
 31
0.0
  0
LINE
  5
29A
330
1F
100
AcDbEntity
  8
0
  6
Continuous
 62
     7
370
    25
100
AcDbLine
 10
239.6215111013
 20
46.7430793166
 30
0.0
 11
239.6388136997
 21
46.7184615093
 31
0.0
  0
SPLINE
  5
29B
330
1F
100
AcDbEntity
  8
0
  6
Continuous
 62
     7
370
    25
100
AcDbSpline
210
0.0
220
0.0
230
1.0
 70
     8
 71
     3
 72
    16
 73
    12
 74
     0
 42
0.000000001
 43
0.00000001
 40
0.0
 40
0.0
 40
0.0
 40
0.0
 40
0.1250000000000001
 40
0.1250000000000001
 40
0.2500000000000003
 40
0.2500000000000003
 40
0.5000000000000002
 40
0.5000000000000002
 40
0.7500000000000001
 40
0.7500000000000001
 40
1.0
 40
1.0
 40
1.0
 40
1.0
 10
239.6388136907158
 20
46.71846121288834
 30
0.0
 10
239.6529660971199
 20
46.69832487707554
 30
0.0
 10
239.6746245015936
 20
46.68152745639812
 30
0.0
 10
239.7270424306289
 20
46.65468193506664
 30
0.0
 10
239.7576353097672
 20
46.64445645050566
 30
0.0
 10
239.8567161586247
 20
46.61995601007296
 30
0.0
 10
239.9305986962407
 20
46.61169608767147
 30
0.0
 10
240.083698288632
 20
46.60051012096655
 30
0.0
 10
240.1617822632796
 20
46.59791344921536
 30
0.0
 10
240.3211258970217
 20
46.59588444838165
 30
0.0
 10
240.3997787918533
 20
46.59652203704388
 30
0.0
 10
240.4755312596459
 20
46.59961513785892
 30
0.0
  0
SPLINE
  5
29C
330
1F
100
AcDbEntity
  8
0
  6
Continuous
 62
     7
370
    25
100
AcDbSpline
210
0.0
220
0.0
230
1.0
 70
     8
 71
     3
 72
    10
 73
     6
 74
     0
 42
0.000000001
 43
0.00000001
 40
0.0
 40
0.0
 40
0.0
 40
0.0
 40
0.5
 40
0.5
 40
1.0
 40
1.0
 40
1.0
 40
1.0
 10
240.4755312596459
 20
46.59961513785892
 30
0.0
 10
240.6237255995466
 20
46.60566616229269
 30
0.0
 10
240.7659500652772
 20
46.59550393207955
 30
0.0
 10
241.038341455618
 20
46.54445349613947
 30
0.0
 10
241.1684687854865
 20
46.50309239349492
 30
0.0
 10
241.2865441276719
 20
46.44731852554264
 30
0.0
  0
ARC
  5
29D
330
1F
100
AcDbEntity
  8
0
  6
Continuous
 62
     7
370
    25
100
AcDbCircle
 10
223.956584078
 20
41.7112488312
 30
0.0
 40
4.143252031906825
100
AcDbArc
 50
211.7444095219
 51
236.2139194594
  0
SPLINE
  5
29E
330
1F
100
AcDbEntity
  8
0
  6
Continuous
 62
     7
370
    25
100
AcDbSpline
210
0.0
220
0.0
230
1.0
 70
     8
 71
     3
 72
     8
 73
     4
 74
     0
 42
0.000000001
 43
0.00000001
 40
0.0
 40
0.0
 40
0.0
 40
0.0
 40
1.0
 40
1.0
 40
1.0
 40
1.0
 10
221.8635904585351
 20
38.60661410630397
 30
0.0
 10
221.3868171667109
 20
38.91470691423661
 30
0.0
 10
220.910014789866
 20
39.22293635980936
 30
0.0
 10
220.4331823453404
 20
39.53130151602927
 30
0.0
  0
SPLINE
  5
29F
330
1F
100
AcDbEntity
  8
0
  6
Continuous
 62
     7
370
    25
100
AcDbSpline
210
0.0
220
0.0
230
1.0
 70
     8
 71
     3
 72
    23
 73
    19
 74
     0
 42
0.000000001
 43
0.00000001
 40
0.0
 40
0.0
 40
0.0
 40
0.0
 40
0.0521036415680443
 40
0.103564624093566
 40
0.1544751946749824
 40
0.2049306267488185
 40
0.2550287880859467
 40
0.3048696389155856
 40
0.3545546704622095
 40
0.4041862979533031
 40
0.4538672252131345
 40
0.503699799942109
 40
0.5901870230745642
 40
0.6742716378229198
 40
0.7565997087222741
 40
0.8378563983721098
 40
0.9187511781367312
 40
1.0
 40
1.0
 40
1.0
 40
1.0
 10
222.7441552620767
 20
38.43188340818387
 30
0.0
 10
222.7388863231364
 20
38.42196194594907
 30
0.0
 10
222.7284134336357
 20
38.4022413952182
 30
0.0
 10
222.7091671378726
 20
38.37767356626603
 30
0.0
 10
222.6873713975396
 20
38.35698498400684
 30
0.0
 10
222.6627201063345
 20
38.34045404870991
 30
0.0
 10
222.6352235917956
 20
38.32793654913375
 30
0.0
 10
222.6048125377883
 20
38.31940192531138
 30
0.0
 10
222.5714421660159
 20
38.31479205266326
 30
0.0
 10
222.5350662777443
 20
38.31405730952673
 30
0.0
 10
222.4956379061556
 20
38.31715239207796
 30
0.0
 10
222.442789514606
 20
38.32568816755701
 30
0.0
 10
222.374250520836
 20
38.34328460640405
 30
0.0
 10
222.2865292888816
 20
38.37492121448991
 30
0.0
 10
222.1917983693877
 20
38.41710087182263
 30
0.0
 10
222.0897641220577
 20
38.46983730754962
 30
0.0
 10
221.9808502088687
 20
38.53215386346044
 30
0.0
 10
221.9027338978827
 20
38.58175792171156
 30
0.0
 10
221.8635904585351
 20
38.60661410630397
 30
0.0
  0
SPLINE
  5
2A0
330
1F
100
AcDbEntity
  8
0
  6
Continuous
 62
     7
370
    25
100
AcDbSpline
210
0.0
220
0.0
230
1.0
 70
     8
 71
     3
 72
     8
 73
     4
 74
     0
 42
0.000000001
 43
0.00000001
 40
0.0
 40
0.0
 40
0.0
 40
0.0
 40
1.0
 40
1.0
 40
1.0
 40
1.0
 10
224.217658288534
 20
37.48456327162544
 30
0.0
 10
223.7262909764915
 20
37.80043789159367
 30
0.0
 10
223.234904776564
 20
38.11642391288389
 30
0.0
 10
222.7434990664189
 20
38.43252079372732
 30
0.0
  0
SPLINE
  5
2A1
330
1F
100
AcDbEntity
  8
0
  6
Continuous
 62
     7
370
    25
100
AcDbSpline
210
0.0
220
0.0
230
1.0
 70
     8
 71
     3
 72
    18
 73
    14
 74
     0
 42
0.000000001
 43
0.00000001
 40
0.0
 40
0.0
 40
0.0
 40
0.0
 40
0.0923824559454013
 40
0.1844689291647927
 40
0.2764953616046289
 40
0.368697536560166
 40
0.4613092840112267
 40
0.5545607518542827
 40
0.648676805161927
 40
0.7438756050201499
 40
0.8403674044321215
 40
0.9203921078133473
 40
1.0
 40
1.0
 40
1.0
 40
1.0
 10
225.0312224077302
 20
36.84025554708334
 30
0.0
 10
225.007654893606
 20
36.85552952134955
 30
0.0
 10
224.9605953729528
 20
36.88602853383133
 30
0.0
 10
224.8881975849877
 20
36.93566110644372
 30
0.0
 10
224.8147153760906
 20
36.98799064911324
 30
0.0
 10
224.7400159283448
 20
37.04330833482158
 30
0.0
 10
224.6641551385767
 20
37.10154664993516
 30
0.0
 10
224.5871438577907
 20
37.16273956157222
 30
0.0
 10
224.5090117257113
 20
37.22690327815279
 30
0.0
 10
224.4297854910697
 20
37.29405223801839
 30
0.0
 10
224.3544890066619
 20
37.35990314776353
 30
0.0
 10
224.2836616985416
 20
37.42343473457103
 30
0.0
 10
224.2397573277351
 20
37.46409547958416
 30
0.0
 10
224.2178624609301
 20
37.48437276815245
 30
0.0
  0
LINE
  5
2A2
330
1F
100
AcDbEntity
  8
0
  6
Continuous
 62
     7
370
    25
100
AcDbLine
 10
225.6709289396
 20
36.4285017406
 30
0.0
 11
225.0312220973
 21
36.8402554082
 31
0.0
  0
SPLINE
  5
2A3
330
1F
100
AcDbEntity
  8
0
  6
Continuous
 62
     7
370
    25
100
AcDbSpline
210
0.0
220
0.0
230
1.0
 70
     8
 71
     3
 72
    25
 73
    21
 74
     0
 42
0.000000001
 43
0.00000001
 40
0.0
 40
0.0
 40
0.0
 40
0.0
 40
0.0280105225429284
 40
0.0559601148865716
 40
0.0839014045049481
 40
0.1118870776793418
 40
0.139969582759596
 40
0.1682008401746174
 40
0.1966319670429139
 40
0.2253130233144346
 40
0.2542927850736023
 40
0.3799486436577953
 40
0.5057850221666315
 40
0.6313085886301525
 40
0.7532068238011418
 40
0.8039473267944002
 40
0.8535894438536894
 40
0.9025339722376491
 40
0.9511970353779324
 40
1.0
 40
1.0
 40
1.0
 40
1.0
 10
226.7732945327204
 20
37.14440773096041
 30
0.0
 10
226.7782426402511
 20
37.11678386985264
 30
0.0
 10
226.7881280918867
 20
37.06159623674682
 30
0.0
 10
226.79966374149
 20
36.98243552937629
 30
0.0
 10
226.8087368633029
 20
36.90613219027749
 30
0.0
 10
226.8151056720159
 20
36.83293642930768
 30
0.0
 10
226.818821910826
 20
36.76278896109431
 30
0.0
 10
226.8198585318088
 20
36.69571267458174
 30
0.0
 10
226.8182100565818
 20
36.63170876535572
 30
0.0
 10
226.8138639047128
 20
36.57077991208948
 30
0.0
 10
226.7990075801447
 20
36.44889179059384
 30
0.0
 10
226.7539193230781
 20
36.29399091894047
 30
0.0
 10
226.6405598025893
 20
36.16304780059669
 30
0.0
 10
226.4787355805947
 20
36.10717139978618
 30
0.0
 10
226.3047203614635
 20
36.12704545216886
 30
0.0
 10
226.1533594407781
 20
36.17436325452196
 30
0.0
 10
226.0429592080812
 20
36.2192786782565
 30
0.0
 10
225.9257997126324
 20
36.27665440954772
 30
0.0
 10
225.8022340456968
 20
36.3453314740017
 30
0.0
 10
225.7147389956002
 20
36.40075171995596
 30
0.0
 10
225.6709286759174
 20
36.42850161768697
 30
0.0
  0
ARC
  5
2A4
330
1F
100
AcDbEntity
  8
0
  6
Continuous
 62
     7
370
    25
100
AcDbCircle
 10
237.9663156971
 20
38.9304580995
 30
0.0
 40
11.33462419218396
100
AcDbArc
 50
170.9338462887
 51
189.0661537113
  0
SPLINE
  5
2A5
330
1F
100
AcDbEntity
  8
0
  6
Continuous
 62
     7
370
    25
100
AcDbSpline
210
0.0
220
0.0
230
1.0
 70
     8
 71
     3
 72
    26
 73
    22
 74
     0
 42
0.000000001
 43
0.00000001
 40
0.0
 40
0.0
 40
0.0
 40
0.0
 40
0.0241259796961556
 40
0.0482159912269293
 40
0.0723203915119221
 40
0.0964895678705268
 40
0.1207736231957763
 40
0.1452220711237314
 40
0.1698835501652852
 40
0.1948055644468628
 40
0.220034256951538
 40
0.2456142191611052
 40
0.3690971486895253
 40
0.4940698769485128
 40
0.6192566784762408
 40
0.7454656653603202
 40
0.7971495824713681
 40
0.848171030840538
 40
0.8988013269235222
 40
0.9493179290492182
 40
1.0
 40
1.0
 40
1.0
 40
1.0
 10
225.6709286759174
 20
44.19261200905149
 30
0.0
 10
225.6926469052933
 20
44.17828048565653
 30
0.0
 10
225.7360509854691
 20
44.1496388049877
 30
0.0
 10
225.79935810283
 20
44.10164650705917
 30
0.0
 10
225.8612196705477
 20
44.05004730917369
 30
0.0
 10
225.921524185684
 20
43.99447251630055
 30
0.0
 10
225.9803140376237
 20
43.93501727567347
 30
0.0
 10
226.0375945560536
 20
43.87165296683601
 30
0.0
 10
226.09338569538
 20
43.80438418887196
 30
0.0
 10
226.1477069428021
 20
43.73321007491163
 30
0.0
 10
226.2005859180115
 20
43.65812093516307
 30
0.0
 10
226.3173807427481
 20
43.47886648646207
 30
0.0
 10
226.4792503006749
 20
43.16856101461857
 30
0.0
 10
226.6424352082064
 20
42.69864722648662
 30
0.0
 10
226.7539466133802
 20
42.19968419257582
 30
0.0
 10
226.8010804514886
 20
41.7908005195188
 30
0.0
 10
226.8161993910211
 20
41.4865285629281
 30
0.0
 10
226.8181525300037
 20
41.28527932123279
 30
0.0
 10
226.8116745043646
 20
41.0896194015102
 30
0.0
 10
226.7975475816775
 20
40.89898311361273
 30
0.0
 10
226.7813876899925
 20
40.77739983987393
 30
0.0
 10
226.7732945327204
 20
40.71650880327504
 30
0.0
  0
LINE
  5
2A6
330
1F
100
AcDbEntity
  8
0
  6
Continuous
 62
     7
370
    25
100
AcDbLine
 10
225.0312220973
 20
44.6055868593
 30
0.0
 11
225.6709289396
 21
44.1926118883
 31
0.0
  0
SPLINE
  5
2A7
330
1F
100
AcDbEntity
  8
0
  6
Continuous
 62
     7
370
    25
100
AcDbSpline
210
0.0
220
0.0
230
1.0
 70
     8
 71
     3
 72
    14
 73
    10
 74
     0
 42
0.000000001
 43
0.00000001
 40
0.0
 40
0.0
 40
0.0
 40
0.0
 40
0.0789261963157259
 40
0.1582328720528836
 40
0.330847539454808
 40
0.5000195457586954
 40
0.6670357883553091
 40
0.833239519364563
 40
1.0
 40
1.0
 40
1.0
 40
1.0
 10
224.2172696918787
 20
44.81416929233641
 30
0.0
 10
224.2389865732141
 20
44.81577245619481
 30
0.0
 10
224.2825250264292
 20
44.81898651228175
 30
0.0
 10
224.3740501450775
 20
44.81980755234986
 30
0.0
 10
224.4909584785104
 20
44.81187157056713
 30
0.0
 10
224.6317788168922
 20
44.78559590168953
 30
0.0
 10
224.7689911247047
 20
44.74263830315726
 30
0.0
 10
224.9029217991219
 20
44.68428117834733
 30
0.0
 10
224.9884078910816
 20
44.63184763219702
 30
0.0
 10
225.0312224077302
 20
44.60558702204238
 30
0.0
  0
SPLINE
  5
2A8
330
1F
100
AcDbEntity
  8
0
  6
Continuous
 62
     7
370
    25
100
AcDbSpline
210
0.0
220
0.0
230
1.0
 70
     8
 71
     3
 72
     8
 73
     4
 74
     0
 42
0.000000001
 43
0.00000001
 40
0.0
 40
0.0
 40
0.0
 40
0.0
 40
1.0
 40
1.0
 40
1.0
 40
1.0
 10
222.4149661088745
 20
45.97656070374881
 30
0.0
 10
223.0157243325704
 20
45.58929322059
 30
0.0
 10
223.6164531954307
 20
45.20182587066679
 30
0.0
 10
224.2171538397774
 20
44.81415897807725
 30
0.0
  0
SPLINE
  5
2A9
330
1F
100
AcDbEntity
  8
0
  6
Continuous
 62
     7
370
    25
100
AcDbSpline
210
0.0
220
0.0
230
1.0
 70
     8
 71
     3
 72
    13
 73
     9
 74
     0
 42
0.000000001
 43
0.00000001
 40
0.0
 40
0.0
 40
0.0
 40
0.0
 40
0.1667030582308063
 40
0.3329480818053115
 40
0.4990671507274935
 40
0.6653938523718516
 40
0.8322612710550141
 40
1.0
 40
1.0
 40
1.0
 40
1.0
 10
222.0731375738401
 20
46.27762548283459
 30
0.0
 10
222.0934387562801
 20
46.26406037615536
 30
0.0
 10
222.1339853414687
 20
46.23696743439253
 30
0.0
 10
222.1931349784563
 20
46.19177286138481
 30
0.0
 10
222.2509065233588
 20
46.14336171290185
 30
0.0
 10
222.3071562608185
 20
46.09132659813139
 30
0.0
 10
222.3620834695646
 20
46.03602863092237
 30
0.0
 10
222.3973041791551
 20
45.99641137576201
 30
0.0
 10
222.4149603910961
 20
45.97655116676108
 30
0.0
  0
SPLINE
  5
2AA
330
1F
100
AcDbEntity
  8
0
  6
Continuous
 62
     7
370
    25
100
AcDbSpline
210
0.0
220
0.0
230
1.0
 70
     8
 71
     3
 72
     8
 73
     4
 74
     0
 42
0.000000001
 43
0.00000001
 40
0.0
 40
0.0
 40
0.0
 40
0.0
 40
1.0
 40
1.0
 40
1.0
 40
1.0
 10
220.1291570580494
 20
47.53234733521407
 30
0.0
 10
220.7771871304496
 20
47.11435201932932
 30
0.0
 10
221.4251801075515
 20
46.69611125691168
 30
0.0
 10
222.0731375738401
 20
46.27762548283459
 30
0.0
  0
LWPOLYLINE
  5
2AB
330
1F
100
AcDbEntity
  8
0
  6
Continuous
 62
     7
370
    25
100
AcDbPolyline
 90
       19
 70
   128
 43
0.0
 10
220.1291577084
 20
47.5323473857
 10
220.53204997
 20
48.6993113711
 10
221.0220051083
 20
49.8593157959
 10
221.5930053436
 20
50.9981131919
 10
222.2380365182
 20
52.1017158827
 10
222.9491770004
 20
53.1565705013
 10
223.7176921851
 20
54.1497201498
 10
224.5341431537
 20
55.0689667486
 10
225.3885020845
 20
55.9030209313
 10
226.2702754
 20
56.6416370152
 10
227.1686330476
 20
57.2757446688
 10
228.0725411965
 20
57.7975544127
 10
228.9708978563
 20
58.200657965
 10
229.8526692785
 20
58.4801047017
 10
230.7070252458
 20
58.6324615077
 10
231.5234725925
 20
58.6558579159
 10
232.2919831673
 20
58.5500059863
 10
233.0031183812
 20
58.3162060457
 10
233.1788954349
 20
58.2340943509
  0
SPLINE
  5
2AC
330
1F
100
AcDbEntity
  8
0
  6
Continuous
 62
     7
370
    25
100
AcDbSpline
210
0.0
220
0.0
230
1.0
 70
    11
 71
     3
 72
    39
 73
    35
 74
     0
 42
0.000000001
 43
0.00000001
 40
0.0
 40
0.0
 40
0.0
 40
0.0
 40
0.0310664058348413
 40
0.0621048158426138
 40
0.0931361551796939
 40
0.1235538293503726
 40
0.1538561545809849
 40
0.1850588072749156
 40
0.2160250992946587
 40
0.2471867223797568
 40
0.2784462884304475
 40
0.3100516090231247
 40
0.3419834369138969
 40
0.3734259894013238
 40
0.4048604886787081
 40
0.436874065183343
 40
0.4685120685926471
 40
0.499805535863323
 40
0.5309508213226204
 40
0.5618649784438111
 40
0.5930416446590877
 40
0.623374245013332
 40
0.6540913579072549
 40
0.6849496782718453
 40
0.7158160645166705
 40
0.7471731804043553
 40
0.7784514311866318
 40
0.810129591156098
 40
0.8419598919688388
 40
0.8735175891922303
 40
0.9050808037886594
 40
0.9370235169792582
 40
0.9687441590030581
 40
1.0
 40
1.0
 40
1.0
 40
1.0
 10
233.3377425392547
 20
56.53753771055548
 30
0.0
 10
233.6006281594529
 20
56.50900322326538
 30
0.0
 10
234.1275167699364
 20
56.42306073494377
 30
0.0
 10
234.8915288390124
 20
56.22268561487133
 30
0.0
 10
235.5986790270633
 20
55.97568350865181
 30
0.0
 10
236.2115900916587
 20
55.69770163049871
 30
0.0
 10
236.7087214173291
 20
55.40356793316998
 30
0.0
 10
237.0679131384026
 20
55.10206140497775
 30
0.0
 10
237.2896324071615
 20
54.79506390007534
 30
0.0
 10
237.3548842845436
 20
54.48455863867365
 30
0.0
 10
237.2680370734296
 20
54.16541415392483
 30
0.0
 10
237.0256914856714
 20
53.83609418835263
 30
0.0
 10
236.6457536229449
 20
53.49715346679498
 30
0.0
 10
236.1319476697851
 20
53.15931500238434
 30
0.0
 10
235.5060568588751
 20
52.8334171010735
 30
0.0
 10
234.7925858723832
 20
52.53677020783401
 30
0.0
 10
234.0286833961189
 20
52.28066689939705
 30
0.0
 10
233.2428903132173
 20
52.09163933140627
 30
0.0
 10
232.4613528581773
 20
51.98346340935302
 30
0.0
 10
231.7052398734249
 20
51.97579952598331
 30
0.0
 10
231.0028752870314
 20
52.07372156136945
 30
0.0
 10
230.3838549399887
 20
52.29536999487195
 30
0.0
 10
229.8747976749749
 20
52.63123808178369
 30
0.0
 10
229.5018540815411
 20
53.07104864796445
 30
0.0
 10
229.2732521302927
 20
53.5821232884871
 30
0.0
 10
229.2044058235734
 20
54.13330837625053
 30
0.0
 10
229.2890222367985
 20
54.69098030456229
 30
0.0
 10
229.5321310267333
 20
55.22106044548128
 30
0.0
 10
229.9142608695511
 20
55.693584794594
 30
0.0
 10
230.4303964439614
 20
56.07970630548724
 30
0.0
 10
231.0573743044633
 20
56.36333049282037
 30
0.0
 10
231.7732817368271
 20
56.53306771154679
 30
0.0
 10
232.5417251290127
 20
56.59460654625811
 30
0.0
 10
233.0732539083852
 20
56.56624619400253
 30
0.0
 10
233.3377425392547
 20
56.53753771055548
 30
0.0
  0
LINE
  5
2AD
330
1F
100
AcDbEntity
  8
0
  6
Continuous
 62
     7
370
    25
100
AcDbLine
 10
224.1132051262
 20
40.0984110932
 30
0.0
 11
224.4239568037
 21
39.9320303927
 31
0.0
  0
LINE
  5
2AE
330
1F
100
AcDbEntity
  8
0
  6
Continuous
 62
     7
370
    25
100
AcDbLine
 10
223.1262471063
 20
40.6681698304
 30
0.0
 11
224.1132051262
 21
40.0984110932
 31
0.0
  0
ARC
  5
2AF
330
1F
100
AcDbEntity
  8
0
  6
Continuous
 62
     7
370
    25
100
AcDbCircle
 10
225.3472170171
 20
44.2616505945
 30
0.0
 40
4.484274790565615
100
AcDbArc
 50
267.6840627222
 51
286.9866336569
  0
SPLINE
  5
2B0
330
1F
100
AcDbEntity
  8
0
  6
Continuous
 62
     7
370
    25
100
AcDbSpline
210
0.0
220
0.0
230
1.0
 70
     8
 71
     3
 72
    12
 73
     8
 74
     0
 42
0.000000001
 43
0.00000001
 40
0.0
 40
0.0
 40
0.0
 40
0.0
 40
0.1523598330305601
 40
0.3826801306822303
 40
0.6138741683107227
 40
0.8254372814239916
 40
1.0
 40
1.0
 40
1.0
 40
1.0
 10
234.6762484975541
 20
53.53504199521976
 30
0.0
 10
234.4712811591723
 20
53.64718839495252
 30
0.0
 10
233.9564674692557
 20
53.92886498944355
 30
0.0
 10
232.9433921419664
 20
54.34503096191064
 30
0.0
 10
231.7360133610073
 20
54.62827258985816
 30
0.0
 10
230.6336828756564
 20
54.65921943259894
 30
0.0
 10
230.0687438431254
 20
54.45149205527726
 30
0.0
 10
229.8133418853832
 20
54.35758107411007
 30
0.0
  0
SPLINE
  5
2B1
330
1F
100
AcDbEntity
  8
0
  6
Continuous
 62
     7
370
    25
100
AcDbSpline
210
0.0
220
0.0
230
1.0
 70
     8
 71
     3
 72
    10
 73
     6
 74
     0
 42
0.000000001
 43
0.00000001
 40
0.0
 40
0.0
 40
0.0
 40
0.0
 40
0.3798174073072795
 40
0.9603711649033085
 40
1.0
 40
1.0
 40
1.0
 40
1.0
 10
235.8161286194136
 20
53.00681506770128
 30
0.0
 10
235.6864760021652
 20
53.07714362953865
 30
0.0
 10
235.3586483864107
 20
53.25496992595976
 30
0.0
 10
234.9507198414005
 20
53.42802277636217
 30
0.0
 10
234.6940870599687
 20
53.52722820861048
 30
0.0
 10
234.6776885697569
 20
53.53356730255086
 30
0.0
  0
SPLINE
  5
2B2
330
1F
100
AcDbEntity
  8
0
  6
Continuous
 62
     7
370
    25
100
AcDbSpline
210
0.0
220
0.0
230
1.0
 70
     8
 71
     3
 72
    24
 73
    20
 74
     0
 42
0.000000001
 43
0.00000001
 40
0.0
 40
0.0
 40
0.0
 40
0.0
 40
0.0618858212107145
 40
0.1150115607194259
 40
0.1593831488268445
 40
0.2428114970815824
 40
0.318331853291959
 40
0.3935543804326023
 40
0.4204843226990471
 40
0.4483397435477174
 40
0.4771286702554668
 40
0.5451537905345539
 40
0.6363475754294583
 40
0.6968782859867285
 40
0.7498596693403015
 40
0.7959701295389731
 40
0.8771179302751783
 40
0.9543004207779655
 40
1.0
 40
1.0
 40
1.0
 40
1.0
 10
233.2828639722524
 20
55.96367981059872
 30
0.0
 10
233.0989071829162
 20
55.98257437556467
 30
0.0
 10
232.757033114954
 20
56.01768893594917
 30
0.0
 10
232.2928151419772
 20
56.0111983875619
 30
0.0
 10
231.7833535297042
 20
55.9634741947646
 30
0.0
 10
231.2442584303297
 20
55.83885759659768
 30
0.0
 10
230.7014204456061
 20
55.59636731265469
 30
0.0
 10
230.3610274301109
 20
55.33899456202879
 30
0.0
 10
230.15440072156
 20
55.12418746152996
 30
0.0
 10
230.0364166653489
 20
54.97768411023098
 30
0.0
 10
229.8842462611579
 20
54.74793328601053
 30
0.0
 10
229.7175656225782
 20
54.37499059058351
 30
0.0
 10
229.649204041741
 20
53.91243153789063
 30
0.0
 10
229.6995595053604
 20
53.4840988396888
 30
0.0
 10
229.8049886488756
 20
53.16417194604442
 30
0.0
 10
229.9871879755617
 20
52.82370643085122
 30
0.0
 10
230.2880664006321
 20
52.48775817399614
 30
0.0
 10
230.6777512952306
 20
52.21469887328112
 30
0.0
 10
230.970670251425
 20
52.12074380235382
 30
0.0
 10
231.0796061854813
 20
52.08580211218887
 30
0.0
  0
SPLINE
  5
2B3
330
1F
100
AcDbEntity
  8
0
  6
Continuous
 62
     7
370
    25
100
AcDbSpline
210
0.0
220
0.0
230
1.0
 70
     8
 71
     3
 72
    22
 73
    18
 74
     0
 42
0.000000001
 43
0.00000001
 40
0.0
 40
0.0
 40
0.0
 40
0.0
 40
0.0230829230551597
 40
0.0814197416897967
 40
0.1466435060153073
 40
0.2187937863059883
 40
0.2807407147919538
 40
0.334043885361729
 40
0.3787027517769348
 40
0.4147200067027929
 40
0.517881604567259
 40
0.6098460221494381
 40
0.7031822330296847
 40
0.7529336067168404
 40
0.8047834091159894
 40
0.8938685125132421
 40
1.0
 40
1.0
 40
1.0
 40
1.0
 10
236.5841807649494
 20
53.48293167001298
 30
0.0
 10
236.6085841680359
 20
53.50593082344034
 30
0.0
 10
236.6946616015962
 20
53.5870550868911
 30
0.0
 10
236.8023560187944
 20
53.73035076887614
 30
0.0
 10
236.8995266201749
 20
53.91912527171768
 30
0.0
 10
236.9305775203638
 20
54.10509072327326
 30
0.0
 10
236.9012245987219
 20
54.27690540986114
 30
0.0
 10
236.8327184641172
 20
54.42371133769556
 30
0.0
 10
236.7449080782882
 20
54.544922394565
 30
0.0
 10
236.5906162894068
 20
54.71050550376255
 30
0.0
 10
236.3227903428762
 20
54.92066976826965
 30
0.0
 10
235.8712200877038
 20
55.17611357183108
 30
0.0
 10
235.4236574783892
 20
55.3827502701367
 30
0.0
 10
235.0147637056259
 20
55.54125448654904
 30
0.0
 10
234.59268410679
 20
55.68377123454177
 30
0.0
 10
234.0143714889714
 20
55.84702780337102
 30
0.0
 10
233.5404928951806
 20
55.92259625329739
 30
0.0
 10
233.2828639722524
 20
55.96367981059871
 30
0.0
  0
LINE
  5
2B4
330
1F
100
AcDbEntity
  8
0
  6
Continuous
 62
     7
370
    25
100
AcDbLine
 10
226.7732942504
 20
40.7165086225
 30
0.0
 11
226.7680561873
 21
41.0125920454
 31
0.0
  0
LINE
  5
2B5
330
1F
100
AcDbEntity
  8
0
  6
Continuous
 62
     7
370
    25
100
AcDbLine
 10
226.7680561873
 20
41.0125920454
 30
0.0
 11
226.8111559498
 21
41.6642537421
 31
0.0
  0
LINE
  5
2B6
330
1F
100
AcDbEntity
  8
0
  6
Continuous
 62
     7
370
    25
100
AcDbLine
 10
226.3809716281
 20
43.3957147489
 30
0.0
 11
225.9770928668
 21
43.8218768324
 31
0.0
  0
SPLINE
  5
2B7
330
1F
100
AcDbEntity
  8
0
  6
Continuous
 62
     7
370
    25
100
AcDbSpline
210
0.0
220
0.0
230
1.0
 70
     8
 71
     3
 72
    19
 73
    15
 74
     0
 42
0.000000001
 43
0.00000001
 40
0.0
 40
0.0
 40
0.0
 40
0.0
 40
0.0210492621018804
 40
0.1455865440207667
 40
0.2712169722633744
 40
0.3929514297049947
 40
0.5136082229787104
 40
0.6366369099308349
 40
0.699422462668311
 40
0.7643939711952468
 40
0.8122544601557282
 40
0.8606584764820763
 40
0.9188817427801165
 40
1.0
 40
1.0
 40
1.0
 40
1.0
 10
229.6936194199101
 20
53.70892986314092
 30
0.0
 10
229.6861508449242
 20
53.76369021004631
 30
0.0
 10
229.6344946863526
 20
54.14243838738146
 30
0.0
 10
229.8772655810122
 20
54.75258929619564
 30
0.0
 10
230.4615960484271
 20
55.4419629994352
 30
0.0
 10
231.3677224160674
 20
55.85926254966726
 30
0.0
 10
232.4420685445294
 20
55.9796885073559
 30
0.0
 10
233.3960024136252
 20
55.81898896376831
 30
0.0
 10
234.1306649561944
 20
55.52162286492651
 30
0.0
 10
234.6034681956667
 20
55.22396478752181
 30
0.0
 10
234.9604383657862
 20
54.85305298274445
 30
0.0
 10
235.1552865072944
 20
54.42073168743687
 30
0.0
 10
235.1843155375386
 20
53.91779035621172
 30
0.0
 10
235.1219419359182
 20
53.58404534363653
 30
0.0
 10
235.0856308799442
 20
53.38975427308967
 30
0.0
  0
SPLINE
  5
2B8
330
1F
100
AcDbEntity
  8
0
  6
Continuous
 62
     7
370
    25
100
AcDbSpline
210
0.0
220
0.0
230
1.0
 70
     8
 71
     3
 72
    10
 73
     6
 74
     0
 42
0.000000001
 43
0.00000001
 40
0.0
 40
0.0
 40
0.0
 40
0.0
 40
0.2952118939789638
 40
0.9806889752106586
 40
1.0
 40
1.0
 40
1.0
 40
1.0
 10
235.0883587359323
 20
53.38851571966728
 30
0.0
 10
235.1711823608091
 20
53.34975054187382
 30
0.0
 10
235.446321057658
 20
53.22097326948237
 30
0.0
 10
235.7212523717606
 20
53.07978826962299
 30
0.0
 10
235.8697174364349
 20
52.98580067522578
 30
0.0
 10
235.8737853435403
 20
52.98322543771853
 30
0.0
  0
ARC
  5
2B9
330
1F
100
AcDbEntity
  8
0
  6
Continuous
 62
     7
370
    25
100
AcDbCircle
 10
239.0984673013
 20
39.1752967273
 30
0.0
 40
12.46654291791191
100
AcDbArc
 50
171.5249863735
 51
179.8211981812
  0
SPLINE
  5
2BA
330
1F
100
AcDbEntity
  8
0
  6
Continuous
 62
     7
370
    25
100
AcDbSpline
210
0.0
220
0.0
230
1.0
 70
     8
 71
     3
 72
    14
 73
    10
 74
     0
 42
0.000000001
 43
0.00000001
 40
0.0
 40
0.0
 40
0.0
 40
0.0
 40
0.0003951393068452
 40
0.0003951393068452
 40
0.0003951393068452
 40
0.0008163352168663
 40
0.0008163352168663
 40
0.0008163352168663
 40
0.0012378579337218
 40
0.0012378579337218
 40
0.0012378579337218
 40
0.0012378579337218
 10
234.6802810730938
 20
53.53376304183541
 30
0.0
 10
234.7257428873251
 20
53.51932617921037
 30
0.0
 10
234.7706304919461
 20
53.50446031864478
 30
0.0
 10
234.8149141846212
 20
53.48917653103931
 30
0.0
 10
234.8621174768606
 20
53.47288509170161
 30
0.0
 10
234.9086432899197
 20
53.4561156136177
 30
0.0
 10
234.9544541991613
 20
53.43888680282242
 30
0.0
 10
235.0003005871505
 20
53.42164464899078
 30
0.0
 10
235.0454398227229
 20
53.40393894278628
 30
0.0
 10
235.0898333807652
 20
53.38579608609549
 30
0.0
  0
LINE
  5
2BB
330
1F
100
AcDbEntity
  8
0
  6
Continuous
 62
     7
370
    25
100
AcDbLine
 10
225.9770928668
 20
43.8218768324
 30
0.0
 11
225.3371561924
 21
44.2341084725
 31
0.0
  0
LINE
  5
2BC
330
1F
100
AcDbEntity
  8
0
  6
Continuous
 62
     7
370
    25
100
AcDbLine
 10
225.0312220973
 20
44.6055868593
 30
0.0
 11
225.3371561924
 21
44.2341084725
 31
0.0
  0
SPLINE
  5
2BD
330
1F
100
AcDbEntity
  8
0
  6
Continuous
 62
     7
370
    25
100
AcDbSpline
210
0.0
220
0.0
230
1.0
 70
     8
 71
     3
 72
    13
 73
     9
 74
     0
 42
0.000000001
 43
0.00000001
 40
0.0
 40
0.0
 40
0.0
 40
0.0
 40
0.1618542298851556
 40
0.3254858841553913
 40
0.4910085196606994
 40
0.6585318472790896
 40
0.8281616954204367
 40
1.0
 40
1.0
 40
1.0
 40
1.0
 10
225.3371566040722
 20
44.23410847640552
 30
0.0
 10
225.3175792120547
 20
44.24667145343867
 30
0.0
 10
225.278209436209
 20
44.27193536955728
 30
0.0
 10
225.2166734964387
 20
44.30462906647213
 30
0.0
 10
225.1531168371893
 20
44.33357514017902
 30
0.0
 10
225.0874987345325
 20
44.35808750764463
 30
0.0
 10
225.0200714654777
 20
44.37852257099814
 30
0.0
 10
224.9741868652792
 20
44.38811922598791
 30
0.0
 10
224.9510961851042
 20
44.3929485868227
 30
0.0
  0
SPLINE
  5
2BE
330
1F
100
AcDbEntity
  8
0
  6
Continuous
 62
     7
370
    25
100
AcDbSpline
210
0.0
220
0.0
230
1.0
 70
     8
 71
     3
 72
     9
 73
     5
 74
     0
 42
0.000000001
 43
0.00000001
 40
0.0
 40
0.0
 40
0.0
 40
0.0
 40
0.4907282259505932
 40
1.0
 40
1.0
 40
1.0
 40
1.0
 10
224.9510903578123
 20
44.39292058979169
 30
0.0
 10
224.9269968353344
 20
44.40101612200981
 30
0.0
 10
224.8778993487753
 20
44.41751309893108
 30
0.0
 10
224.8271986549551
 20
44.43230676794732
 30
0.0
 10
224.8013782226678
 20
44.4398407660119
 30
0.0
  0
SPLINE
  5
2BF
330
1F
100
AcDbEntity
  8
0
  6
Continuous
 62
     7
370
    25
100
AcDbSpline
210
0.0
220
0.0
230
1.0
 70
     8
 71
     3
 72
    14
 73
    10
 74
     0
 42
0.000000001
 43
0.00000001
 40
0.0
 40
0.0
 40
0.0
 40
0.0
 40
0.0310276388067353
 40
0.062285371866867
 40
0.124800316690094
 40
0.2498289731750666
 40
0.4998892603608338
 40
0.7606803621459556
 40
1.0
 40
1.0
 40
1.0
 40
1.0
 10
224.2174375333794
 20
44.81394850865775
 30
0.0
 10
224.2234297727838
 20
44.81011746500418
 30
0.0
 10
224.235458688743
 20
44.80242696750654
 30
0.0
 10
224.2595184967921
 20
44.7869890779999
 30
0.0
 10
224.3017521694384
 20
44.75991862506906
 30
0.0
 10
224.3863147439506
 20
44.70570660027364
 30
0.0
 10
224.5096017134168
 20
44.62670341841041
 30
0.0
 10
224.6557334198699
 20
44.5330972437326
 30
0.0
 10
224.7541000364111
 20
44.47011416734031
 30
0.0
 10
224.8011717370999
 20
44.43997466854848
 30
0.0
  0
LINE
  5
2C0
330
1F
100
AcDbEntity
  8
0
  6
Continuous
 62
     7
370
    25
100
AcDbLine
 10
222.4149373781
 20
45.9765791857
 30
0.0
 11
222.7059047323
 21
45.7885006465
 31
0.0
  0
SPLINE
  5
2C1
330
1F
100
AcDbEntity
  8
0
  6
Continuous
 62
     7
370
    25
100
AcDbSpline
210
0.0
220
0.0
230
1.0
 70
     8
 71
     3
 72
     8
 73
     4
 74
     0
 42
0.000000001
 43
0.00000001
 40
0.0
 40
0.0
 40
0.0
 40
0.0
 40
1.0
 40
1.0
 40
1.0
 40
1.0
 10
222.7372930356747
 20
45.76827811634662
 30
0.0
 10
222.7268505298229
 20
45.77510354124402
 30
0.0
 10
222.7163845969331
 20
45.78184650803054
 30
0.0
 10
222.7058968321165
 20
45.78850559568352
 30
0.0
  0
SPLINE
  5
2C2
330
1F
100
AcDbEntity
  8
0
  6
Continuous
 62
     7
370
    25
100
AcDbSpline
210
0.0
220
0.0
230
1.0
 70
     8
 71
     3
 72
     8
 73
     4
 74
     0
 42
0.000000001
 43
0.00000001
 40
0.0
 40
0.0
 40
0.0
 40
0.0
 40
1.0
 40
1.0
 40
1.0
 40
1.0
 10
219.9512886568508
 20
47.6465337681557
 30
0.0
 10
220.0102884210208
 20
47.60779310123674
 30
0.0
 10
220.0695759845314
 20
47.56973112393744
 30
0.0
 10
220.1291570580198
 20
47.53234733547716
 30
0.0
  0
SPLINE
  5
2C3
330
1F
100
AcDbEntity
  8
0
  6
Continuous
 62
     7
370
    25
100
AcDbSpline
210
0.0
220
0.0
230
1.0
 70
     8
 71
     3
 72
     8
 73
     4
 74
     0
 42
0.000000001
 43
0.00000001
 40
0.0
 40
0.0
 40
0.0
 40
0.0
 40
1.0
 40
1.0
 40
1.0
 40
1.0
 10
219.9264389107513
 20
48.00974394609402
 30
0.0
 10
219.9339131228419
 20
47.88878610538218
 30
0.0
 10
219.942209226732
 20
47.76771426297152
 30
0.0
 10
219.9512886568508
 20
47.6465337681557
 30
0.0
  0
LWPOLYLINE
  5
2C4
330
1F
100
AcDbEntity
  8
0
  6
Continuous
 62
     7
370
    25
100
AcDbPolyline
 90
       15
 70
   128
 43
0.0
 10
219.9264392695
 20
48.0097432807
 10
220.3418906335
 20
49.1739946572
 10
220.8464219959
 20
50.3285402523
 10
221.4333741548
 20
51.4581410145
 10
222.094999334
 20
52.5478853736
 10
222.8225632577
 20
53.5833880926
 10
223.606462042
 20
54.5509801818
 10
224.4363479772
 20
55.4378894971
 10
225.3012661753
 20
56.2324078392
 10
226.1897992032
 20
56.9240474523
 10
227.0902181363
 20
57.5036784165
 10
227.9906370694
 20
57.9636490239
 10
228.8791700973
 20
58.2978878084
 10
229.7440882954
 20
58.5019827617
 10
229.8904017385
 20
58.5238509721
  0
SPLINE
  5
2C5
330
1F
100
AcDbEntity
  8
0
  6
Continuous
 62
     7
370
    25
100
AcDbSpline
210
0.0
220
0.0
230
1.0
 70
     8
 71
     3
 72
    10
 73
     6
 74
     0
 42
0.000000001
 43
0.00000001
 40
0.0
 40
0.0
 40
0.0
 40
0.0
 40
0.2409818396634726
 40
0.5031433556203718
 40
1.0
 40
1.0
 40
1.0
 40
1.0
 10
225.97709286679
 20
37.11603520914019
 30
0.0
 10
226.059338737793
 20
37.06435868721964
 30
0.0
 10
226.2310589951375
 20
36.95646384052827
 30
0.0
 10
226.5087803541643
 20
36.82674113006401
 30
0.0
 10
226.6297576012084
 20
36.84951907116901
 30
0.0
 10
226.7089498421239
 20
36.86442961214774
 30
0.0
  0
LINE
  5
2C6
330
1F
100
AcDbEntity
  8
0
  6
Continuous
 62
     7
370
    25
100
AcDbLine
 10
221.1939188106
 20
46.8451079421
 30
0.0
 11
220.4320401083
 21
47.3357423498
 31
0.0
  0
LINE
  5
2C7
330
1F
100
AcDbEntity
  8
0
  6
Continuous
 62
     7
370
    25
100
AcDbLine
 10
220.4320401083
 20
47.3357423498
 30
0.0
 11
219.951288788
 21
47.6465337258
 31
0.0
  0
LINE
  5
2C8
330
1F
100
AcDbEntity
  8
0
  6
Continuous
 62
     7
370
    25
100
AcDbLine
 10
225.0312220973
 20
36.8402554082
 30
0.0
 11
225.3371561924
 21
37.5282668493
 31
0.0
  0
LINE
  5
2C9
330
1F
100
AcDbEntity
  8
0
  6
Continuous
 62
     7
370
    25
100
AcDbLine
 10
225.3371561924
 20
37.5282668493
 30
0.0
 11
225.9770928668
 21
37.1160352091
 31
0.0
  0
SPLINE
  5
2CA
330
1F
100
AcDbEntity
  8
0
  6
Continuous
 62
     7
370
    25
100
AcDbSpline
210
0.0
220
0.0
230
1.0
 70
     8
 71
     3
 72
    13
 73
     9
 74
     0
 42
0.000000001
 43
0.00000001
 40
0.0
 40
0.0
 40
0.0
 40
0.0
 40
0.1722587823576925
 40
0.3421398271262819
 40
0.5097456257928438
 40
0.6751828993290239
 40
0.8385626190146133
 40
1.0
 40
1.0
 40
1.0
 40
1.0
 10
224.9510846732989
 20
37.8095765546588
 30
0.0
 10
224.9742361972517
 20
37.79145696372376
 30
0.0
 10
225.0202196780036
 20
37.75546789178639
 30
0.0
 10
225.0877606907184
 20
37.70446790836824
 30
0.0
 10
225.153420305405
 20
37.65614322817708
 30
0.0
 10
225.2169443766541
 20
37.61071222226934
 30
0.0
 10
225.2783747553723
 20
37.56788665451247
 30
0.0
 10
225.3176409223426
 20
37.54142083733941
 30
0.0
 10
225.3371566040722
 20
37.52826705879379
 30
0.0
  0
SPLINE
  5
2CB
330
1F
100
AcDbEntity
  8
0
  6
Continuous
 62
     7
370
    25
100
AcDbSpline
210
0.0
220
0.0
230
1.0
 70
     8
 71
     3
 72
    11
 73
     7
 74
     0
 42
0.000000001
 43
0.00000001
 40
0.0
 40
0.0
 40
0.0
 40
0.0
 40
0.2392845095296998
 40
0.5001120454061866
 40
0.751501091500065
 40
1.0
 40
1.0
 40
1.0
 40
1.0
 10
224.8017042618229
 20
37.85689054687167
 30
0.0
 10
224.7546350298015
 20
37.82857602415057
 30
0.0
 10
224.6562588752056
 20
37.76939779359742
 30
0.0
 10
224.5099616536243
 20
37.67620989313459
 30
0.0
 10
224.3621209100029
 20
37.5808379771617
 30
0.0
 10
224.2658344472801
 20
37.51630272190455
 30
0.0
 10
224.2179695594186
 20
37.48422165184918
 30
0.0
  0
SPLINE
  5
2CC
330
1F
100
AcDbEntity
  8
0
  6
Continuous
 62
     7
370
    25
100
AcDbSpline
210
0.0
220
0.0
230
1.0
 70
     8
 71
     3
 72
     9
 73
     5
 74
     0
 42
0.000000001
 43
0.00000001
 40
0.0
 40
0.0
 40
0.0
 40
0.0
 40
0.5090669353869857
 40
1.0
 40
1.0
 40
1.0
 40
1.0
 10
224.802275265407
 20
37.85619159265988
 30
0.0
 10
224.827923840031
 20
37.8486988845
 30
0.0
 10
224.8783073413765
 20
37.83398037178776
 30
0.0
 10
224.9271148528718
 20
37.81758801393561
 30
0.0
 10
224.9510760740663
 20
37.809540463459
 30
0.0
  0
LINE
  5
2CD
330
1F
100
AcDbEntity
  8
0
  6
Continuous
 62
     7
370
    25
100
AcDbLine
 10
226.6321938455
 20
38.7800701599
 30
0.0
 11
224.9510778892
 21
37.8095825757
 31
0.0
  0
LINE
  5
2CE
330
1F
100
AcDbEntity
  8
0
  6
Continuous
 62
     7
370
    25
100
AcDbLine
 10
222.9445902379
 20
38.9334038744
 30
0.0
 11
222.7442945844
 21
38.4322464601
 31
0.0
  0
SPLINE
  5
2CF
330
1F
100
AcDbEntity
  8
0
  6
Continuous
 62
     7
370
    25
100
AcDbSpline
210
0.0
220
0.0
230
1.0
 70
     8
 71
     3
 72
     8
 73
     4
 74
     0
 42
0.000000001
 43
0.00000001
 40
0.0
 40
0.0
 40
0.0
 40
0.0
 40
1.0
 40
1.0
 40
1.0
 40
1.0
 10
222.9441470672668
 20
38.93418762652126
 30
0.0
 10
222.970322401836
 20
38.95635500349953
 30
0.0
 10
222.9961434418015
 20
38.97898714459115
 30
0.0
 10
223.0216009955099
 20
39.00207186468243
 30
0.0
  0
LINE
  5
2D0
330
1F
100
AcDbEntity
  8
0
  6
Continuous
 62
     7
370
    25
100
AcDbLine
 10
223.0216010912
 20
39.0020717491
 30
0.0
 11
224.8018938505
 21
37.8563008639
 31
0.0
  0
LINE
  5
2D1
330
1F
100
AcDbEntity
  8
0
  6
Continuous
 62
     7
370
    25
100
AcDbLine
 10
226.6319850869
 20
38.8781200951
 30
0.0
 11
226.54398576
 21
38.9856111634
 31
0.0
  0
LINE
  5
2D2
330
1F
100
AcDbEntity
  8
0
  6
Continuous
 62
     7
370
    25
100
AcDbLine
 10
224.7155777633
 20
39.9799836664
 30
0.0
 11
223.0216010912
 21
39.0020717491
 31
0.0
  0
LINE
  5
2D3
330
1F
100
AcDbEntity
  8
0
  6
Continuous
 62
     7
370
    25
100
AcDbLine
 10
224.8582718458
 20
39.9586915047
 30
0.0
 11
224.7159979147
 21
39.9794962889
 31
0.0
  0
LINE
  5
2D4
330
1F
100
AcDbEntity
  8
0
  6
Continuous
 62
     7
370
    25
100
AcDbLine
 10
226.5440595169
 20
38.985506997
 30
0.0
 11
224.8582718458
 21
39.9586915047
 31
0.0
  0
LINE
  5
2D5
330
1F
100
AcDbEntity
  8
0
  6
Continuous
 62
     7
370
    25
100
AcDbLine
 10
226.6319850869
 20
38.9347429141
 30
0.0
 11
226.5440127603
 21
38.9855339703
 31
0.0
  0
SPLINE
  5
2D6
330
1F
100
AcDbEntity
  8
0
  6
Continuous
 62
     7
370
    25
100
AcDbSpline
210
0.0
220
0.0
230
1.0
 70
     8
 71
     3
 72
    19
 73
    15
 74
     0
 42
0.000000001
 43
0.00000001
 40
0.0
 40
0.0
 40
0.0
 40
0.0
 40
0.0637853009172653
 40
0.128962836774843
 40
0.1955871994416706
 40
0.2637095015536496
 40
0.3333775579492472
 40
0.4046360709686134
 40
0.4775268158973733
 40
0.5520888236427657
 40
0.6283585584336278
 40
0.7063700889344741
 40
0.8377041806120609
 40
1.0
 40
1.0
 40
1.0
 40
1.0
 10
222.1600779613055
 20
39.10267571387314
 30
0.0
 10
222.1807673303121
 20
39.08931657386191
 30
0.0
 10
222.2225976529695
 20
39.06230670531939
 30
0.0
 10
222.2830886265677
 20
39.02478473979134
 30
0.0
 10
222.3425728247493
 20
38.98926499870002
 30
0.0
 10
222.4006539842224
 20
38.95628486978361
 30
0.0
 10
222.45718610131
 20
38.92607843351391
 30
0.0
 10
222.5119311560631
 20
38.89896499355338
 30
0.0
 10
222.5646535336539
 20
38.87523337580453
 30
0.0
 10
222.6150951665823
 20
38.85519312236088
 30
0.0
 10
222.6629780850447
 20
38.83907326082343
 30
0.0
 10
222.7179422394188
 20
38.82479529113902
 30
0.0
 10
222.7807735533796
 20
38.81465673388793
 30
0.0
 10
222.8192810690393
 20
38.82113098520342
 30
0.0
 10
222.8405650342318
 20
38.82470944871335
 30
0.0
  0
LINE
  5
2D7
330
1F
100
AcDbEntity
  8
0
  6
Continuous
 62
     7
370
    25
100
AcDbLine
 10
222.8652007219
 20
38.850779903
 30
0.0
 11
222.9440047919
 21
38.9341715067
 31
0.0
  0
SPLINE
  5
2D8
330
1F
100
AcDbEntity
  8
0
  6
Continuous
 62
     7
370
    25
100
AcDbSpline
210
0.0
220
0.0
230
1.0
 70
     8
 71
     3
 72
     9
 73
     5
 74
     0
 42
0.000000001
 43
0.00000001
 40
0.0
 40
0.0
 40
0.0
 40
0.0
 40
0.5232016984460688
 40
1.0
 40
1.0
 40
1.0
 40
1.0
 10
224.5493999836198
 20
39.88405144560602
 30
0.0
 10
224.4803758209712
 20
39.90909361072252
 30
0.0
 10
224.3484493328623
 20
39.95695692078225
 30
0.0
 10
224.1070119200436
 20
40.09455505146891
 30
0.0
 10
223.9918949716802
 20
40.16016160647731
 30
0.0
  0
LINE
  5
2D9
330
1F
100
AcDbEntity
  8
0
  6
Continuous
 62
     7
370
    25
100
AcDbLine
 10
220.2623937747
 20
39.9260511691
 30
0.0
 11
220.713864889
 21
40.038315142
 31
0.0
  0
LINE
  5
2DA
330
1F
100
AcDbEntity
  8
0
  6
Continuous
 62
     7
370
    25
100
AcDbLine
 10
220.713864889
 20
40.038315142
 30
0.0
 11
222.1600773608
 21
39.102675809
 31
0.0
  0
SPLINE
  5
2DB
330
1F
100
AcDbEntity
  8
0
  6
Continuous
 62
     7
370
    25
100
AcDbSpline
210
0.0
220
0.0
230
1.0
 70
     8
 71
     3
 72
     8
 73
     4
 74
     0
 42
0.000000001
 43
0.00000001
 40
0.0
 40
0.0
 40
0.0
 40
0.0
 40
1.0
 40
1.0
 40
1.0
 40
1.0
 10
220.4331823453222
 20
39.53130151608981
 30
0.0
 10
220.3760570763982
 20
39.66308769988545
 30
0.0
 10
220.3191285846806
 20
39.79467192154625
 30
0.0
 10
220.2623944667312
 20
39.92605098844761
 30
0.0
  0
LINE
  5
2DC
330
1F
100
AcDbEntity
  8
0
  6
Continuous
 62
     7
370
    25
100
AcDbLine
 10
222.0515663481
 20
40.8105537567
 30
0.0
 11
220.713864889
 21
40.038315142
 31
0.0
  0
LINE
  5
2DD
330
1F
100
AcDbEntity
  8
0
  6
Continuous
 62
     7
370
    25
100
AcDbLine
 10
223.0345948329
 20
40.7128003539
 30
0.0
 11
222.0515663481
 21
40.8105537567
 31
0.0
  0
LINE
  5
2DE
330
1F
100
AcDbEntity
  8
0
  6
Continuous
 62
     7
370
    25
100
AcDbLine
 10
223.9918949717
 20
40.1601616065
 30
0.0
 11
223.0345938451
 21
40.7127997836
 31
0.0
  0
SPLINE
  5
2DF
330
1F
100
AcDbEntity
  8
0
  6
Continuous
 62
     7
370
    25
100
AcDbSpline
210
0.0
220
0.0
230
1.0
 70
     8
 71
     3
 72
     8
 73
     4
 74
     0
 42
0.000000001
 43
0.00000001
 40
0.0
 40
0.0
 40
0.0
 40
0.0
 40
1.0
 40
1.0
 40
1.0
 40
1.0
 10
220.2623944667334
 20
39.9260509884425
 30
0.0
 10
220.2592571289833
 20
39.96126729531501
 30
0.0
 10
220.2572647250853
 20
39.99691155154271
 30
0.0
 10
220.2564833277133
 20
40.03300845353758
 30
0.0
  0
LINE
  5
2E0
330
1F
100
AcDbEntity
  8
0
  6
Continuous
 62
     7
370
    25
100
AcDbLine
 10
221.0675698028
 20
40.5012381682
 30
0.0
 11
220.2564839962
 21
40.0330082986
 31
0.0
  0
SPLINE
  5
2E1
330
1F
100
AcDbEntity
  8
0
  6
Continuous
 62
     7
370
    25
100
AcDbSpline
210
0.0
220
0.0
230
1.0
 70
     8
 71
     3
 72
     8
 73
     4
 74
     0
 42
0.000000001
 43
0.00000001
 40
0.0000004089325119
 40
0.0000004089325119
 40
0.0000004089325119
 40
0.0000004089325119
 40
0.0015399868451459
 40
0.0015399868451459
 40
0.0015399868451459
 40
0.0015399868451459
 10
221.067568860202
 20
40.5012381648937
 30
0.0
 10
221.3060454282252
 20
40.59561455071005
 30
0.0
 10
221.5444923858939
 20
40.69004316264026
 30
0.0
 10
221.7829011247443
 20
40.78453654560272
 30
0.0
  0
LINE
  5
2E2
330
1F
100
AcDbEntity
  8
0
  6
Continuous
 62
     7
370
    25
100
AcDbLine
 10
221.7829006037
 20
40.7845366927
 30
0.0
 11
221.8072970435
 21
40.7895307191
 31
0.0
  0
LINE
  5
2E3
330
1F
100
AcDbEntity
  8
0
  6
Continuous
 62
     7
370
    25
100
AcDbLine
 10
222.0515663481
 20
40.8105537567
 30
0.0
 11
221.8072977021
 21
40.7895307191
 31
0.0
  0
SPLINE
  5
2E4
330
1F
100
AcDbEntity
  8
0
  6
Continuous
 62
     7
370
    25
100
AcDbSpline
210
0.0
220
0.0
230
1.0
 70
     8
 71
     3
 72
     8
 73
     4
 74
     0
 42
0.000000001
 43
0.00000001
 40
0.0
 40
0.0
 40
0.0
 40
0.0
 40
1.0
 40
1.0
 40
1.0
 40
1.0
 10
223.0345930392523
 20
40.71280053818969
 30
0.0
 10
223.0652010733755
 20
40.69786053038356
 30
0.0
 10
223.0957525743474
 20
40.6829835729902
 30
0.0
 10
223.126246512462
 20
40.66817000930927
 30
0.0
  0
ARC
  5
2E5
330
1F
100
AcDbEntity
  8
0
  6
Continuous
 62
     7
370
    25
100
AcDbCircle
 10
223.9152765195
 20
46.1415204834
 30
0.0
 40
6.549762100196324
100
AcDbArc
 50
283.6682343678
 51
294.9135532271
  0
LWPOLYLINE
  5
2E6
330
1F
100
AcDbEntity
  8
0
  6
Continuous
 62
     7
370
    18
100
AcDbPolyline
 90
       18
 70
   128
 43
0.0
 10
278.1651991912
 20
13.3838864236
 10
278.2143032332
 20
14.2050512716
 10
278.3606153592
 20
15.066193658
 10
278.6011576311
 20
15.9497836241
 10
278.9310327826
 20
16.8378334027
 10
279.3435256353
 20
17.7122648542
 10
279.8302390883
 20
18.555277281
 10
280.3812650101
 20
19.3497092961
 10
280.9853862475
 20
20.0793887124
 10
281.6303045641
 20
20.7294614692
 10
282.3028911755
 20
21.2866932981
 10
282.9894542416
 20
21.739741255
 10
283.6760173077
 20
22.0793821413
 10
284.348603919
 20
22.2987022845
 10
284.9935222356
 20
22.3932363668
 10
285.597643473
 20
22.3610604843
 10
286.1486693948
 20
22.2028294566
 10
286.5850229615
 20
21.958743803
  0
ARC
  5
2E7
330
1F
100
AcDbEntity
  8
0
  6
Continuous
 62
     7
370
    18
100
AcDbCircle
 10
281.4666587174
 20
13.0176435855
 30
0.0
 40
3.321711730343648
100
AcDbArc
 50
173.6698542397
 51
239.3569950387
  0
LWPOLYLINE
  5
2E8
330
1F
100
AcDbEntity
  8
0
  6
Continuous
 62
     7
370
    18
100
AcDbPolyline
 90
       42
 70
   128
 43
0.0
 10
279.5217534624
 20
13.4146558346
 10
279.5700300432
 20
14.168654729
 10
279.7137290647
 20
14.9607200009
 10
279.9494814131
 20
15.7722856453
 10
280.2717622293
 20
16.5843299617
 10
280.6730166907
 20
17.3778189878
 10
281.1438401233
 20
18.1341538243
 10
281.6731968027
 20
18.8356069305
 10
282.2486790919
 20
19.465736742
 10
282.8567979414
 20
20.0097732457
 10
283.4832998756
 20
20.4549652324
 10
284.1135000312
 20
20.790877499
 10
284.7326271518
 20
21.0096363988
 10
285.3261693656
 20
21.1061146247
 10
285.8802143847
 20
21.0780507963
 10
286.3817762053
 20
20.9261026965
 10
286.8190983263
 20
20.6538318208
 10
287.1819306669
 20
20.2676200801
 10
287.4617682896
 20
19.7765197769
 10
287.652052091
 20
19.1920417981
 10
287.7483224077
 20
18.5278861584
 10
287.7483224077
 20
17.7996198402
 10
287.652052091
 20
17.0243128588
 10
287.4617682896
 20
16.2201378792
 10
287.1819306669
 20
15.4059439342
 10
286.8190983263
 20
14.6008148898
 10
286.3817762053
 20
13.8236226408
 10
285.8802143847
 20
13.0925835892
 10
285.3261693656
 20
12.4248329978
 10
284.7326271518
 20
11.8360219705
 10
284.1135000312
 20
11.3399519124
 10
283.4832998756
 20
10.9482505671
 10
282.8567979414
 20
10.6700988173
 10
282.2486790919
 20
10.5120162424
 10
281.6731968027
 20
10.4777083457
 10
281.1438401233
 20
10.5679792393
 10
280.6730166907
 20
10.7807129115
 10
280.2717622293
 20
11.1109233975
 10
279.9494814131
 20
11.5508702039
 10
279.7137290647
 20
12.0902419806
 10
279.5700300432
 20
12.7163958939
 10
279.5217534624
 20
13.4146558346
  0
LWPOLYLINE
  5
2E9
330
1F
100
AcDbEntity
  8
0
  6
Continuous
 62
     7
370
    18
100
AcDbPolyline
 90
       35
 70
   128
 43
0.0
 10
280.7996808121
 20
14.1523875905
 10
280.8480611137
 20
14.7832256601
 10
280.99155434
 20
15.448439895
 10
281.2252739261
 20
16.1253772772
 10
281.5412610325
 20
16.7909853586
 10
281.9287550418
 20
17.4225981266
 10
282.3745602038
 20
17.9987060807
 10
282.8634952567
 20
18.4996911783
 10
283.3789100344
 20
18.908492749
 10
283.9032527617
 20
19.2111893624
 10
284.4186675394
 20
19.3974730272
 10
284.9076025922
 20
19.4610003257
 10
285.3534077543
 20
19.3996080556
 10
285.7409017636
 20
19.2153863479
 10
286.0568888699
 20
18.9146092138
 10
286.2906084561
 20
18.5075187219
 10
286.4341016824
 20
18.0079782396
 10
286.4824819839
 20
17.4329988772
 10
286.4341016824
 20
16.8021608076
 10
286.2906084561
 20
16.1369465726
 10
286.0568888699
 20
15.4600091904
 10
285.7409017636
 20
14.794401109
 10
285.3534077543
 20
14.1627883411
 10
284.9076025922
 20
13.5866803869
 10
284.4186675394
 20
13.0856952894
 10
283.9032527617
 20
12.6768937186
 10
283.3789100344
 20
12.3741971052
 10
282.8634952567
 20
12.1879134404
 10
282.3745602038
 20
12.1243861419
 10
281.9287550418
 20
12.185778412
 10
281.5412610325
 20
12.3700001198
 10
281.2252739261
 20
12.6707772538
 10
280.99155434
 20
13.0778677457
 10
280.8480611137
 20
13.5774082281
 10
280.7996808121
 20
14.1523875905
  0
LWPOLYLINE
  5
2EA
330
1F
100
AcDbEntity
  8
0
  6
Continuous
 62
     7
370
    18
100
AcDbPolyline
 90
       20
 70
   128
 43
0.0
 10
285.1633992245
 20
19.2433492023
 10
285.2417192643
 20
19.2131723893
 10
285.5916498948
 20
18.9913888603
 10
285.8658023028
 20
18.6570440668
 10
286.0542676982
 20
18.2222219335
 10
286.1502347551
 20
17.7026382078
 10
286.1502347551
 20
17.1170719906
 10
286.0542676982
 20
16.4866870593
 10
285.8658023028
 20
15.8342674122
 10
285.5916498948
 20
15.183392986
 10
285.2417192643
 20
14.5575881508
 10
284.8286577583
 20
13.9794709281
 10
284.3673944987
 20
13.4699364391
 10
283.8746007867
 20
13.0474001524
 10
283.3680873596
 20
12.7271337652
 10
282.8661610037
 20
12.5207126031
 10
282.3869626549
 20
12.4355973923
 10
281.9478118381
 20
12.4748639881
 10
281.5645804228
 20
12.6370935646
 10
281.3886049826
 20
12.7714333941
  0
LWPOLYLINE
  5
2EB
330
1F
100
AcDbEntity
  8
0
  6
Continuous
 62
     7
370
    18
100
AcDbPolyline
 90
        8
 70
   128
 43
0.0
 10
242.6288886108
 20
32.529058848
 10
242.6782340093
 20
31.6700014952
 10
242.8254601951
 20
30.8820230291
 10
243.0681489929
 20
30.1780614317
 10
243.4023158789
 20
29.5696763029
 10
243.8224738604
 20
29.0668568376
 10
244.3217240252
 20
28.6778596486
 10
244.3896420252
 20
28.6373782086
  0
LWPOLYLINE
  5
2EC
330
1F
100
AcDbEntity
  8
0
  6
Continuous
 62
     7
370
    18
100
AcDbPolyline
 90
       20
 70
   128
 43
0.0
 10
252.8889511298
 20
43.3602088149
 10
252.6800990074
 20
43.4694704274
 10
252.077950934
 20
43.6763713143
 10
251.4193402423
 20
43.7572070106
 10
250.7150813856
 20
43.710649779
 10
249.9767380761
 20
43.5374633699
 10
249.2164341183
 20
43.2404934385
 10
248.4466535404
 20
42.8246137609
 10
247.6800361164
 20
42.2966549595
 10
246.9291697599
 20
41.6652854152
 10
246.2063837413
 20
40.9408721222
 10
245.5235460203
 20
40.1353100781
 10
244.8918688112
 20
39.2618267679
 10
244.3217240252
 20
38.334764214
 10
243.8224738604
 20
37.3693450543
 10
243.4023158789
 20
36.3814215093
 10
243.0681489929
 20
35.3872155062
 10
242.8254601951
 20
34.4030513872
 10
242.6782340093
 20
33.4450891851
 10
242.6288886108
 20
32.529058848
  0
LWPOLYLINE
  5
2ED
330
1F
100
AcDbEntity
  8
0
  6
Continuous
 62
     7
370
    18
100
AcDbPolyline
 90
       27
 70
   128
 43
0.0
 10
240.5075685781
 20
32.5290592281
 10
240.5553802264
 20
33.5046062918
 10
240.6981697979
 20
34.5221636303
 10
240.9340057815
 20
35.5679701834
 10
241.2596995046
 20
36.6278836369
 10
241.6708453046
 20
37.6875694885
 10
242.1618840779
 20
38.7326984774
 10
242.7261750617
 20
39.7491361226
 10
243.3560873715
 20
40.7231372031
 10
244.043102405
 20
41.6415303504
 10
244.777929416
 20
42.4918950354
 10
245.5506311327
 20
43.2627325658
 10
246.3507581824
 20
43.9436182134
 10
247.167490185
 20
44.5253435027
 10
247.9897822788
 20
45.0000426242
 10
248.8065142813
 20
45.3612960331
 10
249.606641331
 20
45.6042174133
 10
250.3793430477
 20
45.7255222953
 10
251.1141700588
 20
45.7235708183
 10
251.8011850922
 20
45.5983883446
 10
252.4310974021
 20
45.3516685365
 10
252.9953883859
 20
44.9867473933
 10
253.4864271592
 20
44.5085597044
 10
253.8975729591
 20
43.9235726891
 10
254.2232666823
 20
43.2396972042
 10
254.4591026658
 20
42.4661810817
 10
254.4624184374
 20
42.451865627
  0
LWPOLYLINE
  5
2EE
330
1F
100
AcDbEntity
  8
0
  6
Continuous
 62
     7
370
    18
100
AcDbPolyline
 90
       13
 70
   128
 43
0.0
 10
245.9631091682
 20
27.7290347356
 10
245.5506311327
 20
27.6179819787
 10
244.777929416
 20
27.4966770967
 10
244.043102405
 20
27.4986285737
 10
243.3560873715
 20
27.6238110474
 10
242.7261750617
 20
27.8705308555
 10
242.1618840779
 20
28.2354519988
 10
241.6708453046
 20
28.7136396877
 10
241.2596995046
 20
29.2986267029
 10
240.9340057815
 20
29.9825021879
 10
240.6981697979
 20
30.7560183103
 10
240.5553802264
 20
31.6087143187
 10
240.5075685781
 20
32.5290592281
  0
ARC
  5
2EF
330
1F
100
AcDbEntity
  8
0
  6
Continuous
 62
     7
370
    18
100
AcDbCircle
 10
248.1126039439
 20
33.6977804918
 30
0.0
 40
17.9557267814996
100
AcDbArc
 50
167.4561534803
 51
179.6099872796
  0
LWPOLYLINE
  5
2F0
330
1F
100
AcDbEntity
  8
0
  6
Continuous
 62
     7
370
    18
100
AcDbPolyline
 90
       11
 70
   128
 43
0.0
 10
241.2272028696
 20
53.0606617765
 10
241.5462572807
 20
53.2414928053
 10
242.5868758121
 20
53.7575713255
 10
243.6160568247
 20
54.1548925186
 10
244.6247557038
 20
54.4299658531
 10
245.6041085225
 20
54.5803739362
 10
246.5455077748
 20
54.6047934196
 10
247.4406811539
 20
54.5030115796
 10
248.2817616872
 20
54.2759211772
 10
249.0613572125
 20
53.9255195016
 10
249.1534968087
 20
53.8735598334
  0
LWPOLYLINE
  5
2F1
330
1F
100
AcDbEntity
  8
0
  6
Continuous
 62
     7
370
    18
100
AcDbPolyline
 90
       10
 70
   128
 43
0.0
 10
233.4172754942
 20
26.6146714396
 10
233.1448376069
 20
26.7832342113
 10
232.4701284654
 20
27.3124990846
 10
231.8728885242
 20
27.9554074876
 10
231.3583657245
 20
28.7063090687
 10
230.9310816328
 20
29.5586052475
 10
230.5947919286
 20
30.504806633
 10
230.3524515009
 20
31.5365970961
 10
230.2061900828
 20
32.644909628
 10
230.1572931531
 20
33.8200042896
  0
LWPOLYLINE
  5
2F2
330
1F
100
AcDbEntity
  8
0
  6
Continuous
 62
     7
370
    18
100
AcDbPolyline
 90
       13
 70
   128
 43
0.0
 10
234.7813745915
 20
30.4843676618
 10
234.7451605705
 20
30.6657753
 10
234.6007799555
 20
31.7368486432
 10
234.5595768013
 20
32.878491662
 10
234.6219844301
 20
34.0786903209
 10
234.7873456146
 20
35.3248143555
 10
235.0539211387
 20
36.6037512317
 10
235.4189056028
 20
37.9020419701
 10
235.8784577168
 20
39.206024645
 10
236.4277417884
 20
40.5019767771
 10
237.0609771139
 20
41.7762607672
 10
237.7715005398
 20
43.0154672379
 10
238.5518356106
 20
44.206556093
  0
LWPOLYLINE
  5
2F3
330
1F
100
AcDbEntity
  8
0
  6
Continuous
 62
     7
370
    18
100
AcDbPolyline
 90
       16
 70
   128
 43
0.0
 10
235.2931703585
 20
27.5544399609
 10
234.8241483744
 20
28.3012672751
 10
234.4336492619
 20
29.1736077053
 10
234.1407951777
 20
30.1421221294
 10
233.9485587919
 20
31.1969780538
 10
233.8588920302
 20
32.3274668372
 10
233.8727050013
 20
33.5221116781
 10
233.9898574351
 20
34.7687845376
 10
234.2091600002
 20
36.0548289532
 10
234.5283868163
 20
37.3671895068
 10
234.9442965272
 20
38.6925430027
 10
235.4526672041
 20
40.0174342066
 10
236.0483371752
 20
41.3284125351
 10
236.7252603433
 20
42.6121700749
 10
237.4765634794
 20
43.8556723763
 10
238.2946206381
 20
45.046297992
  0
ARC
  5
2F4
330
1F
100
AcDbEntity
  8
0
  6
Continuous
 62
     7
370
    18
100
AcDbCircle
 10
251.3777492433
 20
37.2634258916
 30
0.0
 40
14.35349360837079
100
AcDbArc
 50
109.931969941
 51
139.4246766989
  0
LWPOLYLINE
  5
2F5
330
1F
100
AcDbEntity
  8
0
  6
Continuous
 62
     7
370
    18
100
AcDbPolyline
 90
       12
 70
   128
 43
0.0
 10
239.6388136997
 20
46.7184615093
 10
240.5511582976
 20
47.6891970867
 10
241.4964867557
 20
48.5747394743
 10
242.4658919303
 20
49.3667451385
 10
243.4502404265
 20
50.0577521101
 10
244.4402580442
 20
50.6412506038
 10
245.4266170768
 20
51.1117417797
 10
246.400024144
 20
51.464793011
 10
247.3513083141
 20
51.69707887
 10
248.2715063845
 20
51.8064098269
 10
249.1519491108
 20
51.7917569334
 10
249.27777721
 20
51.7791145984
  0
LINE
  5
2F6
330
1F
100
AcDbEntity
  8
0
  6
Continuous
 62
     7
370
    18
100
AcDbLine
 10
225.6709289396
 20
44.1926118883
 30
0.0
 11
225.9770928668
 21
43.8218768324
 31
0.0
  0
LINE
  5
2F7
330
1F
100
AcDbEntity
  8
0
  6
Continuous
 62
     7
370
    18
100
AcDbLine
 10
225.6709289396
 20
36.4285017406
 30
0.0
 11
225.9770928668
 21
37.1160352091
 31
0.0
  0
LINE
  5
2F8
330
1F
100
AcDbEntity
  8
0
  6
Continuous
 62
     7
370
    18
100
AcDbLine
 10
226.7130031836
 20
37.5408671922
 30
0.0
 11
225.9771001108
 21
37.116039391
 31
0.0
  0
LINE
  5
2F9
330
1F
100
AcDbEntity
  8
0
  6
Continuous
 62
     7
370
    18
100
AcDbLine
 10
226.6464276265
 20
38.28409316
 30
0.0
 11
225.3371561924
 21
37.5282668493
 31
0.0
  0
LINE
  5
2FA
330
1F
100
AcDbEntity
  8
0
  6
Continuous
 62
     7
370
    18
100
AcDbLine
 10
222.1600773608
 20
39.102675809
 30
0.0
 11
221.8635900866
 21
38.6066141911
 31
0.0
  0
LINE
  5
2FB
330
1F
100
AcDbEntity
  8
0
  6
Continuous
 62
     7
370
    18
100
AcDbLine
 10
223.9918949717
 20
40.1601616065
 30
0.0
 11
222.1601379469
 21
39.1027107846
 31
0.0
  0
LINE
  5
2FC
330
1F
100
AcDbEntity
  8
0
  6
Continuous
 62
     7
370
    18
100
AcDbLine
 10
223.9918949717
 20
40.1601616065
 30
0.0
 11
224.1132051262
 21
40.0984110932
 31
0.0
  0
OLE2FRAME
  5
2FD
330
1F
100
AcDbEntity
  8
0
100
AcDbOle2Frame
 70
     2
  3
Paintbrush-Bild
 10
13.8511154363
 20
38.264191557
 30
0.0
 11
51.6290888628
 21
31.9806341108
 31
0.0
 71
     2
 72
     0
 73
     1
 90
    12928
310
80552BED0767C5B32B40DDAF6807D121434000000000000000006FFBDDFB85D0
310
4940DDAF6807D121434000000000000000006FFBDDFB85D04940416F4BD60AFB
310
3F4000000000000000002BED0767C5B32B40416F4BD60AFB3F40000000000000
310
0000000000000100000000010000010000000100000000000100000000320000
310
D0CF11E0A1B11AE1000000000000000000000000000000003E000300FEFF0900
310
0600000000000000000000000100000001000000000000000010000002000000
310
01000000FEFFFFFF0000000000000000FFFFFFFFFFFFFFFFFFFFFFFFFFFFFFFF
310
FFFFFFFFFFFFFFFFFFFFFFFFFFFFFFFFFFFFFFFFFFFFFFFFFFFFFFFFFFFFFFFF
310
FFFFFFFFFFFFFFFFFFFFFFFFFFFFFFFFFFFFFFFFFFFFFFFFFFFFFFFFFFFFFFFF
310
FFFFFFFFFFFFFFFFFFFFFFFFFFFFFFFFFFFFFFFFFFFFFFFFFFFFFFFFFFFFFFFF
310
FFFFFFFFFFFFFFFFFFFFFFFFFFFFFFFFFFFFFFFFFFFFFFFFFFFFFFFFFFFFFFFF
310
FFFFFFFFFFFFFFFFFFFFFFFFFFFFFFFFFFFFFFFFFFFFFFFFFFFFFFFFFFFFFFFF
310
FFFFFFFFFFFFFFFFFFFFFFFFFFFFFFFFFFFFFFFFFFFFFFFFFFFFFFFFFFFFFFFF
310
FFFFFFFFFFFFFFFFFFFFFFFFFFFFFFFFFFFFFFFFFFFFFFFFFFFFFFFFFFFFFFFF
310
FFFFFFFFFFFFFFFFFFFFFFFFFFFFFFFFFFFFFFFFFFFFFFFFFFFFFFFFFFFFFFFF
310
FFFFFFFFFFFFFFFFFFFFFFFFFFFFFFFFFFFFFFFFFFFFFFFFFFFFFFFFFFFFFFFF
310
FFFFFFFFFFFFFFFFFFFFFFFFFFFFFFFFFFFFFFFFFFFFFFFFFFFFFFFFFFFFFFFF
310
FFFFFFFFFFFFFFFFFFFFFFFFFFFFFFFFFFFFFFFFFFFFFFFFFFFFFFFFFFFFFFFF
310
FFFFFFFFFFFFFFFFFFFFFFFFFFFFFFFFFFFFFFFFFFFFFFFFFFFFFFFFFFFFFFFF
310
FFFFFFFFFFFFFFFFFFFFFFFFFFFFFFFFFFFFFFFFFFFFFFFFFFFFFFFFFFFFFFFF
310
FDFFFFFFFEFFFFFFFEFFFFFFFEFFFFFF05000000060000000700000008000000
310
090000000A0000000B0000000C0000000D0000000E0000000F00000010000000
310
11000000120000001300000014000000150000001600000017000000FEFFFFFF
310
FFFFFFFFFFFFFFFFFFFFFFFFFFFFFFFFFFFFFFFFFFFFFFFFFFFFFFFFFFFFFFFF
310
FFFFFFFFFFFFFFFFFFFFFFFFFFFFFFFFFFFFFFFFFFFFFFFFFFFFFFFFFFFFFFFF
310
FFFFFFFFFFFFFFFFFFFFFFFFFFFFFFFFFFFFFFFFFFFFFFFFFFFFFFFFFFFFFFFF
310
FFFFFFFFFFFFFFFFFFFFFFFFFFFFFFFFFFFFFFFFFFFFFFFFFFFFFFFFFFFFFFFF
310
FFFFFFFFFFFFFFFFFFFFFFFFFFFFFFFFFFFFFFFFFFFFFFFFFFFFFFFFFFFFFFFF
310
FFFFFFFFFFFFFFFFFFFFFFFFFFFFFFFFFFFFFFFFFFFFFFFFFFFFFFFFFFFFFFFF
310
FFFFFFFFFFFFFFFFFFFFFFFFFFFFFFFFFFFFFFFFFFFFFFFFFFFFFFFFFFFFFFFF
310
FFFFFFFFFFFFFFFFFFFFFFFFFFFFFFFFFFFFFFFFFFFFFFFFFFFFFFFFFFFFFFFF
310
FFFFFFFFFFFFFFFFFFFFFFFFFFFFFFFFFFFFFFFFFFFFFFFFFFFFFFFFFFFFFFFF
310
FFFFFFFFFFFFFFFFFFFFFFFFFFFFFFFFFFFFFFFFFFFFFFFFFFFFFFFFFFFFFFFF
310
FFFFFFFFFFFFFFFFFFFFFFFFFFFFFFFFFFFFFFFFFFFFFFFFFFFFFFFFFFFFFFFF
310
FFFFFFFFFFFFFFFFFFFFFFFFFFFFFFFFFFFFFFFFFFFFFFFFFFFFFFFFFFFFFFFF
310
FFFFFFFFFFFFFFFFFFFFFFFFFFFFFFFFFFFFFFFFFFFFFFFFFFFFFFFFFFFFFFFF
310
52006F006F007400200045006E00740072007900000000000000000000000000
310
0000000000000000000000000000000000000000000000000000000000000000
310
16000500FFFFFFFFFFFFFFFF020000000A00030000000000C000000000000046
310
000000000000000000000000802F8E9EADA5D30103000000C000000000000000
310
01004F006C006500000000000000000000000000000000000000000000000000
310
0000000000000000000000000000000000000000000000000000000000000000
310
0A000200FFFFFFFFFFFFFFFFFFFFFFFF00000000000000000000000000000000
310
0000000000000000000000000000000000000000000000001400000000000000
310
010043006F006D0070004F0062006A0000000000000000000000000000000000
310
0000000000000000000000000000000000000000000000000000000000000000
310
120002010100000003000000FFFFFFFF00000000000000000000000000000000
310
0000000000000000000000000000000000000000010000004D00000000000000
310
01004F006C006500310030004E00610074006900760065000000000000000000
310
0000000000000000000000000000000000000000000000000000000000000000
310
1A000200FFFFFFFFFFFFFFFFFFFFFFFF00000000000000000000000000000000
310
0000000000000000000000000000000000000000040000002426000000000000
310
FEFFFFFF02000000FEFFFFFFFFFFFFFFFFFFFFFFFFFFFFFFFFFFFFFFFFFFFFFF
310
FFFFFFFFFFFFFFFFFFFFFFFFFFFFFFFFFFFFFFFFFFFFFFFFFFFFFFFFFFFFFFFF
310
FFFFFFFFFFFFFFFFFFFFFFFFFFFFFFFFFFFFFFFFFFFFFFFFFFFFFFFFFFFFFFFF
310
FFFFFFFFFFFFFFFFFFFFFFFFFFFFFFFFFFFFFFFFFFFFFFFFFFFFFFFFFFFFFFFF
310
FFFFFFFFFFFFFFFFFFFFFFFFFFFFFFFFFFFFFFFFFFFFFFFFFFFFFFFFFFFFFFFF
310
FFFFFFFFFFFFFFFFFFFFFFFFFFFFFFFFFFFFFFFFFFFFFFFFFFFFFFFFFFFFFFFF
310
FFFFFFFFFFFFFFFFFFFFFFFFFFFFFFFFFFFFFFFFFFFFFFFFFFFFFFFFFFFFFFFF
310
FFFFFFFFFFFFFFFFFFFFFFFFFFFFFFFFFFFFFFFFFFFFFFFFFFFFFFFFFFFFFFFF
310
FFFFFFFFFFFFFFFFFFFFFFFFFFFFFFFFFFFFFFFFFFFFFFFFFFFFFFFFFFFFFFFF
310
FFFFFFFFFFFFFFFFFFFFFFFFFFFFFFFFFFFFFFFFFFFFFFFFFFFFFFFFFFFFFFFF
310
FFFFFFFFFFFFFFFFFFFFFFFFFFFFFFFFFFFFFFFFFFFFFFFFFFFFFFFFFFFFFFFF
310
FFFFFFFFFFFFFFFFFFFFFFFFFFFFFFFFFFFFFFFFFFFFFFFFFFFFFFFFFFFFFFFF
310
FFFFFFFFFFFFFFFFFFFFFFFFFFFFFFFFFFFFFFFFFFFFFFFFFFFFFFFFFFFFFFFF
310
FFFFFFFFFFFFFFFFFFFFFFFFFFFFFFFFFFFFFFFFFFFFFFFFFFFFFFFFFFFFFFFF
310
FFFFFFFFFFFFFFFFFFFFFFFFFFFFFFFFFFFFFFFFFFFFFFFFFFFFFFFFFFFFFFFF
310
FFFFFFFFFFFFFFFFFFFFFFFFFFFFFFFFFFFFFFFFFFFFFFFFFFFFFFFFFFFFFFFF
310
0100000200000000000000000000000000000000000000000000000000000000
310
0000000000000000000000000000000000000000000000000000000000000000
310
0100FEFF030A0000FFFFFFFF0A00030000000000C00000000000004607000000
310
5042727573680007000000504272757368000700000050427275736800F439B2
310
7100000000000000000000000000000000000000000000000000000000000000
310
0000000000000000000000000000000000000000000000000000000000000000
310
0000000000000000000000000000000000000000000000000000000000000000
310
0000000000000000000000000000000000000000000000000000000000000000
310
0000000000000000000000000000000000000000000000000000000000000000
310
0000000000000000000000000000000000000000000000000000000000000000
310
0000000000000000000000000000000000000000000000000000000000000000
310
0000000000000000000000000000000000000000000000000000000000000000
310
0000000000000000000000000000000000000000000000000000000000000000
310
0000000000000000000000000000000000000000000000000000000000000000
310
0000000000000000000000000000000000000000000000000000000000000000
310
0000000000000000000000000000000000000000000000000000000000000000
310
20260000424D0E260000000000003E00000028000000B40200006E0000000100
310
01000000000000000000130B0000130B00000200000002000000000000FFFFFF
310
FFFFFFFFFFFFFFFFFFFFFFFFFFFFFFFFFFFFFFFFFFFFFFFFFFFFFFFFFFFFFFFF
310
FFFFFFFFFFFFFFFFFFFFFFFFFFFFFFFFFFFFFFFFFFFFFFFFFFFFFFFFFFFFFFFF
310
FFFFFFFFFFFFFFFFFFFFFFFFFFFFFFFFFFFFFFFFFFFFFFFFF000FFFFFFFFFFFF
310
FFFFFFFFFFFFFFFFFFFFFFFFFFFFFFFFFFFFFFFFFFFFFFFFFFFFFFFFFFFFFFFF
310
FFFFFFFFFFFFFFFFFFFFFFFFFFFFFFFFFFFFFFFFFFFFFFFFFFFFFFFFFFFFFFFF
310
FFFFFFFFFFFFFFFFFFFFFFFFFFFFFFFFF000FFFFFFFFFFFFFFFFFFFFFFFFFFFF
310
FFFFFFFFFFFFFFFFFFFFFFFFFFFFFFFFFFFFFFFFFFFFFFFFFFFFFFFFFFFFFFFF
310
FFFFFFFFFFFFFFFFFFFFFFFFFFFFFFFFFFFFFFFFFFFFFFFFFFFFFFFFFFFFFFFF
310
FFFFFFFFFFFFFFFFF000FFFFFFFFFFFFFFFFFFFFFFFFFFFFFFFFFFFFFFFFFFFF
310
FFFFFFFFFFFFFFFFFFFFFFFFFFFFFFFFFFFFFFFFFFFFFFFFFFFFFFFFFFFFFFFF
310
FFFFFFFFFFFFFFFFFFFFFFFFFFFFFFFFFFFFFFFFFFFFFFFFFFFFFFFFFFFFFFFF
310
F000FFFFFFFFFFFFFFFFFFFFFFFFFFFFFFFFFFFFFFFFFFFFFFFFFFFFFFFFFFFF
310
FFFFFFFFFFFFFFFFFFFFFFFFFFFFFFFFFFFFFFFFFFFFFFFFFFFFFFFFFFFFFFFF
310
FFFFFFFFFFFFFFFFFFFFFFFFFFFFFFFFFFFFFFFFFFFFFFFFF000FFFFFFFFFFFF
310
FFFFFFFFFFFFFFFFFFFFFFFFFFFFFFFFFFFFFFFFFFFFFFFFFFFFFFFFFFFFFFFF
310
FFFFFFFFFFFFFFFFFFFFFFFFFFFFFFFFFFFFFFFFFFFFFFFFFFFFFFFFFFFFFFFF
310
FFFFFFFFFFFFFFFFFFFFFFFFFFFFFFFFF000FFFFFFFFFFFFFFFFFFFFFFFFFFFF
310
FFFFFFFFFFFFFFFFFFFFFFFFFFFFFFFFFFFFFFFFFFFFFFFFFFFFFFFFFFFFFFFF
310
FFFFFFFFFFFFFFFFFFFFFFFFFFFFFFFFFFFFFFFFFFFFFFFFFFFFFFFFFFFFFFFF
310
FFFFFFFFFFFFFFFFF000FFFFFFFFFFFFFFFFFFFFFFFFFFFFFFFFFFFFFFFFFFFF
310
FFFFFFFFFFFFFFFFFFFFFFFFFFFFFFFFFFFFFFFFFFFFFFFFFFFFFFFFFFFFFFFF
310
FFFFFFFFFFFFFFFFFFFFFFFFFFFFFFFFFFFFFFFFFFFFFFFFFFFFFFFFFFFFFFFF
310
F000FFFFFFFFFFFFFFFFFFFFFFFFFFFFFFFFFFFFFFFFFFFFFFFFFFFFFFFFFFFF
310
FFFFFFFFFFFFFFFFFFFFFFFFFFFFFFFFFFFFFFFFFFFFFFFFFFFFFFFFFFFFFFFF
310
FFFFFFFFFFFFFFFFFFFFFFFFFFFFFFFFFFFFFFFFFFFFFFFFF000FFFFFFFFFFFF
310
FFFFFFFFFFFFFFFFFFFFFFFFFFFFFFFFFFFFFFFFFFFFFFFFFFFFFFFFFFFFFFFF
310
FFFFFFFFFFFFFFFFFFFFFFFFFFFFFFFFFFFFFFFFFFFFFFFFFFFFFFFFFFFFFFFF
310
FFFFFFFFFFFFFFFFFFFFFFFFFFFFFFFFF000FFFFFFFFFFFFFFFFFFFFFFFFFFFF
310
FFFFFFFFFFFFFFFFFFFFFFFFFFFFFFFFFFFFFFFFFFFFFFFFFFFFFFFFFFFFFFFF
310
FFFFFFFFFFFFFFFFFFFFFFFFFFFFFFFFFFFFFFFFFFFFFFFFFFFFFFFFFFFFFFFF
310
FFFFFFFFFFFFFFFFF000FFFFFFFFFFFFFFFFFFFFFFFFFFFFFFFFFFFFFFFFFFFF
310
FFFFFFFFFFFFFFFFFFFFFFFFFFFFFFFFFFFFFFFFFFFFFFFFFFFFFFFFFFFFFFFF
310
FFFFFFFFFFFFFFFFFFFFFFFFFFFFFFFFFFFFFFFFFFFFFFFFFFFFFFFFFFFFFFFF
310
F000FFFFFFFFFFFFFFFFFFFFFFFFFFFFFFFFFFFFFFFFFFFFFFFFFFFFFFFFFFFF
310
FFFFFFFFFFFFFFFFFFFFFFFFFFFFFFFFFFFFFFFFFFFFFFFFFFFFFFFFFFFFFFFF
310
FFFFFFFFFFFFFFFFFFFFFFFFFFFFFFFFFFFFFFFFFFFFFFFFF000FFFFFFFFFFFF
310
FFFFFFFFFFFFFFFFFFFFFFFFFFFFFFFFFFFFFFFFFFFFFFFFFFFFFFFFFFFFFFFF
310
FFFFFFFFFFFFFFFFFFFFFFFFFFFFFFFFFFFFFFFFFFFFFFFFFFFFFFFFFFFFFFFF
310
FFFFFFFFFFFFFFFFFFFFFFFFFFFFFFFFF000FFFFFFFFFFFFFFFFFFFFFFFFFFFF
310
FFFFFFFFFFFFFFFFFFFFFFFFFFFFFFFFFFFFFFFFFFFFFFFFFFFFFFFFFFFFFFFF
310
FFFFFFFFFFFFFFFFFFFFFFFFFFFFFFFFFFFFFFFFFFFFFFFFFFFFFFFFFFFFFFFF
310
FFFFFFFFFFFFFFFFF000FFFFFFFFFFFFFFFFFFFFFFFFFFFFFFFFFFFFFFFFFFFF
310
FFFFFFFFFFFFFFFFFFFFFFFFFFFFFFFFFFFFFFFFFFFFFFFFFFFFFFFFFFFFFFFF
310
FFFFFFFFFFFFFFFFFFFFFFFFFFFFFFFFFFFFFFFFFFFFFFFFFFFFFFFFFFFFFFFF
310
F000FFFFFFFFFFFFFFFFFFFFFFFFFFFFFFFFFFFFFFFFFFFFFFFFFFFFFFFFFFFF
310
FFFFFFFFFFFFFFFFFFFFFFFFFFFFFFFFFFFFFFFFFFFFFFFFFFFFFFFFFFFFFFFF
310
FFFFFFFFFFFFFFFFFFFFFFFFFFFFFFFFFFFFFFFFFFFFFFFFF000FFFFFFFFFFFF
310
FFFFFFFFFFFFFFFFFFFFFFFFFFFFFFFFFFFFFFFFFFFFFFFFFFFFFFFFFFFFFFFF
310
FFFFFFFFFFFFFFFFFFFFFFFFFFFFFFFFFFFFFFFFFFFFFFFFFFFFFFFFFFFFFFFF
310
FFFFFFFFFFFFFFFFFFFFFFFFFFFFFFFFF000FFFFFFFFFFFFFFFFFFFFFFFFFFFF
310
FFFFFFFFFFFFFFFFFFFFFFFFFFFFFFFFFFFFFFFFFFFFFFFFFFFFFFFFFFFFFFFF
310
FFFFFFFFFFFFFFFFFFFFFFFFFFFFFFFFFFFFFFFFFFFFFFFFFFFFFFFFFFFFFFFF
310
FFFFFFFFFFFFFFFFF000FFFFF80003FFFFFFFFFFFFFFFFFFFFFFFFFFFFFFFFFF
310
FFFFF00007FFFFFFFFFF00007FFFFFF800000000000000007FFFFFFFFFFFFFFF
310
FFFFFFFC001FFFFFFFFFFFFFFC001FFFFFFFFFFFFFFFFFFFFFFFFFFE0007FFFF
310
F000FFFF8000007FFFFFFFF8000FFFFFC0007FFFFF80007FFFFF0000007FFFFF
310
FFF8000007FFFFF800000000000000007FFFFFF0001FFFFFFFFFFFC00001FFFF
310
FFFFFFFFC00001FFFFFFFF000000000003FFFFE000007FFFF000FFFE0000000F
310
FFFFFFF0000FFFFF80007FFFFF80007FFFFC0000001FFFFFFFC0000001FFFFF8
310
00000000000000007FFFFFF0001FFFFFFFFFFE0000003FFFFFFFFFFE0000003F
310
FFFFFF000000000003FFFF0000000FFFF000FFF800000003FFFFFFF00007FFFF
310
80007FFFFF80007FFFF000000007FFFFFF000000003FFFF80000000000000000
310
7FFFFFF0001FFFFFFFFFF80000000FFFFFFFFFF80000000FFFFFFF0000000000
310
03FFFC00000003FFF000FFE000000000FFFFFFF00007FFFF80003FFFFF80007F
310
FFC000000001FFFFFC000000001FFFF800000000000000007FFFFFF0001FFFFF
310
FFFFE000000003FFFFFFFFE000000003FFFFFF000000000003FFF000000000FF
310
F000FF80000000007FFFFFF00007FFFF80003FFFFF80007FFF8000000000FFFF
310
F80000000007FFF800000000000000007FFFFFF0001FFFFFFFFFC000000001FF
310
FFFFFFC000000001FFFFFF000000000003FFC0000000007FF000FF0000000000
310
3FFFFFE00007FFFF00003FFFFF80007FFE00000000003FFFF00000000003FFF8
310
00000000000000007FFFFFF0001FFFFFFFFF8000000000FFFFFFFF8000000000
310
FFFFFF000000000003FF80000000003FF000FE00000000001FFFFFE00003FFFF
310
00003FFFFF80007FFC00000000001FFFE00000000001FFF8000001FFFE000000
310
7FFFFFF0001FFFFFFFFE00000000003FFFFFFE00000000003FFFFF0000000000
310
03FF00000000001FF000FC00000000000FFFFFE00003FFFF00001FFFFF80007F
310
F800000000001FFFC00000000000FFF8000001FFFE0000007FFFFFF0001FFFFF
310
FFFC00000000001FFFFFFC00000000001FFFFF000000000003FE00000000000F
310
F000F8000000000007FFFFE00003FFFF00001FFFFF80007FF800000000000FFF
310
800000000000FFF8000001FFFE0000007FFFFFF0001FFFFFFFF800000000000F
310
FFFFF800000000000FFFFF000000000003FC000000000007F000F80000000000
310
03FFFFC00003FFFE00001FFFFF80007FF0000000000007FF0000000000007FF8
310
000001FFFE0000007FFFFFF0001FFFFFFFF0000000000007FFFFF00000000000
310
07FFFF000000000003F8000000000003F000F0000000000003FFFFC00001FFFE
310
00001FFFFF80007FE0000000000007FE0000000000003FF8000001FFFE000000
310
7FFFFFF0001FFFFFFFF0000000000007FFFFF0000000000007FFFF0000000000
310
03F800001F800003F000E00001FFF00001FFFFC00001FFFE00000FFFFF80007F
310
E00001FFE00003FE00001FFF00003FF8000001FFFE0000007FFFFFF0001FFFFF
310
FFE000003E000003FFFFE000003E000003FFFF000000000003F00001FFF80001
310
F000E00007FFFC0001FFFFC00001FFFE00000FFFFF80007FC0000FFFFC0003FC
310
0000FFFFC0001FF8000001FFFE0000007FFFFFF0001FFFFFFFC00003FFE00001
310
FFFFC00003FFE00001FFFF0001FFFFFFFFF00007FFFE0001F000E0000FFFFF00
310
00FFFF800001FFFC00000FFFFF80007FC0001FFFFE0001FC0001FFFFE0001FF8
310
000001FFFE0000007FFFFFF0001FFFFFFF80000FFFF80000FFFF80000FFFF800
310
00FFFF0003FFFFFFFFE0000FFFFF8000F000C0003FFFFF8000FFFF800000FFFC
310
000007FFFF80007F80003FFFFF0001FC0003FFFFF0001FF8000001FFFE000000
310
7FFFFFF0001FFFFFFF80003FFFFE0000FFFF80003FFFFE0000FFFF0003FFFFFF
310
FFE0003FFFFF8000F000C0003FFFFF8000FFFF800000FFFC000007FFFF80007F
310
80007FFFFF8001F80007FFFFF8000FF8000001FFFE0000007FFFFFF0001FFFFF
310
FF00007FFFFF00007FFF00007FFFFF00007FFF0003FFFFFFFFE0003FFFFFC000
310
F000C0007FFFFFC000FFFF000000FFFC000007FFFF80007F8000FFFFFF8000F8
310
000FFFFFF8000FF8000001FFFE0000007FFFFFF0001FFFFFFF0000FFFFFF8000
310
7FFF0000FFFFFF80007FFF0003FFFFFFFFC0007FFFFFC00070008000FFFFFFC0
310
00FFFF000000FFF8000007FFFF80007F8000FFFFFF8000F8000FFFFFF8000FF8
310
000001FFFE0000007FFFFFF0001FFFFFFE0001FFFFFFC0003FFE0001FFFFFFC0
310
003FFF0003FFFFFFFFC0007FFFFFE00070008000FFFFFFC0007FFF0000007FF8
310
000003FFFF80007F0001FFFFFF8000F8000FFFFFF8000FF8000001FFFE000000
310
7FFFFFF0001FFFFFFE0001FFFFFFC0003FFE0001FFFFFFC0003FFF0003FFFFFF
310
FFC000FFFFFFE00070008000FFFFFFC0007FFF0000007FF8000003FFFF80007F
310
0001FFFFFF8000F8001FFFFFF8000FF8000001FFFE0000007FFFFFF0001FFFFF
310
FE0003FFFFFFE0003FFE0003FFFFFFE0003FFF0003FFFFFFFFC000FFFFFFE000
310
70008000FFFFFFC0007FFE0000007FF8000003FFFF80007F0001FFFFFF8000F0
310
001FFFFFF8000FF8000001FFFE0000007FFFFFF0001FFFFFFC0003FFFFFFE000
310
1FFC0003FFFFFFE0001FFF0003FFFFFFFFC000FFFFFFC00070008000FFFFFF80
310
007FFE0000007FF0000003FFFF80007F0001FFFFFF0000F0001FFFFFF8000FF8
310
000001FFFE0000007FFFFFF0001FFFFFFC0007FFFFFFF0001FFC0007FFFFFFF0
310
001FFF0003FFFFFFFFC000FFFFFFC00070008001FFFFFF0000FFFE0000003FF0
310
000001FFFF80007F0001FFFFFF0000F8001FFFFFF0000FF8000001FFFE000000
310
7FFFFFF0001FFFFFFC0007FFFFFFF0001FFC0007FFFFFFF0001FFF0003FFFFFF
310
FFC001FFFFFF80007000FFFFFFFFFE0000FFFE0008003FF0008001FFFF80007F
310
FFFFFFFFFC0000FFFFFFFFFFE0000FF8000001FFFE0000007FFFFFF0001FFFFF
310
F8000FFFFFFFF8000FF8000FFFFFFFF8000FFF0003FFFFFFFFFFFFFFFFFF0000
310
7000FFFFFFFFFC0000FFFC0008003FF0008001FFFF80007FFFFFFFFFF80001FF
310
FFFFFFFF80000FF8000001FFFE0000007FFFFFF0001FFFFFF8000FFFFFFFF800
310
0FF8000FFFFFFFF8000FFF0003FFFFFFFFFFFFFFFFFE0000F000FFFFFFFFE000
310
00FFFC000C003FE000C001FFFF80007FFFFFFFFFC00001FFFFFFFFFE00001FF8
310
000001FFFE0000007FFFFFF0001FFFFFF8000FFFFFFFF8000FF8000FFFFFFFF8
310
000FFF0003FFFFFFFFFFFFFFFFF00000F000FFFFFFFE000001FFFC000C001FE0
310
00C000FFFF80007FFFFFFFFE000001FFFFFFFFE000001FF80FFFFFFFFFFFFFC0
310
7FFFFFF0001FFFFFF8000FFFFFFFF8000FF8000FFFFFFFF8000FFF0003FFFFFF
310
FFFFFFFFFF800000F000FFFFFFC0000001FFFC001C001FE001C000FFFF80007F
310
FFFFFF80000003FFFFFFF80000001FF80FFFFFFFFFFFFFC07FFFFFF0001FFFFF
310
F8001FFFFFFFFC000FF8001FFFFFFFFC000FFF0003FFFFFFFFFFFFFFF0000001
310
F000FFFFF800000001FFF8001C001FE001C000FFFF80007FFFFFF800000003FF
310
FFFF800000003FF80FFFFFFFFFFFFFC07FFFFFF0001FFFFFF8001FFFFFFFFC00
310
0FF8001FFFFFFFFC000FFF0003FFFFFFFFFFFFFE00000001F000FFFFC0000000
310
03FFF8001E001FC001E000FFFF80007FFFFF8000000007FFFFFC000000003FF8
310
0FFFFFFFFFFFFFC07FFFFFF0001FFFFFF8001FFFFFFFFC000FF8001FFFFFFFFC
310
000FFF0003FFFFFFFFFFFFE000000003F000FFFE0000000007FFF8001E000FC0
310
01E0007FFF80007FFFFE0000000007FFFFE0000000007FF80FFFFFFFFFFFFFC0
310
7FFFFFF0001FFFFFF0001FFFFFFFFC0007F0001FFFFFFFFC0007FF0003FFFFFF
310
FFFFFF0000000003F000FFF80000000007FFF8001E000FC003E0007FFF80007F
310
FFF0000000000FFFFF8000000000FFF80FFFFFFFFFFFFFC07FFFFFF0001FFFFF
310
F0001FFFFFFFFC0007F0001FFFFFFFFC0007FF0003FFFFFFFFFFFC0000000007
310
F000FFE0000000000FFFF0003E000FC003E0007FFF80007FFFC0000000001FFF
310
FE0000000001FFF80FFFFFFFFFFFFFC07FFFFFF0001FFFFFF0001FFFFFFFFC00
310
07F0001FFFFFFFFC0007FF0003FFFFFFFFFFF0000000000FF000FFC000000000
310
1FFFF0003F000F8003F0003FFF80007FFF80000000003FFFF80000000003FFF8
310
0FFFFFFFFFFFFFC07FFFFFF0001FFFFFF0001FFFFFFFFC0007F0001FFFFFFFFC
310
0007FF0003FFFFFFFFFFE0000000001FF000FF00000000007FFFF0003F000780
310
03F0003FFF80007FFF00000000007FFFF00000000007FFF80FFFFFFFFFFFFFC0
310
7FFFFFF0001FFFFFF0001FFFFFFFFC0007F0001FFFFFFFFC0007FF0003FFFFFF
310
FFFF80000000007FF000FE0000000000FFFFE0003F00078007F0003FFF80007F
310
FE0000000001FFFFE0000000001FFFF80FFFFFFFFFFFFFC07FFFFFF0001FFFFF
310
F0001FFFFFFFFC0007F0001FFFFFFFFC0007FF0003FFFFFFFFFF0000000000FF
310
F000FC0000000003FFFFE0007F00078007F0003FFF80007FFC0000000007FFFF
310
C0000000007FFFF80FFFFFFFFFFFFFC07FFFFFF0001FFFFFF8001FFFFFFFFC00
310
0FF8001FFFFFFFFC000FFF0003FFFFFFFFFE0000000003FFF000FC000000000F
310
FFFFE0007F80070007F8001FFF80007FF8000000001FFFFF8000000001FFFFF8
310
0FFFFFFFFFFFFFC07FFFFFF0001FFFFFF8001FFFFFFFFC000FF8001FFFFFFFFC
310
000FFF0003FFFFFFFFFC000000000FFFF000F8000000007FFFFFE0007F800700
310
07F8001FFF80007FF000000000FFFFFF800000000FFFFFF80FFFFFFFFFFFFFC0
310
7FFFFFF0001FFFFFF8000FFFFFFFF8000FF8000FFFFFFFF8000FFF0003FFFFFF
310
FFFC000000007FFFF000F800000007FFFFFFC0007F8003000FF8001FFF80007F
310
F000000007FFFFFF000000007FFFFFF80FFFFFFFFFFFFFC07FFFFFF0001FFFFF
310
F8000FFFFFFFF8000FF8000FFFFFFFF8000FFF0003FFFFFFFFF80000000FFFFF
310
F000F0000000FFFFFFFFC000FF8003000FF8001FFF80007FE0000000FFFFFFFF
310
0000000FFFFFFFF8000001FFFE0000007FFFFFF0001FFFFFF8000FFFFFFFF800
310
0FF8000FFFFFFFF8000FFF0003FFFFFFFFF8000000FFFFFFF000F000000FFFFF
310
FFFFC000FFC002000FF8000FFF80007FE000001FFFFFFFFE000001FFFFFFFFF8
310
000001FFFE0000007FFFFFF0001FFFFFF8000FFFFFFFF8000FF8000FFFFFFFF8
310
000FFF0003FFFFFFFFF000001FFFFFFFF000E00000FFFFFFFFFFC000FFC00200
310
0FFC000FFF80007FE00001FFFFFFFFFE00001FFFFFFFFFF8000001FFFE000000
310
7FFFFFF0001FFFFFFC000FFFFFFFF8001FFC000FFFFFFFF8001FFF0003FFFFFF
310
FFF00001FFFFFFFFF000E00007FFFFFFFFFF8000FFC000001FFC000FFF80007F
310
C0000FFFFFFFFFFE0000FFFFFFFFFFF8000001FFFE0000007FFFFFF0001FFFFF
310
FC0007FFFFFFF0001FFC0007FFFFFFF0001FFF0003FFFFFFFFF00007FFFFFFFF
310
F000E0001FFFFFFFFFFF8000FFC000001FFC000FFF80007FC0003FFFFFFFFFFE
310
0001FFFFFFFFFFF8000001FFFE0000007FFFFFF0001FFFFFFC0007FFFFFFF000
310
1FFC0007FFFFFFF0001FFF0003FFFFFFFFF0001FFFFFFFFFF000E0003FFFFF00
310
03FF8001FFE000001FFC0007FF80007FC0007FFFFF0007FC0003FFFFF0003FF8
310
000001FFFE0000007FFFFFF0001FFFFFFC0003FFFFFFE0001FFC0003FFFFFFE0
310
001FFF0003FFFFFFFFF0003FFFFFFFFFF000E0003FFFFF0001FF8001FFE00000
310
1FFE0007FF80007FC0007FFFFE0003FC0007FFFFE0003FF8000001FFFE000000
310
7FFFFFF0001FFFFFFE0003FFFFFFE0003FFE0003FFFFFFE0003FFF0003FFFFFF
310
FFF0003FFFFF8001F000E0003FFFFF0001FF0001FFE000001FFE0007FF80007F
310
C0007FFFFE0003FC0007FFFFE0003FF8000001FFFE0000007FFFFFF0001FFFFF
310
FE0001FFFFFFC0003FFE0001FFFFFFC0003FFF0003FFFFFFFFF0003FFFFF0001
310
F000E0003FFFFF0003FF0001FFE000003FFE0007FF80007FC0007FFFFE0003FC
310
0007FFFFE0003FF8000001FFFE0000007FFFFFF0001FFFFFFF0001FFFFFFC000
310
7FFF0001FFFFFFC0007FFF0003FFFFFFFFF0003FFFFF0001F000E0003FFFFE00
310
03FF0003FFF000003FFE0003FF80007FC0007FFFFC0003FE0007FFFFE0003FF8
310
000001FFFE0000007FFFFFF0001FFFFFFF0000FFFFFF80007FFF0000FFFFFF80
310
007FFF0003FFFFFFFFF0003FFFFF0001F000E0003FFFFE0003FF0003FFF00000
310
3FFF0003FF80007FC0007FFFFC0007FE0007FFFFC0003FF8000001FFFE000000
310
7FFFFFF0001FFFFFFF80007FFFFF0000FFFF80007FFFFF0000FFFF0003FFFFFF
310
FFF0003FFFFF0003F000E0003FFFFC0003FE0003FFF000003FFF0003FF80007F
310
E0003FFFF80007FE0003FFFFC0007FF8000001FFFE0000007FFFFFF0001FFFFF
310
FF80003FFFFE0000FFFF80003FFFFE0000FFFF0003FFFFFFFFF0001FFFFE0003
310
F000F0001FFFF80003FE0003FFF000007FFF0001FF80007FE0003FFFF00007FE
310
0001FFFF80007FF8000001FFFE0000007FFFFFF0001FFFFFFFC0000FFFF80001
310
FFFFC0000FFFF80001FFFF0003FFFFFFFFF0001FFFFC0003F000F0000FFFF000
310
07FE0007FFF800007FFF0001FF80007FE0001FFFE00007FF0000FFFE00007FF8
310
000001FFFE0000007FFFFFF0001FFFFFFFC00003FFE00001FFFFC00003FFE000
310
01FFFF0003FFFFFFFFF8000FFFF80003F000F00003FFC00007FC0007FFF80000
310
7FFF8001FF80007FF00007FF80000FFF00007FF80000FFF8000001FFFE000000
310
7F80000000000001FFE000003E000003FFFFE000003E000003FFFF0003FFFFFF
310
FFF80003FFE00007F000F800000000000FFC0007FFF800007FFF8001FF80007F
310
F000000000000FFF000000000000FFF8000001FFFE0000007F80000000000001
310
FFF0000000000007FFFFF0000000000007FFFF0003FFFFFFFFFC00007E000007
310
F000F800000000000FFC0007FFF80000FFFF8000FF80007FF800000000001FFF
310
800000000001FFF8000001FFFE0000007F80000000000001FFF800000000000F
310
FFFFF800000000000FFFFF0003FFFFFFFFFC00000000000FF000FC0000000000
310
1FFC0007FFFC0000FFFF8000FF80007FF800000000003FFFC00000000001FFF8
310
000001FFFE0000007F80000000000001FFF800000000000FFFFFF80000000000
310
0FFFFF0003FFFFFFFFFE00000000001FF000FE00000000003FF8000FFFFC0000
310
FFFF8000FF80007FFC00000000003FFFC00000000003FFF8000001FFFE000000
310
7F80000000000001FFFC00000000001FFFFFFC00000000001FFFFF0003FFFFFF
310
FFFF00000000001FF000FF00000000003FF8000FFFFC0000FFFFC000FF80007F
310
FE00000000007FFFE00000000007FFF8000001FFFE0000007F80000000000001
310
FFFE00000000003FFFFFFE00000000003FFFFF0003FFFFFFFFFF80000000003F
310
F000FF80000000007FF8000FFFFC0001FFFFC0007F80007FFF0000000000FFFF
310
F0000000000FFFF800000000000000007F80000000000001FFFF8000000000FF
310
FFFFFF8000000000FFFFFF0003FFFFFFFFFFC0000000007FF000FFC000000000
310
FFF8000FFFFE0001FFFFC0007F80007FFF8000000001FFFFF8000000001FFFF8
310
00000000000000007F80000000000001FFFFC000000001FFFFFFFFC000000001
310
FFFFFF0003FFFFFFFFFFE000000000FFF000FFE000000003FFF0001FFFFE0001
310
FFFFC0007F80007FFFC000000007FFFFFE000000003FFFF80000000000000000
310
7F80000000000001FFFFE000000003FFFFFFFFE000000003FFFFFF0003FFFFFF
310
FFFFF000000003FFF000FFF80000000FFFF0001FFFFE0001FFFFE0007F80007F
310
FFF00000000FFFFFFF00000000FFFFF800000000000000007F80000000000001
310
FFFFF80000000FFFFFFFFFF80000000FFFFFFF0003FFFFFFFFFFFC0000000FFF
310
F000FFFE0000003FFFF0001FFFFE0003FFFFE0003F80007FFFFC0000003FFFFF
310
FFC0000003FFFFF800000000000000007F80000000000001FFFFFE0000003FFF
310
FFFFFFFE0000003FFFFFFF0003FFFFFFFFFFFF0000003FFFF000FFFF800000FF
310
FFF0001FFFFF0003FFFFE0003F80007FFFFF000001FFFFFFFFF800001FFFFFF8
310
00000000000000007F80000000000001FFFFFFC00001FFFFFFFFFFFFC00001FF
310
FFFFFF0003FFFFFFFFFFFFC00000FFFFF000FFFFF8000FFFFFFFFFFFFFFFFFFF
310
FFFFFFFFFFFFFFFFFFFFF0001FFFFFFFFFFF0000FFFFFFF80000000000000000
310
7FFFFFFFFFFFFFFFFFFFFFFC001FFFFFFFFFFFFFFC001FFFFFFFFFFFFFFFFFFF
310
FFFFFFFC001FFFFFF000FFFFFFFFFFFFFFFFFFFFFFFFFFFFFFFFFFFFFFFFFFFF
310
FFFFFFFFFFFFFFFFFFFFFFFFFFFFFFFFFFFFFFFFFFFFFFFFFFFFFFFFFFFFFFFF
310
FFFFFFFFFFFFFFFFFFFFFFFFFFFFFFFFFFFFFFFFFFFFFFFFFFFFFFFFFFFFFFFF
310
F000FFFFFFFFFFFFFFFFFFFFFFFFFFFFFFFFFFFFFFFFFFFFFFFFFFFFFFFFFFFF
310
FFFFFFFFFFFFFFFFFFFFFFFFFFFFFFFFFFFFFFFFFFFFFFFFFFFFFFFFFFFFFFFF
310
FFFFFFFFFFFFFFFFFFFFFFFFFFFFFFFFFFFFFFFFFFFFFFFFF000FFFFFFFFFFFF
310
FFFFFFFFFFFFFFFFFFFFFFFFFFFFFFFFFFFFFFFFFFFFFFFFFFFFFFFFFFFFFFFF
310
FFFFFFFFFFFFFFFFFFFFFFFFFFFFFFFFFFFFFFFFFFFFFFFFFFFFFFFFFFFFFFFF
310
FFFFFFFFFFFFFFFFFFFFFFFFFFFFFFFFF000FFFFFFFFFFFFFFFFFFFFFFFFFFFF
310
FFFFFFFFFFFFFFFFFFFFFFFFFFFFFFFFFFFFFFFFFFFFFFFFFFFFFFFFFFFFFFFF
310
FFFFFFFFFFFFFFFFFFFFFFFFFFFFFFFFFFFFFFFFFFFFFFFFFFFFFFFFFFFFFFFF
310
FFFFFFFFFFFFFFFFF000FFFFFFFFFFFFFFFFFFFFFFFFFFFFFFFFFFFFFFFFFFFF
310
FFFFFFFFFFFFFFFFFFFFFFFFFFFFFFFFFFFFFFFFFFFFFFFFFFFFFFFFFFFFFFFF
310
FFFFFFFFFFFFFFFFFFFFFFFFFFFFFFFFFFFFFFFFFFFFFFFFFFFFFFFFFFFFFFFF
310
F000FFFFFFFFFFFFFFFFFFFFFFFFFFFFFFFFFFFFFFFFFFFFFFFFFFFFFFFFFFFF
310
FFFFFFFFFFFFFFFFFFFFFFFFFFFFFFFFFFFFFFFFFFFFFFFFFFFFFFFFFFFFFFFF
310
FFFFFFFFFFFFFFFFFFFFFFFFFFFFFFFFFFFFFFFFFFFFFFFFF000FFFFFFFFFFFF
310
FFFFFFFFFFFFFFFFFFFFFFFFFFFFFFFFFFFFFFFFFFFFFFFFFFFFFFFFFFFFFFFF
310
FFFFFFFFFFFFFFFFFFFFFFFFFFFFFFFFFFFFFFFFFFFFFFFFFFFFFFFFFFFFFFFF
310
FFFFFFFFFFFFFFFFFFFFFFFFFFFFFFFFF000FFFFFFFFFFFFFFFFFFFFFFFFFFFF
310
FFFFFFFFFFFFFFFFFFFFFFFFFFFFFFFFFFFFFFFFFFFFFFFFFFFFFFFFFFFFFFFF
310
FFFFFFFFFFFFFFFFFFFFFFFFFFFFFFFFFFFFFFFFFFFFFFFFFFFFFFFFFFFFFFFF
310
FFFFFFFFFFFFFFFFF000FFFFFFFFFFFFFFFFFFFFFFFFFFFFFFFFFFFFFFFFFFFF
310
FFFFFFFFFFFFFFFFFFFFFFFFFFFFFFFFFFFFFFFFFFFFFFFFFFFFFFFFFFFFFFFF
310
FFFFFFFFFFFFFFFFFFFFFFFFFFFFFFFFFFFFFFFFFFFFFFFFFFFFFFFFFFFFFFFF
310
F000FFFFFFFFFFFFFFFFFFFFFFFFFFFFFFFFFFFFFFFFFFFFFFFFFFFFFFFFFFFF
310
FFFFFFFFFFFFFFFFFFFFFFFFFFFFFFFFFFFFFFFFFFFFFFFFFFFFFFFFFFFFFFFF
310
FFFFFFFFFFFFFFFFFFFFFFFFFFFFFFFFFFFFFFFFFFFFFFFFF000FFFFFFFFFFFF
310
FFFFFFFFFFFFFFFFFFFFFFFFFFFFFFFFFFFFFFFFFFFFFFFFFFFFFFFFFFFFFFFF
310
FFFFFFFFFFFFFFFFFFFFFFFFFFFFFFFFFFFFFFFFFFFFFFFFFFFFFFFFFFFFFFFF
310
FFFFFFFFFFFFFFFFFFFFFFFFFFFFFFFFF000FFFFFFFFFFFFFFFFFFFFFFFFFFFF
310
FFFFFFFFFFFFFFFFFFFFFFFFFFFFFFFFFFFFFFFFFFFFFFFFFFFFFFFFFFFFFFFF
310
FFFFFFFFFFFFFFFFFFFFFFFFFFFFFFFFFFFFFFFFFFFFFFFFFFFFFFFFFFFFFFFF
310
FFFFFFFFFFFFFFFFF000FFFFFFFFFFFFFFFFFFFFFFFFFFFFFFFFFFFFFFFFFFFF
310
FFFFFFFFFFFFFFFFFFFFFFFFFFFFFFFFFFFFFFFFFFFFFFFFFFFFFFFFFFFFFFFF
310
FFFFFFFFFFFFFFFFFFFFFFFFFFFFFFFFFFFFFFFFFFFFFFFFFFFFFFFFFFFFFFFF
310
F000FFFFFFFFFFFFFFFFFFFFFFFFFFFFFFFFFFFFFFFFFFFFFFFFFFFFFFFFFFFF
310
FFFFFFFFFFFFFFFFFFFFFFFFFFFFFFFFFFFFFFFFFFFFFFFFFFFFFFFFFFFFFFFF
310
FFFFFFFFFFFFFFFFFFFFFFFFFFFFFFFFFFFFFFFFFFFFFFFFF000FFFFFFFFFFFF
310
FFFFFFFFFFFFFFFFFFFFFFFFFFFFFFFFFFFFFFFFFFFFFFFFFFFFFFFFFFFFFFFF
310
FFFFFFFFFFFFFFFFFFFFFFFFFFFFFFFFFFFFFFFFFFFFFFFFFFFFFFFFFFFFFFFF
310
FFFFFFFFFFFFFFFFFFFFFFFFFFFFFFFFF000FFFFFFFFFFFFFFFFFFFFFFFFFFFF
310
FFFFFFFFFFFFFFFFFFFFFFFFFFFFFFFFFFFFFFFFFFFFFFFFFFFFFFFFFFFFFFFF
310
FFFFFFFFFFFFFFFFFFFFFFFFFFFFFFFFFFFFFFFFFFFFFFFFFFFFFFFFFFFFFFFF
310
FFFFFFFFFFFFFFFFF000FFFFFFFFFFFFFFFFFFFFFFFFFFFFFFFFFFFFFFFFFFFF
310
FFFFFFFFFFFFFFFFFFFFFFFFFFFFFFFFFFFFFFFFFFFFFFFFFFFFFFFFFFFFFFFF
310
FFFFFFFFFFFFFFFFFFFFFFFFFFFFFFFFFFFFFFFFFFFFFFFFFFFFFFFFFFFFFFFF
310
F000FFFFFFFFFFFFFFFFFFFFFFFFFFFFFFFFFFFFFFFFFFFFFFFFFFFFFFFFFFFF
310
FFFFFFFFFFFFFFFFFFFFFFFFFFFFFFFFFFFFFFFFFFFFFFFFFFFFFFFFFFFFFFFF
310
FFFFFFFFFFFFFFFFFFFFFFFFFFFFFFFFFFFFFFFFFFFFFFFFF000FFFFFFFFFFFF
310
FFFFFFFFFFFFFFFFFFFFFFFFFFFFFFFFFFFFFFFFFFFFFFFFFFFFFFFFFFFFFFFF
310
FFFFFFFFFFFFFFFFFFFFFFFFFFFFFFFFFFFFFFFFFFFFFFFFFFFFFFFFFFFFFFFF
310
FFFFFFFFFFFFFFFFFFFFFFFFFFFFFFFFF000FFFFFFFFFFFFFFFFFFFFFFFFFFFF
310
FFFFFFFFFFFFFFFFFFFFFFFFFFFFFFFFFFFFFFFFFFFFFFFFFFFFFFFFFFFFFFFF
310
FFFFFFFFFFFFFFFFFFFFFFFFFFFFFFFFFFFFFFFFFFFFFFFFFFFFFFFFFFFFFFFF
310
FFFFFFFFFFFFFFFFF000FFFFFFFFFFFFFFFFFFFFFFFFFFFFFFFFFFFFFFFFFFFF
310
FFFFFFFFFFFFFFFFFFFFFFFFFFFFFFFFFFFFFFFFFFFFFFFFFFFFFFFFFFFFFFFF
310
FFFFFFFFFFFFFFFFFFFFFFFFFFFFFFFFFFFFFFFFFFFFFFFFFFFFFFFFFFFFFFFF
310
F000FFFFFFFFFFFFFFFFFFFFFFFFFFFFFFFFFFFFFFFFFFFFFFFFFFFFFFFFFFFF
310
FFFFFFFFFFFFFFFFFFFFFFFFFFFFFFFFFFFFFFFFFFFFFFFFFFFFFFFFFFFFFFFF
310
FFFFFFFFFFFFFFFFFFFFFFFFFFFFFFFFFFFFFFFFFFFFFFFFF000FFFFFFFFFFFF
310
FFFFFFFFFFFFFFFFFFFFFFFFFFFFFFFFFFFFFFFFFFFFFFFFFFFFFFFFFFFFFFFF
310
FFFFFFFFFFFFFFFFFFFFFFFFFFFFFFFFFFFFFFFFFFFFFFFFFFFFFFFFFFFFFFFF
310
FFFFFFFFFFFFFFFFFFFFFFFFFFFFFFFFF0000000000000000000000000000000
310
0000000000000000000000000000000000000000000000000000000000000000
310
0000000000000000000000000000000000000000000000000000000000000000
310
0000000000000000000000000000000000000000000000000000000000000000
310
0000000000000000000000000000000000000000000000000000000000000000
310
0000000000000000000000000000000000000000000000000000000000000000
310
0000000000000000000000000000000000000000000000000000000000000000
310
0000000000000000000000000000000000000000000000000000000000000000
310
0000000000000000000000000000000000000000000000000000000000000000
310
0000000000000000000000000000000000000000000000000000000000000000
310
0000000000000000000000000000000000000000000000000000000000000000
310
0000000000000000000000000000000000000000000000000000000000000000
310
0000000000000000000000000000000000000000000000000000000000000000
310
0000000000000000000000000000000000000000000000000000000000000000
310
0000000000000000000000000000000000000000000000000000000000000000
310
0000000000000000000000000000000000000000000000000000000000000000
  1
OLE
  0
ENDSEC
  0
SECTION
  2
OBJECTS
  0
DICTIONARY
  5
C
330
0
100
AcDbDictionary
281
     1
  3
ACAD_GROUP
350
D
  3
ACAD_LAYOUT
350
1A
  3
ACAD_MLINESTYLE
350
17
  3
ACAD_PLOTSETTINGS
350
19
  3
ACAD_PLOTSTYLENAME
350
E
  3
ACAD_SCALELIST
350
47
  0
DICTIONARY
  5
D
102
{ACAD_REACTORS
330
C
102
}
330
C
100
AcDbDictionary
281
     1
  0
DICTIONARY
  5
1A
102
{ACAD_REACTORS
330
C
102
}
330
C
100
AcDbDictionary
281
     1
  3
Layout1
350
1E
  3
Layout2
350
26
  3
Model
350
22
  0
DICTIONARY
  5
17
102
{ACAD_REACTORS
330
C
102
}
330
C
100
AcDbDictionary
281
     1
  3
Standard
350
18
  0
DICTIONARY
  5
19
102
{ACAD_REACTORS
330
C
102
}
330
C
100
AcDbDictionary
281
     1
  0
ACDBDICTIONARYWDFLT
  5
E
102
{ACAD_REACTORS
330
C
102
}
330
C
100
AcDbDictionary
281
     1
  3
Normal
350
F
100
AcDbDictionaryWithDefault
340
F
  0
DICTIONARY
  5
47
102
{ACAD_REACTORS
330
C
102
}
330
C
100
AcDbDictionary
281
     1
  3
A0
350
48
  3
A1
350
49
  3
A2
350
4A
  3
A3
350
4B
  3
A4
350
4C
  3
A5
350
4D
  3
A6
350
4E
  3
A7
350
4F
  3
A8
350
50
  3
A9
350
51
  3
B0
350
52
  3
B1
350
53
  3
B2
350
54
  3
B3
350
55
  3
B4
350
56
  3
B5
350
57
  3
B6
350
58
  3
B7
350
59
  3
B8
350
5A
  3
B9
350
5B
  3
C0
350
5C
  3
C1
350
5D
  3
C2
350
5E
  3
C3
350
5F
  3
C4
350
60
  3
C5
350
61
  3
C6
350
62
  3
C7
350
63
  3
C8
350
64
  3
C9
350
65
  3
D0
350
66
  3
D1
350
67
  3
D2
350
68
  0
LAYOUT
  5
1E
102
{ACAD_REACTORS
330
1A
102
}
330
1A
100
AcDbPlotSettings
  1

  2
none_device
  4

  6

 40
0.0
 41
0.0
 42
0.0
 43
0.0
 44
0.0
 45
0.0
 46
0.0
 47
0.0
 48
0.0
 49
0.0
140
0.0
141
0.0
142
1.0
143
1.0
 70
   688
 72
     1
 73
     0
 74
     5
  7

 75
    16
147
1.0
148
0.0
149
0.0
100
AcDbLayout
  1
Layout1
 70
     1
 71
     1
 10
0.0
 20
0.0
 11
420.0
 21
297.0
 12
0.0
 22
0.0
 32
0.0
 14
1.0000000000E+20
 24
1.0000000000E+20
 34
1.0000000000E+20
 15
-1.0000000000E+20
 25
-1.0000000000E+20
 35
-1.0000000000E+20
146
0.0
 13
0.0
 23
0.0
 33
0.0
 16
1.0
 26
0.0
 36
0.0
 17
0.0
 27
1.0
 37
0.0
 76
     0
330
1B
  0
LAYOUT
  5
26
102
{ACAD_REACTORS
330
1A
102
}
330
1A
100
AcDbPlotSettings
  1

  2
none_device
  4

  6

 40
0.0
 41
0.0
 42
0.0
 43
0.0
 44
0.0
 45
0.0
 46
0.0
 47
0.0
 48
0.0
 49
0.0
140
0.0
141
0.0
142
1.0
143
1.0
 70
   688
 72
     1
 73
     0
 74
     5
  7

 75
    16
147
1.0
148
0.0
149
0.0
100
AcDbLayout
  1
Layout2
 70
     1
 71
     2
 10
0.0
 20
0.0
 11
0.0
 21
0.0
 12
0.0
 22
0.0
 32
0.0
 14
0.0
 24
0.0
 34
0.0
 15
0.0
 25
0.0
 35
0.0
146
0.0
 13
0.0
 23
0.0
 33
0.0
 16
1.0
 26
0.0
 36
0.0
 17
0.0
 27
1.0
 37
0.0
 76
     0
330
23
  0
LAYOUT
  5
22
102
{ACAD_REACTORS
330
1A
102
}
330
1A
100
AcDbPlotSettings
  1

  2
none_device
  4
Letter_(8.50_x_11.00_Inches)
  6

 40
6.35
 41
6.35
 42
6.35000508
 43
6.35000508
 44
215.9
 45
279.4
 46
0.0
 47
0.0
 48
0.0
 49
0.0
140
0.0
141
0.0
142
1.0
143
1.0
 70
  1712
 72
     1
 73
     0
 74
     0
  7

 75
     0
147
1.0
148
0.0
149
0.0
100
AcDbLayout
  1
Model
 70
     1
 71
     0
 10
0.0
 20
0.0
 11
297.0
 21
210.0
 12
0.0
 22
0.0
 32
0.0
 14
0.0
 24
0.0
 34
0.0
 15
297.0
 25
210.0
 35
0.0
146
0.0
 13
0.0
 23
0.0
 33
0.0
 16
1.0
 26
0.0
 36
0.0
 17
0.0
 27
1.0
 37
0.0
 76
     0
330
1F
331
29
  0
MLINESTYLE
  5
18
102
{ACAD_REACTORS
330
17
102
}
330
17
100
AcDbMlineStyle
  2
Standard
 70
     0
  3

 62
   256
 51
90.0
 52
90.0
 71
     2
 49
0.5
 62
   256
  6
BYLAYER
 49
-0.5
 62
   256
  6
BYLAYER
  0
ACDBPLACEHOLDER
  5
F
102
{ACAD_REACTORS
330
E
102
}
330
E
  0
SCALE
  5
48
102
{ACAD_REACTORS
330
47
102
}
330
47
100
AcDbScale
 70
     0
300
1:1
140
1.0
141
1.0
290
     1
  0
SCALE
  5
49
102
{ACAD_REACTORS
330
47
102
}
330
47
100
AcDbScale
 70
     0
300
1:2
140
1.0
141
2.0
290
     0
  0
SCALE
  5
4A
102
{ACAD_REACTORS
330
47
102
}
330
47
100
AcDbScale
 70
     0
300
1:4
140
1.0
141
4.0
290
     0
  0
SCALE
  5
4B
102
{ACAD_REACTORS
330
47
102
}
330
47
100
AcDbScale
 70
     0
300
1:5
140
1.0
141
5.0
290
     0
  0
SCALE
  5
4C
102
{ACAD_REACTORS
330
47
102
}
330
47
100
AcDbScale
 70
     0
300
1:8
140
1.0
141
8.0
290
     0
  0
SCALE
  5
4D
102
{ACAD_REACTORS
330
47
102
}
330
47
100
AcDbScale
 70
     0
300
1:10
140
1.0
141
10.0
290
     0
  0
SCALE
  5
4E
102
{ACAD_REACTORS
330
47
102
}
330
47
100
AcDbScale
 70
     0
300
1:16
140
1.0
141
16.0
290
     0
  0
SCALE
  5
4F
102
{ACAD_REACTORS
330
47
102
}
330
47
100
AcDbScale
 70
     0
300
1:20
140
1.0
141
20.0
290
     0
  0
SCALE
  5
50
102
{ACAD_REACTORS
330
47
102
}
330
47
100
AcDbScale
 70
     0
300
1:30
140
1.0
141
30.0
290
     0
  0
SCALE
  5
51
102
{ACAD_REACTORS
330
47
102
}
330
47
100
AcDbScale
 70
     0
300
1:40
140
1.0
141
40.0
290
     0
  0
SCALE
  5
52
102
{ACAD_REACTORS
330
47
102
}
330
47
100
AcDbScale
 70
     0
300
1:50
140
1.0
141
50.0
290
     0
  0
SCALE
  5
53
102
{ACAD_REACTORS
330
47
102
}
330
47
100
AcDbScale
 70
     0
300
1:100
140
1.0
141
100.0
290
     0
  0
SCALE
  5
54
102
{ACAD_REACTORS
330
47
102
}
330
47
100
AcDbScale
 70
     0
300
2:1
140
2.0
141
1.0
290
     0
  0
SCALE
  5
55
102
{ACAD_REACTORS
330
47
102
}
330
47
100
AcDbScale
 70
     0
300
4:1
140
4.0
141
1.0
290
     0
  0
SCALE
  5
56
102
{ACAD_REACTORS
330
47
102
}
330
47
100
AcDbScale
 70
     0
300
8:1
140
8.0
141
1.0
290
     0
  0
SCALE
  5
57
102
{ACAD_REACTORS
330
47
102
}
330
47
100
AcDbScale
 70
     0
300
10:1
140
10.0
141
1.0
290
     0
  0
SCALE
  5
58
102
{ACAD_REACTORS
330
47
102
}
330
47
100
AcDbScale
 70
     0
300
100:1
140
100.0
141
1.0
290
     0
  0
SCALE
  5
59
102
{ACAD_REACTORS
330
47
102
}
330
47
100
AcDbScale
 70
     0
300
1/128" = 1'-0"
140
0.0078125
141
12.0
290
     0
  0
SCALE
  5
5A
102
{ACAD_REACTORS
330
47
102
}
330
47
100
AcDbScale
 70
     0
300
1/64" = 1'-0"
140
0.015625
141
12.0
290
     0
  0
SCALE
  5
5B
102
{ACAD_REACTORS
330
47
102
}
330
47
100
AcDbScale
 70
     0
300
1/32" = 1'-0"
140
0.03125
141
12.0
290
     0
  0
SCALE
  5
5C
102
{ACAD_REACTORS
330
47
102
}
330
47
100
AcDbScale
 70
     0
300
1/16" = 1'-0"
140
0.0625
141
12.0
290
     0
  0
SCALE
  5
5D
102
{ACAD_REACTORS
330
47
102
}
330
47
100
AcDbScale
 70
     0
300
3/32" = 1'-0"
140
0.09375
141
12.0
290
     0
  0
SCALE
  5
5E
102
{ACAD_REACTORS
330
47
102
}
330
47
100
AcDbScale
 70
     0
300
1/8" = 1'-0"
140
0.125
141
12.0
290
     0
  0
SCALE
  5
5F
102
{ACAD_REACTORS
330
47
102
}
330
47
100
AcDbScale
 70
     0
300
3/16" = 1'-0"
140
0.1875
141
12.0
290
     0
  0
SCALE
  5
60
102
{ACAD_REACTORS
330
47
102
}
330
47
100
AcDbScale
 70
     0
300
1/4" = 1'-0"
140
0.25
141
12.0
290
     0
  0
SCALE
  5
61
102
{ACAD_REACTORS
330
47
102
}
330
47
100
AcDbScale
 70
     0
300
3/8" = 1'-0"
140
0.375
141
12.0
290
     0
  0
SCALE
  5
62
102
{ACAD_REACTORS
330
47
102
}
330
47
100
AcDbScale
 70
     0
300
1/2" = 1'-0"
140
0.5
141
12.0
290
     0
  0
SCALE
  5
63
102
{ACAD_REACTORS
330
47
102
}
330
47
100
AcDbScale
 70
     0
300
3/4" = 1'-0"
140
0.75
141
12.0
290
     0
  0
SCALE
  5
64
102
{ACAD_REACTORS
330
47
102
}
330
47
100
AcDbScale
 70
     0
300
1" = 1'-0"
140
1.0
141
12.0
290
     0
  0
SCALE
  5
65
102
{ACAD_REACTORS
330
47
102
}
330
47
100
AcDbScale
 70
     0
300
1-1/2" = 1'-0"
140
1.5
141
12.0
290
     0
  0
SCALE
  5
66
102
{ACAD_REACTORS
330
47
102
}
330
47
100
AcDbScale
 70
     0
300
3" = 1'-0"
140
3.0
141
12.0
290
     0
  0
SCALE
  5
67
102
{ACAD_REACTORS
330
47
102
}
330
47
100
AcDbScale
 70
     0
300
6" = 1'-0"
140
6.0
141
12.0
290
     0
  0
SCALE
  5
68
102
{ACAD_REACTORS
330
47
102
}
330
47
100
AcDbScale
 70
     0
300
1'-0" = 1'-0"
140
12.0
141
12.0
290
     0
  0
ENDSEC
  0
EOF
