  0
SECTION
  2
HEADER
  9
$ACADVER
  1
AC1015
  9
$ACADMAINTVER
 70
     6
  9
$DWGCODEPAGE
  3
ANSI_1252
  9
$INSBASE
 10
0.0
 20
0.0
 30
0.0
  9
$EXTMIN
 10
0.0
 20
0.0
 30
0.0
  9
$EXTMAX
 10
297.0
 20
210.0
 30
0.0
  9
$LIMMIN
 10
0.0
 20
0.0
  9
$LIMMAX
 10
297.0
 20
210.0
  9
$ORTHOMODE
 70
     0
  9
$REGENMODE
 70
     1
  9
$FILLMODE
 70
     1
  9
$QTEXTMODE
 70
     0
  9
$MIRRTEXT
 70
     1
  9
$LTSCALE
 40
1.0
  9
$ATTMODE
 70
     1
  9
$TEXTSIZE
 40
2.0
  9
$TRACEWID
 40
1.0
  9
$TEXTSTYLE
  7
Standard
  9
$CLAYER
  8
0
  9
$CELTYPE
  6
ByLayer
  9
$CECOLOR
 62
   256
  9
$CELTSCALE
 40
1.0
  9
$DISPSILH
 70
     0
  9
$DIMSCALE
 40
1.0
  9
$DIMASZ
 40
3.0
  9
$DIMEXO
 40
0.0
  9
$DIMDLI
 40
3.75
  9
$DIMRND
 40
0.0
  9
$DIMDLE
 40
0.0
  9
$DIMEXE
 40
1.0
  9
$DIMTP
 40
0.0
  9
$DIMTM
 40
0.0
  9
$DIMTXT
 40
2.0
  9
$DIMCEN
 40
2.5
  9
$DIMTSZ
 40
0.0
  9
$DIMTOL
 70
     0
  9
$DIMLIM
 70
     0
  9
$DIMTIH
 70
     1
  9
$DIMTOH
 70
     1
  9
$DIMSE1
 70
     0
  9
$DIMSE2
 70
     0
  9
$DIMTAD
 70
     1
  9
$DIMZIN
 70
     0
  9
$DIMBLK
  1

  9
$DIMASO
 70
     1
  9
$DIMSHO
 70
     1
  9
$DIMPOST
  1

  9
$DIMAPOST
  1

  9
$DIMALT
 70
     0
  9
$DIMALTD
 70
     3
  9
$DIMALTF
 40
0.0393700787
  9
$DIMLFAC
 40
2.0
  9
$DIMTOFL
 70
     1
  9
$DIMTVP
 40
0.0
  9
$DIMTIX
 70
     0
  9
$DIMSOXD
 70
     0
  9
$DIMSAH
 70
     0
  9
$DIMBLK1
  1

  9
$DIMBLK2
  1

  9
$DIMSTYLE
  2
ISO-25
  9
$DIMCLRD
 70
     0
  9
$DIMCLRE
 70
     0
  9
$DIMCLRT
 70
     0
  9
$DIMTFAC
 40
1.0
  9
$DIMGAP
 40
1.524
  9
$DIMJUST
 70
     0
  9
$DIMSD1
 70
     0
  9
$DIMSD2
 70
     0
  9
$DIMTOLJ
 70
     0
  9
$DIMTZIN
 70
     0
  9
$DIMALTZ
 70
     0
  9
$DIMALTTZ
 70
     0
  9
$DIMUPT
 70
     0
  9
$DIMDEC
 70
     2
  9
$DIMTDEC
 70
     3
  9
$DIMALTU
 70
     2
  9
$DIMALTTD
 70
     3
  9
$DIMTXSTY
  7
Standard
  9
$DIMAUNIT
 70
     0
  9
$DIMADEC
 70
     2
  9
$DIMALTRND
 40
0.0
  9
$DIMAZIN
 70
     0
  9
$DIMDSEP
 70
    44
  9
$DIMATFIT
 70
     3
  9
$DIMFRAC
 70
     0
  9
$DIMLDRBLK
  1

  9
$DIMLUNIT
 70
     2
  9
$DIMLWD
 70
    -2
  9
$DIMLWE
 70
    -2
  9
$DIMTMOVE
 70
     0
  9
$LUNITS
 70
     2
  9
$LUPREC
 70
     2
  9
$SKETCHINC
 40
1.0
  9
$FILLETRAD
 40
10.0
  9
$AUNITS
 70
     0
  9
$AUPREC
 70
     2
  9
$MENU
  1
.
  9
$ELEVATION
 40
0.0
  9
$PELEVATION
 40
0.0
  9
$THICKNESS
 40
0.0
  9
$LIMCHECK
 70
     0
  9
$CHAMFERA
 40
0.0
  9
$CHAMFERB
 40
0.0
  9
$CHAMFERC
 40
0.0
  9
$CHAMFERD
 40
0.0
  9
$SKPOLY
 70
     0
  9
$TDCREATE
 40
2458164.705190532
  9
$TDUCREATE
 40
2458164.663523866
  9
$TDUPDATE
 40
2458164.705193796
  9
$TDUUPDATE
 40
2458164.66352713
  9
$TDINDWG
 40
0.0000000116
  9
$TDUSRTIMER
 40
0.0000000116
  9
$USRTIMER
 70
     1
  9
$ANGBASE
 50
0.0
  9
$ANGDIR
 70
     0
  9
$PDMODE
 70
     0
  9
$PDSIZE
 40
-1.0
  9
$PLINEWID
 40
0.0
  9
$SPLFRAME
 70
     0
  9
$SPLINETYPE
 70
     6
  9
$SPLINESEGS
 70
     8
  9
$HANDSEED
  5
2FE
  9
$SURFTAB1
 70
     6
  9
$SURFTAB2
 70
     6
  9
$SURFTYPE
 70
     6
  9
$SURFU
 70
     6
  9
$SURFV
 70
     6
  9
$UCSBASE
  2

  9
$UCSNAME
  2

  9
$UCSORG
 10
0.0
 20
0.0
 30
0.0
  9
$UCSXDIR
 10
1.0
 20
0.0
 30
0.0
  9
$UCSYDIR
 10
0.0
 20
1.0
 30
0.0
  9
$UCSORTHOREF
  2

  9
$UCSORTHOVIEW
 70
     0
  9
$UCSORGTOP
 10
0.0
 20
0.0
 30
0.0
  9
$UCSORGBOTTOM
 10
0.0
 20
0.0
 30
0.0
  9
$UCSORGLEFT
 10
0.0
 20
0.0
 30
0.0
  9
$UCSORGRIGHT
 10
0.0
 20
0.0
 30
0.0
  9
$UCSORGFRONT
 10
0.0
 20
0.0
 30
0.0
  9
$UCSORGBACK
 10
0.0
 20
0.0
 30
0.0
  9
$PUCSBASE
  2

  9
$PUCSNAME
  2

  9
$PUCSORG
 10
0.0
 20
0.0
 30
0.0
  9
$PUCSXDIR
 10
1.0
 20
0.0
 30
0.0
  9
$PUCSYDIR
 10
0.0
 20
1.0
 30
0.0
  9
$PUCSORTHOREF
  2

  9
$PUCSORTHOVIEW
 70
     0
  9
$PUCSORGTOP
 10
0.0
 20
0.0
 30
0.0
  9
$PUCSORGBOTTOM
 10
0.0
 20
0.0
 30
0.0
  9
$PUCSORGLEFT
 10
0.0
 20
0.0
 30
0.0
  9
$PUCSORGRIGHT
 10
0.0
 20
0.0
 30
0.0
  9
$PUCSORGFRONT
 10
0.0
 20
0.0
 30
0.0
  9
$PUCSORGBACK
 10
0.0
 20
0.0
 30
0.0
  9
$USERI1
 70
     0
  9
$USERI2
 70
     0
  9
$USERI3
 70
     0
  9
$USERI4
 70
     0
  9
$USERI5
 70
     0
  9
$USERR1
 40
0.0
  9
$USERR2
 40
0.0
  9
$USERR3
 40
0.0
  9
$USERR4
 40
0.0
  9
$USERR5
 40
0.0
  9
$WORLDVIEW
 70
     1
  9
$SHADEDGE
 70
     3
  9
$SHADEDIF
 70
    70
  9
$TILEMODE
 70
     1
  9
$MAXACTVP
 70
    64
  9
$PINSBASE
 10
0.0
 20
0.0
 30
0.0
  9
$PLIMCHECK
 70
     0
  9
$PEXTMIN
 10
1.0000000000E+20
 20
1.0000000000E+20
 30
1.0000000000E+20
  9
$PEXTMAX
 10
-1.0000000000E+20
 20
-1.0000000000E+20
 30
-1.0000000000E+20
  9
$PLIMMIN
 10
0.0
 20
0.0
  9
$PLIMMAX
 10
420.0
 20
297.0
  9
$UNITMODE
 70
     0
  9
$VISRETAIN
 70
     1
  9
$PLINEGEN
 70
     0
  9
$PSLTSCALE
 70
     1
  9
$TREEDEPTH
 70
  3020
  9
$CMLSTYLE
  2
Standard
  9
$CMLJUST
 70
     0
  9
$CMLSCALE
 40
20.0
  9
$PROXYGRAPHICS
 70
     1
  9
$MEASUREMENT
 70
     1
  9
$CELWEIGHT
370
    -1
  9
$ENDCAPS
280
     0
  9
$JOINSTYLE
280
     0
  9
$LWDISPLAY
290
     1
  9
$INSUNITS
 70
     4
  9
$HYPERLINKBASE
  1

  9
$STYLESHEET
  1

  9
$XEDIT
290
     1
  9
$CEPSNTYPE
380
     0
  9
$PSTYLEMODE
290
     1
  9
$FINGERPRINTGUID
  2
{7851299D-6342-42CF-A2D8-7F816C364678}
  9
$VERSIONGUID
  2
{FAEB1C32-E019-11D5-929B-00C0DF256EC4}
  9
$EXTNAMES
290
     1
  9
$PSVPSCALE
 40
0.0
  9
$OLESTARTUP
290
     0
  0
ENDSEC
  0
SECTION
  2
CLASSES
  0
CLASS
  1
ACDBDICTIONARYWDFLT
  2
AcDbDictionaryWithDefault
  3
ObjectDBX Classes
 90
        0
280
     0
281
     0
  0
CLASS
  1
VISUALSTYLE
  2
AcDbVisualStyle
  3
ObjectDBX Classes
 90
     4095
280
     0
281
     0
  0
CLASS
  1
MATERIAL
  2
AcDbMaterial
  3
ObjectDBX Classes
 90
     1153
280
     0
281
     0
  0
CLASS
  1
SCALE
  2
AcDbScale
  3
ObjectDBX Classes
 90
     1153
280
     0
281
     0
  0
CLASS
  1
TABLESTYLE
  2
AcDbTableStyle
  3
ObjectDBX Classes
 90
     4095
280
     0
281
     0
  0
CLASS
  1
MLEADERSTYLE
  2
AcDbMLeaderStyle
  3
ACDB_MLEADERSTYLE_CLASS
 90
     4095
280
     0
281
     0
  0
CLASS
  1
SUN
  2
AcDbSun
  3
SCENEOE
 90
     1153
280
     0
281
     0
  0
CLASS
  1
ACDBPLACEHOLDER
  2
AcDbPlaceHolder
  3
ObjectDBX Classes
 90
        0
280
     0
281
     0
  0
CLASS
  1
LAYOUT
  2
AcDbLayout
  3
ObjectDBX Classes
 90
        0
280
     0
281
     0
  0
ENDSEC
  0
SECTION
  2
TABLES
  0
TABLE
  2
VPORT
  5
8
330
0
100
AcDbSymbolTable
 70
     1
  0
VPORT
  5
29
330
8
100
AcDbSymbolTableRecord
100
AcDbViewportTableRecord
  2
*Active
 70
     0
 10
0.0
 20
0.0
 11
1.0
 21
1.0
 12
148.5
 22
105.0
 13
0.0
 23
0.0
 14
10.0
 24
10.0
 15
10.0
 25
10.0
 16
0.0
 26
0.0
 36
1.0
 17
0.0
 27
0.0
 37
0.0
 40
210.0
 41
1.4142857143
 42
50.0
 43
0.0
 44
0.0
 50
0.0
 51
0.0
 71
     0
 72
  2000
 73
     1
 74
     3
 75
     0
 76
     0
 77
     0
 78
     0
281
     0
 65
     1
110
0.0
120
0.0
130
0.0
111
1.0
121
0.0
131
0.0
112
0.0
122
1.0
132
0.0
 79
     0
146
0.0
  0
ENDTAB
  0
TABLE
  2
LTYPE
  5
5
330
0
100
AcDbSymbolTable
 70
     6
  0
LTYPE
  5
14
330
5
100
AcDbSymbolTableRecord
100
AcDbLinetypeTableRecord
  2
ByBlock
 70
     0
  3

 72
    65
 73
     0
 40
0.0
  0
LTYPE
  5
15
330
5
100
AcDbSymbolTableRecord
100
AcDbLinetypeTableRecord
  2
ByLayer
 70
     0
  3

 72
    65
 73
     0
 40
0.0
  0
LTYPE
  5
16
330
5
100
AcDbSymbolTableRecord
100
AcDbLinetypeTableRecord
  2
Continuous
 70
     0
  3
Solid line
 72
    65
 73
     0
 40
0.0
  0
LTYPE
  5
6E
330
5
100
AcDbSymbolTableRecord
100
AcDbLinetypeTableRecord
  2
HIDDEN
 70
     0
  3
Hidden __ __ __ __ __ __ __ __ __ __ __ __ __ __
 72
    65
 73
     2
 40
1.905
 49
1.27
 74
     0
 49
-0.635
 74
     0
  0
LTYPE
  5
6F
330
5
100
AcDbSymbolTableRecord
100
AcDbLinetypeTableRecord
  2
PHANTOM
 70
     0
  3
Phantom ______  __  __  ______  __  __  ______
 72
    65
 73
     6
 40
12.7
 49
6.35
 74
     0
 49
-1.27
 74
     0
 49
1.27
 74
     0
 49
-1.27
 74
     0
 49
1.27
 74
     0
 49
-1.27
 74
     0
  0
LTYPE
  5
70
330
5
100
AcDbSymbolTableRecord
100
AcDbLinetypeTableRecord
  2
CENTER
 70
     0
  3
Center ____ _ ____ _ ____ _ ____ _ ____ _ ____
 72
    65
 73
     4
 40
10.16
 49
6.35
 74
     0
 49
-1.27
 74
     0
 49
1.27
 74
     0
 49
-1.27
 74
     0
  0
LTYPE
  5
71
330
5
100
AcDbSymbolTableRecord
100
AcDbLinetypeTableRecord
  2
CENTERX2
 70
     0
  3
Center (2x) ________  __  ________  __  _____
 72
    65
 73
     4
 40
20.32
 49
12.7
 74
     0
 49
-2.54
 74
     0
 49
2.54
 74
     0
 49
-2.54
 74
     0
  0
LTYPE
  5
72
330
5
100
AcDbSymbolTableRecord
100
AcDbLinetypeTableRecord
  2
DOT2
 70
     0
  3
Dot (.5x) ........................................
 72
    65
 73
     2
 40
0.635
 49
0.0
 74
     0
 49
-0.635
 74
     0
  0
ENDTAB
  0
TABLE
  2
LAYER
  5
2
330
0
100
AcDbSymbolTable
 70
     5
  0
LAYER
  5
10
330
2
100
AcDbSymbolTableRecord
100
AcDbLayerTableRecord
  2
0
 70
     0
 62
     7
  6
Continuous
370
    -3
390
F
  0
LAYER
  5
73
330
2
100
AcDbSymbolTableRecord
100
AcDbLayerTableRecord
  2
FORMAT
 70
     0
 62
     7
  6
Continuous
370
    -3
390
F
  0
LAYER
  5
74
330
2
100
AcDbSymbolTableRecord
100
AcDbLayerTableRecord
  2
VERMASSUNG
 70
     0
 62
     7
  6
Continuous
370
    -3
390
F
  0
LAYER
  5
75
330
2
100
AcDbSymbolTableRecord
100
AcDbLayerTableRecord
  2
KOPF_DÜNN
 70
     0
 62
     7
  6
Continuous
370
    -3
390
F
  0
LAYER
  5
76
330
2
100
AcDbSymbolTableRecord
100
AcDbLayerTableRecord
  2
KOPF_DICK
 70
     0
 62
     7
  6
Continuous
370
    25
390
F
  0
ENDTAB
  0
TABLE
  2
STYLE
  5
3
330
0
100
AcDbSymbolTable
 70
     2
  0
STYLE
  5
11
330
3
100
AcDbSymbolTableRecord
100
AcDbTextStyleTableRecord
  2
Standard
 70
     0
 40
0.0
 41
1.0
 50
0.0
 71
     0
 42
2.0
  3
txt
  4

  0
STYLE
  5
77
330
3
100
AcDbSymbolTableRecord
100
AcDbTextStyleTableRecord
  2
SLDTEXTSTYLE0
 70
     0
 40
0.0
 41
0.7
 50
0.0
 71
     0
 42
2.0
  3
TXT
  4

  0
ENDTAB
  0
TABLE
  2
VIEW
  5
6
330
0
100
AcDbSymbolTable
 70
     0
  0
ENDTAB
  0
TABLE
  2
UCS
  5
7
330
0
100
AcDbSymbolTable
 70
     0
  0
ENDTAB
  0
TABLE
  2
APPID
  5
9
330
0
100
AcDbSymbolTable
 70
     1
  0
APPID
  5
12
330
9
100
AcDbSymbolTableRecord
100
AcDbRegAppTableRecord
  2
ACAD
 70
     0
  0
ENDTAB
  0
TABLE
  2
DIMSTYLE
  5
A
330
0
100
AcDbSymbolTable
 70
     5
100
AcDbDimStyleTable
  0
DIMSTYLE
105
27
330
A
100
AcDbSymbolTableRecord
100
AcDbDimStyleTableRecord
  2
ISO-25
 70
     0
 41
2.5
 42
0.625
 43
3.75
 44
1.25
 73
     0
 74
     0
 77
     1
 78
     8
140
2.5
141
2.5
143
0.0393700787
147
0.625
171
     3
172
     1
178
     0
271
     2
272
     2
274
     3
278
    44
283
     0
284
     8
340
11
  0
DIMSTYLE
105
200
102
{ACAD_REACTORS
330
1FF
330
21F
330
22A
330
235
330
24B
330
255
330
25F
330
269
102
}
330
A
100
AcDbSymbolTableRecord
100
AcDbDimStyleTableRecord
  2
SLDDIMSTYLE0
 70
     0
 41
3.0
 44
0.0
 45
0.000000001
 73
     0
 74
     0
 77
     1
 78
    12
 79
     3
140
2.0
147
0.5
173
     1
178
     0
271
     2
272
     3
276
     2
284
    12
340
77
  0
DIMSTYLE
105
20C
102
{ACAD_REACTORS
330
20B
102
}
330
A
100
AcDbSymbolTableRecord
100
AcDbDimStyleTableRecord
  2
SLDDIMSTYLE1
 70
     0
 41
3.0
 44
0.0
 73
     0
 74
     0
 77
     1
 78
    12
 79
     3
140
2.0
147
0.5
173
     1
178
     0
179
     2
272
     3
276
     2
284
    12
340
77
  0
DIMSTYLE
105
216
102
{ACAD_REACTORS
330
215
102
}
330
A
100
AcDbSymbolTableRecord
100
AcDbDimStyleTableRecord
  2
SLDDIMSTYLE2
 70
     0
 41
3.0
 44
0.0
 45
0.000000001
 73
     0
 74
     0
 76
     1
 77
     1
 78
    12
 79
     3
140
2.0
147
0.5
173
     1
178
     0
271
     2
272
     3
276
     2
282
     1
284
    12
340
77
  0
DIMSTYLE
105
241
102
{ACAD_REACTORS
330
240
102
}
330
A
100
AcDbSymbolTableRecord
100
AcDbDimStyleTableRecord
  2
SLDDIMSTYLE3
 70
     0
 41
3.0
 44
0.0
 45
0.000000001
 73
     0
 74
     0
 77
     1
 78
    12
 79
     3
140
2.0
147
0.5
173
     1
178
     0
271
     1
272
     3
276
     2
284
    12
340
77
  0
ENDTAB
  0
TABLE
  2
BLOCK_RECORD
  5
1
330
0
100
AcDbSymbolTable
 70
    12
  0
BLOCK_RECORD
  5
1F
330
1
100
AcDbSymbolTableRecord
100
AcDbBlockTableRecord
  2
*Model_Space
340
22
  0
BLOCK_RECORD
  5
1B
330
1
100
AcDbSymbolTableRecord
100
AcDbBlockTableRecord
  2
*Paper_Space
340
1E
  0
BLOCK_RECORD
  5
23
330
1
100
AcDbSymbolTableRecord
100
AcDbBlockTableRecord
  2
*Paper_Space0
340
26
  0
BLOCK_RECORD
  5
201
330
1
100
AcDbSymbolTableRecord
100
AcDbBlockTableRecord
  2
_D
340
0
  0
BLOCK_RECORD
  5
20D
330
1
100
AcDbSymbolTableRecord
100
AcDbBlockTableRecord
  2
_D_1
340
0
  0
BLOCK_RECORD
  5
217
330
1
100
AcDbSymbolTableRecord
100
AcDbBlockTableRecord
  2
_D_2
340
0
  0
BLOCK_RECORD
  5
220
330
1
100
AcDbSymbolTableRecord
100
AcDbBlockTableRecord
  2
_D_3
340
0
  0
BLOCK_RECORD
  5
22B
330
1
100
AcDbSymbolTableRecord
100
AcDbBlockTableRecord
  2
_D_4
340
0
  0
BLOCK_RECORD
  5
236
330
1
100
AcDbSymbolTableRecord
100
AcDbBlockTableRecord
  2
_D_5
340
0
  0
BLOCK_RECORD
  5
242
330
1
100
AcDbSymbolTableRecord
100
AcDbBlockTableRecord
  2
_D_6
340
0
  0
BLOCK_RECORD
  5
24C
330
1
100
AcDbSymbolTableRecord
100
AcDbBlockTableRecord
  2
_D_7
340
0
  0
BLOCK_RECORD
  5
256
330
1
100
AcDbSymbolTableRecord
100
AcDbBlockTableRecord
  2
_D_8
340
0
  0
BLOCK_RECORD
  5
260
330
1
100
AcDbSymbolTableRecord
100
AcDbBlockTableRecord
  2
_D_9
340
0
  0
BLOCK_RECORD
  5
26A
330
1
100
AcDbSymbolTableRecord
100
AcDbBlockTableRecord
  2
_D_10
340
0
  0
ENDTAB
  0
ENDSEC
  0
SECTION
  2
BLOCKS
  0
BLOCK
  5
20
330
1F
100
AcDbEntity
  8
0
100
AcDbBlockBegin
  2
*Model_Space
 70
     0
 10
0.0
 20
0.0
 30
0.0
  3
*Model_Space
  1

  0
ENDBLK
  5
21
330
1F
100
AcDbEntity
  8
0
100
AcDbBlockEnd
  0
BLOCK
  5
1C
330
1B
100
AcDbEntity
 67
     1
  8
0
100
AcDbBlockBegin
  2
*Paper_Space
 70
     0
 10
0.0
 20
0.0
 30
0.0
  3
*Paper_Space
  1

  0
ENDBLK
  5
1D
330
1B
100
AcDbEntity
 67
     1
  8
0
100
AcDbBlockEnd
  0
BLOCK
  5
24
330
23
100
AcDbEntity
  8
0
100
AcDbBlockBegin
  2
*Paper_Space0
 70
     0
 10
0.0
 20
0.0
 30
0.0
  3
*Paper_Space0
  1

  0
ENDBLK
  5
25
330
23
100
AcDbEntity
  8
0
100
AcDbBlockEnd
  0
BLOCK
  5
202
330
201
100
AcDbEntity
  8
0
100
AcDbBlockBegin
  2
_D
 70
     0
 10
0.0
 20
0.0
 30
0.0
  3
_D
  1

  0
SOLID
  5
204
330
201
100
AcDbEntity
  8
VERMASSUNG
100
AcDbTrace
 10
247.0590348589
 20
97.7943262758
 30
0.0
 11
247.5090348589
 21
100.7943262758
 31
0.0
 12
246.6090348589
 22
100.7943262758
 32
0.0
 13
246.6090348589
 23
100.7943262758
 33
0.0
  0
SOLID
  5
205
330
201
100
AcDbEntity
  8
VERMASSUNG
100
AcDbTrace
 10
247.0590348589
 20
124.7943262758
 30
0.0
 11
246.6090348589
 21
121.7943262758
 31
0.0
 12
247.5090348589
 22
121.7943262758
 32
0.0
 13
247.5090348589
 23
121.7943262758
 33
0.0
  0
LINE
  5
206
330
201
100
AcDbEntity
  8
VERMASSUNG
100
AcDbLine
 10
219.0590348589
 20
97.7943262758
 30
0.0
 11
248.0590348589
 21
97.7943262758
 31
0.0
  0
LINE
  5
207
330
201
100
AcDbEntity
  8
VERMASSUNG
100
AcDbLine
 10
219.0590348589
 20
124.7943262758
 30
0.0
 11
248.0590348589
 21
124.7943262758
 31
0.0
  0
LINE
  5
208
330
201
100
AcDbEntity
  8
VERMASSUNG
100
AcDbLine
 10
247.0590348589
 20
97.7943262758
 30
0.0
 11
247.0590348589
 21
124.7943262758
 31
0.0
  0
MTEXT
  5
209
330
201
100
AcDbEntity
  8
VERMASSUNG
100
AcDbMText
 10
244.4808995539
 20
108.0893263185
 30
0.0
 40
2.0
 41
0.0
 71
     1
 72
     1
  1
%%c
  7
SLDTEXTSTYLE0
 11
6.123233995736766E-17
 21
1.0
 31
0.0
 73
     1
 44
1.0
  0
MTEXT
  5
20A
330
201
100
AcDbEntity
  8
VERMASSUNG
100
AcDbMText
 10
244.2808996027
 20
111.6993263328
 30
0.0
 40
2.0
 41
0.0
 71
     1
 72
     1
  1
27
  7
SLDTEXTSTYLE0
 11
6.123233995736766E-17
 21
1.0
 31
0.0
 73
     1
 44
1.0
  0
ENDBLK
  5
203
330
201
100
AcDbEntity
  8
0
100
AcDbBlockEnd
  0
BLOCK
  5
20E
330
20D
100
AcDbEntity
  8
0
100
AcDbBlockBegin
  2
_D_1
 70
     0
 10
0.0
 20
0.0
 30
0.0
  3
_D_1
  1

  0
ARC
  5
210
330
20D
100
AcDbEntity
  8
VERMASSUNG
100
AcDbCircle
 10
390.5927987972
 20
111.2943262758
 30
0.0
 40
190.7925661566377
100
AcDbArc
 50
175.5
 51
180.0
  0
ARC
  5
211
330
20D
100
AcDbEntity
  8
VERMASSUNG
100
AcDbCircle
 10
390.5927987972
 20
111.2943262758
 30
0.0
 40
190.7925661566377
100
AcDbArc
 50
172.4688409846
 51
175.5
  0
SOLID
  5
212
330
20D
100
AcDbEntity
  8
VERMASSUNG
100
AcDbTrace
 10
200.3883824483
 20
126.263738488
 30
0.0
 11
199.7276468811
 21
123.303007411
 31
0.0
 12
200.6253998626
 22
123.2394496881
 32
0.0
 13
200.6253998626
 23
123.2394496881
 33
0.0
  0
SOLID
  5
213
330
20D
100
AcDbEntity
  8
VERMASSUNG
100
AcDbTrace
 10
199.8002326406
 20
111.2943262758
 30
0.0
 11
200.2738023739
 21
114.2906960306
 31
0.0
 12
199.3738301837
 22
114.2977711221
 32
0.0
 13
199.3738301837
 23
114.2977711221
 33
0.0
  0
MTEXT
  5
214
330
20D
100
AcDbEntity
  8
VERMASSUNG
100
AcDbMText
 10
198.1366606924
 20
130.3412604287
 30
0.0
 40
2.0
 41
0.0
 71
     1
 72
     1
  1
4°30'
  7
SLDTEXTSTYLE0
 11
0.1146820630162634
 21
0.9934022470391004
 31
0.0
 73
     1
 44
1.0
  0
ENDBLK
  5
20F
330
20D
100
AcDbEntity
  8
0
100
AcDbBlockEnd
  0
BLOCK
  5
218
330
217
100
AcDbEntity
  8
0
100
AcDbBlockBegin
  2
_D_2
 70
     0
 10
0.0
 20
0.0
 30
0.0
  3
_D_2
  1

  0
SOLID
  5
21A
330
217
100
AcDbEntity
  8
VERMASSUNG
100
AcDbTrace
 10
238.8070463748
 20
118.2943262758
 30
0.0
 11
238.3570463748
 21
115.2943262758
 31
0.0
 12
239.2570463748
 22
115.2943262758
 32
0.0
 13
239.2570463748
 23
115.2943262758
 33
0.0
  0
LINE
  5
21B
330
217
100
AcDbEntity
  8
VERMASSUNG
100
AcDbLine
 10
215.5590348589
 20
118.2943262758
 30
0.0
 11
239.8070463748
 21
118.2943262758
 31
0.0
  0
LINE
  5
21C
330
217
100
AcDbEntity
  8
VERMASSUNG
100
AcDbLine
 10
238.8070463748
 20
118.2943262758
 30
0.0
 11
238.8070463748
 21
108.1893261487
 31
0.0
  0
MTEXT
  5
21D
330
217
100
AcDbEntity
  8
VERMASSUNG
100
AcDbMText
 10
236.2289110699
 20
108.1893261487
 30
0.0
 40
2.0
 41
0.0
 71
     1
 72
     1
  1
%%c
  7
SLDTEXTSTYLE0
 11
-5.267838178243384E-15
 21
1.0
 31
0.0
 73
     1
 44
1.0
  0
MTEXT
  5
21E
330
217
100
AcDbEntity
  8
VERMASSUNG
100
AcDbMText
 10
236.0289111186
 20
111.799326163
 30
0.0
 40
2.0
 41
0.0
 71
     1
 72
     1
  1
14
  7
SLDTEXTSTYLE0
 11
-5.267838178243384E-15
 21
1.0
 31
0.0
 73
     1
 44
1.0
  0
ENDBLK
  5
219
330
217
100
AcDbEntity
  8
0
100
AcDbBlockEnd
  0
BLOCK
  5
221
330
220
100
AcDbEntity
  8
0
100
AcDbBlockBegin
  2
_D_3
 70
     0
 10
0.0
 20
0.0
 30
0.0
  3
_D_3
  1

  0
SOLID
  5
223
330
220
100
AcDbEntity
  8
VERMASSUNG
100
AcDbTrace
 10
256.9685435872
 20
128.2943262758
 30
0.0
 11
256.5185435872
 21
125.2943262758
 31
0.0
 12
257.4185435872
 22
125.2943262758
 32
0.0
 13
257.4185435872
 23
125.2943262758
 33
0.0
  0
SOLID
  5
224
330
220
100
AcDbEntity
  8
VERMASSUNG
100
AcDbTrace
 10
256.9685435872
 20
94.2943262758
 30
0.0
 11
257.4185435872
 21
97.2943262758
 31
0.0
 12
256.5185435872
 22
97.2943262758
 32
0.0
 13
256.5185435872
 23
97.2943262758
 33
0.0
  0
LINE
  5
225
330
220
100
AcDbEntity
  8
VERMASSUNG
100
AcDbLine
 10
174.5873182823
 20
128.2943262758
 30
0.0
 11
257.9685435872
 21
128.2943262758
 31
0.0
  0
LINE
  5
226
330
220
100
AcDbEntity
  8
VERMASSUNG
100
AcDbLine
 10
174.5873182823
 20
94.2943262758
 30
0.0
 11
257.9685435872
 21
94.2943262758
 31
0.0
  0
LINE
  5
227
330
220
100
AcDbEntity
  8
VERMASSUNG
100
AcDbLine
 10
256.9685435872
 20
128.2943262758
 30
0.0
 11
256.9685435872
 21
94.2943262758
 31
0.0
  0
MTEXT
  5
228
330
220
100
AcDbEntity
  8
VERMASSUNG
100
AcDbMText
 10
254.3904082823
 20
107.9893262556
 30
0.0
 40
2.0
 41
0.0
 71
     1
 72
     1
  1
%%c
  7
SLDTEXTSTYLE0
 11
-5.267838178243384E-15
 21
1.0
 31
0.0
 73
     1
 44
1.0
  0
MTEXT
  5
229
330
220
100
AcDbEntity
  8
VERMASSUNG
100
AcDbMText
 10
254.190408331
 20
111.5993262699
 30
0.0
 40
2.0
 41
0.0
 71
     1
 72
     1
  1
34
  7
SLDTEXTSTYLE0
 11
-5.267838178243384E-15
 21
1.0
 31
0.0
 73
     1
 44
1.0
  0
ENDBLK
  5
222
330
220
100
AcDbEntity
  8
0
100
AcDbBlockEnd
  0
BLOCK
  5
22C
330
22B
100
AcDbEntity
  8
0
100
AcDbBlockBegin
  2
_D_4
 70
     0
 10
0.0
 20
0.0
 30
0.0
  3
_D_4
  1

  0
SOLID
  5
22E
330
22B
100
AcDbEntity
  8
VERMASSUNG
100
AcDbTrace
 10
219.0590348589
 20
140.8178263797
 30
0.0
 11
216.0590348589
 21
141.2678263797
 31
0.0
 12
216.0590348589
 22
140.3678263797
 32
0.0
 13
216.0590348589
 23
140.3678263797
 33
0.0
  0
SOLID
  5
22F
330
22B
100
AcDbEntity
  8
VERMASSUNG
100
AcDbTrace
 10
183.0590348589
 20
140.8178263797
 30
0.0
 11
186.0590348589
 21
140.3678263797
 31
0.0
 12
186.0590348589
 22
141.2678263797
 32
0.0
 13
186.0590348589
 23
141.2678263797
 33
0.0
  0
LINE
  5
230
330
22B
100
AcDbEntity
  8
VERMASSUNG
100
AcDbLine
 10
219.0590348589
 20
122.9455452925
 30
0.0
 11
219.0590348589
 21
141.8178263797
 31
0.0
  0
LINE
  5
231
330
22B
100
AcDbEntity
  8
VERMASSUNG
100
AcDbLine
 10
183.0590348589
 20
118.2943262758
 30
0.0
 11
183.0590348589
 21
141.8178263797
 31
0.0
  0
LINE
  5
232
330
22B
100
AcDbEntity
  8
VERMASSUNG
100
AcDbLine
 10
219.0590348589
 20
140.8178263797
 30
0.0
 11
183.0590348589
 21
140.8178263797
 31
0.0
  0
MTEXT
  5
233
330
22B
100
AcDbEntity
  8
VERMASSUNG
100
AcDbMText
 10
196.8590350086
 20
143.3959619757
 30
0.0
 40
2.0
 41
0.0
 71
     1
 72
     1
  1
36
  7
SLDTEXTSTYLE0
 73
     1
 44
1.0
  0
MTEXT
  5
234
330
22B
100
AcDbEntity
  8
VERMASSUNG
100
AcDbMText
 10
200.8465349088
 20
143.3959619757
 30
0.0
 40
2.0
 41
0.0
 71
     1
 72
     1
  1
min.
  7
SLDTEXTSTYLE0
 73
     1
 44
1.0
  0
ENDBLK
  5
22D
330
22B
100
AcDbEntity
  8
0
100
AcDbBlockEnd
  0
BLOCK
  5
237
330
236
100
AcDbEntity
  8
0
100
AcDbBlockBegin
  2
_D_5
 70
     0
 10
0.0
 20
0.0
 30
0.0
  3
_D_5
  1

  0
SOLID
  5
239
330
236
100
AcDbEntity
  8
VERMASSUNG
100
AcDbTrace
 10
219.0590348589
 20
149.2326313734
 30
0.0
 11
216.0590348589
 21
149.6826313734
 31
0.0
 12
216.0590348589
 22
148.7826313734
 32
0.0
 13
216.0590348589
 23
148.7826313734
 33
0.0
  0
SOLID
  5
23A
330
236
100
AcDbEntity
  8
VERMASSUNG
100
AcDbTrace
 10
172.5590348589
 20
149.2326313734
 30
0.0
 11
175.5590348589
 21
148.7826313734
 31
0.0
 12
175.5590348589
 22
149.6826313734
 32
0.0
 13
175.5590348589
 23
149.6826313734
 33
0.0
  0
LINE
  5
23B
330
236
100
AcDbEntity
  8
VERMASSUNG
100
AcDbLine
 10
219.0590348589
 20
122.9455452925
 30
0.0
 11
219.0590348589
 21
150.2326313734
 31
0.0
  0
LINE
  5
23C
330
236
100
AcDbEntity
  8
VERMASSUNG
100
AcDbLine
 10
172.5590348589
 20
118.1943262758
 30
0.0
 11
172.5590348589
 21
150.2326313734
 31
0.0
  0
LINE
  5
23D
330
236
100
AcDbEntity
  8
VERMASSUNG
100
AcDbLine
 10
219.0590348589
 20
149.2326313734
 30
0.0
 11
172.5590348589
 21
149.2326313734
 31
0.0
  0
MTEXT
  5
23E
330
236
100
AcDbEntity
  8
VERMASSUNG
100
AcDbMText
 10
190.1090356941
 20
151.8107669693
 30
0.0
 40
2.0
 41
0.0
 71
     1
 72
     1
  1
46.5
  7
SLDTEXTSTYLE0
 73
     1
 44
1.0
  0
MTEXT
  5
23F
330
236
100
AcDbEntity
  8
VERMASSUNG
100
AcDbMText
 10
196.2965355823
 20
151.8107669693
 30
0.0
 40
2.0
 41
0.0
 71
     1
 72
     1
  1
max.
  7
SLDTEXTSTYLE0
 73
     1
 44
1.0
  0
ENDBLK
  5
238
330
236
100
AcDbEntity
  8
0
100
AcDbBlockEnd
  0
BLOCK
  5
243
330
242
100
AcDbEntity
  8
0
100
AcDbBlockBegin
  2
_D_6
 70
     0
 10
0.0
 20
0.0
 30
0.0
  3
_D_6
  1

  0
SOLID
  5
245
330
242
100
AcDbEntity
  8
VERMASSUNG
100
AcDbTrace
 10
174.5873182823
 20
80.9702351586
 30
0.0
 11
177.5873182823
 21
80.5202351586
 31
0.0
 12
177.5873182823
 22
81.4202351586
 32
0.0
 13
177.5873182823
 23
81.4202351586
 33
0.0
  0
SOLID
  5
246
330
242
100
AcDbEntity
  8
VERMASSUNG
100
AcDbTrace
 10
219.0590348589
 20
80.9702351586
 30
0.0
 11
216.0590348589
 21
81.4202351586
 31
0.0
 12
216.0590348589
 22
80.5202351586
 32
0.0
 13
216.0590348589
 23
80.5202351586
 33
0.0
  0
LINE
  5
247
330
242
100
AcDbEntity
  8
VERMASSUNG
100
AcDbLine
 10
174.5873182823
 20
94.2943262758
 30
0.0
 11
174.5873182823
 21
79.9702351586
 31
0.0
  0
LINE
  5
248
330
242
100
AcDbEntity
  8
VERMASSUNG
100
AcDbLine
 10
219.0590348589
 20
99.6431072591
 30
0.0
 11
219.0590348589
 21
79.9702351586
 31
0.0
  0
LINE
  5
249
330
242
100
AcDbEntity
  8
VERMASSUNG
100
AcDbLine
 10
174.5873182823
 20
80.9702351586
 30
0.0
 11
219.0590348589
 21
80.9702351586
 31
0.0
  0
MTEXT
  5
24A
330
242
100
AcDbEntity
  8
VERMASSUNG
100
AcDbMText
 10
194.2231765635
 20
83.5483707546
 30
0.0
 40
2.0
 41
0.0
 71
     1
 72
     1
  1
44.5
  7
SLDTEXTSTYLE0
 73
     1
 44
1.0
  0
ENDBLK
  5
244
330
242
100
AcDbEntity
  8
0
100
AcDbBlockEnd
  0
BLOCK
  5
24D
330
24C
100
AcDbEntity
  8
0
100
AcDbBlockBegin
  2
_D_7
 70
     0
 10
0.0
 20
0.0
 30
0.0
  3
_D_7
  1

  0
SOLID
  5
24F
330
24C
100
AcDbEntity
  8
VERMASSUNG
100
AcDbTrace
 10
157.0590348589
 20
73.0916241424
 30
0.0
 11
160.0590348589
 21
72.6416241424
 31
0.0
 12
160.0590348589
 22
73.5416241424
 32
0.0
 13
160.0590348589
 23
73.5416241424
 33
0.0
  0
SOLID
  5
250
330
24C
100
AcDbEntity
  8
VERMASSUNG
100
AcDbTrace
 10
219.0590348589
 20
73.0916241424
 30
0.0
 11
216.0590348589
 21
73.5416241424
 31
0.0
 12
216.0590348589
 22
72.6416241424
 32
0.0
 13
216.0590348589
 23
72.6416241424
 33
0.0
  0
LINE
  5
251
330
24C
100
AcDbEntity
  8
VERMASSUNG
100
AcDbLine
 10
157.0590348589
 20
79.8193262758
 30
0.0
 11
157.0590348589
 21
72.0916241424
 31
0.0
  0
LINE
  5
252
330
24C
100
AcDbEntity
  8
VERMASSUNG
100
AcDbLine
 10
219.0590348589
 20
99.6431072591
 30
0.0
 11
219.0590348589
 21
72.0916241424
 31
0.0
  0
LINE
  5
253
330
24C
100
AcDbEntity
  8
VERMASSUNG
100
AcDbLine
 10
157.0590348589
 20
73.0916241424
 30
0.0
 11
219.0590348589
 21
73.0916241424
 31
0.0
  0
MTEXT
  5
254
330
24C
100
AcDbEntity
  8
VERMASSUNG
100
AcDbMText
 10
186.6590349088
 20
75.6697597383
 30
0.0
 40
2.0
 41
0.0
 71
     1
 72
     1
  1
62
  7
SLDTEXTSTYLE0
 73
     1
 44
1.0
  0
ENDBLK
  5
24E
330
24C
100
AcDbEntity
  8
0
100
AcDbBlockEnd
  0
BLOCK
  5
257
330
256
100
AcDbEntity
  8
0
100
AcDbBlockBegin
  2
_D_8
 70
     0
 10
0.0
 20
0.0
 30
0.0
  3
_D_8
  1

  0
SOLID
  5
259
330
256
100
AcDbEntity
  8
VERMASSUNG
100
AcDbTrace
 10
139.0590348589
 20
158.7693262758
 30
0.0
 11
142.0590348589
 21
158.3193262758
 31
0.0
 12
142.0590348589
 22
159.2193262758
 32
0.0
 13
142.0590348589
 23
159.2193262758
 33
0.0
  0
SOLID
  5
25A
330
256
100
AcDbEntity
  8
VERMASSUNG
100
AcDbTrace
 10
219.0590348589
 20
158.7693262758
 30
0.0
 11
216.0590348589
 21
159.2193262758
 31
0.0
 12
216.0590348589
 22
158.3193262758
 32
0.0
 13
216.0590348589
 23
158.3193262758
 33
0.0
  0
LINE
  5
25B
330
256
100
AcDbEntity
  8
VERMASSUNG
100
AcDbLine
 10
139.0590348589
 20
142.5693262758
 30
0.0
 11
139.0590348589
 21
159.7693262758
 31
0.0
  0
LINE
  5
25C
330
256
100
AcDbEntity
  8
VERMASSUNG
100
AcDbLine
 10
219.0590348589
 20
122.9455452925
 30
0.0
 11
219.0590348589
 21
159.7693262758
 31
0.0
  0
LINE
  5
25D
330
256
100
AcDbEntity
  8
VERMASSUNG
100
AcDbLine
 10
139.0590348589
 20
158.7693262758
 30
0.0
 11
219.0590348589
 21
158.7693262758
 31
0.0
  0
MTEXT
  5
25E
330
256
100
AcDbEntity
  8
VERMASSUNG
100
AcDbMText
 10
177.6590349088
 20
161.3474618717
 30
0.0
 40
2.0
 41
0.0
 71
     1
 72
     1
  1
80
  7
SLDTEXTSTYLE0
 73
     1
 44
1.0
  0
ENDBLK
  5
258
330
256
100
AcDbEntity
  8
0
100
AcDbBlockEnd
  0
BLOCK
  5
261
330
260
100
AcDbEntity
  8
0
100
AcDbBlockBegin
  2
_D_9
 70
     0
 10
0.0
 20
0.0
 30
0.0
  3
_D_9
  1

  0
SOLID
  5
263
330
260
100
AcDbEntity
  8
VERMASSUNG
100
AcDbTrace
 10
219.0590348589
 20
166.7894467306
 30
0.0
 11
216.0590348589
 21
167.2394467306
 31
0.0
 12
216.0590348589
 22
166.3394467306
 32
0.0
 13
216.0590348589
 23
166.3394467306
 33
0.0
  0
SOLID
  5
264
330
260
100
AcDbEntity
  8
VERMASSUNG
100
AcDbTrace
 10
99.1090348589
 20
166.7894467306
 30
0.0
 11
102.1090348589
 21
166.3394467306
 31
0.0
 12
102.1090348589
 22
167.2394467306
 32
0.0
 13
102.1090348589
 23
167.2394467306
 33
0.0
  0
LINE
  5
265
330
260
100
AcDbEntity
  8
VERMASSUNG
100
AcDbLine
 10
219.0590348589
 20
122.9455452925
 30
0.0
 11
219.0590348589
 21
167.7894467306
 31
0.0
  0
LINE
  5
266
330
260
100
AcDbEntity
  8
VERMASSUNG
100
AcDbLine
 10
99.1090348589
 20
133.4974209996
 30
0.0
 11
99.1090348589
 21
167.7894467306
 31
0.0
  0
LINE
  5
267
330
260
100
AcDbEntity
  8
VERMASSUNG
100
AcDbLine
 10
219.0590348589
 20
166.7894467306
 30
0.0
 11
99.1090348589
 21
166.7894467306
 31
0.0
  0
MTEXT
  5
268
330
260
100
AcDbEntity
  8
VERMASSUNG
100
AcDbMText
 10
155.6840348138
 20
169.3675823265
 30
0.0
 40
2.0
 41
0.0
 71
     1
 72
     1
  1
119.95
  7
SLDTEXTSTYLE0
 73
     1
 44
1.0
  0
ENDBLK
  5
262
330
260
100
AcDbEntity
  8
0
100
AcDbBlockEnd
  0
BLOCK
  5
26B
330
26A
100
AcDbEntity
  8
0
100
AcDbBlockBegin
  2
_D_10
 70
     0
 10
0.0
 20
0.0
 30
0.0
  3
_D_10
  1

  0
SOLID
  5
26D
330
26A
100
AcDbEntity
  8
VERMASSUNG
100
AcDbTrace
 10
80.1112601601
 20
142.7693262758
 30
0.0
 11
79.6612601601
 21
139.7693262758
 31
0.0
 12
80.5612601601
 22
139.7693262758
 32
0.0
 13
80.5612601601
 23
139.7693262758
 33
0.0
  0
SOLID
  5
26E
330
26A
100
AcDbEntity
  8
VERMASSUNG
100
AcDbTrace
 10
80.1112601601
 20
79.8193262758
 30
0.0
 11
80.5612601601
 21
82.8193262758
 31
0.0
 12
79.6612601601
 22
82.8193262758
 32
0.0
 13
79.6612601601
 23
82.8193262758
 33
0.0
  0
LINE
  5
26F
330
26A
100
AcDbEntity
  8
VERMASSUNG
100
AcDbLine
 10
139.2590348589
 20
142.7693262758
 30
0.0
 11
79.1112601601
 21
142.7693262758
 31
0.0
  0
LINE
  5
270
330
26A
100
AcDbEntity
  8
VERMASSUNG
100
AcDbLine
 10
139.2590348589
 20
79.8193262758
 30
0.0
 11
79.1112601601
 21
79.8193262758
 31
0.0
  0
LINE
  5
271
330
26A
100
AcDbEntity
  8
VERMASSUNG
100
AcDbLine
 10
80.1112601601
 20
142.7693262758
 30
0.0
 11
80.1112601601
 21
79.8193262758
 31
0.0
  0
MTEXT
  5
272
330
26A
100
AcDbEntity
  8
VERMASSUNG
100
AcDbMText
 10
77.3331249039
 20
101.48932682
 30
0.0
 40
2.0
 41
0.0
 71
     1
 72
     1
  1
KM
  7
SLDTEXTSTYLE0
 11
-5.267838178243384E-15
 21
1.0
 31
0.0
 73
     1
 44
1.0
  0
MTEXT
  5
273
330
26A
100
AcDbEntity
  8
VERMASSUNG
100
AcDbMText
 10
77.5331248552
 20
104.8893266322
 30
0.0
 40
2.0
 41
0.0
 71
     1
 72
     1
  1
%%c
  7
SLDTEXTSTYLE0
 11
-5.267838178243384E-15
 21
1.0
 31
0.0
 73
     1
 44
1.0
  0
MTEXT
  5
274
330
26A
100
AcDbEntity
  8
VERMASSUNG
100
AcDbMText
 10
77.3331249039
 20
108.4993266465
 30
0.0
 40
2.0
 41
0.0
 71
     1
 72
     1
  1
62.95
  7
SLDTEXTSTYLE0
 11
-5.267838178243384E-15
 21
1.0
 31
0.0
 73
     1
 44
1.0
  0
MTEXT
  5
275
330
26A
100
AcDbEntity
  8
VERMASSUNG
100
AcDbMText
 10
77.3331249039
 20
115.8868263589
 30
0.0
 40
2.0
 41
0.0
 71
     1
 72
     1
  1
XMZ
  7
SLDTEXTSTYLE0
 11
-5.267838178243384E-15
 21
1.0
 31
0.0
 73
     1
 44
1.0
  0
ENDBLK
  5
26C
330
26A
100
AcDbEntity
  8
0
100
AcDbBlockEnd
  0
ENDSEC
  0
SECTION
  2
ENTITIES
  0
MTEXT
  5
78
330
1F
100
AcDbEntity
  8
KOPF_DÜNN
100
AcDbMText
 10
13.8892156294
 20
23.8442973028
 30
0.0
 40
3.0
 41
0.0
 71
     1
 72
     1
  1
KY6.S14.K01.080
  7
SLDTEXTSTYLE0
 73
     1
 44
1.0
  0
MTEXT
  5
79
330
1F
100
AcDbEntity
  8
VERMASSUNG
100
AcDbMText
 10
13.9329988022
 20
28.8834360957
 30
0.0
 40
3.0
 41
0.0
 71
     1
 72
     1
  1
Schrumpffutter_Heat shrink chuck
  7
SLDTEXTSTYLE0
 73
     1
 44
1.0
  0
MTEXT
  5
7A
330
1F
100
AcDbEntity
  8
VERMASSUNG
100
AcDbMText
 10
98.8601118557
 20
13.8365368761
 30
0.0
 40
2.0
 41
0.0
 71
     1
 72
     1
  1
Datum: 14.02.2018
  7
SLDTEXTSTYLE0
 73
     1
 44
1.0
  0
MTEXT
  5
7B
330
1F
100
AcDbEntity
  8
VERMASSUNG
100
AcDbMText
 10
13.933048693
 20
18.0482802738
 30
0.0
 40
2.0
 41
0.0
 71
     1
 72
     1
  1
KM63 XMZ / Ø14
  7
SLDTEXTSTYLE0
 73
     1
 44
1.0
  0
MTEXT
  5
7C
330
1F
100
AcDbEntity
  8
VERMASSUNG
100
AcDbMText
 10
13.9808475933
 20
13.9090974274
 30
0.0
 40
2.0
 41
0.0
 71
     1
 72
     1
  1
Gewicht: 938g
  7
SLDTEXTSTYLE0
 73
     1
 44
1.0
  0
LINE
  5
7D
330
1F
100
AcDbEntity
  8
0
  6
Continuous
 62
     7
370
    25
100
AcDbLine
 10
346.8414364801
 20
110.3593676432
 30
0.0
 11
347.1013194834
 21
111.7791542981
 31
0.0
  0
LINE
  5
7E
330
1F
100
AcDbEntity
  8
0
  6
Continuous
 62
     7
370
    25
100
AcDbLine
 10
347.1013194834
 20
111.7791542981
 30
0.0
 11
346.0016897192
 21
112.7141128724
 31
0.0
  0
LINE
  5
7F
330
1F
100
AcDbEntity
  8
0
  6
Continuous
 62
     7
370
    25
100
AcDbLine
 10
346.0016897192
 20
112.7141128724
 30
0.0
 11
344.6421768935
 21
112.2292849083
 31
0.0
  0
LINE
  5
80
330
1F
100
AcDbEntity
  8
0
  6
Continuous
 62
     7
370
    25
100
AcDbLine
 10
344.6421768935
 20
112.2292849083
 30
0.0
 11
344.3822938902
 21
110.8094982535
 31
0.0
  0
LINE
  5
81
330
1F
100
AcDbEntity
  8
0
  6
Continuous
 62
     7
370
    25
100
AcDbLine
 10
344.3822938902
 20
110.8094982535
 30
0.0
 11
345.4819236544
 21
109.8745396791
 31
0.0
  0
LINE
  5
82
330
1F
100
AcDbEntity
  8
0
  6
Continuous
 62
     7
370
    25
100
AcDbLine
 10
345.4819236544
 20
109.8745396791
 30
0.0
 11
346.8414364801
 21
110.3593676432
 31
0.0
  0
ARC
  5
83
330
1F
100
AcDbEntity
  8
0
  6
Continuous
 62
     7
370
    25
100
AcDbCircle
 10
345.7418066868
 20
111.2943262758
 30
0.0
 40
1.250000000000013
100
AcDbArc
 50
169.6271967899
 51
229.6271967899
  0
ARC
  5
84
330
1F
100
AcDbEntity
  8
0
  6
Continuous
 62
     7
370
    25
100
AcDbCircle
 10
345.7418066868
 20
111.2943262758
 30
0.0
 40
1.250000000000003
100
AcDbArc
 50
109.6271967899
 51
169.6271967899
  0
ARC
  5
85
330
1F
100
AcDbEntity
  8
0
  6
Continuous
 62
     7
370
    25
100
AcDbCircle
 10
345.7418066868
 20
111.2943262758
 30
0.0
 40
1.250000000000013
100
AcDbArc
 50
229.6271967899
 51
289.6271967899
  0
ARC
  5
86
330
1F
100
AcDbEntity
  8
0
  6
Continuous
 62
     7
370
    25
100
AcDbCircle
 10
345.7418066868
 20
111.2943262758
 30
0.0
 40
1.250000000000003
100
AcDbArc
 50
49.6271967899
 51
109.6271967899
  0
ARC
  5
87
330
1F
100
AcDbEntity
  8
0
  6
Continuous
 62
     7
370
    25
100
AcDbCircle
 10
345.7418066868
 20
111.2943262758
 30
0.0
 40
1.250000000000002
100
AcDbArc
 50
349.6271967899
 51
49.6271967899
  0
ARC
  5
88
330
1F
100
AcDbEntity
  8
0
  6
Continuous
 62
     7
370
    25
100
AcDbCircle
 10
345.7418066868
 20
111.2943262758
 30
0.0
 40
1.249999999999997
100
AcDbArc
 50
289.6271967899
 51
349.6271967899
  0
SPLINE
  5
89
330
1F
100
AcDbEntity
  8
0
  6
Continuous
 62
     7
370
    25
100
AcDbSpline
210
0.0
220
0.0
230
1.0
 70
     8
 71
     3
 72
     8
 73
     4
 74
     0
 42
0.000000001
 43
0.00000001
 40
0.0
 40
0.0
 40
0.0
 40
0.0
 40
1.0
 40
1.0
 40
1.0
 40
1.0
 10
335.3526665771541
 20
106.9243254038107
 30
0.0
 10
335.2838282069673
 20
106.8612307304918
 30
0.0
 10
335.2153968465112
 20
106.797508352361
 30
0.0
 10
335.1473805718464
 20
106.7331629200876
 30
0.0
  0
SPLINE
  5
8A
330
1F
100
AcDbEntity
  8
0
  6
Continuous
 62
     7
370
    25
100
AcDbSpline
210
0.0
220
0.0
230
1.0
 70
     8
 71
     3
 72
     8
 73
     4
 74
     0
 42
0.000000001
 43
0.00000001
 40
0.0
 40
0.0
 40
0.0
 40
0.0
 40
1.0
 40
1.0
 40
1.0
 40
1.0
 10
335.6106938184147
 20
106.7550635738833
 30
0.0
 10
335.5239903842543
 20
106.8112244935526
 30
0.0
 10
335.4379923367704
 20
106.8676492298785
 30
0.0
 10
335.3526665771541
 20
106.9243254038107
 30
0.0
  0
ARC
  5
8B
330
1F
100
AcDbEntity
  8
0
  6
Continuous
 62
     7
370
    25
100
AcDbCircle
 10
345.7418066868
 20
111.2943262758
 30
0.0
 40
11.10154736189901
100
AcDbArc
 50
204.1348482805
 51
335.8651517195
  0
SPLINE
  5
8C
330
1F
100
AcDbEntity
  8
0
  6
Continuous
 62
     7
370
    25
100
AcDbSpline
210
0.0
220
0.0
230
1.0
 70
     8
 71
     3
 72
     8
 73
     4
 74
     0
 42
0.000000001
 43
0.00000001
 40
0.0
 40
0.0
 40
0.0
 40
0.0
 40
1.0
 40
1.0
 40
1.0
 40
1.0
 10
356.1309467964198
 20
106.9243254038107
 30
0.0
 10
356.0456210368034
 20
106.8676492298785
 30
0.0
 10
355.9596229893195
 20
106.8112244935526
 30
0.0
 10
355.8729195551591
 20
106.7550635738833
 30
0.0
  0
SPLINE
  5
8D
330
1F
100
AcDbEntity
  8
0
  6
Continuous
 62
     7
370
    25
100
AcDbSpline
210
0.0
220
0.0
230
1.0
 70
     8
 71
     3
 72
     8
 73
     4
 74
     0
 42
0.000000001
 43
0.00000001
 40
0.0
 40
0.0
 40
0.0
 40
0.0
 40
1.0
 40
1.0
 40
1.0
 40
1.0
 10
356.3362328017274
 20
106.7331629200876
 30
0.0
 10
356.2682165270627
 20
106.797508352361
 30
0.0
 10
356.1997851666065
 20
106.8612307304918
 30
0.0
 10
356.1309467964198
 20
106.9243254038107
 30
0.0
  0
ARC
  5
8E
330
1F
100
AcDbEntity
  8
0
  6
Continuous
 62
     7
370
    25
100
AcDbCircle
 10
345.7418066868
 20
111.2943262758
 30
0.0
 40
11.53456006379122
100
AcDbArc
 50
203.2930774359
 51
336.7074733161
  0
SPLINE
  5
8F
330
1F
100
AcDbEntity
  8
0
  6
Continuous
 62
     7
370
    25
100
AcDbSpline
210
0.0
220
0.0
230
1.0
 70
     8
 71
     3
 72
     8
 73
     4
 74
     0
 42
0.000000001
 43
0.00000001
 40
0.0000004028655191
 40
0.0000004028655191
 40
0.0000004028655191
 40
0.0000004028655191
 40
0.0015137684369673
 40
0.0015137684369673
 40
0.0015137684369673
 40
0.0015137684369673
 10
337.3182120296448
 20
106.9720508719911
 30
0.0
 10
337.1115405420936
 20
106.8997569302764
 30
0.0
 10
336.9049215735529
 20
106.8274254443197
 30
0.0
 10
336.6983451987443
 20
106.7550635738833
 30
0.0
  0
LINE
  5
90
330
1F
100
AcDbEntity
  8
0
  6
Continuous
 62
     7
370
    25
100
AcDbLine
 10
336.6983450436
 20
106.7550637724
 30
0.0
 11
335.6106934556
 21
106.7550637724
 31
0.0
  0
LINE
  5
91
330
1F
100
AcDbEntity
  8
0
  6
Continuous
 62
     7
370
    25
100
AcDbLine
 10
335.5757213616
 20
107.1880761499
 30
0.0
 11
335.352666811
 21
106.9243255967
 31
0.0
  0
LINE
  5
92
330
1F
100
AcDbEntity
  8
0
  6
Continuous
 62
     7
370
    25
100
AcDbLine
 10
337.3433315614
 20
107.1880761499
 30
0.0
 11
335.5759364971
 21
107.1880761499
 31
0.0
  0
LINE
  5
93
330
1F
100
AcDbEntity
  8
0
  6
Continuous
 62
     7
370
    25
100
AcDbLine
 10
337.3539886856
 20
107.0304954389
 30
0.0
 11
337.3433315614
 21
107.1880761499
 31
0.0
  0
SPLINE
  5
94
330
1F
100
AcDbEntity
  8
0
  6
Continuous
 62
     7
370
    25
100
AcDbSpline
210
0.0
220
0.0
230
1.0
 70
     8
 71
     3
 72
     8
 73
     4
 74
     0
 42
0.000000001
 43
0.00000001
 40
0.0006523765358268
 40
0.0006523765358268
 40
0.0006523765358268
 40
0.0006523765358268
 40
0.0009043636494504
 40
0.0009043636494504
 40
0.0009043636494504
 40
0.0009043636494504
 10
337.3550889046797
 20
107.0322889694398
 30
0.0
 10
337.3427719101622
 20
107.0122133884576
 30
0.0
 10
337.3304797127582
 20
106.9921339999351
 30
0.0
 10
337.3182120296448
 20
106.9720508719911
 30
0.0
  0
LINE
  5
95
330
1F
100
AcDbEntity
  8
0
  6
Continuous
 62
     7
370
    25
100
AcDbLine
 10
335.765873217
 20
116.5726253727
 30
0.0
 11
335.9742817887
 21
116.3243263925
 31
0.0
  0
SPLINE
  5
96
330
1F
100
AcDbEntity
  8
0
  6
Continuous
 62
     7
370
    25
100
AcDbSpline
210
0.0
220
0.0
230
1.0
 70
     8
 71
     3
 72
     8
 73
     4
 74
     0
 42
0.000000001
 43
0.00000001
 40
0.0
 40
0.0
 40
0.0
 40
0.0
 40
1.0
 40
1.0
 40
1.0
 40
1.0
 10
335.7658736374625
 20
116.5726255251648
 30
0.0
 10
335.8687695512864
 20
116.6345941342557
 30
0.0
 10
335.9726092208413
 20
116.6961727863963
 30
0.0
 10
336.0774471090679
 20
116.7573389776678
 30
0.0
  0
LINE
  5
97
330
1F
100
AcDbEntity
  8
0
  6
Continuous
 62
     7
370
    25
100
AcDbLine
 10
337.2244957322
 20
116.7573387699
 30
0.0
 11
336.0774471843
 21
116.7573387699
 31
0.0
  0
SPLINE
  5
98
330
1F
100
AcDbEntity
  8
0
  6
Continuous
 62
     7
370
    25
100
AcDbSpline
210
0.0
220
0.0
230
1.0
 70
     8
 71
     3
 72
     8
 73
     4
 74
     0
 42
0.000000001
 43
0.00000001
 40
0.0000004089325119
 40
0.0000004089325119
 40
0.0000004089325119
 40
0.0000004089325119
 40
0.0015399868451459
 40
0.0015399868451459
 40
0.0015399868451459
 40
0.0015399868451459
 10
337.224495269358
 20
116.7573389776678
 30
0.0
 10
337.4362565281525
 20
116.6848840950143
 30
0.0
 10
337.6481768513427
 20
116.6125452249858
 30
0.0
 10
337.860294834557
 20
116.54035167956
 30
0.0
  0
LINE
  5
99
330
1F
100
AcDbEntity
  8
0
  6
Continuous
 62
     7
370
    25
100
AcDbLine
 10
337.8602947527
 20
116.5403517859
 30
0.0
 11
337.8684475505
 21
116.5251390973
 31
0.0
  0
LINE
  5
9A
330
1F
100
AcDbEntity
  8
0
  6
Continuous
 62
     7
370
    25
100
AcDbLine
 10
337.8660773346
 20
116.3243263925
 30
0.0
 11
337.8684484818
 21
116.525139563
 31
0.0
  0
LINE
  5
9B
330
1F
100
AcDbEntity
  8
0
  6
Continuous
 62
     7
370
    25
100
AcDbLine
 10
337.8660773346
 20
116.3243263925
 30
0.0
 11
335.9742817887
 21
116.3243263925
 31
0.0
  0
ARC
  5
9C
330
1F
100
AcDbEntity
  8
0
  6
Continuous
 62
     7
370
    25
100
AcDbCircle
 10
345.7418066868
 20
111.2943262758
 30
0.0
 40
11.10154736189899
100
AcDbArc
 50
29.4783538465
 51
150.5216461535
  0
SPLINE
  5
9D
330
1F
100
AcDbEntity
  8
0
  6
Continuous
 62
     7
370
    25
100
AcDbSpline
210
0.0
220
0.0
230
1.0
 70
     8
 71
     3
 72
     8
 73
     4
 74
     0
 42
0.000000001
 43
0.00000001
 40
0.0
 40
0.0
 40
0.0
 40
0.0
 40
1.0
 40
1.0
 40
1.0
 40
1.0
 10
335.5773372563486
 20
116.7468153460344
 30
0.0
 10
335.6399055647182
 20
116.6883648769268
 30
0.0
 10
335.702752158082
 20
116.6303008663937
 30
0.0
 10
335.7658736374649
 20
116.5726255251625
 30
0.0
  0
ARC
  5
9E
330
1F
100
AcDbEntity
  8
0
  6
Continuous
 62
     7
370
    25
100
AcDbCircle
 10
345.7418066868
 20
111.2943262758
 30
0.0
 40
11.53456006379123
100
AcDbArc
 50
28.2102805322
 51
151.7902347364
  0
SPLINE
  5
9F
330
1F
100
AcDbEntity
  8
0
  6
Continuous
 62
     7
370
    25
100
AcDbSpline
210
0.0
220
0.0
230
1.0
 70
     8
 71
     3
 72
     8
 73
     4
 74
     0
 42
0.000000001
 43
0.00000001
 40
0.0
 40
0.0
 40
0.0
 40
0.0
 40
1.0
 40
1.0
 40
1.0
 40
1.0
 10
355.7177397361093
 20
116.5726255251628
 30
0.0
 10
355.780861215492
 20
116.6303008663939
 30
0.0
 10
355.8437078088557
 20
116.6883648769269
 30
0.0
 10
355.9062761172253
 20
116.7468153460344
 30
0.0
  0
SPLINE
  5
A0
330
1F
100
AcDbEntity
  8
0
  6
Continuous
 62
     7
370
    25
100
AcDbSpline
210
0.0
220
0.0
230
1.0
 70
     8
 71
     3
 72
     8
 73
     4
 74
     0
 42
0.000000001
 43
0.00000001
 40
0.0
 40
0.0
 40
0.0
 40
0.0
 40
1.0
 40
1.0
 40
1.0
 40
1.0
 10
355.406166264506
 20
116.7573389776678
 30
0.0
 10
355.5110041527322
 20
116.6961727863965
 30
0.0
 10
355.6148438222867
 20
116.6345941342561
 30
0.0
 10
355.7177397361103
 20
116.5726255251654
 30
0.0
  0
LINE
  5
A1
330
1F
100
AcDbEntity
  8
0
  6
Continuous
 62
     7
370
    25
100
AcDbLine
 10
356.1309465626
 20
106.9243255967
 30
0.0
 11
355.907892012
 21
107.1880761499
 31
0.0
  0
LINE
  5
A2
330
1F
100
AcDbEntity
  8
0
  6
Continuous
 62
     7
370
    25
100
AcDbLine
 10
355.872919918
 20
106.7550637724
 30
0.0
 11
354.7852683299
 21
106.7550637724
 31
0.0
  0
SPLINE
  5
A3
330
1F
100
AcDbEntity
  8
0
  6
Continuous
 62
     7
370
    25
100
AcDbSpline
210
0.0
220
0.0
230
1.0
 70
     8
 71
     3
 72
     8
 73
     4
 74
     0
 42
0.000000001
 43
0.00000001
 40
0.0000004024872366
 40
0.0000004024872366
 40
0.0000004024872366
 40
0.0000004024872366
 40
0.0015137680586847
 40
0.0015137680586847
 40
0.0015137680586847
 40
0.0015137680586847
 10
354.7852681748295
 20
106.7550635738833
 30
0.0
 10
354.5786918000209
 20
106.8274254443197
 30
0.0
 10
354.3720728314802
 20
106.8997569302764
 30
0.0
 10
354.165401343929
 20
106.9720508719911
 30
0.0
  0
SPLINE
  5
A4
330
1F
100
AcDbEntity
  8
0
  6
Continuous
 62
     7
370
    25
100
AcDbSpline
210
0.0
220
0.0
230
1.0
 70
     8
 71
     3
 72
     8
 73
     4
 74
     0
 42
0.000000001
 43
0.00000001
 40
0.0000002414707367
 40
0.0000002414707367
 40
0.0000002414707367
 40
0.0000002414707367
 40
0.0002447240690309
 40
0.0002447240690309
 40
0.0002447240690309
 40
0.0002447240690309
 10
354.165401343929
 20
106.9720508719911
 30
0.0
 10
354.1534990085739
 20
106.9915358979377
 30
0.0
 10
354.1415735973621
 20
107.0110174037621
 30
0.0
 10
354.1296248520673
 20
107.0304953272739
 30
0.0
  0
LINE
  5
A5
330
1F
100
AcDbEntity
  8
0
  6
Continuous
 62
     7
370
    25
100
AcDbLine
 10
354.1402818122
 20
107.1880761499
 30
0.0
 11
354.129624688
 21
107.0304954389
 31
0.0
  0
LINE
  5
A6
330
1F
100
AcDbEntity
  8
0
  6
Continuous
 62
     7
370
    25
100
AcDbLine
 10
355.907892012
 20
107.1880761499
 30
0.0
 11
354.1351735079
 21
107.1880761499
 31
0.0
  0
SPLINE
  5
A7
330
1F
100
AcDbEntity
  8
0
  6
Continuous
 62
     7
370
    25
100
AcDbSpline
210
0.0
220
0.0
230
1.0
 70
     8
 71
     3
 72
     8
 73
     4
 74
     0
 42
0.000000001
 43
0.00000001
 40
0.000000410413179
 40
0.000000410413179
 40
0.000000410413179
 40
0.000000410413179
 40
0.0015399883258131
 40
0.0015399883258131
 40
0.0015399883258131
 40
0.0015399883258131
 10
353.6233185390169
 20
116.54035167956
 30
0.0
 10
353.8354365222311
 20
116.6125452249858
 30
0.0
 10
354.0473568454214
 20
116.6848840950143
 30
0.0
 10
354.2591181042158
 20
116.7573389776678
 30
0.0
  0
LINE
  5
A8
330
1F
100
AcDbEntity
  8
0
  6
Continuous
 62
     7
370
    25
100
AcDbLine
 10
355.4061661893
 20
116.7573387699
 30
0.0
 11
354.2591176414
 21
116.7573387699
 31
0.0
  0
LINE
  5
A9
330
1F
100
AcDbEntity
  8
0
  6
Continuous
 62
     7
370
    25
100
AcDbLine
 10
355.5093315848
 20
116.3243263925
 30
0.0
 11
355.7177401566
 21
116.5726253727
 31
0.0
  0
LINE
  5
AA
330
1F
100
AcDbEntity
  8
0
  6
Continuous
 62
     7
370
    25
100
AcDbLine
 10
355.509141595
 20
116.3243263925
 30
0.0
 11
353.617536039
 21
116.3243263925
 31
0.0
  0
LINE
  5
AB
330
1F
100
AcDbEntity
  8
0
  6
Continuous
 62
     7
370
    25
100
AcDbLine
 10
353.6151648917
 20
116.5251390973
 30
0.0
 11
353.617536039
 21
116.3243263925
 31
0.0
  0
LINE
  5
AC
330
1F
100
AcDbEntity
  8
0
  6
Continuous
 62
     7
370
    25
100
AcDbLine
 10
353.6151658231
 20
116.5251390973
 30
0.0
 11
353.6233186209
 21
116.5403517859
 31
0.0
  0
ARC
  5
AD
330
1F
100
AcDbEntity
  8
0
  6
Continuous
 62
     7
370
    25
100
AcDbCircle
 10
345.7418066868
 20
111.2943262758
 30
0.0
 40
10.11875000000003
100
AcDbArc
 50
32.6761561262
 51
147.3238438738
  0
ARC
  5
AE
330
1F
100
AcDbEntity
  8
0
  6
Continuous
 62
     7
370
    25
100
AcDbCircle
 10
345.7418066868
 20
111.2943262758
 30
0.0
 40
10.11875
100
AcDbArc
 50
206.6538426687
 51
333.3461573313
  0
ARC
  5
AF
330
1F
100
AcDbEntity
  8
0
  6
Continuous
 62
     7
370
    25
100
AcDbCircle
 10
345.7418066868
 20
111.2943262758
 30
0.0
 40
9.467788105676675
100
AcDbArc
 50
33.6481949792
 51
146.3518050208
  0
ARC
  5
B0
330
1F
100
AcDbEntity
  8
0
  6
Continuous
 62
     7
370
    25
100
AcDbCircle
 10
345.7418066868
 20
111.2943262758
 30
0.0
 40
9.467788105676714
100
AcDbArc
 50
207.1630537883
 51
332.8369462117
  0
SPLINE
  5
B1
330
1F
100
AcDbEntity
  8
0
  6
Continuous
 62
     7
370
    25
100
AcDbSpline
210
0.0
220
0.0
230
1.0
 70
     8
 71
     3
 72
     8
 73
     4
 74
     0
 42
0.000000001
 43
0.00000001
 40
0.0
 40
0.0
 40
0.0
 40
0.0
 40
1.0
 40
1.0
 40
1.0
 40
1.0
 10
335.1473805716564
 20
106.7331629201989
 30
0.0
 10
335.0941377467148
 20
106.7336866464367
 30
0.0
 10
335.0408424610991
 20
106.7344847396991
 30
0.0
 10
334.9874969556096
 20
106.7355577876239
 30
0.0
  0
LINE
  5
B2
330
1F
100
AcDbEntity
  8
0
  6
Continuous
 62
     7
370
    25
100
AcDbLine
 10
335.4155841702
 20
107.1880761499
 30
0.0
 11
335.5757213616
 21
107.1880761499
 31
0.0
  0
LINE
  5
B3
330
1F
100
AcDbEntity
  8
0
  6
Continuous
 62
     7
370
    25
100
AcDbLine
 10
355.907892012
 20
107.1880761499
 30
0.0
 11
356.0680292034
 21
107.1880761499
 31
0.0
  0
SPLINE
  5
B4
330
1F
100
AcDbEntity
  8
0
  6
Continuous
 62
     7
370
    25
100
AcDbSpline
210
0.0
220
0.0
230
1.0
 70
     8
 71
     3
 72
     8
 73
     4
 74
     0
 42
0.000000001
 43
0.00000001
 40
0.0
 40
0.0
 40
0.0
 40
0.0
 40
1.0
 40
1.0
 40
1.0
 40
1.0
 10
356.4961164179642
 20
106.7355577876239
 30
0.0
 10
356.4427709124747
 20
106.7344847396991
 30
0.0
 10
356.389475626859
 20
106.7336866464367
 30
0.0
 10
356.3362328019174
 20
106.7331629201989
 30
0.0
  0
LINE
  5
B5
330
1F
100
AcDbEntity
  8
0
  6
Continuous
 62
     7
370
    25
100
AcDbLine
 10
335.9742817887
 20
116.3243263925
 30
0.0
 11
335.8508647838
 21
116.3243263925
 31
0.0
  0
SPLINE
  5
B6
330
1F
100
AcDbEntity
  8
0
  6
Continuous
 62
     7
370
    25
100
AcDbSpline
210
0.0
220
0.0
230
1.0
 70
     8
 71
     3
 72
     8
 73
     4
 74
     0
 42
0.000000001
 43
0.00000001
 40
0.0
 40
0.0
 40
0.0
 40
0.0
 40
1.0
 40
1.0
 40
1.0
 40
1.0
 10
335.4541157621072
 20
116.7447717927119
 30
0.0
 10
335.495231189149
 20
116.7456407303519
 30
0.0
 10
335.5363054837601
 20
116.7463217679348
 30
0.0
 10
335.5773372562492
 20
116.7468153459962
 30
0.0
  0
SPLINE
  5
B7
330
1F
100
AcDbEntity
  8
0
  6
Continuous
 62
     7
370
    25
100
AcDbSpline
210
0.0
220
0.0
230
1.0
 70
     8
 71
     3
 72
     8
 73
     4
 74
     0
 42
0.000000001
 43
0.00000001
 40
0.0
 40
0.0
 40
0.0
 40
0.0
 40
1.0
 40
1.0
 40
1.0
 40
1.0
 10
355.9062761173247
 20
116.7468153459963
 30
0.0
 10
355.9473078898138
 20
116.7463217679348
 30
0.0
 10
355.9883821844248
 20
116.7456407303519
 30
0.0
 10
356.0294976114667
 20
116.7447717927119
 30
0.0
  0
LINE
  5
B8
330
1F
100
AcDbEntity
  8
0
  6
Continuous
 62
     7
370
    25
100
AcDbLine
 10
355.6327485898
 20
116.3243263925
 30
0.0
 11
355.5093315848
 21
116.3243263925
 31
0.0
  0
SPLINE
  5
B9
330
1F
100
AcDbEntity
  8
0
  6
Continuous
 62
     7
370
    25
100
AcDbSpline
210
0.0
220
0.0
230
1.0
 70
     8
 71
     3
 72
     9
 73
     5
 74
     0
 42
0.000000001
 43
0.00000001
 40
0.0
 40
0.0
 40
0.0
 40
0.0
 40
0.4897878789203994
 40
0.9999999999999999
 40
0.9999999999999999
 40
0.9999999999999999
 40
0.9999999999999999
 10
352.8473962514383
 20
116.5174431420133
 30
0.0
 10
352.9737513336596
 20
116.5187618677666
 30
0.0
 10
353.2317305276317
 20
116.5214543103729
 30
0.0
 10
353.4856252759212
 20
116.5238943882089
 30
0.0
 10
353.6151654539769
 20
116.5251393454972
 30
0.0
  0
ARC
  5
BA
330
1F
100
AcDbEntity
  8
0
  6
Continuous
 62
     7
370
    25
100
AcDbCircle
 10
345.7418066868
 20
111.2943262758
 30
0.0
 40
8.818750000000065
100
AcDbArc
 50
36.3185452201
 51
143.6814533294
  0
SPLINE
  5
BB
330
1F
100
AcDbEntity
  8
0
  6
Continuous
 62
     7
370
    25
100
AcDbSpline
210
0.0
220
0.0
230
1.0
 70
     8
 71
     3
 72
     9
 73
     5
 74
     0
 42
0.000000001
 43
0.00000001
 40
0.0
 40
0.0
 40
0.0
 40
0.0
 40
0.5102121239851395
 40
0.9999999999999999
 40
0.9999999999999999
 40
0.9999999999999999
 40
0.9999999999999999
 10
337.8684478184722
 20
116.5251395341015
 30
0.0
 10
337.997988036323
 20
116.5238945754106
 30
0.0
 10
338.2518828611638
 20
116.5214544948396
 30
0.0
 10
338.5098621341735
 20
116.5187620491464
 30
0.0
 10
338.6362172543568
 20
116.5174433218891
 30
0.0
  0
SPLINE
  5
BC
330
1F
100
AcDbEntity
  8
0
  6
Continuous
 62
     7
370
    25
100
AcDbSpline
210
0.0
220
0.0
230
1.0
 70
     8
 71
     3
 72
     8
 73
     4
 74
     0
 42
0.000000001
 43
0.00000001
 40
0.0
 40
0.0
 40
0.0
 40
0.0
 40
1.0
 40
1.0
 40
1.0
 40
1.0
 10
338.6362170006822
 20
116.5174428526119
 30
0.0
 10
338.6284559427368
 20
116.5068846174128
 30
0.0
 10
338.6207184176409
 20
116.4963090838865
 30
0.0
 10
338.6130045022714
 20
116.485716357107
 30
0.0
  0
SPLINE
  5
BD
330
1F
100
AcDbEntity
  8
0
  6
Continuous
 62
     7
370
    25
100
AcDbSpline
210
0.0
220
0.0
230
1.0
 70
     8
 71
     3
 72
     8
 73
     4
 74
     0
 42
0.000000001
 43
0.00000001
 40
0.0
 40
0.0
 40
0.0
 40
0.0
 40
1.0
 40
1.0
 40
1.0
 40
1.0
 10
338.4414466695084
 20
116.3243266146438
 30
0.0
 10
338.4987070765428
 20
116.3782347916316
 30
0.0
 10
338.5558934676525
 20
116.4320317167147
 30
0.0
 10
338.6130045022714
 20
116.485716357107
 30
0.0
  0
LINE
  5
BE
330
1F
100
AcDbEntity
  8
0
  6
Continuous
 62
     7
370
    25
100
AcDbLine
 10
338.4414474898
 20
116.3243263925
 30
0.0
 11
337.8660773346
 21
116.3243263925
 31
0.0
  0
SPLINE
  5
BF
330
1F
100
AcDbEntity
  8
0
  6
Continuous
 62
     7
370
    25
100
AcDbSpline
210
0.0
220
0.0
230
1.0
 70
     8
 71
     3
 72
     8
 73
     4
 74
     0
 42
0.000000001
 43
0.00000001
 40
0.0
 40
0.0
 40
0.0
 40
0.0
 40
1.0
 40
1.0
 40
1.0
 40
1.0
 10
352.8707243030835
 20
116.4855578428082
 30
0.0
 10
352.8629721903829
 20
116.4962035194808
 30
0.0
 10
352.8551962317156
 20
116.506831831675
 30
0.0
 10
352.8473965051122
 20
116.5174426727374
 30
0.0
  0
LINE
  5
C0
330
1F
100
AcDbEntity
  8
0
  6
Continuous
 62
     7
370
    25
100
AcDbLine
 10
353.617536039
 20
116.3243263925
 30
0.0
 11
353.0421374784
 21
116.3243263925
 31
0.0
  0
SPLINE
  5
C1
330
1F
100
AcDbEntity
  8
0
  6
Continuous
 62
     7
370
    25
100
AcDbSpline
210
0.0
220
0.0
230
1.0
 70
     8
 71
     3
 72
     8
 73
     4
 74
     0
 42
0.000000001
 43
0.00000001
 40
0.0
 40
0.0
 40
0.0
 40
0.0
 40
1.0
 40
1.0
 40
1.0
 40
1.0
 10
352.8707243030835
 20
116.4855578428082
 30
0.0
 10
352.9277874307696
 20
116.4319258923924
 30
0.0
 10
352.9849258104999
 20
116.3781818060275
 30
0.0
 10
353.0421381039737
 20
116.3243266147772
 30
0.0
  0
ARC
  5
C2
330
1F
100
AcDbEntity
  8
0
  6
Continuous
 62
     7
370
    25
100
AcDbCircle
 10
345.7418066868
 20
111.2943262758
 30
0.0
 40
8.81875000000006
100
AcDbArc
 50
209.2047569376
 51
330.7952430624
  0
SPLINE
  5
C3
330
1F
100
AcDbEntity
  8
0
  6
Continuous
 62
     7
370
    25
100
AcDbSpline
210
0.0
220
0.0
230
1.0
 70
    24
 71
     3
 72
     8
 73
     4
 74
     0
 42
0.000000001
 43
0.00000001
 40
0.0
 40
0.0
 40
0.0
 40
0.0
 40
0.0001360402183991
 40
0.0001360402183991
 40
0.0001360402183991
 40
0.0001360402183991
 10
353.4829420836313
 20
107.0347858449244
 30
0.0
 10
353.4685030839471
 20
107.0203468452403
 30
0.0
 10
353.4540326315849
 20
107.005876392878
 30
0.0
 10
353.4395310330335
 20
106.9913747943266
 30
0.0
  0
SPLINE
  5
C4
330
1F
100
AcDbEntity
  8
0
  6
Continuous
 62
     7
370
    25
100
AcDbSpline
210
0.0
220
0.0
230
1.0
 70
     8
 71
     3
 72
     9
 73
     5
 74
     0
 42
0.000000001
 43
0.00000001
 40
0.0
 40
0.0
 40
0.0
 40
0.0
 40
0.5086448740972567
 40
1.0
 40
1.0
 40
1.0
 40
1.0
 10
354.1296248123875
 20
107.0304952391393
 30
0.0
 10
354.0204587633897
 20
107.0311890879843
 30
0.0
 10
353.8058374144739
 20
107.0325532005122
 30
0.0
 10
353.5893261017965
 20
107.03405002045
 30
0.0
 10
353.4829421584966
 20
107.034785490599
 30
0.0
  0
SPLINE
  5
C5
330
1F
100
AcDbEntity
  8
0
  6
Continuous
 62
     7
370
    25
100
AcDbSpline
210
0.0
220
0.0
230
1.0
 70
     8
 71
     3
 72
     9
 73
     5
 74
     0
 42
0.000000001
 43
0.00000001
 40
0.0
 40
0.0
 40
0.0
 40
0.0
 40
0.4913551252639924
 40
1.0
 40
1.0
 40
1.0
 40
1.0
 10
338.0006712455418
 20
107.0347854601344
 30
0.0
 10
337.8942872941497
 20
107.0340499898056
 30
0.0
 10
337.6777759647221
 20
107.0325531694999
 30
0.0
 10
337.4631545993553
 20
107.0311890566456
 30
0.0
 10
337.3539885418526
 20
107.0304952076337
 30
0.0
  0
SPLINE
  5
C6
330
1F
100
AcDbEntity
  8
0
  6
Continuous
 62
     7
370
    25
100
AcDbSpline
210
0.0
220
0.0
230
1.0
 70
    24
 71
     3
 72
     8
 73
     4
 74
     0
 42
0.000000001
 43
0.00000001
 40
0.0
 40
0.0
 40
0.0
 40
0.0
 40
0.0001360401227241
 40
0.0001360401227241
 40
0.0001360401227241
 40
0.0001360401227241
 10
338.0440823405404
 20
106.9913747943266
 30
0.0
 10
338.0295807521878
 20
107.0058763826793
 30
0.0
 10
338.0151103099805
 20
107.0203468248865
 30
0.0
 10
338.0006713204071
 20
107.0347858144599
 30
0.0
  0
LINE
  5
C7
330
1F
100
AcDbEntity
  8
0
  6
Continuous
 62
     7
370
    25
100
AcDbLine
 10
337.3433315614
 20
107.1880761499
 30
0.0
 11
337.8473810339
 21
107.1880761499
 31
0.0
  0
SPLINE
  5
C8
330
1F
100
AcDbEntity
  8
0
  6
Continuous
 62
     7
370
    25
100
AcDbSpline
210
0.0
220
0.0
230
1.0
 70
     8
 71
     3
 72
     8
 73
     4
 74
     0
 42
0.000000001
 43
0.00000001
 40
0.0
 40
0.0
 40
0.0
 40
0.0
 40
1.0
 40
1.0
 40
1.0
 40
1.0
 10
338.0006715202391
 20
107.0347856148728
 30
0.0
 10
337.9496027576346
 20
107.0858281066168
 30
0.0
 10
337.8985057979987
 20
107.1369250786428
 30
0.0
 10
337.8473809564831
 20
107.188076178384
 30
0.0
  0
SPLINE
  5
C9
330
1F
100
AcDbEntity
  8
0
  6
Continuous
 62
     7
370
    25
100
AcDbSpline
210
0.0
220
0.0
230
1.0
 70
     8
 71
     3
 72
     8
 73
     4
 74
     0
 42
0.000000001
 43
0.00000001
 40
0.0
 40
0.0
 40
0.0
 40
0.0
 40
1.0
 40
1.0
 40
1.0
 40
1.0
 10
353.6362324170909
 20
107.1880761783841
 30
0.0
 10
353.5851075857456
 20
107.1369250888288
 30
0.0
 10
353.5340106362646
 20
107.0858281269578
 30
0.0
 10
353.4829418837993
 20
107.0347856453373
 30
0.0
  0
LINE
  5
CA
330
1F
100
AcDbEntity
  8
0
  6
Continuous
 62
     7
370
    25
100
AcDbLine
 10
353.6362323397
 20
107.1880761499
 30
0.0
 11
354.1402818122
 21
107.1880761499
 31
0.0
  0
CIRCLE
  5
CB
330
1F
100
AcDbEntity
  8
0
  6
Continuous
 62
     7
370
    25
100
AcDbCircle
 10
345.7418066868
 20
111.2943262758
 30
0.0
 40
12.47086902276419
  0
SPLINE
  5
CC
330
1F
100
AcDbEntity
  8
0
  6
Continuous
 62
     7
370
    25
100
AcDbSpline
210
0.0
220
0.0
230
1.0
 70
     8
 71
     3
 72
    23
 73
    19
 74
     0
 42
0.000000001
 43
0.00000001
 40
0.0
 40
0.0
 40
0.0
 40
0.0
 40
0.0521036415680443
 40
0.103564624093566
 40
0.1544751946749824
 40
0.2049306267488185
 40
0.2550287880859467
 40
0.3048696389155856
 40
0.3545546704622095
 40
0.4041862979533031
 40
0.4538672252131345
 40
0.503699799942109
 40
0.5901870230745642
 40
0.6742716378229198
 40
0.7565997087222741
 40
0.8378563983721098
 40
0.9187511781367312
 40
1.0
 40
1.0
 40
1.0
 40
1.0
 10
334.9025545401294
 20
115.7847369885255
 30
0.0
 10
334.9158488950793
 20
115.8139048816872
 30
0.0
 10
334.9422736291576
 20
115.8718809040916
 30
0.0
 10
334.9814846353817
 20
115.954780205104
 30
0.0
 10
335.0199265901876
 20
116.0339621861219
 30
0.0
 10
335.0575141716544
 20
116.1092170029241
 30
0.0
 10
335.094170057962
 20
116.1806366571819
 30
0.0
 10
335.1298199220205
 20
116.2482332659634
 30
0.0
 10
335.1643936687817
 20
116.3120395874277
 30
0.0
 10
335.1978253627375
 20
116.3720831294965
 30
0.0
 10
335.2300522399622
 20
116.4283898262227
 30
0.0
 10
335.2685536768516
 20
116.4937948080461
 30
0.0
 10
335.3112151575649
 20
116.563355885882
 30
0.0
 10
335.3547081996879
 20
116.6301153825465
 30
0.0
 10
335.3911206965159
 20
116.6818394306442
 30
0.0
 10
335.4200215029932
 20
116.7182877426961
 30
0.0
 10
335.4419389590914
 20
116.7408851395793
 30
0.0
 10
335.4500509235846
 20
116.7434743571407
 30
0.0
 10
335.4541157621072
 20
116.7447717927119
 30
0.0
  0
SPLINE
  5
CD
330
1F
100
AcDbEntity
  8
0
  6
Continuous
 62
     7
370
    25
100
AcDbSpline
210
0.0
220
0.0
230
1.0
 70
     8
 71
     3
 72
     8
 73
     4
 74
     0
 42
0.000000001
 43
0.00000001
 40
0.0
 40
0.0
 40
0.0
 40
0.0
 40
1.0
 40
1.0
 40
1.0
 40
1.0
 10
334.7819166002664
 20
115.7825266311156
 30
0.0
 10
334.8221056138594
 20
115.7832569413332
 30
0.0
 10
334.8622679159496
 20
115.7838374671627
 30
0.0
 10
334.9024026264252
 20
115.7842684321124
 30
0.0
  0
SPLINE
  5
CE
330
1F
100
AcDbEntity
  8
0
  6
Continuous
 62
     7
370
    25
100
AcDbSpline
210
0.0
220
0.0
230
1.0
 70
     8
 71
     3
 72
    18
 73
    14
 74
     0
 42
0.000000001
 43
0.00000001
 40
0.0
 40
0.0
 40
0.0
 40
0.0
 40
0.0923824559453958
 40
0.1844689291647847
 40
0.2764953616046176
 40
0.3686975365601479
 40
0.4613092840112055
 40
0.5545607518542577
 40
0.6486768051618977
 40
0.743875605020118
 40
0.8403674044320868
 40
0.9203921078133319
 40
0.9999999999999999
 40
0.9999999999999999
 40
0.9999999999999999
 40
0.9999999999999999
 10
334.8348555890661
 20
116.0493436379975
 30
0.0
 10
334.8366912427189
 20
116.0491353257823
 30
0.0
 10
334.840356668802
 20
116.0487193687602
 30
0.0
 10
334.8431519984214
 20
116.0419149452941
 30
0.0
 10
334.8439542935001
 20
116.030581566642
 30
0.0
 10
334.8425881564569
 20
116.0142811716155
 30
0.0
 10
334.8391266078281
 20
115.9931299327796
 30
0.0
 10
334.8335853020586
 20
115.9670942316632
 30
0.0
 10
334.8260008339895
 20
115.9361698520119
 30
0.0
 10
334.8164238320525
 20
115.9003708205672
 30
0.0
 10
334.8055833560333
 20
115.8621199130355
 30
0.0
 10
334.794094715094
 20
115.8229016996405
 30
0.0
 10
334.7859947302158
 20
115.796046722791
 30
0.0
 10
334.781955312573
 20
115.7826542944207
 30
0.0
  0
LINE
  5
CF
330
1F
100
AcDbEntity
  8
0
  6
Continuous
 62
     7
370
    25
100
AcDbLine
 10
334.7821004176
 20
116.0485957714
 30
0.0
 11
334.8348551848
 21
116.0493436234
 31
0.0
  0
SPLINE
  5
D0
330
1F
100
AcDbEntity
  8
0
  6
Continuous
 62
     7
370
    25
100
AcDbSpline
210
0.0
220
0.0
230
1.0
 70
     8
 71
     3
 72
    25
 73
    21
 74
     0
 42
0.000000001
 43
0.00000001
 40
0.0
 40
0.0
 40
0.0
 40
0.0
 40
0.0280105225426465
 40
0.0559601148860768
 40
0.0839014045043132
 40
0.1118870776786367
 40
0.1399695827588937
 40
0.1682008401739883
 40
0.196631967042422
 40
0.2253130233141467
 40
0.2542927850735845
 40
0.3799486436570501
 40
0.5057850221666546
 40
0.6313085886325832
 40
0.7532068238012666
 40
0.8039473267957884
 40
0.8535894438557337
 40
0.9025339722396969
 40
0.9511970353793024
 40
1.0
 40
1.0
 40
1.0
 40
1.0
 10
333.8711388220132
 20
113.4816640183099
 30
0.0
 10
333.8781178919241
 20
113.5189740318167
 30
0.0
 10
333.892060850447
 20
113.5935128998103
 30
0.0
 10
333.9145827478899
 20
113.7048219452934
 30
0.0
 10
333.9382163599875
 20
113.8154841543079
 30
0.0
 10
333.9630659504754
 20
113.9254682872522
 30
0.0
 10
333.9890845749617
 20
114.0347634308667
 30
0.0
 10
334.0162659562796
 20
114.1433544000689
 30
0.0
 10
334.0445915976121
 20
114.2512251100113
 30
0.0
 10
334.0740503784447
 20
114.3583700557363
 30
0.0
 10
334.1384586663562
 20
114.5825449422462
 30
0.0
 10
334.2435603584278
 20
114.9092103562814
 30
0.0
 10
334.3890231192236
 20
115.2951569616013
 30
0.0
 10
334.5282865273347
 20
115.6172367742951
 30
0.0
 10
334.6254348802019
 20
115.8130573583254
 30
0.0
 10
334.6857302864284
 20
115.9224048088092
 30
0.0
 10
334.7206188693097
 20
115.9803328332246
 30
0.0
 10
334.7485133712376
 20
116.0207867859895
 30
0.0
 10
334.7698784636092
 20
116.0454010013885
 30
0.0
 10
334.7780224111818
 20
116.0475299288962
 30
0.0
 10
334.7821002298269
 20
116.0485959205676
 30
0.0
  0
ARC
  5
D1
330
1F
100
AcDbEntity
  8
0
  6
Continuous
 62
     7
370
    25
100
AcDbCircle
 10
345.7418066868
 20
111.2943262758
 30
0.0
 40
12.07050959801147
100
AcDbArc
 50
169.5595567507
 51
190.4404432494
  0
SPLINE
  5
D2
330
1F
100
AcDbEntity
  8
0
  6
Continuous
 62
     7
370
    25
100
AcDbSpline
210
0.0
220
0.0
230
1.0
 70
     8
 71
     3
 72
    26
 73
    22
 74
     0
 42
0.000000001
 43
0.00000001
 40
0.0
 40
0.0
 40
0.0
 40
0.0
 40
0.0241259796963635
 40
0.0482159912272988
 40
0.0723203915124065
 40
0.0964895678710794
 40
0.1207736231963513
 40
0.1452220711242836
 40
0.1698835501657709
 40
0.1948055644472382
 40
0.220034256951763
 40
0.2456142191611393
 40
0.3690971486901661
 40
0.4940698769485193
 40
0.6192566784762455
 40
0.7454656653603228
 40
0.7971495824713709
 40
0.8481710308405395
 40
0.8988013269235237
 40
0.9493179290492196
 40
1.0
 40
1.0
 40
1.0
 40
1.0
 10
334.7821002298269
 20
106.5400566309835
 30
0.0
 10
334.7801899150865
 20
106.5403435241729
 30
0.0
 10
334.7763721335943
 20
106.5409168828377
 30
0.0
 10
334.7684120084134
 20
106.5469755710841
 30
0.0
 10
334.7588329078379
 20
106.556854831815
 30
0.0
 10
334.7474857009693
 20
106.5709359229254
 30
0.0
 10
334.7344295176753
 20
106.5891314709495
 30
0.0
 10
334.719673614448
 20
106.6114820136882
 30
0.0
 10
334.7032464341506
 20
106.6379962493803
 30
0.0
 10
334.6851782794304
 20
106.6686917600936
 30
0.0
 10
334.6655011330074
 20
106.7035928633335
 30
0.0
 10
334.6173017515791
 20
106.7923573984412
 30
0.0
 10
334.5289837121437
 20
106.96963769989
 30
0.0
 10
334.389924095377
 20
107.2907236067351
 30
0.0
 10
334.2442514155148
 20
107.6773062586256
 30
0.0
 10
334.1305128205054
 20
108.0310139627556
 30
0.0
 10
334.0508072019588
 20
108.3132676623683
 30
0.0
 10
334.0001576296045
 20
108.5077110931426
 30
0.0
 10
333.9531909597391
 20
108.7049524700767
 30
0.0
 10
333.9096311377348
 20
108.9048555151719
 30
0.0
 10
333.8839835726033
 20
109.0395374549041
 30
0.0
 10
333.8711388220132
 20
109.1069885332413
 30
0.0
  0
LINE
  5
D3
330
1F
100
AcDbEntity
  8
0
  6
Continuous
 62
     7
370
    25
100
AcDbLine
 10
334.8348551848
 20
106.5393089281
 30
0.0
 11
334.7821004176
 21
106.5400567802
 31
0.0
  0
SPLINE
  5
D4
330
1F
100
AcDbEntity
  8
0
  6
Continuous
 62
     7
370
    25
100
AcDbSpline
210
0.0
220
0.0
230
1.0
 70
     8
 71
     3
 72
    14
 73
    10
 74
     0
 42
0.000000001
 43
0.00000001
 40
0.0
 40
0.0
 40
0.0
 40
0.0
 40
0.0789261963177485
 40
0.1582328720556155
 40
0.3308475394597654
 40
0.5000195457645777
 40
0.6670357883607155
 40
0.833239519368019
 40
1.0
 40
1.0
 40
1.0
 40
1.0
 10
334.7818587322144
 20
106.806332390858
 30
0.0
 10
334.7858732788105
 20
106.7930292662203
 30
0.0
 10
334.7939217249226
 20
106.7663588865879
 30
0.0
 10
334.8088224317319
 20
106.7155441472682
 30
0.0
 10
334.8247194133282
 20
106.6585043310817
 30
0.0
 10
334.837797908326
 20
106.6042011143537
 30
0.0
 10
334.8440305154433
 20
106.5660339716308
 30
0.0
 10
334.8438409356064
 20
106.5426252429539
 30
0.0
 10
334.8378540414757
 20
106.5404155882753
 30
0.0
 10
334.8348555890661
 20
106.5393089135536
 30
0.0
  0
SPLINE
  5
D5
330
1F
100
AcDbEntity
  8
0
  6
Continuous
 62
     7
370
    25
100
AcDbSpline
210
0.0
220
0.0
230
1.0
 70
     8
 71
     3
 72
     8
 73
     4
 74
     0
 42
0.000000001
 43
0.00000001
 40
0.0
 40
0.0
 40
0.0
 40
0.0
 40
1.0
 40
1.0
 40
1.0
 40
1.0
 10
334.9291634234387
 20
106.8042713124078
 30
0.0
 10
334.88009550841
 20
106.8047583656198
 30
0.0
 10
334.8309860708893
 20
106.8054694334947
 30
0.0
 10
334.7818367263639
 20
106.806404926729
 30
0.0
  0
SPLINE
  5
D6
330
1F
100
AcDbEntity
  8
0
  6
Continuous
 62
     7
370
    25
100
AcDbSpline
210
0.0
220
0.0
230
1.0
 70
     8
 71
     3
 72
    13
 73
     9
 74
     0
 42
0.000000001
 43
0.00000001
 40
0.0
 40
0.0
 40
0.0
 40
0.0
 40
0.1667030582308002
 40
0.3329480818053118
 40
0.4990671507274925
 40
0.6653938523718504
 40
0.832261271055014
 40
1.0
 40
1.0
 40
1.0
 40
1.0
 10
334.9874969556096
 20
106.7355577876239
 30
0.0
 10
334.9856536417728
 20
106.7359748973897
 30
0.0
 10
334.9819720788029
 20
106.7368079708671
 30
0.0
 10
334.9744548250084
 20
106.7428224496935
 30
0.0
 10
334.9655040208918
 20
106.7523171819857
 30
0.0
 10
334.9549537324689
 20
106.7657267890953
 30
0.0
 10
334.9429805469518
 20
106.7826446927189
 30
0.0
 10
334.9337741393455
 20
106.7970574278583
 30
0.0
 10
334.9291589488566
 20
106.8042825607199
 30
0.0
  0
SPLINE
  5
D7
330
1F
100
AcDbEntity
  8
0
  6
Continuous
 62
     7
370
    25
100
AcDbSpline
210
0.0
220
0.0
230
1.0
 70
     8
 71
     3
 72
    13
 73
     9
 74
     0
 42
0.000000001
 43
0.00000001
 40
0.0
 40
0.0
 40
0.0
 40
0.0
 40
0.1686319999748108
 40
0.3360343310905603
 40
0.5025367825908784
 40
0.6684737453788424
 40
0.8341822636915194
 40
1.0
 40
1.0
 40
1.0
 40
1.0
 10
356.5544558058352
 20
106.8042860105327
 30
0.0
 10
356.549818560737
 20
106.7970288505133
 30
0.0
 10
356.5405778854506
 20
106.782567449871
 30
0.0
 10
356.5285625120835
 20
106.7655867531669
 30
0.0
 10
356.517996958329
 20
106.7521539719874
 30
0.0
 10
356.5090576090359
 20
106.7426745034334
 30
0.0
 10
356.5015767284474
 20
106.7367092777356
 30
0.0
 10
356.4979369211579
 20
106.7359417019512
 30
0.0
 10
356.4961164179642
 20
106.7355577876239
 30
0.0
  0
SPLINE
  5
D8
330
1F
100
AcDbEntity
  8
0
  6
Continuous
 62
     7
370
    25
100
AcDbSpline
210
0.0
220
0.0
230
1.0
 70
     8
 71
     3
 72
     8
 73
     4
 74
     0
 42
0.000000001
 43
0.00000001
 40
0.0
 40
0.0
 40
0.0
 40
0.0
 40
1.0
 40
1.0
 40
1.0
 40
1.0
 10
356.7017814178079
 20
106.8064050314754
 30
0.0
 10
356.6526304881995
 20
106.8054695012135
 30
0.0
 10
356.6035194681202
 20
106.8047584107014
 30
0.0
 10
356.5544499732123
 20
106.8042713492034
 30
0.0
  0
SPLINE
  5
D9
330
1F
100
AcDbEntity
  8
0
  6
Continuous
 62
     7
370
    25
100
AcDbSpline
210
0.0
220
0.0
230
1.0
 70
     8
 71
     3
 72
    18
 73
    14
 74
     0
 42
0.000000001
 43
0.00000001
 40
0.0
 40
0.0
 40
0.0
 40
0.0
 40
0.0923325137142622
 40
0.1843692047118085
 40
0.2763458873881756
 40
0.3684982175734635
 40
0.4610598988383177
 40
0.554260954660559
 40
0.6483261285500582
 40
0.743473463654263
 40
0.8399130993129421
 40
0.920166071831091
 40
1.0
 40
1.0
 40
1.0
 40
1.0
 10
356.6487577845077
 20
106.5393089135536
 30
0.0
 10
356.6469221308552
 20
106.5395172257694
 30
0.0
 10
356.6432567047725
 20
106.5399331827927
 30
0.0
 10
356.6404613751501
 20
106.5467376062499
 30
0.0
 10
356.6396590800832
 20
106.5580709849357
 30
0.0
 10
356.6410252170823
 20
106.5743713798361
 30
0.0
 10
356.6444867658764
 20
106.5955226191462
 30
0.0
 10
356.6500280710228
 20
106.6215583184738
 30
0.0
 10
356.6576125414502
 20
106.6524827048965
 30
0.0
 10
356.6671895344307
 20
106.6882817106246
 30
0.0
 10
356.6780408814569
 20
106.7265709557388
 30
0.0
 10
356.6895556430891
 20
106.7658765801558
 30
0.0
 10
356.6976873519102
 20
106.7928336580494
 30
0.0
 10
356.7017425635179
 20
106.8062769154987
 30
0.0
  0
LINE
  5
DA
330
1F
100
AcDbEntity
  8
0
  6
Continuous
 62
     7
370
    25
100
AcDbLine
 10
356.701512956
 20
106.5400567802
 30
0.0
 11
356.6487581888
 21
106.5393089281
 31
0.0
  0
SPLINE
  5
DB
330
1F
100
AcDbEntity
  8
0
  6
Continuous
 62
     7
370
    25
100
AcDbSpline
210
0.0
220
0.0
230
1.0
 70
     8
 71
     3
 72
    25
 73
    21
 74
     0
 42
0.000000001
 43
0.00000001
 40
0.0
 40
0.0
 40
0.0
 40
0.0
 40
0.0280105225425189
 40
0.0559601148858517
 40
0.0839014045040226
 40
0.1118870776783167
 40
0.139969582758573
 40
0.1682008401736972
 40
0.1966319670421927
 40
0.2253130233140084
 40
0.254292785073565
 40
0.3799486436571232
 40
0.5057850221666547
 40
0.6313085886320353
 40
0.7532068238012145
 40
0.803947326795246
 40
0.8535894438549368
 40
0.9025339722388995
 40
0.9511970353787691
 40
1.0
 40
1.0
 40
1.0
 40
1.0
 10
357.6124745515606
 20
109.1069885332413
 30
0.0
 10
357.6054954816497
 20
109.0696785197347
 30
0.0
 10
357.5915525231269
 20
108.9951396517414
 30
0.0
 10
357.5690306256842
 20
108.8838306062586
 30
0.0
 10
357.5453970135867
 20
108.7731683972444
 30
0.0
 10
357.5205474230987
 20
108.6631842643002
 30
0.0
 10
357.4945287986124
 20
108.5538891206857
 30
0.0
 10
357.4673474172945
 20
108.4452981514834
 30
0.0
 10
357.439021775962
 20
108.3374274415408
 30
0.0
 10
357.4095629951292
 20
108.2302824958154
 30
0.0
 10
357.3451547072177
 20
108.0061076093049
 30
0.0
 10
357.2400530151459
 20
107.6794421952693
 30
0.0
 10
357.0945902543503
 20
107.2934955899502
 30
0.0
 10
356.9553268462396
 20
106.9714157772576
 30
0.0
 10
356.8581784933725
 20
106.7755951932267
 30
0.0
 10
356.7978830871455
 20
106.6662477427417
 30
0.0
 10
356.7629945042642
 20
106.6083197183264
 30
0.0
 10
356.7351000023364
 20
106.5678657655615
 30
0.0
 10
356.7137349099647
 20
106.5432515501626
 30
0.0
 10
356.7055909623921
 20
106.5411226226549
 30
0.0
 10
356.701513143747
 20
106.5400566309835
 30
0.0
  0
ARC
  5
DC
330
1F
100
AcDbEntity
  8
0
  6
Continuous
 62
     7
370
    25
100
AcDbCircle
 10
345.7418066868
 20
111.2943262758
 30
0.0
 40
12.07050959801135
100
AcDbArc
 50
349.5595567507
 51
10.4404432493
  0
SPLINE
  5
DD
330
1F
100
AcDbEntity
  8
0
  6
Continuous
 62
     7
370
    25
100
AcDbSpline
210
0.0
220
0.0
230
1.0
 70
     8
 71
     3
 72
    26
 73
    22
 74
     0
 42
0.000000001
 43
0.00000001
 40
0.0
 40
0.0
 40
0.0
 40
0.0
 40
0.0241259796963636
 40
0.0482159912273
 40
0.0723203915124074
 40
0.0964895678710803
 40
0.1207736231963516
 40
0.1452220711242848
 40
0.1698835501657698
 40
0.1948055644472368
 40
0.2200342569517609
 40
0.2456142191611361
 40
0.3690971486901608
 40
0.494069876948514
 40
0.6192566784753805
 40
0.7454656653602861
 40
0.7971495824708226
 40
0.8481710308397292
 40
0.8988013269227128
 40
0.9493179290486757
 40
1.0
 40
1.0
 40
1.0
 40
1.0
 10
356.701513143747
 20
116.0485959205676
 30
0.0
 10
356.7034234584874
 20
116.0483090273782
 30
0.0
 10
356.7072412399796
 20
116.0477356687135
 30
0.0
 10
356.7152013651605
 20
116.041676980467
 30
0.0
 10
356.7247804657359
 20
116.0317977197362
 30
0.0
 10
356.7361276726046
 20
116.0177166286258
 30
0.0
 10
356.7491838558985
 20
115.9995210806016
 30
0.0
 10
356.7639397591258
 20
115.9771705378629
 30
0.0
 10
356.7803669394232
 20
115.9506563021709
 30
0.0
 10
356.7984350941434
 20
115.9199607914576
 30
0.0
 10
356.8181122405664
 20
115.8850596882177
 30
0.0
 10
356.8663116219947
 20
115.79629515311
 30
0.0
 10
356.9546296614301
 20
115.6190148516611
 30
0.0
 10
357.0936892781965
 20
115.2979289448169
 30
0.0
 10
357.2393619580589
 20
114.911346292926
 30
0.0
 10
357.353100553068
 20
114.5576385887971
 30
0.0
 10
357.4328061716146
 20
114.2753848891847
 30
0.0
 10
357.4834557439686
 20
114.0809414584114
 30
0.0
 10
357.5304224138341
 20
113.8837000814773
 30
0.0
 10
357.5739822358387
 20
113.6837970363811
 30
0.0
 10
357.5996298009704
 20
113.5491150966478
 30
0.0
 10
357.6124745515606
 20
113.4816640183099
 30
0.0
  0
LINE
  5
DE
330
1F
100
AcDbEntity
  8
0
  6
Continuous
 62
     7
370
    25
100
AcDbLine
 10
356.6487581888
 20
116.0493436234
 30
0.0
 11
356.701512956
 21
116.0485957714
 31
0.0
  0
SPLINE
  5
DF
330
1F
100
AcDbEntity
  8
0
  6
Continuous
 62
     7
370
    25
100
AcDbSpline
210
0.0
220
0.0
230
1.0
 70
     8
 71
     3
 72
    14
 73
    10
 74
     0
 42
0.000000001
 43
0.00000001
 40
0.0
 40
0.0
 40
0.0
 40
0.0
 40
0.0786889129264987
 40
0.1577561817171352
 40
0.3304686003321712
 40
0.4997364082719963
 40
0.6668472316931751
 40
0.8331450833951274
 40
1.0
 40
1.0
 40
1.0
 40
1.0
 10
356.7016660712829
 20
115.7826121287826
 30
0.0
 10
356.6976680623284
 20
115.7958620332986
 30
0.0
 10
356.6896528209978
 20
115.8224255511667
 30
0.0
 10
356.6747801477098
 20
115.8731470789335
 30
0.0
 10
356.6588939829492
 20
115.930148157955
 30
0.0
 10
356.6458154593053
 20
115.9844514535645
 30
0.0
 10
356.6395828597001
 20
116.022618575602
 30
0.0
 10
356.6397724375756
 20
116.0460273096782
 30
0.0
 10
356.6457593319674
 20
116.0482369636366
 30
0.0
 10
356.6487577845077
 20
116.0493436379975
 30
0.0
  0
SPLINE
  5
E0
330
1F
100
AcDbEntity
  8
0
  6
Continuous
 62
     7
370
    25
100
AcDbSpline
210
0.0
220
0.0
230
1.0
 70
     8
 71
     3
 72
     8
 73
     4
 74
     0
 42
0.000000001
 43
0.00000001
 40
0.0
 40
0.0
 40
0.0
 40
0.0
 40
1.0
 40
1.0
 40
1.0
 40
1.0
 10
356.5812107306018
 20
115.7842684687453
 30
0.0
 10
356.6213438491082
 20
115.783837514798
 30
0.0
 10
356.6615045570365
 20
115.7832570117856
 30
0.0
 10
356.7016919743792
 20
115.782526736226
 30
0.0
  0
SPLINE
  5
E1
330
1F
100
AcDbEntity
  8
0
  6
Continuous
 62
     7
370
    25
100
AcDbSpline
210
0.0
220
0.0
230
1.0
 70
     8
 71
     3
 72
    23
 73
    19
 74
     0
 42
0.000000001
 43
0.00000001
 40
0.0
 40
0.0
 40
0.0
 40
0.0
 40
0.044130842009968
 40
0.0880968635172827
 40
0.1320155028357109
 40
0.1760048571373704
 40
0.2201827305728773
 40
0.2646656976872342
 40
0.3095682184508619
 40
0.3550018365540853
 40
0.4010744854702383
 40
0.447889918231282
 40
0.4955472680205201
 40
0.595367056245992
 40
0.6949121173415468
 40
0.795000764899842
 40
0.8964386255178196
 40
1.0
 40
1.0
 40
1.0
 40
1.0
 10
356.0294976114667
 20
116.7447717927119
 30
0.0
 10
356.0314820015734
 20
116.744488935482
 30
0.0
 10
356.0354433704582
 20
116.7439242774414
 30
0.0
 10
356.0443036746885
 20
116.7375049242626
 30
0.0
 10
356.0552761528106
 20
116.726983674756
 30
0.0
 10
356.068555550831
 20
116.7119521384463
 30
0.0
 10
356.0840662744972
 20
116.6924998933838
 30
0.0
 10
356.1017977362503
 20
116.6685799154317
 30
0.0
 10
356.1217143829535
 20
116.6401788247179
 30
0.0
 10
356.1437799169659
 20
116.6072710849172
 30
0.0
 10
356.1679508406601
 20
116.569831102261
 30
0.0
 10
356.1941778507075
 20
116.5278310306311
 30
0.0
 10
356.2325144309384
 20
116.4645539221091
 30
0.0
 10
356.2848472103163
 20
116.3744950597474
 30
0.0
 10
356.3532478215244
 20
116.2501489401814
 30
0.0
 10
356.42593289632
 20
116.1104358622008
 30
0.0
 10
356.5022931322202
 20
115.9560998469715
 30
0.0
 10
356.5545819468708
 20
115.8423771927423
 30
0.0
 10
356.5809971747746
 20
115.7849268594472
 30
0.0
  0
SPLINE
  5
E2
330
1F
100
AcDbEntity
  8
0
  6
Continuous
 62
     7
370
    25
100
AcDbSpline
210
0.0
220
0.0
230
1.0
 70
    11
 71
     3
 72
    39
 73
    35
 74
     0
 42
0.000000001
 43
0.00000001
 40
0.0
 40
0.0
 40
0.0
 40
0.0
 40
0.0310664058348413
 40
0.0621048158426138
 40
0.0931361551796939
 40
0.1235538293503726
 40
0.1538561545809849
 40
0.1850588072749156
 40
0.2160250992946587
 40
0.2471867223797568
 40
0.2784462884304475
 40
0.3100516090231247
 40
0.3419834369138969
 40
0.3734259894013238
 40
0.4048604886787081
 40
0.436874065183343
 40
0.4685120685926471
 40
0.499805535863323
 40
0.5309508213226204
 40
0.5618649784438111
 40
0.5930416446590877
 40
0.623374245013332
 40
0.6540913579072549
 40
0.6849496782718453
 40
0.7158160645166705
 40
0.7471731804043553
 40
0.7784514311866318
 40
0.810129591156098
 40
0.8419598919688388
 40
0.8735175891922303
 40
0.9050808037886594
 40
0.9370235169792582
 40
0.9687441590030581
 40
1.0
 40
1.0
 40
1.0
 40
1.0
 10
348.6459332515843
 20
99.86269609202215
 30
0.0
 10
348.835645080539
 20
99.90146466876965
 30
0.0
 10
349.1793859309877
 20
99.97789561455266
 30
0.0
 10
349.5623429181954
 20
100.0660351545459
 30
0.0
 10
349.8067833849105
 20
100.1129846411909
 30
0.0
 10
349.8877723217267
 20
100.1010757164771
 30
0.0
 10
349.807049876245
 20
100.0291178097616
 30
0.0
 10
349.5671876826253
 20
99.9045975435643
 30
0.0
 10
349.1905379485281
 20
99.7472285537391
 30
0.0
 10
348.6842950117002
 20
99.5752044690441
 30
0.0
 10
348.0670206180168
 20
99.41028006145847
 30
0.0
 10
347.354544803877
 20
99.27256748537995
 30
0.0
 10
346.5790795641045
 20
99.18093467287127
 30
0.0
 10
345.7686151304902
 20
99.14760209477579
 30
0.0
 10
344.9561106575277
 20
99.17684954032907
 30
0.0
 10
344.1765976673906
 20
99.26517849731665
 30
0.0
 10
343.4582693680551
 20
99.40068399695149
 30
0.0
 10
342.8348972606551
 20
99.56446051844276
 30
0.0
 10
342.3217986660595
 20
99.73646666258807
 30
0.0
 10
341.9365965561981
 20
99.89527867705925
 30
0.0
 10
341.6871719509571
 20
100.0225376422247
 30
0.0
 10
341.5965699110106
 20
100.0981445991797
 30
0.0
 10
341.6647814819698
 20
100.1149139958596
 30
0.0
 10
341.8969973483726
 20
100.0721336536443
 30
0.0
 10
342.2742143855568
 20
99.98500696873445
 30
0.0
 10
342.7859192533245
 20
99.87027791342747
 30
0.0
 10
343.4093903840713
 20
99.75085576837493
 30
0.0
 10
344.1259350872041
 20
99.64623031832564
 30
0.0
 10
344.9042661998151
 20
99.57558182539877
 30
0.0
 10
345.7160976866651
 20
99.54950300096874
 30
0.0
 10
346.5298722086621
 20
99.57252857265946
 30
0.0
 10
347.3122460528276
 20
99.64076101079714
 30
0.0
 10
348.0342590875616
 20
99.74400819050688
 30
0.0
 10
348.4550646074106
 20
99.8236911142034
 30
0.0
 10
348.6459332515843
 20
99.86269609202215
 30
0.0
  0
SPLINE
  5
E3
330
1F
100
AcDbEntity
  8
0
  6
Continuous
 62
     7
370
    25
100
AcDbSpline
210
0.0
220
0.0
230
1.0
 70
    11
 71
     3
 72
    39
 73
    35
 74
     0
 42
0.000000001
 43
0.00000001
 40
0.0
 40
0.0
 40
0.0
 40
0.0
 40
0.0312651429934057
 40
0.0629601069329321
 40
0.0948697276489808
 40
0.1264264963751833
 40
0.1579651393672472
 40
0.1898765439016956
 40
0.221552335268876
 40
0.2527844076550827
 40
0.2838418966734154
 40
0.3148645781100674
 40
0.3459127639308091
 40
0.3763475365526575
 40
0.4066751324671412
 40
0.4379141187435632
 40
0.4688932367345488
 40
0.5000738678969536
 40
0.5313369410958942
 40
0.5629183719104849
 40
0.5948445736343699
 40
0.6262809966135365
 40
0.6577486436587271
 40
0.6897584692806508
 40
0.7214430019610059
 40
0.7527623343195418
 40
0.7839279690572818
 40
0.8148885765585865
 40
0.8460375004982862
 40
0.8763409566916784
 40
0.906758919146387
 40
0.9378312724751761
 40
0.9689189660506093
 40
1.0
 40
1.0
 40
1.0
 40
1.0
 10
348.6458290017974
 20
122.7259885119647
 30
0.0
 10
348.4547550655158
 20
122.7650524698454
 30
0.0
 10
348.0338205030762
 20
122.8447714644055
 30
0.0
 10
347.3124310979126
 20
122.9478868797559
 30
0.0
 10
346.5307750496222
 20
123.0160877521799
 30
0.0
 10
345.7176873299113
 20
123.0391446448217
 30
0.0
 10
344.9054071130593
 20
123.0131603711755
 30
0.0
 10
344.1267766880098
 20
122.9425702059374
 30
0.0
 10
343.4101008980983
 20
122.8379546436982
 30
0.0
 10
342.7882256284367
 20
122.7187823186818
 30
0.0
 10
342.2787146949508
 20
122.6048451509555
 30
0.0
 10
341.9035953487066
 20
122.5187308720091
 30
0.0
 10
341.6676347738558
 20
122.4746751506732
 30
0.0
 10
341.5962342306742
 20
122.4902049513844
 30
0.0
 10
341.686830660472
 20
122.5657138335683
 30
0.0
 10
341.9358069408314
 20
122.6928873614125
 30
0.0
 10
342.3207217606742
 20
122.8517380400248
 30
0.0
 10
342.8335070674963
 20
123.0237623012348
 30
0.0
 10
343.4559661904212
 20
123.1874353807695
 30
0.0
 10
344.1724663352277
 20
123.3228369541497
 30
0.0
 10
344.9505653693378
 20
123.4113546216325
 30
0.0
 10
345.7622880579848
 20
123.4410620301153
 30
0.0
 10
346.5737302456861
 20
123.4081755854652
 30
0.0
 10
347.3508561371681
 20
123.3166946774204
 30
0.0
 10
348.0652942263387
 20
123.178810487459
 30
0.0
 10
348.6835171845741
 20
123.0136826626091
 30
0.0
 10
349.1898845453
 20
122.8416321252565
 30
0.0
 10
349.5664370667137
 20
122.6843486035463
 30
0.0
 10
349.806132878145
 20
122.5599448060623
 30
0.0
 10
349.8875995863394
 20
122.487756632626
 30
0.0
 10
349.8075403438475
 20
122.4754841242479
 30
0.0
 10
349.5631943378937
 20
122.5223795347541
 30
0.0
 10
349.1802209044448
 20
122.6105130828996
 30
0.0
 10
348.835777773235
 20
122.6871545875095
 30
0.0
 10
348.6458290017974
 20
122.7259885119647
 30
0.0
  0
SPLINE
  5
E4
330
1F
100
AcDbEntity
  8
0
  6
Continuous
 62
     7
370
    25
100
AcDbSpline
210
0.0
220
0.0
230
1.0
 70
     8
 71
     3
 72
    23
 73
    19
 74
     0
 42
0.000000001
 43
0.00000001
 40
0.0
 40
0.0
 40
0.0
 40
0.0
 40
0.0449850911547986
 40
0.0909520670823928
 40
0.1379394291328608
 40
0.1859832248994904
 40
0.2351171761776805
 40
0.2853728096486188
 40
0.3367795876649923
 40
0.3893650370847875
 40
0.4431548745956198
 40
0.4981731273942989
 40
0.5575107591316854
 40
0.626549228205273
 40
0.7053073139783237
 40
0.7937970254486392
 40
0.8920262116387118
 40
1.0
 40
1.0
 40
1.0
 40
1.0
 10
335.8508649752297
 20
116.3243262757756
 30
0.0
 10
335.848702285864
 20
116.3238973741159
 30
0.0
 10
335.8443297023432
 20
116.323030209206
 30
0.0
 10
335.8340487431514
 20
116.3159366416042
 30
0.0
 10
335.8209884651214
 20
116.304323900024
 30
0.0
 10
335.804869303567
 20
116.2875345298503
 30
0.0
 10
335.7857688759111
 20
116.2654625432345
 30
0.0
 10
335.7636665231552
 20
116.2378650694705
 30
0.0
 10
335.7385660446196
 20
116.204556638261
 30
0.0
 10
335.7104749132419
 20
116.165356299855
 30
0.0
 10
335.6793590123903
 20
116.1201142543834
 30
0.0
 10
335.6447200814974
 20
116.0677183219814
 30
0.0
 10
335.6039985732024
 20
116.0049358537352
 30
0.0
 10
335.5552776521594
 20
115.9271788544379
 30
0.0
 10
335.4975033138353
 20
115.8298942968381
 30
0.0
 10
335.4305926641966
 20
115.7101494631219
 30
0.0
 10
335.3546486999221
 20
115.5662292582517
 30
0.0
 10
335.3002875352528
 20
115.4554950533991
 30
0.0
 10
335.2718224711486
 20
115.3975114495004
 30
0.0
  0
LINE
  5
E5
330
1F
100
AcDbEntity
  8
0
  6
Continuous
 62
     7
370
    25
100
AcDbLine
 10
335.2718224236
 20
115.3980376164
 30
0.0
 11
334.9024831736
 21
115.7841225119
 31
0.0
  0
LINE
  5
E6
330
1F
100
AcDbEntity
  8
0
  6
Continuous
 62
     7
370
    25
100
AcDbLine
 10
356.5810976037
 20
115.7840629073
 30
0.0
 11
356.2118309968
 21
115.3980548458
 31
0.0
  0
SPLINE
  5
E7
330
1F
100
AcDbEntity
  8
0
  6
Continuous
 62
     7
370
    25
100
AcDbSpline
210
0.0
220
0.0
230
1.0
 70
     8
 71
     3
 72
    26
 73
    22
 74
     0
 42
0.000000001
 43
0.00000001
 40
0.0
 40
0.0
 40
0.0
 40
0.0
 40
0.0509383868653979
 40
0.0998291548270505
 40
0.1466728126490638
 40
0.1914699456369332
 40
0.2342212299774179
 40
0.274927450668867
 40
0.3135895241747119
 40
0.3502085273716571
 40
0.3847857350077695
 40
0.4173226688482998
 40
0.4478211631571791
 40
0.4762834534603437
 40
0.5027122992246547
 40
0.593906700502561
 40
0.6816015993191188
 40
0.7659159552051488
 40
0.846983628966416
 40
0.9249552229440475
 40
1.0
 40
1.0
 40
1.0
 40
1.0
 10
356.2118313870936
 20
115.3973207192507
 30
0.0
 10
356.1983735228955
 20
115.424941500415
 30
0.0
 10
356.1719987730978
 20
115.4790727638683
 30
0.0
 10
356.1336265933188
 20
115.5553808009435
 30
0.0
 10
356.0971604108266
 20
115.6261329805353
 30
0.0
 10
356.0626241612028
 20
115.6913048072234
 30
0.0
 10
356.03001170935
 20
115.7511630524751
 30
0.0
 10
355.9993244255571
 20
115.8059282120165
 30
0.0
 10
355.9705618092559
 20
115.8558526033285
 30
0.0
 10
355.9437236447835
 20
115.9011948339236
 30
0.0
 10
355.9188100643553
 20
115.9422207728644
 30
0.0
 10
355.8958194175666
 20
115.9791981578115
 30
0.0
 10
355.874755912077
 20
116.0123942737948
 30
0.0
 10
355.8556035416977
 20
116.0420700060621
 30
0.0
 10
355.8239324647528
 20
116.0907403311118
 30
0.0
 10
355.7824625193163
 20
116.1526356490306
 30
0.0
 10
355.7354730031726
 20
116.2179762564543
 30
0.0
 10
355.6968544334576
 20
116.2670946477461
 30
0.0
 10
355.6668059737363
 20
116.3005709362583
 30
0.0
 10
355.6445158627672
 20
116.3206883684963
 30
0.0
 10
355.6366205473337
 20
116.3231292023459
 30
0.0
 10
355.6327483983442
 20
116.3243262757756
 30
0.0
  0
SPLINE
  5
E8
330
1F
100
AcDbEntity
  8
0
  6
Continuous
 62
     7
370
    25
100
AcDbSpline
210
0.0
220
0.0
230
1.0
 70
     8
 71
     3
 72
     8
 73
     4
 74
     0
 42
0.000000001
 43
0.00000001
 40
0.0
 40
0.0
 40
0.0
 40
0.0
 40
1.0
 40
1.0
 40
1.0
 40
1.0
 10
353.4834871385873
 20
115.5173246022583
 30
0.0
 10
353.5470801189273
 20
115.4516558244115
 30
0.0
 10
353.6110365453627
 20
115.3873135267512
 30
0.0
 10
353.67523546507
 20
115.3255762757756
 30
0.0
  0
SPLINE
  5
E9
330
1F
100
AcDbEntity
  8
0
  6
Continuous
 62
     7
370
    25
100
AcDbSpline
210
0.0
220
0.0
230
1.0
 70
     8
 71
     3
 72
    25
 73
    21
 74
     0
 42
0.000000001
 43
0.00000001
 40
0.0
 40
0.0
 40
0.0
 40
0.0
 40
0.0367725003254103
 40
0.074208401060063
 40
0.1123590542807964
 40
0.1512729822568881
 40
0.190995910016845
 40
0.2315708273504481
 40
0.2730380740418892
 40
0.3154354426077851
 40
0.3587982934432034
 40
0.4031596779810961
 40
0.4485504661847858
 40
0.494999475376923
 40
0.5532504315673752
 40
0.621829488573267
 40
0.7007739996560722
 40
0.7901076726660372
 40
0.8898461547533933
 40
1.0
 40
1.0
 40
1.0
 40
1.0
 10
353.0415659512758
 20
116.3243262757752
 30
0.0
 10
353.0417897253406
 20
116.3240015881415
 30
0.0
 10
353.0422413105035
 20
116.3233463552927
 30
0.0
 10
353.0469583503758
 20
116.3179839835049
 30
0.0
 10
353.0546109594584
 20
116.3092283898045
 30
0.0
 10
353.0655039385954
 20
116.2966041717126
 30
0.0
 10
353.0795525250112
 20
116.2800478335822
 30
0.0
 10
353.0967794226204
 20
116.2593906562044
 30
0.0
 10
353.1171779754019
 20
116.2345029202366
 30
0.0
 10
353.1407487886941
 20
116.2052553740432
 30
0.0
 10
353.1674941372538
 20
116.1715324388467
 30
0.0
 10
353.1974019906862
 20
116.1332266237213
 30
0.0
 10
353.2305180830307
 20
116.0902557283833
 30
0.0
 10
353.2694440046046
 20
116.0388344467126
 30
0.0
 10
353.3182720843213
 20
115.9746182150235
 30
0.0
 10
353.3801926889224
 20
115.8917236859289
 30
0.0
 10
353.4545772472433
 20
115.7877779357144
 30
0.0
 10
353.5415516752318
 20
115.6596917254572
 30
0.0
 10
353.6409765252144
 20
115.5056019455509
 30
0.0
 10
353.7123957009439
 20
115.3875377096804
 30
0.0
 10
353.7498772846248
 20
115.3255762757756
 30
0.0
  0
LINE
  5
EA
330
1F
100
AcDbEntity
  8
0
  6
Continuous
 62
     7
370
    25
100
AcDbLine
 10
353.7498769769
 20
115.3255760634
 30
0.0
 11
353.6752351978
 21
115.3255760634
 31
0.0
  0
SPLINE
  5
EB
330
1F
100
AcDbEntity
  8
0
  6
Continuous
 62
     7
370
    25
100
AcDbSpline
210
0.0
220
0.0
230
1.0
 70
     8
 71
     3
 72
    23
 73
    19
 74
     0
 42
0.000000001
 43
0.00000001
 40
0.0
 40
0.0
 40
0.0
 40
0.0
 40
0.0511129009818375
 40
0.1016896331769429
 40
0.1518293139012816
 40
0.201633670178886
 40
0.2512064936643741
 40
0.3006530342900144
 40
0.3500793489623502
 40
0.3995916247861424
 40
0.4492954981403415
 40
0.4992953912355765
 40
0.5872572780511617
 40
0.672425549433218
 40
0.7555067762520883
 40
0.8372616735253525
 40
0.9184882400156057
 40
1.0
 40
1.0
 40
1.0
 40
1.0
 10
353.4835498147127
 20
115.5175673183534
 30
0.0
 10
353.4675342308131
 20
115.5466959205827
 30
0.0
 10
353.4356710647518
 20
115.6046475691636
 30
0.0
 10
353.3886272263352
 20
115.687405404378
 30
0.0
 10
353.3426487021619
 20
115.7664942628595
 30
0.0
 10
353.2978680353595
 20
115.8417112507921
 30
0.0
 10
353.2543842709241
 20
115.9131743058372
 30
0.0
 10
353.2122983073392
 20
115.9809157100262
 30
0.0
 10
353.171703842941
 20
116.0449892217728
 30
0.0
 10
353.1326889365891
 20
116.1054428208467
 30
0.0
 10
353.0953391140993
 20
116.1623203257788
 30
0.0
 10
353.0508108575052
 20
116.2290347988422
 30
0.0
 10
353.0021705969629
 20
116.3003550827085
 30
0.0
 10
352.9543314972071
 20
116.3689353351675
 30
0.0
 10
352.9166799851262
 20
116.4219516632096
 30
0.0
 10
352.8898572837387
 20
116.4592243193371
 30
0.0
 10
352.8731284529152
 20
116.4822617189171
 30
0.0
 10
352.8712800429513
 20
116.4847964441823
 30
0.0
 10
352.870354218331
 20
116.4860660278256
 30
0.0
  0
SPLINE
  5
EC
330
1F
100
AcDbEntity
  8
0
  6
Continuous
 62
     7
370
    25
100
AcDbSpline
210
0.0
220
0.0
230
1.0
 70
     8
 71
     3
 72
     8
 73
     4
 74
     0
 42
0.000000001
 43
0.00000001
 40
0.0
 40
0.0
 40
0.0
 40
0.0
 40
1.0
 40
1.0
 40
1.0
 40
1.0
 10
356.145699333859
 20
115.3255762757754
 30
0.0
 10
356.1675847055021
 20
115.3498972919731
 30
0.0
 10
356.1894700771452
 20
115.3739218902956
 30
0.0
 10
356.2113554487884
 20
115.3976287423841
 30
0.0
  0
LINE
  5
ED
330
1F
100
AcDbEntity
  8
0
  6
Continuous
 62
     7
370
    25
100
AcDbLine
 10
356.145539456
 20
115.3255760634
 30
0.0
 11
353.7498769769
 21
115.3255760634
 31
0.0
  0
SPLINE
  5
EE
330
1F
100
AcDbEntity
  8
0
  6
Continuous
 62
     7
370
    25
100
AcDbSpline
210
0.0
220
0.0
230
1.0
 70
     8
 71
     3
 72
     8
 73
     4
 74
     0
 42
0.000000001
 43
0.00000001
 40
0.0
 40
0.0
 40
0.0
 40
0.0
 40
1.0
 40
1.0
 40
1.0
 40
1.0
 10
335.2721636989606
 20
115.3977323098642
 30
0.0
 10
335.2940804714482
 20
115.3739918613051
 30
0.0
 10
335.3159972439358
 20
115.3499327095185
 30
0.0
 10
335.3379140164233
 20
115.3255762757756
 30
0.0
  0
SPLINE
  5
EF
330
1F
100
AcDbEntity
  8
0
  6
Continuous
 62
     7
370
    25
100
AcDbSpline
210
0.0
220
0.0
230
1.0
 70
     8
 71
     3
 72
    26
 73
    22
 74
     0
 42
0.000000001
 43
0.00000001
 40
0.0
 40
0.0
 40
0.0
 40
0.0
 40
0.0524616379932503
 40
0.1026498591890872
 40
0.150565513457809
 40
0.1962095861957063
 40
0.2395832262568645
 40
0.2806877815599511
 40
0.3195248450380211
 40
0.3560963147430692
 40
0.3904044736547445
 40
0.4224520974433627
 40
0.4522426027417772
 40
0.4797802555366611
 40
0.5050704712281336
 40
0.5966394156799991
 40
0.6841917884819224
 40
0.7679874773571101
 40
0.8483228539139507
 40
0.925534163520116
 40
1.0
 40
1.0
 40
1.0
 40
1.0
 10
337.7335585308708
 20
115.3255911677933
 30
0.0
 10
337.7514200151591
 20
115.3553646278344
 30
0.0
 10
337.7863689591349
 20
115.4136213197277
 30
0.0
 10
337.837133792617
 20
115.4958203000923
 30
0.0
 10
337.8852037502587
 20
115.5719011689931
 30
0.0
 10
337.9305477230236
 20
115.6418525174593
 30
0.0
 10
337.9731737025289
 20
115.7059596794114
 30
0.0
 10
338.013080001038
 20
115.7644675188815
 30
0.0
 10
338.0502673301533
 20
115.8176560965036
 30
0.0
 10
338.0847361527442
 20
115.8658141367407
 30
0.0
 10
338.1164862413765
 20
115.909238810017
 30
0.0
 10
338.1455206459776
 20
115.9482289011139
 30
0.0
 10
338.1718319351788
 20
115.9830829996404
 30
0.0
 10
338.1954485647228
 20
116.0140879940909
 30
0.0
 10
338.2350942437287
 20
116.0663312127238
 30
0.0
 10
338.2866325405278
 20
116.133860545981
 30
0.0
 10
338.343458677509
 20
116.2060539921896
 30
0.0
 10
338.387616105472
 20
116.2605379483121
 30
0.0
 10
338.418793728414
 20
116.2978027394805
 30
0.0
 10
338.4382532950531
 20
116.3202670917552
 30
0.0
 10
338.4403948927335
 20
116.3229896411824
 30
0.0
 10
338.4414463092903
 20
116.3243262757756
 30
0.0
  0
LINE
  5
F0
330
1F
100
AcDbEntity
  8
0
  6
Continuous
 62
     7
370
    25
100
AcDbLine
 10
337.7335585141
 20
115.3255760634
 30
0.0
 11
335.3379137301
 21
115.3255760634
 31
0.0
  0
LINE
  5
F1
330
1F
100
AcDbEntity
  8
0
  6
Continuous
 62
     7
370
    25
100
AcDbLine
 10
337.8083781758
 20
115.3255760634
 30
0.0
 11
337.7332586282
 21
115.3255760634
 31
0.0
  0
SPLINE
  5
F2
330
1F
100
AcDbEntity
  8
0
  6
Continuous
 62
     7
370
    25
100
AcDbSpline
210
0.0
220
0.0
230
1.0
 70
     8
 71
     3
 72
     8
 73
     4
 74
     0
 42
0.000000001
 43
0.00000001
 40
0.0
 40
0.0
 40
0.0
 40
0.0
 40
1.0
 40
1.0
 40
1.0
 40
1.0
 10
337.8083779085038
 20
115.3255762757755
 30
0.0
 10
337.8722867111637
 20
115.3875451392067
 30
0.0
 10
337.9360616305157
 20
115.4515212043233
 30
0.0
 10
337.9994216963966
 20
115.5170558606691
 30
0.0
  0
SPLINE
  5
F3
330
1F
100
AcDbEntity
  8
0
  6
Continuous
 62
     7
370
    25
100
AcDbSpline
210
0.0
220
0.0
230
1.0
 70
     8
 71
     3
 72
    24
 73
    20
 74
     0
 42
0.000000001
 43
0.00000001
 40
0.0
 40
0.0
 40
0.0
 40
0.0
 40
0.0410257106276927
 40
0.0818520099057808
 40
0.1225800578327865
 40
0.1633117464026497
 40
0.2041489402771959
 40
0.2451927184713359
 40
0.2865426449200764
 40
0.3282960933614036
 40
0.3705476475465791
 40
0.413388592008023
 40
0.4569065022337061
 40
0.5011849368582145
 40
0.6001856774961036
 40
0.6987388860470333
 40
0.7976800645476073
 40
0.8978349910043563
 40
1.0
 40
1.0
 40
1.0
 40
1.0
 10
338.6130045022714
 20
116.485716357107
 30
0.0
 10
338.6128097388303
 20
116.4854490069495
 30
0.0
 10
338.6124211586239
 20
116.4849156061282
 30
0.0
 10
338.6083663709496
 20
116.479343860129
 30
0.0
 10
338.6017724119697
 20
116.4702631109752
 30
0.0
 10
338.5924081510597
 20
116.4573256506145
 30
0.0
 10
338.5803600372897
 20
116.4406072077086
 30
0.0
 10
338.5656374678293
 20
116.4200651969368
 30
0.0
 10
338.548278474982
 20
116.3956838228901
 30
0.0
 10
338.5283213038286
 20
116.3674350788182
 30
0.0
 10
338.5058122541331
 20
116.3352895314171
 30
0.0
 10
338.4808030183718
 20
116.2992126914509
 30
0.0
 10
338.4533536488469
 20
116.2591690989315
 30
0.0
 10
338.4114305357797
 20
116.1972486555905
 30
0.0
 10
338.3522243605688
 20
116.1079361644942
 30
0.0
 10
338.2724447674484
 20
115.9833915724655
 30
0.0
 10
338.1864639824619
 20
115.8436067799756
 30
0.0
 10
338.09517919524
 20
115.6891939609895
 30
0.0
 10
338.0319748411819
 20
115.5751479393384
 30
0.0
 10
338.0000586912163
 20
115.5175583953231
 30
0.0
  0
LINE
  5
F4
330
1F
100
AcDbEntity
  8
0
  6
Continuous
 62
     7
370
    25
100
AcDbLine
 10
334.9291655653
 20
106.8042711319
 30
0.0
 11
335.3534034872
 21
107.2530643048
 31
0.0
  0
SPLINE
  5
F5
330
1F
100
AcDbEntity
  8
0
  6
Continuous
 62
     7
370
    25
100
AcDbSpline
210
0.0
220
0.0
230
1.0
 70
     8
 71
     3
 72
    13
 73
     9
 74
     0
 42
0.000000001
 43
0.00000001
 40
0.0
 40
0.0
 40
0.0
 40
0.0
 40
0.1706320848135257
 40
0.3395984167701191
 40
0.5069574114367519
 40
0.6727691832878696
 40
0.8370955449408067
 40
1.0
 40
1.0
 40
1.0
 40
1.0
 10
335.3534031996646
 20
107.2530435342463
 30
0.0
 10
335.358408670075
 20
107.2460921611585
 30
0.0
 10
335.3683707462486
 20
107.2322572760161
 30
0.0
 10
335.3812445741441
 20
107.2161295175545
 30
0.0
 10
335.3925108866413
 20
107.2034607873991
 30
0.0
 10
335.4019882500759
 20
107.1946043495679
 30
0.0
 10
335.4098704827679
 20
107.1890923210962
 30
0.0
 10
335.4136853889987
 20
107.1884139750166
 30
0.0
 10
335.4155845537134
 20
107.1880762757756
 30
0.0
  0
SPLINE
  5
F6
330
1F
100
AcDbEntity
  8
0
  6
Continuous
 62
     7
370
    25
100
AcDbSpline
210
0.0
220
0.0
230
1.0
 70
     8
 71
     3
 72
    13
 73
     9
 74
     0
 42
0.000000001
 43
0.00000001
 40
0.0
 40
0.0
 40
0.0
 40
0.0
 40
0.1621004456571512
 40
0.325943455157606
 40
0.4915935308260523
 40
0.6591130873964648
 40
0.8285624736043361
 40
1.0
 40
1.0
 40
1.0
 40
1.0
 10
356.0680288198606
 20
107.1880762757756
 30
0.0
 10
356.0699059262028
 20
107.1884107588762
 30
0.0
 10
356.0736803175956
 20
107.1890833207379
 30
0.0
 10
356.0815273947745
 20
107.1945566051335
 30
0.0
 10
356.0909934545496
 20
107.2033760697939
 30
0.0
 10
356.102274369352
 20
107.2160288267878
 30
0.0
 10
356.1151889878497
 20
107.2321808281843
 30
0.0
 10
356.1251847020954
 20
107.2460666281273
 30
0.0
 10
356.130211708007
 20
107.2530500208779
 30
0.0
  0
LINE
  5
F7
330
1F
100
AcDbEntity
  8
0
  6
Continuous
 62
     7
370
    25
100
AcDbLine
 10
356.1302247876
 20
107.2530503349
 30
0.0
 11
356.5544468769
 21
106.8042711319
 31
0.0
  0
SPLINE
  5
F8
330
1F
100
AcDbEntity
  8
0
  6
Continuous
 62
     7
370
    25
100
AcDbSpline
210
0.0
220
0.0
230
1.0
 70
     8
 71
     3
 72
     8
 73
     4
 74
     0
 42
0.000000001
 43
0.00000001
 40
0.0
 40
0.0
 40
0.0
 40
0.0
 40
1.0
 40
1.0
 40
1.0
 40
1.0
 10
356.130224749
 20
107.2530506339452
 30
0.0
 10
356.1280412647588
 20
107.2558992994615
 30
0.0
 10
356.1258577805177
 20
107.258840090859
 30
0.0
 10
356.1236742962765
 20
107.2618725881355
 30
0.0
  0
SPLINE
  5
F9
330
1F
100
AcDbEntity
  8
0
  6
Continuous
 62
     7
370
    25
100
AcDbSpline
210
0.0
220
0.0
230
1.0
 70
     8
 71
     3
 72
    13
 73
     9
 74
     0
 42
0.000000001
 43
0.00000001
 40
0.0
 40
0.0
 40
0.0
 40
0.0
 40
0.1705273303664273
 40
0.3393382731715426
 40
0.5065592454659538
 40
0.6723203021840038
 40
0.8367549624218799
 40
1.0
 40
1.0
 40
1.0
 40
1.0
 10
353.6839696544979
 20
107.2630761414601
 30
0.0
 10
353.6789342509554
 20
107.2550700186932
 30
0.0
 10
353.6689141260925
 20
107.2391383561926
 30
0.0
 10
353.657111083437
 20
107.2205213310833
 30
0.0
 10
353.6477689797256
 20
107.2058823380966
 30
0.0
 10
353.6411733551029
 20
107.1956352685789
 30
0.0
 10
353.6370203324145
 20
107.1892522783102
 30
0.0
 10
353.6364944841056
 20
107.1884673267129
 30
0.0
 10
353.6362325144824
 20
107.1880762757756
 30
0.0
  0
LINE
  5
FA
330
1F
100
AcDbEntity
  8
0
  6
Continuous
 62
     7
370
    25
100
AcDbLine
 10
356.122771413
 20
107.2630764881
 30
0.0
 11
353.683960759
 21
107.2630764881
 31
0.0
  0
LINE
  5
FB
330
1F
100
AcDbEntity
  8
0
  6
Continuous
 62
     7
370
    25
100
AcDbLine
 10
353.6752351978
 20
107.2630764881
 30
0.0
 11
353.6839570337
 21
107.2630764881
 31
0.0
  0
SPLINE
  5
FC
330
1F
100
AcDbEntity
  8
0
  6
Continuous
 62
     7
370
    25
100
AcDbSpline
210
0.0
220
0.0
230
1.0
 70
     8
 71
     3
 72
     8
 73
     4
 74
     0
 42
0.000000001
 43
0.00000001
 40
0.0
 40
0.0
 40
0.0
 40
0.0
 40
1.0
 40
1.0
 40
1.0
 40
1.0
 10
335.3608418437067
 20
107.2630762757832
 30
0.0
 10
335.3583559250202
 20
107.2596145764712
 30
0.0
 10
335.3558700063336
 20
107.2562704245623
 30
0.0
 10
335.3533840876472
 20
107.2530444326219
 30
0.0
  0
LINE
  5
FD
330
1F
100
AcDbEntity
  8
0
  6
Continuous
 62
     7
370
    25
100
AcDbLine
 10
337.7981457346
 20
107.2630764881
 30
0.0
 11
335.3610580274
 21
107.2630764881
 31
0.0
  0
SPLINE
  5
FE
330
1F
100
AcDbEntity
  8
0
  6
Continuous
 62
     7
370
    25
100
AcDbSpline
210
0.0
220
0.0
230
1.0
 70
     8
 71
     3
 72
    13
 73
     9
 74
     0
 42
0.000000001
 43
0.00000001
 40
0.0
 40
0.0
 40
0.0
 40
0.0
 40
0.163159558385937
 40
0.3275424452471403
 40
0.4932858679977842
 40
0.6605236853047904
 40
0.8293862019218418
 40
1.0
 40
1.0
 40
1.0
 40
1.0
 10
337.8473808590915
 20
107.1880762757756
 30
0.0
 10
337.8471230136048
 20
107.1884669261681
 30
0.0
 10
337.8466053893723
 20
107.1892511559495
 30
0.0
 10
337.8424587931283
 20
107.1956293251842
 30
0.0
 10
337.8358655144528
 20
107.2058717713316
 30
0.0
 10
337.8265211195752
 20
107.2205086873804
 30
0.0
 10
337.8147113065615
 20
107.2391285462302
 30
0.0
 10
337.8046845892471
 20
107.2550662538777
 30
0.0
 10
337.7996453678074
 20
107.2630762172144
 30
0.0
  0
LINE
  5
FF
330
1F
100
AcDbEntity
  8
0
  6
Continuous
 62
     7
370
    25
100
AcDbLine
 10
337.7996554085
 20
107.2630764881
 30
0.0
 11
337.8083781758
 21
107.2630764881
 31
0.0
  0
SPLINE
  5
100
330
1F
100
AcDbEntity
  8
0
  6
Continuous
 62
     7
370
    25
100
AcDbSpline
210
0.0
220
0.0
230
1.0
 70
     8
 71
     3
 72
    14
 73
    10
 74
     0
 42
0.000000001
 43
0.00000001
 40
0.0
 40
0.0
 40
0.0
 40
0.0
 40
0.0310276388063439
 40
0.0622853718664759
 40
0.1248003166897445
 40
0.2498289731747532
 40
0.4998892603606206
 40
0.7606803621122046
 40
1.0
 40
1.0
 40
1.0
 40
1.0
 10
334.7817126923277
 20
106.8063381011603
 30
0.0
 10
334.7860419857927
 20
106.8111220234382
 30
0.0
 10
334.7947326778262
 20
106.8207253445263
 30
0.0
 10
334.8121334564883
 20
106.8400196585241
 30
0.0
 10
334.8426096163334
 20
106.8737846049779
 30
0.0
 10
334.9034310091531
 20
106.9412033638401
 30
0.0
 10
334.991321351559
 20
107.0386700386981
 30
0.0
 10
335.0941590316434
 20
107.152814550599
 30
0.0
 10
335.1613651430853
 20
107.2275993636042
 30
0.0
 10
335.1935255047397
 20
107.2633863862561
 30
0.0
  0
LINE
  5
101
330
1F
100
AcDbEntity
  8
0
  6
Continuous
 62
     7
370
    25
100
AcDbLine
 10
335.1931973779
 20
107.2630764881
 30
0.0
 11
335.3608419606
 21
107.2630764881
 31
0.0
  0
LINE
  5
102
330
1F
100
AcDbEntity
  8
0
  6
Continuous
 62
     7
370
    25
100
AcDbLine
 10
356.122771413
 20
107.2630764881
 30
0.0
 11
356.2904234463
 21
107.2630764881
 31
0.0
  0
SPLINE
  5
103
330
1F
100
AcDbEntity
  8
0
  6
Continuous
 62
     7
370
    25
100
AcDbSpline
210
0.0
220
0.0
230
1.0
 70
     8
 71
     3
 72
    11
 73
     7
 74
     0
 42
0.000000001
 43
0.00000001
 40
0.0
 40
0.0
 40
0.0
 40
0.0
 40
0.239291384231301
 40
0.500113013499229
 40
0.7515028526564947
 40
1.0
 40
1.0
 40
1.0
 40
1.0
 10
356.2901199394573
 20
107.2633630782871
 30
0.0
 10
356.3222764924101
 20
107.2275863597374
 30
0.0
 10
356.3894828845361
 20
107.1528139119767
 30
0.0
 10
356.4925109742831
 20
107.0383551986587
 30
0.0
 10
356.5976016389271
 20
106.9221960125278
 30
0.0
 10
356.6672764590075
 20
106.8448080712204
 30
0.0
 10
356.7019122757005
 20
106.8063380106408
 30
0.0
  0
LINE
  5
104
330
1F
100
AcDbEntity
  8
0
  6
Continuous
 62
     7
370
    25
100
AcDbLine
 10
335.3379137301
 20
115.3255760634
 30
0.0
 11
335.1933417329
 21
115.3255760634
 31
0.0
  0
SPLINE
  5
105
330
1F
100
AcDbEntity
  8
0
  6
Continuous
 62
     7
370
    25
100
AcDbSpline
210
0.0
220
0.0
230
1.0
 70
     8
 71
     3
 72
    11
 73
     7
 74
     0
 42
0.000000001
 43
0.00000001
 40
0.0
 40
0.0
 40
0.0
 40
0.0
 40
0.2392845094126591
 40
0.5001120454060393
 40
0.7515010915041609
 40
1.0
 40
1.0
 40
1.0
 40
1.0
 10
335.1936443425773
 20
115.3252904895789
 30
0.0
 10
335.161483212812
 20
115.3610883386359
 30
0.0
 10
335.094265454216
 20
115.4359069533343
 30
0.0
 10
334.9912208057181
 20
115.5504352175885
 30
0.0
 10
334.8861125768266
 20
115.6666662112648
 30
0.0
 10
334.816427060199
 20
115.7441007069583
 30
0.0
 10
334.7817857477592
 20
115.7825941082955
 30
0.0
  0
SPLINE
  5
106
330
1F
100
AcDbEntity
  8
0
  6
Continuous
 62
     7
370
    25
100
AcDbSpline
210
0.0
220
0.0
230
1.0
 70
     8
 71
     3
 72
    14
 73
    10
 74
     0
 42
0.000000001
 43
0.00000001
 40
0.0
 40
0.0
 40
0.0
 40
0.0
 40
0.0310294147399625
 40
0.0622870907481784
 40
0.124801921715109
 40
0.2498303511367077
 40
0.499890182551306
 40
0.7606872172580494
 40
1.0
 40
1.0
 40
1.0
 40
1.0
 10
356.7018160104897
 20
115.7825940000181
 30
0.0
 10
356.6974858141754
 20
115.7778068134499
 30
0.0
 10
356.6887935673814
 20
115.768197224397
 30
0.0
 10
356.6713899390351
 20
115.7488912306918
 30
0.0
 10
356.6409092034998
 20
115.7151060150399
 30
0.0
 10
356.5800785817773
 20
115.6476468840922
 30
0.0
 10
356.4921736785815
 20
115.5501203783471
 30
0.0
 10
356.3893194339658
 20
115.4359063715843
 30
0.0
 10
356.3221019758184
 20
115.3610754114728
 30
0.0
 10
356.2899370464432
 20
115.3252672655921
 30
0.0
  0
LINE
  5
107
330
1F
100
AcDbEntity
  8
0
  6
Continuous
 62
     7
370
    25
100
AcDbLine
 10
356.2902641901
 20
115.3255760634
 30
0.0
 11
356.1456996435
 21
115.3255760634
 31
0.0
  0
LINE
  5
108
330
1F
100
AcDbEntity
  8
0
  6
Continuous
 62
     7
370
    25
100
AcDbLine
 10
333.8711384171
 20
109.1069885494
 30
0.0
 11
334.3112013721
 21
109.1880762449
 31
0.0
  0
SPLINE
  5
109
330
1F
100
AcDbEntity
  8
0
  6
Continuous
 62
     7
370
    25
100
AcDbSpline
210
0.0
220
0.0
230
1.0
 70
     8
 71
     3
 72
    25
 73
    21
 74
     0
 42
0.000000001
 43
0.00000001
 40
0.0
 40
0.0
 40
0.0
 40
0.0
 40
0.0274788704226086
 40
0.0560416006855541
 40
0.0856947086358411
 40
0.1164440166544941
 40
0.1482947438687382
 40
0.181251584047501
 40
0.2153187716751581
 40
0.2505001382254828
 40
0.3330514552555702
 40
0.5015081958163823
 40
0.5771663066142392
 40
0.6488981303022477
 40
0.7167477700059373
 40
0.7807674423484352
 40
0.8410194131336789
 40
0.8975784849921754
 40
0.9505352047786662
 40
1.0
 40
1.0
 40
1.0
 40
1.0
 10
334.3112014793757
 20
109.1880762757756
 30
0.0
 10
334.3179096467192
 20
109.1588940712578
 30
0.0
 10
334.3315905742761
 20
109.0993786171085
 30
0.0
 10
334.3543553029301
 20
109.0089881200492
 30
0.0
 10
334.3792329401706
 20
108.9158565109276
 30
0.0
 10
334.4063721781881
 20
108.8202704666526
 30
0.0
 10
334.4357335852194
 20
108.7225169970395
 30
0.0
 10
334.4673187555073
 20
108.6229363209824
 30
0.0
 10
334.501165625372
 20
108.5219271814045
 30
0.0
 10
334.5528668553064
 20
108.3751603741495
 30
0.0
 10
334.6572258683196
 20
108.1108939612357
 30
0.0
 10
334.7780990960037
 20
107.8409243314084
 30
0.0
 10
334.8915921424592
 20
107.6235146566955
 30
0.0
 10
334.962865110075
 20
107.4938110859651
 30
0.0
 10
335.0249396822009
 20
107.3899360086403
 30
0.0
 10
335.0775236943682
 20
107.3100753748217
 30
0.0
 10
335.1207702402957
 20
107.252056748671
 30
0.0
 10
335.1543770525158
 20
107.2139531900185
 30
0.0
 10
335.1793240353884
 20
107.1919506590236
 30
0.0
 10
335.1882835722504
 20
107.1893380456723
 30
0.0
 10
335.1926106089685
 20
107.1880762757756
 30
0.0
  0
LINE
  5
10A
330
1F
100
AcDbEntity
  8
0
  6
Continuous
 62
     7
370
    25
100
AcDbLine
 10
357.6124749565
 20
113.4816640021
 30
0.0
 11
357.1724120015
 21
113.4005763067
 31
0.0
  0
SPLINE
  5
10B
330
1F
100
AcDbEntity
  8
0
  6
Continuous
 62
     7
370
    25
100
AcDbSpline
210
0.0
220
0.0
230
1.0
 70
     8
 71
     3
 72
    20
 73
    16
 74
     0
 42
0.000000001
 43
0.00000001
 40
0.0
 40
0.0
 40
0.0
 40
0.0
 40
0.0481541053709101
 40
0.0993220053191994
 40
0.1535299239007727
 40
0.2107995476294668
 40
0.2711494251328335
 40
0.3041838795806031
 40
0.3605578199056567
 40
0.4402583812372164
 40
0.5432665008272719
 40
0.7025856217611187
 40
0.8451532372668946
 40
0.9714583418066324
 40
0.9999999999999999
 40
0.9999999999999999
 40
0.9999999999999999
 40
0.9999999999999999
 10
357.172412001459
 20
113.4005763066955
 30
0.0
 10
357.1614061811775
 20
113.447786586302
 30
0.0
 10
357.138705725378
 20
113.545161869387
 30
0.0
 10
357.0989013456103
 20
113.6937521095037
 30
0.0
 10
357.0537413663981
 20
113.8485768907727
 30
0.0
 10
357.0026675778154
 20
114.0081880973747
 30
0.0
 10
356.9558525623261
 20
114.1438394940157
 30
0.0
 10
356.9064835840223
 20
114.2740819538241
 30
0.0
 10
356.8497683563611
 20
114.4165146263507
 30
0.0
 10
356.7693364609204
 20
114.6069668583724
 30
0.0
 10
356.6525653931121
 20
114.8536182515324
 30
0.0
 10
356.5206268579451
 20
115.0991295859344
 30
0.0
 10
356.4078949339874
 20
115.2797659755367
 30
0.0
 10
356.3397618840817
 20
115.3674204710272
 30
0.0
 10
356.3228597156324
 20
115.3781284842648
 30
0.0
 10
356.3197442748826
 20
115.38010220621
 30
0.0
  0
SPLINE
  5
10C
330
1F
100
AcDbEntity
  8
0
  6
Continuous
 62
     7
370
    25
100
AcDbSpline
210
0.0
220
0.0
230
1.0
 70
     8
 71
     3
 72
    25
 73
    21
 74
     0
 42
0.000000001
 43
0.00000001
 40
0.0
 40
0.0
 40
0.0
 40
0.0
 40
0.028882175310577
 40
0.058363659400572
 40
0.0884647204305487
 40
0.1192044006616748
 40
0.1506005800085674
 40
0.1826700399669872
 40
0.2154285269576229
 40
0.2488908143379855
 40
0.3610594471120859
 40
0.4984670131067352
 40
0.5822693905004868
 40
0.6661127642780602
 40
0.749997293722412
 40
0.8007709755012571
 40
0.8511237700778299
 40
0.9010896024477123
 40
0.950703191408934
 40
0.9999999999999999
 40
0.9999999999999999
 40
0.9999999999999999
 40
0.9999999999999999
 10
335.1926106089685
 20
115.4005762757756
 30
0.0
 10
335.1903203405908
 20
115.4001480337997
 30
0.0
 10
335.1856922804779
 20
115.3992826637729
 30
0.0
 10
335.1753820173906
 20
115.3922077310714
 30
0.0
 10
335.1625459481598
 20
115.3806391899112
 30
0.0
 10
335.1469323894171
 20
115.363933613799
 30
0.0
 10
335.1286109460045
 20
115.3419967027829
 30
0.0
 10
335.1075633601733
 20
115.3145990672982
 30
0.0
 10
335.0837917881811
 20
115.2815645866158
 30
0.0
 10
335.0367352587483
 20
115.2125739204923
 30
0.0
 10
334.9490408408894
 20
115.0725479510735
 30
0.0
 10
334.831489186358
 20
114.8532526498711
 30
0.0
 10
334.7199670220156
 20
114.6163225890899
 30
0.0
 10
334.6285077046675
 20
114.40048071518
 30
0.0
 10
334.5476260534891
 20
114.198919094302
 30
0.0
 10
334.481481151621
 20
114.0200510139157
 30
0.0
 10
334.4321305907953
 20
113.8686748127776
 30
0.0
 10
334.3871635739304
 20
113.7144306576549
 30
0.0
 10
334.3464058600101
 20
113.5582748025736
 30
0.0
 10
334.3229111907916
 20
113.4530300956198
 30
0.0
 10
334.3112014793757
 20
113.4005762757756
 30
0.0
  0
LINE
  5
10D
330
1F
100
AcDbEntity
  8
0
  6
Continuous
 62
     7
370
    25
100
AcDbLine
 10
333.8711384171
 20
113.4816640021
 30
0.0
 11
334.3112013721
 21
113.4005763067
 31
0.0
  0
SPLINE
  5
10E
330
1F
100
AcDbEntity
  8
0
  6
Continuous
 62
     7
370
    25
100
AcDbSpline
210
0.0
220
0.0
230
1.0
 70
     8
 71
     3
 72
    17
 73
    13
 74
     0
 42
0.000000001
 43
0.00000001
 40
0.0
 40
0.0
 40
0.0
 40
0.0
 40
0.017073236636963
 40
0.0879018214540331
 40
0.1618047248897706
 40
0.2422246694564927
 40
0.33516120822221
 40
0.4406788954713877
 40
0.580927040182565
 40
0.7212787874652892
 40
0.8619302949559989
 40
0.9999999999999999
 40
0.9999999999999999
 40
0.9999999999999999
 40
0.9999999999999999
 10
356.3310477369707
 20
107.2205914149083
 30
0.0
 10
356.3329031704879
 20
107.2219690674476
 30
0.0
 10
356.3424558984921
 20
107.2290619327378
 30
0.0
 10
356.3765913772358
 20
107.2744396396838
 30
0.0
 10
356.42619190433
 20
107.3446919899086
 30
0.0
 10
356.4926370006297
 20
107.4484707511808
 30
0.0
 10
356.5747374692178
 20
107.5907569057412
 30
0.0
 10
356.6828961780418
 20
107.7970172696351
 30
0.0
 10
356.808990304748
 20
108.0742650187154
 30
0.0
 10
356.9492635398887
 20
108.4174247248492
 30
0.0
 10
357.0793632920361
 20
108.7911697367785
 30
0.0
 10
357.1415878943998
 20
109.056593618462
 30
0.0
 10
357.172412001459
 20
109.1880762448557
 30
0.0
  0
LINE
  5
10F
330
1F
100
AcDbEntity
  8
0
  6
Continuous
 62
     7
370
    25
100
AcDbLine
 10
357.6124749565
 20
109.1069885494
 30
0.0
 11
357.1724120015
 21
109.1880762449
 31
0.0
  0
SPLINE
  5
110
330
1F
100
AcDbEntity
  8
0
  6
Continuous
 62
     7
370
    25
100
AcDbSpline
210
0.0
220
0.0
230
1.0
 70
     8
 71
     3
 72
    15
 73
    11
 74
     0
 42
0.000000001
 43
0.00000001
 40
0.0
 40
0.0
 40
0.0
 40
0.0
 40
0.1351922525168508
 40
0.295505352053604
 40
0.3941605101370091
 40
0.4930224738308925
 40
0.5920945925114958
 40
0.7581984282951001
 40
0.9106346529387762
 40
1.0
 40
1.0
 40
1.0
 40
1.0
 10
336.8439489462655
 20
113.4005763066955
 30
0.0
 10
336.8792098236968
 20
113.5209952579328
 30
0.0
 10
336.9562836042211
 20
113.7842088956733
 30
0.0
 10
337.0810771410988
 20
114.1164314574331
 30
0.0
 10
337.1979806664236
 20
114.3959258574126
 30
0.0
 10
337.2955655152731
 20
114.6109403225292
 30
0.0
 10
337.4196451723951
 20
114.8495721141903
 30
0.0
 10
337.5502582221673
 20
115.0802494835963
 30
0.0
 10
337.6533365601589
 20
115.257444924021
 30
0.0
 10
337.6872951188416
 20
115.3111495358159
 30
0.0
 10
337.699845568208
 20
115.3309977578022
 30
0.0
  0
SPLINE
  5
111
330
1F
100
AcDbEntity
  8
0
  6
Continuous
 62
     7
370
    25
100
AcDbSpline
210
0.0
220
0.0
230
1.0
 70
     8
 71
     3
 72
    15
 73
    11
 74
     0
 42
0.000000001
 43
0.00000001
 40
0.0
 40
0.0
 40
0.0
 40
0.0
 40
0.1361835767353471
 40
0.2976722041233961
 40
0.3970507708760626
 40
0.4966376596826896
 40
0.5964362444794897
 40
0.763758069845573
 40
0.9173120635806887
 40
0.9999999999999999
 40
0.9999999999999999
 40
0.9999999999999999
 40
0.9999999999999999
 10
354.6396644273084
 20
109.1880762448557
 30
0.0
 10
354.6044035168609
 20
109.0676572311252
 30
0.0
 10
354.5273296641696
 20
108.8044434567861
 30
0.0
 10
354.4025366622528
 20
108.4722219076058
 30
0.0
 10
354.2856317712121
 20
108.1927249225854
 30
0.0
 10
354.1880514189938
 20
107.9777189687386
 30
0.0
 10
354.0639510537469
 20
107.7390479805251
 30
0.0
 10
353.9334646929402
 20
107.5086104092989
 30
0.0
 10
353.8318215421191
 20
107.3338118499315
 30
0.0
 10
353.7987217746211
 20
107.2814158213478
 30
0.0
 10
353.7871363991183
 20
107.2630764881171
 30
0.0
  0
SPLINE
  5
112
330
1F
100
AcDbEntity
  8
0
  6
Continuous
 62
     7
370
    25
100
AcDbSpline
210
0.0
220
0.0
230
1.0
 70
     8
 71
     3
 72
    15
 73
    11
 74
     0
 42
0.000000001
 43
0.00000001
 40
0.0
 40
0.0
 40
0.0
 40
0.0
 40
0.0210214847137796
 40
0.0995173547081305
 40
0.2360971400771362
 40
0.3979401334474181
 40
0.5486162591715825
 40
0.7000321895560188
 40
0.8517812990240201
 40
0.9999999999999999
 40
0.9999999999999999
 40
0.9999999999999999
 40
0.9999999999999999
 10
337.6950306304973
 20
107.2630764881171
 30
0.0
 10
337.692182129243
 20
107.2675610977103
 30
0.0
 10
337.6786971012554
 20
107.2887915906888
 30
0.0
 10
337.6312882372264
 20
107.3659267798429
 30
0.0
 10
337.5381464190746
 20
107.5218562138871
 30
0.0
 10
337.4017273354967
 20
107.7708716783299
 30
0.0
 10
337.2524048992794
 20
108.0805106747245
 30
0.0
 10
337.0992397635669
 20
108.4224745488279
 30
0.0
 10
336.9536069968527
 20
108.7935833915134
 30
0.0
 10
336.8802137007716
 20
109.0576144465265
 30
0.0
 10
336.8439489462655
 20
109.1880762448557
 30
0.0
  0
LINE
  5
113
330
1F
100
AcDbEntity
  8
0
  6
Continuous
 62
     7
370
    25
100
AcDbLine
 10
337.1602093288
 20
113.3257128729
 30
0.0
 11
336.8439489463
 21
113.4005763067
 31
0.0
  0
SPLINE
  5
114
330
1F
100
AcDbEntity
  8
0
  6
Continuous
 62
     7
370
    25
100
AcDbSpline
210
0.0
220
0.0
230
1.0
 70
     8
 71
     3
 72
    25
 73
    21
 74
     0
 42
0.000000001
 43
0.00000001
 40
0.0
 40
0.0
 40
0.0
 40
0.0
 40
0.0278144320063455
 40
0.055568019624575
 40
0.0833316253677712
 40
0.1111760352167588
 40
0.1391714221532256
 40
0.1673868326284751
 40
0.1958897140434721
 40
0.2247454979318971
 40
0.2540172492221458
 40
0.3796724410016526
 40
0.5056484635002474
 40
0.6297527290694804
 40
0.753589172057179
 40
0.8038564806094552
 40
0.8533396843435762
 40
0.9023264398359792
 40
0.9511131859220281
 40
1.0
 40
1.0
 40
1.0
 40
1.0
 10
338.0278305974984
 20
115.5680745669581
 30
0.0
 10
338.0276828461837
 20
115.5678080244045
 30
0.0
 10
338.027387666762
 20
115.5672755223623
 30
0.0
 10
338.0237629677462
 20
115.5607280736662
 30
0.0
 10
338.0178170720758
 20
115.5499588303799
 30
0.0
 10
338.0093423491608
 20
115.5345480944556
 30
0.0
 10
337.9984273623216
 20
115.5145917182019
 30
0.0
 10
337.9850912940832
 20
115.4900416217314
 30
0.0
 10
337.9693835293963
 20
115.4608849979755
 30
0.0
 10
337.9513519412384
 20
115.4270890265421
 30
0.0
 10
337.9089343964901
 20
115.3466822684843
 30
0.0
 10
337.8284133567366
 20
115.1896938188136
 30
0.0
 10
337.694987009862
 20
114.9079080810661
 30
0.0
 10
337.5509100331789
 20
114.5700359714392
 30
0.0
 10
337.4352322817275
 20
114.2613550577008
 30
0.0
 10
337.3527208065102
 20
114.0153243379457
 30
0.0
 10
337.299799181985
 20
113.8464984466724
 30
0.0
 10
337.2499420476076
 20
113.6751828756606
 30
0.0
 10
337.2029240543771
 20
113.50150052544
 30
0.0
 10
337.1744570436486
 20
113.3843488371367
 30
0.0
 10
337.1602089558498
 20
113.3257129811754
 30
0.0
  0
LINE
  5
115
330
1F
100
AcDbEntity
  8
0
  6
Continuous
 62
     7
370
    25
100
AcDbLine
 10
337.1602093288
 20
109.2629396787
 30
0.0
 11
336.8439489463
 21
109.1880762449
 31
0.0
  0
SPLINE
  5
116
330
1F
100
AcDbEntity
  8
0
  6
Continuous
 62
     7
370
    25
100
AcDbSpline
210
0.0
220
0.0
230
1.0
 70
     8
 71
     3
 72
    25
 73
    21
 74
     0
 42
0.000000001
 43
0.00000001
 40
0.0
 40
0.0
 40
0.0
 40
0.0
 40
0.0269872354800184
 40
0.0539362690264013
 40
0.0809037148834677
 40
0.1079460716551655
 40
0.1351193706862115
 40
0.1624788388361402
 40
0.1900785854186968
 40
0.2179713214293201
 40
0.2462081170984916
 40
0.3700050494712573
 40
0.4947542611659164
 40
0.6210439034698568
 40
0.7446557472315325
 40
0.7967060293740728
 40
0.8478613449332301
 40
0.8985210411993312
 40
0.9490962115259697
 40
1.0
 40
1.0
 40
1.0
 40
1.0
 10
337.1602089558498
 20
109.2629395703757
 30
0.0
 10
337.167989700574
 20
109.2305431653477
 30
0.0
 10
337.1835401759451
 20
109.1657962142059
 30
0.0
 10
337.2082255819186
 20
109.0691496777765
 30
0.0
 10
337.2338455389176
 20
108.9730555892847
 30
0.0
 10
337.2604884025452
 20
108.8775433185678
 30
0.0
 10
337.2881135878297
 20
108.7826185911752
 30
0.0
 10
337.316715366889
 20
108.6882924350397
 30
0.0
 10
337.3462774565303
 20
108.5945760905909
 30
0.0
 10
337.3767906035773
 20
108.5014720067012
 30
0.0
 10
337.4435248081665
 20
108.3052067645882
 30
0.0
 10
337.5507079842622
 20
108.0191336489854
 30
0.0
 10
337.6944880745712
 20
107.6818437529915
 30
0.0
 10
337.8277365307828
 20
107.4003345761685
 30
0.0
 10
337.9154077069961
 20
107.2293436459901
 30
0.0
 10
337.9662827427881
 20
107.1334308276081
 30
0.0
 10
337.9939518974396
 20
107.0822136241534
 30
0.0
 10
338.0136508155571
 20
107.0462308300684
 30
0.0
 10
338.0258983242606
 20
107.0240609417464
 30
0.0
 10
338.0271851174166
 20
107.0217414740127
 30
0.0
 10
338.0278305974984
 20
107.0205779845931
 30
0.0
  0
LINE
  5
117
330
1F
100
AcDbEntity
  8
0
  6
Continuous
 62
     7
370
    25
100
AcDbLine
 10
354.3234040448
 20
109.2629396787
 30
0.0
 11
354.6396644273
 21
109.1880762449
 31
0.0
  0
SPLINE
  5
118
330
1F
100
AcDbEntity
  8
0
  6
Continuous
 62
     7
370
    25
100
AcDbSpline
210
0.0
220
0.0
230
1.0
 70
     8
 71
     3
 72
    25
 73
    21
 74
     0
 42
0.000000001
 43
0.00000001
 40
0.0
 40
0.0
 40
0.0
 40
0.0
 40
0.0278144320063459
 40
0.0555680196245756
 40
0.0833316253677717
 40
0.1111760352167592
 40
0.1391714221532273
 40
0.1673868326284777
 40
0.1958897140434739
 40
0.2247454979319
 40
0.2540172492221491
 40
0.3796724410004536
 40
0.5056484635002076
 40
0.6297527290689199
 40
0.7535891720572084
 40
0.8038564806098945
 40
0.853339684344225
 40
0.9023264398366275
 40
0.9511131859224607
 40
1.0
 40
1.0
 40
1.0
 40
1.0
 10
353.4557827760754
 20
107.0205779845931
 30
0.0
 10
353.4559305273901
 20
107.0208445271466
 30
0.0
 10
353.4562257068119
 20
107.0213770291888
 30
0.0
 10
353.4598504058277
 20
107.0279244778849
 30
0.0
 10
353.465796301498
 20
107.0386937211712
 30
0.0
 10
353.4742710244131
 20
107.0541044570955
 30
0.0
 10
353.4851860112522
 20
107.0740608333492
 30
0.0
 10
353.4985220794906
 20
107.0986109298197
 30
0.0
 10
353.5142298441775
 20
107.1277675535756
 30
0.0
 10
353.5322614323354
 20
107.1615635250091
 30
0.0
 10
353.5746789770835
 20
107.2419702830663
 30
0.0
 10
353.6552000168374
 20
107.3989587327378
 30
0.0
 10
353.7886263637112
 20
107.6807444704836
 30
0.0
 10
353.9327033403943
 20
108.0186165801103
 30
0.0
 10
354.0483810918464
 20
108.3272974938501
 30
0.0
 10
354.1308925670641
 20
108.5733282136067
 30
0.0
 10
354.1838141915895
 20
108.7421541048808
 30
0.0
 10
354.2336713259668
 20
108.9134696758926
 30
0.0
 10
354.2806893191971
 20
109.0871520261124
 30
0.0
 10
354.3091563299253
 20
109.2043037144149
 30
0.0
 10
354.323404417724
 20
109.2629395703757
 30
0.0
  0
SPLINE
  5
119
330
1F
100
AcDbEntity
  8
0
  6
Continuous
 62
     7
370
    25
100
AcDbSpline
210
0.0
220
0.0
230
1.0
 70
     8
 71
     3
 72
    15
 73
    11
 74
     0
 42
0.000000001
 43
0.00000001
 40
0.0
 40
0.0
 40
0.0
 40
0.0
 40
0.0210214847137796
 40
0.0995173547081305
 40
0.2360971400771362
 40
0.3979401334474181
 40
0.5486162591715825
 40
0.7000321895560188
 40
0.8517812990240201
 40
0.9999999999999999
 40
0.9999999999999999
 40
0.9999999999999999
 40
0.9999999999999999
 10
353.7885827430766
 20
115.325576063434
 30
0.0
 10
353.7914312443308
 20
115.3210914538408
 30
0.0
 10
353.8049162723184
 20
115.2998609608624
 30
0.0
 10
353.8523251363475
 20
115.2227257717083
 30
0.0
 10
353.9454669544992
 20
115.066796337664
 30
0.0
 10
354.0818860380772
 20
114.8177808732213
 30
0.0
 10
354.2312084742945
 20
114.5081418768267
 30
0.0
 10
354.3843736100069
 20
114.1661780027232
 30
0.0
 10
354.5300063767212
 20
113.7950691600377
 30
0.0
 10
354.6033996728023
 20
113.5310381050246
 30
0.0
 10
354.6396644273084
 20
113.4005763066955
 30
0.0
  0
LINE
  5
11A
330
1F
100
AcDbEntity
  8
0
  6
Continuous
 62
     7
370
    25
100
AcDbLine
 10
354.3234040448
 20
113.3257128729
 30
0.0
 11
354.6396644273
 21
113.4005763067
 31
0.0
  0
SPLINE
  5
11B
330
1F
100
AcDbEntity
  8
0
  6
Continuous
 62
     7
370
    25
100
AcDbSpline
210
0.0
220
0.0
230
1.0
 70
     8
 71
     3
 72
    14
 73
    10
 74
     0
 42
0.000000001
 43
0.00000001
 40
0.0
 40
0.0
 40
0.0
 40
0.0
 40
0.1400505481383316
 40
0.2837940635646364
 40
0.4267314741655509
 40
0.5707685044357909
 40
0.7165840938251985
 40
0.8593077005344127
 40
1.0
 40
1.0
 40
1.0
 40
1.0
 10
354.3234040447753
 20
113.3257128728576
 30
0.0
 10
354.2866372546504
 20
113.4712728900534
 30
0.0
 10
354.2121341776367
 20
113.7662311699149
 30
0.0
 10
354.0769450307006
 20
114.1842955345139
 30
0.0
 10
353.9330603681859
 20
114.569348044645
 30
0.0
 10
353.7889245797934
 20
114.9071563247864
 30
0.0
 10
353.656527554242
 20
115.1870965749453
 30
0.0
 10
353.5456076832065
 20
115.4032374507127
 30
0.0
 10
353.5042718177316
 20
115.479300677852
 30
0.0
 10
353.4837520168405
 20
115.5170597100653
 30
0.0
  0
ARC
  5
11C
330
1F
100
AcDbEntity
  8
0
  6
Continuous
 62
     7
370
    25
100
AcDbCircle
 10
345.7418066868
 20
111.2943262758
 30
0.0
 40
11.62303852141071
100
AcDbArc
 50
169.5595567507
 51
190.4404432494
  0
ARC
  5
11D
330
1F
100
AcDbEntity
  8
0
  6
Continuous
 62
     7
370
    25
100
AcDbCircle
 10
345.7418066868
 20
111.2943262758
 30
0.0
 40
9.143750000000008
100
AcDbArc
 50
166.6824039243
 51
193.3175960757
  0
ARC
  5
11E
330
1F
100
AcDbEntity
  8
0
  6
Continuous
 62
     7
370
    25
100
AcDbCircle
 10
345.7418066868
 20
111.2943262758
 30
0.0
 40
8.81875000000008
100
AcDbArc
 50
166.6824039243
 51
193.3175960757
  0
ARC
  5
11F
330
1F
100
AcDbEntity
  8
0
  6
Continuous
 62
     7
370
    25
100
AcDbCircle
 10
345.7418066868
 20
111.2943262758
 30
0.0
 40
9.143749999999953
100
AcDbArc
 50
346.6824039243
 51
13.3175960757
  0
ARC
  5
120
330
1F
100
AcDbEntity
  8
0
  6
Continuous
 62
     7
370
    25
100
AcDbCircle
 10
345.7418066868
 20
111.2943262758
 30
0.0
 40
8.818749999999973
100
AcDbArc
 50
346.6824039243
 51
13.3175960757
  0
ARC
  5
121
330
1F
100
AcDbEntity
  8
0
  6
Continuous
 62
     7
370
    25
100
AcDbCircle
 10
345.7418066868
 20
111.2943262758
 30
0.0
 40
11.62303852141065
100
AcDbArc
 50
349.5595567507
 51
10.4404432493
  0
CIRCLE
  5
122
330
1F
100
AcDbEntity
  8
0
  6
Continuous
 62
     7
370
    25
100
AcDbCircle
 10
345.7418066868
 20
111.2943262758
 30
0.0
 40
7.775000000000034
  0
CIRCLE
  5
123
330
1F
100
AcDbEntity
  8
0
  6
Continuous
 62
     7
370
    25
100
AcDbCircle
 10
345.7418066868
 20
111.2943262758
 30
0.0
 40
2.615470053837953
  0
CIRCLE
  5
124
330
1F
100
AcDbEntity
  8
0
  6
Continuous
 62
     7
370
    25
100
AcDbCircle
 10
345.7418066868
 20
111.2943262758
 30
0.0
 40
2.5
  0
CIRCLE
  5
125
330
1F
100
AcDbEntity
  8
0
  6
Continuous
 62
     7
370
    25
100
AcDbCircle
 10
345.7418066868
 20
111.2943262758
 30
0.0
 40
15.73750000000001
  0
CIRCLE
  5
126
330
1F
100
AcDbEntity
  8
0
  6
Continuous
 62
     7
370
    25
100
AcDbCircle
 10
345.7418066868
 20
111.2943262758
 30
0.0
 40
13.42500000000001
  0
CIRCLE
  5
127
330
1F
100
AcDbEntity
  8
0
  6
Continuous
 62
     7
370
    25
100
AcDbCircle
 10
345.7418066868
 20
111.2943262758
 30
0.0
 40
2.0
  0
LINE
  5
128
330
1F
100
AcDbEntity
  8
0
  6
CENTER
 62
     7
370
    18
100
AcDbLine
 10
345.7418066868
 20
111.2943262758
 30
0.0
 11
345.7418066868
 21
130.8088262758
 31
0.0
  0
LINE
  5
129
330
1F
100
AcDbEntity
  8
0
  6
CENTER
 62
     7
370
    18
100
AcDbLine
 10
345.7418066868
 20
111.2943262758
 30
0.0
 11
365.2539644109
 21
111.2943262758
 31
0.0
  0
LINE
  5
12A
330
1F
100
AcDbEntity
  8
0
  6
Continuous
 62
     7
370
    18
100
AcDbLine
 10
357.7418066868
 20
128.8088262758
 30
0.0
 11
345.7418066868
 21
128.8088262758
 31
0.0
  0
SOLID
  5
12B
330
1F
100
AcDbEntity
  8
0
  6
Continuous
 62
     7
370
    18
100
AcDbTrace
 10
345.7418066868
 20
128.8088262758
 30
0.0
 11
351.7418066868
 21
127.3088262758
 31
0.0
 12
351.7418066868
 22
130.3088262758
 32
0.0
 13
351.7418066868
 23
130.3088262758
 33
0.0
  0
LINE
  5
12C
330
1F
100
AcDbEntity
  8
0
  6
Continuous
 62
     7
370
    18
100
AcDbLine
 10
375.2539644109
 20
111.2943262758
 30
0.0
 11
363.2539644109
 21
111.2943262758
 31
0.0
  0
SOLID
  5
12D
330
1F
100
AcDbEntity
  8
0
  6
Continuous
 62
     7
370
    18
100
AcDbTrace
 10
363.2539644109
 20
111.2943262758
 30
0.0
 11
369.2539644109
 21
109.7943262758
 31
0.0
 12
369.2539644109
 22
112.7943262758
 32
0.0
 13
369.2539644109
 23
112.7943262758
 33
0.0
  0
MTEXT
  5
12E
330
1F
100
AcDbEntity
  8
0
  6
Continuous
 62
     7
100
AcDbMText
 10
354.5944259428
 20
135.4551194924
 30
0.0
 40
3.5
 41
0.0
 71
     1
 72
     1
  1
A
  7
SLDTEXTSTYLE0
 73
     1
 44
1.0
  0
MTEXT
  5
12F
330
1F
100
AcDbEntity
  8
0
  6
Continuous
 62
     7
100
AcDbMText
 10
372.1065836669
 20
109.0811106346
 30
0.0
 40
3.5
 41
0.0
 71
     1
 72
     1
  1
A
  7
SLDTEXTSTYLE0
 73
     1
 44
1.0
  0
LINE
  5
130
330
1F
100
AcDbEntity
  8
0
  6
Continuous
 62
     7
370
    25
100
AcDbLine
 10
152.2932326634
 20
79.8193262758
 30
0.0
 11
157.0590348589
 21
79.8193262758
 31
0.0
  0
ARC
  5
131
330
1F
100
AcDbEntity
  8
0
  6
Continuous
 62
     7
370
    25
100
AcDbCircle
 10
139.2590348589
 20
80.0193262758
 30
0.0
 40
0.2000000000000171
100
AcDbArc
 50
180.0
 51
270.0
  0
LINE
  5
132
330
1F
100
AcDbEntity
  8
0
  6
Continuous
 62
     7
370
    25
100
AcDbLine
 10
139.2590348589
 20
79.8193262758
 30
0.0
 11
145.6248370543
 21
79.8193262758
 31
0.0
  0
LINE
  5
133
330
1F
100
AcDbEntity
  8
0
  6
Continuous
 62
     7
370
    25
100
AcDbLine
 10
145.6248370543
 20
79.8193262758
 30
0.0
 11
147.0840348589
 21
82.3467310116
 31
0.0
  0
LINE
  5
134
330
1F
100
AcDbEntity
  8
0
  6
Continuous
 62
     7
370
    25
100
AcDbLine
 10
150.8340348589
 20
82.3467310116
 30
0.0
 11
152.2932326634
 21
79.8193262758
 31
0.0
  0
ARC
  5
135
330
1F
100
AcDbEntity
  8
0
  6
Continuous
 62
     7
370
    25
100
AcDbCircle
 10
148.0840348589
 20
82.4443262758
 30
0.0
 40
1.0
100
AcDbArc
 50
90.0
 51
180.0
  0
ARC
  5
136
330
1F
100
AcDbEntity
  8
0
  6
Continuous
 62
     7
370
    25
100
AcDbCircle
 10
149.8340348589
 20
82.4443262758
 30
0.0
 40
1.000000000000028
100
AcDbArc
 50
0.0
 51
90.0
  0
LINE
  5
137
330
1F
100
AcDbEntity
  8
0
  6
Continuous
 62
     7
370
    25
100
AcDbLine
 10
148.0840348589
 20
83.4443262758
 30
0.0
 11
149.8340348589
 21
83.4443262758
 31
0.0
  0
ARC
  5
138
330
1F
100
AcDbEntity
  8
0
  6
Continuous
 62
     7
370
    25
100
AcDbCircle
 10
138.6300999843
 20
85.7443262758
 30
0.0
 40
0.8000000000000047
100
AcDbArc
 50
57.576802718
 51
107.5
  0
LINE
  5
139
330
1F
100
AcDbEntity
  8
0
  6
Continuous
 62
     7
370
    25
100
AcDbLine
 10
137.8988528188
 20
86.3525882302
 30
0.0
 11
138.3895353447
 21
86.5072998364
 31
0.0
  0
LINE
  5
13A
330
1F
100
AcDbEntity
  8
0
  6
Continuous
 62
     7
370
    25
100
AcDbLine
 10
124.5725893908
 20
87.021805755
 30
0.0
 11
137.8988528188
 21
86.3525882302
 31
0.0
  0
LINE
  5
13B
330
1F
100
AcDbEntity
  8
0
  6
Continuous
 62
     7
370
    25
100
AcDbLine
 10
100.6090348589
 20
88.2252061482
 30
0.0
 11
108.6638717224
 21
87.8207088172
 31
0.0
  0
LINE
  5
13C
330
1F
100
AcDbEntity
  8
0
  6
Continuous
 62
     7
370
    25
100
AcDbLine
 10
99.1090348589
 20
89.091231552
 30
0.0
 11
100.6090348589
 21
88.2252061482
 31
0.0
  0
ARC
  5
13D
330
1F
100
AcDbEntity
  8
0
  6
Continuous
 62
     7
370
    25
100
AcDbCircle
 10
160.0590348589
 20
91.2943262758
 30
0.0
 40
3.0
100
AcDbArc
 50
90.0
 51
180.0
  0
LINE
  5
13E
330
1F
100
AcDbEntity
  8
0
  6
Continuous
 62
     7
370
    25
100
AcDbLine
 10
174.5873182823
 20
94.2943262758
 30
0.0
 11
217.2159530503
 21
97.6492725916
 31
0.0
  0
LINE
  5
13F
330
1F
100
AcDbEntity
  8
0
  6
Continuous
 62
     7
370
    25
100
AcDbLine
 10
160.0590348589
 20
94.2943262758
 30
0.0
 11
174.5873182823
 21
94.2943262758
 31
0.0
  0
ARC
  5
140
330
1F
100
AcDbEntity
  8
0
  6
Continuous
 62
     7
370
    25
100
AcDbCircle
 10
217.0590348589
 20
99.6431072591
 30
0.0
 40
2.000000000000028
100
AcDbArc
 50
274.5
 51
0.0
  0
LINE
  5
141
330
1F
100
AcDbEntity
  8
0
  6
Continuous
 62
     7
370
    25
100
AcDbLine
 10
173.0590348589
 20
115.7943262758
 30
0.0
 11
172.5590348589
 21
116.2943262758
 31
0.0
  0
LINE
  5
142
330
1F
100
AcDbEntity
  8
0
  6
Continuous
 62
     7
370
    25
100
AcDbLine
 10
172.5590348589
 20
116.2943262758
 30
0.0
 11
157.0590348589
 21
116.2943262758
 31
0.0
  0
LINE
  5
143
330
1F
100
AcDbEntity
  8
0
  6
Continuous
 62
     7
370
    25
100
AcDbLine
 10
157.0590348589
 20
116.2943262758
 30
0.0
 11
156.5590348589
 21
115.7943262758
 31
0.0
  0
LINE
  5
144
330
1F
100
AcDbEntity
  8
0
  6
Continuous
 62
     7
370
    25
100
AcDbLine
 10
174.5590348589
 20
115.7901563067
 30
0.0
 11
176.5590348589
 21
115.7901563067
 31
0.0
  0
LINE
  5
145
330
1F
100
AcDbEntity
  8
0
  6
Continuous
 62
     7
370
    25
100
AcDbLine
 10
174.5590348589
 20
115.7943262758
 30
0.0
 11
173.0590348589
 21
115.7943262758
 31
0.0
  0
LINE
  5
146
330
1F
100
AcDbEntity
  8
0
  6
Continuous
 62
     7
370
    25
100
AcDbLine
 10
170.5590348589
 20
113.6490715675
 30
0.0
 11
170.5590348589
 21
113.7943262758
 31
0.0
  0
LINE
  5
147
330
1F
100
AcDbEntity
  8
0
  6
Continuous
 62
     7
370
    25
100
AcDbLine
 10
170.5590348589
 20
111.7444568997
 30
0.0
 11
170.5590348589
 21
113.6490715675
 31
0.0
  0
LINE
  5
148
330
1F
100
AcDbEntity
  8
0
  6
Continuous
 62
     7
370
    25
100
AcDbLine
 10
170.5590348589
 20
111.2943262758
 30
0.0
 11
170.5590348589
 21
111.7444568997
 31
0.0
  0
LINE
  5
149
330
1F
100
AcDbEntity
  8
0
  6
Continuous
 62
     7
370
    25
100
AcDbLine
 10
162.5590348588
 20
111.7444568997
 30
0.0
 11
162.5590348588
 21
111.2943262758
 31
0.0
  0
LINE
  5
14A
330
1F
100
AcDbEntity
  8
0
  6
Continuous
 62
     7
370
    25
100
AcDbLine
 10
162.5590348588
 20
113.6490715675
 30
0.0
 11
162.5590348588
 21
111.7444568997
 31
0.0
  0
LINE
  5
14B
330
1F
100
AcDbEntity
  8
0
  6
Continuous
 62
     7
370
    25
100
AcDbLine
 10
162.5590348588
 20
113.7943262758
 30
0.0
 11
162.5590348588
 21
113.6490715675
 31
0.0
  0
LINE
  5
14C
330
1F
100
AcDbEntity
  8
0
  6
Continuous
 62
     7
370
    25
100
AcDbLine
 10
162.5590348588
 20
113.7943262758
 30
0.0
 11
170.5590348589
 21
113.7943262758
 31
0.0
  0
LINE
  5
14D
330
1F
100
AcDbEntity
  8
0
  6
Continuous
 62
     7
370
    25
100
AcDbLine
 10
174.5590348589
 20
113.9485411592
 30
0.0
 11
174.5590348589
 21
115.7943262758
 31
0.0
  0
LINE
  5
14E
330
1F
100
AcDbEntity
  8
0
  6
Continuous
 62
     7
370
    25
100
AcDbLine
 10
170.5590348589
 20
113.9485411592
 30
0.0
 11
174.5590348589
 21
113.9485411592
 31
0.0
  0
LINE
  5
14F
330
1F
100
AcDbEntity
  8
0
  6
Continuous
 62
     7
370
    25
100
AcDbLine
 10
170.5590348589
 20
113.7943262758
 30
0.0
 11
170.5590348589
 21
113.9485411592
 31
0.0
  0
LINE
  5
150
330
1F
100
AcDbEntity
  8
0
  6
Continuous
 62
     7
370
    25
100
AcDbLine
 10
162.5590348588
 20
113.9485411592
 30
0.0
 11
162.5590348588
 21
113.7943262758
 31
0.0
  0
LINE
  5
151
330
1F
100
AcDbEntity
  8
0
  6
Continuous
 62
     7
370
    25
100
AcDbLine
 10
156.5590348588
 20
113.9485411592
 30
0.0
 11
162.5590348588
 21
113.9485411592
 31
0.0
  0
LINE
  5
152
330
1F
100
AcDbEntity
  8
0
  6
Continuous
 62
     7
370
    25
100
AcDbLine
 10
156.5590348589
 20
115.7943262758
 30
0.0
 11
156.5590348588
 21
113.9485411592
 31
0.0
  0
LINE
  5
153
330
1F
100
AcDbEntity
  8
0
  6
Continuous
 62
     7
370
    25
100
AcDbLine
 10
176.5590348589
 20
113.7460371704
 30
0.0
 11
174.5590348589
 21
113.7460371704
 31
0.0
  0
LINE
  5
154
330
1F
100
AcDbEntity
  8
0
  6
Continuous
 62
     7
370
    25
100
AcDbLine
 10
176.5590348589
 20
113.7460371704
 30
0.0
 11
176.5590348589
 21
113.1642435529
 31
0.0
  0
LINE
  5
155
330
1F
100
AcDbEntity
  8
0
  6
Continuous
 62
     7
370
    25
100
AcDbLine
 10
170.5590348589
 20
113.1642435529
 30
0.0
 11
176.5590348589
 21
113.1642435529
 31
0.0
  0
LINE
  5
156
330
1F
100
AcDbEntity
  8
0
  6
Continuous
 62
     7
370
    25
100
AcDbLine
 10
174.5590348589
 20
113.7460371704
 30
0.0
 11
174.5590348589
 21
113.9485411592
 31
0.0
  0
LINE
  5
157
330
1F
100
AcDbEntity
  8
0
  6
Continuous
 62
     7
370
    25
100
AcDbLine
 10
162.5590348588
 20
113.1642435529
 30
0.0
 11
156.5590348588
 21
113.1642435529
 31
0.0
  0
LINE
  5
158
330
1F
100
AcDbEntity
  8
0
  6
Continuous
 62
     7
370
    25
100
AcDbLine
 10
156.5590348588
 20
113.9485411592
 30
0.0
 11
156.5590348588
 21
113.1642435529
 31
0.0
  0
LINE
  5
159
330
1F
100
AcDbEntity
  8
0
  6
Continuous
 62
     7
370
    25
100
AcDbLine
 10
176.5590348589
 20
115.7901563067
 30
0.0
 11
176.5590348589
 21
113.7460371704
 31
0.0
  0
LINE
  5
15A
330
1F
100
AcDbEntity
  8
0
  6
Continuous
 62
     7
370
    25
100
AcDbLine
 10
176.5590348589
 20
113.1642435529
 30
0.0
 11
176.5590348589
 21
111.2943262758
 31
0.0
  0
LINE
  5
15B
330
1F
100
AcDbEntity
  8
0
  6
Continuous
 62
     7
370
    25
100
AcDbLine
 10
156.5590348588
 20
113.1642435529
 30
0.0
 11
156.5590348588
 21
111.2943262758
 31
0.0
  0
LINE
  5
15C
330
1F
100
AcDbEntity
  8
0
  6
Continuous
 62
     7
370
    25
100
AcDbLine
 10
152.2932326634
 20
79.8193262758
 30
0.0
 11
152.2932326634
 21
106.4046189961
 31
0.0
  0
SPLINE
  5
15D
330
1F
100
AcDbEntity
  8
0
  6
Continuous
 62
     7
370
    25
100
AcDbSpline
210
0.0
220
0.0
230
1.0
 70
     8
 71
     3
 72
    20
 73
    16
 74
     0
 42
0.000000001
 43
0.00000001
 40
0.0
 40
0.0
 40
0.0
 40
0.0
 40
0.1249999999999996
 40
0.1249999999999996
 40
0.2499999999999992
 40
0.2499999999999992
 40
0.3749999999999989
 40
0.3749999999999989
 40
0.4999999999999987
 40
0.4999999999999987
 40
0.7499999999999994
 40
0.7499999999999994
 40
0.8749999999999997
 40
0.8749999999999997
 40
1.0
 40
1.0
 40
1.0
 40
1.0
 10
155.8465348588674
 20
111.2943262757759
 30
0.0
 10
155.8465348588674
 20
111.0276581882947
 30
0.0
 10
155.8244878298237
 20
110.7593460130206
 30
0.0
 10
155.7354817921189
 20
110.2265029777873
 30
0.0
 10
155.6696028239194
 20
109.9672127678014
 30
0.0
 10
155.4974279162122
 20
109.4620858017799
 30
0.0
 10
155.3907213453053
 20
109.2155055858586
 30
0.0
 10
155.138044442429
 20
108.7390889351189
 30
0.0
 10
154.9945871782343
 20
108.513668873354
 30
0.0
 10
154.5162649859538
 20
107.8730611917403
 30
0.0
 10
154.1282380029883
 20
107.4902954766373
 30
0.0
 10
153.4864333545429
 20
107.0143932284656
 30
0.0
 10
153.2616287268957
 20
106.8707975923139
 30
0.0
 10
152.7903196692735
 20
106.6134662069234
 30
0.0
 10
152.5446230693846
 20
106.5004138284014
 30
0.0
 10
152.2932326634375
 20
106.4046189960907
 30
0.0
  0
LINE
  5
15E
330
1F
100
AcDbEntity
  8
0
  6
Continuous
 62
     7
370
    25
100
AcDbLine
 10
157.0590348589
 20
79.8193262758
 30
0.0
 11
157.0590348589
 21
111.2943262758
 31
0.0
  0
LINE
  5
15F
330
1F
100
AcDbEntity
  8
0
  6
Continuous
 62
     7
370
    25
100
AcDbLine
 10
157.0590348589
 20
142.7693262758
 30
0.0
 11
152.2932326634
 21
142.7693262758
 31
0.0
  0
LINE
  5
160
330
1F
100
AcDbEntity
  8
0
  6
Continuous
 62
     7
370
    25
100
AcDbLine
 10
139.0590348589
 20
80.0193262758
 30
0.0
 11
139.0590348589
 21
111.2943262758
 31
0.0
  0
LINE
  5
161
330
1F
100
AcDbEntity
  8
0
  6
Continuous
 62
     7
370
    25
100
AcDbLine
 10
139.0590348589
 20
111.2943262758
 30
0.0
 11
139.2590348589
 21
111.2943262758
 31
0.0
  0
ARC
  5
162
330
1F
100
AcDbEntity
  8
0
  6
Continuous
 62
     7
370
    25
100
AcDbCircle
 10
139.2590348589
 20
142.5693262758
 30
0.0
 40
0.2000000000000171
100
AcDbArc
 50
90.0
 51
180.0
  0
SPLINE
  5
163
330
1F
100
AcDbEntity
  8
0
  6
Continuous
 62
     7
370
    25
100
AcDbSpline
210
0.0
220
0.0
230
1.0
 70
     8
 71
     3
 72
    14
 73
    10
 74
     0
 42
0.000000001
 43
0.00000001
 40
0.0
 40
0.0
 40
0.0
 40
0.0
 40
0.25
 40
0.25
 40
0.5
 40
0.5
 40
0.75
 40
0.75
 40
1.0
 40
1.0
 40
1.0
 40
1.0
 10
145.6248370542973
 20
107.9994281902591
 30
0.0
 10
145.4279611687723
 20
108.2269247581882
 30
0.0
 10
145.2518528473828
 20
108.4685115332593
 30
0.0
 10
144.9421164536096
 20
108.9806687676335
 30
0.0
 10
144.8075584521161
 20
109.2542015707416
 30
0.0
 10
144.5923162994069
 20
109.814306705279
 30
0.0
 10
144.510673061888
 20
110.1012792006891
 30
0.0
 10
144.4001500396179
 20
110.6893181857333
 30
0.0
 10
144.3715348588674
 20
110.993761641504
 30
0.0
 10
144.3715348588674
 20
111.2943262757758
 30
0.0
  0
LINE
  5
164
330
1F
100
AcDbEntity
  8
0
  6
Continuous
 62
     7
370
    25
100
AcDbLine
 10
145.6248370543
 20
79.8193262758
 30
0.0
 11
145.6248370543
 21
107.9994281903
 31
0.0
  0
LINE
  5
165
330
1F
100
AcDbEntity
  8
0
  6
Continuous
 62
     7
370
    25
100
AcDbLine
 10
145.6248370543
 20
142.7693262758
 30
0.0
 11
139.2590348589
 21
142.7693262758
 31
0.0
  0
ARC
  5
166
330
1F
100
AcDbEntity
  8
0
  6
Continuous
 62
     7
370
    25
100
AcDbCircle
 10
150.1090348589
 20
111.2943262758
 30
0.0
 40
3.737500000000011
100
AcDbArc
 50
180.0
 51
206.113804444
  0
SPLINE
  5
167
330
1F
100
AcDbEntity
  8
0
  6
Continuous
 62
     7
370
    25
100
AcDbSpline
210
0.0
220
0.0
230
1.0
 70
     8
 71
     3
 72
    10
 73
     6
 74
     0
 42
0.000000001
 43
0.00000001
 40
0.0
 40
0.0
 40
0.0
 40
0.0
 40
0.5
 40
0.5
 40
1.0
 40
1.0
 40
1.0
 40
1.0
 10
146.7530530514141
 20
109.6492450139402
 30
0.0
 10
146.5761679049907
 20
109.3507946985836
 30
0.0
 10
146.3906185301133
 20
109.0718019944562
 30
0.0
 10
146.0126695900657
 20
108.5264827003305
 30
0.0
 10
145.8198830478865
 20
108.261147314509
 30
0.0
 10
145.6248370542973
 20
107.9994281902591
 30
0.0
  0
SPLINE
  5
168
330
1F
100
AcDbEntity
  8
0
  6
Continuous
 62
     7
370
    25
100
AcDbSpline
210
0.0
220
0.0
230
1.0
 70
     8
 71
     3
 72
     8
 73
     4
 74
     0
 42
0.000000001
 43
0.00000001
 40
0.0
 40
0.0
 40
0.0
 40
0.0
 40
1.0
 40
1.0
 40
1.0
 40
1.0
 10
152.293232663437
 20
106.4046189960896
 30
0.0
 10
151.9448312587568
 20
106.8425943225035
 30
0.0
 10
151.6002628735239
 20
107.2856774610883
 30
0.0
 10
151.2618785742031
 20
107.7390685329369
 30
0.0
  0
ARC
  5
169
330
1F
100
AcDbEntity
  8
0
  6
Continuous
 62
     7
370
    25
100
AcDbCircle
 10
150.1090348589
 20
111.2943262758
 30
0.0
 40
3.737500000000011
100
AcDbArc
 50
287.9660359156
 51
0.0
  0
SPLINE
  5
16A
330
1F
100
AcDbEntity
  8
0
  6
Continuous
 62
     7
370
    25
100
AcDbSpline
210
0.0
220
0.0
230
1.0
 70
     8
 71
     3
 72
     8
 73
     4
 74
     0
 42
0.000000001
 43
0.00000001
 40
0.0
 40
0.0
 40
0.0
 40
0.0
 40
1.0
 40
1.0
 40
1.0
 40
1.0
 10
147.0840348588675
 20
109.0992679052534
 30
0.0
 10
146.9657380994375
 20
109.2622921337119
 30
0.0
 10
146.8543096172661
 20
109.4426806327343
 30
0.0
 10
146.7530530514141
 20
109.6492450139402
 30
0.0
  0
LINE
  5
16B
330
1F
100
AcDbEntity
  8
0
  6
Continuous
 62
     7
370
    25
100
AcDbLine
 10
147.0840348589
 20
82.3467310116
 30
0.0
 11
147.0840348589
 21
109.0992679053
 31
0.0
  0
SPLINE
  5
16C
330
1F
100
AcDbEntity
  8
0
  6
Continuous
 62
     7
370
    25
100
AcDbSpline
210
0.0
220
0.0
230
1.0
 70
     8
 71
     3
 72
     8
 73
     4
 74
     0
 42
0.000000001
 43
0.00000001
 40
0.0
 40
0.0
 40
0.0
 40
0.0
 40
1.0
 40
1.0
 40
1.0
 40
1.0
 10
151.2618785742034
 20
107.7390685329377
 30
0.0
 10
151.1203404859215
 20
107.6931727618406
 30
0.0
 10
150.9777300171846
 20
107.6562319109033
 30
0.0
 10
150.8340348588676
 20
107.6278182299627
 30
0.0
  0
LINE
  5
16D
330
1F
100
AcDbEntity
  8
0
  6
Continuous
 62
     7
370
    25
100
AcDbLine
 10
150.8340348589
 20
82.3467310116
 30
0.0
 11
150.8340348589
 21
107.62781823
 31
0.0
  0
SPLINE
  5
16E
330
1F
100
AcDbEntity
  8
0
  6
Continuous
 62
     7
370
    25
100
AcDbSpline
210
0.0
220
0.0
230
1.0
 70
     8
 71
     3
 72
    14
 73
    10
 74
     0
 42
0.000000001
 43
0.00000001
 40
0.0
 40
0.0
 40
0.0
 40
0.0
 40
0.25
 40
0.25
 40
0.5
 40
0.5
 40
0.75
 40
0.75
 40
1.0
 40
1.0
 40
1.0
 40
1.0
 10
148.0840348588674
 20
108.1529442152808
 30
0.0
 10
147.9496867725109
 20
108.2395477769084
 30
0.0
 10
147.8265100986549
 20
108.3310161742318
 30
0.0
 10
147.5977634937369
 20
108.5222075608627
 30
0.0
 10
147.4958415297697
 20
108.6190694130036
 30
0.0
 10
147.316418127341
 20
108.8069440277389
 30
0.0
 10
147.2399768391582
 20
108.8971793790902
 30
0.0
 10
147.1226868663081
 20
109.0449857430676
 30
0.0
 10
147.0840348588674
 20
109.0992679052535
 30
0.0
 10
147.0840348588674
 20
109.0992679052535
 30
0.0
  0
SPLINE
  5
16F
330
1F
100
AcDbEntity
  8
0
  6
Continuous
 62
     7
370
    25
100
AcDbSpline
210
0.0
220
0.0
230
1.0
 70
     8
 71
     3
 72
    14
 73
    10
 74
     0
 42
0.000000001
 43
0.00000001
 40
0.0
 40
0.0
 40
0.0
 40
0.0
 40
0.25
 40
0.25
 40
0.5
 40
0.5
 40
0.75
 40
0.75
 40
1.0
 40
1.0
 40
1.0
 40
1.0
 10
150.8340348588675
 20
107.6278182299633
 30
0.0
 10
150.8340348588677
 20
107.6278182299633
 30
0.0
 10
150.8081183362965
 20
107.622441498975
 30
0.0
 10
150.708673489719
 20
107.6048969113745
 30
0.0
 10
150.6363750973068
 20
107.5930475077282
 30
0.0
 10
150.4516712027829
 20
107.5714036897279
 30
0.0
 10
150.3420939409069
 20
107.5621144290435
 30
0.0
 10
150.0987637626888
 20
107.5548588926859
 30
0.0
 10
149.9672275037687
 20
107.5571302988453
 30
0.0
 10
149.8340348588674
 20
107.5669570627784
 30
0.0
  0
SPLINE
  5
170
330
1F
100
AcDbEntity
  8
0
  6
Continuous
 62
     7
370
    25
100
AcDbSpline
210
0.0
220
0.0
230
1.0
 70
     8
 71
     3
 72
    10
 73
     6
 74
     0
 42
0.000000001
 43
0.00000001
 40
0.0
 40
0.0
 40
0.0
 40
0.0
 40
0.5
 40
0.5
 40
1.0
 40
1.0
 40
1.0
 40
1.0
 10
149.8340348588674
 20
107.5669570627785
 30
0.0
 10
149.5215709565793
 20
107.5900102051476
 30
0.0
 10
149.2186819745815
 20
107.651244907554
 30
0.0
 10
148.6313387897774
 20
107.8474168714779
 30
0.0
 10
148.3468711292055
 20
107.9835145065777
 30
0.0
 10
148.0840348588674
 20
108.1529442152808
 30
0.0
  0
LINE
  5
171
330
1F
100
AcDbEntity
  8
0
  6
Continuous
 62
     7
370
    25
100
AcDbLine
 10
139.0590348589
 20
138.1443262758
 30
0.0
 11
139.3930735449
 21
137.0848909154
 31
0.0
  0
LINE
  5
172
330
1F
100
AcDbEntity
  8
0
  6
Continuous
 62
     7
370
    25
100
AcDbLine
 10
139.0590348589
 20
138.1443262758
 30
0.0
 11
139.0590348589
 21
136.1690375424
 31
0.0
  0
ARC
  5
173
330
1F
100
AcDbEntity
  8
0
  6
Continuous
 62
     7
370
    25
100
AcDbCircle
 10
138.6300999843
 20
136.8443262758
 30
0.0
 40
0.799999999999991
100
AcDbArc
 50
252.5
 51
17.5
  0
LINE
  5
174
330
1F
100
AcDbEntity
  8
0
  6
Continuous
 62
     7
370
    25
100
AcDbLine
 10
137.8988528188
 20
86.3525882302
 30
0.0
 11
137.8988528188
 21
111.2943262758
 31
0.0
  0
LINE
  5
175
330
1F
100
AcDbEntity
  8
0
  6
Continuous
 62
     7
370
    25
100
AcDbLine
 10
138.3895353447
 20
136.0813527152
 30
0.0
 11
137.8988528188
 21
136.2360643213
 31
0.0
  0
SPLINE
  5
176
330
1F
100
AcDbEntity
  8
0
  6
Continuous
 62
     7
370
    25
100
AcDbSpline
210
0.0
220
0.0
230
1.0
 70
     8
 71
     3
 72
    23
 73
    19
 74
     0
 42
0.000000001
 43
0.00000001
 40
0.0
 40
0.0
 40
0.0
 40
0.0
 40
0.0014604835854589
 40
0.0696150552019158
 40
0.1372664175514471
 40
0.2039701100159469
 40
0.270300937204775
 40
0.3365574243307612
 40
0.4028683822767361
 40
0.4678692470317541
 40
0.5326412098413932
 40
0.5993596686012883
 40
0.6655231153857153
 40
0.7321169425959967
 40
0.798886844841685
 40
0.8663366772638104
 40
0.9345228518799438
 40
1.0
 40
1.0
 40
1.0
 40
1.0
 10
108.8188251713191
 20
134.7185948659172
 30
0.0
 10
108.8199803019062
 20
134.718238493561
 30
0.0
 10
108.8750404753899
 20
134.7012517355516
 30
0.0
 10
109.2714579020477
 20
134.5839863795307
 30
0.0
 10
109.9875077747633
 20
134.3833786875971
 30
0.0
 10
110.9971895504642
 20
134.1427630394098
 30
0.0
 10
112.213167165775
 20
133.9154909400401
 30
0.0
 10
113.6173672667554
 20
133.7431013885321
 30
0.0
 10
115.1344313451527
 20
133.6550330918619
 30
0.0
 10
116.7087291948758
 20
133.6860807507566
 30
0.0
 10
118.2745494209128
 20
133.8371039904657
 30
0.0
 10
119.7644064904271
 20
134.0914407890382
 30
0.0
 10
121.136086682769
 20
134.4091775676943
 30
0.0
 10
122.3220097764874
 20
134.7530939878288
 30
0.0
 10
123.2996091204958
 20
135.0809365881374
 30
0.0
 10
124.0191202720861
 20
135.3498610176211
 30
0.0
 10
124.4917552737886
 20
135.5324503532428
 30
0.0
 10
124.5492263881418
 20
135.5556987458276
 30
0.0
 10
124.5773795463163
 20
135.5670873482779
 30
0.0
  0
LINE
  5
177
330
1F
100
AcDbEntity
  8
0
  6
Continuous
 62
     7
370
    25
100
AcDbLine
 10
108.6594689736
 20
134.7677226373
 30
0.0
 11
100.6090348589
 21
134.3634464034
 31
0.0
  0
LINE
  5
178
330
1F
100
AcDbEntity
  8
0
  6
Continuous
 62
     7
370
    25
100
AcDbLine
 10
100.6090348589
 20
88.2252061482
 30
0.0
 11
100.6090348589
 21
102.1722032412
 31
0.0
  0
SPLINE
  5
179
330
1F
100
AcDbEntity
  8
0
  6
Continuous
 62
     7
370
    25
100
AcDbSpline
210
0.0
220
0.0
230
1.0
 70
     8
 71
     3
 72
     8
 73
     4
 74
     0
 42
0.000000001
 43
0.00000001
 40
0.0
 40
0.0
 40
0.0
 40
0.0
 40
1.0
 40
1.0
 40
1.0
 40
1.0
 10
106.4272093118144
 20
102.1767892994725
 30
0.0
 10
104.487817827503
 20
102.1746432036229
 30
0.0
 10
102.5484263431915
 20
102.1730470170981
 30
0.0
 10
100.6090348588801
 20
102.1719995646224
 30
0.0
  0
SPLINE
  5
17A
330
1F
100
AcDbEntity
  8
0
  6
Continuous
 62
     7
370
    25
100
AcDbSpline
210
0.0
220
0.0
230
1.0
 70
     8
 71
     3
 72
    13
 73
     9
 74
     0
 42
0.000000001
 43
0.00000001
 40
0.0
 40
0.0
 40
0.0
 40
0.0
 40
0.1686319999748108
 40
0.3360343310905603
 40
0.5025367825908784
 40
0.6684737453788424
 40
0.8341822636915194
 40
1.0
 40
1.0
 40
1.0
 40
1.0
 10
107.5107043612814
 20
102.3142457452901
 30
0.0
 10
107.4512144652216
 20
102.2997314252513
 30
0.0
 10
107.3326684749465
 20
102.2708086239667
 30
0.0
 10
107.1527917793607
 20
102.2368472305585
 30
0.0
 10
106.9724014917326
 20
102.2099816681995
 30
0.0
 10
106.7912893196988
 20
102.1910227310915
 30
0.0
 10
106.6095284825314
 20
102.1790922796959
 30
0.0
 10
106.4879957146367
 20
102.177557128127
 30
0.0
 10
106.4272093118144
 20
102.1767892994725
 30
0.0
  0
SPLINE
  5
17B
330
1F
100
AcDbEntity
  8
0
  6
Continuous
 62
     7
370
    25
100
AcDbSpline
210
0.0
220
0.0
230
1.0
 70
     8
 71
     3
 72
     8
 73
     4
 74
     0
 42
0.000000001
 43
0.00000001
 40
0.0
 40
0.0
 40
0.0
 40
0.0
 40
1.0
 40
1.0
 40
1.0
 40
1.0
 10
112.9028977777794
 20
102.3184837871756
 30
0.0
 10
111.1055031063399
 20
102.3166127266516
 30
0.0
 10
109.3081084349003
 20
102.3151905456275
 30
0.0
 10
107.5107137634607
 20
102.3142164226315
 30
0.0
  0
SPLINE
  5
17C
330
1F
100
AcDbEntity
  8
0
  6
Continuous
 62
     7
370
    25
100
AcDbSpline
210
0.0
220
0.0
230
1.0
 70
     8
 71
     3
 72
    18
 73
    14
 74
     0
 42
0.000000001
 43
0.00000001
 40
0.0
 40
0.0
 40
0.0
 40
0.0
 40
0.0923325137142622
 40
0.1843692047118085
 40
0.2763458873881756
 40
0.3684982175734635
 40
0.4610598988383177
 40
0.554260954660559
 40
0.6483261285500582
 40
0.743473463654263
 40
0.8399130993129421
 40
0.920166071831091
 40
1.0
 40
1.0
 40
1.0
 40
1.0
 10
115.0992194263765
 20
101.7842915513319
 30
0.0
 10
115.0288891228611
 20
101.7847081757635
 30
0.0
 10
114.888453846005
 20
101.7855400898101
 30
0.0
 10
114.6780913194971
 20
101.7991489367246
 30
0.0
 10
114.4686476565772
 20
101.8218156940961
 30
0.0
 10
114.2600979862029
 20
101.8544164838968
 30
0.0
 10
114.0524543689276
 20
101.8967189625171
 30
0.0
 10
113.8457161813897
 20
101.9487903611722
 30
0.0
 10
113.6398940894284
 20
102.0106391340176
 30
0.0
 10
113.4349624106415
 20
102.0822371454738
 30
0.0
 10
113.2434816652503
 20
102.1588156357023
 30
0.0
 10
113.0657585131995
 20
102.2374268845363
 30
0.0
 10
112.9574245186362
 20
102.2913410403234
 30
0.0
 10
112.9033993091838
 20
102.318227555222
 30
0.0
  0
LINE
  5
17D
330
1F
100
AcDbEntity
  8
0
  6
Continuous
 62
     7
370
    25
100
AcDbLine
 10
117.0140927057
 20
101.7857869862
 30
0.0
 11
115.0992194264
 21
101.7842915513
 31
0.0
  0
SPLINE
  5
17E
330
1F
100
AcDbEntity
  8
0
  6
Continuous
 62
     7
370
    25
100
AcDbSpline
210
0.0
220
0.0
230
1.0
 70
     8
 71
     3
 72
    25
 73
    21
 74
     0
 42
0.000000001
 43
0.00000001
 40
0.0
 40
0.0
 40
0.0
 40
0.0
 40
0.0280105225425189
 40
0.0559601148858517
 40
0.0839014045040226
 40
0.1118870776783167
 40
0.139969582758573
 40
0.1682008401736972
 40
0.1966319670421927
 40
0.2253130233140084
 40
0.254292785073565
 40
0.3799486436571232
 40
0.5057850221666547
 40
0.6313085886320353
 40
0.7532068238012145
 40
0.803947326795246
 40
0.8535894438549368
 40
0.9025339722388995
 40
0.9511970353787691
 40
1.0
 40
1.0
 40
1.0
 40
1.0
 10
121.9539770120688
 20
106.9196507907072
 30
0.0
 10
121.9540142338027
 20
106.8450307636941
 30
0.0
 10
121.9540885963033
 20
106.6959530277075
 30
0.0
 10
121.9416725456568
 20
106.4733349367418
 30
0.0
 10
121.920067985303
 20
106.2520105187134
 30
0.0
 10
121.888382515643
 20
106.0320422528251
 30
0.0
 10
121.8468563773231
 20
105.813451965596
 30
0.0
 10
121.7954256215932
 20
105.5962700271915
 30
0.0
 10
121.734111746882
 20
105.3805286073062
 30
0.0
 10
121.6629014113825
 20
105.1662387158554
 30
0.0
 10
121.4920648041795
 20
104.7178889428345
 30
0.0
 10
121.1543325707433
 20
104.0645581147633
 30
0.0
 10
120.5427779065476
 20
103.2926649041251
 30
0.0
 10
119.8065430713972
 20
102.6485052787399
 30
0.0
 10
119.1200569997507
 20
102.2568641106782
 30
0.0
 10
118.571352853601
 20
102.0381692097081
 30
0.0
 10
118.1893166750973
 20
101.9223131608776
 30
0.0
 10
117.8021505763928
 20
101.8414052553476
 30
0.0
 10
117.409923907605
 20
101.7921768245498
 30
0.0
 10
117.1461626394884
 20
101.7879189695345
 30
0.0
 10
117.014092705666
 20
101.7857869861917
 30
0.0
  0
LINE
  5
17F
330
1F
100
AcDbEntity
  8
0
  6
Continuous
 62
     7
370
    25
100
AcDbLine
 10
121.9539770121
 20
111.2943262758
 30
0.0
 11
121.9539770121
 21
106.9196507907
 31
0.0
  0
LINE
  5
180
330
1F
100
AcDbEntity
  8
0
  6
Continuous
 62
     7
370
    25
100
AcDbLine
 10
137.8988528188
 20
136.2360643213
 30
0.0
 11
124.5773795463
 21
135.5670873483
 31
0.0
  0
SPLINE
  5
181
330
1F
100
AcDbEntity
  8
0
  6
Continuous
 62
     7
370
    25
100
AcDbSpline
210
0.0
220
0.0
230
1.0
 70
     8
 71
     3
 72
    20
 73
    16
 74
     0
 42
0.000000001
 43
0.00000001
 40
0.0
 40
0.0
 40
0.0
 40
0.0
 40
0.0829621378684852
 40
0.1658495135106162
 40
0.2487180070857352
 40
0.3299477216398518
 40
0.4108693994445728
 40
0.4941953814850553
 40
0.5768901676626217
 40
0.6601065810557766
 40
0.7435845489350842
 40
0.8279858465401873
 40
0.9132590745392868
 40
0.9972257035811788
 40
1.0
 40
1.0
 40
1.0
 40
1.0
 10
110.9714509535944
 20
88.43106590826899
 30
0.0
 10
111.3571967896657
 20
88.50798433487314
 30
0.0
 10
112.1283408427828
 20
88.66175187221073
 30
0.0
 10
113.5360889939527
 20
88.83766709359625
 30
0.0
 10
115.0439403618273
 20
88.93166338092529
 30
0.0
 10
116.6164293368451
 20
88.90781899905869
 30
0.0
 10
118.1837263680572
 20
88.7639139541581
 30
0.0
 10
119.6795023948387
 20
88.51485635135907
 30
0.0
 10
121.0597562705114
 20
88.20017565882043
 30
0.0
 10
122.257350453567
 20
87.85591430683989
 30
0.0
 10
123.2442124833893
 20
87.52686708102014
 30
0.0
 10
123.9914507295873
 20
87.24840617281241
 30
0.0
 10
124.4386521589528
 20
87.07655037778076
 30
0.0
 10
124.6254067711028
 20
87.00269970618236
 30
0.0
 10
124.5743085572046
 20
87.02285099725545
 30
0.0
 10
124.5726742468595
 20
87.02349551026198
 30
0.0
  0
SPLINE
  5
182
330
1F
100
AcDbEntity
  8
0
  6
Continuous
 62
     7
370
    25
100
AcDbSpline
210
0.0
220
0.0
230
1.0
 70
     8
 71
     3
 72
    11
 73
     7
 74
     0
 42
0.000000001
 43
0.00000001
 40
0.0
 40
0.0
 40
0.0
 40
0.0
 40
0.2435512231731408
 40
0.4981153923403549
 40
0.7509097881719458
 40
1.0
 40
1.0
 40
1.0
 40
1.0
 10
108.6639568358508
 20
87.82240369888586
 30
0.0
 10
108.689907757376
 20
87.83063923542402
 30
0.0
 10
108.7429830541812
 20
87.84748270457351
 30
0.0
 10
109.2206780378436
 20
87.98838414671101
 30
0.0
 10
109.9320174861104
 20
88.19367469715922
 30
0.0
 10
110.6266821332851
 20
88.35232581535644
 30
0.0
 10
110.9714509535944
 20
88.43106590826899
 30
0.0
  0
LINE
  5
183
330
1F
100
AcDbEntity
  8
0
  6
Continuous
 62
     7
370
    25
100
AcDbLine
 10
121.9539770121
 20
106.9196507907
 30
0.0
 11
121.0590348589
 21
107.0818262758
 31
0.0
  0
LINE
  5
184
330
1F
100
AcDbEntity
  8
0
  6
Continuous
 62
     7
370
    25
100
AcDbLine
 10
121.0590348589
 20
107.0818262758
 30
0.0
 11
121.0590348589
 21
111.2943262758
 31
0.0
  0
SPLINE
  5
185
330
1F
100
AcDbEntity
  8
0
  6
Continuous
 62
     7
370
    25
100
AcDbSpline
210
0.0
220
0.0
230
1.0
 70
     8
 71
     3
 72
    25
 73
    21
 74
     0
 42
0.000000001
 43
0.00000001
 40
0.0
 40
0.0
 40
0.0
 40
0.0
 40
0.0288821753103064
 40
0.0583636594001085
 40
0.0884647204299706
 40
0.1192044006610581
 40
0.1506005800079906
 40
0.1826700399665256
 40
0.215428526957354
 40
0.248890814337984
 40
0.3610594471168521
 40
0.4984670131067592
 40
0.5822693905006399
 40
0.6661127642782144
 40
0.7499972937224405
 40
0.8007709755033077
 40
0.8511237700808933
 40
0.9010896024507731
 40
0.950703191410974
 40
1.0
 40
1.0
 40
1.0
 40
1.0
 10
117.0590348588674
 20
103.0818262757758
 30
0.0
 10
117.1218353121032
 20
103.0826827597276
 30
0.0
 10
117.2487393358981
 20
103.0844134997811
 30
0.0
 10
117.4400937436063
 20
103.0985633651838
 30
0.0
 10
117.6339985562812
 20
103.121700447504
 30
0.0
 10
117.8298992770085
 20
103.1551115997282
 30
0.0
 10
118.0272369450141
 20
103.1989854217603
 30
0.0
 10
118.2253902868031
 20
103.2537806927298
 30
0.0
 10
118.4237060308175
 20
103.3198496540947
 30
0.0
 10
118.775027018316
 20
103.4578309863457
 30
0.0
 10
119.3001387886418
 20
103.7378829251862
 30
0.0
 10
119.837130617129
 20
104.1764735275926
 30
0.0
 10
120.249190347174
 20
104.6503336491468
 30
0.0
 10
120.5361089352265
 20
105.0820173969666
 30
0.0
 10
120.7345356224338
 20
105.4851406387269
 30
0.0
 10
120.8666214964821
 20
105.8428767995061
 30
0.0
 10
120.9522553762799
 20
106.1456292017887
 30
0.0
 10
121.0133375876329
 20
106.4541175120344
 30
0.0
 10
121.0518385309984
 20
106.7664292221906
 30
0.0
 10
121.0566412100918
 20
106.9769186360917
 30
0.0
 10
121.0590348588674
 20
107.0818262757758
 30
0.0
  0
SPLINE
  5
186
330
1F
100
AcDbEntity
  8
0
  6
Continuous
 62
     7
370
    25
100
AcDbSpline
210
0.0
220
0.0
230
1.0
 70
     8
 71
     3
 72
    13
 73
     9
 74
     0
 42
0.000000001
 43
0.00000001
 40
0.0
 40
0.0
 40
0.0
 40
0.0
 40
0.1722587823678455
 40
0.3421398271425553
 40
0.5097456258111825
 40
0.6751828993453506
 40
0.8385626190248259
 40
1.0
 40
1.0
 40
1.0
 40
1.0
 10
114.0590532277776
 20
103.2318210985256
 30
0.0
 10
114.1199166174502
 20
103.2155573708261
 30
0.0
 10
114.2408032818956
 20
103.1832544083454
 30
0.0
 10
114.423864439868
 20
103.1458667536517
 30
0.0
 10
114.6059671228087
 20
103.1167338187417
 30
0.0
 10
114.7869085711254
 20
103.0965471031362
 30
0.0
 10
114.9662475748216
 20
103.0841002988356
 30
0.0
 10
115.085093803235
 20
103.0825812556082
 30
0.0
 10
115.1441615795779
 20
103.0818262757758
 30
0.0
  0
LINE
  5
187
330
1F
100
AcDbEntity
  8
0
  6
Continuous
 62
     7
370
    25
100
AcDbLine
 10
115.0992194264
 20
101.7842915513
 30
0.0
 11
115.1441615796
 21
103.0818262758
 31
0.0
  0
SPLINE
  5
188
330
1F
100
AcDbEntity
  8
0
  6
Continuous
 62
     7
370
    25
100
AcDbSpline
210
0.0
220
0.0
230
1.0
 70
     8
 71
     3
 72
    11
 73
     7
 74
     0
 42
0.000000001
 43
0.00000001
 40
0.0
 40
0.0
 40
0.0
 40
0.0
 40
0.239291384231301
 40
0.500113013499229
 40
0.7515028526564947
 40
1.0
 40
1.0
 40
1.0
 40
1.0
 10
113.7315623667214
 20
103.2323998807989
 30
0.0
 10
113.6627374308381
 20
103.1608464436995
 30
0.0
 10
113.5188950346771
 20
103.011301548178
 30
0.0
 10
113.3111462362939
 20
102.7823841215421
 30
0.0
 10
113.1031600315713
 20
102.5500657492802
 30
0.0
 10
112.9701591078284
 20
102.3952898666655
 30
0.0
 10
112.9040434636195
 20
102.3183497455062
 30
0.0
  0
SPLINE
  5
189
330
1F
100
AcDbEntity
  8
0
  6
Continuous
 62
     7
370
    25
100
AcDbSpline
210
0.0
220
0.0
230
1.0
 70
    24
 71
     3
 72
     9
 73
     5
 74
     0
 42
0.000000001
 43
0.00000001
 40
0.0
 40
0.0
 40
0.0
 40
0.0
 40
0.5090839669866117
 40
1.0
 40
1.0
 40
1.0
 40
1.0
 10
113.7337926350408
 20
103.2318262757758
 30
0.0
 10
113.7885260351532
 20
103.2318262757758
 30
0.0
 10
113.896039537172
 20
103.2318262757758
 30
0.0
 10
114.005432097543
 20
103.2318262757758
 30
0.0
 10
114.0591346593215
 20
103.2318262757758
 30
0.0
  0
LINE
  5
18A
330
1F
100
AcDbEntity
  8
0
  6
Continuous
 62
     7
370
    25
100
AcDbLine
 10
107.4851847705
 20
103.211774502
 30
0.0
 11
107.510599262
 21
102.3142163314
 31
0.0
  0
SPLINE
  5
18B
330
1F
100
AcDbEntity
  8
0
  6
Continuous
 62
     7
370
    25
100
AcDbSpline
210
0.0
220
0.0
230
1.0
 70
     8
 71
     3
 72
     8
 73
     4
 74
     0
 42
0.000000001
 43
0.00000001
 40
0.0
 40
0.0
 40
0.0
 40
0.0
 40
1.0
 40
1.0
 40
1.0
 40
1.0
 10
107.4851959615956
 20
103.211774992115
 30
0.0
 10
107.5069988180776
 20
103.2174723231477
 30
0.0
 10
107.5287535274752
 20
103.2233539059427
 30
0.0
 10
107.5504569827932
 20
103.2294189004958
 30
0.0
  0
LINE
  5
18C
330
1F
100
AcDbEntity
  8
0
  6
Continuous
 62
     7
370
    25
100
AcDbLine
 10
107.5590348589
 20
103.2318262758
 30
0.0
 11
113.7327078312
 21
103.2318262758
 31
0.0
  0
LINE
  5
18D
330
1F
100
AcDbEntity
  8
0
  6
Continuous
 62
     7
370
    25
100
AcDbLine
 10
115.1441615796
 20
103.0818262758
 30
0.0
 11
117.0590348589
 21
103.0818262758
 31
0.0
  0
SPLINE
  5
18E
330
1F
100
AcDbEntity
  8
0
  6
Continuous
 62
     7
370
    25
100
AcDbSpline
210
0.0
220
0.0
230
1.0
 70
     8
 71
     3
 72
    13
 73
     9
 74
     0
 42
0.000000001
 43
0.00000001
 40
0.0
 40
0.0
 40
0.0
 40
0.0
 40
0.1621004456571512
 40
0.325943455157606
 40
0.4915935308260523
 40
0.6591130873964648
 40
0.8285624736043361
 40
1.0
 40
1.0
 40
1.0
 40
1.0
 10
106.4739081381569
 20
103.0818262757758
 30
0.0
 10
106.5294630962224
 20
103.0824952419771
 30
0.0
 10
106.6411702226872
 20
103.0838403657004
 30
0.0
 10
106.8090179120809
 20
103.0947869344918
 30
0.0
 10
106.9778043309493
 20
103.1124258638124
 30
0.0
 10
107.1471286874811
 20
103.1377313778003
 30
0.0
 10
107.3168753356585
 20
103.1700353805933
 30
0.0
 10
107.4288682343161
 20
103.1978069804793
 30
0.0
 10
107.4851912693459
 20
103.2117737659806
 30
0.0
  0
LINE
  5
18F
330
1F
100
AcDbEntity
  8
0
  6
Continuous
 62
     7
370
    25
100
AcDbLine
 10
99.6953750373
 20
102.5543245318
 30
0.0
 11
100.6090348589
 21
103.0818262758
 31
0.0
  0
LINE
  5
190
330
1F
100
AcDbEntity
  8
0
  6
Continuous
 62
     7
370
    25
100
AcDbLine
 10
100.6090348589
 20
103.0818262758
 30
0.0
 11
106.4739081382
 21
103.0818262758
 31
0.0
  0
SPLINE
  5
191
330
1F
100
AcDbEntity
  8
0
  6
Continuous
 62
     7
370
    25
100
AcDbSpline
210
0.0
220
0.0
230
1.0
 70
     8
 71
     3
 72
     8
 73
     4
 74
     0
 42
0.000000001
 43
0.00000001
 40
0.0
 40
0.0
 40
0.0
 40
0.0
 40
1.0
 40
1.0
 40
1.0
 40
1.0
 10
100.6090348584164
 20
102.1719995643998
 30
0.0
 10
100.3044815847109
 20
102.3006904289466
 30
0.0
 10
99.99992831100538
 20
102.4281351852083
 30
0.0
 10
99.69537503729985
 20
102.554324531846
 30
0.0
  0
LINE
  5
192
330
1F
100
AcDbEntity
  8
0
  6
Continuous
 62
     7
370
    25
100
AcDbLine
 10
99.1090348589
 20
89.091231552
 30
0.0
 11
99.1090348589
 21
102.215800872
 31
0.0
  0
SPLINE
  5
193
330
1F
100
AcDbEntity
  8
0
  6
Continuous
 62
     7
370
    25
100
AcDbSpline
210
0.0
220
0.0
230
1.0
 70
    24
 71
     3
 72
     8
 73
     4
 74
     0
 42
0.000000001
 43
0.00000001
 40
0.0
 40
0.0
 40
0.0
 40
0.0
 40
1.0
 40
1.0
 40
1.0
 40
1.0
 10
99.69537503729984
 20
102.554324531846
 30
0.0
 10
99.4990430116415
 20
102.4409721839817
 30
0.0
 10
99.30358199140129
 20
102.3281227113299
 30
0.0
 10
99.10903485886737
 20
102.2158008719914
 30
0.0
  0
ARC
  5
194
330
1F
100
AcDbEntity
  8
0
  6
Continuous
 62
     7
370
    25
100
AcDbCircle
 10
160.0590348589
 20
131.2943262758
 30
0.0
 40
3.0
100
AcDbArc
 50
180.0
 51
270.0
  0
ARC
  5
195
330
1F
100
AcDbEntity
  8
0
  6
Continuous
 62
     7
370
    25
100
AcDbCircle
 10
132.2590348589
 20
128.7443262758
 30
0.0
 40
0.8000000000000114
100
AcDbArc
 50
0.0
 51
90.0
  0
LINE
  5
196
330
1F
100
AcDbEntity
  8
0
  6
Continuous
 62
     7
370
    25
100
AcDbLine
 10
130.8342753324
 20
129.5443262758
 30
0.0
 11
132.2590348589
 21
129.5443262758
 31
0.0
  0
ARC
  5
197
330
1F
100
AcDbEntity
  8
0
  6
Continuous
 62
     7
370
    25
100
AcDbCircle
 10
130.8342753324
 20
128.7443262758
 30
0.0
 40
0.799999999999983
100
AcDbArc
 50
90.0
 51
120.0
  0
LINE
  5
198
330
1F
100
AcDbEntity
  8
0
  6
Continuous
 62
     7
370
    25
100
AcDbLine
 10
129.5590348589
 20
128.9318262758
 30
0.0
 11
129.5590348589
 21
111.2943262758
 31
0.0
  0
LINE
  5
199
330
1F
100
AcDbEntity
  8
0
  6
Continuous
 62
     7
370
    25
100
AcDbLine
 10
129.5590348589
 20
128.9318262758
 30
0.0
 11
130.4342753324
 21
129.4371465988
 31
0.0
  0
LINE
  5
19A
330
1F
100
AcDbEntity
  8
0
  6
Continuous
 62
     7
370
    25
100
AcDbLine
 10
99.8607009087
 20
102.6497754682
 30
0.0
 11
99.7242321363
 21
102.5709851857
 31
0.0
  0
SPLINE
  5
19B
330
1F
100
AcDbEntity
  8
0
  6
Continuous
 62
     7
370
    25
100
AcDbSpline
210
0.0
220
0.0
230
1.0
 70
     8
 71
     3
 72
    32
 73
    28
 74
     0
 42
0.000000001
 43
0.00000001
 40
0.0
 40
0.0
 40
0.0
 40
0.0
 40
0.1250000000000004
 40
0.1250000000000004
 40
0.1875000000000006
 40
0.1875000000000006
 40
0.2500000000000008
 40
0.2500000000000008
 40
0.312500000000001
 40
0.312500000000001
 40
0.3750000000000012
 40
0.3750000000000012
 40
0.5000000000000017
 40
0.5000000000000017
 40
0.5625000000000019
 40
0.5625000000000019
 40
0.6250000000000014
 40
0.6250000000000014
 40
0.7500000000000007
 40
0.7500000000000007
 40
0.8125000000000006
 40
0.8125000000000006
 40
0.8750000000000003
 40
0.8750000000000003
 40
0.9375000000000002
 40
0.9375000000000002
 40
1.0
 40
1.0
 40
1.0
 40
1.0
 10
113.5266651902078
 20
127.4669950299854
 30
0.0
 10
113.0425909462538
 20
127.467354422605
 30
0.0
 10
112.5591933756869
 20
127.4823136287863
 30
0.0
 10
111.8352880259509
 20
127.529297675295
 30
0.0
 10
111.5946255924141
 20
127.5490742304195
 30
0.0
 10
111.1232794833385
 20
127.5960383139186
 30
0.0
 10
110.8914436670482
 20
127.6232921631031
 30
0.0
 10
110.4357405804919
 20
127.6849200917157
 30
0.0
 10
110.2118722575506
 20
127.7192951925112
 30
0.0
 10
109.7725446655428
 20
127.7946146361642
 30
0.0
 10
109.5558272728764
 20
127.8358325869125
 30
0.0
 10
108.9294852942036
 20
127.9660694060933
 30
0.0
 10
108.5450926598502
 20
128.0611093179925
 30
0.0
 10
108.0175509142304
 20
128.2073762799449
 30
0.0
 10
107.8499167626993
 20
128.2567449151355
 30
0.0
 10
107.5315120154587
 20
128.3551486226358
 30
0.0
 10
107.3819311409196
 20
128.4038318872683
 30
0.0
 10
106.9689110713712
 20
128.5434546904367
 30
0.0
 10
106.737359300212
 20
128.6290413690172
 30
0.0
 10
106.4540497851224
 20
128.7380044169333
 30
0.0
 10
106.3704821033506
 20
128.7710530695078
 30
0.0
 10
106.2285572710264
 20
128.8280564657481
 30
0.0
 10
106.1695691595838
 20
128.8522531713585
 30
0.0
 10
106.074853255874
 20
128.8914554517375
 30
0.0
 10
106.0391252887273
 20
128.9064626182345
 30
0.0
 10
105.9911610110098
 20
128.9266716159615
 30
0.0
 10
105.9790347035764
 20
128.9318262757758
 30
0.0
 10
105.9790347035764
 20
128.9318262757758
 30
0.0
  0
SPLINE
  5
19C
330
1F
100
AcDbEntity
  8
0
  6
Continuous
 62
     7
370
    25
100
AcDbSpline
210
0.0
220
0.0
230
1.0
 70
     8
 71
     3
 72
    31
 73
    27
 74
     0
 42
0.000000001
 43
0.00000001
 40
0.0
 40
0.0
 40
0.0
 40
0.0
 40
0.016175672275986
 40
0.0323169137827073
 40
0.0484425619880544
 40
0.0645715089957374
 40
0.0807226353336786
 40
0.0969147439446206
 40
0.113166495525102
 40
0.1294963463046707
 40
0.1459224892609503
 40
0.1624627996343598
 40
0.1791347854480591
 40
0.1959555435639761
 40
0.2945755146268409
 40
0.3932797312250279
 40
0.4928176221913665
 40
0.5924285912821955
 40
0.693902091742952
 40
0.7927115381486496
 40
0.8267756331444897
 40
0.8608043324980214
 40
0.8949846314026945
 40
0.9295010594372468
 40
0.9645328322476516
 40
1.0
 40
1.0
 40
1.0
 40
1.0
 10
124.5349842489516
 20
128.9318262757758
 30
0.0
 10
124.5342511485004
 20
128.9314798843479
 30
0.0
 10
124.5327865080409
 20
128.9307878388044
 30
0.0
 10
124.5197301283758
 20
128.9252054767582
 30
0.0
 10
124.498715567853
 20
128.9163387137642
 30
0.0
 10
124.4689683625123
 20
128.9038976130496
 30
0.0
 10
124.4306960498566
 20
128.8880069544946
 30
0.0
 10
124.3838433689355
 20
128.8686812106676
 30
0.0
 10
124.3284256388985
 20
128.8459651211483
 30
0.0
 10
124.264439675068
 20
128.8198961167737
 30
0.0
 10
124.1918861909174
 20
128.7905136694054
 30
0.0
 10
124.1107694934378
 20
128.7578594220704
 30
0.0
 10
124.0210758386877
 20
128.7219669750355
 30
0.0
 10
123.7640299920364
 20
128.6197290673689
 30
0.0
 10
123.2359940064436
 20
128.4132048539021
 30
0.0
 10
122.257359359203
 20
128.0761195405542
 30
0.0
 10
121.0714830562767
 20
127.7329746812284
 30
0.0
 10
119.7010167912176
 20
127.4358627805664
 30
0.0
 10
118.2151595192468
 20
127.2258193528267
 30
0.0
 10
116.9950068854745
 20
127.1675939499619
 30
0.0
 10
116.128582852512
 20
127.1812862912215
 30
0.0
 10
115.6003379240257
 20
127.2066543768325
 30
0.0
 10
115.0755646928167
 20
127.2486769925499
 30
0.0
 10
114.5545754532279
 20
127.306960955778
 30
0.0
 10
114.0373345081786
 20
127.3795845010235
 30
0.0
 10
113.7016973958536
 20
127.4384648187138
 30
0.0
 10
113.5328424077967
 20
127.4680867972594
 30
0.0
  0
LINE
  5
19D
330
1F
100
AcDbEntity
  8
0
  6
Continuous
 62
     7
370
    25
100
AcDbLine
 10
124.534984249
 20
128.9318262758
 30
0.0
 11
129.5590348589
 21
128.9318262758
 31
0.0
  0
LINE
  5
19E
330
1F
100
AcDbEntity
  8
0
  6
Continuous
 62
     7
370
    25
100
AcDbLine
 10
121.7090348589
 20
115.3570996866
 30
0.0
 11
121.7090348589
 21
111.2943262758
 31
0.0
  0
SPLINE
  5
19F
330
1F
100
AcDbEntity
  8
0
  6
Continuous
 62
     7
370
    25
100
AcDbSpline
210
0.0
220
0.0
230
1.0
 70
     8
 71
     3
 72
    25
 73
    21
 74
     0
 42
0.000000001
 43
0.00000001
 40
0.0
 40
0.0
 40
0.0
 40
0.0
 40
0.0278144320063455
 40
0.055568019624575
 40
0.0833316253677712
 40
0.1111760352167588
 40
0.1391714221532256
 40
0.1673868326284751
 40
0.1958897140434721
 40
0.2247454979318971
 40
0.2540172492221458
 40
0.3796724410016526
 40
0.5056484635002474
 40
0.6297527290694804
 40
0.753589172057179
 40
0.8038564806094552
 40
0.8533396843435762
 40
0.9023264398359792
 40
0.9511131859220281
 40
1.0
 40
1.0
 40
1.0
 40
1.0
 10
117.0590348588674
 20
119.8418228581408
 30
0.0
 10
117.1276902128297
 20
119.8412897730337
 30
0.0
 10
117.2648507363824
 20
119.8402247689493
 30
0.0
 10
117.4700933189681
 20
119.8271298715571
 30
0.0
 10
117.6744143354652
 20
119.8055913849846
 30
0.0
 10
117.8778153875542
 20
119.774769913136
 30
0.0
 10
118.0802910184001
 20
119.7348571606285
 30
0.0
 10
118.2818398826478
 20
119.6857569676875
 30
0.0
 10
118.4824539034504
 20
119.6274437201757
 30
0.0
 10
118.6821516677827
 20
119.5598517773089
 30
0.0
 10
119.097716488462
 20
119.3990382611932
 30
0.0
 10
119.7004929050046
 20
119.0850613618519
 30
0.0
 10
120.3945494605097
 20
118.521489886357
 30
0.0
 10
120.961323089907
 20
117.8457456671031
 30
0.0
 10
121.2989008955782
 20
117.2283838396263
 30
0.0
 10
121.4873633048666
 20
116.7363224001161
 30
0.0
 10
121.5866245223911
 20
116.3986706175695
 30
0.0
 10
121.656969111098
 20
116.0560394755459
 30
0.0
 10
121.7009677096166
 20
115.7086747751047
 30
0.0
 10
121.7063439730969
 20
115.4743713984981
 30
0.0
 10
121.7090348588674
 20
115.3570996865756
 30
0.0
  0
LINE
  5
1A0
330
1F
100
AcDbEntity
  8
0
  6
Continuous
 62
     7
370
    25
100
AcDbLine
 10
115.1441615796
 20
119.8418228581
 30
0.0
 11
117.0590348589
 21
119.8418228581
 31
0.0
  0
SPLINE
  5
1A1
330
1F
100
AcDbEntity
  8
0
  6
Continuous
 62
     7
370
    25
100
AcDbSpline
210
0.0
220
0.0
230
1.0
 70
     8
 71
     3
 72
    12
 73
     8
 74
     0
 42
0.000000001
 43
0.00000001
 40
0.0
 40
0.0
 40
0.0
 40
0.0
 40
0.1992838848927875
 40
0.398460526572566
 40
0.5979968004900617
 40
0.7983570684786109
 40
1.0
 40
1.0
 40
1.0
 40
1.0
 10
114.1431277372061
 20
119.7396285454178
 30
0.0
 10
114.2085810145071
 20
119.7526508981825
 30
0.0
 10
114.3394523458911
 20
119.7786885958247
 30
0.0
 10
114.538301797519
 20
119.8071191547986
 30
0.0
 10
114.7387083133967
 20
119.8275503157799
 30
0.0
 10
114.9408792308229
 20
119.8399893928504
 30
0.0
 10
115.0762568144807
 20
119.841210404425
 30
0.0
 10
115.1441615795779
 20
119.8418228581408
 30
0.0
  0
LINE
  5
1A2
330
1F
100
AcDbEntity
  8
0
  6
Continuous
 62
     7
370
    25
100
AcDbLine
 10
108.7183647297
 20
119.7394646213
 30
0.0
 11
114.1423547481
 21
119.7394646213
 31
0.0
  0
SPLINE
  5
1A3
330
1F
100
AcDbEntity
  8
0
  6
Continuous
 62
     7
370
    25
100
AcDbSpline
210
0.0
220
0.0
230
1.0
 70
     8
 71
     3
 72
    24
 73
    20
 74
     0
 42
0.000000001
 43
0.00000001
 40
0.0
 40
0.0
 40
0.0
 40
0.0
 40
0.0410257106276927
 40
0.0818520099057808
 40
0.1225800578327865
 40
0.1633117464026497
 40
0.2041489402771959
 40
0.2451927184713359
 40
0.2865426449200764
 40
0.3282960933614036
 40
0.3705476475465791
 40
0.413388592008023
 40
0.4569065022337061
 40
0.5011849368582145
 40
0.6001856774961036
 40
0.6987388860470333
 40
0.7976800645476073
 40
0.8978349910043563
 40
1.0
 40
1.0
 40
1.0
 40
1.0
 10
104.9463778227173
 20
121.6771064384388
 30
0.0
 10
105.0094169106701
 20
121.6765717381237
 30
0.0
 10
105.135188676049
 20
121.675504936481
 30
0.0
 10
105.3231268375558
 20
121.6643614444828
 30
0.0
 10
105.5097169303772
 20
121.6461999461751
 30
0.0
 10
105.69495871291
 20
121.6203250254536
 30
0.0
 10
105.8788478961366
 20
121.586888139642
 30
0.0
 10
106.0613815621089
 20
121.5458041180983
 30
0.0
 10
106.2425569690486
 20
121.4970413700048
 30
0.0
 10
106.4223717530261
 20
121.4405438818611
 30
0.0
 10
106.6008249521079
 20
121.3762527870588
 30
0.0
 10
106.7779129902607
 20
121.3040991071265
 30
0.0
 10
106.9536451145505
 20
121.2240119220878
 30
0.0
 10
107.1986597481535
 20
121.1001710354057
 30
0.0
 10
107.5028428273434
 20
120.9215460532131
 30
0.0
 10
107.8501503087941
 20
120.6724568691556
 30
0.0
 10
108.1693245722668
 20
120.3928872841759
 30
0.0
 10
108.4632364745268
 20
120.0840616462038
 30
0.0
 10
108.6327605612116
 20
119.8559696029015
 30
0.0
 10
108.7183647296907
 20
119.7407905148709
 30
0.0
  0
LINE
  5
1A4
330
1F
100
AcDbEntity
  8
0
  6
Continuous
 62
     7
370
    25
100
AcDbLine
 10
102.1548361058
 20
121.6771064384
 30
0.0
 11
104.9463778227
 21
121.6771064384
 31
0.0
  0
SPLINE
  5
1A5
330
1F
100
AcDbEntity
  8
0
  6
Continuous
 62
     7
370
    25
100
AcDbSpline
210
0.0
220
0.0
230
1.0
 70
     8
 71
     3
 72
     8
 73
     4
 74
     0
 42
0.000000001
 43
0.00000001
 40
0.0
 40
0.0
 40
0.0
 40
0.0
 40
1.0
 40
1.0
 40
1.0
 40
1.0
 10
102.1090320341087
 20
121.7405594294485
 30
0.0
 10
102.1243000580063
 20
121.7194429590503
 30
0.0
 10
102.139568081904
 20
121.6982918919977
 30
0.0
 10
102.1548361058017
 20
121.6771064384388
 30
0.0
  0
LINE
  5
1A6
330
1F
100
AcDbEntity
  8
0
  6
Continuous
 62
     7
370
    25
100
AcDbLine
 10
102.1090348589
 20
128.9318262758
 30
0.0
 11
102.1090348589
 21
121.7405594294
 31
0.0
  0
LINE
  5
1A7
330
1F
100
AcDbEntity
  8
0
  6
Continuous
 62
     7
370
    25
100
AcDbLine
 10
102.1090348589
 20
128.9318262758
 30
0.0
 11
105.9790347036
 21
128.9318262758
 31
0.0
  0
LINE
  5
1A8
330
1F
100
AcDbEntity
  8
0
  6
Continuous
 62
     7
370
    25
100
AcDbLine
 10
174.5873182823
 20
94.2943262758
 30
0.0
 11
174.5873182823
 21
111.2943262758
 31
0.0
  0
LINE
  5
1A9
330
1F
100
AcDbEntity
  8
0
  6
Continuous
 62
     7
370
    25
100
AcDbLine
 10
217.2159530503
 20
124.9393799599
 30
0.0
 11
174.5873182823
 21
128.2943262758
 31
0.0
  0
LINE
  5
1AA
330
1F
100
AcDbEntity
  8
0
  6
Continuous
 62
     7
370
    25
100
AcDbLine
 10
174.5873182823
 20
128.2943262758
 30
0.0
 11
160.0590348589
 21
128.2943262758
 31
0.0
  0
ARC
  5
1AB
330
1F
100
AcDbEntity
  8
0
  6
Continuous
 62
     7
370
    25
100
AcDbCircle
 10
136.7590348589
 20
125.6443262758
 30
0.0
 40
1.200000000000003
100
AcDbArc
 50
0.0
 51
90.0
  0
LINE
  5
1AC
330
1F
100
AcDbEntity
  8
0
  6
Continuous
 62
     7
370
    25
100
AcDbLine
 10
133.0590348589
 20
126.8443262758
 30
0.0
 11
136.7590348589
 21
126.8443262758
 31
0.0
  0
LINE
  5
1AD
330
1F
100
AcDbEntity
  8
0
  6
Continuous
 62
     7
370
    25
100
AcDbLine
 10
133.0590348589
 20
126.8443262758
 30
0.0
 11
133.0590348589
 21
111.2943262758
 31
0.0
  0
LINE
  5
1AE
330
1F
100
AcDbEntity
  8
0
  6
Continuous
 62
     7
370
    25
100
AcDbLine
 10
219.0590348589
 20
99.6431072989
 30
0.0
 11
219.0590348589
 21
111.2943262758
 31
0.0
  0
ARC
  5
1AF
330
1F
100
AcDbEntity
  8
0
  6
Continuous
 62
     7
370
    25
100
AcDbCircle
 10
217.0590348589
 20
122.9455452925
 30
0.0
 40
2.000000000000028
100
AcDbArc
 50
0.0
 51
85.5
  0
ARC
  5
1B0
330
1F
100
AcDbEntity
  8
0
  6
Continuous
 62
     7
370
    25
100
AcDbCircle
 10
218.5590348589
 20
119.3310205238
 30
0.0
 40
0.5
100
AcDbArc
 50
280.0
 51
0.0
  0
LINE
  5
1B1
330
1F
100
AcDbEntity
  8
0
  6
Continuous
 62
     7
370
    25
100
AcDbLine
 10
219.0590348589
 20
119.3310205238
 30
0.0
 11
219.0590348589
 21
111.2943262758
 31
0.0
  0
LINE
  5
1B2
330
1F
100
AcDbEntity
  8
0
  6
Continuous
 62
     7
370
    25
100
AcDbLine
 10
215.5590348589
 20
118.2943262758
 30
0.0
 11
215.5590348589
 21
111.2943262758
 31
0.0
  0
LINE
  5
1B3
330
1F
100
AcDbEntity
  8
0
  6
Continuous
 62
     7
370
    25
100
AcDbLine
 10
215.5590348589
 20
118.2943262758
 30
0.0
 11
218.6458589477
 21
118.8386166473
 31
0.0
  0
LINE
  5
1B4
330
1F
100
AcDbEntity
  8
0
  6
Continuous
 62
     7
370
    25
100
AcDbLine
 10
172.9590348589
 20
118.5943262758
 30
0.0
 11
182.1642608407
 21
118.5943262758
 31
0.0
  0
ARC
  5
1B5
330
1F
100
AcDbEntity
  8
0
  6
Continuous
 62
     7
370
    25
100
AcDbCircle
 10
182.1642608407
 20
118.1943262758
 30
0.0
 40
0.4000000000000074
100
AcDbArc
 50
70.0
 51
90.0
  0
ARC
  5
1B6
330
1F
100
AcDbEntity
  8
0
  6
Continuous
 62
     7
370
    25
100
AcDbCircle
 10
172.9590348589
 20
118.1943262758
 30
0.0
 40
0.4000000000000057
100
AcDbArc
 50
90.0
 51
180.0
  0
LINE
  5
1B7
330
1F
100
AcDbEntity
  8
0
  6
Continuous
 62
     7
370
    25
100
AcDbLine
 10
183.0590348589
 20
118.2943262758
 30
0.0
 11
183.0590348589
 21
111.2943262758
 31
0.0
  0
LINE
  5
1B8
330
1F
100
AcDbEntity
  8
0
  6
Continuous
 62
     7
370
    25
100
AcDbLine
 10
182.3010688981
 20
118.5702033241
 30
0.0
 11
183.0590348589
 21
118.2943262758
 31
0.0
  0
LINE
  5
1B9
330
1F
100
AcDbEntity
  8
0
  6
Continuous
 62
     7
370
    25
100
AcDbLine
 10
183.0590348589
 20
118.2943262758
 30
0.0
 11
215.5590348589
 21
118.2943262758
 31
0.0
  0
LINE
  5
1BA
330
1F
100
AcDbEntity
  8
0
  6
Continuous
 62
     7
370
    25
100
AcDbLine
 10
141.7840348589
 20
117.0443262758
 30
0.0
 11
142.6090348589
 21
117.0443262758
 31
0.0
  0
LINE
  5
1BB
330
1F
100
AcDbEntity
  8
0
  6
Continuous
 62
     7
370
    25
100
AcDbLine
 10
138.3590348589
 20
116.2943262758
 30
0.0
 11
138.3590348589
 21
111.2943262758
 31
0.0
  0
LINE
  5
1BC
330
1F
100
AcDbEntity
  8
0
  6
Continuous
 62
     7
370
    25
100
AcDbLine
 10
137.9590348589
 20
116.5252663835
 30
0.0
 11
138.3590348589
 21
116.2943262758
 31
0.0
  0
LINE
  5
1BD
330
1F
100
AcDbEntity
  8
0
  6
Continuous
 62
     7
370
    25
100
AcDbLine
 10
137.9590348589
 20
116.5252663835
 30
0.0
 11
137.9590348589
 21
111.2943262758
 31
0.0
  0
LINE
  5
1BE
330
1F
100
AcDbEntity
  8
0
  6
Continuous
 62
     7
370
    25
100
AcDbLine
 10
138.3590348589
 20
116.2943262758
 30
0.0
 11
141.7840348589
 21
116.2943262758
 31
0.0
  0
LINE
  5
1BF
330
1F
100
AcDbEntity
  8
0
  6
Continuous
 62
     7
370
    25
100
AcDbLine
 10
141.7840348589
 20
116.2943262758
 30
0.0
 11
141.7840348589
 21
111.2943262758
 31
0.0
  0
LINE
  5
1C0
330
1F
100
AcDbEntity
  8
0
  6
Continuous
 62
     7
370
    25
100
AcDbLine
 10
172.0590348589
 20
115.7943262758
 30
0.0
 11
172.5590348589
 21
116.2943262758
 31
0.0
  0
LINE
  5
1C1
330
1F
100
AcDbEntity
  8
0
  6
Continuous
 62
     7
370
    25
100
AcDbLine
 10
149.0590348589
 20
115.7943262758
 30
0.0
 11
149.0590348589
 21
111.2943262758
 31
0.0
  0
LINE
  5
1C2
330
1F
100
AcDbEntity
  8
0
  6
Continuous
 62
     7
370
    25
100
AcDbLine
 10
148.7586045494
 20
115.2943262758
 30
0.0
 11
148.7586045494
 21
111.2943262758
 31
0.0
  0
LINE
  5
1C3
330
1F
100
AcDbEntity
  8
0
  6
Continuous
 62
     7
370
    25
100
AcDbLine
 10
148.7586045494
 20
115.2943262758
 30
0.0
 11
149.0590348589
 21
115.7943262758
 31
0.0
  0
LINE
  5
1C4
330
1F
100
AcDbEntity
  8
0
  6
Continuous
 62
     7
370
    25
100
AcDbLine
 10
149.0590348589
 20
115.7943262758
 30
0.0
 11
172.0590348589
 21
115.7943262758
 31
0.0
  0
LINE
  5
1C5
330
1F
100
AcDbEntity
  8
0
  6
Continuous
 62
     7
370
    25
100
AcDbLine
 10
142.6090348589
 20
115.2943262758
 30
0.0
 11
148.7586045494
 21
115.2943262758
 31
0.0
  0
LINE
  5
1C6
330
1F
100
AcDbEntity
  8
0
  6
Continuous
 62
     7
370
    25
100
AcDbLine
 10
142.6090348589
 20
115.2943262758
 30
0.0
 11
142.6090348589
 21
111.2943262758
 31
0.0
  0
SPLINE
  5
1C7
330
1F
100
AcDbEntity
  8
0
  6
Continuous
 62
     7
370
    25
100
AcDbSpline
210
0.0
220
0.0
230
1.0
 70
     8
 71
     3
 72
    37
 73
    33
 74
     0
 42
0.000000001
 43
0.00000001
 40
0.0
 40
0.0
 40
0.0
 40
0.0
 40
0.0114878548102809
 40
0.0231559765621664
 40
0.0350076484354378
 40
0.0470460033795337
 40
0.0592740307999952
 40
0.0716945830965833
 40
0.084310382027471
 40
0.0971240248798064
 40
0.110137990432059
 40
0.1233546446979478
 40
0.1811510010973306
 40
0.2483631736114483
 40
0.2888373415819305
 40
0.3232297457604668
 40
0.3515392131491981
 40
0.3737664266256219
 40
0.4399300285953865
 40
0.4987424063270025
 40
0.5023253005651624
 40
0.5613100074513698
 40
0.6252595444338102
 40
0.6818650083849742
 40
0.7483890016987833
 40
0.7860781471964605
 40
0.8194856599799695
 40
0.8486127715281627
 40
0.873462272774732
 40
0.9389926156604028
 40
0.998152373139342
 40
1.0
 40
1.0
 40
1.0
 40
1.0
 10
123.9090348588674
 20
134.7579785791291
 30
0.0
 10
123.9081084075889
 20
134.7575350621206
 30
0.0
 10
123.9062409671968
 20
134.7566410684532
 30
0.0
 10
123.890967906857
 20
134.7494490909949
 30
0.0
 10
123.8660662043932
 20
134.7379978474024
 30
0.0
 10
123.8302119324573
 20
134.7218480886279
 30
0.0
 10
123.7832444216197
 20
134.7011204090743
 30
0.0
 10
123.7247015111988
 20
134.6757818900725
 30
0.0
 10
123.6542233716212
 20
134.645841469518
 30
0.0
 10
123.5714488073437
 20
134.611297495476
 30
0.0
 10
123.4760322622255
 20
134.5721477538614
 30
0.0
 10
123.246463428837
 20
134.4794490827002
 30
0.0
 10
122.7620452148644
 20
134.2907261921856
 30
0.0
 10
121.983045243319
 20
134.0126363922145
 30
0.0
 10
121.1918267918988
 20
133.7620495248851
 30
0.0
 10
120.560776298656
 20
133.5870327635553
 30
0.0
 10
120.0077383423197
 20
133.4471981229563
 30
0.0
 10
119.2147804134232
 20
133.2667872776102
 30
0.0
 10
118.1444460730901
 20
133.0777209559681
 30
0.0
 10
117.1634557936549
 20
132.9724341482584
 30
0.0
 10
116.2354885645352
 20
132.9154013763054
 30
0.0
 10
115.2630330707748
 20
132.9008067779357
 30
0.0
 10
113.9369028653414
 20
132.9789999944268
 30
0.0
 10
112.6668673808477
 20
133.139479716021
 30
0.0
 10
111.7070913801781
 20
133.3245912542346
 30
0.0
 10
111.0084397328333
 20
133.4920808579647
 30
0.0
 10
110.5646315946781
 20
133.605704064173
 30
0.0
 10
110.2320945327482
 20
133.6988878990816
 30
0.0
 10
109.8449361225049
 20
133.8135527633402
 30
0.0
 10
109.5076881603932
 20
133.9208985724003
 30
0.0
 10
109.4099640940641
 20
133.9584641456869
 30
0.0
 10
109.4090621737923
 20
133.9585955545033
 30
0.0
 10
109.4090348588674
 20
133.9585995342586
 30
0.0
  0
LINE
  5
1C8
330
1F
100
AcDbEntity
  8
0
  6
Continuous
 62
     7
370
    25
100
AcDbLine
 10
123.9090348589
 20
134.7579785791
 30
0.0
 11
123.9090348589
 21
129.4005522965
 31
0.0
  0
SPLINE
  5
1C9
330
1F
100
AcDbEntity
  8
0
  6
Continuous
 62
     7
370
    25
100
AcDbSpline
210
0.0
220
0.0
230
1.0
 70
     8
 71
     3
 72
    30
 73
    26
 74
     0
 42
0.000000001
 43
0.00000001
 40
0.0
 40
0.0
 40
0.0
 40
0.0
 40
0.0192411700739306
 40
0.0381353539372263
 40
0.0566868884855412
 40
0.0749003554925111
 40
0.0927805967278264
 40
0.1103327298321736
 40
0.1275621649287237
 40
0.1444746219341921
 40
0.2455865830559001
 40
0.3577720192517135
 40
0.4505017408967361
 40
0.5720127868620098
 40
0.6168069840241527
 40
0.6590088499497332
 40
0.6986242498843883
 40
0.7356603299396993
 40
0.7701258931938385
 40
0.8073679165916363
 40
0.848395032491173
 40
0.8881367798845466
 40
0.9266264622134205
 40
0.963900744363038
 40
1.0
 40
1.0
 40
1.0
 40
1.0
 10
114.738216268255
 20
127.7364609861821
 30
0.0
 10
114.8212487481335
 20
127.7253338808573
 30
0.0
 10
114.9858163392043
 20
127.7032803311914
 30
0.0
 10
115.2336978548822
 20
127.6752284419291
 30
0.0
 10
115.478974530323
 20
127.6512769114035
 30
0.0
 10
115.7215323639338
 20
127.6317469592104
 30
0.0
 10
115.9609670410432
 20
127.616554667034
 30
0.0
 10
116.1969802364519
 20
127.6057231058033
 30
0.0
 10
116.4292982817653
 20
127.5992425405503
 30
0.0
 10
117.0378490514036
 20
127.5936110489643
 30
0.0
 10
118.0761615486256
 20
127.6535844484441
 30
0.0
 10
119.3915130767291
 20
127.8530069216265
 30
0.0
 10
120.6710582896085
 20
128.1584882823142
 30
0.0
 10
121.562498833713
 20
128.4384310852329
 30
0.0
 10
122.1801637025879
 20
128.6658801817516
 30
0.0
 10
122.5234867878859
 20
128.7961588422584
 30
0.0
 10
122.8151778727795
 20
128.9122497802178
 30
0.0
 10
123.0597232285914
 20
129.0136180096174
 30
0.0
 10
123.2720779090159
 20
129.1049560621291
 30
0.0
 10
123.4631408836335
 20
129.1890311460691
 30
0.0
 10
123.6283882878051
 20
129.2640241000326
 30
0.0
 10
123.7579288380486
 20
129.3250125995783
 30
0.0
 10
123.8462952072684
 20
129.3682502613439
 30
0.0
 10
123.899441052529
 20
129.395480347223
 30
0.0
 10
123.9058712484697
 20
129.398879793353
 30
0.0
 10
123.9090348588674
 20
129.4005522965275
 30
0.0
  0
SPLINE
  5
1CA
330
1F
100
AcDbEntity
  8
0
  6
Continuous
 62
     7
370
    25
100
AcDbSpline
210
0.0
220
0.0
230
1.0
 70
     8
 71
     3
 72
    38
 73
    34
 74
     0
 42
0.000000001
 43
0.00000001
 40
0.0
 40
0.0
 40
0.0
 40
0.0
 40
0.1250000000000003
 40
0.1250000000000003
 40
0.2500000000000007
 40
0.2500000000000007
 40
0.3125000000000008
 40
0.3125000000000008
 40
0.375000000000001
 40
0.375000000000001
 40
0.4375000000000012
 40
0.4375000000000012
 40
0.5000000000000013
 40
0.5000000000000013
 40
0.5625000000000016
 40
0.5625000000000016
 40
0.6250000000000017
 40
0.6250000000000017
 40
0.6875000000000018
 40
0.6875000000000018
 40
0.7187500000000017
 40
0.7187500000000017
 40
0.7500000000000016
 40
0.7500000000000016
 40
0.7812500000000014
 40
0.7812500000000014
 40
0.8125000000000012
 40
0.8125000000000012
 40
0.8750000000000009
 40
0.8750000000000009
 40
0.9375000000000004
 40
0.9375000000000004
 40
1.0
 40
1.0
 40
1.0
 40
1.0
 10
109.4090348588674
 20
133.8303741606798
 30
0.0
 10
109.4090348588674
 20
133.8303741606798
 30
0.0
 10
109.4708406164308
 20
133.8077300780178
 30
0.0
 10
109.7204631618662
 20
133.7151456889618
 30
0.0
 10
109.9041907928044
 20
133.6467581090091
 30
0.0
 10
110.2605796293895
 20
133.5109160098072
 30
0.0
 10
110.3937400908951
 20
133.4597230247507
 30
0.0
 10
110.6848191015915
 20
133.3460344196383
 30
0.0
 10
110.8413090531008
 20
133.2841078121319
 30
0.0
 10
111.1746904943888
 20
133.1492227034414
 30
0.0
 10
111.351594252752
 20
133.0762844491547
 30
0.0
 10
111.7248359002254
 20
132.9173085143588
 30
0.0
 10
111.9225798911066
 20
132.8306687444822
 30
0.0
 10
112.3286033243598
 20
132.6437510719297
 30
0.0
 10
112.5366567177469
 20
132.5437161581206
 30
0.0
 10
112.9589509904811
 20
132.3244526079416
 30
0.0
 10
113.1733162935562
 20
132.2054494162769
 30
0.0
 10
113.6011586051357
 20
131.9351755659529
 30
0.0
 10
113.8175602562424
 20
131.7819267404412
 30
0.0
 10
114.1161926991225
 20
131.5158582168578
 30
0.0
 10
114.2113852885922
 20
131.421085970585
 30
0.0
 10
114.389010540449
 20
131.2153291133949
 30
0.0
 10
114.4716248510774
 20
131.1034705716243
 30
0.0
 10
114.6137051260988
 20
130.8699550674018
 30
0.0
 10
114.6740906753438
 20
130.747394001446
 30
0.0
 10
114.7735411674985
 20
130.4909232382207
 30
0.0
 10
114.8128326065233
 20
130.3556832246709
 30
0.0
 10
114.8995291926762
 20
129.9474012217063
 30
0.0
 10
114.9182375196708
 20
129.6711410439213
 30
0.0
 10
114.9147414990389
 20
129.1143932652855
 30
0.0
 10
114.8922618788303
 20
128.8361630212946
 30
0.0
 10
114.8266342310481
 20
128.2847772011098
 30
0.0
 10
114.7831366873586
 20
128.0105235320073
 30
0.0
 10
114.7336571402485
 20
127.7370940600456
 30
0.0
  0
LINE
  5
1CB
330
1F
100
AcDbEntity
  8
0
  6
Continuous
 62
     7
370
    25
100
AcDbLine
 10
109.4090348589
 20
133.8303741607
 30
0.0
 11
109.4090348589
 21
133.9585995342
 31
0.0
  0
SPLINE
  5
1CC
330
1F
100
AcDbEntity
  8
0
  6
Continuous
 62
     7
370
    25
100
AcDbSpline
210
0.0
220
0.0
230
1.0
 70
     8
 71
     3
 72
    14
 73
    10
 74
     0
 42
0.000000001
 43
0.00000001
 40
0.0
 40
0.0
 40
0.0
 40
0.0
 40
0.0003951392850831
 40
0.0003951392850831
 40
0.0003951392850831
 40
0.000815903567925
 40
0.000815903567925
 40
0.000815903567925
 40
0.0012369936130998
 40
0.0012369936130998
 40
0.0012369936130998
 40
0.0012369936130998
 10
113.5369188085988
 20
127.4692992727761
 30
0.0
 10
113.6654280467055
 20
127.4981732404896
 30
0.0
 10
113.7939915544345
 20
127.5268614539659
 30
0.0
 10
113.9225419327179
 20
127.5553642980033
 30
0.0
 10
114.0594271803815
 20
127.5857151916941
 30
0.0
 10
114.1963228262814
 20
127.615861156723
 30
0.0
 10
114.3331430876305
 20
127.6458129762916
 30
0.0
 10
114.4700690765754
 20
127.6757879410715
 30
0.0
 10
114.6069461485396
 20
127.7055739905167
 30
0.0
 10
114.7436829977267
 20
127.7351964636854
 30
0.0
  0
LINE
  5
1CD
330
1F
100
AcDbEntity
  8
0
  6
Continuous
 62
     7
370
    25
100
AcDbLine
 10
105.9790347036
 20
128.9318262758
 30
0.0
 11
109.4090348589
 21
133.8303741607
 31
0.0
  0
LINE
  5
1CE
330
1F
100
AcDbEntity
  8
0
  6
Continuous
 62
     7
370
    25
100
AcDbLine
 10
108.6594730105
 20
134.7677119854
 30
0.0
 11
109.4090629895
 21
133.9586006477
 31
0.0
  0
LINE
  5
1CF
330
1F
100
AcDbEntity
  8
0
  6
Continuous
 62
     7
370
    25
100
AcDbLine
 10
123.909047807
 20
134.757978835
 30
0.0
 11
124.5773779529
 21
135.5670906573
 31
0.0
  0
LINE
  5
1D0
330
1F
100
AcDbEntity
  8
0
  6
Continuous
 62
     7
370
    25
100
AcDbLine
 10
99.8607009087
 20
130.2299024871
 30
0.0
 11
102.1090348589
 21
128.9318262758
 31
0.0
  0
LINE
  5
1D1
330
1F
100
AcDbEntity
  8
0
  6
Continuous
 62
     7
370
    25
100
AcDbLine
 10
99.1090348589
 20
131.5318262758
 30
0.0
 11
99.8607009087
 21
130.2299024871
 31
0.0
  0
LINE
  5
1D2
330
1F
100
AcDbEntity
  8
0
  6
Continuous
 62
     7
370
    25
100
AcDbLine
 10
99.1090348589
 20
133.4974209996
 30
0.0
 11
99.1090348589
 21
131.5318262758
 31
0.0
  0
LINE
  5
1D3
330
1F
100
AcDbEntity
  8
0
  6
Continuous
 62
     7
370
    25
100
AcDbLine
 10
100.6090348589
 20
134.3634464034
 30
0.0
 11
99.1090348589
 21
133.4974209996
 31
0.0
  0
ARC
  5
1D4
330
1F
100
AcDbEntity
  8
0
  6
Continuous
 62
     7
370
    25
100
AcDbCircle
 10
148.0840348589
 20
140.1443262758
 30
0.0
 40
1.0
100
AcDbArc
 50
180.0
 51
270.0
  0
LINE
  5
1D5
330
1F
100
AcDbEntity
  8
0
  6
Continuous
 62
     7
370
    25
100
AcDbLine
 10
149.8340348589
 20
139.1443262758
 30
0.0
 11
148.0840348589
 21
139.1443262758
 31
0.0
  0
ARC
  5
1D6
330
1F
100
AcDbEntity
  8
0
  6
Continuous
 62
     7
370
    25
100
AcDbCircle
 10
149.8340348589
 20
140.1443262758
 30
0.0
 40
1.0
100
AcDbArc
 50
270.0
 51
0.0
  0
LINE
  5
1D7
330
1F
100
AcDbEntity
  8
0
  6
Continuous
 62
     7
370
    25
100
AcDbLine
 10
150.8340348589
 20
140.24192154
 30
0.0
 11
150.8340348589
 21
140.1443262758
 31
0.0
  0
LINE
  5
1D8
330
1F
100
AcDbEntity
  8
0
  6
Continuous
 62
     7
370
    25
100
AcDbLine
 10
152.2932326634
 20
142.7693262758
 30
0.0
 11
150.8340348589
 21
140.24192154
 31
0.0
  0
LINE
  5
1D9
330
1F
100
AcDbEntity
  8
0
  6
Continuous
 62
     7
370
    25
100
AcDbLine
 10
124.5349840006
 20
128.9318275661
 30
0.0
 11
123.9090379871
 21
129.4005524214
 31
0.0
  0
LINE
  5
1DA
330
1F
100
AcDbEntity
  8
0
  6
Continuous
 62
     7
370
    25
100
AcDbLine
 10
147.0840348589
 20
140.24192154
 30
0.0
 11
145.6248370543
 21
142.7693262758
 31
0.0
  0
LINE
  5
1DB
330
1F
100
AcDbEntity
  8
0
  6
Continuous
 62
     7
370
    25
100
AcDbLine
 10
147.0840348589
 20
140.1443262758
 30
0.0
 11
147.0840348589
 21
140.24192154
 31
0.0
  0
LINE
  5
1DC
330
1F
100
AcDbEntity
  8
0
  6
Continuous
 62
     7
370
    25
100
AcDbLine
 10
141.7840348589
 20
116.2943262758
 30
0.0
 11
141.7840348589
 21
117.0443262758
 31
0.0
  0
LINE
  5
1DD
330
1F
100
AcDbEntity
  8
0
  6
Continuous
 62
     7
370
    25
100
AcDbLine
 10
142.6090348589
 20
117.0443262758
 30
0.0
 11
142.6090348589
 21
115.2943262758
 31
0.0
  0
LINE
  5
1DE
330
1F
100
AcDbEntity
  8
0
  6
Continuous
 62
     7
370
    25
100
AcDbLine
 10
172.5590348589
 20
116.2943262758
 30
0.0
 11
172.5590348589
 21
118.1943262758
 31
0.0
  0
LINE
  5
1DF
330
1F
100
AcDbEntity
  8
0
  6
Continuous
 62
     7
370
    25
100
AcDbLine
 10
219.0590348589
 20
119.3310205238
 30
0.0
 11
219.0590348589
 21
122.9455452925
 31
0.0
  0
LINE
  5
1E0
330
1F
100
AcDbEntity
  8
0
  6
Continuous
 62
     7
370
    25
100
AcDbLine
 10
137.9590348589
 20
125.6443262758
 30
0.0
 11
137.9590348589
 21
116.5252663835
 31
0.0
  0
LINE
  5
1E1
330
1F
100
AcDbEntity
  8
0
  6
Continuous
 62
     7
370
    25
100
AcDbLine
 10
133.0590348589
 20
128.7443262758
 30
0.0
 11
133.0590348589
 21
126.8443262758
 31
0.0
  0
LINE
  5
1E2
330
1F
100
AcDbEntity
  8
0
  6
Continuous
 62
     7
370
    25
100
AcDbLine
 10
139.0590348589
 20
142.5693262758
 30
0.0
 11
139.0590348589
 21
138.1443262758
 31
0.0
  0
LINE
  5
1E3
330
1F
100
AcDbEntity
  8
0
  6
Continuous
 62
     7
370
    25
100
AcDbLine
 10
157.0590348589
 20
131.2943262758
 30
0.0
 11
157.0590348589
 21
142.7693262758
 31
0.0
  0
SPLINE
  5
1E4
330
1F
100
AcDbEntity
  8
0
  6
Continuous
 62
     7
370
    25
100
AcDbSpline
210
0.0
220
0.0
230
1.0
 70
     8
 71
     3
 72
     9
 73
     5
 74
     0
 42
0.000000001
 43
0.00000001
 40
0.0
 40
0.0
 40
0.0
 40
0.0
 40
0.5102121239851395
 40
0.9999999999999999
 40
0.9999999999999999
 40
0.9999999999999999
 40
0.9999999999999999
 10
99.9133982555385
 20
121.7559527924276
 30
0.0
 10
100.2882603125173
 20
121.753462875046
 30
0.0
 10
101.0229783628271
 20
121.7485827139039
 30
0.0
 10
101.7519789532838
 20
121.7431978225176
 30
0.0
 10
102.1090346040972
 20
121.7405603680029
 30
0.0
  0
LINE
  5
1E5
330
1F
100
AcDbEntity
  8
0
  6
Continuous
 62
     7
370
    25
100
AcDbLine
 10
99.8607009087
 20
121.7863770833
 30
0.0
 11
99.9133982574
 21
121.7559522549
 31
0.0
  0
LINE
  5
1E6
330
1F
100
AcDbEntity
  8
0
  6
Continuous
 62
     7
370
    25
100
AcDbLine
 10
99.8607009087
 20
130.2299024871
 30
0.0
 11
99.8607009087
 21
121.7863770833
 31
0.0
  0
SPLINE
  5
1E7
330
1F
100
AcDbEntity
  8
0
  6
Continuous
 62
     7
370
    25
100
AcDbSpline
210
0.0
220
0.0
230
1.0
 70
    24
 71
     3
 72
     8
 73
     4
 74
     0
 42
0.000000001
 43
0.00000001
 40
0.0000004089325119
 40
0.0000004089325119
 40
0.0000004089325119
 40
0.0000004089325119
 40
0.0015399868451459
 40
0.0015399868451459
 40
0.0015399868451459
 40
0.0015399868451459
 10
99.10903485886739
 20
122.2203516795603
 30
0.0
 10
99.36002593489185
 20
122.0754419142533
 30
0.0
 10
99.6106151313948
 20
121.9307641741964
 30
0.0
 10
99.86070090870695
 20
121.7863770833447
 30
0.0
  0
LINE
  5
1E8
330
1F
100
AcDbEntity
  8
0
  6
Continuous
 62
     7
370
    25
100
AcDbLine
 10
99.1090348589
 20
131.5318262758
 30
0.0
 11
99.1090348589
 21
122.2203516796
 31
0.0
  0
SPLINE
  5
1E9
330
1F
100
AcDbEntity
  8
0
  6
Continuous
 62
     7
370
    25
100
AcDbSpline
210
0.0
220
0.0
230
1.0
 70
     8
 71
     3
 72
     8
 73
     4
 74
     0
 42
0.000000001
 43
0.00000001
 40
0.0
 40
0.0
 40
0.0
 40
0.0
 40
1.0
 40
1.0
 40
1.0
 40
1.0
 10
102.2387166016242
 20
121.3543269535124
 30
0.0
 10
102.2107683815046
 20
121.4621433074878
 30
0.0
 10
102.1828082933359
 20
121.5697371576541
 30
0.0
 10
102.1548361058017
 20
121.6771064384388
 30
0.0
  0
LINE
  5
1EA
330
1F
100
AcDbEntity
  8
0
  6
Continuous
 62
     7
370
    25
100
AcDbLine
 10
102.2387197402
 20
121.3543262758
 30
0.0
 11
100.6090340721
 21
121.3543262758
 31
0.0
  0
LINE
  5
1EB
330
1F
100
AcDbEntity
  8
0
  6
Continuous
 62
     7
370
    25
100
AcDbLine
 10
100.609034272
 20
121.3543266146
 30
0.0
 11
99.913397794
 21
121.7559525224
 31
0.0
  0
LINE
  5
1EC
330
1F
100
AcDbEntity
  8
0
  6
Continuous
 62
     7
370
    25
100
AcDbLine
 10
108.6629957561
 20
119.3568262758
 30
0.0
 11
108.4108241281
 21
119.3568262758
 31
0.0
  0
SPLINE
  5
1ED
330
1F
100
AcDbEntity
  8
0
  6
Continuous
 62
     7
370
    25
100
AcDbSpline
210
0.0
220
0.0
230
1.0
 70
     8
 71
     3
 72
    26
 73
    22
 74
     0
 42
0.000000001
 43
0.00000001
 40
0.0
 40
0.0
 40
0.0
 40
0.0
 40
0.0524616379932503
 40
0.1026498591890872
 40
0.150565513457809
 40
0.1962095861957063
 40
0.2395832262568645
 40
0.2806877815599511
 40
0.3195248450380211
 40
0.3560963147430692
 40
0.3904044736547445
 40
0.4224520974433627
 40
0.4522426027417772
 40
0.4797802555366611
 40
0.5050704712281336
 40
0.5966394156799991
 40
0.6841917884819224
 40
0.7679874773571101
 40
0.8483228539139507
 40
0.925534163520116
 40
1.0
 40
1.0
 40
1.0
 40
1.0
 10
108.409017634198
 20
119.3568560598112
 30
0.0
 10
108.3733812351667
 20
119.4164029798934
 30
0.0
 10
108.3036527348283
 20
119.5329163636801
 30
0.0
 10
108.1901745740684
 20
119.6973143244093
 30
0.0
 10
108.0746490243434
 20
119.8494760622108
 30
0.0
 10
107.9575273283333
 20
119.9893787591434
 30
0.0
 10
107.8401556278539
 20
120.1175930830474
 30
0.0
 10
107.7235346618203
 20
120.2346087619878
 30
0.0
 10
107.6086317413752
 20
120.3409859172318
 30
0.0
 10
107.4963075156859
 20
120.4373019977061
 30
0.0
 10
107.387338541651
 20
120.5241513442586
 30
0.0
 10
107.2824195008144
 20
120.6021315264525
 30
0.0
 10
107.1821621748656
 20
120.6718397235054
 30
0.0
 10
107.0871248322825
 20
120.7338497124065
 30
0.0
 10
106.9170179278517
 20
120.8383361496723
 30
0.0
 10
106.6640988964466
 20
120.9733948161868
 30
0.0
 10
106.3181177393855
 20
121.1177817086038
 30
0.0
 10
105.9701591900612
 20
121.2267496208488
 30
0.0
 10
105.6240194296851
 20
121.3012792031856
 30
0.0
 10
105.282954646251
 20
121.346207907735
 30
0.0
 10
105.0572080347353
 20
121.3516530065894
 30
0.0
 10
104.9463778227173
 20
121.3543262757758
 30
0.0
  0
SPLINE
  5
1EE
330
1F
100
AcDbEntity
  8
0
  6
Continuous
 62
     7
370
    25
100
AcDbSpline
210
0.0
220
0.0
230
1.0
 70
     8
 71
     3
 72
     8
 73
     4
 74
     0
 42
0.000000001
 43
0.00000001
 40
0.0
 40
0.0
 40
0.0
 40
0.0
 40
1.0
 40
1.0
 40
1.0
 40
1.0
 10
108.6629957560999
 20
119.3568262757757
 30
0.0
 10
108.6920004625274
 20
119.480764002638
 30
0.0
 10
108.7110329822089
 20
119.6087161328713
 30
0.0
 10
108.7192845744005
 20
119.7397854455628
 30
0.0
  0
LINE
  5
1EF
330
1F
100
AcDbEntity
  8
0
  6
Continuous
 62
     7
370
    25
100
AcDbLine
 10
104.9463778227
 20
121.3543262758
 30
0.0
 11
102.2387197402
 21
121.3543262758
 31
0.0
  0
LINE
  5
1F0
330
1F
100
AcDbEntity
  8
0
  6
Continuous
 62
     7
370
    25
100
AcDbLine
 10
121.7090348589
 20
115.3570996866
 30
0.0
 11
121.0590348589
 21
115.5068262758
 31
0.0
  0
SPLINE
  5
1F1
330
1F
100
AcDbEntity
  8
0
  6
Continuous
 62
     7
370
    25
100
AcDbSpline
210
0.0
220
0.0
230
1.0
 70
     8
 71
     3
 72
    26
 73
    22
 74
     0
 42
0.000000001
 43
0.00000001
 40
0.0
 40
0.0
 40
0.0
 40
0.0
 40
0.0305951740479358
 40
0.0629166281712908
 40
0.0969720532711037
 40
0.1327680143098845
 40
0.1703101548666992
 40
0.2096033578427303
 40
0.2506518729755249
 40
0.3342141733891422
 40
0.4179517165467412
 40
0.5018670561018365
 40
0.5659795686709811
 40
0.6277136397807287
 40
0.6871358192028496
 40
0.7443207393775265
 40
0.7993521465927701
 40
0.8523240127894651
 40
0.9033417028013213
 40
0.9525231537596899
 40
1.0
 40
1.0
 40
1.0
 40
1.0
 10
121.0590348588674
 20
115.5068262757758
 30
0.0
 10
121.0581266470233
 20
115.5713614431433
 30
0.0
 10
121.0562589790438
 20
115.7040730637039
 30
0.0
 10
121.0406663899894
 20
115.9068871551885
 30
0.0
 10
121.0140225288104
 20
116.11860019607
 30
0.0
 10
120.9738680997385
 20
116.3383121894441
 30
0.0
 10
120.9189699830569
 20
116.565059060336
 30
0.0
 10
120.8477270144382
 20
116.797690064158
 30
0.0
 10
120.7293146201462
 20
117.113088378667
 30
0.0
 10
120.541183723729
 20
117.4975702772206
 30
0.0
 10
120.2571669604942
 20
117.9275978917501
 30
0.0
 10
119.9477490039503
 20
118.2860846040839
 30
0.0
 10
119.6318393931606
 20
118.5778512603641
 30
0.0
 10
119.3250939850535
 20
118.8103103471931
 30
0.0
 10
119.0066748712439
 20
119.0071205817546
 30
0.0
 10
118.6807039950945
 20
119.1692212840149
 30
0.0
 10
118.3511651599711
 20
119.2976911674996
 30
0.0
 10
118.0216032451201
 20
119.3942749868789
 30
0.0
 10
117.6951849218098
 20
119.4601272161714
 30
0.0
 10
117.3746667294884
 20
119.4996921640018
 30
0.0
 10
117.1630012159436
 20
119.5044763622178
 30
0.0
 10
117.0590348588674
 20
119.5068262757758
 30
0.0
  0
SPLINE
  5
1F2
330
1F
100
AcDbEntity
  8
0
  6
Continuous
 62
     7
370
    25
100
AcDbSpline
210
0.0
220
0.0
230
1.0
 70
     8
 71
     3
 72
    13
 73
     9
 74
     0
 42
0.000000001
 43
0.00000001
 40
0.0
 40
0.0
 40
0.0
 40
0.0
 40
0.1604061687808072
 40
0.3231296685374067
 40
0.4883154213918549
 40
0.656101968658161
 40
0.8266215118296395
 40
1.0
 40
1.0
 40
1.0
 40
1.0
 10
115.1441615795779
 20
119.5068262757758
 30
0.0
 10
115.085111628044
 20
119.5060707057373
 30
0.0
 10
114.9661586512893
 20
119.5045486502083
 30
0.0
 10
114.7869050176501
 20
119.4921035910751
 30
0.0
 10
114.6059720359516
 20
119.4719194099388
 30
0.0
 10
114.4238435415646
 20
119.4427840437956
 30
0.0
 10
114.2406765338038
 20
119.4053678919797
 30
0.0
 10
114.1199372189589
 20
119.37310201963
 30
0.0
 10
114.0590656873922
 20
119.3568349646961
 30
0.0
  0
SPLINE
  5
1F3
330
1F
100
AcDbEntity
  8
0
  6
Continuous
 62
     7
370
    25
100
AcDbSpline
210
0.0
220
0.0
230
1.0
 70
    24
 71
     3
 72
    10
 73
     6
 74
     0
 42
0.000000001
 43
0.00000001
 40
0.0
 40
0.0
 40
0.0
 40
0.0
 40
0.32166235569174
 40
0.6548175346390249
 40
1.0
 40
1.0
 40
1.0
 40
1.0
 10
114.0592136937722
 20
119.3568262757758
 30
0.0
 10
113.9906677859149
 20
119.3568262757758
 30
0.0
 10
113.8511268617176
 20
119.3568262757758
 30
0.0
 10
113.6415184463671
 20
119.3568262757758
 30
0.0
 10
113.5018414512133
 20
119.3568262757758
 30
0.0
 10
113.4307646800125
 20
119.3568262757758
 30
0.0
  0
SPLINE
  5
1F4
330
1F
100
AcDbEntity
  8
0
  6
Continuous
 62
     7
370
    25
100
AcDbSpline
210
0.0
220
0.0
230
1.0
 70
     8
 71
     3
 72
     8
 73
     4
 74
     0
 42
0.000000001
 43
0.00000001
 40
0.0
 40
0.0
 40
0.0
 40
0.0
 40
1.0
 40
1.0
 40
1.0
 40
1.0
 10
114.1453649752385
 20
119.7352726249488
 30
0.0
 10
113.8760686451933
 20
119.6385832397565
 30
0.0
 10
113.6399079597885
 20
119.5105840703832
 30
0.0
 10
113.430710443612
 20
119.357107472744
 30
0.0
  0
LINE
  5
1F5
330
1F
100
AcDbEntity
  8
0
  6
Continuous
 62
     7
370
    25
100
AcDbLine
 10
113.4312561552
 20
103.2318262758
 30
0.0
 11
113.5844158849
 21
103.2318262758
 31
0.0
  0
LINE
  5
1F6
330
1F
100
AcDbEntity
  8
0
  6
Continuous
 62
     7
370
    25
100
AcDbLine
 10
117.0590348589
 20
119.5068262758
 30
0.0
 11
115.1441615796
 21
119.5068262758
 31
0.0
  0
LINE
  5
1F7
330
1F
100
AcDbEntity
  8
0
  6
Continuous
 62
     7
370
    25
100
AcDbLine
 10
113.4311230408
 20
119.3568262758
 30
0.0
 11
108.6629957561
 21
119.3568262758
 31
0.0
  0
LINE
  5
1F8
330
1F
100
AcDbEntity
  8
0
  6
Continuous
 62
     7
370
    25
100
AcDbLine
 10
121.0590348589
 20
111.2943262758
 30
0.0
 11
121.0590348589
 21
115.5068262758
 31
0.0
  0
LINE
  5
1F9
330
1F
100
AcDbEntity
  8
VERMASSUNG
  6
CENTERX2
100
AcDbLine
 10
231.0540348589
 20
111.2943262758
 30
0.0
 11
87.1140348589
 21
111.2943262758
 31
0.0
  0
HATCH
  5
1FA
330
1F
100
AcDbEntity
  8
0
  6
Continuous
 62
     7
370
    18
100
AcDbHatch
 10
0.0
 20
0.0
 30
0.0
210
0.0
220
0.0
230
1.0
  2
ANSI31
 70
     0
 71
     0
 91
        1
 92
        0
 93
       50
 72
     1
 10
147.0840348588674
 20
140.1443262757758
 11
147.0840348588674
 21
140.2419215399674
 72
     1
 10
147.0840348588674
 20
140.2419215399674
 11
145.6248370542974
 21
142.7693262757758
 72
     1
 10
145.6248370542974
 20
142.7693262757758
 11
139.2590348588674
 21
142.7693262757758
 72
     2
 10
139.2590348588674
 20
142.5693262757758
 40
0.2000000000000028
 50
90.0
 51
180.0
 73
     1
 72
     1
 10
139.0590348588674
 20
142.5693262757758
 11
139.0590348588674
 21
138.1443262757758
 72
     1
 10
139.0590348588674
 20
138.1443262757758
 11
139.393073544896
 21
137.0848909153792
 72
     2
 10
138.6300999842975
 20
136.8443262757758
 40
0.8000000000000049
 50
342.5000000000014
 51
467.5000000000022
 73
     0
 72
     1
 10
138.389535344694
 20
136.0813527151772
 11
137.8988528188367
 21
136.2360643213041
 72
     1
 10
137.8988528188367
 20
136.2360643213041
 11
124.5773795463172
 21
135.567087348278
 72
     1
 10
124.5773779529186
 20
135.5670906573464
 11
123.9090478069891
 21
134.7579788349552
 72
     1
 10
123.9090478069891
 20
134.7579788349552
 11
123.9090348588674
 21
129.4005522965274
 72
     1
 10
123.9090379871011
 20
129.400552421408
 11
124.5349840006434
 21
128.9318275660679
 72
     1
 10
124.5349842489523
 20
128.9318262757758
 11
129.5590348588674
 21
128.9318262757758
 72
     1
 10
129.5590348588674
 20
128.9318262757758
 11
130.4342753324483
 21
129.4371465988034
 72
     2
 10
130.8342753324482
 20
128.7443262757758
 40
0.7999999999999923
 50
240.0000000000011
 51
270.0000000000008
 73
     0
 72
     1
 10
130.8342753324482
 20
129.5443262757758
 11
132.2590348588674
 21
129.5443262757758
 72
     2
 10
132.2590348588674
 20
128.7443262757758
 40
0.7999999999999977
 50
270.0000000000008
 51
360.0000000000008
 73
     0
 72
     1
 10
133.0590348588674
 20
128.7443262757758
 11
133.0590348588674
 21
126.8443262757758
 72
     1
 10
133.0590348588674
 20
126.8443262757758
 11
136.7590348588674
 21
126.8443262757758
 72
     2
 10
136.7590348588674
 20
125.6443262757758
 40
1.2
 50
270.0000000000008
 51
360.0000000000008
 73
     0
 72
     1
 10
137.9590348588674
 20
125.6443262757758
 11
137.9590348588674
 21
116.5252663834517
 72
     1
 10
137.9590348588674
 20
116.5252663834517
 11
138.3590348588674
 21
116.2943262757758
 72
     1
 10
138.3590348588674
 20
116.2943262757758
 11
141.7840348588674
 21
116.2943262757758
 72
     1
 10
141.7840348588674
 20
116.2943262757758
 11
141.7840348588674
 21
117.0443262757758
 72
     1
 10
141.7840348588674
 20
117.0443262757758
 11
142.6090348588674
 21
117.0443262757758
 72
     1
 10
142.6090348588674
 20
117.0443262757758
 11
142.6090348588674
 21
115.2943262757758
 72
     1
 10
142.6090348588674
 20
115.2943262757758
 11
148.7586045493536
 21
115.2943262757758
 72
     1
 10
148.7586045493536
 20
115.2943262757758
 11
149.0590348588674
 21
115.7943262757758
 72
     1
 10
149.0590348588674
 20
115.7943262757758
 11
172.0590348588675
 21
115.7943262757758
 72
     1
 10
172.0590348588675
 20
115.7943262757758
 11
172.5590348588675
 21
116.2943262757758
 72
     1
 10
172.5590348588675
 20
116.2943262757758
 11
172.5590348588675
 21
118.1943262757758
 72
     2
 10
172.9590348588675
 20
118.1943262757758
 40
0.3999999999999985
 50
180.0
 51
270.0000000000008
 73
     0
 72
     1
 10
172.9590348588675
 20
118.5943262757758
 11
182.1642608407476
 21
118.5943262757758
 72
     2
 10
182.1642608407476
 20
118.1943262757758
 40
0.400000000000002
 50
270.0000000000008
 51
289.9999999999992
 73
     0
 72
     1
 10
182.3010688980779
 20
118.5702033240901
 11
183.0590348588674
 21
118.2943262757758
 72
     1
 10
183.0590348588674
 20
118.2943262757758
 11
215.5590348588674
 21
118.2943262757757
 72
     1
 10
215.5590348588674
 20
118.2943262757757
 11
218.6458589477009
 21
118.8386166473379
 72
     2
 10
218.5590348588674
 20
119.331020523844
 40
0.5000000000000072
 50
280.0000000000026
 51
359.9999999999992
 73
     1
 72
     1
 10
219.0590348588674
 20
119.331020523844
 11
219.0590348588674
 21
122.9455452924593
 72
     2
 10
217.0590348588674
 20
122.9455452924593
 40
2.000000000000008
 50
0.0
 51
85.49999999999967
 73
     1
 72
     1
 10
217.2159530503231
 20
124.9393799599256
 11
174.587318282254
 21
128.2943262757759
 72
     1
 10
174.587318282254
 20
128.2943262757759
 11
160.0590348588674
 21
128.2943262757759
 72
     2
 10
160.0590348588674
 20
131.2943262757759
 40
3.0
 50
90.0
 51
180.0
 73
     0
 72
     1
 10
157.0590348588674
 20
131.2943262757759
 11
157.0590348588674
 21
142.7693262757758
 72
     1
 10
157.0590348588674
 20
142.7693262757758
 11
152.2932326634375
 21
142.7693262757758
 72
     1
 10
152.2932326634375
 20
142.7693262757758
 11
150.8340348588674
 21
140.2419215399674
 72
     1
 10
150.8340348588674
 20
140.2419215399674
 11
150.8340348588674
 21
140.1443262757758
 72
     2
 10
149.8340348588674
 20
140.1443262757758
 40
1.000000000000003
 50
0.0
 51
90.0
 73
     0
 72
     1
 10
149.8340348588674
 20
139.1443262757758
 11
148.0840348588674
 21
139.1443262757758
 72
     2
 10
148.0840348588674
 20
140.1443262757758
 40
1.000000000000003
 50
90.0
 51
180.0
 73
     0
 97
        0
 75
     0
 76
     1
 52
0.0
 41
1.0
 77
     0
 78
     1
 53
45.0
 43
0.0
 44
0.0
 45
-2.245064030267288
 46
2.245064030267288
 79
     0
 98
        1
 10
0.0
 20
0.0
  0
HATCH
  5
1FB
330
1F
100
AcDbEntity
  8
0
  6
Continuous
 62
     7
370
    18
100
AcDbHatch
 10
0.0
 20
0.0
 30
0.0
210
0.0
220
0.0
230
1.0
  2
ANSI31
 70
     0
 71
     0
 91
        1
 92
        0
 93
        9
 72
     1
 10
109.4090629894556
 20
133.9586006476588
 11
108.6594730105199
 21
134.7677119854263
 72
     1
 10
108.6594730105199
 20
134.7677119854263
 11
100.6090348588674
 21
134.3634464033582
 72
     1
 10
100.6090348588674
 20
134.3634464033582
 11
99.10903485886742
 21
133.4974209995738
 72
     1
 10
99.10903485886742
 20
133.4974209995738
 11
99.1090348588674
 21
131.5318262757759
 72
     1
 10
99.1090348588674
 20
131.5318262757759
 11
99.86070090870696
 21
130.2299024871292
 72
     1
 10
99.86070090870696
 20
130.2299024871292
 11
102.1090348588674
 21
128.9318262757759
 72
     1
 10
102.1090348588674
 20
128.9318262757759
 11
105.9790347035764
 21
128.9318262757759
 72
     1
 10
105.9790347035764
 20
128.9318262757759
 11
109.4090348588674
 21
133.8303741606798
 72
     1
 10
109.4090348588674
 20
133.8303741606798
 11
109.4090348588674
 21
133.9585995341655
 97
        0
 75
     0
 76
     1
 52
0.0
 41
1.0
 77
     0
 78
     1
 53
45.0
 43
0.0
 44
0.0
 45
-2.245064030267288
 46
2.245064030267288
 79
     0
 98
        1
 10
0.0
 20
0.0
  0
HATCH
  5
1FC
330
1F
100
AcDbEntity
  8
0
  6
Continuous
 62
     7
370
    18
100
AcDbHatch
 10
0.0
 20
0.0
 30
0.0
210
0.0
220
0.0
230
1.0
  2
ANSI31
 70
     0
 71
     0
 91
        1
 92
        0
 93
       11
 72
     1
 10
173.0590348588675
 20
115.7943262757758
 11
172.5590348588675
 21
116.2943262757758
 72
     1
 10
172.5590348588675
 20
116.2943262757758
 11
157.0590348588675
 21
116.2943262757758
 72
     1
 10
157.0590348588675
 20
116.2943262757758
 11
156.5590348588674
 21
115.7943262757758
 72
     1
 10
156.5590348588674
 20
115.7943262757758
 11
156.5590348588006
 21
113.948541159234
 72
     1
 10
156.5590348588006
 20
113.948541159234
 11
162.5590348588006
 21
113.948541159234
 72
     1
 10
162.5590348588006
 20
113.948541159234
 11
162.5590348588006
 21
113.7943262757758
 72
     1
 10
162.5590348588006
 20
113.7943262757758
 11
170.5590348588675
 21
113.7943262757758
 72
     1
 10
170.5590348588675
 20
113.7943262757758
 11
170.5590348588675
 21
113.948541159234
 72
     1
 10
170.5590348588675
 20
113.948541159234
 11
174.5590348588675
 21
113.948541159234
 72
     1
 10
174.5590348588675
 20
113.948541159234
 11
174.5590348588675
 21
115.7943262757758
 72
     1
 10
174.5590348588675
 20
115.7943262757758
 11
173.0590348588675
 21
115.7943262757758
 97
        0
 75
     0
 76
     1
 52
0.0
 41
1.0
 77
     0
 78
     1
 53
45.0
 43
0.0
 44
0.0
 45
-2.245064030267288
 46
2.245064030267288
 79
     0
 98
        1
 10
0.0
 20
0.0
  0
POINT
  5
1FD
330
1F
100
AcDbEntity
  8
VERMASSUNG
100
AcDbPoint
 10
219.0590348589
 20
97.7943262758
 30
0.0
  0
POINT
  5
1FE
330
1F
100
AcDbEntity
  8
VERMASSUNG
100
AcDbPoint
 10
219.0590348589
 20
124.7943262758
 30
0.0
  0
DIMENSION
  5
1FF
330
1F
100
AcDbEntity
  8
VERMASSUNG
100
AcDbDimension
  2
_D
 10
247.0590348589
 20
124.7943262758
 30
0.0
 11
247.0590348589
 21
111.2943262758
 31
0.0
 70
   160
  1
%%c<>
 71
     2
 42
-1.0
  3
SLDDIMSTYLE0
100
AcDbAlignedDimension
 13
219.0590348589
 23
97.7943262758
 33
0.0
 14
219.0590348589
 24
124.7943262758
 34
0.0
 50
90.0
100
AcDbRotatedDimension
  0
DIMENSION
  5
20B
330
1F
100
AcDbEntity
  8
VERMASSUNG
100
AcDbDimension
  2
_D_1
 10
87.1140348589
 20
111.2943262758
 30
0.0
 11
201.0590348589
 21
133.1748113708
 31
0.0
 70
   162
  1
<>
 71
     1
 42
-1.0
  3
SLDDIMSTYLE1
100
AcDb2LineAngularDimension
 13
217.2159530503
 23
124.9393799599
 33
0.0
 14
174.5873182823
 24
128.2943262758
 34
0.0
 15
231.0540348589
 25
111.2943262758
 35
0.0
 16
199.9473267946
 26
118.7848072713
 36
0.0
  0
DIMENSION
  5
215
330
1F
100
AcDbEntity
  8
VERMASSUNG
100
AcDbDimension
  2
_D_2
 10
238.8070463748
 20
104.2943262758
 30
0.0
 11
238.8070463748
 21
111.2943262758
 31
0.0
 70
   160
  1
%%c<>
 71
     2
 42
-1.0
  3
SLDDIMSTYLE2
100
AcDbAlignedDimension
 13
215.5590348589
 23
118.2943262758
 33
0.0
 14
215.5590348589
 24
104.2943262758
 34
0.0
 50
90.0
100
AcDbRotatedDimension
  0
DIMENSION
  5
21F
330
1F
100
AcDbEntity
  8
VERMASSUNG
100
AcDbDimension
  2
_D_3
 10
256.9685435872
 20
94.2943262758
 30
0.0
 11
256.9685435872
 21
111.2943262758
 31
0.0
 70
   160
  1
%%c<>
 71
     2
 42
-1.0
  3
SLDDIMSTYLE0
100
AcDbAlignedDimension
 13
174.5873182823
 23
128.2943262758
 33
0.0
 14
174.5873182823
 24
94.2943262758
 34
0.0
 50
90.0
100
AcDbRotatedDimension
  0
DIMENSION
  5
22A
330
1F
100
AcDbEntity
  8
VERMASSUNG
100
AcDbDimension
  2
_D_4
 10
183.0590348589
 20
140.8178263797
 30
0.0
 11
201.0590348589
 21
140.8178263797
 31
0.0
 70
   160
  1
<> min.
 71
     2
 42
-1.0
  3
SLDDIMSTYLE0
100
AcDbAlignedDimension
 13
219.0590348589
 23
122.9455452925
 33
0.0
 14
183.0590348589
 24
118.2943262758
 34
0.0
 50
0.0
100
AcDbRotatedDimension
  0
DIMENSION
  5
235
330
1F
100
AcDbEntity
  8
VERMASSUNG
100
AcDbDimension
  2
_D_5
 10
172.5590348589
 20
149.2326313734
 30
0.0
 11
195.8090348589
 21
149.2326313734
 31
0.0
 70
   160
  1
<> max.
 71
     2
 42
-1.0
  3
SLDDIMSTYLE0
100
AcDbAlignedDimension
 13
219.0590348589
 23
122.9455452925
 33
0.0
 14
172.5590348589
 24
118.1943262758
 34
0.0
 50
0.0
100
AcDbRotatedDimension
  0
DIMENSION
  5
240
330
1F
100
AcDbEntity
  8
VERMASSUNG
100
AcDbDimension
  2
_D_6
 10
219.0590348589
 20
80.9702351586
 30
0.0
 11
196.8231765706
 21
80.9702351586
 31
0.0
 70
   160
  1
<>
 71
     2
 42
-1.0
  3
SLDDIMSTYLE3
100
AcDbAlignedDimension
 13
174.5873182823
 23
94.2943262758
 33
0.0
 14
219.0590348589
 24
99.6431072591
 34
0.0
 50
0.0
100
AcDbRotatedDimension
  0
DIMENSION
  5
24B
330
1F
100
AcDbEntity
  8
VERMASSUNG
100
AcDbDimension
  2
_D_7
 10
219.0590348589
 20
73.0916241424
 30
0.0
 11
188.0590348589
 21
73.0916241424
 31
0.0
 70
   160
  1
<>
 71
     2
 42
-1.0
  3
SLDDIMSTYLE0
100
AcDbAlignedDimension
 13
157.0590348589
 23
79.8193262758
 33
0.0
 14
219.0590348589
 24
99.6431072591
 34
0.0
 50
0.0
100
AcDbRotatedDimension
  0
DIMENSION
  5
255
330
1F
100
AcDbEntity
  8
VERMASSUNG
100
AcDbDimension
  2
_D_8
 10
219.0590348589
 20
158.7693262758
 30
0.0
 11
179.0590348589
 21
158.7693262758
 31
0.0
 70
   160
  1
<>
 71
     2
 42
-1.0
  3
SLDDIMSTYLE0
100
AcDbAlignedDimension
 13
139.0590348589
 23
142.5693262758
 33
0.0
 14
219.0590348589
 24
122.9455452925
 34
0.0
 50
0.0
100
AcDbRotatedDimension
  0
DIMENSION
  5
25F
330
1F
100
AcDbEntity
  8
VERMASSUNG
100
AcDbDimension
  2
_D_9
 10
99.1090348589
 20
166.7894467306
 30
0.0
 11
159.0840348589
 21
166.7894467306
 31
0.0
 70
   160
  1
<>
 71
     2
 42
-1.0
  3
SLDDIMSTYLE0
100
AcDbAlignedDimension
 13
219.0590348589
 23
122.9455452925
 33
0.0
 14
99.1090348589
 24
133.4974209996
 34
0.0
 50
0.0
100
AcDbRotatedDimension
  0
DIMENSION
  5
269
330
1F
100
AcDbEntity
  8
VERMASSUNG
100
AcDbDimension
  2
_D_10
 10
80.1112601601
 20
79.8193262758
 30
0.0
 11
80.1112601601
 21
111.2943262758
 31
0.0
 70
   160
  1
KM%%c<> XMZ
 71
     2
 42
-1.0
  3
SLDDIMSTYLE0
100
AcDbAlignedDimension
 13
139.2590348589
 23
142.7693262758
 33
0.0
 14
139.2590348589
 24
79.8193262758
 34
0.0
 50
90.0
100
AcDbRotatedDimension
  0
LINE
  5
276
330
1F
100
AcDbEntity
  8
0
  6
Continuous
 62
     7
370
    25
100
AcDbLine
 10
258.7152096385
 20
27.7925071904
 30
0.0
 11
274.5773927367
 21
20.5693881397
 31
0.0
  0
LINE
  5
277
330
1F
100
AcDbEntity
  8
0
  6
Continuous
 62
     7
370
    25
100
AcDbLine
 10
281.3887913519
 20
32.3683552956
 30
0.0
 11
267.2013452187
 21
42.4925183019
 31
0.0
  0
SPLINE
  5
278
330
1F
100
AcDbEntity
  8
0
  6
Continuous
 62
     7
370
    25
100
AcDbSpline
210
0.0
220
0.0
230
1.0
 70
     8
 71
     3
 72
    32
 73
    28
 74
     0
 42
0.000000001
 43
0.00000001
 40
0.0
 40
0.0
 40
0.0
 40
0.0
 40
0.022542090860687
 40
0.0601752792657488
 40
0.0982428092346008
 40
0.1372608516777027
 40
0.1774687430943131
 40
0.2187674639842252
 40
0.2608026843515694
 40
0.3031701730593288
 40
0.345534846216307
 40
0.3877847134335939
 40
0.4299085727252486
 40
0.4719388422484797
 40
0.5139270659928598
 40
0.5559329086405308
 40
0.5980019517535253
 40
0.6401961109363671
 40
0.6825789734213089
 40
0.72520434763149
 40
0.7680951735618339
 40
0.8111995430984327
 40
0.8542176197880598
 40
0.8966689263368721
 40
0.9380073675041248
 40
0.9779253766588306
 40
1.0
 40
1.0
 40
1.0
 40
1.0
 10
274.5881194388864
 20
20.57814797002191
 30
0.0
 10
274.6878495680365
 20
20.53154753308908
 30
0.0
 10
274.9540754656211
 20
20.40714938725294
 30
0.0
 10
275.4311316113091
 20
20.31029524988346
 30
0.0
 10
276.0014037864918
 20
20.27768460947947
 30
0.0
 10
276.5962482452129
 20
20.34345770210171
 30
0.0
 10
277.2090433301362
 20
20.50304168163007
 30
0.0
 10
277.8335200193228
 20
20.7581930639332
 30
0.0
 10
278.4594718471948
 20
21.10595689977893
 30
0.0
 10
279.0752559454814
 20
21.54023489501247
 30
0.0
 10
279.6698680712701
 20
22.05218588914498
 30
0.0
 10
280.2339560702671
 20
22.63199720243164
 30
0.0
 10
280.7598507747855
 20
23.26993091821374
 30
0.0
 10
281.2406706044172
 20
23.95621702097725
 30
0.0
 10
281.6700842021181
 20
24.68091216902415
 30
0.0
 10
282.042148819902
 20
25.43381955661735
 30
0.0
 10
282.3513964982196
 20
26.2046304531531
 30
0.0
 10
282.5928198532119
 20
26.98309221845766
 30
0.0
 10
282.7618607618621
 20
27.75919780043089
 30
0.0
 10
282.8541755406758
 20
28.52312782678579
 30
0.0
 10
282.8654929059934
 20
29.2648772067824
 30
0.0
 10
282.7918064484639
 20
29.97323803371591
 30
0.0
 10
282.6299487904085
 20
30.63440315506308
 30
0.0
 10
282.3813026627289
 20
31.23461563148217
 30
0.0
 10
282.0471032328502
 20
31.75279484719828
 30
0.0
 10
281.7068484222749
 20
32.1359675940416
 30
0.0
 10
281.4567265165524
 20
32.30643318624553
 30
0.0
 10
281.3676619513629
 20
32.36713336284768
 30
0.0
  0
SPLINE
  5
279
330
1F
100
AcDbEntity
  8
0
  6
Continuous
 62
     7
370
    25
100
AcDbSpline
210
0.0
220
0.0
230
1.0
 70
     8
 71
     3
 72
    12
 73
     8
 74
     0
 42
0.000000001
 43
0.00000001
 40
0.0
 40
0.0
 40
0.0
 40
0.0
 40
0.0618783565107963
 40
0.3227643683710922
 40
0.5746072843938471
 40
0.819894856279373
 40
1.0
 40
1.0
 40
1.0
 40
1.0
 10
276.2151728424137
 20
23.17284127829447
 30
0.0
 10
276.193490294398
 20
23.18809560098455
 30
0.0
 10
276.0803917198791
 20
23.26766383947084
 30
0.0
 10
275.928204416471
 20
23.49740773878268
 30
0.0
 10
275.7712613271271
 20
23.86233370461999
 30
0.0
 10
275.6894803588432
 20
24.25997880944688
 30
0.0
 10
275.6804836529951
 20
24.54385849963983
 30
0.0
 10
275.6766745774272
 20
24.66404906832109
 30
0.0
  0
SPLINE
  5
27A
330
1F
100
AcDbEntity
  8
0
  6
Continuous
 62
     7
370
    25
100
AcDbSpline
210
0.0
220
0.0
230
1.0
 70
     8
 71
     3
 72
    17
 73
    13
 74
     0
 42
0.000000001
 43
0.00000001
 40
0.0
 40
0.0
 40
0.0
 40
0.0
 40
0.022587423828824
 40
0.1403172589820065
 40
0.2578755938526555
 40
0.3751457492468103
 40
0.4920274973684219
 40
0.608484709036028
 40
0.7246659384449247
 40
0.8409477601939653
 40
0.958402668211904
 40
1.0
 40
1.0
 40
1.0
 40
1.0
 10
276.6302687569549
 20
27.58611749912891
 30
0.0
 10
276.6505613239851
 20
27.6206250735061
 30
0.0
 10
276.776622507631
 20
27.83499251476104
 30
0.0
 10
277.0537056437167
 20
28.19411366482672
 30
0.0
 10
277.4510576044816
 20
28.64361423860186
 30
0.0
 10
277.8746247361893
 20
29.02456624326365
 30
0.0
 10
278.306163538613
 20
29.33069050624827
 30
0.0
 10
278.7334230138216
 20
29.55311234782015
 30
0.0
 10
279.1437023541982
 20
29.68976250610485
 30
0.0
 10
279.5210800187905
 20
29.73329541343278
 30
0.0
 10
279.7940030394416
 20
29.71676945170322
 30
0.0
 10
279.9236542441349
 20
29.65995532305386
 30
0.0
 10
279.9575622493596
 20
29.64509658128095
 30
0.0
  0
SPLINE
  5
27B
330
1F
100
AcDbEntity
  8
0
  6
Continuous
 62
     7
370
    25
100
AcDbSpline
210
0.0
220
0.0
230
1.0
 70
     8
 71
     3
 72
    13
 73
     9
 74
     0
 42
0.000000001
 43
0.00000001
 40
0.0
 40
0.0
 40
0.0
 40
0.0
 40
0.0974810737952007
 40
0.2843960297813817
 40
0.4718235810861114
 40
0.6596600888846572
 40
0.8478129697849461
 40
1.0
 40
1.0
 40
1.0
 40
1.0
 10
275.6766745774272
 20
24.66404906832109
 30
0.0
 10
275.6785688612012
 20
24.75143596592657
 30
0.0
 10
275.6840953368915
 20
25.00638275473733
 30
0.0
 10
275.7465773638512
 20
25.46043506040283
 30
0.0
 10
275.8863836340851
 20
26.02236484130038
 30
0.0
 10
276.0948757794874
 20
26.59250587686457
 30
0.0
 10
276.3420602972467
 20
27.12236201873894
 30
0.0
 10
276.5412145633967
 20
27.44282062867577
 30
0.0
 10
276.6302687569549
 20
27.58611749912891
 30
0.0
  0
LINE
  5
27C
330
1F
100
AcDbEntity
  8
0
  6
Continuous
 62
     7
370
    25
100
AcDbLine
 10
246.9714641237
 20
26.1998957318
 30
0.0
 11
248.6564292727
 21
25.227186056
 31
0.0
  0
LINE
  5
27D
330
1F
100
AcDbEntity
  8
0
  6
Continuous
 62
     7
370
    25
100
AcDbLine
 10
264.3926505872
 20
52.4860744498
 30
0.0
 11
262.7076854382
 21
53.4587841256
 31
0.0
  0
LINE
  5
27E
330
1F
100
AcDbEntity
  8
0
  6
Continuous
 62
     7
370
    25
100
AcDbLine
 10
242.3631791923
 20
28.8602019965
 30
0.0
 11
244.6138301687
 21
27.5609288436
 31
0.0
  0
LINE
  5
27F
330
1F
100
AcDbEntity
  8
0
  6
Continuous
 62
     7
370
    25
100
AcDbLine
 10
260.3500514832
 20
54.8198172374
 30
0.0
 11
258.0994005068
 21
56.1190903903
 31
0.0
  0
LINE
  5
280
330
1F
100
AcDbEntity
  8
0
  6
Continuous
 62
     7
370
    25
100
AcDbLine
 10
253.3355457233
 20
30.8829087655
 30
0.0
 11
258.4720697377
 21
27.9176565691
 31
0.0
  0
LINE
  5
281
330
1F
100
AcDbEntity
  8
0
  6
Continuous
 62
     7
370
    25
100
AcDbLine
 10
266.9713788423
 20
42.6404871754
 30
0.0
 11
261.8348548279
 21
45.6057393718
 31
0.0
  0
LINE
  5
282
330
1F
100
AcDbEntity
  8
0
  6
Continuous
 62
     7
370
    25
100
AcDbLine
 10
251.3220113166
 20
55.8989722979
 30
0.0
 11
242.124799133
 21
60.4796249078
 31
0.0
  0
LINE
  5
283
330
1F
100
AcDbEntity
  8
0
  6
Continuous
 62
     7
370
    25
100
AcDbLine
 10
230.5984513433
 20
40.5132414521
 30
0.0
 11
239.164551349
 21
34.8393518557
 31
0.0
  0
LINE
  5
284
330
1F
100
AcDbEntity
  8
0
  6
Continuous
 62
     7
370
    25
100
AcDbLine
 10
235.577888785
 20
41.4597313178
 30
0.0
 11
235.577888785
 21
41.0944126127
 31
0.0
  0
LINE
  5
285
330
1F
100
AcDbEntity
  8
0
  6
Continuous
 62
     7
370
    25
100
AcDbLine
 10
239.4758555453
 20
60.8565932845
 30
0.0
 11
238.8363054366
 21
60.769381529
 31
0.0
  0
LWPOLYLINE
  5
286
330
1F
100
AcDbEntity
  8
0
  6
Continuous
 62
     7
370
    25
100
AcDbPolyline
 90
       22
 70
   128
 43
0.0
 10
256.7113163233
 20
31.8093372085
 10
256.7519570805
 20
32.6385527781
 10
256.8733281504
 20
33.5034764825
 10
257.0737884401
 20
34.3924117961
 10
257.3506277097
 20
35.2933379559
 10
257.7001018042
 20
36.1940711769
 10
258.1174850085
 20
37.0824308079
 10
258.5971322789
 20
37.9464030155
 10
259.1325576106
 20
38.7743038959
 10
259.7165203067
 20
39.5549378335
 10
260.3411234307
 20
40.277748253
 10
260.9979199969
 20
40.9329599114
 10
261.6780279686
 20
41.5117125859
 10
262.3722501543
 20
42.0061789583
 10
263.0711984258
 20
42.4096732068
 10
263.7654206115
 20
42.7167387089
 10
264.4455285831
 20
42.9232219843
 10
265.1023251493
 20
43.0263314999
 10
265.7269282734
 20
43.0246724973
 10
266.3108909695
 20
42.9182675373
 10
266.8463163012
 20
42.7085555863
 10
267.2013452187
 20
42.4925183019
  0
LWPOLYLINE
  5
287
330
1F
100
AcDbEntity
  8
0
  6
Continuous
 62
     7
370
    25
100
AcDbPolyline
 90
        9
 70
   128
 43
0.0
 10
258.7152096385
 20
27.7925071904
 10
258.5971322789
 20
27.8495881583
 10
258.1174850085
 20
28.1597714152
 10
257.7001018042
 20
28.5662306561
 10
257.3506277097
 20
29.0634696761
 10
257.0737884401
 20
29.6447640189
 10
256.8733281504
 20
30.3022528084
 10
256.7519570805
 20
31.0270444584
 10
256.7113163233
 20
31.8093372085
  0
LINE
  5
288
330
1F
100
AcDbEntity
  8
0
  6
Continuous
 62
     7
370
    25
100
AcDbLine
 10
279.9347744691
 20
29.6637763761
 30
0.0
 11
279.9667767688
 21
29.6530966644
 31
0.0
  0
LWPOLYLINE
  5
289
330
1F
100
AcDbEntity
  8
0
  6
Continuous
 62
     7
370
    25
100
AcDbPolyline
 90
       17
 70
   128
 43
0.0
 10
279.2630435952
 20
29.6948245058
 10
279.3115931427
 20
29.63586573
 10
279.5151640673
 20
29.2812880297
 10
279.6401474185
 20
28.846185824
 10
279.6822868584
 20
28.3453759911
 10
279.6401474185
 20
27.7959129965
 10
279.5151640673
 20
27.2165080851
 10
279.3115931427
 20
26.6268923981
 10
279.0363668133
 20
26.0471442619
 10
278.6988576492
 20
25.4970066003
 10
278.3105592278
 20
24.9952136687
 10
277.8846943819
 20
24.558853301
 10
277.4357655786
 20
24.2027852923
 10
276.9790605171
 20
23.9391350723
 10
276.5301317138
 20
23.7768809175
 10
276.1042668679
 20
23.7215482
 10
275.7937376138
 20
23.7547967335
  0
LWPOLYLINE
  5
28A
330
1F
100
AcDbEntity
  8
0
  6
Continuous
 62
     7
370
    25
100
AcDbPolyline
 90
       41
 70
   128
 43
0.0
 10
245.3964469315
 20
32.4325189059
 10
245.4376415247
 20
33.56097448
 10
245.5609190809
 20
34.7286367616
 10
245.7653675162
 20
35.9268614646
 10
246.0494734951
 20
37.146777361
 10
246.411132968
 20
38.3793522502
 10
246.8476682929
 20
39.6154604486
 10
247.3558479919
 20
40.8459508489
 10
247.9319098003
 20
42.0617134587
 10
248.5715883252
 20
43.2537459384
 10
249.2701473145
 20
44.4132243209
 10
250.0224152184
 20
45.5315630853
 10
250.8228233843
 20
46.6004835945
 10
251.6654445824
 20
47.6120705565
 10
252.5440407499
 20
48.5588360882
 10
253.4521071134
 20
49.4337695224
 10
254.3829207567
 20
50.2303928214
 10
255.3295903407
 20
50.9428098123
 10
256.2851067911
 20
51.5657445742
 10
257.2423959198
 20
52.094585504
 10
258.1943704091
 20
52.5254176077
 10
259.1339818777
 20
52.855050276
 10
260.0542739554
 20
53.081043361
 10
260.948433176
 20
53.2017243884
 10
261.8098396855
 20
53.2161995802
 10
262.6321154803
 20
53.1243611687
 10
263.409172975
 20
52.9268895791
 10
264.1352591248
 20
52.6252462003
 10
264.8049975723
 20
52.2216650164
 10
265.4134307945
 20
51.7191343512
 10
265.956054347
 20
51.1213740515
 10
266.428849791
 20
50.4328096278
 10
266.8283169627
 20
49.6585387913
 10
267.151498997
 20
48.8042953294
 10
267.3960020849
 20
47.8764019554
 10
267.5600172044
 20
46.8817298111
 10
267.642329341
 20
45.8276425253
 10
267.642329341
 20
44.7219444056
 10
267.5600172044
 20
43.5728215498
 10
267.3960020849
 20
42.3887815793
 10
267.3906296788
 20
42.3574451187
  0
LWPOLYLINE
  5
28B
330
1F
100
AcDbEntity
  8
0
  6
Continuous
 62
     7
370
    25
100
AcDbPolyline
 90
       22
 70
   128
 43
0.0
 10
258.9268375259
 20
27.6961387114
 10
258.1943704091
 20
27.1157881317
 10
257.2423959198
 20
26.4474938856
 10
256.2851067911
 20
25.8710723136
 10
255.3295903407
 20
25.3907912646
 10
254.3829207567
 20
25.010206819
 10
253.4521071134
 20
24.7321355609
 10
252.5440407499
 20
24.5586378883
 10
251.6654445824
 20
24.4909978773
 10
250.8228233843
 20
24.529715112
 10
250.0224152184
 20
24.6745040236
 10
249.2701473145
 20
24.9242927538
 10
248.5715883252
 20
25.2772320949
 10
247.9319098003
 20
25.7307074703
 10
247.3558479919
 20
26.2813632734
 10
246.8476682929
 20
26.9251218822
 10
246.411132968
 20
27.6572171226
 10
246.0494734951
 20
28.4722288725
 10
245.7653675162
 20
29.3641229878
 10
245.5609190809
 20
30.3262965519
 10
245.4376415247
 20
31.3516255968
 10
245.3964469315
 20
32.4325189059
  0
SPLINE
  5
28C
330
1F
100
AcDbEntity
  8
0
  6
Continuous
 62
     7
370
    25
100
AcDbSpline
210
0.0
220
0.0
230
1.0
 70
     8
 71
     3
 72
    25
 73
    21
 74
     0
 42
0.000000001
 43
0.00000001
 40
0.0
 40
0.0
 40
0.0
 40
0.0
 40
0.1249999999999998
 40
0.1249999999999998
 40
0.2499999999999997
 40
0.2499999999999997
 40
0.3749999999999995
 40
0.3749999999999995
 40
0.4999999999999993
 40
0.4999999999999993
 40
0.5624999999999996
 40
0.5624999999999996
 40
0.6249999999999998
 40
0.6875000000000001
 40
0.6875000000000001
 40
0.7500000000000003
 40
0.7500000000000003
 40
0.8750000000000001
 40
0.8750000000000001
 40
1.0
 40
1.0
 40
1.0
 40
1.0
 10
250.2300360800472
 20
48.8643333603877
 30
0.0
 10
250.2591593783083
 20
48.75314783985851
 30
0.0
 10
250.2715484191675
 20
48.63790562743048
 30
0.0
 10
250.2645709340672
 20
48.39881005959469
 30
0.0
 10
250.2445533462152
 20
48.27403608971942
 30
0.0
 10
250.174331188502
 20
48.027667180507
 30
0.0
 10
250.1236805339083
 20
47.90345603314588
 30
0.0
 10
249.9937657902531
 20
47.65982753783572
 30
0.0
 10
249.9160648422639
 20
47.54277044277755
 30
0.0
 10
249.7806912600377
 20
47.37411392492752
 30
0.0
 10
249.7320567627307
 20
47.31874690365535
 30
0.0
 10
249.6306174273486
 20
47.21302709225834
 30
0.0
 10
249.5247474446079
 20
47.1118661336379
 30
0.0
 10
249.4101556522804
 20
47.0196918119611
 30
0.0
 10
249.2910729830622
 20
46.93215496922098
 30
0.0
 10
249.2291149700048
 20
46.89065649970879
 30
0.0
 10
249.0412512664842
 20
46.77653617797069
 30
0.0
 10
248.9118738301302
 20
46.71292874685609
 30
0.0
 10
248.6441905770681
 20
46.61166044588186
 30
0.0
 10
248.5083188906031
 20
46.57511953765707
 30
0.0
 10
248.3728016238755
 20
46.553951353307
 30
0.0
  0
LWPOLYLINE
  5
28D
330
1F
100
AcDbEntity
  8
0
  6
Continuous
 62
     7
370
    25
100
AcDbPolyline
 90
       15
 70
   128
 43
0.0
 10
250.2300361918
 20
48.8643333929
 10
251.1349850056
 20
49.8080631556
 10
252.0684152108
 20
50.6750758899
 10
253.0231499894
 20
51.4587060518
 10
253.9918496159
 20
52.1529294199
 10
254.9670665899
 20
52.7524063307
 10
255.9413034438
 20
53.2525317797
 10
256.90707016
 20
53.649458682
 10
257.8569417521
 20
53.9401349155
 10
258.7836156199
 20
54.1223265452
 10
259.6799674645
 20
54.1946333718
 10
260.539106276
 20
54.1564986227
 10
261.3544265237
 20
54.0082155058
 10
262.1196605103
 20
53.7509247332
 10
262.7076854382
 20
53.4587841256
  0
LWPOLYLINE
  5
28E
330
1F
100
AcDbEntity
  8
0
  6
Continuous
 62
     7
370
    25
100
AcDbPolyline
 90
       21
 70
   128
 43
0.0
 10
246.9714641237
 20
26.1998957318
 10
246.3453042004
 20
26.6241019034
 10
245.7527577059
 20
27.1657546122
 10
245.2289500872
 20
27.8032032257
 10
244.777844465
 20
28.5316271777
 10
244.4028527586
 20
29.3455146936
 10
244.1068119776
 20
30.2387095598
 10
243.8919611733
 20
31.2044542832
 10
243.7599256336
 20
32.2354437998
 10
243.7117056876
 20
33.3238796946
 10
243.7476635349
 20
34.4615267739
 10
243.8675298306
 20
35.6397805324
 10
244.0703957833
 20
36.8497267787
 10
244.354727643
 20
38.0822127252
 10
244.7183746032
 20
39.3279156791
 10
245.1585852651
 20
40.5774114818
 10
245.6720300274
 20
41.8212482723
 10
246.2548247948
 20
43.0500172076
 10
246.9025606118
 20
44.2544220427
 10
247.6103372486
 20
45.4253525117
 10
248.3728013971
 20
46.5539508649
  0
LWPOLYLINE
  5
28F
330
1F
100
AcDbEntity
  8
0
  6
Continuous
 62
     7
370
    25
100
AcDbPolyline
 90
       12
 70
   128
 43
0.0
 10
248.5674147994
 20
48.9886098735
 10
249.4385740237
 20
49.9185565651
 10
250.3401682118
 20
50.7713223529
 10
251.2644881123
 20
51.5396149309
 10
252.2036298741
 20
52.2168646416
 10
253.1495630304
 20
52.797280452
 10
254.0941987924
 20
53.2759000254
 10
255.029459669
 20
53.6486291518
 10
255.9473483885
 20
53.9122822957
 10
256.8400160058
 20
54.0646036624
 10
257.6998291668
 20
54.1042915805
 10
258.3679653756
 20
54.0534965065
  0
SPLINE
  5
290
330
1F
100
AcDbEntity
  8
0
  6
Continuous
 62
     7
370
    25
100
AcDbSpline
210
0.0
220
0.0
230
1.0
 70
     8
 71
     3
 72
    26
 73
    22
 74
     0
 42
0.000000001
 43
0.00000001
 40
0.0
 40
0.0
 40
0.0
 40
0.0
 40
0.1250000000000009
 40
0.1250000000000009
 40
0.2500000000000019
 40
0.2500000000000019
 40
0.3125000000000011
 40
0.3125000000000011
 40
0.3750000000000004
 40
0.3750000000000004
 40
0.4375000000000002
 40
0.4375000000000002
 40
0.5000000000000001
 40
0.5000000000000001
 40
0.5625
 40
0.5625
 40
0.6249999999999999
 40
0.6249999999999999
 40
0.7500000000000001
 40
0.7500000000000001
 40
1.0
 40
1.0
 40
1.0
 40
1.0
 10
247.2232215944197
 20
47.31644658726252
 30
0.0
 10
247.1995839981876
 20
47.42602244683551
 30
0.0
 10
247.1820162193059
 20
47.53691170520004
 30
0.0
 10
247.1632036364365
 20
47.76224166506299
 30
0.0
 10
247.162023861669
 20
47.87791857838136
 30
0.0
 10
247.1781218649045
 20
48.04927408824092
 30
0.0
 10
247.1864405820047
 20
48.10607260033508
 30
0.0
 10
247.2101977312616
 20
48.21889881273217
 30
0.0
 10
247.2258201103106
 20
48.27535166639832
 30
0.0
 10
247.2646773227077
 20
48.38393478280692
 30
0.0
 10
247.2879032794101
 20
48.43631474303246
 30
0.0
 10
247.3429019288885
 20
48.53677151830457
 30
0.0
 10
247.3749801959111
 20
48.58505038607601
 30
0.0
 10
247.4453949444462
 20
48.67274736165976
 30
0.0
 10
247.4839733665729
 20
48.71273648963572
 30
0.0
 10
247.5676816301691
 20
48.78521517375131
 30
0.0
 10
247.612810340111
 20
48.81755179812792
 30
0.0
 10
247.752090982301
 20
48.90075156548157
 30
0.0
 10
247.8528800538627
 20
48.93958028811767
 30
0.0
 10
248.1559523250954
 20
49.01499657557284
 30
0.0
 10
248.3644764155805
 20
49.01486642920208
 30
0.0
 10
248.5674148352709
 20
48.98861019987585
 30
0.0
  0
LWPOLYLINE
  5
291
330
1F
100
AcDbEntity
  8
0
  6
Continuous
 62
     7
370
    25
100
AcDbPolyline
 90
       18
 70
   128
 43
0.0
 10
244.2862429655
 20
29.6605952972
 10
243.9597168421
 20
30.1299623396
 10
243.5598433485
 20
30.8730029045
 10
243.2384650675
 20
31.6993752321
 10
242.9982543728
 20
32.602205818
 10
242.8412092883
 20
33.5739865197
 10
242.7686363664
 20
34.6066352289
 10
242.7811381754
 20
35.6915629121
 10
242.8786113236
 20
36.8197467106
 10
243.0602458015
 20
37.9818038479
 10
243.3245295907
 20
39.1680690301
 10
243.6692651283
 20
40.3686764079
 10
244.0915864285
 20
41.5736411823
 10
244.5879794979
 20
42.7729415426
 10
245.1543165796
 20
43.9566017438
 10
245.785887763
 20
45.1147795565
 10
246.4774398388
 20
46.2378415495
 10
247.2232217378
 20
47.3164463562
  0
LINE
  5
292
330
1F
100
AcDbEntity
  8
0
  6
Continuous
 62
     7
370
    25
100
AcDbLine
 10
245.7478293235
 20
27.0725254122
 30
0.0
 11
245.8660326297
 21
27.1283878637
 31
0.0
  0
LWPOLYLINE
  5
293
330
1F
100
AcDbEntity
  8
0
  6
Continuous
 62
     7
370
    25
100
AcDbPolyline
 90
       41
 70
   128
 43
0.0
 10
245.7478293235
 20
27.0725254122
 10
245.011480416
 20
27.3534806005
 10
244.3303919539
 20
27.7367900494
 10
243.7096031197
 20
28.2196205618
 10
243.1537052856
 20
28.7983990522
 10
242.6668117207
 20
29.468844489
 10
242.2525233464
 20
30.2259979361
 10
241.9139050287
 20
31.0642575362
 10
241.6534612125
 20
31.9774231904
 10
241.4731194576
 20
32.9587399063
 10
241.3742126579
 20
34.0009481325
 10
241.3574737736
 20
35.0963391068
 10
241.4230239768
 20
36.2368083983
 10
241.5703818716
 20
37.4139216396
 10
241.7984549325
 20
38.6189698506
 10
242.1055572856
 20
39.8430395188
 10
242.4894169524
 20
41.077076216
 10
242.9471936304
 20
42.3119504713
 10
243.4755017423
 20
43.5385283025
 10
244.070433485
 20
44.747736233
 10
244.727587147
 20
45.9306293508
 10
245.4421020113
 20
47.0784570854
 10
246.2086932581
 20
48.1827297446
 10
247.0216888437
 20
49.2352770671
 10
247.8750755982
 20
50.2283143784
 10
248.7625410432
 20
51.1544948684
 10
249.6775194898
 20
52.006968143
 10
250.6132434056
 20
52.7794281283
 10
251.5627905822
 20
53.466160833
 10
252.5191368886
 20
54.062085448
 10
253.4752081139
 20
54.5627934007
 10
254.4239317805
 20
54.9645828285
 10
255.3582900396
 20
55.26448075
 10
256.2713712196
 20
55.4602674996
 10
257.1564204647
 20
55.5504960751
 10
258.0068915134
 20
55.5344984536
 10
258.8164929606
 20
55.4123932874
 10
259.5792356734
 20
55.1850836178
 10
260.2894779008
 20
54.8542509774
 10
260.9419651164
 20
54.4223426487
 10
261.4400894994
 20
53.985514921
  0
LWPOLYLINE
  5
294
330
1F
100
AcDbEntity
  8
0
  6
Continuous
 62
     7
370
    25
100
AcDbPolyline
 90
       27
 70
   128
 43
0.0
 10
239.1031967328
 20
36.1471755872
 10
239.1441292252
 20
37.268460401
 10
239.2666237721
 20
38.4287034901
 10
239.4697735575
 20
39.6193143703
 10
239.7520738074
 20
40.8314782774
 10
240.11143496
 20
42.0562209948
 10
240.5451971539
 20
43.2844753926
 10
241.0501473507
 20
44.5071466363
 10
241.6225483101
 20
45.7151836669
 10
242.2581622984
 20
46.8996415571
 10
242.9522826977
 20
48.0517522311
 10
243.6997708855
 20
49.1629849183
 10
244.4950924536
 20
50.2251134503
 10
245.3323596849
 20
51.2302727218
 10
246.2053730414
 20
52.1710221851
 10
247.1076692379
 20
53.0403956561
 10
248.0325684929
 20
53.8319574887
 10
248.9732226022
 20
54.5398478184
 10
249.9226674574
 20
55.1588235267
 10
250.8738737545
 20
55.6843050052
 10
251.8197990186
 20
56.1123985842
 10
252.7534401227
 20
56.439937498
 10
253.6678844898
 20
56.6644947122
 10
254.5563621176
 20
56.7844083954
 10
255.4122948052
 20
56.7987913243
 10
256.2293453786
 20
56.7075364881
 10
256.9236949515
 20
56.5364964633
  0
LWPOLYLINE
  5
295
330
1F
100
AcDbEntity
  8
0
  6
Continuous
 62
     7
370
    25
100
AcDbPolyline
 90
        3
 70
   128
 43
0.0
 10
239.1773923083
 20
34.7133072887
 10
239.1441292252
 20
35.0731504232
 10
239.1131460232
 20
35.611382919
  0
SPLINE
  5
296
330
1F
100
AcDbEntity
  8
0
  6
Continuous
 62
     7
370
    25
100
AcDbSpline
210
0.0
220
0.0
230
1.0
 70
     8
 71
     3
 72
    10
 73
     6
 74
     0
 42
0.000000001
 43
0.00000001
 40
0.0
 40
0.0
 40
0.0
 40
0.0
 40
0.5
 40
0.5
 40
1.0
 40
1.0
 40
1.0
 40
1.0
 10
247.949909662051
 20
45.8533933064428
 30
0.0
 10
247.8459451712667
 20
45.92673167951318
 30
0.0
 10
247.7561368948393
 20
46.01396743730658
 30
0.0
 10
247.6040944668407
 20
46.21489797850258
 30
0.0
 10
247.5421888784797
 20
46.32906874469955
 30
0.0
 10
247.4977391738893
 20
46.45208642785965
 30
0.0
  0
SPLINE
  5
297
330
1F
100
AcDbEntity
  8
0
  6
Continuous
 62
     7
370
    25
100
AcDbSpline
210
0.0
220
0.0
230
1.0
 70
     8
 71
     3
 72
    14
 73
    10
 74
     0
 42
0.000000001
 43
0.00000001
 40
0.0
 40
0.0
 40
0.0
 40
0.0
 40
0.25
 40
0.25
 40
0.5
 40
0.5
 40
0.75
 40
0.75
 40
1.0
 40
1.0
 40
1.0
 40
1.0
 10
247.4977391738893
 20
46.45208642785965
 30
0.0
 10
247.4750183710241
 20
46.51496784751719
 30
0.0
 10
247.4531038606747
 20
46.5840142769906
 30
0.0
 10
247.4109928066119
 20
46.73166679360938
 30
0.0
 10
247.3914712526988
 20
46.80806658046768
 30
0.0
 10
247.3531250105251
 20
46.96239887186329
 30
0.0
 10
247.3347654176413
 20
47.03935146819494
 30
0.0
 10
247.2927619730596
 20
47.18474163571091
 30
0.0
 10
247.2689856520466
 20
47.25133254190395
 30
0.0
 10
247.2405241479444
 20
47.29182815713529
 30
0.0
  0
LINE
  5
298
330
1F
100
AcDbEntity
  8
0
  6
Continuous
 62
     7
370
    25
100
AcDbLine
 10
247.2405243362
 20
47.2918285489
 30
0.0
 11
247.2232217378
 21
47.3164463562
 31
0.0
  0
LINE
  5
299
330
1F
100
AcDbEntity
  8
0
  6
Continuous
 62
     7
370
    25
100
AcDbLine
 10
248.5674147994
 20
48.9886098735
 30
0.0
 11
248.5847173978
 21
48.9639920661
 31
0.0
  0
SPLINE
  5
29A
330
1F
100
AcDbEntity
  8
0
  6
Continuous
 62
     7
370
    25
100
AcDbSpline
210
0.0
220
0.0
230
1.0
 70
     8
 71
     3
 72
    16
 73
    12
 74
     0
 42
0.000000001
 43
0.00000001
 40
0.0
 40
0.0
 40
0.0
 40
0.0
 40
0.1250000000000001
 40
0.1250000000000001
 40
0.2500000000000003
 40
0.2500000000000003
 40
0.5000000000000002
 40
0.5000000000000002
 40
0.7500000000000001
 40
0.7500000000000001
 40
1.0
 40
1.0
 40
1.0
 40
1.0
 10
248.5847173887956
 20
48.96399176974857
 30
0.0
 10
248.5988697951997
 20
48.94385543393578
 30
0.0
 10
248.6205281996734
 20
48.92705801325835
 30
0.0
 10
248.6729461287087
 20
48.90021249192687
 30
0.0
 10
248.7035390078471
 20
48.88998700736588
 30
0.0
 10
248.8026198567046
 20
48.86548656693319
 30
0.0
 10
248.8765023943204
 20
48.85722664453169
 30
0.0
 10
249.0296019867118
 20
48.84604067782678
 30
0.0
 10
249.1076859613594
 20
48.8434440060756
 30
0.0
 10
249.2670295951015
 20
48.84141500524189
 30
0.0
 10
249.3456824899331
 20
48.84205259390411
 30
0.0
 10
249.4214349577257
 20
48.84514569471915
 30
0.0
  0
SPLINE
  5
29B
330
1F
100
AcDbEntity
  8
0
  6
Continuous
 62
     7
370
    25
100
AcDbSpline
210
0.0
220
0.0
230
1.0
 70
     8
 71
     3
 72
    10
 73
     6
 74
     0
 42
0.000000001
 43
0.00000001
 40
0.0
 40
0.0
 40
0.0
 40
0.0
 40
0.5
 40
0.5
 40
1.0
 40
1.0
 40
1.0
 40
1.0
 10
249.4214349577257
 20
48.84514569471915
 30
0.0
 10
249.5696292976264
 20
48.85119671915292
 30
0.0
 10
249.711853763357
 20
48.84103448893978
 30
0.0
 10
249.9842451536978
 20
48.78998405299971
 30
0.0
 10
250.1143724835663
 20
48.74862295035515
 30
0.0
 10
250.2324478257516
 20
48.69284908240287
 30
0.0
  0
LINE
  5
29C
330
1F
100
AcDbEntity
  8
0
  6
Continuous
 62
     7
370
    25
100
AcDbLine
 10
250.3876509172
 20
48.7212676899
 30
0.0
 11
250.3702577689
 21
48.7460149746
 31
0.0
  0
ARC
  5
29D
330
1F
100
AcDbEntity
  8
0
  6
Continuous
 62
     7
370
    25
100
AcDbCircle
 10
232.9150688144
 20
43.968919917
 30
0.0
 40
4.160340149630684
100
AcDbArc
 50
211.7954354499
 51
236.1628935314
  0
SPLINE
  5
29E
330
1F
100
AcDbEntity
  8
0
  6
Continuous
 62
     7
370
    25
100
AcDbSpline
210
0.0
220
0.0
230
1.0
 70
     8
 71
     3
 72
     8
 73
     4
 74
     0
 42
0.000000001
 43
0.00000001
 40
0.0
 40
0.0
 40
0.0
 40
0.0
 40
1.0
 40
1.0
 40
1.0
 40
1.0
 10
230.8094941566149
 20
40.8521446631642
 30
0.0
 10
230.3327208647907
 20
41.16023747109684
 30
0.0
 10
229.8559184879458
 20
41.4684669166696
 30
0.0
 10
229.3790860434202
 20
41.7768320728895
 30
0.0
  0
SPLINE
  5
29F
330
1F
100
AcDbEntity
  8
0
  6
Continuous
 62
     7
370
    25
100
AcDbSpline
210
0.0
220
0.0
230
1.0
 70
     8
 71
     3
 72
    23
 73
    19
 74
     0
 42
0.000000001
 43
0.00000001
 40
0.0
 40
0.0
 40
0.0
 40
0.0
 40
0.0521036415680443
 40
0.103564624093566
 40
0.1544751946749824
 40
0.2049306267488185
 40
0.2550287880859467
 40
0.3048696389155856
 40
0.3545546704622095
 40
0.4041862979533031
 40
0.4538672252131345
 40
0.503699799942109
 40
0.5901870230745642
 40
0.6742716378229198
 40
0.7565997087222741
 40
0.8378563983721098
 40
0.9187511781367312
 40
1.0
 40
1.0
 40
1.0
 40
1.0
 10
231.6900589601565
 20
40.6774139650441
 30
0.0
 10
231.6847900212162
 20
40.66749250280931
 30
0.0
 10
231.6743171317156
 20
40.64777195207844
 30
0.0
 10
231.6550708359524
 20
40.62320412312626
 30
0.0
 10
231.6332750956194
 20
40.60251554086708
 30
0.0
 10
231.6086238044143
 20
40.58598460557014
 30
0.0
 10
231.5811272898754
 20
40.57346710599398
 30
0.0
 10
231.5507162358681
 20
40.56493248217161
 30
0.0
 10
231.5173458640957
 20
40.5603226095235
 30
0.0
 10
231.4809699758241
 20
40.55958786638696
 30
0.0
 10
231.4415416042354
 20
40.56268294893819
 30
0.0
 10
231.3886932126858
 20
40.57121872441725
 30
0.0
 10
231.3201542189158
 20
40.58881516326429
 30
0.0
 10
231.2324329869614
 20
40.62045177135015
 30
0.0
 10
231.1377020674675
 20
40.66263142868286
 30
0.0
 10
231.0356678201376
 20
40.71536786440985
 30
0.0
 10
230.9267539069485
 20
40.77768442032067
 30
0.0
 10
230.8486375959625
 20
40.82728847857179
 30
0.0
 10
230.8094941566149
 20
40.8521446631642
 30
0.0
  0
SPLINE
  5
2A0
330
1F
100
AcDbEntity
  8
0
  6
Continuous
 62
     7
370
    25
100
AcDbSpline
210
0.0
220
0.0
230
1.0
 70
     8
 71
     3
 72
     8
 73
     4
 74
     0
 42
0.000000001
 43
0.00000001
 40
0.0
 40
0.0
 40
0.0
 40
0.0
 40
1.0
 40
1.0
 40
1.0
 40
1.0
 10
233.1635619866138
 20
39.73009382848571
 30
0.0
 10
232.6721946745712
 20
40.04596844845392
 30
0.0
 10
232.1808084746438
 20
40.36195446974413
 30
0.0
 10
231.6894027644987
 20
40.67805135058754
 30
0.0
  0
SPLINE
  5
2A1
330
1F
100
AcDbEntity
  8
0
  6
Continuous
 62
     7
370
    25
100
AcDbSpline
210
0.0
220
0.0
230
1.0
 70
     8
 71
     3
 72
    18
 73
    14
 74
     0
 42
0.000000001
 43
0.00000001
 40
0.0
 40
0.0
 40
0.0
 40
0.0
 40
0.0923824559453958
 40
0.1844689291647847
 40
0.2764953616046176
 40
0.3686975365601479
 40
0.4613092840112055
 40
0.5545607518542577
 40
0.6486768051618977
 40
0.743875605020118
 40
0.8403674044320868
 40
0.9203921078133319
 40
0.9999999999999999
 40
0.9999999999999999
 40
0.9999999999999999
 40
0.9999999999999999
 10
233.97712610581
 20
39.08578610394355
 30
0.0
 10
233.9535585916858
 20
39.10106007820975
 30
0.0
 10
233.9064990710326
 20
39.13155909069154
 30
0.0
 10
233.8341012830675
 20
39.18119166330393
 30
0.0
 10
233.7606190741704
 20
39.23352120597345
 30
0.0
 10
233.6859196264247
 20
39.28883889168181
 30
0.0
 10
233.6100588366565
 20
39.34707720679538
 30
0.0
 10
233.5330475558706
 20
39.40827011843245
 30
0.0
 10
233.4549154237911
 20
39.47243383501302
 30
0.0
 10
233.3756891891495
 20
39.53958279487862
 30
0.0
 10
233.3003927047417
 20
39.60543370462376
 30
0.0
 10
233.2295653966213
 20
39.66896529143128
 30
0.0
 10
233.1856610258149
 20
39.70962603644442
 30
0.0
 10
233.1637661590099
 20
39.72990332501271
 30
0.0
  0
LINE
  5
2A2
330
1F
100
AcDbEntity
  8
0
  6
Continuous
 62
     7
370
    25
100
AcDbLine
 10
234.6168326377
 20
38.6740322974
 30
0.0
 11
233.9771257953
 21
39.0857859651
 31
0.0
  0
SPLINE
  5
2A3
330
1F
100
AcDbEntity
  8
0
  6
Continuous
 62
     7
370
    25
100
AcDbSpline
210
0.0
220
0.0
230
1.0
 70
     8
 71
     3
 72
    25
 73
    21
 74
     0
 42
0.000000001
 43
0.00000001
 40
0.0
 40
0.0
 40
0.0
 40
0.0
 40
0.0280105225426465
 40
0.0559601148860768
 40
0.0839014045043132
 40
0.1118870776786367
 40
0.1399695827588937
 40
0.1682008401739883
 40
0.196631967042422
 40
0.2253130233141467
 40
0.2542927850735845
 40
0.3799486436570501
 40
0.5057850221666546
 40
0.6313085886325832
 40
0.7532068238012666
 40
0.8039473267957884
 40
0.8535894438557337
 40
0.9025339722396969
 40
0.9511970353793024
 40
1.0
 40
1.0
 40
1.0
 40
1.0
 10
235.7191982308002
 20
39.38993828782063
 30
0.0
 10
235.7241463383308
 20
39.36231442671315
 30
0.0
 10
235.7340317899663
 20
39.30712679360782
 30
0.0
 10
235.7455674395695
 20
39.22796608623791
 30
0.0
 10
235.7546405613823
 20
39.15166274713952
 30
0.0
 10
235.7610093700953
 20
39.07846698616991
 30
0.0
 10
235.7647256089054
 20
39.00831951795652
 30
0.0
 10
235.7657622298882
 20
38.94124323144374
 30
0.0
 10
235.7641137546613
 20
38.8772393222173
 30
0.0
 10
235.7597676027924
 20
38.81631046895048
 30
0.0
 10
235.744911278225
 20
38.69442234745434
 30
0.0
 10
235.6998230211587
 20
38.53952147580032
 30
0.0
 10
235.5864635006681
 20
38.40857835745685
 30
0.0
 10
235.4246392786749
 20
38.3527019566443
 30
0.0
 10
235.2506240595418
 20
38.37257600902862
 30
0.0
 10
235.0992631388544
 20
38.41989381138468
 30
0.0
 10
234.9888629061558
 20
38.4648092351202
 30
0.0
 10
234.8717034107071
 20
38.52218496641134
 30
0.0
 10
234.7481377437735
 20
38.59086203086399
 30
0.0
 10
234.6606426936787
 20
38.646282276817
 30
0.0
 10
234.6168323739973
 20
38.67403217454717
 30
0.0
  0
ARC
  5
2A4
330
1F
100
AcDbEntity
  8
0
  6
Continuous
 62
     7
370
    25
100
AcDbCircle
 10
246.9122193952
 20
41.1759886564
 30
0.0
 40
11.33462419218118
100
AcDbArc
 50
170.9338462887
 51
189.0661537113
  0
SPLINE
  5
2A5
330
1F
100
AcDbEntity
  8
0
  6
Continuous
 62
     7
370
    25
100
AcDbSpline
210
0.0
220
0.0
230
1.0
 70
     8
 71
     3
 72
    26
 73
    22
 74
     0
 42
0.000000001
 43
0.00000001
 40
0.0
 40
0.0
 40
0.0
 40
0.0
 40
0.0241259796963635
 40
0.0482159912272988
 40
0.0723203915124065
 40
0.0964895678710794
 40
0.1207736231963513
 40
0.1452220711242836
 40
0.1698835501657709
 40
0.1948055644472382
 40
0.220034256951763
 40
0.2456142191611393
 40
0.3690971486901661
 40
0.4940698769485193
 40
0.6192566784762455
 40
0.7454656653603228
 40
0.7971495824713709
 40
0.8481710308405395
 40
0.8988013269235237
 40
0.9493179290492196
 40
1.0
 40
1.0
 40
1.0
 40
1.0
 10
234.6168323739973
 20
46.43814256591175
 30
0.0
 10
234.6385506033733
 20
46.42381104251668
 30
0.0
 10
234.6819546835494
 20
46.39516936184763
 30
0.0
 10
234.7452618009108
 20
46.34717706391882
 30
0.0
 10
234.8071233686287
 20
46.29557786603314
 30
0.0
 10
234.8674278837653
 20
46.2400030731599
 30
0.0
 10
234.9262177357051
 20
46.18054783253275
 30
0.0
 10
234.9834982541349
 20
46.11718352369535
 30
0.0
 10
235.0392893934611
 20
46.04991474573143
 30
0.0
 10
235.0936106408829
 20
45.9787406317713
 30
0.0
 10
235.1464896160919
 20
45.90365149202301
 30
0.0
 10
235.2632844408282
 20
45.72439704332118
 30
0.0
 10
235.4251539987547
 20
45.41409157147778
 30
0.0
 10
235.5883389062865
 20
44.94417778334609
 30
0.0
 10
235.69985031146
 20
44.44521474943605
 30
0.0
 10
235.7469841495684
 20
44.03633107637905
 30
0.0
 10
235.762103089101
 20
43.73205911978834
 30
0.0
 10
235.7640562280835
 20
43.53080987809302
 30
0.0
 10
235.7575782024444
 20
43.33514995837043
 30
0.0
 10
235.7434512797573
 20
43.14451367047296
 30
0.0
 10
235.7272913880723
 20
43.02293039673415
 30
0.0
 10
235.7191982308002
 20
42.96203936013526
 30
0.0
  0
LINE
  5
2A6
330
1F
100
AcDbEntity
  8
0
  6
Continuous
 62
     7
370
    25
100
AcDbLine
 10
233.9771257953
 20
46.8511174162
 30
0.0
 11
234.6168326377
 21
46.4381424452
 31
0.0
  0
SPLINE
  5
2A7
330
1F
100
AcDbEntity
  8
0
  6
Continuous
 62
     7
370
    25
100
AcDbSpline
210
0.0
220
0.0
230
1.0
 70
     8
 71
     3
 72
    14
 73
    10
 74
     0
 42
0.000000001
 43
0.00000001
 40
0.0
 40
0.0
 40
0.0
 40
0.0
 40
0.0789261963177485
 40
0.1582328720556155
 40
0.3308475394597654
 40
0.5000195457645777
 40
0.6670357883607155
 40
0.833239519368019
 40
1.0
 40
1.0
 40
1.0
 40
1.0
 10
233.1631733899582
 20
47.05969984919698
 30
0.0
 10
233.1848902712942
 20
47.06130301305553
 30
0.0
 10
233.22842872451
 20
47.0645170691427
 30
0.0
 10
233.3199538431598
 20
47.06533810920986
 30
0.0
 10
233.4368621765937
 20
47.05740212742555
 30
0.0
 10
233.5776825149762
 20
47.03112645854729
 30
0.0
 10
233.7148948227883
 20
46.98816886001509
 30
0.0
 10
233.8488254972039
 20
46.92981173520609
 30
0.0
 10
233.9343115891623
 20
46.8773781890567
 30
0.0
 10
233.97712610581
 20
46.85111757890265
 30
0.0
  0
SPLINE
  5
2A8
330
1F
100
AcDbEntity
  8
0
  6
Continuous
 62
     7
370
    25
100
AcDbSpline
210
0.0
220
0.0
230
1.0
 70
     8
 71
     3
 72
     8
 73
     4
 74
     0
 42
0.000000001
 43
0.00000001
 40
0.0
 40
0.0
 40
0.0
 40
0.0
 40
1.0
 40
1.0
 40
1.0
 40
1.0
 10
231.3608698069542
 20
48.22209126060906
 30
0.0
 10
231.9616280306501
 20
47.83482377745035
 30
0.0
 10
232.5623568935102
 20
47.44735642752723
 30
0.0
 10
233.1630575378567
 20
47.0596895349378
 30
0.0
  0
SPLINE
  5
2A9
330
1F
100
AcDbEntity
  8
0
  6
Continuous
 62
     7
370
    25
100
AcDbSpline
210
0.0
220
0.0
230
1.0
 70
     8
 71
     3
 72
    13
 73
     9
 74
     0
 42
0.000000001
 43
0.00000001
 40
0.0
 40
0.0
 40
0.0
 40
0.0
 40
0.1667030582308002
 40
0.3329480818053118
 40
0.4990671507274925
 40
0.6653938523718504
 40
0.832261271055014
 40
1.0
 40
1.0
 40
1.0
 40
1.0
 10
231.0190412719199
 20
48.52315603969483
 30
0.0
 10
231.0393424543598
 20
48.5095909330156
 30
0.0
 10
231.0798890395485
 20
48.48249799125276
 30
0.0
 10
231.1390386765361
 20
48.43730341824504
 30
0.0
 10
231.1968102214386
 20
48.38889226976209
 30
0.0
 10
231.2530599588983
 20
48.33685715499163
 30
0.0
 10
231.3079871676444
 20
48.28155918778262
 30
0.0
 10
231.3432078772349
 20
48.24194193262225
 30
0.0
 10
231.3608640891758
 20
48.22208172362133
 30
0.0
  0
SPLINE
  5
2AA
330
1F
100
AcDbEntity
  8
0
  6
Continuous
 62
     7
370
    25
100
AcDbSpline
210
0.0
220
0.0
230
1.0
 70
     8
 71
     3
 72
     8
 73
     4
 74
     0
 42
0.000000001
 43
0.00000001
 40
0.0
 40
0.0
 40
0.0
 40
0.0
 40
1.0
 40
1.0
 40
1.0
 40
1.0
 10
229.0750607561291
 20
49.7778778920743
 30
0.0
 10
229.7230908285294
 20
49.35988257618955
 30
0.0
 10
230.3710838056313
 20
48.94164181377192
 30
0.0
 10
231.0190412719199
 20
48.52315603969483
 30
0.0
  0
LWPOLYLINE
  5
2AB
330
1F
100
AcDbEntity
  8
0
  6
Continuous
 62
     7
370
    25
100
AcDbPolyline
 90
       20
 70
   128
 43
0.0
 10
229.0750614064
 20
49.7778779426
 10
229.4393846919
 20
50.8434366798
 10
229.8766951237
 20
51.9042314928
 10
230.3825139406
 20
52.9493984488
 10
230.9516616902
 20
53.9682341382
 10
231.5783086071
 20
54.9503046068
 10
232.2560384922
 20
55.885553715
 10
232.9779099572
 20
56.764402373
 10
233.7365311692
 20
57.5778517664
 10
234.5241331139
 20
58.3175705176
 10
235.3326500206
 20
58.9759836995
 10
236.1538019269
 20
59.5463486369
 10
236.9791797134
 20
60.022824528
 10
237.8003308788
 20
60.4005318479
 10
238.6088461392
 20
60.6756023406
 10
239.3964456144
 20
60.8452188877
 10
240.1550635336
 20
60.9076453963
 10
240.8769317059
 20
60.8622415252
 10
241.5546566519
 20
60.7094729912
 10
242.124799133
 20
60.4796249078
  0
SPLINE
  5
2AC
330
1F
100
AcDbEntity
  8
0
  6
Continuous
 62
     7
370
    25
100
AcDbSpline
210
0.0
220
0.0
230
1.0
 70
    11
 71
     3
 72
    39
 73
    35
 74
     0
 42
0.000000001
 43
0.00000001
 40
0.0
 40
0.0
 40
0.0
 40
0.0
 40
0.0310664058348413
 40
0.0621048158426138
 40
0.0931361551796939
 40
0.1235538293503726
 40
0.1538561545809849
 40
0.1850588072749156
 40
0.2160250992946587
 40
0.2471867223797568
 40
0.2784462884304475
 40
0.3100516090231247
 40
0.3419834369138969
 40
0.3734259894013238
 40
0.4048604886787081
 40
0.436874065183343
 40
0.4685120685926471
 40
0.499805535863323
 40
0.5309508213226204
 40
0.5618649784438111
 40
0.5930416446590877
 40
0.623374245013332
 40
0.6540913579072549
 40
0.6849496782718453
 40
0.7158160645166705
 40
0.7471731804043553
 40
0.7784514311866318
 40
0.810129591156098
 40
0.8419598919688388
 40
0.8735175891922303
 40
0.9050808037886594
 40
0.9370235169792582
 40
0.9687441590030581
 40
1.0
 40
1.0
 40
1.0
 40
1.0
 10
242.2836462373345
 20
58.78306826741571
 30
0.0
 10
242.5465318575327
 20
58.75453378012562
 30
0.0
 10
243.0734204680162
 20
58.66859129180401
 30
0.0
 10
243.8374325370922
 20
58.46821617173156
 30
0.0
 10
244.5445827251431
 20
58.22121406551204
 30
0.0
 10
245.1574937897385
 20
57.94323218735894
 30
0.0
 10
245.6546251154089
 20
57.64909849003021
 30
0.0
 10
246.0138168364824
 20
57.34759196183798
 30
0.0
 10
246.2355361052413
 20
57.04059445693557
 30
0.0
 10
246.3007879826234
 20
56.73008919553389
 30
0.0
 10
246.2139407715095
 20
56.41094471078506
 30
0.0
 10
245.9715951837511
 20
56.08162474521286
 30
0.0
 10
245.5916573210247
 20
55.7426840236552
 30
0.0
 10
245.077851367865
 20
55.40484555924458
 30
0.0
 10
244.4519605569549
 20
55.07894765793372
 30
0.0
 10
243.738489570463
 20
54.78230076469424
 30
0.0
 10
242.9745870941987
 20
54.52619745625729
 30
0.0
 10
242.1887940112971
 20
54.33716988826651
 30
0.0
 10
241.4072565562571
 20
54.22899396621325
 30
0.0
 10
240.6511435715047
 20
54.22133008284354
 30
0.0
 10
239.9487789851111
 20
54.31925211822969
 30
0.0
 10
239.3297586380685
 20
54.54090055173219
 30
0.0
 10
238.8207013730548
 20
54.87676863864392
 30
0.0
 10
238.4477577796208
 20
55.31657920482469
 30
0.0
 10
238.2191558283724
 20
55.82765384534733
 30
0.0
 10
238.1503095216532
 20
56.37883893311077
 30
0.0
 10
238.2349259348783
 20
56.93651086142252
 30
0.0
 10
238.4780347248131
 20
57.46659100234152
 30
0.0
 10
238.8601645676309
 20
57.93911535145424
 30
0.0
 10
239.3763001420412
 20
58.32523686234747
 30
0.0
 10
240.0032780025431
 20
58.60886104968061
 30
0.0
 10
240.7191854349069
 20
58.77859826840702
 30
0.0
 10
241.4876288270925
 20
58.84013710311834
 30
0.0
 10
242.0191576064649
 20
58.81177675086276
 30
0.0
 10
242.2836462373345
 20
58.78306826741571
 30
0.0
  0
LINE
  5
2AD
330
1F
100
AcDbEntity
  8
0
  6
Continuous
 62
     7
370
    25
100
AcDbLine
 10
233.0591088243
 20
42.34394165
 30
0.0
 11
233.3731538829
 21
42.1757974228
 31
0.0
  0
LINE
  5
2AE
330
1F
100
AcDbEntity
  8
0
  6
Continuous
 62
     7
370
    25
100
AcDbLine
 10
232.0721508044
 20
42.9137003873
 30
0.0
 11
233.0591088243
 21
42.34394165
 31
0.0
  0
ARC
  5
2AF
330
1F
100
AcDbEntity
  8
0
  6
Continuous
 62
     7
370
    25
100
AcDbCircle
 10
234.3041358019
 20
46.4216138346
 30
0.0
 40
4.39924625957339
100
AcDbArc
 50
267.4956853267
 51
287.1750110524
  0
SPLINE
  5
2B0
330
1F
100
AcDbEntity
  8
0
  6
Continuous
 62
     7
370
    25
100
AcDbSpline
210
0.0
220
0.0
230
1.0
 70
     8
 71
     3
 72
    14
 73
    10
 74
     0
 42
0.000000001
 43
0.00000001
 40
0.0
 40
0.0
 40
0.0
 40
0.0
 40
0.1520927654964334
 40
0.2674857265629534
 40
0.3827932169674477
 40
0.4986859355030901
 40
0.6145509981003119
 40
0.825743267810779
 40
1.0
 40
1.0
 40
1.0
 40
1.0
 10
243.6221521956339
 20
55.78057255208
 30
0.0
 10
243.4173572543415
 20
55.89295345231042
 30
0.0
 10
243.0571841488739
 20
56.09059787446169
 30
0.0
 10
242.457560980672
 20
56.3547207412638
 30
0.0
 10
241.8783883462895
 20
56.56783713579669
 30
0.0
 10
241.2674965307955
 20
56.73862528688259
 30
0.0
 10
240.4783608410193
 20
56.87800404210179
 30
0.0
 10
239.5790875160963
 20
56.90513795677872
 30
0.0
 10
239.0144921664284
 20
56.69714340046104
 30
0.0
 10
238.759245583463
 20
56.6031116309703
 30
0.0
  0
SPLINE
  5
2B1
330
1F
100
AcDbEntity
  8
0
  6
Continuous
 62
     7
370
    25
100
AcDbSpline
210
0.0
220
0.0
230
1.0
 70
     8
 71
     3
 72
    10
 73
     6
 74
     0
 42
0.000000001
 43
0.00000001
 40
0.0
 40
0.0
 40
0.0
 40
0.0
 40
0.3798174073072795
 40
0.9603711649033085
 40
1.0
 40
1.0
 40
1.0
 40
1.0
 10
244.7620323174934
 20
55.25234562456151
 30
0.0
 10
244.632379700245
 20
55.32267418639887
 30
0.0
 10
244.3045520844905
 20
55.50050048281999
 30
0.0
 10
243.8966235394803
 20
55.6735533332224
 30
0.0
 10
243.6399907580485
 20
55.77275876547071
 30
0.0
 10
243.6235922678367
 20
55.77909785941108
 30
0.0
  0
SPLINE
  5
2B2
330
1F
100
AcDbEntity
  8
0
  6
Continuous
 62
     7
370
    25
100
AcDbSpline
210
0.0
220
0.0
230
1.0
 70
     8
 71
     3
 72
    24
 73
    20
 74
     0
 42
0.000000001
 43
0.00000001
 40
0.0
 40
0.0
 40
0.0
 40
0.0
 40
0.0618858212107145
 40
0.1150115607194259
 40
0.1593831488268445
 40
0.2428114970815824
 40
0.318331853291959
 40
0.3935543804326023
 40
0.4204843226990471
 40
0.4483397435477174
 40
0.4771286702554668
 40
0.5451537905345539
 40
0.6363475754294583
 40
0.6968782859867285
 40
0.7498596693403015
 40
0.7959701295389731
 40
0.8771179302751783
 40
0.9543004207779655
 40
1.0
 40
1.0
 40
1.0
 40
1.0
 10
242.2287676703322
 20
58.20921036745895
 30
0.0
 10
242.0448108809961
 20
58.22810493242491
 30
0.0
 10
241.7029368130338
 20
58.26321949280941
 30
0.0
 10
241.238718840057
 20
58.25672894442214
 30
0.0
 10
240.729257227784
 20
58.20900475162483
 30
0.0
 10
240.1901621284095
 20
58.08438815345792
 30
0.0
 10
239.6473241436859
 20
57.84189786951492
 30
0.0
 10
239.3069311281908
 20
57.58452511888902
 30
0.0
 10
239.1003044196398
 20
57.36971801839019
 30
0.0
 10
238.9823203634287
 20
57.22321466709122
 30
0.0
 10
238.8301499592377
 20
56.99346384287076
 30
0.0
 10
238.663469320658
 20
56.62052114744375
 30
0.0
 10
238.5951077398208
 20
56.15796209475086
 30
0.0
 10
238.6454632034402
 20
55.72962939654903
 30
0.0
 10
238.7508923469555
 20
55.40970250290465
 30
0.0
 10
238.9330916736415
 20
55.06923698771146
 30
0.0
 10
239.2339700987119
 20
54.73328873085637
 30
0.0
 10
239.6236549933104
 20
54.46022943014135
 30
0.0
 10
239.9165739495048
 20
54.36627435921405
 30
0.0
 10
240.0255098835611
 20
54.33133266904909
 30
0.0
  0
SPLINE
  5
2B3
330
1F
100
AcDbEntity
  8
0
  6
Continuous
 62
     7
370
    25
100
AcDbSpline
210
0.0
220
0.0
230
1.0
 70
     8
 71
     3
 72
    22
 73
    18
 74
     0
 42
0.000000001
 43
0.00000001
 40
0.0
 40
0.0
 40
0.0
 40
0.0
 40
0.0348562931077237
 40
0.0924900623539491
 40
0.1569277788850789
 40
0.2282085360920659
 40
0.2894089077515647
 40
0.3420696922203051
 40
0.3861903498429299
 40
0.4217735408338573
 40
0.5236918810098915
 40
0.6145479843395962
 40
0.7067593487247504
 40
0.7559111409869668
 40
0.8071360726317764
 40
0.8951475619903156
 40
1.0
 40
1.0
 40
1.0
 40
1.0
 10
245.4925116177166
 20
55.69206627968923
 30
0.0
 10
245.5301475075922
 20
55.72723950210082
 30
0.0
 10
245.6300131413411
 20
55.82057052625714
 30
0.0
 10
245.7488371900762
 20
55.97591576585747
 30
0.0
 10
245.8452482585944
 20
56.16464497065979
 30
0.0
 10
245.8765244137364
 20
56.35062385627229
 30
0.0
 10
245.8471190895628
 20
56.52243541760772
 30
0.0
 10
245.7786240663547
 20
56.6692420081185
 30
0.0
 10
245.6908114193403
 20
56.79045293013235
 30
0.0
 10
245.536520267386
 20
56.95603607731579
 30
0.0
 10
245.26869394943
 20
57.16620031967134
 30
0.0
 10
244.8171238099635
 20
57.42164413013339
 30
0.0
 10
244.3695611732402
 20
57.62828082680437
 30
0.0
 10
243.9606674043564
 20
57.78678504344808
 30
0.0
 10
243.538587804549
 20
57.92930179138287
 30
0.0
 10
242.9602751871698
 20
58.09255836023833
 30
0.0
 10
242.4863965933022
 20
58.16812681016012
 30
0.0
 10
242.2287676703322
 20
58.20921036745895
 30
0.0
  0
LINE
  5
2B4
330
1F
100
AcDbEntity
  8
0
  6
Continuous
 62
     7
370
    25
100
AcDbLine
 10
235.7191979484
 20
42.9620391793
 30
0.0
 11
235.7139598854
 21
43.2581226023
 31
0.0
  0
LINE
  5
2B5
330
1F
100
AcDbEntity
  8
0
  6
Continuous
 62
     7
370
    25
100
AcDbLine
 10
235.7139598854
 20
43.2581226023
 30
0.0
 11
235.7570576722
 21
43.9097477979
 31
0.0
  0
LINE
  5
2B6
330
1F
100
AcDbEntity
  8
0
  6
Continuous
 62
     7
370
    25
100
AcDbLine
 10
235.2344110674
 20
45.7388108197
 30
0.0
 11
234.9229965649
 21
46.0674073892
 31
0.0
  0
SPLINE
  5
2B7
330
1F
100
AcDbEntity
  8
0
  6
Continuous
 62
     7
370
    25
100
AcDbSpline
210
0.0
220
0.0
230
1.0
 70
     8
 71
     3
 72
    19
 73
    15
 74
     0
 42
0.000000001
 43
0.00000001
 40
0.0
 40
0.0
 40
0.0
 40
0.0
 40
0.0210492621018804
 40
0.1455865440207667
 40
0.2712169722633744
 40
0.3929514297049947
 40
0.5136082229787104
 40
0.6366369099308349
 40
0.699422462668311
 40
0.7643939711952468
 40
0.8122544601557282
 40
0.8606584764820763
 40
0.9188817427801165
 40
1.0
 40
1.0
 40
1.0
 40
1.0
 10
238.6395231179899
 20
55.95446042000114
 30
0.0
 10
238.632054543004
 20
56.00922076690655
 30
0.0
 10
238.5803983844324
 20
56.38796894424169
 30
0.0
 10
238.823169279092
 20
56.99811985305587
 30
0.0
 10
239.4074997465069
 20
57.68749355629544
 30
0.0
 10
240.3136261141472
 20
58.10479310652749
 30
0.0
 10
241.3879722426092
 20
58.22521906421613
 30
0.0
 10
242.341906111705
 20
58.06451952062854
 30
0.0
 10
243.0765686542742
 20
57.76715342178674
 30
0.0
 10
243.5493718937465
 20
57.46949534438204
 30
0.0
 10
243.906342063866
 20
57.09858353960468
 30
0.0
 10
244.1011902053742
 20
56.66626224429711
 30
0.0
 10
244.1302192356184
 20
56.16332091307196
 30
0.0
 10
244.067845633998
 20
55.82957590049676
 30
0.0
 10
244.031534578024
 20
55.63528482994991
 30
0.0
  0
SPLINE
  5
2B8
330
1F
100
AcDbEntity
  8
0
  6
Continuous
 62
     7
370
    25
100
AcDbSpline
210
0.0
220
0.0
230
1.0
 70
     8
 71
     3
 72
    10
 73
     6
 74
     0
 42
0.000000001
 43
0.00000001
 40
0.0
 40
0.0
 40
0.0
 40
0.0
 40
0.2950355258923527
 40
0.9801030833761959
 40
1.0
 40
1.0
 40
1.0
 40
1.0
 10
244.0342624340121
 20
55.63404627652751
 30
0.0
 10
244.1170870042726
 20
55.59528109483875
 30
0.0
 10
244.3922288416703
 20
55.46650380950714
 30
0.0
 10
244.6672957762104
 20
55.32523452961728
 30
0.0
 10
244.8158743867895
 20
55.23117179367843
 30
0.0
 10
244.8200678693484
 20
55.22851696711181
 30
0.0
  0
ARC
  5
2B9
330
1F
100
AcDbEntity
  8
0
  6
Continuous
 62
     7
370
    25
100
AcDbCircle
 10
248.0443709994
 20
41.4208272842
 30
0.0
 40
12.46654291792169
100
AcDbArc
 50
171.5249863735
 51
179.8211981812
  0
SPLINE
  5
2BA
330
1F
100
AcDbEntity
  8
0
  6
Continuous
 62
     7
370
    25
100
AcDbSpline
210
0.0
220
0.0
230
1.0
 70
     8
 71
     3
 72
    14
 73
    10
 74
     0
 42
0.000000001
 43
0.00000001
 40
0.0
 40
0.0
 40
0.0
 40
0.0
 40
0.0003951393068452
 40
0.0003951393068452
 40
0.0003951393068452
 40
0.0008163352168664
 40
0.0008163352168664
 40
0.0008163352168664
 40
0.001237857933722
 40
0.001237857933722
 40
0.001237857933722
 40
0.001237857933722
 10
243.6261847711736
 20
55.77929359869567
 30
0.0
 10
243.6716465854048
 20
55.76485673607063
 30
0.0
 10
243.7165341900259
 20
55.74999087550503
 30
0.0
 10
243.760817882701
 20
55.73470708789956
 30
0.0
 10
243.8080211749403
 20
55.71841564856187
 30
0.0
 10
243.8545469879995
 20
55.70164617047795
 30
0.0
 10
243.9003578972411
 20
55.68441735968266
 30
0.0
 10
243.9462042852303
 20
55.66717520585102
 30
0.0
 10
243.9913435208026
 20
55.64946949964653
 30
0.0
 10
244.035737078845
 20
55.63132664295573
 30
0.0
  0
LINE
  5
2BB
330
1F
100
AcDbEntity
  8
0
  6
Continuous
 62
     7
370
    25
100
AcDbLine
 10
234.9229965649
 20
46.0674073892
 30
0.0
 11
234.2830598905
 21
46.4796390294
 31
0.0
  0
LINE
  5
2BC
330
1F
100
AcDbEntity
  8
0
  6
Continuous
 62
     7
370
    25
100
AcDbLine
 10
233.9771257953
 20
46.8511174162
 30
0.0
 11
234.2830598905
 21
46.4796390294
 31
0.0
  0
SPLINE
  5
2BD
330
1F
100
AcDbEntity
  8
0
  6
Continuous
 62
     7
370
    25
100
AcDbSpline
210
0.0
220
0.0
230
1.0
 70
     8
 71
     3
 72
    13
 73
     9
 74
     0
 42
0.000000001
 43
0.00000001
 40
0.0
 40
0.0
 40
0.0
 40
0.0
 40
0.1618542298835363
 40
0.3254858841528055
 40
0.4910085196577936
 40
0.6585318472765105
 40
0.8281616954188276
 40
1.0
 40
1.0
 40
1.0
 40
1.0
 10
234.283060302152
 20
46.47963903326576
 30
0.0
 10
234.2634829101347
 20
46.49220201029878
 30
0.0
 10
234.2241131342893
 20
46.5174659264172
 30
0.0
 10
234.1625771945193
 20
46.55015962333189
 30
0.0
 10
234.0990205352701
 20
46.57910569703878
 30
0.0
 10
234.0334024326132
 20
46.6036180645045
 30
0.0
 10
233.965975163558
 20
46.6240531278582
 30
0.0
 10
233.9200905633592
 20
46.63364978284809
 30
0.0
 10
233.896999883184
 20
46.63847914368294
 30
0.0
  0
SPLINE
  5
2BE
330
1F
100
AcDbEntity
  8
0
  6
Continuous
 62
     7
370
    25
100
AcDbSpline
210
0.0
220
0.0
230
1.0
 70
     8
 71
     3
 72
     9
 73
     5
 74
     0
 42
0.000000001
 43
0.00000001
 40
0.0
 40
0.0
 40
0.0
 40
0.0
 40
0.4907282259506224
 40
1.0
 40
1.0
 40
1.0
 40
1.0
 10
233.8969940558921
 20
46.63845114665193
 30
0.0
 10
233.8729005334143
 20
46.64654667887005
 30
0.0
 10
233.823803046855
 20
46.66304365579134
 30
0.0
 10
233.7731023530349
 20
46.67783732480758
 30
0.0
 10
233.7472819207475
 20
46.68537132287218
 30
0.0
  0
SPLINE
  5
2BF
330
1F
100
AcDbEntity
  8
0
  6
Continuous
 62
     7
370
    25
100
AcDbSpline
210
0.0
220
0.0
230
1.0
 70
     8
 71
     3
 72
    14
 73
    10
 74
     0
 42
0.000000001
 43
0.00000001
 40
0.0
 40
0.0
 40
0.0
 40
0.0
 40
0.0310276388063439
 40
0.0622853718664759
 40
0.1248003166897445
 40
0.2498289731747532
 40
0.4998892603606206
 40
0.7606803621122046
 40
1.0
 40
1.0
 40
1.0
 40
1.0
 10
233.1633412314591
 20
47.05947906551803
 30
0.0
 10
233.1693334708635
 20
47.05564802186449
 30
0.0
 10
233.1813623868227
 20
47.04795752436689
 30
0.0
 10
233.2054221948717
 20
47.03251963486021
 30
0.0
 10
233.2476558675183
 20
47.00544918192927
 30
0.0
 10
233.3322184420307
 20
46.95123715713359
 30
0.0
 10
233.4555054114913
 20
46.87223397527435
 30
0.0
 10
233.6016371179435
 20
46.77862780059559
 30
0.0
 10
233.7000037344859
 20
46.71564472420334
 30
0.0
 10
233.747075435182
 20
46.68550522540729
 30
0.0
  0
LINE
  5
2C0
330
1F
100
AcDbEntity
  8
0
  6
Continuous
 62
     7
370
    25
100
AcDbLine
 10
231.3608410762
 20
48.2221097425
 30
0.0
 11
231.6518084304
 21
48.0340312034
 31
0.0
  0
SPLINE
  5
2C1
330
1F
100
AcDbEntity
  8
0
  6
Continuous
 62
     7
370
    25
100
AcDbSpline
210
0.0
220
0.0
230
1.0
 70
     8
 71
     3
 72
     8
 73
     4
 74
     0
 42
0.000000001
 43
0.00000001
 40
0.0
 40
0.0
 40
0.0
 40
0.0
 40
1.0
 40
1.0
 40
1.0
 40
1.0
 10
231.6831967337545
 20
48.01380867320685
 30
0.0
 10
231.6727542279027
 20
48.02063409810425
 30
0.0
 10
231.6622882950129
 20
48.02737706489079
 30
0.0
 10
231.6518005301963
 20
48.03403615254377
 30
0.0
  0
SPLINE
  5
2C2
330
1F
100
AcDbEntity
  8
0
  6
Continuous
 62
     7
370
    25
100
AcDbSpline
210
0.0
220
0.0
230
1.0
 70
     8
 71
     3
 72
     8
 73
     4
 74
     0
 42
0.000000001
 43
0.00000001
 40
0.0
 40
0.0
 40
0.0
 40
0.0
 40
1.0
 40
1.0
 40
1.0
 40
1.0
 10
228.8971923549307
 20
49.89206432501593
 30
0.0
 10
228.9561921191006
 20
49.85332365809697
 30
0.0
 10
229.0154796826112
 20
49.81526168079768
 30
0.0
 10
229.0750607560996
 20
49.77787789233739
 30
0.0
  0
SPLINE
  5
2C3
330
1F
100
AcDbEntity
  8
0
  6
Continuous
 62
     7
370
    25
100
AcDbSpline
210
0.0
220
0.0
230
1.0
 70
     8
 71
     3
 72
     8
 73
     4
 74
     0
 42
0.000000001
 43
0.00000001
 40
0.0
 40
0.0
 40
0.0
 40
0.0
 40
1.0
 40
1.0
 40
1.0
 40
1.0
 10
228.8723426088311
 20
50.25527450295425
 30
0.0
 10
228.8798168209217
 20
50.13431666224241
 30
0.0
 10
228.8881129248118
 20
50.01324481983175
 30
0.0
 10
228.8971923549307
 20
49.89206432501593
 30
0.0
  0
LWPOLYLINE
  5
2C4
330
1F
100
AcDbEntity
  8
0
  6
Continuous
 62
     7
370
    25
100
AcDbPolyline
 90
       16
 70
   128
 43
0.0
 10
228.8723429676
 20
50.2552738375
 10
229.246253344
 20
51.3138540479
 10
229.6942519532
 20
52.3655656497
 10
230.2114497607
 20
53.3989321957
 10
230.7922033694
 20
54.4026782618
 10
231.430176264
 20
55.3658518758
 10
232.1184069706
 20
56.2779421926
 10
232.8493861061
 20
57.1289988797
 10
233.6151373795
 20
57.9097343916
 10
234.4073051779
 20
58.6116292864
 10
235.2172459402
 20
59.2270260383
 10
236.0361218344
 20
59.7492089734
 10
236.8549977285
 20
60.1724800212
 10
237.6649384908
 20
60.4922209684
 10
238.4571062893
 20
60.7049435456
 10
238.8363054366
 20
60.769381529
  0
SPLINE
  5
2C5
330
1F
100
AcDbEntity
  8
0
  6
Continuous
 62
     7
370
    25
100
AcDbSpline
210
0.0
220
0.0
230
1.0
 70
     8
 71
     3
 72
    10
 73
     6
 74
     0
 42
0.000000001
 43
0.00000001
 40
0.0
 40
0.0
 40
0.0
 40
0.0
 40
0.2409818396634726
 40
0.5031433556203718
 40
1.0
 40
1.0
 40
1.0
 40
1.0
 10
234.9229965648698
 20
39.36156576600043
 30
0.0
 10
235.0052424358728
 20
39.30988924407988
 30
0.0
 10
235.1769626932173
 20
39.2019943973885
 30
0.0
 10
235.4546840522441
 20
39.07227168692425
 30
0.0
 10
235.5756612992882
 20
39.09504962802924
 30
0.0
 10
235.6548535402037
 20
39.10996016900798
 30
0.0
  0
LINE
  5
2C6
330
1F
100
AcDbEntity
  8
0
  6
Continuous
 62
     7
370
    25
100
AcDbLine
 10
230.1398225087
 20
49.0906384989
 30
0.0
 11
229.3779438064
 21
49.5812729066
 31
0.0
  0
LINE
  5
2C7
330
1F
100
AcDbEntity
  8
0
  6
Continuous
 62
     7
370
    25
100
AcDbLine
 10
229.3779438064
 20
49.5812729066
 30
0.0
 11
228.8971924861
 21
49.8920642827
 31
0.0
  0
LINE
  5
2C8
330
1F
100
AcDbEntity
  8
0
  6
Continuous
 62
     7
370
    25
100
AcDbLine
 10
233.9771257953
 20
39.0857859651
 30
0.0
 11
234.2830598905
 21
39.7737974061
 31
0.0
  0
LINE
  5
2C9
330
1F
100
AcDbEntity
  8
0
  6
Continuous
 62
     7
370
    25
100
AcDbLine
 10
234.2830598905
 20
39.7737974061
 30
0.0
 11
234.9229965649
 21
39.361565766
 31
0.0
  0
SPLINE
  5
2CA
330
1F
100
AcDbEntity
  8
0
  6
Continuous
 62
     7
370
    25
100
AcDbSpline
210
0.0
220
0.0
230
1.0
 70
     8
 71
     3
 72
    13
 73
     9
 74
     0
 42
0.000000001
 43
0.00000001
 40
0.0
 40
0.0
 40
0.0
 40
0.0
 40
0.1722587823585008
 40
0.3421398271275805
 40
0.5097456257943039
 40
0.6751828993303267
 40
0.8385626190154274
 40
1.0
 40
1.0
 40
1.0
 40
1.0
 10
233.8969883713787
 20
40.05510711151905
 30
0.0
 10
233.9201398953315
 20
40.03698752058391
 30
0.0
 10
233.9661233760837
 20
40.00099844864638
 30
0.0
 10
234.0336643887986
 20
39.9499984652281
 30
0.0
 10
234.0993240034853
 20
39.90167378503691
 30
0.0
 10
234.1628480747344
 20
39.85624277912925
 30
0.0
 10
234.2242784534524
 20
39.81341721137254
 30
0.0
 10
234.2635446204226
 20
39.78695139419959
 30
0.0
 10
234.283060302152
 20
39.77379761565403
 30
0.0
  0
SPLINE
  5
2CB
330
1F
100
AcDbEntity
  8
0
  6
Continuous
 62
     7
370
    25
100
AcDbSpline
210
0.0
220
0.0
230
1.0
 70
     8
 71
     3
 72
    11
 73
     7
 74
     0
 42
0.000000001
 43
0.00000001
 40
0.0
 40
0.0
 40
0.0
 40
0.0
 40
0.2392845094126591
 40
0.5001120454060393
 40
0.7515010915041609
 40
1.0
 40
1.0
 40
1.0
 40
1.0
 10
233.7476079599026
 20
40.10242110373194
 30
0.0
 10
233.7005387279054
 20
40.07410658102275
 30
0.0
 10
233.6021625733117
 20
40.01492835046559
 30
0.0
 10
233.4558653517271
 20
39.92174045000711
 30
0.0
 10
233.3080246080738
 20
39.82636853403464
 30
0.0
 10
233.2117381453563
 20
39.76183327876867
 30
0.0
 10
233.1638732574983
 20
39.72975220870944
 30
0.0
  0
SPLINE
  5
2CC
330
1F
100
AcDbEntity
  8
0
  6
Continuous
 62
     7
370
    25
100
AcDbSpline
210
0.0
220
0.0
230
1.0
 70
     8
 71
     3
 72
     9
 73
     5
 74
     0
 42
0.000000001
 43
0.00000001
 40
0.0
 40
0.0
 40
0.0
 40
0.0
 40
0.5090669353869839
 40
1.0
 40
1.0
 40
1.0
 40
1.0
 10
233.7481789634868
 20
40.10172214952016
 30
0.0
 10
233.7738275381108
 20
40.09422944136027
 30
0.0
 10
233.8242110394563
 20
40.07951092864801
 30
0.0
 10
233.8730185509515
 20
40.06311857079584
 30
0.0
 10
233.8969797721461
 20
40.05507102031925
 30
0.0
  0
LINE
  5
2CD
330
1F
100
AcDbEntity
  8
0
  6
Continuous
 62
     7
370
    25
100
AcDbLine
 10
235.5780975436
 20
41.0256007168
 30
0.0
 11
233.8969815873
 21
40.0551131326
 31
0.0
  0
LINE
  5
2CE
330
1F
100
AcDbEntity
  8
0
  6
Continuous
 62
     7
370
    25
100
AcDbLine
 10
231.890493936
 20
41.1789344312
 30
0.0
 11
231.6901982825
 21
40.677777017
 31
0.0
  0
SPLINE
  5
2CF
330
1F
100
AcDbEntity
  8
0
  6
Continuous
 62
     7
370
    25
100
AcDbSpline
210
0.0
220
0.0
230
1.0
 70
     8
 71
     3
 72
     8
 73
     4
 74
     0
 42
0.000000001
 43
0.00000001
 40
0.0
 40
0.0
 40
0.0
 40
0.0
 40
1.0
 40
1.0
 40
1.0
 40
1.0
 10
231.8900507653466
 20
41.1797181833815
 30
0.0
 10
231.9162260999158
 20
41.20188556035976
 30
0.0
 10
231.9420471398813
 20
41.22451770145138
 30
0.0
 10
231.9675046935897
 20
41.24760242154267
 30
0.0
  0
LINE
  5
2D0
330
1F
100
AcDbEntity
  8
0
  6
Continuous
 62
     7
370
    25
100
AcDbLine
 10
231.9675047893
 20
41.2476023059
 30
0.0
 11
233.7477975486
 21
40.1018314208
 31
0.0
  0
LINE
  5
2D1
330
1F
100
AcDbEntity
  8
0
  6
Continuous
 62
     7
370
    25
100
AcDbLine
 10
235.577888785
 20
41.123650652
 30
0.0
 11
235.489889458
 21
41.2311417203
 31
0.0
  0
LINE
  5
2D2
330
1F
100
AcDbEntity
  8
0
  6
Continuous
 62
     7
370
    25
100
AcDbLine
 10
233.6614814614
 20
42.2255142233
 30
0.0
 11
231.9675047893
 21
41.2476023059
 31
0.0
  0
LINE
  5
2D3
330
1F
100
AcDbEntity
  8
0
  6
Continuous
 62
     7
370
    25
100
AcDbLine
 10
233.8041755439
 20
42.2042220615
 30
0.0
 11
233.6619016128
 21
42.2250268458
 31
0.0
  0
LINE
  5
2D4
330
1F
100
AcDbEntity
  8
0
  6
Continuous
 62
     7
370
    25
100
AcDbLine
 10
235.489963215
 20
41.2310375538
 30
0.0
 11
233.8041755439
 21
42.2042220615
 31
0.0
  0
LINE
  5
2D5
330
1F
100
AcDbEntity
  8
0
  6
Continuous
 62
     7
370
    25
100
AcDbLine
 10
235.577888785
 20
41.180273471
 30
0.0
 11
235.4899164584
 21
41.2310645272
 31
0.0
  0
SPLINE
  5
2D6
330
1F
100
AcDbEntity
  8
0
  6
Continuous
 62
     7
370
    25
100
AcDbSpline
210
0.0
220
0.0
230
1.0
 70
     8
 71
     3
 72
    19
 73
    15
 74
     0
 42
0.000000001
 43
0.00000001
 40
0.0
 40
0.0
 40
0.0
 40
0.0
 40
0.0637853009172659
 40
0.1289628367748442
 40
0.1955871994416724
 40
0.263709501553652
 40
0.3333775579492502
 40
0.404636070968617
 40
0.4775268158973777
 40
0.5520888236427707
 40
0.6283585584336334
 40
0.7063700889344805
 40
0.8377041806092598
 40
1.0
 40
1.0
 40
1.0
 40
1.0
 10
231.1059816593853
 20
41.34820627073337
 30
0.0
 10
231.1266710283919
 20
41.33484713072215
 30
0.0
 10
231.1685013510493
 20
41.30783726217963
 30
0.0
 10
231.2289923246474
 20
41.27031529665158
 30
0.0
 10
231.2884765228291
 20
41.23479555556025
 30
0.0
 10
231.3465576823022
 20
41.20181542664384
 30
0.0
 10
231.4030897993898
 20
41.17160899037414
 30
0.0
 10
231.457834854143
 20
41.14449555041362
 30
0.0
 10
231.5105572317337
 20
41.12076393266477
 30
0.0
 10
231.5609988646621
 20
41.10072367922112
 30
0.0
 10
231.6088817831245
 20
41.08460381768366
 30
0.0
 10
231.6638459374981
 20
41.07032584799941
 30
0.0
 10
231.7266772514586
 20
41.06018729074804
 30
0.0
 10
231.7651847671183
 20
41.06666154206338
 30
0.0
 10
231.7864687323111
 20
41.07024000557328
 30
0.0
  0
LINE
  5
2D7
330
1F
100
AcDbEntity
  8
0
  6
Continuous
 62
     7
370
    25
100
AcDbLine
 10
231.8111044199
 20
41.0963104598
 30
0.0
 11
231.8788172833
 21
41.1679649802
 31
0.0
  0
SPLINE
  5
2D8
330
1F
100
AcDbEntity
  8
0
  6
Continuous
 62
     7
370
    25
100
AcDbSpline
210
0.0
220
0.0
230
1.0
 70
     8
 71
     3
 72
     9
 73
     5
 74
     0
 42
0.000000001
 43
0.00000001
 40
0.0
 40
0.0
 40
0.0
 40
0.0
 40
0.5232016984460688
 40
1.0
 40
1.0
 40
1.0
 40
1.0
 10
233.4953036816996
 20
42.12958200246626
 30
0.0
 10
233.426279519051
 20
42.15462416758275
 30
0.0
 10
233.2943530309421
 20
42.20248747764248
 30
0.0
 10
233.0529156181234
 20
42.34008560832914
 30
0.0
 10
232.93779866976
 20
42.40569216333754
 30
0.0
  0
LINE
  5
2D9
330
1F
100
AcDbEntity
  8
0
  6
Continuous
 62
     7
370
    25
100
AcDbLine
 10
229.2082974727
 20
42.171581726
 30
0.0
 11
229.6597685871
 21
42.2838456988
 31
0.0
  0
LINE
  5
2DA
330
1F
100
AcDbEntity
  8
0
  6
Continuous
 62
     7
370
    25
100
AcDbLine
 10
229.6597685871
 20
42.2838456988
 30
0.0
 11
231.1059810589
 21
41.3482063658
 31
0.0
  0
SPLINE
  5
2DB
330
1F
100
AcDbEntity
  8
0
  6
Continuous
 62
     7
370
    25
100
AcDbSpline
210
0.0
220
0.0
230
1.0
 70
     8
 71
     3
 72
     8
 73
     4
 74
     0
 42
0.000000001
 43
0.00000001
 40
0.0
 40
0.0
 40
0.0
 40
0.0
 40
1.0
 40
1.0
 40
1.0
 40
1.0
 10
229.379086043402
 20
41.77683207295005
 30
0.0
 10
229.321960774478
 20
41.90861825674569
 30
0.0
 10
229.2650322827604
 20
42.04020247840648
 30
0.0
 10
229.2082981648109
 20
42.17158154530784
 30
0.0
  0
LINE
  5
2DC
330
1F
100
AcDbEntity
  8
0
  6
Continuous
 62
     7
370
    25
100
AcDbLine
 10
230.9974700462
 20
43.0560843136
 30
0.0
 11
229.6597685871
 21
42.2838456988
 31
0.0
  0
LINE
  5
2DD
330
1F
100
AcDbEntity
  8
0
  6
Continuous
 62
     7
370
    25
100
AcDbLine
 10
231.980498531
 20
42.9583309107
 30
0.0
 11
230.9974700462
 21
43.0560843136
 31
0.0
  0
LINE
  5
2DE
330
1F
100
AcDbEntity
  8
0
  6
Continuous
 62
     7
370
    25
100
AcDbLine
 10
232.9377986698
 20
42.4056921633
 30
0.0
 11
231.9804975432
 21
42.9583303405
 31
0.0
  0
SPLINE
  5
2DF
330
1F
100
AcDbEntity
  8
0
  6
Continuous
 62
     7
370
    25
100
AcDbSpline
210
0.0
220
0.0
230
1.0
 70
     8
 71
     3
 72
     8
 73
     4
 74
     0
 42
0.000000001
 43
0.00000001
 40
0.0
 40
0.0
 40
0.0
 40
0.0
 40
1.0
 40
1.0
 40
1.0
 40
1.0
 10
229.2082981648132
 20
42.17158154530274
 30
0.0
 10
229.2051608270631
 20
42.20679785217524
 30
0.0
 10
229.2031684231651
 20
42.24244210840294
 30
0.0
 10
229.202387025793
 20
42.27853901039782
 30
0.0
  0
LINE
  5
2E0
330
1F
100
AcDbEntity
  8
0
  6
Continuous
 62
     7
370
    25
100
AcDbLine
 10
230.0134735009
 20
42.7467687251
 30
0.0
 11
229.2023876943
 21
42.2785388555
 31
0.0
  0
SPLINE
  5
2E1
330
1F
100
AcDbEntity
  8
0
  6
Continuous
 62
     7
370
    25
100
AcDbSpline
210
0.0
220
0.0
230
1.0
 70
     8
 71
     3
 72
     8
 73
     4
 74
     0
 42
0.000000001
 43
0.00000001
 40
0.0000004089325119
 40
0.0000004089325119
 40
0.0000004089325119
 40
0.0000004089325119
 40
0.0015399868451459
 40
0.0015399868451459
 40
0.0015399868451459
 40
0.0015399868451459
 10
230.0134725582818
 20
42.74676872175393
 30
0.0
 10
230.251949126305
 20
42.84114510757029
 30
0.0
 10
230.4903960839737
 20
42.9355737195005
 30
0.0
 10
230.728804822824
 20
43.03006710246295
 30
0.0
  0
LINE
  5
2E2
330
1F
100
AcDbEntity
  8
0
  6
Continuous
 62
     7
370
    25
100
AcDbLine
 10
230.7288043018
 20
43.0300672496
 30
0.0
 11
230.7532007416
 21
43.035061276
 31
0.0
  0
LINE
  5
2E3
330
1F
100
AcDbEntity
  8
0
  6
Continuous
 62
     7
370
    25
100
AcDbLine
 10
230.9974700462
 20
43.0560843136
 30
0.0
 11
230.7532014002
 21
43.0350612759
 31
0.0
  0
SPLINE
  5
2E4
330
1F
100
AcDbEntity
  8
0
  6
Continuous
 62
     7
370
    25
100
AcDbSpline
210
0.0
220
0.0
230
1.0
 70
     8
 71
     3
 72
     8
 73
     4
 74
     0
 42
0.000000001
 43
0.00000001
 40
0.0
 40
0.0
 40
0.0
 40
0.0
 40
1.0
 40
1.0
 40
1.0
 40
1.0
 10
231.9804967373321
 20
42.95833109504992
 30
0.0
 10
232.0111047714553
 20
42.9433910872438
 30
0.0
 10
232.0416562724272
 20
42.92851412985042
 30
0.0
 10
232.0721502105418
 20
42.9137005661695
 30
0.0
  0
LWPOLYLINE
  5
2E5
330
1F
100
AcDbEntity
  8
0
  6
Continuous
 62
     7
370
    25
100
AcDbPolyline
 90
        3
 70
   128
 43
0.0
 10
235.6202698696
 20
42.4467810244
 10
235.1457401897
 20
42.2488187187
 10
234.4088855201
 20
42.0227763867
  0
LWPOLYLINE
  5
2E6
330
1F
100
AcDbEntity
  8
0
  6
Continuous
 62
     7
370
    18
100
AcDbPolyline
 90
       20
 70
   128
 43
0.0
 10
272.9689675816
 20
23.7934979162
 10
273.010239883
 20
24.5444685441
 10
273.133350169
 20
25.3302415867
 10
273.3361920849
 20
26.1373724479
 10
273.6152951012
 20
26.9520506866
 10
273.9658837824
 20
27.7603371811
 10
274.3819591172
 20
28.5484017655
 10
274.8564022396
 20
29.3027603896
 10
275.3810951068
 20
30.0105060034
 10
275.9470601108
 20
30.6595285073
 10
276.5446136015
 20
31.2387231525
 10
277.1635310169
 20
31.7381797854
 10
277.793222632
 20
32.1493527476
 10
278.4229142471
 20
32.4652062491
 10
279.0418316625
 20
32.6803364535
 10
279.6393851532
 20
32.7910623833
 10
280.2053501572
 20
32.795489164
 10
280.7300430244
 20
32.6935410399
 10
281.2044861468
 20
32.486962785
 10
281.3887913519
 20
32.3683552956
  0
ARC
  5
2E7
330
1F
100
AcDbEntity
  8
0
  6
Continuous
 62
     7
370
    18
100
AcDbCircle
 10
276.3166985139
 20
23.4503386884
 30
0.0
 40
3.365272745333709
100
AcDbArc
 50
174.1473363491
 51
238.8795129293
  0
LWPOLYLINE
  5
2E8
330
1F
100
AcDbEntity
  8
0
  6
Continuous
 62
     7
370
    18
100
AcDbPolyline
 90
       45
 70
   128
 43
0.0
 10
274.3255218529
 20
23.8242673272
 10
274.3674507232
 20
24.5254424031
 10
274.492383531
 20
25.2607534288
 10
274.6977773069
 20
26.0152318813
 10
274.9794506224
 20
26.7735185136
 10
275.3316695305
 20
27.5201769424
 10
275.747263634
 20
28.2400070428
 10
276.2177729408
 20
28.9183556789
 10
276.7336190857
 20
29.5414132679
 10
277.2843010003
 20
30.0964963219
 10
277.8586082814
 20
30.5723046536
 10
278.4448497885
 20
30.9591525837
 10
279.0310912955
 20
31.2491646902
 10
279.6053985767
 20
31.4364374313
 10
280.1560804913
 20
31.5171581825
 10
280.6719266362
 20
31.489683875
 10
281.142435943
 20
31.3545737214
 10
281.5580300465
 20
31.1145783593
 10
281.9102489546
 20
30.7745832257
 10
282.1919222701
 20
30.3415096811
 10
282.3973160459
 20
29.8241738345
 10
282.5222488538
 20
29.2331071585
 10
282.5641777241
 20
28.5803421257
 10
282.5222488538
 20
27.8791670497
 10
282.3973160459
 20
27.1438560241
 10
282.1919222701
 20
26.3893775716
 10
281.9102489546
 20
25.6310909393
 10
281.5580300465
 20
24.8844325105
 10
281.142435943
 20
24.1646024101
 10
280.6719266362
 20
23.486253774
 10
280.1560804913
 20
22.8631961849
 10
279.6053985767
 20
22.308113131
 10
279.0310912955
 20
21.8323047993
 10
278.4448497885
 20
21.4454568691
 10
277.8586082814
 20
21.1554447626
 10
277.2843010003
 20
20.9681720216
 10
276.7336190857
 20
20.8874512704
 10
276.2177729408
 20
20.9149255779
 10
275.747263634
 20
21.0500357315
 10
275.3316695305
 20
21.2900310936
 10
274.9794506224
 20
21.6300262272
 10
274.6977773069
 20
22.0630997718
 10
274.492383531
 20
22.5804356184
 10
274.3674507232
 20
23.1715022944
 10
274.3255218529
 20
23.8242673272
  0
LWPOLYLINE
  5
2E9
330
1F
100
AcDbEntity
  8
0
  6
Continuous
 62
     7
370
    18
100
AcDbPolyline
 90
       38
 70
   128
 43
0.0
 10
275.6034492026
 20
24.5619990831
 10
275.6443201211
 20
25.1401094517
 10
275.7657573747
 20
25.7487773554
 10
275.9642670556
 20
26.3704923708
 10
276.234138595
 20
26.9873688039
 10
276.567608247
 20
27.5816604608
 10
276.9550828293
 20
28.1362706594
 10
277.3854152411
 20
28.6352440805
 10
277.8462255867
 20
29.0642261049
 10
278.3242573343
 20
29.4108760264
 10
278.8057582737
 20
29.6652213851
 10
279.2768765695
 20
29.8199447801
 10
279.7240589128
 20
29.8705950858
 10
280.1344407188
 20
29.8157155594
 10
280.4962162601
 20
29.6568846987
 10
280.7989774879
 20
29.3986719137
 10
281.0340148216
 20
29.0485053677
 10
281.1945666555
 20
28.6164588815
 10
281.2760139585
 20
28.1149614902
 10
281.2760139585
 20
27.5584405352
 10
281.1945666555
 20
26.9629060895
 10
281.0340148216
 20
26.3454904015
 10
280.7989774879
 20
25.7239555262
 10
280.4962162601
 20
25.1161820683
 10
280.1344407188
 20
24.5396540585
 10
279.7240589128
 20
24.0109577843
 10
279.2768765695
 20
23.5453023464
 10
278.8057582737
 20
23.1560841352
 10
278.3242573343
 20
22.8545003425
 10
277.8462255867
 20
22.6492265563
 10
277.3854152411
 20
22.5461682805
 10
276.9550828293
 20
22.5482904746
 10
276.567608247
 20
22.655532043
 10
276.234138595
 20
22.864807835
 10
275.9642670556
 20
23.170097221
 10
275.7657573747
 20
23.5626178375
 10
275.6443201211
 20
24.0310772726
 10
275.6034492026
 20
24.5619990831
  0
LWPOLYLINE
  5
2EA
330
1F
100
AcDbEntity
  8
0
  6
Continuous
 62
     7
370
    18
100
AcDbPolyline
 90
       21
 70
   128
 43
0.0
 10
279.9667767688
 20
29.6530966644
 10
280.1420493774
 20
29.5770236626
 10
280.4566701685
 20
29.3428058862
 10
280.7019342045
 20
29.0103601127
 10
280.8699587076
 20
28.5903716805
 10
280.955343119
 20
28.0963391225
 10
280.955343119
 20
27.5441411615
 10
280.8699587076
 20
26.9515258605
 10
280.7019342045
 20
26.3375404663
 10
280.4566701685
 20
25.7219188644
 10
280.1420493774
 20
25.1244476546
 10
279.7681841113
 20
24.5643299524
 10
279.3470908319
 20
24.0595687794
 10
278.8923036167
 20
23.6263871514
 10
278.4184398282
 20
23.2787079504
 10
277.9407297694
 20
23.0277061635
 10
277.4745275083
 20
22.8814489208
 10
277.0348170934
 20
22.8446370554
 10
276.635731219
 20
22.9184538521
 10
276.2900967682
 20
23.1005268415
 10
276.2126520987
 20
23.1629870283
  0
LWPOLYLINE
  5
2EB
330
1F
100
AcDbEntity
  8
0
  6
Continuous
 62
     7
370
    18
100
AcDbPolyline
 90
       28
 70
   128
 43
0.0
 10
249.4534722761
 20
34.774589785
 10
249.4949230431
 20
35.6813547177
 10
249.6187899967
 20
36.6253470319
 10
249.8236203877
 20
37.5954989919
 10
250.1070125044
 20
38.5804364847
 10
250.4656446482
 20
39.5686121928
 10
250.8953120124
 20
40.5484404785
 10
251.3909767316
 20
41.5084338818
 10
251.9468274798
 20
42.4373375269
 10
252.5563482882
 20
43.3242604855
 10
253.2123919734
 20
44.1588040982
 10
253.907267888
 20
44.9311856366
 10
254.6328288486
 20
45.6323474212
 10
255.3805684357
 20
46.2540707871
 10
256.1417200226
 20
46.7890659516
 10
256.9073598373
 20
47.2310604085
 10
257.6685114242
 20
47.5748721603
 10
258.4162510113
 20
47.8164705454
 10
259.1418119719
 20
47.9530236146
 10
259.8366878865
 20
47.9829287301
 10
260.4927315717
 20
47.9058370335
 10
261.1022523801
 20
47.7226518208
 10
261.6581031283
 20
47.4355197891
 10
262.1537678475
 20
47.0478086892
 10
262.5834352117
 20
46.5640637828
 10
262.9420673555
 20
45.9899559342
 10
263.2254594722
 20
45.3322160147
 10
263.4083221355
 20
44.6973961839
  0
LWPOLYLINE
  5
2EC
330
1F
100
AcDbEntity
  8
0
  6
Continuous
 62
     7
370
    18
100
AcDbPolyline
 90
       14
 70
   128
 43
0.0
 10
254.9090128663
 20
29.9745652925
 10
254.6328288486
 20
29.8967899603
 10
253.907267888
 20
29.7602368911
 10
253.2123919734
 20
29.7303317757
 10
252.5563482882
 20
29.8074234723
 10
251.9468274798
 20
29.9906086849
 10
251.3909767316
 20
30.2777407167
 10
250.8953120124
 20
30.6654518166
 10
250.4656446482
 20
31.149196723
 10
250.1070125044
 20
31.7233045716
 10
249.8236203877
 20
32.381044491
 10
249.6187899967
 20
33.1147043155
 10
249.4949230431
 20
33.9156828892
 10
249.4534722761
 20
34.774589785
  0
LWPOLYLINE
  5
2ED
330
1F
100
AcDbEntity
  8
0
  6
Continuous
 62
     7
370
    18
100
AcDbPolyline
 90
       29
 70
   128
 43
0.0
 10
239.1031968511
 20
36.0655348464
 10
239.1443914443
 20
37.1939904205
 10
239.2676690005
 20
38.3616527021
 10
239.4721174358
 20
39.5598774051
 10
239.7562234147
 20
40.7797933015
 10
240.1178828876
 20
42.0123681907
 10
240.5544182125
 20
43.2484763891
 10
241.0625979115
 20
44.4789667894
 10
241.6386597199
 20
45.6947293992
 10
242.2783382448
 20
46.8867618789
 10
242.9768972342
 20
48.0462402614
 10
243.729165138
 20
49.1645790258
 10
244.5295733039
 20
50.233499535
 10
245.372194502
 20
51.2450864969
 10
246.2507906695
 20
52.1918520287
 10
247.158857033
 20
53.0667854629
 10
248.0896706763
 20
53.8634087619
 10
249.0363402603
 20
54.5758257528
 10
249.9918567107
 20
55.1987605147
 10
250.9491458394
 20
55.7276014445
 10
251.9011203287
 20
56.1584335482
 10
252.8407317973
 20
56.4880662165
 10
253.761023875
 20
56.7140593014
 10
254.6551830956
 20
56.8347403289
 10
255.5165896051
 20
56.8492155207
 10
256.3388653999
 20
56.7573771092
 10
257.1159228946
 20
56.5599055196
 10
257.8420090444
 20
56.2582621408
 10
258.0994005068
 20
56.1190903903
  0
LWPOLYLINE
  5
2EE
330
1F
100
AcDbEntity
  8
0
  6
Continuous
 62
     7
370
    18
100
AcDbPolyline
 90
       11
 70
   128
 43
0.0
 10
242.3631791923
 20
28.8602019965
 10
242.2783382448
 20
28.9102480354
 10
241.6386597199
 20
29.3637234108
 10
241.0625979115
 20
29.9143792139
 10
240.5544182125
 20
30.5581378227
 10
240.1178828876
 20
31.2902330631
 10
239.7562234147
 20
32.105244813
 10
239.4721174358
 20
32.9971389283
 10
239.2676690005
 20
33.9593124924
 10
239.1443914443
 20
34.9846415372
 10
239.1031968511
 20
36.0655348464
  0
LWPOLYLINE
  5
2EF
330
1F
100
AcDbEntity
  8
0
  6
Continuous
 62
     7
370
    18
100
AcDbPolyline
 90
        8
 70
   128
 43
0.0
 10
251.5747923089
 20
34.7745894048
 10
251.6154330661
 20
33.9922966547
 10
251.736804136
 20
33.2675050048
 10
251.9372644257
 20
32.6100162152
 10
252.2141036952
 20
32.0287218724
 10
252.5635777898
 20
31.5314828524
 10
252.9809609941
 20
31.1250236115
 10
253.3355457233
 20
30.8829087655
  0
LWPOLYLINE
  5
2F0
330
1F
100
AcDbEntity
  8
0
  6
Continuous
 62
     7
370
    18
100
AcDbPolyline
 90
       22
 70
   128
 43
0.0
 10
261.8348548279
 20
45.6057393718
 10
261.7097922867
 20
45.6738077827
 10
261.174366955
 20
45.8835197337
 10
260.5904042589
 20
45.9899246937
 10
259.9658011349
 20
45.9915836963
 10
259.3090045687
 20
45.8884741806
 10
258.628896597
 20
45.6819909053
 10
257.9346744113
 20
45.3749254032
 10
257.2357261398
 20
44.9714311546
 10
256.5415039542
 20
44.4769647822
 10
255.8613959825
 20
43.8982121077
 10
255.2045994163
 20
43.2430004494
 10
254.5799962922
 20
42.5201900299
 10
253.9960335961
 20
41.7395560923
 10
253.4606082645
 20
40.9116552119
 10
252.9809609941
 20
40.0476830043
 10
252.5635777898
 20
39.1593233733
 10
252.2141036952
 20
38.2585901523
 10
251.9372644257
 20
37.3576639925
 10
251.736804136
 20
36.4687286789
 10
251.6154330661
 20
35.6038049744
 10
251.5747923089
 20
34.7745894048
  0
LWPOLYLINE
  5
2F1
330
1F
100
AcDbEntity
  8
0
  6
Continuous
 62
     7
370
    18
100
AcDbPolyline
 90
       14
 70
   128
 43
0.0
 10
243.7272782896
 20
32.7298982187
 10
243.6539915055
 20
33.1193223624
 10
243.5379045967
 20
34.0935606491
 10
243.5054804993
 20
35.1240222188
 10
243.5569951435
 20
36.2019217862
 10
243.6920086214
 20
37.3180695906
 10
243.909371773
 20
38.4629511727
 10
244.2072294783
 20
39.6268052149
 10
244.5830437069
 20
40.7997101958
 10
245.033609981
 20
41.9716667095
 10
245.5550876693
 20
43.1326830141
 10
246.1430302791
 20
44.2728617222
 10
246.7924262868
 20
45.3824834474
 10
247.4977393087
 20
46.4520866499
  0
LWPOLYLINE
  5
2F2
330
1F
100
AcDbEntity
  8
0
  6
Continuous
 62
     7
370
    18
100
AcDbPolyline
 90
       18
 70
   128
 43
0.0
 10
244.2390740565
 20
29.7999705177
 10
243.9892104164
 20
30.1678093312
 10
243.5909707717
 20
30.9082900246
 10
243.2709181408
 20
31.7317568794
 10
243.0317117265
 20
32.6313645293
 10
242.8753403331
 20
33.5996361069
 10
242.8031039274
 20
34.6285241053
 10
242.8156024437
 20
35.7094763265
 10
242.9127318317
 20
36.8335082676
 10
243.0936853745
 20
37.9912775988
 10
243.3569582979
 20
39.1731610886
 10
243.700362917
 20
40.3693354728
 10
244.1210451
 20
41.5698585373
 10
244.615508634
 20
42.7647529567
 10
245.1796422257
 20
43.9440848098
 10
245.8087583552
 20
45.0980544512
 10
246.4976275207
 20
46.2170687521
 10
247.2405243362
 20
47.2918285489
  0
LINE
  5
2F3
330
1F
100
AcDbEntity
  8
0
  6
Continuous
 62
     7
370
    18
100
AcDbLine
 10
250.2324477817
 20
48.6928491163
 30
0.0
 11
250.2756074717
 21
48.7380758783
 31
0.0
  0
ARC
  5
2F4
330
1F
100
AcDbEntity
  8
0
  6
Continuous
 62
     7
370
    18
100
AcDbCircle
 10
260.3996875733
 20
39.3990596837
 30
0.0
 40
14.48276781207066
100
AcDbArc
 50
110.0665409331
 51
139.2901057068
  0
LWPOLYLINE
  5
2F5
330
1F
100
AcDbEntity
  8
0
  6
Continuous
 62
     7
370
    18
100
AcDbPolyline
 90
       12
 70
   128
 43
0.0
 10
248.5847173978
 20
48.9639920661
 10
249.4527999022
 20
49.8903641104
 10
250.3511797345
 20
50.7398377757
 10
251.2721792536
 20
51.5051511717
 10
252.207927124
 20
52.179765579
 10
253.1504258781
 20
52.7579143381
 10
254.0916206729
 20
53.2346562297
 10
255.0234675725
 20
53.6059171751
 10
255.9380026541
 20
53.8685240466
 10
256.8274098175
 20
54.0202331664
 10
257.6840876482
 20
54.0597468524
 10
258.223680908
 20
54.0246451552
  0
LINE
  5
2F6
330
1F
100
AcDbEntity
  8
0
  6
Continuous
 62
     7
370
    18
100
AcDbLine
 10
234.6168326377
 20
46.4381424452
 30
0.0
 11
234.9229965649
 21
46.0674073892
 31
0.0
  0
LINE
  5
2F7
330
1F
100
AcDbEntity
  8
0
  6
Continuous
 62
     7
370
    18
100
AcDbLine
 10
234.6168326377
 20
38.6740322974
 30
0.0
 11
234.9229965649
 21
39.361565766
 31
0.0
  0
LINE
  5
2F8
330
1F
100
AcDbEntity
  8
0
  6
Continuous
 62
     7
370
    18
100
AcDbLine
 10
235.6589068817
 20
39.7863977491
 30
0.0
 11
234.9230038089
 21
39.3615699479
 31
0.0
  0
LINE
  5
2F9
330
1F
100
AcDbEntity
  8
0
  6
Continuous
 62
     7
370
    18
100
AcDbLine
 10
235.5923313246
 20
40.5296237168
 30
0.0
 11
234.2830598905
 21
39.7737974061
 31
0.0
  0
LINE
  5
2FA
330
1F
100
AcDbEntity
  8
0
  6
Continuous
 62
     7
370
    18
100
AcDbLine
 10
231.1059810589
 20
41.3482063658
 30
0.0
 11
230.8094937847
 21
40.852144748
 31
0.0
  0
LINE
  5
2FB
330
1F
100
AcDbEntity
  8
0
  6
Continuous
 62
     7
370
    18
100
AcDbLine
 10
232.9377986698
 20
42.4056921633
 30
0.0
 11
231.106041645
 21
41.3482413414
 31
0.0
  0
LINE
  5
2FC
330
1F
100
AcDbEntity
  8
0
  6
Continuous
 62
     7
370
    18
100
AcDbLine
 10
232.9377986698
 20
42.4056921633
 30
0.0
 11
233.0591088243
 21
42.34394165
 31
0.0
  0
OLE2FRAME
  5
2FD
330
1F
100
AcDbEntity
  8
0
100
AcDbOle2Frame
 70
     2
  3
Paintbrush-Bild
 10
13.8511154363
 20
38.264191557
 30
0.0
 11
51.6290888628
 21
31.9806341108
 31
0.0
 71
     2
 72
     0
 73
     1
 90
    12928
310
80552BED0767C5B32B40DDAF6807D121434000000000000000006FFBDDFB85D0
310
4940DDAF6807D121434000000000000000006FFBDDFB85D04940416F4BD60AFB
310
3F4000000000000000002BED0767C5B32B40416F4BD60AFB3F40000000000000
310
0000000000000100000000010000010000000100000000000100000000320000
310
D0CF11E0A1B11AE1000000000000000000000000000000003E000300FEFF0900
310
0600000000000000000000000100000001000000000000000010000002000000
310
01000000FEFFFFFF0000000000000000FFFFFFFFFFFFFFFFFFFFFFFFFFFFFFFF
310
FFFFFFFFFFFFFFFFFFFFFFFFFFFFFFFFFFFFFFFFFFFFFFFFFFFFFFFFFFFFFFFF
310
FFFFFFFFFFFFFFFFFFFFFFFFFFFFFFFFFFFFFFFFFFFFFFFFFFFFFFFFFFFFFFFF
310
FFFFFFFFFFFFFFFFFFFFFFFFFFFFFFFFFFFFFFFFFFFFFFFFFFFFFFFFFFFFFFFF
310
FFFFFFFFFFFFFFFFFFFFFFFFFFFFFFFFFFFFFFFFFFFFFFFFFFFFFFFFFFFFFFFF
310
FFFFFFFFFFFFFFFFFFFFFFFFFFFFFFFFFFFFFFFFFFFFFFFFFFFFFFFFFFFFFFFF
310
FFFFFFFFFFFFFFFFFFFFFFFFFFFFFFFFFFFFFFFFFFFFFFFFFFFFFFFFFFFFFFFF
310
FFFFFFFFFFFFFFFFFFFFFFFFFFFFFFFFFFFFFFFFFFFFFFFFFFFFFFFFFFFFFFFF
310
FFFFFFFFFFFFFFFFFFFFFFFFFFFFFFFFFFFFFFFFFFFFFFFFFFFFFFFFFFFFFFFF
310
FFFFFFFFFFFFFFFFFFFFFFFFFFFFFFFFFFFFFFFFFFFFFFFFFFFFFFFFFFFFFFFF
310
FFFFFFFFFFFFFFFFFFFFFFFFFFFFFFFFFFFFFFFFFFFFFFFFFFFFFFFFFFFFFFFF
310
FFFFFFFFFFFFFFFFFFFFFFFFFFFFFFFFFFFFFFFFFFFFFFFFFFFFFFFFFFFFFFFF
310
FFFFFFFFFFFFFFFFFFFFFFFFFFFFFFFFFFFFFFFFFFFFFFFFFFFFFFFFFFFFFFFF
310
FFFFFFFFFFFFFFFFFFFFFFFFFFFFFFFFFFFFFFFFFFFFFFFFFFFFFFFFFFFFFFFF
310
FDFFFFFFFEFFFFFFFEFFFFFFFEFFFFFF05000000060000000700000008000000
310
090000000A0000000B0000000C0000000D0000000E0000000F00000010000000
310
11000000120000001300000014000000150000001600000017000000FEFFFFFF
310
FFFFFFFFFFFFFFFFFFFFFFFFFFFFFFFFFFFFFFFFFFFFFFFFFFFFFFFFFFFFFFFF
310
FFFFFFFFFFFFFFFFFFFFFFFFFFFFFFFFFFFFFFFFFFFFFFFFFFFFFFFFFFFFFFFF
310
FFFFFFFFFFFFFFFFFFFFFFFFFFFFFFFFFFFFFFFFFFFFFFFFFFFFFFFFFFFFFFFF
310
FFFFFFFFFFFFFFFFFFFFFFFFFFFFFFFFFFFFFFFFFFFFFFFFFFFFFFFFFFFFFFFF
310
FFFFFFFFFFFFFFFFFFFFFFFFFFFFFFFFFFFFFFFFFFFFFFFFFFFFFFFFFFFFFFFF
310
FFFFFFFFFFFFFFFFFFFFFFFFFFFFFFFFFFFFFFFFFFFFFFFFFFFFFFFFFFFFFFFF
310
FFFFFFFFFFFFFFFFFFFFFFFFFFFFFFFFFFFFFFFFFFFFFFFFFFFFFFFFFFFFFFFF
310
FFFFFFFFFFFFFFFFFFFFFFFFFFFFFFFFFFFFFFFFFFFFFFFFFFFFFFFFFFFFFFFF
310
FFFFFFFFFFFFFFFFFFFFFFFFFFFFFFFFFFFFFFFFFFFFFFFFFFFFFFFFFFFFFFFF
310
FFFFFFFFFFFFFFFFFFFFFFFFFFFFFFFFFFFFFFFFFFFFFFFFFFFFFFFFFFFFFFFF
310
FFFFFFFFFFFFFFFFFFFFFFFFFFFFFFFFFFFFFFFFFFFFFFFFFFFFFFFFFFFFFFFF
310
FFFFFFFFFFFFFFFFFFFFFFFFFFFFFFFFFFFFFFFFFFFFFFFFFFFFFFFFFFFFFFFF
310
FFFFFFFFFFFFFFFFFFFFFFFFFFFFFFFFFFFFFFFFFFFFFFFFFFFFFFFFFFFFFFFF
310
52006F006F007400200045006E00740072007900000000000000000000000000
310
0000000000000000000000000000000000000000000000000000000000000000
310
16000500FFFFFFFFFFFFFFFF020000000A00030000000000C000000000000046
310
00000000000000000000000060503C3CACA5D30103000000C000000000000000
310
01004F006C006500000000000000000000000000000000000000000000000000
310
0000000000000000000000000000000000000000000000000000000000000000
310
0A000200FFFFFFFFFFFFFFFFFFFFFFFF00000000000000000000000000000000
310
0000000000000000000000000000000000000000000000001400000000000000
310
010043006F006D0070004F0062006A0000000000000000000000000000000000
310
0000000000000000000000000000000000000000000000000000000000000000
310
120002010100000003000000FFFFFFFF00000000000000000000000000000000
310
0000000000000000000000000000000000000000010000004D00000000000000
310
01004F006C006500310030004E00610074006900760065000000000000000000
310
0000000000000000000000000000000000000000000000000000000000000000
310
1A000200FFFFFFFFFFFFFFFFFFFFFFFF00000000000000000000000000000000
310
0000000000000000000000000000000000000000040000002426000000000000
310
FEFFFFFF02000000FEFFFFFFFFFFFFFFFFFFFFFFFFFFFFFFFFFFFFFFFFFFFFFF
310
FFFFFFFFFFFFFFFFFFFFFFFFFFFFFFFFFFFFFFFFFFFFFFFFFFFFFFFFFFFFFFFF
310
FFFFFFFFFFFFFFFFFFFFFFFFFFFFFFFFFFFFFFFFFFFFFFFFFFFFFFFFFFFFFFFF
310
FFFFFFFFFFFFFFFFFFFFFFFFFFFFFFFFFFFFFFFFFFFFFFFFFFFFFFFFFFFFFFFF
310
FFFFFFFFFFFFFFFFFFFFFFFFFFFFFFFFFFFFFFFFFFFFFFFFFFFFFFFFFFFFFFFF
310
FFFFFFFFFFFFFFFFFFFFFFFFFFFFFFFFFFFFFFFFFFFFFFFFFFFFFFFFFFFFFFFF
310
FFFFFFFFFFFFFFFFFFFFFFFFFFFFFFFFFFFFFFFFFFFFFFFFFFFFFFFFFFFFFFFF
310
FFFFFFFFFFFFFFFFFFFFFFFFFFFFFFFFFFFFFFFFFFFFFFFFFFFFFFFFFFFFFFFF
310
FFFFFFFFFFFFFFFFFFFFFFFFFFFFFFFFFFFFFFFFFFFFFFFFFFFFFFFFFFFFFFFF
310
FFFFFFFFFFFFFFFFFFFFFFFFFFFFFFFFFFFFFFFFFFFFFFFFFFFFFFFFFFFFFFFF
310
FFFFFFFFFFFFFFFFFFFFFFFFFFFFFFFFFFFFFFFFFFFFFFFFFFFFFFFFFFFFFFFF
310
FFFFFFFFFFFFFFFFFFFFFFFFFFFFFFFFFFFFFFFFFFFFFFFFFFFFFFFFFFFFFFFF
310
FFFFFFFFFFFFFFFFFFFFFFFFFFFFFFFFFFFFFFFFFFFFFFFFFFFFFFFFFFFFFFFF
310
FFFFFFFFFFFFFFFFFFFFFFFFFFFFFFFFFFFFFFFFFFFFFFFFFFFFFFFFFFFFFFFF
310
FFFFFFFFFFFFFFFFFFFFFFFFFFFFFFFFFFFFFFFFFFFFFFFFFFFFFFFFFFFFFFFF
310
FFFFFFFFFFFFFFFFFFFFFFFFFFFFFFFFFFFFFFFFFFFFFFFFFFFFFFFFFFFFFFFF
310
0100000200000000000000000000000000000000000000000000000000000000
310
0000000000000000000000000000000000000000000000000000000000000000
310
0100FEFF030A0000FFFFFFFF0A00030000000000C00000000000004607000000
310
5042727573680007000000504272757368000700000050427275736800F439B2
310
7100000000000000000000000000000000000000000000000000000000000000
310
0000000000000000000000000000000000000000000000000000000000000000
310
0000000000000000000000000000000000000000000000000000000000000000
310
0000000000000000000000000000000000000000000000000000000000000000
310
0000000000000000000000000000000000000000000000000000000000000000
310
0000000000000000000000000000000000000000000000000000000000000000
310
0000000000000000000000000000000000000000000000000000000000000000
310
0000000000000000000000000000000000000000000000000000000000000000
310
0000000000000000000000000000000000000000000000000000000000000000
310
0000000000000000000000000000000000000000000000000000000000000000
310
0000000000000000000000000000000000000000000000000000000000000000
310
0000000000000000000000000000000000000000000000000000000000000000
310
20260000424D0E260000000000003E00000028000000B40200006E0000000100
310
01000000000000000000130B0000130B00000200000002000000000000FFFFFF
310
FFFFFFFFFFFFFFFFFFFFFFFFFFFFFFFFFFFFFFFFFFFFFFFFFFFFFFFFFFFFFFFF
310
FFFFFFFFFFFFFFFFFFFFFFFFFFFFFFFFFFFFFFFFFFFFFFFFFFFFFFFFFFFFFFFF
310
FFFFFFFFFFFFFFFFFFFFFFFFFFFFFFFFFFFFFFFFFFFFFFFFF000FFFFFFFFFFFF
310
FFFFFFFFFFFFFFFFFFFFFFFFFFFFFFFFFFFFFFFFFFFFFFFFFFFFFFFFFFFFFFFF
310
FFFFFFFFFFFFFFFFFFFFFFFFFFFFFFFFFFFFFFFFFFFFFFFFFFFFFFFFFFFFFFFF
310
FFFFFFFFFFFFFFFFFFFFFFFFFFFFFFFFF000FFFFFFFFFFFFFFFFFFFFFFFFFFFF
310
FFFFFFFFFFFFFFFFFFFFFFFFFFFFFFFFFFFFFFFFFFFFFFFFFFFFFFFFFFFFFFFF
310
FFFFFFFFFFFFFFFFFFFFFFFFFFFFFFFFFFFFFFFFFFFFFFFFFFFFFFFFFFFFFFFF
310
FFFFFFFFFFFFFFFFF000FFFFFFFFFFFFFFFFFFFFFFFFFFFFFFFFFFFFFFFFFFFF
310
FFFFFFFFFFFFFFFFFFFFFFFFFFFFFFFFFFFFFFFFFFFFFFFFFFFFFFFFFFFFFFFF
310
FFFFFFFFFFFFFFFFFFFFFFFFFFFFFFFFFFFFFFFFFFFFFFFFFFFFFFFFFFFFFFFF
310
F000FFFFFFFFFFFFFFFFFFFFFFFFFFFFFFFFFFFFFFFFFFFFFFFFFFFFFFFFFFFF
310
FFFFFFFFFFFFFFFFFFFFFFFFFFFFFFFFFFFFFFFFFFFFFFFFFFFFFFFFFFFFFFFF
310
FFFFFFFFFFFFFFFFFFFFFFFFFFFFFFFFFFFFFFFFFFFFFFFFF000FFFFFFFFFFFF
310
FFFFFFFFFFFFFFFFFFFFFFFFFFFFFFFFFFFFFFFFFFFFFFFFFFFFFFFFFFFFFFFF
310
FFFFFFFFFFFFFFFFFFFFFFFFFFFFFFFFFFFFFFFFFFFFFFFFFFFFFFFFFFFFFFFF
310
FFFFFFFFFFFFFFFFFFFFFFFFFFFFFFFFF000FFFFFFFFFFFFFFFFFFFFFFFFFFFF
310
FFFFFFFFFFFFFFFFFFFFFFFFFFFFFFFFFFFFFFFFFFFFFFFFFFFFFFFFFFFFFFFF
310
FFFFFFFFFFFFFFFFFFFFFFFFFFFFFFFFFFFFFFFFFFFFFFFFFFFFFFFFFFFFFFFF
310
FFFFFFFFFFFFFFFFF000FFFFFFFFFFFFFFFFFFFFFFFFFFFFFFFFFFFFFFFFFFFF
310
FFFFFFFFFFFFFFFFFFFFFFFFFFFFFFFFFFFFFFFFFFFFFFFFFFFFFFFFFFFFFFFF
310
FFFFFFFFFFFFFFFFFFFFFFFFFFFFFFFFFFFFFFFFFFFFFFFFFFFFFFFFFFFFFFFF
310
F000FFFFFFFFFFFFFFFFFFFFFFFFFFFFFFFFFFFFFFFFFFFFFFFFFFFFFFFFFFFF
310
FFFFFFFFFFFFFFFFFFFFFFFFFFFFFFFFFFFFFFFFFFFFFFFFFFFFFFFFFFFFFFFF
310
FFFFFFFFFFFFFFFFFFFFFFFFFFFFFFFFFFFFFFFFFFFFFFFFF000FFFFFFFFFFFF
310
FFFFFFFFFFFFFFFFFFFFFFFFFFFFFFFFFFFFFFFFFFFFFFFFFFFFFFFFFFFFFFFF
310
FFFFFFFFFFFFFFFFFFFFFFFFFFFFFFFFFFFFFFFFFFFFFFFFFFFFFFFFFFFFFFFF
310
FFFFFFFFFFFFFFFFFFFFFFFFFFFFFFFFF000FFFFFFFFFFFFFFFFFFFFFFFFFFFF
310
FFFFFFFFFFFFFFFFFFFFFFFFFFFFFFFFFFFFFFFFFFFFFFFFFFFFFFFFFFFFFFFF
310
FFFFFFFFFFFFFFFFFFFFFFFFFFFFFFFFFFFFFFFFFFFFFFFFFFFFFFFFFFFFFFFF
310
FFFFFFFFFFFFFFFFF000FFFFFFFFFFFFFFFFFFFFFFFFFFFFFFFFFFFFFFFFFFFF
310
FFFFFFFFFFFFFFFFFFFFFFFFFFFFFFFFFFFFFFFFFFFFFFFFFFFFFFFFFFFFFFFF
310
FFFFFFFFFFFFFFFFFFFFFFFFFFFFFFFFFFFFFFFFFFFFFFFFFFFFFFFFFFFFFFFF
310
F000FFFFFFFFFFFFFFFFFFFFFFFFFFFFFFFFFFFFFFFFFFFFFFFFFFFFFFFFFFFF
310
FFFFFFFFFFFFFFFFFFFFFFFFFFFFFFFFFFFFFFFFFFFFFFFFFFFFFFFFFFFFFFFF
310
FFFFFFFFFFFFFFFFFFFFFFFFFFFFFFFFFFFFFFFFFFFFFFFFF000FFFFFFFFFFFF
310
FFFFFFFFFFFFFFFFFFFFFFFFFFFFFFFFFFFFFFFFFFFFFFFFFFFFFFFFFFFFFFFF
310
FFFFFFFFFFFFFFFFFFFFFFFFFFFFFFFFFFFFFFFFFFFFFFFFFFFFFFFFFFFFFFFF
310
FFFFFFFFFFFFFFFFFFFFFFFFFFFFFFFFF000FFFFFFFFFFFFFFFFFFFFFFFFFFFF
310
FFFFFFFFFFFFFFFFFFFFFFFFFFFFFFFFFFFFFFFFFFFFFFFFFFFFFFFFFFFFFFFF
310
FFFFFFFFFFFFFFFFFFFFFFFFFFFFFFFFFFFFFFFFFFFFFFFFFFFFFFFFFFFFFFFF
310
FFFFFFFFFFFFFFFFF000FFFFFFFFFFFFFFFFFFFFFFFFFFFFFFFFFFFFFFFFFFFF
310
FFFFFFFFFFFFFFFFFFFFFFFFFFFFFFFFFFFFFFFFFFFFFFFFFFFFFFFFFFFFFFFF
310
FFFFFFFFFFFFFFFFFFFFFFFFFFFFFFFFFFFFFFFFFFFFFFFFFFFFFFFFFFFFFFFF
310
F000FFFFFFFFFFFFFFFFFFFFFFFFFFFFFFFFFFFFFFFFFFFFFFFFFFFFFFFFFFFF
310
FFFFFFFFFFFFFFFFFFFFFFFFFFFFFFFFFFFFFFFFFFFFFFFFFFFFFFFFFFFFFFFF
310
FFFFFFFFFFFFFFFFFFFFFFFFFFFFFFFFFFFFFFFFFFFFFFFFF000FFFFFFFFFFFF
310
FFFFFFFFFFFFFFFFFFFFFFFFFFFFFFFFFFFFFFFFFFFFFFFFFFFFFFFFFFFFFFFF
310
FFFFFFFFFFFFFFFFFFFFFFFFFFFFFFFFFFFFFFFFFFFFFFFFFFFFFFFFFFFFFFFF
310
FFFFFFFFFFFFFFFFFFFFFFFFFFFFFFFFF000FFFFFFFFFFFFFFFFFFFFFFFFFFFF
310
FFFFFFFFFFFFFFFFFFFFFFFFFFFFFFFFFFFFFFFFFFFFFFFFFFFFFFFFFFFFFFFF
310
FFFFFFFFFFFFFFFFFFFFFFFFFFFFFFFFFFFFFFFFFFFFFFFFFFFFFFFFFFFFFFFF
310
FFFFFFFFFFFFFFFFF000FFFFF80003FFFFFFFFFFFFFFFFFFFFFFFFFFFFFFFFFF
310
FFFFF00007FFFFFFFFFF00007FFFFFF800000000000000007FFFFFFFFFFFFFFF
310
FFFFFFFC001FFFFFFFFFFFFFFC001FFFFFFFFFFFFFFFFFFFFFFFFFFE0007FFFF
310
F000FFFF8000007FFFFFFFF8000FFFFFC0007FFFFF80007FFFFF0000007FFFFF
310
FFF8000007FFFFF800000000000000007FFFFFF0001FFFFFFFFFFFC00001FFFF
310
FFFFFFFFC00001FFFFFFFF000000000003FFFFE000007FFFF000FFFE0000000F
310
FFFFFFF0000FFFFF80007FFFFF80007FFFFC0000001FFFFFFFC0000001FFFFF8
310
00000000000000007FFFFFF0001FFFFFFFFFFE0000003FFFFFFFFFFE0000003F
310
FFFFFF000000000003FFFF0000000FFFF000FFF800000003FFFFFFF00007FFFF
310
80007FFFFF80007FFFF000000007FFFFFF000000003FFFF80000000000000000
310
7FFFFFF0001FFFFFFFFFF80000000FFFFFFFFFF80000000FFFFFFF0000000000
310
03FFFC00000003FFF000FFE000000000FFFFFFF00007FFFF80003FFFFF80007F
310
FFC000000001FFFFFC000000001FFFF800000000000000007FFFFFF0001FFFFF
310
FFFFE000000003FFFFFFFFE000000003FFFFFF000000000003FFF000000000FF
310
F000FF80000000007FFFFFF00007FFFF80003FFFFF80007FFF8000000000FFFF
310
F80000000007FFF800000000000000007FFFFFF0001FFFFFFFFFC000000001FF
310
FFFFFFC000000001FFFFFF000000000003FFC0000000007FF000FF0000000000
310
3FFFFFE00007FFFF00003FFFFF80007FFE00000000003FFFF00000000003FFF8
310
00000000000000007FFFFFF0001FFFFFFFFF8000000000FFFFFFFF8000000000
310
FFFFFF000000000003FF80000000003FF000FE00000000001FFFFFE00003FFFF
310
00003FFFFF80007FFC00000000001FFFE00000000001FFF8000001FFFE000000
310
7FFFFFF0001FFFFFFFFE00000000003FFFFFFE00000000003FFFFF0000000000
310
03FF00000000001FF000FC00000000000FFFFFE00003FFFF00001FFFFF80007F
310
F800000000001FFFC00000000000FFF8000001FFFE0000007FFFFFF0001FFFFF
310
FFFC00000000001FFFFFFC00000000001FFFFF000000000003FE00000000000F
310
F000F8000000000007FFFFE00003FFFF00001FFFFF80007FF800000000000FFF
310
800000000000FFF8000001FFFE0000007FFFFFF0001FFFFFFFF800000000000F
310
FFFFF800000000000FFFFF000000000003FC000000000007F000F80000000000
310
03FFFFC00003FFFE00001FFFFF80007FF0000000000007FF0000000000007FF8
310
000001FFFE0000007FFFFFF0001FFFFFFFF0000000000007FFFFF00000000000
310
07FFFF000000000003F8000000000003F000F0000000000003FFFFC00001FFFE
310
00001FFFFF80007FE0000000000007FE0000000000003FF8000001FFFE000000
310
7FFFFFF0001FFFFFFFF0000000000007FFFFF0000000000007FFFF0000000000
310
03F800001F800003F000E00001FFF00001FFFFC00001FFFE00000FFFFF80007F
310
E00001FFE00003FE00001FFF00003FF8000001FFFE0000007FFFFFF0001FFFFF
310
FFE000003E000003FFFFE000003E000003FFFF000000000003F00001FFF80001
310
F000E00007FFFC0001FFFFC00001FFFE00000FFFFF80007FC0000FFFFC0003FC
310
0000FFFFC0001FF8000001FFFE0000007FFFFFF0001FFFFFFFC00003FFE00001
310
FFFFC00003FFE00001FFFF0001FFFFFFFFF00007FFFE0001F000E0000FFFFF00
310
00FFFF800001FFFC00000FFFFF80007FC0001FFFFE0001FC0001FFFFE0001FF8
310
000001FFFE0000007FFFFFF0001FFFFFFF80000FFFF80000FFFF80000FFFF800
310
00FFFF0003FFFFFFFFE0000FFFFF8000F000C0003FFFFF8000FFFF800000FFFC
310
000007FFFF80007F80003FFFFF0001FC0003FFFFF0001FF8000001FFFE000000
310
7FFFFFF0001FFFFFFF80003FFFFE0000FFFF80003FFFFE0000FFFF0003FFFFFF
310
FFE0003FFFFF8000F000C0003FFFFF8000FFFF800000FFFC000007FFFF80007F
310
80007FFFFF8001F80007FFFFF8000FF8000001FFFE0000007FFFFFF0001FFFFF
310
FF00007FFFFF00007FFF00007FFFFF00007FFF0003FFFFFFFFE0003FFFFFC000
310
F000C0007FFFFFC000FFFF000000FFFC000007FFFF80007F8000FFFFFF8000F8
310
000FFFFFF8000FF8000001FFFE0000007FFFFFF0001FFFFFFF0000FFFFFF8000
310
7FFF0000FFFFFF80007FFF0003FFFFFFFFC0007FFFFFC00070008000FFFFFFC0
310
00FFFF000000FFF8000007FFFF80007F8000FFFFFF8000F8000FFFFFF8000FF8
310
000001FFFE0000007FFFFFF0001FFFFFFE0001FFFFFFC0003FFE0001FFFFFFC0
310
003FFF0003FFFFFFFFC0007FFFFFE00070008000FFFFFFC0007FFF0000007FF8
310
000003FFFF80007F0001FFFFFF8000F8000FFFFFF8000FF8000001FFFE000000
310
7FFFFFF0001FFFFFFE0001FFFFFFC0003FFE0001FFFFFFC0003FFF0003FFFFFF
310
FFC000FFFFFFE00070008000FFFFFFC0007FFF0000007FF8000003FFFF80007F
310
0001FFFFFF8000F8001FFFFFF8000FF8000001FFFE0000007FFFFFF0001FFFFF
310
FE0003FFFFFFE0003FFE0003FFFFFFE0003FFF0003FFFFFFFFC000FFFFFFE000
310
70008000FFFFFFC0007FFE0000007FF8000003FFFF80007F0001FFFFFF8000F0
310
001FFFFFF8000FF8000001FFFE0000007FFFFFF0001FFFFFFC0003FFFFFFE000
310
1FFC0003FFFFFFE0001FFF0003FFFFFFFFC000FFFFFFC00070008000FFFFFF80
310
007FFE0000007FF0000003FFFF80007F0001FFFFFF0000F0001FFFFFF8000FF8
310
000001FFFE0000007FFFFFF0001FFFFFFC0007FFFFFFF0001FFC0007FFFFFFF0
310
001FFF0003FFFFFFFFC000FFFFFFC00070008001FFFFFF0000FFFE0000003FF0
310
000001FFFF80007F0001FFFFFF0000F8001FFFFFF0000FF8000001FFFE000000
310
7FFFFFF0001FFFFFFC0007FFFFFFF0001FFC0007FFFFFFF0001FFF0003FFFFFF
310
FFC001FFFFFF80007000FFFFFFFFFE0000FFFE0008003FF0008001FFFF80007F
310
FFFFFFFFFC0000FFFFFFFFFFE0000FF8000001FFFE0000007FFFFFF0001FFFFF
310
F8000FFFFFFFF8000FF8000FFFFFFFF8000FFF0003FFFFFFFFFFFFFFFFFF0000
310
7000FFFFFFFFFC0000FFFC0008003FF0008001FFFF80007FFFFFFFFFF80001FF
310
FFFFFFFF80000FF8000001FFFE0000007FFFFFF0001FFFFFF8000FFFFFFFF800
310
0FF8000FFFFFFFF8000FFF0003FFFFFFFFFFFFFFFFFE0000F000FFFFFFFFE000
310
00FFFC000C003FE000C001FFFF80007FFFFFFFFFC00001FFFFFFFFFE00001FF8
310
000001FFFE0000007FFFFFF0001FFFFFF8000FFFFFFFF8000FF8000FFFFFFFF8
310
000FFF0003FFFFFFFFFFFFFFFFF00000F000FFFFFFFE000001FFFC000C001FE0
310
00C000FFFF80007FFFFFFFFE000001FFFFFFFFE000001FF80FFFFFFFFFFFFFC0
310
7FFFFFF0001FFFFFF8000FFFFFFFF8000FF8000FFFFFFFF8000FFF0003FFFFFF
310
FFFFFFFFFF800000F000FFFFFFC0000001FFFC001C001FE001C000FFFF80007F
310
FFFFFF80000003FFFFFFF80000001FF80FFFFFFFFFFFFFC07FFFFFF0001FFFFF
310
F8001FFFFFFFFC000FF8001FFFFFFFFC000FFF0003FFFFFFFFFFFFFFF0000001
310
F000FFFFF800000001FFF8001C001FE001C000FFFF80007FFFFFF800000003FF
310
FFFF800000003FF80FFFFFFFFFFFFFC07FFFFFF0001FFFFFF8001FFFFFFFFC00
310
0FF8001FFFFFFFFC000FFF0003FFFFFFFFFFFFFE00000001F000FFFFC0000000
310
03FFF8001E001FC001E000FFFF80007FFFFF8000000007FFFFFC000000003FF8
310
0FFFFFFFFFFFFFC07FFFFFF0001FFFFFF8001FFFFFFFFC000FF8001FFFFFFFFC
310
000FFF0003FFFFFFFFFFFFE000000003F000FFFE0000000007FFF8001E000FC0
310
01E0007FFF80007FFFFE0000000007FFFFE0000000007FF80FFFFFFFFFFFFFC0
310
7FFFFFF0001FFFFFF0001FFFFFFFFC0007F0001FFFFFFFFC0007FF0003FFFFFF
310
FFFFFF0000000003F000FFF80000000007FFF8001E000FC003E0007FFF80007F
310
FFF0000000000FFFFF8000000000FFF80FFFFFFFFFFFFFC07FFFFFF0001FFFFF
310
F0001FFFFFFFFC0007F0001FFFFFFFFC0007FF0003FFFFFFFFFFFC0000000007
310
F000FFE0000000000FFFF0003E000FC003E0007FFF80007FFFC0000000001FFF
310
FE0000000001FFF80FFFFFFFFFFFFFC07FFFFFF0001FFFFFF0001FFFFFFFFC00
310
07F0001FFFFFFFFC0007FF0003FFFFFFFFFFF0000000000FF000FFC000000000
310
1FFFF0003F000F8003F0003FFF80007FFF80000000003FFFF80000000003FFF8
310
0FFFFFFFFFFFFFC07FFFFFF0001FFFFFF0001FFFFFFFFC0007F0001FFFFFFFFC
310
0007FF0003FFFFFFFFFFE0000000001FF000FF00000000007FFFF0003F000780
310
03F0003FFF80007FFF00000000007FFFF00000000007FFF80FFFFFFFFFFFFFC0
310
7FFFFFF0001FFFFFF0001FFFFFFFFC0007F0001FFFFFFFFC0007FF0003FFFFFF
310
FFFF80000000007FF000FE0000000000FFFFE0003F00078007F0003FFF80007F
310
FE0000000001FFFFE0000000001FFFF80FFFFFFFFFFFFFC07FFFFFF0001FFFFF
310
F0001FFFFFFFFC0007F0001FFFFFFFFC0007FF0003FFFFFFFFFF0000000000FF
310
F000FC0000000003FFFFE0007F00078007F0003FFF80007FFC0000000007FFFF
310
C0000000007FFFF80FFFFFFFFFFFFFC07FFFFFF0001FFFFFF8001FFFFFFFFC00
310
0FF8001FFFFFFFFC000FFF0003FFFFFFFFFE0000000003FFF000FC000000000F
310
FFFFE0007F80070007F8001FFF80007FF8000000001FFFFF8000000001FFFFF8
310
0FFFFFFFFFFFFFC07FFFFFF0001FFFFFF8001FFFFFFFFC000FF8001FFFFFFFFC
310
000FFF0003FFFFFFFFFC000000000FFFF000F8000000007FFFFFE0007F800700
310
07F8001FFF80007FF000000000FFFFFF800000000FFFFFF80FFFFFFFFFFFFFC0
310
7FFFFFF0001FFFFFF8000FFFFFFFF8000FF8000FFFFFFFF8000FFF0003FFFFFF
310
FFFC000000007FFFF000F800000007FFFFFFC0007F8003000FF8001FFF80007F
310
F000000007FFFFFF000000007FFFFFF80FFFFFFFFFFFFFC07FFFFFF0001FFFFF
310
F8000FFFFFFFF8000FF8000FFFFFFFF8000FFF0003FFFFFFFFF80000000FFFFF
310
F000F0000000FFFFFFFFC000FF8003000FF8001FFF80007FE0000000FFFFFFFF
310
0000000FFFFFFFF8000001FFFE0000007FFFFFF0001FFFFFF8000FFFFFFFF800
310
0FF8000FFFFFFFF8000FFF0003FFFFFFFFF8000000FFFFFFF000F000000FFFFF
310
FFFFC000FFC002000FF8000FFF80007FE000001FFFFFFFFE000001FFFFFFFFF8
310
000001FFFE0000007FFFFFF0001FFFFFF8000FFFFFFFF8000FF8000FFFFFFFF8
310
000FFF0003FFFFFFFFF000001FFFFFFFF000E00000FFFFFFFFFFC000FFC00200
310
0FFC000FFF80007FE00001FFFFFFFFFE00001FFFFFFFFFF8000001FFFE000000
310
7FFFFFF0001FFFFFFC000FFFFFFFF8001FFC000FFFFFFFF8001FFF0003FFFFFF
310
FFF00001FFFFFFFFF000E00007FFFFFFFFFF8000FFC000001FFC000FFF80007F
310
C0000FFFFFFFFFFE0000FFFFFFFFFFF8000001FFFE0000007FFFFFF0001FFFFF
310
FC0007FFFFFFF0001FFC0007FFFFFFF0001FFF0003FFFFFFFFF00007FFFFFFFF
310
F000E0001FFFFFFFFFFF8000FFC000001FFC000FFF80007FC0003FFFFFFFFFFE
310
0001FFFFFFFFFFF8000001FFFE0000007FFFFFF0001FFFFFFC0007FFFFFFF000
310
1FFC0007FFFFFFF0001FFF0003FFFFFFFFF0001FFFFFFFFFF000E0003FFFFF00
310
03FF8001FFE000001FFC0007FF80007FC0007FFFFF0007FC0003FFFFF0003FF8
310
000001FFFE0000007FFFFFF0001FFFFFFC0003FFFFFFE0001FFC0003FFFFFFE0
310
001FFF0003FFFFFFFFF0003FFFFFFFFFF000E0003FFFFF0001FF8001FFE00000
310
1FFE0007FF80007FC0007FFFFE0003FC0007FFFFE0003FF8000001FFFE000000
310
7FFFFFF0001FFFFFFE0003FFFFFFE0003FFE0003FFFFFFE0003FFF0003FFFFFF
310
FFF0003FFFFF8001F000E0003FFFFF0001FF0001FFE000001FFE0007FF80007F
310
C0007FFFFE0003FC0007FFFFE0003FF8000001FFFE0000007FFFFFF0001FFFFF
310
FE0001FFFFFFC0003FFE0001FFFFFFC0003FFF0003FFFFFFFFF0003FFFFF0001
310
F000E0003FFFFF0003FF0001FFE000003FFE0007FF80007FC0007FFFFE0003FC
310
0007FFFFE0003FF8000001FFFE0000007FFFFFF0001FFFFFFF0001FFFFFFC000
310
7FFF0001FFFFFFC0007FFF0003FFFFFFFFF0003FFFFF0001F000E0003FFFFE00
310
03FF0003FFF000003FFE0003FF80007FC0007FFFFC0003FE0007FFFFE0003FF8
310
000001FFFE0000007FFFFFF0001FFFFFFF0000FFFFFF80007FFF0000FFFFFF80
310
007FFF0003FFFFFFFFF0003FFFFF0001F000E0003FFFFE0003FF0003FFF00000
310
3FFF0003FF80007FC0007FFFFC0007FE0007FFFFC0003FF8000001FFFE000000
310
7FFFFFF0001FFFFFFF80007FFFFF0000FFFF80007FFFFF0000FFFF0003FFFFFF
310
FFF0003FFFFF0003F000E0003FFFFC0003FE0003FFF000003FFF0003FF80007F
310
E0003FFFF80007FE0003FFFFC0007FF8000001FFFE0000007FFFFFF0001FFFFF
310
FF80003FFFFE0000FFFF80003FFFFE0000FFFF0003FFFFFFFFF0001FFFFE0003
310
F000F0001FFFF80003FE0003FFF000007FFF0001FF80007FE0003FFFF00007FE
310
0001FFFF80007FF8000001FFFE0000007FFFFFF0001FFFFFFFC0000FFFF80001
310
FFFFC0000FFFF80001FFFF0003FFFFFFFFF0001FFFFC0003F000F0000FFFF000
310
07FE0007FFF800007FFF0001FF80007FE0001FFFE00007FF0000FFFE00007FF8
310
000001FFFE0000007FFFFFF0001FFFFFFFC00003FFE00001FFFFC00003FFE000
310
01FFFF0003FFFFFFFFF8000FFFF80003F000F00003FFC00007FC0007FFF80000
310
7FFF8001FF80007FF00007FF80000FFF00007FF80000FFF8000001FFFE000000
310
7F80000000000001FFE000003E000003FFFFE000003E000003FFFF0003FFFFFF
310
FFF80003FFE00007F000F800000000000FFC0007FFF800007FFF8001FF80007F
310
F000000000000FFF000000000000FFF8000001FFFE0000007F80000000000001
310
FFF0000000000007FFFFF0000000000007FFFF0003FFFFFFFFFC00007E000007
310
F000F800000000000FFC0007FFF80000FFFF8000FF80007FF800000000001FFF
310
800000000001FFF8000001FFFE0000007F80000000000001FFF800000000000F
310
FFFFF800000000000FFFFF0003FFFFFFFFFC00000000000FF000FC0000000000
310
1FFC0007FFFC0000FFFF8000FF80007FF800000000003FFFC00000000001FFF8
310
000001FFFE0000007F80000000000001FFF800000000000FFFFFF80000000000
310
0FFFFF0003FFFFFFFFFE00000000001FF000FE00000000003FF8000FFFFC0000
310
FFFF8000FF80007FFC00000000003FFFC00000000003FFF8000001FFFE000000
310
7F80000000000001FFFC00000000001FFFFFFC00000000001FFFFF0003FFFFFF
310
FFFF00000000001FF000FF00000000003FF8000FFFFC0000FFFFC000FF80007F
310
FE00000000007FFFE00000000007FFF8000001FFFE0000007F80000000000001
310
FFFE00000000003FFFFFFE00000000003FFFFF0003FFFFFFFFFF80000000003F
310
F000FF80000000007FF8000FFFFC0001FFFFC0007F80007FFF0000000000FFFF
310
F0000000000FFFF800000000000000007F80000000000001FFFF8000000000FF
310
FFFFFF8000000000FFFFFF0003FFFFFFFFFFC0000000007FF000FFC000000000
310
FFF8000FFFFE0001FFFFC0007F80007FFF8000000001FFFFF8000000001FFFF8
310
00000000000000007F80000000000001FFFFC000000001FFFFFFFFC000000001
310
FFFFFF0003FFFFFFFFFFE000000000FFF000FFE000000003FFF0001FFFFE0001
310
FFFFC0007F80007FFFC000000007FFFFFE000000003FFFF80000000000000000
310
7F80000000000001FFFFE000000003FFFFFFFFE000000003FFFFFF0003FFFFFF
310
FFFFF000000003FFF000FFF80000000FFFF0001FFFFE0001FFFFE0007F80007F
310
FFF00000000FFFFFFF00000000FFFFF800000000000000007F80000000000001
310
FFFFF80000000FFFFFFFFFF80000000FFFFFFF0003FFFFFFFFFFFC0000000FFF
310
F000FFFE0000003FFFF0001FFFFE0003FFFFE0003F80007FFFFC0000003FFFFF
310
FFC0000003FFFFF800000000000000007F80000000000001FFFFFE0000003FFF
310
FFFFFFFE0000003FFFFFFF0003FFFFFFFFFFFF0000003FFFF000FFFF800000FF
310
FFF0001FFFFF0003FFFFE0003F80007FFFFF000001FFFFFFFFF800001FFFFFF8
310
00000000000000007F80000000000001FFFFFFC00001FFFFFFFFFFFFC00001FF
310
FFFFFF0003FFFFFFFFFFFFC00000FFFFF000FFFFF8000FFFFFFFFFFFFFFFFFFF
310
FFFFFFFFFFFFFFFFFFFFF0001FFFFFFFFFFF0000FFFFFFF80000000000000000
310
7FFFFFFFFFFFFFFFFFFFFFFC001FFFFFFFFFFFFFFC001FFFFFFFFFFFFFFFFFFF
310
FFFFFFFC001FFFFFF000FFFFFFFFFFFFFFFFFFFFFFFFFFFFFFFFFFFFFFFFFFFF
310
FFFFFFFFFFFFFFFFFFFFFFFFFFFFFFFFFFFFFFFFFFFFFFFFFFFFFFFFFFFFFFFF
310
FFFFFFFFFFFFFFFFFFFFFFFFFFFFFFFFFFFFFFFFFFFFFFFFFFFFFFFFFFFFFFFF
310
F000FFFFFFFFFFFFFFFFFFFFFFFFFFFFFFFFFFFFFFFFFFFFFFFFFFFFFFFFFFFF
310
FFFFFFFFFFFFFFFFFFFFFFFFFFFFFFFFFFFFFFFFFFFFFFFFFFFFFFFFFFFFFFFF
310
FFFFFFFFFFFFFFFFFFFFFFFFFFFFFFFFFFFFFFFFFFFFFFFFF000FFFFFFFFFFFF
310
FFFFFFFFFFFFFFFFFFFFFFFFFFFFFFFFFFFFFFFFFFFFFFFFFFFFFFFFFFFFFFFF
310
FFFFFFFFFFFFFFFFFFFFFFFFFFFFFFFFFFFFFFFFFFFFFFFFFFFFFFFFFFFFFFFF
310
FFFFFFFFFFFFFFFFFFFFFFFFFFFFFFFFF000FFFFFFFFFFFFFFFFFFFFFFFFFFFF
310
FFFFFFFFFFFFFFFFFFFFFFFFFFFFFFFFFFFFFFFFFFFFFFFFFFFFFFFFFFFFFFFF
310
FFFFFFFFFFFFFFFFFFFFFFFFFFFFFFFFFFFFFFFFFFFFFFFFFFFFFFFFFFFFFFFF
310
FFFFFFFFFFFFFFFFF000FFFFFFFFFFFFFFFFFFFFFFFFFFFFFFFFFFFFFFFFFFFF
310
FFFFFFFFFFFFFFFFFFFFFFFFFFFFFFFFFFFFFFFFFFFFFFFFFFFFFFFFFFFFFFFF
310
FFFFFFFFFFFFFFFFFFFFFFFFFFFFFFFFFFFFFFFFFFFFFFFFFFFFFFFFFFFFFFFF
310
F000FFFFFFFFFFFFFFFFFFFFFFFFFFFFFFFFFFFFFFFFFFFFFFFFFFFFFFFFFFFF
310
FFFFFFFFFFFFFFFFFFFFFFFFFFFFFFFFFFFFFFFFFFFFFFFFFFFFFFFFFFFFFFFF
310
FFFFFFFFFFFFFFFFFFFFFFFFFFFFFFFFFFFFFFFFFFFFFFFFF000FFFFFFFFFFFF
310
FFFFFFFFFFFFFFFFFFFFFFFFFFFFFFFFFFFFFFFFFFFFFFFFFFFFFFFFFFFFFFFF
310
FFFFFFFFFFFFFFFFFFFFFFFFFFFFFFFFFFFFFFFFFFFFFFFFFFFFFFFFFFFFFFFF
310
FFFFFFFFFFFFFFFFFFFFFFFFFFFFFFFFF000FFFFFFFFFFFFFFFFFFFFFFFFFFFF
310
FFFFFFFFFFFFFFFFFFFFFFFFFFFFFFFFFFFFFFFFFFFFFFFFFFFFFFFFFFFFFFFF
310
FFFFFFFFFFFFFFFFFFFFFFFFFFFFFFFFFFFFFFFFFFFFFFFFFFFFFFFFFFFFFFFF
310
FFFFFFFFFFFFFFFFF000FFFFFFFFFFFFFFFFFFFFFFFFFFFFFFFFFFFFFFFFFFFF
310
FFFFFFFFFFFFFFFFFFFFFFFFFFFFFFFFFFFFFFFFFFFFFFFFFFFFFFFFFFFFFFFF
310
FFFFFFFFFFFFFFFFFFFFFFFFFFFFFFFFFFFFFFFFFFFFFFFFFFFFFFFFFFFFFFFF
310
F000FFFFFFFFFFFFFFFFFFFFFFFFFFFFFFFFFFFFFFFFFFFFFFFFFFFFFFFFFFFF
310
FFFFFFFFFFFFFFFFFFFFFFFFFFFFFFFFFFFFFFFFFFFFFFFFFFFFFFFFFFFFFFFF
310
FFFFFFFFFFFFFFFFFFFFFFFFFFFFFFFFFFFFFFFFFFFFFFFFF000FFFFFFFFFFFF
310
FFFFFFFFFFFFFFFFFFFFFFFFFFFFFFFFFFFFFFFFFFFFFFFFFFFFFFFFFFFFFFFF
310
FFFFFFFFFFFFFFFFFFFFFFFFFFFFFFFFFFFFFFFFFFFFFFFFFFFFFFFFFFFFFFFF
310
FFFFFFFFFFFFFFFFFFFFFFFFFFFFFFFFF000FFFFFFFFFFFFFFFFFFFFFFFFFFFF
310
FFFFFFFFFFFFFFFFFFFFFFFFFFFFFFFFFFFFFFFFFFFFFFFFFFFFFFFFFFFFFFFF
310
FFFFFFFFFFFFFFFFFFFFFFFFFFFFFFFFFFFFFFFFFFFFFFFFFFFFFFFFFFFFFFFF
310
FFFFFFFFFFFFFFFFF000FFFFFFFFFFFFFFFFFFFFFFFFFFFFFFFFFFFFFFFFFFFF
310
FFFFFFFFFFFFFFFFFFFFFFFFFFFFFFFFFFFFFFFFFFFFFFFFFFFFFFFFFFFFFFFF
310
FFFFFFFFFFFFFFFFFFFFFFFFFFFFFFFFFFFFFFFFFFFFFFFFFFFFFFFFFFFFFFFF
310
F000FFFFFFFFFFFFFFFFFFFFFFFFFFFFFFFFFFFFFFFFFFFFFFFFFFFFFFFFFFFF
310
FFFFFFFFFFFFFFFFFFFFFFFFFFFFFFFFFFFFFFFFFFFFFFFFFFFFFFFFFFFFFFFF
310
FFFFFFFFFFFFFFFFFFFFFFFFFFFFFFFFFFFFFFFFFFFFFFFFF000FFFFFFFFFFFF
310
FFFFFFFFFFFFFFFFFFFFFFFFFFFFFFFFFFFFFFFFFFFFFFFFFFFFFFFFFFFFFFFF
310
FFFFFFFFFFFFFFFFFFFFFFFFFFFFFFFFFFFFFFFFFFFFFFFFFFFFFFFFFFFFFFFF
310
FFFFFFFFFFFFFFFFFFFFFFFFFFFFFFFFF000FFFFFFFFFFFFFFFFFFFFFFFFFFFF
310
FFFFFFFFFFFFFFFFFFFFFFFFFFFFFFFFFFFFFFFFFFFFFFFFFFFFFFFFFFFFFFFF
310
FFFFFFFFFFFFFFFFFFFFFFFFFFFFFFFFFFFFFFFFFFFFFFFFFFFFFFFFFFFFFFFF
310
FFFFFFFFFFFFFFFFF000FFFFFFFFFFFFFFFFFFFFFFFFFFFFFFFFFFFFFFFFFFFF
310
FFFFFFFFFFFFFFFFFFFFFFFFFFFFFFFFFFFFFFFFFFFFFFFFFFFFFFFFFFFFFFFF
310
FFFFFFFFFFFFFFFFFFFFFFFFFFFFFFFFFFFFFFFFFFFFFFFFFFFFFFFFFFFFFFFF
310
F000FFFFFFFFFFFFFFFFFFFFFFFFFFFFFFFFFFFFFFFFFFFFFFFFFFFFFFFFFFFF
310
FFFFFFFFFFFFFFFFFFFFFFFFFFFFFFFFFFFFFFFFFFFFFFFFFFFFFFFFFFFFFFFF
310
FFFFFFFFFFFFFFFFFFFFFFFFFFFFFFFFFFFFFFFFFFFFFFFFF000FFFFFFFFFFFF
310
FFFFFFFFFFFFFFFFFFFFFFFFFFFFFFFFFFFFFFFFFFFFFFFFFFFFFFFFFFFFFFFF
310
FFFFFFFFFFFFFFFFFFFFFFFFFFFFFFFFFFFFFFFFFFFFFFFFFFFFFFFFFFFFFFFF
310
FFFFFFFFFFFFFFFFFFFFFFFFFFFFFFFFF000FFFFFFFFFFFFFFFFFFFFFFFFFFFF
310
FFFFFFFFFFFFFFFFFFFFFFFFFFFFFFFFFFFFFFFFFFFFFFFFFFFFFFFFFFFFFFFF
310
FFFFFFFFFFFFFFFFFFFFFFFFFFFFFFFFFFFFFFFFFFFFFFFFFFFFFFFFFFFFFFFF
310
FFFFFFFFFFFFFFFFF000FFFFFFFFFFFFFFFFFFFFFFFFFFFFFFFFFFFFFFFFFFFF
310
FFFFFFFFFFFFFFFFFFFFFFFFFFFFFFFFFFFFFFFFFFFFFFFFFFFFFFFFFFFFFFFF
310
FFFFFFFFFFFFFFFFFFFFFFFFFFFFFFFFFFFFFFFFFFFFFFFFFFFFFFFFFFFFFFFF
310
F000FFFFFFFFFFFFFFFFFFFFFFFFFFFFFFFFFFFFFFFFFFFFFFFFFFFFFFFFFFFF
310
FFFFFFFFFFFFFFFFFFFFFFFFFFFFFFFFFFFFFFFFFFFFFFFFFFFFFFFFFFFFFFFF
310
FFFFFFFFFFFFFFFFFFFFFFFFFFFFFFFFFFFFFFFFFFFFFFFFF000FFFFFFFFFFFF
310
FFFFFFFFFFFFFFFFFFFFFFFFFFFFFFFFFFFFFFFFFFFFFFFFFFFFFFFFFFFFFFFF
310
FFFFFFFFFFFFFFFFFFFFFFFFFFFFFFFFFFFFFFFFFFFFFFFFFFFFFFFFFFFFFFFF
310
FFFFFFFFFFFFFFFFFFFFFFFFFFFFFFFFF0000000000000000000000000000000
310
0000000000000000000000000000000000000000000000000000000000000000
310
0000000000000000000000000000000000000000000000000000000000000000
310
0000000000000000000000000000000000000000000000000000000000000000
310
0000000000000000000000000000000000000000000000000000000000000000
310
0000000000000000000000000000000000000000000000000000000000000000
310
0000000000000000000000000000000000000000000000000000000000000000
310
0000000000000000000000000000000000000000000000000000000000000000
310
0000000000000000000000000000000000000000000000000000000000000000
310
0000000000000000000000000000000000000000000000000000000000000000
310
0000000000000000000000000000000000000000000000000000000000000000
310
0000000000000000000000000000000000000000000000000000000000000000
310
0000000000000000000000000000000000000000000000000000000000000000
310
0000000000000000000000000000000000000000000000000000000000000000
310
0000000000000000000000000000000000000000000000000000000000000000
310
0000000000000000000000000000000000000000000000000000000000000000
  1
OLE
  0
ENDSEC
  0
SECTION
  2
OBJECTS
  0
DICTIONARY
  5
C
330
0
100
AcDbDictionary
281
     1
  3
ACAD_GROUP
350
D
  3
ACAD_LAYOUT
350
1A
  3
ACAD_MLINESTYLE
350
17
  3
ACAD_PLOTSETTINGS
350
19
  3
ACAD_PLOTSTYLENAME
350
E
  3
ACAD_SCALELIST
350
47
  0
DICTIONARY
  5
D
102
{ACAD_REACTORS
330
C
102
}
330
C
100
AcDbDictionary
281
     1
  0
DICTIONARY
  5
1A
102
{ACAD_REACTORS
330
C
102
}
330
C
100
AcDbDictionary
281
     1
  3
Layout1
350
1E
  3
Layout2
350
26
  3
Model
350
22
  0
DICTIONARY
  5
17
102
{ACAD_REACTORS
330
C
102
}
330
C
100
AcDbDictionary
281
     1
  3
Standard
350
18
  0
DICTIONARY
  5
19
102
{ACAD_REACTORS
330
C
102
}
330
C
100
AcDbDictionary
281
     1
  0
ACDBDICTIONARYWDFLT
  5
E
102
{ACAD_REACTORS
330
C
102
}
330
C
100
AcDbDictionary
281
     1
  3
Normal
350
F
100
AcDbDictionaryWithDefault
340
F
  0
DICTIONARY
  5
47
102
{ACAD_REACTORS
330
C
102
}
330
C
100
AcDbDictionary
281
     1
  3
A0
350
48
  3
A1
350
49
  3
A2
350
4A
  3
A3
350
4B
  3
A4
350
4C
  3
A5
350
4D
  3
A6
350
4E
  3
A7
350
4F
  3
A8
350
50
  3
A9
350
51
  3
B0
350
52
  3
B1
350
53
  3
B2
350
54
  3
B3
350
55
  3
B4
350
56
  3
B5
350
57
  3
B6
350
58
  3
B7
350
59
  3
B8
350
5A
  3
B9
350
5B
  3
C0
350
5C
  3
C1
350
5D
  3
C2
350
5E
  3
C3
350
5F
  3
C4
350
60
  3
C5
350
61
  3
C6
350
62
  3
C7
350
63
  3
C8
350
64
  3
C9
350
65
  3
D0
350
66
  3
D1
350
67
  3
D2
350
68
  0
LAYOUT
  5
1E
102
{ACAD_REACTORS
330
1A
102
}
330
1A
100
AcDbPlotSettings
  1

  2
none_device
  4

  6

 40
0.0
 41
0.0
 42
0.0
 43
0.0
 44
0.0
 45
0.0
 46
0.0
 47
0.0
 48
0.0
 49
0.0
140
0.0
141
0.0
142
1.0
143
1.0
 70
   688
 72
     1
 73
     0
 74
     5
  7

 75
    16
147
1.0
148
0.0
149
0.0
100
AcDbLayout
  1
Layout1
 70
     1
 71
     1
 10
0.0
 20
0.0
 11
420.0
 21
297.0
 12
0.0
 22
0.0
 32
0.0
 14
1.0000000000E+20
 24
1.0000000000E+20
 34
1.0000000000E+20
 15
-1.0000000000E+20
 25
-1.0000000000E+20
 35
-1.0000000000E+20
146
0.0
 13
0.0
 23
0.0
 33
0.0
 16
1.0
 26
0.0
 36
0.0
 17
0.0
 27
1.0
 37
0.0
 76
     0
330
1B
  0
LAYOUT
  5
26
102
{ACAD_REACTORS
330
1A
102
}
330
1A
100
AcDbPlotSettings
  1

  2
none_device
  4

  6

 40
0.0
 41
0.0
 42
0.0
 43
0.0
 44
0.0
 45
0.0
 46
0.0
 47
0.0
 48
0.0
 49
0.0
140
0.0
141
0.0
142
1.0
143
1.0
 70
   688
 72
     1
 73
     0
 74
     5
  7

 75
    16
147
1.0
148
0.0
149
0.0
100
AcDbLayout
  1
Layout2
 70
     1
 71
     2
 10
0.0
 20
0.0
 11
0.0
 21
0.0
 12
0.0
 22
0.0
 32
0.0
 14
0.0
 24
0.0
 34
0.0
 15
0.0
 25
0.0
 35
0.0
146
0.0
 13
0.0
 23
0.0
 33
0.0
 16
1.0
 26
0.0
 36
0.0
 17
0.0
 27
1.0
 37
0.0
 76
     0
330
23
  0
LAYOUT
  5
22
102
{ACAD_REACTORS
330
1A
102
}
330
1A
100
AcDbPlotSettings
  1

  2
none_device
  4
Letter_(8.50_x_11.00_Inches)
  6

 40
6.35
 41
6.35
 42
6.35000508
 43
6.35000508
 44
215.9
 45
279.4
 46
0.0
 47
0.0
 48
0.0
 49
0.0
140
0.0
141
0.0
142
1.0
143
1.0
 70
  1712
 72
     1
 73
     0
 74
     0
  7

 75
     0
147
1.0
148
0.0
149
0.0
100
AcDbLayout
  1
Model
 70
     1
 71
     0
 10
0.0
 20
0.0
 11
297.0
 21
210.0
 12
0.0
 22
0.0
 32
0.0
 14
0.0
 24
0.0
 34
0.0
 15
297.0
 25
210.0
 35
0.0
146
0.0
 13
0.0
 23
0.0
 33
0.0
 16
1.0
 26
0.0
 36
0.0
 17
0.0
 27
1.0
 37
0.0
 76
     0
330
1F
331
29
  0
MLINESTYLE
  5
18
102
{ACAD_REACTORS
330
17
102
}
330
17
100
AcDbMlineStyle
  2
Standard
 70
     0
  3

 62
   256
 51
90.0
 52
90.0
 71
     2
 49
0.5
 62
   256
  6
BYLAYER
 49
-0.5
 62
   256
  6
BYLAYER
  0
ACDBPLACEHOLDER
  5
F
102
{ACAD_REACTORS
330
E
102
}
330
E
  0
SCALE
  5
48
102
{ACAD_REACTORS
330
47
102
}
330
47
100
AcDbScale
 70
     0
300
1:1
140
1.0
141
1.0
290
     1
  0
SCALE
  5
49
102
{ACAD_REACTORS
330
47
102
}
330
47
100
AcDbScale
 70
     0
300
1:2
140
1.0
141
2.0
290
     0
  0
SCALE
  5
4A
102
{ACAD_REACTORS
330
47
102
}
330
47
100
AcDbScale
 70
     0
300
1:4
140
1.0
141
4.0
290
     0
  0
SCALE
  5
4B
102
{ACAD_REACTORS
330
47
102
}
330
47
100
AcDbScale
 70
     0
300
1:5
140
1.0
141
5.0
290
     0
  0
SCALE
  5
4C
102
{ACAD_REACTORS
330
47
102
}
330
47
100
AcDbScale
 70
     0
300
1:8
140
1.0
141
8.0
290
     0
  0
SCALE
  5
4D
102
{ACAD_REACTORS
330
47
102
}
330
47
100
AcDbScale
 70
     0
300
1:10
140
1.0
141
10.0
290
     0
  0
SCALE
  5
4E
102
{ACAD_REACTORS
330
47
102
}
330
47
100
AcDbScale
 70
     0
300
1:16
140
1.0
141
16.0
290
     0
  0
SCALE
  5
4F
102
{ACAD_REACTORS
330
47
102
}
330
47
100
AcDbScale
 70
     0
300
1:20
140
1.0
141
20.0
290
     0
  0
SCALE
  5
50
102
{ACAD_REACTORS
330
47
102
}
330
47
100
AcDbScale
 70
     0
300
1:30
140
1.0
141
30.0
290
     0
  0
SCALE
  5
51
102
{ACAD_REACTORS
330
47
102
}
330
47
100
AcDbScale
 70
     0
300
1:40
140
1.0
141
40.0
290
     0
  0
SCALE
  5
52
102
{ACAD_REACTORS
330
47
102
}
330
47
100
AcDbScale
 70
     0
300
1:50
140
1.0
141
50.0
290
     0
  0
SCALE
  5
53
102
{ACAD_REACTORS
330
47
102
}
330
47
100
AcDbScale
 70
     0
300
1:100
140
1.0
141
100.0
290
     0
  0
SCALE
  5
54
102
{ACAD_REACTORS
330
47
102
}
330
47
100
AcDbScale
 70
     0
300
2:1
140
2.0
141
1.0
290
     0
  0
SCALE
  5
55
102
{ACAD_REACTORS
330
47
102
}
330
47
100
AcDbScale
 70
     0
300
4:1
140
4.0
141
1.0
290
     0
  0
SCALE
  5
56
102
{ACAD_REACTORS
330
47
102
}
330
47
100
AcDbScale
 70
     0
300
8:1
140
8.0
141
1.0
290
     0
  0
SCALE
  5
57
102
{ACAD_REACTORS
330
47
102
}
330
47
100
AcDbScale
 70
     0
300
10:1
140
10.0
141
1.0
290
     0
  0
SCALE
  5
58
102
{ACAD_REACTORS
330
47
102
}
330
47
100
AcDbScale
 70
     0
300
100:1
140
100.0
141
1.0
290
     0
  0
SCALE
  5
59
102
{ACAD_REACTORS
330
47
102
}
330
47
100
AcDbScale
 70
     0
300
1/128" = 1'-0"
140
0.0078125
141
12.0
290
     0
  0
SCALE
  5
5A
102
{ACAD_REACTORS
330
47
102
}
330
47
100
AcDbScale
 70
     0
300
1/64" = 1'-0"
140
0.015625
141
12.0
290
     0
  0
SCALE
  5
5B
102
{ACAD_REACTORS
330
47
102
}
330
47
100
AcDbScale
 70
     0
300
1/32" = 1'-0"
140
0.03125
141
12.0
290
     0
  0
SCALE
  5
5C
102
{ACAD_REACTORS
330
47
102
}
330
47
100
AcDbScale
 70
     0
300
1/16" = 1'-0"
140
0.0625
141
12.0
290
     0
  0
SCALE
  5
5D
102
{ACAD_REACTORS
330
47
102
}
330
47
100
AcDbScale
 70
     0
300
3/32" = 1'-0"
140
0.09375
141
12.0
290
     0
  0
SCALE
  5
5E
102
{ACAD_REACTORS
330
47
102
}
330
47
100
AcDbScale
 70
     0
300
1/8" = 1'-0"
140
0.125
141
12.0
290
     0
  0
SCALE
  5
5F
102
{ACAD_REACTORS
330
47
102
}
330
47
100
AcDbScale
 70
     0
300
3/16" = 1'-0"
140
0.1875
141
12.0
290
     0
  0
SCALE
  5
60
102
{ACAD_REACTORS
330
47
102
}
330
47
100
AcDbScale
 70
     0
300
1/4" = 1'-0"
140
0.25
141
12.0
290
     0
  0
SCALE
  5
61
102
{ACAD_REACTORS
330
47
102
}
330
47
100
AcDbScale
 70
     0
300
3/8" = 1'-0"
140
0.375
141
12.0
290
     0
  0
SCALE
  5
62
102
{ACAD_REACTORS
330
47
102
}
330
47
100
AcDbScale
 70
     0
300
1/2" = 1'-0"
140
0.5
141
12.0
290
     0
  0
SCALE
  5
63
102
{ACAD_REACTORS
330
47
102
}
330
47
100
AcDbScale
 70
     0
300
3/4" = 1'-0"
140
0.75
141
12.0
290
     0
  0
SCALE
  5
64
102
{ACAD_REACTORS
330
47
102
}
330
47
100
AcDbScale
 70
     0
300
1" = 1'-0"
140
1.0
141
12.0
290
     0
  0
SCALE
  5
65
102
{ACAD_REACTORS
330
47
102
}
330
47
100
AcDbScale
 70
     0
300
1-1/2" = 1'-0"
140
1.5
141
12.0
290
     0
  0
SCALE
  5
66
102
{ACAD_REACTORS
330
47
102
}
330
47
100
AcDbScale
 70
     0
300
3" = 1'-0"
140
3.0
141
12.0
290
     0
  0
SCALE
  5
67
102
{ACAD_REACTORS
330
47
102
}
330
47
100
AcDbScale
 70
     0
300
6" = 1'-0"
140
6.0
141
12.0
290
     0
  0
SCALE
  5
68
102
{ACAD_REACTORS
330
47
102
}
330
47
100
AcDbScale
 70
     0
300
1'-0" = 1'-0"
140
12.0
141
12.0
290
     0
  0
ENDSEC
  0
EOF
