  0
SECTION
  2
HEADER
  9
$ACADVER
  1
AC1015
  9
$ACADMAINTVER
 70
     6
  9
$DWGCODEPAGE
  3
ANSI_1252
  9
$INSBASE
 10
0.0
 20
0.0
 30
0.0
  9
$EXTMIN
 10
0.0
 20
0.0
 30
0.0
  9
$EXTMAX
 10
297.0
 20
210.0
 30
0.0
  9
$LIMMIN
 10
0.0
 20
0.0
  9
$LIMMAX
 10
297.0
 20
210.0
  9
$ORTHOMODE
 70
     0
  9
$REGENMODE
 70
     1
  9
$FILLMODE
 70
     1
  9
$QTEXTMODE
 70
     0
  9
$MIRRTEXT
 70
     1
  9
$LTSCALE
 40
1.0
  9
$ATTMODE
 70
     1
  9
$TEXTSIZE
 40
2.0
  9
$TRACEWID
 40
1.0
  9
$TEXTSTYLE
  7
Standard
  9
$CLAYER
  8
0
  9
$CELTYPE
  6
ByLayer
  9
$CECOLOR
 62
   256
  9
$CELTSCALE
 40
1.0
  9
$DISPSILH
 70
     0
  9
$DIMSCALE
 40
1.0
  9
$DIMASZ
 40
3.0
  9
$DIMEXO
 40
0.0
  9
$DIMDLI
 40
3.75
  9
$DIMRND
 40
0.0
  9
$DIMDLE
 40
0.0
  9
$DIMEXE
 40
1.0
  9
$DIMTP
 40
0.0
  9
$DIMTM
 40
0.0
  9
$DIMTXT
 40
2.0
  9
$DIMCEN
 40
2.5
  9
$DIMTSZ
 40
0.0
  9
$DIMTOL
 70
     0
  9
$DIMLIM
 70
     0
  9
$DIMTIH
 70
     1
  9
$DIMTOH
 70
     1
  9
$DIMSE1
 70
     0
  9
$DIMSE2
 70
     0
  9
$DIMTAD
 70
     1
  9
$DIMZIN
 70
     0
  9
$DIMBLK
  1

  9
$DIMASO
 70
     1
  9
$DIMSHO
 70
     1
  9
$DIMPOST
  1

  9
$DIMAPOST
  1

  9
$DIMALT
 70
     0
  9
$DIMALTD
 70
     3
  9
$DIMALTF
 40
0.0393700787
  9
$DIMLFAC
 40
2.0
  9
$DIMTOFL
 70
     1
  9
$DIMTVP
 40
0.0
  9
$DIMTIX
 70
     0
  9
$DIMSOXD
 70
     0
  9
$DIMSAH
 70
     0
  9
$DIMBLK1
  1

  9
$DIMBLK2
  1

  9
$DIMSTYLE
  2
ISO-25
  9
$DIMCLRD
 70
     0
  9
$DIMCLRE
 70
     0
  9
$DIMCLRT
 70
     0
  9
$DIMTFAC
 40
1.0
  9
$DIMGAP
 40
1.524
  9
$DIMJUST
 70
     0
  9
$DIMSD1
 70
     0
  9
$DIMSD2
 70
     0
  9
$DIMTOLJ
 70
     0
  9
$DIMTZIN
 70
     0
  9
$DIMALTZ
 70
     0
  9
$DIMALTTZ
 70
     0
  9
$DIMUPT
 70
     0
  9
$DIMDEC
 70
     2
  9
$DIMTDEC
 70
     3
  9
$DIMALTU
 70
     2
  9
$DIMALTTD
 70
     3
  9
$DIMTXSTY
  7
Standard
  9
$DIMAUNIT
 70
     0
  9
$DIMADEC
 70
     2
  9
$DIMALTRND
 40
0.0
  9
$DIMAZIN
 70
     0
  9
$DIMDSEP
 70
    44
  9
$DIMATFIT
 70
     3
  9
$DIMFRAC
 70
     0
  9
$DIMLDRBLK
  1

  9
$DIMLUNIT
 70
     2
  9
$DIMLWD
 70
    -2
  9
$DIMLWE
 70
    -2
  9
$DIMTMOVE
 70
     0
  9
$LUNITS
 70
     2
  9
$LUPREC
 70
     2
  9
$SKETCHINC
 40
1.0
  9
$FILLETRAD
 40
10.0
  9
$AUNITS
 70
     0
  9
$AUPREC
 70
     2
  9
$MENU
  1
.
  9
$ELEVATION
 40
0.0
  9
$PELEVATION
 40
0.0
  9
$THICKNESS
 40
0.0
  9
$LIMCHECK
 70
     0
  9
$CHAMFERA
 40
0.0
  9
$CHAMFERB
 40
0.0
  9
$CHAMFERC
 40
0.0
  9
$CHAMFERD
 40
0.0
  9
$SKPOLY
 70
     0
  9
$TDCREATE
 40
2458164.65947544
  9
$TDUCREATE
 40
2458164.617808773
  9
$TDUPDATE
 40
2458164.659479005
  9
$TDUUPDATE
 40
2458164.617812338
  9
$TDINDWG
 40
0.0000000116
  9
$TDUSRTIMER
 40
0.0000000116
  9
$USRTIMER
 70
     1
  9
$ANGBASE
 50
0.0
  9
$ANGDIR
 70
     0
  9
$PDMODE
 70
     0
  9
$PDSIZE
 40
-1.0
  9
$PLINEWID
 40
0.0
  9
$SPLFRAME
 70
     0
  9
$SPLINETYPE
 70
     6
  9
$SPLINESEGS
 70
     8
  9
$HANDSEED
  5
303
  9
$SURFTAB1
 70
     6
  9
$SURFTAB2
 70
     6
  9
$SURFTYPE
 70
     6
  9
$SURFU
 70
     6
  9
$SURFV
 70
     6
  9
$UCSBASE
  2

  9
$UCSNAME
  2

  9
$UCSORG
 10
0.0
 20
0.0
 30
0.0
  9
$UCSXDIR
 10
1.0
 20
0.0
 30
0.0
  9
$UCSYDIR
 10
0.0
 20
1.0
 30
0.0
  9
$UCSORTHOREF
  2

  9
$UCSORTHOVIEW
 70
     0
  9
$UCSORGTOP
 10
0.0
 20
0.0
 30
0.0
  9
$UCSORGBOTTOM
 10
0.0
 20
0.0
 30
0.0
  9
$UCSORGLEFT
 10
0.0
 20
0.0
 30
0.0
  9
$UCSORGRIGHT
 10
0.0
 20
0.0
 30
0.0
  9
$UCSORGFRONT
 10
0.0
 20
0.0
 30
0.0
  9
$UCSORGBACK
 10
0.0
 20
0.0
 30
0.0
  9
$PUCSBASE
  2

  9
$PUCSNAME
  2

  9
$PUCSORG
 10
0.0
 20
0.0
 30
0.0
  9
$PUCSXDIR
 10
1.0
 20
0.0
 30
0.0
  9
$PUCSYDIR
 10
0.0
 20
1.0
 30
0.0
  9
$PUCSORTHOREF
  2

  9
$PUCSORTHOVIEW
 70
     0
  9
$PUCSORGTOP
 10
0.0
 20
0.0
 30
0.0
  9
$PUCSORGBOTTOM
 10
0.0
 20
0.0
 30
0.0
  9
$PUCSORGLEFT
 10
0.0
 20
0.0
 30
0.0
  9
$PUCSORGRIGHT
 10
0.0
 20
0.0
 30
0.0
  9
$PUCSORGFRONT
 10
0.0
 20
0.0
 30
0.0
  9
$PUCSORGBACK
 10
0.0
 20
0.0
 30
0.0
  9
$USERI1
 70
     0
  9
$USERI2
 70
     0
  9
$USERI3
 70
     0
  9
$USERI4
 70
     0
  9
$USERI5
 70
     0
  9
$USERR1
 40
0.0
  9
$USERR2
 40
0.0
  9
$USERR3
 40
0.0
  9
$USERR4
 40
0.0
  9
$USERR5
 40
0.0
  9
$WORLDVIEW
 70
     1
  9
$SHADEDGE
 70
     3
  9
$SHADEDIF
 70
    70
  9
$TILEMODE
 70
     1
  9
$MAXACTVP
 70
    64
  9
$PINSBASE
 10
0.0
 20
0.0
 30
0.0
  9
$PLIMCHECK
 70
     0
  9
$PEXTMIN
 10
1.0000000000E+20
 20
1.0000000000E+20
 30
1.0000000000E+20
  9
$PEXTMAX
 10
-1.0000000000E+20
 20
-1.0000000000E+20
 30
-1.0000000000E+20
  9
$PLIMMIN
 10
0.0
 20
0.0
  9
$PLIMMAX
 10
420.0
 20
297.0
  9
$UNITMODE
 70
     0
  9
$VISRETAIN
 70
     1
  9
$PLINEGEN
 70
     0
  9
$PSLTSCALE
 70
     1
  9
$TREEDEPTH
 70
  3020
  9
$CMLSTYLE
  2
Standard
  9
$CMLJUST
 70
     0
  9
$CMLSCALE
 40
20.0
  9
$PROXYGRAPHICS
 70
     1
  9
$MEASUREMENT
 70
     1
  9
$CELWEIGHT
370
    -1
  9
$ENDCAPS
280
     0
  9
$JOINSTYLE
280
     0
  9
$LWDISPLAY
290
     1
  9
$INSUNITS
 70
     4
  9
$HYPERLINKBASE
  1

  9
$STYLESHEET
  1

  9
$XEDIT
290
     1
  9
$CEPSNTYPE
380
     0
  9
$PSTYLEMODE
290
     1
  9
$FINGERPRINTGUID
  2
{41E30B05-EA82-4226-9704-67DA1576175E}
  9
$VERSIONGUID
  2
{FAEB1C32-E019-11D5-929B-00C0DF256EC4}
  9
$EXTNAMES
290
     1
  9
$PSVPSCALE
 40
0.0
  9
$OLESTARTUP
290
     0
  0
ENDSEC
  0
SECTION
  2
CLASSES
  0
CLASS
  1
ACDBDICTIONARYWDFLT
  2
AcDbDictionaryWithDefault
  3
ObjectDBX Classes
 90
        0
280
     0
281
     0
  0
CLASS
  1
VISUALSTYLE
  2
AcDbVisualStyle
  3
ObjectDBX Classes
 90
     4095
280
     0
281
     0
  0
CLASS
  1
MATERIAL
  2
AcDbMaterial
  3
ObjectDBX Classes
 90
     1153
280
     0
281
     0
  0
CLASS
  1
SCALE
  2
AcDbScale
  3
ObjectDBX Classes
 90
     1153
280
     0
281
     0
  0
CLASS
  1
TABLESTYLE
  2
AcDbTableStyle
  3
ObjectDBX Classes
 90
     4095
280
     0
281
     0
  0
CLASS
  1
MLEADERSTYLE
  2
AcDbMLeaderStyle
  3
ACDB_MLEADERSTYLE_CLASS
 90
     4095
280
     0
281
     0
  0
CLASS
  1
SUN
  2
AcDbSun
  3
SCENEOE
 90
     1153
280
     0
281
     0
  0
CLASS
  1
ACDBPLACEHOLDER
  2
AcDbPlaceHolder
  3
ObjectDBX Classes
 90
        0
280
     0
281
     0
  0
CLASS
  1
LAYOUT
  2
AcDbLayout
  3
ObjectDBX Classes
 90
        0
280
     0
281
     0
  0
ENDSEC
  0
SECTION
  2
TABLES
  0
TABLE
  2
VPORT
  5
8
330
0
100
AcDbSymbolTable
 70
     1
  0
VPORT
  5
29
330
8
100
AcDbSymbolTableRecord
100
AcDbViewportTableRecord
  2
*Active
 70
     0
 10
0.0
 20
0.0
 11
1.0
 21
1.0
 12
148.5
 22
105.0
 13
0.0
 23
0.0
 14
10.0
 24
10.0
 15
10.0
 25
10.0
 16
0.0
 26
0.0
 36
1.0
 17
0.0
 27
0.0
 37
0.0
 40
210.0
 41
1.4142857143
 42
50.0
 43
0.0
 44
0.0
 50
0.0
 51
0.0
 71
     0
 72
  2000
 73
     1
 74
     3
 75
     0
 76
     0
 77
     0
 78
     0
281
     0
 65
     1
110
0.0
120
0.0
130
0.0
111
1.0
121
0.0
131
0.0
112
0.0
122
1.0
132
0.0
 79
     0
146
0.0
  0
ENDTAB
  0
TABLE
  2
LTYPE
  5
5
330
0
100
AcDbSymbolTable
 70
     6
  0
LTYPE
  5
14
330
5
100
AcDbSymbolTableRecord
100
AcDbLinetypeTableRecord
  2
ByBlock
 70
     0
  3

 72
    65
 73
     0
 40
0.0
  0
LTYPE
  5
15
330
5
100
AcDbSymbolTableRecord
100
AcDbLinetypeTableRecord
  2
ByLayer
 70
     0
  3

 72
    65
 73
     0
 40
0.0
  0
LTYPE
  5
16
330
5
100
AcDbSymbolTableRecord
100
AcDbLinetypeTableRecord
  2
Continuous
 70
     0
  3
Solid line
 72
    65
 73
     0
 40
0.0
  0
LTYPE
  5
6E
330
5
100
AcDbSymbolTableRecord
100
AcDbLinetypeTableRecord
  2
HIDDEN
 70
     0
  3
Hidden __ __ __ __ __ __ __ __ __ __ __ __ __ __
 72
    65
 73
     2
 40
1.905
 49
1.27
 74
     0
 49
-0.635
 74
     0
  0
LTYPE
  5
6F
330
5
100
AcDbSymbolTableRecord
100
AcDbLinetypeTableRecord
  2
PHANTOM
 70
     0
  3
Phantom ______  __  __  ______  __  __  ______
 72
    65
 73
     6
 40
12.7
 49
6.35
 74
     0
 49
-1.27
 74
     0
 49
1.27
 74
     0
 49
-1.27
 74
     0
 49
1.27
 74
     0
 49
-1.27
 74
     0
  0
LTYPE
  5
70
330
5
100
AcDbSymbolTableRecord
100
AcDbLinetypeTableRecord
  2
CENTER
 70
     0
  3
Center ____ _ ____ _ ____ _ ____ _ ____ _ ____
 72
    65
 73
     4
 40
10.16
 49
6.35
 74
     0
 49
-1.27
 74
     0
 49
1.27
 74
     0
 49
-1.27
 74
     0
  0
LTYPE
  5
71
330
5
100
AcDbSymbolTableRecord
100
AcDbLinetypeTableRecord
  2
CENTERX2
 70
     0
  3
Center (2x) ________  __  ________  __  _____
 72
    65
 73
     4
 40
20.32
 49
12.7
 74
     0
 49
-2.54
 74
     0
 49
2.54
 74
     0
 49
-2.54
 74
     0
  0
LTYPE
  5
72
330
5
100
AcDbSymbolTableRecord
100
AcDbLinetypeTableRecord
  2
DOT2
 70
     0
  3
Dot (.5x) ........................................
 72
    65
 73
     2
 40
0.635
 49
0.0
 74
     0
 49
-0.635
 74
     0
  0
ENDTAB
  0
TABLE
  2
LAYER
  5
2
330
0
100
AcDbSymbolTable
 70
     5
  0
LAYER
  5
10
330
2
100
AcDbSymbolTableRecord
100
AcDbLayerTableRecord
  2
0
 70
     0
 62
     7
  6
Continuous
370
    -3
390
F
  0
LAYER
  5
73
330
2
100
AcDbSymbolTableRecord
100
AcDbLayerTableRecord
  2
FORMAT
 70
     0
 62
     7
  6
Continuous
370
    -3
390
F
  0
LAYER
  5
74
330
2
100
AcDbSymbolTableRecord
100
AcDbLayerTableRecord
  2
VERMASSUNG
 70
     0
 62
     7
  6
Continuous
370
    -3
390
F
  0
LAYER
  5
75
330
2
100
AcDbSymbolTableRecord
100
AcDbLayerTableRecord
  2
KOPF_DÜNN
 70
     0
 62
     7
  6
Continuous
370
    -3
390
F
  0
LAYER
  5
76
330
2
100
AcDbSymbolTableRecord
100
AcDbLayerTableRecord
  2
KOPF_DICK
 70
     0
 62
     7
  6
Continuous
370
    25
390
F
  0
ENDTAB
  0
TABLE
  2
STYLE
  5
3
330
0
100
AcDbSymbolTable
 70
     3
  0
STYLE
  5
11
330
3
100
AcDbSymbolTableRecord
100
AcDbTextStyleTableRecord
  2
Standard
 70
     0
 40
0.0
 41
1.0
 50
0.0
 71
     0
 42
2.0
  3
txt
  4

  0
STYLE
  5
77
330
3
100
AcDbSymbolTableRecord
100
AcDbTextStyleTableRecord
  2
SLDTEXTSTYLE0
 70
     0
 40
0.0
 41
0.7
 50
0.0
 71
     0
 42
2.0
  3
TXT
  4

  0
STYLE
  5
7B
330
3
100
AcDbSymbolTableRecord
100
AcDbTextStyleTableRecord
  2
SLDTEXTSTYLE1
 70
     0
 40
0.0
 41
0.6538461538
 50
0.0
 71
     0
 42
2.0
  3
TXT
  4

  0
ENDTAB
  0
TABLE
  2
VIEW
  5
6
330
0
100
AcDbSymbolTable
 70
     0
  0
ENDTAB
  0
TABLE
  2
UCS
  5
7
330
0
100
AcDbSymbolTable
 70
     0
  0
ENDTAB
  0
TABLE
  2
APPID
  5
9
330
0
100
AcDbSymbolTable
 70
     1
  0
APPID
  5
12
330
9
100
AcDbSymbolTableRecord
100
AcDbRegAppTableRecord
  2
ACAD
 70
     0
  0
ENDTAB
  0
TABLE
  2
DIMSTYLE
  5
A
330
0
100
AcDbSymbolTable
 70
     5
100
AcDbDimStyleTable
  0
DIMSTYLE
105
27
330
A
100
AcDbSymbolTableRecord
100
AcDbDimStyleTableRecord
  2
ISO-25
 70
     0
 41
2.5
 42
0.625
 43
3.75
 44
1.25
 73
     0
 74
     0
 77
     1
 78
     8
140
2.5
141
2.5
143
0.0393700787
147
0.625
171
     3
172
     1
178
     0
271
     2
272
     2
274
     3
278
    44
283
     0
284
     8
340
11
  0
DIMSTYLE
105
205
102
{ACAD_REACTORS
330
204
330
224
330
22F
330
23A
330
250
330
25A
330
264
330
26E
102
}
330
A
100
AcDbSymbolTableRecord
100
AcDbDimStyleTableRecord
  2
SLDDIMSTYLE0
 70
     0
 41
3.0
 44
0.0
 45
0.000000001
 73
     0
 74
     0
 77
     1
 78
    12
 79
     3
140
2.0
147
0.5
173
     1
178
     0
271
     2
272
     3
276
     2
284
    12
340
77
  0
DIMSTYLE
105
211
102
{ACAD_REACTORS
330
210
102
}
330
A
100
AcDbSymbolTableRecord
100
AcDbDimStyleTableRecord
  2
SLDDIMSTYLE1
 70
     0
 41
3.0
 44
0.0
 73
     0
 74
     0
 77
     1
 78
    12
 79
     3
140
2.0
147
0.5
173
     1
178
     0
179
     2
272
     3
276
     2
284
    12
340
77
  0
DIMSTYLE
105
21B
102
{ACAD_REACTORS
330
21A
102
}
330
A
100
AcDbSymbolTableRecord
100
AcDbDimStyleTableRecord
  2
SLDDIMSTYLE2
 70
     0
 41
3.0
 44
0.0
 45
0.000000001
 73
     0
 74
     0
 76
     1
 77
     1
 78
    12
 79
     3
140
2.0
147
0.5
173
     1
178
     0
271
     2
272
     3
276
     2
282
     1
284
    12
340
77
  0
DIMSTYLE
105
246
102
{ACAD_REACTORS
330
245
102
}
330
A
100
AcDbSymbolTableRecord
100
AcDbDimStyleTableRecord
  2
SLDDIMSTYLE3
 70
     0
 41
3.0
 44
0.0
 45
0.000000001
 73
     0
 74
     0
 77
     1
 78
    12
 79
     3
140
2.0
147
0.5
173
     1
178
     0
271
     1
272
     3
276
     2
284
    12
340
77
  0
ENDTAB
  0
TABLE
  2
BLOCK_RECORD
  5
1
330
0
100
AcDbSymbolTable
 70
    12
  0
BLOCK_RECORD
  5
1F
330
1
100
AcDbSymbolTableRecord
100
AcDbBlockTableRecord
  2
*Model_Space
340
22
  0
BLOCK_RECORD
  5
1B
330
1
100
AcDbSymbolTableRecord
100
AcDbBlockTableRecord
  2
*Paper_Space
340
1E
  0
BLOCK_RECORD
  5
23
330
1
100
AcDbSymbolTableRecord
100
AcDbBlockTableRecord
  2
*Paper_Space0
340
26
  0
BLOCK_RECORD
  5
206
330
1
100
AcDbSymbolTableRecord
100
AcDbBlockTableRecord
  2
_D
340
0
  0
BLOCK_RECORD
  5
212
330
1
100
AcDbSymbolTableRecord
100
AcDbBlockTableRecord
  2
_D_1
340
0
  0
BLOCK_RECORD
  5
21C
330
1
100
AcDbSymbolTableRecord
100
AcDbBlockTableRecord
  2
_D_2
340
0
  0
BLOCK_RECORD
  5
225
330
1
100
AcDbSymbolTableRecord
100
AcDbBlockTableRecord
  2
_D_3
340
0
  0
BLOCK_RECORD
  5
230
330
1
100
AcDbSymbolTableRecord
100
AcDbBlockTableRecord
  2
_D_4
340
0
  0
BLOCK_RECORD
  5
23B
330
1
100
AcDbSymbolTableRecord
100
AcDbBlockTableRecord
  2
_D_5
340
0
  0
BLOCK_RECORD
  5
247
330
1
100
AcDbSymbolTableRecord
100
AcDbBlockTableRecord
  2
_D_6
340
0
  0
BLOCK_RECORD
  5
251
330
1
100
AcDbSymbolTableRecord
100
AcDbBlockTableRecord
  2
_D_7
340
0
  0
BLOCK_RECORD
  5
25B
330
1
100
AcDbSymbolTableRecord
100
AcDbBlockTableRecord
  2
_D_8
340
0
  0
BLOCK_RECORD
  5
265
330
1
100
AcDbSymbolTableRecord
100
AcDbBlockTableRecord
  2
_D_9
340
0
  0
BLOCK_RECORD
  5
26F
330
1
100
AcDbSymbolTableRecord
100
AcDbBlockTableRecord
  2
_D_10
340
0
  0
ENDTAB
  0
ENDSEC
  0
SECTION
  2
BLOCKS
  0
BLOCK
  5
20
330
1F
100
AcDbEntity
  8
0
100
AcDbBlockBegin
  2
*Model_Space
 70
     0
 10
0.0
 20
0.0
 30
0.0
  3
*Model_Space
  1

  0
ENDBLK
  5
21
330
1F
100
AcDbEntity
  8
0
100
AcDbBlockEnd
  0
BLOCK
  5
1C
330
1B
100
AcDbEntity
 67
     1
  8
0
100
AcDbBlockBegin
  2
*Paper_Space
 70
     0
 10
0.0
 20
0.0
 30
0.0
  3
*Paper_Space
  1

  0
ENDBLK
  5
1D
330
1B
100
AcDbEntity
 67
     1
  8
0
100
AcDbBlockEnd
  0
BLOCK
  5
24
330
23
100
AcDbEntity
  8
0
100
AcDbBlockBegin
  2
*Paper_Space0
 70
     0
 10
0.0
 20
0.0
 30
0.0
  3
*Paper_Space0
  1

  0
ENDBLK
  5
25
330
23
100
AcDbEntity
  8
0
100
AcDbBlockEnd
  0
BLOCK
  5
207
330
206
100
AcDbEntity
  8
0
100
AcDbBlockBegin
  2
_D
 70
     0
 10
0.0
 20
0.0
 30
0.0
  3
_D
  1

  0
SOLID
  5
209
330
206
100
AcDbEntity
  8
VERMASSUNG
100
AcDbTrace
 10
260.4607374827
 20
130.900047756
 30
0.0
 11
260.0107374827
 21
127.900047756
 31
0.0
 12
260.9107374827
 22
127.900047756
 32
0.0
 13
260.9107374827
 23
127.900047756
 33
0.0
  0
SOLID
  5
20A
330
206
100
AcDbEntity
  8
VERMASSUNG
100
AcDbTrace
 10
260.4607374827
 20
109.900047756
 30
0.0
 11
260.9107374827
 21
112.900047756
 31
0.0
 12
260.0107374827
 22
112.900047756
 32
0.0
 13
260.0107374827
 23
112.900047756
 33
0.0
  0
LINE
  5
20B
330
206
100
AcDbEntity
  8
VERMASSUNG
100
AcDbLine
 10
230.7012400628
 20
130.900047756
 30
0.0
 11
261.4607374827
 21
130.900047756
 31
0.0
  0
LINE
  5
20C
330
206
100
AcDbEntity
  8
VERMASSUNG
100
AcDbLine
 10
230.7012400628
 20
109.900047756
 30
0.0
 11
261.4607374827
 21
109.900047756
 31
0.0
  0
LINE
  5
20D
330
206
100
AcDbEntity
  8
VERMASSUNG
100
AcDbLine
 10
260.4607374827
 20
130.900047756
 30
0.0
 11
260.4607374827
 21
109.900047756
 31
0.0
  0
MTEXT
  5
20E
330
206
100
AcDbEntity
  8
VERMASSUNG
100
AcDbMText
 10
257.8826021778
 20
117.3950476919
 30
0.0
 40
2.0
 41
0.0
 71
     1
 72
     1
  1
%%c
  7
SLDTEXTSTYLE0
 11
-7.044195017643634E-15
 21
1.0
 31
0.0
 73
     1
 44
1.0
  0
MTEXT
  5
20F
330
206
100
AcDbEntity
  8
VERMASSUNG
100
AcDbMText
 10
257.6826022265
 20
121.0050477062
 30
0.0
 40
2.0
 41
0.0
 71
     1
 72
     1
  1
21
  7
SLDTEXTSTYLE0
 11
-7.044195017643634E-15
 21
1.0
 31
0.0
 73
     1
 44
1.0
  0
ENDBLK
  5
208
330
206
100
AcDbEntity
  8
0
100
AcDbBlockEnd
  0
BLOCK
  5
213
330
212
100
AcDbEntity
  8
0
100
AcDbBlockBegin
  2
_D_1
 70
     0
 10
0.0
 20
0.0
 30
0.0
  3
_D_1
  1

  0
ARC
  5
215
330
212
100
AcDbEntity
  8
VERMASSUNG
100
AcDbCircle
 10
364.1163897926
 20
120.400047756
 30
0.0
 40
151.6799260132225
100
AcDbArc
 50
175.5
 51
180.0
  0
ARC
  5
216
330
212
100
AcDbEntity
  8
VERMASSUNG
100
AcDbCircle
 10
364.1163897926
 20
120.400047756
 30
0.0
 40
151.6799260132225
100
AcDbArc
 50
172.001195557
 51
175.5
  0
SOLID
  5
217
330
212
100
AcDbEntity
  8
VERMASSUNG
100
AcDbTrace
 10
212.9040423707
 20
132.3007175911
 30
0.0
 11
212.2493085588
 21
129.3386535075
 31
0.0
 12
213.1471885066
 22
129.2769153561
 32
0.0
 13
213.1471885066
 23
129.2769153561
 33
0.0
  0
SOLID
  5
218
330
212
100
AcDbEntity
  8
VERMASSUNG
100
AcDbTrace
 10
212.4364637794
 20
120.400047756
 30
0.0
 11
212.9161051659
 21
123.395451592
 31
0.0
 12
212.0161491628
 22
123.4043506074
 32
0.0
 13
212.0161491628
 23
123.4043506074
 33
0.0
  0
MTEXT
  5
219
330
212
100
AcDbEntity
  8
VERMASSUNG
100
AcDbMText
 10
210.5728862866
 20
135.5613340164
 30
0.0
 40
2.0
 41
0.0
 71
     1
 72
     1
  1
4°30'
  7
SLDTEXTSTYLE0
 11
0.1185615064744292
 21
0.9929467101423489
 31
0.0
 73
     1
 44
1.0
  0
ENDBLK
  5
214
330
212
100
AcDbEntity
  8
0
100
AcDbBlockEnd
  0
BLOCK
  5
21D
330
21C
100
AcDbEntity
  8
0
100
AcDbBlockBegin
  2
_D_2
 70
     0
 10
0.0
 20
0.0
 30
0.0
  3
_D_2
  1

  0
SOLID
  5
21F
330
21C
100
AcDbEntity
  8
VERMASSUNG
100
AcDbTrace
 10
253.4700264174
 20
124.400047756
 30
0.0
 11
253.0200264174
 21
121.400047756
 31
0.0
 12
253.9200264174
 22
121.400047756
 32
0.0
 13
253.9200264174
 23
121.400047756
 33
0.0
  0
LINE
  5
220
330
21C
100
AcDbEntity
  8
VERMASSUNG
100
AcDbLine
 10
227.2012400628
 20
124.400047756
 30
0.0
 11
254.4700264174
 21
124.400047756
 31
0.0
  0
LINE
  5
221
330
21C
100
AcDbEntity
  8
VERMASSUNG
100
AcDbLine
 10
253.4700264174
 20
124.400047756
 30
0.0
 11
253.4700264174
 21
117.8950477738
 31
0.0
  0
MTEXT
  5
222
330
21C
100
AcDbEntity
  8
VERMASSUNG
100
AcDbMText
 10
250.8918911125
 20
117.8950477738
 30
0.0
 40
2.0
 41
0.0
 71
     1
 72
     1
  1
%%c
  7
SLDTEXTSTYLE0
 11
-5.267838178243384E-15
 21
1.0
 31
0.0
 73
     1
 44
1.0
  0
MTEXT
  5
223
330
21C
100
AcDbEntity
  8
VERMASSUNG
100
AcDbMText
 10
250.6918911612
 20
121.5050477881
 30
0.0
 40
2.0
 41
0.0
 71
     1
 72
     1
  1
8
  7
SLDTEXTSTYLE0
 11
-5.267838178243384E-15
 21
1.0
 31
0.0
 73
     1
 44
1.0
  0
ENDBLK
  5
21E
330
21C
100
AcDbEntity
  8
0
100
AcDbBlockEnd
  0
BLOCK
  5
226
330
225
100
AcDbEntity
  8
0
100
AcDbBlockBegin
  2
_D_3
 70
     0
 10
0.0
 20
0.0
 30
0.0
  3
_D_3
  1

  0
SOLID
  5
228
330
225
100
AcDbEntity
  8
VERMASSUNG
100
AcDbTrace
 10
268.3230459985
 20
133.900047756
 30
0.0
 11
267.8730459985
 21
130.900047756
 31
0.0
 12
268.7730459985
 22
130.900047756
 32
0.0
 13
268.7730459985
 23
130.900047756
 33
0.0
  0
SOLID
  5
229
330
225
100
AcDbEntity
  8
VERMASSUNG
100
AcDbTrace
 10
268.3230459985
 20
106.900047756
 30
0.0
 11
268.7730459985
 21
109.900047756
 31
0.0
 12
267.8730459985
 22
109.900047756
 32
0.0
 13
267.8730459985
 23
109.900047756
 33
0.0
  0
LINE
  5
22A
330
225
100
AcDbEntity
  8
VERMASSUNG
100
AcDbLine
 10
192.5826258543
 20
133.900047756
 30
0.0
 11
269.3230459985
 21
133.900047756
 31
0.0
  0
LINE
  5
22B
330
225
100
AcDbEntity
  8
VERMASSUNG
100
AcDbLine
 10
192.5826258543
 20
106.900047756
 30
0.0
 11
269.3230459985
 21
106.900047756
 31
0.0
  0
LINE
  5
22C
330
225
100
AcDbEntity
  8
VERMASSUNG
100
AcDbLine
 10
268.3230459985
 20
133.900047756
 30
0.0
 11
268.3230459985
 21
106.900047756
 31
0.0
  0
MTEXT
  5
22D
330
225
100
AcDbEntity
  8
VERMASSUNG
100
AcDbMText
 10
265.7449106935
 20
117.1950477988
 30
0.0
 40
2.0
 41
0.0
 71
     1
 72
     1
  1
%%c
  7
SLDTEXTSTYLE0
 11
-5.267838178243384E-15
 21
1.0
 31
0.0
 73
     1
 44
1.0
  0
MTEXT
  5
22E
330
225
100
AcDbEntity
  8
VERMASSUNG
100
AcDbMText
 10
265.5449107422
 20
120.8050478131
 30
0.0
 40
2.0
 41
0.0
 71
     1
 72
     1
  1
27
  7
SLDTEXTSTYLE0
 11
-5.267838178243384E-15
 21
1.0
 31
0.0
 73
     1
 44
1.0
  0
ENDBLK
  5
227
330
225
100
AcDbEntity
  8
0
100
AcDbBlockEnd
  0
BLOCK
  5
231
330
230
100
AcDbEntity
  8
0
100
AcDbBlockBegin
  2
_D_4
 70
     0
 10
0.0
 20
0.0
 30
0.0
  3
_D_4
  1

  0
SOLID
  5
233
330
230
100
AcDbEntity
  8
VERMASSUNG
100
AcDbTrace
 10
230.7012400628
 20
148.0917676529
 30
0.0
 11
227.7012400628
 21
148.5417676529
 31
0.0
 12
227.7012400628
 22
147.6417676529
 32
0.0
 13
227.7012400628
 23
147.6417676529
 33
0.0
  0
SOLID
  5
234
330
230
100
AcDbEntity
  8
VERMASSUNG
100
AcDbTrace
 10
204.7012400628
 20
148.0917676529
 30
0.0
 11
207.7012400628
 21
147.6417676529
 31
0.0
 12
207.7012400628
 22
148.5417676529
 32
0.0
 13
207.7012400628
 23
148.5417676529
 33
0.0
  0
LINE
  5
235
330
230
100
AcDbEntity
  8
VERMASSUNG
100
AcDbLine
 10
230.7012400628
 20
129.0512667727
 30
0.0
 11
230.7012400628
 21
149.0917676529
 31
0.0
  0
LINE
  5
236
330
230
100
AcDbEntity
  8
VERMASSUNG
100
AcDbLine
 10
204.7012400628
 20
124.400047756
 30
0.0
 11
204.7012400628
 21
149.0917676529
 31
0.0
  0
LINE
  5
237
330
230
100
AcDbEntity
  8
VERMASSUNG
100
AcDbLine
 10
230.7012400628
 20
148.0917676529
 30
0.0
 11
204.7012400628
 21
148.0917676529
 31
0.0
  0
MTEXT
  5
238
330
230
100
AcDbEntity
  8
VERMASSUNG
100
AcDbMText
 10
213.5012402126
 20
150.6699032488
 30
0.0
 40
2.0
 41
0.0
 71
     1
 72
     1
  1
26
  7
SLDTEXTSTYLE0
 73
     1
 44
1.0
  0
MTEXT
  5
239
330
230
100
AcDbEntity
  8
VERMASSUNG
100
AcDbMText
 10
217.4887401127
 20
150.6699032488
 30
0.0
 40
2.0
 41
0.0
 71
     1
 72
     1
  1
min.
  7
SLDTEXTSTYLE0
 73
     1
 44
1.0
  0
ENDBLK
  5
232
330
230
100
AcDbEntity
  8
0
100
AcDbBlockEnd
  0
BLOCK
  5
23C
330
23B
100
AcDbEntity
  8
0
100
AcDbBlockBegin
  2
_D_5
 70
     0
 10
0.0
 20
0.0
 30
0.0
  3
_D_5
  1

  0
SOLID
  5
23E
330
23B
100
AcDbEntity
  8
VERMASSUNG
100
AcDbTrace
 10
230.7012400628
 20
155.4898450946
 30
0.0
 11
227.7012400628
 21
155.9398450946
 31
0.0
 12
227.7012400628
 22
155.0398450946
 32
0.0
 13
227.7012400628
 23
155.0398450946
 33
0.0
  0
SOLID
  5
23F
330
23B
100
AcDbEntity
  8
VERMASSUNG
100
AcDbTrace
 10
194.2012400628
 20
155.4898450946
 30
0.0
 11
197.2012400628
 21
155.0398450946
 31
0.0
 12
197.2012400628
 22
155.9398450946
 32
0.0
 13
197.2012400628
 23
155.9398450946
 33
0.0
  0
LINE
  5
240
330
23B
100
AcDbEntity
  8
VERMASSUNG
100
AcDbLine
 10
230.7012400628
 20
129.0512667727
 30
0.0
 11
230.7012400628
 21
156.4898450946
 31
0.0
  0
LINE
  5
241
330
23B
100
AcDbEntity
  8
VERMASSUNG
100
AcDbLine
 10
194.2012400628
 20
124.300047756
 30
0.0
 11
194.2012400628
 21
156.4898450946
 31
0.0
  0
LINE
  5
242
330
23B
100
AcDbEntity
  8
VERMASSUNG
100
AcDbLine
 10
230.7012400628
 20
155.4898450946
 30
0.0
 11
194.2012400628
 21
155.4898450946
 31
0.0
  0
MTEXT
  5
243
330
23B
100
AcDbEntity
  8
VERMASSUNG
100
AcDbMText
 10
206.8512407281
 20
158.0679806905
 30
0.0
 40
2.0
 41
0.0
 71
     1
 72
     1
  1
36.5
  7
SLDTEXTSTYLE0
 73
     1
 44
1.0
  0
MTEXT
  5
244
330
23B
100
AcDbEntity
  8
VERMASSUNG
100
AcDbMText
 10
212.8387404905
 20
158.0679806905
 30
0.0
 40
2.0
 41
0.0
 71
     1
 72
     1
  1
max.
  7
SLDTEXTSTYLE0
 73
     1
 44
1.0
  0
ENDBLK
  5
23D
330
23B
100
AcDbEntity
  8
0
100
AcDbBlockEnd
  0
BLOCK
  5
248
330
247
100
AcDbEntity
  8
0
100
AcDbBlockBegin
  2
_D_6
 70
     0
 10
0.0
 20
0.0
 30
0.0
  3
_D_6
  1

  0
SOLID
  5
24A
330
247
100
AcDbEntity
  8
VERMASSUNG
100
AcDbTrace
 10
192.5826258543
 20
91.0446011358
 30
0.0
 11
195.5826258543
 21
90.5946011358
 31
0.0
 12
195.5826258543
 22
91.4946011358
 32
0.0
 13
195.5826258543
 23
91.4946011358
 33
0.0
  0
SOLID
  5
24B
330
247
100
AcDbEntity
  8
VERMASSUNG
100
AcDbTrace
 10
230.7012400628
 20
91.0446011358
 30
0.0
 11
227.7012400628
 21
91.4946011358
 31
0.0
 12
227.7012400628
 22
90.5946011358
 32
0.0
 13
227.7012400628
 23
90.5946011358
 33
0.0
  0
LINE
  5
24C
330
247
100
AcDbEntity
  8
VERMASSUNG
100
AcDbLine
 10
192.5826258543
 20
106.900047756
 30
0.0
 11
192.5826258543
 21
90.0446011358
 31
0.0
  0
LINE
  5
24D
330
247
100
AcDbEntity
  8
VERMASSUNG
100
AcDbLine
 10
230.7012400628
 20
111.7488287393
 30
0.0
 11
230.7012400628
 21
90.0446011358
 31
0.0
  0
LINE
  5
24E
330
247
100
AcDbEntity
  8
VERMASSUNG
100
AcDbLine
 10
192.5826258543
 20
91.0446011358
 30
0.0
 11
230.7012400628
 21
91.0446011358
 31
0.0
  0
MTEXT
  5
24F
330
247
100
AcDbEntity
  8
VERMASSUNG
100
AcDbMText
 10
209.4419329705
 20
93.6227367318
 30
0.0
 40
2.0
 41
0.0
 71
     1
 72
     1
  1
38.1
  7
SLDTEXTSTYLE0
 73
     1
 44
1.0
  0
ENDBLK
  5
249
330
247
100
AcDbEntity
  8
0
100
AcDbBlockEnd
  0
BLOCK
  5
252
330
251
100
AcDbEntity
  8
0
100
AcDbBlockBegin
  2
_D_7
 70
     0
 10
0.0
 20
0.0
 30
0.0
  3
_D_7
  1

  0
SOLID
  5
254
330
251
100
AcDbEntity
  8
VERMASSUNG
100
AcDbTrace
 10
230.7012400628
 20
83.7019996242
 30
0.0
 11
227.7012400628
 21
84.1519996242
 31
0.0
 12
227.7012400628
 22
83.2519996242
 32
0.0
 13
227.7012400628
 23
83.2519996242
 33
0.0
  0
SOLID
  5
255
330
251
100
AcDbEntity
  8
VERMASSUNG
100
AcDbTrace
 10
128.7012400628
 20
83.7019996242
 30
0.0
 11
131.7012400628
 21
83.2519996242
 31
0.0
 12
131.7012400628
 22
84.1519996242
 32
0.0
 13
131.7012400628
 23
84.1519996242
 33
0.0
  0
LINE
  5
256
330
251
100
AcDbEntity
  8
VERMASSUNG
100
AcDbLine
 10
230.7012400628
 20
111.7488287393
 30
0.0
 11
230.7012400628
 21
82.7019996242
 31
0.0
  0
LINE
  5
257
330
251
100
AcDbEntity
  8
VERMASSUNG
100
AcDbLine
 10
128.7012400628
 20
88.925047756
 30
0.0
 11
128.7012400628
 21
82.7019996242
 31
0.0
  0
LINE
  5
258
330
251
100
AcDbEntity
  8
VERMASSUNG
100
AcDbLine
 10
230.7012400628
 20
83.7019996242
 30
0.0
 11
128.7012400628
 21
83.7019996242
 31
0.0
  0
MTEXT
  5
259
330
251
100
AcDbEntity
  8
VERMASSUNG
100
AcDbMText
 10
177.8012400308
 20
86.2801352201
 30
0.0
 40
2.0
 41
0.0
 71
     1
 72
     1
  1
102
  7
SLDTEXTSTYLE0
 73
     1
 44
1.0
  0
ENDBLK
  5
253
330
251
100
AcDbEntity
  8
0
100
AcDbBlockEnd
  0
BLOCK
  5
25C
330
25B
100
AcDbEntity
  8
0
100
AcDbBlockBegin
  2
_D_8
 70
     0
 10
0.0
 20
0.0
 30
0.0
  3
_D_8
  1

  0
SOLID
  5
25E
330
25B
100
AcDbEntity
  8
VERMASSUNG
100
AcDbTrace
 10
110.7012400628
 20
163.2458940253
 30
0.0
 11
113.7012400628
 21
162.7958940253
 31
0.0
 12
113.7012400628
 22
163.6958940253
 32
0.0
 13
113.7012400628
 23
163.6958940253
 33
0.0
  0
SOLID
  5
25F
330
25B
100
AcDbEntity
  8
VERMASSUNG
100
AcDbTrace
 10
230.7012400628
 20
163.2458940253
 30
0.0
 11
227.7012400628
 21
163.6958940253
 31
0.0
 12
227.7012400628
 22
162.7958940253
 32
0.0
 13
227.7012400628
 23
162.7958940253
 33
0.0
  0
LINE
  5
260
330
25B
100
AcDbEntity
  8
VERMASSUNG
100
AcDbLine
 10
110.7012400628
 20
151.675047756
 30
0.0
 11
110.7012400628
 21
164.2458940253
 31
0.0
  0
LINE
  5
261
330
25B
100
AcDbEntity
  8
VERMASSUNG
100
AcDbLine
 10
230.7012400628
 20
129.0512667727
 30
0.0
 11
230.7012400628
 21
164.2458940253
 31
0.0
  0
LINE
  5
262
330
25B
100
AcDbEntity
  8
VERMASSUNG
100
AcDbLine
 10
110.7012400628
 20
163.2458940253
 30
0.0
 11
230.7012400628
 21
163.2458940253
 31
0.0
  0
MTEXT
  5
263
330
25B
100
AcDbEntity
  8
VERMASSUNG
100
AcDbMText
 10
168.8012400308
 20
165.8240296213
 30
0.0
 40
2.0
 41
0.0
 71
     1
 72
     1
  1
120
  7
SLDTEXTSTYLE0
 73
     1
 44
1.0
  0
ENDBLK
  5
25D
330
25B
100
AcDbEntity
  8
0
100
AcDbBlockEnd
  0
BLOCK
  5
266
330
265
100
AcDbEntity
  8
0
100
AcDbBlockBegin
  2
_D_9
 70
     0
 10
0.0
 20
0.0
 30
0.0
  3
_D_9
  1

  0
SOLID
  5
268
330
265
100
AcDbEntity
  8
VERMASSUNG
100
AcDbTrace
 10
70.7512400628
 20
171.1719737813
 30
0.0
 11
73.7512400628
 21
170.7219737813
 31
0.0
 12
73.7512400628
 22
171.6219737813
 32
0.0
 13
73.7512400628
 23
171.6219737813
 33
0.0
  0
SOLID
  5
269
330
265
100
AcDbEntity
  8
VERMASSUNG
100
AcDbTrace
 10
230.7012400628
 20
171.1719737813
 30
0.0
 11
227.7012400628
 21
171.6219737813
 31
0.0
 12
227.7012400628
 22
170.7219737813
 32
0.0
 13
227.7012400628
 23
170.7219737813
 33
0.0
  0
LINE
  5
26A
330
265
100
AcDbEntity
  8
VERMASSUNG
100
AcDbLine
 10
70.7512400628
 20
142.6031424798
 30
0.0
 11
70.7512400628
 21
172.1719737813
 31
0.0
  0
LINE
  5
26B
330
265
100
AcDbEntity
  8
VERMASSUNG
100
AcDbLine
 10
230.7012400628
 20
129.0512667727
 30
0.0
 11
230.7012400628
 21
172.1719737813
 31
0.0
  0
LINE
  5
26C
330
265
100
AcDbEntity
  8
VERMASSUNG
100
AcDbLine
 10
70.7512400628
 20
171.1719737813
 30
0.0
 11
230.7012400628
 21
171.1719737813
 31
0.0
  0
MTEXT
  5
26D
330
265
100
AcDbEntity
  8
VERMASSUNG
100
AcDbMText
 10
147.1262401246
 20
173.7501093772
 30
0.0
 40
2.0
 41
0.0
 71
     1
 72
     1
  1
159.95
  7
SLDTEXTSTYLE0
 73
     1
 44
1.0
  0
ENDBLK
  5
267
330
265
100
AcDbEntity
  8
0
100
AcDbBlockEnd
  0
BLOCK
  5
270
330
26F
100
AcDbEntity
  8
0
100
AcDbBlockBegin
  2
_D_10
 70
     0
 10
0.0
 20
0.0
 30
0.0
  3
_D_10
  1

  0
SOLID
  5
272
330
26F
100
AcDbEntity
  8
VERMASSUNG
100
AcDbTrace
 10
48.7512150628
 20
151.875047756
 30
0.0
 11
48.3012150628
 21
148.875047756
 31
0.0
 12
49.2012150628
 22
148.875047756
 32
0.0
 13
49.2012150628
 23
148.875047756
 33
0.0
  0
SOLID
  5
273
330
26F
100
AcDbEntity
  8
VERMASSUNG
100
AcDbTrace
 10
48.7512150628
 20
88.925047756
 30
0.0
 11
49.2012150628
 21
91.925047756
 31
0.0
 12
48.3012150628
 22
91.925047756
 32
0.0
 13
48.3012150628
 23
91.925047756
 33
0.0
  0
LINE
  5
274
330
26F
100
AcDbEntity
  8
VERMASSUNG
100
AcDbLine
 10
110.9012400628
 20
151.875047756
 30
0.0
 11
47.7512150628
 21
151.875047756
 31
0.0
  0
LINE
  5
275
330
26F
100
AcDbEntity
  8
VERMASSUNG
100
AcDbLine
 10
110.9012400628
 20
88.925047756
 30
0.0
 11
47.7512150628
 21
88.925047756
 31
0.0
  0
LINE
  5
276
330
26F
100
AcDbEntity
  8
VERMASSUNG
100
AcDbLine
 10
48.7512150628
 20
151.875047756
 30
0.0
 11
48.7512150628
 21
88.925047756
 31
0.0
  0
MTEXT
  5
277
330
26F
100
AcDbEntity
  8
VERMASSUNG
100
AcDbMText
 10
45.9730798066
 20
110.5950483002
 30
0.0
 40
2.0
 41
0.0
 71
     1
 72
     1
  1
KM
  7
SLDTEXTSTYLE0
 11
-5.267838178243384E-15
 21
1.0
 31
0.0
 73
     1
 44
1.0
  0
MTEXT
  5
278
330
26F
100
AcDbEntity
  8
VERMASSUNG
100
AcDbMText
 10
46.1730797579
 20
113.9950481125
 30
0.0
 40
2.0
 41
0.0
 71
     1
 72
     1
  1
%%c
  7
SLDTEXTSTYLE0
 11
-5.267838178243384E-15
 21
1.0
 31
0.0
 73
     1
 44
1.0
  0
MTEXT
  5
279
330
26F
100
AcDbEntity
  8
VERMASSUNG
100
AcDbMText
 10
45.9730798066
 20
117.6050481268
 30
0.0
 40
2.0
 41
0.0
 71
     1
 72
     1
  1
62.95
  7
SLDTEXTSTYLE0
 11
-5.267838178243384E-15
 21
1.0
 31
0.0
 73
     1
 44
1.0
  0
MTEXT
  5
27A
330
26F
100
AcDbEntity
  8
VERMASSUNG
100
AcDbMText
 10
45.9730798066
 20
124.9925478392
 30
0.0
 40
2.0
 41
0.0
 71
     1
 72
     1
  1
XMZ
  7
SLDTEXTSTYLE0
 11
-5.267838178243384E-15
 21
1.0
 31
0.0
 73
     1
 44
1.0
  0
ENDBLK
  5
271
330
26F
100
AcDbEntity
  8
0
100
AcDbBlockEnd
  0
ENDSEC
  0
SECTION
  2
ENTITIES
  0
MTEXT
  5
78
330
1F
100
AcDbEntity
  8
KOPF_DÜNN
100
AcDbMText
 10
13.8892156294
 20
23.8442973028
 30
0.0
 40
3.0
 41
0.0
 71
     1
 72
     1
  1
KY6.S08.K01.120
  7
SLDTEXTSTYLE0
 73
     1
 44
1.0
  0
MTEXT
  5
79
330
1F
100
AcDbEntity
  8
VERMASSUNG
100
AcDbMText
 10
13.9329988022
 20
28.8834360957
 30
0.0
 40
3.0
 41
0.0
 71
     1
 72
     1
  1
Schrumpffutter_Heat shrink chuck
  7
SLDTEXTSTYLE0
 73
     1
 44
1.0
  0
MTEXT
  5
7A
330
1F
100
AcDbEntity
  8
VERMASSUNG
100
AcDbMText
 10
98.8601118557
 20
13.8365368761
 30
0.0
 40
2.0
 41
0.0
 71
     1
 72
     1
  1
Datum: 14.02.2018
  7
SLDTEXTSTYLE0
 73
     1
 44
1.0
  0
MTEXT
  5
7C
330
1F
100
AcDbEntity
  8
VERMASSUNG
100
AcDbMText
 10
13.933048693
 20
18.0482802738
 30
0.0
 40
2.0
 41
0.0
 71
     1
 72
     1
  1
KM63 XMZ / Ø8
  7
SLDTEXTSTYLE1
 73
     1
 44
1.0
  0
MTEXT
  5
7D
330
1F
100
AcDbEntity
  8
VERMASSUNG
100
AcDbMText
 10
13.9808475933
 20
13.9090974274
 30
0.0
 40
2.0
 41
0.0
 71
     1
 72
     1
  1
Gewicht: 1005g
  7
SLDTEXTSTYLE0
 73
     1
 44
1.0
  0
CIRCLE
  5
7E
330
1F
100
AcDbEntity
  8
0
  6
Continuous
 62
     7
370
    25
100
AcDbCircle
 10
362.2619320704
 20
120.400047756
 30
0.0
 40
0.9999999999999483
  0
SPLINE
  5
7F
330
1F
100
AcDbEntity
  8
0
  6
Continuous
 62
     7
370
    25
100
AcDbSpline
210
0.0
220
0.0
230
1.0
 70
     8
 71
     3
 72
    11
 73
     7
 74
     0
 42
0.000000001
 43
0.00000001
 40
0.0
 40
0.0
 40
0.0
 40
0.0
 40
0.1081104958886878
 40
0.4711580629979744
 40
0.8135805839067668
 40
1.0
 40
1.0
 40
1.0
 40
1.0
 10
362.9332093587616
 20
120.94721024599
 30
0.0
 10
362.9378817982619
 20
120.9183096847699
 30
0.0
 10
362.9582448307899
 20
120.7923576915608
 30
0.0
 10
362.9970118757585
 20
120.5525705883571
 30
0.0
 10
363.040318672032
 20
120.2847030243206
 30
0.0
 10
363.0633194579489
 20
120.1424357359517
 30
0.0
 10
363.071427349514
 20
120.0922858084
 30
0.0
  0
SPLINE
  5
80
330
1F
100
AcDbEntity
  8
0
  6
Continuous
 62
     7
370
    25
100
AcDbSpline
210
0.0
220
0.0
230
1.0
 70
     8
 71
     3
 72
    10
 73
     6
 74
     0
 42
0.000000001
 43
0.00000001
 40
0.0
 40
0.0
 40
0.0
 40
0.0
 40
0.4391166415867949
 40
0.7513668456960035
 40
0.9999999999999999
 40
0.9999999999999999
 40
0.9999999999999999
 40
0.9999999999999999
 10
362.1237140942138
 20
121.2549721936144
 30
0.0
 10
362.2395995322052
 20
121.2109137109449
 30
0.0
 10
362.4378896167966
 20
121.1355258071071
 30
0.0
 10
362.726139867701
 20
121.0259360102341
 30
0.0
 10
362.8696104822549
 20
120.9713899072835
 30
0.0
 10
362.9332093587616
 20
120.94721024599
 30
0.0
  0
SPLINE
  5
81
330
1F
100
AcDbEntity
  8
0
  6
Continuous
 62
     7
370
    25
100
AcDbSpline
210
0.0
220
0.0
230
1.0
 70
     8
 71
     3
 72
    10
 73
     6
 74
     0
 42
0.000000001
 43
0.00000001
 40
0.0
 40
0.0
 40
0.0
 40
0.0
 40
0.4391166542781428
 40
0.7513668625720604
 40
1.0
 40
1.0
 40
1.0
 40
1.0
 10
361.4524367913144
 20
120.7078097036488
 30
0.0
 10
361.5485352673048
 20
120.7861402130103
 30
0.0
 10
361.7129681342876
 20
120.9201705406902
 30
0.0
 10
361.9520008715307
 20
121.1150076085335
 30
0.0
 10
362.0709744673103
 20
121.2119837744261
 30
0.0
 10
362.1237140942138
 20
121.2549721936144
 30
0.0
  0
SPLINE
  5
82
330
1F
100
AcDbEntity
  8
0
  6
Continuous
 62
     7
370
    25
100
AcDbSpline
210
0.0
220
0.0
230
1.0
 70
     8
 71
     3
 72
    11
 73
     7
 74
     0
 42
0.000000001
 43
0.00000001
 40
0.0
 40
0.0
 40
0.0
 40
0.0
 40
0.1864193770146546
 40
0.5288419154576754
 40
0.8918894897873589
 40
1.0
 40
1.0
 40
1.0
 40
1.0
 10
361.5906547820667
 20
119.8528852660589
 30
0.0
 10
361.5825469157467
 20
119.9030351846846
 30
0.0
 10
361.5595461975614
 20
120.0453024717596
 30
0.0
 10
361.5162392750335
 20
120.3131700180879
 30
0.0
 10
361.4774722633255
 20
120.552957134067
 30
0.0
 10
361.4571092311411
 20
120.6789091375611
 30
0.0
 10
361.4524367913144
 20
120.7078097036488
 30
0.0
  0
SPLINE
  5
83
330
1F
100
AcDbEntity
  8
0
  6
Continuous
 62
     7
370
    25
100
AcDbSpline
210
0.0
220
0.0
230
1.0
 70
     8
 71
     3
 72
    10
 73
     6
 74
     0
 42
0.000000001
 43
0.00000001
 40
0.0
 40
0.0
 40
0.0
 40
0.0
 40
0.4391166415867949
 40
0.7513668456960035
 40
0.9999999999999999
 40
0.9999999999999999
 40
0.9999999999999999
 40
0.9999999999999999
 10
362.4001500466146
 20
119.5451233184345
 30
0.0
 10
362.2842646086232
 20
119.5891818011039
 30
0.0
 10
362.0859745240318
 20
119.6645697049417
 30
0.0
 10
361.7977242731274
 20
119.7741595018148
 30
0.0
 10
361.6542536585735
 20
119.8287056047653
 30
0.0
 10
361.5906547820667
 20
119.8528852660589
 30
0.0
  0
SPLINE
  5
84
330
1F
100
AcDbEntity
  8
0
  6
Continuous
 62
     7
370
    25
100
AcDbSpline
210
0.0
220
0.0
230
1.0
 70
     8
 71
     3
 72
    10
 73
     6
 74
     0
 42
0.000000001
 43
0.00000001
 40
0.0
 40
0.0
 40
0.0
 40
0.0
 40
0.4391166542781428
 40
0.7513668625720604
 40
1.0
 40
1.0
 40
1.0
 40
1.0
 10
363.071427349514
 20
120.0922858084
 30
0.0
 10
362.9753288735236
 20
120.0139552990385
 30
0.0
 10
362.8108960065408
 20
119.8799249713586
 30
0.0
 10
362.5718632692978
 20
119.6850879035154
 30
0.0
 10
362.4528896735181
 20
119.5881117376228
 30
0.0
 10
362.4001500466146
 20
119.5451233184345
 30
0.0
  0
ARC
  5
85
330
1F
100
AcDbEntity
  8
0
  6
Continuous
 62
     7
370
    25
100
AcDbCircle
 10
362.2619320704
 20
120.400047756
 30
0.0
 40
0.7500000000000064
100
AcDbArc
 50
249.18370128
 51
309.18370128
  0
ARC
  5
86
330
1F
100
AcDbEntity
  8
0
  6
Continuous
 62
     7
370
    25
100
AcDbCircle
 10
362.2619320704
 20
120.400047756
 30
0.0
 40
0.7499999999999862
100
AcDbArc
 50
189.18370128
 51
249.18370128
  0
ARC
  5
87
330
1F
100
AcDbEntity
  8
0
  6
Continuous
 62
     7
370
    25
100
AcDbCircle
 10
362.2619320704
 20
120.400047756
 30
0.0
 40
0.7500000000000266
100
AcDbArc
 50
69.18370128
 51
129.18370128
  0
ARC
  5
88
330
1F
100
AcDbEntity
  8
0
  6
Continuous
 62
     7
370
    25
100
AcDbCircle
 10
362.2619320704
 20
120.400047756
 30
0.0
 40
0.7499999999999758
100
AcDbArc
 50
129.18370128
 51
189.18370128
  0
ARC
  5
89
330
1F
100
AcDbEntity
  8
0
  6
Continuous
 62
     7
370
    25
100
AcDbCircle
 10
362.2619320704
 20
120.400047756
 30
0.0
 40
0.750000000000088
100
AcDbArc
 50
9.18370128
 51
69.18370128
  0
ARC
  5
8A
330
1F
100
AcDbEntity
  8
0
  6
Continuous
 62
     7
370
    25
100
AcDbCircle
 10
362.2619320704
 20
120.400047756
 30
0.0
 40
0.750000000000088
100
AcDbArc
 50
309.18370128
 51
9.18370128
  0
SPLINE
  5
8B
330
1F
100
AcDbEntity
  8
0
  6
Continuous
 62
     7
370
    25
100
AcDbSpline
210
0.0
220
0.0
230
1.0
 70
     8
 71
     3
 72
     8
 73
     4
 74
     0
 42
0.000000001
 43
0.00000001
 40
0.0
 40
0.0
 40
0.0
 40
0.0
 40
1.0
 40
1.0
 40
1.0
 40
1.0
 10
351.8727919607813
 20
116.0300468840595
 30
0.0
 10
351.8039535905946
 20
115.9669522107407
 30
0.0
 10
351.7355222301384
 20
115.9032298326098
 30
0.0
 10
351.6675059554738
 20
115.8388844003364
 30
0.0
  0
SPLINE
  5
8C
330
1F
100
AcDbEntity
  8
0
  6
Continuous
 62
     7
370
    25
100
AcDbSpline
210
0.0
220
0.0
230
1.0
 70
     8
 71
     3
 72
     8
 73
     4
 74
     0
 42
0.000000001
 43
0.00000001
 40
0.0
 40
0.0
 40
0.0
 40
0.0
 40
1.0
 40
1.0
 40
1.0
 40
1.0
 10
352.1308192020421
 20
115.8607850541322
 30
0.0
 10
352.0441157678816
 20
115.9169459738015
 30
0.0
 10
351.9581177203978
 20
115.9733707101273
 30
0.0
 10
351.8727919607813
 20
116.0300468840595
 30
0.0
  0
ARC
  5
8D
330
1F
100
AcDbEntity
  8
0
  6
Continuous
 62
     7
370
    25
100
AcDbCircle
 10
362.2619320704
 20
120.400047756
 30
0.0
 40
11.10154736189901
100
AcDbArc
 50
204.1348482805
 51
335.8651517195
  0
SPLINE
  5
8E
330
1F
100
AcDbEntity
  8
0
  6
Continuous
 62
     7
370
    25
100
AcDbSpline
210
0.0
220
0.0
230
1.0
 70
     8
 71
     3
 72
     8
 73
     4
 74
     0
 42
0.000000001
 43
0.00000001
 40
0.0
 40
0.0
 40
0.0
 40
0.0
 40
1.0
 40
1.0
 40
1.0
 40
1.0
 10
372.651072180047
 20
116.0300468840595
 30
0.0
 10
372.5657464204307
 20
115.9733707101273
 30
0.0
 10
372.4797483729468
 20
115.9169459738015
 30
0.0
 10
372.3930449387864
 20
115.8607850541322
 30
0.0
  0
SPLINE
  5
8F
330
1F
100
AcDbEntity
  8
0
  6
Continuous
 62
     7
370
    25
100
AcDbSpline
210
0.0
220
0.0
230
1.0
 70
     8
 71
     3
 72
     8
 73
     4
 74
     0
 42
0.000000001
 43
0.00000001
 40
0.0
 40
0.0
 40
0.0
 40
0.0
 40
1.0
 40
1.0
 40
1.0
 40
1.0
 10
372.8563581853547
 20
115.8388844003364
 30
0.0
 10
372.78834191069
 20
115.9032298326098
 30
0.0
 10
372.7199105502339
 20
115.9669522107407
 30
0.0
 10
372.651072180047
 20
116.0300468840595
 30
0.0
  0
ARC
  5
90
330
1F
100
AcDbEntity
  8
0
  6
Continuous
 62
     7
370
    25
100
AcDbCircle
 10
362.2619320704
 20
120.400047756
 30
0.0
 40
11.53456006379121
100
AcDbArc
 50
203.2930774359
 51
336.7074733161
  0
ARC
  5
91
330
1F
100
AcDbEntity
  8
0
  6
Continuous
 62
     7
370
    25
100
AcDbCircle
 10
362.2619320704
 20
120.400047756
 30
0.0
 40
11.10154736189904
100
AcDbArc
 50
29.4783538465
 51
150.5216461535
  0
SPLINE
  5
92
330
1F
100
AcDbEntity
  8
0
  6
Continuous
 62
     7
370
    25
100
AcDbSpline
210
0.0
220
0.0
230
1.0
 70
     8
 71
     3
 72
     8
 73
     4
 74
     0
 42
0.000000001
 43
0.00000001
 40
0.0
 40
0.0
 40
0.0
 40
0.0
 40
1.0
 40
1.0
 40
1.0
 40
1.0
 10
352.2859990210898
 20
125.6783470054136
 30
0.0
 10
352.3888949349137
 20
125.7403156145046
 30
0.0
 10
352.4927346044686
 20
125.8018942666451
 30
0.0
 10
352.5975724926951
 20
125.8630604579166
 30
0.0
  0
SPLINE
  5
93
330
1F
100
AcDbEntity
  8
0
  6
Continuous
 62
     7
370
    25
100
AcDbSpline
210
0.0
220
0.0
230
1.0
 70
     8
 71
     3
 72
     8
 73
     4
 74
     0
 42
0.000000001
 43
0.00000001
 40
0.0
 40
0.0
 40
0.0
 40
0.0
 40
1.0
 40
1.0
 40
1.0
 40
1.0
 10
352.0974626399759
 20
125.8525368262832
 30
0.0
 10
352.1600309483455
 20
125.7940863571757
 30
0.0
 10
352.2228775417093
 20
125.7360223466426
 30
0.0
 10
352.2859990210921
 20
125.6783470054115
 30
0.0
  0
ARC
  5
94
330
1F
100
AcDbEntity
  8
0
  6
Continuous
 62
     7
370
    25
100
AcDbCircle
 10
362.2619320704
 20
120.400047756
 30
0.0
 40
11.53456006379118
100
AcDbArc
 50
28.2102805322
 51
151.7902347364
  0
SPLINE
  5
95
330
1F
100
AcDbEntity
  8
0
  6
Continuous
 62
     7
370
    25
100
AcDbSpline
210
0.0
220
0.0
230
1.0
 70
     8
 71
     3
 72
     8
 73
     4
 74
     0
 42
0.000000001
 43
0.00000001
 40
0.0
 40
0.0
 40
0.0
 40
0.0
 40
1.0
 40
1.0
 40
1.0
 40
1.0
 10
372.2378651197366
 20
125.6783470054117
 30
0.0
 10
372.3009865991193
 20
125.7360223466428
 30
0.0
 10
372.363833192483
 20
125.7940863571758
 30
0.0
 10
372.4264015008525
 20
125.8525368262832
 30
0.0
  0
SPLINE
  5
96
330
1F
100
AcDbEntity
  8
0
  6
Continuous
 62
     7
370
    25
100
AcDbSpline
210
0.0
220
0.0
230
1.0
 70
     8
 71
     3
 72
     8
 73
     4
 74
     0
 42
0.000000001
 43
0.00000001
 40
0.0
 40
0.0
 40
0.0
 40
0.0
 40
1.0
 40
1.0
 40
1.0
 40
1.0
 10
371.9262916481333
 20
125.8630604579166
 30
0.0
 10
372.0311295363595
 20
125.8018942666453
 30
0.0
 10
372.134969205914
 20
125.740315614505
 30
0.0
 10
372.2378651197375
 20
125.6783470054143
 30
0.0
  0
SPLINE
  5
97
330
1F
100
AcDbEntity
  8
0
  6
Continuous
 62
     7
370
    25
100
AcDbSpline
210
0.0
220
0.0
230
1.0
 70
     8
 71
     3
 72
     8
 73
     4
 74
     0
 42
0.000000001
 43
0.00000001
 40
0.0000004028655191
 40
0.0000004028655191
 40
0.0000004028655191
 40
0.0000004028655191
 40
0.0015137684369673
 40
0.0015137684369673
 40
0.0015137684369673
 40
0.0015137684369673
 10
353.8383374132721
 20
116.07777235224
 30
0.0
 10
353.6316659257209
 20
116.0054784105253
 30
0.0
 10
353.4250469571802
 20
115.9331469245685
 30
0.0
 10
353.2184705823715
 20
115.8607850541322
 30
0.0
  0
LINE
  5
98
330
1F
100
AcDbEntity
  8
0
  6
Continuous
 62
     7
370
    25
100
AcDbLine
 10
353.2184704273
 20
115.8607852526
 30
0.0
 11
352.1308188392
 21
115.8607852526
 31
0.0
  0
LINE
  5
99
330
1F
100
AcDbEntity
  8
0
  6
Continuous
 62
     7
370
    25
100
AcDbLine
 10
352.0958467452
 20
116.2937976301
 30
0.0
 11
351.8727921946
 21
116.030047077
 31
0.0
  0
LINE
  5
9A
330
1F
100
AcDbEntity
  8
0
  6
Continuous
 62
     7
370
    25
100
AcDbLine
 10
353.863456945
 20
116.2937976301
 30
0.0
 11
352.0960618807
 21
116.2937976301
 31
0.0
  0
LINE
  5
9B
330
1F
100
AcDbEntity
  8
0
  6
Continuous
 62
     7
370
    25
100
AcDbLine
 10
353.8741140692
 20
116.1362169192
 30
0.0
 11
353.863456945
 21
116.2937976301
 31
0.0
  0
SPLINE
  5
9C
330
1F
100
AcDbEntity
  8
0
  6
Continuous
 62
     7
370
    25
100
AcDbSpline
210
0.0
220
0.0
230
1.0
 70
     8
 71
     3
 72
     8
 73
     4
 74
     0
 42
0.000000001
 43
0.00000001
 40
0.0006523765358268
 40
0.0006523765358268
 40
0.0006523765358268
 40
0.0006523765358268
 40
0.0009043636494504
 40
0.0009043636494504
 40
0.0009043636494504
 40
0.0009043636494504
 10
353.8752142883071
 20
116.1380104496886
 30
0.0
 10
353.8628972937896
 20
116.1179348687065
 30
0.0
 10
353.8506050963855
 20
116.097855480184
 30
0.0
 10
353.8383374132721
 20
116.07777235224
 30
0.0
  0
LINE
  5
9D
330
1F
100
AcDbEntity
  8
0
  6
Continuous
 62
     7
370
    25
100
AcDbLine
 10
352.2859986006
 20
125.678346853
 30
0.0
 11
352.4944071724
 21
125.4300478727
 31
0.0
  0
LINE
  5
9E
330
1F
100
AcDbEntity
  8
0
  6
Continuous
 62
     7
370
    25
100
AcDbLine
 10
353.7446211158
 20
125.8630602502
 30
0.0
 11
352.5975725679
 21
125.8630602502
 31
0.0
  0
SPLINE
  5
9F
330
1F
100
AcDbEntity
  8
0
  6
Continuous
 62
     7
370
    25
100
AcDbSpline
210
0.0
220
0.0
230
1.0
 70
     8
 71
     3
 72
     8
 73
     4
 74
     0
 42
0.000000001
 43
0.00000001
 40
0.0000004089325119
 40
0.0000004089325119
 40
0.0000004089325119
 40
0.0000004089325119
 40
0.0015399868451459
 40
0.0015399868451459
 40
0.0015399868451459
 40
0.0015399868451459
 10
353.7446206529854
 20
125.8630604579166
 30
0.0
 10
353.9563819117798
 20
125.7906055752632
 30
0.0
 10
354.16830223497
 20
125.7182667052347
 30
0.0
 10
354.3804202181843
 20
125.6460731598089
 30
0.0
  0
LINE
  5
A0
330
1F
100
AcDbEntity
  8
0
  6
Continuous
 62
     7
370
    25
100
AcDbLine
 10
354.3804201363
 20
125.6460732662
 30
0.0
 11
354.3885729341
 21
125.6308605776
 31
0.0
  0
LINE
  5
A1
330
1F
100
AcDbEntity
  8
0
  6
Continuous
 62
     7
370
    25
100
AcDbLine
 10
354.3862027182
 20
125.4300478727
 30
0.0
 11
354.3885738655
 21
125.6308610432
 31
0.0
  0
LINE
  5
A2
330
1F
100
AcDbEntity
  8
0
  6
Continuous
 62
     7
370
    25
100
AcDbLine
 10
354.3862027182
 20
125.4300478727
 30
0.0
 11
352.4944071724
 21
125.4300478727
 31
0.0
  0
LINE
  5
A3
330
1F
100
AcDbEntity
  8
0
  6
Continuous
 62
     7
370
    25
100
AcDbLine
 10
372.6510719462
 20
116.030047077
 30
0.0
 11
372.4280173956
 21
116.2937976301
 31
0.0
  0
LINE
  5
A4
330
1F
100
AcDbEntity
  8
0
  6
Continuous
 62
     7
370
    25
100
AcDbLine
 10
372.3930453016
 20
115.8607852526
 30
0.0
 11
371.3053937136
 21
115.8607852526
 31
0.0
  0
SPLINE
  5
A5
330
1F
100
AcDbEntity
  8
0
  6
Continuous
 62
     7
370
    25
100
AcDbSpline
210
0.0
220
0.0
230
1.0
 70
     8
 71
     3
 72
     8
 73
     4
 74
     0
 42
0.000000001
 43
0.00000001
 40
0.0000004024872366
 40
0.0000004024872366
 40
0.0000004024872366
 40
0.0000004024872366
 40
0.0015137680586847
 40
0.0015137680586847
 40
0.0015137680586847
 40
0.0015137680586847
 10
371.3053935584568
 20
115.8607850541322
 30
0.0
 10
371.0988171836482
 20
115.9331469245685
 30
0.0
 10
370.8921982151076
 20
116.0054784105253
 30
0.0
 10
370.6855267275563
 20
116.07777235224
 30
0.0
  0
SPLINE
  5
A6
330
1F
100
AcDbEntity
  8
0
  6
Continuous
 62
     7
370
    25
100
AcDbSpline
210
0.0
220
0.0
230
1.0
 70
     8
 71
     3
 72
     8
 73
     4
 74
     0
 42
0.000000001
 43
0.00000001
 40
0.0000002414707367
 40
0.0000002414707367
 40
0.0000002414707367
 40
0.0000002414707367
 40
0.0002447240690309
 40
0.0002447240690309
 40
0.0002447240690309
 40
0.0002447240690309
 10
370.6855267275563
 20
116.07777235224
 30
0.0
 10
370.6736243922012
 20
116.0972573781866
 30
0.0
 10
370.6616989809895
 20
116.1167388840109
 30
0.0
 10
370.6497502356945
 20
116.1362168075228
 30
0.0
  0
LINE
  5
A7
330
1F
100
AcDbEntity
  8
0
  6
Continuous
 62
     7
370
    25
100
AcDbLine
 10
370.6604071958
 20
116.2937976301
 30
0.0
 11
370.6497500716
 21
116.1362169192
 31
0.0
  0
LINE
  5
A8
330
1F
100
AcDbEntity
  8
0
  6
Continuous
 62
     7
370
    25
100
AcDbLine
 10
372.4280173956
 20
116.2937976301
 30
0.0
 11
370.6552988915
 21
116.2937976301
 31
0.0
  0
SPLINE
  5
A9
330
1F
100
AcDbEntity
  8
0
  6
Continuous
 62
     7
370
    25
100
AcDbSpline
210
0.0
220
0.0
230
1.0
 70
     8
 71
     3
 72
     8
 73
     4
 74
     0
 42
0.000000001
 43
0.00000001
 40
0.000000410413179
 40
0.000000410413179
 40
0.000000410413179
 40
0.000000410413179
 40
0.0015399883258131
 40
0.0015399883258131
 40
0.0015399883258131
 40
0.0015399883258131
 10
370.1434439226442
 20
125.6460731598089
 30
0.0
 10
370.3555619058585
 20
125.7182667052347
 30
0.0
 10
370.5674822290486
 20
125.7906055752632
 30
0.0
 10
370.7792434878431
 20
125.8630604579166
 30
0.0
  0
LINE
  5
AA
330
1F
100
AcDbEntity
  8
0
  6
Continuous
 62
     7
370
    25
100
AcDbLine
 10
371.9262915729
 20
125.8630602502
 30
0.0
 11
370.779243025
 21
125.8630602502
 31
0.0
  0
LINE
  5
AB
330
1F
100
AcDbEntity
  8
0
  6
Continuous
 62
     7
370
    25
100
AcDbLine
 10
372.0294569685
 20
125.4300478727
 30
0.0
 11
372.2378655402
 21
125.678346853
 31
0.0
  0
LINE
  5
AC
330
1F
100
AcDbEntity
  8
0
  6
Continuous
 62
     7
370
    25
100
AcDbLine
 10
372.0292669787
 20
125.4300478727
 30
0.0
 11
370.1376614226
 21
125.4300478727
 31
0.0
  0
LINE
  5
AD
330
1F
100
AcDbEntity
  8
0
  6
Continuous
 62
     7
370
    25
100
AcDbLine
 10
370.1352902754
 20
125.6308605776
 30
0.0
 11
370.1376614226
 21
125.4300478727
 31
0.0
  0
LINE
  5
AE
330
1F
100
AcDbEntity
  8
0
  6
Continuous
 62
     7
370
    25
100
AcDbLine
 10
370.1352912067
 20
125.6308605776
 30
0.0
 11
370.1434440045
 21
125.6460732662
 31
0.0
  0
ARC
  5
AF
330
1F
100
AcDbEntity
  8
0
  6
Continuous
 62
     7
370
    25
100
AcDbCircle
 10
362.2619320704
 20
120.400047756
 30
0.0
 40
10.11875000000002
100
AcDbArc
 50
32.6761561262
 51
147.3238438738
  0
ARC
  5
B0
330
1F
100
AcDbEntity
  8
0
  6
Continuous
 62
     7
370
    25
100
AcDbCircle
 10
362.2619320704
 20
120.400047756
 30
0.0
 40
10.11875000000005
100
AcDbArc
 50
206.6538426687
 51
333.3461573313
  0
ARC
  5
B1
330
1F
100
AcDbEntity
  8
0
  6
Continuous
 62
     7
370
    25
100
AcDbCircle
 10
362.2619320704
 20
120.400047756
 30
0.0
 40
9.467788105676709
100
AcDbArc
 50
207.1630537883
 51
332.8369462117
  0
ARC
  5
B2
330
1F
100
AcDbEntity
  8
0
  6
Continuous
 62
     7
370
    25
100
AcDbCircle
 10
362.2619320704
 20
120.400047756
 30
0.0
 40
9.467788105676732
100
AcDbArc
 50
33.6481949792
 51
146.3518050208
  0
SPLINE
  5
B3
330
1F
100
AcDbEntity
  8
0
  6
Continuous
 62
     7
370
    25
100
AcDbSpline
210
0.0
220
0.0
230
1.0
 70
     8
 71
     3
 72
     8
 73
     4
 74
     0
 42
0.000000001
 43
0.00000001
 40
0.0
 40
0.0
 40
0.0
 40
0.0
 40
1.0
 40
1.0
 40
1.0
 40
1.0
 10
351.6675059552837
 20
115.8388844004477
 30
0.0
 10
351.6142631303421
 20
115.8394081266856
 30
0.0
 10
351.5609678447264
 20
115.8402062199479
 30
0.0
 10
351.5076223392369
 20
115.8412792678728
 30
0.0
  0
LINE
  5
B4
330
1F
100
AcDbEntity
  8
0
  6
Continuous
 62
     7
370
    25
100
AcDbLine
 10
351.9357095538
 20
116.2937976301
 30
0.0
 11
352.0958467452
 21
116.2937976301
 31
0.0
  0
LINE
  5
B5
330
1F
100
AcDbEntity
  8
0
  6
Continuous
 62
     7
370
    25
100
AcDbLine
 10
372.4280173956
 20
116.2937976301
 30
0.0
 11
372.588154587
 21
116.2937976301
 31
0.0
  0
SPLINE
  5
B6
330
1F
100
AcDbEntity
  8
0
  6
Continuous
 62
     7
370
    25
100
AcDbSpline
210
0.0
220
0.0
230
1.0
 70
     8
 71
     3
 72
     8
 73
     4
 74
     0
 42
0.000000001
 43
0.00000001
 40
0.0
 40
0.0
 40
0.0
 40
0.0
 40
1.0
 40
1.0
 40
1.0
 40
1.0
 10
373.0162418015915
 20
115.8412792678728
 30
0.0
 10
372.962896296102
 20
115.8402062199479
 30
0.0
 10
372.9096010104863
 20
115.8394081266856
 30
0.0
 10
372.8563581855447
 20
115.8388844004477
 30
0.0
  0
LINE
  5
B7
330
1F
100
AcDbEntity
  8
0
  6
Continuous
 62
     7
370
    25
100
AcDbLine
 10
352.4944071724
 20
125.4300478727
 30
0.0
 11
352.3709901674
 21
125.4300478727
 31
0.0
  0
SPLINE
  5
B8
330
1F
100
AcDbEntity
  8
0
  6
Continuous
 62
     7
370
    25
100
AcDbSpline
210
0.0
220
0.0
230
1.0
 70
     8
 71
     3
 72
     8
 73
     4
 74
     0
 42
0.000000001
 43
0.00000001
 40
0.0
 40
0.0
 40
0.0
 40
0.0
 40
1.0
 40
1.0
 40
1.0
 40
1.0
 10
351.9742411457344
 20
125.8504932729608
 30
0.0
 10
352.0153565727763
 20
125.8513622106008
 30
0.0
 10
352.0564308673873
 20
125.8520432481836
 30
0.0
 10
352.0974626398765
 20
125.8525368262451
 30
0.0
  0
SPLINE
  5
B9
330
1F
100
AcDbEntity
  8
0
  6
Continuous
 62
     7
370
    25
100
AcDbSpline
210
0.0
220
0.0
230
1.0
 70
     8
 71
     3
 72
     8
 73
     4
 74
     0
 42
0.000000001
 43
0.00000001
 40
0.0
 40
0.0
 40
0.0
 40
0.0
 40
1.0
 40
1.0
 40
1.0
 40
1.0
 10
372.426401500952
 20
125.8525368262451
 30
0.0
 10
372.4674332734411
 20
125.8520432481836
 30
0.0
 10
372.5085075680521
 20
125.8513622106008
 30
0.0
 10
372.549622995094
 20
125.8504932729608
 30
0.0
  0
LINE
  5
BA
330
1F
100
AcDbEntity
  8
0
  6
Continuous
 62
     7
370
    25
100
AcDbLine
 10
372.1528739734
 20
125.4300478727
 30
0.0
 11
372.0294569685
 21
125.4300478727
 31
0.0
  0
SPLINE
  5
BB
330
1F
100
AcDbEntity
  8
0
  6
Continuous
 62
     7
370
    25
100
AcDbSpline
210
0.0
220
0.0
230
1.0
 70
     8
 71
     3
 72
     9
 73
     5
 74
     0
 42
0.000000001
 43
0.00000001
 40
0.0
 40
0.0
 40
0.0
 40
0.0
 40
0.5102121239851032
 40
1.0
 40
1.0
 40
1.0
 40
1.0
 10
354.3885732020995
 20
125.6308610143503
 30
0.0
 10
354.5181134199503
 20
125.6296160556595
 30
0.0
 10
354.772008244791
 20
125.6271759750885
 30
0.0
 10
355.0299875178008
 20
125.6244835293953
 30
0.0
 10
355.1563426379841
 20
125.6231648021379
 30
0.0
  0
SPLINE
  5
BC
330
1F
100
AcDbEntity
  8
0
  6
Continuous
 62
     7
370
    25
100
AcDbSpline
210
0.0
220
0.0
230
1.0
 70
     8
 71
     3
 72
     8
 73
     4
 74
     0
 42
0.000000001
 43
0.00000001
 40
0.0
 40
0.0
 40
0.0
 40
0.0
 40
1.0
 40
1.0
 40
1.0
 40
1.0
 10
355.1563423843095
 20
125.6231643328608
 30
0.0
 10
355.1485813263641
 20
125.6126060976617
 30
0.0
 10
355.1408438012681
 20
125.6020305641353
 30
0.0
 10
355.1331298858987
 20
125.5914378373559
 30
0.0
  0
SPLINE
  5
BD
330
1F
100
AcDbEntity
  8
0
  6
Continuous
 62
     7
370
    25
100
AcDbSpline
210
0.0
220
0.0
230
1.0
 70
     8
 71
     3
 72
     8
 73
     4
 74
     0
 42
0.000000001
 43
0.00000001
 40
0.0
 40
0.0
 40
0.0
 40
0.0
 40
1.0
 40
1.0
 40
1.0
 40
1.0
 10
354.9615720531357
 20
125.4300480948927
 30
0.0
 10
355.0188324601701
 20
125.4839562718804
 30
0.0
 10
355.0760188512797
 20
125.5377531969636
 30
0.0
 10
355.1331298858987
 20
125.5914378373559
 30
0.0
  0
LINE
  5
BE
330
1F
100
AcDbEntity
  8
0
  6
Continuous
 62
     7
370
    25
100
AcDbLine
 10
354.9615728735
 20
125.4300478727
 30
0.0
 11
354.3862027182
 21
125.4300478727
 31
0.0
  0
SPLINE
  5
BF
330
1F
100
AcDbEntity
  8
0
  6
Continuous
 62
     7
370
    25
100
AcDbSpline
210
0.0
220
0.0
230
1.0
 70
     8
 71
     3
 72
     9
 73
     5
 74
     0
 42
0.000000001
 43
0.00000001
 40
0.0
 40
0.0
 40
0.0
 40
0.0
 40
0.4897878789203671
 40
1.0
 40
1.0
 40
1.0
 40
1.0
 10
369.3675216350655
 20
125.6231646222622
 30
0.0
 10
369.4938767172868
 20
125.6244833480154
 30
0.0
 10
369.751855911259
 20
125.6271757906218
 30
0.0
 10
370.0057506595484
 20
125.6296158684577
 30
0.0
 10
370.1352908376041
 20
125.6308608257461
 30
0.0
  0
ARC
  5
C0
330
1F
100
AcDbEntity
  8
0
  6
Continuous
 62
     7
370
    25
100
AcDbCircle
 10
362.2619320704
 20
120.400047756
 30
0.0
 40
8.818749999999993
100
AcDbArc
 50
36.3185452201
 51
143.6814533294
  0
SPLINE
  5
C1
330
1F
100
AcDbEntity
  8
0
  6
Continuous
 62
     7
370
    25
100
AcDbSpline
210
0.0
220
0.0
230
1.0
 70
     8
 71
     3
 72
     8
 73
     4
 74
     0
 42
0.000000001
 43
0.00000001
 40
0.0
 40
0.0
 40
0.0
 40
0.0
 40
1.0
 40
1.0
 40
1.0
 40
1.0
 10
369.3908496867108
 20
125.5912793230571
 30
0.0
 10
369.3830975740102
 20
125.6019249997296
 30
0.0
 10
369.3753216153429
 20
125.6125533119238
 30
0.0
 10
369.3675218887395
 20
125.6231641529862
 30
0.0
  0
LINE
  5
C2
330
1F
100
AcDbEntity
  8
0
  6
Continuous
 62
     7
370
    25
100
AcDbLine
 10
370.1376614226
 20
125.4300478727
 30
0.0
 11
369.562262862
 21
125.4300478727
 31
0.0
  0
SPLINE
  5
C3
330
1F
100
AcDbEntity
  8
0
  6
Continuous
 62
     7
370
    25
100
AcDbSpline
210
0.0
220
0.0
230
1.0
 70
     8
 71
     3
 72
     8
 73
     4
 74
     0
 42
0.000000001
 43
0.00000001
 40
0.0
 40
0.0
 40
0.0
 40
0.0
 40
1.0
 40
1.0
 40
1.0
 40
1.0
 10
369.3908496867108
 20
125.5912793230571
 30
0.0
 10
369.4479128143969
 20
125.5376473726413
 30
0.0
 10
369.5050511941272
 20
125.4839032862763
 30
0.0
 10
369.562263487601
 20
125.4300480950261
 30
0.0
  0
ARC
  5
C4
330
1F
100
AcDbEntity
  8
0
  6
Continuous
 62
     7
370
    25
100
AcDbCircle
 10
362.2619320704
 20
120.400047756
 30
0.0
 40
8.818750000000039
100
AcDbArc
 50
209.2047569376
 51
330.7952430624
  0
SPLINE
  5
C5
330
1F
100
AcDbEntity
  8
0
  6
Continuous
 62
     7
370
    25
100
AcDbSpline
210
0.0
220
0.0
230
1.0
 70
    24
 71
     3
 72
     8
 73
     4
 74
     0
 42
0.000000001
 43
0.00000001
 40
0.0
 40
0.0
 40
0.0
 40
0.0
 40
0.000136040218399
 40
0.000136040218399
 40
0.000136040218399
 40
0.000136040218399
 10
370.0030674672585
 20
116.1405073251733
 30
0.0
 10
369.9886284675744
 20
116.1260683254892
 30
0.0
 10
369.9741580152121
 20
116.1115978731269
 30
0.0
 10
369.9596564166607
 20
116.0970962745755
 30
0.0
  0
SPLINE
  5
C6
330
1F
100
AcDbEntity
  8
0
  6
Continuous
 62
     7
370
    25
100
AcDbSpline
210
0.0
220
0.0
230
1.0
 70
     8
 71
     3
 72
     9
 73
     5
 74
     0
 42
0.000000001
 43
0.00000001
 40
0.0
 40
0.0
 40
0.0
 40
0.0
 40
0.5086448740972567
 40
1.0
 40
1.0
 40
1.0
 40
1.0
 10
370.6497501960147
 20
116.1362167193881
 30
0.0
 10
370.5405841470169
 20
116.1369105682331
 30
0.0
 10
370.3259627981012
 20
116.138274680761
 30
0.0
 10
370.1094514854238
 20
116.1397715006989
 30
0.0
 10
370.0030675421239
 20
116.1405069708479
 30
0.0
  0
SPLINE
  5
C7
330
1F
100
AcDbEntity
  8
0
  6
Continuous
 62
     7
370
    25
100
AcDbSpline
210
0.0
220
0.0
230
1.0
 70
     8
 71
     3
 72
     9
 73
     5
 74
     0
 42
0.000000001
 43
0.00000001
 40
0.0
 40
0.0
 40
0.0
 40
0.0
 40
0.4913551252639729
 40
1.0
 40
1.0
 40
1.0
 40
1.0
 10
354.520796629169
 20
116.1405069403833
 30
0.0
 10
354.414412677777
 20
116.1397714700545
 30
0.0
 10
354.1979013483493
 20
116.1382746497488
 30
0.0
 10
353.9832799829825
 20
116.1369105368944
 30
0.0
 10
353.8741139254798
 20
116.1362166878825
 30
0.0
  0
SPLINE
  5
C8
330
1F
100
AcDbEntity
  8
0
  6
Continuous
 62
     7
370
    25
100
AcDbSpline
210
0.0
220
0.0
230
1.0
 70
    24
 71
     3
 72
     8
 73
     4
 74
     0
 42
0.000000001
 43
0.00000001
 40
0.0
 40
0.0
 40
0.0
 40
0.0
 40
0.000136040122724
 40
0.000136040122724
 40
0.000136040122724
 40
0.000136040122724
 10
354.5642077241677
 20
116.0970962745755
 30
0.0
 10
354.549706135815
 20
116.1115978629282
 30
0.0
 10
354.5352356936078
 20
116.1260683051354
 30
0.0
 10
354.5207967040344
 20
116.1405072947088
 30
0.0
  0
LINE
  5
C9
330
1F
100
AcDbEntity
  8
0
  6
Continuous
 62
     7
370
    25
100
AcDbLine
 10
353.863456945
 20
116.2937976301
 30
0.0
 11
354.3675064175
 21
116.2937976301
 31
0.0
  0
SPLINE
  5
CA
330
1F
100
AcDbEntity
  8
0
  6
Continuous
 62
     7
370
    25
100
AcDbSpline
210
0.0
220
0.0
230
1.0
 70
     8
 71
     3
 72
     8
 73
     4
 74
     0
 42
0.000000001
 43
0.00000001
 40
0.0
 40
0.0
 40
0.0
 40
0.0
 40
1.0
 40
1.0
 40
1.0
 40
1.0
 10
354.5207969038664
 20
116.1405070951216
 30
0.0
 10
354.469728141262
 20
116.1915495868657
 30
0.0
 10
354.418631181626
 20
116.2426465588916
 30
0.0
 10
354.3675063401103
 20
116.2937976586328
 30
0.0
  0
SPLINE
  5
CB
330
1F
100
AcDbEntity
  8
0
  6
Continuous
 62
     7
370
    25
100
AcDbSpline
210
0.0
220
0.0
230
1.0
 70
     8
 71
     3
 72
     8
 73
     4
 74
     0
 42
0.000000001
 43
0.00000001
 40
0.0
 40
0.0
 40
0.0
 40
0.0
 40
1.0
 40
1.0
 40
1.0
 40
1.0
 10
370.1563578007181
 20
116.2937976586329
 30
0.0
 10
370.1052329693729
 20
116.2426465690776
 30
0.0
 10
370.0541360198919
 20
116.1915496072066
 30
0.0
 10
370.0030672674266
 20
116.1405071255862
 30
0.0
  0
LINE
  5
CC
330
1F
100
AcDbEntity
  8
0
  6
Continuous
 62
     7
370
    25
100
AcDbLine
 10
370.1563577233
 20
116.2937976301
 30
0.0
 11
370.6604071958
 21
116.2937976301
 31
0.0
  0
CIRCLE
  5
CD
330
1F
100
AcDbEntity
  8
0
  6
Continuous
 62
     7
370
    25
100
AcDbCircle
 10
362.2619320704
 20
120.400047756
 30
0.0
 40
12.47086902276413
  0
SPLINE
  5
CE
330
1F
100
AcDbEntity
  8
0
  6
Continuous
 62
     7
370
    25
100
AcDbSpline
210
0.0
220
0.0
230
1.0
 70
     8
 71
     3
 72
    23
 73
    19
 74
     0
 42
0.000000001
 43
0.00000001
 40
0.0
 40
0.0
 40
0.0
 40
0.0
 40
0.0521036415683759
 40
0.1035646240941235
 40
0.1544751946756683
 40
0.2049306267495642
 40
0.2550287880866983
 40
0.3048696389163111
 40
0.354554670462894
 40
0.4041862979539558
 40
0.453867225213789
 40
0.5036997999428097
 40
0.590187023078111
 40
0.6742716378282376
 40
0.7565997087281883
 40
0.8378563983773627
 40
0.9187511781400207
 40
0.9999999999999999
 40
0.9999999999999999
 40
0.9999999999999999
 40
0.9999999999999999
 10
351.4226799237567
 20
124.8904584687743
 30
0.0
 10
351.4359742787067
 20
124.9196263619366
 30
0.0
 10
351.4623990127855
 20
124.9776023843421
 30
0.0
 10
351.5016100190102
 20
125.0605016853559
 30
0.0
 10
351.5400519738164
 20
125.1396836663747
 30
0.0
 10
351.5776395552835
 20
125.2149384831775
 30
0.0
 10
351.6142954415912
 20
125.2863581374354
 30
0.0
 10
351.6499453056497
 20
125.3539547462168
 30
0.0
 10
351.6845190524107
 20
125.4177610676805
 30
0.0
 10
351.7179507463661
 20
125.4778046097484
 30
0.0
 10
351.7501776235902
 20
125.5341113064733
 30
0.0
 10
351.7886790604793
 20
125.5995162882954
 30
0.0
 10
351.8313405411923
 20
125.6690773661304
 30
0.0
 10
351.8748335833156
 20
125.7358368627949
 30
0.0
 10
351.9112460801437
 20
125.7875609108927
 30
0.0
 10
351.9401468866209
 20
125.8240092229447
 30
0.0
 10
351.962064342719
 20
125.8466066198281
 30
0.0
 10
351.9701763072121
 20
125.8491958373895
 30
0.0
 10
351.9742411457344
 20
125.8504932729608
 30
0.0
  0
SPLINE
  5
CF
330
1F
100
AcDbEntity
  8
0
  6
Continuous
 62
     7
370
    25
100
AcDbSpline
210
0.0
220
0.0
230
1.0
 70
     8
 71
     3
 72
     8
 73
     4
 74
     0
 42
0.000000001
 43
0.00000001
 40
0.0
 40
0.0
 40
0.0
 40
0.0
 40
1.0
 40
1.0
 40
1.0
 40
1.0
 10
351.3020419838936
 20
124.8882481113645
 30
0.0
 10
351.3422309974867
 20
124.888978421582
 30
0.0
 10
351.3823932995768
 20
124.8895589474115
 30
0.0
 10
351.4225280100525
 20
124.8899899123613
 30
0.0
  0
SPLINE
  5
D0
330
1F
100
AcDbEntity
  8
0
  6
Continuous
 62
     7
370
    25
100
AcDbSpline
210
0.0
220
0.0
230
1.0
 70
     8
 71
     3
 72
    18
 73
    14
 74
     0
 42
0.000000001
 43
0.00000001
 40
0.0
 40
0.0
 40
0.0
 40
0.0
 40
0.0923824559461122
 40
0.1844689291660427
 40
0.2764953616062392
 40
0.3686975365619641
 40
0.4613092840130473
 40
0.5545607518559533
 40
0.6486768051632873
 40
0.7438756050210469
 40
0.8403674044324065
 40
0.9203921078135461
 40
1.0
 40
1.0
 40
1.0
 40
1.0
 10
351.3549809726933
 20
125.1550651182463
 30
0.0
 10
351.3568166263461
 20
125.1548568060311
 30
0.0
 10
351.3604820524292
 20
125.1544408490091
 30
0.0
 10
351.3632773820487
 20
125.147636425543
 30
0.0
 10
351.3640796771274
 20
125.1363030468909
 30
0.0
 10
351.3627135400843
 20
125.1200026518644
 30
0.0
 10
351.3592519914554
 20
125.0988514130285
 30
0.0
 10
351.353710685686
 20
125.072815711912
 30
0.0
 10
351.3461262176169
 20
125.0418913322608
 30
0.0
 10
351.3365492156798
 20
125.0060923008161
 30
0.0
 10
351.3257087396606
 20
124.9678413932843
 30
0.0
 10
351.3142200987211
 20
124.9286231798892
 30
0.0
 10
351.306120113843
 20
124.9017682030397
 30
0.0
 10
351.3020806962002
 20
124.8883757746693
 30
0.0
  0
LINE
  5
D1
330
1F
100
AcDbEntity
  8
0
  6
Continuous
 62
     7
370
    25
100
AcDbLine
 10
351.3022258012
 20
125.1543172516
 30
0.0
 11
351.3549805684
 21
125.1550651037
 31
0.0
  0
SPLINE
  5
D2
330
1F
100
AcDbEntity
  8
0
  6
Continuous
 62
     7
370
    25
100
AcDbSpline
210
0.0
220
0.0
230
1.0
 70
     8
 71
     3
 72
    25
 73
    21
 74
     0
 42
0.000000001
 43
0.00000001
 40
0.0
 40
0.0
 40
0.0
 40
0.0
 40
0.0280105225426455
 40
0.0559601148860774
 40
0.0839014045043129
 40
0.1118870776786379
 40
0.1399695827588941
 40
0.1682008401739877
 40
0.1966319670424218
 40
0.2253130233141493
 40
0.2542927850735863
 40
0.3799486436570518
 40
0.505785022166658
 40
0.6313085886329272
 40
0.7532068238012843
 40
0.8039473267959846
 40
0.8535894438560211
 40
0.902533972239985
 40
0.9511970353794947
 40
1.0
 40
1.0
 40
1.0
 40
1.0
 10
350.3912642056405
 20
122.5873854985588
 30
0.0
 10
350.3982432755515
 20
122.6246955120655
 30
0.0
 10
350.4121862340743
 20
122.6992343800591
 30
0.0
 10
350.4347081315172
 20
122.8105434255423
 30
0.0
 10
350.4583417436147
 20
122.9212056345568
 30
0.0
 10
350.4831913341027
 20
123.0311897675011
 30
0.0
 10
350.509209958589
 20
123.1404849111156
 30
0.0
 10
350.5363913399069
 20
123.2490758803177
 30
0.0
 10
350.5647169812394
 20
123.3569465902601
 30
0.0
 10
350.594175762072
 20
123.4640915359851
 30
0.0
 10
350.6585840499835
 20
123.688266422495
 30
0.0
 10
350.7636857420551
 20
124.0149318365302
 30
0.0
 10
350.9091485028511
 20
124.4008784418504
 30
0.0
 10
351.0484119109622
 20
124.7229582545444
 30
0.0
 10
351.1455602638294
 20
124.9187788385747
 30
0.0
 10
351.2058556700557
 20
125.028126289058
 30
0.0
 10
351.240744252937
 20
125.0860543134734
 30
0.0
 10
351.2686387548649
 20
125.1265082662383
 30
0.0
 10
351.2900038472365
 20
125.1511224816374
 30
0.0
 10
351.2981477948091
 20
125.1532514091451
 30
0.0
 10
351.3022256134541
 20
125.1543174008165
 30
0.0
  0
ARC
  5
D3
330
1F
100
AcDbEntity
  8
0
  6
Continuous
 62
     7
370
    25
100
AcDbCircle
 10
362.2619320704
 20
120.400047756
 30
0.0
 40
12.07050959801141
100
AcDbArc
 50
169.5595567507
 51
190.4404432494
  0
SPLINE
  5
D4
330
1F
100
AcDbEntity
  8
0
  6
Continuous
 62
     7
370
    25
100
AcDbSpline
210
0.0
220
0.0
230
1.0
 70
     8
 71
     3
 72
    26
 73
    22
 74
     0
 42
0.000000001
 43
0.00000001
 40
0.0
 40
0.0
 40
0.0
 40
0.0
 40
0.0241259796963637
 40
0.048215991227299
 40
0.0723203915124064
 40
0.0964895678710793
 40
0.120773623196351
 40
0.1452220711242841
 40
0.1698835501657706
 40
0.1948055644472381
 40
0.2200342569517629
 40
0.2456142191611394
 40
0.3690971486901671
 40
0.4940698769485191
 40
0.6192566784762444
 40
0.7454656653603234
 40
0.7971495824713715
 40
0.8481710308405401
 40
0.8988013269235245
 40
0.9493179290492194
 40
1.0
 40
1.0
 40
1.0
 40
1.0
 10
351.3022256134541
 20
115.6457781112324
 30
0.0
 10
351.3003152987138
 20
115.6460650044218
 30
0.0
 10
351.2964975172216
 20
115.6466383630865
 30
0.0
 10
351.2885373920406
 20
115.652697051333
 30
0.0
 10
351.2789582914652
 20
115.6625763120638
 30
0.0
 10
351.2676110845965
 20
115.6766574031742
 30
0.0
 10
351.2545549013026
 20
115.6948529511984
 30
0.0
 10
351.2397989980753
 20
115.7172034939371
 30
0.0
 10
351.2233718177779
 20
115.7437177296291
 30
0.0
 10
351.2053036630577
 20
115.7744132403424
 30
0.0
 10
351.1856265166347
 20
115.8093143435823
 30
0.0
 10
351.1374271352064
 20
115.89807887869
 30
0.0
 10
351.049109095771
 20
116.0753591801389
 30
0.0
 10
350.9100494790042
 20
116.396445086984
 30
0.0
 10
350.7643767991421
 20
116.7830277388745
 30
0.0
 10
350.6506382041326
 20
117.1367354430044
 30
0.0
 10
350.5709325855861
 20
117.4189891426172
 30
0.0
 10
350.5202830132318
 20
117.6134325733915
 30
0.0
 10
350.4733163433664
 20
117.8106739503256
 30
0.0
 10
350.429756521362
 20
118.0105769954207
 30
0.0
 10
350.4041089562305
 20
118.145258935153
 30
0.0
 10
350.3912642056405
 20
118.2127100134901
 30
0.0
  0
LINE
  5
D5
330
1F
100
AcDbEntity
  8
0
  6
Continuous
 62
     7
370
    25
100
AcDbLine
 10
351.3549805684
 20
115.6450304084
 30
0.0
 11
351.3022258012
 21
115.6457782604
 31
0.0
  0
SPLINE
  5
D6
330
1F
100
AcDbEntity
  8
0
  6
Continuous
 62
     7
370
    25
100
AcDbSpline
210
0.0
220
0.0
230
1.0
 70
     8
 71
     3
 72
    14
 73
    10
 74
     0
 42
0.000000001
 43
0.00000001
 40
0.0
 40
0.0
 40
0.0
 40
0.0
 40
0.0789261963152472
 40
0.1582328720511064
 40
0.3308475394503796
 40
0.5000195457530386
 40
0.6670357883499396
 40
0.8332395193610692
 40
1.0
 40
1.0
 40
1.0
 40
1.0
 10
351.3019841158412
 20
115.9120538711079
 30
0.0
 10
351.3059986624371
 20
115.8987507464704
 30
0.0
 10
351.3140471085492
 20
115.8720803668383
 30
0.0
 10
351.328947815359
 20
115.8212656275183
 30
0.0
 10
351.3448447969559
 20
115.7642258113307
 30
0.0
 10
351.3579232919539
 20
115.7099225946025
 30
0.0
 10
351.3641558990711
 20
115.6717554518795
 30
0.0
 10
351.3639663192341
 20
115.6483467232026
 30
0.0
 10
351.3579794251032
 20
115.6461370685241
 30
0.0
 10
351.3549809726933
 20
115.6450303938025
 30
0.0
  0
SPLINE
  5
D7
330
1F
100
AcDbEntity
  8
0
  6
Continuous
 62
     7
370
    25
100
AcDbSpline
210
0.0
220
0.0
230
1.0
 70
     8
 71
     3
 72
     8
 73
     4
 74
     0
 42
0.000000001
 43
0.00000001
 40
0.0
 40
0.0
 40
0.0
 40
0.0
 40
1.0
 40
1.0
 40
1.0
 40
1.0
 10
351.449288807066
 20
115.9099927926567
 30
0.0
 10
351.4002208920372
 20
115.9104798458687
 30
0.0
 10
351.3511114545163
 20
115.9111909137435
 30
0.0
 10
351.3019621099909
 20
115.9121264069778
 30
0.0
  0
SPLINE
  5
D8
330
1F
100
AcDbEntity
  8
0
  6
Continuous
 62
     7
370
    25
100
AcDbSpline
210
0.0
220
0.0
230
1.0
 70
     8
 71
     3
 72
    13
 73
     9
 74
     0
 42
0.000000001
 43
0.00000001
 40
0.0
 40
0.0
 40
0.0
 40
0.0
 40
0.1667030582307959
 40
0.3329480818053031
 40
0.4990671507274871
 40
0.6653938523718408
 40
0.8322612710550125
 40
1.0
 40
1.0
 40
1.0
 40
1.0
 10
351.5076223392369
 20
115.8412792678728
 30
0.0
 10
351.5057790254
 20
115.8416963776385
 30
0.0
 10
351.5020974624302
 20
115.8425294511159
 30
0.0
 10
351.4945802086357
 20
115.8485439299423
 30
0.0
 10
351.4856294045192
 20
115.8580386622345
 30
0.0
 10
351.4750791160962
 20
115.8714482693442
 30
0.0
 10
351.4631059305791
 20
115.8883661729678
 30
0.0
 10
351.4538995229727
 20
115.9027789081072
 30
0.0
 10
351.4492843324839
 20
115.9100040409688
 30
0.0
  0
SPLINE
  5
D9
330
1F
100
AcDbEntity
  8
0
  6
Continuous
 62
     7
370
    25
100
AcDbSpline
210
0.0
220
0.0
230
1.0
 70
     8
 71
     3
 72
    13
 73
     9
 74
     0
 42
0.000000001
 43
0.00000001
 40
0.0
 40
0.0
 40
0.0
 40
0.0
 40
0.1686319999748108
 40
0.3360343310905541
 40
0.5025367825908723
 40
0.6684737453788424
 40
0.8341822636915195
 40
1.0
 40
1.0
 40
1.0
 40
1.0
 10
373.0745811894624
 20
115.9100074907816
 30
0.0
 10
373.0699439443643
 20
115.9027503307621
 30
0.0
 10
373.0607032690779
 20
115.8882889301199
 30
0.0
 10
373.0486878957108
 20
115.8713082334157
 30
0.0
 10
373.0381223419562
 20
115.8578754522362
 30
0.0
 10
373.0291829926633
 20
115.8483959836823
 30
0.0
 10
373.0217021120747
 20
115.8424307579844
 30
0.0
 10
373.0180623047852
 20
115.8416631822
 30
0.0
 10
373.0162418015915
 20
115.8412792678728
 30
0.0
  0
SPLINE
  5
DA
330
1F
100
AcDbEntity
  8
0
  6
Continuous
 62
     7
370
    25
100
AcDbSpline
210
0.0
220
0.0
230
1.0
 70
     8
 71
     3
 72
     8
 73
     4
 74
     0
 42
0.000000001
 43
0.00000001
 40
0.0
 40
0.0
 40
0.0
 40
0.0
 40
1.0
 40
1.0
 40
1.0
 40
1.0
 10
373.2219068014352
 20
115.9121265117243
 30
0.0
 10
373.1727558718268
 20
115.9111909814623
 30
0.0
 10
373.1236448517475
 20
115.9104798909502
 30
0.0
 10
373.0745753568397
 20
115.9099928294522
 30
0.0
  0
SPLINE
  5
DB
330
1F
100
AcDbEntity
  8
0
  6
Continuous
 62
     7
370
    25
100
AcDbSpline
210
0.0
220
0.0
230
1.0
 70
     8
 71
     3
 72
    18
 73
    14
 74
     0
 42
0.000000001
 43
0.00000001
 40
0.0
 40
0.0
 40
0.0
 40
0.0
 40
0.0923325137151694
 40
0.1843692047134009
 40
0.2763458873902312
 40
0.368498217575762
 40
0.4610598988406411
 40
0.5542609546627003
 40
0.6483261285518087
 40
0.743473463655427
 40
0.8399130993133287
 40
0.9201660718313618
 40
1.0
 40
1.0
 40
1.0
 40
1.0
 10
373.168883168135
 20
115.6450303938025
 30
0.0
 10
373.1670475144824
 20
115.6452387060183
 30
0.0
 10
373.1633820883998
 20
115.6456546630416
 30
0.0
 10
373.1605867587772
 20
115.6524590864988
 30
0.0
 10
373.1597844637103
 20
115.6637924651846
 30
0.0
 10
373.1611506007094
 20
115.6800928600849
 30
0.0
 10
373.1646121495035
 20
115.701244099395
 30
0.0
 10
373.1701534546499
 20
115.7272797987226
 30
0.0
 10
373.1777379250773
 20
115.7582041851453
 30
0.0
 10
373.187314918058
 20
115.7940031908734
 30
0.0
 10
373.1981662650842
 20
115.8322924359878
 30
0.0
 10
373.2096810267165
 20
115.8715980604049
 30
0.0
 10
373.2178127355376
 20
115.8985551382984
 30
0.0
 10
373.2218679471454
 20
115.9119983957477
 30
0.0
  0
LINE
  5
DC
330
1F
100
AcDbEntity
  8
0
  6
Continuous
 62
     7
370
    25
100
AcDbLine
 10
373.2216383396
 20
115.6457782604
 30
0.0
 11
373.1688835724
 21
115.6450304084
 31
0.0
  0
SPLINE
  5
DD
330
1F
100
AcDbEntity
  8
0
  6
Continuous
 62
     7
370
    25
100
AcDbSpline
210
0.0
220
0.0
230
1.0
 70
     8
 71
     3
 72
    25
 73
    21
 74
     0
 42
0.000000001
 43
0.00000001
 40
0.0
 40
0.0
 40
0.0
 40
0.0
 40
0.0280105225425618
 40
0.0559601148859273
 40
0.0839014045041196
 40
0.1118870776784247
 40
0.1399695827586811
 40
0.1682008401737953
 40
0.1966319670422708
 40
0.2253130233140565
 40
0.2542927850735732
 40
0.3799486436574536
 40
0.5057850221666685
 40
0.6313085886327393
 40
0.7532068238012419
 40
0.803947326795536
 40
0.8535894438553622
 40
0.9025339722393254
 40
0.951197035379054
 40
1.0
 40
1.0
 40
1.0
 40
1.0
 10
374.1325999351879
 20
118.2127100134901
 30
0.0
 10
374.125620865277
 20
118.1753999999835
 30
0.0
 10
374.1116779067542
 20
118.1008611319901
 30
0.0
 10
374.0891560093114
 20
117.9895520865072
 30
0.0
 10
374.0655223972138
 20
117.8788898774929
 30
0.0
 10
374.0406728067259
 20
117.7689057445486
 30
0.0
 10
374.0146541822396
 20
117.6596106009341
 30
0.0
 10
373.9874728009217
 20
117.5510196317319
 30
0.0
 10
373.9591471595892
 20
117.4431489217893
 30
0.0
 10
373.9296883787565
 20
117.3360039760641
 30
0.0
 10
373.8652800908448
 20
117.1118290895534
 30
0.0
 10
373.7601783987731
 20
116.7851636755177
 30
0.0
 10
373.6147156379772
 20
116.3992170701982
 30
0.0
 10
373.4754522298667
 20
116.0771372575057
 30
0.0
 10
373.3783038769993
 20
115.8813166734748
 30
0.0
 10
373.3180084707727
 20
115.7719692229907
 30
0.0
 10
373.2831198878915
 20
115.7140411985754
 30
0.0
 10
373.2552253859636
 20
115.6735872458104
 30
0.0
 10
373.2338602935919
 20
115.6489730304114
 30
0.0
 10
373.2257163460193
 20
115.6468441029038
 30
0.0
 10
373.2216385273742
 20
115.6457781112324
 30
0.0
  0
ARC
  5
DE
330
1F
100
AcDbEntity
  8
0
  6
Continuous
 62
     7
370
    25
100
AcDbCircle
 10
362.2619320704
 20
120.400047756
 30
0.0
 40
12.07050959801147
100
AcDbArc
 50
349.5595567507
 51
10.4404432493
  0
SPLINE
  5
DF
330
1F
100
AcDbEntity
  8
0
  6
Continuous
 62
     7
370
    25
100
AcDbSpline
210
0.0
220
0.0
230
1.0
 70
     8
 71
     3
 72
    26
 73
    22
 74
     0
 42
0.000000001
 43
0.00000001
 40
0.0
 40
0.0
 40
0.0
 40
0.0
 40
0.0241259796962594
 40
0.0482159912271147
 40
0.0723203915121655
 40
0.0964895678708044
 40
0.1207736231960655
 40
0.1452220711240092
 40
0.1698835501655297
 40
0.1948055644470513
 40
0.2200342569516523
 40
0.2456142191611222
 40
0.3690971486898452
 40
0.4940698769485167
 40
0.6192566784763793
 40
0.7454656653603262
 40
0.7971495824714568
 40
0.8481710308406679
 40
0.8988013269236526
 40
0.9493179290493045
 40
1.0
 40
1.0
 40
1.0
 40
1.0
 10
373.2216385273742
 20
125.1543174008165
 30
0.0
 10
373.2235488421147
 20
125.1540305076271
 30
0.0
 10
373.2273666236068
 20
125.1534571489623
 30
0.0
 10
373.2353267487877
 20
125.1473984607159
 30
0.0
 10
373.2449058493631
 20
125.137519199985
 30
0.0
 10
373.2562530562319
 20
125.1234381088746
 30
0.0
 10
373.2693092395257
 20
125.1052425608505
 30
0.0
 10
373.2840651427531
 20
125.0828920181118
 30
0.0
 10
373.3004923230504
 20
125.0563777824197
 30
0.0
 10
373.3185604777707
 20
125.0256822717064
 30
0.0
 10
373.3382376241937
 20
124.9907811684665
 30
0.0
 10
373.3864370056218
 20
124.9020166333593
 30
0.0
 10
373.4747550450572
 20
124.7247363319105
 30
0.0
 10
373.6138146618241
 20
124.403650425065
 30
0.0
 10
373.7594873416863
 20
124.0170677731743
 30
0.0
 10
373.8732259366958
 20
123.6633600690442
 30
0.0
 10
373.9529315552424
 20
123.3811063694314
 30
0.0
 10
374.0035811275967
 20
123.1866629386569
 30
0.0
 10
374.0505477974621
 20
122.9894215617228
 30
0.0
 10
374.0941076194664
 20
122.7895185166279
 30
0.0
 10
374.1197551845979
 20
122.6548365768958
 30
0.0
 10
374.1325999351879
 20
122.5873854985587
 30
0.0
  0
LINE
  5
E0
330
1F
100
AcDbEntity
  8
0
  6
Continuous
 62
     7
370
    25
100
AcDbLine
 10
373.1688835724
 20
125.1550651037
 30
0.0
 11
373.2216383396
 21
125.1543172516
 31
0.0
  0
SPLINE
  5
E1
330
1F
100
AcDbEntity
  8
0
  6
Continuous
 62
     7
370
    25
100
AcDbSpline
210
0.0
220
0.0
230
1.0
 70
     8
 71
     3
 72
    14
 73
    10
 74
     0
 42
0.000000001
 43
0.00000001
 40
0.0
 40
0.0
 40
0.0
 40
0.0
 40
0.0786889129230217
 40
0.1577561817120102
 40
0.3304686003102582
 40
0.4997364082417218
 40
0.666847231663544
 40
0.833145083375537
 40
1.0
 40
1.0
 40
1.0
 40
1.0
 10
373.2217914549119
 20
124.8883336090287
 30
0.0
 10
373.2177934459573
 20
124.9015835135445
 30
0.0
 10
373.2097782046265
 20
124.9281470314128
 30
0.0
 10
373.194905531337
 20
124.9788685591817
 30
0.0
 10
373.1790193665747
 20
125.0358696382057
 30
0.0
 10
373.1659408429303
 20
125.0901729338147
 30
0.0
 10
373.1597082433253
 20
125.128340055852
 30
0.0
 10
373.1598978212018
 20
125.1517487899275
 30
0.0
 10
373.1658847155942
 20
125.1539584438856
 30
0.0
 10
373.168883168135
 20
125.1550651182464
 30
0.0
  0
SPLINE
  5
E2
330
1F
100
AcDbEntity
  8
0
  6
Continuous
 62
     7
370
    25
100
AcDbSpline
210
0.0
220
0.0
230
1.0
 70
     8
 71
     3
 72
     8
 73
     4
 74
     0
 42
0.000000001
 43
0.00000001
 40
0.0
 40
0.0
 40
0.0
 40
0.0
 40
1.0
 40
1.0
 40
1.0
 40
1.0
 10
373.101336114229
 20
124.8899899489942
 30
0.0
 10
373.1414692327357
 20
124.8895589950469
 30
0.0
 10
373.1816299406643
 20
124.8889784920344
 30
0.0
 10
373.2218173580073
 20
124.8882482164748
 30
0.0
  0
SPLINE
  5
E3
330
1F
100
AcDbEntity
  8
0
  6
Continuous
 62
     7
370
    25
100
AcDbSpline
210
0.0
220
0.0
230
1.0
 70
     8
 71
     3
 72
    23
 73
    19
 74
     0
 42
0.000000001
 43
0.00000001
 40
0.0
 40
0.0
 40
0.0
 40
0.0
 40
0.0441308420115403
 40
0.0880968635201137
 40
0.1320155028394797
 40
0.1760048571417636
 40
0.220182730577585
 40
0.2646656976919496
 40
0.3095682184552906
 40
0.3550018365579412
 40
0.4010744854732484
 40
0.4478899182331895
 40
0.4955472680210786
 40
0.5953670562466713
 40
0.6949121173423626
 40
0.7950007649006683
 40
0.896438625518418
 40
1.0
 40
1.0
 40
1.0
 40
1.0
 10
372.549622995094
 20
125.8504932729608
 30
0.0
 10
372.5516073852007
 20
125.8502104157309
 30
0.0
 10
372.5555687540856
 20
125.8496457576903
 30
0.0
 10
372.564429058316
 20
125.8432264045116
 30
0.0
 10
372.5754015364384
 20
125.8327051550049
 30
0.0
 10
372.5886809344588
 20
125.8176736186952
 30
0.0
 10
372.604191658125
 20
125.7982213736328
 30
0.0
 10
372.6219231198781
 20
125.7743013956807
 30
0.0
 10
372.6418397665813
 20
125.7459003049668
 30
0.0
 10
372.6639053005935
 20
125.7129925651662
 30
0.0
 10
372.6880762242876
 20
125.67555258251
 30
0.0
 10
372.714303234335
 20
125.6335525108801
 30
0.0
 10
372.7526398145662
 20
125.5702754023569
 30
0.0
 10
372.8049725939449
 20
125.4802165399935
 30
0.0
 10
372.8733732051534
 20
125.3558704204263
 30
0.0
 10
372.9460582799489
 20
125.2161573424458
 30
0.0
 10
373.0224185158484
 20
125.0618213272178
 30
0.0
 10
373.0747073304984
 20
124.9480986729902
 30
0.0
 10
373.1011225584018
 20
124.890648339696
 30
0.0
  0
SPLINE
  5
E4
330
1F
100
AcDbEntity
  8
0
  6
Continuous
 62
     7
370
    25
100
AcDbSpline
210
0.0
220
0.0
230
1.0
 70
    11
 71
     3
 72
    39
 73
    35
 74
     0
 42
0.000000001
 43
0.00000001
 40
0.0
 40
0.0
 40
0.0
 40
0.0
 40
0.0310664058350965
 40
0.0621048158425859
 40
0.093136155179263
 40
0.1235538293503448
 40
0.1538561545806855
 40
0.1850588072748946
 40
0.2160250992945718
 40
0.2471867223797388
 40
0.2784462884305076
 40
0.3100516090231096
 40
0.3419834369141944
 40
0.3734259894013148
 40
0.4048604886786042
 40
0.4368740651833136
 40
0.4685120685925458
 40
0.4998055358633138
 40
0.5309508213230685
 40
0.5618649784438015
 40
0.5930416446594986
 40
0.6233742450133227
 40
0.6540913579075065
 40
0.6849496782718291
 40
0.71581606451649
 40
0.7471731804043279
 40
0.7784514311862922
 40
0.8101295911560753
 40
0.8419598919688862
 40
0.8735175891922173
 40
0.9050808037887091
 40
0.9370235169792366
 40
0.968744159003463
 40
1.0
 40
1.0
 40
1.0
 40
1.0
 10
365.1660586352116
 20
108.968417572271
 30
0.0
 10
365.3557704641667
 20
109.0071861490185
 30
0.0
 10
365.6995113146118
 20
109.0836170948002
 30
0.0
 10
366.082468301823
 20
109.1717566347949
 30
0.0
 10
366.3269087685367
 20
109.2187061214395
 30
0.0
 10
366.4078977053539
 20
109.2067971967262
 30
0.0
 10
366.327175259874
 20
109.1348392900112
 30
0.0
 10
366.0873130662535
 20
109.0103190238136
 30
0.0
 10
365.7106633321563
 20
108.8529500339882
 30
0.0
 10
365.2044203953273
 20
108.6809259492929
 30
0.0
 10
364.587146001644
 20
108.5160015417072
 30
0.0
 10
363.8746701875012
 20
108.3782889656283
 30
0.0
 10
363.0992049477293
 20
108.2866561531199
 30
0.0
 10
362.2887405141155
 20
108.2533235750247
 30
0.0
 10
361.4762360411564
 20
108.282571020578
 30
0.0
 10
360.6967230510193
 20
108.3708999775652
 30
0.0
 10
359.9783947516806
 20
108.5064054772005
 30
0.0
 10
359.3550226442805
 20
108.6701819986921
 30
0.0
 10
358.8419240496845
 20
108.8421881428378
 30
0.0
 10
358.4567219398224
 20
109.0010001573095
 30
0.0
 10
358.2072973345836
 20
109.128259122474
 30
0.0
 10
358.1166952946376
 20
109.203866079429
 30
0.0
 10
358.1849068655991
 20
109.2206354761078
 30
0.0
 10
358.4171227319997
 20
109.1778551338933
 30
0.0
 10
358.7943397691853
 20
109.0907284489828
 30
0.0
 10
359.3060446369487
 20
108.975999393677
 30
0.0
 10
359.9295157676958
 20
108.8565772486243
 30
0.0
 10
360.6460604708296
 20
108.7519517985746
 30
0.0
 10
361.4243915834425
 20
108.6813033056477
 30
0.0
 10
362.2362230702935
 20
108.6552244812176
 30
0.0
 10
363.0499975922897
 20
108.6782500529083
 30
0.0
 10
363.8323714364585
 20
108.7464824910463
 30
0.0
 10
364.5543844711942
 20
108.8497296707569
 30
0.0
 10
364.9751899910415
 20
108.9294125944531
 30
0.0
 10
365.1660586352116
 20
108.968417572271
 30
0.0
  0
SPLINE
  5
E5
330
1F
100
AcDbEntity
  8
0
  6
Continuous
 62
     7
370
    25
100
AcDbSpline
210
0.0
220
0.0
230
1.0
 70
    11
 71
     3
 72
    39
 73
    35
 74
     0
 42
0.000000001
 43
0.00000001
 40
0.0
 40
0.0
 40
0.0
 40
0.0
 40
0.0312651429932929
 40
0.0629601069329363
 40
0.0948697276489851
 40
0.1264264963751878
 40
0.1579651393672514
 40
0.1898765439017007
 40
0.221552335268766
 40
0.2527844076550835
 40
0.2838418966732524
 40
0.3148645781100705
 40
0.34591276392991
 40
0.3763475365526239
 40
0.406675132466265
 40
0.4379141187435676
 40
0.4688932367346729
 40
0.5000738678969627
 40
0.5313369410961
 40
0.5629183719104931
 40
0.5948445736346094
 40
0.6262809966135477
 40
0.6577486436588904
 40
0.6897584692806558
 40
0.7214430019612538
 40
0.752762334319555
 40
0.7839279690576615
 40
0.8148885765585969
 40
0.846037500498419
 40
0.8763409566916832
 40
0.9067589191462748
 40
0.9378312724751754
 40
0.9689189660503823
 40
0.9999999999999999
 40
0.9999999999999999
 40
0.9999999999999999
 40
0.9999999999999999
 10
365.1659543854247
 20
131.8317099922136
 30
0.0
 10
364.9748804491439
 20
131.8707739500941
 30
0.0
 10
364.5539458867048
 20
131.9504929446541
 30
0.0
 10
363.8325564815407
 20
132.0536083600047
 30
0.0
 10
363.0509004332495
 20
132.1218092324287
 30
0.0
 10
362.2378127135386
 20
132.1448661250706
 30
0.0
 10
361.4255324966866
 20
132.1188818514244
 30
0.0
 10
360.6469020716378
 20
132.0482916861862
 30
0.0
 10
359.930226281727
 20
131.9436761239473
 30
0.0
 10
359.3083510120655
 20
131.8245037989309
 30
0.0
 10
358.7988400785791
 20
131.7105666312046
 30
0.0
 10
358.4237207323364
 20
131.6244523522582
 30
0.0
 10
358.1877601574909
 20
131.5803966309246
 30
0.0
 10
358.1163596143014
 20
131.5959264316324
 30
0.0
 10
358.2069560440908
 20
131.6714353138138
 30
0.0
 10
358.4559323244574
 20
131.7986088416607
 30
0.0
 10
358.8408471443008
 20
131.9574595202735
 30
0.0
 10
359.3536324511257
 20
132.1294837814843
 30
0.0
 10
359.97609157405
 20
132.2931568610187
 30
0.0
 10
360.6925917188584
 20
132.4285584343991
 30
0.0
 10
361.470690752967
 20
132.5170761018815
 30
0.0
 10
362.2824134416154
 20
132.5467835103642
 30
0.0
 10
363.0938556293145
 20
132.5138970657139
 30
0.0
 10
363.8709815207985
 20
132.4224161576689
 30
0.0
 10
364.5854196099687
 20
132.2845319677074
 30
0.0
 10
365.2036425682049
 20
132.1194041428568
 30
0.0
 10
365.7100099289284
 20
131.9473536055048
 30
0.0
 10
366.0865624503429
 20
131.7900700837943
 30
0.0
 10
366.3262582617713
 20
131.6656662863114
 30
0.0
 10
366.407724969967
 20
131.5934781128747
 30
0.0
 10
366.3276657274739
 20
131.5812056044972
 30
0.0
 10
366.0833197215223
 20
131.6281010150026
 30
0.0
 10
365.7003462880733
 20
131.7162345631482
 30
0.0
 10
365.3559031568635
 20
131.7928760677581
 30
0.0
 10
365.1659543854248
 20
131.8317099922136
 30
0.0
  0
SPLINE
  5
E6
330
1F
100
AcDbEntity
  8
0
  6
Continuous
 62
     7
370
    25
100
AcDbSpline
210
0.0
220
0.0
230
1.0
 70
     8
 71
     3
 72
    23
 73
    19
 74
     0
 42
0.000000001
 43
0.00000001
 40
0.0
 40
0.0
 40
0.0
 40
0.0
 40
0.0449850911547964
 40
0.0909520670823883
 40
0.1379394291328525
 40
0.1859832248994781
 40
0.235117176177667
 40
0.2853728096486027
 40
0.3367795876649756
 40
0.3893650370847659
 40
0.4431548745955978
 40
0.4981731273942729
 40
0.5575107591414307
 40
0.6265492282208773
 40
0.7053073139958764
 40
0.7937970254642376
 40
0.8920262116484563
 40
1.0
 40
1.0
 40
1.0
 40
1.0
 10
352.3709903588569
 20
125.4300477560244
 30
0.0
 10
352.3688276694913
 20
125.4296188543648
 30
0.0
 10
352.3644550859704
 20
125.4287516894549
 30
0.0
 10
352.3541741267787
 20
125.421658121853
 30
0.0
 10
352.3411138487486
 20
125.4100453802729
 30
0.0
 10
352.3249946871943
 20
125.3932560100991
 30
0.0
 10
352.3058942595383
 20
125.3711840234833
 30
0.0
 10
352.2837919067825
 20
125.3435865497193
 30
0.0
 10
352.2586914282469
 20
125.3102781185099
 30
0.0
 10
352.2306002968692
 20
125.2710777801038
 30
0.0
 10
352.1994843960176
 20
125.2258357346322
 30
0.0
 10
352.1648454651225
 20
125.1734398022273
 30
0.0
 10
352.1241239568244
 20
125.1106573339751
 30
0.0
 10
352.0754030357777
 20
125.0329003346696
 30
0.0
 10
352.0176286974524
 20
124.9356157770653
 30
0.0
 10
351.9507180478149
 20
124.8158709433498
 30
0.0
 10
351.8747740835442
 20
124.6719507384867
 30
0.0
 10
351.820412918878
 20
124.5612165336427
 30
0.0
 10
351.7919478547759
 20
124.5032329297493
 30
0.0
  0
LINE
  5
E7
330
1F
100
AcDbEntity
  8
0
  6
Continuous
 62
     7
370
    25
100
AcDbLine
 10
351.7919478072
 20
124.5037590966
 30
0.0
 11
351.4226085572
 21
124.8898439922
 31
0.0
  0
LINE
  5
E8
330
1F
100
AcDbEntity
  8
0
  6
Continuous
 62
     7
370
    25
100
AcDbLine
 10
373.1012229873
 20
124.8897843875
 30
0.0
 11
372.7319563805
 21
124.5037763261
 31
0.0
  0
SPLINE
  5
E9
330
1F
100
AcDbEntity
  8
0
  6
Continuous
 62
     7
370
    25
100
AcDbSpline
210
0.0
220
0.0
230
1.0
 70
     8
 71
     3
 72
    26
 73
    22
 74
     0
 42
0.000000001
 43
0.00000001
 40
0.0
 40
0.0
 40
0.0
 40
0.0
 40
0.0509383868710681
 40
0.0998291548374484
 40
0.1466728126632442
 40
0.1914699456539526
 40
0.2342212299963317
 40
0.2749274506887306
 40
0.3135895241945819
 40
0.3502085273905902
 40
0.384785735024819
 40
0.4173226688625226
 40
0.4478211631676295
 40
0.476283453466084
 40
0.5027122992247393
 40
0.5939067005067384
 40
0.681601599325777
 40
0.7659159552126487
 40
0.8469836289730962
 40
0.9249552229482289
 40
1.0
 40
1.0
 40
1.0
 40
1.0
 10
372.7319567707208
 20
124.5030421994996
 30
0.0
 10
372.7184989065213
 20
124.530662980667
 30
0.0
 10
372.692124156721
 20
124.5847942441259
 30
0.0
 10
372.6537519769385
 20
124.661102281208
 30
0.0
 10
372.6172857944435
 20
124.7318544608048
 30
0.0
 10
372.5827495448175
 20
124.7970262874962
 30
0.0
 10
372.5501370929634
 20
124.8568845327496
 30
0.0
 10
372.5194498091697
 20
124.9116496922911
 30
0.0
 10
372.4906871928685
 20
124.9615740836019
 30
0.0
 10
372.4638490283969
 20
125.0069163141948
 30
0.0
 10
372.4389354479701
 20
125.0479422531324
 30
0.0
 10
372.4159448011835
 20
125.0849196380755
 30
0.0
 10
372.3948812956966
 20
125.1181157540542
 30
0.0
 10
372.3757289253209
 20
125.1477914863162
 30
0.0
 10
372.3440578483786
 20
125.1964618113638
 30
0.0
 10
372.3025879029435
 20
125.2583571292828
 30
0.0
 10
372.2555983867994
 20
125.3236977367075
 30
0.0
 10
372.2169798170842
 20
125.3728161279985
 30
0.0
 10
372.186931357363
 20
125.4062924165091
 30
0.0
 10
372.164641246394
 20
125.4264098487455
 30
0.0
 10
372.1567459309609
 20
125.4288506825949
 30
0.0
 10
372.1528737819714
 20
125.4300477560244
 30
0.0
  0
SPLINE
  5
EA
330
1F
100
AcDbEntity
  8
0
  6
Continuous
 62
     7
370
    25
100
AcDbSpline
210
0.0
220
0.0
230
1.0
 70
     8
 71
     3
 72
     8
 73
     4
 74
     0
 42
0.000000001
 43
0.00000001
 40
0.0
 40
0.0
 40
0.0
 40
0.0
 40
1.0
 40
1.0
 40
1.0
 40
1.0
 10
370.0036125222146
 20
124.6230460825071
 30
0.0
 10
370.0672055025546
 20
124.5573773046604
 30
0.0
 10
370.1311619289899
 20
124.4930350070001
 30
0.0
 10
370.1953608486973
 20
124.4312977560244
 30
0.0
  0
SPLINE
  5
EB
330
1F
100
AcDbEntity
  8
0
  6
Continuous
 62
     7
370
    25
100
AcDbSpline
210
0.0
220
0.0
230
1.0
 70
     8
 71
     3
 72
    25
 73
    21
 74
     0
 42
0.000000001
 43
0.00000001
 40
0.0
 40
0.0
 40
0.0
 40
0.0
 40
0.0367725003273524
 40
0.0742084010635883
 40
0.1123590542855501
 40
0.1512729822625089
 40
0.1909959100229794
 40
0.2315708273567468
 40
0.2730380740480022
 40
0.3154354426133704
 40
0.3587982934479269
 40
0.4031596779846243
 40
0.4485504661867954
 40
0.4949994753770925
 40
0.5532504315742431
 40
0.6218294885841514
 40
0.7007739996682805
 40
0.7901076726768732
 40
0.8898461547601584
 40
1.0
 40
1.0
 40
1.0
 40
1.0
 10
369.5616913349031
 20
125.4300477560241
 30
0.0
 10
369.5619151089679
 20
125.4297230683903
 30
0.0
 10
369.5623666941308
 20
125.4290678355414
 30
0.0
 10
369.5670837340031
 20
125.4237054637532
 30
0.0
 10
369.5747363430856
 20
125.414949870052
 30
0.0
 10
369.5856293222226
 20
125.4023256519594
 30
0.0
 10
369.5996779086384
 20
125.3857693138282
 30
0.0
 10
369.6169048062476
 20
125.3651121364497
 30
0.0
 10
369.637303359029
 20
125.3402244004813
 30
0.0
 10
369.6608741723213
 20
125.3109768542878
 30
0.0
 10
369.687619520881
 20
125.2772539190915
 30
0.0
 10
369.7175273743133
 20
125.2389481039668
 30
0.0
 10
369.7506434666578
 20
125.1959772086302
 30
0.0
 10
369.7895693882344
 20
125.1445559269585
 30
0.0
 10
369.8383974679549
 20
125.080339695266
 30
0.0
 10
369.9003180725599
 20
124.9974451661657
 30
0.0
 10
369.9747026308822
 20
124.8934994159481
 30
0.0
 10
370.0616770588693
 20
124.7654132056913
 30
0.0
 10
370.1611019088477
 20
124.6113234257901
 30
0.0
 10
370.2325210845735
 20
124.4932591899255
 30
0.0
 10
370.2700026682521
 20
124.4312977560244
 30
0.0
  0
LINE
  5
EC
330
1F
100
AcDbEntity
  8
0
  6
Continuous
 62
     7
370
    25
100
AcDbLine
 10
370.2700023605
 20
124.4312975437
 30
0.0
 11
370.1953605814
 21
124.4312975437
 31
0.0
  0
SPLINE
  5
ED
330
1F
100
AcDbEntity
  8
0
  6
Continuous
 62
     7
370
    25
100
AcDbSpline
210
0.0
220
0.0
230
1.0
 70
     8
 71
     3
 72
    23
 73
    19
 74
     0
 42
0.000000001
 43
0.00000001
 40
0.0
 40
0.0
 40
0.0
 40
0.0
 40
0.0511129009857237
 40
0.1016896331838987
 40
0.1518293139104701
 40
0.2016336701894375
 40
0.2512064936754073
 40
0.3006530343006341
 40
0.3500793489716446
 40
0.3995916247932064
 40
0.4492954981442684
 40
0.4992953912354717
 40
0.5872572780521592
 40
0.6724255494349295
 40
0.7555067762540847
 40
0.83726167352717
 40
0.9184882400167593
 40
1.0
 40
1.0
 40
1.0
 40
1.0
 10
370.00367519834
 20
124.6232887986022
 30
0.0
 10
369.9876596144395
 20
124.6524174008332
 30
0.0
 10
369.9557964483765
 20
124.710369049417
 30
0.0
 10
369.9087526099577
 20
124.7931268846353
 30
0.0
 10
369.8627740857827
 20
124.8722157431195
 30
0.0
 10
369.8179934189791
 20
124.9474327310537
 30
0.0
 10
369.7745096545432
 20
125.0188957860993
 30
0.0
 10
369.7324236909586
 20
125.0866371902876
 30
0.0
 10
369.6918292265613
 20
125.1507107020326
 30
0.0
 10
369.652814320211
 20
125.2111643011038
 30
0.0
 10
369.6154644977235
 20
125.2680418060321
 30
0.0
 10
369.5709362411314
 20
125.3347562790926
 30
0.0
 10
369.5222959805903
 20
125.4060765629571
 30
0.0
 10
369.4744568808344
 20
125.4746568154162
 30
0.0
 10
369.4368053687535
 20
125.5276731434583
 30
0.0
 10
369.4099826673661
 20
125.5649457995859
 30
0.0
 10
369.3932538365425
 20
125.5879831991659
 30
0.0
 10
369.3914054265786
 20
125.5905179244311
 30
0.0
 10
369.3904796019582
 20
125.5917875080745
 30
0.0
  0
SPLINE
  5
EE
330
1F
100
AcDbEntity
  8
0
  6
Continuous
 62
     7
370
    25
100
AcDbSpline
210
0.0
220
0.0
230
1.0
 70
     8
 71
     3
 72
     8
 73
     4
 74
     0
 42
0.000000001
 43
0.00000001
 40
0.0
 40
0.0
 40
0.0
 40
0.0
 40
1.0
 40
1.0
 40
1.0
 40
1.0
 10
372.6658247174862
 20
124.4312977560243
 30
0.0
 10
372.6877100891294
 20
124.455618772222
 30
0.0
 10
372.7095954607726
 20
124.4796433705444
 30
0.0
 10
372.7314808324157
 20
124.5033502226329
 30
0.0
  0
LINE
  5
EF
330
1F
100
AcDbEntity
  8
0
  6
Continuous
 62
     7
370
    25
100
AcDbLine
 10
372.6656648396
 20
124.4312975437
 30
0.0
 11
370.2700023605
 21
124.4312975437
 31
0.0
  0
SPLINE
  5
F0
330
1F
100
AcDbEntity
  8
0
  6
Continuous
 62
     7
370
    25
100
AcDbSpline
210
0.0
220
0.0
230
1.0
 70
     8
 71
     3
 72
     8
 73
     4
 74
     0
 42
0.000000001
 43
0.00000001
 40
0.0
 40
0.0
 40
0.0
 40
0.0
 40
1.0
 40
1.0
 40
1.0
 40
1.0
 10
351.7922890825879
 20
124.503453790113
 30
0.0
 10
351.8142058550755
 20
124.4797133415539
 30
0.0
 10
351.836122627563
 20
124.4556541897673
 30
0.0
 10
351.8580394000506
 20
124.4312977560244
 30
0.0
  0
SPLINE
  5
F1
330
1F
100
AcDbEntity
  8
0
  6
Continuous
 62
     7
370
    25
100
AcDbSpline
210
0.0
220
0.0
230
1.0
 70
     8
 71
     3
 72
    26
 73
    22
 74
     0
 42
0.000000001
 43
0.00000001
 40
0.0
 40
0.0
 40
0.0
 40
0.0
 40
0.0524616379916458
 40
0.1026498591861474
 40
0.1505655134537972
 40
0.1962095861908931
 40
0.2395832262515146
 40
0.2806877815543323
 40
0.3195248450324018
 40
0.3560963147377176
 40
0.3904044736499266
 40
0.4224520974393497
 40
0.4522426027388373
 40
0.4797802555350637
 40
0.5050704712281464
 40
0.5966394156800096
 40
0.6841917884819306
 40
0.7679874773571161
 40
0.8483228539139546
 40
0.9255341635201179
 40
1.0
 40
1.0
 40
1.0
 40
1.0
 10
354.2536839144981
 20
124.4313126480421
 30
0.0
 10
354.271545398786
 20
124.4610861080823
 30
0.0
 10
354.306494342761
 20
124.5193427999738
 30
0.0
 10
354.3572591762419
 20
124.6015417803363
 30
0.0
 10
354.4053291338828
 20
124.6776226492355
 30
0.0
 10
354.450673106647
 20
124.7475739977007
 30
0.0
 10
354.4932990861519
 20
124.8116811596522
 30
0.0
 10
354.5332053846608
 20
124.8701889991224
 30
0.0
 10
354.5703927137762
 20
124.9233775767447
 30
0.0
 10
354.6048615363672
 20
124.9715356169826
 30
0.0
 10
354.6366116249999
 20
125.0149602902598
 30
0.0
 10
354.6656460296018
 20
125.053950381358
 30
0.0
 10
354.6919573188037
 20
125.0888044798859
 30
0.0
 10
354.7155739483489
 20
125.1198094743381
 30
0.0
 10
354.7552196273555
 20
125.1720526929722
 30
0.0
 10
354.8067579241551
 20
125.2395820262299
 30
0.0
 10
354.8635840611362
 20
125.3117754724384
 30
0.0
 10
354.9077414890992
 20
125.3662594285609
 30
0.0
 10
354.9389191120412
 20
125.4035242197293
 30
0.0
 10
354.9583786786804
 20
125.425988572004
 30
0.0
 10
354.9605202763609
 20
125.4287111214312
 30
0.0
 10
354.9615716929175
 20
125.4300477560244
 30
0.0
  0
LINE
  5
F2
330
1F
100
AcDbEntity
  8
0
  6
Continuous
 62
     7
370
    25
100
AcDbLine
 10
354.2536838977
 20
124.4312975437
 30
0.0
 11
351.8580391137
 21
124.4312975437
 31
0.0
  0
LINE
  5
F3
330
1F
100
AcDbEntity
  8
0
  6
Continuous
 62
     7
370
    25
100
AcDbLine
 10
354.3285035594
 20
124.4312975437
 30
0.0
 11
354.2533840118
 21
124.4312975437
 31
0.0
  0
SPLINE
  5
F4
330
1F
100
AcDbEntity
  8
0
  6
Continuous
 62
     7
370
    25
100
AcDbSpline
210
0.0
220
0.0
230
1.0
 70
     8
 71
     3
 72
     8
 73
     4
 74
     0
 42
0.000000001
 43
0.00000001
 40
0.0
 40
0.0
 40
0.0
 40
0.0
 40
1.0
 40
1.0
 40
1.0
 40
1.0
 10
354.3285032921311
 20
124.4312977560243
 30
0.0
 10
354.392412094791
 20
124.4932666194555
 30
0.0
 10
354.4561870141429
 20
124.5572426845721
 30
0.0
 10
354.5195470800239
 20
124.6227773409179
 30
0.0
  0
SPLINE
  5
F5
330
1F
100
AcDbEntity
  8
0
  6
Continuous
 62
     7
370
    25
100
AcDbSpline
210
0.0
220
0.0
230
1.0
 70
     8
 71
     3
 72
    24
 73
    20
 74
     0
 42
0.000000001
 43
0.00000001
 40
0.0
 40
0.0
 40
0.0
 40
0.0
 40
0.0410257106277056
 40
0.0818520099058079
 40
0.1225800578328279
 40
0.1633117464027038
 40
0.2041489402772657
 40
0.2451927184714171
 40
0.2865426449201731
 40
0.3282960933615133
 40
0.3705476475467034
 40
0.4133885920081624
 40
0.4569065022338602
 40
0.5011849368583825
 40
0.6001856774930499
 40
0.6987388860423923
 40
0.7976800645430001
 40
0.8978349910013272
 40
1.0
 40
1.0
 40
1.0
 40
1.0
 10
355.1331298858987
 20
125.5914378373559
 30
0.0
 10
355.1329351224576
 20
125.5911704871983
 30
0.0
 10
355.1325465422512
 20
125.590637086377
 30
0.0
 10
355.1284917545768
 20
125.5850653403779
 30
0.0
 10
355.121897795597
 20
125.5759845912241
 30
0.0
 10
355.112533534687
 20
125.5630471308633
 30
0.0
 10
355.100485420917
 20
125.5463286879575
 30
0.0
 10
355.0857628514565
 20
125.5257866771857
 30
0.0
 10
355.0684038586093
 20
125.5014053031389
 30
0.0
 10
355.048446687456
 20
125.4731565590671
 30
0.0
 10
355.0259376377604
 20
125.4410110116659
 30
0.0
 10
355.000928401999
 20
125.4049341716998
 30
0.0
 10
354.9734790324742
 20
125.3648905791804
 30
0.0
 10
354.9315559194078
 20
125.3029701358405
 30
0.0
 10
354.8723497441978
 20
125.2136576447458
 30
0.0
 10
354.7925701510784
 20
125.0891130527186
 30
0.0
 10
354.7065893660919
 20
124.9493282602288
 30
0.0
 10
354.6153045788687
 20
124.794915441241
 30
0.0
 10
354.5521002248097
 20
124.6808694195884
 30
0.0
 10
354.5201840748435
 20
124.623279875572
 30
0.0
  0
LINE
  5
F6
330
1F
100
AcDbEntity
  8
0
  6
Continuous
 62
     7
370
    25
100
AcDbLine
 10
351.449290949
 20
115.9099926122
 30
0.0
 11
351.8735288708
 21
116.358785785
 31
0.0
  0
SPLINE
  5
F7
330
1F
100
AcDbEntity
  8
0
  6
Continuous
 62
     7
370
    25
100
AcDbSpline
210
0.0
220
0.0
230
1.0
 70
     8
 71
     3
 72
    13
 73
     9
 74
     0
 42
0.000000001
 43
0.00000001
 40
0.0
 40
0.0
 40
0.0
 40
0.0
 40
0.1706320847381217
 40
0.3395984166493647
 40
0.5069574113007884
 40
0.672769183166934
 40
0.8370955448651839
 40
1.0
 40
1.0
 40
1.0
 40
1.0
 10
351.8735285832919
 20
116.3587650144951
 30
0.0
 10
351.8785340537016
 20
116.3518136414103
 30
0.0
 10
351.8884961298745
 20
116.3379787562726
 30
0.0
 10
351.9013699577685
 20
116.3218509978132
 30
0.0
 10
351.912636270265
 20
116.3091822676561
 30
0.0
 10
351.9221136336999
 20
116.3003258298214
 30
0.0
 10
351.9299958663933
 20
116.294813801346
 30
0.0
 10
351.9338107726252
 20
116.2941354552658
 30
0.0
 10
351.9357099373406
 20
116.2937977560244
 30
0.0
  0
SPLINE
  5
F8
330
1F
100
AcDbEntity
  8
0
  6
Continuous
 62
     7
370
    25
100
AcDbSpline
210
0.0
220
0.0
230
1.0
 70
     8
 71
     3
 72
    13
 73
     9
 74
     0
 42
0.000000001
 43
0.00000001
 40
0.0
 40
0.0
 40
0.0
 40
0.0
 40
0.1621004456877203
 40
0.32594345520649
 40
0.4915935308810087
 40
0.6591130874452793
 40
0.8285624736348074
 40
1.0
 40
1.0
 40
1.0
 40
1.0
 10
372.5881542034878
 20
116.2937977560244
 30
0.0
 10
372.5900313098303
 20
116.2941322391252
 30
0.0
 10
372.5938057012237
 20
116.2948048009871
 30
0.0
 10
372.6016527784031
 20
116.3002780853842
 30
0.0
 10
372.6111188381783
 20
116.309097550046
 30
0.0
 10
372.6223997529805
 20
116.3217503070406
 30
0.0
 10
372.6353143714775
 20
116.3379023084363
 30
0.0
 10
372.645310085723
 20
116.3517881083774
 30
0.0
 10
372.6503370916343
 20
116.3587715011268
 30
0.0
  0
LINE
  5
F9
330
1F
100
AcDbEntity
  8
0
  6
Continuous
 62
     7
370
    25
100
AcDbLine
 10
372.6503501712
 20
116.3587718152
 30
0.0
 11
373.0745722605
 21
115.9099926122
 31
0.0
  0
SPLINE
  5
FA
330
1F
100
AcDbEntity
  8
0
  6
Continuous
 62
     7
370
    25
100
AcDbSpline
210
0.0
220
0.0
230
1.0
 70
     8
 71
     3
 72
     8
 73
     4
 74
     0
 42
0.000000001
 43
0.00000001
 40
0.0
 40
0.0
 40
0.0
 40
0.0
 40
1.0
 40
1.0
 40
1.0
 40
1.0
 10
372.6503501326272
 20
116.358772114194
 30
0.0
 10
372.6481666483861
 20
116.3616207797104
 30
0.0
 10
372.645983164145
 20
116.3645615711079
 30
0.0
 10
372.6437996799039
 20
116.3675940683844
 30
0.0
  0
LINE
  5
FB
330
1F
100
AcDbEntity
  8
0
  6
Continuous
 62
     7
370
    25
100
AcDbLine
 10
372.6428967966
 20
116.3687979684
 30
0.0
 11
370.2040861426
 21
116.3687979684
 31
0.0
  0
LINE
  5
FC
330
1F
100
AcDbEntity
  8
0
  6
Continuous
 62
     7
370
    25
100
AcDbLine
 10
370.1953605814
 20
116.3687979684
 30
0.0
 11
370.2040824173
 21
116.3687979684
 31
0.0
  0
SPLINE
  5
FD
330
1F
100
AcDbEntity
  8
0
  6
Continuous
 62
     7
370
    25
100
AcDbSpline
210
0.0
220
0.0
230
1.0
 70
     8
 71
     3
 72
     8
 73
     4
 74
     0
 42
0.000000001
 43
0.00000001
 40
0.0
 40
0.0
 40
0.0
 40
0.0
 40
1.0
 40
1.0
 40
1.0
 40
1.0
 10
351.880967227334
 20
116.3687977560321
 30
0.0
 10
351.8784813086475
 20
116.36533605672
 30
0.0
 10
351.875995389961
 20
116.3619919048111
 30
0.0
 10
351.8735094712744
 20
116.3587659128707
 30
0.0
  0
LINE
  5
FE
330
1F
100
AcDbEntity
  8
0
  6
Continuous
 62
     7
370
    25
100
AcDbLine
 10
354.3182711183
 20
116.3687979684
 30
0.0
 11
351.881183411
 21
116.3687979684
 31
0.0
  0
LINE
  5
FF
330
1F
100
AcDbEntity
  8
0
  6
Continuous
 62
     7
370
    25
100
AcDbLine
 10
354.3197807922
 20
116.3687979684
 30
0.0
 11
354.3285035594
 21
116.3687979684
 31
0.0
  0
SPLINE
  5
100
330
1F
100
AcDbEntity
  8
0
  6
Continuous
 62
     7
370
    25
100
AcDbSpline
210
0.0
220
0.0
230
1.0
 70
     8
 71
     3
 72
    14
 73
    10
 74
     0
 42
0.000000001
 43
0.00000001
 40
0.0
 40
0.0
 40
0.0
 40
0.0
 40
0.0310276388093398
 40
0.0622853718693698
 40
0.1248003166924349
 40
0.2498289731770658
 40
0.4998892603621822
 40
0.7606803621577949
 40
1.0
 40
1.0
 40
1.0
 40
1.0
 10
351.3018380759551
 20
115.9120595814088
 30
0.0
 10
351.3061673694206
 20
115.9168435036874
 30
0.0
 10
351.3148580614544
 20
115.9264468247763
 30
0.0
 10
351.3322588401169
 20
115.9457411387744
 30
0.0
 10
351.3627349999618
 20
115.9795060852281
 30
0.0
 10
351.4235563927813
 20
116.0469248440899
 30
0.0
 10
351.5114467351932
 20
116.1443915189552
 30
0.0
 10
351.6142844152769
 20
116.2585360308529
 30
0.0
 10
351.6814905267186
 20
116.3333208438593
 30
0.0
 10
351.7136508883671
 20
116.369107866505
 30
0.0
  0
LINE
  5
101
330
1F
100
AcDbEntity
  8
0
  6
Continuous
 62
     7
370
    25
100
AcDbLine
 10
351.7133227615
 20
116.3687979684
 30
0.0
 11
351.8809673442
 21
116.3687979684
 31
0.0
  0
LINE
  5
102
330
1F
100
AcDbEntity
  8
0
  6
Continuous
 62
     7
370
    25
100
AcDbLine
 10
372.6428967966
 20
116.3687979684
 30
0.0
 11
372.8105488299
 21
116.3687979684
 31
0.0
  0
SPLINE
  5
103
330
1F
100
AcDbEntity
  8
0
  6
Continuous
 62
     7
370
    25
100
AcDbSpline
210
0.0
220
0.0
230
1.0
 70
     8
 71
     3
 72
    11
 73
     7
 74
     0
 42
0.000000001
 43
0.00000001
 40
0.0
 40
0.0
 40
0.0
 40
0.0
 40
0.2392913840897591
 40
0.5001130134987114
 40
0.7515028526612877
 40
1.0
 40
1.0
 40
1.0
 40
1.0
 10
372.8102453230845
 20
116.369084558536
 30
0.0
 10
372.8424018760186
 20
116.3333078400056
 30
0.0
 10
372.9096082681447
 20
116.2585353922413
 30
0.0
 10
373.0126363578913
 20
116.1440766789267
 30
0.0
 10
373.1177270225543
 20
116.027917492788
 30
0.0
 10
373.1874018426352
 20
115.9505295514725
 30
0.0
 10
373.2220376593277
 20
115.9120594908895
 30
0.0
  0
LINE
  5
104
330
1F
100
AcDbEntity
  8
0
  6
Continuous
 62
     7
370
    25
100
AcDbLine
 10
351.8580391137
 20
124.4312975437
 30
0.0
 11
351.7134671165
 21
124.4312975437
 31
0.0
  0
SPLINE
  5
105
330
1F
100
AcDbEntity
  8
0
  6
Continuous
 62
     7
370
    25
100
AcDbSpline
210
0.0
220
0.0
230
1.0
 70
     8
 71
     3
 72
    11
 73
     7
 74
     0
 42
0.000000001
 43
0.00000001
 40
0.0
 40
0.0
 40
0.0
 40
0.0
 40
0.2392845096574327
 40
0.5001120454060707
 40
0.7515010914954734
 40
1.0
 40
1.0
 40
1.0
 40
1.0
 10
351.7137697262045
 20
124.4310119698278
 30
0.0
 10
351.6816085964067
 20
124.4668098189183
 30
0.0
 10
351.6143908378112
 20
124.5416284336103
 30
0.0
 10
351.5113461893129
 20
124.6561566978702
 30
0.0
 10
351.4062379604542
 20
124.7723876915332
 30
0.0
 10
351.3365524438271
 20
124.8498221872128
 30
0.0
 10
351.3019111313865
 20
124.8883155885444
 30
0.0
  0
SPLINE
  5
106
330
1F
100
AcDbEntity
  8
0
  6
Continuous
 62
     7
370
    25
100
AcDbSpline
210
0.0
220
0.0
230
1.0
 70
     8
 71
     3
 72
    14
 73
    10
 74
     0
 42
0.000000001
 43
0.00000001
 40
0.0
 40
0.0
 40
0.0
 40
0.0
 40
0.0310294147488059
 40
0.0622870907567357
 40
0.1248019217230938
 40
0.2498303511435398
 40
0.4998901825558308
 40
0.7606872171869626
 40
1.0
 40
1.0
 40
1.0
 40
1.0
 10
373.2219413941168
 20
124.8883154802679
 30
0.0
 10
373.2176111978011
 20
124.8835282936978
 30
0.0
 10
373.208918951006
 20
124.8739187046425
 30
0.0
 10
373.1915153226585
 20
124.8546127109366
 30
0.0
 10
373.1610345871235
 20
124.8208274952848
 30
0.0
 10
373.1002039654016
 20
124.7533683643378
 30
0.0
 10
373.0122990622169
 20
124.6558418586058
 30
0.0
 10
372.9094448176016
 20
124.5416278518398
 30
0.0
 10
372.8422273594551
 20
124.4667968917312
 30
0.0
 10
372.8100624300706
 20
124.4309887458409
 30
0.0
  0
LINE
  5
107
330
1F
100
AcDbEntity
  8
0
  6
Continuous
 62
     7
370
    25
100
AcDbLine
 10
372.8103895737
 20
124.4312975437
 30
0.0
 11
372.6658250271
 21
124.4312975437
 31
0.0
  0
LINE
  5
108
330
1F
100
AcDbEntity
  8
0
  6
Continuous
 62
     7
370
    25
100
AcDbLine
 10
350.3912638007
 20
118.2127100297
 30
0.0
 11
350.8313267557
 21
118.2937977251
 31
0.0
  0
SPLINE
  5
109
330
1F
100
AcDbEntity
  8
0
  6
Continuous
 62
     7
370
    25
100
AcDbSpline
210
0.0
220
0.0
230
1.0
 70
     8
 71
     3
 72
    25
 73
    21
 74
     0
 42
0.000000001
 43
0.00000001
 40
0.0
 40
0.0
 40
0.0
 40
0.0
 40
0.0274788704220519
 40
0.0560416006846
 40
0.0856947086346483
 40
0.1164440166532229
 40
0.1482947438675477
 40
0.1812515840465501
 40
0.2153187716746058
 40
0.2505001382254875
 40
0.3330514552513183
 40
0.5015081958163713
 40
0.5771663066143402
 40
0.6488981303024295
 40
0.7167477700061697
 40
0.7807674423486859
 40
0.8410194131339161
 40
0.897578484992366
 40
0.9505352047787778
 40
1.0
 40
1.0
 40
1.0
 40
1.0
 10
350.831326863003
 20
118.2937977560244
 30
0.0
 10
350.8380350303463
 20
118.2646155515072
 30
0.0
 10
350.851715957903
 20
118.205100097359
 30
0.0
 10
350.8744806865568
 20
118.1147096003009
 30
0.0
 10
350.8993583237971
 20
118.0215779911801
 30
0.0
 10
350.9264975618145
 20
117.9259919469053
 30
0.0
 10
350.9558589688459
 20
117.8282384772919
 30
0.0
 10
350.987444139134
 20
117.728657801234
 30
0.0
 10
351.0212910089989
 20
117.6276486616549
 30
0.0
 10
351.0729922389319
 20
117.480881854403
 30
0.0
 10
351.1773512519456
 20
117.2166154414884
 30
0.0
 10
351.2982244796295
 20
116.94664581166
 30
0.0
 10
351.4117175260864
 20
116.7292361369441
 30
0.0
 10
351.4829904937023
 20
116.5995325662136
 30
0.0
 10
351.5450650658282
 20
116.4956574888888
 30
0.0
 10
351.5976490779955
 20
116.4157968550703
 30
0.0
 10
351.6408956239229
 20
116.3577782289196
 30
0.0
 10
351.6745024361431
 20
116.3196746702672
 30
0.0
 10
351.6994494190157
 20
116.2976721392724
 30
0.0
 10
351.7084089558778
 20
116.2950595259211
 30
0.0
 10
351.7127359925958
 20
116.2937977560244
 30
0.0
  0
LINE
  5
10A
330
1F
100
AcDbEntity
  8
0
  6
Continuous
 62
     7
370
    25
100
AcDbLine
 10
374.1326003401
 20
122.5873854824
 30
0.0
 11
373.6925373851
 21
122.5062977869
 31
0.0
  0
SPLINE
  5
10B
330
1F
100
AcDbEntity
  8
0
  6
Continuous
 62
     7
370
    25
100
AcDbSpline
210
0.0
220
0.0
230
1.0
 70
     8
 71
     3
 72
    25
 73
    21
 74
     0
 42
0.000000001
 43
0.00000001
 40
0.0
 40
0.0
 40
0.0
 40
0.0
 40
0.0274788704238406
 40
0.0560416006876649
 40
0.0856947086384779
 40
0.1164440166573039
 40
0.1482947438713698
 40
0.1812515840496028
 40
0.2153187716763797
 40
0.2505001382254737
 40
0.3330514552645295
 40
0.5015081958164058
 40
0.5771663066140428
 40
0.648898130301891
 40
0.716747770005482
 40
0.7807674423479443
 40
0.8410194131332148
 40
0.8975784849918017
 40
0.9505352047784471
 40
0.9999999999999999
 40
0.9999999999999999
 40
0.9999999999999999
 40
0.9999999999999999
 10
373.6925372778254
 20
122.5062977560244
 30
0.0
 10
373.6858291104817
 20
122.5354799605435
 30
0.0
 10
373.6721481829243
 20
122.594995414695
 30
0.0
 10
373.6493834542696
 20
122.6853859117572
 30
0.0
 10
373.6245058170288
 20
122.7785175208804
 30
0.0
 10
373.5973665790111
 20
122.8741035651559
 30
0.0
 10
373.56800517198
 20
122.9718570347684
 30
0.0
 10
373.5364200016924
 20
123.0714377108237
 30
0.0
 10
373.5025731318285
 20
123.1724468503988
 30
0.0
 10
373.4508719018909
 20
123.3192136576602
 30
0.0
 10
373.3465128888787
 20
123.5834800705724
 30
0.0
 10
373.2256396611944
 20
123.8534497003975
 30
0.0
 10
373.112146614742
 20
124.0708593751041
 30
0.0
 10
373.0408736471262
 20
124.2005629458342
 30
0.0
 10
372.9787990750003
 20
124.304438023159
 30
0.0
 10
372.9262150628331
 20
124.3842986569777
 30
0.0
 10
372.8829685169056
 20
124.4423172831286
 30
0.0
 10
372.8493617046854
 20
124.4804208417814
 30
0.0
 10
372.8244147218127
 20
124.5024233727763
 30
0.0
 10
372.8154551849507
 20
124.5050359861277
 30
0.0
 10
372.8111281482326
 20
124.5062977560244
 30
0.0
  0
SPLINE
  5
10C
330
1F
100
AcDbEntity
  8
0
  6
Continuous
 62
     7
370
    25
100
AcDbSpline
210
0.0
220
0.0
230
1.0
 70
     8
 71
     3
 72
    25
 73
    21
 74
     0
 42
0.000000001
 43
0.00000001
 40
0.0
 40
0.0
 40
0.0
 40
0.0
 40
0.0288821753105771
 40
0.058363659400572
 40
0.088464720430548
 40
0.1192044006616737
 40
0.1506005800085666
 40
0.1826700399669859
 40
0.2154285269576224
 40
0.2488908143379852
 40
0.3610594471136693
 40
0.4984670131067402
 40
0.5822693905005265
 40
0.6661127642780991
 40
0.7499972937224167
 40
0.8007709755018199
 40
0.8511237700786715
 40
0.9010896024485537
 40
0.9507031914094952
 40
1.0
 40
1.0
 40
1.0
 40
1.0
 10
351.7127359925958
 20
124.5062977560244
 30
0.0
 10
351.7104457242181
 20
124.5058695140485
 30
0.0
 10
351.7058176641052
 20
124.5050041440218
 30
0.0
 10
351.6955074010178
 20
124.4979292113203
 30
0.0
 10
351.682671331787
 20
124.4863606701601
 30
0.0
 10
351.6670577730444
 20
124.4696550940478
 30
0.0
 10
351.6487363296318
 20
124.4477181830317
 30
0.0
 10
351.6276887438006
 20
124.420320547547
 30
0.0
 10
351.6039171718084
 20
124.3872860668647
 30
0.0
 10
351.5568606423752
 20
124.3182954007406
 30
0.0
 10
351.4691662245165
 20
124.1782694313214
 30
0.0
 10
351.3516145699848
 20
123.9589741301186
 30
0.0
 10
351.2400924056424
 20
123.7220440693388
 30
0.0
 10
351.1486330882943
 20
123.5062021954289
 30
0.0
 10
351.067751437116
 20
123.3046405745503
 30
0.0
 10
351.001606535248
 20
123.1257724941631
 30
0.0
 10
350.9522559744221
 20
122.9743962930242
 30
0.0
 10
350.9072889575572
 20
122.8201521379014
 30
0.0
 10
350.866531243637
 20
122.663996282821
 30
0.0
 10
350.8430365744188
 20
122.558751575868
 30
0.0
 10
350.831326863003
 20
122.5062977560244
 30
0.0
  0
LINE
  5
10D
330
1F
100
AcDbEntity
  8
0
  6
Continuous
 62
     7
370
    25
100
AcDbLine
 10
350.3912638007
 20
122.5873854824
 30
0.0
 11
350.8313267557
 21
122.5062977869
 31
0.0
  0
SPLINE
  5
10E
330
1F
100
AcDbEntity
  8
0
  6
Continuous
 62
     7
370
    25
100
AcDbSpline
210
0.0
220
0.0
230
1.0
 70
     8
 71
     3
 72
    25
 73
    21
 74
     0
 42
0.000000001
 43
0.00000001
 40
0.0
 40
0.0
 40
0.0
 40
0.0
 40
0.0288821753094393
 40
0.0583636593986225
 40
0.0884647204281144
 40
0.1192044006590791
 40
0.1506005800061348
 40
0.1826700399650394
 40
0.2154285269564808
 40
0.2488908143379647
 40
0.361059447113401
 40
0.4984670131067465
 40
0.5822693905006262
 40
0.6661127642782027
 40
0.7499972937224338
 40
0.8007709755032364
 40
0.8511237700807901
 40
0.9010896024506709
 40
0.9507031914109064
 40
1.0
 40
1.0
 40
1.0
 40
1.0
 10
372.8111281482326
 20
116.2937977560244
 30
0.0
 10
372.8134184166102
 20
116.2942259980003
 30
0.0
 10
372.818046476723
 20
116.295091368027
 30
0.0
 10
372.8283567398102
 20
116.302166300728
 30
0.0
 10
372.8411928090409
 20
116.3137348418877
 30
0.0
 10
372.8568063677835
 20
116.3304404179994
 30
0.0
 10
372.8751278111962
 20
116.3523773290152
 30
0.0
 10
372.8961753970275
 20
116.3797749645
 30
0.0
 10
372.9199469690199
 20
116.412809445183
 30
0.0
 10
372.9670034984522
 20
116.4818001113076
 30
0.0
 10
373.0546979163103
 20
116.6218260807276
 30
0.0
 10
373.1722495708433
 20
116.8411213819301
 30
0.0
 10
373.283771735187
 20
117.0780514427099
 30
0.0
 10
373.3752310525351
 20
117.2938933166198
 30
0.0
 10
373.456112703713
 20
117.4954549374999
 30
0.0
 10
373.522257605581
 20
117.6743230178894
 30
0.0
 10
373.5716081664075
 20
117.8256992190306
 30
0.0
 10
373.6165751832724
 20
117.9799433741534
 30
0.0
 10
373.6573328971922
 20
118.1360992292316
 30
0.0
 10
373.68082756641
 20
118.2413439361823
 30
0.0
 10
373.6925372778254
 20
118.2937977560244
 30
0.0
  0
LINE
  5
10F
330
1F
100
AcDbEntity
  8
0
  6
Continuous
 62
     7
370
    25
100
AcDbLine
 10
374.1326003401
 20
118.2127100297
 30
0.0
 11
373.6925373851
 21
118.2937977251
 31
0.0
  0
SPLINE
  5
110
330
1F
100
AcDbEntity
  8
0
  6
Continuous
 62
     7
370
    25
100
AcDbSpline
210
0.0
220
0.0
230
1.0
 70
     8
 71
     3
 72
    12
 73
     8
 74
     0
 42
0.000000001
 43
0.00000001
 40
0.0
 40
0.0
 40
0.0
 40
0.0
 40
0.2971540265968837
 40
0.5953109213084592
 40
0.7630993176302537
 40
0.9170814912125203
 40
1.0
 40
1.0
 40
1.0
 40
1.0
 10
353.3640743298927
 20
122.5062977869443
 30
0.0
 10
353.4464031599046
 20
122.7676337984962
 30
0.0
 10
353.6113386723251
 20
123.2911878071351
 30
0.0
 10
353.8776288262582
 20
123.8475015068377
 30
0.0
 10
354.0704391543903
 20
124.1856933390656
 30
0.0
 10
354.1718979742977
 20
124.3605703732027
 30
0.0
 10
354.2050119940828
 20
124.4129603341935
 30
0.0
 10
354.2166023580829
 20
124.4312975436829
 30
0.0
  0
SPLINE
  5
111
330
1F
100
AcDbEntity
  8
0
  6
Continuous
 62
     7
370
    25
100
AcDbSpline
210
0.0
220
0.0
230
1.0
 70
     8
 71
     3
 72
    12
 73
     8
 74
     0
 42
0.000000001
 43
0.00000001
 40
0.0
 40
0.0
 40
0.0
 40
0.0
 40
0.2971540265968837
 40
0.5953109213084592
 40
0.7630993176302537
 40
0.9170814912125203
 40
1.0
 40
1.0
 40
1.0
 40
1.0
 10
371.1597898109356
 20
118.2937977251045
 30
0.0
 10
371.0774609809238
 20
118.0324617135527
 30
0.0
 10
370.9125254685033
 20
117.5089077049138
 30
0.0
 10
370.6462353145703
 20
116.9525940052112
 30
0.0
 10
370.4534249864381
 20
116.6144021729833
 30
0.0
 10
370.3519661665307
 20
116.4395251388461
 30
0.0
 10
370.3188521467456
 20
116.3871351778553
 30
0.0
 10
370.3072617827455
 20
116.368797968366
 30
0.0
  0
SPLINE
  5
112
330
1F
100
AcDbEntity
  8
0
  6
Continuous
 62
     7
370
    25
100
AcDbSpline
210
0.0
220
0.0
230
1.0
 70
     8
 71
     3
 72
    11
 73
     7
 74
     0
 42
0.000000001
 43
0.00000001
 40
0.0
 40
0.0
 40
0.0
 40
0.0
 40
0.1078686449390932
 40
0.4034673949314601
 40
0.7028907467952099
 40
1.0
 40
1.0
 40
1.0
 40
1.0
 10
354.2155331997672
 20
116.368797968366
 30
0.0
 10
354.1990873155198
 20
116.3947625359692
 30
0.0
 10
354.1375738138119
 20
116.4918793251652
 30
0.0
 10
353.9220652113495
 20
116.8675562328583
 30
0.0
 10
353.6102971519636
 20
117.5068192524787
 30
0.0
 10
353.4459360713837
 20
118.0321508649833
 30
0.0
 10
353.3640743298927
 20
118.2937977251045
 30
0.0
  0
LINE
  5
113
330
1F
100
AcDbEntity
  8
0
  6
Continuous
 62
     7
370
    25
100
AcDbLine
 10
353.6803347124
 20
122.4314343531
 30
0.0
 11
353.3640743299
 21
122.5062977869
 31
0.0
  0
SPLINE
  5
114
330
1F
100
AcDbEntity
  8
0
  6
Continuous
 62
     7
370
    25
100
AcDbSpline
210
0.0
220
0.0
230
1.0
 70
     8
 71
     3
 72
    25
 73
    21
 74
     0
 42
0.000000001
 43
0.00000001
 40
0.0
 40
0.0
 40
0.0
 40
0.0
 40
0.0278144320063459
 40
0.0555680196245752
 40
0.0833316253677715
 40
0.1111760352167582
 40
0.1391714221532259
 40
0.1673868326284758
 40
0.1958897140434715
 40
0.2247454979318968
 40
0.2540172492221455
 40
0.3796724410010767
 40
0.5056484635002251
 40
0.6297527290687337
 40
0.7535891720571736
 40
0.8038564806093723
 40
0.8533396843434523
 40
0.9023264398358549
 40
0.9511131859219458
 40
1.0
 40
1.0
 40
1.0
 40
1.0
 10
354.5479559811257
 20
124.6737960472069
 30
0.0
 10
354.547808229811
 20
124.6735295046534
 30
0.0
 10
354.5475130503892
 20
124.6729970026112
 30
0.0
 10
354.5438883513735
 20
124.6664495539151
 30
0.0
 10
354.5379424557032
 20
124.6556803106288
 30
0.0
 10
354.529467732788
 20
124.6402695747045
 30
0.0
 10
354.5185527459489
 20
124.6203131984508
 30
0.0
 10
354.5052166777105
 20
124.5957631019803
 30
0.0
 10
354.4895089130236
 20
124.5666064782244
 30
0.0
 10
354.4714773248657
 20
124.532810506791
 30
0.0
 10
354.4290597801175
 20
124.4524037487334
 30
0.0
 10
354.3485387403638
 20
124.2954152990623
 30
0.0
 10
354.2151123934897
 20
124.0136295613161
 30
0.0
 10
354.0710354168066
 20
123.6757574516891
 30
0.0
 10
353.955357665355
 20
123.3670765379505
 30
0.0
 10
353.8728461901375
 20
123.1210458181948
 30
0.0
 10
353.8199245656124
 20
122.9522199269216
 30
0.0
 10
353.770067431235
 20
122.7809043559099
 30
0.0
 10
353.7230494380044
 20
122.6072220056891
 30
0.0
 10
353.6945824272759
 20
122.4900703173857
 30
0.0
 10
353.6803343394771
 20
122.4314344614243
 30
0.0
  0
LINE
  5
115
330
1F
100
AcDbEntity
  8
0
  6
Continuous
 62
     7
370
    25
100
AcDbLine
 10
353.6803347124
 20
118.3686611589
 30
0.0
 11
353.3640743299
 21
118.2937977251
 31
0.0
  0
SPLINE
  5
116
330
1F
100
AcDbEntity
  8
0
  6
Continuous
 62
     7
370
    25
100
AcDbSpline
210
0.0
220
0.0
230
1.0
 70
     8
 71
     3
 72
    25
 73
    21
 74
     0
 42
0.000000001
 43
0.00000001
 40
0.0
 40
0.0
 40
0.0
 40
0.0
 40
0.0269872354798654
 40
0.0539362690261339
 40
0.0809037148831245
 40
0.107946071654785
 40
0.1351193706858311
 40
0.1624788388357973
 40
0.1900785854184274
 40
0.2179713214291598
 40
0.2462081170984737
 40
0.3700050494706795
 40
0.4947542611659102
 40
0.6210439034699656
 40
0.7446557472315446
 40
0.7967060293742283
 40
0.8478613449334612
 40
0.8985210411995624
 40
0.9490962115261248
 40
1.0
 40
1.0
 40
1.0
 40
1.0
 10
353.6803343394771
 20
118.3686610506246
 30
0.0
 10
353.6881150842012
 20
118.3362646455967
 30
0.0
 10
353.7036655595723
 20
118.2715176944552
 30
0.0
 10
353.7283509655455
 20
118.1748711580263
 30
0.0
 10
353.7539709225446
 20
118.0787770695348
 30
0.0
 10
353.7806137861721
 20
117.983264798818
 30
0.0
 10
353.8082389714566
 20
117.8883400714253
 30
0.0
 10
353.8368407505159
 20
117.7940139152897
 30
0.0
 10
353.8664028401573
 20
117.7002975708406
 30
0.0
 10
353.8969159872044
 20
117.6071934869506
 30
0.0
 10
353.9636501917936
 20
117.4109282448378
 30
0.0
 10
354.0708333678892
 20
117.1248551292347
 30
0.0
 10
354.2146134581982
 20
116.7875652332408
 30
0.0
 10
354.3478619144103
 20
116.5060560564169
 30
0.0
 10
354.4355330906235
 20
116.3350651262387
 30
0.0
 10
354.4864081264154
 20
116.239152307857
 30
0.0
 10
354.5140772810668
 20
116.1879351044023
 30
0.0
 10
354.5337761991843
 20
116.1519523103172
 30
0.0
 10
354.5460237078879
 20
116.1297824219952
 30
0.0
 10
354.5473105010439
 20
116.1274629542616
 30
0.0
 10
354.5479559811257
 20
116.1262994648419
 30
0.0
  0
LINE
  5
117
330
1F
100
AcDbEntity
  8
0
  6
Continuous
 62
     7
370
    25
100
AcDbLine
 10
370.8435294284
 20
118.3686611589
 30
0.0
 11
371.1597898109
 21
118.2937977251
 31
0.0
  0
SPLINE
  5
118
330
1F
100
AcDbEntity
  8
0
  6
Continuous
 62
     7
370
    25
100
AcDbSpline
210
0.0
220
0.0
230
1.0
 70
     8
 71
     3
 72
    25
 73
    21
 74
     0
 42
0.000000001
 43
0.00000001
 40
0.0
 40
0.0
 40
0.0
 40
0.0
 40
0.0278144320057639
 40
0.0555680196235574
 40
0.0833316253664654
 40
0.1111760352153096
 40
0.1391714221517776
 40
0.1673868326271671
 40
0.1958897140424394
 40
0.2247454979312721
 40
0.2540172492220529
 40
0.3796724409982623
 40
0.5056484635001489
 40
0.62975272906517
 40
0.7535891720570678
 40
0.803856480607963
 40
0.8533396843413759
 40
0.902326439833779
 40
0.9511131859205574
 40
0.9999999999999999
 40
0.9999999999999999
 40
0.9999999999999999
 40
0.9999999999999999
 10
369.9759081597027
 20
116.1262994648419
 30
0.0
 10
369.9760559110174
 20
116.1265660073955
 30
0.0
 10
369.9763510904392
 20
116.1270985094377
 30
0.0
 10
369.979975789455
 20
116.1336459581338
 30
0.0
 10
369.9859216851253
 20
116.1444152014201
 30
0.0
 10
369.9943964080404
 20
116.1598259373444
 30
0.0
 10
370.0053113948795
 20
116.1797823135982
 30
0.0
 10
370.0186474631179
 20
116.2043324100686
 30
0.0
 10
370.0343552278049
 20
116.2334890338246
 30
0.0
 10
370.0523868159627
 20
116.267285005258
 30
0.0
 10
370.0948043607096
 20
116.347691763313
 30
0.0
 10
370.1753254004637
 20
116.5046802129847
 30
0.0
 10
370.3087517473363
 20
116.7864659507275
 30
0.0
 10
370.4528287240206
 20
117.1243380603567
 30
0.0
 10
370.5685064754717
 20
117.4330189740936
 30
0.0
 10
370.6510179506894
 20
117.6790496938497
 30
0.0
 10
370.703939575214
 20
117.8478755851206
 30
0.0
 10
370.7537967095915
 20
118.0191911561323
 30
0.0
 10
370.8008147028229
 20
118.1928735063556
 30
0.0
 10
370.8292817135521
 20
118.3100251946615
 30
0.0
 10
370.8435298013513
 20
118.3686610506246
 30
0.0
  0
SPLINE
  5
119
330
1F
100
AcDbEntity
  8
0
  6
Continuous
 62
     7
370
    25
100
AcDbSpline
210
0.0
220
0.0
230
1.0
 70
     8
 71
     3
 72
    11
 73
     7
 74
     0
 42
0.000000001
 43
0.00000001
 40
0.0
 40
0.0
 40
0.0
 40
0.0
 40
0.1078686449390932
 40
0.4034673949314601
 40
0.7028907467952099
 40
1.0
 40
1.0
 40
1.0
 40
1.0
 10
370.3083309410611
 20
124.4312975436829
 30
0.0
 10
370.3247768253087
 20
124.4053329760796
 30
0.0
 10
370.3862903270165
 20
124.3082161868837
 30
0.0
 10
370.6017989294789
 20
123.9325392791905
 30
0.0
 10
370.9135669888647
 20
123.2932762595702
 30
0.0
 10
371.0779280694447
 20
122.7679446470656
 30
0.0
 10
371.1597898109356
 20
122.5062977869443
 30
0.0
  0
LINE
  5
11A
330
1F
100
AcDbEntity
  8
0
  6
Continuous
 62
     7
370
    25
100
AcDbLine
 10
370.8435294284
 20
122.4314343531
 30
0.0
 11
371.1597898109
 21
122.5062977869
 31
0.0
  0
SPLINE
  5
11B
330
1F
100
AcDbEntity
  8
0
  6
Continuous
 62
     7
370
    25
100
AcDbSpline
210
0.0
220
0.0
230
1.0
 70
     8
 71
     3
 72
    12
 73
     8
 74
     0
 42
0.000000001
 43
0.00000001
 40
0.0
 40
0.0
 40
0.0
 40
0.0
 40
0.1404141540052139
 40
0.2845308631549995
 40
0.5710083094680874
 40
0.8589424285223366
 40
0.9999999999999999
 40
0.9999999999999999
 40
0.9999999999999999
 40
0.9999999999999999
 10
370.8435294284025
 20
122.4314343531064
 30
0.0
 10
370.8067585550717
 20
122.5769804119318
 30
0.0
 10
370.7322472039766
 20
122.8719104069867
 30
0.0
 10
370.5519037200198
 20
123.430160976872
 30
0.0
 10
370.305682339212
 20
124.0380173119033
 30
0.0
 10
370.087507298851
 20
124.4688044514957
 30
0.0
 10
370.0245714547452
 20
124.5846799483877
 30
0.0
 10
370.0038774004677
 20
124.6227811903141
 30
0.0
  0
ARC
  5
11C
330
1F
100
AcDbEntity
  8
0
  6
Continuous
 62
     7
370
    25
100
AcDbCircle
 10
362.2619320704
 20
120.400047756
 30
0.0
 40
11.62303852141066
100
AcDbArc
 50
169.5595567507
 51
190.4404432494
  0
ARC
  5
11D
330
1F
100
AcDbEntity
  8
0
  6
Continuous
 62
     7
370
    25
100
AcDbCircle
 10
362.2619320704
 20
120.400047756
 30
0.0
 40
9.143750000000006
100
AcDbArc
 50
166.6824039243
 51
193.3175960757
  0
ARC
  5
11E
330
1F
100
AcDbEntity
  8
0
  6
Continuous
 62
     7
370
    25
100
AcDbCircle
 10
362.2619320704
 20
120.400047756
 30
0.0
 40
8.81874999999997
100
AcDbArc
 50
166.6824039243
 51
193.3175960757
  0
ARC
  5
11F
330
1F
100
AcDbEntity
  8
0
  6
Continuous
 62
     7
370
    25
100
AcDbCircle
 10
362.2619320704
 20
120.400047756
 30
0.0
 40
9.143750000000061
100
AcDbArc
 50
346.6824039243
 51
13.3175960757
  0
ARC
  5
120
330
1F
100
AcDbEntity
  8
0
  6
Continuous
 62
     7
370
    25
100
AcDbCircle
 10
362.2619320704
 20
120.400047756
 30
0.0
 40
8.818750000000023
100
AcDbArc
 50
346.6824039243
 51
13.3175960757
  0
ARC
  5
121
330
1F
100
AcDbEntity
  8
0
  6
Continuous
 62
     7
370
    25
100
AcDbCircle
 10
362.2619320704
 20
120.400047756
 30
0.0
 40
11.6230385214107
100
AcDbArc
 50
349.5595567507
 51
10.4404432493
  0
CIRCLE
  5
122
330
1F
100
AcDbEntity
  8
0
  6
Continuous
 62
     7
370
    25
100
AcDbCircle
 10
362.2619320704
 20
120.400047756
 30
0.0
 40
7.774999999999977
  0
CIRCLE
  5
123
330
1F
100
AcDbEntity
  8
0
  6
Continuous
 62
     7
370
    25
100
AcDbCircle
 10
362.2619320704
 20
120.400047756
 30
0.0
 40
2.615470053837839
  0
CIRCLE
  5
124
330
1F
100
AcDbEntity
  8
0
  6
Continuous
 62
     7
370
    25
100
AcDbCircle
 10
362.2619320704
 20
120.400047756
 30
0.0
 40
2.5
  0
CIRCLE
  5
125
330
1F
100
AcDbEntity
  8
0
  6
Continuous
 62
     7
370
    25
100
AcDbCircle
 10
362.2619320704
 20
120.400047756
 30
0.0
 40
15.73750000000001
  0
CIRCLE
  5
126
330
1F
100
AcDbEntity
  8
0
  6
Continuous
 62
     7
370
    25
100
AcDbCircle
 10
362.2619320704
 20
120.400047756
 30
0.0
 40
13.42499999999995
  0
CIRCLE
  5
127
330
1F
100
AcDbEntity
  8
0
  6
Continuous
 62
     7
370
    25
100
AcDbCircle
 10
362.2619320704
 20
120.400047756
 30
0.0
 40
2.0
  0
CIRCLE
  5
128
330
1F
100
AcDbEntity
  8
0
  6
Continuous
 62
     7
370
    25
100
AcDbCircle
 10
362.2619320704
 20
120.400047756
 30
0.0
 40
1.249999999999943
  0
LINE
  5
129
330
1F
100
AcDbEntity
  8
0
  6
CENTER
 62
     7
370
    18
100
AcDbLine
 10
362.2619320704
 20
120.400047756
 30
0.0
 11
362.2619320704
 21
139.9029993561
 31
0.0
  0
LINE
  5
12A
330
1F
100
AcDbEntity
  8
0
  6
CENTER
 62
     7
370
    18
100
AcDbLine
 10
362.2619320704
 20
120.400047756
 30
0.0
 11
381.7764320704
 21
120.400047756
 31
0.0
  0
LINE
  5
12B
330
1F
100
AcDbEntity
  8
0
  6
Continuous
 62
     7
370
    18
100
AcDbLine
 10
374.2619320704
 20
137.9029993561
 30
0.0
 11
362.2619320704
 21
137.9029993561
 31
0.0
  0
SOLID
  5
12C
330
1F
100
AcDbEntity
  8
0
  6
Continuous
 62
     7
370
    18
100
AcDbTrace
 10
362.2619320704
 20
137.9029993561
 30
0.0
 11
368.2619320704
 21
136.4029993561
 31
0.0
 12
368.2619320704
 22
139.4029993561
 32
0.0
 13
368.2619320704
 23
139.4029993561
 33
0.0
  0
LINE
  5
12D
330
1F
100
AcDbEntity
  8
0
  6
Continuous
 62
     7
370
    18
100
AcDbLine
 10
391.7764320704
 20
120.400047756
 30
0.0
 11
379.7764320704
 21
120.400047756
 31
0.0
  0
SOLID
  5
12E
330
1F
100
AcDbEntity
  8
0
  6
Continuous
 62
     7
370
    18
100
AcDbTrace
 10
379.7764320704
 20
120.400047756
 30
0.0
 11
385.7764320704
 21
118.900047756
 31
0.0
 12
385.7764320704
 22
121.900047756
 32
0.0
 13
385.7764320704
 23
121.900047756
 33
0.0
  0
MTEXT
  5
12F
330
1F
100
AcDbEntity
  8
0
  6
Continuous
 62
     7
100
AcDbMText
 10
371.1145513264
 20
144.5492925727
 30
0.0
 40
3.5
 41
0.0
 71
     1
 72
     1
  1
A
  7
SLDTEXTSTYLE0
 73
     1
 44
1.0
  0
MTEXT
  5
130
330
1F
100
AcDbEntity
  8
0
  6
Continuous
 62
     7
100
AcDbMText
 10
388.6290513264
 20
118.1868321149
 30
0.0
 40
3.5
 41
0.0
 71
     1
 72
     1
  1
A
  7
SLDTEXTSTYLE0
 73
     1
 44
1.0
  0
LINE
  5
131
330
1F
100
AcDbEntity
  8
0
  6
Continuous
 62
     7
370
    25
100
AcDbLine
 10
123.9354378674
 20
88.925047756
 30
0.0
 11
128.7012400628
 21
88.925047756
 31
0.0
  0
LINE
  5
132
330
1F
100
AcDbEntity
  8
0
  6
Continuous
 62
     7
370
    25
100
AcDbLine
 10
110.9012400628
 20
88.925047756
 30
0.0
 11
117.2670422582
 21
88.925047756
 31
0.0
  0
ARC
  5
133
330
1F
100
AcDbEntity
  8
0
  6
Continuous
 62
     7
370
    25
100
AcDbCircle
 10
110.9012400628
 20
89.125047756
 30
0.0
 40
0.2000000000000028
100
AcDbArc
 50
180.0
 51
270.0
  0
LINE
  5
134
330
1F
100
AcDbEntity
  8
0
  6
Continuous
 62
     7
370
    25
100
AcDbLine
 10
117.2670422582
 20
88.925047756
 30
0.0
 11
118.7262400628
 21
91.4524524918
 31
0.0
  0
LINE
  5
135
330
1F
100
AcDbEntity
  8
0
  6
Continuous
 62
     7
370
    25
100
AcDbLine
 10
122.4762400628
 20
91.4524524918
 30
0.0
 11
123.9354378674
 21
88.925047756
 31
0.0
  0
ARC
  5
136
330
1F
100
AcDbEntity
  8
0
  6
Continuous
 62
     7
370
    25
100
AcDbCircle
 10
119.7262400628
 20
91.550047756
 30
0.0
 40
1.000000000000014
100
AcDbArc
 50
90.0
 51
180.0
  0
ARC
  5
137
330
1F
100
AcDbEntity
  8
0
  6
Continuous
 62
     7
370
    25
100
AcDbCircle
 10
121.4762400628
 20
91.550047756
 30
0.0
 40
1.0
100
AcDbArc
 50
0.0
 51
90.0
  0
LINE
  5
138
330
1F
100
AcDbEntity
  8
0
  6
Continuous
 62
     7
370
    25
100
AcDbLine
 10
119.7262400628
 20
92.550047756
 30
0.0
 11
121.4762400628
 21
92.550047756
 31
0.0
  0
ARC
  5
139
330
1F
100
AcDbEntity
  8
0
  6
Continuous
 62
     7
370
    25
100
AcDbCircle
 10
110.2723051882
 20
94.850047756
 30
0.0
 40
0.8000000000000047
100
AcDbArc
 50
57.576802718
 51
107.5
  0
LINE
  5
13A
330
1F
100
AcDbEntity
  8
0
  6
Continuous
 62
     7
370
    25
100
AcDbLine
 10
109.5410580228
 20
95.4583097105
 30
0.0
 11
110.0317405486
 21
95.6130213166
 31
0.0
  0
LINE
  5
13B
330
1F
100
AcDbEntity
  8
0
  6
Continuous
 62
     7
370
    25
100
AcDbLine
 10
96.2147945948
 20
96.1275272353
 30
0.0
 11
109.5410580228
 21
95.4583097105
 31
0.0
  0
LINE
  5
13C
330
1F
100
AcDbEntity
  8
0
  6
Continuous
 62
     7
370
    25
100
AcDbLine
 10
72.2512400628
 20
97.3309276284
 30
0.0
 11
80.3060769263
 21
96.9264302975
 31
0.0
  0
LINE
  5
13D
330
1F
100
AcDbEntity
  8
0
  6
Continuous
 62
     7
370
    25
100
AcDbLine
 10
70.7512400628
 20
98.1969530322
 30
0.0
 11
72.2512400628
 21
97.3309276284
 31
0.0
  0
ARC
  5
13E
330
1F
100
AcDbEntity
  8
0
  6
Continuous
 62
     7
370
    25
100
AcDbCircle
 10
131.7012400628
 20
103.900047756
 30
0.0
 40
3.0
100
AcDbArc
 50
90.0
 51
180.0
  0
LINE
  5
13F
330
1F
100
AcDbEntity
  8
0
  6
Continuous
 62
     7
370
    25
100
AcDbLine
 10
131.7012400628
 20
106.900047756
 30
0.0
 11
192.5826258543
 21
106.900047756
 31
0.0
  0
LINE
  5
140
330
1F
100
AcDbEntity
  8
0
  6
Continuous
 62
     7
370
    25
100
AcDbLine
 10
192.5826258543
 20
106.900047756
 30
0.0
 11
228.8581582543
 21
109.7549940719
 31
0.0
  0
ARC
  5
141
330
1F
100
AcDbEntity
  8
0
  6
Continuous
 62
     7
370
    25
100
AcDbCircle
 10
228.7012400628
 20
111.7488287393
 30
0.0
 40
2.0
100
AcDbArc
 50
274.5
 51
0.0
  0
LINE
  5
142
330
1F
100
AcDbEntity
  8
0
  6
Continuous
 62
     7
370
    25
100
AcDbLine
 10
194.7012400628
 20
122.900047756
 30
0.0
 11
194.2012400628
 21
123.400047756
 31
0.0
  0
LINE
  5
143
330
1F
100
AcDbEntity
  8
0
  6
Continuous
 62
     7
370
    25
100
AcDbLine
 10
194.2012400628
 20
123.400047756
 30
0.0
 11
181.7012400628
 21
123.400047756
 31
0.0
  0
LINE
  5
144
330
1F
100
AcDbEntity
  8
0
  6
Continuous
 62
     7
370
    25
100
AcDbLine
 10
181.7012400628
 20
123.400047756
 30
0.0
 11
181.2012400628
 21
122.900047756
 31
0.0
  0
LINE
  5
145
330
1F
100
AcDbEntity
  8
0
  6
Continuous
 62
     7
370
    25
100
AcDbLine
 10
195.2012400628
 20
122.5023648279
 30
0.0
 11
197.2012400628
 21
122.5023648279
 31
0.0
  0
LINE
  5
146
330
1F
100
AcDbEntity
  8
0
  6
Continuous
 62
     7
370
    25
100
AcDbLine
 10
195.2012400628
 20
122.900047756
 30
0.0
 11
194.7012400628
 21
122.900047756
 31
0.0
  0
LINE
  5
147
330
1F
100
AcDbEntity
  8
0
  6
Continuous
 62
     7
370
    25
100
AcDbLine
 10
181.4691892552
 20
122.109896627
 30
0.0
 11
181.5964893547
 21
122.0047984641
 31
0.0
  0
SPLINE
  5
148
330
1F
100
AcDbEntity
  8
0
  6
Continuous
 62
     7
370
    25
100
AcDbSpline
210
0.0
220
0.0
230
1.0
 70
     8
 71
     3
 72
    10
 73
     6
 74
     0
 42
0.000000001
 43
0.00000001
 40
0.0
 40
0.0
 40
0.0
 40
0.0
 40
0.4391165375904115
 40
0.7513669429073443
 40
1.0
 40
1.0
 40
1.0
 40
1.0
 10
181.4691892552376
 20
121.0155716302285
 30
0.0
 10
181.5719237948989
 20
121.1722326899082
 30
0.0
 10
181.7477116106341
 20
121.4402935152419
 30
0.0
 10
181.6695751818824
 20
121.8299672698112
 30
0.0
 10
181.5307353316174
 20
122.0239197628397
 30
0.0
 10
181.4691892552376
 20
122.1098966270269
 30
0.0
  0
SPLINE
  5
149
330
1F
100
AcDbEntity
  8
0
  6
Continuous
 62
     7
370
    25
100
AcDbSpline
210
0.0
220
0.0
230
1.0
 70
     8
 71
     3
 72
     9
 73
     5
 74
     0
 42
0.000000001
 43
0.00000001
 40
0.0
 40
0.0
 40
0.0
 40
0.0
 40
0.7018501086795654
 40
1.0
 40
1.0
 40
1.0
 40
1.0
 10
181.6555551624194
 20
120.4000477560248
 30
0.0
 10
181.630688624757
 20
120.5504030205913
 30
0.0
 10
181.5952586414103
 20
120.7646300509887
 30
0.0
 10
181.498143980757
 20
120.9579371420401
 30
0.0
 10
181.4691892552376
 20
121.0155716302285
 30
0.0
  0
LINE
  5
14A
330
1F
100
AcDbEntity
  8
0
  6
Continuous
 62
     7
370
    25
100
AcDbLine
 10
181.2012400628
 20
122.400047756
 30
0.0
 11
181.5964893547
 21
122.0047984641
 31
0.0
  0
LINE
  5
14B
330
1F
100
AcDbEntity
  8
0
  6
Continuous
 62
     7
370
    25
100
AcDbLine
 10
181.2012400628
 20
122.400047756
 30
0.0
 11
181.2012400628
 21
120.400047756
 31
0.0
  0
LINE
  5
14C
330
1F
100
AcDbEntity
  8
0
  6
Continuous
 62
     7
370
    25
100
AcDbLine
 10
192.7012400628
 20
121.5627341286
 30
0.0
 11
192.7012400628
 21
121.900047756
 31
0.0
  0
LINE
  5
14D
330
1F
100
AcDbEntity
  8
0
  6
Continuous
 62
     7
370
    25
100
AcDbLine
 10
192.7012400628
 20
120.400047756
 30
0.0
 11
192.7012400628
 21
121.5627341286
 31
0.0
  0
LINE
  5
14E
330
1F
100
AcDbEntity
  8
0
  6
Continuous
 62
     7
370
    25
100
AcDbLine
 10
185.7012400627
 20
121.5627341286
 30
0.0
 11
185.7012400627
 21
120.400047756
 31
0.0
  0
LINE
  5
14F
330
1F
100
AcDbEntity
  8
0
  6
Continuous
 62
     7
370
    25
100
AcDbLine
 10
185.7012400627
 20
121.900047756
 30
0.0
 11
185.7012400627
 21
121.5627341286
 31
0.0
  0
LINE
  5
150
330
1F
100
AcDbEntity
  8
0
  6
Continuous
 62
     7
370
    25
100
AcDbLine
 10
185.7012400627
 20
121.900047756
 30
0.0
 11
192.7012400628
 21
121.900047756
 31
0.0
  0
LINE
  5
151
330
1F
100
AcDbEntity
  8
0
  6
Continuous
 62
     7
370
    25
100
AcDbLine
 10
195.2012400628
 20
122.0047984641
 30
0.0
 11
195.2012400628
 21
122.900047756
 31
0.0
  0
LINE
  5
152
330
1F
100
AcDbEntity
  8
0
  6
Continuous
 62
     7
370
    25
100
AcDbLine
 10
192.7012400628
 20
122.0047984641
 30
0.0
 11
195.2012400628
 21
122.0047984641
 31
0.0
  0
LINE
  5
153
330
1F
100
AcDbEntity
  8
0
  6
Continuous
 62
     7
370
    25
100
AcDbLine
 10
192.7012400628
 20
121.900047756
 30
0.0
 11
192.7012400628
 21
122.0047984641
 31
0.0
  0
LINE
  5
154
330
1F
100
AcDbEntity
  8
0
  6
Continuous
 62
     7
370
    25
100
AcDbLine
 10
185.7012400627
 20
122.0047984641
 30
0.0
 11
185.7012400627
 21
121.900047756
 31
0.0
  0
LINE
  5
155
330
1F
100
AcDbEntity
  8
0
  6
Continuous
 62
     7
370
    25
100
AcDbLine
 10
181.5964893547
 20
122.0047984641
 30
0.0
 11
185.7012400627
 21
122.0047984641
 31
0.0
  0
LINE
  5
156
330
1F
100
AcDbEntity
  8
0
  6
Continuous
 62
     7
370
    25
100
AcDbLine
 10
181.2012400628
 20
122.900047756
 30
0.0
 11
181.2012400628
 21
122.400047756
 31
0.0
  0
LINE
  5
157
330
1F
100
AcDbEntity
  8
0
  6
Continuous
 62
     7
370
    25
100
AcDbLine
 10
185.7012400627
 20
121.0155716302
 30
0.0
 11
181.4691892552
 21
121.0155716302
 31
0.0
  0
SPLINE
  5
158
330
1F
100
AcDbEntity
  8
0
  6
Continuous
 62
     7
370
    25
100
AcDbSpline
210
0.0
220
0.0
230
1.0
 70
     8
 71
     3
 72
     9
 73
     5
 74
     0
 42
0.000000001
 43
0.00000001
 40
0.0
 40
0.0
 40
0.0
 40
0.0
 40
0.2704459247651158
 40
1.0
 40
1.0
 40
1.0
 40
1.0
 10
196.7287652944584
 20
121.3803466291613
 30
0.0
 10
196.7405828158626
 20
121.3461363696486
 30
0.0
 10
196.7842792458032
 20
121.2196406217741
 30
0.0
 10
196.8704353404323
 20
121.1016512541865
 30
0.0
 10
196.9332908703753
 20
121.0155716302285
 30
0.0
  0
LINE
  5
159
330
1F
100
AcDbEntity
  8
0
  6
Continuous
 62
     7
370
    25
100
AcDbLine
 10
192.7012400628
 20
121.0155716302
 30
0.0
 11
196.9332908704
 21
121.0155716302
 31
0.0
  0
LINE
  5
15A
330
1F
100
AcDbEntity
  8
0
  6
Continuous
 62
     7
370
    25
100
AcDbLine
 10
196.7287652945
 20
121.3803466292
 30
0.0
 11
195.2012400628
 21
121.3803466292
 31
0.0
  0
LINE
  5
15B
330
1F
100
AcDbEntity
  8
0
  6
Continuous
 62
     7
370
    25
100
AcDbLine
 10
195.2012400628
 20
121.3803466292
 30
0.0
 11
195.2012400628
 21
122.0047984641
 31
0.0
  0
SPLINE
  5
15C
330
1F
100
AcDbEntity
  8
0
  6
Continuous
 62
     7
370
    25
100
AcDbSpline
210
0.0
220
0.0
230
1.0
 70
     8
 71
     3
 72
     9
 73
     5
 74
     0
 42
0.000000001
 43
0.00000001
 40
0.0
 40
0.0
 40
0.0
 40
0.0
 40
0.2981498913204364
 40
1.0
 40
1.0
 40
1.0
 40
1.0
 10
196.9332908703753
 20
121.0155716302285
 30
0.0
 10
196.9043361448559
 20
120.9579371420401
 30
0.0
 10
196.8072214842026
 20
120.7646300509887
 30
0.0
 10
196.7717915008559
 20
120.5504030205913
 30
0.0
 10
196.7469249631936
 20
120.4000477560248
 30
0.0
  0
SPLINE
  5
15D
330
1F
100
AcDbEntity
  8
0
  6
Continuous
 62
     7
370
    25
100
AcDbSpline
210
0.0
220
0.0
230
1.0
 70
     8
 71
     3
 72
     9
 73
     5
 74
     0
 42
0.000000001
 43
0.00000001
 40
0.0
 40
0.0
 40
0.0
 40
0.0
 40
0.5115035343405893
 40
1.0
 40
1.0
 40
1.0
 40
1.0
 10
197.2012400628064
 20
121.9502962528287
 30
0.0
 10
197.1183003365642
 20
121.8550422053032
 30
0.0
 10
196.9561514545448
 20
121.6688185702147
 30
0.0
 10
196.8033891434931
 20
121.4750176793771
 30
0.0
 10
196.7287652944584
 20
121.3803466291613
 30
0.0
  0
LINE
  5
15E
330
1F
100
AcDbEntity
  8
0
  6
Continuous
 62
     7
370
    25
100
AcDbLine
 10
197.2012400628
 20
121.9502962528
 30
0.0
 11
197.2012400628
 21
120.400047756
 31
0.0
  0
LINE
  5
15F
330
1F
100
AcDbEntity
  8
0
  6
Continuous
 62
     7
370
    25
100
AcDbLine
 10
197.2012400628
 20
122.5023648279
 30
0.0
 11
197.2012400628
 21
121.9502962528
 31
0.0
  0
LINE
  5
160
330
1F
100
AcDbEntity
  8
0
  6
Continuous
 62
     7
370
    25
100
AcDbLine
 10
123.9354378674
 20
88.925047756
 30
0.0
 11
123.9354378674
 21
115.5103404763
 31
0.0
  0
SPLINE
  5
161
330
1F
100
AcDbEntity
  8
0
  6
Continuous
 62
     7
370
    25
100
AcDbSpline
210
0.0
220
0.0
230
1.0
 70
     8
 71
     3
 72
    20
 73
    16
 74
     0
 42
0.000000001
 43
0.00000001
 40
0.0
 40
0.0
 40
0.0
 40
0.0
 40
0.1249999999999999
 40
0.1249999999999999
 40
0.2499999999999997
 40
0.2499999999999997
 40
0.3749999999999996
 40
0.3749999999999996
 40
0.4999999999999994
 40
0.4999999999999994
 40
0.7499999999999998
 40
0.7499999999999998
 40
0.8749999999999999
 40
0.8749999999999999
 40
1.0
 40
1.0
 40
1.0
 40
1.0
 10
127.4887400628064
 20
120.4000477560249
 30
0.0
 10
127.4887400628065
 20
120.1333796685436
 30
0.0
 10
127.4666930337628
 20
119.8650674932696
 30
0.0
 10
127.3776869960579
 20
119.3322244580362
 30
0.0
 10
127.3118080278585
 20
119.0729342480503
 30
0.0
 10
127.1396331201513
 20
118.5678072820288
 30
0.0
 10
127.0329265492443
 20
118.3212270661076
 30
0.0
 10
126.7802496463681
 20
117.8448104153678
 30
0.0
 10
126.6367923821734
 20
117.619390353603
 30
0.0
 10
126.1584701898929
 20
116.9787826719893
 30
0.0
 10
125.7704432069273
 20
116.5960169568862
 30
0.0
 10
125.128638558482
 20
116.1201147087145
 30
0.0
 10
124.9038339308348
 20
115.9765190725628
 30
0.0
 10
124.4325248732126
 20
115.7191876871723
 30
0.0
 10
124.1868282733236
 20
115.6061353086504
 30
0.0
 10
123.9354378673765
 20
115.5103404763397
 30
0.0
  0
LINE
  5
162
330
1F
100
AcDbEntity
  8
0
  6
Continuous
 62
     7
370
    25
100
AcDbLine
 10
128.7012400628
 20
88.925047756
 30
0.0
 11
128.7012400628
 21
120.400047756
 31
0.0
  0
LINE
  5
163
330
1F
100
AcDbEntity
  8
0
  6
Continuous
 62
     7
370
    25
100
AcDbLine
 10
128.7012400628
 20
151.875047756
 30
0.0
 11
123.9354378674
 21
151.875047756
 31
0.0
  0
SPLINE
  5
164
330
1F
100
AcDbEntity
  8
0
  6
Continuous
 62
     7
370
    25
100
AcDbSpline
210
0.0
220
0.0
230
1.0
 70
     8
 71
     3
 72
    14
 73
    10
 74
     0
 42
0.000000001
 43
0.00000001
 40
0.0
 40
0.0
 40
0.0
 40
0.0
 40
0.25
 40
0.25
 40
0.5
 40
0.5
 40
0.75
 40
0.75
 40
1.0
 40
1.0
 40
1.0
 40
1.0
 10
117.2670422582364
 20
117.105149670508
 30
0.0
 10
117.0701663727114
 20
117.3326462384371
 30
0.0
 10
116.8940580513219
 20
117.5742330135083
 30
0.0
 10
116.5843216575487
 20
118.0863902478824
 30
0.0
 10
116.4497636560551
 20
118.3599230509905
 30
0.0
 10
116.234521503346
 20
118.920028185528
 30
0.0
 10
116.152878265827
 20
119.207000680938
 30
0.0
 10
116.042355243557
 20
119.7950396659823
 30
0.0
 10
116.0137400628065
 20
120.099483121753
 30
0.0
 10
116.0137400628065
 20
120.4000477560247
 30
0.0
  0
LINE
  5
165
330
1F
100
AcDbEntity
  8
0
  6
Continuous
 62
     7
370
    25
100
AcDbLine
 10
117.2670422582
 20
88.925047756
 30
0.0
 11
117.2670422582
 21
117.1051496705
 31
0.0
  0
LINE
  5
166
330
1F
100
AcDbEntity
  8
0
  6
Continuous
 62
     7
370
    25
100
AcDbLine
 10
117.2670422582
 20
151.875047756
 30
0.0
 11
110.9012400628
 21
151.875047756
 31
0.0
  0
LINE
  5
167
330
1F
100
AcDbEntity
  8
0
  6
Continuous
 62
     7
370
    25
100
AcDbLine
 10
110.7012400628
 20
89.125047756
 30
0.0
 11
110.7012400628
 21
120.400047756
 31
0.0
  0
LINE
  5
168
330
1F
100
AcDbEntity
  8
0
  6
Continuous
 62
     7
370
    25
100
AcDbLine
 10
110.7012400628
 20
120.400047756
 30
0.0
 11
110.9012400628
 21
120.400047756
 31
0.0
  0
ARC
  5
169
330
1F
100
AcDbEntity
  8
0
  6
Continuous
 62
     7
370
    25
100
AcDbCircle
 10
110.9012400628
 20
151.675047756
 30
0.0
 40
0.2000000000000028
100
AcDbArc
 50
90.0
 51
180.0
  0
ARC
  5
16A
330
1F
100
AcDbEntity
  8
0
  6
Continuous
 62
     7
370
    25
100
AcDbCircle
 10
121.7512400628
 20
120.400047756
 30
0.0
 40
3.737500000000008
100
AcDbArc
 50
180.0
 51
206.113804444
  0
SPLINE
  5
16B
330
1F
100
AcDbEntity
  8
0
  6
Continuous
 62
     7
370
    25
100
AcDbSpline
210
0.0
220
0.0
230
1.0
 70
     8
 71
     3
 72
    10
 73
     6
 74
     0
 42
0.000000001
 43
0.00000001
 40
0.0
 40
0.0
 40
0.0
 40
0.0
 40
0.5
 40
0.5
 40
1.0
 40
1.0
 40
1.0
 40
1.0
 10
118.3952582553532
 20
118.7549664941891
 30
0.0
 10
118.2183731089298
 20
118.4565161788326
 30
0.0
 10
118.0328237340524
 20
118.1775234747051
 30
0.0
 10
117.6548747940048
 20
117.6322041805794
 30
0.0
 10
117.4620882518256
 20
117.366868794758
 30
0.0
 10
117.2670422582363
 20
117.105149670508
 30
0.0
  0
SPLINE
  5
16C
330
1F
100
AcDbEntity
  8
0
  6
Continuous
 62
     7
370
    25
100
AcDbSpline
210
0.0
220
0.0
230
1.0
 70
     8
 71
     3
 72
     8
 73
     4
 74
     0
 42
0.000000001
 43
0.00000001
 40
0.0
 40
0.0
 40
0.0
 40
0.0
 40
1.0
 40
1.0
 40
1.0
 40
1.0
 10
123.9354378673761
 20
115.5103404763385
 30
0.0
 10
123.5870364626958
 20
115.9483158027525
 30
0.0
 10
123.242468077463
 20
116.3913989413373
 30
0.0
 10
122.9040837781421
 20
116.8447900131858
 30
0.0
  0
ARC
  5
16D
330
1F
100
AcDbEntity
  8
0
  6
Continuous
 62
     7
370
    25
100
AcDbCircle
 10
121.7512400628
 20
120.400047756
 30
0.0
 40
3.737500000000011
100
AcDbArc
 50
287.9660359156
 51
0.0
  0
SPLINE
  5
16E
330
1F
100
AcDbEntity
  8
0
  6
Continuous
 62
     7
370
    25
100
AcDbSpline
210
0.0
220
0.0
230
1.0
 70
     8
 71
     3
 72
     8
 73
     4
 74
     0
 42
0.000000001
 43
0.00000001
 40
0.0
 40
0.0
 40
0.0
 40
0.0
 40
1.0
 40
1.0
 40
1.0
 40
1.0
 10
118.7262400628065
 20
118.2049893855024
 30
0.0
 10
118.6079433033765
 20
118.3680136139609
 30
0.0
 10
118.4965148212052
 20
118.5484021129833
 30
0.0
 10
118.3952582553532
 20
118.7549664941891
 30
0.0
  0
LINE
  5
16F
330
1F
100
AcDbEntity
  8
0
  6
Continuous
 62
     7
370
    25
100
AcDbLine
 10
118.7262400628
 20
91.4524524918
 30
0.0
 11
118.7262400628
 21
118.2049893855
 31
0.0
  0
SPLINE
  5
170
330
1F
100
AcDbEntity
  8
0
  6
Continuous
 62
     7
370
    25
100
AcDbSpline
210
0.0
220
0.0
230
1.0
 70
     8
 71
     3
 72
     8
 73
     4
 74
     0
 42
0.000000001
 43
0.00000001
 40
0.0
 40
0.0
 40
0.0
 40
0.0
 40
1.0
 40
1.0
 40
1.0
 40
1.0
 10
122.9040837781424
 20
116.8447900131867
 30
0.0
 10
122.7625456898606
 20
116.7988942420896
 30
0.0
 10
122.6199352211237
 20
116.7619533911523
 30
0.0
 10
122.4762400628067
 20
116.7335397102117
 30
0.0
  0
LINE
  5
171
330
1F
100
AcDbEntity
  8
0
  6
Continuous
 62
     7
370
    25
100
AcDbLine
 10
122.4762400628
 20
91.4524524918
 30
0.0
 11
122.4762400628
 21
116.7335397102
 31
0.0
  0
SPLINE
  5
172
330
1F
100
AcDbEntity
  8
0
  6
Continuous
 62
     7
370
    25
100
AcDbSpline
210
0.0
220
0.0
230
1.0
 70
     8
 71
     3
 72
    14
 73
    10
 74
     0
 42
0.000000001
 43
0.00000001
 40
0.0
 40
0.0
 40
0.0
 40
0.0
 40
0.25
 40
0.25
 40
0.5
 40
0.5
 40
0.75
 40
0.75
 40
1.0
 40
1.0
 40
1.0
 40
1.0
 10
119.7262400628065
 20
117.2586656955297
 30
0.0
 10
119.59189197645
 20
117.3452692571573
 30
0.0
 10
119.468715302594
 20
117.4367376544807
 30
0.0
 10
119.239968697676
 20
117.6279290411116
 30
0.0
 10
119.1380467337088
 20
117.7247908932525
 30
0.0
 10
118.9586233312801
 20
117.9126655079878
 30
0.0
 10
118.8821820430973
 20
118.0029008593391
 30
0.0
 10
118.7648920702472
 20
118.1507072233165
 30
0.0
 10
118.7262400628065
 20
118.2049893855025
 30
0.0
 10
118.7262400628065
 20
118.2049893855025
 30
0.0
  0
SPLINE
  5
173
330
1F
100
AcDbEntity
  8
0
  6
Continuous
 62
     7
370
    25
100
AcDbSpline
210
0.0
220
0.0
230
1.0
 70
     8
 71
     3
 72
    14
 73
    10
 74
     0
 42
0.000000001
 43
0.00000001
 40
0.0
 40
0.0
 40
0.0
 40
0.0
 40
0.25
 40
0.25
 40
0.5
 40
0.5
 40
0.75
 40
0.75
 40
1.0
 40
1.0
 40
1.0
 40
1.0
 10
122.4762400628066
 20
116.7335397102122
 30
0.0
 10
122.4762400628068
 20
116.7335397102123
 30
0.0
 10
122.4503235402356
 20
116.7281629792239
 30
0.0
 10
122.3508786936581
 20
116.7106183916234
 30
0.0
 10
122.2785803012458
 20
116.6987689879771
 30
0.0
 10
122.0938764067219
 20
116.6771251699768
 30
0.0
 10
121.984299144846
 20
116.6678359092925
 30
0.0
 10
121.7409689666279
 20
116.6605803729348
 30
0.0
 10
121.6094327077077
 20
116.6628517790942
 30
0.0
 10
121.4762400628065
 20
116.6726785430274
 30
0.0
  0
SPLINE
  5
174
330
1F
100
AcDbEntity
  8
0
  6
Continuous
 62
     7
370
    25
100
AcDbSpline
210
0.0
220
0.0
230
1.0
 70
     8
 71
     3
 72
    10
 73
     6
 74
     0
 42
0.000000001
 43
0.00000001
 40
0.0
 40
0.0
 40
0.0
 40
0.0
 40
0.5
 40
0.5
 40
1.0
 40
1.0
 40
1.0
 40
1.0
 10
121.4762400628065
 20
116.6726785430275
 30
0.0
 10
121.1637761605184
 20
116.6957316853965
 30
0.0
 10
120.8608871785206
 20
116.7569663878029
 30
0.0
 10
120.2735439937165
 20
116.9531383517268
 30
0.0
 10
119.9890763331446
 20
117.0892359868267
 30
0.0
 10
119.7262400628065
 20
117.2586656955297
 30
0.0
  0
LINE
  5
175
330
1F
100
AcDbEntity
  8
0
  6
Continuous
 62
     7
370
    25
100
AcDbLine
 10
110.7012400628
 20
147.250047756
 30
0.0
 11
111.0352787488
 21
146.1906123956
 31
0.0
  0
LINE
  5
176
330
1F
100
AcDbEntity
  8
0
  6
Continuous
 62
     7
370
    25
100
AcDbLine
 10
110.7012400628
 20
147.250047756
 30
0.0
 11
110.7012400628
 21
145.2747590227
 31
0.0
  0
ARC
  5
177
330
1F
100
AcDbEntity
  8
0
  6
Continuous
 62
     7
370
    25
100
AcDbCircle
 10
110.2723051882
 20
145.950047756
 30
0.0
 40
0.8000000000000181
100
AcDbArc
 50
252.5
 51
17.5
  0
LINE
  5
178
330
1F
100
AcDbEntity
  8
0
  6
Continuous
 62
     7
370
    25
100
AcDbLine
 10
109.5410580228
 20
95.4583097105
 30
0.0
 11
109.5410580228
 21
120.400047756
 31
0.0
  0
LINE
  5
179
330
1F
100
AcDbEntity
  8
0
  6
Continuous
 62
     7
370
    25
100
AcDbLine
 10
110.0317405486
 20
145.1870741954
 30
0.0
 11
109.5410580228
 21
145.3417858016
 31
0.0
  0
SPLINE
  5
17A
330
1F
100
AcDbEntity
  8
0
  6
Continuous
 62
     7
370
    25
100
AcDbSpline
210
0.0
220
0.0
230
1.0
 70
     8
 71
     3
 72
    22
 73
    18
 74
     0
 42
0.000000001
 43
0.00000001
 40
0.0
 40
0.0
 40
0.0
 40
0.0
 40
0.0016445471980141
 40
0.0768294870796084
 40
0.151459310002751
 40
0.2250437077752762
 40
0.2982167779917107
 40
0.3713078397240478
 40
0.444458991118127
 40
0.5161649089030528
 40
0.5876183127499087
 40
0.6612190000115881
 40
0.734207423984957
 40
0.8076706235403435
 40
0.8813280608509942
 40
0.9557355653715675
 40
1.0
 40
1.0
 40
1.0
 40
1.0
 10
80.46095718151574
 20
143.8243389040555
 30
0.0
 10
80.46213582371306
 20
143.8239752703374
 30
0.0
 10
80.51719929381602
 20
143.8069871339792
 30
0.0
 10
80.91364448125067
 20
143.6897132833496
 30
0.0
 10
81.62971786077664
 20
143.4890987354686
 30
0.0
 10
82.63939352131696
 20
143.2484849207884
 30
0.0
 10
83.85537247926051
 20
143.0212122316711
 30
0.0
 10
85.25957326059589
 20
142.8488232234378
 30
0.0
 10
86.77663330312221
 20
142.7607533513546
 30
0.0
 10
88.35094631116716
 20
142.7918066561829
 30
0.0
 10
89.91670972713526
 20
142.9428088071197
 30
0.0
 10
91.40678429520781
 20
143.197226325126
 30
0.0
 10
92.77765255830636
 20
143.5146617806913
 30
0.0
 10
93.96662146273309
 20
143.8597085603421
 30
0.0
 10
94.93276981317617
 20
144.1833014748954
 30
0.0
 10
95.5898587567689
 20
144.4287964188931
 30
0.0
 10
95.8056883936473
 20
144.51215216596
 30
0.0
 10
95.88619248687262
 20
144.5432437200662
 30
0.0
  0
SPLINE
  5
17B
330
1F
100
AcDbEntity
  8
0
  6
Continuous
 62
     7
370
    25
100
AcDbSpline
210
0.0
220
0.0
230
1.0
 70
     8
 71
     3
 72
     9
 73
     5
 74
     0
 42
0.000000001
 43
0.00000001
 40
0.0
 40
0.0
 40
0.0
 40
0.0
 40
0.0362226197622006
 40
1.0
 40
1.0
 40
1.0
 40
1.0
 10
96.05710729039062
 20
144.6087993867619
 30
0.0
 10
96.06264996450398
 20
144.610924937921
 30
0.0
 10
96.21566689563014
 20
144.6696051541248
 30
0.0
 10
96.21766195610127
 20
144.6712365378215
 30
0.0
 10
96.21958475025554
 20
144.6728088285269
 30
0.0
  0
LINE
  5
17C
330
1F
100
AcDbEntity
  8
0
  6
Continuous
 62
     7
370
    25
100
AcDbLine
 10
80.3016741776
 20
143.8734441176
 30
0.0
 11
72.2512400628
 21
143.4691678836
 31
0.0
  0
LINE
  5
17D
330
1F
100
AcDbEntity
  8
0
  6
Continuous
 62
     7
370
    25
100
AcDbLine
 10
72.2512400628
 20
97.3309276284
 30
0.0
 11
72.2512400628
 21
111.2779247215
 31
0.0
  0
SPLINE
  5
17E
330
1F
100
AcDbEntity
  8
0
  6
Continuous
 62
     7
370
    25
100
AcDbSpline
210
0.0
220
0.0
230
1.0
 70
     8
 71
     3
 72
     8
 73
     4
 74
     0
 42
0.000000001
 43
0.00000001
 40
0.0
 40
0.0
 40
0.0
 40
0.0
 40
1.0
 40
1.0
 40
1.0
 40
1.0
 10
78.06941451575344
 20
111.2825107797214
 30
0.0
 10
76.13002303144204
 20
111.2803646838718
 30
0.0
 10
74.19063154713062
 20
111.2787684973471
 30
0.0
 10
72.25124006281922
 20
111.2777210448714
 30
0.0
  0
SPLINE
  5
17F
330
1F
100
AcDbEntity
  8
0
  6
Continuous
 62
     7
370
    25
100
AcDbSpline
210
0.0
220
0.0
230
1.0
 70
     8
 71
     3
 72
    13
 73
     9
 74
     0
 42
0.000000001
 43
0.00000001
 40
0.0
 40
0.0
 40
0.0
 40
0.0
 40
0.1686319999748108
 40
0.3360343310905541
 40
0.5025367825908723
 40
0.6684737453788424
 40
0.8341822636915195
 40
1.0
 40
1.0
 40
1.0
 40
1.0
 10
79.15290956522043
 20
111.4199672255391
 30
0.0
 10
79.09341966916068
 20
111.4054529055002
 30
0.0
 10
78.97487367888561
 20
111.3765301042157
 30
0.0
 10
78.79499698329973
 20
111.3425687108074
 30
0.0
 10
78.61460669567171
 20
111.3157031484484
 30
0.0
 10
78.43349452363789
 20
111.2967442113405
 30
0.0
 10
78.25173368647046
 20
111.2848137599448
 30
0.0
 10
78.13020091857581
 20
111.283278608376
 30
0.0
 10
78.06941451575344
 20
111.2825107797214
 30
0.0
  0
SPLINE
  5
180
330
1F
100
AcDbEntity
  8
0
  6
Continuous
 62
     7
370
    25
100
AcDbSpline
210
0.0
220
0.0
230
1.0
 70
     8
 71
     3
 72
     8
 73
     4
 74
     0
 42
0.000000001
 43
0.00000001
 40
0.0
 40
0.0
 40
0.0
 40
0.0
 40
1.0
 40
1.0
 40
1.0
 40
1.0
 10
84.54510298172066
 20
111.4242052674245
 30
0.0
 10
82.74770831028037
 20
111.4223342069005
 30
0.0
 10
80.95031363884009
 20
111.4209120258764
 30
0.0
 10
79.15291896739978
 20
111.4199379028804
 30
0.0
  0
SPLINE
  5
181
330
1F
100
AcDbEntity
  8
0
  6
Continuous
 62
     7
370
    25
100
AcDbSpline
210
0.0
220
0.0
230
1.0
 70
     8
 71
     3
 72
    18
 73
    14
 74
     0
 42
0.000000001
 43
0.00000001
 40
0.0
 40
0.0
 40
0.0
 40
0.0
 40
0.0923325137151694
 40
0.1843692047134009
 40
0.2763458873902312
 40
0.368498217575762
 40
0.4610598988406411
 40
0.5542609546627003
 40
0.6483261285518087
 40
0.743473463655427
 40
0.8399130993133287
 40
0.9201660718313618
 40
1.0
 40
1.0
 40
1.0
 40
1.0
 10
86.74142463031558
 20
110.8900130315809
 30
0.0
 10
86.67109432679949
 20
110.8904296560125
 30
0.0
 10
86.53065904994229
 20
110.891261570059
 30
0.0
 10
86.32029652343284
 20
110.9048704169735
 30
0.0
 10
86.11085286051193
 20
110.9275371743451
 30
0.0
 10
85.90230319013713
 20
110.9601379641457
 30
0.0
 10
85.69465957286182
 20
111.0024404427659
 30
0.0
 10
85.48792138532444
 20
111.0545118414211
 30
0.0
 10
85.28209929336411
 20
111.1163606142665
 30
0.0
 10
85.07716761457868
 20
111.1879586257226
 30
0.0
 10
84.88568686918896
 20
111.2645371159515
 30
0.0
 10
84.70796371713926
 20
111.3431483647856
 30
0.0
 10
84.5996297225764
 20
111.3970625205728
 30
0.0
 10
84.54560451312416
 20
111.4239490354714
 30
0.0
  0
LINE
  5
182
330
1F
100
AcDbEntity
  8
0
  6
Continuous
 62
     7
370
    25
100
AcDbLine
 10
88.6562979096
 20
110.8915084664
 30
0.0
 11
86.7414246303
 21
110.8900130316
 31
0.0
  0
SPLINE
  5
183
330
1F
100
AcDbEntity
  8
0
  6
Continuous
 62
     7
370
    25
100
AcDbSpline
210
0.0
220
0.0
230
1.0
 70
     8
 71
     3
 72
    25
 73
    21
 74
     0
 42
0.000000001
 43
0.00000001
 40
0.0
 40
0.0
 40
0.0
 40
0.0
 40
0.0280105225425618
 40
0.0559601148859273
 40
0.0839014045041196
 40
0.1118870776784247
 40
0.1399695827586811
 40
0.1682008401737953
 40
0.1966319670422708
 40
0.2253130233140565
 40
0.2542927850735732
 40
0.3799486436574536
 40
0.5057850221666685
 40
0.6313085886327393
 40
0.7532068238012419
 40
0.803947326795536
 40
0.8535894438553622
 40
0.9025339722393254
 40
0.951197035379054
 40
1.0
 40
1.0
 40
1.0
 40
1.0
 10
93.5961822160079
 20
116.0253722709562
 30
0.0
 10
93.59621943774172
 20
115.9507522439429
 30
0.0
 10
93.59629380024238
 20
115.8016745079561
 30
0.0
 10
93.58387774959587
 20
115.5790564169902
 30
0.0
 10
93.5622731892421
 20
115.3577319989617
 30
0.0
 10
93.53058771958209
 20
115.1377637330732
 30
0.0
 10
93.4890615812622
 20
114.9191734458442
 30
0.0
 10
93.43763082553228
 20
114.7019915074397
 30
0.0
 10
93.37631695082105
 20
114.4862500875546
 30
0.0
 10
93.30510661532158
 20
114.2719601961041
 30
0.0
 10
93.13427000811808
 20
113.8236104230827
 30
0.0
 10
92.79653777468224
 20
113.1702795950114
 30
0.0
 10
92.18498311048472
 20
112.3983863843723
 30
0.0
 10
91.4487482753351
 20
111.7542267589874
 30
0.0
 10
90.76226220368778
 20
111.3625855909256
 30
0.0
 10
90.21355805753798
 20
111.1438906899573
 30
0.0
 10
89.83152187903326
 20
111.0280346411267
 30
0.0
 10
89.44435578032879
 20
110.9471267355967
 30
0.0
 10
89.05212911154209
 20
110.8978983047988
 30
0.0
 10
88.7883678434267
 20
110.8936404497834
 30
0.0
 10
88.65629790960504
 20
110.8915084664406
 30
0.0
  0
LINE
  5
184
330
1F
100
AcDbEntity
  8
0
  6
Continuous
 62
     7
370
    25
100
AcDbLine
 10
93.596182216
 20
120.400047756
 30
0.0
 11
93.596182216
 21
116.025372271
 31
0.0
  0
LINE
  5
185
330
1F
100
AcDbEntity
  8
0
  6
Continuous
 62
     7
370
    25
100
AcDbLine
 10
109.5410580228
 20
145.3417858016
 30
0.0
 11
96.2195847503
 21
144.6728088285
 31
0.0
  0
SPLINE
  5
186
330
1F
100
AcDbEntity
  8
0
  6
Continuous
 62
     7
370
    25
100
AcDbSpline
210
0.0
220
0.0
230
1.0
 70
     8
 71
     3
 72
    20
 73
    16
 74
     0
 42
0.000000001
 43
0.00000001
 40
0.0
 40
0.0
 40
0.0
 40
0.0
 40
0.0829621378691685
 40
0.1658495135105456
 40
0.2487180070845901
 40
0.3299477216397851
 40
0.4108693994437826
 40
0.4941953814850109
 40
0.5768901676624029
 40
0.6601065810557436
 40
0.7435845489352617
 40
0.8279858465401662
 40
0.9132590745401026
 40
0.9972257035811778
 40
1.0
 40
1.0
 40
1.0
 40
1.0
 10
82.61365615753344
 20
97.53678738851792
 30
0.0
 10
82.99940199361048
 20
97.61370581512172
 30
0.0
 10
83.77054604673248
 20
97.76747335245724
 30
0.0
 10
85.17829419788872
 20
97.94338857384555
 30
0.0
 10
86.68614556575974
 20
98.03738486117388
 30
0.0
 10
88.25863454077249
 20
98.01354047930818
 30
0.0
 10
89.82593157199221
 20
97.86963543440854
 30
0.0
 10
91.32170759877222
 20
97.62057783160886
 30
0.0
 10
92.70196147445031
 20
97.30589713906993
 30
0.0
 10
93.89955565750587
 20
96.9616357870887
 30
0.0
 10
94.88641768733031
 20
96.63258856126893
 30
0.0
 10
95.63365593352832
 20
96.35412765306026
 30
0.0
 10
96.08085736289485
 20
96.18227185802928
 30
0.0
 10
96.26761197504305
 20
96.10842118643146
 30
0.0
 10
96.21651376114357
 20
96.12857247750439
 30
0.0
 10
96.2148794507984
 20
96.12921699051094
 30
0.0
  0
SPLINE
  5
187
330
1F
100
AcDbEntity
  8
0
  6
Continuous
 62
     7
370
    25
100
AcDbSpline
210
0.0
220
0.0
230
1.0
 70
     8
 71
     3
 72
    11
 73
     7
 74
     0
 42
0.000000001
 43
0.00000001
 40
0.0
 40
0.0
 40
0.0
 40
0.0
 40
0.2435512231736163
 40
0.4981153923402337
 40
0.7509097881751986
 40
1.0
 40
1.0
 40
1.0
 40
1.0
 10
80.30616203978994
 20
96.92812517913481
 30
0.0
 10
80.33211296131637
 20
96.93636071567293
 30
0.0
 10
80.38518825812373
 20
96.95320418482235
 30
0.0
 10
80.86288324178656
 20
97.09410562696047
 30
0.0
 10
81.5742226900457
 20
97.29939617741059
 30
0.0
 10
82.26888733722596
 20
97.45804729560687
 30
0.0
 10
82.61365615753344
 20
97.53678738851792
 30
0.0
  0
LINE
  5
188
330
1F
100
AcDbEntity
  8
0
  6
Continuous
 62
     7
370
    25
100
AcDbLine
 10
93.596182216
 20
116.025372271
 30
0.0
 11
92.7012400628
 21
116.187547756
 31
0.0
  0
LINE
  5
189
330
1F
100
AcDbEntity
  8
0
  6
Continuous
 62
     7
370
    25
100
AcDbLine
 10
92.7012400628
 20
116.187547756
 30
0.0
 11
92.7012400628
 21
120.400047756
 31
0.0
  0
SPLINE
  5
18A
330
1F
100
AcDbEntity
  8
0
  6
Continuous
 62
     7
370
    25
100
AcDbSpline
210
0.0
220
0.0
230
1.0
 70
     8
 71
     3
 72
    25
 73
    21
 74
     0
 42
0.000000001
 43
0.00000001
 40
0.0
 40
0.0
 40
0.0
 40
0.0
 40
0.0288821753094393
 40
0.0583636593986225
 40
0.0884647204281144
 40
0.1192044006590791
 40
0.1506005800061348
 40
0.1826700399650394
 40
0.2154285269564808
 40
0.2488908143379647
 40
0.361059447113401
 40
0.4984670131067465
 40
0.5822693905006262
 40
0.6661127642782027
 40
0.7499972937224338
 40
0.8007709755032364
 40
0.8511237700807901
 40
0.9010896024506709
 40
0.9507031914109064
 40
1.0
 40
1.0
 40
1.0
 40
1.0
 10
88.70124006280646
 20
112.1875477560248
 30
0.0
 10
88.76404051604037
 20
112.1884042399765
 30
0.0
 10
88.89094453983198
 20
112.1901349800299
 30
0.0
 10
89.08229894753617
 20
112.2042848454319
 30
0.0
 10
89.27620376020877
 20
112.2274219277513
 30
0.0
 10
89.47210448093539
 20
112.2608330799748
 30
0.0
 10
89.66944214894187
 20
112.3047069020064
 30
0.0
 10
89.86759549073342
 20
112.359502172976
 30
0.0
 10
90.0659112347517
 20
112.4255711343418
 30
0.0
 10
90.4172322222469
 20
112.5635524665912
 30
0.0
 10
90.94234399257498
 20
112.8436044054311
 30
0.0
 10
91.47933582106339
 20
113.2821950078362
 30
0.0
 10
91.89139555111309
 20
113.7560551293958
 30
0.0
 10
92.17831413916555
 20
114.1877388772156
 30
0.0
 10
92.37674082637277
 20
114.5908621189757
 30
0.0
 10
92.50882670042107
 20
114.9485982797547
 30
0.0
 10
92.59446058021886
 20
115.2513506820371
 30
0.0
 10
92.6555427915719
 20
115.5598389922827
 30
0.0
 10
92.69404373493741
 20
115.8721507024391
 30
0.0
 10
92.69884641403088
 20
116.0826401163405
 30
0.0
 10
92.70124006280646
 20
116.1875477560248
 30
0.0
  0
SPLINE
  5
18B
330
1F
100
AcDbEntity
  8
0
  6
Continuous
 62
     7
370
    25
100
AcDbSpline
210
0.0
220
0.0
230
1.0
 70
     8
 71
     3
 72
    13
 73
     9
 74
     0
 42
0.000000001
 43
0.00000001
 40
0.0
 40
0.0
 40
0.0
 40
0.0
 40
0.1722587823387897
 40
0.3421398270959865
 40
0.5097456257587107
 40
0.6751828992986529
 40
0.838562618995617
 40
1.0
 40
1.0
 40
1.0
 40
1.0
 10
85.7012584317167
 20
112.3375425787746
 30
0.0
 10
85.76212182137886
 20
112.3212788510777
 30
0.0
 10
85.88300848580755
 20
112.2889758886011
 30
0.0
 10
86.06606964376073
 20
112.2515882339094
 30
0.0
 10
86.24817232669469
 20
112.2224552989978
 30
0.0
 10
86.42911377501747
 20
112.2022685833892
 30
0.0
 10
86.60845277873287
 20
112.1898217790853
 30
0.0
 10
86.72729900716337
 20
112.1883027358574
 30
0.0
 10
86.78636678351701
 20
112.1875477560248
 30
0.0
  0
LINE
  5
18C
330
1F
100
AcDbEntity
  8
0
  6
Continuous
 62
     7
370
    25
100
AcDbLine
 10
86.7414246303
 20
110.8900130316
 30
0.0
 11
86.7863667835
 21
112.187547756
 31
0.0
  0
SPLINE
  5
18D
330
1F
100
AcDbEntity
  8
0
  6
Continuous
 62
     7
370
    25
100
AcDbSpline
210
0.0
220
0.0
230
1.0
 70
     8
 71
     3
 72
    11
 73
     7
 74
     0
 42
0.000000001
 43
0.00000001
 40
0.0
 40
0.0
 40
0.0
 40
0.0
 40
0.2392913840897591
 40
0.5001130134987114
 40
0.7515028526612877
 40
1.0
 40
1.0
 40
1.0
 40
1.0
 10
85.3737675706605
 20
112.3381213610479
 30
0.0
 10
85.30494263482193
 20
112.2665679239872
 30
0.0
 10
85.16110023866953
 20
112.1170230284586
 30
0.0
 10
84.95335144027442
 20
111.8881056018293
 30
0.0
 10
84.74536523548053
 20
111.6557872295519
 30
0.0
 10
84.61236431175692
 20
111.5010113469209
 30
0.0
 10
84.5462486675589
 20
111.424071225755
 30
0.0
  0
SPLINE
  5
18E
330
1F
100
AcDbEntity
  8
0
  6
Continuous
 62
     7
370
    25
100
AcDbSpline
210
0.0
220
0.0
230
1.0
 70
    24
 71
     3
 72
     9
 73
     5
 74
     0
 42
0.000000001
 43
0.00000001
 40
0.0
 40
0.0
 40
0.0
 40
0.0
 40
0.5090839669866044
 40
1.0
 40
1.0
 40
1.0
 40
1.0
 10
85.37599783897994
 20
112.3375477560247
 30
0.0
 10
85.43073123909231
 20
112.3375477560247
 30
0.0
 10
85.53824474111113
 20
112.3375477560247
 30
0.0
 10
85.64763730148209
 20
112.3375477560247
 30
0.0
 10
85.70133986326057
 20
112.3375477560247
 30
0.0
  0
LINE
  5
18F
330
1F
100
AcDbEntity
  8
0
  6
Continuous
 62
     7
370
    25
100
AcDbLine
 10
79.1273899744
 20
112.3174959823
 30
0.0
 11
79.152804466
 21
111.4199378116
 31
0.0
  0
SPLINE
  5
190
330
1F
100
AcDbEntity
  8
0
  6
Continuous
 62
     7
370
    25
100
AcDbSpline
210
0.0
220
0.0
230
1.0
 70
     8
 71
     3
 72
     8
 73
     4
 74
     0
 42
0.000000001
 43
0.00000001
 40
0.0
 40
0.0
 40
0.0
 40
0.0
 40
1.0
 40
1.0
 40
1.0
 40
1.0
 10
79.12740116553468
 20
112.317496472364
 30
0.0
 10
79.14920402201672
 20
112.3231938033967
 30
0.0
 10
79.17095873141422
 20
112.3290753861916
 30
0.0
 10
79.19266218673229
 20
112.3351403807447
 30
0.0
  0
LINE
  5
191
330
1F
100
AcDbEntity
  8
0
  6
Continuous
 62
     7
370
    25
100
AcDbLine
 10
79.2012400629
 20
112.337547756
 30
0.0
 11
85.3749130352
 21
112.337547756
 31
0.0
  0
LINE
  5
192
330
1F
100
AcDbEntity
  8
0
  6
Continuous
 62
     7
370
    25
100
AcDbLine
 10
86.7863667835
 20
112.187547756
 30
0.0
 11
88.7012400628
 21
112.187547756
 31
0.0
  0
SPLINE
  5
193
330
1F
100
AcDbEntity
  8
0
  6
Continuous
 62
     7
370
    25
100
AcDbSpline
210
0.0
220
0.0
230
1.0
 70
     8
 71
     3
 72
    13
 73
     9
 74
     0
 42
0.000000001
 43
0.00000001
 40
0.0
 40
0.0
 40
0.0
 40
0.0
 40
0.1621004456877203
 40
0.32594345520649
 40
0.4915935308810087
 40
0.6591130874452793
 40
0.8285624736348074
 40
1.0
 40
1.0
 40
1.0
 40
1.0
 10
78.11611334209593
 20
112.1875477560248
 30
0.0
 10
78.17166830017197
 20
112.1882167222263
 30
0.0
 10
78.2833754266535
 20
112.18956184595
 30
0.0
 10
78.45122311606606
 20
112.2005084147444
 30
0.0
 10
78.6200095349405
 20
112.218147344068
 30
0.0
 10
78.78933389146577
 20
112.2434528580572
 30
0.0
 10
78.9590805396243
 20
112.2757568608485
 30
0.0
 10
79.07107343826546
 20
112.3035284607307
 30
0.0
 10
79.12739647328496
 20
112.3174952462295
 30
0.0
  0
LINE
  5
194
330
1F
100
AcDbEntity
  8
0
  6
Continuous
 62
     7
370
    25
100
AcDbLine
 10
71.3375802412
 20
111.6600460121
 30
0.0
 11
72.2512400628
 21
112.187547756
 31
0.0
  0
LINE
  5
195
330
1F
100
AcDbEntity
  8
0
  6
Continuous
 62
     7
370
    25
100
AcDbLine
 10
72.2512400629
 20
112.187547756
 30
0.0
 11
78.1161133421
 21
112.187547756
 31
0.0
  0
SPLINE
  5
196
330
1F
100
AcDbEntity
  8
0
  6
Continuous
 62
     7
370
    25
100
AcDbSpline
210
0.0
220
0.0
230
1.0
 70
     8
 71
     3
 72
     8
 73
     4
 74
     0
 42
0.000000001
 43
0.00000001
 40
0.0
 40
0.0
 40
0.0
 40
0.0
 40
1.0
 40
1.0
 40
1.0
 40
1.0
 10
72.2512400623555
 20
111.2777210446488
 30
0.0
 10
71.94668678864997
 20
111.4064119091956
 30
0.0
 10
71.64213351494445
 20
111.5338566654573
 30
0.0
 10
71.33758024123891
 20
111.660046012095
 30
0.0
  0
LINE
  5
197
330
1F
100
AcDbEntity
  8
0
  6
Continuous
 62
     7
370
    25
100
AcDbLine
 10
70.7512400628
 20
98.1969530322
 30
0.0
 11
70.7512400628
 21
111.3215223522
 31
0.0
  0
SPLINE
  5
198
330
1F
100
AcDbEntity
  8
0
  6
Continuous
 62
     7
370
    25
100
AcDbSpline
210
0.0
220
0.0
230
1.0
 70
    24
 71
     3
 72
     8
 73
     4
 74
     0
 42
0.000000001
 43
0.00000001
 40
0.0
 40
0.0
 40
0.0
 40
0.0
 40
1.0
 40
1.0
 40
1.0
 40
1.0
 10
71.33758024123891
 20
111.660046012095
 30
0.0
 10
71.14124821558057
 20
111.5466936642306
 30
0.0
 10
70.94578719534036
 20
111.4338441915788
 30
0.0
 10
70.75124006280646
 20
111.3215223522403
 30
0.0
  0
LINE
  5
199
330
1F
100
AcDbEntity
  8
0
  6
Continuous
 62
     7
370
    25
100
AcDbLine
 10
102.4764805364
 20
138.650047756
 30
0.0
 11
103.9012400628
 21
138.650047756
 31
0.0
  0
ARC
  5
19A
330
1F
100
AcDbEntity
  8
0
  6
Continuous
 62
     7
370
    25
100
AcDbCircle
 10
103.9012400628
 20
137.850047756
 30
0.0
 40
0.799999999999983
100
AcDbArc
 50
0.0
 51
90.0
  0
ARC
  5
19B
330
1F
100
AcDbEntity
  8
0
  6
Continuous
 62
     7
370
    25
100
AcDbCircle
 10
102.4764805364
 20
137.850047756
 30
0.0
 40
0.7999999999999925
100
AcDbArc
 50
90.0
 51
120.0
  0
LINE
  5
19C
330
1F
100
AcDbEntity
  8
0
  6
Continuous
 62
     7
370
    25
100
AcDbLine
 10
101.2012400628
 20
138.037547756
 30
0.0
 11
101.2012400628
 21
120.400047756
 31
0.0
  0
LINE
  5
19D
330
1F
100
AcDbEntity
  8
0
  6
Continuous
 62
     7
370
    25
100
AcDbLine
 10
101.2012400628
 20
138.037547756
 30
0.0
 11
102.0764805364
 21
138.5428680791
 31
0.0
  0
LINE
  5
19E
330
1F
100
AcDbEntity
  8
0
  6
Continuous
 62
     7
370
    25
100
AcDbLine
 10
71.5029061126
 20
111.7554969485
 30
0.0
 11
71.3664373403
 21
111.676706666
 31
0.0
  0
SPLINE
  5
19F
330
1F
100
AcDbEntity
  8
0
  6
Continuous
 62
     7
370
    25
100
AcDbSpline
210
0.0
220
0.0
230
1.0
 70
     8
 71
     3
 72
    32
 73
    28
 74
     0
 42
0.000000001
 43
0.00000001
 40
0.0
 40
0.0
 40
0.0
 40
0.0
 40
0.1249999999999996
 40
0.1249999999999996
 40
0.1874999999999998
 40
0.1874999999999998
 40
0.25
 40
0.25
 40
0.3125000000000002
 40
0.3125000000000002
 40
0.3750000000000004
 40
0.3750000000000004
 40
0.5000000000000009
 40
0.5000000000000009
 40
0.5625000000000007
 40
0.5625000000000007
 40
0.6250000000000004
 40
0.6250000000000004
 40
0.7500000000000003
 40
0.7500000000000003
 40
0.8125000000000002
 40
0.8125000000000002
 40
0.8750000000000001
 40
0.8750000000000001
 40
0.9375000000000001
 40
0.9375000000000001
 40
1.0
 40
1.0
 40
1.0
 40
1.0
 10
85.1688703941471
 20
136.5727165102343
 30
0.0
 10
84.68479615019308
 20
136.573075902854
 30
0.0
 10
84.2013985796262
 20
136.5880351090352
 30
0.0
 10
83.47749322989017
 20
136.6350191555439
 30
0.0
 10
83.23683079635335
 20
136.6547957106685
 30
0.0
 10
82.7654846872777
 20
136.7017597941676
 30
0.0
 10
82.53364887098745
 20
136.7290136433521
 30
0.0
 10
82.07794578443115
 20
136.7906415719646
 30
0.0
 10
81.85407746148981
 20
136.8250166727601
 30
0.0
 10
81.41474986948201
 20
136.9003361164131
 30
0.0
 10
81.1980324768156
 20
136.9415540671614
 30
0.0
 10
80.57169049814276
 20
137.0717908863422
 30
0.0
 10
80.18729786378937
 20
137.1668307982414
 30
0.0
 10
79.65975611816954
 20
137.3130977601938
 30
0.0
 10
79.49212196663844
 20
137.3624663953845
 30
0.0
 10
79.17371721939787
 20
137.4608701028847
 30
0.0
 10
79.02413634485875
 20
137.5095533675172
 30
0.0
 10
78.61111627531031
 20
137.6491761706856
 30
0.0
 10
78.37956450415115
 20
137.7347628492662
 30
0.0
 10
78.09625498906149
 20
137.8437258971822
 30
0.0
 10
78.0126873072897
 20
137.8767745497567
 30
0.0
 10
77.87076247496549
 20
137.933777945997
 30
0.0
 10
77.81177436352294
 20
137.9579746516074
 30
0.0
 10
77.71705845981313
 20
137.9971769319865
 30
0.0
 10
77.68133049266638
 20
138.0121840984835
 30
0.0
 10
77.63336621494894
 20
138.0323930962104
 30
0.0
 10
77.62123990751546
 20
138.0375477560248
 30
0.0
 10
77.62123990751546
 20
138.0375477560248
 30
0.0
  0
SPLINE
  5
1A0
330
1F
100
AcDbEntity
  8
0
  6
Continuous
 62
     7
370
    25
100
AcDbSpline
210
0.0
220
0.0
230
1.0
 70
     8
 71
     3
 72
    31
 73
    27
 74
     0
 42
0.000000001
 43
0.00000001
 40
0.0
 40
0.0
 40
0.0
 40
0.0
 40
0.0161756722759874
 40
0.0323169137827063
 40
0.0484425619880538
 40
0.0645715089957363
 40
0.0807226353336759
 40
0.0969147439446195
 40
0.1131664955251004
 40
0.1294963463046696
 40
0.1459224892609496
 40
0.1624627996343586
 40
0.1791347854480564
 40
0.1959555435639738
 40
0.294575514626473
 40
0.3932797312250161
 40
0.4928176221931075
 40
0.5924285912822761
 40
0.6939020917449321
 40
0.7927115381486451
 40
0.8267756331445579
 40
0.8608043324981154
 40
0.8949846314027674
 40
0.9295010594372525
 40
0.9645328322475428
 40
1.0
 40
1.0
 40
1.0
 40
1.0
 10
96.17718945289054
 20
138.0375477560248
 30
0.0
 10
96.17645635243935
 20
138.0372013645969
 30
0.0
 10
96.17499171197986
 20
138.0365093190534
 30
0.0
 10
96.16193533231474
 20
138.0309269570072
 30
0.0
 10
96.14092077179194
 20
138.0220601940132
 30
0.0
 10
96.11117356645124
 20
138.0096190932985
 30
0.0
 10
96.07290125379559
 20
137.9937284347436
 30
0.0
 10
96.02604857287446
 20
137.9744026909165
 30
0.0
 10
95.97063084283745
 20
137.9516866013972
 30
0.0
 10
95.90664487900699
 20
137.9256175970226
 30
0.0
 10
95.8340913948564
 20
137.8962351496544
 30
0.0
 10
95.75297469737677
 20
137.8635809023193
 30
0.0
 10
95.66328104262672
 20
137.8276884552845
 30
0.0
 10
95.40623519597612
 20
137.7254505476181
 30
0.0
 10
94.87819921038263
 20
137.5189263341515
 30
0.0
 10
93.89956456313605
 20
137.1818410208024
 30
0.0
 10
92.713688260215
 20
136.838696161472
 30
0.0
 10
91.34322199513893
 20
136.5415842608121
 30
0.0
 10
89.85736472317359
 20
136.3315408330793
 30
0.0
 10
88.63721208940296
 20
136.2733154302106
 30
0.0
 10
87.7707880564502
 20
136.2870077714705
 30
0.0
 10
87.24254312796351
 20
136.3123758570813
 30
0.0
 10
86.71776989675473
 20
136.3543984727987
 30
0.0
 10
86.19678065716695
 20
136.4126824360266
 30
0.0
 10
85.67953971211811
 20
136.4853059812721
 30
0.0
 10
85.34390259979328
 20
136.5441862989626
 30
0.0
 10
85.17504761173599
 20
136.5738082775084
 30
0.0
  0
LINE
  5
1A1
330
1F
100
AcDbEntity
  8
0
  6
Continuous
 62
     7
370
    25
100
AcDbLine
 10
96.1771894529
 20
138.037547756
 30
0.0
 11
101.2012400628
 21
138.037547756
 31
0.0
  0
LINE
  5
1A2
330
1F
100
AcDbEntity
  8
0
  6
Continuous
 62
     7
370
    25
100
AcDbLine
 10
93.3512400628
 20
124.4628211668
 30
0.0
 11
93.3512400628
 21
120.400047756
 31
0.0
  0
SPLINE
  5
1A3
330
1F
100
AcDbEntity
  8
0
  6
Continuous
 62
     7
370
    25
100
AcDbSpline
210
0.0
220
0.0
230
1.0
 70
     8
 71
     3
 72
    25
 73
    21
 74
     0
 42
0.000000001
 43
0.00000001
 40
0.0
 40
0.0
 40
0.0
 40
0.0
 40
0.0278144320063459
 40
0.0555680196245752
 40
0.0833316253677715
 40
0.1111760352167582
 40
0.1391714221532259
 40
0.1673868326284758
 40
0.1958897140434715
 40
0.2247454979318968
 40
0.2540172492221455
 40
0.3796724410010767
 40
0.5056484635002251
 40
0.6297527290687337
 40
0.7535891720571736
 40
0.8038564806093723
 40
0.8533396843434523
 40
0.9023264398358549
 40
0.9511131859219458
 40
1.0
 40
1.0
 40
1.0
 40
1.0
 10
88.70124006280645
 20
128.9475443383897
 30
0.0
 10
88.76989541676878
 20
128.9470112532827
 30
0.0
 10
88.90705594032144
 20
128.9459462491982
 30
0.0
 10
89.11229852290721
 20
128.9328513518061
 30
0.0
 10
89.31661953940431
 20
128.9113128652335
 30
0.0
 10
89.5200205914933
 20
128.8804913933849
 30
0.0
 10
89.72249622233917
 20
128.8405786408774
 30
0.0
 10
89.92404508658683
 20
128.7914784479365
 30
0.0
 10
90.12465910738949
 20
128.7331652004247
 30
0.0
 10
90.3243568717218
 20
128.6655732575578
 30
0.0
 10
90.73992169239983
 20
128.5047597414428
 30
0.0
 10
91.34269810894165
 20
128.1907828421006
 30
0.0
 10
92.03675466444655
 20
127.6272113666081
 30
0.0
 10
92.603528293846
 20
126.951467147354
 30
0.0
 10
92.94110609951629
 20
126.3341053198769
 30
0.0
 10
93.1295685088058
 20
125.8420438803656
 30
0.0
 10
93.22882972633026
 20
125.5043920978192
 30
0.0
 10
93.29917431503715
 20
125.1617609557957
 30
0.0
 10
93.34317291355573
 20
124.8143962553541
 30
0.0
 10
93.34854917703602
 20
124.5800928787473
 30
0.0
 10
93.35124006280645
 20
124.4628211668245
 30
0.0
  0
LINE
  5
1A4
330
1F
100
AcDbEntity
  8
0
  6
Continuous
 62
     7
370
    25
100
AcDbLine
 10
86.7863667835
 20
128.9475443384
 30
0.0
 11
88.7012400628
 21
128.9475443384
 31
0.0
  0
SPLINE
  5
1A5
330
1F
100
AcDbEntity
  8
0
  6
Continuous
 62
     7
370
    25
100
AcDbSpline
210
0.0
220
0.0
230
1.0
 70
     8
 71
     3
 72
    12
 73
     8
 74
     0
 42
0.000000001
 43
0.00000001
 40
0.0
 40
0.0
 40
0.0
 40
0.0
 40
0.1992838849048542
 40
0.3984605265906603
 40
0.5979968005081432
 40
0.79835706849064
 40
1.0
 40
1.0
 40
1.0
 40
1.0
 10
85.78533294122927
 20
128.8453500256657
 30
0.0
 10
85.8507862185288
 20
128.8583723784304
 30
0.0
 10
85.98165754990765
 20
128.8844100760724
 30
0.0
 10
86.1805070015248
 20
128.9128406350467
 30
0.0
 10
86.3809135173856
 20
128.9332717960284
 30
0.0
 10
86.5830844347889
 20
128.9457108730991
 30
0.0
 10
86.71846201842945
 20
128.9469318846739
 30
0.0
 10
86.78636678351701
 20
128.9475443383897
 30
0.0
  0
LINE
  5
1A6
330
1F
100
AcDbEntity
  8
0
  6
Continuous
 62
     7
370
    25
100
AcDbLine
 10
80.3605699336
 20
128.8451861016
 30
0.0
 11
85.7845599522
 21
128.8451861016
 31
0.0
  0
SPLINE
  5
1A7
330
1F
100
AcDbEntity
  8
0
  6
Continuous
 62
     7
370
    25
100
AcDbSpline
210
0.0
220
0.0
230
1.0
 70
     8
 71
     3
 72
    24
 73
    20
 74
     0
 42
0.000000001
 43
0.00000001
 40
0.0
 40
0.0
 40
0.0
 40
0.0
 40
0.0410257106277056
 40
0.0818520099058079
 40
0.1225800578328279
 40
0.1633117464027038
 40
0.2041489402772657
 40
0.2451927184714171
 40
0.2865426449201731
 40
0.3282960933615133
 40
0.3705476475467034
 40
0.4133885920081624
 40
0.4569065022338602
 40
0.5011849368583825
 40
0.6001856774930499
 40
0.6987388860423923
 40
0.7976800645430001
 40
0.8978349910013272
 40
1.0
 40
1.0
 40
1.0
 40
1.0
 10
76.58858302665634
 20
130.7828279186877
 30
0.0
 10
76.65162211460918
 20
130.7822932183726
 30
0.0
 10
76.7773938799881
 20
130.78122641673
 30
0.0
 10
76.96533204149483
 20
130.7700829247317
 30
0.0
 10
77.15192213431624
 20
130.751921426424
 30
0.0
 10
77.33716391684911
 20
130.7260465057026
 30
0.0
 10
77.52105310007568
 20
130.6926096198909
 30
0.0
 10
77.70358676604798
 20
130.6515255983473
 30
0.0
 10
77.8847621729877
 20
130.6027628502537
 30
0.0
 10
78.06457695696523
 20
130.5462653621101
 30
0.0
 10
78.24303015604701
 20
130.4819742673078
 30
0.0
 10
78.42011819419983
 20
130.4098205873754
 30
0.0
 10
78.5958503184896
 20
130.3297334023367
 30
0.0
 10
78.84086495208845
 20
130.2058925156568
 30
0.0
 10
79.14504803127184
 20
130.0272675334675
 30
0.0
 10
79.4923555127159
 20
129.7781783494132
 30
0.0
 10
79.8115297761883
 20
129.4986087644335
 30
0.0
 10
80.10544167845403
 20
129.1897831264579
 30
0.0
 10
80.27496576514638
 20
128.9616910831527
 30
0.0
 10
80.3605699336298
 20
128.8465119951198
 30
0.0
  0
LINE
  5
1A8
330
1F
100
AcDbEntity
  8
0
  6
Continuous
 62
     7
370
    25
100
AcDbLine
 10
73.7970413097
 20
130.7828279187
 30
0.0
 11
76.5885830267
 21
130.7828279187
 31
0.0
  0
SPLINE
  5
1A9
330
1F
100
AcDbEntity
  8
0
  6
Continuous
 62
     7
370
    25
100
AcDbSpline
210
0.0
220
0.0
230
1.0
 70
     8
 71
     3
 72
     8
 73
     4
 74
     0
 42
0.000000001
 43
0.00000001
 40
0.0
 40
0.0
 40
0.0
 40
0.0
 40
1.0
 40
1.0
 40
1.0
 40
1.0
 10
73.75123723804772
 20
130.8462809096974
 30
0.0
 10
73.7665052619454
 20
130.8251644392993
 30
0.0
 10
73.78177328584309
 20
130.8040133722466
 30
0.0
 10
73.79704130974076
 20
130.7828279186877
 30
0.0
  0
LINE
  5
1AA
330
1F
100
AcDbEntity
  8
0
  6
Continuous
 62
     7
370
    25
100
AcDbLine
 10
73.7512400628
 20
138.037547756
 30
0.0
 11
73.7512400628
 21
130.8462809097
 31
0.0
  0
LINE
  5
1AB
330
1F
100
AcDbEntity
  8
0
  6
Continuous
 62
     7
370
    25
100
AcDbLine
 10
73.7512400628
 20
138.037547756
 30
0.0
 11
77.6212399075
 21
138.037547756
 31
0.0
  0
ARC
  5
1AC
330
1F
100
AcDbEntity
  8
0
  6
Continuous
 62
     7
370
    25
100
AcDbCircle
 10
131.7012400628
 20
136.900047756
 30
0.0
 40
3.0
100
AcDbArc
 50
180.0
 51
270.0
  0
ARC
  5
1AD
330
1F
100
AcDbEntity
  8
0
  6
Continuous
 62
     7
370
    25
100
AcDbCircle
 10
108.4012400628
 20
134.750047756
 30
0.0
 40
1.200000000000017
100
AcDbArc
 50
0.0
 51
90.0
  0
LINE
  5
1AE
330
1F
100
AcDbEntity
  8
0
  6
Continuous
 62
     7
370
    25
100
AcDbLine
 10
104.7012400628
 20
135.950047756
 30
0.0
 11
108.4012400628
 21
135.950047756
 31
0.0
  0
LINE
  5
1AF
330
1F
100
AcDbEntity
  8
0
  6
Continuous
 62
     7
370
    25
100
AcDbLine
 10
104.7012400628
 20
135.950047756
 30
0.0
 11
104.7012400628
 21
120.400047756
 31
0.0
  0
LINE
  5
1B0
330
1F
100
AcDbEntity
  8
0
  6
Continuous
 62
     7
370
    25
100
AcDbLine
 10
192.5826258543
 20
106.900047756
 30
0.0
 11
192.5826258543
 21
120.400047756
 31
0.0
  0
LINE
  5
1B1
330
1F
100
AcDbEntity
  8
0
  6
Continuous
 62
     7
370
    25
100
AcDbLine
 10
192.5826258543
 20
133.900047756
 30
0.0
 11
131.7012400628
 21
133.900047756
 31
0.0
  0
LINE
  5
1B2
330
1F
100
AcDbEntity
  8
0
  6
Continuous
 62
     7
370
    25
100
AcDbLine
 10
228.8581582543
 20
131.0451014402
 30
0.0
 11
192.5826258543
 21
133.900047756
 31
0.0
  0
LINE
  5
1B3
330
1F
100
AcDbEntity
  8
0
  6
Continuous
 62
     7
370
    25
100
AcDbLine
 10
230.7012400628
 20
111.7488289096
 30
0.0
 11
230.7012400628
 21
120.400047756
 31
0.0
  0
ARC
  5
1B4
330
1F
100
AcDbEntity
  8
0
  6
Continuous
 62
     7
370
    25
100
AcDbCircle
 10
228.7012400628
 20
129.0512667727
 30
0.0
 40
2.0
100
AcDbArc
 50
0.0
 51
85.5
  0
LINE
  5
1B5
330
1F
100
AcDbEntity
  8
0
  6
Continuous
 62
     7
370
    25
100
AcDbLine
 10
113.4262400628
 20
126.150047756
 30
0.0
 11
114.2512400628
 21
126.150047756
 31
0.0
  0
LINE
  5
1B6
330
1F
100
AcDbEntity
  8
0
  6
Continuous
 62
     7
370
    25
100
AcDbLine
 10
110.0012400628
 20
125.400047756
 30
0.0
 11
110.0012400628
 21
120.400047756
 31
0.0
  0
LINE
  5
1B7
330
1F
100
AcDbEntity
  8
0
  6
Continuous
 62
     7
370
    25
100
AcDbLine
 10
109.6012400628
 20
125.6309878637
 30
0.0
 11
110.0012400628
 21
125.400047756
 31
0.0
  0
LINE
  5
1B8
330
1F
100
AcDbEntity
  8
0
  6
Continuous
 62
     7
370
    25
100
AcDbLine
 10
109.6012400628
 20
125.6309878637
 30
0.0
 11
109.6012400628
 21
120.400047756
 31
0.0
  0
ARC
  5
1B9
330
1F
100
AcDbEntity
  8
0
  6
Continuous
 62
     7
370
    25
100
AcDbCircle
 10
230.2012400628
 20
125.4367420041
 30
0.0
 40
0.5
100
AcDbArc
 50
280.0
 51
0.0
  0
LINE
  5
1BA
330
1F
100
AcDbEntity
  8
0
  6
Continuous
 62
     7
370
    25
100
AcDbLine
 10
230.7012400628
 20
125.4367420041
 30
0.0
 11
230.7012400628
 21
120.400047756
 31
0.0
  0
LINE
  5
1BB
330
1F
100
AcDbEntity
  8
0
  6
Continuous
 62
     7
370
    25
100
AcDbLine
 10
110.0012400628
 20
125.400047756
 30
0.0
 11
113.4262400628
 21
125.400047756
 31
0.0
  0
LINE
  5
1BC
330
1F
100
AcDbEntity
  8
0
  6
Continuous
 62
     7
370
    25
100
AcDbLine
 10
113.4262400628
 20
125.400047756
 30
0.0
 11
113.4262400628
 21
120.400047756
 31
0.0
  0
LINE
  5
1BD
330
1F
100
AcDbEntity
  8
0
  6
Continuous
 62
     7
370
    25
100
AcDbLine
 10
227.2012400628
 20
124.400047756
 30
0.0
 11
227.2012400628
 21
120.400047756
 31
0.0
  0
LINE
  5
1BE
330
1F
100
AcDbEntity
  8
0
  6
Continuous
 62
     7
370
    25
100
AcDbLine
 10
227.2012400628
 20
124.400047756
 30
0.0
 11
230.2880641516
 21
124.9443381276
 31
0.0
  0
ARC
  5
1BF
330
1F
100
AcDbEntity
  8
0
  6
Continuous
 62
     7
370
    25
100
AcDbCircle
 10
203.8064660447
 20
124.300047756
 30
0.0
 40
0.4000000000000208
100
AcDbArc
 50
70.0
 51
90.0
  0
LINE
  5
1C0
330
1F
100
AcDbEntity
  8
0
  6
Continuous
 62
     7
370
    25
100
AcDbLine
 10
194.6012400628
 20
124.700047756
 30
0.0
 11
203.8064660447
 21
124.700047756
 31
0.0
  0
ARC
  5
1C1
330
1F
100
AcDbEntity
  8
0
  6
Continuous
 62
     7
370
    25
100
AcDbCircle
 10
194.6012400628
 20
124.300047756
 30
0.0
 40
0.4000000000000057
100
AcDbArc
 50
90.0
 51
180.0
  0
LINE
  5
1C2
330
1F
100
AcDbEntity
  8
0
  6
Continuous
 62
     7
370
    25
100
AcDbLine
 10
204.7012400628
 20
124.400047756
 30
0.0
 11
204.7012400628
 21
120.400047756
 31
0.0
  0
LINE
  5
1C3
330
1F
100
AcDbEntity
  8
0
  6
Continuous
 62
     7
370
    25
100
AcDbLine
 10
203.943274102
 20
124.6759248043
 30
0.0
 11
204.7012400628
 21
124.400047756
 31
0.0
  0
LINE
  5
1C4
330
1F
100
AcDbEntity
  8
0
  6
Continuous
 62
     7
370
    25
100
AcDbLine
 10
204.7012400628
 20
124.400047756
 30
0.0
 11
227.2012400628
 21
124.400047756
 31
0.0
  0
LINE
  5
1C5
330
1F
100
AcDbEntity
  8
0
  6
Continuous
 62
     7
370
    25
100
AcDbLine
 10
171.6025309913
 20
122.900047756
 30
0.0
 11
171.6025309913
 21
120.400047756
 31
0.0
  0
LINE
  5
1C6
330
1F
100
AcDbEntity
  8
0
  6
Continuous
 62
     7
370
    25
100
AcDbLine
 10
170.7012400628
 20
124.400047756
 30
0.0
 11
170.7012400628
 21
120.400047756
 31
0.0
  0
LINE
  5
1C7
330
1F
100
AcDbEntity
  8
0
  6
Continuous
 62
     7
370
    25
100
AcDbLine
 10
170.7012400628
 20
124.400047756
 30
0.0
 11
171.6025309913
 21
122.900047756
 31
0.0
  0
LINE
  5
1C8
330
1F
100
AcDbEntity
  8
0
  6
Continuous
 62
     7
370
    25
100
AcDbLine
 10
114.2512400628
 20
124.400047756
 30
0.0
 11
170.7012400628
 21
124.400047756
 31
0.0
  0
LINE
  5
1C9
330
1F
100
AcDbEntity
  8
0
  6
Continuous
 62
     7
370
    25
100
AcDbLine
 10
114.2512400628
 20
124.400047756
 30
0.0
 11
114.2512400628
 21
120.400047756
 31
0.0
  0
LINE
  5
1CA
330
1F
100
AcDbEntity
  8
0
  6
Continuous
 62
     7
370
    25
100
AcDbLine
 10
193.7012400628
 20
122.900047756
 30
0.0
 11
194.2012400628
 21
123.400047756
 31
0.0
  0
LINE
  5
1CB
330
1F
100
AcDbEntity
  8
0
  6
Continuous
 62
     7
370
    25
100
AcDbLine
 10
171.6025309913
 20
122.900047756
 30
0.0
 11
193.7012400628
 21
122.900047756
 31
0.0
  0
SPLINE
  5
1CC
330
1F
100
AcDbEntity
  8
0
  6
Continuous
 62
     7
370
    25
100
AcDbSpline
210
0.0
220
0.0
230
1.0
 70
     8
 71
     3
 72
    37
 73
    33
 74
     0
 42
0.000000001
 43
0.00000001
 40
0.0
 40
0.0
 40
0.0
 40
0.0
 40
0.0114878548102397
 40
0.023155976562093
 40
0.0350076484353413
 40
0.0470460033794231
 40
0.0592740307998792
 40
0.071694583096471
 40
0.0843103820273714
 40
0.0971240248797285
 40
0.1101379904320115
 40
0.1233546446979396
 40
0.1811510010988646
 40
0.2483631736114431
 40
0.288837341575901
 40
0.3232297457524277
 40
0.3515392131431687
 40
0.3737664266256243
 40
0.4399300285917602
 40
0.4987424063270091
 40
0.5023253005651696
 40
0.561310007451455
 40
0.6252595444338146
 40
0.681865008384978
 40
0.7483890016987849
 40
0.78607814719501
 40
0.8194856599780345
 40
0.8486127715267109
 40
0.8734622727747314
 40
0.938992615660202
 40
0.9981523731393461
 40
1.0
 40
1.0
 40
1.0
 40
1.0
 10
95.55124006280647
 20
143.863700059378
 30
0.0
 10
95.55031361152795
 20
143.8632565423696
 30
0.0
 10
95.54844617113588
 20
143.8623625487021
 30
0.0
 10
95.5331731107962
 20
143.8551705712438
 30
0.0
 10
95.50827140833246
 20
143.8437193276514
 30
0.0
 10
95.47241713639673
 20
143.8275695688768
 30
0.0
 10
95.42544962555921
 20
143.8068418893232
 30
0.0
 10
95.3669067151384
 20
143.7815033703214
 30
0.0
 10
95.2964285755608
 20
143.7515629497669
 30
0.0
 10
95.21365401128321
 20
143.7170189757249
 30
0.0
 10
95.11823746616489
 20
143.6778692341103
 30
0.0
 10
94.88866863277201
 20
143.5851705629475
 30
0.0
 10
94.40425041879655
 20
143.3964476724352
 30
0.0
 10
93.62525044727757
 20
143.1183578724718
 30
0.0
 10
92.83403199591858
 20
142.867771005156
 30
0.0
 10
92.2029815027226
 20
142.6927542438358
 30
0.0
 10
91.64994354635344
 20
142.5529196032282
 30
0.0
 10
90.85698561743078
 20
142.372508757872
 30
0.0
 10
89.78665127705746
 20
142.1834424362191
 30
0.0
 10
88.8056609976217
 20
142.078155628509
 30
0.0
 10
87.87769376847368
 20
142.0211228565543
 30
0.0
 10
86.90523827471326
 20
142.0065282581848
 30
0.0
 10
85.57910806927997
 20
142.0847214746758
 30
0.0
 10
84.30907258478679
 20
142.24520119627
 30
0.0
 10
83.3492965841258
 20
142.4303127344819
 30
0.0
 10
82.65064493678915
 20
142.5978023382094
 30
0.0
 10
82.20683679863717
 20
142.7114255444159
 30
0.0
 10
81.87429973669862
 20
142.8046093793259
 30
0.0
 10
81.48714132644797
 20
142.9192742435884
 30
0.0
 10
81.14989336433251
 20
143.0266200526531
 30
0.0
 10
81.05216929800338
 20
143.0641856259374
 30
0.0
 10
81.05126737773134
 20
143.0643170347522
 30
0.0
 10
81.05124006280646
 20
143.0643210145074
 30
0.0
  0
LINE
  5
1CD
330
1F
100
AcDbEntity
  8
0
  6
Continuous
 62
     7
370
    25
100
AcDbLine
 10
95.5512400628
 20
143.8637000594
 30
0.0
 11
95.5512400628
 21
138.5062737768
 31
0.0
  0
SPLINE
  5
1CE
330
1F
100
AcDbEntity
  8
0
  6
Continuous
 62
     7
370
    25
100
AcDbSpline
210
0.0
220
0.0
230
1.0
 70
     8
 71
     3
 72
    30
 73
    26
 74
     0
 42
0.000000001
 43
0.00000001
 40
0.0
 40
0.0
 40
0.0
 40
0.0
 40
0.0192411700742981
 40
0.0381353539378548
 40
0.0566868884863267
 40
0.074900355493348
 40
0.0927805967286099
 40
0.1103327298327982
 40
0.1275621649290826
 40
0.1444746219341823
 40
0.245586583052792
 40
0.3577720192516835
 40
0.4505017408947211
 40
0.5720127868619918
 40
0.616806984022426
 40
0.6590088499470569
 40
0.6986242498815209
 40
0.735660329937402
 40
0.770125893192874
 40
0.8073679165915972
 40
0.8483950324910894
 40
0.888136779884444
 40
0.9266264622133248
 40
0.963900744362977
 40
1.0
 40
1.0
 40
1.0
 40
1.0
 10
86.38042147219446
 20
136.8421824664334
 30
0.0
 10
86.4634539520745
 20
136.8310553611085
 30
0.0
 10
86.62802154314801
 20
136.8090018114423
 30
0.0
 10
86.87590305882944
 20
136.7809499221795
 30
0.0
 10
87.12117973427233
 20
136.7569983916534
 30
0.0
 10
87.36373756788379
 20
136.73746843946
 30
0.0
 10
87.6031722449925
 20
136.7222761472833
 30
0.0
 10
87.83918544039905
 20
136.7114445860524
 30
0.0
 10
88.07150348570892
 20
136.7049640207992
 30
0.0
 10
88.68005425533038
 20
136.6993325292131
 30
0.0
 10
89.71836675254987
 20
136.7593059286985
 30
0.0
 10
91.03371828064759
 20
136.9587284018714
 30
0.0
 10
92.31326349354123
 20
137.2642097625553
 30
0.0
 10
93.2047040376404
 20
137.5441525654769
 30
0.0
 10
93.82236890651393
 20
137.7716016619974
 30
0.0
 10
94.16569199180577
 20
137.901880322502
 30
0.0
 10
94.45738307670018
 20
138.0179712604609
 30
0.0
 10
94.70192843251793
 20
138.1193394898617
 30
0.0
 10
94.91428311294929
 20
138.2106775423754
 30
0.0
 10
95.10534608757105
 20
138.2947526263174
 30
0.0
 10
95.27059349174382
 20
138.3697455802815
 30
0.0
 10
95.40013404198743
 20
138.4307340798273
 30
0.0
 10
95.48850041120734
 20
138.4739717415928
 30
0.0
 10
95.54164625646801
 20
138.5012018274718
 30
0.0
 10
95.54807645240874
 20
138.5046012736019
 30
0.0
 10
95.55124006280647
 20
138.5062737767764
 30
0.0
  0
SPLINE
  5
1CF
330
1F
100
AcDbEntity
  8
0
  6
Continuous
 62
     7
370
    25
100
AcDbSpline
210
0.0
220
0.0
230
1.0
 70
     8
 71
     3
 72
    38
 73
    34
 74
     0
 42
0.000000001
 43
0.00000001
 40
0.0
 40
0.0
 40
0.0
 40
0.0
 40
0.1249999999999998
 40
0.1249999999999998
 40
0.2499999999999997
 40
0.2499999999999997
 40
0.3124999999999996
 40
0.3124999999999996
 40
0.3749999999999993
 40
0.3749999999999993
 40
0.4374999999999992
 40
0.4374999999999992
 40
0.4999999999999989
 40
0.4999999999999989
 40
0.5624999999999987
 40
0.5624999999999987
 40
0.6249999999999986
 40
0.6249999999999986
 40
0.6874999999999983
 40
0.6874999999999983
 40
0.7187499999999982
 40
0.7187499999999982
 40
0.7499999999999982
 40
0.7499999999999982
 40
0.7812499999999982
 40
0.7812499999999982
 40
0.8124999999999981
 40
0.8124999999999981
 40
0.8749999999999988
 40
0.8749999999999988
 40
0.9374999999999993
 40
0.9374999999999993
 40
1.0
 40
1.0
 40
1.0
 40
1.0
 10
81.05124006280646
 20
142.9360956409287
 30
0.0
 10
81.05124006280649
 20
142.9360956409287
 30
0.0
 10
81.11304582036988
 20
142.9134515582667
 30
0.0
 10
81.36266836580523
 20
142.8208671692107
 30
0.0
 10
81.54639599674331
 20
142.7524795892581
 30
0.0
 10
81.9027848333283
 20
142.6166374900563
 30
0.0
 10
82.03594529483381
 20
142.5654445049998
 30
0.0
 10
82.32702430553014
 20
142.4517558998874
 30
0.0
 10
82.48351425703945
 20
142.389829292381
 30
0.0
 10
82.81689569832731
 20
142.2549441836905
 30
0.0
 10
82.99379945669044
 20
142.1820059294039
 30
0.0
 10
83.36704110416372
 20
142.023029994608
 30
0.0
 10
83.56478509504484
 20
141.9363902247315
 30
0.0
 10
83.97080852829797
 20
141.7494725521791
 30
0.0
 10
84.17886192168496
 20
141.64943763837
 30
0.0
 10
84.60115619441912
 20
141.4301740881911
 30
0.0
 10
84.81552149749419
 20
141.3111708965265
 30
0.0
 10
85.24336380907363
 20
141.0408970462027
 30
0.0
 10
85.45976546018025
 20
140.887648220691
 30
0.0
 10
85.75839790306044
 20
140.6215796971079
 30
0.0
 10
85.85359049253016
 20
140.5268074508352
 30
0.0
 10
86.03121574438701
 20
140.3210505936453
 30
0.0
 10
86.11383005501543
 20
140.2091920518747
 30
0.0
 10
86.2559103300371
 20
139.9756765476524
 30
0.0
 10
86.31629587928208
 20
139.8531154816966
 30
0.0
 10
86.41574637143701
 20
139.5966447184715
 30
0.0
 10
86.45503781046185
 20
139.4614047049217
 30
0.0
 10
86.541734396615
 20
139.0531227019572
 30
0.0
 10
86.56044272360977
 20
138.7768625241723
 30
0.0
 10
86.55694670297812
 20
138.2201147455366
 30
0.0
 10
86.53446708276954
 20
137.9418845015458
 30
0.0
 10
86.46883943498749
 20
137.390498681361
 30
0.0
 10
86.425341891298
 20
137.1162450122586
 30
0.0
 10
86.37586234418796
 20
136.842815540297
 30
0.0
  0
LINE
  5
1D0
330
1F
100
AcDbEntity
  8
0
  6
Continuous
 62
     7
370
    25
100
AcDbLine
 10
81.0512400628
 20
142.9360956409
 30
0.0
 11
81.0512400628
 21
143.0643210144
 31
0.0
  0
SPLINE
  5
1D1
330
1F
100
AcDbEntity
  8
0
  6
Continuous
 62
     7
370
    25
100
AcDbSpline
210
0.0
220
0.0
230
1.0
 70
     8
 71
     3
 72
    14
 73
    10
 74
     0
 42
0.000000001
 43
0.00000001
 40
0.0
 40
0.0
 40
0.0
 40
0.0
 40
0.0003951392850831
 40
0.0003951392850831
 40
0.0003951392850831
 40
0.0008159035679249
 40
0.0008159035679249
 40
0.0008159035679249
 40
0.0012369936130996
 40
0.0012369936130996
 40
0.0012369936130996
 40
0.0012369936130996
 10
85.17912401253801
 20
136.575020753025
 30
0.0
 10
85.30763325064473
 20
136.6038947207385
 30
0.0
 10
85.43619675837371
 20
136.6325829342148
 30
0.0
 10
85.56474713665712
 20
136.6610857782522
 30
0.0
 10
85.7016323843207
 20
136.691436671943
 30
0.0
 10
85.83852803022052
 20
136.721582636972
 30
0.0
 10
85.97534829156957
 20
136.7515344565405
 30
0.0
 10
86.11227428051448
 20
136.7815094213204
 30
0.0
 10
86.24915135247865
 20
136.8112954707656
 30
0.0
 10
86.3858882016658
 20
136.8409179439343
 30
0.0
  0
LINE
  5
1D2
330
1F
100
AcDbEntity
  8
0
  6
Continuous
 62
     7
370
    25
100
AcDbLine
 10
77.6212399075
 20
138.037547756
 30
0.0
 11
81.0512400628
 21
142.9360956409
 31
0.0
  0
LINE
  5
1D3
330
1F
100
AcDbEntity
  8
0
  6
Continuous
 62
     7
370
    25
100
AcDbLine
 10
80.3016782145
 20
143.8734334657
 30
0.0
 11
81.0512681934
 21
143.0643221279
 31
0.0
  0
LINE
  5
1D4
330
1F
100
AcDbEntity
  8
0
  6
Continuous
 62
     7
370
    25
100
AcDbLine
 10
95.5512530109
 20
143.8637003152
 30
0.0
 11
96.2195831569
 21
144.6728121376
 31
0.0
  0
LINE
  5
1D5
330
1F
100
AcDbEntity
  8
0
  6
Continuous
 62
     7
370
    25
100
AcDbLine
 10
71.5029061126
 20
139.3356239674
 30
0.0
 11
73.7512400628
 21
138.037547756
 31
0.0
  0
LINE
  5
1D6
330
1F
100
AcDbEntity
  8
0
  6
Continuous
 62
     7
370
    25
100
AcDbLine
 10
70.7512400628
 20
140.637547756
 30
0.0
 11
71.5029061126
 21
139.3356239674
 31
0.0
  0
LINE
  5
1D7
330
1F
100
AcDbEntity
  8
0
  6
Continuous
 62
     7
370
    25
100
AcDbLine
 10
70.7512400628
 20
142.6031424798
 30
0.0
 11
70.7512400628
 21
140.637547756
 31
0.0
  0
LINE
  5
1D8
330
1F
100
AcDbEntity
  8
0
  6
Continuous
 62
     7
370
    25
100
AcDbLine
 10
72.2512400628
 20
143.4691678836
 30
0.0
 11
70.7512400628
 21
142.6031424798
 31
0.0
  0
LINE
  5
1D9
330
1F
100
AcDbEntity
  8
0
  6
Continuous
 62
     7
370
    25
100
AcDbLine
 10
121.4762400628
 20
148.250047756
 30
0.0
 11
119.7262400628
 21
148.250047756
 31
0.0
  0
ARC
  5
1DA
330
1F
100
AcDbEntity
  8
0
  6
Continuous
 62
     7
370
    25
100
AcDbCircle
 10
121.4762400628
 20
149.250047756
 30
0.0
 40
1.0
100
AcDbArc
 50
270.0
 51
0.0
  0
LINE
  5
1DB
330
1F
100
AcDbEntity
  8
0
  6
Continuous
 62
     7
370
    25
100
AcDbLine
 10
122.4762400628
 20
149.3476430202
 30
0.0
 11
122.4762400628
 21
149.250047756
 31
0.0
  0
LINE
  5
1DC
330
1F
100
AcDbEntity
  8
0
  6
Continuous
 62
     7
370
    25
100
AcDbLine
 10
123.9354378674
 20
151.875047756
 30
0.0
 11
122.4762400628
 21
149.3476430202
 31
0.0
  0
LINE
  5
1DD
330
1F
100
AcDbEntity
  8
0
  6
Continuous
 62
     7
370
    25
100
AcDbLine
 10
96.1771892046
 20
138.0375490463
 30
0.0
 11
95.551243191
 21
138.5062739017
 31
0.0
  0
LINE
  5
1DE
330
1F
100
AcDbEntity
  8
0
  6
Continuous
 62
     7
370
    25
100
AcDbLine
 10
118.7262400628
 20
149.3476430202
 30
0.0
 11
117.2670422582
 21
151.875047756
 31
0.0
  0
LINE
  5
1DF
330
1F
100
AcDbEntity
  8
0
  6
Continuous
 62
     7
370
    25
100
AcDbLine
 10
118.7262400628
 20
149.250047756
 30
0.0
 11
118.7262400628
 21
149.3476430202
 31
0.0
  0
ARC
  5
1E0
330
1F
100
AcDbEntity
  8
0
  6
Continuous
 62
     7
370
    25
100
AcDbCircle
 10
119.7262400628
 20
149.250047756
 30
0.0
 40
1.000000000000014
100
AcDbArc
 50
180.0
 51
270.0
  0
LINE
  5
1E1
330
1F
100
AcDbEntity
  8
0
  6
Continuous
 62
     7
370
    25
100
AcDbLine
 10
194.2012400628
 20
123.400047756
 30
0.0
 11
194.2012400628
 21
124.300047756
 31
0.0
  0
LINE
  5
1E2
330
1F
100
AcDbEntity
  8
0
  6
Continuous
 62
     7
370
    25
100
AcDbLine
 10
113.4262400628
 20
125.400047756
 30
0.0
 11
113.4262400628
 21
126.150047756
 31
0.0
  0
LINE
  5
1E3
330
1F
100
AcDbEntity
  8
0
  6
Continuous
 62
     7
370
    25
100
AcDbLine
 10
114.2512400628
 20
126.150047756
 30
0.0
 11
114.2512400628
 21
124.400047756
 31
0.0
  0
LINE
  5
1E4
330
1F
100
AcDbEntity
  8
0
  6
Continuous
 62
     7
370
    25
100
AcDbLine
 10
230.7012400628
 20
125.4367420041
 30
0.0
 11
230.7012400628
 21
129.0512667727
 31
0.0
  0
LINE
  5
1E5
330
1F
100
AcDbEntity
  8
0
  6
Continuous
 62
     7
370
    25
100
AcDbLine
 10
109.6012400628
 20
134.750047756
 30
0.0
 11
109.6012400628
 21
125.6309878637
 31
0.0
  0
LINE
  5
1E6
330
1F
100
AcDbEntity
  8
0
  6
Continuous
 62
     7
370
    25
100
AcDbLine
 10
104.7012400628
 20
137.850047756
 30
0.0
 11
104.7012400628
 21
135.950047756
 31
0.0
  0
LINE
  5
1E7
330
1F
100
AcDbEntity
  8
0
  6
Continuous
 62
     7
370
    25
100
AcDbLine
 10
110.7012400628
 20
151.675047756
 30
0.0
 11
110.7012400628
 21
147.250047756
 31
0.0
  0
LINE
  5
1E8
330
1F
100
AcDbEntity
  8
0
  6
Continuous
 62
     7
370
    25
100
AcDbLine
 10
128.7012400628
 20
136.900047756
 30
0.0
 11
128.7012400628
 21
151.875047756
 31
0.0
  0
SPLINE
  5
1E9
330
1F
100
AcDbEntity
  8
0
  6
Continuous
 62
     7
370
    25
100
AcDbSpline
210
0.0
220
0.0
230
1.0
 70
     8
 71
     3
 72
     9
 73
     5
 74
     0
 42
0.000000001
 43
0.00000001
 40
0.0
 40
0.0
 40
0.0
 40
0.0
 40
0.5102121239851032
 40
1.0
 40
1.0
 40
1.0
 40
1.0
 10
71.55560345947757
 20
130.8616742726766
 30
0.0
 10
71.93046551645632
 20
130.8591843552949
 30
0.0
 10
72.6651835667661
 20
130.8543041941528
 30
0.0
 10
73.39418415722285
 20
130.8489193027665
 30
0.0
 10
73.75123980803627
 20
130.8462818482518
 30
0.0
  0
LINE
  5
1EA
330
1F
100
AcDbEntity
  8
0
  6
Continuous
 62
     7
370
    25
100
AcDbLine
 10
71.5029061126
 20
130.8920985636
 30
0.0
 11
71.5556034613
 21
130.8616737352
 31
0.0
  0
LINE
  5
1EB
330
1F
100
AcDbEntity
  8
0
  6
Continuous
 62
     7
370
    25
100
AcDbLine
 10
71.5029061126
 20
139.3356239674
 30
0.0
 11
71.5029061126
 21
130.8920985636
 31
0.0
  0
SPLINE
  5
1EC
330
1F
100
AcDbEntity
  8
0
  6
Continuous
 62
     7
370
    25
100
AcDbSpline
210
0.0
220
0.0
230
1.0
 70
    24
 71
     3
 72
     8
 73
     4
 74
     0
 42
0.000000001
 43
0.00000001
 40
0.0000004089325119
 40
0.0000004089325119
 40
0.0000004089325119
 40
0.0000004089325119
 40
0.0015399868451459
 40
0.0015399868451459
 40
0.0015399868451459
 40
0.0015399868451459
 10
70.75124006280646
 20
131.3260731598092
 30
0.0
 10
71.00223113883092
 20
131.1811633945023
 30
0.0
 10
71.25282033533387
 20
131.0364856544453
 30
0.0
 10
71.502906112646
 20
130.8920985635936
 30
0.0
  0
LINE
  5
1ED
330
1F
100
AcDbEntity
  8
0
  6
Continuous
 62
     7
370
    25
100
AcDbLine
 10
70.7512400628
 20
140.637547756
 30
0.0
 11
70.7512400628
 21
131.3260731598
 31
0.0
  0
SPLINE
  5
1EE
330
1F
100
AcDbEntity
  8
0
  6
Continuous
 62
     7
370
    25
100
AcDbSpline
210
0.0
220
0.0
230
1.0
 70
     8
 71
     3
 72
     8
 73
     4
 74
     0
 42
0.000000001
 43
0.00000001
 40
0.0
 40
0.0
 40
0.0
 40
0.0
 40
1.0
 40
1.0
 40
1.0
 40
1.0
 10
73.88092180556322
 20
130.4600484337613
 30
0.0
 10
73.85297358544368
 20
130.5678647877368
 30
0.0
 10
73.825013497275
 20
130.6754586379031
 30
0.0
 10
73.79704130974076
 20
130.7828279186877
 30
0.0
  0
LINE
  5
1EF
330
1F
100
AcDbEntity
  8
0
  6
Continuous
 62
     7
370
    25
100
AcDbLine
 10
73.8809249441
 20
130.460047756
 30
0.0
 11
72.251239276
 21
130.460047756
 31
0.0
  0
LINE
  5
1F0
330
1F
100
AcDbEntity
  8
0
  6
Continuous
 62
     7
370
    25
100
AcDbLine
 10
72.2512394759
 20
130.4600480948
 30
0.0
 11
71.555602998
 21
130.8616740027
 31
0.0
  0
LINE
  5
1F1
330
1F
100
AcDbEntity
  8
0
  6
Continuous
 62
     7
370
    25
100
AcDbLine
 10
80.30520096
 20
128.462547756
 30
0.0
 11
80.0530293321
 21
128.462547756
 31
0.0
  0
SPLINE
  5
1F2
330
1F
100
AcDbEntity
  8
0
  6
Continuous
 62
     7
370
    25
100
AcDbSpline
210
0.0
220
0.0
230
1.0
 70
     8
 71
     3
 72
    26
 73
    22
 74
     0
 42
0.000000001
 43
0.00000001
 40
0.0
 40
0.0
 40
0.0
 40
0.0
 40
0.0524616379916458
 40
0.1026498591861474
 40
0.1505655134537972
 40
0.1962095861908931
 40
0.2395832262515146
 40
0.2806877815543323
 40
0.3195248450324018
 40
0.3560963147377176
 40
0.3904044736499266
 40
0.4224520974393497
 40
0.4522426027388373
 40
0.4797802555350637
 40
0.5050704712281464
 40
0.5966394156800096
 40
0.6841917884819306
 40
0.7679874773571161
 40
0.8483228539139546
 40
0.9255341635201179
 40
1.0
 40
1.0
 40
1.0
 40
1.0
 10
80.05122283813706
 20
128.4625775400601
 30
0.0
 10
80.01558643910695
 20
128.5221244601404
 30
0.0
 10
79.94585793877069
 20
128.6386378439236
 30
0.0
 10
79.83237977801444
 20
128.8030358046485
 30
0.0
 10
79.71685422829268
 20
128.9551975424469
 30
0.0
 10
79.59973253228533
 20
129.0951002393774
 30
0.0
 10
79.48236083180815
 20
129.2233145632804
 30
0.0
 10
79.36573986577595
 20
129.3403302422207
 30
0.0
 10
79.25083694533156
 20
129.4467073974654
 30
0.0
 10
79.13851271964192
 20
129.543023477941
 30
0.0
 10
79.02954374560578
 20
129.6298728244955
 30
0.0
 10
78.92462470476677
 20
129.7078530066919
 30
0.0
 10
78.82436737881459
 20
129.7775612037477
 30
0.0
 10
78.72933003622695
 20
129.8395711926521
 30
0.0
 10
78.55922313179273
 20
129.9440576299203
 30
0.0
 10
78.30630410038572
 20
130.0791162964357
 30
0.0
 10
77.96032294332456
 20
130.2235031888528
 30
0.0
 10
77.61236439400022
 20
130.3324711010978
 30
0.0
 10
77.26622463362416
 20
130.4070006834345
 30
0.0
 10
76.92515985019006
 20
130.4519293879839
 30
0.0
 10
76.69941323867441
 20
130.4573744868384
 30
0.0
 10
76.58858302665634
 20
130.4600477560248
 30
0.0
  0
SPLINE
  5
1F3
330
1F
100
AcDbEntity
  8
0
  6
Continuous
 62
     7
370
    25
100
AcDbSpline
210
0.0
220
0.0
230
1.0
 70
     8
 71
     3
 72
     8
 73
     4
 74
     0
 42
0.000000001
 43
0.00000001
 40
0.0
 40
0.0
 40
0.0
 40
0.0
 40
1.0
 40
1.0
 40
1.0
 40
1.0
 10
80.30520096003895
 20
128.4625477560246
 30
0.0
 10
80.33420566646653
 20
128.5864854828869
 30
0.0
 10
80.35323818614796
 20
128.7144376131202
 30
0.0
 10
80.36148977833962
 20
128.8455069258117
 30
0.0
  0
LINE
  5
1F4
330
1F
100
AcDbEntity
  8
0
  6
Continuous
 62
     7
370
    25
100
AcDbLine
 10
76.5885830267
 20
130.460047756
 30
0.0
 11
73.8809249441
 21
130.460047756
 31
0.0
  0
LINE
  5
1F5
330
1F
100
AcDbEntity
  8
0
  6
Continuous
 62
     7
370
    25
100
AcDbLine
 10
93.3512400628
 20
124.4628211668
 30
0.0
 11
92.7012400628
 21
124.612547756
 31
0.0
  0
SPLINE
  5
1F6
330
1F
100
AcDbEntity
  8
0
  6
Continuous
 62
     7
370
    25
100
AcDbSpline
210
0.0
220
0.0
230
1.0
 70
     8
 71
     3
 72
    26
 73
    22
 74
     0
 42
0.000000001
 43
0.00000001
 40
0.0
 40
0.0
 40
0.0
 40
0.0
 40
0.0305951740619132
 40
0.0629166281945905
 40
0.0969720532990741
 40
0.1327680143378763
 40
0.1703101548900729
 40
0.2096033578568503
 40
0.2506518729757663
 40
0.3342141733901709
 40
0.4179517165478233
 40
0.5018670561022144
 40
0.5659795686765051
 40
0.6277136397901657
 40
0.6871358192149355
 40
0.7443207393909679
 40
0.7993521466062465
 40
0.8523240128016296
 40
0.9033417028108085
 40
0.9525231537651235
 40
1.0
 40
1.0
 40
1.0
 40
1.0
 10
92.70124006280646
 20
124.6125477560248
 30
0.0
 10
92.70033185096155
 20
124.6770829234218
 30
0.0
 10
92.69846418298057
 20
124.8097945440316
 30
0.0
 10
92.6828715939154
 20
125.0126086355747
 30
0.0
 10
92.65622773272418
 20
125.2243216764845
 30
0.0
 10
92.61607330364251
 20
125.4440336698569
 30
0.0
 10
92.56117518695858
 20
125.6707805407178
 30
0.0
 10
92.48993221835028
 20
125.9034115444814
 30
0.0
 10
92.37151982407244
 20
126.2188098589419
 30
0.0
 10
92.1833889276692
 20
126.6032917574675
 30
0.0
 10
91.89937216443475
 20
127.0333193719971
 30
0.0
 10
91.58995420788207
 20
127.3918060843415
 30
0.0
 10
91.27404459707454
 20
127.6835727406355
 30
0.0
 10
90.96729918894313
 20
127.9160318274768
 30
0.0
 10
90.64888007511476
 20
128.112842062042
 30
0.0
 10
90.32290919895388
 20
128.2749427642992
 30
0.0
 10
89.99337036382771
 20
128.4034126477765
 30
0.0
 10
89.66380844898337
 20
128.4999964671462
 30
0.0
 10
89.33739012568964
 20
128.5658486964293
 30
0.0
 10
89.01687193339455
 20
128.6054136442523
 30
0.0
 10
88.80520641987073
 20
128.6101978424672
 30
0.0
 10
88.70124006280646
 20
128.6125477560248
 30
0.0
  0
SPLINE
  5
1F7
330
1F
100
AcDbEntity
  8
0
  6
Continuous
 62
     7
370
    25
100
AcDbSpline
210
0.0
220
0.0
230
1.0
 70
     8
 71
     3
 72
    13
 73
     9
 74
     0
 42
0.000000001
 43
0.00000001
 40
0.0
 40
0.0
 40
0.0
 40
0.0
 40
0.160406168812509
 40
0.3231296685880656
 40
0.4883154214487667
 40
0.6561019687086515
 40
0.826621511861129
 40
1.0
 40
1.0
 40
1.0
 40
1.0
 10
86.78636678351701
 20
128.6125477560248
 30
0.0
 10
86.72731683197141
 20
128.611792185986
 30
0.0
 10
86.60836385519801
 20
128.6102701304564
 30
0.0
 10
86.4291102215378
 20
128.5978250713196
 30
0.0
 10
86.24817723983263
 20
128.5776408901799
 30
0.0
 10
86.0660487454529
 20
128.5485055240351
 30
0.0
 10
85.88288173771316
 20
128.5110893722212
 30
0.0
 10
85.76214242288657
 20
128.4788234998761
 30
0.0
 10
85.70127089133128
 20
128.462556444945
 30
0.0
  0
SPLINE
  5
1F8
330
1F
100
AcDbEntity
  8
0
  6
Continuous
 62
     7
370
    25
100
AcDbSpline
210
0.0
220
0.0
230
1.0
 70
    24
 71
     3
 72
    10
 73
     6
 74
     0
 42
0.000000001
 43
0.00000001
 40
0.0
 40
0.0
 40
0.0
 40
0.0
 40
0.3216623556917169
 40
0.6548175346390043
 40
1.0
 40
1.0
 40
1.0
 40
1.0
 10
85.7014188977112
 20
128.4625477560247
 30
0.0
 10
85.63287298985395
 20
128.4625477560247
 30
0.0
 10
85.49333206565669
 20
128.4625477560247
 30
0.0
 10
85.28372365030617
 20
128.4625477560247
 30
0.0
 10
85.14404665515235
 20
128.4625477560247
 30
0.0
 10
85.07296988395152
 20
128.4625477560247
 30
0.0
  0
SPLINE
  5
1F9
330
1F
100
AcDbEntity
  8
0
  6
Continuous
 62
     7
370
    25
100
AcDbSpline
210
0.0
220
0.0
230
1.0
 70
     8
 71
     3
 72
     8
 73
     4
 74
     0
 42
0.000000001
 43
0.00000001
 40
0.0
 40
0.0
 40
0.0
 40
0.0
 40
1.0
 40
1.0
 40
1.0
 40
1.0
 10
85.78757017924802
 20
128.8409941052231
 30
0.0
 10
85.51827384917407
 20
128.7443047200283
 30
0.0
 10
85.2821131637463
 20
128.616305550646
 30
0.0
 10
85.07291564755097
 20
128.462828952993
 30
0.0
  0
LINE
  5
1FA
330
1F
100
AcDbEntity
  8
0
  6
Continuous
 62
     7
370
    25
100
AcDbLine
 10
85.0734613591
 20
112.337547756
 30
0.0
 11
85.1929420674
 21
112.337547756
 31
0.0
  0
LINE
  5
1FB
330
1F
100
AcDbEntity
  8
0
  6
Continuous
 62
     7
370
    25
100
AcDbLine
 10
88.7012400628
 20
128.612547756
 30
0.0
 11
86.7863667835
 21
128.612547756
 31
0.0
  0
LINE
  5
1FC
330
1F
100
AcDbEntity
  8
0
  6
Continuous
 62
     7
370
    25
100
AcDbLine
 10
85.0733282447
 20
128.462547756
 30
0.0
 11
80.30520096
 21
128.462547756
 31
0.0
  0
LINE
  5
1FD
330
1F
100
AcDbEntity
  8
0
  6
Continuous
 62
     7
370
    25
100
AcDbLine
 10
92.7012400628
 20
120.400047756
 30
0.0
 11
92.7012400628
 21
124.612547756
 31
0.0
  0
LINE
  5
1FE
330
1F
100
AcDbEntity
  8
VERMASSUNG
  6
CENTERX2
100
AcDbLine
 10
246.6962400628
 20
120.400047756
 30
0.0
 11
54.7562400628
 21
120.400047756
 31
0.0
  0
HATCH
  5
1FF
330
1F
100
AcDbEntity
  8
0
  6
Continuous
 62
     7
370
    18
100
AcDbHatch
 10
0.0
 20
0.0
 30
0.0
210
0.0
220
0.0
230
1.0
  2
ANSI31
 70
     0
 71
     0
 91
        1
 92
        0
 93
       50
 72
     2
 10
119.7262400628065
 20
149.2500477560247
 40
1.000000000000003
 50
90.0
 51
180.0
 73
     0
 72
     1
 10
118.7262400628065
 20
149.2500477560247
 11
118.7262400628065
 21
149.3476430202164
 72
     1
 10
118.7262400628065
 20
149.3476430202164
 11
117.2670422582364
 21
151.8750477560247
 72
     1
 10
117.2670422582364
 20
151.8750477560247
 11
110.9012400628065
 21
151.8750477560247
 72
     2
 10
110.9012400628065
 20
151.6750477560248
 40
0.2000000000000028
 50
90.0
 51
180.0
 73
     1
 72
     1
 10
110.7012400628065
 20
151.6750477560248
 11
110.7012400628065
 21
147.2500477560248
 72
     1
 10
110.7012400628065
 20
147.2500477560248
 11
111.0352787488351
 21
146.1906123956282
 72
     2
 10
110.2723051882365
 20
145.9500477560247
 40
0.8000000000000032
 50
342.4999999999998
 51
467.5000000000022
 73
     0
 72
     1
 10
110.0317405486331
 20
145.1870741954262
 11
109.5410580227757
 21
145.3417858015531
 72
     1
 10
109.5410580227757
 20
145.3417858015531
 11
96.21958475025636
 21
144.6728088285269
 72
     1
 10
96.2195831568577
 20
144.6728121375953
 11
95.55125301092816
 21
143.8637003152041
 72
     1
 10
95.55125301092816
 20
143.8637003152041
 11
95.55124006280647
 21
138.5062737767763
 72
     1
 10
95.55124319104017
 20
138.5062739016568
 11
96.17718920458235
 21
138.0375490463168
 72
     1
 10
96.17718945289126
 20
138.0375477560248
 11
101.2012400628065
 21
138.0375477560248
 72
     1
 10
101.2012400628065
 20
138.0375477560248
 11
102.0764805363873
 21
138.5428680790523
 72
     2
 10
102.4764805363873
 20
137.8500477560248
 40
0.7999999999999918
 50
240.0000000000012
 51
269.9999999999998
 73
     0
 72
     1
 10
102.4764805363873
 20
138.6500477560247
 11
103.9012400628065
 21
138.6500477560247
 72
     2
 10
103.9012400628065
 20
137.8500477560248
 40
0.7999999999999977
 50
270.0000000000008
 51
360.0000000000008
 73
     0
 72
     1
 10
104.7012400628065
 20
137.8500477560248
 11
104.7012400628065
 21
135.9500477560248
 72
     1
 10
104.7012400628065
 20
135.9500477560248
 11
108.4012400628065
 21
135.9500477560248
 72
     2
 10
108.4012400628065
 20
134.7500477560247
 40
1.2
 50
270.0000000000008
 51
360.0000000000008
 73
     0
 72
     1
 10
109.6012400628065
 20
134.7500477560247
 11
109.6012400628065
 21
125.6309878637006
 72
     1
 10
109.6012400628065
 20
125.6309878637006
 11
110.0012400628065
 21
125.4000477560248
 72
     1
 10
110.0012400628065
 20
125.4000477560248
 11
113.4262400628065
 21
125.4000477560248
 72
     1
 10
113.4262400628065
 20
125.4000477560248
 11
113.4262400628065
 21
126.1500477560248
 72
     1
 10
113.4262400628065
 20
126.1500477560248
 11
114.2512400628065
 21
126.1500477560248
 72
     1
 10
114.2512400628065
 20
126.1500477560248
 11
114.2512400628065
 21
124.4000477560247
 72
     1
 10
114.2512400628065
 20
124.4000477560247
 11
170.7012400628064
 21
124.4000477560247
 72
     1
 10
170.7012400628064
 20
124.4000477560247
 11
171.6025309913478
 21
122.9000477560247
 72
     1
 10
171.6025309913478
 20
122.9000477560247
 11
193.7012400628064
 21
122.9000477560247
 72
     1
 10
193.7012400628064
 20
122.9000477560247
 11
194.2012400628064
 21
123.4000477560247
 72
     1
 10
194.2012400628064
 20
123.4000477560247
 11
194.2012400628064
 21
124.3000477560247
 72
     2
 10
194.6012400628064
 20
124.3000477560247
 40
0.3999999999999919
 50
180.0
 51
270.0000000000008
 73
     0
 72
     1
 10
194.6012400628064
 20
124.7000477560247
 11
203.8064660446867
 21
124.7000477560246
 72
     2
 10
203.8064660446867
 20
124.3000477560246
 40
0.4000000000000004
 50
270.0000000000008
 51
290.0000000000031
 73
     0
 72
     1
 10
203.943274102017
 20
124.675924804339
 11
204.7012400628064
 21
124.4000477560246
 72
     1
 10
204.7012400628064
 20
124.4000477560246
 11
227.2012400628064
 21
124.4000477560246
 72
     1
 10
227.2012400628064
 20
124.4000477560246
 11
230.2880641516399
 21
124.9443381275867
 72
     2
 10
230.2012400628064
 20
125.4367420040928
 40
0.5000000000000011
 50
280.0000000000026
 51
360.0000000000008
 73
     1
 72
     1
 10
230.7012400628064
 20
125.4367420040928
 11
230.7012400628064
 21
129.0512667727082
 72
     2
 10
228.7012400628064
 20
129.0512667727082
 40
1.999999999999993
 50
0.0
 51
85.49999999999963
 73
     1
 72
     1
 10
228.8581582542622
 20
131.0451014401744
 11
192.5826258542823
 21
133.9000477560247
 72
     1
 10
192.5826258542823
 20
133.9000477560247
 11
131.7012400628065
 21
133.9000477560247
 72
     2
 10
131.7012400628065
 20
136.9000477560247
 40
3.0
 50
90.0
 51
180.0
 73
     0
 72
     1
 10
128.7012400628065
 20
136.9000477560247
 11
128.7012400628065
 21
151.8750477560247
 72
     1
 10
128.7012400628065
 20
151.8750477560247
 11
123.9354378673766
 21
151.8750477560247
 72
     1
 10
123.9354378673766
 20
151.8750477560247
 11
122.4762400628065
 21
149.3476430202164
 72
     1
 10
122.4762400628065
 20
149.3476430202164
 11
122.4762400628065
 21
149.2500477560247
 72
     2
 10
121.4762400628065
 20
149.2500477560247
 40
1.000000000000003
 50
0.0
 51
90.00000000000082
 73
     0
 72
     1
 10
121.4762400628065
 20
148.2500477560247
 11
119.7262400628065
 21
148.2500477560247
 97
        0
 75
     0
 76
     1
 52
0.0
 41
1.0
 77
     0
 78
     1
 53
45.0
 43
0.0
 44
0.0
 45
-2.245064030267288
 46
2.245064030267288
 79
     0
 98
        1
 10
0.0
 20
0.0
  0
HATCH
  5
200
330
1F
100
AcDbEntity
  8
0
  6
Continuous
 62
     7
370
    18
100
AcDbHatch
 10
0.0
 20
0.0
 30
0.0
210
0.0
220
0.0
230
1.0
  2
ANSI31
 70
     0
 71
     0
 91
        1
 92
        0
 93
        9
 72
     1
 10
81.05126819339465
 20
143.0643221279077
 11
80.30167821445895
 21
143.8734334656752
 72
     1
 10
80.30167821445895
 20
143.8734334656752
 11
72.2512400628065
 21
143.4691678836072
 72
     1
 10
72.2512400628065
 20
143.4691678836072
 11
70.75124006280649
 21
142.6031424798228
 72
     1
 10
70.75124006280649
 20
142.6031424798228
 11
70.75124006280647
 21
140.6375477560248
 72
     1
 10
70.75124006280647
 20
140.6375477560248
 11
71.50290611264602
 21
139.3356239673781
 72
     1
 10
71.50290611264602
 20
139.3356239673781
 11
73.75124006280647
 21
138.0375477560248
 72
     1
 10
73.75124006280647
 20
138.0375477560248
 11
77.62123990751543
 21
138.0375477560248
 72
     1
 10
77.62123990751543
 20
138.0375477560248
 11
81.0512400628065
 21
142.9360956409287
 72
     1
 10
81.05124006280649
 20
142.9360956409287
 11
81.05124006280649
 21
143.0643210144143
 97
        0
 75
     0
 76
     1
 52
0.0
 41
1.0
 77
     0
 78
     1
 53
45.0
 43
0.0
 44
0.0
 45
-2.245064030267288
 46
2.245064030267288
 79
     0
 98
        1
 10
0.0
 20
0.0
  0
HATCH
  5
201
330
1F
100
AcDbEntity
  8
0
  6
Continuous
 62
     7
370
    18
100
AcDbHatch
 10
0.0
 20
0.0
 30
0.0
210
0.0
220
0.0
230
1.0
  2
ANSI31
 70
     0
 71
     0
 91
        1
 92
        0
 93
       12
 72
     1
 10
194.7012400628064
 20
122.9000477560247
 11
194.2012400628064
 21
123.4000477560247
 72
     1
 10
194.2012400628064
 20
123.4000477560247
 11
181.7012400628065
 21
123.4000477560247
 72
     1
 10
181.7012400628065
 20
123.4000477560247
 11
181.2012400628065
 21
122.9000477560247
 72
     1
 10
181.2012400628065
 20
122.9000477560247
 11
181.2012400628065
 21
122.4000477560247
 72
     1
 10
181.2012400628065
 20
122.4000477560247
 11
181.5964893547024
 21
122.0047984641287
 72
     1
 10
181.5964893547024
 20
122.0047984641287
 11
185.7012400627396
 21
122.0047984641287
 72
     1
 10
185.7012400627396
 20
122.0047984641287
 11
185.7012400627396
 21
121.9000477560247
 72
     1
 10
185.7012400627396
 20
121.9000477560247
 11
192.7012400628064
 21
121.9000477560247
 72
     1
 10
192.7012400628064
 20
121.9000477560247
 11
192.7012400628064
 21
122.0047984641287
 72
     1
 10
192.7012400628064
 20
122.0047984641287
 11
195.2012400628064
 21
122.0047984641287
 72
     1
 10
195.2012400628064
 20
122.0047984641287
 11
195.2012400628064
 21
122.9000477560247
 72
     1
 10
195.2012400628064
 20
122.9000477560247
 11
194.7012400628064
 21
122.9000477560247
 97
        0
 75
     0
 76
     1
 52
0.0
 41
1.0
 77
     0
 78
     1
 53
45.0
 43
0.0
 44
0.0
 45
-2.245064030267288
 46
2.245064030267288
 79
     0
 98
        1
 10
0.0
 20
0.0
  0
POINT
  5
202
330
1F
100
AcDbEntity
  8
VERMASSUNG
100
AcDbPoint
 10
230.7012400628
 20
130.900047756
 30
0.0
  0
POINT
  5
203
330
1F
100
AcDbEntity
  8
VERMASSUNG
100
AcDbPoint
 10
230.7012400628
 20
109.900047756
 30
0.0
  0
DIMENSION
  5
204
330
1F
100
AcDbEntity
  8
VERMASSUNG
100
AcDbDimension
  2
_D
 10
260.4607374827
 20
109.900047756
 30
0.0
 11
260.4607374827
 21
120.400047756
 31
0.0
 70
   160
  1
%%c<>
 71
     2
 42
-1.0
  3
SLDDIMSTYLE0
100
AcDbAlignedDimension
 13
230.7012400628
 23
130.900047756
 33
0.0
 14
230.7012400628
 24
109.900047756
 34
0.0
 50
90.0
100
AcDbRotatedDimension
  0
DIMENSION
  5
210
330
1F
100
AcDbEntity
  8
VERMASSUNG
100
AcDbDimension
  2
_D_1
 10
54.7562400628
 20
120.400047756
 30
0.0
 11
213.5063062632
 21
138.3834482861
 31
0.0
 70
   162
  1
<>
 71
     1
 42
-1.0
  3
SLDDIMSTYLE1
100
AcDb2LineAngularDimension
 13
228.8581582543
 23
131.0451014402
 33
0.0
 14
192.5826258543
 24
133.900047756
 34
0.0
 15
246.6962400628
 25
120.400047756
 35
0.0
 16
212.5534035054
 26
126.3549737057
 36
0.0
  0
DIMENSION
  5
21A
330
1F
100
AcDbEntity
  8
VERMASSUNG
100
AcDbDimension
  2
_D_2
 10
253.4700264174
 20
116.400047756
 30
0.0
 11
253.4700264174
 21
120.400047756
 31
0.0
 70
   160
  1
%%c<>
 71
     2
 42
-1.0
  3
SLDDIMSTYLE2
100
AcDbAlignedDimension
 13
227.2012400628
 23
124.400047756
 33
0.0
 14
227.2012400628
 24
116.400047756
 34
0.0
 50
90.0
100
AcDbRotatedDimension
  0
DIMENSION
  5
224
330
1F
100
AcDbEntity
  8
VERMASSUNG
100
AcDbDimension
  2
_D_3
 10
268.3230459985
 20
106.900047756
 30
0.0
 11
268.3230459985
 21
120.400047756
 31
0.0
 70
   160
  1
%%c<>
 71
     2
 42
-1.0
  3
SLDDIMSTYLE0
100
AcDbAlignedDimension
 13
192.5826258543
 23
133.900047756
 33
0.0
 14
192.5826258543
 24
106.900047756
 34
0.0
 50
90.0
100
AcDbRotatedDimension
  0
DIMENSION
  5
22F
330
1F
100
AcDbEntity
  8
VERMASSUNG
100
AcDbDimension
  2
_D_4
 10
204.7012400628
 20
148.0917676529
 30
0.0
 11
217.7012400628
 21
148.0917676529
 31
0.0
 70
   160
  1
<> min.
 71
     2
 42
-1.0
  3
SLDDIMSTYLE0
100
AcDbAlignedDimension
 13
230.7012400628
 23
129.0512667727
 33
0.0
 14
204.7012400628
 24
124.400047756
 34
0.0
100
AcDbRotatedDimension
  0
DIMENSION
  5
23A
330
1F
100
AcDbEntity
  8
VERMASSUNG
100
AcDbDimension
  2
_D_5
 10
194.2012400628
 20
155.4898450946
 30
0.0
 11
212.4512400628
 21
155.4898450946
 31
0.0
 70
   160
  1
<> max.
 71
     2
 42
-1.0
  3
SLDDIMSTYLE0
100
AcDbAlignedDimension
 13
230.7012400628
 23
129.0512667727
 33
0.0
 14
194.2012400628
 24
124.300047756
 34
0.0
 50
0.0
100
AcDbRotatedDimension
  0
DIMENSION
  5
245
330
1F
100
AcDbEntity
  8
VERMASSUNG
100
AcDbDimension
  2
_D_6
 10
230.7012400628
 20
91.0446011358
 30
0.0
 11
211.6419329585
 21
91.0446011358
 31
0.0
 70
   160
  1
<>
 71
     2
 42
-1.0
  3
SLDDIMSTYLE3
100
AcDbAlignedDimension
 13
192.5826258543
 23
106.900047756
 33
0.0
 14
230.7012400628
 24
111.7488287393
 34
0.0
 50
0.0
100
AcDbRotatedDimension
  0
DIMENSION
  5
250
330
1F
100
AcDbEntity
  8
VERMASSUNG
100
AcDbDimension
  2
_D_7
 10
128.7012400628
 20
83.7019996242
 30
0.0
 11
179.7012400628
 21
83.7019996242
 31
0.0
 70
   160
  1
<>
 71
     2
 42
-1.0
  3
SLDDIMSTYLE0
100
AcDbAlignedDimension
 13
230.7012400628
 23
111.7488287393
 33
0.0
 14
128.7012400628
 24
88.925047756
 34
0.0
 50
0.0
100
AcDbRotatedDimension
  0
DIMENSION
  5
25A
330
1F
100
AcDbEntity
  8
VERMASSUNG
100
AcDbDimension
  2
_D_8
 10
230.7012400628
 20
163.2458940253
 30
0.0
 11
170.7012400628
 21
163.2458940253
 31
0.0
 70
   160
  1
<>
 71
     2
 42
-1.0
  3
SLDDIMSTYLE0
100
AcDbAlignedDimension
 13
110.7012400628
 23
151.675047756
 33
0.0
 14
230.7012400628
 24
129.0512667727
 34
0.0
 50
0.0
100
AcDbRotatedDimension
  0
DIMENSION
  5
264
330
1F
100
AcDbEntity
  8
VERMASSUNG
100
AcDbDimension
  2
_D_9
 10
230.7012400628
 20
171.1719737813
 30
0.0
 11
150.7262400628
 21
171.1719737813
 31
0.0
 70
   160
  1
<>
 71
     2
 42
-1.0
  3
SLDDIMSTYLE0
100
AcDbAlignedDimension
 13
70.7512400628
 23
142.6031424798
 33
0.0
 14
230.7012400628
 24
129.0512667727
 34
0.0
 50
0.0
100
AcDbRotatedDimension
  0
DIMENSION
  5
26E
330
1F
100
AcDbEntity
  8
VERMASSUNG
100
AcDbDimension
  2
_D_10
 10
48.7512150628
 20
88.925047756
 30
0.0
 11
48.7512150628
 21
120.400047756
 31
0.0
 70
   160
  1
KM%%c<> XMZ
 71
     2
 42
-1.0
  3
SLDDIMSTYLE0
100
AcDbAlignedDimension
 13
110.9012400628
 23
151.875047756
 33
0.0
 14
110.9012400628
 24
88.925047756
 34
0.0
 50
90.0
100
AcDbRotatedDimension
  0
LINE
  5
27B
330
1F
100
AcDbEntity
  8
0
  6
Continuous
 62
     7
370
    25
100
AcDbLine
 10
258.3113580252
 20
29.1109352136
 30
0.0
 11
271.8095403601
 21
22.9643050073
 31
0.0
  0
LINE
  5
27C
330
1F
100
AcDbEntity
  8
0
  6
Continuous
 62
     7
370
    25
100
AcDbLine
 10
277.1233855505
 20
32.1691525609
 30
0.0
 11
265.0503483547
 21
40.7844734715
 31
0.0
  0
SPLINE
  5
27D
330
1F
100
AcDbEntity
  8
0
  6
Continuous
 62
     7
370
    25
100
AcDbSpline
210
0.0
220
0.0
230
1.0
 70
     8
 71
     3
 72
    28
 73
    24
 74
     0
 42
0.000000001
 43
0.00000001
 40
0.0
 40
0.0
 40
0.0
 40
0.0
 40
0.0240211744224515
 40
0.0696395420614969
 40
0.1158282927133162
 40
0.1635905801599953
 40
0.2133586162644557
 40
0.2648225961793782
 40
0.317189437060832
 40
0.3696620185668034
 40
0.4219505192013784
 40
0.4740600815648375
 40
0.526097082465967
 40
0.5782061021210161
 40
0.6304955399952645
 40
0.6831304307738422
 40
0.7362598110067885
 40
0.7899472794925093
 40
0.8439203644785602
 40
0.8914954147954857
 40
0.9371768392042175
 40
0.9814231168350797
 40
1.0
 40
1.0
 40
1.0
 40
1.0
 10
271.8291776634483
 20
22.9720692233824
 30
0.0
 10
271.9147481999859
 20
22.93078051799297
 30
0.0
 10
272.1628248707446
 20
22.81108085281156
 30
0.0
 10
272.6220432016059
 20
22.73367138596031
 30
0.0
 10
273.1824405260554
 20
22.73088019461302
 30
0.0
 10
273.76435927117
 20
22.84176426192228
 30
0.0
 10
274.3597846722795
 20
23.06002586299682
 30
0.0
 10
274.9594712890724
 20
23.38728033873988
 30
0.0
 10
275.5475930967937
 20
23.81653051259523
 30
0.0
 10
276.1076999495801
 20
24.33546518457558
 30
0.0
 10
276.6258035167708
 20
24.9288649468339
 30
0.0
 10
277.0911763149854
 20
25.58194987606588
 30
0.0
 10
277.494747865701
 20
26.28040371387742
 30
0.0
 10
277.8282057120637
 20
27.00982024103256
 30
0.0
 10
278.0839247291512
 20
27.75596245930366
 30
0.0
 10
278.2548142734696
 20
28.50497707299123
 30
0.0
 10
278.3337983933422
 20
29.24353039300836
 30
0.0
 10
278.313520318987
 20
29.95754837677279
 30
0.0
 10
278.1907561916051
 20
30.60452939619784
 30
0.0
 10
277.9776668039106
 20
31.1704458550324
 30
0.0
 10
277.6860926250717
 20
31.63743192107482
 30
0.0
 10
277.4021165660658
 20
31.96888260028457
 30
0.0
 10
277.1937768387431
 20
32.10409057124057
 30
0.0
 10
277.1321705342519
 20
32.14407172862902
 30
0.0
  0
SPLINE
  5
27E
330
1F
100
AcDbEntity
  8
0
  6
Continuous
 62
     7
370
    25
100
AcDbSpline
210
0.0
220
0.0
230
1.0
 70
     8
 71
     3
 72
    11
 73
     7
 74
     0
 42
0.000000001
 43
0.00000001
 40
0.0
 40
0.0
 40
0.0
 40
0.0
 40
0.1547893630506873
 40
0.4895702678978707
 40
0.8469941249045054
 40
0.9999999999999999
 40
0.9999999999999999
 40
0.9999999999999999
 40
0.9999999999999999
 10
273.5509043309418
 20
25.51191823568877
 30
0.0
 10
273.5233315636415
 20
25.53343272025652
 30
0.0
 10
273.436123975162
 20
25.60147907541898
 30
0.0
 10
273.3330866353109
 20
25.82051543940416
 30
0.0
 10
273.2689746806718
 20
26.09475897201771
 30
0.0
 10
273.2639550680038
 20
26.29122193774484
 30
0.0
 10
273.2624503942346
 20
26.35011346796808
 30
0.0
  0
SPLINE
  5
27F
330
1F
100
AcDbEntity
  8
0
  6
Continuous
 62
     7
370
    25
100
AcDbSpline
210
0.0
220
0.0
230
1.0
 70
     8
 71
     3
 72
    14
 73
    10
 74
     0
 42
0.000000001
 43
0.00000001
 40
0.0
 40
0.0
 40
0.0
 40
0.0
 40
0.1475428289789565
 40
0.3004696277347172
 40
0.4525674669525976
 40
0.6034435269608133
 40
0.7531680912901622
 40
0.9029542581914518
 40
1.0
 40
1.0
 40
1.0
 40
1.0
 10
273.7529202673912
 20
27.9820144016695
 30
0.0
 10
273.8424400304033
 20
28.12570174377035
 30
0.0
 10
274.0247462126371
 20
28.41831970758472
 30
0.0
 10
274.3579212535382
 20
28.79466994200003
 30
0.0
 10
274.7132216840159
 20
29.10017585011365
 30
0.0
 10
275.0704004647647
 20
29.31260944965815
 30
0.0
 10
275.4016558937723
 20
29.42121887086688
 30
0.0
 10
275.6594642933958
 20
29.44092739700672
 30
0.0
 10
275.7791631487249
 20
29.39516776013765
 30
0.0
 10
275.8262245852699
 20
29.37717665871133
 30
0.0
  0
SPLINE
  5
280
330
1F
100
AcDbEntity
  8
0
  6
Continuous
 62
     7
370
    25
100
AcDbSpline
210
0.0
220
0.0
230
1.0
 70
     8
 71
     3
 72
    12
 73
     8
 74
     0
 42
0.000000001
 43
0.00000001
 40
0.0
 40
0.0
 40
0.0
 40
0.0
 40
0.1451588708471715
 40
0.4251542541513308
 40
0.7067721410051624
 40
0.9895386336548969
 40
1.0
 40
1.0
 40
1.0
 40
1.0
 10
273.2624503942346
 20
26.35011346796808
 30
0.0
 10
273.2645987973536
 20
26.42215697500149
 30
0.0
 10
273.2708912321211
 20
26.63316442718456
 30
0.0
 10
273.3407274727663
 20
27.02154471550123
 30
0.0
 10
273.5047674230557
 20
27.49577474327421
 30
0.0
 10
273.6494563729719
 20
27.82608917249928
 30
0.0
 10
273.7493561840695
 20
27.97664315103336
 30
0.0
 10
273.7529202673912
 20
27.9820144016695
 30
0.0
  0
LINE
  5
281
330
1F
100
AcDbEntity
  8
0
  6
Continuous
 62
     7
370
    25
100
AcDbLine
 10
236.5934547846
 20
41.6363332861
 30
0.0
 11
258.1182763974
 21
29.2103182641
 31
0.0
  0
LINE
  5
282
330
1F
100
AcDbEntity
  8
0
  6
Continuous
 62
     7
370
    25
100
AcDbLine
 10
264.8677280357
 20
40.9019783217
 30
0.0
 11
243.3429064229
 21
53.3279933436
 31
0.0
  0
LINE
  5
283
330
1F
100
AcDbEntity
  8
0
  6
Continuous
 62
     7
370
    25
100
AcDbLine
 10
229.3544444518
 20
35.437734978
 30
0.0
 11
231.0394096009
 21
34.4650253022
 31
0.0
  0
LINE
  5
284
330
1F
100
AcDbEntity
  8
0
  6
Continuous
 62
     7
370
    25
100
AcDbLine
 10
246.7756309154
 20
61.723913696
 30
0.0
 11
245.0906657664
 21
62.6966233718
 31
0.0
  0
LINE
  5
285
330
1F
100
AcDbEntity
  8
0
  6
Continuous
 62
     7
370
    25
100
AcDbLine
 10
224.7461595205
 20
38.0980412427
 30
0.0
 11
226.9968104969
 21
36.7987680898
 31
0.0
  0
LINE
  5
286
330
1F
100
AcDbEntity
  8
0
  6
Continuous
 62
     7
370
    25
100
AcDbLine
 10
242.7330318114
 20
64.0576564836
 30
0.0
 11
240.482380835
 21
65.3569296365
 31
0.0
  0
LINE
  5
287
330
1F
100
AcDbEntity
  8
0
  6
Continuous
 62
     7
370
    25
100
AcDbLine
 10
233.7049916447
 20
65.1368115441
 30
0.0
 11
224.5077794611
 21
69.717464154
 31
0.0
  0
LINE
  5
288
330
1F
100
AcDbEntity
  8
0
  6
Continuous
 62
     7
370
    25
100
AcDbLine
 10
212.9814316715
 20
49.7510806983
 30
0.0
 11
221.5475316772
 21
44.0771911019
 31
0.0
  0
LINE
  5
289
330
1F
100
AcDbEntity
  8
0
  6
Continuous
 62
     7
370
    25
100
AcDbLine
 10
217.9608691132
 20
50.697570564
 30
0.0
 11
217.9608691132
 21
50.3322518589
 31
0.0
  0
LINE
  5
28A
330
1F
100
AcDbEntity
  8
0
  6
Continuous
 62
     7
370
    25
100
AcDbLine
 10
221.8588358735
 20
70.0944325307
 30
0.0
 11
221.2192857648
 21
70.0072207752
 31
0.0
  0
LWPOLYLINE
  5
28B
330
1F
100
AcDbEntity
  8
0
  6
Continuous
 62
     7
370
    25
100
AcDbPolyline
 90
       18
 70
   128
 43
0.0
 10
256.7200313198
 20
32.3007708441
 10
256.7686134652
 20
33.1132063875
 10
256.9133704384
 20
33.9651945626
 10
257.1513552527
 20
34.8393912459
 10
257.4777236547
 20
35.718000587
 10
257.8858315888
 20
36.5831363615
 10
258.3673711869
 20
37.4171874087
 10
258.9125393553
 20
38.2031742725
 10
259.5102384666
 20
38.9250968095
 10
260.1483009233
 20
39.568258505
 10
260.8137376346
 20
40.1195669513
 10
261.4930022166
 20
40.5677989161
 10
262.1722667985
 20
40.9038291441
 10
262.8377035098
 20
41.120817571
 10
263.4757659665
 20
41.2143471072
 10
264.0734650779
 20
41.1825132752
 10
264.6186332463
 20
41.0259641806
 10
265.0503483547
 20
40.7844734715
  0
ARC
  5
28C
330
1F
100
AcDbEntity
  8
0
  6
Continuous
 62
     7
370
    25
100
AcDbCircle
 10
259.9863944342
 20
31.9384214014
 30
0.0
 40
3.286400023406989
100
AcDbArc
 50
173.6698546487
 51
239.3569957006
  0
LINE
  5
28D
330
1F
100
AcDbEntity
  8
0
  6
Continuous
 62
     7
370
    25
100
AcDbLine
 10
275.8093307784
 20
29.3946081886
 30
0.0
 11
275.8387456566
 21
29.3845677936
 31
0.0
  0
LWPOLYLINE
  5
28E
330
1F
100
AcDbEntity
  8
0
  6
Continuous
 62
     7
370
    25
100
AcDbPolyline
 90
       11
 70
   128
 43
0.0
 10
275.0687006731
 20
29.2967744469
 10
275.0985540597
 20
29.2016823676
 10
275.1467423132
 20
28.8068282123
 10
275.0985540597
 20
28.3563370838
 10
274.9572735429
 20
27.8809093688
 10
274.7325286837
 20
27.4129446834
 10
274.4396354984
 20
26.9843339784
 10
274.0985541008
 20
26.6242863526
 10
273.7325286837
 20
26.3573383604
 10
273.3665032665
 20
26.2016824013
 10
273.2601832724
 20
26.1784413436
  0
LWPOLYLINE
  5
28F
330
1F
100
AcDbEntity
  8
0
  6
Continuous
 62
     7
370
    25
100
AcDbPolyline
 90
       39
 70
   128
 43
0.0
 10
227.7794272597
 20
41.6703581521
 10
227.8283241894
 20
42.901908007
 10
227.9745856076
 20
44.1790903778
 10
228.2169260352
 20
45.490681143
 10
228.5532157395
 20
46.8251543565
 10
228.9804998312
 20
48.1707822466
 10
229.4950226309
 20
49.5157392075
 10
230.0922625721
 20
50.8482061689
 10
230.7669717135
 20
52.1564736354
 10
231.513219862
 20
53.4290435843
 10
232.3244498898
 20
54.6547328833
 10
233.1935317355
 20
55.822770625
 10
234.1128285878
 20
56.9228918471
 10
235.0742610933
 20
57.9454285924
 10
236.0693804554
 20
58.8813946936
 10
237.0894418614
 20
59.7225646636
 10
238.125480298
 20
60.4615463612
 10
239.1683913874
 20
61.0918466679
 10
240.2090099187
 20
61.6079251881
 10
241.2381909314
 20
62.0052463812
 10
242.2468898104
 20
62.2803197157
 10
243.2262426291
 20
62.4307277988
 10
244.1676418815
 20
62.4551472822
 10
245.0628152606
 20
62.3533654421
 10
245.9038957938
 20
62.1262750398
 10
246.6834913191
 20
61.7758733641
 10
247.3947516564
 20
61.3052386512
 10
248.0314259013
 20
60.7185068848
 10
248.5879190596
 20
60.0208352888
 10
249.0593407798
 20
59.2183544133
 10
249.4415474999
 20
58.3181160394
 10
249.7311806429
 20
57.3280317678
 10
249.9256955927
 20
56.2568028635
 10
250.023382768
 20
55.1138434948
 10
250.023382768
 20
53.9091971756
 10
249.9256955927
 20
52.6534505951
 10
249.7311806429
 20
51.3576395101
 10
249.4415474999
 20
50.0331519296
 10
249.3910305507
 20
49.8364857569
  0
LWPOLYLINE
  5
290
330
1F
100
AcDbEntity
  8
0
  6
Continuous
 62
     7
370
    25
100
AcDbPolyline
 90
       22
 70
   128
 43
0.0
 10
242.6415789124
 20
38.1448260795
 10
242.2468898104
 20
37.7641732998
 10
241.2381909314
 20
36.8746276981
 10
240.2090099187
 20
36.083681787
 10
239.1683913874
 20
35.398287725
 10
238.125480298
 20
34.8244685182
 10
237.0894418614
 20
34.3672656984
 10
236.0693804554
 20
34.030697838
 10
235.0742610933
 20
33.8177235796
 10
234.1128285878
 20
33.7302139821
 10
233.1935317355
 20
33.768937651
 10
232.3244498898
 20
33.933554852
 10
231.513219862
 20
34.2226178976
 10
230.7669717135
 20
34.6335880739
 10
230.0922625721
 20
35.1628529472
 10
229.4950226309
 20
35.8057613501
 10
228.9804998312
 20
36.5566629313
 10
228.5532157395
 20
37.4089591101
 10
228.2169260352
 20
38.3551604956
 10
227.9745856076
 20
39.3869509587
 10
227.8283241894
 20
40.4952634906
 10
227.7794272597
 20
41.6703581521
  0
SPLINE
  5
291
330
1F
100
AcDbEntity
  8
0
  6
Continuous
 62
     7
370
    25
100
AcDbSpline
210
0.0
220
0.0
230
1.0
 70
     8
 71
     3
 72
    25
 73
    21
 74
     0
 42
0.000000001
 43
0.00000001
 40
0.0
 40
0.0
 40
0.0
 40
0.0
 40
0.1249999999999998
 40
0.1249999999999998
 40
0.2499999999999997
 40
0.2499999999999997
 40
0.3749999999999995
 40
0.3749999999999995
 40
0.4999999999999993
 40
0.4999999999999993
 40
0.5624999999999996
 40
0.5624999999999996
 40
0.6249999999999998
 40
0.6875000000000001
 40
0.6875000000000001
 40
0.7500000000000003
 40
0.7500000000000003
 40
0.8750000000000001
 40
0.8750000000000001
 40
1.0
 40
1.0
 40
1.0
 40
1.0
 10
232.6130164082256
 20
58.10217260659096
 30
0.0
 10
232.6421397064867
 20
57.99098708606178
 30
0.0
 10
232.6545287473459
 20
57.87574487363374
 30
0.0
 10
232.6475512622456
 20
57.63664930579794
 30
0.0
 10
232.6275336743936
 20
57.51187533592268
 30
0.0
 10
232.5573115166804
 20
57.26550642671026
 30
0.0
 10
232.5066608620866
 20
57.14129527934914
 30
0.0
 10
232.3767461184315
 20
56.89766678403898
 30
0.0
 10
232.2990451704422
 20
56.78060968898081
 30
0.0
 10
232.1636715882161
 20
56.61195317113078
 30
0.0
 10
232.115037090909
 20
56.55658614985861
 30
0.0
 10
232.013597755527
 20
56.45086633846159
 30
0.0
 10
231.9077277727862
 20
56.34970537984115
 30
0.0
 10
231.7931359804587
 20
56.25753105816435
 30
0.0
 10
231.6740533112405
 20
56.16999421542423
 30
0.0
 10
231.6120952981831
 20
56.12849574591205
 30
0.0
 10
231.4242315946626
 20
56.01437542417394
 30
0.0
 10
231.2948541583085
 20
55.95076799305935
 30
0.0
 10
231.0271709052465
 20
55.84949969208512
 30
0.0
 10
230.8912992187814
 20
55.81295878386032
 30
0.0
 10
230.7557819520538
 20
55.79179059951026
 30
0.0
  0
LWPOLYLINE
  5
292
330
1F
100
AcDbEntity
  8
0
  6
Continuous
 62
     7
370
    25
100
AcDbPolyline
 90
       14
 70
   128
 43
0.0
 10
232.6130165199
 20
58.1021726391
 10
233.6150028548
 20
59.1409000167
 10
234.650865707
 20
60.0850308069
 10
235.7108780448
 20
60.9256994954
 10
236.7850855977
 20
61.6550112964
 10
237.8634011923
 20
62.2661163838
 10
238.9356990484
 20
62.7532787759
 10
239.9919096087
 20
63.1119219536
 10
241.0221145758
 20
63.338678401
 10
242.0166402599
 20
63.4314191593
 10
242.966147183
 20
63.3892736145
 10
243.8617189815
 20
63.2126359526
 10
244.694945713
 20
62.9031668632
 10
245.0906657664
 20
62.6966233718
  0
LWPOLYLINE
  5
293
330
1F
100
AcDbEntity
  8
0
  6
Continuous
 62
     7
370
    25
100
AcDbPolyline
 90
       20
 70
   128
 43
0.0
 10
229.3544444518
 20
35.437734978
 10
229.3130694175
 20
35.4618736711
 10
228.59804023
 20
35.9677976379
 10
227.9627008548
 20
36.5947589067
 10
227.4129202407
 20
37.3369621996
 10
226.9537790585
 20
38.1875507064
 10
226.5895196518
 20
39.1386650252
 10
226.3235071833
 20
40.1815169313
 10
226.1581999994
 20
41.3064707487
 10
226.0951259236
 20
42.5031323393
 10
226.1348664504
 20
43.7604440071
 10
226.2770554293
 20
45.0667890861
 10
226.5203790639
 20
46.4100971452
 10
226.8625884248
 20
47.7779560253
 10
227.3005224982
 20
49.1577273198
 10
227.8301338697
 20
50.5366618677
 10
228.4465295536
 20
51.9020185727
 10
229.1440144568
 20
53.2411818895
 10
229.9161434045
 20
54.5417785512
 10
230.7557817253
 20
55.7917901111
  0
LWPOLYLINE
  5
294
330
1F
100
AcDbEntity
  8
0
  6
Continuous
 62
     7
370
    25
100
AcDbPolyline
 90
       12
 70
   128
 43
0.0
 10
230.9503951275
 20
58.2264491197
 10
231.8659741668
 20
59.2009310042
 10
232.8146868852
 20
60.0899061839
 10
233.7875899189
 20
60.8849957673
 10
234.7755120069
 20
61.5787045184
 10
235.7691401772
 20
62.1644934251
 10
236.759107869
 20
62.6368389363
 10
237.7360826834
 20
62.9912897025
 10
238.6908551637
 20
63.2245041396
 10
239.6144249821
 20
63.3342834532
 10
240.4980856861
 20
63.3195931851
 10
240.7509457037
 20
63.2913357527
  0
SPLINE
  5
295
330
1F
100
AcDbEntity
  8
0
  6
Continuous
 62
     7
370
    25
100
AcDbSpline
210
0.0
220
0.0
230
1.0
 70
     8
 71
     3
 72
    26
 73
    22
 74
     0
 42
0.000000001
 43
0.00000001
 40
0.0
 40
0.0
 40
0.0
 40
0.0
 40
0.1250000000000011
 40
0.1250000000000011
 40
0.2500000000000023
 40
0.2500000000000023
 40
0.3125000000000019
 40
0.3125000000000019
 40
0.3750000000000016
 40
0.3750000000000016
 40
0.4375000000000013
 40
0.4375000000000013
 40
0.500000000000001
 40
0.500000000000001
 40
0.5625000000000007
 40
0.5625000000000007
 40
0.6250000000000003
 40
0.6250000000000003
 40
0.7500000000000002
 40
0.7500000000000002
 40
1.0
 40
1.0
 40
1.0
 40
1.0
 10
229.606201922598
 20
56.55428583346578
 30
0.0
 10
229.582564326366
 20
56.66386169303878
 30
0.0
 10
229.5649965474843
 20
56.77475095140331
 30
0.0
 10
229.5461839646148
 20
57.00008091126625
 30
0.0
 10
229.5450041898474
 20
57.11575782458462
 30
0.0
 10
229.5611021930828
 20
57.28711333444418
 30
0.0
 10
229.569420910183
 20
57.34391184653835
 30
0.0
 10
229.59317805944
 20
57.45673805893544
 30
0.0
 10
229.608800438489
 20
57.51319091260158
 30
0.0
 10
229.647657650886
 20
57.62177402901018
 30
0.0
 10
229.6708836075885
 20
57.67415398923571
 30
0.0
 10
229.7258822570669
 20
57.77461076450783
 30
0.0
 10
229.7579605240895
 20
57.82288963227927
 30
0.0
 10
229.8283752726246
 20
57.91058660786302
 30
0.0
 10
229.8669536947512
 20
57.95057573583897
 30
0.0
 10
229.9506619583475
 20
58.02305441995457
 30
0.0
 10
229.9957906682893
 20
58.05539104433119
 30
0.0
 10
230.1350713104794
 20
58.13859081168484
 30
0.0
 10
230.2358603820411
 20
58.17741953432092
 30
0.0
 10
230.5389326532737
 20
58.2528358217761
 30
0.0
 10
230.7474567437588
 20
58.25270567540534
 30
0.0
 10
230.9503951634492
 20
58.22644944607912
 30
0.0
  0
LWPOLYLINE
  5
296
330
1F
100
AcDbEntity
  8
0
  6
Continuous
 62
     7
370
    25
100
AcDbPolyline
 90
       17
 70
   128
 43
0.0
 10
226.6692232936
 20
38.8984345434
 10
226.6087992009
 20
38.9781663822
 10
226.1226412302
 20
39.7480928438
 10
225.7305319763
 20
40.6234866835
 10
225.4364543165
 20
41.5954560054
 10
225.2433960671
 20
42.6541266789
 10
225.1533177151
 20
43.788744149
 10
225.1671346374
 20
44.987782659
 10
225.284706564
 20
46.2390619831
 10
225.5048388953
 20
47.5298708109
 10
225.8252958725
 20
48.8470968808
 10
226.2428216516
 20
50.1773593932
 10
226.7531752061
 20
51.50714437
 10
227.3511718149
 20
52.8229438149
 10
228.0307370636
 20
54.1113908814
 10
228.7849680886
 20
55.3593978903
 10
229.606202066
 20
56.5542856024
  0
LINE
  5
297
330
1F
100
AcDbEntity
  8
0
  6
Continuous
 62
     7
370
    25
100
AcDbLine
 10
228.1308096516
 20
36.3103646584
 30
0.0
 11
228.2524449625
 21
36.3678492649
 31
0.0
  0
LWPOLYLINE
  5
298
330
1F
100
AcDbEntity
  8
0
  6
Continuous
 62
     7
370
    25
100
AcDbPolyline
 90
       38
 70
   128
 43
0.0
 10
228.1308096516
 20
36.3103646584
 10
227.3271318123
 20
36.6234545808
 10
226.5903311433
 20
37.0590240847
 10
225.9269450161
 20
37.6132090249
 10
225.3428588429
 20
38.2810920764
 10
224.8432560276
 20
39.0567483665
 10
224.4325679161
 20
39.9332956706
 10
224.1144395522
 20
40.9029575333
 10
223.8916921408
 20
41.9571298128
 10
223.7663019737
 20
43.0864598658
 10
223.7393833084
 20
44.2809288218
 10
223.8111725623
 20
45.5299376597
 10
223.9810348985
 20
46.8224059718
 10
224.2474622501
 20
48.1468662619
 10
224.6080911009
 20
49.4915669383
 10
225.0597209244
 20
50.8445777794
 10
225.5983457946
 20
52.1938944939
 10
226.2191866539
 20
53.5275455628
 10
226.916735436
 20
54.8336990807
 10
227.6848024811
 20
56.1007650333
 10
228.5165731706
 20
57.3175028974
 10
229.4046691719
 20
58.4731163133
 10
230.3412096829
 20
59.5573530795
 10
231.3178861767
 20
60.5605939301
 10
232.3260330308
 20
61.4739366537
 10
233.3567055644
 20
62.2892784072
 10
234.4007594755
 20
62.9993851471
 10
235.4489315947
 20
63.59795726
 10
236.4919222034
 20
64.079682407
 10
237.5204775164
 20
64.4402884629
 10
238.5254720826
 20
64.6765743549
 10
239.4979888801
 20
64.786444894
 10
240.4293996586
 20
64.7689252159
 10
241.3114410017
 20
64.6241697094
 10
242.1362864372
 20
64.3534641011
 10
242.896618877
 20
63.9592087182
 10
243.5856908742
 20
63.4449030837
 10
243.8230698276
 20
63.2233541672
  0
LWPOLYLINE
  5
299
330
1F
100
AcDbEntity
  8
0
  6
Continuous
 62
     7
370
    25
100
AcDbPolyline
 90
       16
 70
   128
 43
0.0
 10
221.9143628184
 20
49.0808949233
 10
221.9236759548
 20
49.1236970835
 10
222.2599656591
 20
50.458170297
 10
222.6872497508
 20
51.8037981871
 10
223.2017725505
 20
53.148755148
 10
223.7990124917
 20
54.4812221094
 10
224.4737216331
 20
55.7894895759
 10
225.2199697816
 20
57.0620595248
 10
226.0311998094
 20
58.2877488238
 10
226.9002816551
 20
59.4557865654
 10
227.8195785074
 20
60.5559077876
 10
228.7810110129
 20
61.5784445329
 10
229.776130375
 20
62.514410634
 10
230.796191781
 20
63.3555806041
 10
231.8322302176
 20
64.0945623017
 10
232.5560868958
 20
64.5440315796
  0
LWPOLYLINE
  5
29A
330
1F
100
AcDbEntity
  8
0
  6
Continuous
 62
     7
370
    25
100
AcDbPolyline
 90
       24
 70
   128
 43
0.0
 10
221.486177061
 20
45.3850148334
 10
221.5347638162
 20
46.6087394592
 10
221.6800953695
 20
47.8778059721
 10
221.9208961201
 20
49.1810625887
 10
222.2550488475
 20
50.507056081
 10
222.6796177601
 20
51.8441335812
 10
223.1908708864
 20
53.1805447669
 10
223.7843162941
 20
54.5045450905
 10
224.4547376523
 20
55.8044984383
 10
225.1962442803
 20
57.0689820697
 10
226.0023192217
 20
58.286883952
 10
226.8658791717
 20
59.4474997137
 10
227.7793344049
 20
60.5406303585
 10
228.7346579223
 20
61.5566693316
 10
229.7234542693
 20
62.4866886359
 10
230.7370336217
 20
63.3225135403
 10
231.7664888358
 20
64.0567997596
 10
232.8027729918
 20
64.6830949498
 10
233.8367792424
 20
65.1958939289
 10
234.8594204965
 20
65.5906907612
 10
235.8617100911
 20
65.8640162027
 10
236.8348393349
 20
66.0134672569
 10
237.7702570275
 20
66.0377325474
 10
238.535507807
 20
65.9587473172
  0
LWPOLYLINE
  5
29B
330
1F
100
AcDbEntity
  8
0
  6
Continuous
 62
     7
370
    25
100
AcDbPolyline
 90
        3
 70
   128
 43
0.0
 10
221.6385688699
 20
43.360410673
 10
221.5347638162
 20
44.2173872812
 10
221.5053439989
 20
44.6445904797
  0
SPLINE
  5
29C
330
1F
100
AcDbEntity
  8
0
  6
Continuous
 62
     7
370
    25
100
AcDbSpline
210
0.0
220
0.0
230
1.0
 70
     8
 71
     3
 72
    10
 73
     6
 74
     0
 42
0.000000001
 43
0.00000001
 40
0.0
 40
0.0
 40
0.0
 40
0.0
 40
0.5
 40
0.5
 40
1.0
 40
1.0
 40
1.0
 40
1.0
 10
230.3328899902293
 20
55.09123255264605
 30
0.0
 10
230.2289254994451
 20
55.16457092571643
 30
0.0
 10
230.1391172230177
 20
55.25180668350984
 30
0.0
 10
229.9870747950191
 20
55.45273722470584
 30
0.0
 10
229.9251692066581
 20
55.56690799090281
 30
0.0
 10
229.8807195020676
 20
55.68992567406291
 30
0.0
  0
SPLINE
  5
29D
330
1F
100
AcDbEntity
  8
0
  6
Continuous
 62
     7
370
    25
100
AcDbSpline
210
0.0
220
0.0
230
1.0
 70
     8
 71
     3
 72
    14
 73
    10
 74
     0
 42
0.000000001
 43
0.00000001
 40
0.0
 40
0.0
 40
0.0
 40
0.0
 40
0.25
 40
0.25
 40
0.5
 40
0.5
 40
0.75
 40
0.75
 40
1.0
 40
1.0
 40
1.0
 40
1.0
 10
229.8807195020676
 20
55.68992567406291
 30
0.0
 10
229.8579986992025
 20
55.75280709372045
 30
0.0
 10
229.8360841888531
 20
55.82185352319387
 30
0.0
 10
229.7939731347903
 20
55.96950603981264
 30
0.0
 10
229.7744515808772
 20
56.04590582667095
 30
0.0
 10
229.7361053387035
 20
56.20023811806654
 30
0.0
 10
229.7177457458196
 20
56.27719071439819
 30
0.0
 10
229.675742301238
 20
56.42258088191418
 30
0.0
 10
229.6519659802249
 20
56.4891717881072
 30
0.0
 10
229.6235044761227
 20
56.52966740333855
 30
0.0
  0
LINE
  5
29E
330
1F
100
AcDbEntity
  8
0
  6
Continuous
 62
     7
370
    25
100
AcDbLine
 10
229.6235046644
 20
56.5296677951
 30
0.0
 11
229.606202066
 21
56.5542856024
 31
0.0
  0
LINE
  5
29F
330
1F
100
AcDbEntity
  8
0
  6
Continuous
 62
     7
370
    25
100
AcDbLine
 10
230.9503951275
 20
58.2264491197
 30
0.0
 11
230.9676977259
 21
58.2018313123
 31
0.0
  0
SPLINE
  5
2A0
330
1F
100
AcDbEntity
  8
0
  6
Continuous
 62
     7
370
    25
100
AcDbSpline
210
0.0
220
0.0
230
1.0
 70
     8
 71
     3
 72
    16
 73
    12
 74
     0
 42
0.000000001
 43
0.00000001
 40
0.0
 40
0.0
 40
0.0
 40
0.0
 40
0.1250000000000001
 40
0.1250000000000001
 40
0.2500000000000003
 40
0.2500000000000003
 40
0.5000000000000002
 40
0.5000000000000002
 40
0.7500000000000001
 40
0.7500000000000001
 40
1.0
 40
1.0
 40
1.0
 40
1.0
 10
230.967697716974
 20
58.20183101595183
 30
0.0
 10
230.9818501233781
 20
58.18169468013903
 30
0.0
 10
231.0035085278517
 20
58.16489725946161
 30
0.0
 10
231.055926456887
 20
58.13805173813012
 30
0.0
 10
231.0865193360254
 20
58.12782625356915
 30
0.0
 10
231.1856001848829
 20
58.10332581313646
 30
0.0
 10
231.2594827224988
 20
58.09506589073496
 30
0.0
 10
231.4125823148901
 20
58.08387992403004
 30
0.0
 10
231.4906662895377
 20
58.08128325227885
 30
0.0
 10
231.6500099232799
 20
58.07925425144515
 30
0.0
 10
231.7286628181114
 20
58.07989184010736
 30
0.0
 10
231.804415285904
 20
58.08298494092241
 30
0.0
  0
SPLINE
  5
2A1
330
1F
100
AcDbEntity
  8
0
  6
Continuous
 62
     7
370
    25
100
AcDbSpline
210
0.0
220
0.0
230
1.0
 70
     8
 71
     3
 72
    10
 73
     6
 74
     0
 42
0.000000001
 43
0.00000001
 40
0.0
 40
0.0
 40
0.0
 40
0.0
 40
0.5
 40
0.5
 40
1.0
 40
1.0
 40
1.0
 40
1.0
 10
231.804415285904
 20
58.08298494092241
 30
0.0
 10
231.9526096258048
 20
58.08903596535617
 30
0.0
 10
232.0948340915354
 20
58.07887373514304
 30
0.0
 10
232.3672254818761
 20
58.02782329920296
 30
0.0
 10
232.4973528117447
 20
57.98646219655841
 30
0.0
 10
232.61542815393
 20
57.93068832860612
 30
0.0
  0
ARC
  5
2A2
330
1F
100
AcDbEntity
  8
0
  6
Continuous
 62
     7
370
    25
100
AcDbCircle
 10
215.2854681043
 20
53.1946186342
 30
0.0
 40
4.143252031907231
100
AcDbArc
 50
211.7444095219
 51
236.2139194594
  0
SPLINE
  5
2A3
330
1F
100
AcDbEntity
  8
0
  6
Continuous
 62
     7
370
    25
100
AcDbSpline
210
0.0
220
0.0
230
1.0
 70
     8
 71
     3
 72
     8
 73
     4
 74
     0
 42
0.000000001
 43
0.00000001
 40
0.0
 40
0.0
 40
0.0
 40
0.0
 40
1.0
 40
1.0
 40
1.0
 40
1.0
 10
213.1924744847932
 20
50.08998390936746
 30
0.0
 10
212.7157011929691
 20
50.3980767173001
 30
0.0
 10
212.2388988161242
 20
50.70630616287286
 30
0.0
 10
211.7620663715986
 20
51.01467131909277
 30
0.0
  0
SPLINE
  5
2A4
330
1F
100
AcDbEntity
  8
0
  6
Continuous
 62
     7
370
    25
100
AcDbSpline
210
0.0
220
0.0
230
1.0
 70
     8
 71
     3
 72
    23
 73
    19
 74
     0
 42
0.000000001
 43
0.00000001
 40
0.0
 40
0.0
 40
0.0
 40
0.0
 40
0.0521036415683759
 40
0.1035646240941235
 40
0.1544751946756683
 40
0.2049306267495642
 40
0.2550287880866983
 40
0.3048696389163111
 40
0.354554670462894
 40
0.4041862979539558
 40
0.453867225213789
 40
0.5036997999428097
 40
0.590187023078111
 40
0.6742716378282376
 40
0.7565997087281883
 40
0.8378563983773627
 40
0.9187511781400207
 40
0.9999999999999999
 40
0.9999999999999999
 40
0.9999999999999999
 40
0.9999999999999999
 10
214.0730392883349
 20
49.91525321124736
 30
0.0
 10
214.0677703493951
 20
49.90533174901198
 30
0.0
 10
214.0572974598954
 20
49.88561119827996
 30
0.0
 10
214.0380511641334
 20
49.8610433693265
 30
0.0
 10
214.0162554238012
 20
49.84035478706639
 30
0.0
 10
213.9916041325966
 20
49.82382385176891
 30
0.0
 10
213.9641076180579
 20
49.8113063521926
 30
0.0
 10
213.9336965640504
 20
49.80277172837041
 30
0.0
 10
213.9003261922776
 20
49.79816185572288
 30
0.0
 10
213.8639503040052
 20
49.79742711258728
 30
0.0
 10
213.8245219324154
 20
49.80052219513974
 30
0.0
 10
213.7716735408629
 20
49.8090579706211
 30
0.0
 10
213.7031345470895
 20
49.82665440947069
 30
0.0
 10
213.6154133151325
 20
49.8582910175583
 30
0.0
 10
213.5206823956377
 20
49.90047067489154
 30
0.0
 10
213.4186481483088
 20
49.95320711061783
 30
0.0
 10
213.3097342351227
 20
50.01552366652668
 30
0.0
 10
213.2316179241392
 20
50.0651277247761
 30
0.0
 10
213.1924744847932
 20
50.08998390936745
 30
0.0
  0
SPLINE
  5
2A5
330
1F
100
AcDbEntity
  8
0
  6
Continuous
 62
     7
370
    25
100
AcDbSpline
210
0.0
220
0.0
230
1.0
 70
     8
 71
     3
 72
     8
 73
     4
 74
     0
 42
0.000000001
 43
0.00000001
 40
0.0
 40
0.0
 40
0.0
 40
0.0
 40
1.0
 40
1.0
 40
1.0
 40
1.0
 10
215.5465423147927
 20
48.96793307468858
 30
0.0
 10
215.05517500275
 20
49.28380769465693
 30
0.0
 10
214.5637888028224
 20
49.59979371594726
 30
0.0
 10
214.0723830926771
 20
49.91589059679081
 30
0.0
  0
SPLINE
  5
2A6
330
1F
100
AcDbEntity
  8
0
  6
Continuous
 62
     7
370
    25
100
AcDbSpline
210
0.0
220
0.0
230
1.0
 70
     8
 71
     3
 72
    18
 73
    14
 74
     0
 42
0.000000001
 43
0.00000001
 40
0.0
 40
0.0
 40
0.0
 40
0.0
 40
0.0923824559461122
 40
0.1844689291660427
 40
0.2764953616062392
 40
0.3686975365619641
 40
0.4613092840130473
 40
0.5545607518559533
 40
0.6486768051632873
 40
0.7438756050210469
 40
0.8403674044324065
 40
0.9203921078135461
 40
1.0
 40
1.0
 40
1.0
 40
1.0
 10
216.3601064339883
 20
48.32362535014682
 30
0.0
 10
216.336538919864
 20
48.33889932441313
 30
0.0
 10
216.2894793992105
 20
48.36939833689512
 30
0.0
 10
216.2170816112449
 20
48.41903090950775
 30
0.0
 10
216.1435994023476
 20
48.47136045217744
 30
0.0
 10
216.0688999546017
 20
48.52667813788587
 30
0.0
 10
215.9930391648336
 20
48.58491645299944
 30
0.0
 10
215.9160278840478
 20
48.64610936463643
 30
0.0
 10
215.8378957519685
 20
48.71027308121682
 30
0.0
 10
215.7586695173274
 20
48.77742204108218
 30
0.0
 10
215.6833730329199
 20
48.84327295082714
 30
0.0
 10
215.6125457247998
 20
48.90680453763453
 30
0.0
 10
215.5686413539935
 20
48.9474652826476
 30
0.0
 10
215.5467464871886
 20
48.96774257121584
 30
0.0
  0
LINE
  5
2A7
330
1F
100
AcDbEntity
  8
0
  6
Continuous
 62
     7
370
    25
100
AcDbLine
 10
216.9998129658
 20
47.9118715436
 30
0.0
 11
216.3601061235
 21
48.3236252113
 31
0.0
  0
SPLINE
  5
2A8
330
1F
100
AcDbEntity
  8
0
  6
Continuous
 62
     7
370
    25
100
AcDbSpline
210
0.0
220
0.0
230
1.0
 70
     8
 71
     3
 72
    25
 73
    21
 74
     0
 42
0.000000001
 43
0.00000001
 40
0.0
 40
0.0
 40
0.0
 40
0.0
 40
0.0280105225426455
 40
0.0559601148860774
 40
0.0839014045043129
 40
0.1118870776786379
 40
0.1399695827588941
 40
0.1682008401739877
 40
0.1966319670424218
 40
0.2253130233141493
 40
0.2542927850735863
 40
0.3799486436570518
 40
0.505785022166658
 40
0.6313085886329272
 40
0.7532068238012843
 40
0.8039473267959846
 40
0.8535894438560211
 40
0.902533972239985
 40
0.9511970353794947
 40
1.0
 40
1.0
 40
1.0
 40
1.0
 10
218.1021785589786
 20
48.62777753402389
 30
0.0
 10
218.1071266665092
 20
48.60015367291641
 30
0.0
 10
218.1170121181447
 20
48.54496603981109
 30
0.0
 10
218.1285477677479
 20
48.46580533244117
 30
0.0
 10
218.1376208895607
 20
48.38950199334279
 30
0.0
 10
218.1439896982736
 20
48.31630623237317
 30
0.0
 10
218.1477059370837
 20
48.24615876415979
 30
0.0
 10
218.1487425580665
 20
48.179082477647
 30
0.0
 10
218.1470940828396
 20
48.11507856842056
 30
0.0
 10
218.1427479309708
 20
48.05414971515374
 30
0.0
 10
218.1278916064033
 20
47.93226159365761
 30
0.0
 10
218.0828033493371
 20
47.77736072200357
 30
0.0
 10
217.9694438288463
 20
47.64641760366008
 30
0.0
 10
217.8076196068533
 20
47.59054120284728
 30
0.0
 10
217.6336043877199
 20
47.61041525523183
 30
0.0
 10
217.4822434670323
 20
47.65773305758828
 30
0.0
 10
217.3718432343335
 20
47.70264848132395
 30
0.0
 10
217.2546837388848
 20
47.76002421261509
 30
0.0
 10
217.1311180719514
 20
47.82870127706754
 30
0.0
 10
217.0436230218569
 20
47.88412152302037
 30
0.0
 10
216.9998127021756
 20
47.91187142075044
 30
0.0
  0
ARC
  5
2A9
330
1F
100
AcDbEntity
  8
0
  6
Continuous
 62
     7
370
    25
100
AcDbCircle
 10
229.2951997234
 20
50.4138279026
 30
0.0
 40
11.33462419218321
100
AcDbArc
 50
170.9338462887
 51
189.0661537113
  0
SPLINE
  5
2AA
330
1F
100
AcDbEntity
  8
0
  6
Continuous
 62
     7
370
    25
100
AcDbSpline
210
0.0
220
0.0
230
1.0
 70
     8
 71
     3
 72
    26
 73
    22
 74
     0
 42
0.000000001
 43
0.00000001
 40
0.0
 40
0.0
 40
0.0
 40
0.0
 40
0.0241259796963637
 40
0.048215991227299
 40
0.0723203915124064
 40
0.0964895678710793
 40
0.120773623196351
 40
0.1452220711242841
 40
0.1698835501657706
 40
0.1948055644472381
 40
0.2200342569517629
 40
0.2456142191611394
 40
0.3690971486901671
 40
0.4940698769485191
 40
0.6192566784762444
 40
0.7454656653603234
 40
0.7971495824713715
 40
0.8481710308405401
 40
0.8988013269235245
 40
0.9493179290492194
 40
1.0
 40
1.0
 40
1.0
 40
1.0
 10
216.9998127021756
 20
55.675981812115
 30
0.0
 10
217.0215309315516
 20
55.66165028871993
 30
0.0
 10
217.0649350117278
 20
55.63300860805087
 30
0.0
 10
217.1282421290892
 20
55.58501631012206
 30
0.0
 10
217.1901036968071
 20
55.53341711223639
 30
0.0
 10
217.2504082119436
 20
55.47784231936316
 30
0.0
 10
217.3091980638835
 20
55.418387078736
 30
0.0
 10
217.3664785823132
 20
55.3550227698986
 30
0.0
 10
217.4222697216395
 20
55.28775399193468
 30
0.0
 10
217.4765909690613
 20
55.21657987797455
 30
0.0
 10
217.5294699442702
 20
55.14149073822627
 30
0.0
 10
217.6462647690066
 20
54.96223628952442
 30
0.0
 10
217.808134326933
 20
54.65193081768103
 30
0.0
 10
217.9713192344649
 20
54.18201702954935
 30
0.0
 10
218.0828306396383
 20
53.6830539956393
 30
0.0
 10
218.1299644777468
 20
53.27417032258231
 30
0.0
 10
218.1450834172793
 20
52.96989836599159
 30
0.0
 10
218.1470365562619
 20
52.76864912429627
 30
0.0
 10
218.1405585306227
 20
52.57298920457369
 30
0.0
 10
218.1264316079356
 20
52.38235291667621
 30
0.0
 10
218.1102717162506
 20
52.26076964293741
 30
0.0
 10
218.1021785589786
 20
52.19987860633852
 30
0.0
  0
LINE
  5
2AB
330
1F
100
AcDbEntity
  8
0
  6
Continuous
 62
     7
370
    25
100
AcDbLine
 10
216.3601061235
 20
56.0889566624
 30
0.0
 11
216.9998129658
 21
55.6759816914
 31
0.0
  0
SPLINE
  5
2AC
330
1F
100
AcDbEntity
  8
0
  6
Continuous
 62
     7
370
    25
100
AcDbSpline
210
0.0
220
0.0
230
1.0
 70
     8
 71
     3
 72
    14
 73
    10
 74
     0
 42
0.000000001
 43
0.00000001
 40
0.0
 40
0.0
 40
0.0
 40
0.0
 40
0.0789261963152472
 40
0.1582328720511064
 40
0.3308475394503796
 40
0.5000195457530386
 40
0.6670357883499396
 40
0.8332395193610692
 40
1.0
 40
1.0
 40
1.0
 40
1.0
 10
215.5461537181383
 20
56.29753909539797
 30
0.0
 10
215.5678705994735
 20
56.29914225925673
 30
0.0
 10
215.611409052688
 20
56.30235631534431
 30
0.0
 10
215.702934171335
 20
56.30317735541382
 30
0.0
 10
215.8198425047662
 20
56.29524137363233
 30
0.0
 10
215.960662843147
 20
56.26896570475548
 30
0.0
 10
216.0978751509595
 20
56.22600810622313
 30
0.0
 10
216.231805825378
 20
56.16765098141227
 30
0.0
 10
216.3172919173389
 20
56.11521743526109
 30
0.0
 10
216.3601064339883
 20
56.0889568251059
 30
0.0
  0
SPLINE
  5
2AD
330
1F
100
AcDbEntity
  8
0
  6
Continuous
 62
     7
370
    25
100
AcDbSpline
210
0.0
220
0.0
230
1.0
 70
     8
 71
     3
 72
     8
 73
     4
 74
     0
 42
0.000000001
 43
0.00000001
 40
0.0
 40
0.0
 40
0.0
 40
0.0
 40
1.0
 40
1.0
 40
1.0
 40
1.0
 10
213.7438501351326
 20
57.45993050681231
 30
0.0
 10
214.3446083588295
 20
57.07266302365289
 30
0.0
 10
214.9453372216907
 20
56.68519567372908
 30
0.0
 10
215.5460378660384
 20
56.29752878113895
 30
0.0
  0
SPLINE
  5
2AE
330
1F
100
AcDbEntity
  8
0
  6
Continuous
 62
     7
370
    25
100
AcDbSpline
210
0.0
220
0.0
230
1.0
 70
     8
 71
     3
 72
    13
 73
     9
 74
     0
 42
0.000000001
 43
0.00000001
 40
0.0
 40
0.0
 40
0.0
 40
0.0
 40
0.1667030582307959
 40
0.3329480818053031
 40
0.4990671507274871
 40
0.6653938523718408
 40
0.8322612710550125
 40
1.0
 40
1.0
 40
1.0
 40
1.0
 10
213.4020216000982
 20
57.76099528589809
 30
0.0
 10
213.4223227825382
 20
57.74743017921886
 30
0.0
 10
213.4628693677269
 20
57.72033723745601
 30
0.0
 10
213.5220190047145
 20
57.6751426644483
 30
0.0
 10
213.579790549617
 20
57.62673151596534
 30
0.0
 10
213.6360402870766
 20
57.57469640119488
 30
0.0
 10
213.6909674958227
 20
57.51939843398587
 30
0.0
 10
213.7261882054133
 20
57.4797811788255
 30
0.0
 10
213.7438444173542
 20
57.45992096982457
 30
0.0
  0
SPLINE
  5
2AF
330
1F
100
AcDbEntity
  8
0
  6
Continuous
 62
     7
370
    25
100
AcDbSpline
210
0.0
220
0.0
230
1.0
 70
     8
 71
     3
 72
     8
 73
     4
 74
     0
 42
0.000000001
 43
0.00000001
 40
0.0
 40
0.0
 40
0.0
 40
0.0
 40
1.0
 40
1.0
 40
1.0
 40
1.0
 10
211.4580410843075
 20
59.01571713827756
 30
0.0
 10
212.1060711567078
 20
58.5977218223928
 30
0.0
 10
212.7540641338097
 20
58.17948105997517
 30
0.0
 10
213.4020216000982
 20
57.76099528589808
 30
0.0
  0
LWPOLYLINE
  5
2B0
330
1F
100
AcDbEntity
  8
0
  6
Continuous
 62
     7
370
    25
100
AcDbPolyline
 90
       19
 70
   128
 43
0.0
 10
211.4580417346
 20
59.0157171888
 10
211.8609339962
 20
60.1826811742
 10
212.3508891345
 20
61.3426855989
 10
212.9218893698
 20
62.481482995
 10
213.5669205445
 20
63.5850856858
 10
214.2780610267
 20
64.6399403043
 10
215.0465762113
 20
65.6330899529
 10
215.86302718
 20
66.5523365517
 10
216.7173861108
 20
67.3863907343
 10
217.5991594263
 20
68.1250068183
 10
218.4975170739
 20
68.7591144718
 10
219.4014252228
 20
69.2809242158
 10
220.2997818826
 20
69.684027768
 10
221.1815533047
 20
69.9634745048
 10
222.0359092721
 20
70.1158313108
 10
222.8523566187
 20
70.1392277189
 10
223.6208671936
 20
70.0333757894
 10
224.3320024074
 20
69.7995758487
 10
224.5077794611
 20
69.717464154
  0
SPLINE
  5
2B1
330
1F
100
AcDbEntity
  8
0
  6
Continuous
 62
     7
370
    25
100
AcDbSpline
210
0.0
220
0.0
230
1.0
 70
    11
 71
     3
 72
    39
 73
    35
 74
     0
 42
0.000000001
 43
0.00000001
 40
0.0
 40
0.0
 40
0.0
 40
0.0
 40
0.0310664058350965
 40
0.0621048158425859
 40
0.093136155179263
 40
0.1235538293503448
 40
0.1538561545806855
 40
0.1850588072748946
 40
0.2160250992945718
 40
0.2471867223797388
 40
0.2784462884305076
 40
0.3100516090231096
 40
0.3419834369141944
 40
0.3734259894013148
 40
0.4048604886786042
 40
0.4368740651833136
 40
0.4685120685925458
 40
0.4998055358633138
 40
0.5309508213230685
 40
0.5618649784438015
 40
0.5930416446594986
 40
0.6233742450133227
 40
0.6540913579075065
 40
0.6849496782718291
 40
0.71581606451649
 40
0.7471731804043279
 40
0.7784514311862922
 40
0.8101295911560753
 40
0.8419598919688862
 40
0.8735175891922173
 40
0.9050808037887091
 40
0.9370235169792366
 40
0.968744159003463
 40
1.0
 40
1.0
 40
1.0
 40
1.0
 10
224.6666265655129
 20
68.020907513619
 30
0.0
 10
224.9295121857132
 20
67.99237302632798
 30
0.0
 10
225.4564007961959
 20
67.90643053800483
 30
0.0
 10
226.2204128652697
 20
67.70605541793542
 30
0.0
 10
226.9275630533184
 20
67.45905331171637
 30
0.0
 10
227.5404741179127
 20
67.18107143356431
 30
0.0
 10
228.0376054435871
 20
66.88693773623442
 30
0.0
 10
228.3967971646594
 20
66.58543120804238
 30
0.0
 10
228.6185164334202
 20
66.27843370313902
 30
0.0
 10
228.6837683108015
 20
65.96792844173716
 30
0.0
 10
228.5969210996884
 20
65.64878395698793
 30
0.0
 10
228.354575511928
 20
65.31946399141486
 30
0.0
 10
227.9746376492025
 20
64.98052326985706
 30
0.0
 10
227.4608316960422
 20
64.64268480544675
 30
0.0
 10
226.8349408851314
 20
64.31678690413915
 30
0.0
 10
226.1214698986428
 20
64.02014001089809
 30
0.0
 10
225.3575674223787
 20
63.76403670245807
 30
0.0
 10
224.5717743394722
 20
63.57500913446965
 30
0.0
 10
223.7902368844317
 20
63.46683321241611
 30
0.0
 10
223.0341238996762
 20
63.45916932904726
 30
0.0
 10
222.3317593132865
 20
63.55709136443375
 30
0.0
 10
221.7127389662424
 20
63.77873979793734
 30
0.0
 10
221.2036817012331
 20
64.11460788484929
 30
0.0
 10
220.8307381077983
 20
64.55441845102818
 30
0.0
 10
220.6021361565534
 20
65.06549309155047
 30
0.0
 10
220.5332898498312
 20
65.61667817931111
 30
0.0
 10
220.617906263055
 20
66.17435010762397
 30
0.0
 10
220.861015052991
 20
66.70443024854345
 30
0.0
 10
221.2431448958078
 20
67.17695459765832
 30
0.0
 10
221.7592804702204
 20
67.56307610855117
 30
0.0
 10
222.3862583307229
 20
67.84670029588332
 30
0.0
 10
223.1021657630892
 20
68.01643751461076
 30
0.0
 10
223.8706091552733
 20
68.07797634932358
 30
0.0
 10
224.4021379346467
 20
68.04961599706631
 30
0.0
 10
224.6666265655129
 20
68.020907513619
 30
0.0
  0
LINE
  5
2B2
330
1F
100
AcDbEntity
  8
0
  6
Continuous
 62
     7
370
    25
100
AcDbLine
 10
215.4420891525
 20
51.5817808962
 30
0.0
 11
215.75284083
 21
51.4154001957
 31
0.0
  0
LINE
  5
2B3
330
1F
100
AcDbEntity
  8
0
  6
Continuous
 62
     7
370
    25
100
AcDbLine
 10
214.4551311325
 20
52.1515396335
 30
0.0
 11
215.4420891525
 21
51.5817808962
 31
0.0
  0
ARC
  5
2B4
330
1F
100
AcDbEntity
  8
0
  6
Continuous
 62
     7
370
    25
100
AcDbCircle
 10
216.6761010434
 20
55.7450203975
 30
0.0
 40
4.484274790565918
100
AcDbArc
 50
267.6840627222
 51
286.9866336569
  0
SPLINE
  5
2B5
330
1F
100
AcDbEntity
  8
0
  6
Continuous
 62
     7
370
    25
100
AcDbSpline
210
0.0
220
0.0
230
1.0
 70
     8
 71
     3
 72
    12
 73
     8
 74
     0
 42
0.000000001
 43
0.00000001
 40
0.0
 40
0.0
 40
0.0
 40
0.0
 40
0.1523598330305601
 40
0.3826801306822303
 40
0.6138741683107227
 40
0.8254372814239916
 40
1.0
 40
1.0
 40
1.0
 40
1.0
 10
226.0051325238123
 20
65.01841179828324
 30
0.0
 10
225.8001651854304
 20
65.130558198016
 30
0.0
 10
225.2853514955138
 20
65.41223479250705
 30
0.0
 10
224.2722761682246
 20
65.82840076497413
 30
0.0
 10
223.0648973872655
 20
66.11164239292165
 30
0.0
 10
221.9625669019146
 20
66.14258923566244
 30
0.0
 10
221.3976278693836
 20
65.93486185834074
 30
0.0
 10
221.1422259116413
 20
65.84095087717357
 30
0.0
  0
SPLINE
  5
2B6
330
1F
100
AcDbEntity
  8
0
  6
Continuous
 62
     7
370
    25
100
AcDbSpline
210
0.0
220
0.0
230
1.0
 70
     8
 71
     3
 72
    10
 73
     6
 74
     0
 42
0.000000001
 43
0.00000001
 40
0.0
 40
0.0
 40
0.0
 40
0.0
 40
0.3798174073072795
 40
0.9603711649033085
 40
1.0
 40
1.0
 40
1.0
 40
1.0
 10
227.1450126456717
 20
64.49018487076478
 30
0.0
 10
227.0153600284233
 20
64.56051343260214
 30
0.0
 10
226.6875324126689
 20
64.73833972902325
 30
0.0
 10
226.2796038676587
 20
64.91139257942565
 30
0.0
 10
226.0229710862268
 20
65.01059801167398
 30
0.0
 10
226.0065725960151
 20
65.01693710561435
 30
0.0
  0
SPLINE
  5
2B7
330
1F
100
AcDbEntity
  8
0
  6
Continuous
 62
     7
370
    25
100
AcDbSpline
210
0.0
220
0.0
230
1.0
 70
     8
 71
     3
 72
    24
 73
    20
 74
     0
 42
0.000000001
 43
0.00000001
 40
0.0
 40
0.0
 40
0.0
 40
0.0
 40
0.0618858212107145
 40
0.1150115607194259
 40
0.1593831488268445
 40
0.2428114970815824
 40
0.318331853291959
 40
0.3935543804326023
 40
0.4204843226990471
 40
0.4483397435477174
 40
0.4771286702554668
 40
0.5451537905345539
 40
0.6363475754294583
 40
0.6968782859867285
 40
0.7498596693403015
 40
0.7959701295389731
 40
0.8771179302751783
 40
0.9543004207779655
 40
1.0
 40
1.0
 40
1.0
 40
1.0
 10
224.6117479985106
 20
67.44704961366222
 30
0.0
 10
224.4277912091744
 20
67.46594417862816
 30
0.0
 10
224.0859171412121
 20
67.50105873901266
 30
0.0
 10
223.6216991682354
 20
67.4945681906254
 30
0.0
 10
223.1122375559624
 20
67.4468439978281
 30
0.0
 10
222.5731424565878
 20
67.32222739966117
 30
0.0
 10
222.0303044718642
 20
67.07973711571819
 30
0.0
 10
221.6899114563691
 20
66.82236436509228
 30
0.0
 10
221.4832847478181
 20
66.60755726459344
 30
0.0
 10
221.3653006916071
 20
66.46105391329448
 30
0.0
 10
221.213130287416
 20
66.23130308907402
 30
0.0
 10
221.0464496488364
 20
65.85836039364699
 30
0.0
 10
220.9780880679991
 20
65.39580134095412
 30
0.0
 10
221.0284435316186
 20
64.9674686427523
 30
0.0
 10
221.1338726751338
 20
64.6475417491079
 30
0.0
 10
221.3160720018199
 20
64.30707623391471
 30
0.0
 10
221.6169504268903
 20
63.97112797705963
 30
0.0
 10
222.0066353214888
 20
63.69806867634462
 30
0.0
 10
222.2995542776832
 20
63.60411360541732
 30
0.0
 10
222.4084902117395
 20
63.56917191525235
 30
0.0
  0
SPLINE
  5
2B8
330
1F
100
AcDbEntity
  8
0
  6
Continuous
 62
     7
370
    25
100
AcDbSpline
210
0.0
220
0.0
230
1.0
 70
     8
 71
     3
 72
    22
 73
    18
 74
     0
 42
0.000000001
 43
0.00000001
 40
0.0
 40
0.0
 40
0.0
 40
0.0
 40
0.0230829230551597
 40
0.0814197416897967
 40
0.1466435060153073
 40
0.2187937863059883
 40
0.2807407147919538
 40
0.334043885361729
 40
0.3787027517769348
 40
0.4147200067027929
 40
0.517881604567259
 40
0.6098460221494381
 40
0.7031822330296847
 40
0.7529336067168404
 40
0.8047834091159894
 40
0.8938685125132421
 40
1.0
 40
1.0
 40
1.0
 40
1.0
 10
227.9130647912075
 20
64.96630147307647
 30
0.0
 10
227.9374681942941
 20
64.98930062650383
 30
0.0
 10
228.0235456278544
 20
65.0704248899546
 30
0.0
 10
228.1312400450525
 20
65.21372057193963
 30
0.0
 10
228.228410646433
 20
65.40249507478116
 30
0.0
 10
228.2594615466219
 20
65.58846052633675
 30
0.0
 10
228.2301086249801
 20
65.76027521292463
 30
0.0
 10
228.1616024903754
 20
65.90708114075905
 30
0.0
 10
228.0737921045463
 20
66.0282921976285
 30
0.0
 10
227.919500315665
 20
66.19387530682603
 30
0.0
 10
227.6516743691343
 20
66.40403957133314
 30
0.0
 10
227.200104113962
 20
66.65948337489458
 30
0.0
 10
226.7525415046474
 20
66.8661200732002
 30
0.0
 10
226.343647731884
 20
67.02462428961253
 30
0.0
 10
225.9215681330481
 20
67.16714103760526
 30
0.0
 10
225.3432555152295
 20
67.33039760643452
 30
0.0
 10
224.8693769214387
 20
67.40596605636087
 30
0.0
 10
224.6117479985106
 20
67.44704961366222
 30
0.0
  0
LINE
  5
2B9
330
1F
100
AcDbEntity
  8
0
  6
Continuous
 62
     7
370
    25
100
AcDbLine
 10
218.1021782766
 20
52.1998784255
 30
0.0
 11
218.0969402136
 21
52.4959618485
 31
0.0
  0
LINE
  5
2BA
330
1F
100
AcDbEntity
  8
0
  6
Continuous
 62
     7
370
    25
100
AcDbLine
 10
218.0969402136
 20
52.4959618485
 30
0.0
 11
218.140039976
 21
53.1476235452
 31
0.0
  0
LINE
  5
2BB
330
1F
100
AcDbEntity
  8
0
  6
Continuous
 62
     7
370
    25
100
AcDbLine
 10
217.7098556543
 20
54.879084552
 30
0.0
 11
217.305976893
 21
55.3052466354
 31
0.0
  0
SPLINE
  5
2BC
330
1F
100
AcDbEntity
  8
0
  6
Continuous
 62
     7
370
    25
100
AcDbSpline
210
0.0
220
0.0
230
1.0
 70
     8
 71
     3
 72
    19
 73
    15
 74
     0
 42
0.000000001
 43
0.00000001
 40
0.0
 40
0.0
 40
0.0
 40
0.0
 40
0.0210492621018804
 40
0.1455865440207667
 40
0.2712169722633744
 40
0.3929514297049947
 40
0.5136082229787104
 40
0.6366369099308349
 40
0.699422462668311
 40
0.7643939711952468
 40
0.8122544601557282
 40
0.8606584764820763
 40
0.9188817427801165
 40
1.0
 40
1.0
 40
1.0
 40
1.0
 10
221.0225034461683
 20
65.1922996662044
 30
0.0
 10
221.0150348711824
 20
65.24706001310982
 30
0.0
 10
220.9633787126107
 20
65.62580819044494
 30
0.0
 10
221.2061496072704
 20
66.23595909925912
 30
0.0
 10
221.7904800746853
 20
66.92533280249869
 30
0.0
 10
222.6966064423255
 20
67.34263235273075
 30
0.0
 10
223.7709525707876
 20
67.46305831041938
 30
0.0
 10
224.7248864398833
 20
67.3023587668318
 30
0.0
 10
225.4595489824525
 20
67.00499266799
 30
0.0
 10
225.9323522219249
 20
66.70733459058529
 30
0.0
 10
226.2893223920443
 20
66.33642278580794
 30
0.0
 10
226.4841705335526
 20
65.90410149050035
 30
0.0
 10
226.5131995637967
 20
65.40116015927522
 30
0.0
 10
226.4508259621764
 20
65.06741514670003
 30
0.0
 10
226.4145149062023
 20
64.87312407615318
 30
0.0
  0
SPLINE
  5
2BD
330
1F
100
AcDbEntity
  8
0
  6
Continuous
 62
     7
370
    25
100
AcDbSpline
210
0.0
220
0.0
230
1.0
 70
     8
 71
     3
 72
    10
 73
     6
 74
     0
 42
0.000000001
 43
0.00000001
 40
0.0
 40
0.0
 40
0.0
 40
0.0
 40
0.2952118939789638
 40
0.9806889752106586
 40
1.0
 40
1.0
 40
1.0
 40
1.0
 10
226.4172427621905
 20
64.87188552273078
 30
0.0
 10
226.5000663870673
 20
64.83312034493733
 30
0.0
 10
226.7752050839161
 20
64.70434307254585
 30
0.0
 10
227.0501363980187
 20
64.56315807268648
 30
0.0
 10
227.1986014626931
 20
64.46917047828927
 30
0.0
 10
227.2026693697985
 20
64.46659524078203
 30
0.0
  0
ARC
  5
2BE
330
1F
100
AcDbEntity
  8
0
  6
Continuous
 62
     7
370
    25
100
AcDbCircle
 10
230.4273513275
 20
50.6586665304
 30
0.0
 40
12.46654291792362
100
AcDbArc
 50
171.5249863735
 51
179.8211981812
  0
SPLINE
  5
2BF
330
1F
100
AcDbEntity
  8
0
  6
Continuous
 62
     7
370
    25
100
AcDbSpline
210
0.0
220
0.0
230
1.0
 70
     8
 71
     3
 72
    14
 73
    10
 74
     0
 42
0.000000001
 43
0.00000001
 40
0.0
 40
0.0
 40
0.0
 40
0.0
 40
0.0003951393068452
 40
0.0003951393068452
 40
0.0003951393068452
 40
0.0008163352168664
 40
0.0008163352168664
 40
0.0008163352168664
 40
0.0012378579337219
 40
0.0012378579337219
 40
0.0012378579337219
 40
0.0012378579337219
 10
226.0091650993519
 20
65.01713284489892
 30
0.0
 10
226.0546269135832
 20
65.00269598227389
 30
0.0
 10
226.0995145182042
 20
64.98783012170828
 30
0.0
 10
226.1437982108793
 20
64.97254633410279
 30
0.0
 10
226.1910015031187
 20
64.95625489476511
 30
0.0
 10
226.2375273161778
 20
64.93948541668121
 30
0.0
 10
226.2833382254195
 20
64.9222566058859
 30
0.0
 10
226.3291846134086
 20
64.90501445205426
 30
0.0
 10
226.374323848981
 20
64.88730874584978
 30
0.0
 10
226.4187174070234
 20
64.86916588915899
 30
0.0
  0
LINE
  5
2C0
330
1F
100
AcDbEntity
  8
0
  6
Continuous
 62
     7
370
    25
100
AcDbLine
 10
217.305976893
 20
55.3052466354
 30
0.0
 11
216.6660402187
 21
55.7174782756
 31
0.0
  0
LINE
  5
2C1
330
1F
100
AcDbEntity
  8
0
  6
Continuous
 62
     7
370
    25
100
AcDbLine
 10
216.3601061235
 20
56.0889566624
 30
0.0
 11
216.6660402187
 21
55.7174782756
 31
0.0
  0
SPLINE
  5
2C2
330
1F
100
AcDbEntity
  8
0
  6
Continuous
 62
     7
370
    25
100
AcDbSpline
210
0.0
220
0.0
230
1.0
 70
     8
 71
     3
 72
    13
 73
     9
 74
     0
 42
0.000000001
 43
0.00000001
 40
0.0
 40
0.0
 40
0.0
 40
0.0
 40
0.1618542298650875
 40
0.3254858841233149
 40
0.4910085196246548
 40
0.6585318472470939
 40
0.8281616954004768
 40
1.0
 40
1.0
 40
1.0
 40
1.0
 10
216.6660406303303
 20
55.71747827946901
 30
0.0
 10
216.6464632383153
 20
55.73004125650063
 30
0.0
 10
216.6070934624734
 20
55.75530517261679
 30
0.0
 10
216.5455575227073
 20
55.78799886952965
 30
0.0
 10
216.4820008634593
 20
55.81694494323649
 30
0.0
 10
216.416382760801
 20
55.84145731070349
 30
0.0
 10
216.3489554917418
 20
55.86189237405932
 30
0.0
 10
216.3030708915397
 20
55.87148902905057
 30
0.0
 10
216.2799802113624
 20
55.8763183898862
 30
0.0
  0
SPLINE
  5
2C3
330
1F
100
AcDbEntity
  8
0
  6
Continuous
 62
     7
370
    25
100
AcDbSpline
210
0.0
220
0.0
230
1.0
 70
     8
 71
     3
 72
     9
 73
     5
 74
     0
 42
0.000000001
 43
0.00000001
 40
0.0
 40
0.0
 40
0.0
 40
0.0
 40
0.4907282259506041
 40
1.0
 40
1.0
 40
1.0
 40
1.0
 10
216.2799743840705
 20
55.87629039285519
 30
0.0
 10
216.2558808615926
 20
55.88438592507331
 30
0.0
 10
216.2067833750334
 20
55.90088290199458
 30
0.0
 10
216.1560826812133
 20
55.91567657101082
 30
0.0
 10
216.1302622489259
 20
55.92321056907542
 30
0.0
  0
SPLINE
  5
2C4
330
1F
100
AcDbEntity
  8
0
  6
Continuous
 62
     7
370
    25
100
AcDbSpline
210
0.0
220
0.0
230
1.0
 70
     8
 71
     3
 72
    14
 73
    10
 74
     0
 42
0.000000001
 43
0.00000001
 40
0.0
 40
0.0
 40
0.0
 40
0.0
 40
0.0310276388093398
 40
0.0622853718693698
 40
0.1248003166924349
 40
0.2498289731770658
 40
0.4998892603621822
 40
0.7606803621577949
 40
1.0
 40
1.0
 40
1.0
 40
1.0
 10
215.546321559638
 20
56.29731831172131
 30
0.0
 10
215.5523137990428
 20
56.29348726806735
 30
0.0
 10
215.5643427150023
 20
56.28579677056928
 30
0.0
 10
215.588402523052
 20
56.27035888106233
 30
0.0
 10
215.6306361956983
 20
56.24328842813144
 30
0.0
 10
215.7151987702105
 20
56.18907640333599
 30
0.0
 10
215.838485739679
 20
56.11007322147123
 30
0.0
 10
215.9846174461327
 20
56.01646704679349
 30
0.0
 10
216.0829840626738
 20
55.95348397040103
 30
0.0
 10
216.1300557633603
 20
55.92334447161053
 30
0.0
  0
LINE
  5
2C5
330
1F
100
AcDbEntity
  8
0
  6
Continuous
 62
     7
370
    25
100
AcDbLine
 10
213.7438214044
 20
57.4599489887
 30
0.0
 11
214.0347887585
 21
57.2718704496
 31
0.0
  0
SPLINE
  5
2C6
330
1F
100
AcDbEntity
  8
0
  6
Continuous
 62
     7
370
    25
100
AcDbSpline
210
0.0
220
0.0
230
1.0
 70
     8
 71
     3
 72
     8
 73
     4
 74
     0
 42
0.000000001
 43
0.00000001
 40
0.0
 40
0.0
 40
0.0
 40
0.0
 40
1.0
 40
1.0
 40
1.0
 40
1.0
 10
214.0661770619328
 20
57.2516479194101
 30
0.0
 10
214.055734556081
 20
57.25847334430752
 30
0.0
 10
214.0452686231912
 20
57.26521631109404
 30
0.0
 10
214.0347808583747
 20
57.27187539874702
 30
0.0
  0
SPLINE
  5
2C7
330
1F
100
AcDbEntity
  8
0
  6
Continuous
 62
     7
370
    25
100
AcDbSpline
210
0.0
220
0.0
230
1.0
 70
     8
 71
     3
 72
     8
 73
     4
 74
     0
 42
0.000000001
 43
0.00000001
 40
0.0
 40
0.0
 40
0.0
 40
0.0
 40
1.0
 40
1.0
 40
1.0
 40
1.0
 10
211.280172683109
 20
59.1299035712192
 30
0.0
 10
211.339172447279
 20
59.09116290430023
 30
0.0
 10
211.3984600107895
 20
59.05310092700094
 30
0.0
 10
211.4580410842779
 20
59.01571713854064
 30
0.0
  0
SPLINE
  5
2C8
330
1F
100
AcDbEntity
  8
0
  6
Continuous
 62
     7
370
    25
100
AcDbSpline
210
0.0
220
0.0
230
1.0
 70
     8
 71
     3
 72
     8
 73
     4
 74
     0
 42
0.000000001
 43
0.00000001
 40
0.0
 40
0.0
 40
0.0
 40
0.0
 40
1.0
 40
1.0
 40
1.0
 40
1.0
 10
211.2553229370094
 20
59.49311374915752
 30
0.0
 10
211.2627971491
 20
59.37215590844568
 30
0.0
 10
211.2710932529901
 20
59.25108406603502
 30
0.0
 10
211.280172683109
 20
59.1299035712192
 30
0.0
  0
LWPOLYLINE
  5
2C9
330
1F
100
AcDbEntity
  8
0
  6
Continuous
 62
     7
370
    25
100
AcDbPolyline
 90
       15
 70
   128
 43
0.0
 10
211.2553232958
 20
59.4931130837
 10
211.6707746597
 20
60.6573644603
 10
212.1753060222
 20
61.8119100554
 10
212.7622581811
 20
62.9415108175
 10
213.4238833603
 20
64.0312551767
 10
214.151447284
 20
65.0667578957
 10
214.9353460683
 20
66.0343499848
 10
215.7652320035
 20
66.9212593002
 10
216.6301502015
 20
67.7157776422
 10
217.5186832294
 20
68.4074172554
 10
218.4191021625
 20
68.9870482196
 10
219.3195210956
 20
69.447018827
 10
220.2080541235
 20
69.7812576114
 10
221.0729723216
 20
69.9853525648
 10
221.2192857648
 20
70.0072207752
  0
SPLINE
  5
2CA
330
1F
100
AcDbEntity
  8
0
  6
Continuous
 62
     7
370
    25
100
AcDbSpline
210
0.0
220
0.0
230
1.0
 70
     8
 71
     3
 72
    10
 73
     6
 74
     0
 42
0.000000001
 43
0.00000001
 40
0.0
 40
0.0
 40
0.0
 40
0.0
 40
0.2409818396634726
 40
0.5031433556203718
 40
1.0
 40
1.0
 40
1.0
 40
1.0
 10
217.3059768930482
 20
48.59940501220369
 30
0.0
 10
217.3882227640511
 20
48.54772849028313
 30
0.0
 10
217.5599430213956
 20
48.43983364359175
 30
0.0
 10
217.8376643804225
 20
48.31011093312751
 30
0.0
 10
217.9586416274666
 20
48.33288887423249
 30
0.0
 10
218.0378338683821
 20
48.34779941521123
 30
0.0
  0
LINE
  5
2CB
330
1F
100
AcDbEntity
  8
0
  6
Continuous
 62
     7
370
    25
100
AcDbLine
 10
212.5228028369
 20
58.3284777452
 30
0.0
 11
211.7609241345
 21
58.8191121528
 31
0.0
  0
LINE
  5
2CC
330
1F
100
AcDbEntity
  8
0
  6
Continuous
 62
     7
370
    25
100
AcDbLine
 10
211.7609241345
 20
58.8191121528
 30
0.0
 11
211.2801728143
 21
59.1299035289
 31
0.0
  0
LINE
  5
2CD
330
1F
100
AcDbEntity
  8
0
  6
Continuous
 62
     7
370
    25
100
AcDbLine
 10
216.3601061235
 20
48.3236252113
 30
0.0
 11
216.6660402187
 21
49.0116366523
 31
0.0
  0
LINE
  5
2CE
330
1F
100
AcDbEntity
  8
0
  6
Continuous
 62
     7
370
    25
100
AcDbLine
 10
216.6660402187
 20
49.0116366523
 30
0.0
 11
217.305976893
 21
48.5994050122
 31
0.0
  0
SPLINE
  5
2CF
330
1F
100
AcDbEntity
  8
0
  6
Continuous
 62
     7
370
    25
100
AcDbSpline
210
0.0
220
0.0
230
1.0
 70
     8
 71
     3
 72
    13
 73
     9
 74
     0
 42
0.000000001
 43
0.00000001
 40
0.0
 40
0.0
 40
0.0
 40
0.0
 40
0.1722587823402174
 40
0.3421398270982735
 40
0.5097456257612809
 40
0.6751828993009421
 40
0.8385626189970466
 40
1.0
 40
1.0
 40
1.0
 40
1.0
 10
216.2799686995571
 20
49.2929463577223
 30
0.0
 10
216.3031202235078
 20
49.27482676678929
 30
0.0
 10
216.3491037042566
 20
49.23883769485525
 30
0.0
 10
216.4166447169675
 20
49.18783771144007
 30
0.0
 10
216.4823043316528
 20
49.1395130312494
 30
0.0
 10
216.5458284029031
 20
49.09408202534006
 30
0.0
 10
216.607258781625
 20
49.05125645757985
 30
0.0
 10
216.6465249485987
 20
49.0247906404044
 30
0.0
 10
216.6660406303303
 20
49.01163686185729
 30
0.0
  0
SPLINE
  5
2D0
330
1F
100
AcDbEntity
  8
0
  6
Continuous
 62
     7
370
    25
100
AcDbSpline
210
0.0
220
0.0
230
1.0
 70
     8
 71
     3
 72
    11
 73
     7
 74
     0
 42
0.000000001
 43
0.00000001
 40
0.0
 40
0.0
 40
0.0
 40
0.0
 40
0.2392845096574327
 40
0.5001120454060707
 40
0.7515010914954734
 40
1.0
 40
1.0
 40
1.0
 40
1.0
 10
216.130588288081
 20
49.34026034993518
 30
0.0
 10
216.0835190560333
 20
49.31194582720106
 30
0.0
 10
215.985142901435
 20
49.25276759665233
 30
0.0
 10
215.8388456798573
 20
49.1595796961848
 30
0.0
 10
215.6910049362708
 20
49.06420778021142
 30
0.0
 10
215.5947184735421
 20
48.99967252496382
 30
0.0
 10
215.5468535856768
 20
48.96759145491261
 30
0.0
  0
SPLINE
  5
2D1
330
1F
100
AcDbEntity
  8
0
  6
Continuous
 62
     7
370
    25
100
AcDbSpline
210
0.0
220
0.0
230
1.0
 70
     8
 71
     3
 72
     9
 73
     5
 74
     0
 42
0.000000001
 43
0.00000001
 40
0.0
 40
0.0
 40
0.0
 40
0.0
 40
0.509066935386983
 40
0.9999999999999999
 40
0.9999999999999999
 40
0.9999999999999999
 40
0.9999999999999999
 10
216.1311592916651
 20
49.33956139572341
 30
0.0
 10
216.1568078662891
 20
49.33206868756353
 30
0.0
 10
216.2071913676346
 20
49.31735017485127
 30
0.0
 10
216.2559988791299
 20
49.3009578169991
 30
0.0
 10
216.2799601003244
 20
49.2929102665225
 30
0.0
  0
LINE
  5
2D2
330
1F
100
AcDbEntity
  8
0
  6
Continuous
 62
     7
370
    25
100
AcDbLine
 10
217.9610778718
 20
50.263439963
 30
0.0
 11
216.2799619154
 21
49.2929523788
 31
0.0
  0
LINE
  5
2D3
330
1F
100
AcDbEntity
  8
0
  6
Continuous
 62
     7
370
    25
100
AcDbLine
 10
214.2734742642
 20
50.4167736774
 30
0.0
 11
214.0731786106
 21
49.9156162632
 31
0.0
  0
SPLINE
  5
2D4
330
1F
100
AcDbEntity
  8
0
  6
Continuous
 62
     7
370
    25
100
AcDbSpline
210
0.0
220
0.0
230
1.0
 70
     8
 71
     3
 72
     8
 73
     4
 74
     0
 42
0.000000001
 43
0.00000001
 40
0.0
 40
0.0
 40
0.0
 40
0.0
 40
1.0
 40
1.0
 40
1.0
 40
1.0
 10
214.273031093525
 20
50.41755742958476
 30
0.0
 10
214.2992064280942
 20
50.43972480656302
 30
0.0
 10
214.3250274680597
 20
50.46235694765464
 30
0.0
 10
214.350485021768
 20
50.48544166774592
 30
0.0
  0
LINE
  5
2D5
330
1F
100
AcDbEntity
  8
0
  6
Continuous
 62
     7
370
    25
100
AcDbLine
 10
214.3504851175
 20
50.4854415521
 30
0.0
 11
216.1307778768
 21
49.339670667
 31
0.0
  0
LINE
  5
2D6
330
1F
100
AcDbEntity
  8
0
  6
Continuous
 62
     7
370
    25
100
AcDbLine
 10
217.9608691132
 20
50.3614898982
 30
0.0
 11
217.8728697862
 21
50.4689809665
 31
0.0
  0
LINE
  5
2D7
330
1F
100
AcDbEntity
  8
0
  6
Continuous
 62
     7
370
    25
100
AcDbLine
 10
216.0444617896
 20
51.4633534695
 30
0.0
 11
214.3504851175
 21
50.4854415521
 31
0.0
  0
LINE
  5
2D8
330
1F
100
AcDbEntity
  8
0
  6
Continuous
 62
     7
370
    25
100
AcDbLine
 10
216.1871558721
 20
51.4420613077
 30
0.0
 11
216.044881941
 21
51.462866092
 31
0.0
  0
LINE
  5
2D9
330
1F
100
AcDbEntity
  8
0
  6
Continuous
 62
     7
370
    25
100
AcDbLine
 10
217.8729435432
 20
50.4688768
 30
0.0
 11
216.1871558721
 21
51.4420613077
 31
0.0
  0
LINE
  5
2DA
330
1F
100
AcDbEntity
  8
0
  6
Continuous
 62
     7
370
    25
100
AcDbLine
 10
217.9608691132
 20
50.4181127172
 30
0.0
 11
217.8728967865
 21
50.4689037734
 31
0.0
  0
SPLINE
  5
2DB
330
1F
100
AcDbEntity
  8
0
  6
Continuous
 62
     7
370
    25
100
AcDbSpline
210
0.0
220
0.0
230
1.0
 70
     8
 71
     3
 72
    19
 73
    15
 74
     0
 42
0.000000001
 43
0.00000001
 40
0.0
 40
0.0
 40
0.0
 40
0.0
 40
0.0637853009172641
 40
0.1289628367748405
 40
0.1955871994416645
 40
0.2637095015536399
 40
0.333377557949238
 40
0.4046360709686026
 40
0.4775268158973639
 40
0.5520888236427515
 40
0.6283585584336152
 40
0.7063700889344581
 40
0.8377041806176546
 40
0.9999999999999999
 40
0.9999999999999999
 40
0.9999999999999999
 40
0.9999999999999999
 10
213.4889619875636
 20
50.58604551693663
 30
0.0
 10
213.5096513565702
 20
50.5726863769254
 30
0.0
 10
213.5514816792277
 20
50.54567650838289
 30
0.0
 10
213.6119726528258
 20
50.50815454285484
 30
0.0
 10
213.6714568510075
 20
50.47263480176352
 30
0.0
 10
213.7295380104805
 20
50.4396546728471
 30
0.0
 10
213.7860701275681
 20
50.4094482365774
 30
0.0
 10
213.8408151823213
 20
50.38233479661687
 30
0.0
 10
213.893537559912
 20
50.35860317886802
 30
0.0
 10
213.9439791928405
 20
50.33856292542437
 30
0.0
 10
213.9918621113029
 20
50.32244306388692
 30
0.0
 10
214.046826265678
 20
50.30816509420218
 30
0.0
 10
214.1096575796392
 20
50.29802653695168
 30
0.0
 10
214.1481650952992
 20
50.30450078826748
 30
0.0
 10
214.1694490604911
 20
50.30807925177744
 30
0.0
  0
LINE
  5
2DC
330
1F
100
AcDbEntity
  8
0
  6
Continuous
 62
     7
370
    25
100
AcDbLine
 10
214.1940847481
 20
50.334149706
 30
0.0
 11
214.2728888181
 21
50.4175413098
 31
0.0
  0
SPLINE
  5
2DD
330
1F
100
AcDbEntity
  8
0
  6
Continuous
 62
     7
370
    25
100
AcDbSpline
210
0.0
220
0.0
230
1.0
 70
     8
 71
     3
 72
     9
 73
     5
 74
     0
 42
0.000000001
 43
0.00000001
 40
0.0
 40
0.0
 40
0.0
 40
0.0
 40
0.5232016984460688
 40
1.0
 40
1.0
 40
1.0
 40
1.0
 10
215.878284009878
 20
51.36742124866952
 30
0.0
 10
215.8092598472294
 20
51.39246341378601
 30
0.0
 10
215.6773333591204
 20
51.44032672384574
 30
0.0
 10
215.4358959463018
 20
51.5779248545324
 30
0.0
 10
215.3207789979383
 20
51.6435314095408
 30
0.0
  0
LINE
  5
2DE
330
1F
100
AcDbEntity
  8
0
  6
Continuous
 62
     7
370
    25
100
AcDbLine
 10
211.5912778009
 20
51.4094209722
 30
0.0
 11
212.0427489153
 21
51.521684945
 31
0.0
  0
LINE
  5
2DF
330
1F
100
AcDbEntity
  8
0
  6
Continuous
 62
     7
370
    25
100
AcDbLine
 10
212.0427489153
 20
51.521684945
 30
0.0
 11
213.4889613871
 21
50.586045612
 31
0.0
  0
SPLINE
  5
2E0
330
1F
100
AcDbEntity
  8
0
  6
Continuous
 62
     7
370
    25
100
AcDbSpline
210
0.0
220
0.0
230
1.0
 70
     8
 71
     3
 72
     8
 73
     4
 74
     0
 42
0.000000001
 43
0.00000001
 40
0.0
 40
0.0
 40
0.0
 40
0.0
 40
1.0
 40
1.0
 40
1.0
 40
1.0
 10
211.7620663715804
 20
51.01467131915332
 30
0.0
 10
211.7049411026564
 20
51.14645750294887
 30
0.0
 10
211.6480126109388
 20
51.27804172460959
 30
0.0
 10
211.5912784929894
 20
51.40942079151087
 30
0.0
  0
LINE
  5
2E1
330
1F
100
AcDbEntity
  8
0
  6
Continuous
 62
     7
370
    25
100
AcDbLine
 10
213.3804503743
 20
52.2939235598
 30
0.0
 11
212.0427489153
 21
51.521684945
 31
0.0
  0
LINE
  5
2E2
330
1F
100
AcDbEntity
  8
0
  6
Continuous
 62
     7
370
    25
100
AcDbLine
 10
214.3634788592
 20
52.1961701569
 30
0.0
 11
213.3804503743
 21
52.2939235598
 31
0.0
  0
LINE
  5
2E3
330
1F
100
AcDbEntity
  8
0
  6
Continuous
 62
     7
370
    25
100
AcDbLine
 10
215.3207789979
 20
51.6435314095
 30
0.0
 11
214.3634778714
 21
52.1961695867
 31
0.0
  0
SPLINE
  5
2E4
330
1F
100
AcDbEntity
  8
0
  6
Continuous
 62
     7
370
    25
100
AcDbSpline
210
0.0
220
0.0
230
1.0
 70
     8
 71
     3
 72
     8
 73
     4
 74
     0
 42
0.000000001
 43
0.00000001
 40
0.0
 40
0.0
 40
0.0
 40
0.0
 40
1.0
 40
1.0
 40
1.0
 40
1.0
 10
211.5912784929915
 20
51.40942079150599
 30
0.0
 10
211.5881411552414
 20
51.4446370983785
 30
0.0
 10
211.5861487513435
 20
51.4802813546062
 30
0.0
 10
211.5853673539714
 20
51.51637825660107
 30
0.0
  0
LINE
  5
2E5
330
1F
100
AcDbEntity
  8
0
  6
Continuous
 62
     7
370
    25
100
AcDbLine
 10
212.3964538291
 20
51.9846079713
 30
0.0
 11
211.5853680225
 21
51.5163781017
 31
0.0
  0
SPLINE
  5
2E6
330
1F
100
AcDbEntity
  8
0
  6
Continuous
 62
     7
370
    25
100
AcDbSpline
210
0.0
220
0.0
230
1.0
 70
     8
 71
     3
 72
     8
 73
     4
 74
     0
 42
0.000000001
 43
0.00000001
 40
0.0000004089325119
 40
0.0000004089325119
 40
0.0000004089325119
 40
0.0000004089325119
 40
0.0015399868451459
 40
0.0015399868451459
 40
0.0015399868451459
 40
0.0015399868451459
 10
212.3964528864601
 20
51.98460796795719
 30
0.0
 10
212.6349294544834
 20
52.07898435377355
 30
0.0
 10
212.8733764121521
 20
52.17341296570375
 30
0.0
 10
213.1117851510024
 20
52.26790634866621
 30
0.0
  0
LINE
  5
2E7
330
1F
100
AcDbEntity
  8
0
  6
Continuous
 62
     7
370
    25
100
AcDbLine
 10
213.11178463
 20
52.2679064958
 30
0.0
 11
213.1361810698
 21
52.2729005222
 31
0.0
  0
LINE
  5
2E8
330
1F
100
AcDbEntity
  8
0
  6
Continuous
 62
     7
370
    25
100
AcDbLine
 10
213.3804503743
 20
52.2939235598
 30
0.0
 11
213.1361817283
 21
52.2729005221
 31
0.0
  0
SPLINE
  5
2E9
330
1F
100
AcDbEntity
  8
0
  6
Continuous
 62
     7
370
    25
100
AcDbSpline
210
0.0
220
0.0
230
1.0
 70
     8
 71
     3
 72
     8
 73
     4
 74
     0
 42
0.000000001
 43
0.00000001
 40
0.0
 40
0.0
 40
0.0
 40
0.0
 40
1.0
 40
1.0
 40
1.0
 40
1.0
 10
214.3634770655104
 20
52.19617034125318
 30
0.0
 10
214.3940850996337
 20
52.18123033344706
 30
0.0
 10
214.4246366006056
 20
52.16635337605369
 30
0.0
 10
214.4551305387201
 20
52.15153981237276
 30
0.0
  0
ARC
  5
2EA
330
1F
100
AcDbEntity
  8
0
  6
Continuous
 62
     7
370
    25
100
AcDbCircle
 10
215.2441605458
 20
57.6248902865
 30
0.0
 40
6.549762100196341
100
AcDbArc
 50
283.6682343678
 51
294.9135532271
  0
LWPOLYLINE
  5
2EB
330
1F
100
AcDbEntity
  8
0
  6
Continuous
 62
     7
370
    18
100
AcDbPolyline
 90
       16
 70
   128
 43
0.0
 10
270.5547435631
 20
25.4795624109
 10
270.603481125
 20
26.2048551187
 10
270.748431381
 20
26.9676342769
 10
270.9858406274
 20
27.7481443625
 10
271.3095597049
 20
28.5261705674
 10
271.7112045186
 20
29.2815625523
 10
272.1803726995
 20
29.9947557239
 10
272.7049131136
 20
30.6472790083
 10
273.2712404817
 20
31.2222324876
 10
273.8646870419
 20
31.7047250131
 10
274.4698829519
 20
32.0822601581
 10
275.071153916
 20
32.3450600603
 10
275.6529273632
 20
32.4863181547
 10
276.2001356202
 20
32.5023764068
 10
276.6986063975
 20
32.3928187949
 10
277.1233855505
 20
32.1691525609
  0
ARC
  5
2EC
330
1F
100
AcDbEntity
  8
0
  6
Continuous
 62
     7
370
    18
100
AcDbCircle
 10
273.0797385178
 20
25.168595501
 30
0.0
 40
2.5440715281326
100
AcDbArc
 50
172.9790657275
 51
240.0477761012
  0
LWPOLYLINE
  5
2ED
330
1F
100
AcDbEntity
  8
0
  6
Continuous
 62
     7
370
    18
100
AcDbPolyline
 90
       36
 70
   128
 43
0.0
 10
271.911297505
 20
25.5103316318
 10
271.9604515964
 20
26.1693771936
 10
272.1063340222
 20
26.8639926009
 10
272.3442557808
 20
27.5718521963
 10
272.6665700182
 20
28.2702049309
 10
273.0629171706
 20
28.9366050036
 10
273.5205585177
 20
29.5496339364
 10
274.0247850564
 20
30.0895885181
 10
274.559390459
 20
30.5391139158
 10
275.1071920337
 20
30.8837624062
 10
275.6505830271
 20
31.1124565111
 10
276.172098417
 20
31.2178454704
 10
276.6549763421
 20
31.196542466
 10
277.0836965547
 20
31.0492320399
 10
277.4444796695
 20
30.7806487964
 10
277.7257298702
 20
30.3994252674
 10
277.9184074809
 20
29.9178143089
 10
278.0163198783
 20
29.3512953676
 10
278.0163198783
 20
28.7180766921
 10
277.9184074809
 20
28.038510503
 10
277.7257298702
 20
27.3344387104
 10
277.4444796695
 20
26.6284906117
 10
277.0836965547
 20
25.9433560504
 10
276.6549763421
 20
25.301055803
 10
276.172098417
 20
24.7222338134
 10
275.6505830271
 20
24.2254939201
 10
275.1071920337
 20
23.8268021383
 10
274.559390459
 20
23.5389723932
 10
274.0247850564
 20
23.3712555314
 10
273.5205585177
 20
23.3290425434
 10
273.0629171706
 20
23.4136900238
 10
272.6665700182
 20
23.6224774148
 10
272.3442557808
 20
23.9486940521
 10
272.1063340222
 20
24.3818550321
 10
271.9604515964
 20
24.9080381758
 10
271.911297505
 20
25.5103316318
  0
LWPOLYLINE
  5
2EE
330
1F
100
AcDbEntity
  8
0
  6
Continuous
 62
     7
370
    18
100
AcDbPolyline
 90
       28
 70
   128
 43
0.0
 10
273.1892250194
 20
26.2480634827
 10
273.2372251761
 20
26.7499964739
 10
273.3786377311
 20
27.280289768
 10
273.6058392083
 20
27.8103552861
 10
273.9065810093
 20
28.311616885
 10
274.2646501799
 20
28.7570514687
 10
274.6607431135
 20
29.1226457038
 10
275.0735062679
 20
29.388690069
 10
275.4806875167
 20
29.5408422844
 10
275.8603356267
 20
29.5708996033
 10
276.19198358
 20
29.4772417185
 10
276.4577523048
 20
29.2649176423
 10
276.6433140128
 20
28.9453739709
 10
276.7386650014
 20
28.5358372919
 10
276.7386650014
 20
28.0583858463
 10
276.6433140128
 20
27.5387592593
 10
276.4577523048
 20
27.0049706001
 10
276.19198358
 20
26.4857964858
 10
275.8603356267
 20
26.0092260246
 10
275.4806875167
 20
25.6009509658
 10
275.0735062679
 20
25.2829817182
 10
274.6607431135
 20
25.0724598893
 10
274.2646501799
 20
24.9807349576
 10
273.9065810093
 20
25.0127516768
 10
273.6058392083
 20
25.1667841832
 10
273.3786377311
 20
25.4345284593
 10
273.2372251761
 20
25.8015502929
 10
273.1892250194
 20
26.2480634827
  0
LWPOLYLINE
  5
2EF
330
1F
100
AcDbEntity
  8
0
  6
Continuous
 62
     7
370
    18
100
AcDbPolyline
 90
       16
 70
   128
 43
0.0
 10
275.8387456566
 20
29.3845677936
 10
275.8480038869
 20
29.3811350034
 10
276.123693667
 20
29.2012722084
 10
276.3177118274
 20
28.9057401673
 10
276.4178673921
 20
28.5131081751
 10
276.4178673921
 20
28.0480468564
 10
276.3177118274
 20
27.5397777106
 10
276.123693667
 20
27.0202370697
 10
275.8480038869
 20
26.5220696299
 10
275.5079650888
 20
26.0765770326
 10
275.1249431317
 20
25.7117514565
 10
274.723004741
 20
25.4505157776
 10
274.3274051498
 20
25.3092849089
 10
273.9630013161
 20
25.2969324686
 10
273.6526902049
 20
25.4142349449
 10
273.5411120211
 20
25.5027756527
  0
ARC
  5
2F0
330
1F
100
AcDbEntity
  8
0
  6
Continuous
 62
     7
370
    18
100
AcDbCircle
 10
238.5417082314
 20
44.3793389772
 30
0.0
 40
3.364486842704532
100
AcDbArc
 50
174.0725597968
 51
234.6152587532
  0
LWPOLYLINE
  5
2F1
330
1F
100
AcDbEntity
  8
0
  6
Continuous
 62
     7
370
    18
100
AcDbPolyline
 90
       18
 70
   128
 43
0.0
 10
243.3429064229
 20
53.3279933436
 10
243.0938116335
 20
53.4519792025
 10
242.5486434651
 20
53.6085282971
 10
241.9509443537
 20
53.6403621291
 10
241.312881897
 20
53.5468325929
 10
240.6474451857
 20
53.329844166
 10
239.9681806038
 20
52.993813938
 10
239.2889160218
 20
52.5455819732
 10
238.6234793105
 20
51.9942735269
 10
237.9854168538
 20
51.3511118314
 10
237.3877177424
 20
50.6291892945
 10
236.842549574
 20
49.8432024306
 10
236.361009976
 20
49.0091513834
 10
235.9529020419
 20
48.1440156089
 10
235.6265336399
 20
47.2654062678
 10
235.3885488256
 20
46.3912095845
 10
235.2437918524
 20
45.5392214094
 10
235.1952097069
 20
44.726785866
  0
LWPOLYLINE
  5
2F2
330
1F
100
AcDbEntity
  8
0
  6
Continuous
 62
     7
370
    18
100
AcDbPolyline
 90
       25
 70
   128
 43
0.0
 10
233.0738893449
 20
44.7267860561
 10
233.1217833114
 20
45.6158742798
 10
233.2646789085
 20
46.5456609776
 10
233.5002300716
 20
47.5008791266
 10
233.8245685101
 20
48.4658437822
 10
234.232368904
 20
49.4247108195
 10
234.7169351726
 20
50.3617351023
 10
235.2703107812
 20
51.2615309317
 10
235.8834094619
 20
52.1093239365
 10
236.5461635511
 20
52.8911929821
 10
237.2476912591
 20
53.5943001946
 10
237.9764734078
 20
54.2071002142
 10
238.7205431733
 20
54.7195307205
 10
239.4676831557
 20
55.1231782906
 10
240.2056252469
 20
55.4114139325
 10
240.9222525573
 20
55.5795062322
 10
241.6057978844
 20
55.6246941028
 10
242.245037654
 20
55.5462363855
 10
242.82947549
 20
55.3454204833
 10
243.349514917
 20
55.0255441884
 10
243.7966169178
 20
54.5918598688
 10
244.1634400382
 20
54.0514886175
 10
244.4439612301
 20
53.4133033201
 10
244.6335739747
 20
52.687782732
 10
244.6541469051
 20
52.5710299757
  0
LWPOLYLINE
  5
2F3
330
1F
100
AcDbEntity
  8
0
  6
Continuous
 62
     7
370
    18
100
AcDbPolyline
 90
       12
 70
   128
 43
0.0
 10
237.9046955138
 20
40.8793701558
 10
237.2476912591
 20
40.6782410329
 10
236.5461635511
 20
40.5713815944
 10
235.8834094619
 20
40.5880510564
 10
235.2703107812
 20
40.7279753918
 10
234.7169351726
 20
40.9888573432
 10
234.232368904
 20
41.3664133209
 10
233.8245685101
 20
41.8544440454
 10
233.5002300716
 20
42.4449355108
 10
233.2646789085
 20
43.1281920758
 10
233.1217833114
 20
43.892995029
 10
233.0738893449
 20
44.7267860561
  0
ARC
  5
2F4
330
1F
100
AcDbEntity
  8
0
  6
Continuous
 62
     7
370
    18
100
AcDbCircle
 10
239.4414879701
 20
45.1811502948
 30
0.0
 40
17.95572678149949
100
AcDbArc
 50
167.4561534803
 51
179.6099872796
  0
LWPOLYLINE
  5
2F5
330
1F
100
AcDbEntity
  8
0
  6
Continuous
 62
     7
370
    18
100
AcDbPolyline
 90
       11
 70
   128
 43
0.0
 10
232.5560868958
 20
64.5440315796
 10
232.875141307
 20
64.7248626084
 10
233.9157598383
 20
65.2409411286
 10
234.944940851
 20
65.6382623217
 10
235.9536397301
 20
65.9133356562
 10
236.9329925487
 20
66.0637437393
 10
237.8743918011
 20
66.0881632227
 10
238.7695651802
 20
65.9863813826
 10
239.6106457135
 20
65.7592909803
 10
240.3902412387
 20
65.4088893046
 10
240.482380835
 20
65.3569296365
  0
LWPOLYLINE
  5
2F6
330
1F
100
AcDbEntity
  8
0
  6
Continuous
 62
     7
370
    18
100
AcDbPolyline
 90
       10
 70
   128
 43
0.0
 10
224.7461595205
 20
38.0980412427
 10
224.4737216331
 20
38.2666040144
 10
223.7990124917
 20
38.7958688877
 10
223.2017725505
 20
39.4387772906
 10
222.6872497508
 20
40.1896788718
 10
222.2599656591
 20
41.0419750506
 10
221.9236759548
 20
41.9881764361
 10
221.6813355272
 20
43.0199668992
 10
221.535074109
 20
44.1282794311
 10
221.4861771793
 20
45.3033740926
  0
LWPOLYLINE
  5
2F7
330
1F
100
AcDbEntity
  8
0
  6
Continuous
 62
     7
370
    18
100
AcDbPolyline
 90
       13
 70
   128
 43
0.0
 10
226.1102586178
 20
41.9677374649
 10
226.0740445968
 20
42.1491451031
 10
225.9296639817
 20
43.2202184463
 10
225.8884608275
 20
44.361861465
 10
225.9508684564
 20
45.562060124
 10
226.1162296409
 20
46.8081841586
 10
226.382805165
 20
48.0871210347
 10
226.7477896291
 20
49.3854117732
 10
227.2073417431
 20
50.6893944481
 10
227.7566258147
 20
51.9853465801
 10
228.3898611401
 20
53.2596305702
 10
229.1003845661
 20
54.498837041
 10
229.8807196369
 20
55.6899258961
  0
LWPOLYLINE
  5
2F8
330
1F
100
AcDbEntity
  8
0
  6
Continuous
 62
     7
370
    18
100
AcDbPolyline
 90
       16
 70
   128
 43
0.0
 10
226.6220543847
 20
39.0378097639
 10
226.1530324007
 20
39.7846370782
 10
225.7625332881
 20
40.6569775083
 10
225.469679204
 20
41.6254919325
 10
225.2774428181
 20
42.6803478569
 10
225.1877760565
 20
43.8108366402
 10
225.2015890275
 20
45.0054814812
 10
225.3187414613
 20
46.2521543407
 10
225.5380440265
 20
47.5381987563
 10
225.8572708425
 20
48.8505593099
 10
226.2731805534
 20
50.1759128058
 10
226.7815512304
 20
51.5008040096
 10
227.3772212015
 20
52.8117823382
 10
228.0541443696
 20
54.0955398779
 10
228.8054475057
 20
55.3390421794
 10
229.6235046644
 20
56.5296677951
  0
ARC
  5
2F9
330
1F
100
AcDbEntity
  8
0
  6
Continuous
 62
     7
370
    18
100
AcDbCircle
 10
242.7066332696
 20
48.7467956947
 30
0.0
 40
14.35349360837143
100
AcDbArc
 50
109.931969941
 51
139.4246766989
  0
LWPOLYLINE
  5
2FA
330
1F
100
AcDbEntity
  8
0
  6
Continuous
 62
     7
370
    18
100
AcDbPolyline
 90
       12
 70
   128
 43
0.0
 10
230.9676977259
 20
58.2018313123
 10
231.8800423238
 20
59.1725668898
 10
232.825370782
 20
60.0581092773
 10
233.7947759566
 20
60.8501149416
 10
234.7791244528
 20
61.5411219132
 10
235.7691420705
 20
62.1246204069
 10
236.755501103
 20
62.5951115827
 10
237.7289081703
 20
62.9481628141
 10
238.6801923403
 20
63.1804486731
 10
239.6003904108
 20
63.28977963
 10
240.4808331371
 20
63.2751267364
 10
240.6066612362
 20
63.2624844014
  0
LINE
  5
2FB
330
1F
100
AcDbEntity
  8
0
  6
Continuous
 62
     7
370
    18
100
AcDbLine
 10
216.9998129658
 20
55.6759816914
 30
0.0
 11
217.305976893
 21
55.3052466354
 31
0.0
  0
LINE
  5
2FC
330
1F
100
AcDbEntity
  8
0
  6
Continuous
 62
     7
370
    18
100
AcDbLine
 10
216.9998129658
 20
47.9118715436
 30
0.0
 11
217.305976893
 21
48.5994050122
 31
0.0
  0
LINE
  5
2FD
330
1F
100
AcDbEntity
  8
0
  6
Continuous
 62
     7
370
    18
100
AcDbLine
 10
218.0418872098
 20
49.0242369953
 30
0.0
 11
217.305984137
 21
48.5994091941
 31
0.0
  0
LINE
  5
2FE
330
1F
100
AcDbEntity
  8
0
  6
Continuous
 62
     7
370
    18
100
AcDbLine
 10
217.9753116528
 20
49.767462963
 30
0.0
 11
216.6660402187
 21
49.0116366523
 31
0.0
  0
LINE
  5
2FF
330
1F
100
AcDbEntity
  8
0
  6
Continuous
 62
     7
370
    18
100
AcDbLine
 10
213.4889613871
 20
50.586045612
 30
0.0
 11
213.1924741129
 21
50.0899839942
 31
0.0
  0
LINE
  5
300
330
1F
100
AcDbEntity
  8
0
  6
Continuous
 62
     7
370
    18
100
AcDbLine
 10
215.3207789979
 20
51.6435314095
 30
0.0
 11
213.4890219732
 21
50.5860805876
 31
0.0
  0
LINE
  5
301
330
1F
100
AcDbEntity
  8
0
  6
Continuous
 62
     7
370
    18
100
AcDbLine
 10
215.3207789979
 20
51.6435314095
 30
0.0
 11
215.4420891525
 21
51.5817808962
 31
0.0
  0
OLE2FRAME
  5
302
330
1F
100
AcDbEntity
  8
0
100
AcDbOle2Frame
 70
     2
  3
Paintbrush-Bild
 10
13.8511154363
 20
38.264191557
 30
0.0
 11
51.6290888628
 21
31.9806341108
 31
0.0
 71
     2
 72
     0
 73
     1
 90
    12928
310
80552BED0767C5B32B40DDAF6807D121434000000000000000006FFBDDFB85D0
310
4940DDAF6807D121434000000000000000006FFBDDFB85D04940416F4BD60AFB
310
3F4000000000000000002BED0767C5B32B40416F4BD60AFB3F40000000000000
310
0000000000000100000000010000010000000100000000000100000000320000
310
D0CF11E0A1B11AE1000000000000000000000000000000003E000300FEFF0900
310
0600000000000000000000000100000001000000000000000010000002000000
310
01000000FEFFFFFF0000000000000000FFFFFFFFFFFFFFFFFFFFFFFFFFFFFFFF
310
FFFFFFFFFFFFFFFFFFFFFFFFFFFFFFFFFFFFFFFFFFFFFFFFFFFFFFFFFFFFFFFF
310
FFFFFFFFFFFFFFFFFFFFFFFFFFFFFFFFFFFFFFFFFFFFFFFFFFFFFFFFFFFFFFFF
310
FFFFFFFFFFFFFFFFFFFFFFFFFFFFFFFFFFFFFFFFFFFFFFFFFFFFFFFFFFFFFFFF
310
FFFFFFFFFFFFFFFFFFFFFFFFFFFFFFFFFFFFFFFFFFFFFFFFFFFFFFFFFFFFFFFF
310
FFFFFFFFFFFFFFFFFFFFFFFFFFFFFFFFFFFFFFFFFFFFFFFFFFFFFFFFFFFFFFFF
310
FFFFFFFFFFFFFFFFFFFFFFFFFFFFFFFFFFFFFFFFFFFFFFFFFFFFFFFFFFFFFFFF
310
FFFFFFFFFFFFFFFFFFFFFFFFFFFFFFFFFFFFFFFFFFFFFFFFFFFFFFFFFFFFFFFF
310
FFFFFFFFFFFFFFFFFFFFFFFFFFFFFFFFFFFFFFFFFFFFFFFFFFFFFFFFFFFFFFFF
310
FFFFFFFFFFFFFFFFFFFFFFFFFFFFFFFFFFFFFFFFFFFFFFFFFFFFFFFFFFFFFFFF
310
FFFFFFFFFFFFFFFFFFFFFFFFFFFFFFFFFFFFFFFFFFFFFFFFFFFFFFFFFFFFFFFF
310
FFFFFFFFFFFFFFFFFFFFFFFFFFFFFFFFFFFFFFFFFFFFFFFFFFFFFFFFFFFFFFFF
310
FFFFFFFFFFFFFFFFFFFFFFFFFFFFFFFFFFFFFFFFFFFFFFFFFFFFFFFFFFFFFFFF
310
FFFFFFFFFFFFFFFFFFFFFFFFFFFFFFFFFFFFFFFFFFFFFFFFFFFFFFFFFFFFFFFF
310
FDFFFFFFFEFFFFFFFEFFFFFFFEFFFFFF05000000060000000700000008000000
310
090000000A0000000B0000000C0000000D0000000E0000000F00000010000000
310
11000000120000001300000014000000150000001600000017000000FEFFFFFF
310
FFFFFFFFFFFFFFFFFFFFFFFFFFFFFFFFFFFFFFFFFFFFFFFFFFFFFFFFFFFFFFFF
310
FFFFFFFFFFFFFFFFFFFFFFFFFFFFFFFFFFFFFFFFFFFFFFFFFFFFFFFFFFFFFFFF
310
FFFFFFFFFFFFFFFFFFFFFFFFFFFFFFFFFFFFFFFFFFFFFFFFFFFFFFFFFFFFFFFF
310
FFFFFFFFFFFFFFFFFFFFFFFFFFFFFFFFFFFFFFFFFFFFFFFFFFFFFFFFFFFFFFFF
310
FFFFFFFFFFFFFFFFFFFFFFFFFFFFFFFFFFFFFFFFFFFFFFFFFFFFFFFFFFFFFFFF
310
FFFFFFFFFFFFFFFFFFFFFFFFFFFFFFFFFFFFFFFFFFFFFFFFFFFFFFFFFFFFFFFF
310
FFFFFFFFFFFFFFFFFFFFFFFFFFFFFFFFFFFFFFFFFFFFFFFFFFFFFFFFFFFFFFFF
310
FFFFFFFFFFFFFFFFFFFFFFFFFFFFFFFFFFFFFFFFFFFFFFFFFFFFFFFFFFFFFFFF
310
FFFFFFFFFFFFFFFFFFFFFFFFFFFFFFFFFFFFFFFFFFFFFFFFFFFFFFFFFFFFFFFF
310
FFFFFFFFFFFFFFFFFFFFFFFFFFFFFFFFFFFFFFFFFFFFFFFFFFFFFFFFFFFFFFFF
310
FFFFFFFFFFFFFFFFFFFFFFFFFFFFFFFFFFFFFFFFFFFFFFFFFFFFFFFFFFFFFFFF
310
FFFFFFFFFFFFFFFFFFFFFFFFFFFFFFFFFFFFFFFFFFFFFFFFFFFFFFFFFFFFFFFF
310
FFFFFFFFFFFFFFFFFFFFFFFFFFFFFFFFFFFFFFFFFFFFFFFFFFFFFFFFFFFFFFFF
310
52006F006F007400200045006E00740072007900000000000000000000000000
310
0000000000000000000000000000000000000000000000000000000000000000
310
16000500FFFFFFFFFFFFFFFF020000000A00030000000000C000000000000046
310
0000000000000000000000008012FF09A3A5D30103000000C000000000000000
310
01004F006C006500000000000000000000000000000000000000000000000000
310
0000000000000000000000000000000000000000000000000000000000000000
310
0A000200FFFFFFFFFFFFFFFFFFFFFFFF00000000000000000000000000000000
310
0000000000000000000000000000000000000000000000001400000000000000
310
010043006F006D0070004F0062006A0000000000000000000000000000000000
310
0000000000000000000000000000000000000000000000000000000000000000
310
120002010100000003000000FFFFFFFF00000000000000000000000000000000
310
0000000000000000000000000000000000000000010000004D00000000000000
310
01004F006C006500310030004E00610074006900760065000000000000000000
310
0000000000000000000000000000000000000000000000000000000000000000
310
1A000200FFFFFFFFFFFFFFFFFFFFFFFF00000000000000000000000000000000
310
0000000000000000000000000000000000000000040000002426000000000000
310
FEFFFFFF02000000FEFFFFFFFFFFFFFFFFFFFFFFFFFFFFFFFFFFFFFFFFFFFFFF
310
FFFFFFFFFFFFFFFFFFFFFFFFFFFFFFFFFFFFFFFFFFFFFFFFFFFFFFFFFFFFFFFF
310
FFFFFFFFFFFFFFFFFFFFFFFFFFFFFFFFFFFFFFFFFFFFFFFFFFFFFFFFFFFFFFFF
310
FFFFFFFFFFFFFFFFFFFFFFFFFFFFFFFFFFFFFFFFFFFFFFFFFFFFFFFFFFFFFFFF
310
FFFFFFFFFFFFFFFFFFFFFFFFFFFFFFFFFFFFFFFFFFFFFFFFFFFFFFFFFFFFFFFF
310
FFFFFFFFFFFFFFFFFFFFFFFFFFFFFFFFFFFFFFFFFFFFFFFFFFFFFFFFFFFFFFFF
310
FFFFFFFFFFFFFFFFFFFFFFFFFFFFFFFFFFFFFFFFFFFFFFFFFFFFFFFFFFFFFFFF
310
FFFFFFFFFFFFFFFFFFFFFFFFFFFFFFFFFFFFFFFFFFFFFFFFFFFFFFFFFFFFFFFF
310
FFFFFFFFFFFFFFFFFFFFFFFFFFFFFFFFFFFFFFFFFFFFFFFFFFFFFFFFFFFFFFFF
310
FFFFFFFFFFFFFFFFFFFFFFFFFFFFFFFFFFFFFFFFFFFFFFFFFFFFFFFFFFFFFFFF
310
FFFFFFFFFFFFFFFFFFFFFFFFFFFFFFFFFFFFFFFFFFFFFFFFFFFFFFFFFFFFFFFF
310
FFFFFFFFFFFFFFFFFFFFFFFFFFFFFFFFFFFFFFFFFFFFFFFFFFFFFFFFFFFFFFFF
310
FFFFFFFFFFFFFFFFFFFFFFFFFFFFFFFFFFFFFFFFFFFFFFFFFFFFFFFFFFFFFFFF
310
FFFFFFFFFFFFFFFFFFFFFFFFFFFFFFFFFFFFFFFFFFFFFFFFFFFFFFFFFFFFFFFF
310
FFFFFFFFFFFFFFFFFFFFFFFFFFFFFFFFFFFFFFFFFFFFFFFFFFFFFFFFFFFFFFFF
310
FFFFFFFFFFFFFFFFFFFFFFFFFFFFFFFFFFFFFFFFFFFFFFFFFFFFFFFFFFFFFFFF
310
0100000200000000000000000000000000000000000000000000000000000000
310
0000000000000000000000000000000000000000000000000000000000000000
310
0100FEFF030A0000FFFFFFFF0A00030000000000C00000000000004607000000
310
5042727573680007000000504272757368000700000050427275736800F439B2
310
7100000000000000000000000000000000000000000000000000000000000000
310
0000000000000000000000000000000000000000000000000000000000000000
310
0000000000000000000000000000000000000000000000000000000000000000
310
0000000000000000000000000000000000000000000000000000000000000000
310
0000000000000000000000000000000000000000000000000000000000000000
310
0000000000000000000000000000000000000000000000000000000000000000
310
0000000000000000000000000000000000000000000000000000000000000000
310
0000000000000000000000000000000000000000000000000000000000000000
310
0000000000000000000000000000000000000000000000000000000000000000
310
0000000000000000000000000000000000000000000000000000000000000000
310
0000000000000000000000000000000000000000000000000000000000000000
310
0000000000000000000000000000000000000000000000000000000000000000
310
20260000424D0E260000000000003E00000028000000B40200006E0000000100
310
01000000000000000000130B0000130B00000200000002000000000000FFFFFF
310
FFFFFFFFFFFFFFFFFFFFFFFFFFFFFFFFFFFFFFFFFFFFFFFFFFFFFFFFFFFFFFFF
310
FFFFFFFFFFFFFFFFFFFFFFFFFFFFFFFFFFFFFFFFFFFFFFFFFFFFFFFFFFFFFFFF
310
FFFFFFFFFFFFFFFFFFFFFFFFFFFFFFFFFFFFFFFFFFFFFFFFF000FFFFFFFFFFFF
310
FFFFFFFFFFFFFFFFFFFFFFFFFFFFFFFFFFFFFFFFFFFFFFFFFFFFFFFFFFFFFFFF
310
FFFFFFFFFFFFFFFFFFFFFFFFFFFFFFFFFFFFFFFFFFFFFFFFFFFFFFFFFFFFFFFF
310
FFFFFFFFFFFFFFFFFFFFFFFFFFFFFFFFF000FFFFFFFFFFFFFFFFFFFFFFFFFFFF
310
FFFFFFFFFFFFFFFFFFFFFFFFFFFFFFFFFFFFFFFFFFFFFFFFFFFFFFFFFFFFFFFF
310
FFFFFFFFFFFFFFFFFFFFFFFFFFFFFFFFFFFFFFFFFFFFFFFFFFFFFFFFFFFFFFFF
310
FFFFFFFFFFFFFFFFF000FFFFFFFFFFFFFFFFFFFFFFFFFFFFFFFFFFFFFFFFFFFF
310
FFFFFFFFFFFFFFFFFFFFFFFFFFFFFFFFFFFFFFFFFFFFFFFFFFFFFFFFFFFFFFFF
310
FFFFFFFFFFFFFFFFFFFFFFFFFFFFFFFFFFFFFFFFFFFFFFFFFFFFFFFFFFFFFFFF
310
F000FFFFFFFFFFFFFFFFFFFFFFFFFFFFFFFFFFFFFFFFFFFFFFFFFFFFFFFFFFFF
310
FFFFFFFFFFFFFFFFFFFFFFFFFFFFFFFFFFFFFFFFFFFFFFFFFFFFFFFFFFFFFFFF
310
FFFFFFFFFFFFFFFFFFFFFFFFFFFFFFFFFFFFFFFFFFFFFFFFF000FFFFFFFFFFFF
310
FFFFFFFFFFFFFFFFFFFFFFFFFFFFFFFFFFFFFFFFFFFFFFFFFFFFFFFFFFFFFFFF
310
FFFFFFFFFFFFFFFFFFFFFFFFFFFFFFFFFFFFFFFFFFFFFFFFFFFFFFFFFFFFFFFF
310
FFFFFFFFFFFFFFFFFFFFFFFFFFFFFFFFF000FFFFFFFFFFFFFFFFFFFFFFFFFFFF
310
FFFFFFFFFFFFFFFFFFFFFFFFFFFFFFFFFFFFFFFFFFFFFFFFFFFFFFFFFFFFFFFF
310
FFFFFFFFFFFFFFFFFFFFFFFFFFFFFFFFFFFFFFFFFFFFFFFFFFFFFFFFFFFFFFFF
310
FFFFFFFFFFFFFFFFF000FFFFFFFFFFFFFFFFFFFFFFFFFFFFFFFFFFFFFFFFFFFF
310
FFFFFFFFFFFFFFFFFFFFFFFFFFFFFFFFFFFFFFFFFFFFFFFFFFFFFFFFFFFFFFFF
310
FFFFFFFFFFFFFFFFFFFFFFFFFFFFFFFFFFFFFFFFFFFFFFFFFFFFFFFFFFFFFFFF
310
F000FFFFFFFFFFFFFFFFFFFFFFFFFFFFFFFFFFFFFFFFFFFFFFFFFFFFFFFFFFFF
310
FFFFFFFFFFFFFFFFFFFFFFFFFFFFFFFFFFFFFFFFFFFFFFFFFFFFFFFFFFFFFFFF
310
FFFFFFFFFFFFFFFFFFFFFFFFFFFFFFFFFFFFFFFFFFFFFFFFF000FFFFFFFFFFFF
310
FFFFFFFFFFFFFFFFFFFFFFFFFFFFFFFFFFFFFFFFFFFFFFFFFFFFFFFFFFFFFFFF
310
FFFFFFFFFFFFFFFFFFFFFFFFFFFFFFFFFFFFFFFFFFFFFFFFFFFFFFFFFFFFFFFF
310
FFFFFFFFFFFFFFFFFFFFFFFFFFFFFFFFF000FFFFFFFFFFFFFFFFFFFFFFFFFFFF
310
FFFFFFFFFFFFFFFFFFFFFFFFFFFFFFFFFFFFFFFFFFFFFFFFFFFFFFFFFFFFFFFF
310
FFFFFFFFFFFFFFFFFFFFFFFFFFFFFFFFFFFFFFFFFFFFFFFFFFFFFFFFFFFFFFFF
310
FFFFFFFFFFFFFFFFF000FFFFFFFFFFFFFFFFFFFFFFFFFFFFFFFFFFFFFFFFFFFF
310
FFFFFFFFFFFFFFFFFFFFFFFFFFFFFFFFFFFFFFFFFFFFFFFFFFFFFFFFFFFFFFFF
310
FFFFFFFFFFFFFFFFFFFFFFFFFFFFFFFFFFFFFFFFFFFFFFFFFFFFFFFFFFFFFFFF
310
F000FFFFFFFFFFFFFFFFFFFFFFFFFFFFFFFFFFFFFFFFFFFFFFFFFFFFFFFFFFFF
310
FFFFFFFFFFFFFFFFFFFFFFFFFFFFFFFFFFFFFFFFFFFFFFFFFFFFFFFFFFFFFFFF
310
FFFFFFFFFFFFFFFFFFFFFFFFFFFFFFFFFFFFFFFFFFFFFFFFF000FFFFFFFFFFFF
310
FFFFFFFFFFFFFFFFFFFFFFFFFFFFFFFFFFFFFFFFFFFFFFFFFFFFFFFFFFFFFFFF
310
FFFFFFFFFFFFFFFFFFFFFFFFFFFFFFFFFFFFFFFFFFFFFFFFFFFFFFFFFFFFFFFF
310
FFFFFFFFFFFFFFFFFFFFFFFFFFFFFFFFF000FFFFFFFFFFFFFFFFFFFFFFFFFFFF
310
FFFFFFFFFFFFFFFFFFFFFFFFFFFFFFFFFFFFFFFFFFFFFFFFFFFFFFFFFFFFFFFF
310
FFFFFFFFFFFFFFFFFFFFFFFFFFFFFFFFFFFFFFFFFFFFFFFFFFFFFFFFFFFFFFFF
310
FFFFFFFFFFFFFFFFF000FFFFFFFFFFFFFFFFFFFFFFFFFFFFFFFFFFFFFFFFFFFF
310
FFFFFFFFFFFFFFFFFFFFFFFFFFFFFFFFFFFFFFFFFFFFFFFFFFFFFFFFFFFFFFFF
310
FFFFFFFFFFFFFFFFFFFFFFFFFFFFFFFFFFFFFFFFFFFFFFFFFFFFFFFFFFFFFFFF
310
F000FFFFFFFFFFFFFFFFFFFFFFFFFFFFFFFFFFFFFFFFFFFFFFFFFFFFFFFFFFFF
310
FFFFFFFFFFFFFFFFFFFFFFFFFFFFFFFFFFFFFFFFFFFFFFFFFFFFFFFFFFFFFFFF
310
FFFFFFFFFFFFFFFFFFFFFFFFFFFFFFFFFFFFFFFFFFFFFFFFF000FFFFFFFFFFFF
310
FFFFFFFFFFFFFFFFFFFFFFFFFFFFFFFFFFFFFFFFFFFFFFFFFFFFFFFFFFFFFFFF
310
FFFFFFFFFFFFFFFFFFFFFFFFFFFFFFFFFFFFFFFFFFFFFFFFFFFFFFFFFFFFFFFF
310
FFFFFFFFFFFFFFFFFFFFFFFFFFFFFFFFF000FFFFFFFFFFFFFFFFFFFFFFFFFFFF
310
FFFFFFFFFFFFFFFFFFFFFFFFFFFFFFFFFFFFFFFFFFFFFFFFFFFFFFFFFFFFFFFF
310
FFFFFFFFFFFFFFFFFFFFFFFFFFFFFFFFFFFFFFFFFFFFFFFFFFFFFFFFFFFFFFFF
310
FFFFFFFFFFFFFFFFF000FFFFF80003FFFFFFFFFFFFFFFFFFFFFFFFFFFFFFFFFF
310
FFFFF00007FFFFFFFFFF00007FFFFFF800000000000000007FFFFFFFFFFFFFFF
310
FFFFFFFC001FFFFFFFFFFFFFFC001FFFFFFFFFFFFFFFFFFFFFFFFFFE0007FFFF
310
F000FFFF8000007FFFFFFFF8000FFFFFC0007FFFFF80007FFFFF0000007FFFFF
310
FFF8000007FFFFF800000000000000007FFFFFF0001FFFFFFFFFFFC00001FFFF
310
FFFFFFFFC00001FFFFFFFF000000000003FFFFE000007FFFF000FFFE0000000F
310
FFFFFFF0000FFFFF80007FFFFF80007FFFFC0000001FFFFFFFC0000001FFFFF8
310
00000000000000007FFFFFF0001FFFFFFFFFFE0000003FFFFFFFFFFE0000003F
310
FFFFFF000000000003FFFF0000000FFFF000FFF800000003FFFFFFF00007FFFF
310
80007FFFFF80007FFFF000000007FFFFFF000000003FFFF80000000000000000
310
7FFFFFF0001FFFFFFFFFF80000000FFFFFFFFFF80000000FFFFFFF0000000000
310
03FFFC00000003FFF000FFE000000000FFFFFFF00007FFFF80003FFFFF80007F
310
FFC000000001FFFFFC000000001FFFF800000000000000007FFFFFF0001FFFFF
310
FFFFE000000003FFFFFFFFE000000003FFFFFF000000000003FFF000000000FF
310
F000FF80000000007FFFFFF00007FFFF80003FFFFF80007FFF8000000000FFFF
310
F80000000007FFF800000000000000007FFFFFF0001FFFFFFFFFC000000001FF
310
FFFFFFC000000001FFFFFF000000000003FFC0000000007FF000FF0000000000
310
3FFFFFE00007FFFF00003FFFFF80007FFE00000000003FFFF00000000003FFF8
310
00000000000000007FFFFFF0001FFFFFFFFF8000000000FFFFFFFF8000000000
310
FFFFFF000000000003FF80000000003FF000FE00000000001FFFFFE00003FFFF
310
00003FFFFF80007FFC00000000001FFFE00000000001FFF8000001FFFE000000
310
7FFFFFF0001FFFFFFFFE00000000003FFFFFFE00000000003FFFFF0000000000
310
03FF00000000001FF000FC00000000000FFFFFE00003FFFF00001FFFFF80007F
310
F800000000001FFFC00000000000FFF8000001FFFE0000007FFFFFF0001FFFFF
310
FFFC00000000001FFFFFFC00000000001FFFFF000000000003FE00000000000F
310
F000F8000000000007FFFFE00003FFFF00001FFFFF80007FF800000000000FFF
310
800000000000FFF8000001FFFE0000007FFFFFF0001FFFFFFFF800000000000F
310
FFFFF800000000000FFFFF000000000003FC000000000007F000F80000000000
310
03FFFFC00003FFFE00001FFFFF80007FF0000000000007FF0000000000007FF8
310
000001FFFE0000007FFFFFF0001FFFFFFFF0000000000007FFFFF00000000000
310
07FFFF000000000003F8000000000003F000F0000000000003FFFFC00001FFFE
310
00001FFFFF80007FE0000000000007FE0000000000003FF8000001FFFE000000
310
7FFFFFF0001FFFFFFFF0000000000007FFFFF0000000000007FFFF0000000000
310
03F800001F800003F000E00001FFF00001FFFFC00001FFFE00000FFFFF80007F
310
E00001FFE00003FE00001FFF00003FF8000001FFFE0000007FFFFFF0001FFFFF
310
FFE000003E000003FFFFE000003E000003FFFF000000000003F00001FFF80001
310
F000E00007FFFC0001FFFFC00001FFFE00000FFFFF80007FC0000FFFFC0003FC
310
0000FFFFC0001FF8000001FFFE0000007FFFFFF0001FFFFFFFC00003FFE00001
310
FFFFC00003FFE00001FFFF0001FFFFFFFFF00007FFFE0001F000E0000FFFFF00
310
00FFFF800001FFFC00000FFFFF80007FC0001FFFFE0001FC0001FFFFE0001FF8
310
000001FFFE0000007FFFFFF0001FFFFFFF80000FFFF80000FFFF80000FFFF800
310
00FFFF0003FFFFFFFFE0000FFFFF8000F000C0003FFFFF8000FFFF800000FFFC
310
000007FFFF80007F80003FFFFF0001FC0003FFFFF0001FF8000001FFFE000000
310
7FFFFFF0001FFFFFFF80003FFFFE0000FFFF80003FFFFE0000FFFF0003FFFFFF
310
FFE0003FFFFF8000F000C0003FFFFF8000FFFF800000FFFC000007FFFF80007F
310
80007FFFFF8001F80007FFFFF8000FF8000001FFFE0000007FFFFFF0001FFFFF
310
FF00007FFFFF00007FFF00007FFFFF00007FFF0003FFFFFFFFE0003FFFFFC000
310
F000C0007FFFFFC000FFFF000000FFFC000007FFFF80007F8000FFFFFF8000F8
310
000FFFFFF8000FF8000001FFFE0000007FFFFFF0001FFFFFFF0000FFFFFF8000
310
7FFF0000FFFFFF80007FFF0003FFFFFFFFC0007FFFFFC00070008000FFFFFFC0
310
00FFFF000000FFF8000007FFFF80007F8000FFFFFF8000F8000FFFFFF8000FF8
310
000001FFFE0000007FFFFFF0001FFFFFFE0001FFFFFFC0003FFE0001FFFFFFC0
310
003FFF0003FFFFFFFFC0007FFFFFE00070008000FFFFFFC0007FFF0000007FF8
310
000003FFFF80007F0001FFFFFF8000F8000FFFFFF8000FF8000001FFFE000000
310
7FFFFFF0001FFFFFFE0001FFFFFFC0003FFE0001FFFFFFC0003FFF0003FFFFFF
310
FFC000FFFFFFE00070008000FFFFFFC0007FFF0000007FF8000003FFFF80007F
310
0001FFFFFF8000F8001FFFFFF8000FF8000001FFFE0000007FFFFFF0001FFFFF
310
FE0003FFFFFFE0003FFE0003FFFFFFE0003FFF0003FFFFFFFFC000FFFFFFE000
310
70008000FFFFFFC0007FFE0000007FF8000003FFFF80007F0001FFFFFF8000F0
310
001FFFFFF8000FF8000001FFFE0000007FFFFFF0001FFFFFFC0003FFFFFFE000
310
1FFC0003FFFFFFE0001FFF0003FFFFFFFFC000FFFFFFC00070008000FFFFFF80
310
007FFE0000007FF0000003FFFF80007F0001FFFFFF0000F0001FFFFFF8000FF8
310
000001FFFE0000007FFFFFF0001FFFFFFC0007FFFFFFF0001FFC0007FFFFFFF0
310
001FFF0003FFFFFFFFC000FFFFFFC00070008001FFFFFF0000FFFE0000003FF0
310
000001FFFF80007F0001FFFFFF0000F8001FFFFFF0000FF8000001FFFE000000
310
7FFFFFF0001FFFFFFC0007FFFFFFF0001FFC0007FFFFFFF0001FFF0003FFFFFF
310
FFC001FFFFFF80007000FFFFFFFFFE0000FFFE0008003FF0008001FFFF80007F
310
FFFFFFFFFC0000FFFFFFFFFFE0000FF8000001FFFE0000007FFFFFF0001FFFFF
310
F8000FFFFFFFF8000FF8000FFFFFFFF8000FFF0003FFFFFFFFFFFFFFFFFF0000
310
7000FFFFFFFFFC0000FFFC0008003FF0008001FFFF80007FFFFFFFFFF80001FF
310
FFFFFFFF80000FF8000001FFFE0000007FFFFFF0001FFFFFF8000FFFFFFFF800
310
0FF8000FFFFFFFF8000FFF0003FFFFFFFFFFFFFFFFFE0000F000FFFFFFFFE000
310
00FFFC000C003FE000C001FFFF80007FFFFFFFFFC00001FFFFFFFFFE00001FF8
310
000001FFFE0000007FFFFFF0001FFFFFF8000FFFFFFFF8000FF8000FFFFFFFF8
310
000FFF0003FFFFFFFFFFFFFFFFF00000F000FFFFFFFE000001FFFC000C001FE0
310
00C000FFFF80007FFFFFFFFE000001FFFFFFFFE000001FF80FFFFFFFFFFFFFC0
310
7FFFFFF0001FFFFFF8000FFFFFFFF8000FF8000FFFFFFFF8000FFF0003FFFFFF
310
FFFFFFFFFF800000F000FFFFFFC0000001FFFC001C001FE001C000FFFF80007F
310
FFFFFF80000003FFFFFFF80000001FF80FFFFFFFFFFFFFC07FFFFFF0001FFFFF
310
F8001FFFFFFFFC000FF8001FFFFFFFFC000FFF0003FFFFFFFFFFFFFFF0000001
310
F000FFFFF800000001FFF8001C001FE001C000FFFF80007FFFFFF800000003FF
310
FFFF800000003FF80FFFFFFFFFFFFFC07FFFFFF0001FFFFFF8001FFFFFFFFC00
310
0FF8001FFFFFFFFC000FFF0003FFFFFFFFFFFFFE00000001F000FFFFC0000000
310
03FFF8001E001FC001E000FFFF80007FFFFF8000000007FFFFFC000000003FF8
310
0FFFFFFFFFFFFFC07FFFFFF0001FFFFFF8001FFFFFFFFC000FF8001FFFFFFFFC
310
000FFF0003FFFFFFFFFFFFE000000003F000FFFE0000000007FFF8001E000FC0
310
01E0007FFF80007FFFFE0000000007FFFFE0000000007FF80FFFFFFFFFFFFFC0
310
7FFFFFF0001FFFFFF0001FFFFFFFFC0007F0001FFFFFFFFC0007FF0003FFFFFF
310
FFFFFF0000000003F000FFF80000000007FFF8001E000FC003E0007FFF80007F
310
FFF0000000000FFFFF8000000000FFF80FFFFFFFFFFFFFC07FFFFFF0001FFFFF
310
F0001FFFFFFFFC0007F0001FFFFFFFFC0007FF0003FFFFFFFFFFFC0000000007
310
F000FFE0000000000FFFF0003E000FC003E0007FFF80007FFFC0000000001FFF
310
FE0000000001FFF80FFFFFFFFFFFFFC07FFFFFF0001FFFFFF0001FFFFFFFFC00
310
07F0001FFFFFFFFC0007FF0003FFFFFFFFFFF0000000000FF000FFC000000000
310
1FFFF0003F000F8003F0003FFF80007FFF80000000003FFFF80000000003FFF8
310
0FFFFFFFFFFFFFC07FFFFFF0001FFFFFF0001FFFFFFFFC0007F0001FFFFFFFFC
310
0007FF0003FFFFFFFFFFE0000000001FF000FF00000000007FFFF0003F000780
310
03F0003FFF80007FFF00000000007FFFF00000000007FFF80FFFFFFFFFFFFFC0
310
7FFFFFF0001FFFFFF0001FFFFFFFFC0007F0001FFFFFFFFC0007FF0003FFFFFF
310
FFFF80000000007FF000FE0000000000FFFFE0003F00078007F0003FFF80007F
310
FE0000000001FFFFE0000000001FFFF80FFFFFFFFFFFFFC07FFFFFF0001FFFFF
310
F0001FFFFFFFFC0007F0001FFFFFFFFC0007FF0003FFFFFFFFFF0000000000FF
310
F000FC0000000003FFFFE0007F00078007F0003FFF80007FFC0000000007FFFF
310
C0000000007FFFF80FFFFFFFFFFFFFC07FFFFFF0001FFFFFF8001FFFFFFFFC00
310
0FF8001FFFFFFFFC000FFF0003FFFFFFFFFE0000000003FFF000FC000000000F
310
FFFFE0007F80070007F8001FFF80007FF8000000001FFFFF8000000001FFFFF8
310
0FFFFFFFFFFFFFC07FFFFFF0001FFFFFF8001FFFFFFFFC000FF8001FFFFFFFFC
310
000FFF0003FFFFFFFFFC000000000FFFF000F8000000007FFFFFE0007F800700
310
07F8001FFF80007FF000000000FFFFFF800000000FFFFFF80FFFFFFFFFFFFFC0
310
7FFFFFF0001FFFFFF8000FFFFFFFF8000FF8000FFFFFFFF8000FFF0003FFFFFF
310
FFFC000000007FFFF000F800000007FFFFFFC0007F8003000FF8001FFF80007F
310
F000000007FFFFFF000000007FFFFFF80FFFFFFFFFFFFFC07FFFFFF0001FFFFF
310
F8000FFFFFFFF8000FF8000FFFFFFFF8000FFF0003FFFFFFFFF80000000FFFFF
310
F000F0000000FFFFFFFFC000FF8003000FF8001FFF80007FE0000000FFFFFFFF
310
0000000FFFFFFFF8000001FFFE0000007FFFFFF0001FFFFFF8000FFFFFFFF800
310
0FF8000FFFFFFFF8000FFF0003FFFFFFFFF8000000FFFFFFF000F000000FFFFF
310
FFFFC000FFC002000FF8000FFF80007FE000001FFFFFFFFE000001FFFFFFFFF8
310
000001FFFE0000007FFFFFF0001FFFFFF8000FFFFFFFF8000FF8000FFFFFFFF8
310
000FFF0003FFFFFFFFF000001FFFFFFFF000E00000FFFFFFFFFFC000FFC00200
310
0FFC000FFF80007FE00001FFFFFFFFFE00001FFFFFFFFFF8000001FFFE000000
310
7FFFFFF0001FFFFFFC000FFFFFFFF8001FFC000FFFFFFFF8001FFF0003FFFFFF
310
FFF00001FFFFFFFFF000E00007FFFFFFFFFF8000FFC000001FFC000FFF80007F
310
C0000FFFFFFFFFFE0000FFFFFFFFFFF8000001FFFE0000007FFFFFF0001FFFFF
310
FC0007FFFFFFF0001FFC0007FFFFFFF0001FFF0003FFFFFFFFF00007FFFFFFFF
310
F000E0001FFFFFFFFFFF8000FFC000001FFC000FFF80007FC0003FFFFFFFFFFE
310
0001FFFFFFFFFFF8000001FFFE0000007FFFFFF0001FFFFFFC0007FFFFFFF000
310
1FFC0007FFFFFFF0001FFF0003FFFFFFFFF0001FFFFFFFFFF000E0003FFFFF00
310
03FF8001FFE000001FFC0007FF80007FC0007FFFFF0007FC0003FFFFF0003FF8
310
000001FFFE0000007FFFFFF0001FFFFFFC0003FFFFFFE0001FFC0003FFFFFFE0
310
001FFF0003FFFFFFFFF0003FFFFFFFFFF000E0003FFFFF0001FF8001FFE00000
310
1FFE0007FF80007FC0007FFFFE0003FC0007FFFFE0003FF8000001FFFE000000
310
7FFFFFF0001FFFFFFE0003FFFFFFE0003FFE0003FFFFFFE0003FFF0003FFFFFF
310
FFF0003FFFFF8001F000E0003FFFFF0001FF0001FFE000001FFE0007FF80007F
310
C0007FFFFE0003FC0007FFFFE0003FF8000001FFFE0000007FFFFFF0001FFFFF
310
FE0001FFFFFFC0003FFE0001FFFFFFC0003FFF0003FFFFFFFFF0003FFFFF0001
310
F000E0003FFFFF0003FF0001FFE000003FFE0007FF80007FC0007FFFFE0003FC
310
0007FFFFE0003FF8000001FFFE0000007FFFFFF0001FFFFFFF0001FFFFFFC000
310
7FFF0001FFFFFFC0007FFF0003FFFFFFFFF0003FFFFF0001F000E0003FFFFE00
310
03FF0003FFF000003FFE0003FF80007FC0007FFFFC0003FE0007FFFFE0003FF8
310
000001FFFE0000007FFFFFF0001FFFFFFF0000FFFFFF80007FFF0000FFFFFF80
310
007FFF0003FFFFFFFFF0003FFFFF0001F000E0003FFFFE0003FF0003FFF00000
310
3FFF0003FF80007FC0007FFFFC0007FE0007FFFFC0003FF8000001FFFE000000
310
7FFFFFF0001FFFFFFF80007FFFFF0000FFFF80007FFFFF0000FFFF0003FFFFFF
310
FFF0003FFFFF0003F000E0003FFFFC0003FE0003FFF000003FFF0003FF80007F
310
E0003FFFF80007FE0003FFFFC0007FF8000001FFFE0000007FFFFFF0001FFFFF
310
FF80003FFFFE0000FFFF80003FFFFE0000FFFF0003FFFFFFFFF0001FFFFE0003
310
F000F0001FFFF80003FE0003FFF000007FFF0001FF80007FE0003FFFF00007FE
310
0001FFFF80007FF8000001FFFE0000007FFFFFF0001FFFFFFFC0000FFFF80001
310
FFFFC0000FFFF80001FFFF0003FFFFFFFFF0001FFFFC0003F000F0000FFFF000
310
07FE0007FFF800007FFF0001FF80007FE0001FFFE00007FF0000FFFE00007FF8
310
000001FFFE0000007FFFFFF0001FFFFFFFC00003FFE00001FFFFC00003FFE000
310
01FFFF0003FFFFFFFFF8000FFFF80003F000F00003FFC00007FC0007FFF80000
310
7FFF8001FF80007FF00007FF80000FFF00007FF80000FFF8000001FFFE000000
310
7F80000000000001FFE000003E000003FFFFE000003E000003FFFF0003FFFFFF
310
FFF80003FFE00007F000F800000000000FFC0007FFF800007FFF8001FF80007F
310
F000000000000FFF000000000000FFF8000001FFFE0000007F80000000000001
310
FFF0000000000007FFFFF0000000000007FFFF0003FFFFFFFFFC00007E000007
310
F000F800000000000FFC0007FFF80000FFFF8000FF80007FF800000000001FFF
310
800000000001FFF8000001FFFE0000007F80000000000001FFF800000000000F
310
FFFFF800000000000FFFFF0003FFFFFFFFFC00000000000FF000FC0000000000
310
1FFC0007FFFC0000FFFF8000FF80007FF800000000003FFFC00000000001FFF8
310
000001FFFE0000007F80000000000001FFF800000000000FFFFFF80000000000
310
0FFFFF0003FFFFFFFFFE00000000001FF000FE00000000003FF8000FFFFC0000
310
FFFF8000FF80007FFC00000000003FFFC00000000003FFF8000001FFFE000000
310
7F80000000000001FFFC00000000001FFFFFFC00000000001FFFFF0003FFFFFF
310
FFFF00000000001FF000FF00000000003FF8000FFFFC0000FFFFC000FF80007F
310
FE00000000007FFFE00000000007FFF8000001FFFE0000007F80000000000001
310
FFFE00000000003FFFFFFE00000000003FFFFF0003FFFFFFFFFF80000000003F
310
F000FF80000000007FF8000FFFFC0001FFFFC0007F80007FFF0000000000FFFF
310
F0000000000FFFF800000000000000007F80000000000001FFFF8000000000FF
310
FFFFFF8000000000FFFFFF0003FFFFFFFFFFC0000000007FF000FFC000000000
310
FFF8000FFFFE0001FFFFC0007F80007FFF8000000001FFFFF8000000001FFFF8
310
00000000000000007F80000000000001FFFFC000000001FFFFFFFFC000000001
310
FFFFFF0003FFFFFFFFFFE000000000FFF000FFE000000003FFF0001FFFFE0001
310
FFFFC0007F80007FFFC000000007FFFFFE000000003FFFF80000000000000000
310
7F80000000000001FFFFE000000003FFFFFFFFE000000003FFFFFF0003FFFFFF
310
FFFFF000000003FFF000FFF80000000FFFF0001FFFFE0001FFFFE0007F80007F
310
FFF00000000FFFFFFF00000000FFFFF800000000000000007F80000000000001
310
FFFFF80000000FFFFFFFFFF80000000FFFFFFF0003FFFFFFFFFFFC0000000FFF
310
F000FFFE0000003FFFF0001FFFFE0003FFFFE0003F80007FFFFC0000003FFFFF
310
FFC0000003FFFFF800000000000000007F80000000000001FFFFFE0000003FFF
310
FFFFFFFE0000003FFFFFFF0003FFFFFFFFFFFF0000003FFFF000FFFF800000FF
310
FFF0001FFFFF0003FFFFE0003F80007FFFFF000001FFFFFFFFF800001FFFFFF8
310
00000000000000007F80000000000001FFFFFFC00001FFFFFFFFFFFFC00001FF
310
FFFFFF0003FFFFFFFFFFFFC00000FFFFF000FFFFF8000FFFFFFFFFFFFFFFFFFF
310
FFFFFFFFFFFFFFFFFFFFF0001FFFFFFFFFFF0000FFFFFFF80000000000000000
310
7FFFFFFFFFFFFFFFFFFFFFFC001FFFFFFFFFFFFFFC001FFFFFFFFFFFFFFFFFFF
310
FFFFFFFC001FFFFFF000FFFFFFFFFFFFFFFFFFFFFFFFFFFFFFFFFFFFFFFFFFFF
310
FFFFFFFFFFFFFFFFFFFFFFFFFFFFFFFFFFFFFFFFFFFFFFFFFFFFFFFFFFFFFFFF
310
FFFFFFFFFFFFFFFFFFFFFFFFFFFFFFFFFFFFFFFFFFFFFFFFFFFFFFFFFFFFFFFF
310
F000FFFFFFFFFFFFFFFFFFFFFFFFFFFFFFFFFFFFFFFFFFFFFFFFFFFFFFFFFFFF
310
FFFFFFFFFFFFFFFFFFFFFFFFFFFFFFFFFFFFFFFFFFFFFFFFFFFFFFFFFFFFFFFF
310
FFFFFFFFFFFFFFFFFFFFFFFFFFFFFFFFFFFFFFFFFFFFFFFFF000FFFFFFFFFFFF
310
FFFFFFFFFFFFFFFFFFFFFFFFFFFFFFFFFFFFFFFFFFFFFFFFFFFFFFFFFFFFFFFF
310
FFFFFFFFFFFFFFFFFFFFFFFFFFFFFFFFFFFFFFFFFFFFFFFFFFFFFFFFFFFFFFFF
310
FFFFFFFFFFFFFFFFFFFFFFFFFFFFFFFFF000FFFFFFFFFFFFFFFFFFFFFFFFFFFF
310
FFFFFFFFFFFFFFFFFFFFFFFFFFFFFFFFFFFFFFFFFFFFFFFFFFFFFFFFFFFFFFFF
310
FFFFFFFFFFFFFFFFFFFFFFFFFFFFFFFFFFFFFFFFFFFFFFFFFFFFFFFFFFFFFFFF
310
FFFFFFFFFFFFFFFFF000FFFFFFFFFFFFFFFFFFFFFFFFFFFFFFFFFFFFFFFFFFFF
310
FFFFFFFFFFFFFFFFFFFFFFFFFFFFFFFFFFFFFFFFFFFFFFFFFFFFFFFFFFFFFFFF
310
FFFFFFFFFFFFFFFFFFFFFFFFFFFFFFFFFFFFFFFFFFFFFFFFFFFFFFFFFFFFFFFF
310
F000FFFFFFFFFFFFFFFFFFFFFFFFFFFFFFFFFFFFFFFFFFFFFFFFFFFFFFFFFFFF
310
FFFFFFFFFFFFFFFFFFFFFFFFFFFFFFFFFFFFFFFFFFFFFFFFFFFFFFFFFFFFFFFF
310
FFFFFFFFFFFFFFFFFFFFFFFFFFFFFFFFFFFFFFFFFFFFFFFFF000FFFFFFFFFFFF
310
FFFFFFFFFFFFFFFFFFFFFFFFFFFFFFFFFFFFFFFFFFFFFFFFFFFFFFFFFFFFFFFF
310
FFFFFFFFFFFFFFFFFFFFFFFFFFFFFFFFFFFFFFFFFFFFFFFFFFFFFFFFFFFFFFFF
310
FFFFFFFFFFFFFFFFFFFFFFFFFFFFFFFFF000FFFFFFFFFFFFFFFFFFFFFFFFFFFF
310
FFFFFFFFFFFFFFFFFFFFFFFFFFFFFFFFFFFFFFFFFFFFFFFFFFFFFFFFFFFFFFFF
310
FFFFFFFFFFFFFFFFFFFFFFFFFFFFFFFFFFFFFFFFFFFFFFFFFFFFFFFFFFFFFFFF
310
FFFFFFFFFFFFFFFFF000FFFFFFFFFFFFFFFFFFFFFFFFFFFFFFFFFFFFFFFFFFFF
310
FFFFFFFFFFFFFFFFFFFFFFFFFFFFFFFFFFFFFFFFFFFFFFFFFFFFFFFFFFFFFFFF
310
FFFFFFFFFFFFFFFFFFFFFFFFFFFFFFFFFFFFFFFFFFFFFFFFFFFFFFFFFFFFFFFF
310
F000FFFFFFFFFFFFFFFFFFFFFFFFFFFFFFFFFFFFFFFFFFFFFFFFFFFFFFFFFFFF
310
FFFFFFFFFFFFFFFFFFFFFFFFFFFFFFFFFFFFFFFFFFFFFFFFFFFFFFFFFFFFFFFF
310
FFFFFFFFFFFFFFFFFFFFFFFFFFFFFFFFFFFFFFFFFFFFFFFFF000FFFFFFFFFFFF
310
FFFFFFFFFFFFFFFFFFFFFFFFFFFFFFFFFFFFFFFFFFFFFFFFFFFFFFFFFFFFFFFF
310
FFFFFFFFFFFFFFFFFFFFFFFFFFFFFFFFFFFFFFFFFFFFFFFFFFFFFFFFFFFFFFFF
310
FFFFFFFFFFFFFFFFFFFFFFFFFFFFFFFFF000FFFFFFFFFFFFFFFFFFFFFFFFFFFF
310
FFFFFFFFFFFFFFFFFFFFFFFFFFFFFFFFFFFFFFFFFFFFFFFFFFFFFFFFFFFFFFFF
310
FFFFFFFFFFFFFFFFFFFFFFFFFFFFFFFFFFFFFFFFFFFFFFFFFFFFFFFFFFFFFFFF
310
FFFFFFFFFFFFFFFFF000FFFFFFFFFFFFFFFFFFFFFFFFFFFFFFFFFFFFFFFFFFFF
310
FFFFFFFFFFFFFFFFFFFFFFFFFFFFFFFFFFFFFFFFFFFFFFFFFFFFFFFFFFFFFFFF
310
FFFFFFFFFFFFFFFFFFFFFFFFFFFFFFFFFFFFFFFFFFFFFFFFFFFFFFFFFFFFFFFF
310
F000FFFFFFFFFFFFFFFFFFFFFFFFFFFFFFFFFFFFFFFFFFFFFFFFFFFFFFFFFFFF
310
FFFFFFFFFFFFFFFFFFFFFFFFFFFFFFFFFFFFFFFFFFFFFFFFFFFFFFFFFFFFFFFF
310
FFFFFFFFFFFFFFFFFFFFFFFFFFFFFFFFFFFFFFFFFFFFFFFFF000FFFFFFFFFFFF
310
FFFFFFFFFFFFFFFFFFFFFFFFFFFFFFFFFFFFFFFFFFFFFFFFFFFFFFFFFFFFFFFF
310
FFFFFFFFFFFFFFFFFFFFFFFFFFFFFFFFFFFFFFFFFFFFFFFFFFFFFFFFFFFFFFFF
310
FFFFFFFFFFFFFFFFFFFFFFFFFFFFFFFFF000FFFFFFFFFFFFFFFFFFFFFFFFFFFF
310
FFFFFFFFFFFFFFFFFFFFFFFFFFFFFFFFFFFFFFFFFFFFFFFFFFFFFFFFFFFFFFFF
310
FFFFFFFFFFFFFFFFFFFFFFFFFFFFFFFFFFFFFFFFFFFFFFFFFFFFFFFFFFFFFFFF
310
FFFFFFFFFFFFFFFFF000FFFFFFFFFFFFFFFFFFFFFFFFFFFFFFFFFFFFFFFFFFFF
310
FFFFFFFFFFFFFFFFFFFFFFFFFFFFFFFFFFFFFFFFFFFFFFFFFFFFFFFFFFFFFFFF
310
FFFFFFFFFFFFFFFFFFFFFFFFFFFFFFFFFFFFFFFFFFFFFFFFFFFFFFFFFFFFFFFF
310
F000FFFFFFFFFFFFFFFFFFFFFFFFFFFFFFFFFFFFFFFFFFFFFFFFFFFFFFFFFFFF
310
FFFFFFFFFFFFFFFFFFFFFFFFFFFFFFFFFFFFFFFFFFFFFFFFFFFFFFFFFFFFFFFF
310
FFFFFFFFFFFFFFFFFFFFFFFFFFFFFFFFFFFFFFFFFFFFFFFFF000FFFFFFFFFFFF
310
FFFFFFFFFFFFFFFFFFFFFFFFFFFFFFFFFFFFFFFFFFFFFFFFFFFFFFFFFFFFFFFF
310
FFFFFFFFFFFFFFFFFFFFFFFFFFFFFFFFFFFFFFFFFFFFFFFFFFFFFFFFFFFFFFFF
310
FFFFFFFFFFFFFFFFFFFFFFFFFFFFFFFFF000FFFFFFFFFFFFFFFFFFFFFFFFFFFF
310
FFFFFFFFFFFFFFFFFFFFFFFFFFFFFFFFFFFFFFFFFFFFFFFFFFFFFFFFFFFFFFFF
310
FFFFFFFFFFFFFFFFFFFFFFFFFFFFFFFFFFFFFFFFFFFFFFFFFFFFFFFFFFFFFFFF
310
FFFFFFFFFFFFFFFFF000FFFFFFFFFFFFFFFFFFFFFFFFFFFFFFFFFFFFFFFFFFFF
310
FFFFFFFFFFFFFFFFFFFFFFFFFFFFFFFFFFFFFFFFFFFFFFFFFFFFFFFFFFFFFFFF
310
FFFFFFFFFFFFFFFFFFFFFFFFFFFFFFFFFFFFFFFFFFFFFFFFFFFFFFFFFFFFFFFF
310
F000FFFFFFFFFFFFFFFFFFFFFFFFFFFFFFFFFFFFFFFFFFFFFFFFFFFFFFFFFFFF
310
FFFFFFFFFFFFFFFFFFFFFFFFFFFFFFFFFFFFFFFFFFFFFFFFFFFFFFFFFFFFFFFF
310
FFFFFFFFFFFFFFFFFFFFFFFFFFFFFFFFFFFFFFFFFFFFFFFFF000FFFFFFFFFFFF
310
FFFFFFFFFFFFFFFFFFFFFFFFFFFFFFFFFFFFFFFFFFFFFFFFFFFFFFFFFFFFFFFF
310
FFFFFFFFFFFFFFFFFFFFFFFFFFFFFFFFFFFFFFFFFFFFFFFFFFFFFFFFFFFFFFFF
310
FFFFFFFFFFFFFFFFFFFFFFFFFFFFFFFFF0000000000000000000000000000000
310
0000000000000000000000000000000000000000000000000000000000000000
310
0000000000000000000000000000000000000000000000000000000000000000
310
0000000000000000000000000000000000000000000000000000000000000000
310
0000000000000000000000000000000000000000000000000000000000000000
310
0000000000000000000000000000000000000000000000000000000000000000
310
0000000000000000000000000000000000000000000000000000000000000000
310
0000000000000000000000000000000000000000000000000000000000000000
310
0000000000000000000000000000000000000000000000000000000000000000
310
0000000000000000000000000000000000000000000000000000000000000000
310
0000000000000000000000000000000000000000000000000000000000000000
310
0000000000000000000000000000000000000000000000000000000000000000
310
0000000000000000000000000000000000000000000000000000000000000000
310
0000000000000000000000000000000000000000000000000000000000000000
310
0000000000000000000000000000000000000000000000000000000000000000
310
0000000000000000000000000000000000000000000000000000000000000000
  1
OLE
  0
ENDSEC
  0
SECTION
  2
OBJECTS
  0
DICTIONARY
  5
C
330
0
100
AcDbDictionary
281
     1
  3
ACAD_GROUP
350
D
  3
ACAD_LAYOUT
350
1A
  3
ACAD_MLINESTYLE
350
17
  3
ACAD_PLOTSETTINGS
350
19
  3
ACAD_PLOTSTYLENAME
350
E
  3
ACAD_SCALELIST
350
47
  0
DICTIONARY
  5
D
102
{ACAD_REACTORS
330
C
102
}
330
C
100
AcDbDictionary
281
     1
  0
DICTIONARY
  5
1A
102
{ACAD_REACTORS
330
C
102
}
330
C
100
AcDbDictionary
281
     1
  3
Layout1
350
1E
  3
Layout2
350
26
  3
Model
350
22
  0
DICTIONARY
  5
17
102
{ACAD_REACTORS
330
C
102
}
330
C
100
AcDbDictionary
281
     1
  3
Standard
350
18
  0
DICTIONARY
  5
19
102
{ACAD_REACTORS
330
C
102
}
330
C
100
AcDbDictionary
281
     1
  0
ACDBDICTIONARYWDFLT
  5
E
102
{ACAD_REACTORS
330
C
102
}
330
C
100
AcDbDictionary
281
     1
  3
Normal
350
F
100
AcDbDictionaryWithDefault
340
F
  0
DICTIONARY
  5
47
102
{ACAD_REACTORS
330
C
102
}
330
C
100
AcDbDictionary
281
     1
  3
A0
350
48
  3
A1
350
49
  3
A2
350
4A
  3
A3
350
4B
  3
A4
350
4C
  3
A5
350
4D
  3
A6
350
4E
  3
A7
350
4F
  3
A8
350
50
  3
A9
350
51
  3
B0
350
52
  3
B1
350
53
  3
B2
350
54
  3
B3
350
55
  3
B4
350
56
  3
B5
350
57
  3
B6
350
58
  3
B7
350
59
  3
B8
350
5A
  3
B9
350
5B
  3
C0
350
5C
  3
C1
350
5D
  3
C2
350
5E
  3
C3
350
5F
  3
C4
350
60
  3
C5
350
61
  3
C6
350
62
  3
C7
350
63
  3
C8
350
64
  3
C9
350
65
  3
D0
350
66
  3
D1
350
67
  3
D2
350
68
  0
LAYOUT
  5
1E
102
{ACAD_REACTORS
330
1A
102
}
330
1A
100
AcDbPlotSettings
  1

  2
none_device
  4

  6

 40
0.0
 41
0.0
 42
0.0
 43
0.0
 44
0.0
 45
0.0
 46
0.0
 47
0.0
 48
0.0
 49
0.0
140
0.0
141
0.0
142
1.0
143
1.0
 70
   688
 72
     1
 73
     0
 74
     5
  7

 75
    16
147
1.0
148
0.0
149
0.0
100
AcDbLayout
  1
Layout1
 70
     1
 71
     1
 10
0.0
 20
0.0
 11
420.0
 21
297.0
 12
0.0
 22
0.0
 32
0.0
 14
1.0000000000E+20
 24
1.0000000000E+20
 34
1.0000000000E+20
 15
-1.0000000000E+20
 25
-1.0000000000E+20
 35
-1.0000000000E+20
146
0.0
 13
0.0
 23
0.0
 33
0.0
 16
1.0
 26
0.0
 36
0.0
 17
0.0
 27
1.0
 37
0.0
 76
     0
330
1B
  0
LAYOUT
  5
26
102
{ACAD_REACTORS
330
1A
102
}
330
1A
100
AcDbPlotSettings
  1

  2
none_device
  4

  6

 40
0.0
 41
0.0
 42
0.0
 43
0.0
 44
0.0
 45
0.0
 46
0.0
 47
0.0
 48
0.0
 49
0.0
140
0.0
141
0.0
142
1.0
143
1.0
 70
   688
 72
     1
 73
     0
 74
     5
  7

 75
    16
147
1.0
148
0.0
149
0.0
100
AcDbLayout
  1
Layout2
 70
     1
 71
     2
 10
0.0
 20
0.0
 11
0.0
 21
0.0
 12
0.0
 22
0.0
 32
0.0
 14
0.0
 24
0.0
 34
0.0
 15
0.0
 25
0.0
 35
0.0
146
0.0
 13
0.0
 23
0.0
 33
0.0
 16
1.0
 26
0.0
 36
0.0
 17
0.0
 27
1.0
 37
0.0
 76
     0
330
23
  0
LAYOUT
  5
22
102
{ACAD_REACTORS
330
1A
102
}
330
1A
100
AcDbPlotSettings
  1

  2
none_device
  4
Letter_(8.50_x_11.00_Inches)
  6

 40
6.35
 41
6.35
 42
6.35000508
 43
6.35000508
 44
215.9
 45
279.4
 46
0.0
 47
0.0
 48
0.0
 49
0.0
140
0.0
141
0.0
142
1.0
143
1.0
 70
  1712
 72
     1
 73
     0
 74
     0
  7

 75
     0
147
1.0
148
0.0
149
0.0
100
AcDbLayout
  1
Model
 70
     1
 71
     0
 10
0.0
 20
0.0
 11
297.0
 21
210.0
 12
0.0
 22
0.0
 32
0.0
 14
0.0
 24
0.0
 34
0.0
 15
297.0
 25
210.0
 35
0.0
146
0.0
 13
0.0
 23
0.0
 33
0.0
 16
1.0
 26
0.0
 36
0.0
 17
0.0
 27
1.0
 37
0.0
 76
     0
330
1F
331
29
  0
MLINESTYLE
  5
18
102
{ACAD_REACTORS
330
17
102
}
330
17
100
AcDbMlineStyle
  2
Standard
 70
     0
  3

 62
   256
 51
90.0
 52
90.0
 71
     2
 49
0.5
 62
   256
  6
BYLAYER
 49
-0.5
 62
   256
  6
BYLAYER
  0
ACDBPLACEHOLDER
  5
F
102
{ACAD_REACTORS
330
E
102
}
330
E
  0
SCALE
  5
48
102
{ACAD_REACTORS
330
47
102
}
330
47
100
AcDbScale
 70
     0
300
1:1
140
1.0
141
1.0
290
     1
  0
SCALE
  5
49
102
{ACAD_REACTORS
330
47
102
}
330
47
100
AcDbScale
 70
     0
300
1:2
140
1.0
141
2.0
290
     0
  0
SCALE
  5
4A
102
{ACAD_REACTORS
330
47
102
}
330
47
100
AcDbScale
 70
     0
300
1:4
140
1.0
141
4.0
290
     0
  0
SCALE
  5
4B
102
{ACAD_REACTORS
330
47
102
}
330
47
100
AcDbScale
 70
     0
300
1:5
140
1.0
141
5.0
290
     0
  0
SCALE
  5
4C
102
{ACAD_REACTORS
330
47
102
}
330
47
100
AcDbScale
 70
     0
300
1:8
140
1.0
141
8.0
290
     0
  0
SCALE
  5
4D
102
{ACAD_REACTORS
330
47
102
}
330
47
100
AcDbScale
 70
     0
300
1:10
140
1.0
141
10.0
290
     0
  0
SCALE
  5
4E
102
{ACAD_REACTORS
330
47
102
}
330
47
100
AcDbScale
 70
     0
300
1:16
140
1.0
141
16.0
290
     0
  0
SCALE
  5
4F
102
{ACAD_REACTORS
330
47
102
}
330
47
100
AcDbScale
 70
     0
300
1:20
140
1.0
141
20.0
290
     0
  0
SCALE
  5
50
102
{ACAD_REACTORS
330
47
102
}
330
47
100
AcDbScale
 70
     0
300
1:30
140
1.0
141
30.0
290
     0
  0
SCALE
  5
51
102
{ACAD_REACTORS
330
47
102
}
330
47
100
AcDbScale
 70
     0
300
1:40
140
1.0
141
40.0
290
     0
  0
SCALE
  5
52
102
{ACAD_REACTORS
330
47
102
}
330
47
100
AcDbScale
 70
     0
300
1:50
140
1.0
141
50.0
290
     0
  0
SCALE
  5
53
102
{ACAD_REACTORS
330
47
102
}
330
47
100
AcDbScale
 70
     0
300
1:100
140
1.0
141
100.0
290
     0
  0
SCALE
  5
54
102
{ACAD_REACTORS
330
47
102
}
330
47
100
AcDbScale
 70
     0
300
2:1
140
2.0
141
1.0
290
     0
  0
SCALE
  5
55
102
{ACAD_REACTORS
330
47
102
}
330
47
100
AcDbScale
 70
     0
300
4:1
140
4.0
141
1.0
290
     0
  0
SCALE
  5
56
102
{ACAD_REACTORS
330
47
102
}
330
47
100
AcDbScale
 70
     0
300
8:1
140
8.0
141
1.0
290
     0
  0
SCALE
  5
57
102
{ACAD_REACTORS
330
47
102
}
330
47
100
AcDbScale
 70
     0
300
10:1
140
10.0
141
1.0
290
     0
  0
SCALE
  5
58
102
{ACAD_REACTORS
330
47
102
}
330
47
100
AcDbScale
 70
     0
300
100:1
140
100.0
141
1.0
290
     0
  0
SCALE
  5
59
102
{ACAD_REACTORS
330
47
102
}
330
47
100
AcDbScale
 70
     0
300
1/128" = 1'-0"
140
0.0078125
141
12.0
290
     0
  0
SCALE
  5
5A
102
{ACAD_REACTORS
330
47
102
}
330
47
100
AcDbScale
 70
     0
300
1/64" = 1'-0"
140
0.015625
141
12.0
290
     0
  0
SCALE
  5
5B
102
{ACAD_REACTORS
330
47
102
}
330
47
100
AcDbScale
 70
     0
300
1/32" = 1'-0"
140
0.03125
141
12.0
290
     0
  0
SCALE
  5
5C
102
{ACAD_REACTORS
330
47
102
}
330
47
100
AcDbScale
 70
     0
300
1/16" = 1'-0"
140
0.0625
141
12.0
290
     0
  0
SCALE
  5
5D
102
{ACAD_REACTORS
330
47
102
}
330
47
100
AcDbScale
 70
     0
300
3/32" = 1'-0"
140
0.09375
141
12.0
290
     0
  0
SCALE
  5
5E
102
{ACAD_REACTORS
330
47
102
}
330
47
100
AcDbScale
 70
     0
300
1/8" = 1'-0"
140
0.125
141
12.0
290
     0
  0
SCALE
  5
5F
102
{ACAD_REACTORS
330
47
102
}
330
47
100
AcDbScale
 70
     0
300
3/16" = 1'-0"
140
0.1875
141
12.0
290
     0
  0
SCALE
  5
60
102
{ACAD_REACTORS
330
47
102
}
330
47
100
AcDbScale
 70
     0
300
1/4" = 1'-0"
140
0.25
141
12.0
290
     0
  0
SCALE
  5
61
102
{ACAD_REACTORS
330
47
102
}
330
47
100
AcDbScale
 70
     0
300
3/8" = 1'-0"
140
0.375
141
12.0
290
     0
  0
SCALE
  5
62
102
{ACAD_REACTORS
330
47
102
}
330
47
100
AcDbScale
 70
     0
300
1/2" = 1'-0"
140
0.5
141
12.0
290
     0
  0
SCALE
  5
63
102
{ACAD_REACTORS
330
47
102
}
330
47
100
AcDbScale
 70
     0
300
3/4" = 1'-0"
140
0.75
141
12.0
290
     0
  0
SCALE
  5
64
102
{ACAD_REACTORS
330
47
102
}
330
47
100
AcDbScale
 70
     0
300
1" = 1'-0"
140
1.0
141
12.0
290
     0
  0
SCALE
  5
65
102
{ACAD_REACTORS
330
47
102
}
330
47
100
AcDbScale
 70
     0
300
1-1/2" = 1'-0"
140
1.5
141
12.0
290
     0
  0
SCALE
  5
66
102
{ACAD_REACTORS
330
47
102
}
330
47
100
AcDbScale
 70
     0
300
3" = 1'-0"
140
3.0
141
12.0
290
     0
  0
SCALE
  5
67
102
{ACAD_REACTORS
330
47
102
}
330
47
100
AcDbScale
 70
     0
300
6" = 1'-0"
140
6.0
141
12.0
290
     0
  0
SCALE
  5
68
102
{ACAD_REACTORS
330
47
102
}
330
47
100
AcDbScale
 70
     0
300
1'-0" = 1'-0"
140
12.0
141
12.0
290
     0
  0
ENDSEC
  0
EOF
