  0
SECTION
  2
HEADER
  9
$ACADVER
  1
AC1015
  9
$ACADMAINTVER
 70
     6
  9
$DWGCODEPAGE
  3
ANSI_1252
  9
$INSBASE
 10
0.0
 20
0.0
 30
0.0
  9
$EXTMIN
 10
0.0
 20
0.0
 30
0.0
  9
$EXTMAX
 10
297.0
 20
210.0
 30
0.0
  9
$LIMMIN
 10
0.0
 20
0.0
  9
$LIMMAX
 10
297.0
 20
210.0
  9
$ORTHOMODE
 70
     0
  9
$REGENMODE
 70
     1
  9
$FILLMODE
 70
     1
  9
$QTEXTMODE
 70
     0
  9
$MIRRTEXT
 70
     1
  9
$LTSCALE
 40
1.0
  9
$ATTMODE
 70
     1
  9
$TEXTSIZE
 40
2.0
  9
$TRACEWID
 40
1.0
  9
$TEXTSTYLE
  7
Standard
  9
$CLAYER
  8
0
  9
$CELTYPE
  6
ByLayer
  9
$CECOLOR
 62
   256
  9
$CELTSCALE
 40
1.0
  9
$DISPSILH
 70
     0
  9
$DIMSCALE
 40
1.0
  9
$DIMASZ
 40
3.0
  9
$DIMEXO
 40
0.0
  9
$DIMDLI
 40
3.75
  9
$DIMRND
 40
0.0
  9
$DIMDLE
 40
0.0
  9
$DIMEXE
 40
1.0
  9
$DIMTP
 40
0.0
  9
$DIMTM
 40
0.0
  9
$DIMTXT
 40
2.0
  9
$DIMCEN
 40
2.5
  9
$DIMTSZ
 40
0.0
  9
$DIMTOL
 70
     0
  9
$DIMLIM
 70
     0
  9
$DIMTIH
 70
     1
  9
$DIMTOH
 70
     1
  9
$DIMSE1
 70
     0
  9
$DIMSE2
 70
     0
  9
$DIMTAD
 70
     1
  9
$DIMZIN
 70
     0
  9
$DIMBLK
  1

  9
$DIMASO
 70
     1
  9
$DIMSHO
 70
     1
  9
$DIMPOST
  1

  9
$DIMAPOST
  1

  9
$DIMALT
 70
     0
  9
$DIMALTD
 70
     3
  9
$DIMALTF
 40
0.0393700787
  9
$DIMLFAC
 40
2.0
  9
$DIMTOFL
 70
     1
  9
$DIMTVP
 40
0.0
  9
$DIMTIX
 70
     0
  9
$DIMSOXD
 70
     0
  9
$DIMSAH
 70
     0
  9
$DIMBLK1
  1

  9
$DIMBLK2
  1

  9
$DIMSTYLE
  2
ISO-25
  9
$DIMCLRD
 70
     0
  9
$DIMCLRE
 70
     0
  9
$DIMCLRT
 70
     0
  9
$DIMTFAC
 40
1.0
  9
$DIMGAP
 40
1.524
  9
$DIMJUST
 70
     0
  9
$DIMSD1
 70
     0
  9
$DIMSD2
 70
     0
  9
$DIMTOLJ
 70
     0
  9
$DIMTZIN
 70
     0
  9
$DIMALTZ
 70
     0
  9
$DIMALTTZ
 70
     0
  9
$DIMUPT
 70
     0
  9
$DIMDEC
 70
     2
  9
$DIMTDEC
 70
     3
  9
$DIMALTU
 70
     2
  9
$DIMALTTD
 70
     3
  9
$DIMTXSTY
  7
Standard
  9
$DIMAUNIT
 70
     0
  9
$DIMADEC
 70
     2
  9
$DIMALTRND
 40
0.0
  9
$DIMAZIN
 70
     0
  9
$DIMDSEP
 70
    44
  9
$DIMATFIT
 70
     3
  9
$DIMFRAC
 70
     0
  9
$DIMLDRBLK
  1

  9
$DIMLUNIT
 70
     2
  9
$DIMLWD
 70
    -2
  9
$DIMLWE
 70
    -2
  9
$DIMTMOVE
 70
     0
  9
$LUNITS
 70
     2
  9
$LUPREC
 70
     2
  9
$SKETCHINC
 40
1.0
  9
$FILLETRAD
 40
10.0
  9
$AUNITS
 70
     0
  9
$AUPREC
 70
     2
  9
$MENU
  1
.
  9
$ELEVATION
 40
0.0
  9
$PELEVATION
 40
0.0
  9
$THICKNESS
 40
0.0
  9
$LIMCHECK
 70
     0
  9
$CHAMFERA
 40
0.0
  9
$CHAMFERB
 40
0.0
  9
$CHAMFERC
 40
0.0
  9
$CHAMFERD
 40
0.0
  9
$SKPOLY
 70
     0
  9
$TDCREATE
 40
2458164.647239722
  9
$TDUCREATE
 40
2458164.605573055
  9
$TDUPDATE
 40
2458164.64724316
  9
$TDUUPDATE
 40
2458164.605576493
  9
$TDINDWG
 40
0.0000000116
  9
$TDUSRTIMER
 40
0.0000000116
  9
$USRTIMER
 70
     1
  9
$ANGBASE
 50
0.0
  9
$ANGDIR
 70
     0
  9
$PDMODE
 70
     0
  9
$PDSIZE
 40
-1.0
  9
$PLINEWID
 40
0.0
  9
$SPLFRAME
 70
     0
  9
$SPLINETYPE
 70
     6
  9
$SPLINESEGS
 70
     8
  9
$HANDSEED
  5
2F5
  9
$SURFTAB1
 70
     6
  9
$SURFTAB2
 70
     6
  9
$SURFTYPE
 70
     6
  9
$SURFU
 70
     6
  9
$SURFV
 70
     6
  9
$UCSBASE
  2

  9
$UCSNAME
  2

  9
$UCSORG
 10
0.0
 20
0.0
 30
0.0
  9
$UCSXDIR
 10
1.0
 20
0.0
 30
0.0
  9
$UCSYDIR
 10
0.0
 20
1.0
 30
0.0
  9
$UCSORTHOREF
  2

  9
$UCSORTHOVIEW
 70
     0
  9
$UCSORGTOP
 10
0.0
 20
0.0
 30
0.0
  9
$UCSORGBOTTOM
 10
0.0
 20
0.0
 30
0.0
  9
$UCSORGLEFT
 10
0.0
 20
0.0
 30
0.0
  9
$UCSORGRIGHT
 10
0.0
 20
0.0
 30
0.0
  9
$UCSORGFRONT
 10
0.0
 20
0.0
 30
0.0
  9
$UCSORGBACK
 10
0.0
 20
0.0
 30
0.0
  9
$PUCSBASE
  2

  9
$PUCSNAME
  2

  9
$PUCSORG
 10
0.0
 20
0.0
 30
0.0
  9
$PUCSXDIR
 10
1.0
 20
0.0
 30
0.0
  9
$PUCSYDIR
 10
0.0
 20
1.0
 30
0.0
  9
$PUCSORTHOREF
  2

  9
$PUCSORTHOVIEW
 70
     0
  9
$PUCSORGTOP
 10
0.0
 20
0.0
 30
0.0
  9
$PUCSORGBOTTOM
 10
0.0
 20
0.0
 30
0.0
  9
$PUCSORGLEFT
 10
0.0
 20
0.0
 30
0.0
  9
$PUCSORGRIGHT
 10
0.0
 20
0.0
 30
0.0
  9
$PUCSORGFRONT
 10
0.0
 20
0.0
 30
0.0
  9
$PUCSORGBACK
 10
0.0
 20
0.0
 30
0.0
  9
$USERI1
 70
     0
  9
$USERI2
 70
     0
  9
$USERI3
 70
     0
  9
$USERI4
 70
     0
  9
$USERI5
 70
     0
  9
$USERR1
 40
0.0
  9
$USERR2
 40
0.0
  9
$USERR3
 40
0.0
  9
$USERR4
 40
0.0
  9
$USERR5
 40
0.0
  9
$WORLDVIEW
 70
     1
  9
$SHADEDGE
 70
     3
  9
$SHADEDIF
 70
    70
  9
$TILEMODE
 70
     1
  9
$MAXACTVP
 70
    64
  9
$PINSBASE
 10
0.0
 20
0.0
 30
0.0
  9
$PLIMCHECK
 70
     0
  9
$PEXTMIN
 10
1.0000000000E+20
 20
1.0000000000E+20
 30
1.0000000000E+20
  9
$PEXTMAX
 10
-1.0000000000E+20
 20
-1.0000000000E+20
 30
-1.0000000000E+20
  9
$PLIMMIN
 10
0.0
 20
0.0
  9
$PLIMMAX
 10
420.0
 20
297.0
  9
$UNITMODE
 70
     0
  9
$VISRETAIN
 70
     1
  9
$PLINEGEN
 70
     0
  9
$PSLTSCALE
 70
     1
  9
$TREEDEPTH
 70
  3020
  9
$CMLSTYLE
  2
Standard
  9
$CMLJUST
 70
     0
  9
$CMLSCALE
 40
20.0
  9
$PROXYGRAPHICS
 70
     1
  9
$MEASUREMENT
 70
     1
  9
$CELWEIGHT
370
    -1
  9
$ENDCAPS
280
     0
  9
$JOINSTYLE
280
     0
  9
$LWDISPLAY
290
     1
  9
$INSUNITS
 70
     4
  9
$HYPERLINKBASE
  1

  9
$STYLESHEET
  1

  9
$XEDIT
290
     1
  9
$CEPSNTYPE
380
     0
  9
$PSTYLEMODE
290
     1
  9
$FINGERPRINTGUID
  2
{698B2A8B-4B2D-469E-A184-42548657792D}
  9
$VERSIONGUID
  2
{FAEB1C32-E019-11D5-929B-00C0DF256EC4}
  9
$EXTNAMES
290
     1
  9
$PSVPSCALE
 40
0.0
  9
$OLESTARTUP
290
     0
  0
ENDSEC
  0
SECTION
  2
CLASSES
  0
CLASS
  1
ACDBDICTIONARYWDFLT
  2
AcDbDictionaryWithDefault
  3
ObjectDBX Classes
 90
        0
280
     0
281
     0
  0
CLASS
  1
VISUALSTYLE
  2
AcDbVisualStyle
  3
ObjectDBX Classes
 90
     4095
280
     0
281
     0
  0
CLASS
  1
MATERIAL
  2
AcDbMaterial
  3
ObjectDBX Classes
 90
     1153
280
     0
281
     0
  0
CLASS
  1
SCALE
  2
AcDbScale
  3
ObjectDBX Classes
 90
     1153
280
     0
281
     0
  0
CLASS
  1
TABLESTYLE
  2
AcDbTableStyle
  3
ObjectDBX Classes
 90
     4095
280
     0
281
     0
  0
CLASS
  1
MLEADERSTYLE
  2
AcDbMLeaderStyle
  3
ACDB_MLEADERSTYLE_CLASS
 90
     4095
280
     0
281
     0
  0
CLASS
  1
SUN
  2
AcDbSun
  3
SCENEOE
 90
     1153
280
     0
281
     0
  0
CLASS
  1
ACDBPLACEHOLDER
  2
AcDbPlaceHolder
  3
ObjectDBX Classes
 90
        0
280
     0
281
     0
  0
CLASS
  1
LAYOUT
  2
AcDbLayout
  3
ObjectDBX Classes
 90
        0
280
     0
281
     0
  0
ENDSEC
  0
SECTION
  2
TABLES
  0
TABLE
  2
VPORT
  5
8
330
0
100
AcDbSymbolTable
 70
     1
  0
VPORT
  5
29
330
8
100
AcDbSymbolTableRecord
100
AcDbViewportTableRecord
  2
*Active
 70
     0
 10
0.0
 20
0.0
 11
1.0
 21
1.0
 12
148.5
 22
105.0
 13
0.0
 23
0.0
 14
10.0
 24
10.0
 15
10.0
 25
10.0
 16
0.0
 26
0.0
 36
1.0
 17
0.0
 27
0.0
 37
0.0
 40
210.0
 41
1.4142857143
 42
50.0
 43
0.0
 44
0.0
 50
0.0
 51
0.0
 71
     0
 72
  2000
 73
     1
 74
     3
 75
     0
 76
     0
 77
     0
 78
     0
281
     0
 65
     1
110
0.0
120
0.0
130
0.0
111
1.0
121
0.0
131
0.0
112
0.0
122
1.0
132
0.0
 79
     0
146
0.0
  0
ENDTAB
  0
TABLE
  2
LTYPE
  5
5
330
0
100
AcDbSymbolTable
 70
     6
  0
LTYPE
  5
14
330
5
100
AcDbSymbolTableRecord
100
AcDbLinetypeTableRecord
  2
ByBlock
 70
     0
  3

 72
    65
 73
     0
 40
0.0
  0
LTYPE
  5
15
330
5
100
AcDbSymbolTableRecord
100
AcDbLinetypeTableRecord
  2
ByLayer
 70
     0
  3

 72
    65
 73
     0
 40
0.0
  0
LTYPE
  5
16
330
5
100
AcDbSymbolTableRecord
100
AcDbLinetypeTableRecord
  2
Continuous
 70
     0
  3
Solid line
 72
    65
 73
     0
 40
0.0
  0
LTYPE
  5
6E
330
5
100
AcDbSymbolTableRecord
100
AcDbLinetypeTableRecord
  2
HIDDEN
 70
     0
  3
Hidden __ __ __ __ __ __ __ __ __ __ __ __ __ __
 72
    65
 73
     2
 40
1.905
 49
1.27
 74
     0
 49
-0.635
 74
     0
  0
LTYPE
  5
6F
330
5
100
AcDbSymbolTableRecord
100
AcDbLinetypeTableRecord
  2
PHANTOM
 70
     0
  3
Phantom ______  __  __  ______  __  __  ______
 72
    65
 73
     6
 40
12.7
 49
6.35
 74
     0
 49
-1.27
 74
     0
 49
1.27
 74
     0
 49
-1.27
 74
     0
 49
1.27
 74
     0
 49
-1.27
 74
     0
  0
LTYPE
  5
70
330
5
100
AcDbSymbolTableRecord
100
AcDbLinetypeTableRecord
  2
CENTER
 70
     0
  3
Center ____ _ ____ _ ____ _ ____ _ ____ _ ____
 72
    65
 73
     4
 40
10.16
 49
6.35
 74
     0
 49
-1.27
 74
     0
 49
1.27
 74
     0
 49
-1.27
 74
     0
  0
LTYPE
  5
71
330
5
100
AcDbSymbolTableRecord
100
AcDbLinetypeTableRecord
  2
CENTERX2
 70
     0
  3
Center (2x) ________  __  ________  __  _____
 72
    65
 73
     4
 40
20.32
 49
12.7
 74
     0
 49
-2.54
 74
     0
 49
2.54
 74
     0
 49
-2.54
 74
     0
  0
LTYPE
  5
72
330
5
100
AcDbSymbolTableRecord
100
AcDbLinetypeTableRecord
  2
DOT2
 70
     0
  3
Dot (.5x) ........................................
 72
    65
 73
     2
 40
0.635
 49
0.0
 74
     0
 49
-0.635
 74
     0
  0
ENDTAB
  0
TABLE
  2
LAYER
  5
2
330
0
100
AcDbSymbolTable
 70
     5
  0
LAYER
  5
10
330
2
100
AcDbSymbolTableRecord
100
AcDbLayerTableRecord
  2
0
 70
     0
 62
     7
  6
Continuous
370
    -3
390
F
  0
LAYER
  5
73
330
2
100
AcDbSymbolTableRecord
100
AcDbLayerTableRecord
  2
FORMAT
 70
     0
 62
     7
  6
Continuous
370
    -3
390
F
  0
LAYER
  5
74
330
2
100
AcDbSymbolTableRecord
100
AcDbLayerTableRecord
  2
VERMASSUNG
 70
     0
 62
     7
  6
Continuous
370
    -3
390
F
  0
LAYER
  5
75
330
2
100
AcDbSymbolTableRecord
100
AcDbLayerTableRecord
  2
KOPF_DÜNN
 70
     0
 62
     7
  6
Continuous
370
    -3
390
F
  0
LAYER
  5
76
330
2
100
AcDbSymbolTableRecord
100
AcDbLayerTableRecord
  2
KOPF_DICK
 70
     0
 62
     7
  6
Continuous
370
    25
390
F
  0
ENDTAB
  0
TABLE
  2
STYLE
  5
3
330
0
100
AcDbSymbolTable
 70
     3
  0
STYLE
  5
11
330
3
100
AcDbSymbolTableRecord
100
AcDbTextStyleTableRecord
  2
Standard
 70
     0
 40
0.0
 41
1.0
 50
0.0
 71
     0
 42
2.0
  3
txt
  4

  0
STYLE
  5
77
330
3
100
AcDbSymbolTableRecord
100
AcDbTextStyleTableRecord
  2
SLDTEXTSTYLE0
 70
     0
 40
0.0
 41
0.7
 50
0.0
 71
     0
 42
2.0
  3
TXT
  4

  0
STYLE
  5
7B
330
3
100
AcDbSymbolTableRecord
100
AcDbTextStyleTableRecord
  2
SLDTEXTSTYLE1
 70
     0
 40
0.0
 41
0.6538461538
 50
0.0
 71
     0
 42
2.0
  3
TXT
  4

  0
ENDTAB
  0
TABLE
  2
VIEW
  5
6
330
0
100
AcDbSymbolTable
 70
     0
  0
ENDTAB
  0
TABLE
  2
UCS
  5
7
330
0
100
AcDbSymbolTable
 70
     0
  0
ENDTAB
  0
TABLE
  2
APPID
  5
9
330
0
100
AcDbSymbolTable
 70
     1
  0
APPID
  5
12
330
9
100
AcDbSymbolTableRecord
100
AcDbRegAppTableRecord
  2
ACAD
 70
     0
  0
ENDTAB
  0
TABLE
  2
DIMSTYLE
  5
A
330
0
100
AcDbSymbolTable
 70
     5
100
AcDbDimStyleTable
  0
DIMSTYLE
105
27
330
A
100
AcDbSymbolTableRecord
100
AcDbDimStyleTableRecord
  2
ISO-25
 70
     0
 41
2.5
 42
0.625
 43
3.75
 44
1.25
 73
     0
 74
     0
 77
     1
 78
     8
140
2.5
141
2.5
143
0.0393700787
147
0.625
171
     3
172
     1
178
     0
271
     2
272
     2
274
     3
278
    44
283
     0
284
     8
340
11
  0
DIMSTYLE
105
207
102
{ACAD_REACTORS
330
206
330
225
330
23A
330
244
330
251
330
25B
102
}
330
A
100
AcDbSymbolTableRecord
100
AcDbDimStyleTableRecord
  2
SLDDIMSTYLE0
 70
     0
 41
3.0
 44
0.0
 45
0.000000001
 73
     0
 74
     0
 77
     1
 78
    12
 79
     3
140
2.0
147
0.5
173
     1
178
     0
271
     2
272
     3
276
     2
284
    12
340
77
  0
DIMSTYLE
105
212
102
{ACAD_REACTORS
330
211
102
}
330
A
100
AcDbSymbolTableRecord
100
AcDbDimStyleTableRecord
  2
SLDDIMSTYLE1
 70
     0
 41
3.0
 44
0.0
 73
     0
 74
     0
 77
     1
 78
    12
 79
     3
140
2.0
147
0.5
173
     1
178
     0
179
     2
272
     3
276
     2
284
    12
340
77
  0
DIMSTYLE
105
21C
102
{ACAD_REACTORS
330
21B
102
}
330
A
100
AcDbSymbolTableRecord
100
AcDbDimStyleTableRecord
  2
SLDDIMSTYLE2
 70
     0
 41
3.0
 44
0.0
 45
0.000000001
 73
     0
 74
     0
 76
     1
 77
     1
 78
    12
 79
     3
140
2.0
147
0.5
173
     1
178
     0
271
     2
272
     3
276
     2
282
     1
284
    12
340
77
  0
DIMSTYLE
105
230
102
{ACAD_REACTORS
330
22F
102
}
330
A
100
AcDbSymbolTableRecord
100
AcDbDimStyleTableRecord
  2
SLDDIMSTYLE3
 70
     0
 41
3.0
 44
0.0
 45
0.000000001
 73
     0
 74
     0
 77
     1
 78
    12
 79
     3
140
2.0
147
0.5
173
     1
178
     0
271
     1
272
     3
276
     2
284
    12
340
77
  0
ENDTAB
  0
TABLE
  2
BLOCK_RECORD
  5
1
330
0
100
AcDbSymbolTable
 70
    10
  0
BLOCK_RECORD
  5
1F
330
1
100
AcDbSymbolTableRecord
100
AcDbBlockTableRecord
  2
*Model_Space
340
22
  0
BLOCK_RECORD
  5
1B
330
1
100
AcDbSymbolTableRecord
100
AcDbBlockTableRecord
  2
*Paper_Space
340
1E
  0
BLOCK_RECORD
  5
23
330
1
100
AcDbSymbolTableRecord
100
AcDbBlockTableRecord
  2
*Paper_Space0
340
26
  0
BLOCK_RECORD
  5
208
330
1
100
AcDbSymbolTableRecord
100
AcDbBlockTableRecord
  2
_D
340
0
  0
BLOCK_RECORD
  5
213
330
1
100
AcDbSymbolTableRecord
100
AcDbBlockTableRecord
  2
_D_1
340
0
  0
BLOCK_RECORD
  5
21D
330
1
100
AcDbSymbolTableRecord
100
AcDbBlockTableRecord
  2
_D_2
340
0
  0
BLOCK_RECORD
  5
226
330
1
100
AcDbSymbolTableRecord
100
AcDbBlockTableRecord
  2
_D_3
340
0
  0
BLOCK_RECORD
  5
231
330
1
100
AcDbSymbolTableRecord
100
AcDbBlockTableRecord
  2
_D_4
340
0
  0
BLOCK_RECORD
  5
23B
330
1
100
AcDbSymbolTableRecord
100
AcDbBlockTableRecord
  2
_D_5
340
0
  0
BLOCK_RECORD
  5
245
330
1
100
AcDbSymbolTableRecord
100
AcDbBlockTableRecord
  2
_D_6
340
0
  0
BLOCK_RECORD
  5
252
330
1
100
AcDbSymbolTableRecord
100
AcDbBlockTableRecord
  2
_D_7
340
0
  0
BLOCK_RECORD
  5
25C
330
1
100
AcDbSymbolTableRecord
100
AcDbBlockTableRecord
  2
_D_8
340
0
  0
ENDTAB
  0
ENDSEC
  0
SECTION
  2
BLOCKS
  0
BLOCK
  5
20
330
1F
100
AcDbEntity
  8
0
100
AcDbBlockBegin
  2
*Model_Space
 70
     0
 10
0.0
 20
0.0
 30
0.0
  3
*Model_Space
  1

  0
ENDBLK
  5
21
330
1F
100
AcDbEntity
  8
0
100
AcDbBlockEnd
  0
BLOCK
  5
1C
330
1B
100
AcDbEntity
 67
     1
  8
0
100
AcDbBlockBegin
  2
*Paper_Space
 70
     0
 10
0.0
 20
0.0
 30
0.0
  3
*Paper_Space
  1

  0
ENDBLK
  5
1D
330
1B
100
AcDbEntity
 67
     1
  8
0
100
AcDbBlockEnd
  0
BLOCK
  5
24
330
23
100
AcDbEntity
  8
0
100
AcDbBlockBegin
  2
*Paper_Space0
 70
     0
 10
0.0
 20
0.0
 30
0.0
  3
*Paper_Space0
  1

  0
ENDBLK
  5
25
330
23
100
AcDbEntity
  8
0
100
AcDbBlockEnd
  0
BLOCK
  5
209
330
208
100
AcDbEntity
  8
0
100
AcDbBlockBegin
  2
_D
 70
     0
 10
0.0
 20
0.0
 30
0.0
  3
_D
  1

  0
SOLID
  5
20B
330
208
100
AcDbEntity
  8
VERMASSUNG
100
AcDbTrace
 10
259.8013708841
 20
139.8755172034
 30
0.0
 11
259.3513708841
 21
136.8755172034
 31
0.0
 12
260.2513708841
 22
136.8755172034
 32
0.0
 13
260.2513708841
 23
136.8755172034
 33
0.0
  0
SOLID
  5
20C
330
208
100
AcDbEntity
  8
VERMASSUNG
100
AcDbTrace
 10
259.8013708841
 20
118.8755172034
 30
0.0
 11
260.2513708841
 21
121.8755172034
 31
0.0
 12
259.3513708841
 22
121.8755172034
 32
0.0
 13
259.3513708841
 23
121.8755172034
 33
0.0
  0
LINE
  5
20D
330
208
100
AcDbEntity
  8
VERMASSUNG
100
AcDbLine
 10
228.3856465917
 20
139.8755172034
 30
0.0
 11
260.8013708841
 21
139.8755172034
 31
0.0
  0
LINE
  5
20E
330
208
100
AcDbEntity
  8
VERMASSUNG
100
AcDbLine
 10
228.3856465917
 20
118.8755172034
 30
0.0
 11
260.8013708841
 21
118.8755172034
 31
0.0
  0
LINE
  5
20F
330
208
100
AcDbEntity
  8
VERMASSUNG
100
AcDbLine
 10
259.8013708841
 20
139.8755172034
 30
0.0
 11
259.8013708841
 21
118.8755172034
 31
0.0
  0
MTEXT
  5
210
330
208
100
AcDbEntity
  8
VERMASSUNG
100
AcDbMText
 10
257.2232352882
 20
128.1755171464
 30
0.0
 40
2.0
 41
0.0
 71
     1
 72
     1
  1
21
  7
SLDTEXTSTYLE0
 11
-8.820551857043885E-15
 21
1.0
 31
0.0
 73
     1
 44
1.0
  0
ENDBLK
  5
20A
330
208
100
AcDbEntity
  8
0
100
AcDbBlockEnd
  0
BLOCK
  5
214
330
213
100
AcDbEntity
  8
0
100
AcDbBlockBegin
  2
_D_1
 70
     0
 10
0.0
 20
0.0
 30
0.0
  3
_D_1
  1

  0
ARC
  5
216
330
213
100
AcDbEntity
  8
VERMASSUNG
100
AcDbCircle
 10
361.8007963216
 20
129.3755172034
 30
0.0
 40
164.2297399619597
100
AcDbArc
 50
175.5
 51
180.0
  0
ARC
  5
217
330
213
100
AcDbEntity
  8
VERMASSUNG
100
AcDbCircle
 10
361.8007963216
 20
129.3755172034
 30
0.0
 40
164.2297399619597
100
AcDbArc
 50
171.1453595435
 51
175.5
  0
SOLID
  5
218
330
213
100
AcDbEntity
  8
VERMASSUNG
100
AcDbTrace
 10
198.077321839
 20
142.2608340924
 30
0.0
 11
197.4203505965
 21
139.2992654563
 31
0.0
 12
198.3181836495
 22
139.2368490415
 32
0.0
 13
198.3181836495
 23
139.2368490415
 33
0.0
  0
SOLID
  5
219
330
213
100
AcDbEntity
  8
VERMASSUNG
100
AcDbTrace
 10
197.5710563596
 20
129.3755172034
 30
0.0
 11
198.0484348062
 21
132.3712825177
 31
0.0
 12
197.1484723373
 22
132.3795016814
 32
0.0
 13
197.1484723373
 23
132.3795016814
 33
0.0
  0
MTEXT
  5
21A
330
213
100
AcDbEntity
  8
VERMASSUNG
100
AcDbMText
 10
196.0937481734
 20
148.7653093822
 30
0.0
 40
2.0
 41
0.0
 71
     1
 72
     1
  1
4°30'
  7
SLDTEXTSTYLE0
 11
0.1349515202127987
 21
0.9908522024965452
 31
0.0
 73
     1
 44
1.0
  0
ENDBLK
  5
215
330
213
100
AcDbEntity
  8
0
100
AcDbBlockEnd
  0
BLOCK
  5
21E
330
21D
100
AcDbEntity
  8
0
100
AcDbBlockBegin
  2
_D_2
 70
     0
 10
0.0
 20
0.0
 30
0.0
  3
_D_2
  1

  0
SOLID
  5
220
330
21D
100
AcDbEntity
  8
VERMASSUNG
100
AcDbTrace
 10
252.3692692865
 20
132.3755172034
 30
0.0
 11
251.9192692865
 21
129.3755172034
 31
0.0
 12
252.8192692865
 22
129.3755172034
 32
0.0
 13
252.8192692865
 23
129.3755172034
 33
0.0
  0
LINE
  5
221
330
21D
100
AcDbEntity
  8
VERMASSUNG
100
AcDbLine
 10
224.8856465917
 20
132.3755172034
 30
0.0
 11
253.3692692865
 21
132.3755172034
 31
0.0
  0
LINE
  5
222
330
21D
100
AcDbEntity
  8
VERMASSUNG
100
AcDbLine
 10
252.3692692865
 20
132.3755172034
 30
0.0
 11
252.3692692865
 21
126.8705172212
 31
0.0
  0
MTEXT
  5
223
330
21D
100
AcDbEntity
  8
VERMASSUNG
100
AcDbMText
 10
249.7911339816
 20
126.8705172212
 30
0.0
 40
2.0
 41
0.0
 71
     1
 72
     1
  1
%%c
  7
SLDTEXTSTYLE0
 11
-7.932373437343760E-15
 21
1.0
 31
0.0
 73
     1
 44
1.0
  0
MTEXT
  5
224
330
21D
100
AcDbEntity
  8
VERMASSUNG
100
AcDbMText
 10
249.5911340303
 20
130.4805172355
 30
0.0
 40
2.0
 41
0.0
 71
     1
 72
     1
  1
6
  7
SLDTEXTSTYLE0
 11
-7.932373437343760E-15
 21
1.0
 31
0.0
 73
     1
 44
1.0
  0
ENDBLK
  5
21F
330
21D
100
AcDbEntity
  8
0
100
AcDbBlockEnd
  0
BLOCK
  5
227
330
226
100
AcDbEntity
  8
0
100
AcDbBlockBegin
  2
_D_3
 70
     0
 10
0.0
 20
0.0
 30
0.0
  3
_D_3
  1

  0
SOLID
  5
229
330
226
100
AcDbEntity
  8
VERMASSUNG
100
AcDbTrace
 10
268.3856465917
 20
142.8755172034
 30
0.0
 11
267.9356465917
 21
139.8755172034
 31
0.0
 12
268.8356465917
 22
139.8755172034
 32
0.0
 13
268.8356465917
 23
139.8755172034
 33
0.0
  0
SOLID
  5
22A
330
226
100
AcDbEntity
  8
VERMASSUNG
100
AcDbTrace
 10
268.3856465917
 20
115.8755172034
 30
0.0
 11
268.8356465917
 21
118.8755172034
 31
0.0
 12
267.9356465917
 22
118.8755172034
 32
0.0
 13
267.9356465917
 23
118.8755172034
 33
0.0
  0
LINE
  5
22B
330
226
100
AcDbEntity
  8
VERMASSUNG
100
AcDbLine
 10
190.2670323832
 20
142.8755172034
 30
0.0
 11
269.3856465917
 21
142.8755172034
 31
0.0
  0
LINE
  5
22C
330
226
100
AcDbEntity
  8
VERMASSUNG
100
AcDbLine
 10
190.2670323832
 20
115.8755172034
 30
0.0
 11
269.3856465917
 21
115.8755172034
 31
0.0
  0
LINE
  5
22D
330
226
100
AcDbEntity
  8
VERMASSUNG
100
AcDbLine
 10
268.3856465917
 20
142.8755172034
 30
0.0
 11
268.3856465917
 21
115.8755172034
 31
0.0
  0
MTEXT
  5
22E
330
226
100
AcDbEntity
  8
VERMASSUNG
100
AcDbMText
 10
265.8075109958
 20
127.9755172533
 30
0.0
 40
2.0
 41
0.0
 71
     1
 72
     1
  1
27
  7
SLDTEXTSTYLE0
 11
-7.932373437343760E-15
 21
1.0
 31
0.0
 73
     1
 44
1.0
  0
ENDBLK
  5
228
330
226
100
AcDbEntity
  8
0
100
AcDbBlockEnd
  0
BLOCK
  5
232
330
231
100
AcDbEntity
  8
0
100
AcDbBlockBegin
  2
_D_4
 70
     0
 10
0.0
 20
0.0
 30
0.0
  3
_D_4
  1

  0
SOLID
  5
234
330
231
100
AcDbEntity
  8
VERMASSUNG
100
AcDbTrace
 10
190.2670323832
 20
98.1261490771
 30
0.0
 11
193.2670323832
 21
97.6761490771
 31
0.0
 12
193.2670323832
 22
98.5761490771
 32
0.0
 13
193.2670323832
 23
98.5761490771
 33
0.0
  0
SOLID
  5
235
330
231
100
AcDbEntity
  8
VERMASSUNG
100
AcDbTrace
 10
228.3856465917
 20
98.1261490771
 30
0.0
 11
225.3856465917
 21
98.5761490771
 31
0.0
 12
225.3856465917
 22
97.6761490771
 32
0.0
 13
225.3856465917
 23
97.6761490771
 33
0.0
  0
LINE
  5
236
330
231
100
AcDbEntity
  8
VERMASSUNG
100
AcDbLine
 10
190.2670323832
 20
115.8755172034
 30
0.0
 11
190.2670323832
 21
97.1261490771
 31
0.0
  0
LINE
  5
237
330
231
100
AcDbEntity
  8
VERMASSUNG
100
AcDbLine
 10
228.3856465917
 20
120.7242981867
 30
0.0
 11
228.3856465917
 21
97.1261490771
 31
0.0
  0
LINE
  5
238
330
231
100
AcDbEntity
  8
VERMASSUNG
100
AcDbLine
 10
190.2670323832
 20
98.1261490771
 30
0.0
 11
228.3856465917
 21
98.1261490771
 31
0.0
  0
MTEXT
  5
239
330
231
100
AcDbEntity
  8
VERMASSUNG
100
AcDbMText
 10
207.1263394994
 20
100.7042846731
 30
0.0
 40
2.0
 41
0.0
 71
     1
 72
     1
  1
38.1
  7
SLDTEXTSTYLE0
 73
     1
 44
1.0
  0
ENDBLK
  5
233
330
231
100
AcDbEntity
  8
0
100
AcDbBlockEnd
  0
BLOCK
  5
23C
330
23B
100
AcDbEntity
  8
0
100
AcDbBlockBegin
  2
_D_5
 70
     0
 10
0.0
 20
0.0
 30
0.0
  3
_D_5
  1

  0
SOLID
  5
23E
330
23B
100
AcDbEntity
  8
VERMASSUNG
100
AcDbTrace
 10
228.3856465917
 20
90.6095081266
 30
0.0
 11
225.3856465917
 21
91.0595081266
 31
0.0
 12
225.3856465917
 22
90.1595081266
 32
0.0
 13
225.3856465917
 23
90.1595081266
 33
0.0
  0
SOLID
  5
23F
330
23B
100
AcDbEntity
  8
VERMASSUNG
100
AcDbTrace
 10
126.3856465917
 20
90.6095081266
 30
0.0
 11
129.3856465917
 21
90.1595081266
 31
0.0
 12
129.3856465917
 22
91.0595081266
 32
0.0
 13
129.3856465917
 23
91.0595081266
 33
0.0
  0
LINE
  5
240
330
23B
100
AcDbEntity
  8
VERMASSUNG
100
AcDbLine
 10
228.3856465917
 20
120.7242981867
 30
0.0
 11
228.3856465917
 21
89.6095081266
 31
0.0
  0
LINE
  5
241
330
23B
100
AcDbEntity
  8
VERMASSUNG
100
AcDbLine
 10
126.3856465917
 20
98.1005172034
 30
0.0
 11
126.3856465917
 21
89.6095081266
 31
0.0
  0
LINE
  5
242
330
23B
100
AcDbEntity
  8
VERMASSUNG
100
AcDbLine
 10
228.3856465917
 20
90.6095081266
 30
0.0
 11
126.3856465917
 21
90.6095081266
 31
0.0
  0
MTEXT
  5
243
330
23B
100
AcDbEntity
  8
VERMASSUNG
100
AcDbMText
 10
175.4856465597
 20
93.1876437225
 30
0.0
 40
2.0
 41
0.0
 71
     1
 72
     1
  1
102
  7
SLDTEXTSTYLE0
 73
     1
 44
1.0
  0
ENDBLK
  5
23D
330
23B
100
AcDbEntity
  8
0
100
AcDbBlockEnd
  0
BLOCK
  5
246
330
245
100
AcDbEntity
  8
0
100
AcDbBlockBegin
  2
_D_6
 70
     0
 10
0.0
 20
0.0
 30
0.0
  3
_D_6
  1

  0
SOLID
  5
248
330
245
100
AcDbEntity
  8
VERMASSUNG
100
AcDbTrace
 10
46.4356215917
 20
160.8505172034
 30
0.0
 11
45.9856215917
 21
157.8505172034
 31
0.0
 12
46.8856215917
 22
157.8505172034
 32
0.0
 13
46.8856215917
 23
157.8505172034
 33
0.0
  0
SOLID
  5
249
330
245
100
AcDbEntity
  8
VERMASSUNG
100
AcDbTrace
 10
46.4356215917
 20
97.9005172034
 30
0.0
 11
46.8856215917
 21
100.9005172034
 31
0.0
 12
45.9856215917
 22
100.9005172034
 32
0.0
 13
45.9856215917
 23
100.9005172034
 33
0.0
  0
LINE
  5
24A
330
245
100
AcDbEntity
  8
VERMASSUNG
100
AcDbLine
 10
108.5856465917
 20
160.8505172034
 30
0.0
 11
45.4356215917
 21
160.8505172034
 31
0.0
  0
LINE
  5
24B
330
245
100
AcDbEntity
  8
VERMASSUNG
100
AcDbLine
 10
108.5856465917
 20
97.9005172034
 30
0.0
 11
45.4356215917
 21
97.9005172034
 31
0.0
  0
LINE
  5
24C
330
245
100
AcDbEntity
  8
VERMASSUNG
100
AcDbLine
 10
46.4356215917
 20
160.8505172034
 30
0.0
 11
46.4356215917
 21
97.9005172034
 31
0.0
  0
MTEXT
  5
24D
330
245
100
AcDbEntity
  8
VERMASSUNG
100
AcDbMText
 10
43.6574863355
 20
119.5705177476
 30
0.0
 40
2.0
 41
0.0
 71
     1
 72
     1
  1
KM
  7
SLDTEXTSTYLE0
 11
-7.932373437343760E-15
 21
1.0
 31
0.0
 73
     1
 44
1.0
  0
MTEXT
  5
24E
330
245
100
AcDbEntity
  8
VERMASSUNG
100
AcDbMText
 10
43.8574862868
 20
122.9705175598
 30
0.0
 40
2.0
 41
0.0
 71
     1
 72
     1
  1
%%c
  7
SLDTEXTSTYLE0
 11
-7.932373437343760E-15
 21
1.0
 31
0.0
 73
     1
 44
1.0
  0
MTEXT
  5
24F
330
245
100
AcDbEntity
  8
VERMASSUNG
100
AcDbMText
 10
43.6574863355
 20
126.5805175741
 30
0.0
 40
2.0
 41
0.0
 71
     1
 72
     1
  1
62.95
  7
SLDTEXTSTYLE0
 11
-7.932373437343760E-15
 21
1.0
 31
0.0
 73
     1
 44
1.0
  0
MTEXT
  5
250
330
245
100
AcDbEntity
  8
VERMASSUNG
100
AcDbMText
 10
43.6574863355
 20
133.9680172865
 30
0.0
 40
2.0
 41
0.0
 71
     1
 72
     1
  1
XMZ
  7
SLDTEXTSTYLE0
 11
-7.932373437343760E-15
 21
1.0
 31
0.0
 73
     1
 44
1.0
  0
ENDBLK
  5
247
330
245
100
AcDbEntity
  8
0
100
AcDbBlockEnd
  0
BLOCK
  5
253
330
252
100
AcDbEntity
  8
0
100
AcDbBlockBegin
  2
_D_7
 70
     0
 10
0.0
 20
0.0
 30
0.0
  3
_D_7
  1

  0
SOLID
  5
255
330
252
100
AcDbEntity
  8
VERMASSUNG
100
AcDbTrace
 10
68.4356465917
 20
178.2409465364
 30
0.0
 11
71.4356465917
 21
177.7909465364
 31
0.0
 12
71.4356465917
 22
178.6909465364
 32
0.0
 13
71.4356465917
 23
178.6909465364
 33
0.0
  0
SOLID
  5
256
330
252
100
AcDbEntity
  8
VERMASSUNG
100
AcDbTrace
 10
228.3856465917
 20
178.2409465364
 30
0.0
 11
225.3856465917
 21
178.6909465364
 31
0.0
 12
225.3856465917
 22
177.7909465364
 32
0.0
 13
225.3856465917
 23
177.7909465364
 33
0.0
  0
LINE
  5
257
330
252
100
AcDbEntity
  8
VERMASSUNG
100
AcDbLine
 10
68.4356465917
 20
151.5786119272
 30
0.0
 11
68.4356465917
 21
179.2409465364
 31
0.0
  0
LINE
  5
258
330
252
100
AcDbEntity
  8
VERMASSUNG
100
AcDbLine
 10
228.3856465917
 20
138.0267362201
 30
0.0
 11
228.3856465917
 21
179.2409465364
 31
0.0
  0
LINE
  5
259
330
252
100
AcDbEntity
  8
VERMASSUNG
100
AcDbLine
 10
68.4356465917
 20
178.2409465364
 30
0.0
 11
228.3856465917
 21
178.2409465364
 31
0.0
  0
MTEXT
  5
25A
330
252
100
AcDbEntity
  8
VERMASSUNG
100
AcDbMText
 10
144.8106466536
 20
180.8190821324
 30
0.0
 40
2.0
 41
0.0
 71
     1
 72
     1
  1
159.95
  7
SLDTEXTSTYLE0
 73
     1
 44
1.0
  0
ENDBLK
  5
254
330
252
100
AcDbEntity
  8
0
100
AcDbBlockEnd
  0
BLOCK
  5
25D
330
25C
100
AcDbEntity
  8
0
100
AcDbBlockBegin
  2
_D_8
 70
     0
 10
0.0
 20
0.0
 30
0.0
  3
_D_8
  1

  0
SOLID
  5
25F
330
25C
100
AcDbEntity
  8
VERMASSUNG
100
AcDbTrace
 10
108.3856465917
 20
169.2763482011
 30
0.0
 11
111.3856465917
 21
168.8263482011
 31
0.0
 12
111.3856465917
 22
169.7263482011
 32
0.0
 13
111.3856465917
 23
169.7263482011
 33
0.0
  0
SOLID
  5
260
330
25C
100
AcDbEntity
  8
VERMASSUNG
100
AcDbTrace
 10
228.3856465917
 20
169.2763482011
 30
0.0
 11
225.3856465917
 21
169.7263482011
 31
0.0
 12
225.3856465917
 22
168.8263482011
 32
0.0
 13
225.3856465917
 23
168.8263482011
 33
0.0
  0
LINE
  5
261
330
25C
100
AcDbEntity
  8
VERMASSUNG
100
AcDbLine
 10
108.3856465917
 20
160.6505172034
 30
0.0
 11
108.3856465917
 21
170.2763482011
 31
0.0
  0
LINE
  5
262
330
25C
100
AcDbEntity
  8
VERMASSUNG
100
AcDbLine
 10
228.3856465917
 20
138.0267362201
 30
0.0
 11
228.3856465917
 21
170.2763482011
 31
0.0
  0
LINE
  5
263
330
25C
100
AcDbEntity
  8
VERMASSUNG
100
AcDbLine
 10
108.3856465917
 20
169.2763482011
 30
0.0
 11
228.3856465917
 21
169.2763482011
 31
0.0
  0
MTEXT
  5
264
330
25C
100
AcDbEntity
  8
VERMASSUNG
100
AcDbMText
 10
166.4856465597
 20
171.854483797
 30
0.0
 40
2.0
 41
0.0
 71
     1
 72
     1
  1
120
  7
SLDTEXTSTYLE0
 73
     1
 44
1.0
  0
ENDBLK
  5
25E
330
25C
100
AcDbEntity
  8
0
100
AcDbBlockEnd
  0
ENDSEC
  0
SECTION
  2
ENTITIES
  0
MTEXT
  5
78
330
1F
100
AcDbEntity
  8
KOPF_DÜNN
100
AcDbMText
 10
13.8892156294
 20
23.8442973028
 30
0.0
 40
3.0
 41
0.0
 71
     1
 72
     1
  1
KY6.S06.K01.120
  7
SLDTEXTSTYLE0
 73
     1
 44
1.0
  0
MTEXT
  5
79
330
1F
100
AcDbEntity
  8
VERMASSUNG
100
AcDbMText
 10
13.9329988022
 20
28.8834360957
 30
0.0
 40
3.0
 41
0.0
 71
     1
 72
     1
  1
Schrumpffutter_Heat shrink chuck
  7
SLDTEXTSTYLE0
 73
     1
 44
1.0
  0
MTEXT
  5
7A
330
1F
100
AcDbEntity
  8
VERMASSUNG
100
AcDbMText
 10
98.8601118557
 20
13.8365368761
 30
0.0
 40
2.0
 41
0.0
 71
     1
 72
     1
  1
Datum: 14.02.2018
  7
SLDTEXTSTYLE0
 73
     1
 44
1.0
  0
MTEXT
  5
7C
330
1F
100
AcDbEntity
  8
VERMASSUNG
100
AcDbMText
 10
13.933048693
 20
18.0482802738
 30
0.0
 40
2.0
 41
0.0
 71
     1
 72
     1
  1
KM63 XMZ / Ø6
  7
SLDTEXTSTYLE1
 73
     1
 44
1.0
  0
MTEXT
  5
7D
330
1F
100
AcDbEntity
  8
VERMASSUNG
100
AcDbMText
 10
13.9808475933
 20
13.9090974274
 30
0.0
 40
2.0
 41
0.0
 71
     1
 72
     1
  1
Gewicht: 1011g
  7
SLDTEXTSTYLE0
 73
     1
 44
1.0
  0
CIRCLE
  5
7E
330
1F
100
AcDbEntity
  8
0
  6
Continuous
 62
     7
370
    25
100
AcDbCircle
 10
338.0250826566
 20
129.3755172034
 30
0.0
 40
0.7750000000000038
  0
SPLINE
  5
7F
330
1F
100
AcDbEntity
  8
0
  6
Continuous
 62
     7
370
    25
100
AcDbSpline
210
0.0
220
0.0
230
1.0
 70
     8
 71
     3
 72
    11
 73
     7
 74
     0
 42
0.000000001
 43
0.00000001
 40
0.0
 40
0.0
 40
0.0
 40
0.0
 40
0.1224237388383332
 40
0.4773574012293009
 40
0.8144935839074826
 40
1.0
 40
1.0
 40
1.0
 40
1.0
 10
338.5844803969154
 20
129.8314859547113
 30
0.0
 10
338.5888953804945
 20
129.804177802242
 30
0.0
 10
338.6061103839555
 20
129.6976972387598
 30
0.0
 10
338.6385390505533
 20
129.4971148556414
 30
0.0
 10
338.6739913956653
 20
129.2778305186447
 30
0.0
 10
338.6929373877562
 20
129.1606432828497
 30
0.0
 10
338.6996620655769
 20
129.1190489233863
 30
0.0
  0
SPLINE
  5
80
330
1F
100
AcDbEntity
  8
0
  6
Continuous
 62
     7
370
    25
100
AcDbSpline
210
0.0
220
0.0
230
1.0
 70
     8
 71
     3
 72
    11
 73
     7
 74
     0
 42
0.000000001
 43
0.00000001
 40
0.0
 40
0.0
 40
0.0
 40
0.0
 40
0.1855064339225479
 40
0.5226425954087708
 40
0.8775762610015094
 40
1.0
 40
1.0
 40
1.0
 40
1.0
 10
337.4656849163362
 20
128.9195484520328
 30
0.0
 10
337.4589602354168
 20
128.9611428159031
 30
0.0
 10
337.4400142365385
 20
129.0783300520969
 30
0.0
 10
337.4045620044559
 20
129.2976144042569
 30
0.0
 10
337.3721332271417
 20
129.4981967656103
 30
0.0
 10
337.3549182296879
 20
129.6046773306466
 30
0.0
 10
337.3505032476747
 20
129.6319854833577
 30
0.0
  0
SPLINE
  5
81
330
1F
100
AcDbEntity
  8
0
  6
Continuous
 62
     7
370
    25
100
AcDbSpline
210
0.0
220
0.0
230
1.0
 70
     8
 71
     3
 72
    10
 73
     6
 74
     0
 42
0.000000001
 43
0.00000001
 40
0.0
 40
0.0
 40
0.0
 40
0.0
 40
0.4391118109405149
 40
0.7513634899365582
 40
1.0
 40
1.0
 40
1.0
 40
1.0
 10
337.3505032476747
 20
129.6319854833577
 30
0.0
 10
337.4305845120649
 20
129.6972602429537
 30
0.0
 10
337.5676114304752
 20
129.8089517756176
 30
0.0
 10
337.7668048474786
 20
129.9713155941855
 30
0.0
 10
337.8659506146533
 20
130.052129973193
 30
0.0
 10
337.9099010097921
 20
130.087954234697
 30
0.0
  0
SPLINE
  5
82
330
1F
100
AcDbEntity
  8
0
  6
Continuous
 62
     7
370
    25
100
AcDbSpline
210
0.0
220
0.0
230
1.0
 70
     8
 71
     3
 72
    10
 73
     6
 74
     0
 42
0.000000001
 43
0.00000001
 40
0.0
 40
0.0
 40
0.0
 40
0.0
 40
0.439111785266759
 40
0.7513635182871369
 40
0.9999999999999999
 40
0.9999999999999999
 40
0.9999999999999999
 40
0.9999999999999999
 10
338.1402643034594
 20
128.6630801720471
 30
0.0
 10
338.0436940742545
 20
128.6997951820857
 30
0.0
 10
337.8784528996567
 20
128.7626181807893
 30
0.0
 10
337.6382450229719
 20
128.8539428876338
 30
0.0
 10
337.5186848284899
 20
128.8993984346404
 30
0.0
 10
337.4656849163362
 20
128.9195484520328
 30
0.0
  0
SPLINE
  5
83
330
1F
100
AcDbEntity
  8
0
  6
Continuous
 62
     7
370
    25
100
AcDbSpline
210
0.0
220
0.0
230
1.0
 70
     8
 71
     3
 72
    10
 73
     6
 74
     0
 42
0.000000001
 43
0.00000001
 40
0.0
 40
0.0
 40
0.0
 40
0.0
 40
0.4391118109405149
 40
0.7513634899365582
 40
1.0
 40
1.0
 40
1.0
 40
1.0
 10
338.6996620655769
 20
129.1190489233863
 30
0.0
 10
338.6195808011867
 20
129.0537741637904
 30
0.0
 10
338.4825538827764
 20
128.9420826311265
 30
0.0
 10
338.2833604657731
 20
128.7797188125586
 30
0.0
 10
338.1842146985983
 20
128.6989044335511
 30
0.0
 10
338.1402643034594
 20
128.6630801720471
 30
0.0
  0
SPLINE
  5
84
330
1F
100
AcDbEntity
  8
0
  6
Continuous
 62
     7
370
    25
100
AcDbSpline
210
0.0
220
0.0
230
1.0
 70
     8
 71
     3
 72
    10
 73
     6
 74
     0
 42
0.000000001
 43
0.00000001
 40
0.0
 40
0.0
 40
0.0
 40
0.0
 40
0.439111785266759
 40
0.7513635182871369
 40
0.9999999999999999
 40
0.9999999999999999
 40
0.9999999999999999
 40
0.9999999999999999
 10
337.9099010097921
 20
130.087954234697
 30
0.0
 10
338.0064712389971
 20
130.0512392246584
 30
0.0
 10
338.1717124135949
 20
129.9884162259548
 30
0.0
 10
338.4119202902796
 20
129.8970915191102
 30
0.0
 10
338.5314804847617
 20
129.8516359721037
 30
0.0
 10
338.5844803969154
 20
129.8314859547113
 30
0.0
  0
ARC
  5
85
330
1F
100
AcDbEntity
  8
0
  6
Continuous
 62
     7
370
    25
100
AcDbCircle
 10
338.0250826566
 20
129.3755172034
 30
0.0
 40
0.6250000000000315
100
AcDbArc
 50
69.18370128
 51
129.18370128
  0
ARC
  5
86
330
1F
100
AcDbEntity
  8
0
  6
Continuous
 62
     7
370
    25
100
AcDbCircle
 10
338.0250826566
 20
129.3755172034
 30
0.0
 40
0.6249999999999862
100
AcDbArc
 50
189.18370128
 51
249.18370128
  0
ARC
  5
87
330
1F
100
AcDbEntity
  8
0
  6
Continuous
 62
     7
370
    25
100
AcDbCircle
 10
338.0250826566
 20
129.3755172034
 30
0.0
 40
0.6250000000000095
100
AcDbArc
 50
249.18370128
 51
309.18370128
  0
ARC
  5
88
330
1F
100
AcDbEntity
  8
0
  6
Continuous
 62
     7
370
    25
100
AcDbCircle
 10
338.0250826566
 20
129.3755172034
 30
0.0
 40
0.6250000000000153
100
AcDbArc
 50
9.18370128
 51
69.18370128
  0
ARC
  5
89
330
1F
100
AcDbEntity
  8
0
  6
Continuous
 62
     7
370
    25
100
AcDbCircle
 10
338.0250826566
 20
129.3755172034
 30
0.0
 40
0.6250000000000315
100
AcDbArc
 50
129.18370128
 51
189.18370128
  0
ARC
  5
8A
330
1F
100
AcDbEntity
  8
0
  6
Continuous
 62
     7
370
    25
100
AcDbCircle
 10
338.0250826566
 20
129.3755172034
 30
0.0
 40
0.6250000000000095
100
AcDbArc
 50
309.18370128
 51
9.18370128
  0
SPLINE
  5
8B
330
1F
100
AcDbEntity
  8
0
  6
Continuous
 62
     7
370
    25
100
AcDbSpline
210
0.0
220
0.0
230
1.0
 70
     8
 71
     3
 72
     8
 73
     4
 74
     0
 42
0.000000001
 43
0.00000001
 40
0.0
 40
0.0
 40
0.0
 40
0.0
 40
1.0
 40
1.0
 40
1.0
 40
1.0
 10
327.6359425469929
 20
125.0055163314072
 30
0.0
 10
327.5671041768062
 20
124.9424216580883
 30
0.0
 10
327.4986728163501
 20
124.8786992799574
 30
0.0
 10
327.4306565416853
 20
124.814353847684
 30
0.0
  0
SPLINE
  5
8C
330
1F
100
AcDbEntity
  8
0
  6
Continuous
 62
     7
370
    25
100
AcDbSpline
210
0.0
220
0.0
230
1.0
 70
     8
 71
     3
 72
     8
 73
     4
 74
     0
 42
0.000000001
 43
0.00000001
 40
0.0
 40
0.0
 40
0.0
 40
0.0
 40
1.0
 40
1.0
 40
1.0
 40
1.0
 10
327.8939697882536
 20
124.8362545014798
 30
0.0
 10
327.8072663540932
 20
124.8924154211491
 30
0.0
 10
327.7212683066094
 20
124.948840157475
 30
0.0
 10
327.6359425469929
 20
125.0055163314072
 30
0.0
  0
ARC
  5
8D
330
1F
100
AcDbEntity
  8
0
  6
Continuous
 62
     7
370
    25
100
AcDbCircle
 10
338.0250826566
 20
129.3755172034
 30
0.0
 40
11.101547361899
100
AcDbArc
 50
204.1348482805
 51
335.8651517195
  0
SPLINE
  5
8E
330
1F
100
AcDbEntity
  8
0
  6
Continuous
 62
     7
370
    25
100
AcDbSpline
210
0.0
220
0.0
230
1.0
 70
     8
 71
     3
 72
     8
 73
     4
 74
     0
 42
0.000000001
 43
0.00000001
 40
0.0
 40
0.0
 40
0.0
 40
0.0
 40
1.0
 40
1.0
 40
1.0
 40
1.0
 10
348.4142227662587
 20
125.0055163314072
 30
0.0
 10
348.3288970066423
 20
124.948840157475
 30
0.0
 10
348.2428989591584
 20
124.8924154211491
 30
0.0
 10
348.156195524998
 20
124.8362545014798
 30
0.0
  0
SPLINE
  5
8F
330
1F
100
AcDbEntity
  8
0
  6
Continuous
 62
     7
370
    25
100
AcDbSpline
210
0.0
220
0.0
230
1.0
 70
     8
 71
     3
 72
     8
 73
     4
 74
     0
 42
0.000000001
 43
0.00000001
 40
0.0
 40
0.0
 40
0.0
 40
0.0
 40
1.0
 40
1.0
 40
1.0
 40
1.0
 10
348.6195087715663
 20
124.814353847684
 30
0.0
 10
348.5514924969015
 20
124.8786992799574
 30
0.0
 10
348.4830611364454
 20
124.9424216580883
 30
0.0
 10
348.4142227662587
 20
125.0055163314072
 30
0.0
  0
ARC
  5
90
330
1F
100
AcDbEntity
  8
0
  6
Continuous
 62
     7
370
    25
100
AcDbCircle
 10
338.0250826566
 20
129.3755172034
 30
0.0
 40
11.53456006379121
100
AcDbArc
 50
203.2930774359
 51
336.7074733161
  0
SPLINE
  5
91
330
1F
100
AcDbEntity
  8
0
  6
Continuous
 62
     7
370
    25
100
AcDbSpline
210
0.0
220
0.0
230
1.0
 70
     8
 71
     3
 72
     8
 73
     4
 74
     0
 42
0.000000001
 43
0.00000001
 40
0.0000004028655191
 40
0.0000004028655191
 40
0.0000004028655191
 40
0.0000004028655191
 40
0.0015137684369673
 40
0.0015137684369673
 40
0.0015137684369673
 40
0.0015137684369673
 10
329.6014879994838
 20
125.0532417995876
 30
0.0
 10
329.3948165119325
 20
124.9809478578729
 30
0.0
 10
329.1881975433918
 20
124.9086163719161
 30
0.0
 10
328.9816211685832
 20
124.8362545014798
 30
0.0
  0
LINE
  5
92
330
1F
100
AcDbEntity
  8
0
  6
Continuous
 62
     7
370
    25
100
AcDbLine
 10
328.9816210135
 20
124.8362547
 30
0.0
 11
327.8939694254
 21
124.8362547
 31
0.0
  0
LINE
  5
93
330
1F
100
AcDbEntity
  8
0
  6
Continuous
 62
     7
370
    25
100
AcDbLine
 10
327.8589973314
 20
125.2692670775
 30
0.0
 11
327.6359427809
 21
125.0055165243
 31
0.0
  0
LINE
  5
94
330
1F
100
AcDbEntity
  8
0
  6
Continuous
 62
     7
370
    25
100
AcDbLine
 10
329.6266075312
 20
125.2692670775
 30
0.0
 11
327.859212467
 21
125.2692670775
 31
0.0
  0
LINE
  5
95
330
1F
100
AcDbEntity
  8
0
  6
Continuous
 62
     7
370
    25
100
AcDbLine
 10
329.6372646554
 20
125.1116863665
 30
0.0
 11
329.6266075312
 21
125.2692670775
 31
0.0
  0
SPLINE
  5
96
330
1F
100
AcDbEntity
  8
0
  6
Continuous
 62
     7
370
    25
100
AcDbSpline
210
0.0
220
0.0
230
1.0
 70
     8
 71
     3
 72
     8
 73
     4
 74
     0
 42
0.000000001
 43
0.00000001
 40
0.0006523765358268
 40
0.0006523765358268
 40
0.0006523765358268
 40
0.0006523765358268
 40
0.0009043636494504
 40
0.0009043636494504
 40
0.0009043636494504
 40
0.0009043636494504
 10
329.6383648745186
 20
125.1134798970363
 30
0.0
 10
329.6260478800012
 20
125.0934043160541
 30
0.0
 10
329.6137556825971
 20
125.0733249275316
 30
0.0
 10
329.6014879994838
 20
125.0532417995876
 30
0.0
  0
LINE
  5
97
330
1F
100
AcDbEntity
  8
0
  6
Continuous
 62
     7
370
    25
100
AcDbLine
 10
328.0491491868
 20
134.6538163003
 30
0.0
 11
328.2575577586
 21
134.40551732
 31
0.0
  0
SPLINE
  5
98
330
1F
100
AcDbEntity
  8
0
  6
Continuous
 62
     7
370
    25
100
AcDbSpline
210
0.0
220
0.0
230
1.0
 70
     8
 71
     3
 72
     8
 73
     4
 74
     0
 42
0.000000001
 43
0.00000001
 40
0.0
 40
0.0
 40
0.0
 40
0.0
 40
1.0
 40
1.0
 40
1.0
 40
1.0
 10
328.0491496073014
 20
134.6538164527612
 30
0.0
 10
328.1520455211253
 20
134.7157850618522
 30
0.0
 10
328.2558851906801
 20
134.7773637139927
 30
0.0
 10
328.3607230789067
 20
134.8385299052642
 30
0.0
  0
LINE
  5
99
330
1F
100
AcDbEntity
  8
0
  6
Continuous
 62
     7
370
    25
100
AcDbLine
 10
329.507771702
 20
134.8385296975
 30
0.0
 11
328.3607231541
 21
134.8385296975
 31
0.0
  0
SPLINE
  5
9A
330
1F
100
AcDbEntity
  8
0
  6
Continuous
 62
     7
370
    25
100
AcDbSpline
210
0.0
220
0.0
230
1.0
 70
     8
 71
     3
 72
     8
 73
     4
 74
     0
 42
0.000000001
 43
0.00000001
 40
0.0000004089325119
 40
0.0000004089325119
 40
0.0000004089325119
 40
0.0000004089325119
 40
0.0015399868451459
 40
0.0015399868451459
 40
0.0015399868451459
 40
0.0015399868451459
 10
329.5077712391969
 20
134.8385299052642
 30
0.0
 10
329.7195324979913
 20
134.7660750226108
 30
0.0
 10
329.9314528211816
 20
134.6937361525823
 30
0.0
 10
330.1435708043959
 20
134.6215426071565
 30
0.0
  0
LINE
  5
9B
330
1F
100
AcDbEntity
  8
0
  6
Continuous
 62
     7
370
    25
100
AcDbLine
 10
330.1435707225
 20
134.6215427135
 30
0.0
 11
330.1517235203
 21
134.6063300249
 31
0.0
  0
LINE
  5
9C
330
1F
100
AcDbEntity
  8
0
  6
Continuous
 62
     7
370
    25
100
AcDbLine
 10
330.1493533044
 20
134.40551732
 30
0.0
 11
330.1517244517
 21
134.6063304906
 31
0.0
  0
LINE
  5
9D
330
1F
100
AcDbEntity
  8
0
  6
Continuous
 62
     7
370
    25
100
AcDbLine
 10
330.1493533044
 20
134.40551732
 30
0.0
 11
328.2575577586
 21
134.40551732
 31
0.0
  0
ARC
  5
9E
330
1F
100
AcDbEntity
  8
0
  6
Continuous
 62
     7
370
    25
100
AcDbCircle
 10
338.0250826566
 20
129.3755172034
 30
0.0
 40
11.10154736189899
100
AcDbArc
 50
29.4783538465
 51
150.5216461535
  0
SPLINE
  5
9F
330
1F
100
AcDbEntity
  8
0
  6
Continuous
 62
     7
370
    25
100
AcDbSpline
210
0.0
220
0.0
230
1.0
 70
     8
 71
     3
 72
     8
 73
     4
 74
     0
 42
0.000000001
 43
0.00000001
 40
0.0
 40
0.0
 40
0.0
 40
0.0
 40
1.0
 40
1.0
 40
1.0
 40
1.0
 10
327.8606132261875
 20
134.8280062736308
 30
0.0
 10
327.923181534557
 20
134.7695558045233
 30
0.0
 10
327.9860281279209
 20
134.7114917939902
 30
0.0
 10
328.0491496073037
 20
134.6538164527591
 30
0.0
  0
ARC
  5
A0
330
1F
100
AcDbEntity
  8
0
  6
Continuous
 62
     7
370
    25
100
AcDbCircle
 10
338.0250826566
 20
129.3755172034
 30
0.0
 40
11.53456006379119
100
AcDbArc
 50
28.2102805322
 51
151.7902347364
  0
SPLINE
  5
A1
330
1F
100
AcDbEntity
  8
0
  6
Continuous
 62
     7
370
    25
100
AcDbSpline
210
0.0
220
0.0
230
1.0
 70
     8
 71
     3
 72
     8
 73
     4
 74
     0
 42
0.000000001
 43
0.00000001
 40
0.0
 40
0.0
 40
0.0
 40
0.0
 40
1.0
 40
1.0
 40
1.0
 40
1.0
 10
348.0010157059481
 20
134.6538164527593
 30
0.0
 10
348.0641371853309
 20
134.7114917939904
 30
0.0
 10
348.1269837786946
 20
134.7695558045234
 30
0.0
 10
348.1895520870641
 20
134.8280062736308
 30
0.0
  0
SPLINE
  5
A2
330
1F
100
AcDbEntity
  8
0
  6
Continuous
 62
     7
370
    25
100
AcDbSpline
210
0.0
220
0.0
230
1.0
 70
     8
 71
     3
 72
     8
 73
     4
 74
     0
 42
0.000000001
 43
0.00000001
 40
0.0
 40
0.0
 40
0.0
 40
0.0
 40
1.0
 40
1.0
 40
1.0
 40
1.0
 10
347.6894422343449
 20
134.8385299052642
 30
0.0
 10
347.7942801225711
 20
134.777363713993
 30
0.0
 10
347.8981197921256
 20
134.7157850618526
 30
0.0
 10
348.0010157059491
 20
134.6538164527619
 30
0.0
  0
LINE
  5
A3
330
1F
100
AcDbEntity
  8
0
  6
Continuous
 62
     7
370
    25
100
AcDbLine
 10
348.4142225324
 20
125.0055165243
 30
0.0
 11
348.1911679818
 21
125.2692670775
 31
0.0
  0
LINE
  5
A4
330
1F
100
AcDbEntity
  8
0
  6
Continuous
 62
     7
370
    25
100
AcDbLine
 10
348.1561958878
 20
124.8362547
 30
0.0
 11
347.0685442998
 21
124.8362547
 31
0.0
  0
SPLINE
  5
A5
330
1F
100
AcDbEntity
  8
0
  6
Continuous
 62
     7
370
    25
100
AcDbSpline
210
0.0
220
0.0
230
1.0
 70
     8
 71
     3
 72
     8
 73
     4
 74
     0
 42
0.000000001
 43
0.00000001
 40
0.0000004024872366
 40
0.0000004024872366
 40
0.0000004024872366
 40
0.0000004024872366
 40
0.0015137680586847
 40
0.0015137680586847
 40
0.0015137680586847
 40
0.0015137680586847
 10
347.0685441446684
 20
124.8362545014798
 30
0.0
 10
346.8619677698598
 20
124.9086163719161
 30
0.0
 10
346.6553488013192
 20
124.9809478578729
 30
0.0
 10
346.4486773137679
 20
125.0532417995876
 30
0.0
  0
SPLINE
  5
A6
330
1F
100
AcDbEntity
  8
0
  6
Continuous
 62
     7
370
    25
100
AcDbSpline
210
0.0
220
0.0
230
1.0
 70
     8
 71
     3
 72
     8
 73
     4
 74
     0
 42
0.000000001
 43
0.00000001
 40
0.0000002414707367
 40
0.0000002414707367
 40
0.0000002414707367
 40
0.0000002414707367
 40
0.0002447240690309
 40
0.0002447240690309
 40
0.0002447240690309
 40
0.0002447240690309
 10
346.4486773137679
 20
125.0532417995876
 30
0.0
 10
346.4367749784128
 20
125.0727268255342
 30
0.0
 10
346.424849567201
 20
125.0922083313585
 30
0.0
 10
346.4129008219061
 20
125.1116862548704
 30
0.0
  0
LINE
  5
A7
330
1F
100
AcDbEntity
  8
0
  6
Continuous
 62
     7
370
    25
100
AcDbLine
 10
346.4235577821
 20
125.2692670775
 30
0.0
 11
346.4129006578
 21
125.1116863665
 31
0.0
  0
LINE
  5
A8
330
1F
100
AcDbEntity
  8
0
  6
Continuous
 62
     7
370
    25
100
AcDbLine
 10
348.1911679818
 20
125.2692670775
 30
0.0
 11
346.4184494777
 21
125.2692670775
 31
0.0
  0
SPLINE
  5
A9
330
1F
100
AcDbEntity
  8
0
  6
Continuous
 62
     7
370
    25
100
AcDbSpline
210
0.0
220
0.0
230
1.0
 70
     8
 71
     3
 72
     8
 73
     4
 74
     0
 42
0.000000001
 43
0.00000001
 40
0.000000410413179
 40
0.000000410413179
 40
0.000000410413179
 40
0.000000410413179
 40
0.0015399883258131
 40
0.0015399883258131
 40
0.0015399883258131
 40
0.0015399883258131
 10
345.9065945088557
 20
134.6215426071565
 30
0.0
 10
346.1187124920701
 20
134.6937361525823
 30
0.0
 10
346.3306328152602
 20
134.7660750226108
 30
0.0
 10
346.5423940740547
 20
134.8385299052642
 30
0.0
  0
LINE
  5
AA
330
1F
100
AcDbEntity
  8
0
  6
Continuous
 62
     7
370
    25
100
AcDbLine
 10
347.6894421591
 20
134.8385296975
 30
0.0
 11
346.5423936113
 21
134.8385296975
 31
0.0
  0
LINE
  5
AB
330
1F
100
AcDbEntity
  8
0
  6
Continuous
 62
     7
370
    25
100
AcDbLine
 10
347.7926075547
 20
134.40551732
 30
0.0
 11
348.0010161265
 21
134.6538163003
 31
0.0
  0
LINE
  5
AC
330
1F
100
AcDbEntity
  8
0
  6
Continuous
 62
     7
370
    25
100
AcDbLine
 10
347.7924175649
 20
134.40551732
 30
0.0
 11
345.9008120089
 21
134.40551732
 31
0.0
  0
LINE
  5
AD
330
1F
100
AcDbEntity
  8
0
  6
Continuous
 62
     7
370
    25
100
AcDbLine
 10
345.8984408616
 20
134.6063300249
 30
0.0
 11
345.9008120089
 21
134.40551732
 31
0.0
  0
LINE
  5
AE
330
1F
100
AcDbEntity
  8
0
  6
Continuous
 62
     7
370
    25
100
AcDbLine
 10
345.8984417929
 20
134.6063300249
 30
0.0
 11
345.9065945907
 21
134.6215427135
 31
0.0
  0
ARC
  5
AF
330
1F
100
AcDbEntity
  8
0
  6
Continuous
 62
     7
370
    25
100
AcDbCircle
 10
338.0250826566
 20
129.3755172034
 30
0.0
 40
10.11875000000003
100
AcDbArc
 50
32.6761561262
 51
147.3238438738
  0
ARC
  5
B0
330
1F
100
AcDbEntity
  8
0
  6
Continuous
 62
     7
370
    25
100
AcDbCircle
 10
338.0250826566
 20
129.3755172034
 30
0.0
 40
10.11874999999999
100
AcDbArc
 50
206.6538426687
 51
333.3461573313
  0
ARC
  5
B1
330
1F
100
AcDbEntity
  8
0
  6
Continuous
 62
     7
370
    25
100
AcDbCircle
 10
338.0250826566
 20
129.3755172034
 30
0.0
 40
9.467788105676657
100
AcDbArc
 50
207.1630537883
 51
332.8369462117
  0
ARC
  5
B2
330
1F
100
AcDbEntity
  8
0
  6
Continuous
 62
     7
370
    25
100
AcDbCircle
 10
338.0250826566
 20
129.3755172034
 30
0.0
 40
9.467788105676684
100
AcDbArc
 50
33.6481949792
 51
146.3518050208
  0
SPLINE
  5
B3
330
1F
100
AcDbEntity
  8
0
  6
Continuous
 62
     7
370
    25
100
AcDbSpline
210
0.0
220
0.0
230
1.0
 70
     8
 71
     3
 72
     8
 73
     4
 74
     0
 42
0.000000001
 43
0.00000001
 40
0.0
 40
0.0
 40
0.0
 40
0.0
 40
1.0
 40
1.0
 40
1.0
 40
1.0
 10
327.4306565414954
 20
124.8143538477953
 30
0.0
 10
327.3774137165536
 20
124.8148775740332
 30
0.0
 10
327.324118430938
 20
124.8156756672956
 30
0.0
 10
327.2707729254485
 20
124.8167487152204
 30
0.0
  0
LINE
  5
B4
330
1F
100
AcDbEntity
  8
0
  6
Continuous
 62
     7
370
    25
100
AcDbLine
 10
327.69886014
 20
125.2692670775
 30
0.0
 11
327.8589973314
 21
125.2692670775
 31
0.0
  0
LINE
  5
B5
330
1F
100
AcDbEntity
  8
0
  6
Continuous
 62
     7
370
    25
100
AcDbLine
 10
348.1911679818
 20
125.2692670775
 30
0.0
 11
348.3513051732
 21
125.2692670775
 31
0.0
  0
SPLINE
  5
B6
330
1F
100
AcDbEntity
  8
0
  6
Continuous
 62
     7
370
    25
100
AcDbSpline
210
0.0
220
0.0
230
1.0
 70
     8
 71
     3
 72
     8
 73
     4
 74
     0
 42
0.000000001
 43
0.00000001
 40
0.0
 40
0.0
 40
0.0
 40
0.0
 40
1.0
 40
1.0
 40
1.0
 40
1.0
 10
348.7793923878031
 20
124.8167487152204
 30
0.0
 10
348.7260468823136
 20
124.8156756672956
 30
0.0
 10
348.6727515966979
 20
124.8148775740332
 30
0.0
 10
348.6195087717562
 20
124.8143538477953
 30
0.0
  0
LINE
  5
B7
330
1F
100
AcDbEntity
  8
0
  6
Continuous
 62
     7
370
    25
100
AcDbLine
 10
328.2575577586
 20
134.40551732
 30
0.0
 11
328.1341407536
 21
134.40551732
 31
0.0
  0
SPLINE
  5
B8
330
1F
100
AcDbEntity
  8
0
  6
Continuous
 62
     7
370
    25
100
AcDbSpline
210
0.0
220
0.0
230
1.0
 70
     8
 71
     3
 72
     8
 73
     4
 74
     0
 42
0.000000001
 43
0.00000001
 40
0.0
 40
0.0
 40
0.0
 40
0.0
 40
1.0
 40
1.0
 40
1.0
 40
1.0
 10
327.737391731946
 20
134.8259627203084
 30
0.0
 10
327.7785071589878
 20
134.8268316579484
 30
0.0
 10
327.819581453599
 20
134.8275126955313
 30
0.0
 10
327.860613226088
 20
134.8280062735927
 30
0.0
  0
SPLINE
  5
B9
330
1F
100
AcDbEntity
  8
0
  6
Continuous
 62
     7
370
    25
100
AcDbSpline
210
0.0
220
0.0
230
1.0
 70
     8
 71
     3
 72
     8
 73
     4
 74
     0
 42
0.000000001
 43
0.00000001
 40
0.0
 40
0.0
 40
0.0
 40
0.0
 40
1.0
 40
1.0
 40
1.0
 40
1.0
 10
348.1895520871636
 20
134.8280062735927
 30
0.0
 10
348.2305838596527
 20
134.8275126955313
 30
0.0
 10
348.2716581542637
 20
134.8268316579484
 30
0.0
 10
348.3127735813055
 20
134.8259627203084
 30
0.0
  0
LINE
  5
BA
330
1F
100
AcDbEntity
  8
0
  6
Continuous
 62
     7
370
    25
100
AcDbLine
 10
347.9160245596
 20
134.40551732
 30
0.0
 11
347.7926075547
 21
134.40551732
 31
0.0
  0
SPLINE
  5
BB
330
1F
100
AcDbEntity
  8
0
  6
Continuous
 62
     7
370
    25
100
AcDbSpline
210
0.0
220
0.0
230
1.0
 70
     8
 71
     3
 72
     9
 73
     5
 74
     0
 42
0.000000001
 43
0.00000001
 40
0.0
 40
0.0
 40
0.0
 40
0.0
 40
0.4897878789203671
 40
1.0
 40
1.0
 40
1.0
 40
1.0
 10
345.1306722212771
 20
134.5986340696098
 30
0.0
 10
345.2570273034984
 20
134.599952795363
 30
0.0
 10
345.5150064974706
 20
134.6026452379694
 30
0.0
 10
345.76890124576
 20
134.6050853158054
 30
0.0
 10
345.8984414238158
 20
134.6063302730937
 30
0.0
  0
ARC
  5
BC
330
1F
100
AcDbEntity
  8
0
  6
Continuous
 62
     7
370
    25
100
AcDbCircle
 10
338.0250826566
 20
129.3755172034
 30
0.0
 40
8.818750000000001
100
AcDbArc
 50
36.3185452201
 51
143.6814533294
  0
SPLINE
  5
BD
330
1F
100
AcDbEntity
  8
0
  6
Continuous
 62
     7
370
    25
100
AcDbSpline
210
0.0
220
0.0
230
1.0
 70
     8
 71
     3
 72
     9
 73
     5
 74
     0
 42
0.000000001
 43
0.00000001
 40
0.0
 40
0.0
 40
0.0
 40
0.0
 40
0.5102121239851032
 40
1.0
 40
1.0
 40
1.0
 40
1.0
 10
330.151723788311
 20
134.606330461698
 30
0.0
 10
330.2812640061618
 20
134.6050855030071
 30
0.0
 10
330.5351588310027
 20
134.6026454224361
 30
0.0
 10
330.7931381040123
 20
134.5999529767429
 30
0.0
 10
330.9194932241957
 20
134.5986342494856
 30
0.0
  0
SPLINE
  5
BE
330
1F
100
AcDbEntity
  8
0
  6
Continuous
 62
     7
370
    25
100
AcDbSpline
210
0.0
220
0.0
230
1.0
 70
     8
 71
     3
 72
     8
 73
     4
 74
     0
 42
0.000000001
 43
0.00000001
 40
0.0
 40
0.0
 40
0.0
 40
0.0
 40
1.0
 40
1.0
 40
1.0
 40
1.0
 10
330.9194929705211
 20
134.5986337802084
 30
0.0
 10
330.9117319125756
 20
134.5880755450093
 30
0.0
 10
330.9039943874798
 20
134.577500011483
 30
0.0
 10
330.8962804721103
 20
134.5669072847035
 30
0.0
  0
SPLINE
  5
BF
330
1F
100
AcDbEntity
  8
0
  6
Continuous
 62
     7
370
    25
100
AcDbSpline
210
0.0
220
0.0
230
1.0
 70
     8
 71
     3
 72
     8
 73
     4
 74
     0
 42
0.000000001
 43
0.00000001
 40
0.0
 40
0.0
 40
0.0
 40
0.0
 40
1.0
 40
1.0
 40
1.0
 40
1.0
 10
330.7247226393472
 20
134.4055175422403
 30
0.0
 10
330.7819830463817
 20
134.4594257192281
 30
0.0
 10
330.8391694374914
 20
134.5132226443112
 30
0.0
 10
330.8962804721103
 20
134.5669072847035
 30
0.0
  0
LINE
  5
C0
330
1F
100
AcDbEntity
  8
0
  6
Continuous
 62
     7
370
    25
100
AcDbLine
 10
330.7247234597
 20
134.40551732
 30
0.0
 11
330.1493533044
 21
134.40551732
 31
0.0
  0
SPLINE
  5
C1
330
1F
100
AcDbEntity
  8
0
  6
Continuous
 62
     7
370
    25
100
AcDbSpline
210
0.0
220
0.0
230
1.0
 70
     8
 71
     3
 72
     8
 73
     4
 74
     0
 42
0.000000001
 43
0.00000001
 40
0.0
 40
0.0
 40
0.0
 40
0.0
 40
1.0
 40
1.0
 40
1.0
 40
1.0
 10
345.1540002729224
 20
134.5667487704047
 30
0.0
 10
345.1462481602218
 20
134.5773944470772
 30
0.0
 10
345.1384722015545
 20
134.5880227592714
 30
0.0
 10
345.1306724749511
 20
134.5986336003339
 30
0.0
  0
LINE
  5
C2
330
1F
100
AcDbEntity
  8
0
  6
Continuous
 62
     7
370
    25
100
AcDbLine
 10
345.9008120089
 20
134.40551732
 30
0.0
 11
345.3254134482
 21
134.40551732
 31
0.0
  0
SPLINE
  5
C3
330
1F
100
AcDbEntity
  8
0
  6
Continuous
 62
     7
370
    25
100
AcDbSpline
210
0.0
220
0.0
230
1.0
 70
     8
 71
     3
 72
     8
 73
     4
 74
     0
 42
0.000000001
 43
0.00000001
 40
0.0
 40
0.0
 40
0.0
 40
0.0
 40
1.0
 40
1.0
 40
1.0
 40
1.0
 10
345.1540002729224
 20
134.5667487704047
 30
0.0
 10
345.2110634006085
 20
134.5131168199889
 30
0.0
 10
345.2682017803388
 20
134.4593727336239
 30
0.0
 10
345.3254140738126
 20
134.4055175423737
 30
0.0
  0
ARC
  5
C4
330
1F
100
AcDbEntity
  8
0
  6
Continuous
 62
     7
370
    25
100
AcDbCircle
 10
338.0250826566
 20
129.3755172034
 30
0.0
 40
8.818750000000032
100
AcDbArc
 50
209.2047569376
 51
330.7952430624
  0
SPLINE
  5
C5
330
1F
100
AcDbEntity
  8
0
  6
Continuous
 62
     7
370
    25
100
AcDbSpline
210
0.0
220
0.0
230
1.0
 70
    24
 71
     3
 72
     8
 73
     4
 74
     0
 42
0.000000001
 43
0.00000001
 40
0.0
 40
0.0
 40
0.0
 40
0.0
 40
0.000136040218399
 40
0.000136040218399
 40
0.000136040218399
 40
0.000136040218399
 10
345.7662180534701
 20
125.1159767725209
 30
0.0
 10
345.751779053786
 20
125.1015377728368
 30
0.0
 10
345.7373086014238
 20
125.0870673204745
 30
0.0
 10
345.7228070028723
 20
125.0725657219231
 30
0.0
  0
SPLINE
  5
C6
330
1F
100
AcDbEntity
  8
0
  6
Continuous
 62
     7
370
    25
100
AcDbSpline
210
0.0
220
0.0
230
1.0
 70
     8
 71
     3
 72
     9
 73
     5
 74
     0
 42
0.000000001
 43
0.00000001
 40
0.0
 40
0.0
 40
0.0
 40
0.0
 40
0.5086448740972567
 40
1.0
 40
1.0
 40
1.0
 40
1.0
 10
346.4129007822264
 20
125.1116861667357
 30
0.0
 10
346.3037347332286
 20
125.1123800155807
 30
0.0
 10
346.0891133843127
 20
125.1137441281086
 30
0.0
 10
345.8726020716354
 20
125.1152409480465
 30
0.0
 10
345.7662181283355
 20
125.1159764181955
 30
0.0
  0
SPLINE
  5
C7
330
1F
100
AcDbEntity
  8
0
  6
Continuous
 62
     7
370
    25
100
AcDbSpline
210
0.0
220
0.0
230
1.0
 70
     8
 71
     3
 72
     9
 73
     5
 74
     0
 42
0.000000001
 43
0.00000001
 40
0.0
 40
0.0
 40
0.0
 40
0.0
 40
0.4913551252639729
 40
1.0
 40
1.0
 40
1.0
 40
1.0
 10
330.2839472153806
 20
125.1159763877309
 30
0.0
 10
330.1775632639886
 20
125.1152409174021
 30
0.0
 10
329.9610519345609
 20
125.1137440970964
 30
0.0
 10
329.7464305691941
 20
125.1123799842421
 30
0.0
 10
329.6372645116915
 20
125.1116861352302
 30
0.0
  0
SPLINE
  5
C8
330
1F
100
AcDbEntity
  8
0
  6
Continuous
 62
     7
370
    25
100
AcDbSpline
210
0.0
220
0.0
230
1.0
 70
    24
 71
     3
 72
     8
 73
     4
 74
     0
 42
0.000000001
 43
0.00000001
 40
0.0
 40
0.0
 40
0.0
 40
0.0
 40
0.000136040122724
 40
0.000136040122724
 40
0.000136040122724
 40
0.000136040122724
 10
330.3273583103793
 20
125.0725657219231
 30
0.0
 10
330.3128567220266
 20
125.0870673102758
 30
0.0
 10
330.2983862798194
 20
125.101537752483
 30
0.0
 10
330.283947290246
 20
125.1159767420564
 30
0.0
  0
LINE
  5
C9
330
1F
100
AcDbEntity
  8
0
  6
Continuous
 62
     7
370
    25
100
AcDbLine
 10
329.6266075312
 20
125.2692670775
 30
0.0
 11
330.1306570037
 21
125.2692670775
 31
0.0
  0
SPLINE
  5
CA
330
1F
100
AcDbEntity
  8
0
  6
Continuous
 62
     7
370
    25
100
AcDbSpline
210
0.0
220
0.0
230
1.0
 70
     8
 71
     3
 72
     8
 73
     4
 74
     0
 42
0.000000001
 43
0.00000001
 40
0.0
 40
0.0
 40
0.0
 40
0.0
 40
1.0
 40
1.0
 40
1.0
 40
1.0
 10
330.2839474900779
 20
125.1159765424693
 30
0.0
 10
330.2328787274735
 20
125.1670190342133
 30
0.0
 10
330.1817817678376
 20
125.2181160062393
 30
0.0
 10
330.1306569263219
 20
125.2692671059805
 30
0.0
  0
SPLINE
  5
CB
330
1F
100
AcDbEntity
  8
0
  6
Continuous
 62
     7
370
    25
100
AcDbSpline
210
0.0
220
0.0
230
1.0
 70
     8
 71
     3
 72
     8
 73
     4
 74
     0
 42
0.000000001
 43
0.00000001
 40
0.0
 40
0.0
 40
0.0
 40
0.0
 40
1.0
 40
1.0
 40
1.0
 40
1.0
 10
345.9195083869297
 20
125.2692671059805
 30
0.0
 10
345.8683835555845
 20
125.2181160164252
 30
0.0
 10
345.8172866061035
 20
125.1670190545542
 30
0.0
 10
345.7662178536382
 20
125.1159765729338
 30
0.0
  0
LINE
  5
CC
330
1F
100
AcDbEntity
  8
0
  6
Continuous
 62
     7
370
    25
100
AcDbLine
 10
345.9195083095
 20
125.2692670775
 30
0.0
 11
346.4235577821
 21
125.2692670775
 31
0.0
  0
CIRCLE
  5
CD
330
1F
100
AcDbEntity
  8
0
  6
Continuous
 62
     7
370
    25
100
AcDbCircle
 10
338.0250826566
 20
129.3755172034
 30
0.0
 40
12.47086902276419
  0
SPLINE
  5
CE
330
1F
100
AcDbEntity
  8
0
  6
Continuous
 62
     7
370
    25
100
AcDbSpline
210
0.0
220
0.0
230
1.0
 70
     8
 71
     3
 72
    23
 73
    19
 74
     0
 42
0.000000001
 43
0.00000001
 40
0.0
 40
0.0
 40
0.0
 40
0.0
 40
0.0521036415683759
 40
0.1035646240941235
 40
0.1544751946756683
 40
0.2049306267495642
 40
0.2550287880866983
 40
0.3048696389163111
 40
0.354554670462894
 40
0.4041862979539558
 40
0.453867225213789
 40
0.5036997999428097
 40
0.590187023078111
 40
0.6742716378282376
 40
0.7565997087281883
 40
0.8378563983773627
 40
0.9187511781400207
 40
0.9999999999999999
 40
0.9999999999999999
 40
0.9999999999999999
 40
0.9999999999999999
 10
327.1858305099683
 20
133.865927916122
 30
0.0
 10
327.1991248649184
 20
133.8950958092843
 30
0.0
 10
327.2255495989971
 20
133.9530718316897
 30
0.0
 10
327.2647606052217
 20
134.0359711327035
 30
0.0
 10
327.303202560028
 20
134.1151531137223
 30
0.0
 10
327.3407901414951
 20
134.1904079305251
 30
0.0
 10
327.3774460278028
 20
134.261827584783
 30
0.0
 10
327.4130958918614
 20
134.3294241935644
 30
0.0
 10
327.4476696386222
 20
134.3932305150281
 30
0.0
 10
327.4811013325777
 20
134.453274057096
 30
0.0
 10
327.5133282098018
 20
134.509580753821
 30
0.0
 10
327.5518296466909
 20
134.5749857356431
 30
0.0
 10
327.5944911274039
 20
134.644546813478
 30
0.0
 10
327.6379841695272
 20
134.7113063101425
 30
0.0
 10
327.6743966663553
 20
134.7630303582404
 30
0.0
 10
327.7032974728325
 20
134.7994786702923
 30
0.0
 10
327.7252149289306
 20
134.8220760671757
 30
0.0
 10
327.7333268934237
 20
134.8246652847371
 30
0.0
 10
327.737391731946
 20
134.8259627203084
 30
0.0
  0
SPLINE
  5
CF
330
1F
100
AcDbEntity
  8
0
  6
Continuous
 62
     7
370
    25
100
AcDbSpline
210
0.0
220
0.0
230
1.0
 70
     8
 71
     3
 72
     8
 73
     4
 74
     0
 42
0.000000001
 43
0.00000001
 40
0.0
 40
0.0
 40
0.0
 40
0.0
 40
1.0
 40
1.0
 40
1.0
 40
1.0
 10
327.0651925701052
 20
133.8637175587121
 30
0.0
 10
327.1053815836983
 20
133.8644478689297
 30
0.0
 10
327.1455438857884
 20
133.8650283947592
 30
0.0
 10
327.1856785962641
 20
133.8654593597089
 30
0.0
  0
SPLINE
  5
D0
330
1F
100
AcDbEntity
  8
0
  6
Continuous
 62
     7
370
    25
100
AcDbSpline
210
0.0
220
0.0
230
1.0
 70
     8
 71
     3
 72
    18
 73
    14
 74
     0
 42
0.000000001
 43
0.00000001
 40
0.0
 40
0.0
 40
0.0
 40
0.0
 40
0.0923824559461122
 40
0.1844689291660427
 40
0.2764953616062392
 40
0.3686975365619641
 40
0.4613092840130473
 40
0.5545607518559533
 40
0.6486768051632873
 40
0.7438756050210469
 40
0.8403674044324065
 40
0.9203921078135461
 40
1.0
 40
1.0
 40
1.0
 40
1.0
 10
327.118131558905
 20
134.130534565594
 30
0.0
 10
327.1199672125578
 20
134.1303262533788
 30
0.0
 10
327.1236326386409
 20
134.1299102963567
 30
0.0
 10
327.1264279682603
 20
134.1231058728906
 30
0.0
 10
327.127230263339
 20
134.1117724942385
 30
0.0
 10
327.1258641262959
 20
134.095472099212
 30
0.0
 10
327.1224025776671
 20
134.0743208603761
 30
0.0
 10
327.1168612718976
 20
134.0482851592596
 30
0.0
 10
327.1092768038285
 20
134.0173607796084
 30
0.0
 10
327.0996998018915
 20
133.9815617481638
 30
0.0
 10
327.0888593258722
 20
133.9433108406319
 30
0.0
 10
327.0773706849328
 20
133.9040926272368
 30
0.0
 10
327.0692707000546
 20
133.8772376503873
 30
0.0
 10
327.0652312824118
 20
133.863845222017
 30
0.0
  0
LINE
  5
D1
330
1F
100
AcDbEntity
  8
0
  6
Continuous
 62
     7
370
    25
100
AcDbLine
 10
327.0653763874
 20
134.129786699
 30
0.0
 11
327.1181311547
 21
134.130534551
 31
0.0
  0
SPLINE
  5
D2
330
1F
100
AcDbEntity
  8
0
  6
Continuous
 62
     7
370
    25
100
AcDbSpline
210
0.0
220
0.0
230
1.0
 70
     8
 71
     3
 72
    25
 73
    21
 74
     0
 42
0.000000001
 43
0.00000001
 40
0.0
 40
0.0
 40
0.0
 40
0.0
 40
0.0280105225426455
 40
0.0559601148860774
 40
0.0839014045043129
 40
0.1118870776786379
 40
0.1399695827588941
 40
0.1682008401739877
 40
0.1966319670424218
 40
0.2253130233141493
 40
0.2542927850735863
 40
0.3799486436570518
 40
0.505785022166658
 40
0.6313085886329272
 40
0.7532068238012843
 40
0.8039473267959846
 40
0.8535894438560211
 40
0.902533972239985
 40
0.9511970353794947
 40
1.0
 40
1.0
 40
1.0
 40
1.0
 10
326.1544147918522
 20
131.5628549459064
 30
0.0
 10
326.1613938617631
 20
131.6001649594131
 30
0.0
 10
326.1753368202858
 20
131.6747038274067
 30
0.0
 10
326.1978587177288
 20
131.7860128728899
 30
0.0
 10
326.2214923298263
 20
131.8966750819044
 30
0.0
 10
326.2463419203143
 20
132.0066592148487
 30
0.0
 10
326.2723605448006
 20
132.1159543584632
 30
0.0
 10
326.2995419261185
 20
132.2245453276654
 30
0.0
 10
326.327867567451
 20
132.3324160376077
 30
0.0
 10
326.3573263482836
 20
132.4395609833327
 30
0.0
 10
326.4217346361951
 20
132.6637358698426
 30
0.0
 10
326.5268363282667
 20
132.9904012838778
 30
0.0
 10
326.6722990890626
 20
133.376347889198
 30
0.0
 10
326.8115624971738
 20
133.6984277018921
 30
0.0
 10
326.908710850041
 20
133.8942482859223
 30
0.0
 10
326.9690062562673
 20
134.0035957364056
 30
0.0
 10
327.0038948391486
 20
134.061523760821
 30
0.0
 10
327.0317893410765
 20
134.1019777135859
 30
0.0
 10
327.0531544334481
 20
134.126591928985
 30
0.0
 10
327.0612983810207
 20
134.1287208564927
 30
0.0
 10
327.0653761996658
 20
134.1297868481641
 30
0.0
  0
ARC
  5
D3
330
1F
100
AcDbEntity
  8
0
  6
Continuous
 62
     7
370
    25
100
AcDbCircle
 10
338.0250826566
 20
129.3755172034
 30
0.0
 40
12.07050959801141
100
AcDbArc
 50
169.5595567507
 51
190.4404432494
  0
SPLINE
  5
D4
330
1F
100
AcDbEntity
  8
0
  6
Continuous
 62
     7
370
    25
100
AcDbSpline
210
0.0
220
0.0
230
1.0
 70
     8
 71
     3
 72
    26
 73
    22
 74
     0
 42
0.000000001
 43
0.00000001
 40
0.0
 40
0.0
 40
0.0
 40
0.0
 40
0.0241259796963637
 40
0.048215991227299
 40
0.0723203915124064
 40
0.0964895678710793
 40
0.120773623196351
 40
0.1452220711242841
 40
0.1698835501657706
 40
0.1948055644472381
 40
0.2200342569517629
 40
0.2456142191611394
 40
0.3690971486901671
 40
0.4940698769485191
 40
0.6192566784762444
 40
0.7454656653603234
 40
0.7971495824713715
 40
0.8481710308405401
 40
0.8988013269235245
 40
0.9493179290492194
 40
1.0
 40
1.0
 40
1.0
 40
1.0
 10
327.0653761996658
 20
124.62124755858
 30
0.0
 10
327.0634658849253
 20
124.6215344517694
 30
0.0
 10
327.0596481034331
 20
124.6221078104341
 30
0.0
 10
327.0516879782522
 20
124.6281664986806
 30
0.0
 10
327.0421088776768
 20
124.6380457594114
 30
0.0
 10
327.0307616708081
 20
124.6521268505218
 30
0.0
 10
327.0177054875142
 20
124.670322398546
 30
0.0
 10
327.0029495842869
 20
124.6926729412847
 30
0.0
 10
326.9865224039895
 20
124.7191871769767
 30
0.0
 10
326.9684542492693
 20
124.74988268769
 30
0.0
 10
326.9487771028462
 20
124.7847837909299
 30
0.0
 10
326.900577721418
 20
124.8735483260376
 30
0.0
 10
326.8122596819827
 20
125.0508286274865
 30
0.0
 10
326.6732000652158
 20
125.3719145343316
 30
0.0
 10
326.5275273853537
 20
125.7584971862221
 30
0.0
 10
326.4137887903442
 20
126.112204890352
 30
0.0
 10
326.3340831717977
 20
126.3944585899648
 30
0.0
 10
326.2834335994434
 20
126.5889020207391
 30
0.0
 10
326.236466929578
 20
126.7861433976732
 30
0.0
 10
326.1929071075737
 20
126.9860464427683
 30
0.0
 10
326.1672595424421
 20
127.1207283825006
 30
0.0
 10
326.1544147918522
 20
127.1881794608377
 30
0.0
  0
LINE
  5
D5
330
1F
100
AcDbEntity
  8
0
  6
Continuous
 62
     7
370
    25
100
AcDbLine
 10
327.1181311547
 20
124.6204998557
 30
0.0
 11
327.0653763874
 21
124.6212477078
 31
0.0
  0
SPLINE
  5
D6
330
1F
100
AcDbEntity
  8
0
  6
Continuous
 62
     7
370
    25
100
AcDbSpline
210
0.0
220
0.0
230
1.0
 70
     8
 71
     3
 72
    14
 73
    10
 74
     0
 42
0.000000001
 43
0.00000001
 40
0.0
 40
0.0
 40
0.0
 40
0.0
 40
0.0789261963152472
 40
0.1582328720511064
 40
0.3308475394503796
 40
0.5000195457530386
 40
0.6670357883499396
 40
0.8332395193610692
 40
1.0
 40
1.0
 40
1.0
 40
1.0
 10
327.0651347020527
 20
124.8875233184555
 30
0.0
 10
327.0691492486487
 20
124.874220193818
 30
0.0
 10
327.0771976947608
 20
124.8475498141859
 30
0.0
 10
327.0920984015705
 20
124.7967350748659
 30
0.0
 10
327.1079953831675
 20
124.7396952586784
 30
0.0
 10
327.1210738781655
 20
124.6853920419501
 30
0.0
 10
327.1273064852828
 20
124.6472248992271
 30
0.0
 10
327.1271169054457
 20
124.6238161705502
 30
0.0
 10
327.1211300113148
 20
124.6216065158717
 30
0.0
 10
327.118131558905
 20
124.6204998411501
 30
0.0
  0
SPLINE
  5
D7
330
1F
100
AcDbEntity
  8
0
  6
Continuous
 62
     7
370
    25
100
AcDbSpline
210
0.0
220
0.0
230
1.0
 70
     8
 71
     3
 72
     8
 73
     4
 74
     0
 42
0.000000001
 43
0.00000001
 40
0.0
 40
0.0
 40
0.0
 40
0.0
 40
1.0
 40
1.0
 40
1.0
 40
1.0
 10
327.2124393932776
 20
124.8854622400043
 30
0.0
 10
327.1633714782488
 20
124.8859492932163
 30
0.0
 10
327.1142620407279
 20
124.8866603610911
 30
0.0
 10
327.0651126962025
 20
124.8875958543255
 30
0.0
  0
SPLINE
  5
D8
330
1F
100
AcDbEntity
  8
0
  6
Continuous
 62
     7
370
    25
100
AcDbSpline
210
0.0
220
0.0
230
1.0
 70
     8
 71
     3
 72
    13
 73
     9
 74
     0
 42
0.000000001
 43
0.00000001
 40
0.0
 40
0.0
 40
0.0
 40
0.0
 40
0.1667030582307959
 40
0.3329480818053031
 40
0.4990671507274871
 40
0.6653938523718408
 40
0.8322612710550125
 40
1.0
 40
1.0
 40
1.0
 40
1.0
 10
327.2707729254485
 20
124.8167487152204
 30
0.0
 10
327.2689296116116
 20
124.8171658249861
 30
0.0
 10
327.2652480486418
 20
124.8179988984635
 30
0.0
 10
327.2577307948472
 20
124.8240133772899
 30
0.0
 10
327.2487799907308
 20
124.8335081095821
 30
0.0
 10
327.2382297023078
 20
124.8469177166918
 30
0.0
 10
327.2262565167907
 20
124.8638356203154
 30
0.0
 10
327.2170501091844
 20
124.8782483554548
 30
0.0
 10
327.2124349186955
 20
124.8854734883164
 30
0.0
  0
SPLINE
  5
D9
330
1F
100
AcDbEntity
  8
0
  6
Continuous
 62
     7
370
    25
100
AcDbSpline
210
0.0
220
0.0
230
1.0
 70
     8
 71
     3
 72
    13
 73
     9
 74
     0
 42
0.000000001
 43
0.00000001
 40
0.0
 40
0.0
 40
0.0
 40
0.0
 40
0.1686319999748108
 40
0.3360343310905541
 40
0.5025367825908723
 40
0.6684737453788424
 40
0.8341822636915195
 40
1.0
 40
1.0
 40
1.0
 40
1.0
 10
348.8377317756741
 20
124.8854769381292
 30
0.0
 10
348.8330945305759
 20
124.8782197781098
 30
0.0
 10
348.8238538552895
 20
124.8637583774675
 30
0.0
 10
348.8118384819225
 20
124.8467776807634
 30
0.0
 10
348.8012729281678
 20
124.8333448995839
 30
0.0
 10
348.7923335788748
 20
124.8238654310299
 30
0.0
 10
348.7848526982863
 20
124.8179002053321
 30
0.0
 10
348.7812128909968
 20
124.8171326295476
 30
0.0
 10
348.7793923878031
 20
124.8167487152204
 30
0.0
  0
SPLINE
  5
DA
330
1F
100
AcDbEntity
  8
0
  6
Continuous
 62
     7
370
    25
100
AcDbSpline
210
0.0
220
0.0
230
1.0
 70
     8
 71
     3
 72
     8
 73
     4
 74
     0
 42
0.000000001
 43
0.00000001
 40
0.0
 40
0.0
 40
0.0
 40
0.0
 40
1.0
 40
1.0
 40
1.0
 40
1.0
 10
348.9850573876468
 20
124.8875959590719
 30
0.0
 10
348.9359064580385
 20
124.8866604288099
 30
0.0
 10
348.8867954379591
 20
124.8859493382979
 30
0.0
 10
348.8377259430512
 20
124.8854622767999
 30
0.0
  0
SPLINE
  5
DB
330
1F
100
AcDbEntity
  8
0
  6
Continuous
 62
     7
370
    25
100
AcDbSpline
210
0.0
220
0.0
230
1.0
 70
     8
 71
     3
 72
    18
 73
    14
 74
     0
 42
0.000000001
 43
0.00000001
 40
0.0
 40
0.0
 40
0.0
 40
0.0
 40
0.0923325137151694
 40
0.1843692047134009
 40
0.2763458873902312
 40
0.368498217575762
 40
0.4610598988406411
 40
0.5542609546627003
 40
0.6483261285518087
 40
0.743473463655427
 40
0.8399130993133287
 40
0.9201660718313618
 40
1.0
 40
1.0
 40
1.0
 40
1.0
 10
348.9320337543466
 20
124.6204998411501
 30
0.0
 10
348.930198100694
 20
124.6207081533659
 30
0.0
 10
348.9265326746114
 20
124.6211241103892
 30
0.0
 10
348.9237373449888
 20
124.6279285338464
 30
0.0
 10
348.9229350499219
 20
124.6392619125322
 30
0.0
 10
348.924301186921
 20
124.6555623074325
 30
0.0
 10
348.9277627357151
 20
124.6767135467426
 30
0.0
 10
348.9333040408615
 20
124.7027492460702
 30
0.0
 10
348.940888511289
 20
124.7336736324929
 30
0.0
 10
348.9504655042696
 20
124.769472638221
 30
0.0
 10
348.9613168512958
 20
124.8077618833354
 30
0.0
 10
348.9728316129281
 20
124.8470675077525
 30
0.0
 10
348.9809633217492
 20
124.874024585646
 30
0.0
 10
348.9850185333569
 20
124.8874678430954
 30
0.0
  0
LINE
  5
DC
330
1F
100
AcDbEntity
  8
0
  6
Continuous
 62
     7
370
    25
100
AcDbLine
 10
348.9847889258
 20
124.6212477078
 30
0.0
 11
348.9320341586
 21
124.6204998557
 31
0.0
  0
SPLINE
  5
DD
330
1F
100
AcDbEntity
  8
0
  6
Continuous
 62
     7
370
    25
100
AcDbSpline
210
0.0
220
0.0
230
1.0
 70
     8
 71
     3
 72
    25
 73
    21
 74
     0
 42
0.000000001
 43
0.00000001
 40
0.0
 40
0.0
 40
0.0
 40
0.0
 40
0.0280105225425618
 40
0.0559601148859273
 40
0.0839014045041196
 40
0.1118870776784247
 40
0.1399695827586811
 40
0.1682008401737953
 40
0.1966319670422708
 40
0.2253130233140565
 40
0.2542927850735732
 40
0.3799486436574536
 40
0.5057850221666685
 40
0.6313085886327393
 40
0.7532068238012419
 40
0.803947326795536
 40
0.8535894438553622
 40
0.9025339722393254
 40
0.951197035379054
 40
1.0
 40
1.0
 40
1.0
 40
1.0
 10
349.8957505213995
 20
127.1881794608377
 30
0.0
 10
349.8887714514885
 20
127.1508694473311
 30
0.0
 10
349.8748284929658
 20
127.0763305793377
 30
0.0
 10
349.852306595523
 20
126.9650215338548
 30
0.0
 10
349.8286729834255
 20
126.8543593248405
 30
0.0
 10
349.8038233929375
 20
126.7443751918963
 30
0.0
 10
349.7778047684512
 20
126.6350800482817
 30
0.0
 10
349.7506233871333
 20
126.5264890790795
 30
0.0
 10
349.7222977458007
 20
126.418618369137
 30
0.0
 10
349.6928389649681
 20
126.3114734234117
 30
0.0
 10
349.6284306770564
 20
126.087298536901
 30
0.0
 10
349.5233289849847
 20
125.7606331228653
 30
0.0
 10
349.3778662241888
 20
125.3746865175458
 30
0.0
 10
349.2386028160782
 20
125.0526067048533
 30
0.0
 10
349.1414544632109
 20
124.8567861208224
 30
0.0
 10
349.0811590569843
 20
124.7474386703383
 30
0.0
 10
349.0462704741031
 20
124.689510645923
 30
0.0
 10
349.0183759721752
 20
124.649056693158
 30
0.0
 10
348.9970108798036
 20
124.624442477759
 30
0.0
 10
348.9888669322309
 20
124.6223135502514
 30
0.0
 10
348.9847891135858
 20
124.62124755858
 30
0.0
  0
ARC
  5
DE
330
1F
100
AcDbEntity
  8
0
  6
Continuous
 62
     7
370
    25
100
AcDbCircle
 10
338.0250826566
 20
129.3755172034
 30
0.0
 40
12.07050959801141
100
AcDbArc
 50
349.5595567507
 51
10.4404432493
  0
SPLINE
  5
DF
330
1F
100
AcDbEntity
  8
0
  6
Continuous
 62
     7
370
    25
100
AcDbSpline
210
0.0
220
0.0
230
1.0
 70
     8
 71
     3
 72
    26
 73
    22
 74
     0
 42
0.000000001
 43
0.00000001
 40
0.0
 40
0.0
 40
0.0
 40
0.0
 40
0.0241259796962594
 40
0.0482159912271147
 40
0.0723203915121655
 40
0.0964895678708044
 40
0.1207736231960655
 40
0.1452220711240092
 40
0.1698835501655297
 40
0.1948055644470513
 40
0.2200342569516523
 40
0.2456142191611222
 40
0.3690971486898452
 40
0.4940698769485167
 40
0.6192566784763793
 40
0.7454656653603262
 40
0.7971495824714568
 40
0.8481710308406679
 40
0.8988013269236526
 40
0.9493179290493045
 40
1.0
 40
1.0
 40
1.0
 40
1.0
 10
348.9847891135858
 20
134.1297868481641
 30
0.0
 10
348.9866994283263
 20
134.1294999549747
 30
0.0
 10
348.9905172098184
 20
134.1289265963099
 30
0.0
 10
348.9984773349993
 20
134.1228679080635
 30
0.0
 10
349.0080564355748
 20
134.1129886473327
 30
0.0
 10
349.0194036424434
 20
134.0989075562223
 30
0.0
 10
349.0324598257373
 20
134.0807120081981
 30
0.0
 10
349.0472157289647
 20
134.0583614654594
 30
0.0
 10
349.0636429092621
 20
134.0318472297673
 30
0.0
 10
349.0817110639823
 20
134.0011517190541
 30
0.0
 10
349.1013882104053
 20
133.9662506158141
 30
0.0
 10
349.1495875918334
 20
133.8774860807069
 30
0.0
 10
349.2379056312688
 20
133.7002057792581
 30
0.0
 10
349.3769652480357
 20
133.3791198724126
 30
0.0
 10
349.522637927898
 20
132.992537220522
 30
0.0
 10
349.6363765229074
 20
132.6388295163918
 30
0.0
 10
349.716082141454
 20
132.356575816779
 30
0.0
 10
349.7667317138083
 20
132.1621323860045
 30
0.0
 10
349.8136983836737
 20
131.9648910090704
 30
0.0
 10
349.857258205678
 20
131.7649879639754
 30
0.0
 10
349.8829057708095
 20
131.6303060242434
 30
0.0
 10
349.8957505213995
 20
131.5628549459063
 30
0.0
  0
LINE
  5
E0
330
1F
100
AcDbEntity
  8
0
  6
Continuous
 62
     7
370
    25
100
AcDbLine
 10
348.9320341586
 20
134.130534551
 30
0.0
 11
348.9847889258
 21
134.129786699
 31
0.0
  0
SPLINE
  5
E1
330
1F
100
AcDbEntity
  8
0
  6
Continuous
 62
     7
370
    25
100
AcDbSpline
210
0.0
220
0.0
230
1.0
 70
     8
 71
     3
 72
    14
 73
    10
 74
     0
 42
0.000000001
 43
0.00000001
 40
0.0
 40
0.0
 40
0.0
 40
0.0
 40
0.0786889129230217
 40
0.1577561817120102
 40
0.3304686003102582
 40
0.4997364082417218
 40
0.666847231663544
 40
0.833145083375537
 40
1.0
 40
1.0
 40
1.0
 40
1.0
 10
348.9849420411235
 20
133.8638030563763
 30
0.0
 10
348.9809440321689
 20
133.8770529608921
 30
0.0
 10
348.9729287908381
 20
133.9036164787604
 30
0.0
 10
348.9580561175486
 20
133.9543380065293
 30
0.0
 10
348.9421699527863
 20
134.0113390855533
 30
0.0
 10
348.929091429142
 20
134.0656423811624
 30
0.0
 10
348.9228588295369
 20
134.1038095031996
 30
0.0
 10
348.9230484074133
 20
134.1272182372751
 30
0.0
 10
348.9290353018058
 20
134.1294278912332
 30
0.0
 10
348.9320337543466
 20
134.130534565594
 30
0.0
  0
SPLINE
  5
E2
330
1F
100
AcDbEntity
  8
0
  6
Continuous
 62
     7
370
    25
100
AcDbSpline
210
0.0
220
0.0
230
1.0
 70
     8
 71
     3
 72
     8
 73
     4
 74
     0
 42
0.000000001
 43
0.00000001
 40
0.0
 40
0.0
 40
0.0
 40
0.0
 40
1.0
 40
1.0
 40
1.0
 40
1.0
 10
348.8644867004406
 20
133.8654593963418
 30
0.0
 10
348.9046198189473
 20
133.8650284423945
 30
0.0
 10
348.9447805268759
 20
133.864447939382
 30
0.0
 10
348.9849679442189
 20
133.8637176638224
 30
0.0
  0
SPLINE
  5
E3
330
1F
100
AcDbEntity
  8
0
  6
Continuous
 62
     7
370
    25
100
AcDbSpline
210
0.0
220
0.0
230
1.0
 70
     8
 71
     3
 72
    23
 73
    19
 74
     0
 42
0.000000001
 43
0.00000001
 40
0.0
 40
0.0
 40
0.0
 40
0.0
 40
0.0441308420115403
 40
0.0880968635201137
 40
0.1320155028394797
 40
0.1760048571417636
 40
0.220182730577585
 40
0.2646656976919496
 40
0.3095682184552906
 40
0.3550018365579412
 40
0.4010744854732484
 40
0.4478899182331895
 40
0.4955472680210786
 40
0.5953670562466713
 40
0.6949121173423626
 40
0.7950007649006683
 40
0.896438625518418
 40
1.0
 40
1.0
 40
1.0
 40
1.0
 10
348.3127735813055
 20
134.8259627203084
 30
0.0
 10
348.3147579714123
 20
134.8256798630785
 30
0.0
 10
348.3187193402972
 20
134.8251152050379
 30
0.0
 10
348.3275796445276
 20
134.8186958518592
 30
0.0
 10
348.33855212265
 20
134.8081746023526
 30
0.0
 10
348.3518315206703
 20
134.7931430660428
 30
0.0
 10
348.3673422443366
 20
134.7736908209804
 30
0.0
 10
348.3850737060897
 20
134.7497708430283
 30
0.0
 10
348.4049903527929
 20
134.7213697523144
 30
0.0
 10
348.4270558868051
 20
134.6884620125138
 30
0.0
 10
348.4512268104992
 20
134.6510220298576
 30
0.0
 10
348.4774538205465
 20
134.6090219582277
 30
0.0
 10
348.5157904007778
 20
134.5457448497045
 30
0.0
 10
348.5681231801565
 20
134.4556859873411
 30
0.0
 10
348.636523791365
 20
134.3313398677739
 30
0.0
 10
348.7092088661605
 20
134.1916267897934
 30
0.0
 10
348.78556910206
 20
134.0372907745654
 30
0.0
 10
348.83785791671
 20
133.9235681203378
 30
0.0
 10
348.8642731446134
 20
133.8661177870436
 30
0.0
  0
SPLINE
  5
E4
330
1F
100
AcDbEntity
  8
0
  6
Continuous
 62
     7
370
    25
100
AcDbSpline
210
0.0
220
0.0
230
1.0
 70
    11
 71
     3
 72
    39
 73
    35
 74
     0
 42
0.000000001
 43
0.00000001
 40
0.0
 40
0.0
 40
0.0
 40
0.0
 40
0.0310664058350965
 40
0.0621048158425859
 40
0.093136155179263
 40
0.1235538293503448
 40
0.1538561545806855
 40
0.1850588072748946
 40
0.2160250992945718
 40
0.2471867223797388
 40
0.2784462884305076
 40
0.3100516090231096
 40
0.3419834369141944
 40
0.3734259894013148
 40
0.4048604886786042
 40
0.4368740651833136
 40
0.4685120685925458
 40
0.4998055358633138
 40
0.5309508213230685
 40
0.5618649784438015
 40
0.5930416446594986
 40
0.6233742450133227
 40
0.6540913579075065
 40
0.6849496782718291
 40
0.71581606451649
 40
0.7471731804043279
 40
0.7784514311862922
 40
0.8101295911560753
 40
0.8419598919688862
 40
0.8735175891922173
 40
0.9050808037887091
 40
0.9370235169792366
 40
0.968744159003463
 40
1.0
 40
1.0
 40
1.0
 40
1.0
 10
340.9292092214233
 20
117.9438870196187
 30
0.0
 10
341.1189210503782
 20
117.9826555963661
 30
0.0
 10
341.4626619008234
 20
118.0590865421479
 30
0.0
 10
341.8456188880346
 20
118.1472260821426
 30
0.0
 10
342.0900593547483
 20
118.1941755687872
 30
0.0
 10
342.1710482915655
 20
118.1822666440738
 30
0.0
 10
342.0903258460856
 20
118.1103087373589
 30
0.0
 10
341.8504636524651
 20
117.9857884711612
 30
0.0
 10
341.4738139183679
 20
117.8284194813358
 30
0.0
 10
340.9675709815389
 20
117.6563953966405
 30
0.0
 10
340.3502965878556
 20
117.4914709890548
 30
0.0
 10
339.6378207737128
 20
117.3537584129759
 30
0.0
 10
338.862355533941
 20
117.2621256004675
 30
0.0
 10
338.0518911003271
 20
117.2287930223724
 30
0.0
 10
337.239386627368
 20
117.2580404679257
 30
0.0
 10
336.4598736372309
 20
117.3463694249129
 30
0.0
 10
335.7415453378923
 20
117.4818749245481
 30
0.0
 10
335.1181732304921
 20
117.6456514460398
 30
0.0
 10
334.6050746358961
 20
117.8176575901854
 30
0.0
 10
334.219872526034
 20
117.9764696046571
 30
0.0
 10
333.9704479207952
 20
118.1037285698216
 30
0.0
 10
333.8798458808492
 20
118.1793355267766
 30
0.0
 10
333.9480574518107
 20
118.1961049234554
 30
0.0
 10
334.1802733182113
 20
118.1533245812409
 30
0.0
 10
334.557490355397
 20
118.0661978963304
 30
0.0
 10
335.0691952231603
 20
117.9514688410246
 30
0.0
 10
335.6926663539074
 20
117.8320466959719
 30
0.0
 10
336.4092110570412
 20
117.7274212459222
 30
0.0
 10
337.1875421696541
 20
117.6567727529953
 30
0.0
 10
337.9993736565051
 20
117.6306939285652
 30
0.0
 10
338.8131481785013
 20
117.6537195002559
 30
0.0
 10
339.5955220226701
 20
117.7219519383939
 30
0.0
 10
340.3175350574057
 20
117.8251991181045
 30
0.0
 10
340.7383405772531
 20
117.9048820418007
 30
0.0
 10
340.9292092214232
 20
117.9438870196186
 30
0.0
  0
SPLINE
  5
E5
330
1F
100
AcDbEntity
  8
0
  6
Continuous
 62
     7
370
    25
100
AcDbSpline
210
0.0
220
0.0
230
1.0
 70
    11
 71
     3
 72
    39
 73
    35
 74
     0
 42
0.000000001
 43
0.00000001
 40
0.0
 40
0.0
 40
0.0
 40
0.0
 40
0.0312651429932929
 40
0.0629601069329363
 40
0.0948697276489851
 40
0.1264264963751878
 40
0.1579651393672514
 40
0.1898765439017007
 40
0.221552335268766
 40
0.2527844076550835
 40
0.2838418966732524
 40
0.3148645781100705
 40
0.34591276392991
 40
0.3763475365526239
 40
0.406675132466265
 40
0.4379141187435676
 40
0.4688932367346729
 40
0.5000738678969627
 40
0.5313369410961
 40
0.5629183719104931
 40
0.5948445736346094
 40
0.6262809966135477
 40
0.6577486436588904
 40
0.6897584692806558
 40
0.7214430019612538
 40
0.752762334319555
 40
0.7839279690576615
 40
0.8148885765585969
 40
0.846037500498419
 40
0.8763409566916832
 40
0.9067589191462748
 40
0.9378312724751754
 40
0.9689189660503823
 40
0.9999999999999999
 40
0.9999999999999999
 40
0.9999999999999999
 40
0.9999999999999999
 10
340.9291049716364
 20
140.8071794395612
 30
0.0
 10
340.7380310353555
 20
140.8462433974418
 30
0.0
 10
340.3170964729164
 20
140.9259623920017
 30
0.0
 10
339.5957070677523
 20
141.0290778073524
 30
0.0
 10
338.814051019461
 20
141.0972786797763
 30
0.0
 10
338.0009632997501
 20
141.1203355724182
 30
0.0
 10
337.1886830828982
 20
141.094351298772
 30
0.0
 10
336.4100526578495
 20
141.0237611335339
 30
0.0
 10
335.6933768679385
 20
140.9191455712949
 30
0.0
 10
335.0715015982772
 20
140.7999732462785
 30
0.0
 10
334.5619906647907
 20
140.6860360785522
 30
0.0
 10
334.186871318548
 20
140.5999217996059
 30
0.0
 10
333.9509107437025
 20
140.5558660782722
 30
0.0
 10
333.879510200513
 20
140.57139587898
 30
0.0
 10
333.9701066303024
 20
140.6469047611614
 30
0.0
 10
334.219082910669
 20
140.7740782890083
 30
0.0
 10
334.6039977305124
 20
140.9329289676211
 30
0.0
 10
335.1167830373373
 20
141.1049532288319
 30
0.0
 10
335.7392421602617
 20
141.2686263083663
 30
0.0
 10
336.45574230507
 20
141.4040278817467
 30
0.0
 10
337.2338413391785
 20
141.4925455492292
 30
0.0
 10
338.045564027827
 20
141.5222529577118
 30
0.0
 10
338.8570062155261
 20
141.4893665130615
 30
0.0
 10
339.63413210701
 20
141.3978856050165
 30
0.0
 10
340.3485701961803
 20
141.260001415055
 30
0.0
 10
340.9667931544165
 20
141.0948735902045
 30
0.0
 10
341.47316051514
 20
140.9228230528524
 30
0.0
 10
341.8497130365544
 20
140.7655395311419
 30
0.0
 10
342.089408847983
 20
140.641135733659
 30
0.0
 10
342.1708755561786
 20
140.5689475602223
 30
0.0
 10
342.0908163136855
 20
140.5566750518448
 30
0.0
 10
341.846470307734
 20
140.6035704623502
 30
0.0
 10
341.4634968742848
 20
140.6917040104958
 30
0.0
 10
341.1190537430751
 20
140.7683455151058
 30
0.0
 10
340.9291049716364
 20
140.8071794395612
 30
0.0
  0
SPLINE
  5
E6
330
1F
100
AcDbEntity
  8
0
  6
Continuous
 62
     7
370
    25
100
AcDbSpline
210
0.0
220
0.0
230
1.0
 70
     8
 71
     3
 72
    23
 73
    19
 74
     0
 42
0.000000001
 43
0.00000001
 40
0.0
 40
0.0
 40
0.0
 40
0.0
 40
0.0449850911547964
 40
0.0909520670823883
 40
0.1379394291328525
 40
0.1859832248994781
 40
0.235117176177667
 40
0.2853728096486027
 40
0.3367795876649756
 40
0.3893650370847659
 40
0.4431548745955978
 40
0.4981731273942729
 40
0.5575107591414307
 40
0.6265492282208773
 40
0.7053073139958764
 40
0.7937970254642376
 40
0.8920262116484563
 40
1.0
 40
1.0
 40
1.0
 40
1.0
 10
328.1341409450686
 20
134.4055172033721
 30
0.0
 10
328.1319782557028
 20
134.4050883017124
 30
0.0
 10
328.127605672182
 20
134.4042211368025
 30
0.0
 10
328.1173247129903
 20
134.3971275692007
 30
0.0
 10
328.1042644349602
 20
134.3855148276205
 30
0.0
 10
328.0881452734059
 20
134.3687254574467
 30
0.0
 10
328.0690448457499
 20
134.3466534708309
 30
0.0
 10
328.0469424929941
 20
134.319055997067
 30
0.0
 10
328.0218420144585
 20
134.2857475658575
 30
0.0
 10
327.9937508830807
 20
134.2465472274514
 30
0.0
 10
327.9626349822292
 20
134.2013051819798
 30
0.0
 10
327.9279960513342
 20
134.1489092495749
 30
0.0
 10
327.887274543036
 20
134.0861267813227
 30
0.0
 10
327.8385536219893
 20
134.0083697820172
 30
0.0
 10
327.780779283664
 20
133.911085224413
 30
0.0
 10
327.7138686340265
 20
133.7913403906974
 30
0.0
 10
327.6379246697558
 20
133.6474201858343
 30
0.0
 10
327.5835635050896
 20
133.5366859809903
 30
0.0
 10
327.5550984409875
 20
133.4787023770969
 30
0.0
  0
LINE
  5
E7
330
1F
100
AcDbEntity
  8
0
  6
Continuous
 62
     7
370
    25
100
AcDbLine
 10
327.5550983934
 20
133.4792285439
 30
0.0
 11
327.1857591434
 21
133.8653134395
 31
0.0
  0
LINE
  5
E8
330
1F
100
AcDbEntity
  8
0
  6
Continuous
 62
     7
370
    25
100
AcDbLine
 10
348.8643735735
 20
133.8652538349
 30
0.0
 11
348.4951069667
 21
133.4792457734
 31
0.0
  0
SPLINE
  5
E9
330
1F
100
AcDbEntity
  8
0
  6
Continuous
 62
     7
370
    25
100
AcDbSpline
210
0.0
220
0.0
230
1.0
 70
     8
 71
     3
 72
    26
 73
    22
 74
     0
 42
0.000000001
 43
0.00000001
 40
0.0
 40
0.0
 40
0.0
 40
0.0
 40
0.0509383868710681
 40
0.0998291548374484
 40
0.1466728126632442
 40
0.1914699456539526
 40
0.2342212299963317
 40
0.2749274506887306
 40
0.3135895241945819
 40
0.3502085273905902
 40
0.384785735024819
 40
0.4173226688625226
 40
0.4478211631676295
 40
0.476283453466084
 40
0.5027122992247393
 40
0.5939067005067384
 40
0.681601599325777
 40
0.7659159552126487
 40
0.8469836289730962
 40
0.9249552229482289
 40
1.0
 40
1.0
 40
1.0
 40
1.0
 10
348.4951073569324
 20
133.4785116468472
 30
0.0
 10
348.4816494927329
 20
133.5061324280146
 30
0.0
 10
348.4552747429327
 20
133.5602636914735
 30
0.0
 10
348.4169025631501
 20
133.6365717285557
 30
0.0
 10
348.3804363806551
 20
133.7073239081525
 30
0.0
 10
348.3459001310292
 20
133.7724957348438
 30
0.0
 10
348.3132876791749
 20
133.8323539800972
 30
0.0
 10
348.2826003953813
 20
133.8871191396387
 30
0.0
 10
348.2538377790801
 20
133.9370435309496
 30
0.0
 10
348.2269996146085
 20
133.9823857615424
 30
0.0
 10
348.2020860341817
 20
134.02341170048
 30
0.0
 10
348.1790953873951
 20
134.0603890854231
 30
0.0
 10
348.1580318819082
 20
134.0935852014018
 30
0.0
 10
348.1388795115325
 20
134.1232609336638
 30
0.0
 10
348.1072084345902
 20
134.1719312587114
 30
0.0
 10
348.0657384891551
 20
134.2338265766304
 30
0.0
 10
348.0187489730109
 20
134.2991671840551
 30
0.0
 10
347.9801304032958
 20
134.3482855753462
 30
0.0
 10
347.9500819435746
 20
134.3817618638568
 30
0.0
 10
347.9277918326056
 20
134.4018792960931
 30
0.0
 10
347.9198965171725
 20
134.4043201299425
 30
0.0
 10
347.916024368183
 20
134.4055172033721
 30
0.0
  0
SPLINE
  5
EA
330
1F
100
AcDbEntity
  8
0
  6
Continuous
 62
     7
370
    25
100
AcDbSpline
210
0.0
220
0.0
230
1.0
 70
     8
 71
     3
 72
     8
 73
     4
 74
     0
 42
0.000000001
 43
0.00000001
 40
0.0
 40
0.0
 40
0.0
 40
0.0
 40
1.0
 40
1.0
 40
1.0
 40
1.0
 10
345.7667631084262
 20
133.5985155298548
 30
0.0
 10
345.8303560887662
 20
133.532846752008
 30
0.0
 10
345.8943125152015
 20
133.4685044543477
 30
0.0
 10
345.9585114349089
 20
133.4067672033721
 30
0.0
  0
SPLINE
  5
EB
330
1F
100
AcDbEntity
  8
0
  6
Continuous
 62
     7
370
    25
100
AcDbSpline
210
0.0
220
0.0
230
1.0
 70
     8
 71
     3
 72
    25
 73
    21
 74
     0
 42
0.000000001
 43
0.00000001
 40
0.0
 40
0.0
 40
0.0
 40
0.0
 40
0.0367725003273524
 40
0.0742084010635883
 40
0.1123590542855501
 40
0.1512729822625089
 40
0.1909959100229794
 40
0.2315708273567468
 40
0.2730380740480022
 40
0.3154354426133704
 40
0.3587982934479269
 40
0.4031596779846243
 40
0.4485504661867954
 40
0.4949994753770925
 40
0.5532504315742431
 40
0.6218294885841514
 40
0.7007739996682805
 40
0.7901076726768732
 40
0.8898461547601584
 40
1.0
 40
1.0
 40
1.0
 40
1.0
 10
345.3248419211147
 20
134.4055172033717
 30
0.0
 10
345.3250656951795
 20
134.4051925157379
 30
0.0
 10
345.3255172803424
 20
134.4045372828891
 30
0.0
 10
345.3302343202146
 20
134.3991749111008
 30
0.0
 10
345.3378869292972
 20
134.3904193173996
 30
0.0
 10
345.3487799084342
 20
134.377795099307
 30
0.0
 10
345.36282849485
 20
134.3612387611758
 30
0.0
 10
345.3800553924592
 20
134.3405815837973
 30
0.0
 10
345.4004539452407
 20
134.315693847829
 30
0.0
 10
345.4240247585328
 20
134.2864463016354
 30
0.0
 10
345.4507701070926
 20
134.2527233664391
 30
0.0
 10
345.4806779605249
 20
134.2144175513144
 30
0.0
 10
345.5137940528693
 20
134.1714466559778
 30
0.0
 10
345.552719974446
 20
134.1200253743061
 30
0.0
 10
345.6015480541665
 20
134.0558091426136
 30
0.0
 10
345.6634686587715
 20
133.9729146135133
 30
0.0
 10
345.7378532170937
 20
133.8689688632957
 30
0.0
 10
345.8248276450809
 20
133.7408826530389
 30
0.0
 10
345.9242524950593
 20
133.5867928731377
 30
0.0
 10
345.9956716707851
 20
133.4687286372732
 30
0.0
 10
346.0331532544637
 20
133.4067672033721
 30
0.0
  0
LINE
  5
EC
330
1F
100
AcDbEntity
  8
0
  6
Continuous
 62
     7
370
    25
100
AcDbLine
 10
346.0331529467
 20
133.406766991
 30
0.0
 11
345.9585111676
 21
133.406766991
 31
0.0
  0
SPLINE
  5
ED
330
1F
100
AcDbEntity
  8
0
  6
Continuous
 62
     7
370
    25
100
AcDbSpline
210
0.0
220
0.0
230
1.0
 70
     8
 71
     3
 72
    23
 73
    19
 74
     0
 42
0.000000001
 43
0.00000001
 40
0.0
 40
0.0
 40
0.0
 40
0.0
 40
0.0511129009857237
 40
0.1016896331838987
 40
0.1518293139104701
 40
0.2016336701894375
 40
0.2512064936754073
 40
0.3006530343006341
 40
0.3500793489716446
 40
0.3995916247932064
 40
0.4492954981442684
 40
0.4992953912354717
 40
0.5872572780521592
 40
0.6724255494349295
 40
0.7555067762540847
 40
0.83726167352717
 40
0.9184882400167593
 40
1.0
 40
1.0
 40
1.0
 40
1.0
 10
345.7668257845516
 20
133.5987582459499
 30
0.0
 10
345.7508102006511
 20
133.6278868481808
 30
0.0
 10
345.7189470345881
 20
133.6858384967646
 30
0.0
 10
345.6719031961692
 20
133.7685963319829
 30
0.0
 10
345.6259246719943
 20
133.8476851904671
 30
0.0
 10
345.5811440051907
 20
133.9229021784013
 30
0.0
 10
345.5376602407548
 20
133.9943652334469
 30
0.0
 10
345.4955742771701
 20
134.0621066376353
 30
0.0
 10
345.4549798127728
 20
134.1261801493802
 30
0.0
 10
345.4159649064226
 20
134.1866337484515
 30
0.0
 10
345.3786150839351
 20
134.2435112533798
 30
0.0
 10
345.3340868273431
 20
134.3102257264403
 30
0.0
 10
345.2854465668019
 20
134.3815460103047
 30
0.0
 10
345.237607467046
 20
134.4501262627638
 30
0.0
 10
345.1999559549651
 20
134.5031425908059
 30
0.0
 10
345.1731332535777
 20
134.5404152469335
 30
0.0
 10
345.1564044227541
 20
134.5634526465135
 30
0.0
 10
345.1545560127902
 20
134.5659873717787
 30
0.0
 10
345.1536301881699
 20
134.5672569554221
 30
0.0
  0
SPLINE
  5
EE
330
1F
100
AcDbEntity
  8
0
  6
Continuous
 62
     7
370
    25
100
AcDbSpline
210
0.0
220
0.0
230
1.0
 70
     8
 71
     3
 72
     8
 73
     4
 74
     0
 42
0.000000001
 43
0.00000001
 40
0.0
 40
0.0
 40
0.0
 40
0.0
 40
1.0
 40
1.0
 40
1.0
 40
1.0
 10
348.4289753036978
 20
133.4067672033719
 30
0.0
 10
348.450860675341
 20
133.4310882195696
 30
0.0
 10
348.4727460469841
 20
133.455112817892
 30
0.0
 10
348.4946314186273
 20
133.4788196699805
 30
0.0
  0
LINE
  5
EF
330
1F
100
AcDbEntity
  8
0
  6
Continuous
 62
     7
370
    25
100
AcDbLine
 10
348.4288154258
 20
133.406766991
 30
0.0
 11
346.0331529467
 21
133.406766991
 31
0.0
  0
SPLINE
  5
F0
330
1F
100
AcDbEntity
  8
0
  6
Continuous
 62
     7
370
    25
100
AcDbSpline
210
0.0
220
0.0
230
1.0
 70
     8
 71
     3
 72
     8
 73
     4
 74
     0
 42
0.000000001
 43
0.00000001
 40
0.0
 40
0.0
 40
0.0
 40
0.0
 40
1.0
 40
1.0
 40
1.0
 40
1.0
 10
327.5554396687995
 20
133.4789232374607
 30
0.0
 10
327.5773564412871
 20
133.4551827889016
 30
0.0
 10
327.5992732137746
 20
133.4311236371149
 30
0.0
 10
327.6211899862622
 20
133.406767203372
 30
0.0
  0
SPLINE
  5
F1
330
1F
100
AcDbEntity
  8
0
  6
Continuous
 62
     7
370
    25
100
AcDbSpline
210
0.0
220
0.0
230
1.0
 70
     8
 71
     3
 72
    26
 73
    22
 74
     0
 42
0.000000001
 43
0.00000001
 40
0.0
 40
0.0
 40
0.0
 40
0.0
 40
0.0524616379916458
 40
0.1026498591861474
 40
0.1505655134537972
 40
0.1962095861908931
 40
0.2395832262515146
 40
0.2806877815543323
 40
0.3195248450324018
 40
0.3560963147377176
 40
0.3904044736499266
 40
0.4224520974393497
 40
0.4522426027388373
 40
0.4797802555350637
 40
0.5050704712281464
 40
0.5966394156800096
 40
0.6841917884819306
 40
0.7679874773571161
 40
0.8483228539139546
 40
0.9255341635201179
 40
1.0
 40
1.0
 40
1.0
 40
1.0
 10
330.0168345007096
 20
133.4067820953897
 30
0.0
 10
330.0346959849976
 20
133.4365555554299
 30
0.0
 10
330.0696449289725
 20
133.4948122473214
 30
0.0
 10
330.1204097624536
 20
133.5770112276839
 30
0.0
 10
330.1684797200945
 20
133.6530920965831
 30
0.0
 10
330.2138236928586
 20
133.7230434450483
 30
0.0
 10
330.2564496723635
 20
133.7871506069999
 30
0.0
 10
330.2963559708724
 20
133.84565844647
 30
0.0
 10
330.3335432999878
 20
133.8988470240924
 30
0.0
 10
330.3680121225788
 20
133.9470050643302
 30
0.0
 10
330.3997622112115
 20
133.9904297376074
 30
0.0
 10
330.4287966158134
 20
134.0294198287056
 30
0.0
 10
330.4551079050153
 20
134.0642739272335
 30
0.0
 10
330.4787245345605
 20
134.0952789216857
 30
0.0
 10
330.5183702135671
 20
134.1475221403198
 30
0.0
 10
330.5699085103667
 20
134.2150514735775
 30
0.0
 10
330.6267346473478
 20
134.287244919786
 30
0.0
 10
330.6708920753109
 20
134.3417288759086
 30
0.0
 10
330.7020696982528
 20
134.3789936670769
 30
0.0
 10
330.721529264892
 20
134.4014580193516
 30
0.0
 10
330.7236708625724
 20
134.4041805687789
 30
0.0
 10
330.7247222791291
 20
134.4055172033721
 30
0.0
  0
LINE
  5
F2
330
1F
100
AcDbEntity
  8
0
  6
Continuous
 62
     7
370
    25
100
AcDbLine
 10
330.0168344839
 20
133.406766991
 30
0.0
 11
327.6211897
 21
133.406766991
 31
0.0
  0
LINE
  5
F3
330
1F
100
AcDbEntity
  8
0
  6
Continuous
 62
     7
370
    25
100
AcDbLine
 10
330.0916541456
 20
133.406766991
 30
0.0
 11
330.0165345981
 21
133.406766991
 31
0.0
  0
SPLINE
  5
F4
330
1F
100
AcDbEntity
  8
0
  6
Continuous
 62
     7
370
    25
100
AcDbSpline
210
0.0
220
0.0
230
1.0
 70
     8
 71
     3
 72
     8
 73
     4
 74
     0
 42
0.000000001
 43
0.00000001
 40
0.0
 40
0.0
 40
0.0
 40
0.0
 40
1.0
 40
1.0
 40
1.0
 40
1.0
 10
330.0916538783426
 20
133.406767203372
 30
0.0
 10
330.1555626810026
 20
133.4687360668031
 30
0.0
 10
330.2193376003545
 20
133.5327121319198
 30
0.0
 10
330.2826976662355
 20
133.5982467882655
 30
0.0
  0
SPLINE
  5
F5
330
1F
100
AcDbEntity
  8
0
  6
Continuous
 62
     7
370
    25
100
AcDbSpline
210
0.0
220
0.0
230
1.0
 70
     8
 71
     3
 72
    24
 73
    20
 74
     0
 42
0.000000001
 43
0.00000001
 40
0.0
 40
0.0
 40
0.0
 40
0.0
 40
0.0410257106277056
 40
0.0818520099058079
 40
0.1225800578328279
 40
0.1633117464027038
 40
0.2041489402772657
 40
0.2451927184714171
 40
0.2865426449201731
 40
0.3282960933615133
 40
0.3705476475467034
 40
0.4133885920081624
 40
0.4569065022338602
 40
0.5011849368583825
 40
0.6001856774930499
 40
0.6987388860423923
 40
0.7976800645430001
 40
0.8978349910013272
 40
1.0
 40
1.0
 40
1.0
 40
1.0
 10
330.8962804721103
 20
134.5669072847035
 30
0.0
 10
330.8960857086693
 20
134.5666399345459
 30
0.0
 10
330.8956971284628
 20
134.5661065337246
 30
0.0
 10
330.8916423407885
 20
134.5605347877255
 30
0.0
 10
330.8850483818086
 20
134.5514540385717
 30
0.0
 10
330.8756841208987
 20
134.5385165782109
 30
0.0
 10
330.8636360071286
 20
134.5217981353051
 30
0.0
 10
330.8489134376682
 20
134.5012561245333
 30
0.0
 10
330.8315544448209
 20
134.4768747504865
 30
0.0
 10
330.8115972736675
 20
134.4486260064147
 30
0.0
 10
330.789088223972
 20
134.4164804590135
 30
0.0
 10
330.7640789882106
 20
134.3804036190474
 30
0.0
 10
330.7366296186858
 20
134.340360026528
 30
0.0
 10
330.6947065056194
 20
134.2784395831881
 30
0.0
 10
330.6355003304095
 20
134.1891270920934
 30
0.0
 10
330.55572073729
 20
134.0645825000663
 30
0.0
 10
330.4697399523034
 20
133.9247977075764
 30
0.0
 10
330.3784551650804
 20
133.7703848885886
 30
0.0
 10
330.3152508110214
 20
133.656338866936
 30
0.0
 10
330.2833346610552
 20
133.5987493229196
 30
0.0
  0
LINE
  5
F6
330
1F
100
AcDbEntity
  8
0
  6
Continuous
 62
     7
370
    25
100
AcDbLine
 10
327.2124415352
 20
124.8854620595
 30
0.0
 11
327.636679457
 21
125.3342552324
 31
0.0
  0
SPLINE
  5
F7
330
1F
100
AcDbEntity
  8
0
  6
Continuous
 62
     7
370
    25
100
AcDbSpline
210
0.0
220
0.0
230
1.0
 70
     8
 71
     3
 72
    13
 73
     9
 74
     0
 42
0.000000001
 43
0.00000001
 40
0.0
 40
0.0
 40
0.0
 40
0.0
 40
0.1706320847381217
 40
0.3395984166493647
 40
0.5069574113007884
 40
0.672769183166934
 40
0.8370955448651839
 40
1.0
 40
1.0
 40
1.0
 40
1.0
 10
327.6366791695035
 20
125.3342344618428
 30
0.0
 10
327.6416846399132
 20
125.3272830887579
 30
0.0
 10
327.6516467160861
 20
125.3134482036203
 30
0.0
 10
327.66452054398
 20
125.2973204451608
 30
0.0
 10
327.6757868564766
 20
125.2846517150037
 30
0.0
 10
327.6852642199115
 20
125.275795277169
 30
0.0
 10
327.6931464526048
 20
125.2702832486936
 30
0.0
 10
327.6969613588368
 20
125.2696049026134
 30
0.0
 10
327.6988605235522
 20
125.269267203372
 30
0.0
  0
SPLINE
  5
F8
330
1F
100
AcDbEntity
  8
0
  6
Continuous
 62
     7
370
    25
100
AcDbSpline
210
0.0
220
0.0
230
1.0
 70
     8
 71
     3
 72
    13
 73
     9
 74
     0
 42
0.000000001
 43
0.00000001
 40
0.0
 40
0.0
 40
0.0
 40
0.0
 40
0.1621004456877203
 40
0.32594345520649
 40
0.4915935308810087
 40
0.6591130874452793
 40
0.8285624736348074
 40
1.0
 40
1.0
 40
1.0
 40
1.0
 10
348.3513047896994
 20
125.269267203372
 30
0.0
 10
348.3531818960419
 20
125.2696016864728
 30
0.0
 10
348.3569562874353
 20
125.2702742483347
 30
0.0
 10
348.3648033646147
 20
125.2757475327319
 30
0.0
 10
348.3742694243899
 20
125.2845669973937
 30
0.0
 10
348.385550339192
 20
125.2972197543883
 30
0.0
 10
348.3984649576891
 20
125.3133717557839
 30
0.0
 10
348.4084606719346
 20
125.327257555725
 30
0.0
 10
348.4134876778459
 20
125.3342409484744
 30
0.0
  0
LINE
  5
F9
330
1F
100
AcDbEntity
  8
0
  6
Continuous
 62
     7
370
    25
100
AcDbLine
 10
348.4135007574
 20
125.3342412625
 30
0.0
 11
348.8377228468
 21
124.8854620595
 31
0.0
  0
LINE
  5
FA
330
1F
100
AcDbEntity
  8
0
  6
Continuous
 62
     7
370
    25
100
AcDbLine
 10
345.9585111676
 20
125.3442674157
 30
0.0
 11
345.9672330036
 21
125.3442674157
 31
0.0
  0
SPLINE
  5
FB
330
1F
100
AcDbEntity
  8
0
  6
Continuous
 62
     7
370
    25
100
AcDbSpline
210
0.0
220
0.0
230
1.0
 70
     8
 71
     3
 72
     8
 73
     4
 74
     0
 42
0.000000001
 43
0.00000001
 40
0.0
 40
0.0
 40
0.0
 40
0.0
 40
1.0
 40
1.0
 40
1.0
 40
1.0
 10
348.4135007188388
 20
125.3342415615416
 30
0.0
 10
348.4113172345977
 20
125.337090227058
 30
0.0
 10
348.4091337503566
 20
125.3400310184555
 30
0.0
 10
348.4069502661155
 20
125.343063515732
 30
0.0
  0
LINE
  5
FC
330
1F
100
AcDbEntity
  8
0
  6
Continuous
 62
     7
370
    25
100
AcDbLine
 10
348.4060473828
 20
125.3442674157
 30
0.0
 11
345.9672367289
 21
125.3442674157
 31
0.0
  0
SPLINE
  5
FD
330
1F
100
AcDbEntity
  8
0
  6
Continuous
 62
     7
370
    25
100
AcDbSpline
210
0.0
220
0.0
230
1.0
 70
     8
 71
     3
 72
     8
 73
     4
 74
     0
 42
0.000000001
 43
0.00000001
 40
0.0
 40
0.0
 40
0.0
 40
0.0
 40
1.0
 40
1.0
 40
1.0
 40
1.0
 10
327.6441178135456
 20
125.3442672033797
 30
0.0
 10
327.6416318948591
 20
125.3408055040676
 30
0.0
 10
327.6391459761725
 20
125.3374613521588
 30
0.0
 10
327.636660057486
 20
125.3342353602183
 30
0.0
  0
LINE
  5
FE
330
1F
100
AcDbEntity
  8
0
  6
Continuous
 62
     7
370
    25
100
AcDbLine
 10
330.0814217045
 20
125.3442674157
 30
0.0
 11
327.6443339973
 21
125.3442674157
 31
0.0
  0
LINE
  5
FF
330
1F
100
AcDbEntity
  8
0
  6
Continuous
 62
     7
370
    25
100
AcDbLine
 10
330.0829313784
 20
125.3442674157
 30
0.0
 11
330.0916541456
 21
125.3442674157
 31
0.0
  0
SPLINE
  5
100
330
1F
100
AcDbEntity
  8
0
  6
Continuous
 62
     7
370
    25
100
AcDbSpline
210
0.0
220
0.0
230
1.0
 70
     8
 71
     3
 72
    14
 73
    10
 74
     0
 42
0.000000001
 43
0.00000001
 40
0.0
 40
0.0
 40
0.0
 40
0.0
 40
0.0310276388093398
 40
0.0622853718693698
 40
0.1248003166924349
 40
0.2498289731770658
 40
0.4998892603621822
 40
0.7606803621577949
 40
1.0
 40
1.0
 40
1.0
 40
1.0
 10
327.0649886621667
 20
124.8875290287564
 30
0.0
 10
327.0693179556321
 20
124.892312951035
 30
0.0
 10
327.078008647666
 20
124.9019162721239
 30
0.0
 10
327.0954094263285
 20
124.921210586122
 30
0.0
 10
327.1258855861735
 20
124.9549755325757
 30
0.0
 10
327.186706978993
 20
125.0223942914375
 30
0.0
 10
327.2745973214048
 20
125.1198609663028
 30
0.0
 10
327.3774350014885
 20
125.2340054782005
 30
0.0
 10
327.4446411129302
 20
125.3087902912069
 30
0.0
 10
327.4768014745786
 20
125.3445773138526
 30
0.0
  0
LINE
  5
101
330
1F
100
AcDbEntity
  8
0
  6
Continuous
 62
     7
370
    25
100
AcDbLine
 10
327.4764733477
 20
125.3442674157
 30
0.0
 11
327.6441179304
 21
125.3442674157
 31
0.0
  0
LINE
  5
102
330
1F
100
AcDbEntity
  8
0
  6
Continuous
 62
     7
370
    25
100
AcDbLine
 10
348.4060473828
 20
125.3442674157
 30
0.0
 11
348.5736994161
 21
125.3442674157
 31
0.0
  0
SPLINE
  5
103
330
1F
100
AcDbEntity
  8
0
  6
Continuous
 62
     7
370
    25
100
AcDbSpline
210
0.0
220
0.0
230
1.0
 70
     8
 71
     3
 72
    11
 73
     7
 74
     0
 42
0.000000001
 43
0.00000001
 40
0.0
 40
0.0
 40
0.0
 40
0.0
 40
0.2392913840897591
 40
0.5001130134987114
 40
0.7515028526612877
 40
1.0
 40
1.0
 40
1.0
 40
1.0
 10
348.5733959092962
 20
125.3445540058836
 30
0.0
 10
348.6055524622302
 20
125.3087772873533
 30
0.0
 10
348.6727588543563
 20
125.2340048395889
 30
0.0
 10
348.7757869441029
 20
125.1195461262743
 30
0.0
 10
348.880877608766
 20
125.0033869401356
 30
0.0
 10
348.9505524288468
 20
124.9259989988201
 30
0.0
 10
348.9851882455393
 20
124.8875289382372
 30
0.0
  0
LINE
  5
104
330
1F
100
AcDbEntity
  8
0
  6
Continuous
 62
     7
370
    25
100
AcDbLine
 10
327.6211897
 20
133.406766991
 30
0.0
 11
327.4766177027
 21
133.406766991
 31
0.0
  0
SPLINE
  5
105
330
1F
100
AcDbEntity
  8
0
  6
Continuous
 62
     7
370
    25
100
AcDbSpline
210
0.0
220
0.0
230
1.0
 70
     8
 71
     3
 72
    11
 73
     7
 74
     0
 42
0.000000001
 43
0.00000001
 40
0.0
 40
0.0
 40
0.0
 40
0.0
 40
0.2392845096574327
 40
0.5001120454060707
 40
0.7515010914954734
 40
1.0
 40
1.0
 40
1.0
 40
1.0
 10
327.4769203124161
 20
133.4064814171754
 30
0.0
 10
327.4447591826183
 20
133.442279266266
 30
0.0
 10
327.3775414240229
 20
133.5170978809579
 30
0.0
 10
327.2744967755245
 20
133.6316261452178
 30
0.0
 10
327.1693885466658
 20
133.7478571388808
 30
0.0
 10
327.0997030300388
 20
133.8252916345604
 30
0.0
 10
327.0650617175982
 20
133.863785035892
 30
0.0
  0
SPLINE
  5
106
330
1F
100
AcDbEntity
  8
0
  6
Continuous
 62
     7
370
    25
100
AcDbSpline
210
0.0
220
0.0
230
1.0
 70
     8
 71
     3
 72
    14
 73
    10
 74
     0
 42
0.000000001
 43
0.00000001
 40
0.0
 40
0.0
 40
0.0
 40
0.0
 40
0.0310294147488059
 40
0.0622870907567357
 40
0.1248019217230938
 40
0.2498303511435398
 40
0.4998901825558308
 40
0.7606872171869626
 40
1.0
 40
1.0
 40
1.0
 40
1.0
 10
348.9850919803283
 20
133.8637849276155
 30
0.0
 10
348.9807617840127
 20
133.8589977410454
 30
0.0
 10
348.9720695372175
 20
133.8493881519902
 30
0.0
 10
348.9546659088701
 20
133.8300821582842
 30
0.0
 10
348.9241851733351
 20
133.7962969426324
 30
0.0
 10
348.8633545516132
 20
133.7288378116854
 30
0.0
 10
348.7754496484285
 20
133.6313113059535
 30
0.0
 10
348.6725954038133
 20
133.5170972991874
 30
0.0
 10
348.6053779456668
 20
133.4422663390788
 30
0.0
 10
348.5732130162821
 20
133.4064581931886
 30
0.0
  0
LINE
  5
107
330
1F
100
AcDbEntity
  8
0
  6
Continuous
 62
     7
370
    25
100
AcDbLine
 10
348.5735401599
 20
133.406766991
 30
0.0
 11
348.4289756133
 21
133.406766991
 31
0.0
  0
LINE
  5
108
330
1F
100
AcDbEntity
  8
0
  6
Continuous
 62
     7
370
    25
100
AcDbLine
 10
326.1544143869
 20
127.188179477
 30
0.0
 11
326.594477342
 21
127.2692671725
 31
0.0
  0
SPLINE
  5
109
330
1F
100
AcDbEntity
  8
0
  6
Continuous
 62
     7
370
    25
100
AcDbSpline
210
0.0
220
0.0
230
1.0
 70
     8
 71
     3
 72
    25
 73
    21
 74
     0
 42
0.000000001
 43
0.00000001
 40
0.0
 40
0.0
 40
0.0
 40
0.0
 40
0.0274788704220519
 40
0.0560416006846
 40
0.0856947086346483
 40
0.1164440166532229
 40
0.1482947438675477
 40
0.1812515840465501
 40
0.2153187716746058
 40
0.2505001382254875
 40
0.3330514552513183
 40
0.5015081958163713
 40
0.5771663066143402
 40
0.6488981303024295
 40
0.7167477700061697
 40
0.7807674423486859
 40
0.8410194131339161
 40
0.897578484992366
 40
0.9505352047787778
 40
1.0
 40
1.0
 40
1.0
 40
1.0
 10
326.5944774492145
 20
127.269267203372
 30
0.0
 10
326.6011856165579
 20
127.2400849988548
 30
0.0
 10
326.6148665441146
 20
127.1805695447066
 30
0.0
 10
326.6376312727684
 20
127.0901790476485
 30
0.0
 10
326.6625089100086
 20
126.9970474385277
 30
0.0
 10
326.6896481480262
 20
126.9014613942529
 30
0.0
 10
326.7190095550574
 20
126.8037079246395
 30
0.0
 10
326.7505947253456
 20
126.7041272485817
 30
0.0
 10
326.7844415952105
 20
126.6031181090025
 30
0.0
 10
326.8361428251435
 20
126.4563513017506
 30
0.0
 10
326.9405018381572
 20
126.192084888836
 30
0.0
 10
327.0613750658411
 20
125.9221152590077
 30
0.0
 10
327.174868112298
 20
125.7047055842917
 30
0.0
 10
327.2461410799139
 20
125.5750020135613
 30
0.0
 10
327.3082156520398
 20
125.4711269362364
 30
0.0
 10
327.360799664207
 20
125.3912663024179
 30
0.0
 10
327.4040462101345
 20
125.3332476762673
 30
0.0
 10
327.4376530223547
 20
125.2951441176148
 30
0.0
 10
327.4626000052273
 20
125.2731415866201
 30
0.0
 10
327.4715595420893
 20
125.2705289732688
 30
0.0
 10
327.4758865788074
 20
125.269267203372
 30
0.0
  0
LINE
  5
10A
330
1F
100
AcDbEntity
  8
0
  6
Continuous
 62
     7
370
    25
100
AcDbLine
 10
349.8957509263
 20
131.5628549297
 30
0.0
 11
349.4556879713
 21
131.4817672343
 31
0.0
  0
SPLINE
  5
10B
330
1F
100
AcDbEntity
  8
0
  6
Continuous
 62
     7
370
    25
100
AcDbSpline
210
0.0
220
0.0
230
1.0
 70
     8
 71
     3
 72
    25
 73
    21
 74
     0
 42
0.000000001
 43
0.00000001
 40
0.0
 40
0.0
 40
0.0
 40
0.0
 40
0.0274788704238406
 40
0.0560416006876649
 40
0.0856947086384779
 40
0.1164440166573039
 40
0.1482947438713698
 40
0.1812515840496028
 40
0.2153187716763797
 40
0.2505001382254737
 40
0.3330514552645295
 40
0.5015081958164058
 40
0.5771663066140428
 40
0.648898130301891
 40
0.716747770005482
 40
0.7807674423479443
 40
0.8410194131332148
 40
0.8975784849918017
 40
0.9505352047784471
 40
0.9999999999999999
 40
0.9999999999999999
 40
0.9999999999999999
 40
0.9999999999999999
 10
349.455687864037
 20
131.481767203372
 30
0.0
 10
349.4489796966932
 20
131.5109494078912
 30
0.0
 10
349.4352987691359
 20
131.5704648620427
 30
0.0
 10
349.4125340404811
 20
131.6608553591048
 30
0.0
 10
349.3876564032404
 20
131.753986968228
 30
0.0
 10
349.3605171652227
 20
131.8495730125035
 30
0.0
 10
349.3311557581916
 20
131.947326482116
 30
0.0
 10
349.299570587904
 20
132.0469071581713
 30
0.0
 10
349.26572371804
 20
132.1479162977464
 30
0.0
 10
349.2140224881024
 20
132.2946831050078
 30
0.0
 10
349.1096634750904
 20
132.55894951792
 30
0.0
 10
348.988790247406
 20
132.8289191477452
 30
0.0
 10
348.8752972009536
 20
133.0463288224517
 30
0.0
 10
348.8040242333378
 20
133.1760323931819
 30
0.0
 10
348.7419496612119
 20
133.2799074705067
 30
0.0
 10
348.6893656490447
 20
133.3597681043254
 30
0.0
 10
348.6461191031171
 20
133.4177867304763
 30
0.0
 10
348.612512290897
 20
133.455890289129
 30
0.0
 10
348.5875653080243
 20
133.477892820124
 30
0.0
 10
348.5786057711623
 20
133.4805054334753
 30
0.0
 10
348.5742787344442
 20
133.481767203372
 30
0.0
  0
SPLINE
  5
10C
330
1F
100
AcDbEntity
  8
0
  6
Continuous
 62
     7
370
    25
100
AcDbSpline
210
0.0
220
0.0
230
1.0
 70
     8
 71
     3
 72
    25
 73
    21
 74
     0
 42
0.000000001
 43
0.00000001
 40
0.0
 40
0.0
 40
0.0
 40
0.0
 40
0.0288821753105771
 40
0.058363659400572
 40
0.088464720430548
 40
0.1192044006616737
 40
0.1506005800085666
 40
0.1826700399669859
 40
0.2154285269576224
 40
0.2488908143379852
 40
0.3610594471136693
 40
0.4984670131067402
 40
0.5822693905005265
 40
0.6661127642780991
 40
0.7499972937224167
 40
0.8007709755018199
 40
0.8511237700786715
 40
0.9010896024485537
 40
0.9507031914094952
 40
1.0
 40
1.0
 40
1.0
 40
1.0
 10
327.4758865788074
 20
133.481767203372
 30
0.0
 10
327.4735963104297
 20
133.4813389613961
 30
0.0
 10
327.4689682503167
 20
133.4804735913694
 30
0.0
 10
327.4586579872295
 20
133.4733986586679
 30
0.0
 10
327.4458219179987
 20
133.4618301175077
 30
0.0
 10
327.430208359256
 20
133.4451245413954
 30
0.0
 10
327.4118869158434
 20
133.4231876303793
 30
0.0
 10
327.3908393300122
 20
133.3957899948946
 30
0.0
 10
327.36706775802
 20
133.3627555142123
 30
0.0
 10
327.3200112285868
 20
133.2937648480882
 30
0.0
 10
327.2323168107281
 20
133.153738878669
 30
0.0
 10
327.1147651561964
 20
132.9344435774663
 30
0.0
 10
327.003242991854
 20
132.6975135166864
 30
0.0
 10
326.9117836745059
 20
132.4816716427765
 30
0.0
 10
326.8309020233277
 20
132.2801100218979
 30
0.0
 10
326.7647571214596
 20
132.1012419415107
 30
0.0
 10
326.7154065606337
 20
131.9498657403718
 30
0.0
 10
326.6704395437689
 20
131.795621585249
 30
0.0
 10
326.6296818298487
 20
131.6394657301686
 30
0.0
 10
326.6061871606304
 20
131.5342210232157
 30
0.0
 10
326.5944774492145
 20
131.481767203372
 30
0.0
  0
LINE
  5
10D
330
1F
100
AcDbEntity
  8
0
  6
Continuous
 62
     7
370
    25
100
AcDbLine
 10
326.1544143869
 20
131.5628549297
 30
0.0
 11
326.594477342
 21
131.4817672343
 31
0.0
  0
SPLINE
  5
10E
330
1F
100
AcDbEntity
  8
0
  6
Continuous
 62
     7
370
    25
100
AcDbSpline
210
0.0
220
0.0
230
1.0
 70
     8
 71
     3
 72
    25
 73
    21
 74
     0
 42
0.000000001
 43
0.00000001
 40
0.0
 40
0.0
 40
0.0
 40
0.0
 40
0.0288821753094393
 40
0.0583636593986225
 40
0.0884647204281144
 40
0.1192044006590791
 40
0.1506005800061348
 40
0.1826700399650394
 40
0.2154285269564808
 40
0.2488908143379647
 40
0.361059447113401
 40
0.4984670131067465
 40
0.5822693905006262
 40
0.6661127642782027
 40
0.7499972937224338
 40
0.8007709755032364
 40
0.8511237700807901
 40
0.9010896024506709
 40
0.9507031914109064
 40
1.0
 40
1.0
 40
1.0
 40
1.0
 10
348.5742787344442
 20
125.269267203372
 30
0.0
 10
348.5765690028218
 20
125.2696954453479
 30
0.0
 10
348.5811970629346
 20
125.2705608153746
 30
0.0
 10
348.5915073260218
 20
125.2776357480756
 30
0.0
 10
348.6043433952525
 20
125.2892042892353
 30
0.0
 10
348.6199569539951
 20
125.3059098653471
 30
0.0
 10
348.6382783974078
 20
125.3278467763629
 30
0.0
 10
348.6593259832391
 20
125.3552444118477
 30
0.0
 10
348.6830975552315
 20
125.3882788925306
 30
0.0
 10
348.7301540846639
 20
125.4572695586553
 30
0.0
 10
348.8178485025218
 20
125.5972955280752
 30
0.0
 10
348.9354001570549
 20
125.8165908292777
 30
0.0
 10
349.0469223213986
 20
126.0535208900576
 30
0.0
 10
349.1383816387467
 20
126.2693627639674
 30
0.0
 10
349.2192632899246
 20
126.4709243848475
 30
0.0
 10
349.2854081917927
 20
126.649792465237
 30
0.0
 10
349.3347587526192
 20
126.8011686663782
 30
0.0
 10
349.379725769484
 20
126.955412821501
 30
0.0
 10
349.4204834834038
 20
127.1115686765792
 30
0.0
 10
349.4439781526216
 20
127.2168133835299
 30
0.0
 10
349.455687864037
 20
127.269267203372
 30
0.0
  0
LINE
  5
10F
330
1F
100
AcDbEntity
  8
0
  6
Continuous
 62
     7
370
    25
100
AcDbLine
 10
349.8957509263
 20
127.188179477
 30
0.0
 11
349.4556879713
 21
127.2692671725
 31
0.0
  0
SPLINE
  5
110
330
1F
100
AcDbEntity
  8
0
  6
Continuous
 62
     7
370
    25
100
AcDbSpline
210
0.0
220
0.0
230
1.0
 70
     8
 71
     3
 72
    12
 73
     8
 74
     0
 42
0.000000001
 43
0.00000001
 40
0.0
 40
0.0
 40
0.0
 40
0.0
 40
0.2971540265968837
 40
0.5953109213084592
 40
0.7630993176302537
 40
0.9170814912125203
 40
1.0
 40
1.0
 40
1.0
 40
1.0
 10
329.1272249161044
 20
131.4817672342919
 30
0.0
 10
329.2095537461162
 20
131.7431032458438
 30
0.0
 10
329.3744892585368
 20
132.2666572544827
 30
0.0
 10
329.6407794124697
 20
132.8229709541853
 30
0.0
 10
329.8335897406019
 20
133.1611627864132
 30
0.0
 10
329.9350485605093
 20
133.3360398205503
 30
0.0
 10
329.9681625802944
 20
133.3884297815411
 30
0.0
 10
329.9797529442945
 20
133.4067669910305
 30
0.0
  0
SPLINE
  5
111
330
1F
100
AcDbEntity
  8
0
  6
Continuous
 62
     7
370
    25
100
AcDbSpline
210
0.0
220
0.0
230
1.0
 70
     8
 71
     3
 72
    12
 73
     8
 74
     0
 42
0.000000001
 43
0.00000001
 40
0.0
 40
0.0
 40
0.0
 40
0.0
 40
0.2971540265968837
 40
0.5953109213084592
 40
0.7630993176302537
 40
0.9170814912125203
 40
1.0
 40
1.0
 40
1.0
 40
1.0
 10
346.9229403971472
 20
127.2692671724521
 30
0.0
 10
346.8406115671354
 20
127.0079311609003
 30
0.0
 10
346.6756760547149
 20
126.4843771522614
 30
0.0
 10
346.4093859007818
 20
125.9280634525588
 30
0.0
 10
346.2165755726497
 20
125.5898716203309
 30
0.0
 10
346.1151167527423
 20
125.4149945861937
 30
0.0
 10
346.0820027329572
 20
125.362604625203
 30
0.0
 10
346.0704123689571
 20
125.3442674157136
 30
0.0
  0
SPLINE
  5
112
330
1F
100
AcDbEntity
  8
0
  6
Continuous
 62
     7
370
    25
100
AcDbSpline
210
0.0
220
0.0
230
1.0
 70
     8
 71
     3
 72
    11
 73
     7
 74
     0
 42
0.000000001
 43
0.00000001
 40
0.0
 40
0.0
 40
0.0
 40
0.0
 40
0.1078686449390932
 40
0.4034673949314601
 40
0.7028907467952099
 40
1.0
 40
1.0
 40
1.0
 40
1.0
 10
329.9786837859788
 20
125.3442674157136
 30
0.0
 10
329.9622379017313
 20
125.3702319833168
 30
0.0
 10
329.9007244000235
 20
125.4673487725128
 30
0.0
 10
329.6852157975611
 20
125.8430256802059
 30
0.0
 10
329.3734477381752
 20
126.4822886998263
 30
0.0
 10
329.2090866575953
 20
127.0076203123309
 30
0.0
 10
329.1272249161044
 20
127.2692671724521
 30
0.0
  0
LINE
  5
113
330
1F
100
AcDbEntity
  8
0
  6
Continuous
 62
     7
370
    25
100
AcDbLine
 10
329.4434852986
 20
131.4069038005
 30
0.0
 11
329.1272249161
 21
131.4817672343
 31
0.0
  0
SPLINE
  5
114
330
1F
100
AcDbEntity
  8
0
  6
Continuous
 62
     7
370
    25
100
AcDbSpline
210
0.0
220
0.0
230
1.0
 70
     8
 71
     3
 72
    25
 73
    21
 74
     0
 42
0.000000001
 43
0.00000001
 40
0.0
 40
0.0
 40
0.0
 40
0.0
 40
0.0278144320063459
 40
0.0555680196245752
 40
0.0833316253677715
 40
0.1111760352167582
 40
0.1391714221532259
 40
0.1673868326284758
 40
0.1958897140434715
 40
0.2247454979318968
 40
0.2540172492221455
 40
0.3796724410010767
 40
0.5056484635002251
 40
0.6297527290687337
 40
0.7535891720571736
 40
0.8038564806093723
 40
0.8533396843434523
 40
0.9023264398358549
 40
0.9511131859219458
 40
1.0
 40
1.0
 40
1.0
 40
1.0
 10
330.3111065673373
 20
133.6492654945546
 30
0.0
 10
330.3109588160225
 20
133.648998952001
 30
0.0
 10
330.3106636366009
 20
133.6484664499588
 30
0.0
 10
330.307038937585
 20
133.6419190012627
 30
0.0
 10
330.3010930419147
 20
133.6311497579764
 30
0.0
 10
330.2926183189996
 20
133.6157390220521
 30
0.0
 10
330.2817033321605
 20
133.5957826457984
 30
0.0
 10
330.2683672639221
 20
133.5712325493279
 30
0.0
 10
330.2526594992352
 20
133.542075925572
 30
0.0
 10
330.2346279110773
 20
133.5082799541386
 30
0.0
 10
330.192210366329
 20
133.427873196081
 30
0.0
 10
330.1116893265753
 20
133.2708847464099
 30
0.0
 10
329.9782629797014
 20
132.9890990086637
 30
0.0
 10
329.8341860030181
 20
132.6512268990367
 30
0.0
 10
329.7185082515666
 20
132.3425459852981
 30
0.0
 10
329.6359967763491
 20
132.0965152655425
 30
0.0
 10
329.583075151824
 20
131.9276893742692
 30
0.0
 10
329.5332180174466
 20
131.7563738032575
 30
0.0
 10
329.486200024216
 20
131.5826914530367
 30
0.0
 10
329.4577330134875
 20
131.4655397647333
 30
0.0
 10
329.4434849256887
 20
131.4069039087719
 30
0.0
  0
LINE
  5
115
330
1F
100
AcDbEntity
  8
0
  6
Continuous
 62
     7
370
    25
100
AcDbLine
 10
329.4434852986
 20
127.3441306063
 30
0.0
 11
329.1272249161
 21
127.2692671725
 31
0.0
  0
SPLINE
  5
116
330
1F
100
AcDbEntity
  8
0
  6
Continuous
 62
     7
370
    25
100
AcDbSpline
210
0.0
220
0.0
230
1.0
 70
     8
 71
     3
 72
    25
 73
    21
 74
     0
 42
0.000000001
 43
0.00000001
 40
0.0
 40
0.0
 40
0.0
 40
0.0
 40
0.0269872354798654
 40
0.0539362690261339
 40
0.0809037148831245
 40
0.107946071654785
 40
0.1351193706858311
 40
0.1624788388357973
 40
0.1900785854184274
 40
0.2179713214291598
 40
0.2462081170984737
 40
0.3700050494706795
 40
0.4947542611659102
 40
0.6210439034699656
 40
0.7446557472315446
 40
0.7967060293742283
 40
0.8478613449334612
 40
0.8985210411995624
 40
0.9490962115261248
 40
1.0
 40
1.0
 40
1.0
 40
1.0
 10
329.4434849256887
 20
127.3441304979722
 30
0.0
 10
329.4512656704129
 20
127.3117340929444
 30
0.0
 10
329.4668161457839
 20
127.2469871418028
 30
0.0
 10
329.4915015517572
 20
127.1503406053739
 30
0.0
 10
329.5171215087562
 20
127.0542465168824
 30
0.0
 10
329.5437643723837
 20
126.9587342461656
 30
0.0
 10
329.5713895576682
 20
126.8638095187729
 30
0.0
 10
329.5999913367274
 20
126.7694833626374
 30
0.0
 10
329.6295534263689
 20
126.6757670181883
 30
0.0
 10
329.660066573416
 20
126.5826629342982
 30
0.0
 10
329.7268007780052
 20
126.3863976921854
 30
0.0
 10
329.8339839541009
 20
126.1003245765823
 30
0.0
 10
329.9777640444099
 20
125.7630346805884
 30
0.0
 10
330.1110125006219
 20
125.4815255037645
 30
0.0
 10
330.1986836768351
 20
125.3105345735864
 30
0.0
 10
330.249558712627
 20
125.2146217552046
 30
0.0
 10
330.2772278672784
 20
125.1634045517499
 30
0.0
 10
330.296926785396
 20
125.1274217576648
 30
0.0
 10
330.3091742940995
 20
125.1052518693428
 30
0.0
 10
330.3104610872555
 20
125.1029324016092
 30
0.0
 10
330.3111065673373
 20
125.1017689121895
 30
0.0
  0
SPLINE
  5
117
330
1F
100
AcDbEntity
  8
0
  6
Continuous
 62
     7
370
    25
100
AcDbSpline
210
0.0
220
0.0
230
1.0
 70
     8
 71
     3
 72
    11
 73
     7
 74
     0
 42
0.000000001
 43
0.00000001
 40
0.0
 40
0.0
 40
0.0
 40
0.0
 40
0.1078686449390932
 40
0.4034673949314601
 40
0.7028907467952099
 40
1.0
 40
1.0
 40
1.0
 40
1.0
 10
346.0714815272727
 20
133.4067669910305
 30
0.0
 10
346.0879274115203
 20
133.3808024234273
 30
0.0
 10
346.1494409132281
 20
133.2836856342313
 30
0.0
 10
346.3649495156905
 20
132.9080087265381
 30
0.0
 10
346.6767175750763
 20
132.2687457069178
 30
0.0
 10
346.8410786556563
 20
131.7434140944132
 30
0.0
 10
346.9229403971472
 20
131.4817672342919
 30
0.0
  0
LINE
  5
118
330
1F
100
AcDbEntity
  8
0
  6
Continuous
 62
     7
370
    25
100
AcDbLine
 10
346.6066800146
 20
131.4069038005
 30
0.0
 11
346.9229403971
 21
131.4817672343
 31
0.0
  0
SPLINE
  5
119
330
1F
100
AcDbEntity
  8
0
  6
Continuous
 62
     7
370
    25
100
AcDbSpline
210
0.0
220
0.0
230
1.0
 70
     8
 71
     3
 72
    12
 73
     8
 74
     0
 42
0.000000001
 43
0.00000001
 40
0.0
 40
0.0
 40
0.0
 40
0.0
 40
0.1404141540052139
 40
0.2845308631549995
 40
0.5710083094680874
 40
0.8589424285223366
 40
0.9999999999999999
 40
0.9999999999999999
 40
0.9999999999999999
 40
0.9999999999999999
 10
346.6066800146141
 20
131.406903800454
 30
0.0
 10
346.5699091412833
 20
131.5524498592794
 30
0.0
 10
346.4953977901882
 20
131.8473798543343
 30
0.0
 10
346.3150543062314
 20
132.4056304242196
 30
0.0
 10
346.0688329254237
 20
133.0134867592509
 30
0.0
 10
345.8506578850626
 20
133.4442738988433
 30
0.0
 10
345.7877220409568
 20
133.5601493957354
 30
0.0
 10
345.7670279866794
 20
133.5982506376617
 30
0.0
  0
LINE
  5
11A
330
1F
100
AcDbEntity
  8
0
  6
Continuous
 62
     7
370
    25
100
AcDbLine
 10
346.6066800146
 20
127.3441306063
 30
0.0
 11
346.9229403971
 21
127.2692671725
 31
0.0
  0
SPLINE
  5
11B
330
1F
100
AcDbEntity
  8
0
  6
Continuous
 62
     7
370
    25
100
AcDbSpline
210
0.0
220
0.0
230
1.0
 70
     8
 71
     3
 72
    25
 73
    21
 74
     0
 42
0.000000001
 43
0.00000001
 40
0.0
 40
0.0
 40
0.0
 40
0.0
 40
0.0278144320057639
 40
0.0555680196235574
 40
0.0833316253664654
 40
0.1111760352153096
 40
0.1391714221517776
 40
0.1673868326271671
 40
0.1958897140424394
 40
0.2247454979312721
 40
0.2540172492220529
 40
0.3796724409982623
 40
0.5056484635001489
 40
0.62975272906517
 40
0.7535891720570678
 40
0.803856480607963
 40
0.8533396843413759
 40
0.902326439833779
 40
0.9511131859205574
 40
0.9999999999999999
 40
0.9999999999999999
 40
0.9999999999999999
 40
0.9999999999999999
 10
345.7390587459143
 20
125.1017689121895
 30
0.0
 10
345.739206497229
 20
125.1020354547431
 30
0.0
 10
345.7395016766507
 20
125.1025679567853
 30
0.0
 10
345.7431263756666
 20
125.1091154054814
 30
0.0
 10
345.7490722713369
 20
125.1198846487677
 30
0.0
 10
345.757546994252
 20
125.135295384692
 30
0.0
 10
345.7684619810911
 20
125.1552517609458
 30
0.0
 10
345.7817980493295
 20
125.1798018574163
 30
0.0
 10
345.7975058140165
 20
125.2089584811722
 30
0.0
 10
345.8155374021743
 20
125.2427544526056
 30
0.0
 10
345.8579549469212
 20
125.3231612106606
 30
0.0
 10
345.9384759866753
 20
125.4801496603324
 30
0.0
 10
346.0719023335479
 20
125.7619353980752
 30
0.0
 10
346.2159793102322
 20
126.0998075077044
 30
0.0
 10
346.3316570616834
 20
126.4084884214412
 30
0.0
 10
346.4141685369011
 20
126.6545191411974
 30
0.0
 10
346.4670901614256
 20
126.8233450324682
 30
0.0
 10
346.5169472958031
 20
126.99466060348
 30
0.0
 10
346.5639652890345
 20
127.1683429537032
 30
0.0
 10
346.5924322997637
 20
127.2854946420091
 30
0.0
 10
346.6066803875628
 20
127.3441304979722
 30
0.0
  0
ARC
  5
11C
330
1F
100
AcDbEntity
  8
0
  6
Continuous
 62
     7
370
    25
100
AcDbCircle
 10
338.0250826566
 20
129.3755172034
 30
0.0
 40
11.62303852141072
100
AcDbArc
 50
169.5595567507
 51
190.4404432494
  0
ARC
  5
11D
330
1F
100
AcDbEntity
  8
0
  6
Continuous
 62
     7
370
    25
100
AcDbCircle
 10
338.0250826566
 20
129.3755172034
 30
0.0
 40
9.143750000000008
100
AcDbArc
 50
166.6824039243
 51
193.3175960757
  0
ARC
  5
11E
330
1F
100
AcDbEntity
  8
0
  6
Continuous
 62
     7
370
    25
100
AcDbCircle
 10
338.0250826566
 20
129.3755172034
 30
0.0
 40
8.818749999999973
100
AcDbArc
 50
166.6824039243
 51
193.3175960757
  0
ARC
  5
11F
330
1F
100
AcDbEntity
  8
0
  6
Continuous
 62
     7
370
    25
100
AcDbCircle
 10
338.0250826566
 20
129.3755172034
 30
0.0
 40
9.143750000000008
100
AcDbArc
 50
346.6824039243
 51
13.3175960757
  0
ARC
  5
120
330
1F
100
AcDbEntity
  8
0
  6
Continuous
 62
     7
370
    25
100
AcDbCircle
 10
338.0250826566
 20
129.3755172034
 30
0.0
 40
8.818749999999973
100
AcDbArc
 50
346.6824039243
 51
13.3175960757
  0
ARC
  5
121
330
1F
100
AcDbEntity
  8
0
  6
Continuous
 62
     7
370
    25
100
AcDbCircle
 10
338.0250826566
 20
129.3755172034
 30
0.0
 40
11.62303852141071
100
AcDbArc
 50
349.5595567507
 51
10.4404432493
  0
CIRCLE
  5
122
330
1F
100
AcDbEntity
  8
0
  6
Continuous
 62
     7
370
    25
100
AcDbCircle
 10
338.0250826566
 20
129.3755172034
 30
0.0
 40
7.774999999999977
  0
CIRCLE
  5
123
330
1F
100
AcDbEntity
  8
0
  6
Continuous
 62
     7
370
    25
100
AcDbCircle
 10
338.0250826566
 20
129.3755172034
 30
0.0
 40
2.615470053837896
  0
CIRCLE
  5
124
330
1F
100
AcDbEntity
  8
0
  6
Continuous
 62
     7
370
    25
100
AcDbCircle
 10
338.0250826566
 20
129.3755172034
 30
0.0
 40
2.5
  0
CIRCLE
  5
125
330
1F
100
AcDbEntity
  8
0
  6
Continuous
 62
     7
370
    25
100
AcDbCircle
 10
338.0250826566
 20
129.3755172034
 30
0.0
 40
15.73749999999995
  0
CIRCLE
  5
126
330
1F
100
AcDbEntity
  8
0
  6
Continuous
 62
     7
370
    25
100
AcDbCircle
 10
338.0250826566
 20
129.3755172034
 30
0.0
 40
13.42499999999995
  0
CIRCLE
  5
127
330
1F
100
AcDbEntity
  8
0
  6
Continuous
 62
     7
370
    25
100
AcDbCircle
 10
338.0250826566
 20
129.3755172034
 30
0.0
 40
2.0
  0
CIRCLE
  5
128
330
1F
100
AcDbEntity
  8
0
  6
Continuous
 62
     7
370
    25
100
AcDbCircle
 10
338.0250826566
 20
129.3755172034
 30
0.0
 40
1.050000000000011
  0
LINE
  5
129
330
1F
100
AcDbEntity
  8
0
  6
CENTER
 62
     7
370
    18
100
AcDbLine
 10
338.0250826566
 20
129.3755172034
 30
0.0
 11
338.0250826566
 21
148.8784688034
 31
0.0
  0
LINE
  5
12A
330
1F
100
AcDbEntity
  8
0
  6
CENTER
 62
     7
370
    18
100
AcDbLine
 10
338.0250826566
 20
129.3755172034
 30
0.0
 11
357.5395826566
 21
129.3755172034
 31
0.0
  0
LINE
  5
12B
330
1F
100
AcDbEntity
  8
0
  6
Continuous
 62
     7
370
    18
100
AcDbLine
 10
350.0250826566
 20
146.8784688034
 30
0.0
 11
338.0250826566
 21
146.8784688034
 31
0.0
  0
SOLID
  5
12C
330
1F
100
AcDbEntity
  8
0
  6
Continuous
 62
     7
370
    18
100
AcDbTrace
 10
338.0250826566
 20
146.8784688034
 30
0.0
 11
344.0250826566
 21
145.3784688034
 31
0.0
 12
344.0250826566
 22
148.3784688034
 32
0.0
 13
344.0250826566
 23
148.3784688034
 33
0.0
  0
LINE
  5
12D
330
1F
100
AcDbEntity
  8
0
  6
Continuous
 62
     7
370
    18
100
AcDbLine
 10
367.5395826566
 20
129.3755172034
 30
0.0
 11
355.5395826566
 21
129.3755172034
 31
0.0
  0
SOLID
  5
12E
330
1F
100
AcDbEntity
  8
0
  6
Continuous
 62
     7
370
    18
100
AcDbTrace
 10
355.5395826566
 20
129.3755172034
 30
0.0
 11
361.5395826566
 21
127.8755172034
 31
0.0
 12
361.5395826566
 22
130.8755172034
 32
0.0
 13
361.5395826566
 23
130.8755172034
 33
0.0
  0
MTEXT
  5
12F
330
1F
100
AcDbEntity
  8
0
  6
Continuous
 62
     7
100
AcDbMText
 10
346.8777019126
 20
153.5247620201
 30
0.0
 40
3.5
 41
0.0
 71
     1
 72
     1
  1
A
  7
SLDTEXTSTYLE0
 73
     1
 44
1.0
  0
MTEXT
  5
130
330
1F
100
AcDbEntity
  8
0
  6
Continuous
 62
     7
100
AcDbMText
 10
364.3922019126
 20
127.1623015622
 30
0.0
 40
3.5
 41
0.0
 71
     1
 72
     1
  1
A
  7
SLDTEXTSTYLE0
 73
     1
 44
1.0
  0
LINE
  5
131
330
1F
100
AcDbEntity
  8
0
  6
Continuous
 62
     7
370
    25
100
AcDbLine
 10
108.5856465917
 20
97.9005172034
 30
0.0
 11
114.9514487872
 21
97.9005172034
 31
0.0
  0
LINE
  5
132
330
1F
100
AcDbEntity
  8
0
  6
Continuous
 62
     7
370
    25
100
AcDbLine
 10
121.6198443963
 20
97.9005172034
 30
0.0
 11
126.1856465917
 21
97.9005172034
 31
0.0
  0
ARC
  5
133
330
1F
100
AcDbEntity
  8
0
  6
Continuous
 62
     7
370
    25
100
AcDbCircle
 10
126.1856465917
 20
98.1005172034
 30
0.0
 40
0.2000000000000028
100
AcDbArc
 50
270.0
 51
0.0
  0
ARC
  5
134
330
1F
100
AcDbEntity
  8
0
  6
Continuous
 62
     7
370
    25
100
AcDbCircle
 10
108.5856465917
 20
98.1005172034
 30
0.0
 40
0.2000000000000171
100
AcDbArc
 50
180.0
 51
270.0
  0
LINE
  5
135
330
1F
100
AcDbEntity
  8
0
  6
Continuous
 62
     7
370
    25
100
AcDbLine
 10
114.9514487872
 20
97.9005172034
 30
0.0
 11
116.4106465917
 21
100.4279219392
 31
0.0
  0
LINE
  5
136
330
1F
100
AcDbEntity
  8
0
  6
Continuous
 62
     7
370
    25
100
AcDbLine
 10
120.1606465917
 20
100.4279219392
 30
0.0
 11
121.6198443963
 21
97.9005172034
 31
0.0
  0
ARC
  5
137
330
1F
100
AcDbEntity
  8
0
  6
Continuous
 62
     7
370
    25
100
AcDbCircle
 10
117.4106465917
 20
100.5255172034
 30
0.0
 40
1.000000000000014
100
AcDbArc
 50
90.0
 51
180.0
  0
ARC
  5
138
330
1F
100
AcDbEntity
  8
0
  6
Continuous
 62
     7
370
    25
100
AcDbCircle
 10
119.1606465917
 20
100.5255172034
 30
0.0
 40
1.000000000000014
100
AcDbArc
 50
0.0
 51
90.0
  0
LINE
  5
139
330
1F
100
AcDbEntity
  8
0
  6
Continuous
 62
     7
370
    25
100
AcDbLine
 10
117.4106465917
 20
101.5255172034
 30
0.0
 11
119.1606465917
 21
101.5255172034
 31
0.0
  0
ARC
  5
13A
330
1F
100
AcDbEntity
  8
0
  6
Continuous
 62
     7
370
    25
100
AcDbCircle
 10
107.9567117172
 20
103.8255172034
 30
0.0
 40
0.8000000000000004
100
AcDbArc
 50
57.576802718
 51
107.5
  0
LINE
  5
13B
330
1F
100
AcDbEntity
  8
0
  6
Continuous
 62
     7
370
    25
100
AcDbLine
 10
107.2254645517
 20
104.4337791578
 30
0.0
 11
107.7161470775
 21
104.588490764
 31
0.0
  0
LINE
  5
13C
330
1F
100
AcDbEntity
  8
0
  6
Continuous
 62
     7
370
    25
100
AcDbLine
 10
93.8992011237
 20
105.1029966826
 30
0.0
 11
107.2254645517
 21
104.4337791578
 31
0.0
  0
LINE
  5
13D
330
1F
100
AcDbEntity
  8
0
  6
Continuous
 62
     7
370
    25
100
AcDbLine
 10
69.9356465917
 20
106.3063970758
 30
0.0
 11
77.9904834552
 21
105.9018997448
 31
0.0
  0
LINE
  5
13E
330
1F
100
AcDbEntity
  8
0
  6
Continuous
 62
     7
370
    25
100
AcDbLine
 10
68.4356465917
 20
107.1724224796
 30
0.0
 11
69.9356465917
 21
106.3063970758
 31
0.0
  0
ARC
  5
13F
330
1F
100
AcDbEntity
  8
0
  6
Continuous
 62
     7
370
    25
100
AcDbCircle
 10
129.3856465917
 20
112.8755172034
 30
0.0
 40
3.0
100
AcDbArc
 50
90.0
 51
180.0
  0
LINE
  5
140
330
1F
100
AcDbEntity
  8
0
  6
Continuous
 62
     7
370
    25
100
AcDbLine
 10
129.3856465917
 20
115.8755172034
 30
0.0
 11
190.2670323832
 21
115.8755172034
 31
0.0
  0
LINE
  5
141
330
1F
100
AcDbEntity
  8
0
  6
Continuous
 62
     7
370
    25
100
AcDbLine
 10
190.2670323832
 20
115.8755172034
 30
0.0
 11
226.5425647832
 21
118.7304635192
 31
0.0
  0
ARC
  5
142
330
1F
100
AcDbEntity
  8
0
  6
Continuous
 62
     7
370
    25
100
AcDbCircle
 10
226.3856465917
 20
120.7242981867
 30
0.0
 40
2.000000000000019
100
AcDbArc
 50
274.5
 51
0.0
  0
LINE
  5
143
330
1F
100
AcDbEntity
  8
0
  6
Continuous
 62
     7
370
    25
100
AcDbLine
 10
191.8856465917
 20
131.8755172034
 30
0.0
 11
180.6856465917
 21
131.8755172034
 31
0.0
  0
LINE
  5
144
330
1F
100
AcDbEntity
  8
0
  6
Continuous
 62
     7
370
    25
100
AcDbLine
 10
192.2856465917
 20
131.4755172034
 30
0.0
 11
191.8856465917
 21
131.8755172034
 31
0.0
  0
LINE
  5
145
330
1F
100
AcDbEntity
  8
0
  6
Continuous
 62
     7
370
    25
100
AcDbLine
 10
180.6856465917
 20
131.8755172034
 30
0.0
 11
180.2856465917
 21
131.4755172034
 31
0.0
  0
LINE
  5
146
330
1F
100
AcDbEntity
  8
0
  6
Continuous
 62
     7
370
    25
100
AcDbLine
 10
193.2856465917
 20
131.0388648611
 30
0.0
 11
194.2856465917
 21
131.0388648611
 31
0.0
  0
LINE
  5
147
330
1F
100
AcDbEntity
  8
0
  6
Continuous
 62
     7
370
    25
100
AcDbLine
 10
193.2856465917
 20
131.4755172034
 30
0.0
 11
192.2856465917
 21
131.4755172034
 31
0.0
  0
LINE
  5
148
330
1F
100
AcDbEntity
  8
0
  6
Continuous
 62
     7
370
    25
100
AcDbLine
 10
180.3922709187
 20
130.8003912625
 30
0.0
 11
180.498354335
 21
130.7128094601
 31
0.0
  0
SPLINE
  5
149
330
1F
100
AcDbEntity
  8
0
  6
Continuous
 62
     7
370
    25
100
AcDbSpline
210
0.0
220
0.0
230
1.0
 70
     8
 71
     3
 72
    10
 73
     6
 74
     0
 42
0.000000001
 43
0.00000001
 40
0.0
 40
0.0
 40
0.0
 40
0.0
 40
0.4391119879276909
 40
0.7513633230734734
 40
1.0
 40
1.0
 40
1.0
 40
1.0
 10
180.3922709187476
 20
129.8884537652084
 30
0.0
 10
180.4778823166658
 20
130.0190031784191
 30
0.0
 10
180.6243717457892
 20
130.2423859227577
 30
0.0
 10
180.5592607473067
 20
130.5671143346746
 30
0.0
 10
180.4435600228574
 20
130.7287427990205
 30
0.0
 10
180.3922709187476
 20
130.8003912625404
 30
0.0
  0
SPLINE
  5
14A
330
1F
100
AcDbEntity
  8
0
  6
Continuous
 62
     7
370
    25
100
AcDbSpline
210
0.0
220
0.0
230
1.0
 70
     8
 71
     3
 72
     9
 73
     5
 74
     0
 42
0.000000001
 43
0.00000001
 40
0.0
 40
0.0
 40
0.0
 40
0.0
 40
0.6624638369356117
 40
1.0
 40
1.0
 40
1.0
 40
1.0
 10
180.5474204916185
 20
129.3755172033719
 30
0.0
 10
180.5287768154749
 20
129.4939548808549
 30
0.0
 10
180.5006338813189
 20
129.6727384926984
 30
0.0
 10
180.4196170344001
 20
129.8340165788294
 30
0.0
 10
180.3922709187476
 20
129.8884537652084
 30
0.0
  0
LINE
  5
14B
330
1F
100
AcDbEntity
  8
0
  6
Continuous
 62
     7
370
    25
100
AcDbLine
 10
180.2856465917
 20
130.9255172034
 30
0.0
 11
180.498354335
 21
130.7128094601
 31
0.0
  0
LINE
  5
14C
330
1F
100
AcDbEntity
  8
0
  6
Continuous
 62
     7
370
    25
100
AcDbLine
 10
180.2856465917
 20
130.9255172034
 30
0.0
 11
180.2856465917
 21
129.3755172034
 31
0.0
  0
LINE
  5
14D
330
1F
100
AcDbEntity
  8
0
  6
Continuous
 62
     7
370
    25
100
AcDbLine
 10
190.2856465917
 20
130.3444225139
 30
0.0
 11
190.2856465917
 21
130.6255172034
 31
0.0
  0
LINE
  5
14E
330
1F
100
AcDbEntity
  8
0
  6
Continuous
 62
     7
370
    25
100
AcDbLine
 10
190.2856465917
 20
129.3755172034
 30
0.0
 11
190.2856465917
 21
130.3444225139
 31
0.0
  0
LINE
  5
14F
330
1F
100
AcDbEntity
  8
0
  6
Continuous
 62
     7
370
    25
100
AcDbLine
 10
184.2856465917
 20
130.3444225139
 30
0.0
 11
184.2856465917
 21
129.3755172034
 31
0.0
  0
LINE
  5
150
330
1F
100
AcDbEntity
  8
0
  6
Continuous
 62
     7
370
    25
100
AcDbLine
 10
184.2856465917
 20
130.6255172034
 30
0.0
 11
184.2856465917
 21
130.3444225139
 31
0.0
  0
LINE
  5
151
330
1F
100
AcDbEntity
  8
0
  6
Continuous
 62
     7
370
    25
100
AcDbLine
 10
184.2856465917
 20
130.6255172034
 30
0.0
 11
190.2856465917
 21
130.6255172034
 31
0.0
  0
LINE
  5
152
330
1F
100
AcDbEntity
  8
0
  6
Continuous
 62
     7
370
    25
100
AcDbLine
 10
193.2856465917
 20
130.7128094601
 30
0.0
 11
193.2856465917
 21
131.4755172034
 31
0.0
  0
LINE
  5
153
330
1F
100
AcDbEntity
  8
0
  6
Continuous
 62
     7
370
    25
100
AcDbLine
 10
190.2856465917
 20
130.7128094601
 30
0.0
 11
193.2856465917
 21
130.7128094601
 31
0.0
  0
LINE
  5
154
330
1F
100
AcDbEntity
  8
0
  6
Continuous
 62
     7
370
    25
100
AcDbLine
 10
190.2856465917
 20
130.6255172034
 30
0.0
 11
190.2856465917
 21
130.7128094601
 31
0.0
  0
LINE
  5
155
330
1F
100
AcDbEntity
  8
0
  6
Continuous
 62
     7
370
    25
100
AcDbLine
 10
184.2856465917
 20
130.7128094601
 30
0.0
 11
184.2856465917
 21
130.6255172034
 31
0.0
  0
LINE
  5
156
330
1F
100
AcDbEntity
  8
0
  6
Continuous
 62
     7
370
    25
100
AcDbLine
 10
180.498354335
 20
130.7128094601
 30
0.0
 11
184.2856465917
 21
130.7128094601
 31
0.0
  0
LINE
  5
157
330
1F
100
AcDbEntity
  8
0
  6
Continuous
 62
     7
370
    25
100
AcDbLine
 10
180.2856465917
 20
131.4755172034
 30
0.0
 11
180.2856465917
 21
130.9255172034
 31
0.0
  0
LINE
  5
158
330
1F
100
AcDbEntity
  8
0
  6
Continuous
 62
     7
370
    25
100
AcDbLine
 10
184.2856465917
 20
129.8884537652
 30
0.0
 11
180.3922709187
 21
129.8884537652
 31
0.0
  0
LINE
  5
159
330
1F
100
AcDbEntity
  8
0
  6
Continuous
 62
     7
370
    25
100
AcDbLine
 10
194.0585222473
 20
130.0708412647
 30
0.0
 11
194.1790222647
 21
129.8884537652
 31
0.0
  0
LINE
  5
15A
330
1F
100
AcDbEntity
  8
0
  6
Continuous
 62
     7
370
    25
100
AcDbLine
 10
190.2856465917
 20
129.8884537652
 30
0.0
 11
194.1790222647
 21
129.8884537652
 31
0.0
  0
LINE
  5
15B
330
1F
100
AcDbEntity
  8
0
  6
Continuous
 62
     7
370
    25
100
AcDbLine
 10
194.0585222473
 20
130.0708412647
 30
0.0
 11
193.2856465917
 21
130.0708412647
 31
0.0
  0
LINE
  5
15C
330
1F
100
AcDbEntity
  8
0
  6
Continuous
 62
     7
370
    25
100
AcDbLine
 10
193.2856465917
 20
130.0708412647
 30
0.0
 11
193.2856465917
 21
130.7128094601
 31
0.0
  0
SPLINE
  5
15D
330
1F
100
AcDbEntity
  8
0
  6
Continuous
 62
     7
370
    25
100
AcDbSpline
210
0.0
220
0.0
230
1.0
 70
     8
 71
     3
 72
     9
 73
     5
 74
     0
 42
0.000000001
 43
0.00000001
 40
0.0
 40
0.0
 40
0.0
 40
0.0
 40
0.3375361630643886
 40
1.0
 40
1.0
 40
1.0
 40
1.0
 10
194.1790222646957
 20
129.8884537652084
 30
0.0
 10
194.1516761490432
 20
129.8340165788294
 30
0.0
 10
194.0706593021245
 20
129.6727384926984
 30
0.0
 10
194.0425163679685
 20
129.4939548808549
 30
0.0
 10
194.0238726918249
 20
129.3755172033719
 30
0.0
  0
SPLINE
  5
15E
330
1F
100
AcDbEntity
  8
0
  6
Continuous
 62
     7
370
    25
100
AcDbSpline
210
0.0
220
0.0
230
1.0
 70
     8
 71
     3
 72
     9
 73
     5
 74
     0
 42
0.000000001
 43
0.00000001
 40
0.0
 40
0.0
 40
0.0
 40
0.0
 40
0.7432396161805942
 40
1.0
 40
1.0
 40
1.0
 40
1.0
 10
194.2856465917217
 20
130.3850084115912
 30
0.0
 10
194.2274846924453
 20
130.3084821315987
 30
0.0
 10
194.1492301188056
 20
130.2055189978709
 30
0.0
 10
194.0770541712507
 20
130.0983563796582
 30
0.0
 10
194.058522247254
 20
130.0708412646748
 30
0.0
  0
LINE
  5
15F
330
1F
100
AcDbEntity
  8
0
  6
Continuous
 62
     7
370
    25
100
AcDbLine
 10
194.2856465917
 20
130.3850084116
 30
0.0
 11
194.2856465917
 21
129.3755172034
 31
0.0
  0
LINE
  5
160
330
1F
100
AcDbEntity
  8
0
  6
Continuous
 62
     7
370
    25
100
AcDbLine
 10
194.2856465917
 20
131.0388648611
 30
0.0
 11
194.2856465917
 21
130.3850084116
 31
0.0
  0
SPLINE
  5
161
330
1F
100
AcDbEntity
  8
0
  6
Continuous
 62
     7
370
    25
100
AcDbSpline
210
0.0
220
0.0
230
1.0
 70
     8
 71
     3
 72
    14
 73
    10
 74
     0
 42
0.000000001
 43
0.00000001
 40
0.0
 40
0.0
 40
0.0
 40
0.0
 40
0.25
 40
0.25
 40
0.5
 40
0.5
 40
0.75
 40
0.75
 40
1.0
 40
1.0
 40
1.0
 40
1.0
 10
114.9514487871516
 20
126.0806191178551
 30
0.0
 10
114.7545729016266
 20
126.3081156857843
 30
0.0
 10
114.5784645802371
 20
126.5497024608554
 30
0.0
 10
114.2687281864639
 20
127.0618596952296
 30
0.0
 10
114.1341701849704
 20
127.3353924983378
 30
0.0
 10
113.9189280322612
 20
127.8954976328752
 30
0.0
 10
113.8372847947423
 20
128.1824701282852
 30
0.0
 10
113.7267617724722
 20
128.7705091133296
 30
0.0
 10
113.6981465917217
 20
129.0749525691002
 30
0.0
 10
113.6981465917217
 20
129.375517203372
 30
0.0
  0
LINE
  5
162
330
1F
100
AcDbEntity
  8
0
  6
Continuous
 62
     7
370
    25
100
AcDbLine
 10
114.9514487872
 20
97.9005172034
 30
0.0
 11
114.9514487872
 21
126.0806191179
 31
0.0
  0
LINE
  5
163
330
1F
100
AcDbEntity
  8
0
  6
Continuous
 62
     7
370
    25
100
AcDbLine
 10
114.9514487872
 20
160.8505172034
 30
0.0
 11
108.5856465917
 21
160.8505172034
 31
0.0
  0
LINE
  5
164
330
1F
100
AcDbEntity
  8
0
  6
Continuous
 62
     7
370
    25
100
AcDbLine
 10
121.6198443963
 20
97.9005172034
 30
0.0
 11
121.6198443963
 21
124.4858099237
 31
0.0
  0
SPLINE
  5
165
330
1F
100
AcDbEntity
  8
0
  6
Continuous
 62
     7
370
    25
100
AcDbSpline
210
0.0
220
0.0
230
1.0
 70
     8
 71
     3
 72
    20
 73
    16
 74
     0
 42
0.000000001
 43
0.00000001
 40
0.0
 40
0.0
 40
0.0
 40
0.0
 40
0.1249999999999999
 40
0.1249999999999999
 40
0.2499999999999997
 40
0.2499999999999997
 40
0.3749999999999996
 40
0.3749999999999996
 40
0.4999999999999994
 40
0.4999999999999994
 40
0.7499999999999998
 40
0.7499999999999998
 40
0.8749999999999999
 40
0.8749999999999999
 40
1.0
 40
1.0
 40
1.0
 40
1.0
 10
125.1731465917217
 20
129.375517203372
 30
0.0
 10
125.1731465917217
 20
129.1088491158908
 30
0.0
 10
125.151099562678
 20
128.8405369406167
 30
0.0
 10
125.0620935249732
 20
128.3076939053834
 30
0.0
 10
124.9962145567737
 20
128.0484036953975
 30
0.0
 10
124.8240396490665
 20
127.543276729376
 30
0.0
 10
124.7173330781596
 20
127.2966965134547
 30
0.0
 10
124.4646561752834
 20
126.820279862715
 30
0.0
 10
124.3211989110886
 20
126.5948598009501
 30
0.0
 10
123.8428767188082
 20
125.9542521193364
 30
0.0
 10
123.4548497358426
 20
125.5714864042334
 30
0.0
 10
122.8130450873972
 20
125.0955841560617
 30
0.0
 10
122.58824045975
 20
124.95198851991
 30
0.0
 10
122.1169314021278
 20
124.6946571345194
 30
0.0
 10
121.8712348022389
 20
124.5816047559975
 30
0.0
 10
121.6198443962918
 20
124.4858099236868
 30
0.0
  0
LINE
  5
166
330
1F
100
AcDbEntity
  8
0
  6
Continuous
 62
     7
370
    25
100
AcDbLine
 10
126.1856465917
 20
160.8505172034
 30
0.0
 11
121.6198443963
 21
160.8505172034
 31
0.0
  0
LINE
  5
167
330
1F
100
AcDbEntity
  8
0
  6
Continuous
 62
     7
370
    25
100
AcDbLine
 10
126.3856465917
 20
129.3755172034
 30
0.0
 11
126.3856465917
 21
98.1005172152
 31
0.0
  0
ARC
  5
168
330
1F
100
AcDbEntity
  8
0
  6
Continuous
 62
     7
370
    25
100
AcDbCircle
 10
126.1856465917
 20
160.6505172034
 30
0.0
 40
0.2000000000000171
100
AcDbArc
 50
0.0
 51
90.0
  0
LINE
  5
169
330
1F
100
AcDbEntity
  8
0
  6
Continuous
 62
     7
370
    25
100
AcDbLine
 10
108.3856465917
 20
98.1005172034
 30
0.0
 11
108.3856465917
 21
129.3755172034
 31
0.0
  0
LINE
  5
16A
330
1F
100
AcDbEntity
  8
0
  6
Continuous
 62
     7
370
    25
100
AcDbLine
 10
108.3856465917
 20
129.3755172034
 30
0.0
 11
108.5856465917
 21
129.3755172034
 31
0.0
  0
ARC
  5
16B
330
1F
100
AcDbEntity
  8
0
  6
Continuous
 62
     7
370
    25
100
AcDbCircle
 10
108.5856465917
 20
160.6505172034
 30
0.0
 40
0.2000000000000171
100
AcDbArc
 50
90.0
 51
179.9999999999
  0
ARC
  5
16C
330
1F
100
AcDbEntity
  8
0
  6
Continuous
 62
     7
370
    25
100
AcDbCircle
 10
119.4356465917
 20
129.3755172034
 30
0.0
 40
3.737500000000011
100
AcDbArc
 50
180.0
 51
206.113804444
  0
SPLINE
  5
16D
330
1F
100
AcDbEntity
  8
0
  6
Continuous
 62
     7
370
    25
100
AcDbSpline
210
0.0
220
0.0
230
1.0
 70
     8
 71
     3
 72
    10
 73
     6
 74
     0
 42
0.000000001
 43
0.00000001
 40
0.0
 40
0.0
 40
0.0
 40
0.0
 40
0.5
 40
0.5
 40
1.0
 40
1.0
 40
1.0
 40
1.0
 10
116.0796647842684
 20
127.7304359415363
 30
0.0
 10
115.902779637845
 20
127.4319856261797
 30
0.0
 10
115.7172302629676
 20
127.1529929220523
 30
0.0
 10
115.3392813229201
 20
126.6076736279265
 30
0.0
 10
115.1464947807409
 20
126.3423382421051
 30
0.0
 10
114.9514487871516
 20
126.0806191178552
 30
0.0
  0
SPLINE
  5
16E
330
1F
100
AcDbEntity
  8
0
  6
Continuous
 62
     7
370
    25
100
AcDbSpline
210
0.0
220
0.0
230
1.0
 70
     8
 71
     3
 72
     8
 73
     4
 74
     0
 42
0.000000001
 43
0.00000001
 40
0.0
 40
0.0
 40
0.0
 40
0.0
 40
1.0
 40
1.0
 40
1.0
 40
1.0
 10
121.6198443962914
 20
124.4858099236857
 30
0.0
 10
121.2714429916111
 20
124.9237852500996
 30
0.0
 10
120.9268746063782
 20
125.3668683886844
 30
0.0
 10
120.5884903070574
 20
125.820259460533
 30
0.0
  0
ARC
  5
16F
330
1F
100
AcDbEntity
  8
0
  6
Continuous
 62
     7
370
    25
100
AcDbCircle
 10
119.4356465917
 20
129.3755172034
 30
0.0
 40
3.737499999999997
100
AcDbArc
 50
287.9660359156
 51
0.0
  0
SPLINE
  5
170
330
1F
100
AcDbEntity
  8
0
  6
Continuous
 62
     7
370
    25
100
AcDbSpline
210
0.0
220
0.0
230
1.0
 70
     8
 71
     3
 72
     8
 73
     4
 74
     0
 42
0.000000001
 43
0.00000001
 40
0.0
 40
0.0
 40
0.0
 40
0.0
 40
1.0
 40
1.0
 40
1.0
 40
1.0
 10
116.4106465917217
 20
127.1804588328495
 30
0.0
 10
116.2923498322918
 20
127.343483061308
 30
0.0
 10
116.1809213501204
 20
127.5238715603304
 30
0.0
 10
116.0796647842684
 20
127.7304359415363
 30
0.0
  0
LINE
  5
171
330
1F
100
AcDbEntity
  8
0
  6
Continuous
 62
     7
370
    25
100
AcDbLine
 10
116.4106465917
 20
100.4279219392
 30
0.0
 11
116.4106465917
 21
127.1804588328
 31
0.0
  0
SPLINE
  5
172
330
1F
100
AcDbEntity
  8
0
  6
Continuous
 62
     7
370
    25
100
AcDbSpline
210
0.0
220
0.0
230
1.0
 70
     8
 71
     3
 72
     8
 73
     4
 74
     0
 42
0.000000001
 43
0.00000001
 40
0.0
 40
0.0
 40
0.0
 40
0.0
 40
1.0
 40
1.0
 40
1.0
 40
1.0
 10
120.5884903070577
 20
125.8202594605338
 30
0.0
 10
120.4469522187758
 20
125.7743636894367
 30
0.0
 10
120.3043417500389
 20
125.7374228384994
 30
0.0
 10
120.1606465917219
 20
125.7090091575588
 30
0.0
  0
LINE
  5
173
330
1F
100
AcDbEntity
  8
0
  6
Continuous
 62
     7
370
    25
100
AcDbLine
 10
120.1606465917
 20
100.4279219392
 30
0.0
 11
120.1606465917
 21
125.7090091576
 31
0.0
  0
SPLINE
  5
174
330
1F
100
AcDbEntity
  8
0
  6
Continuous
 62
     7
370
    25
100
AcDbSpline
210
0.0
220
0.0
230
1.0
 70
     8
 71
     3
 72
    14
 73
    10
 74
     0
 42
0.000000001
 43
0.00000001
 40
0.0
 40
0.0
 40
0.0
 40
0.0
 40
0.25
 40
0.25
 40
0.5
 40
0.5
 40
0.75
 40
0.75
 40
1.0
 40
1.0
 40
1.0
 40
1.0
 10
117.4106465917217
 20
126.2341351428769
 30
0.0
 10
117.2762985053652
 20
126.3207387045044
 30
0.0
 10
117.1531218315093
 20
126.4122071018278
 30
0.0
 10
116.9243752265912
 20
126.6033984884588
 30
0.0
 10
116.822453262624
 20
126.7002603405997
 30
0.0
 10
116.6430298601953
 20
126.888134955335
 30
0.0
 10
116.5665885720125
 20
126.9783703066863
 30
0.0
 10
116.4492985991624
 20
127.1261766706636
 30
0.0
 10
116.4106465917217
 20
127.1804588328496
 30
0.0
 10
116.4106465917217
 20
127.1804588328496
 30
0.0
  0
SPLINE
  5
175
330
1F
100
AcDbEntity
  8
0
  6
Continuous
 62
     7
370
    25
100
AcDbSpline
210
0.0
220
0.0
230
1.0
 70
     8
 71
     3
 72
    14
 73
    10
 74
     0
 42
0.000000001
 43
0.00000001
 40
0.0
 40
0.0
 40
0.0
 40
0.0
 40
0.25
 40
0.25
 40
0.5
 40
0.5
 40
0.75
 40
0.75
 40
1.0
 40
1.0
 40
1.0
 40
1.0
 10
120.1606465917218
 20
125.7090091575594
 30
0.0
 10
120.160646591722
 20
125.7090091575594
 30
0.0
 10
120.1347300691509
 20
125.703632426571
 30
0.0
 10
120.0352852225733
 20
125.6860878389706
 30
0.0
 10
119.9629868301611
 20
125.6742384353243
 30
0.0
 10
119.7782829356372
 20
125.652594617324
 30
0.0
 10
119.6687056737613
 20
125.6433053566396
 30
0.0
 10
119.4253754955431
 20
125.636049820282
 30
0.0
 10
119.293839236623
 20
125.6383212264414
 30
0.0
 10
119.1606465917217
 20
125.6481479903745
 30
0.0
  0
SPLINE
  5
176
330
1F
100
AcDbEntity
  8
0
  6
Continuous
 62
     7
370
    25
100
AcDbSpline
210
0.0
220
0.0
230
1.0
 70
     8
 71
     3
 72
    10
 73
     6
 74
     0
 42
0.000000001
 43
0.00000001
 40
0.0
 40
0.0
 40
0.0
 40
0.0
 40
0.5
 40
0.5
 40
1.0
 40
1.0
 40
1.0
 40
1.0
 10
119.1606465917217
 20
125.6481479903746
 30
0.0
 10
118.8481826894336
 20
125.6712011327437
 30
0.0
 10
118.5452937074358
 20
125.73243583515
 30
0.0
 10
117.9579505226317
 20
125.928607799074
 30
0.0
 10
117.6734828620598
 20
126.0647054341738
 30
0.0
 10
117.4106465917217
 20
126.2341351428769
 30
0.0
  0
LINE
  5
177
330
1F
100
AcDbEntity
  8
0
  6
Continuous
 62
     7
370
    25
100
AcDbLine
 10
108.3856465917
 20
156.2255172034
 30
0.0
 11
108.7196852778
 21
155.166081843
 31
0.0
  0
LINE
  5
178
330
1F
100
AcDbEntity
  8
0
  6
Continuous
 62
     7
370
    25
100
AcDbLine
 10
108.3856465917
 20
156.2255172034
 30
0.0
 11
108.3856465917
 21
154.25022847
 31
0.0
  0
ARC
  5
179
330
1F
100
AcDbEntity
  8
0
  6
Continuous
 62
     7
370
    25
100
AcDbCircle
 10
107.9567117172
 20
154.9255172034
 30
0.0
 40
0.799999999999991
100
AcDbArc
 50
252.5
 51
17.5
  0
LINE
  5
17A
330
1F
100
AcDbEntity
  8
0
  6
Continuous
 62
     7
370
    25
100
AcDbLine
 10
107.2254645517
 20
104.4337791578
 30
0.0
 11
107.2254645517
 21
129.3755172034
 31
0.0
  0
LINE
  5
17B
330
1F
100
AcDbEntity
  8
0
  6
Continuous
 62
     7
370
    25
100
AcDbLine
 10
107.7161470775
 20
154.1625436428
 30
0.0
 11
107.2254645517
 21
154.3172552489
 31
0.0
  0
SPLINE
  5
17C
330
1F
100
AcDbEntity
  8
0
  6
Continuous
 62
     7
370
    25
100
AcDbSpline
210
0.0
220
0.0
230
1.0
 70
     8
 71
     3
 72
    22
 73
    18
 74
     0
 42
0.000000001
 43
0.00000001
 40
0.0
 40
0.0
 40
0.0
 40
0.0
 40
0.0016445471980083
 40
0.0768294870796035
 40
0.151459310002747
 40
0.2250437077752731
 40
0.2982167779917085
 40
0.3713078397240465
 40
0.4444589911181266
 40
0.5161649089030532
 40
0.5876183127499099
 40
0.6612190000115902
 40
0.7342074239849599
 40
0.8076706235403474
 40
0.8813280608509989
 40
0.955735565371573
 40
0.9999999999999999
 40
0.9999999999999999
 40
0.9999999999999999
 40
0.9999999999999999
 10
78.14536371043098
 20
152.7998083514026
 30
0.0
 10
78.1465423526283
 20
152.7994447176845
 30
0.0
 10
78.20160582273155
 20
152.7824565813261
 30
0.0
 10
78.59805101016579
 20
152.6651827306968
 30
0.0
 10
79.3141243896919
 20
152.4645681828157
 30
0.0
 10
80.3238000502322
 20
152.2239543681355
 30
0.0
 10
81.53977900817574
 20
151.9966816790182
 30
0.0
 10
82.94397978951112
 20
151.824292670785
 30
0.0
 10
84.46103983203746
 20
151.7362227987017
 30
0.0
 10
86.03535284008238
 20
151.7672761035301
 30
0.0
 10
87.60111625605047
 20
151.9182782544669
 30
0.0
 10
89.09119082412303
 20
152.1726957724731
 30
0.0
 10
90.4620590872216
 20
152.4901312280385
 30
0.0
 10
91.65102799164835
 20
152.8351780076892
 30
0.0
 10
92.61717634209141
 20
153.1587709222426
 30
0.0
 10
93.27426528568414
 20
153.4042658662402
 30
0.0
 10
93.4900949225625
 20
153.4876216133071
 30
0.0
 10
93.57059901578782
 20
153.5187131674134
 30
0.0
  0
SPLINE
  5
17D
330
1F
100
AcDbEntity
  8
0
  6
Continuous
 62
     7
370
    25
100
AcDbSpline
210
0.0
220
0.0
230
1.0
 70
     8
 71
     3
 72
     9
 73
     5
 74
     0
 42
0.000000001
 43
0.00000001
 40
0.0
 40
0.0
 40
0.0
 40
0.0
 40
0.0362226197622856
 40
1.0
 40
1.0
 40
1.0
 40
1.0
 10
93.74151381930582
 20
153.584268834109
 30
0.0
 10
93.7470564934192
 20
153.5863943852681
 30
0.0
 10
93.90007342454538
 20
153.6450746014718
 30
0.0
 10
93.9020684850165
 20
153.6467059851686
 30
0.0
 10
93.90399127917078
 20
153.648278275874
 30
0.0
  0
LINE
  5
17E
330
1F
100
AcDbEntity
  8
0
  6
Continuous
 62
     7
370
    25
100
AcDbLine
 10
77.9860807065
 20
152.8489135649
 30
0.0
 11
69.9356465917
 21
152.444637331
 31
0.0
  0
LINE
  5
17F
330
1F
100
AcDbEntity
  8
0
  6
Continuous
 62
     7
370
    25
100
AcDbLine
 10
69.9356465917
 20
106.3063970758
 30
0.0
 11
69.9356465917
 21
120.2533941688
 31
0.0
  0
SPLINE
  5
180
330
1F
100
AcDbEntity
  8
0
  6
Continuous
 62
     7
370
    25
100
AcDbSpline
210
0.0
220
0.0
230
1.0
 70
     8
 71
     3
 72
     8
 73
     4
 74
     0
 42
0.000000001
 43
0.00000001
 40
0.0
 40
0.0
 40
0.0
 40
0.0
 40
1.0
 40
1.0
 40
1.0
 40
1.0
 10
75.75382104466867
 20
120.2579802270686
 30
0.0
 10
73.81442956035727
 20
120.255834131219
 30
0.0
 10
71.87503807604587
 20
120.2542379446942
 30
0.0
 10
69.93564659173445
 20
120.2531904922185
 30
0.0
  0
SPLINE
  5
181
330
1F
100
AcDbEntity
  8
0
  6
Continuous
 62
     7
370
    25
100
AcDbSpline
210
0.0
220
0.0
230
1.0
 70
     8
 71
     3
 72
    13
 73
     9
 74
     0
 42
0.000000001
 43
0.00000001
 40
0.0
 40
0.0
 40
0.0
 40
0.0
 40
0.1686319999748108
 40
0.3360343310905541
 40
0.5025367825908723
 40
0.6684737453788424
 40
0.8341822636915195
 40
1.0
 40
1.0
 40
1.0
 40
1.0
 10
76.83731609413566
 20
120.3954366728862
 30
0.0
 10
76.77782619807593
 20
120.3809223528473
 30
0.0
 10
76.65928020780086
 20
120.3519995515628
 30
0.0
 10
76.47940351221497
 20
120.3180381581545
 30
0.0
 10
76.29901322458694
 20
120.2911725957956
 30
0.0
 10
76.11790105255314
 20
120.2722136586876
 30
0.0
 10
75.93614021538569
 20
120.2602832072919
 30
0.0
 10
75.81460744749106
 20
120.2587480557231
 30
0.0
 10
75.75382104466867
 20
120.2579802270686
 30
0.0
  0
SPLINE
  5
182
330
1F
100
AcDbEntity
  8
0
  6
Continuous
 62
     7
370
    25
100
AcDbSpline
210
0.0
220
0.0
230
1.0
 70
     8
 71
     3
 72
     8
 73
     4
 74
     0
 42
0.000000001
 43
0.00000001
 40
0.0
 40
0.0
 40
0.0
 40
0.0
 40
1.0
 40
1.0
 40
1.0
 40
1.0
 10
82.2295095106359
 20
120.3996747147717
 30
0.0
 10
80.43211483919562
 20
120.3978036542477
 30
0.0
 10
78.63472016775533
 20
120.3963814732235
 30
0.0
 10
76.83732549631503
 20
120.3954073502275
 30
0.0
  0
SPLINE
  5
183
330
1F
100
AcDbEntity
  8
0
  6
Continuous
 62
     7
370
    25
100
AcDbSpline
210
0.0
220
0.0
230
1.0
 70
     8
 71
     3
 72
    18
 73
    14
 74
     0
 42
0.000000001
 43
0.00000001
 40
0.0
 40
0.0
 40
0.0
 40
0.0
 40
0.0923325137151694
 40
0.1843692047134009
 40
0.2763458873902312
 40
0.368498217575762
 40
0.4610598988406411
 40
0.5542609546627003
 40
0.6483261285518087
 40
0.743473463655427
 40
0.8399130993133287
 40
0.9201660718313618
 40
1.0
 40
1.0
 40
1.0
 40
1.0
 10
84.42583115923081
 20
119.865482478928
 30
0.0
 10
84.35550085571474
 20
119.8658991033596
 30
0.0
 10
84.21506557885752
 20
119.8667310174062
 30
0.0
 10
84.00470305234808
 20
119.8803398643206
 30
0.0
 10
83.79525938942717
 20
119.9030066216922
 30
0.0
 10
83.58670971905237
 20
119.9356074114929
 30
0.0
 10
83.37906610177706
 20
119.9779098901131
 30
0.0
 10
83.17232791423969
 20
120.0299812887682
 30
0.0
 10
82.96650582227934
 20
120.0918300616136
 30
0.0
 10
82.76157414349393
 20
120.1634280730698
 30
0.0
 10
82.5700933981042
 20
120.2400065632986
 30
0.0
 10
82.3923702460545
 20
120.3186178121328
 30
0.0
 10
82.28403625149164
 20
120.3725319679199
 30
0.0
 10
82.23001104203941
 20
120.3994184828185
 30
0.0
  0
LINE
  5
184
330
1F
100
AcDbEntity
  8
0
  6
Continuous
 62
     7
370
    25
100
AcDbLine
 10
86.3407044385
 20
119.8669779138
 30
0.0
 11
84.4258311592
 21
119.8654824789
 31
0.0
  0
SPLINE
  5
185
330
1F
100
AcDbEntity
  8
0
  6
Continuous
 62
     7
370
    25
100
AcDbSpline
210
0.0
220
0.0
230
1.0
 70
     8
 71
     3
 72
    25
 73
    21
 74
     0
 42
0.000000001
 43
0.00000001
 40
0.0
 40
0.0
 40
0.0
 40
0.0
 40
0.0280105225425618
 40
0.0559601148859273
 40
0.0839014045041196
 40
0.1118870776784247
 40
0.1399695827586811
 40
0.1682008401737953
 40
0.1966319670422708
 40
0.2253130233140565
 40
0.2542927850735732
 40
0.3799486436574536
 40
0.5057850221666685
 40
0.6313085886327393
 40
0.7532068238012419
 40
0.803947326795536
 40
0.8535894438553622
 40
0.9025339722393254
 40
0.951197035379054
 40
1.0
 40
1.0
 40
1.0
 40
1.0
 10
91.28058874492315
 20
125.0008417183033
 30
0.0
 10
91.28062596665697
 20
124.9262216912901
 30
0.0
 10
91.28070032915763
 20
124.7771439553032
 30
0.0
 10
91.2682842785111
 20
124.5545258643374
 30
0.0
 10
91.24667971815735
 20
124.3332014463088
 30
0.0
 10
91.21499424849733
 20
124.1132331804204
 30
0.0
 10
91.17346811017744
 20
123.8946428931913
 30
0.0
 10
91.12203735444751
 20
123.6774609547868
 30
0.0
 10
91.06072347973628
 20
123.4617195349017
 30
0.0
 10
90.98951314423682
 20
123.2474296434512
 30
0.0
 10
90.81867653703333
 20
122.7990798704298
 30
0.0
 10
90.48094430359747
 20
122.1457490423585
 30
0.0
 10
89.86938963939996
 20
121.3738558317194
 30
0.0
 10
89.13315480425035
 20
120.7296962063345
 30
0.0
 10
88.44666873260303
 20
120.3380550382727
 30
0.0
 10
87.89796458645321
 20
120.1193601373045
 30
0.0
 10
87.51592840794851
 20
120.0035040884738
 30
0.0
 10
87.12876230924404
 20
119.9225961829439
 30
0.0
 10
86.73653564045733
 20
119.8733677521459
 30
0.0
 10
86.47277437234193
 20
119.8691098971306
 30
0.0
 10
86.34070443852028
 20
119.8669779137878
 30
0.0
  0
LINE
  5
186
330
1F
100
AcDbEntity
  8
0
  6
Continuous
 62
     7
370
    25
100
AcDbLine
 10
91.2805887449
 20
129.3755172034
 30
0.0
 11
91.2805887449
 21
125.0008417183
 31
0.0
  0
LINE
  5
187
330
1F
100
AcDbEntity
  8
0
  6
Continuous
 62
     7
370
    25
100
AcDbLine
 10
107.2254645517
 20
154.3172552489
 30
0.0
 11
93.9039912792
 21
153.6482782759
 31
0.0
  0
SPLINE
  5
188
330
1F
100
AcDbEntity
  8
0
  6
Continuous
 62
     7
370
    25
100
AcDbSpline
210
0.0
220
0.0
230
1.0
 70
     8
 71
     3
 72
    20
 73
    16
 74
     0
 42
0.000000001
 43
0.00000001
 40
0.0
 40
0.0
 40
0.0
 40
0.0
 40
0.0829621378691688
 40
0.165849513510546
 40
0.2487180070845908
 40
0.3299477216397859
 40
0.4108693994437837
 40
0.4941953814850121
 40
0.5768901676624043
 40
0.6601065810557454
 40
0.7435845489352637
 40
0.8279858465401683
 40
0.9132590745401049
 40
0.9972257035811803
 40
1.0
 40
1.0
 40
1.0
 40
1.0
 10
80.29806268644866
 20
106.5122568358651
 30
0.0
 10
80.68380852252571
 20
106.5891752624688
 30
0.0
 10
81.45495257564772
 20
106.7429427998044
 30
0.0
 10
82.86270072680395
 20
106.9188580211927
 30
0.0
 10
84.37055209467502
 20
107.012854308521
 30
0.0
 10
85.94304106968771
 20
106.9890099266553
 30
0.0
 10
87.51033810090748
 20
106.8451048817557
 30
0.0
 10
89.00611412768747
 20
106.596047278956
 30
0.0
 10
90.38636800336555
 20
106.2813665864171
 30
0.0
 10
91.5839621864211
 20
105.9371052344358
 30
0.0
 10
92.57082421624554
 20
105.6080580086161
 30
0.0
 10
93.31806246244358
 20
105.3295971004074
 30
0.0
 10
93.76526389181008
 20
105.1577413053764
 30
0.0
 10
93.95201850395826
 20
105.0838906337786
 30
0.0
 10
93.9009202900588
 20
105.1040419248515
 30
0.0
 10
93.89928597971364
 20
105.1046864378581
 30
0.0
  0
SPLINE
  5
189
330
1F
100
AcDbEntity
  8
0
  6
Continuous
 62
     7
370
    25
100
AcDbSpline
210
0.0
220
0.0
230
1.0
 70
     8
 71
     3
 72
    11
 73
     7
 74
     0
 42
0.000000001
 43
0.00000001
 40
0.0
 40
0.0
 40
0.0
 40
0.0
 40
0.2435512231736109
 40
0.4981153923402301
 40
0.7509097881751967
 40
1.0
 40
1.0
 40
1.0
 40
1.0
 10
77.99056856870517
 20
105.9035946264819
 30
0.0
 10
78.01651949023163
 20
105.9118301630201
 30
0.0
 10
78.06959478703898
 20
105.9286736321695
 30
0.0
 10
78.5472897707018
 20
106.0695750743076
 30
0.0
 10
79.25862921896093
 20
106.2748656247577
 30
0.0
 10
79.95329386614121
 20
106.433516742954
 30
0.0
 10
80.29806268644866
 20
106.5122568358651
 30
0.0
  0
LINE
  5
18A
330
1F
100
AcDbEntity
  8
0
  6
Continuous
 62
     7
370
    25
100
AcDbLine
 10
91.2805887449
 20
125.0008417183
 30
0.0
 11
90.3856465917
 21
125.1630172034
 31
0.0
  0
LINE
  5
18B
330
1F
100
AcDbEntity
  8
0
  6
Continuous
 62
     7
370
    25
100
AcDbLine
 10
90.3856465917
 20
125.1630172034
 30
0.0
 11
90.3856465917
 21
129.3755172034
 31
0.0
  0
SPLINE
  5
18C
330
1F
100
AcDbEntity
  8
0
  6
Continuous
 62
     7
370
    25
100
AcDbSpline
210
0.0
220
0.0
230
1.0
 70
     8
 71
     3
 72
    25
 73
    21
 74
     0
 42
0.000000001
 43
0.00000001
 40
0.0
 40
0.0
 40
0.0
 40
0.0
 40
0.0288821753094393
 40
0.0583636593986225
 40
0.0884647204281144
 40
0.1192044006590791
 40
0.1506005800061348
 40
0.1826700399650394
 40
0.2154285269564808
 40
0.2488908143379647
 40
0.361059447113401
 40
0.4984670131067465
 40
0.5822693905006262
 40
0.6661127642782027
 40
0.7499972937224338
 40
0.8007709755032364
 40
0.8511237700807901
 40
0.9010896024506709
 40
0.9507031914109064
 40
1.0
 40
1.0
 40
1.0
 40
1.0
 10
86.38564659172171
 20
121.1630172033719
 30
0.0
 10
86.4484470449556
 20
121.1638736873236
 30
0.0
 10
86.57535106874722
 20
121.165604427377
 30
0.0
 10
86.76670547645142
 20
121.1797542927791
 30
0.0
 10
86.960610289124
 20
121.2028913750984
 30
0.0
 10
87.15651100985063
 20
121.2363025273219
 30
0.0
 10
87.35384867785712
 20
121.2801763493535
 30
0.0
 10
87.55200201964867
 20
121.3349716203231
 30
0.0
 10
87.75031776366693
 20
121.4010405816889
 30
0.0
 10
88.10163875116214
 20
121.5390219139383
 30
0.0
 10
88.62675052149022
 20
121.8190738527782
 30
0.0
 10
89.16374234997863
 20
122.2576644551833
 30
0.0
 10
89.57580208002832
 20
122.7315245767429
 30
0.0
 10
89.8627206680808
 20
123.1632083245627
 30
0.0
 10
90.061147355288
 20
123.5663315663229
 30
0.0
 10
90.19323322933631
 20
123.9240677271019
 30
0.0
 10
90.2788671091341
 20
124.2268201293842
 30
0.0
 10
90.33994932048714
 20
124.5353084396299
 30
0.0
 10
90.37845026385264
 20
124.8476201497863
 30
0.0
 10
90.38325294294611
 20
125.0581095636877
 30
0.0
 10
90.3856465917217
 20
125.1630172033719
 30
0.0
  0
SPLINE
  5
18D
330
1F
100
AcDbEntity
  8
0
  6
Continuous
 62
     7
370
    25
100
AcDbSpline
210
0.0
220
0.0
230
1.0
 70
     8
 71
     3
 72
    13
 73
     9
 74
     0
 42
0.000000001
 43
0.00000001
 40
0.0
 40
0.0
 40
0.0
 40
0.0
 40
0.1722587823387897
 40
0.3421398270959865
 40
0.5097456257587107
 40
0.6751828992986529
 40
0.838562618995617
 40
1.0
 40
1.0
 40
1.0
 40
1.0
 10
83.38566496063193
 20
121.3130120261217
 30
0.0
 10
83.44652835029409
 20
121.2967482984248
 30
0.0
 10
83.5674150147228
 20
121.2644453359483
 30
0.0
 10
83.75047617267597
 20
121.2270576812565
 30
0.0
 10
83.93257885560992
 20
121.1979247463449
 30
0.0
 10
84.11352030393272
 20
121.1777380307364
 30
0.0
 10
84.29285930764811
 20
121.1652912264324
 30
0.0
 10
84.4117055360786
 20
121.1637721832046
 30
0.0
 10
84.47077331243224
 20
121.1630172033719
 30
0.0
  0
LINE
  5
18E
330
1F
100
AcDbEntity
  8
0
  6
Continuous
 62
     7
370
    25
100
AcDbLine
 10
84.4258311592
 20
119.8654824789
 30
0.0
 11
84.4707733124
 21
121.1630172034
 31
0.0
  0
SPLINE
  5
18F
330
1F
100
AcDbEntity
  8
0
  6
Continuous
 62
     7
370
    25
100
AcDbSpline
210
0.0
220
0.0
230
1.0
 70
     8
 71
     3
 72
    11
 73
     7
 74
     0
 42
0.000000001
 43
0.00000001
 40
0.0
 40
0.0
 40
0.0
 40
0.0
 40
0.2392913840897591
 40
0.5001130134987114
 40
0.7515028526612877
 40
1.0
 40
1.0
 40
1.0
 40
1.0
 10
83.05817409957575
 20
121.313590808395
 30
0.0
 10
82.98934916373716
 20
121.2420373713343
 30
0.0
 10
82.84550676758477
 20
121.0924924758057
 30
0.0
 10
82.63775796918965
 20
120.8635750491764
 30
0.0
 10
82.42977176439578
 20
120.6312566768991
 30
0.0
 10
82.29677084067217
 20
120.476480794268
 30
0.0
 10
82.23065519647415
 20
120.3995406731022
 30
0.0
  0
SPLINE
  5
190
330
1F
100
AcDbEntity
  8
0
  6
Continuous
 62
     7
370
    25
100
AcDbSpline
210
0.0
220
0.0
230
1.0
 70
    24
 71
     3
 72
     9
 73
     5
 74
     0
 42
0.000000001
 43
0.00000001
 40
0.0
 40
0.0
 40
0.0
 40
0.0
 40
0.5090839669866044
 40
1.0
 40
1.0
 40
1.0
 40
1.0
 10
83.06040436789517
 20
121.3130172033719
 30
0.0
 10
83.11513776800756
 20
121.3130172033719
 30
0.0
 10
83.22265127002638
 20
121.3130172033719
 30
0.0
 10
83.33204383039732
 20
121.3130172033719
 30
0.0
 10
83.38574639217582
 20
121.3130172033719
 30
0.0
  0
LINE
  5
191
330
1F
100
AcDbEntity
  8
0
  6
Continuous
 62
     7
370
    25
100
AcDbLine
 10
76.8117965033
 20
121.2929654296
 30
0.0
 11
76.8372109949
 21
120.395407259
 31
0.0
  0
SPLINE
  5
192
330
1F
100
AcDbEntity
  8
0
  6
Continuous
 62
     7
370
    25
100
AcDbSpline
210
0.0
220
0.0
230
1.0
 70
     8
 71
     3
 72
     8
 73
     4
 74
     0
 42
0.000000001
 43
0.00000001
 40
0.0
 40
0.0
 40
0.0
 40
0.0
 40
1.0
 40
1.0
 40
1.0
 40
1.0
 10
76.81180769444993
 20
121.2929659197111
 30
0.0
 10
76.83361055093197
 20
121.2986632507438
 30
0.0
 10
76.85536526032946
 20
121.3045448335388
 30
0.0
 10
76.87706871564754
 20
121.3106098280918
 30
0.0
  0
LINE
  5
193
330
1F
100
AcDbEntity
  8
0
  6
Continuous
 62
     7
370
    25
100
AcDbLine
 10
76.8856465918
 20
121.3130172034
 30
0.0
 11
83.0593195641
 21
121.3130172034
 31
0.0
  0
LINE
  5
194
330
1F
100
AcDbEntity
  8
0
  6
Continuous
 62
     7
370
    25
100
AcDbLine
 10
84.4707733124
 20
121.1630172034
 30
0.0
 11
86.3856465917
 21
121.1630172034
 31
0.0
  0
SPLINE
  5
195
330
1F
100
AcDbEntity
  8
0
  6
Continuous
 62
     7
370
    25
100
AcDbSpline
210
0.0
220
0.0
230
1.0
 70
     8
 71
     3
 72
    13
 73
     9
 74
     0
 42
0.000000001
 43
0.00000001
 40
0.0
 40
0.0
 40
0.0
 40
0.0
 40
0.1621004456877203
 40
0.32594345520649
 40
0.4915935308810087
 40
0.6591130874452793
 40
0.8285624736348074
 40
1.0
 40
1.0
 40
1.0
 40
1.0
 10
75.80051987101116
 20
121.1630172033719
 30
0.0
 10
75.8560748290872
 20
121.1636861695734
 30
0.0
 10
75.96778195556875
 20
121.1650312932972
 30
0.0
 10
76.13562964498131
 20
121.1759778620915
 30
0.0
 10
76.30441606385574
 20
121.1936167914152
 30
0.0
 10
76.47374042038102
 20
121.2189223054043
 30
0.0
 10
76.64348706853953
 20
121.2512263081956
 30
0.0
 10
76.7554799671807
 20
121.2789979080778
 30
0.0
 10
76.8118030022002
 20
121.2929646935766
 30
0.0
  0
LINE
  5
196
330
1F
100
AcDbEntity
  8
0
  6
Continuous
 62
     7
370
    25
100
AcDbLine
 10
69.0219867702
 20
120.6355154594
 30
0.0
 11
69.9356465918
 21
121.1630172034
 31
0.0
  0
LINE
  5
197
330
1F
100
AcDbEntity
  8
0
  6
Continuous
 62
     7
370
    25
100
AcDbLine
 10
69.9356465918
 20
121.1630172034
 30
0.0
 11
75.800519871
 21
121.1630172034
 31
0.0
  0
SPLINE
  5
198
330
1F
100
AcDbEntity
  8
0
  6
Continuous
 62
     7
370
    25
100
AcDbSpline
210
0.0
220
0.0
230
1.0
 70
     8
 71
     3
 72
     8
 73
     4
 74
     0
 42
0.000000001
 43
0.00000001
 40
0.0
 40
0.0
 40
0.0
 40
0.0
 40
1.0
 40
1.0
 40
1.0
 40
1.0
 10
69.93564659127074
 20
120.2531904919959
 30
0.0
 10
69.63109331756522
 20
120.3818813565427
 30
0.0
 10
69.32654004385968
 20
120.5093261128044
 30
0.0
 10
69.02198677015416
 20
120.6355154594421
 30
0.0
  0
LINE
  5
199
330
1F
100
AcDbEntity
  8
0
  6
Continuous
 62
     7
370
    25
100
AcDbLine
 10
68.4356465917
 20
107.1724224796
 30
0.0
 11
68.4356465917
 21
120.2969917996
 31
0.0
  0
SPLINE
  5
19A
330
1F
100
AcDbEntity
  8
0
  6
Continuous
 62
     7
370
    25
100
AcDbSpline
210
0.0
220
0.0
230
1.0
 70
    24
 71
     3
 72
     8
 73
     4
 74
     0
 42
0.000000001
 43
0.00000001
 40
0.0
 40
0.0
 40
0.0
 40
0.0
 40
1.0
 40
1.0
 40
1.0
 40
1.0
 10
69.02198677015416
 20
120.6355154594421
 30
0.0
 10
68.82565474449581
 20
120.5221631115778
 30
0.0
 10
68.6301937242556
 20
120.409313638926
 30
0.0
 10
68.4356465917217
 20
120.2969917995875
 30
0.0
  0
LINE
  5
19B
330
1F
100
AcDbEntity
  8
0
  6
Continuous
 62
     7
370
    25
100
AcDbLine
 10
100.1608870653
 20
147.6255172034
 30
0.0
 11
101.5856465917
 21
147.6255172034
 31
0.0
  0
ARC
  5
19C
330
1F
100
AcDbEntity
  8
0
  6
Continuous
 62
     7
370
    25
100
AcDbCircle
 10
101.5856465917
 20
146.8255172034
 30
0.0
 40
0.7999999999999972
100
AcDbArc
 50
0.0
 51
90.0
  0
ARC
  5
19D
330
1F
100
AcDbEntity
  8
0
  6
Continuous
 62
     7
370
    25
100
AcDbCircle
 10
100.1608870653
 20
146.8255172034
 30
0.0
 40
0.799999999999983
100
AcDbArc
 50
90.0
 51
120.0
  0
LINE
  5
19E
330
1F
100
AcDbEntity
  8
0
  6
Continuous
 62
     7
370
    25
100
AcDbLine
 10
98.8856465917
 20
147.0130172034
 30
0.0
 11
98.8856465917
 21
129.3755172034
 31
0.0
  0
LINE
  5
19F
330
1F
100
AcDbEntity
  8
0
  6
Continuous
 62
     7
370
    25
100
AcDbLine
 10
98.8856465917
 20
147.0130172034
 30
0.0
 11
99.7608870653
 21
147.5183375264
 31
0.0
  0
LINE
  5
1A0
330
1F
100
AcDbEntity
  8
0
  6
Continuous
 62
     7
370
    25
100
AcDbLine
 10
69.1873126416
 20
120.7309663958
 30
0.0
 11
69.0508438692
 21
120.6521761133
 31
0.0
  0
SPLINE
  5
1A1
330
1F
100
AcDbEntity
  8
0
  6
Continuous
 62
     7
370
    25
100
AcDbSpline
210
0.0
220
0.0
230
1.0
 70
     8
 71
     3
 72
    32
 73
    28
 74
     0
 42
0.000000001
 43
0.00000001
 40
0.0
 40
0.0
 40
0.0
 40
0.0
 40
0.1249999999999999
 40
0.1249999999999999
 40
0.1874999999999998
 40
0.1874999999999998
 40
0.2499999999999998
 40
0.2499999999999998
 40
0.3124999999999997
 40
0.3124999999999997
 40
0.3749999999999997
 40
0.3749999999999997
 40
0.4999999999999988
 40
0.4999999999999988
 40
0.5624999999999984
 40
0.5624999999999984
 40
0.624999999999998
 40
0.624999999999998
 40
0.7499999999999982
 40
0.7499999999999982
 40
0.8124999999999987
 40
0.8124999999999987
 40
0.8749999999999991
 40
0.8749999999999991
 40
0.9374999999999996
 40
0.9374999999999996
 40
1.0
 40
1.0
 40
1.0
 40
1.0
 10
82.85327692306235
 20
145.5481859575815
 30
0.0
 10
82.36920267910835
 20
145.5485453502011
 30
0.0
 10
81.88580510854148
 20
145.5635045563824
 30
0.0
 10
81.16189975880546
 20
145.610488602891
 30
0.0
 10
80.92123732526862
 20
145.6302651580156
 30
0.0
 10
80.44989121619301
 20
145.6772292415147
 30
0.0
 10
80.21805539990275
 20
145.7044830906992
 30
0.0
 10
79.76235231334644
 20
145.7661110193117
 30
0.0
 10
79.53848399040511
 20
145.8004861201072
 30
0.0
 10
79.09915639839733
 20
145.8758055637602
 30
0.0
 10
78.88243900573093
 20
145.9170235145085
 30
0.0
 10
78.2560970270581
 20
146.0472603336893
 30
0.0
 10
77.8717043927047
 20
146.1423002455885
 30
0.0
 10
77.34416264708489
 20
146.2885672075409
 30
0.0
 10
77.17652849555377
 20
146.3379358427316
 30
0.0
 10
76.85812374831322
 20
146.4363395502318
 30
0.0
 10
76.70854287377408
 20
146.4850228148643
 30
0.0
 10
76.29552280422561
 20
146.6246456180327
 30
0.0
 10
76.06397103306648
 20
146.7102322966133
 30
0.0
 10
75.7806615179768
 20
146.8191953445293
 30
0.0
 10
75.69709383620498
 20
146.8522439971038
 30
0.0
 10
75.55516900388079
 20
146.9092473933441
 30
0.0
 10
75.49618089243823
 20
146.9334440989545
 30
0.0
 10
75.40146498872838
 20
146.9726463793336
 30
0.0
 10
75.36573702158164
 20
146.9876535458306
 30
0.0
 10
75.31777274386417
 20
147.0078625435576
 30
0.0
 10
75.3056464364307
 20
147.0130172033719
 30
0.0
 10
75.3056464364307
 20
147.0130172033719
 30
0.0
  0
SPLINE
  5
1A2
330
1F
100
AcDbEntity
  8
0
  6
Continuous
 62
     7
370
    25
100
AcDbSpline
210
0.0
220
0.0
230
1.0
 70
     8
 71
     3
 72
    31
 73
    27
 74
     0
 42
0.000000001
 43
0.00000001
 40
0.0
 40
0.0
 40
0.0
 40
0.0
 40
0.0161756722759847
 40
0.0323169137827048
 40
0.0484425619880497
 40
0.0645715089957316
 40
0.0807226353336706
 40
0.0969147439446124
 40
0.1131664955250916
 40
0.1294963463046601
 40
0.1459224892609383
 40
0.1624627996343446
 40
0.1791347854480437
 40
0.1959555435639593
 40
0.2945755146264602
 40
0.3932797312250051
 40
0.4928176221930983
 40
0.5924285912822688
 40
0.6939020917449267
 40
0.7927115381486415
 40
0.8267756331445548
 40
0.860804332498113
 40
0.8949846314027656
 40
0.9295010594372513
 40
0.9645328322475423
 40
1.0
 40
1.0
 40
1.0
 40
1.0
 10
93.86159598180578
 20
147.0130172033719
 30
0.0
 10
93.86086288135459
 20
147.012670811944
 30
0.0
 10
93.85939824089506
 20
147.0119787664005
 30
0.0
 10
93.84634186122997
 20
147.0063964043543
 30
0.0
 10
93.82532730070714
 20
146.9975296413603
 30
0.0
 10
93.79558009536646
 20
146.9850885406456
 30
0.0
 10
93.7573077827108
 20
146.9691978820907
 30
0.0
 10
93.71045510178966
 20
146.9498721382637
 30
0.0
 10
93.65503737175267
 20
146.9271560487443
 30
0.0
 10
93.59105140792221
 20
146.9010870443697
 30
0.0
 10
93.51849792377162
 20
146.8717045970015
 30
0.0
 10
93.43738122629199
 20
146.8390503496665
 30
0.0
 10
93.34768757154195
 20
146.8031579026316
 30
0.0
 10
93.09064172489134
 20
146.7009199949653
 30
0.0
 10
92.5626057392979
 20
146.4943957814986
 30
0.0
 10
91.5839710920513
 20
146.1573104681495
 30
0.0
 10
90.39809478913023
 20
145.8141656088191
 30
0.0
 10
89.02762852405418
 20
145.5170537081593
 30
0.0
 10
87.54177125208884
 20
145.3070102804264
 30
0.0
 10
86.32161861831821
 20
145.2487848775577
 30
0.0
 10
85.45519458536543
 20
145.2624772188176
 30
0.0
 10
84.92694965687876
 20
145.2878453044285
 30
0.0
 10
84.40217642566996
 20
145.3298679201458
 30
0.0
 10
83.88118718608222
 20
145.3881518833737
 30
0.0
 10
83.36394624103336
 20
145.4607754286192
 30
0.0
 10
83.02830912870854
 20
145.5196557463098
 30
0.0
 10
82.85945414065122
 20
145.5492777248555
 30
0.0
  0
LINE
  5
1A3
330
1F
100
AcDbEntity
  8
0
  6
Continuous
 62
     7
370
    25
100
AcDbLine
 10
93.8615959818
 20
147.0130172034
 30
0.0
 11
98.8856465917
 21
147.0130172034
 31
0.0
  0
LINE
  5
1A4
330
1F
100
AcDbEntity
  8
0
  6
Continuous
 62
     7
370
    25
100
AcDbLine
 10
91.0356465917
 20
133.4382906142
 30
0.0
 11
91.0356465917
 21
129.3755172034
 31
0.0
  0
SPLINE
  5
1A5
330
1F
100
AcDbEntity
  8
0
  6
Continuous
 62
     7
370
    25
100
AcDbSpline
210
0.0
220
0.0
230
1.0
 70
     8
 71
     3
 72
    25
 73
    21
 74
     0
 42
0.000000001
 43
0.00000001
 40
0.0
 40
0.0
 40
0.0
 40
0.0
 40
0.0278144320063459
 40
0.0555680196245752
 40
0.0833316253677715
 40
0.1111760352167582
 40
0.1391714221532259
 40
0.1673868326284758
 40
0.1958897140434715
 40
0.2247454979318968
 40
0.2540172492221455
 40
0.3796724410010767
 40
0.5056484635002251
 40
0.6297527290687337
 40
0.7535891720571736
 40
0.8038564806093723
 40
0.8533396843434523
 40
0.9023264398358549
 40
0.9511131859219458
 40
1.0
 40
1.0
 40
1.0
 40
1.0
 10
86.3856465917217
 20
137.9230137857369
 30
0.0
 10
86.45430194568401
 20
137.9224807006298
 30
0.0
 10
86.59146246923669
 20
137.9214156965454
 30
0.0
 10
86.79670505182246
 20
137.9083207991532
 30
0.0
 10
87.00102606831955
 20
137.8867823125807
 30
0.0
 10
87.20442712040854
 20
137.8559608407321
 30
0.0
 10
87.40690275125442
 20
137.8160480882246
 30
0.0
 10
87.60845161550208
 20
137.7669478952836
 30
0.0
 10
87.80906563630474
 20
137.7086346477718
 30
0.0
 10
88.00876340063704
 20
137.641042704905
 30
0.0
 10
88.42432822131508
 20
137.4802291887899
 30
0.0
 10
89.0271046378569
 20
137.1662522894477
 30
0.0
 10
89.7211611933618
 20
136.6026808139552
 30
0.0
 10
90.28793482276123
 20
135.9269365947011
 30
0.0
 10
90.62551262843154
 20
135.309574767224
 30
0.0
 10
90.81397503772104
 20
134.8175133277127
 30
0.0
 10
90.9132362552455
 20
134.4798615451663
 30
0.0
 10
90.98358084395238
 20
134.1372304031428
 30
0.0
 10
91.02757944247098
 20
133.7898657027012
 30
0.0
 10
91.03295570595125
 20
133.5555623260944
 30
0.0
 10
91.0356465917217
 20
133.4382906141716
 30
0.0
  0
LINE
  5
1A6
330
1F
100
AcDbEntity
  8
0
  6
Continuous
 62
     7
370
    25
100
AcDbLine
 10
84.4707733124
 20
137.9230137857
 30
0.0
 11
86.3856465917
 21
137.9230137857
 31
0.0
  0
SPLINE
  5
1A7
330
1F
100
AcDbEntity
  8
0
  6
Continuous
 62
     7
370
    25
100
AcDbSpline
210
0.0
220
0.0
230
1.0
 70
     8
 71
     3
 72
    12
 73
     8
 74
     0
 42
0.000000001
 43
0.00000001
 40
0.0
 40
0.0
 40
0.0
 40
0.0
 40
0.1992838849048542
 40
0.3984605265906603
 40
0.5979968005081432
 40
0.79835706849064
 40
1.0
 40
1.0
 40
1.0
 40
1.0
 10
83.4697394701445
 20
137.8208194730128
 30
0.0
 10
83.53519274744403
 20
137.8338418257775
 30
0.0
 10
83.66606407882288
 20
137.8598795234195
 30
0.0
 10
83.86491353044003
 20
137.8883100823938
 30
0.0
 10
84.06532004630084
 20
137.9087412433755
 30
0.0
 10
84.26749096370415
 20
137.9211803204463
 30
0.0
 10
84.4028685473447
 20
137.922401332021
 30
0.0
 10
84.47077331243224
 20
137.9230137857369
 30
0.0
  0
LINE
  5
1A8
330
1F
100
AcDbEntity
  8
0
  6
Continuous
 62
     7
370
    25
100
AcDbLine
 10
78.0449764625
 20
137.8206555489
 30
0.0
 11
83.4689664811
 21
137.8206555489
 31
0.0
  0
SPLINE
  5
1A9
330
1F
100
AcDbEntity
  8
0
  6
Continuous
 62
     7
370
    25
100
AcDbSpline
210
0.0
220
0.0
230
1.0
 70
     8
 71
     3
 72
    24
 73
    20
 74
     0
 42
0.000000001
 43
0.00000001
 40
0.0
 40
0.0
 40
0.0
 40
0.0
 40
0.0410257106277056
 40
0.0818520099058079
 40
0.1225800578328279
 40
0.1633117464027038
 40
0.2041489402772657
 40
0.2451927184714171
 40
0.2865426449201731
 40
0.3282960933615133
 40
0.3705476475467034
 40
0.4133885920081624
 40
0.4569065022338602
 40
0.5011849368583825
 40
0.6001856774930499
 40
0.6987388860423923
 40
0.7976800645430001
 40
0.8978349910013272
 40
1.0
 40
1.0
 40
1.0
 40
1.0
 10
74.27298955557157
 20
139.7582973660348
 30
0.0
 10
74.33602864352443
 20
139.7577626657197
 30
0.0
 10
74.46180040890334
 20
139.7566958640771
 30
0.0
 10
74.64973857041008
 20
139.7455523720788
 30
0.0
 10
74.83632866323148
 20
139.7273908737712
 30
0.0
 10
75.02157044576435
 20
139.7015159530497
 30
0.0
 10
75.20545962899092
 20
139.668079067238
 30
0.0
 10
75.38799329496322
 20
139.6269950456944
 30
0.0
 10
75.56916870190294
 20
139.5782322976009
 30
0.0
 10
75.74898348588047
 20
139.5217348094572
 30
0.0
 10
75.92743668496226
 20
139.4574437146549
 30
0.0
 10
76.10452472311508
 20
139.3852900347225
 30
0.0
 10
76.28025684740483
 20
139.3052028496838
 30
0.0
 10
76.52527148100368
 20
139.181361963004
 30
0.0
 10
76.82945456018709
 20
139.0027369808146
 30
0.0
 10
77.17676204163114
 20
138.7536477967603
 30
0.0
 10
77.49593630510354
 20
138.4740782117806
 30
0.0
 10
77.78984820736927
 20
138.1652525738051
 30
0.0
 10
77.95937229406162
 20
137.9371605304998
 30
0.0
 10
78.04497646254505
 20
137.8219814424669
 30
0.0
  0
LINE
  5
1AA
330
1F
100
AcDbEntity
  8
0
  6
Continuous
 62
     7
370
    25
100
AcDbLine
 10
71.4814478387
 20
139.758297366
 30
0.0
 11
74.2729895556
 21
139.758297366
 31
0.0
  0
SPLINE
  5
1AB
330
1F
100
AcDbEntity
  8
0
  6
Continuous
 62
     7
370
    25
100
AcDbSpline
210
0.0
220
0.0
230
1.0
 70
     8
 71
     3
 72
     8
 73
     4
 74
     0
 42
0.000000001
 43
0.00000001
 40
0.0
 40
0.0
 40
0.0
 40
0.0
 40
1.0
 40
1.0
 40
1.0
 40
1.0
 10
71.43564376696295
 20
139.8217503570445
 30
0.0
 10
71.45091179086063
 20
139.8006338866464
 30
0.0
 10
71.46617981475833
 20
139.7794828195937
 30
0.0
 10
71.48144783865601
 20
139.7582973660348
 30
0.0
  0
LINE
  5
1AC
330
1F
100
AcDbEntity
  8
0
  6
Continuous
 62
     7
370
    25
100
AcDbLine
 10
71.4356465917
 20
147.0130172034
 30
0.0
 11
71.4356465917
 21
139.821750357
 31
0.0
  0
LINE
  5
1AD
330
1F
100
AcDbEntity
  8
0
  6
Continuous
 62
     7
370
    25
100
AcDbLine
 10
71.4356465917
 20
147.0130172034
 30
0.0
 11
75.3056464364
 21
147.0130172034
 31
0.0
  0
ARC
  5
1AE
330
1F
100
AcDbEntity
  8
0
  6
Continuous
 62
     7
370
    25
100
AcDbCircle
 10
129.3856465917
 20
145.8755172034
 30
0.0
 40
3.0
100
AcDbArc
 50
180.0
 51
270.0
  0
ARC
  5
1AF
330
1F
100
AcDbEntity
  8
0
  6
Continuous
 62
     7
370
    25
100
AcDbCircle
 10
106.0856465917
 20
143.7255172034
 30
0.0
 40
1.199999999999989
100
AcDbArc
 50
0.0
 51
90.0
  0
LINE
  5
1B0
330
1F
100
AcDbEntity
  8
0
  6
Continuous
 62
     7
370
    25
100
AcDbLine
 10
102.3856465917
 20
144.9255172034
 30
0.0
 11
106.0856465917
 21
144.9255172034
 31
0.0
  0
LINE
  5
1B1
330
1F
100
AcDbEntity
  8
0
  6
Continuous
 62
     7
370
    25
100
AcDbLine
 10
102.3856465917
 20
144.9255172034
 30
0.0
 11
102.3856465917
 21
129.3755172034
 31
0.0
  0
LINE
  5
1B2
330
1F
100
AcDbEntity
  8
0
  6
Continuous
 62
     7
370
    25
100
AcDbLine
 10
190.2670323832
 20
115.8755172034
 30
0.0
 11
190.2670323832
 21
129.3755172034
 31
0.0
  0
LINE
  5
1B3
330
1F
100
AcDbEntity
  8
0
  6
Continuous
 62
     7
370
    25
100
AcDbLine
 10
190.2670323832
 20
142.8755172034
 30
0.0
 11
129.3856465917
 21
142.8755172034
 31
0.0
  0
LINE
  5
1B4
330
1F
100
AcDbEntity
  8
0
  6
Continuous
 62
     7
370
    25
100
AcDbLine
 10
226.5425647832
 20
140.0205708875
 30
0.0
 11
190.2670323832
 21
142.8755172034
 31
0.0
  0
LINE
  5
1B5
330
1F
100
AcDbEntity
  8
0
  6
Continuous
 62
     7
370
    25
100
AcDbLine
 10
228.3856465917
 20
120.7242983569
 30
0.0
 11
228.3856465917
 21
129.3755172034
 31
0.0
  0
ARC
  5
1B6
330
1F
100
AcDbEntity
  8
0
  6
Continuous
 62
     7
370
    25
100
AcDbCircle
 10
226.3856465917
 20
138.0267362201
 30
0.0
 40
2.0
100
AcDbArc
 50
0.0
 51
85.5
  0
LINE
  5
1B7
330
1F
100
AcDbEntity
  8
0
  6
Continuous
 62
     7
370
    25
100
AcDbLine
 10
111.1106465917
 20
135.1255172034
 30
0.0
 11
111.9356465917
 21
135.1255172034
 31
0.0
  0
LINE
  5
1B8
330
1F
100
AcDbEntity
  8
0
  6
Continuous
 62
     7
370
    25
100
AcDbLine
 10
107.6856465917
 20
134.3755172034
 30
0.0
 11
107.6856465917
 21
129.3755172034
 31
0.0
  0
LINE
  5
1B9
330
1F
100
AcDbEntity
  8
0
  6
Continuous
 62
     7
370
    25
100
AcDbLine
 10
107.2856465917
 20
134.606457311
 30
0.0
 11
107.6856465917
 21
134.3755172034
 31
0.0
  0
LINE
  5
1BA
330
1F
100
AcDbEntity
  8
0
  6
Continuous
 62
     7
370
    25
100
AcDbLine
 10
107.2856465917
 20
134.606457311
 30
0.0
 11
107.2856465917
 21
129.3755172034
 31
0.0
  0
LINE
  5
1BB
330
1F
100
AcDbEntity
  8
0
  6
Continuous
 62
     7
370
    25
100
AcDbLine
 10
107.6856465917
 20
134.3755172034
 30
0.0
 11
111.1106465917
 21
134.3755172034
 31
0.0
  0
LINE
  5
1BC
330
1F
100
AcDbEntity
  8
0
  6
Continuous
 62
     7
370
    25
100
AcDbLine
 10
111.1106465917
 20
134.3755172034
 30
0.0
 11
111.1106465917
 21
129.3755172034
 31
0.0
  0
ARC
  5
1BD
330
1F
100
AcDbEntity
  8
0
  6
Continuous
 62
     7
370
    25
100
AcDbCircle
 10
227.8856465917
 20
133.4122114514
 30
0.0
 40
0.5
100
AcDbArc
 50
280.0
 51
0.0
  0
LINE
  5
1BE
330
1F
100
AcDbEntity
  8
0
  6
Continuous
 62
     7
370
    25
100
AcDbLine
 10
228.3856465917
 20
133.4122114514
 30
0.0
 11
228.3856465917
 21
129.3755172034
 31
0.0
  0
LINE
  5
1BF
330
1F
100
AcDbEntity
  8
0
  6
Continuous
 62
     7
370
    25
100
AcDbLine
 10
169.5272817679
 20
131.4755172034
 30
0.0
 11
169.5272817679
 21
129.3755172034
 31
0.0
  0
LINE
  5
1C0
330
1F
100
AcDbEntity
  8
0
  6
Continuous
 62
     7
370
    25
100
AcDbLine
 10
168.3856465917
 20
133.3755172034
 30
0.0
 11
168.3856465917
 21
129.3755172034
 31
0.0
  0
LINE
  5
1C1
330
1F
100
AcDbEntity
  8
0
  6
Continuous
 62
     7
370
    25
100
AcDbLine
 10
168.3856465917
 20
133.3755172034
 30
0.0
 11
169.5272817679
 21
131.4755172034
 31
0.0
  0
LINE
  5
1C2
330
1F
100
AcDbEntity
  8
0
  6
Continuous
 62
     7
370
    25
100
AcDbLine
 10
111.9356465917
 20
133.3755172034
 30
0.0
 11
168.3856465917
 21
133.3755172034
 31
0.0
  0
LINE
  5
1C3
330
1F
100
AcDbEntity
  8
0
  6
Continuous
 62
     7
370
    25
100
AcDbLine
 10
111.9356465917
 20
133.3755172034
 30
0.0
 11
111.9356465917
 21
129.3755172034
 31
0.0
  0
LINE
  5
1C4
330
1F
100
AcDbEntity
  8
0
  6
Continuous
 62
     7
370
    25
100
AcDbLine
 10
224.8856465917
 20
132.3755172034
 30
0.0
 11
224.8856465917
 21
129.3755172034
 31
0.0
  0
LINE
  5
1C5
330
1F
100
AcDbEntity
  8
0
  6
Continuous
 62
     7
370
    25
100
AcDbLine
 10
224.8856465917
 20
132.3755172034
 30
0.0
 11
227.9724706806
 21
132.9198075749
 31
0.0
  0
ARC
  5
1C6
330
1F
100
AcDbEntity
  8
0
  6
Continuous
 62
     7
370
    25
100
AcDbCircle
 10
205.4908725736
 20
132.2755172034
 30
0.0
 40
0.4000000000000111
100
AcDbArc
 50
70.0
 51
90.0
  0
LINE
  5
1C7
330
1F
100
AcDbEntity
  8
0
  6
Continuous
 62
     7
370
    25
100
AcDbLine
 10
192.2856465917
 20
132.6755172034
 30
0.0
 11
205.4908725736
 21
132.6755172034
 31
0.0
  0
ARC
  5
1C8
330
1F
100
AcDbEntity
  8
0
  6
Continuous
 62
     7
370
    25
100
AcDbCircle
 10
192.2856465917
 20
132.2755172034
 30
0.0
 40
0.4000000000000057
100
AcDbArc
 50
90.0
 51
180.0
  0
LINE
  5
1C9
330
1F
100
AcDbEntity
  8
0
  6
Continuous
 62
     7
370
    25
100
AcDbLine
 10
206.3856465917
 20
132.3755172034
 30
0.0
 11
206.3856465917
 21
129.3755172034
 31
0.0
  0
LINE
  5
1CA
330
1F
100
AcDbEntity
  8
0
  6
Continuous
 62
     7
370
    25
100
AcDbLine
 10
205.6276806309
 20
132.6513942517
 30
0.0
 11
206.3856465917
 21
132.3755172034
 31
0.0
  0
LINE
  5
1CB
330
1F
100
AcDbEntity
  8
0
  6
Continuous
 62
     7
370
    25
100
AcDbLine
 10
206.3856465917
 20
132.3755172034
 30
0.0
 11
224.8856465917
 21
132.3755172034
 31
0.0
  0
LINE
  5
1CC
330
1F
100
AcDbEntity
  8
0
  6
Continuous
 62
     7
370
    25
100
AcDbLine
 10
191.4856465917
 20
131.4755172034
 30
0.0
 11
191.8856465917
 21
131.8755172034
 31
0.0
  0
LINE
  5
1CD
330
1F
100
AcDbEntity
  8
0
  6
Continuous
 62
     7
370
    25
100
AcDbLine
 10
169.5272817679
 20
131.4755172034
 30
0.0
 11
191.4856465917
 21
131.4755172034
 31
0.0
  0
SPLINE
  5
1CE
330
1F
100
AcDbEntity
  8
0
  6
Continuous
 62
     7
370
    25
100
AcDbSpline
210
0.0
220
0.0
230
1.0
 70
     8
 71
     3
 72
    37
 73
    33
 74
     0
 42
0.000000001
 43
0.00000001
 40
0.0
 40
0.0
 40
0.0
 40
0.0
 40
0.0114878548102388
 40
0.0231559765620913
 40
0.0350076484353386
 40
0.0470460033794195
 40
0.0592740307998747
 40
0.0716945830964655
 40
0.0843103820273647
 40
0.0971240248797207
 40
0.1101379904320027
 40
0.1233546446979295
 40
0.181151001098856
 40
0.2483631736114362
 40
0.2888373415758952
 40
0.3232297457524229
 40
0.3515392131431646
 40
0.3737664266256208
 40
0.4399300285917583
 40
0.4987424063270089
 40
0.5023253005651694
 40
0.5613100074514564
 40
0.6252595444338176
 40
0.6818650083849827
 40
0.7483890016987913
 40
0.7860781471950173
 40
0.8194856599780428
 40
0.8486127715267199
 40
0.8734622727747411
 40
0.9389926156602133
 40
0.998152373139359
 40
1.0
 40
1.0
 40
1.0
 40
1.0
 10
93.2356465917217
 20
152.8391695067252
 30
0.0
 10
93.23472014044319
 20
152.8387259897167
 30
0.0
 10
93.23285270005111
 20
152.8378319960492
 30
0.0
 10
93.21757963971143
 20
152.8306400185909
 30
0.0
 10
93.19267793724767
 20
152.8191887749985
 30
0.0
 10
93.15682366531195
 20
152.803039016224
 30
0.0
 10
93.10985615447443
 20
152.7823113366703
 30
0.0
 10
93.0513132440536
 20
152.7569728176685
 30
0.0
 10
92.98083510447601
 20
152.7270323971141
 30
0.0
 10
92.89806054019843
 20
152.692488423072
 30
0.0
 10
92.80264399508009
 20
152.6533386814575
 30
0.0
 10
92.57307516168726
 20
152.5606400102946
 30
0.0
 10
92.08865694771178
 20
152.3719171197824
 30
0.0
 10
91.30965697619281
 20
152.093827319819
 30
0.0
 10
90.51843852483384
 20
151.8432404525032
 30
0.0
 10
89.88738803163783
 20
151.668223691183
 30
0.0
 10
89.33435007526869
 20
151.5283890505754
 30
0.0
 10
88.54139214634601
 20
151.3479782052192
 30
0.0
 10
87.47105780597269
 20
151.1589118835662
 30
0.0
 10
86.49006752653696
 20
151.0536250758561
 30
0.0
 10
85.5621002973889
 20
150.9965923039015
 30
0.0
 10
84.5896448036285
 20
150.9819977055319
 30
0.0
 10
83.2635145981952
 20
151.0601909220229
 30
0.0
 10
81.99347911370202
 20
151.2206706436171
 30
0.0
 10
81.03370311304104
 20
151.4057821818291
 30
0.0
 10
80.33505146570438
 20
151.5732717855566
 30
0.0
 10
79.89124332755243
 20
151.686894991763
 30
0.0
 10
79.55870626561385
 20
151.7800788266731
 30
0.0
 10
79.17154785536322
 20
151.8947436909356
 30
0.0
 10
78.83429989324783
 20
152.0020895000002
 30
0.0
 10
78.73657582691848
 20
152.0396550732845
 30
0.0
 10
78.73567390664657
 20
152.0397864820993
 30
0.0
 10
78.73564659172169
 20
152.0397904618546
 30
0.0
  0
LINE
  5
1CF
330
1F
100
AcDbEntity
  8
0
  6
Continuous
 62
     7
370
    25
100
AcDbLine
 10
93.2356465917
 20
152.8391695067
 30
0.0
 11
93.2356465917
 21
147.4817432241
 31
0.0
  0
SPLINE
  5
1D0
330
1F
100
AcDbEntity
  8
0
  6
Continuous
 62
     7
370
    25
100
AcDbSpline
210
0.0
220
0.0
230
1.0
 70
     8
 71
     3
 72
    30
 73
    26
 74
     0
 42
0.000000001
 43
0.00000001
 40
0.0
 40
0.0
 40
0.0
 40
0.0
 40
0.0192411700742985
 40
0.0381353539378557
 40
0.0566868884863279
 40
0.0749003554933497
 40
0.092780596728612
 40
0.1103327298328006
 40
0.1275621649290854
 40
0.1444746219341855
 40
0.2455865830527975
 40
0.3577720192516915
 40
0.4505017408947313
 40
0.5720127868620046
 40
0.616806984022437
 40
0.6590088499470669
 40
0.6986242498815297
 40
0.7356603299374107
 40
0.7701258931928815
 40
0.8073679165916016
 40
0.8483950324910916
 40
0.8881367798844462
 40
0.926626462213326
 40
0.963900744362977
 40
1.0
 40
1.0
 40
1.0
 40
1.0
 10
84.0648280011097
 20
145.8176519137805
 30
0.0
 10
84.14786048098973
 20
145.8065248084556
 30
0.0
 10
84.31242807206326
 20
145.7844712587894
 30
0.0
 10
84.56030958774467
 20
145.7564193695266
 30
0.0
 10
84.80558626318756
 20
145.7324678390006
 30
0.0
 10
85.04814409679904
 20
145.7129378868071
 30
0.0
 10
85.28757877390774
 20
145.6977455946304
 30
0.0
 10
85.5235919693143
 20
145.6869140333995
 30
0.0
 10
85.75591001462415
 20
145.6804334681464
 30
0.0
 10
86.36446078424565
 20
145.6748019765602
 30
0.0
 10
87.40277328146509
 20
145.7347753760457
 30
0.0
 10
88.71812480956281
 20
145.9341978492185
 30
0.0
 10
89.99767002245646
 20
146.2396792099024
 30
0.0
 10
90.88911056655563
 20
146.5196220128241
 30
0.0
 10
91.50677543542916
 20
146.7470711093446
 30
0.0
 10
91.85009852072098
 20
146.8773497698491
 30
0.0
 10
92.14178960561537
 20
146.993440707808
 30
0.0
 10
92.3863349614331
 20
147.0948089372088
 30
0.0
 10
92.59868964186448
 20
147.1861469897225
 30
0.0
 10
92.78975261648623
 20
147.2702220736645
 30
0.0
 10
92.95500002065901
 20
147.3452150276286
 30
0.0
 10
93.08454057090262
 20
147.4062035271743
 30
0.0
 10
93.17290694012253
 20
147.4494411889399
 30
0.0
 10
93.22605278538323
 20
147.476671274819
 30
0.0
 10
93.23248298132395
 20
147.480070720949
 30
0.0
 10
93.2356465917217
 20
147.4817432241235
 30
0.0
  0
SPLINE
  5
1D1
330
1F
100
AcDbEntity
  8
0
  6
Continuous
 62
     7
370
    25
100
AcDbSpline
210
0.0
220
0.0
230
1.0
 70
     8
 71
     3
 72
    38
 73
    34
 74
     0
 42
0.000000001
 43
0.00000001
 40
0.0
 40
0.0
 40
0.0
 40
0.0
 40
0.1250000000000007
 40
0.1250000000000007
 40
0.2500000000000013
 40
0.2500000000000013
 40
0.3125000000000014
 40
0.3125000000000014
 40
0.3750000000000015
 40
0.3750000000000015
 40
0.4375000000000016
 40
0.4375000000000016
 40
0.5000000000000017
 40
0.5000000000000017
 40
0.5625000000000019
 40
0.5625000000000019
 40
0.625000000000002
 40
0.625000000000002
 40
0.6875000000000021
 40
0.6875000000000021
 40
0.7187500000000019
 40
0.7187500000000019
 40
0.7500000000000018
 40
0.7500000000000018
 40
0.7812500000000016
 40
0.7812500000000016
 40
0.8125000000000014
 40
0.8125000000000014
 40
0.875000000000001
 40
0.875000000000001
 40
0.9375000000000006
 40
0.9375000000000006
 40
1.0
 40
1.0
 40
1.0
 40
1.0
 10
78.73564659172169
 20
151.9115650882758
 30
0.0
 10
78.73564659172186
 20
151.9115650882758
 30
0.0
 10
78.79745234928535
 20
151.8889210056138
 30
0.0
 10
79.04707489472092
 20
151.7963366165577
 30
0.0
 10
79.23080252565906
 20
151.727949036605
 30
0.0
 10
79.58719136224411
 20
151.5921069374032
 30
0.0
 10
79.72035182374967
 20
151.5409139523466
 30
0.0
 10
80.01143083444603
 20
151.4272253472343
 30
0.0
 10
80.16792078595533
 20
151.3652987397279
 30
0.0
 10
80.50130222724322
 20
151.2304136310374
 30
0.0
 10
80.67820598560634
 20
151.1574753767507
 30
0.0
 10
81.05144763307963
 20
150.9984994419549
 30
0.0
 10
81.24919162396074
 20
150.9118596720783
 30
0.0
 10
81.65521505721382
 20
150.7249419995259
 30
0.0
 10
81.86326845060081
 20
150.6249070857169
 30
0.0
 10
82.2855627233349
 20
150.4056435355379
 30
0.0
 10
82.49992802640998
 20
150.2866403438733
 30
0.0
 10
82.92777033798934
 20
150.0163664935495
 30
0.0
 10
83.14417198909594
 20
149.8631176680378
 30
0.0
 10
83.44280443197606
 20
149.5970491444546
 30
0.0
 10
83.53799702144575
 20
149.5022768981819
 30
0.0
 10
83.71562227330254
 20
149.296520040992
 30
0.0
 10
83.79823658393092
 20
149.1846614992215
 30
0.0
 10
83.94031685895254
 20
148.9511459949991
 30
0.0
 10
84.00070240819748
 20
148.8285849290434
 30
0.0
 10
84.10015290035236
 20
148.5721141658182
 30
0.0
 10
84.13944433937718
 20
148.4368741522685
 30
0.0
 10
84.22614092553027
 20
148.0285921493041
 30
0.0
 10
84.24484925252503
 20
147.7523319715192
 30
0.0
 10
84.24135323189336
 20
147.1955841928835
 30
0.0
 10
84.21887361168478
 20
146.9173539488928
 30
0.0
 10
84.15324596390269
 20
146.3659681287081
 30
0.0
 10
84.10974842021324
 20
146.0917144596057
 30
0.0
 10
84.06026887310321
 20
145.8182849876441
 30
0.0
  0
LINE
  5
1D2
330
1F
100
AcDbEntity
  8
0
  6
Continuous
 62
     7
370
    25
100
AcDbLine
 10
78.7356465917
 20
151.9115650883
 30
0.0
 11
78.7356465917
 21
152.0397904618
 31
0.0
  0
SPLINE
  5
1D3
330
1F
100
AcDbEntity
  8
0
  6
Continuous
 62
     7
370
    25
100
AcDbSpline
210
0.0
220
0.0
230
1.0
 70
     8
 71
     3
 72
    14
 73
    10
 74
     0
 42
0.000000001
 43
0.00000001
 40
0.0
 40
0.0
 40
0.0
 40
0.0
 40
0.0003951392850831
 40
0.0003951392850831
 40
0.0003951392850831
 40
0.0008159035679249
 40
0.0008159035679249
 40
0.0008159035679249
 40
0.0012369936130996
 40
0.0012369936130996
 40
0.0012369936130996
 40
0.0012369936130996
 10
82.86353054145324
 20
145.5504902003722
 30
0.0
 10
82.99203977955996
 20
145.5793641680856
 30
0.0
 10
83.12060328728896
 20
145.6080523815619
 30
0.0
 10
83.24915366557235
 20
145.6365552255994
 30
0.0
 10
83.38603891323594
 20
145.6669061192901
 30
0.0
 10
83.52293455913576
 20
145.6970520843191
 30
0.0
 10
83.65975482048482
 20
145.7270039038876
 30
0.0
 10
83.79668080942973
 20
145.7569788686675
 30
0.0
 10
83.9335578813939
 20
145.7867649181127
 30
0.0
 10
84.07029473058103
 20
145.8163873912814
 30
0.0
  0
LINE
  5
1D4
330
1F
100
AcDbEntity
  8
0
  6
Continuous
 62
     7
370
    25
100
AcDbLine
 10
75.3056464364
 20
147.0130172034
 30
0.0
 11
78.7356465917
 21
151.9115650883
 31
0.0
  0
LINE
  5
1D5
330
1F
100
AcDbEntity
  8
0
  6
Continuous
 62
     7
370
    25
100
AcDbLine
 10
77.9860847434
 20
152.848902913
 30
0.0
 11
78.7356747223
 21
152.0397915753
 31
0.0
  0
LINE
  5
1D6
330
1F
100
AcDbEntity
  8
0
  6
Continuous
 62
     7
370
    25
100
AcDbLine
 10
93.2356595398
 20
152.8391697626
 30
0.0
 11
93.9039896858
 21
153.6482815849
 31
0.0
  0
LINE
  5
1D7
330
1F
100
AcDbEntity
  8
0
  6
Continuous
 62
     7
370
    25
100
AcDbLine
 10
69.1873126416
 20
148.3110934147
 30
0.0
 11
71.4356465917
 21
147.0130172034
 31
0.0
  0
LINE
  5
1D8
330
1F
100
AcDbEntity
  8
0
  6
Continuous
 62
     7
370
    25
100
AcDbLine
 10
68.4356465917
 20
149.6130172034
 30
0.0
 11
69.1873126416
 21
148.3110934147
 31
0.0
  0
LINE
  5
1D9
330
1F
100
AcDbEntity
  8
0
  6
Continuous
 62
     7
370
    25
100
AcDbLine
 10
68.4356465917
 20
151.5786119272
 30
0.0
 11
68.4356465917
 21
149.6130172034
 31
0.0
  0
LINE
  5
1DA
330
1F
100
AcDbEntity
  8
0
  6
Continuous
 62
     7
370
    25
100
AcDbLine
 10
69.9356465917
 20
152.444637331
 30
0.0
 11
68.4356465917
 21
151.5786119272
 31
0.0
  0
LINE
  5
1DB
330
1F
100
AcDbEntity
  8
0
  6
Continuous
 62
     7
370
    25
100
AcDbLine
 10
116.4106465917
 20
158.2255172034
 30
0.0
 11
116.4106465917
 21
158.3231124676
 31
0.0
  0
ARC
  5
1DC
330
1F
100
AcDbEntity
  8
0
  6
Continuous
 62
     7
370
    25
100
AcDbCircle
 10
117.4106465917
 20
158.2255172034
 30
0.0
 40
1.000000000000014
100
AcDbArc
 50
180.0
 51
270.0
  0
LINE
  5
1DD
330
1F
100
AcDbEntity
  8
0
  6
Continuous
 62
     7
370
    25
100
AcDbLine
 10
119.1606465917
 20
157.2255172034
 30
0.0
 11
117.4106465917
 21
157.2255172034
 31
0.0
  0
ARC
  5
1DE
330
1F
100
AcDbEntity
  8
0
  6
Continuous
 62
     7
370
    25
100
AcDbCircle
 10
119.1606465917
 20
158.2255172034
 30
0.0
 40
1.0
100
AcDbArc
 50
270.0
 51
0.0
  0
LINE
  5
1DF
330
1F
100
AcDbEntity
  8
0
  6
Continuous
 62
     7
370
    25
100
AcDbLine
 10
120.1606465917
 20
158.3231124676
 30
0.0
 11
120.1606465917
 21
158.2255172034
 31
0.0
  0
LINE
  5
1E0
330
1F
100
AcDbEntity
  8
0
  6
Continuous
 62
     7
370
    25
100
AcDbLine
 10
121.6198443963
 20
160.8505172034
 30
0.0
 11
120.1606465917
 21
158.3231124676
 31
0.0
  0
LINE
  5
1E1
330
1F
100
AcDbEntity
  8
0
  6
Continuous
 62
     7
370
    25
100
AcDbLine
 10
93.8615957335
 20
147.0130184937
 30
0.0
 11
93.23564972
 21
147.481743349
 31
0.0
  0
LINE
  5
1E2
330
1F
100
AcDbEntity
  8
0
  6
Continuous
 62
     7
370
    25
100
AcDbLine
 10
116.4106465917
 20
158.3231124676
 30
0.0
 11
114.9514487872
 21
160.8505172034
 31
0.0
  0
LINE
  5
1E3
330
1F
100
AcDbEntity
  8
0
  6
Continuous
 62
     7
370
    25
100
AcDbLine
 10
191.8856465917
 20
131.8755172034
 30
0.0
 11
191.8856465917
 21
132.2755172034
 31
0.0
  0
LINE
  5
1E4
330
1F
100
AcDbEntity
  8
0
  6
Continuous
 62
     7
370
    25
100
AcDbLine
 10
111.9356465917
 20
135.1255172034
 30
0.0
 11
111.9356465917
 21
133.3755172034
 31
0.0
  0
LINE
  5
1E5
330
1F
100
AcDbEntity
  8
0
  6
Continuous
 62
     7
370
    25
100
AcDbLine
 10
111.1106465917
 20
134.3755172034
 30
0.0
 11
111.1106465917
 21
135.1255172034
 31
0.0
  0
LINE
  5
1E6
330
1F
100
AcDbEntity
  8
0
  6
Continuous
 62
     7
370
    25
100
AcDbLine
 10
228.3856465917
 20
133.4122114514
 30
0.0
 11
228.3856465917
 21
138.0267362201
 31
0.0
  0
LINE
  5
1E7
330
1F
100
AcDbEntity
  8
0
  6
Continuous
 62
     7
370
    25
100
AcDbLine
 10
107.2856465917
 20
143.7255172034
 30
0.0
 11
107.2856465917
 21
134.606457311
 31
0.0
  0
LINE
  5
1E8
330
1F
100
AcDbEntity
  8
0
  6
Continuous
 62
     7
370
    25
100
AcDbLine
 10
102.3856465917
 20
146.8255172034
 30
0.0
 11
102.3856465917
 21
144.9255172034
 31
0.0
  0
LINE
  5
1E9
330
1F
100
AcDbEntity
  8
0
  6
Continuous
 62
     7
370
    25
100
AcDbLine
 10
108.3856465917
 20
160.6505172034
 30
0.0
 11
108.3856465917
 21
156.2255172034
 31
0.0
  0
LINE
  5
1EA
330
1F
100
AcDbEntity
  8
0
  6
Continuous
 62
     7
370
    25
100
AcDbLine
 10
126.3856465917
 20
145.8755172034
 30
0.0
 11
126.3856465917
 21
160.6505172034
 31
0.0
  0
SPLINE
  5
1EB
330
1F
100
AcDbEntity
  8
0
  6
Continuous
 62
     7
370
    25
100
AcDbSpline
210
0.0
220
0.0
230
1.0
 70
     8
 71
     3
 72
     9
 73
     5
 74
     0
 42
0.000000001
 43
0.00000001
 40
0.0
 40
0.0
 40
0.0
 40
0.0
 40
0.5102121239851032
 40
1.0
 40
1.0
 40
1.0
 40
1.0
 10
69.2400099883928
 20
139.8371437200237
 30
0.0
 10
69.61487204537156
 20
139.834653802642
 30
0.0
 10
70.34959009568134
 20
139.8297736415
 30
0.0
 10
71.07859068613809
 20
139.8243887501136
 30
0.0
 10
71.4356463369515
 20
139.8217512955989
 30
0.0
  0
LINE
  5
1EC
330
1F
100
AcDbEntity
  8
0
  6
Continuous
 62
     7
370
    25
100
AcDbLine
 10
69.1873126416
 20
139.8675680109
 30
0.0
 11
69.2400099902
 21
139.8371431825
 31
0.0
  0
LINE
  5
1ED
330
1F
100
AcDbEntity
  8
0
  6
Continuous
 62
     7
370
    25
100
AcDbLine
 10
69.1873126416
 20
148.3110934147
 30
0.0
 11
69.1873126416
 21
139.8675680109
 31
0.0
  0
SPLINE
  5
1EE
330
1F
100
AcDbEntity
  8
0
  6
Continuous
 62
     7
370
    25
100
AcDbSpline
210
0.0
220
0.0
230
1.0
 70
    24
 71
     3
 72
     8
 73
     4
 74
     0
 42
0.000000001
 43
0.00000001
 40
0.0000004089325119
 40
0.0000004089325119
 40
0.0000004089325119
 40
0.0000004089325119
 40
0.0015399868451459
 40
0.0015399868451459
 40
0.0015399868451459
 40
0.0015399868451459
 10
68.4356465917217
 20
140.3015426071563
 30
0.0
 10
68.68663766774615
 20
140.1566328418494
 30
0.0
 10
68.93722686424911
 20
140.0119551017924
 30
0.0
 10
69.18731264156125
 20
139.8675680109408
 30
0.0
  0
LINE
  5
1EF
330
1F
100
AcDbEntity
  8
0
  6
Continuous
 62
     7
370
    25
100
AcDbLine
 10
68.4356465917
 20
149.6130172034
 30
0.0
 11
68.4356465917
 21
140.3015426072
 31
0.0
  0
SPLINE
  5
1F0
330
1F
100
AcDbEntity
  8
0
  6
Continuous
 62
     7
370
    25
100
AcDbSpline
210
0.0
220
0.0
230
1.0
 70
     8
 71
     3
 72
     8
 73
     4
 74
     0
 42
0.000000001
 43
0.00000001
 40
0.0
 40
0.0
 40
0.0
 40
0.0
 40
1.0
 40
1.0
 40
1.0
 40
1.0
 10
71.56532833447845
 20
139.4355178811084
 30
0.0
 10
71.53738011435892
 20
139.5433342350839
 30
0.0
 10
71.50942002619024
 20
139.6509280852502
 30
0.0
 10
71.48144783865601
 20
139.7582973660348
 30
0.0
  0
LINE
  5
1F1
330
1F
100
AcDbEntity
  8
0
  6
Continuous
 62
     7
370
    25
100
AcDbLine
 10
71.565331473
 20
139.4355172034
 30
0.0
 11
69.9356458049
 21
139.4355172034
 31
0.0
  0
LINE
  5
1F2
330
1F
100
AcDbEntity
  8
0
  6
Continuous
 62
     7
370
    25
100
AcDbLine
 10
69.9356460049
 20
139.4355175422
 30
0.0
 11
69.2400095269
 21
139.83714345
 31
0.0
  0
LINE
  5
1F3
330
1F
100
AcDbEntity
  8
0
  6
Continuous
 62
     7
370
    25
100
AcDbLine
 10
77.989607489
 20
137.4380172034
 30
0.0
 11
77.737435861
 21
137.4380172034
 31
0.0
  0
SPLINE
  5
1F4
330
1F
100
AcDbEntity
  8
0
  6
Continuous
 62
     7
370
    25
100
AcDbSpline
210
0.0
220
0.0
230
1.0
 70
     8
 71
     3
 72
    26
 73
    22
 74
     0
 42
0.000000001
 43
0.00000001
 40
0.0
 40
0.0
 40
0.0
 40
0.0
 40
0.0524616379916458
 40
0.1026498591861474
 40
0.1505655134537972
 40
0.1962095861908931
 40
0.2395832262515146
 40
0.2806877815543323
 40
0.3195248450324018
 40
0.3560963147377176
 40
0.3904044736499266
 40
0.4224520974393497
 40
0.4522426027388373
 40
0.4797802555350637
 40
0.5050704712281464
 40
0.5966394156800096
 40
0.6841917884819306
 40
0.7679874773571161
 40
0.8483228539139546
 40
0.9255341635201179
 40
1.0
 40
1.0
 40
1.0
 40
1.0
 10
77.73562936705231
 20
137.4380469874072
 30
0.0
 10
77.6999929680222
 20
137.4975939074876
 30
0.0
 10
77.63026446768592
 20
137.6141072912707
 30
0.0
 10
77.51678630692967
 20
137.7785052519956
 30
0.0
 10
77.40126075720792
 20
137.930666989794
 30
0.0
 10
77.28413906120058
 20
138.0705696867246
 30
0.0
 10
77.1667673607234
 20
138.1987840106275
 30
0.0
 10
77.0501463946912
 20
138.3157996895678
 30
0.0
 10
76.93524347424679
 20
138.4221768448125
 30
0.0
 10
76.82291924855717
 20
138.5184929252882
 30
0.0
 10
76.71395027452103
 20
138.6053422718427
 30
0.0
 10
76.60903123368202
 20
138.683322454039
 30
0.0
 10
76.50877390772982
 20
138.7530306510949
 30
0.0
 10
76.41373656514219
 20
138.8150406399993
 30
0.0
 10
76.24362966070798
 20
138.9195270772674
 30
0.0
 10
75.99071062930096
 20
139.0545857437828
 30
0.0
 10
75.6447294722398
 20
139.1989726361999
 30
0.0
 10
75.29677092291547
 20
139.3079405484449
 30
0.0
 10
74.95063116253941
 20
139.3824701307817
 30
0.0
 10
74.60956637910529
 20
139.4273988353311
 30
0.0
 10
74.38381976758964
 20
139.4328439341855
 30
0.0
 10
74.27298955557157
 20
139.4355172033719
 30
0.0
  0
SPLINE
  5
1F5
330
1F
100
AcDbEntity
  8
0
  6
Continuous
 62
     7
370
    25
100
AcDbSpline
210
0.0
220
0.0
230
1.0
 70
     8
 71
     3
 72
     8
 73
     4
 74
     0
 42
0.000000001
 43
0.00000001
 40
0.0
 40
0.0
 40
0.0
 40
0.0
 40
1.0
 40
1.0
 40
1.0
 40
1.0
 10
77.98960748895419
 20
137.4380172033717
 30
0.0
 10
78.01861219538176
 20
137.561954930234
 30
0.0
 10
78.03764471506321
 20
137.6899070604674
 30
0.0
 10
78.04589630725486
 20
137.8209763731589
 30
0.0
  0
LINE
  5
1F6
330
1F
100
AcDbEntity
  8
0
  6
Continuous
 62
     7
370
    25
100
AcDbLine
 10
74.2729895556
 20
139.4355172034
 30
0.0
 11
71.565331473
 21
139.4355172034
 31
0.0
  0
LINE
  5
1F7
330
1F
100
AcDbEntity
  8
0
  6
Continuous
 62
     7
370
    25
100
AcDbLine
 10
91.0356465917
 20
133.4382906142
 30
0.0
 11
90.3856465917
 21
133.5880172034
 31
0.0
  0
SPLINE
  5
1F8
330
1F
100
AcDbEntity
  8
0
  6
Continuous
 62
     7
370
    25
100
AcDbSpline
210
0.0
220
0.0
230
1.0
 70
     8
 71
     3
 72
    26
 73
    22
 74
     0
 42
0.000000001
 43
0.00000001
 40
0.0
 40
0.0
 40
0.0
 40
0.0
 40
0.0305951740619132
 40
0.0629166281945905
 40
0.0969720532990741
 40
0.1327680143378763
 40
0.1703101548900729
 40
0.2096033578568503
 40
0.2506518729757663
 40
0.3342141733901709
 40
0.4179517165478233
 40
0.5018670561022144
 40
0.5659795686765051
 40
0.6277136397901657
 40
0.6871358192149355
 40
0.7443207393909679
 40
0.7993521466062465
 40
0.8523240128016296
 40
0.9033417028108085
 40
0.9525231537651235
 40
1.0
 40
1.0
 40
1.0
 40
1.0
 10
90.3856465917217
 20
133.5880172033719
 30
0.0
 10
90.3847383798768
 20
133.6525523707689
 30
0.0
 10
90.3828707118958
 20
133.7852639913787
 30
0.0
 10
90.36727812283063
 20
133.9880780829218
 30
0.0
 10
90.34063426163942
 20
134.1997911238316
 30
0.0
 10
90.30047983255774
 20
134.419503117204
 30
0.0
 10
90.24558171587383
 20
134.646249988065
 30
0.0
 10
90.17433874726552
 20
134.8788809918285
 30
0.0
 10
90.05592635298767
 20
135.1942793062891
 30
0.0
 10
89.86779545658443
 20
135.5787612048147
 30
0.0
 10
89.58377869334998
 20
136.0087888193443
 30
0.0
 10
89.27436073679732
 20
136.3672755316886
 30
0.0
 10
88.95845112598978
 20
136.6590421879827
 30
0.0
 10
88.65170571785836
 20
136.8915012748239
 30
0.0
 10
88.33328660403001
 20
137.0883115093891
 30
0.0
 10
88.00731572786911
 20
137.2504122116464
 30
0.0
 10
87.67777689274295
 20
137.3788820951236
 30
0.0
 10
87.34821497789862
 20
137.4754659144933
 30
0.0
 10
87.02179665460488
 20
137.5413181437764
 30
0.0
 10
86.7012784623098
 20
137.5808830915994
 30
0.0
 10
86.48961294878598
 20
137.5856672898144
 30
0.0
 10
86.38564659172171
 20
137.5880172033719
 30
0.0
  0
SPLINE
  5
1F9
330
1F
100
AcDbEntity
  8
0
  6
Continuous
 62
     7
370
    25
100
AcDbSpline
210
0.0
220
0.0
230
1.0
 70
     8
 71
     3
 72
    13
 73
     9
 74
     0
 42
0.000000001
 43
0.00000001
 40
0.0
 40
0.0
 40
0.0
 40
0.0
 40
0.160406168812509
 40
0.3231296685880656
 40
0.4883154214487667
 40
0.6561019687086515
 40
0.826621511861129
 40
1.0
 40
1.0
 40
1.0
 40
1.0
 10
84.47077331243224
 20
137.5880172033719
 30
0.0
 10
84.41172336088665
 20
137.5872616333331
 30
0.0
 10
84.29277038411324
 20
137.5857395778035
 30
0.0
 10
84.11351675045303
 20
137.5732945186668
 30
0.0
 10
83.93258376874788
 20
137.553110337527
 30
0.0
 10
83.75045527436814
 20
137.5239749713822
 30
0.0
 10
83.56728826662841
 20
137.4865588195683
 30
0.0
 10
83.44654895180182
 20
137.4542929472232
 30
0.0
 10
83.38567742024652
 20
137.4380258922922
 30
0.0
  0
SPLINE
  5
1FA
330
1F
100
AcDbEntity
  8
0
  6
Continuous
 62
     7
370
    25
100
AcDbSpline
210
0.0
220
0.0
230
1.0
 70
    24
 71
     3
 72
    10
 73
     6
 74
     0
 42
0.000000001
 43
0.00000001
 40
0.0
 40
0.0
 40
0.0
 40
0.0
 40
0.3216623556917169
 40
0.6548175346390043
 40
1.0
 40
1.0
 40
1.0
 40
1.0
 10
83.38582542662645
 20
137.4380172033719
 30
0.0
 10
83.31727951876918
 20
137.4380172033719
 30
0.0
 10
83.17773859457193
 20
137.4380172033719
 30
0.0
 10
82.96813017922142
 20
137.4380172033719
 30
0.0
 10
82.82845318406758
 20
137.4380172033719
 30
0.0
 10
82.75737641286676
 20
137.4380172033719
 30
0.0
  0
SPLINE
  5
1FB
330
1F
100
AcDbEntity
  8
0
  6
Continuous
 62
     7
370
    25
100
AcDbSpline
210
0.0
220
0.0
230
1.0
 70
     8
 71
     3
 72
     8
 73
     4
 74
     0
 42
0.000000001
 43
0.00000001
 40
0.0
 40
0.0
 40
0.0
 40
0.0
 40
1.0
 40
1.0
 40
1.0
 40
1.0
 10
83.47197670816327
 20
137.8164635525702
 30
0.0
 10
83.20268037808931
 20
137.7197741673754
 30
0.0
 10
82.96651969266154
 20
137.5917749979931
 30
0.0
 10
82.75732217646622
 20
137.4382984003401
 30
0.0
  0
LINE
  5
1FC
330
1F
100
AcDbEntity
  8
0
  6
Continuous
 62
     7
370
    25
100
AcDbLine
 10
82.757867888
 20
121.3130172034
 30
0.0
 11
82.8773485963
 21
121.3130172034
 31
0.0
  0
LINE
  5
1FD
330
1F
100
AcDbEntity
  8
0
  6
Continuous
 62
     7
370
    25
100
AcDbLine
 10
86.3856465917
 20
137.5880172034
 30
0.0
 11
84.4707733124
 21
137.5880172034
 31
0.0
  0
LINE
  5
1FE
330
1F
100
AcDbEntity
  8
0
  6
Continuous
 62
     7
370
    25
100
AcDbLine
 10
82.7577347737
 20
137.4380172034
 30
0.0
 11
77.989607489
 21
137.4380172034
 31
0.0
  0
LINE
  5
1FF
330
1F
100
AcDbEntity
  8
0
  6
Continuous
 62
     7
370
    25
100
AcDbLine
 10
90.3856465917
 20
129.3755172034
 30
0.0
 11
90.3856465917
 21
133.5880172034
 31
0.0
  0
LINE
  5
200
330
1F
100
AcDbEntity
  8
VERMASSUNG
  6
CENTERX2
100
AcDbLine
 10
244.3806465917
 20
129.3755172034
 30
0.0
 11
52.4406465917
 21
129.3755172034
 31
0.0
  0
HATCH
  5
201
330
1F
100
AcDbEntity
  8
0
  6
Continuous
 62
     7
370
    18
100
AcDbHatch
 10
0.0
 20
0.0
 30
0.0
210
0.0
220
0.0
230
1.0
  2
ANSI31
 70
     0
 71
     0
 91
        1
 92
        0
 93
       51
 72
     1
 10
116.4106465917217
 20
158.3231124675636
 11
114.9514487871516
 21
160.8505172033719
 72
     1
 10
114.9514487871516
 20
160.8505172033719
 11
108.5856465917217
 21
160.8505172033719
 72
     2
 10
108.5856465917217
 20
160.6505172033719
 40
0.2000000000000028
 50
90.0
 51
180.0
 73
     1
 72
     1
 10
108.3856465917217
 20
160.6505172033719
 11
108.3856465917217
 21
156.2255172033719
 72
     1
 10
108.3856465917217
 20
156.2255172033719
 11
108.7196852777503
 21
155.1660818429753
 72
     2
 10
107.9567117171517
 20
154.9255172033719
 40
0.8000000000000032
 50
342.5000000000017
 51
467.5000000000012
 73
     0
 72
     1
 10
107.7161470775483
 20
154.1625436427733
 11
107.2254645516909
 21
154.3172552489002
 72
     1
 10
107.2254645516909
 20
154.3172552489002
 11
93.90399127917155
 21
153.648278275874
 72
     1
 10
93.90398968577287
 20
153.6482815849425
 11
93.23565953984337
 21
152.8391697625513
 72
     1
 10
93.23565953984337
 20
152.8391697625513
 11
93.23564659172168
 21
147.4817432241234
 72
     1
 10
93.23564971995538
 20
147.4817433490039
 11
93.86159573349755
 21
147.0130184936639
 72
     1
 10
93.86159598180646
 20
147.0130172033719
 11
98.88564659172171
 21
147.0130172033719
 72
     1
 10
98.88564659172171
 20
147.0130172033719
 11
99.76088706530253
 21
147.5183375263994
 72
     2
 10
100.1608870653025
 20
146.8255172033719
 40
0.7999999999999918
 50
240.0000000000002
 51
270.0000000000008
 73
     0
 72
     1
 10
100.1608870653025
 20
147.6255172033719
 11
101.5856465917217
 21
147.6255172033719
 72
     2
 10
101.5856465917217
 20
146.8255172033719
 40
0.7999999999999977
 50
270.0000000000008
 51
360.0000000000008
 73
     0
 72
     1
 10
102.3856465917217
 20
146.8255172033719
 11
102.3856465917217
 21
144.9255172033719
 72
     1
 10
102.3856465917217
 20
144.9255172033719
 11
106.0856465917217
 21
144.9255172033719
 72
     2
 10
106.0856465917217
 20
143.7255172033719
 40
1.2
 50
270.0000000000008
 51
360.0000000000008
 73
     0
 72
     1
 10
107.2856465917217
 20
143.7255172033719
 11
107.2856465917217
 21
134.6064573110478
 72
     1
 10
107.2856465917217
 20
134.6064573110478
 11
107.6856465917217
 21
134.3755172033719
 72
     1
 10
107.6856465917217
 20
134.3755172033719
 11
111.1106465917217
 21
134.3755172033719
 72
     1
 10
111.1106465917217
 20
134.3755172033719
 11
111.1106465917217
 21
135.1255172033719
 72
     1
 10
111.1106465917217
 20
135.1255172033719
 11
111.9356465917217
 21
135.1255172033719
 72
     1
 10
111.9356465917217
 20
135.1255172033719
 11
111.9356465917217
 21
133.3755172033719
 72
     1
 10
111.9356465917217
 20
133.3755172033719
 11
168.3856465917217
 21
133.375517203372
 72
     1
 10
168.3856465917217
 20
133.375517203372
 11
169.5272817678741
 21
131.4755172033719
 72
     1
 10
169.5272817678741
 20
131.4755172033719
 11
191.4856465917217
 21
131.475517203372
 72
     1
 10
191.4856465917217
 20
131.475517203372
 11
191.8856465917217
 21
131.8755172033719
 72
     1
 10
191.8856465917217
 20
131.8755172033719
 11
191.8856465917217
 21
132.275517203372
 72
     2
 10
192.2856465917217
 20
132.275517203372
 40
0.399999999999985
 50
180.0
 51
270.0000000000008
 73
     0
 72
     1
 10
192.2856465917217
 20
132.675517203372
 11
205.4908725736019
 21
132.675517203372
 72
     2
 10
205.4908725736019
 20
132.275517203372
 40
0.4000000000000002
 50
270.0000000000008
 51
289.9999999999986
 73
     0
 72
     1
 10
205.6276806309322
 20
132.6513942516864
 11
206.3856465917217
 21
132.375517203372
 72
     1
 10
206.3856465917217
 20
132.375517203372
 11
224.8856465917217
 21
132.375517203372
 72
     1
 10
224.8856465917217
 20
132.375517203372
 11
227.9724706805551
 21
132.9198075749341
 72
     2
 10
227.8856465917217
 20
133.4122114514402
 40
0.5000000000000013
 50
279.9999999999994
 51
360.0000000000008
 73
     1
 72
     1
 10
228.3856465917217
 20
133.4122114514402
 11
228.3856465917217
 21
138.0267362200556
 72
     2
 10
226.3856465917217
 20
138.0267362200556
 40
2.000000000000008
 50
0.0
 51
85.4999999999997
 73
     1
 72
     1
 10
226.5425647831774
 20
140.0205708875218
 11
190.2670323831975
 21
142.875517203372
 72
     1
 10
190.2670323831975
 20
142.875517203372
 11
129.3856465917217
 21
142.8755172033719
 72
     2
 10
129.3856465917217
 20
145.8755172033719
 40
3.0
 50
90.0
 51
180.0
 73
     0
 72
     1
 10
126.3856465917217
 20
145.8755172033719
 11
126.3856465917217
 21
160.6505172033719
 72
     2
 10
126.1856465917217
 20
160.6505172033719
 40
0.2
 50
0.0
 51
90.0
 73
     1
 72
     1
 10
126.1856465917217
 20
160.8505172033719
 11
121.6198443962918
 21
160.8505172033719
 72
     1
 10
121.6198443962918
 20
160.8505172033719
 11
120.1606465917217
 21
158.3231124675636
 72
     1
 10
120.1606465917217
 20
158.3231124675636
 11
120.1606465917217
 21
158.2255172033719
 72
     2
 10
119.1606465917217
 20
158.2255172033719
 40
1.000000000000003
 50
0.0
 51
90.0
 73
     0
 72
     1
 10
119.1606465917217
 20
157.2255172033719
 11
117.4106465917217
 21
157.2255172033719
 72
     2
 10
117.4106465917217
 20
158.2255172033719
 40
1.000000000000003
 50
90.0
 51
180.0
 73
     0
 72
     1
 10
116.4106465917217
 20
158.2255172033719
 11
116.4106465917217
 21
158.3231124675636
 97
        0
 75
     0
 76
     1
 52
0.0
 41
1.0
 77
     0
 78
     1
 53
45.0
 43
0.0
 44
0.0
 45
-2.245064030267288
 46
2.245064030267288
 79
     0
 98
        1
 10
0.0
 20
0.0
  0
HATCH
  5
202
330
1F
100
AcDbEntity
  8
0
  6
Continuous
 62
     7
370
    18
100
AcDbHatch
 10
0.0
 20
0.0
 30
0.0
210
0.0
220
0.0
230
1.0
  2
ANSI31
 70
     0
 71
     0
 91
        1
 92
        0
 93
        9
 72
     1
 10
78.73567472230984
 20
152.0397915752548
 11
77.98608474337414
 21
152.8489029130223
 72
     1
 10
77.98608474337414
 20
152.8489029130223
 11
69.93564659172169
 21
152.4446373309543
 72
     1
 10
69.93564659172169
 20
152.4446373309543
 11
68.43564659172169
 21
151.5786119271698
 72
     1
 10
68.43564659172169
 20
151.5786119271698
 11
68.43564659172169
 21
149.6130172033719
 72
     1
 10
68.43564659172169
 20
149.6130172033719
 11
69.18731264156122
 21
148.3110934147252
 72
     1
 10
69.18731264156122
 20
148.3110934147252
 11
71.43564659172169
 21
147.0130172033719
 72
     1
 10
71.43564659172169
 20
147.0130172033719
 11
75.30564643643065
 21
147.0130172033719
 72
     1
 10
75.30564643643065
 20
147.0130172033719
 11
78.73564659172169
 21
151.9115650882758
 72
     1
 10
78.73564659172168
 20
151.9115650882758
 11
78.73564659172168
 21
152.0397904617614
 97
        0
 75
     0
 76
     1
 52
0.0
 41
1.0
 77
     0
 78
     1
 53
45.0
 43
0.0
 44
0.0
 45
-2.245064030267288
 46
2.245064030267288
 79
     0
 98
        1
 10
0.0
 20
0.0
  0
HATCH
  5
203
330
1F
100
AcDbEntity
  8
0
  6
Continuous
 62
     7
370
    18
100
AcDbHatch
 10
0.0
 20
0.0
 30
0.0
210
0.0
220
0.0
230
1.0
  2
ANSI31
 70
     0
 71
     0
 91
        1
 92
        0
 93
       12
 72
     1
 10
192.2856465917217
 20
131.475517203372
 11
191.8856465917217
 21
131.8755172033719
 72
     1
 10
191.8856465917217
 20
131.8755172033719
 11
180.6856465917217
 21
131.8755172033719
 72
     1
 10
180.6856465917217
 20
131.8755172033719
 11
180.2856465917217
 21
131.475517203372
 72
     1
 10
180.2856465917217
 20
131.475517203372
 11
180.2856465917217
 21
130.925517203372
 72
     1
 10
180.2856465917217
 20
130.925517203372
 11
180.4983543349682
 21
130.7128094601254
 72
     1
 10
180.4983543349682
 20
130.7128094601254
 11
184.2856465916549
 21
130.7128094601254
 72
     1
 10
184.2856465916549
 20
130.7128094601254
 11
184.2856465916549
 21
130.6255172033719
 72
     1
 10
184.2856465916549
 20
130.6255172033719
 11
190.2856465917217
 21
130.6255172033719
 72
     1
 10
190.2856465917217
 20
130.6255172033719
 11
190.2856465917217
 21
130.7128094601254
 72
     1
 10
190.2856465917217
 20
130.7128094601254
 11
193.2856465917217
 21
130.7128094601254
 72
     1
 10
193.2856465917217
 20
130.7128094601254
 11
193.2856465917217
 21
131.475517203372
 72
     1
 10
193.2856465917217
 20
131.475517203372
 11
192.2856465917217
 21
131.475517203372
 97
        0
 75
     0
 76
     1
 52
0.0
 41
1.0
 77
     0
 78
     1
 53
45.0
 43
0.0
 44
0.0
 45
-2.245064030267288
 46
2.245064030267288
 79
     0
 98
        1
 10
0.0
 20
0.0
  0
POINT
  5
204
330
1F
100
AcDbEntity
  8
VERMASSUNG
100
AcDbPoint
 10
228.3856465917
 20
139.8755172034
 30
0.0
  0
POINT
  5
205
330
1F
100
AcDbEntity
  8
VERMASSUNG
100
AcDbPoint
 10
228.3856465917
 20
118.8755172034
 30
0.0
  0
DIMENSION
  5
206
330
1F
100
AcDbEntity
  8
VERMASSUNG
100
AcDbDimension
  2
_D
 10
259.8013708841
 20
118.8755172034
 30
0.0
 11
259.8013708841
 21
129.3755172034
 31
0.0
 70
   160
  1
<>
 71
     2
 42
-1.0
  3
SLDDIMSTYLE0
100
AcDbAlignedDimension
 13
228.3856465917
 23
139.8755172034
 33
0.0
 14
228.3856465917
 24
118.8755172034
 34
0.0
 50
90.0
100
AcDbRotatedDimension
  0
DIMENSION
  5
211
330
1F
100
AcDbEntity
  8
VERMASSUNG
100
AcDbDimension
  2
_D_1
 10
52.4406465917
 20
129.3755172034
 30
0.0
 11
199.0733967648
 21
151.5385702754
 31
0.0
 70
   162
  1
<>
 71
     1
 42
-1.0
  3
SLDDIMSTYLE1
100
AcDb2LineAngularDimension
 13
190.2670323832
 23
142.8755172034
 33
0.0
 14
226.5425647832
 24
140.0205708875
 34
0.0
 15
244.3806465917
 25
129.3755172034
 35
0.0
 16
197.6976715373
 26
135.8231465364
 36
0.0
  0
DIMENSION
  5
21B
330
1F
100
AcDbEntity
  8
VERMASSUNG
100
AcDbDimension
  2
_D_2
 10
252.3692692865
 20
126.3755172034
 30
0.0
 11
252.3692692865
 21
129.3755172034
 31
0.0
 70
   160
  1
%%c<>
 71
     2
 42
-1.0
  3
SLDDIMSTYLE2
100
AcDbAlignedDimension
 13
224.8856465917
 23
132.3755172034
 33
0.0
 14
224.8856465917
 24
126.3755172034
 34
0.0
 50
90.0
100
AcDbRotatedDimension
  0
DIMENSION
  5
225
330
1F
100
AcDbEntity
  8
VERMASSUNG
100
AcDbDimension
  2
_D_3
 10
268.3856465917
 20
115.8755172034
 30
0.0
 11
268.3856465917
 21
129.3755172034
 31
0.0
 70
   160
  1
<>
 71
     2
 42
-1.0
  3
SLDDIMSTYLE0
100
AcDbAlignedDimension
 13
190.2670323832
 23
142.8755172034
 33
0.0
 14
190.2670323832
 24
115.8755172034
 34
0.0
 50
90.0
100
AcDbRotatedDimension
  0
DIMENSION
  5
22F
330
1F
100
AcDbEntity
  8
VERMASSUNG
100
AcDbDimension
  2
_D_4
 10
228.3856465917
 20
98.1261490771
 30
0.0
 11
209.3263394875
 21
98.1261490771
 31
0.0
 70
   160
  1
<>
 71
     2
 42
-1.0
  3
SLDDIMSTYLE3
100
AcDbAlignedDimension
 13
190.2670323832
 23
115.8755172034
 33
0.0
 14
228.3856465917
 24
120.7242981867
 34
0.0
 50
0.0
100
AcDbRotatedDimension
  0
DIMENSION
  5
23A
330
1F
100
AcDbEntity
  8
VERMASSUNG
100
AcDbDimension
  2
_D_5
 10
126.3856465917
 20
90.6095081266
 30
0.0
 11
177.3856465917
 21
90.6095081266
 31
0.0
 70
   160
  1
<>
 71
     2
 42
-1.0
  3
SLDDIMSTYLE0
100
AcDbAlignedDimension
 13
228.3856465917
 23
120.7242981867
 33
0.0
 14
126.3856465917
 24
98.1005172034
 34
0.0
 50
0.0
100
AcDbRotatedDimension
  0
DIMENSION
  5
244
330
1F
100
AcDbEntity
  8
VERMASSUNG
100
AcDbDimension
  2
_D_6
 10
46.4356215917
 20
97.9005172034
 30
0.0
 11
46.4356215917
 21
129.3755172034
 31
0.0
 70
   160
  1
KM%%c<> XMZ
 71
     2
 42
-1.0
  3
SLDDIMSTYLE0
100
AcDbAlignedDimension
 13
108.5856465917
 23
160.8505172034
 33
0.0
 14
108.5856465917
 24
97.9005172034
 34
0.0
 50
90.0
100
AcDbRotatedDimension
  0
DIMENSION
  5
251
330
1F
100
AcDbEntity
  8
VERMASSUNG
100
AcDbDimension
  2
_D_7
 10
228.3856465917
 20
178.2409465364
 30
0.0
 11
148.4106465917
 21
178.2409465364
 31
0.0
 70
   160
  1
<>
 71
     2
 42
-1.0
  3
SLDDIMSTYLE0
100
AcDbAlignedDimension
 13
68.4356465917
 23
151.5786119272
 33
0.0
 14
228.3856465917
 24
138.0267362201
 34
0.0
 50
0.0
100
AcDbRotatedDimension
  0
DIMENSION
  5
25B
330
1F
100
AcDbEntity
  8
VERMASSUNG
100
AcDbDimension
  2
_D_8
 10
228.3856465917
 20
169.2763482011
 30
0.0
 11
168.3856465917
 21
169.2763482011
 31
0.0
 70
   160
  1
<>
 71
     2
 42
-1.0
  3
SLDDIMSTYLE0
100
AcDbAlignedDimension
 13
108.3856465917
 23
160.6505172034
 33
0.0
 14
228.3856465917
 24
138.0267362201
 34
0.0
 50
0.0
100
AcDbRotatedDimension
  0
LINE
  5
265
330
1F
100
AcDbEntity
  8
VERMASSUNG
  6
CENTERX2
370
    18
100
AcDbLine
 10
85.9856465917
 20
154.788823945
 30
0.0
 11
85.9856465917
 21
139.7865698728
 31
0.0
  0
LINE
  5
266
330
1F
100
AcDbEntity
  8
VERMASSUNG
  6
CENTERX2
370
    18
100
AcDbLine
 10
86.199830725
 20
150.302017956
 30
0.0
 11
78.8455638834
 21
139.7990364251
 31
0.0
  0
LINE
  5
267
330
1F
100
AcDbEntity
  8
0
  6
Continuous
 62
     7
370
    25
100
AcDbLine
 10
255.9678131674
 20
30.0483531567
 30
0.0
 11
269.4659955024
 21
23.9017229504
 31
0.0
  0
LINE
  5
268
330
1F
100
AcDbEntity
  8
0
  6
Continuous
 62
     7
370
    25
100
AcDbLine
 10
274.7798406927
 20
33.106570504
 30
0.0
 11
262.7068034969
 21
41.7218914146
 31
0.0
  0
SPLINE
  5
269
330
1F
100
AcDbEntity
  8
0
  6
Continuous
 62
     7
370
    25
100
AcDbSpline
210
0.0
220
0.0
230
1.0
 70
     8
 71
     3
 72
    28
 73
    24
 74
     0
 42
0.000000001
 43
0.00000001
 40
0.0
 40
0.0
 40
0.0
 40
0.0
 40
0.0240211744224515
 40
0.0696395420614969
 40
0.1158282927133162
 40
0.1635905801599953
 40
0.2133586162644557
 40
0.2648225961793782
 40
0.317189437060832
 40
0.3696620185668034
 40
0.4219505192013784
 40
0.4740600815648375
 40
0.526097082465967
 40
0.5782061021210161
 40
0.6304955399952645
 40
0.6831304307738422
 40
0.7362598110067885
 40
0.7899472794925093
 40
0.8439203644785602
 40
0.8914954147954857
 40
0.9371768392042175
 40
0.9814231168350797
 40
1.0
 40
1.0
 40
1.0
 40
1.0
 10
269.4856328056802
 20
23.90948716648963
 30
0.0
 10
269.5712033422179
 20
23.8681984611002
 30
0.0
 10
269.8192800129765
 20
23.74849879591879
 30
0.0
 10
270.2784983438379
 20
23.67108932906754
 30
0.0
 10
270.8388956682874
 20
23.66829813772025
 30
0.0
 10
271.420814413402
 20
23.7791822050295
 30
0.0
 10
272.0162398145115
 20
23.99744380610405
 30
0.0
 10
272.6159264313044
 20
24.32469828184711
 30
0.0
 10
273.2040482390257
 20
24.75394845570246
 30
0.0
 10
273.7641550918121
 20
25.2728831276828
 30
0.0
 10
274.2822586590028
 20
25.86628288994113
 30
0.0
 10
274.7476314572174
 20
26.51936781917311
 30
0.0
 10
275.1512030079329
 20
27.21782165698465
 30
0.0
 10
275.4846608542957
 20
27.94723818413978
 30
0.0
 10
275.7403798713832
 20
28.69338040241089
 30
0.0
 10
275.9112694157016
 20
29.44239501609846
 30
0.0
 10
275.9902535355741
 20
30.18094833611558
 30
0.0
 10
275.969975461219
 20
30.89496631988002
 30
0.0
 10
275.847211333837
 20
31.54194733930507
 30
0.0
 10
275.6341219461426
 20
32.10786379813963
 30
0.0
 10
275.3425477673036
 20
32.57484986418205
 30
0.0
 10
275.0585717082978
 20
32.90630054339179
 30
0.0
 10
274.850231980975
 20
33.0415085143478
 30
0.0
 10
274.7886256764839
 20
33.08148967173624
 30
0.0
  0
SPLINE
  5
26A
330
1F
100
AcDbEntity
  8
0
  6
Continuous
 62
     7
370
    25
100
AcDbSpline
210
0.0
220
0.0
230
1.0
 70
     8
 71
     3
 72
    11
 73
     7
 74
     0
 42
0.000000001
 43
0.00000001
 40
0.0
 40
0.0
 40
0.0
 40
0.0
 40
0.0565622117286787
 40
0.4314927851536346
 40
0.7925190198670087
 40
1.0
 40
1.0
 40
1.0
 40
1.0
 10
271.4919725313563
 20
26.84520035918421
 30
0.0
 10
271.4840926597363
 20
26.8499913164583
 30
0.0
 10
271.4239799511267
 20
26.88653980766062
 30
0.0
 10
271.3468758691967
 20
27.03263963461563
 30
0.0
 10
271.2805435282414
 20
27.25744999172279
 30
0.0
 10
271.2746204809819
 20
27.42901825170503
 30
0.0
 10
271.2724588203756
 20
27.4916333774435
 30
0.0
  0
SPLINE
  5
26B
330
1F
100
AcDbEntity
  8
0
  6
Continuous
 62
     7
370
    25
100
AcDbSpline
210
0.0
220
0.0
230
1.0
 70
     8
 71
     3
 72
    17
 73
    13
 74
     0
 42
0.000000001
 43
0.00000001
 40
0.0
 40
0.0
 40
0.0
 40
0.0
 40
0.0570058182669212
 40
0.1673157179839007
 40
0.2785042886428495
 40
0.3902674827577395
 40
0.5021388438635657
 40
0.6134239335745343
 40
0.7235772455080636
 40
0.8324202556953073
 40
0.9410208469964623
 40
1.0
 40
1.0
 40
1.0
 40
1.0
 10
271.2724588203756
 20
27.4916333774435
 30
0.0
 10
271.2745099910742
 20
27.5544600521561
 30
0.0
 10
271.2805303080978
 20
27.7388603556279
 30
0.0
 10
271.3501859997918
 20
28.08287694964333
 30
0.0
 10
271.5062724285274
 20
28.50573488206487
 30
0.0
 10
271.7314075082094
 20
28.91662434817133
 30
0.0
 10
272.0087580207251
 20
29.28463458548083
 30
0.0
 10
272.3172476598509
 20
29.58333222085305
 30
0.0
 10
272.6322237064885
 20
29.79382714115754
 30
0.0
 10
272.9229863193086
 20
29.90120266681701
 30
0.0
 10
273.1343958701158
 20
29.92119235733747
 30
0.0
 10
273.2228342184748
 20
29.88437188610811
 30
0.0
 10
273.2539598112537
 20
29.87141303946881
 30
0.0
  0
LINE
  5
26C
330
1F
100
AcDbEntity
  8
0
  6
Continuous
 62
     7
370
    25
100
AcDbLine
 10
234.2499099269
 20
42.5737512292
 30
0.0
 11
255.7747315397
 21
30.1477362073
 31
0.0
  0
LINE
  5
26D
330
1F
100
AcDbEntity
  8
0
  6
Continuous
 62
     7
370
    25
100
AcDbLine
 10
262.5241831779
 20
41.8393962648
 30
0.0
 11
240.9993615651
 21
54.2654112867
 31
0.0
  0
LINE
  5
26E
330
1F
100
AcDbEntity
  8
0
  6
Continuous
 62
     7
370
    25
100
AcDbLine
 10
227.0108995941
 20
36.3751529211
 30
0.0
 11
228.6251541851
 21
35.4432635815
 31
0.0
  0
LINE
  5
26F
330
1F
100
AcDbEntity
  8
0
  6
Continuous
 62
     7
370
    25
100
AcDbLine
 10
244.3613754996
 20
62.7021519753
 30
0.0
 11
242.7471209086
 21
63.6340413149
 31
0.0
  0
LINE
  5
270
330
1F
100
AcDbEntity
  8
0
  6
Continuous
 62
     7
370
    25
100
AcDbLine
 10
222.4026146627
 20
39.0354591858
 30
0.0
 11
224.6532656391
 21
37.7361860329
 31
0.0
  0
LINE
  5
271
330
1F
100
AcDbEntity
  8
0
  6
Continuous
 62
     7
370
    25
100
AcDbLine
 10
240.3894869536
 20
64.9950744267
 30
0.0
 11
238.1388359772
 21
66.2943475796
 31
0.0
  0
LINE
  5
272
330
1F
100
AcDbEntity
  8
0
  6
Continuous
 62
     7
370
    25
100
AcDbLine
 10
231.361446787
 20
66.0742294872
 30
0.0
 11
222.1642346034
 21
70.6548820971
 31
0.0
  0
LINE
  5
273
330
1F
100
AcDbEntity
  8
0
  6
Continuous
 62
     7
370
    25
100
AcDbLine
 10
210.6378868137
 20
50.6884986414
 30
0.0
 11
219.2039868194
 21
45.014609045
 31
0.0
  0
LINE
  5
274
330
1F
100
AcDbEntity
  8
0
  6
Continuous
 62
     7
370
    25
100
AcDbLine
 10
215.6173242554
 20
51.6349885071
 30
0.0
 11
215.6173242554
 21
51.2696698021
 31
0.0
  0
LINE
  5
275
330
1F
100
AcDbEntity
  8
0
  6
Continuous
 62
     7
370
    25
100
AcDbLine
 10
219.5152910157
 20
71.0318504738
 30
0.0
 11
218.875740907
 21
70.9446387183
 31
0.0
  0
LWPOLYLINE
  5
276
330
1F
100
AcDbEntity
  8
0
  6
Continuous
 62
     7
370
    25
100
AcDbPolyline
 90
       18
 70
   128
 43
0.0
 10
254.376486462
 20
33.2381887872
 10
254.4250686074
 20
34.0506243306
 10
254.5698255806
 20
34.9026125057
 10
254.8078103949
 20
35.776809189
 10
255.1341787969
 20
36.6554185301
 10
255.542286731
 20
37.5205543046
 10
256.0238263291
 20
38.3546053518
 10
256.5689944975
 20
39.1405922157
 10
257.1666936088
 20
39.8625147526
 10
257.8047560655
 20
40.5056764481
 10
258.4701927769
 20
41.0569848944
 10
259.1494573588
 20
41.5052168592
 10
259.8287219408
 20
41.8412470872
 10
260.4941586521
 20
42.0582355141
 10
261.1322211088
 20
42.1517650503
 10
261.7299202201
 20
42.1199312183
 10
262.2750883885
 20
41.9633821237
 10
262.7068034969
 20
41.7218914146
  0
ARC
  5
277
330
1F
100
AcDbEntity
  8
0
  6
Continuous
 62
     7
370
    25
100
AcDbCircle
 10
257.6428495764
 20
32.8758393445
 30
0.0
 40
3.286400023407073
100
AcDbArc
 50
173.6698546487
 51
239.3569957006
  0
ARC
  5
278
330
1F
100
AcDbEntity
  8
0
  6
Continuous
 62
     7
370
    25
100
AcDbCircle
 10
270.2679177461
 20
29.5754533519
 30
0.0
 40
2.178293841718431
100
AcDbArc
 50
297.7039227085
 51
2.0812430025
  0
LWPOLYLINE
  5
279
330
1F
100
AcDbEntity
  8
0
  6
Continuous
 62
     7
370
    25
100
AcDbPolyline
 90
       16
 70
   128
 43
0.0
 10
225.793357483
 20
46.4261172622
 10
225.8026706195
 20
46.4689194224
 10
226.1389603237
 20
47.8033926358
 10
226.5662444154
 20
49.149020526
 10
227.0807672151
 20
50.4939774869
 10
227.6780071563
 20
51.8264444483
 10
228.3527162978
 20
53.1347119148
 10
229.0989644462
 20
54.4072818636
 10
229.910194474
 20
55.6329711627
 10
230.7792763198
 20
56.8010089043
 10
231.698573172
 20
57.9011301264
 10
232.6600056776
 20
58.9236668718
 10
233.6551250396
 20
59.8596329729
 10
234.6751864456
 20
60.700802943
 10
235.7112248822
 20
61.4397846406
 10
236.4350815604
 20
61.8892539185
  0
ARC
  5
27A
330
1F
100
AcDbEntity
  8
0
  6
Continuous
 62
     7
370
    25
100
AcDbCircle
 10
241.4096745612
 20
57.7315298699
 30
0.0
 40
5.780970726912262
100
AcDbArc
 50
28.1234195806
 51
59.2969191992
  0
ARC
  5
27B
330
1F
100
AcDbEntity
  8
0
  6
Continuous
 62
     7
370
    25
100
AcDbCircle
 10
231.5240985472
 20
40.6871945301
 30
0.0
 40
5.991885363401811
100
AcDbArc
 50
241.0653511823
 51
278.6268618994
  0
LWPOLYLINE
  5
27C
330
1F
100
AcDbEntity
  8
0
  6
Continuous
 62
     7
370
    25
100
AcDbPolyline
 90
       15
 70
   128
 43
0.0
 10
228.4147801664
 20
35.6970946176
 10
228.4751535512
 20
35.6565399305
 10
229.2166601792
 20
35.2481816286
 10
230.0227351206
 20
34.9609540637
 10
230.8862950707
 20
34.7973833976
 10
231.7997503039
 20
34.7589057162
 10
232.7550738213
 20
34.8458597984
 10
233.7438701682
 20
35.0574804558
 10
234.7574495206
 20
35.3919093622
 10
235.7869047347
 20
35.8462068333
 10
236.8231888908
 20
36.4163798621
 10
237.8571951414
 20
37.0974190885
 10
238.8798363955
 20
37.8833387159
 10
239.8821259901
 20
38.7672322082
 10
240.2426395955
 20
39.1142219321
  0
LWPOLYLINE
  5
27D
330
1F
100
AcDbEntity
  8
0
  6
Continuous
 62
     7
370
    25
100
AcDbPolyline
 90
       14
 70
   128
 43
0.0
 10
246.9920909045
 20
50.8058817996
 10
247.0310668612
 20
50.9582513314
 10
247.3188600309
 20
52.2743228517
 10
247.5121382341
 20
53.5618993803
 10
247.6092044019
 20
54.809666577
 10
247.6092044019
 20
56.0066582668
 10
247.5121382341
 20
57.1423552518
 10
247.3188600309
 20
58.2067775169
 10
247.0310668612
 20
59.1905701162
 10
246.6512888533
 20
60.0850884406
 10
246.1828628521
 20
60.8824701312
 10
245.6299054192
 20
61.5757090376
 10
244.9972772718
 20
62.1587118748
 10
244.6041150053
 20
62.4390603311
  0
SPLINE
  5
27E
330
1F
100
AcDbEntity
  8
0
  6
Continuous
 62
     7
370
    25
100
AcDbSpline
210
0.0
220
0.0
230
1.0
 70
     8
 71
     3
 72
    25
 73
    21
 74
     0
 42
0.000000001
 43
0.00000001
 40
0.0
 40
0.0
 40
0.0
 40
0.0
 40
0.1249999999999998
 40
0.1249999999999998
 40
0.2499999999999997
 40
0.2499999999999997
 40
0.3749999999999995
 40
0.3749999999999995
 40
0.4999999999999993
 40
0.4999999999999993
 40
0.5624999999999996
 40
0.5624999999999996
 40
0.6249999999999998
 40
0.6875000000000001
 40
0.6875000000000001
 40
0.7500000000000003
 40
0.7500000000000003
 40
0.8750000000000001
 40
0.8750000000000001
 40
1.0
 40
1.0
 40
1.0
 40
1.0
 10
230.2694715504575
 20
59.03959054969818
 30
0.0
 10
230.2985948487186
 20
58.92840502916901
 30
0.0
 10
230.3109838895778
 20
58.81316281674097
 30
0.0
 10
230.3040064044776
 20
58.57406724890517
 30
0.0
 10
230.2839888166255
 20
58.44929327902991
 30
0.0
 10
230.2137666589123
 20
58.20292436981749
 30
0.0
 10
230.1631160043186
 20
58.07871322245636
 30
0.0
 10
230.0332012606634
 20
57.8350847271462
 30
0.0
 10
229.9555003126742
 20
57.71802763208804
 30
0.0
 10
229.820126730448
 20
57.54937111423801
 30
0.0
 10
229.7714922331409
 20
57.49400409296584
 30
0.0
 10
229.6700528977589
 20
57.38828428156882
 30
0.0
 10
229.5641829150182
 20
57.28712332294838
 30
0.0
 10
229.4495911226907
 20
57.19494900127157
 30
0.0
 10
229.3305084534725
 20
57.10741215853146
 30
0.0
 10
229.2685504404151
 20
57.06591368901928
 30
0.0
 10
229.0806867368945
 20
56.95179336728117
 30
0.0
 10
228.9513093005405
 20
56.88818593616658
 30
0.0
 10
228.6836260474784
 20
56.78691763519235
 30
0.0
 10
228.5477543610134
 20
56.75037672696754
 30
0.0
 10
228.4122370942858
 20
56.72920854261749
 30
0.0
  0
LWPOLYLINE
  5
27F
330
1F
100
AcDbEntity
  8
0
  6
Continuous
 62
     7
370
    25
100
AcDbPolyline
 90
       14
 70
   128
 43
0.0
 10
230.2694716622
 20
59.0395905822
 10
231.271457997
 20
60.0783179598
 10
232.3073208492
 20
61.02244875
 10
233.3673331871
 20
61.8631174385
 10
234.4415407399
 20
62.5924292395
 10
235.5198563345
 20
63.203534327
 10
236.5921541906
 20
63.690696719
 10
237.648364751
 20
64.0493398967
 10
238.678569718
 20
64.2760963441
 10
239.6730954022
 20
64.3688371024
 10
240.6226023252
 20
64.3266915576
 10
241.5181741238
 20
64.1500538957
 10
242.3514008552
 20
63.8405848063
 10
242.7471209086
 20
63.6340413149
  0
LWPOLYLINE
  5
280
330
1F
100
AcDbEntity
  8
0
  6
Continuous
 62
     7
370
    25
100
AcDbPolyline
 90
       20
 70
   128
 43
0.0
 10
227.0108995941
 20
36.3751529211
 10
226.9695245597
 20
36.3992916142
 10
226.2544953722
 20
36.905215581
 10
225.619155997
 20
37.5321768498
 10
225.0693753829
 20
38.2743801427
 10
224.6102342007
 20
39.1249686495
 10
224.2459747941
 20
40.0760829684
 10
223.9799623255
 20
41.1189348744
 10
223.8146551417
 20
42.2438886918
 10
223.7515810658
 20
43.4405502824
 10
223.7913215927
 20
44.6978619502
 10
223.9335105716
 20
46.0042070292
 10
224.1768342062
 20
47.3475150884
 10
224.519043567
 20
48.7153739684
 10
224.9569776405
 20
50.0951452629
 10
225.486589012
 20
51.4740798109
 10
226.1029846958
 20
52.8394365158
 10
226.8004695991
 20
54.1785998326
 10
227.5725985467
 20
55.4791964943
 10
228.4122368675
 20
56.7292080542
  0
LWPOLYLINE
  5
281
330
1F
100
AcDbEntity
  8
0
  6
Continuous
 62
     7
370
    25
100
AcDbPolyline
 90
       12
 70
   128
 43
0.0
 10
228.6068502698
 20
59.1638670628
 10
229.522429309
 20
60.1383489473
 10
230.4711420274
 20
61.027324127
 10
231.4440450612
 20
61.8224137104
 10
232.4319671491
 20
62.5161224615
 10
233.4255953194
 20
63.1019113682
 10
234.4155630112
 20
63.5742568794
 10
235.3925378257
 20
63.9287076456
 10
236.347310306
 20
64.1619220827
 10
237.2708801243
 20
64.2717013963
 10
238.1545408283
 20
64.2570111282
 10
238.407400846
 20
64.2287536958
  0
SPLINE
  5
282
330
1F
100
AcDbEntity
  8
0
  6
Continuous
 62
     7
370
    25
100
AcDbSpline
210
0.0
220
0.0
230
1.0
 70
     8
 71
     3
 72
    26
 73
    22
 74
     0
 42
0.000000001
 43
0.00000001
 40
0.0
 40
0.0
 40
0.0
 40
0.0
 40
0.1250000000000011
 40
0.1250000000000011
 40
0.2500000000000023
 40
0.2500000000000023
 40
0.3125000000000019
 40
0.3125000000000019
 40
0.3750000000000016
 40
0.3750000000000016
 40
0.4375000000000013
 40
0.4375000000000013
 40
0.500000000000001
 40
0.500000000000001
 40
0.5625000000000007
 40
0.5625000000000007
 40
0.6250000000000003
 40
0.6250000000000003
 40
0.7500000000000002
 40
0.7500000000000002
 40
1.0
 40
1.0
 40
1.0
 40
1.0
 10
227.26265706483
 20
57.49170377657301
 30
0.0
 10
227.2390194685979
 20
57.601279636146
 30
0.0
 10
227.2214516897162
 20
57.71216889451053
 30
0.0
 10
227.2026391068467
 20
57.93749885437348
 30
0.0
 10
227.2014593320794
 20
58.05317576769185
 30
0.0
 10
227.2175573353147
 20
58.22453127755141
 30
0.0
 10
227.2258760524149
 20
58.28132978964557
 30
0.0
 10
227.2496332016719
 20
58.39415600204266
 30
0.0
 10
227.2652555807209
 20
58.4506088557088
 30
0.0
 10
227.304112793118
 20
58.55919197211741
 30
0.0
 10
227.3273387498204
 20
58.61157193234294
 30
0.0
 10
227.3823373992988
 20
58.71202870761506
 30
0.0
 10
227.4144156663214
 20
58.7603075753865
 30
0.0
 10
227.4848304148565
 20
58.84800455097024
 30
0.0
 10
227.5234088369832
 20
58.8879936789462
 30
0.0
 10
227.6071171005794
 20
58.9604723630618
 30
0.0
 10
227.6522458105213
 20
58.99280898743842
 30
0.0
 10
227.7915264527114
 20
59.07600875479206
 30
0.0
 10
227.892315524273
 20
59.11483747742815
 30
0.0
 10
228.1953877955057
 20
59.19025376488332
 30
0.0
 10
228.4039118859907
 20
59.19012361851257
 30
0.0
 10
228.6068503056811
 20
59.16386738918634
 30
0.0
  0
LWPOLYLINE
  5
283
330
1F
100
AcDbEntity
  8
0
  6
Continuous
 62
     7
370
    25
100
AcDbPolyline
 90
       17
 70
   128
 43
0.0
 10
224.3256784359
 20
39.8358524865
 10
224.2652543431
 20
39.9155843253
 10
223.7790963724
 20
40.6855107869
 10
223.3869871186
 20
41.5609046266
 10
223.0929094587
 20
42.5328739485
 10
222.8998512093
 20
43.591544622
 10
222.8097728573
 20
44.7261620921
 10
222.8235897796
 20
45.9252006021
 10
222.9411617063
 20
47.1764799262
 10
223.1612940375
 20
48.467288754
 10
223.4817510147
 20
49.7845148239
 10
223.8992767939
 20
51.1147773364
 10
224.4096303483
 20
52.4445623131
 10
225.0076269571
 20
53.760361758
 10
225.6871922058
 20
55.0488088245
 10
226.4414232308
 20
56.2968158334
 10
227.2626572082
 20
57.4917035455
  0
LINE
  5
284
330
1F
100
AcDbEntity
  8
0
  6
Continuous
 62
     7
370
    25
100
AcDbLine
 10
225.7872647939
 20
37.2477826015
 30
0.0
 11
225.9089001048
 21
37.305267208
 31
0.0
  0
LWPOLYLINE
  5
285
330
1F
100
AcDbEntity
  8
0
  6
Continuous
 62
     7
370
    25
100
AcDbPolyline
 90
       38
 70
   128
 43
0.0
 10
225.7872647939
 20
37.2477826015
 10
224.9835869545
 20
37.5608725239
 10
224.2467862855
 20
37.9964420279
 10
223.5834001583
 20
38.5506269681
 10
222.9993139851
 20
39.2185100195
 10
222.4997111698
 20
39.9941663096
 10
222.0890230583
 20
40.8707136137
 10
221.7708946945
 20
41.8403754764
 10
221.548147283
 20
42.8945477559
 10
221.4227571159
 20
44.0238778089
 10
221.3958384506
 20
45.218346765
 10
221.4676277045
 20
46.4673556028
 10
221.6374900408
 20
47.7598239149
 10
221.9039173924
 20
49.084284205
 10
222.2645462431
 20
50.4289848814
 10
222.7161760667
 20
51.7819957225
 10
223.2548009368
 20
53.131312437
 10
223.8756417961
 20
54.4649635059
 10
224.5731905782
 20
55.7711170238
 10
225.3412576233
 20
57.0381829764
 10
226.1730283128
 20
58.2549208405
 10
227.0611243142
 20
59.4105342564
 10
227.9976648251
 20
60.4947710227
 10
228.9743413189
 20
61.4980118732
 10
229.982488173
 20
62.4113545968
 10
231.0131607067
 20
63.2266963503
 10
232.0572146178
 20
63.9368030902
 10
233.1053867369
 20
64.5353752031
 10
234.1483773456
 20
65.0171003501
 10
235.1769326587
 20
65.377706406
 10
236.1819272249
 20
65.613992298
 10
237.1544440223
 20
65.7238628371
 10
238.0858548008
 20
65.706343159
 10
238.9678961439
 20
65.5615876525
 10
239.7927415794
 20
65.2908820442
 10
240.5530740192
 20
64.8966266613
 10
241.2421460164
 20
64.3823210268
 10
241.4795249698
 20
64.1607721103
  0
LWPOLYLINE
  5
286
330
1F
100
AcDbEntity
  8
0
  6
Continuous
 62
     7
370
    25
100
AcDbPolyline
 90
       16
 70
   128
 43
0.0
 10
219.5708179606
 20
50.0183128664
 10
219.5801310971
 20
50.0611150266
 10
219.9164208013
 20
51.3955882401
 10
220.343704893
 20
52.7412161302
 10
220.8582276927
 20
54.0861730911
 10
221.4554676339
 20
55.4186400525
 10
222.1301767754
 20
56.726907519
 10
222.8764249238
 20
57.9994774679
 10
223.6876549516
 20
59.2251667669
 10
224.5567367974
 20
60.3932045086
 10
225.4760336496
 20
61.4933257307
 10
226.4374661552
 20
62.515862476
 10
227.4325855172
 20
63.4518285772
 10
228.4526469232
 20
64.2929985472
 10
229.4886853598
 20
65.0319802448
 10
230.2125420381
 20
65.4814495227
  0
LWPOLYLINE
  5
287
330
1F
100
AcDbEntity
  8
0
  6
Continuous
 62
     7
370
    25
100
AcDbPolyline
 90
       24
 70
   128
 43
0.0
 10
219.1426322032
 20
46.3224327765
 10
219.1912189585
 20
47.5461574023
 10
219.3365505118
 20
48.8152239152
 10
219.5773512624
 20
50.1184805318
 10
219.9115039897
 20
51.4444740241
 10
220.3360729024
 20
52.7815515243
 10
220.8473260286
 20
54.11796271
 10
221.4407714363
 20
55.4419630336
 10
222.1111927945
 20
56.7419163814
 10
222.8526994225
 20
58.0064000128
 10
223.6587743639
 20
59.2243018951
 10
224.5223343139
 20
60.3849176569
 10
225.4357895472
 20
61.4780483016
 10
226.3911130646
 20
62.4940872747
 10
227.3799094115
 20
63.424106579
 10
228.3934887639
 20
64.2599314834
 10
229.422943978
 20
64.9942177027
 10
230.4592281341
 20
65.6205128929
 10
231.4932343846
 20
66.133311872
 10
232.5158756387
 20
66.5281087043
 10
233.5181652334
 20
66.8014341458
 10
234.4912944772
 20
66.9508852
 10
235.4267121697
 20
66.9751504905
 10
236.1919629493
 20
66.8961652603
  0
LWPOLYLINE
  5
288
330
1F
100
AcDbEntity
  8
0
  6
Continuous
 62
     7
370
    25
100
AcDbPolyline
 90
        3
 70
   128
 43
0.0
 10
219.2950240122
 20
44.2978286161
 10
219.1912189585
 20
45.1548052243
 10
219.1617991411
 20
45.5820084228
  0
SPLINE
  5
289
330
1F
100
AcDbEntity
  8
0
  6
Continuous
 62
     7
370
    25
100
AcDbSpline
210
0.0
220
0.0
230
1.0
 70
     8
 71
     3
 72
    10
 73
     6
 74
     0
 42
0.000000001
 43
0.00000001
 40
0.0
 40
0.0
 40
0.0
 40
0.0
 40
0.5
 40
0.5
 40
1.0
 40
1.0
 40
1.0
 40
1.0
 10
227.9893451324613
 20
56.02865049575328
 30
0.0
 10
227.885380641677
 20
56.10198886882366
 30
0.0
 10
227.7955723652496
 20
56.18922462661707
 30
0.0
 10
227.643529937251
 20
56.39015516781306
 30
0.0
 10
227.58162434889
 20
56.50432593401004
 30
0.0
 10
227.5371746442996
 20
56.62734361717013
 30
0.0
  0
SPLINE
  5
28A
330
1F
100
AcDbEntity
  8
0
  6
Continuous
 62
     7
370
    25
100
AcDbSpline
210
0.0
220
0.0
230
1.0
 70
     8
 71
     3
 72
    14
 73
    10
 74
     0
 42
0.000000001
 43
0.00000001
 40
0.0
 40
0.0
 40
0.0
 40
0.0
 40
0.25
 40
0.25
 40
0.5
 40
0.5
 40
0.75
 40
0.75
 40
1.0
 40
1.0
 40
1.0
 40
1.0
 10
227.5371746442996
 20
56.62734361717013
 30
0.0
 10
227.5144538414344
 20
56.69022503682768
 30
0.0
 10
227.492539331085
 20
56.75927146630109
 30
0.0
 10
227.4504282770222
 20
56.90692398291987
 30
0.0
 10
227.4309067231091
 20
56.98332376977817
 30
0.0
 10
227.3925604809354
 20
57.13765606117377
 30
0.0
 10
227.3742008880516
 20
57.21460865750542
 30
0.0
 10
227.3321974434699
 20
57.35999882502141
 30
0.0
 10
227.3084211224569
 20
57.42658973121443
 30
0.0
 10
227.2799596183547
 20
57.46708534644578
 30
0.0
  0
LINE
  5
28B
330
1F
100
AcDbEntity
  8
0
  6
Continuous
 62
     7
370
    25
100
AcDbLine
 10
227.2799598066
 20
57.4670857382
 30
0.0
 11
227.2626572082
 21
57.4917035455
 31
0.0
  0
LINE
  5
28C
330
1F
100
AcDbEntity
  8
0
  6
Continuous
 62
     7
370
    25
100
AcDbLine
 10
228.6068502698
 20
59.1638670628
 30
0.0
 11
228.6241528682
 21
59.1392492554
 31
0.0
  0
SPLINE
  5
28D
330
1F
100
AcDbEntity
  8
0
  6
Continuous
 62
     7
370
    25
100
AcDbSpline
210
0.0
220
0.0
230
1.0
 70
     8
 71
     3
 72
    16
 73
    12
 74
     0
 42
0.000000001
 43
0.00000001
 40
0.0
 40
0.0
 40
0.0
 40
0.0
 40
0.1250000000000001
 40
0.1250000000000001
 40
0.2500000000000003
 40
0.2500000000000003
 40
0.5000000000000002
 40
0.5000000000000002
 40
0.7500000000000001
 40
0.7500000000000001
 40
1.0
 40
1.0
 40
1.0
 40
1.0
 10
228.6241528592059
 20
59.13924895905906
 30
0.0
 10
228.63830526561
 20
59.11911262324626
 30
0.0
 10
228.6599636700837
 20
59.10231520256884
 30
0.0
 10
228.712381599119
 20
59.07546968123735
 30
0.0
 10
228.7429744782573
 20
59.06524419667637
 30
0.0
 10
228.8420553271148
 20
59.04074375624369
 30
0.0
 10
228.9159378647308
 20
59.03248383384219
 30
0.0
 10
229.0690374571221
 20
59.02129786713726
 30
0.0
 10
229.1471214317697
 20
59.01870119538607
 30
0.0
 10
229.3064650655118
 20
59.01667219455237
 30
0.0
 10
229.3851179603434
 20
59.01730978321459
 30
0.0
 10
229.460870428136
 20
59.02040288402964
 30
0.0
  0
SPLINE
  5
28E
330
1F
100
AcDbEntity
  8
0
  6
Continuous
 62
     7
370
    25
100
AcDbSpline
210
0.0
220
0.0
230
1.0
 70
     8
 71
     3
 72
    10
 73
     6
 74
     0
 42
0.000000001
 43
0.00000001
 40
0.0
 40
0.0
 40
0.0
 40
0.0
 40
0.5
 40
0.5
 40
1.0
 40
1.0
 40
1.0
 40
1.0
 10
229.460870428136
 20
59.02040288402964
 30
0.0
 10
229.6090647680367
 20
59.0264539084634
 30
0.0
 10
229.7512892337673
 20
59.01629167825027
 30
0.0
 10
230.0236806241081
 20
58.96524124231019
 30
0.0
 10
230.1538079539766
 20
58.92388013966564
 30
0.0
 10
230.271883296162
 20
58.86810627171335
 30
0.0
  0
ARC
  5
28F
330
1F
100
AcDbEntity
  8
0
  6
Continuous
 62
     7
370
    25
100
AcDbCircle
 10
212.9419232465
 20
54.1320365773
 30
0.0
 40
4.143252031906975
100
AcDbArc
 50
211.7444095219
 51
236.2139194594
  0
SPLINE
  5
290
330
1F
100
AcDbEntity
  8
0
  6
Continuous
 62
     7
370
    25
100
AcDbSpline
210
0.0
220
0.0
230
1.0
 70
     8
 71
     3
 72
     8
 73
     4
 74
     0
 42
0.000000001
 43
0.00000001
 40
0.0
 40
0.0
 40
0.0
 40
0.0
 40
1.0
 40
1.0
 40
1.0
 40
1.0
 10
210.8489296270252
 20
51.02740185247469
 30
0.0
 10
210.372156335201
 20
51.33549466040733
 30
0.0
 10
209.8953539583561
 20
51.64372410598009
 30
0.0
 10
209.4185215138305
 20
51.9520892622
 30
0.0
  0
SPLINE
  5
291
330
1F
100
AcDbEntity
  8
0
  6
Continuous
 62
     7
370
    25
100
AcDbSpline
210
0.0
220
0.0
230
1.0
 70
     8
 71
     3
 72
    23
 73
    19
 74
     0
 42
0.000000001
 43
0.00000001
 40
0.0
 40
0.0
 40
0.0
 40
0.0
 40
0.0521036415683759
 40
0.1035646240941235
 40
0.1544751946756683
 40
0.2049306267495642
 40
0.2550287880866983
 40
0.3048696389163111
 40
0.354554670462894
 40
0.4041862979539558
 40
0.453867225213789
 40
0.5036997999428097
 40
0.590187023078111
 40
0.6742716378282376
 40
0.7565997087281883
 40
0.8378563983773627
 40
0.9187511781400207
 40
0.9999999999999999
 40
0.9999999999999999
 40
0.9999999999999999
 40
0.9999999999999999
 10
211.7294944305668
 20
50.85267115435459
 30
0.0
 10
211.724225491627
 20
50.8427496921192
 30
0.0
 10
211.7137526021273
 20
50.82302914138719
 30
0.0
 10
211.6945063063653
 20
50.79846131243372
 30
0.0
 10
211.6727105660331
 20
50.77777273017362
 30
0.0
 10
211.6480592748286
 20
50.76124179487614
 30
0.0
 10
211.6205627602898
 20
50.74872429529982
 30
0.0
 10
211.5901517062824
 20
50.74018967147764
 30
0.0
 10
211.5567813345095
 20
50.73557979883011
 30
0.0
 10
211.5204054462371
 20
50.73484505569451
 30
0.0
 10
211.4809770746473
 20
50.73794013824697
 30
0.0
 10
211.4281286830949
 20
50.74647591372833
 30
0.0
 10
211.3595896893215
 20
50.76407235257792
 30
0.0
 10
211.2718684573644
 20
50.79570896066553
 30
0.0
 10
211.1771375378696
 20
50.83788861799876
 30
0.0
 10
211.0751032905407
 20
50.89062505372505
 30
0.0
 10
210.9661893773546
 20
50.9529416096339
 30
0.0
 10
210.8880730663711
 20
51.00254566788333
 30
0.0
 10
210.8489296270252
 20
51.02740185247468
 30
0.0
  0
SPLINE
  5
292
330
1F
100
AcDbEntity
  8
0
  6
Continuous
 62
     7
370
    25
100
AcDbSpline
210
0.0
220
0.0
230
1.0
 70
     8
 71
     3
 72
     8
 73
     4
 74
     0
 42
0.000000001
 43
0.00000001
 40
0.0
 40
0.0
 40
0.0
 40
0.0
 40
1.0
 40
1.0
 40
1.0
 40
1.0
 10
213.2029974570247
 20
49.90535101779581
 30
0.0
 10
212.7116301449819
 20
50.22122563776416
 30
0.0
 10
212.2202439450543
 20
50.53721165905449
 30
0.0
 10
211.728838234909
 20
50.85330853989804
 30
0.0
  0
SPLINE
  5
293
330
1F
100
AcDbEntity
  8
0
  6
Continuous
 62
     7
370
    25
100
AcDbSpline
210
0.0
220
0.0
230
1.0
 70
     8
 71
     3
 72
    18
 73
    14
 74
     0
 42
0.000000001
 43
0.00000001
 40
0.0
 40
0.0
 40
0.0
 40
0.0
 40
0.0923824559461122
 40
0.1844689291660427
 40
0.2764953616062392
 40
0.3686975365619641
 40
0.4613092840130473
 40
0.5545607518559533
 40
0.6486768051632873
 40
0.7438756050210469
 40
0.8403674044324065
 40
0.9203921078135461
 40
1.0
 40
1.0
 40
1.0
 40
1.0
 10
214.0165615762203
 20
49.26104329325404
 30
0.0
 10
213.992994062096
 20
49.27631726752036
 30
0.0
 10
213.9459345414425
 20
49.30681628000234
 30
0.0
 10
213.8735367534769
 20
49.35644885261497
 30
0.0
 10
213.8000545445795
 20
49.40877839528466
 30
0.0
 10
213.7253550968337
 20
49.46409608099309
 30
0.0
 10
213.6494943070656
 20
49.52233439610666
 30
0.0
 10
213.5724830262797
 20
49.58352730774366
 30
0.0
 10
213.4943508942005
 20
49.64769102432405
 30
0.0
 10
213.4151246595594
 20
49.7148399841894
 30
0.0
 10
213.3398281751518
 20
49.78069089393437
 30
0.0
 10
213.2690008670318
 20
49.84422248074176
 30
0.0
 10
213.2250964962254
 20
49.88488322575482
 30
0.0
 10
213.2032016294205
 20
49.90516051432306
 30
0.0
  0
LINE
  5
294
330
1F
100
AcDbEntity
  8
0
  6
Continuous
 62
     7
370
    25
100
AcDbLine
 10
214.6562681081
 20
48.8492894867
 30
0.0
 11
214.0165612657
 21
49.2610431544
 31
0.0
  0
SPLINE
  5
295
330
1F
100
AcDbEntity
  8
0
  6
Continuous
 62
     7
370
    25
100
AcDbSpline
210
0.0
220
0.0
230
1.0
 70
     8
 71
     3
 72
    25
 73
    21
 74
     0
 42
0.000000001
 43
0.00000001
 40
0.0
 40
0.0
 40
0.0
 40
0.0
 40
0.0280105225426455
 40
0.0559601148860774
 40
0.0839014045043129
 40
0.1118870776786379
 40
0.1399695827588941
 40
0.1682008401739877
 40
0.1966319670424218
 40
0.2253130233141493
 40
0.2542927850735863
 40
0.3799486436570518
 40
0.505785022166658
 40
0.6313085886329272
 40
0.7532068238012843
 40
0.8039473267959846
 40
0.8535894438560211
 40
0.902533972239985
 40
0.9511970353794947
 40
1.0
 40
1.0
 40
1.0
 40
1.0
 10
215.7586337012105
 20
49.56519547713112
 30
0.0
 10
215.7635818087411
 20
49.53757161602363
 30
0.0
 10
215.7734672603766
 20
49.48238398291831
 30
0.0
 10
215.7850029099798
 20
49.4032232755484
 30
0.0
 10
215.7940760317926
 20
49.32691993645002
 30
0.0
 10
215.8004448405055
 20
49.2537241754804
 30
0.0
 10
215.8041610793157
 20
49.18357670726702
 30
0.0
 10
215.8051977002985
 20
49.11650042075423
 30
0.0
 10
215.8035492250716
 20
49.05249651152779
 30
0.0
 10
215.7992030732027
 20
48.99156765826097
 30
0.0
 10
215.7843467486352
 20
48.86967953676484
 30
0.0
 10
215.739258491569
 20
48.7147786651108
 30
0.0
 10
215.6258989710782
 20
48.5838355467673
 30
0.0
 10
215.4640747490853
 20
48.5279591459545
 30
0.0
 10
215.2900595299518
 20
48.54783319833905
 30
0.0
 10
215.1386986092643
 20
48.59515100069551
 30
0.0
 10
215.0282983765654
 20
48.64006642443118
 30
0.0
 10
214.9111388811167
 20
48.69744215572232
 30
0.0
 10
214.7875732141833
 20
48.76611922017477
 30
0.0
 10
214.7000781640888
 20
48.8215394661276
 30
0.0
 10
214.6562678444075
 20
48.84928936385766
 30
0.0
  0
ARC
  5
296
330
1F
100
AcDbEntity
  8
0
  6
Continuous
 62
     7
370
    25
100
AcDbCircle
 10
226.9516548656
 20
51.3512458457
 30
0.0
 40
11.33462419218318
100
AcDbArc
 50
170.9338462887
 51
189.0661537113
  0
SPLINE
  5
297
330
1F
100
AcDbEntity
  8
0
  6
Continuous
 62
     7
370
    25
100
AcDbSpline
210
0.0
220
0.0
230
1.0
 70
     8
 71
     3
 72
    26
 73
    22
 74
     0
 42
0.000000001
 43
0.00000001
 40
0.0
 40
0.0
 40
0.0
 40
0.0
 40
0.0241259796963637
 40
0.048215991227299
 40
0.0723203915124064
 40
0.0964895678710793
 40
0.120773623196351
 40
0.1452220711242841
 40
0.1698835501657706
 40
0.1948055644472381
 40
0.2200342569517629
 40
0.2456142191611394
 40
0.3690971486901671
 40
0.4940698769485191
 40
0.6192566784762444
 40
0.7454656653603234
 40
0.7971495824713715
 40
0.8481710308405401
 40
0.8988013269235245
 40
0.9493179290492194
 40
1.0
 40
1.0
 40
1.0
 40
1.0
 10
214.6562678444075
 20
56.61339975522223
 30
0.0
 10
214.6779860737836
 20
56.59906823182715
 30
0.0
 10
214.7213901539597
 20
56.5704265511581
 30
0.0
 10
214.7846972713211
 20
56.52243425322929
 30
0.0
 10
214.846558839039
 20
56.47083505534361
 30
0.0
 10
214.9068633541756
 20
56.41526026247038
 30
0.0
 10
214.9656532061154
 20
56.35580502184323
 30
0.0
 10
215.0229337245452
 20
56.29244071300582
 30
0.0
 10
215.0787248638714
 20
56.2251719350419
 30
0.0
 10
215.1330461112932
 20
56.15399782108177
 30
0.0
 10
215.1859250865022
 20
56.07890868133349
 30
0.0
 10
215.3027199112385
 20
55.89965423263164
 30
0.0
 10
215.464589469165
 20
55.58934876078826
 30
0.0
 10
215.6277743766968
 20
55.11943497265658
 30
0.0
 10
215.7392857818703
 20
54.62047193874653
 30
0.0
 10
215.7864196199787
 20
54.21158826568953
 30
0.0
 10
215.8015385595113
 20
53.90731630909882
 30
0.0
 10
215.8034916984938
 20
53.7060670674035
 30
0.0
 10
215.7970136728547
 20
53.51040714768092
 30
0.0
 10
215.7828867501676
 20
53.31977085978344
 30
0.0
 10
215.7667268584826
 20
53.19818758604464
 30
0.0
 10
215.7586337012105
 20
53.13729654944574
 30
0.0
  0
LINE
  5
298
330
1F
100
AcDbEntity
  8
0
  6
Continuous
 62
     7
370
    25
100
AcDbLine
 10
214.0165612657
 20
57.0263746055
 30
0.0
 11
214.6562681081
 21
56.6133996345
 31
0.0
  0
SPLINE
  5
299
330
1F
100
AcDbEntity
  8
0
  6
Continuous
 62
     7
370
    25
100
AcDbSpline
210
0.0
220
0.0
230
1.0
 70
     8
 71
     3
 72
    14
 73
    10
 74
     0
 42
0.000000001
 43
0.00000001
 40
0.0
 40
0.0
 40
0.0
 40
0.0
 40
0.0789261963152472
 40
0.1582328720511064
 40
0.3308475394503796
 40
0.5000195457530386
 40
0.6670357883499396
 40
0.8332395193610692
 40
1.0
 40
1.0
 40
1.0
 40
1.0
 10
213.2026088603703
 20
57.2349570385052
 30
0.0
 10
213.2243257417055
 20
57.23656020236395
 30
0.0
 10
213.26786419492
 20
57.23977425845154
 30
0.0
 10
213.3593893135669
 20
57.24059529852104
 30
0.0
 10
213.4762976469982
 20
57.23265931673956
 30
0.0
 10
213.6171179853789
 20
57.20638364786271
 30
0.0
 10
213.7543302931915
 20
57.16342604933035
 30
0.0
 10
213.8882609676099
 20
57.1050689245195
 30
0.0
 10
213.9737470595709
 20
57.05263537836831
 30
0.0
 10
214.0165615762203
 20
57.02637476821312
 30
0.0
  0
SPLINE
  5
29A
330
1F
100
AcDbEntity
  8
0
  6
Continuous
 62
     7
370
    25
100
AcDbSpline
210
0.0
220
0.0
230
1.0
 70
     8
 71
     3
 72
     8
 73
     4
 74
     0
 42
0.000000001
 43
0.00000001
 40
0.0
 40
0.0
 40
0.0
 40
0.0
 40
1.0
 40
1.0
 40
1.0
 40
1.0
 10
211.4003052773646
 20
58.39734844991953
 30
0.0
 10
212.0010635010615
 20
58.01008096676012
 30
0.0
 10
212.6017923639226
 20
57.6226136168363
 30
0.0
 10
213.2024930082703
 20
57.23494672424618
 30
0.0
  0
SPLINE
  5
29B
330
1F
100
AcDbEntity
  8
0
  6
Continuous
 62
     7
370
    25
100
AcDbSpline
210
0.0
220
0.0
230
1.0
 70
     8
 71
     3
 72
    13
 73
     9
 74
     0
 42
0.000000001
 43
0.00000001
 40
0.0
 40
0.0
 40
0.0
 40
0.0
 40
0.1667030582307959
 40
0.3329480818053031
 40
0.4990671507274871
 40
0.6653938523718408
 40
0.8322612710550125
 40
1.0
 40
1.0
 40
1.0
 40
1.0
 10
211.0584767423302
 20
58.69841322900532
 30
0.0
 10
211.0787779247702
 20
58.68484812232609
 30
0.0
 10
211.1193245099588
 20
58.65775518056324
 30
0.0
 10
211.1784741469464
 20
58.61256060755553
 30
0.0
 10
211.2362456918489
 20
58.56414945907257
 30
0.0
 10
211.2924954293086
 20
58.51211434430211
 30
0.0
 10
211.3474226380547
 20
58.4568163770931
 30
0.0
 10
211.3826433476452
 20
58.41719912193273
 30
0.0
 10
211.4002995595862
 20
58.3973389129318
 30
0.0
  0
SPLINE
  5
29C
330
1F
100
AcDbEntity
  8
0
  6
Continuous
 62
     7
370
    25
100
AcDbSpline
210
0.0
220
0.0
230
1.0
 70
     8
 71
     3
 72
     8
 73
     4
 74
     0
 42
0.000000001
 43
0.00000001
 40
0.0
 40
0.0
 40
0.0
 40
0.0
 40
1.0
 40
1.0
 40
1.0
 40
1.0
 10
209.1144962265395
 20
59.95313508138479
 30
0.0
 10
209.7625262989397
 20
59.53513976550003
 30
0.0
 10
210.4105192760416
 20
59.11689900308239
 30
0.0
 10
211.0584767423302
 20
58.69841322900531
 30
0.0
  0
LWPOLYLINE
  5
29D
330
1F
100
AcDbEntity
  8
0
  6
Continuous
 62
     7
370
    25
100
AcDbPolyline
 90
       19
 70
   128
 43
0.0
 10
209.1144968768
 20
59.9531351319
 10
209.5173891385
 20
61.1200991173
 10
210.0073442768
 20
62.2801035421
 10
210.578344512
 20
63.4189009381
 10
211.2233756867
 20
64.5225036289
 10
211.9345161689
 20
65.5773582474
 10
212.7030313536
 20
66.570507896
 10
213.5194823222
 20
67.4897544948
 10
214.373841253
 20
68.3238086774
 10
215.2556145685
 20
69.0624247614
 10
216.1539722161
 20
69.6965324149
 10
217.057880365
 20
70.2183421589
 10
217.9562370248
 20
70.6214457111
 10
218.838008447
 20
70.9008924479
 10
219.6923644143
 20
71.0532492539
 10
220.508811761
 20
71.0766456621
 10
221.2773223358
 20
70.9707937325
 10
221.9884575497
 20
70.7369937918
 10
222.1642346034
 20
70.6548820971
  0
SPLINE
  5
29E
330
1F
100
AcDbEntity
  8
0
  6
Continuous
 62
     7
370
    25
100
AcDbSpline
210
0.0
220
0.0
230
1.0
 70
    11
 71
     3
 72
    39
 73
    35
 74
     0
 42
0.000000001
 43
0.00000001
 40
0.0
 40
0.0
 40
0.0
 40
0.0
 40
0.0310664058350965
 40
0.0621048158425859
 40
0.093136155179263
 40
0.1235538293503448
 40
0.1538561545806855
 40
0.1850588072748946
 40
0.2160250992945718
 40
0.2471867223797388
 40
0.2784462884305076
 40
0.3100516090231096
 40
0.3419834369141944
 40
0.3734259894013148
 40
0.4048604886786042
 40
0.4368740651833136
 40
0.4685120685925458
 40
0.4998055358633138
 40
0.5309508213230685
 40
0.5618649784438015
 40
0.5930416446594986
 40
0.6233742450133227
 40
0.6540913579075065
 40
0.6849496782718291
 40
0.71581606451649
 40
0.7471731804043279
 40
0.7784514311862922
 40
0.8101295911560753
 40
0.8419598919688862
 40
0.8735175891922173
 40
0.9050808037887091
 40
0.9370235169792366
 40
0.968744159003463
 40
1.0
 40
1.0
 40
1.0
 40
1.0
 10
222.3230817077449
 20
68.95832545672623
 30
0.0
 10
222.5859673279451
 20
68.9297909694352
 30
0.0
 10
223.1128559384279
 20
68.84384848111205
 30
0.0
 10
223.8768680075017
 20
68.64347336104265
 30
0.0
 10
224.5840181955504
 20
68.39647125482361
 30
0.0
 10
225.1969292601446
 20
68.11848937667155
 30
0.0
 10
225.694060585819
 20
67.82435567934164
 30
0.0
 10
226.0532523068914
 20
67.5228491511496
 30
0.0
 10
226.2749715756521
 20
67.21585164624625
 30
0.0
 10
226.3402234530334
 20
66.90534638484438
 30
0.0
 10
226.2533762419204
 20
66.58620190009515
 30
0.0
 10
226.0110306541599
 20
66.25688193452208
 30
0.0
 10
225.6310927914344
 20
65.9179412129643
 30
0.0
 10
225.1172868382742
 20
65.58010274855397
 30
0.0
 10
224.4913960273634
 20
65.25420484724638
 30
0.0
 10
223.7779250408747
 20
64.95755795400532
 30
0.0
 10
223.0140225646106
 20
64.7014546455653
 30
0.0
 10
222.2282294817042
 20
64.51242707757687
 30
0.0
 10
221.4466920266636
 20
64.40425115552334
 30
0.0
 10
220.6905790419081
 20
64.39658727215449
 30
0.0
 10
219.9882144555184
 20
64.49450930754097
 30
0.0
 10
219.3691941084744
 20
64.71615774104457
 30
0.0
 10
218.8601368434651
 20
65.05202582795653
 30
0.0
 10
218.4871932500302
 20
65.49183639413542
 30
0.0
 10
218.2585912987854
 20
66.00291103465769
 30
0.0
 10
218.1897449920632
 20
66.55409612241833
 30
0.0
 10
218.274361405287
 20
67.1117680507312
 30
0.0
 10
218.517470195223
 20
67.64184819165067
 30
0.0
 10
218.8996000380398
 20
68.11437254076554
 30
0.0
 10
219.4157356124524
 20
68.50049405165839
 30
0.0
 10
220.0427134729549
 20
68.78411823899056
 30
0.0
 10
220.7586209053211
 20
68.95385545771798
 30
0.0
 10
221.5270642975053
 20
69.01539429243081
 30
0.0
 10
222.0585930768786
 20
68.98703394017355
 30
0.0
 10
222.3230817077448
 20
68.95832545672621
 30
0.0
  0
LINE
  5
29F
330
1F
100
AcDbEntity
  8
0
  6
Continuous
 62
     7
370
    25
100
AcDbLine
 10
213.0985442947
 20
52.5191988393
 30
0.0
 11
213.4092959722
 21
52.3528181388
 31
0.0
  0
LINE
  5
2A0
330
1F
100
AcDbEntity
  8
0
  6
Continuous
 62
     7
370
    25
100
AcDbLine
 10
212.1115862748
 20
53.0889575766
 30
0.0
 11
213.0985442947
 21
52.5191988393
 31
0.0
  0
ARC
  5
2A1
330
1F
100
AcDbEntity
  8
0
  6
Continuous
 62
     7
370
    25
100
AcDbCircle
 10
214.3325561856
 20
56.6824383407
 30
0.0
 40
4.484274790565911
100
AcDbArc
 50
267.6840627222
 51
286.9866336569
  0
SPLINE
  5
2A2
330
1F
100
AcDbEntity
  8
0
  6
Continuous
 62
     7
370
    25
100
AcDbSpline
210
0.0
220
0.0
230
1.0
 70
     8
 71
     3
 72
    12
 73
     8
 74
     0
 42
0.000000001
 43
0.00000001
 40
0.0
 40
0.0
 40
0.0
 40
0.0
 40
0.1523598330305601
 40
0.3826801306822303
 40
0.6138741683107227
 40
0.8254372814239916
 40
1.0
 40
1.0
 40
1.0
 40
1.0
 10
223.6615876660442
 20
65.95582974139047
 30
0.0
 10
223.4566203276624
 20
66.06797614112322
 30
0.0
 10
222.9418066377458
 20
66.34965273561427
 30
0.0
 10
221.9287313104565
 20
66.76581870808137
 30
0.0
 10
220.7213525294974
 20
67.04906033602887
 30
0.0
 10
219.6190220441465
 20
67.08000717876966
 30
0.0
 10
219.0540830116155
 20
66.87227980144797
 30
0.0
 10
218.7986810538732
 20
66.77836882028079
 30
0.0
  0
SPLINE
  5
2A3
330
1F
100
AcDbEntity
  8
0
  6
Continuous
 62
     7
370
    25
100
AcDbSpline
210
0.0
220
0.0
230
1.0
 70
     8
 71
     3
 72
    10
 73
     6
 74
     0
 42
0.000000001
 43
0.00000001
 40
0.0
 40
0.0
 40
0.0
 40
0.0
 40
0.3798174073072795
 40
0.9603711649033085
 40
1.0
 40
1.0
 40
1.0
 40
1.0
 10
224.8014677879037
 20
65.427602813872
 30
0.0
 10
224.6718151706553
 20
65.49793137570936
 30
0.0
 10
224.3439875549008
 20
65.67575767213047
 30
0.0
 10
223.9360590098907
 20
65.84881052253289
 30
0.0
 10
223.6794262284588
 20
65.9480159547812
 30
0.0
 10
223.663027738247
 20
65.95435504872158
 30
0.0
  0
SPLINE
  5
2A4
330
1F
100
AcDbEntity
  8
0
  6
Continuous
 62
     7
370
    25
100
AcDbSpline
210
0.0
220
0.0
230
1.0
 70
     8
 71
     3
 72
    24
 73
    20
 74
     0
 42
0.000000001
 43
0.00000001
 40
0.0
 40
0.0
 40
0.0
 40
0.0
 40
0.0618858212107145
 40
0.1150115607194259
 40
0.1593831488268445
 40
0.2428114970815824
 40
0.318331853291959
 40
0.3935543804326023
 40
0.4204843226990471
 40
0.4483397435477174
 40
0.4771286702554668
 40
0.5451537905345539
 40
0.6363475754294583
 40
0.6968782859867285
 40
0.7498596693403015
 40
0.7959701295389731
 40
0.8771179302751783
 40
0.9543004207779655
 40
1.0
 40
1.0
 40
1.0
 40
1.0
 10
222.2682031407425
 20
68.38446755676944
 30
0.0
 10
222.0842463514063
 20
68.4033621217354
 30
0.0
 10
221.7423722834441
 20
68.43847668211988
 30
0.0
 10
221.2781543104673
 20
68.43198613373262
 30
0.0
 10
220.7686926981943
 20
68.38426194093532
 30
0.0
 10
220.2295975988198
 20
68.25964534276841
 30
0.0
 10
219.6867596140962
 20
68.01715505882541
 30
0.0
 10
219.3463665986011
 20
67.75978230819952
 30
0.0
 10
219.1397398900501
 20
67.54497520770067
 30
0.0
 10
219.021755833839
 20
67.3984718564017
 30
0.0
 10
218.869585429648
 20
67.16872103218124
 30
0.0
 10
218.7029047910683
 20
66.79577833675422
 30
0.0
 10
218.6345432102311
 20
66.33321928406134
 30
0.0
 10
218.6848986738505
 20
65.90488658585953
 30
0.0
 10
218.7903278173658
 20
65.58495969221514
 30
0.0
 10
218.9725271440518
 20
65.24449417702193
 30
0.0
 10
219.2734055691222
 20
64.90854592016686
 30
0.0
 10
219.6630904637207
 20
64.63548661945184
 30
0.0
 10
219.9560094199151
 20
64.54153154852455
 30
0.0
 10
220.0649453539714
 20
64.50658985835958
 30
0.0
  0
SPLINE
  5
2A5
330
1F
100
AcDbEntity
  8
0
  6
Continuous
 62
     7
370
    25
100
AcDbSpline
210
0.0
220
0.0
230
1.0
 70
     8
 71
     3
 72
    22
 73
    18
 74
     0
 42
0.000000001
 43
0.00000001
 40
0.0
 40
0.0
 40
0.0
 40
0.0
 40
0.0114834662766631
 40
0.0705129490302074
 40
0.1365111498489265
 40
0.2095181088460596
 40
0.2722005662080079
 40
0.326136633712203
 40
0.3713257586344869
 40
0.4077706656115294
 40
0.5121571560731971
 40
0.6052135161672628
 40
0.6996579575918662
 40
0.7500000558373026
 40
0.8024654985564912
 40
0.8926083568347373
 40
1.0
 40
1.0
 40
1.0
 40
1.0
 10
225.6056622554447
 20
65.93873037269309
 30
0.0
 10
225.6175163256045
 20
65.9500293556026
 30
0.0
 10
225.6903049266108
 20
66.01940950501015
 30
0.0
 10
225.7869261438224
 20
66.15109275642638
 30
0.0
 10
225.8851082445763
 20
66.33992744418363
 30
0.0
 10
225.9158591640069
 20
66.5258750466756
 30
0.0
 10
225.8865760288492
 20
66.69769388560779
 30
0.0
 10
225.8180550967666
 20
66.844498932982
 30
0.0
 10
225.7302477222459
 20
66.9657101690264
 30
0.0
 10
225.575955085144
 20
67.1312932277542
 30
0.0
 10
225.308129633255
 20
67.34145752169283
 30
0.0
 10
224.8565592239926
 20
67.59690131608579
 30
0.0
 10
224.4089966511792
 20
67.80353801656327
 30
0.0
 10
224.0001028732494
 20
67.9620422326682
 30
0.0
 10
223.5780232757074
 20
68.10455898073792
 30
0.0
 10
222.9997106573035
 20
68.26781554953234
 30
0.0
 10
222.525832063615
 20
68.34338399946479
 30
0.0
 10
222.2682031407425
 20
68.38446755676944
 30
0.0
  0
LINE
  5
2A6
330
1F
100
AcDbEntity
  8
0
  6
Continuous
 62
     7
370
    25
100
AcDbLine
 10
215.7586334189
 20
53.1372963687
 30
0.0
 11
215.7533953558
 21
53.4333797916
 31
0.0
  0
LINE
  5
2A7
330
1F
100
AcDbEntity
  8
0
  6
Continuous
 62
     7
370
    25
100
AcDbLine
 10
215.7533953558
 20
53.4333797916
 30
0.0
 11
215.7964951183
 21
54.0850414883
 31
0.0
  0
LINE
  5
2A8
330
1F
100
AcDbEntity
  8
0
  6
Continuous
 62
     7
370
    25
100
AcDbLine
 10
215.3663107966
 20
55.8165024951
 30
0.0
 11
214.9624320353
 21
56.2426645786
 31
0.0
  0
SPLINE
  5
2A9
330
1F
100
AcDbEntity
  8
0
  6
Continuous
 62
     7
370
    25
100
AcDbSpline
210
0.0
220
0.0
230
1.0
 70
     8
 71
     3
 72
    19
 73
    15
 74
     0
 42
0.000000001
 43
0.00000001
 40
0.0
 40
0.0
 40
0.0
 40
0.0
 40
0.0210492621018804
 40
0.1455865440207667
 40
0.2712169722633744
 40
0.3929514297049947
 40
0.5136082229787104
 40
0.6366369099308349
 40
0.699422462668311
 40
0.7643939711952468
 40
0.8122544601557282
 40
0.8606584764820763
 40
0.9188817427801165
 40
1.0
 40
1.0
 40
1.0
 40
1.0
 10
218.6789585884002
 20
66.12971760931163
 30
0.0
 10
218.6714900134143
 20
66.18447795621704
 30
0.0
 10
218.6198338548427
 20
66.56322613355218
 30
0.0
 10
218.8626047495023
 20
67.17337704236635
 30
0.0
 10
219.4469352169172
 20
67.86275074560591
 30
0.0
 10
220.3530615845575
 20
68.28005029583798
 30
0.0
 10
221.4274077130195
 20
68.40047625352662
 30
0.0
 10
222.3813415821153
 20
68.23977670993902
 30
0.0
 10
223.1160041246845
 20
67.94241061109722
 30
0.0
 10
223.5888073641568
 20
67.64475253369253
 30
0.0
 10
223.9457775342763
 20
67.27384072891516
 30
0.0
 10
224.1406256757845
 20
66.84151943360759
 30
0.0
 10
224.1696547060287
 20
66.33857810238244
 30
0.0
 10
224.1072811044083
 20
66.00483308980726
 30
0.0
 10
224.0709700484342
 20
65.8105420192604
 30
0.0
  0
SPLINE
  5
2AA
330
1F
100
AcDbEntity
  8
0
  6
Continuous
 62
     7
370
    25
100
AcDbSpline
210
0.0
220
0.0
230
1.0
 70
     8
 71
     3
 72
    10
 73
     6
 74
     0
 42
0.000000001
 43
0.00000001
 40
0.0
 40
0.0
 40
0.0
 40
0.0
 40
0.2952118939789638
 40
0.9806889752106586
 40
1.0
 40
1.0
 40
1.0
 40
1.0
 10
224.0736979044224
 20
65.80930346583801
 30
0.0
 10
224.1565215292993
 20
65.77053828804455
 30
0.0
 10
224.4316602261481
 20
65.64176101565309
 30
0.0
 10
224.7065915402507
 20
65.5005760157937
 30
0.0
 10
224.855056604925
 20
65.4065884213965
 30
0.0
 10
224.8591245120304
 20
65.40401318388925
 30
0.0
  0
ARC
  5
2AB
330
1F
100
AcDbEntity
  8
0
  6
Continuous
 62
     7
370
    25
100
AcDbCircle
 10
228.0838064698
 20
51.5960844735
 30
0.0
 40
12.46654291791873
100
AcDbArc
 50
171.5249863735
 51
179.8211981812
  0
SPLINE
  5
2AC
330
1F
100
AcDbEntity
  8
0
  6
Continuous
 62
     7
370
    25
100
AcDbSpline
210
0.0
220
0.0
230
1.0
 70
     8
 71
     3
 72
    14
 73
    10
 74
     0
 42
0.000000001
 43
0.00000001
 40
0.0
 40
0.0
 40
0.0
 40
0.0
 40
0.0003951393068452
 40
0.0003951393068452
 40
0.0003951393068452
 40
0.0008163352168664
 40
0.0008163352168664
 40
0.0008163352168664
 40
0.0012378579337219
 40
0.0012378579337219
 40
0.0012378579337219
 40
0.0012378579337219
 10
223.6656202415839
 20
65.95455078800615
 30
0.0
 10
223.7110820558151
 20
65.94011392538111
 30
0.0
 10
223.7559696604362
 20
65.9252480648155
 30
0.0
 10
223.8002533531113
 20
65.90996427721002
 30
0.0
 10
223.8474566453507
 20
65.89367283787234
 30
0.0
 10
223.8939824584098
 20
65.87690335978843
 30
0.0
 10
223.9397933676514
 20
65.85967454899314
 30
0.0
 10
223.9856397556406
 20
65.8424323951615
 30
0.0
 10
224.030778991213
 20
65.824726688957
 30
0.0
 10
224.0751725492553
 20
65.80658383226621
 30
0.0
  0
LINE
  5
2AD
330
1F
100
AcDbEntity
  8
0
  6
Continuous
 62
     7
370
    25
100
AcDbLine
 10
214.9624320353
 20
56.2426645786
 30
0.0
 11
214.3224953609
 21
56.6548962187
 31
0.0
  0
LINE
  5
2AE
330
1F
100
AcDbEntity
  8
0
  6
Continuous
 62
     7
370
    25
100
AcDbLine
 10
214.0165612657
 20
57.0263746055
 30
0.0
 11
214.3224953609
 21
56.6548962187
 31
0.0
  0
SPLINE
  5
2AF
330
1F
100
AcDbEntity
  8
0
  6
Continuous
 62
     7
370
    25
100
AcDbSpline
210
0.0
220
0.0
230
1.0
 70
     8
 71
     3
 72
    13
 73
     9
 74
     0
 42
0.000000001
 43
0.00000001
 40
0.0
 40
0.0
 40
0.0
 40
0.0
 40
0.1618542298650875
 40
0.3254858841233149
 40
0.4910085196246548
 40
0.6585318472470939
 40
0.8281616954004768
 40
1.0
 40
1.0
 40
1.0
 40
1.0
 10
214.3224957725623
 20
56.65489622257624
 30
0.0
 10
214.3029183805472
 20
56.66745919960786
 30
0.0
 10
214.2635486047054
 20
56.69272311572401
 30
0.0
 10
214.2020126649393
 20
56.72541681263688
 30
0.0
 10
214.1384560056913
 20
56.75436288634371
 30
0.0
 10
214.0728379030329
 20
56.77887525381072
 30
0.0
 10
214.0054106339737
 20
56.79931031716655
 30
0.0
 10
213.9595260337716
 20
56.80890697215779
 30
0.0
 10
213.9364353535944
 20
56.81373633299343
 30
0.0
  0
SPLINE
  5
2B0
330
1F
100
AcDbEntity
  8
0
  6
Continuous
 62
     7
370
    25
100
AcDbSpline
210
0.0
220
0.0
230
1.0
 70
     8
 71
     3
 72
     9
 73
     5
 74
     0
 42
0.000000001
 43
0.00000001
 40
0.0
 40
0.0
 40
0.0
 40
0.0
 40
0.4907282259506041
 40
1.0
 40
1.0
 40
1.0
 40
1.0
 10
213.9364295263024
 20
56.81370833596242
 30
0.0
 10
213.9123360038246
 20
56.82180386818054
 30
0.0
 10
213.8632385172654
 20
56.83830084510181
 30
0.0
 10
213.8125378234452
 20
56.85309451411805
 30
0.0
 10
213.7867173911579
 20
56.86062851218264
 30
0.0
  0
SPLINE
  5
2B1
330
1F
100
AcDbEntity
  8
0
  6
Continuous
 62
     7
370
    25
100
AcDbSpline
210
0.0
220
0.0
230
1.0
 70
     8
 71
     3
 72
    14
 73
    10
 74
     0
 42
0.000000001
 43
0.00000001
 40
0.0
 40
0.0
 40
0.0
 40
0.0
 40
0.0310276388093398
 40
0.0622853718693698
 40
0.1248003166924349
 40
0.2498289731770658
 40
0.4998892603621822
 40
0.7606803621577949
 40
1.0
 40
1.0
 40
1.0
 40
1.0
 10
213.2027767018699
 20
57.23473625482853
 30
0.0
 10
213.2087689412747
 20
57.23090521117457
 30
0.0
 10
213.2207978572342
 20
57.2232147136765
 30
0.0
 10
213.2448576652839
 20
57.20777682416956
 30
0.0
 10
213.2870913379302
 20
57.18070637123866
 30
0.0
 10
213.3716539124425
 20
57.12649434644322
 30
0.0
 10
213.4949408819109
 20
57.04749116457846
 30
0.0
 10
213.6410725883646
 20
56.95388498990071
 30
0.0
 10
213.7394392049057
 20
56.89090191350826
 30
0.0
 10
213.7865109055923
 20
56.86076241471775
 30
0.0
  0
LINE
  5
2B2
330
1F
100
AcDbEntity
  8
0
  6
Continuous
 62
     7
370
    25
100
AcDbLine
 10
211.4002765466
 20
58.3973669318
 30
0.0
 11
211.6912439008
 21
58.2092883927
 31
0.0
  0
SPLINE
  5
2B3
330
1F
100
AcDbEntity
  8
0
  6
Continuous
 62
     7
370
    25
100
AcDbSpline
210
0.0
220
0.0
230
1.0
 70
     8
 71
     3
 72
     8
 73
     4
 74
     0
 42
0.000000001
 43
0.00000001
 40
0.0
 40
0.0
 40
0.0
 40
0.0
 40
1.0
 40
1.0
 40
1.0
 40
1.0
 10
211.7226322041648
 20
58.18906586251733
 30
0.0
 10
211.712189698313
 20
58.19589128741475
 30
0.0
 10
211.7017237654232
 20
58.20263425420126
 30
0.0
 10
211.6912360006066
 20
58.20929334185425
 30
0.0
  0
SPLINE
  5
2B4
330
1F
100
AcDbEntity
  8
0
  6
Continuous
 62
     7
370
    25
100
AcDbSpline
210
0.0
220
0.0
230
1.0
 70
     8
 71
     3
 72
     8
 73
     4
 74
     0
 42
0.000000001
 43
0.00000001
 40
0.0
 40
0.0
 40
0.0
 40
0.0
 40
1.0
 40
1.0
 40
1.0
 40
1.0
 10
208.9366278253409
 20
60.06732151432642
 30
0.0
 10
208.9956275895109
 20
60.02858084740746
 30
0.0
 10
209.0549151530215
 20
59.99051887010817
 30
0.0
 10
209.1144962265099
 20
59.95313508164787
 30
0.0
  0
SPLINE
  5
2B5
330
1F
100
AcDbEntity
  8
0
  6
Continuous
 62
     7
370
    25
100
AcDbSpline
210
0.0
220
0.0
230
1.0
 70
     8
 71
     3
 72
     8
 73
     4
 74
     0
 42
0.000000001
 43
0.00000001
 40
0.0
 40
0.0
 40
0.0
 40
0.0
 40
1.0
 40
1.0
 40
1.0
 40
1.0
 10
208.9117780792414
 20
60.43053169226474
 30
0.0
 10
208.919252291332
 20
60.3095738515529
 30
0.0
 10
208.9275483952221
 20
60.18850200914225
 30
0.0
 10
208.9366278253409
 20
60.06732151432642
 30
0.0
  0
LWPOLYLINE
  5
2B6
330
1F
100
AcDbEntity
  8
0
  6
Continuous
 62
     7
370
    25
100
AcDbPolyline
 90
       15
 70
   128
 43
0.0
 10
208.911778438
 20
60.4305310268
 10
209.327229802
 20
61.5947824034
 10
209.8317611644
 20
62.7493279985
 10
210.4187133233
 20
63.8789287606
 10
211.0803385025
 20
64.9686731198
 10
211.8079024262
 20
66.0041758388
 10
212.5918012105
 20
66.9717679279
 10
213.4216871457
 20
67.8586772433
 10
214.2866053438
 20
68.6531955853
 10
215.1751383717
 20
69.3448351985
 10
216.0755573048
 20
69.9244661627
 10
216.9759762379
 20
70.3844367701
 10
217.8645092658
 20
70.7186755545
 10
218.7294274639
 20
70.9227705079
 10
218.875740907
 20
70.9446387183
  0
SPLINE
  5
2B7
330
1F
100
AcDbEntity
  8
0
  6
Continuous
 62
     7
370
    25
100
AcDbSpline
210
0.0
220
0.0
230
1.0
 70
     8
 71
     3
 72
    10
 73
     6
 74
     0
 42
0.000000001
 43
0.00000001
 40
0.0
 40
0.0
 40
0.0
 40
0.0
 40
0.2409818396634726
 40
0.5031433556203718
 40
1.0
 40
1.0
 40
1.0
 40
1.0
 10
214.9624320352801
 20
49.53682295531092
 30
0.0
 10
215.0446779062831
 20
49.48514643339036
 30
0.0
 10
215.2163981636276
 20
49.37725158669897
 30
0.0
 10
215.4941195226545
 20
49.24752887623474
 30
0.0
 10
215.6150967696985
 20
49.27030681733972
 30
0.0
 10
215.694289010614
 20
49.28521735831846
 30
0.0
  0
LINE
  5
2B8
330
1F
100
AcDbEntity
  8
0
  6
Continuous
 62
     7
370
    25
100
AcDbLine
 10
210.1792579791
 20
59.2658956883
 30
0.0
 11
209.4173792768
 21
59.7565300959
 31
0.0
  0
LINE
  5
2B9
330
1F
100
AcDbEntity
  8
0
  6
Continuous
 62
     7
370
    25
100
AcDbLine
 10
209.4173792768
 20
59.7565300959
 30
0.0
 11
208.9366279565
 21
60.067321472
 31
0.0
  0
LINE
  5
2BA
330
1F
100
AcDbEntity
  8
0
  6
Continuous
 62
     7
370
    25
100
AcDbLine
 10
214.0165612657
 20
49.2610431544
 30
0.0
 11
214.3224953609
 21
49.9490545954
 31
0.0
  0
LINE
  5
2BB
330
1F
100
AcDbEntity
  8
0
  6
Continuous
 62
     7
370
    25
100
AcDbLine
 10
214.3224953609
 20
49.9490545954
 30
0.0
 11
214.9624320353
 21
49.5368229553
 31
0.0
  0
SPLINE
  5
2BC
330
1F
100
AcDbEntity
  8
0
  6
Continuous
 62
     7
370
    25
100
AcDbSpline
210
0.0
220
0.0
230
1.0
 70
     8
 71
     3
 72
    13
 73
     9
 74
     0
 42
0.000000001
 43
0.00000001
 40
0.0
 40
0.0
 40
0.0
 40
0.0
 40
0.1722587823402174
 40
0.3421398270982735
 40
0.5097456257612809
 40
0.6751828993009421
 40
0.8385626189970466
 40
1.0
 40
1.0
 40
1.0
 40
1.0
 10
213.936423841789
 20
50.23036430082953
 30
0.0
 10
213.9595753657397
 20
50.21224470989652
 30
0.0
 10
214.0055588464886
 20
50.17625563796248
 30
0.0
 10
214.0730998591995
 20
50.1252556545473
 30
0.0
 10
214.1387594738847
 20
50.07693097435663
 30
0.0
 10
214.2022835451351
 20
50.03149996844729
 30
0.0
 10
214.263713923857
 20
49.98867440068707
 30
0.0
 10
214.3029800908306
 20
49.96220858351163
 30
0.0
 10
214.3224957725623
 20
49.94905480496452
 30
0.0
  0
SPLINE
  5
2BD
330
1F
100
AcDbEntity
  8
0
  6
Continuous
 62
     7
370
    25
100
AcDbSpline
210
0.0
220
0.0
230
1.0
 70
     8
 71
     3
 72
    11
 73
     7
 74
     0
 42
0.000000001
 43
0.00000001
 40
0.0
 40
0.0
 40
0.0
 40
0.0
 40
0.2392845096574327
 40
0.5001120454060707
 40
0.7515010914954734
 40
1.0
 40
1.0
 40
1.0
 40
1.0
 10
213.7870434303129
 20
50.2776782930424
 30
0.0
 10
213.7399741982653
 20
50.24936377030829
 30
0.0
 10
213.641598043667
 20
50.19018553975955
 30
0.0
 10
213.4953008220892
 20
50.09699763929203
 30
0.0
 10
213.3474600785028
 20
50.00162572331865
 30
0.0
 10
213.251173615774
 20
49.93709046807105
 30
0.0
 10
213.2033087279087
 20
49.90500939801984
 30
0.0
  0
SPLINE
  5
2BE
330
1F
100
AcDbEntity
  8
0
  6
Continuous
 62
     7
370
    25
100
AcDbSpline
210
0.0
220
0.0
230
1.0
 70
     8
 71
     3
 72
     9
 73
     5
 74
     0
 42
0.000000001
 43
0.00000001
 40
0.0
 40
0.0
 40
0.0
 40
0.0
 40
0.509066935386983
 40
0.9999999999999999
 40
0.9999999999999999
 40
0.9999999999999999
 40
0.9999999999999999
 10
213.7876144338971
 20
50.27697933883064
 30
0.0
 10
213.8132630085211
 20
50.26948663067076
 30
0.0
 10
213.8636465098666
 20
50.2547681179585
 30
0.0
 10
213.9124540213618
 20
50.23837576010633
 30
0.0
 10
213.9364152425564
 20
50.23032820962973
 30
0.0
  0
LINE
  5
2BF
330
1F
100
AcDbEntity
  8
0
  6
Continuous
 62
     7
370
    25
100
AcDbLine
 10
215.617533014
 20
51.2008579061
 30
0.0
 11
213.9364170577
 21
50.2303703219
 31
0.0
  0
LINE
  5
2C0
330
1F
100
AcDbEntity
  8
0
  6
Continuous
 62
     7
370
    25
100
AcDbLine
 10
211.9299294064
 20
51.3541916205
 30
0.0
 11
211.7296337529
 21
50.8530342063
 31
0.0
  0
SPLINE
  5
2C1
330
1F
100
AcDbEntity
  8
0
  6
Continuous
 62
     7
370
    25
100
AcDbSpline
210
0.0
220
0.0
230
1.0
 70
     8
 71
     3
 72
     8
 73
     4
 74
     0
 42
0.000000001
 43
0.00000001
 40
0.0
 40
0.0
 40
0.0
 40
0.0
 40
1.0
 40
1.0
 40
1.0
 40
1.0
 10
211.9294862357569
 20
51.35497537269199
 30
0.0
 10
211.9556615703261
 20
51.37714274967025
 30
0.0
 10
211.9814826102916
 20
51.39977489076187
 30
0.0
 10
212.006940164
 20
51.42285961085314
 30
0.0
  0
LINE
  5
2C2
330
1F
100
AcDbEntity
  8
0
  6
Continuous
 62
     7
370
    25
100
AcDbLine
 10
212.0069402597
 20
51.4228594952
 30
0.0
 11
213.787233019
 21
50.2770886101
 31
0.0
  0
LINE
  5
2C3
330
1F
100
AcDbEntity
  8
0
  6
Continuous
 62
     7
370
    25
100
AcDbLine
 10
215.6173242554
 20
51.2989078413
 30
0.0
 11
215.5293249285
 21
51.4063989096
 31
0.0
  0
LINE
  5
2C4
330
1F
100
AcDbEntity
  8
0
  6
Continuous
 62
     7
370
    25
100
AcDbLine
 10
213.7009169318
 20
52.4007714126
 30
0.0
 11
212.0069402597
 21
51.4228594952
 31
0.0
  0
LINE
  5
2C5
330
1F
100
AcDbEntity
  8
0
  6
Continuous
 62
     7
370
    25
100
AcDbLine
 10
213.8436110143
 20
52.3794792508
 30
0.0
 11
213.7013370832
 21
52.4002840351
 31
0.0
  0
LINE
  5
2C6
330
1F
100
AcDbEntity
  8
0
  6
Continuous
 62
     7
370
    25
100
AcDbLine
 10
215.5293986854
 20
51.4062947431
 30
0.0
 11
213.8436110143
 21
52.3794792508
 31
0.0
  0
LINE
  5
2C7
330
1F
100
AcDbEntity
  8
0
  6
Continuous
 62
     7
370
    25
100
AcDbLine
 10
215.6173242554
 20
51.3555306603
 30
0.0
 11
215.5293519288
 21
51.4063217165
 31
0.0
  0
SPLINE
  5
2C8
330
1F
100
AcDbEntity
  8
0
  6
Continuous
 62
     7
370
    25
100
AcDbSpline
210
0.0
220
0.0
230
1.0
 70
     8
 71
     3
 72
    19
 73
    15
 74
     0
 42
0.000000001
 43
0.00000001
 40
0.0
 40
0.0
 40
0.0
 40
0.0
 40
0.0637853009172641
 40
0.1289628367748405
 40
0.1955871994416645
 40
0.2637095015536399
 40
0.333377557949238
 40
0.4046360709686026
 40
0.4775268158973639
 40
0.5520888236427515
 40
0.6283585584336152
 40
0.7063700889344581
 40
0.8377041806176546
 40
0.9999999999999999
 40
0.9999999999999999
 40
0.9999999999999999
 40
0.9999999999999999
 10
211.1454171297956
 20
51.52346346004386
 30
0.0
 10
211.1661064988021
 20
51.51010432003263
 30
0.0
 10
211.2079368214596
 20
51.48309445149012
 30
0.0
 10
211.2684277950578
 20
51.44557248596207
 30
0.0
 10
211.3279119932394
 20
51.41005274487075
 30
0.0
 10
211.3859931527124
 20
51.37707261595433
 30
0.0
 10
211.4425252698001
 20
51.34686617968463
 30
0.0
 10
211.4972703245532
 20
51.31975273972409
 30
0.0
 10
211.549992702144
 20
51.29602112197524
 30
0.0
 10
211.6004343350724
 20
51.2759808685316
 30
0.0
 10
211.6483172535348
 20
51.25986100699415
 30
0.0
 10
211.7032814079099
 20
51.24558303730941
 30
0.0
 10
211.7661127218711
 20
51.23544448005891
 30
0.0
 10
211.8046202375311
 20
51.2419187313747
 30
0.0
 10
211.8259042027231
 20
51.24549719488467
 30
0.0
  0
LINE
  5
2C9
330
1F
100
AcDbEntity
  8
0
  6
Continuous
 62
     7
370
    25
100
AcDbLine
 10
211.8505398904
 20
51.2715676491
 30
0.0
 11
211.9293439604
 21
51.3549592529
 31
0.0
  0
SPLINE
  5
2CA
330
1F
100
AcDbEntity
  8
0
  6
Continuous
 62
     7
370
    25
100
AcDbSpline
210
0.0
220
0.0
230
1.0
 70
     8
 71
     3
 72
     9
 73
     5
 74
     0
 42
0.000000001
 43
0.00000001
 40
0.0
 40
0.0
 40
0.0
 40
0.0
 40
0.5232016984460688
 40
1.0
 40
1.0
 40
1.0
 40
1.0
 10
213.5347391521099
 20
52.30483919177674
 30
0.0
 10
213.4657149894613
 20
52.32988135689324
 30
0.0
 10
213.3337885013524
 20
52.37774466695296
 30
0.0
 10
213.0923510885337
 20
52.51534279763963
 30
0.0
 10
212.9772341401703
 20
52.58094935264803
 30
0.0
  0
LINE
  5
2CB
330
1F
100
AcDbEntity
  8
0
  6
Continuous
 62
     7
370
    25
100
AcDbLine
 10
209.2477329432
 20
52.3468389153
 30
0.0
 11
209.6992040575
 21
52.4591028881
 31
0.0
  0
LINE
  5
2CC
330
1F
100
AcDbEntity
  8
0
  6
Continuous
 62
     7
370
    25
100
AcDbLine
 10
209.6992040575
 20
52.4591028881
 30
0.0
 11
211.1454165293
 21
51.5234635551
 31
0.0
  0
SPLINE
  5
2CD
330
1F
100
AcDbEntity
  8
0
  6
Continuous
 62
     7
370
    25
100
AcDbSpline
210
0.0
220
0.0
230
1.0
 70
     8
 71
     3
 72
     8
 73
     4
 74
     0
 42
0.000000001
 43
0.00000001
 40
0.0
 40
0.0
 40
0.0
 40
0.0
 40
1.0
 40
1.0
 40
1.0
 40
1.0
 10
209.4185215138123
 20
51.95208926226054
 30
0.0
 10
209.3613962448883
 20
52.0838754460561
 30
0.0
 10
209.3044677531708
 20
52.21545966771681
 30
0.0
 10
209.2477336352214
 20
52.3468387346181
 30
0.0
  0
LINE
  5
2CE
330
1F
100
AcDbEntity
  8
0
  6
Continuous
 62
     7
370
    25
100
AcDbLine
 10
211.0369055166
 20
53.2313415029
 30
0.0
 11
209.6992040575
 21
52.4591028881
 31
0.0
  0
LINE
  5
2CF
330
1F
100
AcDbEntity
  8
0
  6
Continuous
 62
     7
370
    25
100
AcDbLine
 10
212.0199340014
 20
53.1335881
 30
0.0
 11
211.0369055166
 21
53.2313415029
 31
0.0
  0
LINE
  5
2D0
330
1F
100
AcDbEntity
  8
0
  6
Continuous
 62
     7
370
    25
100
AcDbLine
 10
212.9772341402
 20
52.5809493526
 30
0.0
 11
212.0199330136
 21
53.1335875298
 31
0.0
  0
SPLINE
  5
2D1
330
1F
100
AcDbEntity
  8
0
  6
Continuous
 62
     7
370
    25
100
AcDbSpline
210
0.0
220
0.0
230
1.0
 70
     8
 71
     3
 72
     8
 73
     4
 74
     0
 42
0.000000001
 43
0.00000001
 40
0.0
 40
0.0
 40
0.0
 40
0.0
 40
1.0
 40
1.0
 40
1.0
 40
1.0
 10
209.2477336352235
 20
52.34683873461321
 30
0.0
 10
209.2445962974733
 20
52.38205504148573
 30
0.0
 10
209.2426038935754
 20
52.41769929771343
 30
0.0
 10
209.2418224962033
 20
52.4537961997083
 30
0.0
  0
LINE
  5
2D2
330
1F
100
AcDbEntity
  8
0
  6
Continuous
 62
     7
370
    25
100
AcDbLine
 10
210.0529089713
 20
52.9220259144
 30
0.0
 11
209.2418231647
 21
52.4537960448
 31
0.0
  0
SPLINE
  5
2D3
330
1F
100
AcDbEntity
  8
0
  6
Continuous
 62
     7
370
    25
100
AcDbSpline
210
0.0
220
0.0
230
1.0
 70
     8
 71
     3
 72
     8
 73
     4
 74
     0
 42
0.000000001
 43
0.00000001
 40
0.0000004089325119
 40
0.0000004089325119
 40
0.0000004089325119
 40
0.0000004089325119
 40
0.0015399868451459
 40
0.0015399868451459
 40
0.0015399868451459
 40
0.0015399868451459
 10
210.0529080286921
 20
52.92202591106442
 30
0.0
 10
210.2913845967153
 20
53.01640229688078
 30
0.0
 10
210.529831554384
 20
53.11083090881098
 30
0.0
 10
210.7682402932344
 20
53.20532429177344
 30
0.0
  0
LINE
  5
2D4
330
1F
100
AcDbEntity
  8
0
  6
Continuous
 62
     7
370
    25
100
AcDbLine
 10
210.7682397722
 20
53.2053244389
 30
0.0
 11
210.792636212
 21
53.2103184653
 31
0.0
  0
LINE
  5
2D5
330
1F
100
AcDbEntity
  8
0
  6
Continuous
 62
     7
370
    25
100
AcDbLine
 10
211.0369055166
 20
53.2313415029
 30
0.0
 11
210.7926368706
 21
53.2103184653
 31
0.0
  0
SPLINE
  5
2D6
330
1F
100
AcDbEntity
  8
0
  6
Continuous
 62
     7
370
    25
100
AcDbSpline
210
0.0
220
0.0
230
1.0
 70
     8
 71
     3
 72
     8
 73
     4
 74
     0
 42
0.000000001
 43
0.00000001
 40
0.0
 40
0.0
 40
0.0
 40
0.0
 40
1.0
 40
1.0
 40
1.0
 40
1.0
 10
212.0199322077424
 20
53.13358828436041
 30
0.0
 10
212.0505402418656
 20
53.11864827655429
 30
0.0
 10
212.0810917428375
 20
53.10377131916091
 30
0.0
 10
212.1115856809521
 20
53.08895775547999
 30
0.0
  0
ARC
  5
2D7
330
1F
100
AcDbEntity
  8
0
  6
Continuous
 62
     7
370
    25
100
AcDbCircle
 10
212.900615688
 20
58.5623082296
 30
0.0
 40
6.549762100197336
100
AcDbArc
 50
283.6682343678
 51
294.9135532271
  0
LWPOLYLINE
  5
2D8
330
1F
100
AcDbEntity
  8
0
  6
Continuous
 62
     7
370
    18
100
AcDbPolyline
 90
       16
 70
   128
 43
0.0
 10
268.2111987053
 20
26.416980354
 10
268.2599362673
 20
27.1422730618
 10
268.4048865233
 20
27.90505222
 10
268.6422957697
 20
28.6855623056
 10
268.9660148471
 20
29.4635885105
 10
269.3676596608
 20
30.2189804954
 10
269.8368278417
 20
30.932173667
 10
270.3613682558
 20
31.5846969514
 10
270.9276956239
 20
32.1596504307
 10
271.5211421841
 20
32.6421429563
 10
272.1263380941
 20
33.0196781012
 10
272.7276090583
 20
33.2824780034
 10
273.3093825055
 20
33.4237360979
 10
273.8565907624
 20
33.43979435
 10
274.3550615398
 20
33.330236738
 10
274.7798406927
 20
33.106570504
  0
ARC
  5
2D9
330
1F
100
AcDbEntity
  8
0
  6
Continuous
 62
     7
370
    18
100
AcDbCircle
 10
270.73619366
 20
26.1060134441
 30
0.0
 40
2.544071528132593
100
AcDbArc
 50
172.9790657275
 51
240.0477761012
  0
LWPOLYLINE
  5
2DA
330
1F
100
AcDbEntity
  8
0
  6
Continuous
 62
     7
370
    18
100
AcDbPolyline
 90
       36
 70
   128
 43
0.0
 10
269.5677526473
 20
26.4477495749
 10
269.6169067386
 20
27.1067951367
 10
269.7627891644
 20
27.801410544
 10
270.0007109231
 20
28.5092701394
 10
270.3230251604
 20
29.207622874
 10
270.7193723128
 20
29.8740229467
 10
271.1770136599
 20
30.4870518795
 10
271.6812401986
 20
31.0270064612
 10
272.2158456012
 20
31.4765318589
 10
272.7636471759
 20
31.8211803493
 10
273.3070381693
 20
32.0498744542
 10
273.8285535593
 20
32.1552634135
 10
274.3114314844
 20
32.1339604091
 10
274.740151697
 20
31.986649983
 10
275.1009348118
 20
31.7180667395
 10
275.3821850124
 20
31.3368432105
 10
275.5748626231
 20
30.855232252
 10
275.6727750206
 20
30.2887133108
 10
275.6727750206
 20
29.6554946352
 10
275.5748626231
 20
28.9759284461
 10
275.3821850124
 20
28.2718566535
 10
275.1009348118
 20
27.5659085548
 10
274.740151697
 20
26.8807739935
 10
274.3114314844
 20
26.2384737462
 10
273.8285535593
 20
25.6596517565
 10
273.3070381693
 20
25.1629118632
 10
272.7636471759
 20
24.7642200814
 10
272.2158456012
 20
24.4763903363
 10
271.6812401986
 20
24.3086734745
 10
271.1770136599
 20
24.2664604865
 10
270.7193723128
 20
24.3511079669
 10
270.3230251604
 20
24.5598953579
 10
270.0007109231
 20
24.8861119952
 10
269.7627891644
 20
25.3192729752
 10
269.6169067386
 20
25.8454561189
 10
269.5677526473
 20
26.4477495749
  0
LWPOLYLINE
  5
2DB
330
1F
100
AcDbEntity
  8
0
  6
Continuous
 62
     7
370
    18
100
AcDbPolyline
 90
       25
 70
   128
 43
0.0
 10
271.1992336102
 20
27.3895834872
 10
271.2478638294
 20
27.8442071673
 10
271.390440444
 20
28.323996253
 10
271.6172470415
 20
28.7962538431
 10
271.9128270883
 20
29.2287964596
 10
272.2570373955
 20
29.5921470524
 10
272.6264205665
 20
29.8615438003
 10
272.9958037375
 20
30.0186277838
 10
273.3400140447
 20
30.0526939523
 10
273.6355940915
 20
29.9614207938
 10
273.862400689
 20
29.7510285272
 10
274.0049773037
 20
29.4358548969
 10
274.0536075229
 20
29.0373784727
 10
274.0049773037
 20
28.5827547927
 10
273.862400689
 20
28.102965707
 10
273.6355940915
 20
27.6307081169
 10
273.3400140447
 20
27.1981655004
 10
272.9958037375
 20
26.8348149076
 10
272.6264205665
 20
26.5654181597
 10
272.2570373955
 20
26.4083341762
 10
271.9128270883
 20
26.3742680077
 10
271.6172470415
 20
26.4655411662
 10
271.390440444
 20
26.6759334327
 10
271.2478638294
 20
26.9911070631
 10
271.1992336102
 20
27.3895834872
  0
LWPOLYLINE
  5
2DC
330
1F
100
AcDbEntity
  8
0
  6
Continuous
 62
     7
370
    18
100
AcDbPolyline
 90
       14
 70
   128
 43
0.0
 10
273.2647009191
 20
29.8791108782
 10
273.3009454802
 20
29.8651258441
 10
273.5345135188
 20
29.6886932196
 10
273.6826789537
 20
29.3995795577
 10
273.7334380827
 20
29.0212070537
 10
273.6826789537
 20
28.5842293068
 10
273.5345135188
 20
28.124047475
 10
273.3009454802
 20
27.6779429333
 10
273.0008970442
 20
27.2820563783
 10
272.6586763646
 20
26.9684601191
 10
272.3020080829
 20
26.7625599028
 10
271.9597874033
 20
26.6810365756
 10
271.6597389674
 20
26.7304945804
 10
271.4884440499
 20
26.8409290574
  0
LWPOLYLINE
  5
2DD
330
1F
100
AcDbEntity
  8
0
  6
Continuous
 62
     7
370
    18
100
AcDbPolyline
 90
       18
 70
   128
 43
0.0
 10
232.8516648492
 20
45.6642038091
 10
232.9002469946
 20
46.4766393525
 10
233.0450039678
 20
47.3286275276
 10
233.2829887821
 20
48.2028242109
 10
233.6093571841
 20
49.081433552
 10
234.0174651182
 20
49.9465693265
 10
234.4990047163
 20
50.7806203737
 10
235.0441728847
 20
51.5666072376
 10
235.641871996
 20
52.2885297746
 10
236.2799344527
 20
52.93169147
 10
236.945371164
 20
53.4829999163
 10
237.624635746
 20
53.9312318811
 10
238.3039003279
 20
54.2672621092
 10
238.9693370393
 20
54.484250536
 10
239.607399496
 20
54.5777800722
 10
240.2050986073
 20
54.5459462402
 10
240.7502667757
 20
54.3893971456
 10
240.9993615651
 20
54.2654112867
  0
ARC
  5
2DE
330
1F
100
AcDbEntity
  8
0
  6
Continuous
 62
     7
370
    18
100
AcDbCircle
 10
236.1981633736
 20
45.3167569203
 30
0.0
 40
3.364486842704536
100
AcDbArc
 50
174.0725597968
 51
234.6152587532
  0
ARC
  5
2DF
330
1F
100
AcDbEntity
  8
0
  6
Continuous
 62
     7
370
    18
100
AcDbCircle
 10
243.3204826348
 20
42.5263726337
 30
0.0
 40
17.95572678149952
100
AcDbArc
 50
167.4561534803
 51
179.6099872796
  0
LWPOLYLINE
  5
2E0
330
1F
100
AcDbEntity
  8
0
  6
Continuous
 62
     7
370
    18
100
AcDbPolyline
 90
       11
 70
   128
 43
0.0
 10
236.4350815604
 20
61.8892539185
 10
236.7541359716
 20
62.0700849472
 10
237.794754503
 20
62.5861634675
 10
238.8239355156
 20
62.9834846606
 10
239.8326343947
 20
63.258557995
 10
240.8119872134
 20
63.4089660781
 10
241.7533864657
 20
63.4333855615
 10
242.6485598448
 20
63.3316037215
 10
243.4896403781
 20
63.1045133192
 10
244.2692359033
 20
62.7541116435
 10
244.3613754996
 20
62.7021519753
  0
LWPOLYLINE
  5
2E1
330
1F
100
AcDbEntity
  8
0
  6
Continuous
 62
     7
370
    18
100
AcDbPolyline
 90
       10
 70
   128
 43
0.0
 10
228.6251541851
 20
35.4432635815
 10
228.3527162978
 20
35.6118263533
 10
227.6780071563
 20
36.1410912265
 10
227.0807672151
 20
36.7839996295
 10
226.5662444154
 20
37.5349012106
 10
226.1389603237
 20
38.3871973894
 10
225.8026706195
 20
39.3333987749
 10
225.5603301918
 20
40.365189238
 10
225.4140687737
 20
41.47350177
 10
225.3651718439
 20
42.6485964315
  0
LWPOLYLINE
  5
2E2
330
1F
100
AcDbEntity
  8
0
  6
Continuous
 62
     7
370
    18
100
AcDbPolyline
 90
        9
 70
   128
 43
0.0
 10
225.5065929599
 20
42.6485964315
 10
225.5551797152
 20
41.4809688793
 10
225.7005112685
 20
40.3796986061
 10
225.9413120191
 20
39.3544646183
 10
226.2754647464
 20
38.414275653
 10
226.7000336591
 20
37.5673949852
 10
227.2112867853
 20
36.8212640945
 10
227.8047321931
 20
36.1824412543
 10
228.4147801664
 20
35.6970946176
  0
LWPOLYLINE
  5
2E3
330
1F
100
AcDbEntity
  8
0
  6
Continuous
 62
     7
370
    18
100
AcDbPolyline
 90
       27
 70
   128
 43
0.0
 10
244.6041150053
 20
62.4390603311
 10
244.2905358669
 20
62.6263560236
 10
243.5158939134
 20
62.9745313595
 10
242.6801581274
 20
63.2001786623
 10
241.7906729265
 20
63.3013141454
 10
240.8552552339
 20
63.277048855
 10
239.8821259901
 20
63.1275978008
 10
238.8798363955
 20
62.8542723592
 10
237.8571951414
 20
62.4594755269
 10
236.8231888908
 20
61.9466765479
 10
235.7869047347
 20
61.3203813577
 10
234.7574495206
 20
60.5860951383
 10
233.7438701682
 20
59.7502702339
 10
232.7550738213
 20
58.8202509297
 10
231.7997503039
 20
57.8042119566
 10
230.8862950707
 20
56.7110813118
 10
230.0227351206
 20
55.5504655501
 10
229.2166601792
 20
54.3325636678
 10
228.4751535512
 20
53.0680800364
 10
227.8047321931
 20
51.7681266886
 10
227.2112867853
 20
50.444126365
 10
226.7000336591
 20
49.1077151793
 10
226.2754647464
 20
47.7706376791
 10
225.9413120191
 20
46.4446441868
 10
225.7005112685
 20
45.1413875702
 10
225.5551797152
 20
43.8723210573
 10
225.5065929599
 20
42.6485964315
  0
LWPOLYLINE
  5
2E4
330
1F
100
AcDbEntity
  8
0
  6
Continuous
 62
     7
370
    18
100
AcDbPolyline
 90
       25
 70
   128
 43
0.0
 10
230.7303444872
 20
45.6642039992
 10
230.7782384536
 20
46.5532922229
 10
230.9211340508
 20
47.4830789207
 10
231.1566852138
 20
48.4382970698
 10
231.4810236524
 20
49.4032617253
 10
231.8888240462
 20
50.3621287626
 10
232.3733903148
 20
51.2991530454
 10
232.9267659234
 20
52.1989488748
 10
233.5398646042
 20
53.0467418796
 10
234.2026186933
 20
53.8286109252
 10
234.9041464013
 20
54.5317181378
 10
235.63292855
 20
55.1445181573
 10
236.3769983156
 20
55.6569486636
 10
237.1241382979
 20
56.0605962337
 10
237.8620803892
 20
56.3488318756
 10
238.5787076996
 20
56.5169241753
 10
239.2622530266
 20
56.5621120459
 10
239.9014927963
 20
56.4836543286
 10
240.4859306322
 20
56.2828384264
 10
241.0059700593
 20
55.9629621315
 10
241.4530720601
 20
55.5292778119
 10
241.8198951805
 20
54.9889065606
 10
242.1004163723
 20
54.3507212632
 10
242.2900291169
 20
53.6252006751
 10
242.3106020473
 20
53.5084479188
  0
LWPOLYLINE
  5
2E5
330
1F
100
AcDbEntity
  8
0
  6
Continuous
 62
     7
370
    18
100
AcDbPolyline
 90
       12
 70
   128
 43
0.0
 10
235.561150656
 20
41.8167880989
 10
234.9041464013
 20
41.615658976
 10
234.2026186933
 20
41.5087995375
 10
233.5398646042
 20
41.5254689995
 10
232.9267659234
 20
41.6653933349
 10
232.3733903148
 20
41.9262752863
 10
231.8888240462
 20
42.303831264
 10
231.4810236524
 20
42.7918619886
 10
231.1566852138
 20
43.3823534539
 10
230.9211340508
 20
44.0656100189
 10
230.7782384536
 20
44.8304129721
 10
230.7303444872
 20
45.6642039992
  0
ARC
  5
2E6
330
1F
100
AcDbEntity
  8
0
  6
Continuous
 62
     7
370
    18
100
AcDbCircle
 10
237.0979431124
 20
46.118568238
 30
0.0
 40
17.95572678149673
100
AcDbArc
 50
167.4561534803
 51
179.6099872796
  0
LWPOLYLINE
  5
2E7
330
1F
100
AcDbEntity
  8
0
  6
Continuous
 62
     7
370
    18
100
AcDbPolyline
 90
       11
 70
   128
 43
0.0
 10
230.2125420381
 20
65.4814495227
 10
230.5315964492
 20
65.6622805515
 10
231.5722149806
 20
66.1783590717
 10
232.6013959932
 20
66.5756802648
 10
233.6100948723
 20
66.8507535993
 10
234.589447691
 20
67.0011616824
 10
235.5308469433
 20
67.0255811658
 10
236.4260203224
 20
66.9237993257
 10
237.2671008557
 20
66.6967089234
 10
238.0466963809
 20
66.3463072477
 10
238.1388359772
 20
66.2943475796
  0
LWPOLYLINE
  5
2E8
330
1F
100
AcDbEntity
  8
0
  6
Continuous
 62
     7
370
    18
100
AcDbPolyline
 90
       10
 70
   128
 43
0.0
 10
222.4026146627
 20
39.0354591858
 10
222.1301767754
 20
39.2040219575
 10
221.4554676339
 20
39.7332868308
 10
220.8582276927
 20
40.3761952337
 10
220.343704893
 20
41.1270968149
 10
219.9164208013
 20
41.9793929937
 10
219.5801310971
 20
42.9255943792
 10
219.3377906694
 20
43.9573848423
 10
219.1915292513
 20
45.0656973742
 10
219.1426323215
 20
46.2407920357
  0
LWPOLYLINE
  5
2E9
330
1F
100
AcDbEntity
  8
0
  6
Continuous
 62
     7
370
    18
100
AcDbPolyline
 90
       13
 70
   128
 43
0.0
 10
223.76671376
 20
42.905155408
 10
223.730499739
 20
43.0865630462
 10
223.586119124
 20
44.1576363894
 10
223.5449159697
 20
45.2992794081
 10
223.6073235986
 20
46.4994780671
 10
223.7726847831
 20
47.7456021017
 10
224.0392603072
 20
49.0245389779
 10
224.4042447713
 20
50.3228297163
 10
224.8637968853
 20
51.6268123912
 10
225.4130809569
 20
52.9227645232
 10
226.0463162823
 20
54.1970485133
 10
226.7568397083
 20
55.4362549841
 10
227.5371747791
 20
56.6273438392
  0
LWPOLYLINE
  5
2EA
330
1F
100
AcDbEntity
  8
0
  6
Continuous
 62
     7
370
    18
100
AcDbPolyline
 90
       16
 70
   128
 43
0.0
 10
224.2785095269
 20
39.975227707
 10
223.8094875429
 20
40.7220550213
 10
223.4189884304
 20
41.5943954514
 10
223.1261343462
 20
42.5629098756
 10
222.9338979604
 20
43.6177658
 10
222.8442311987
 20
44.7482545833
 10
222.8580441697
 20
45.9428994243
 10
222.9751966035
 20
47.1895722838
 10
223.1944991687
 20
48.4756166994
 10
223.5137259848
 20
49.787977253
 10
223.9296356957
 20
51.1133307489
 10
224.4380063726
 20
52.4382219527
 10
225.0336763437
 20
53.7492002813
 10
225.7105995118
 20
55.032957821
 10
226.4619026479
 20
56.2764601225
 10
227.2799598066
 20
57.4670857382
  0
ARC
  5
2EB
330
1F
100
AcDbEntity
  8
0
  6
Continuous
 62
     7
370
    18
100
AcDbCircle
 10
240.3630884118
 20
49.6842136378
 30
0.0
 40
14.35349360837237
100
AcDbArc
 50
109.931969941
 51
139.4246766989
  0
LWPOLYLINE
  5
2EC
330
1F
100
AcDbEntity
  8
0
  6
Continuous
 62
     7
370
    18
100
AcDbPolyline
 90
       12
 70
   128
 43
0.0
 10
228.6241528682
 20
59.1392492554
 10
229.5364974661
 20
60.1099848329
 10
230.4818259242
 20
60.9955272205
 10
231.4512310988
 20
61.7875328847
 10
232.435579595
 20
62.4785398563
 10
233.4255972127
 20
63.06203835
 10
234.4119562453
 20
63.5325295258
 10
235.3853633125
 20
63.8855807572
 10
236.3366474826
 20
64.1178666162
 10
237.256845553
 20
64.2271975731
 10
238.1372882793
 20
64.2125446795
 10
238.2631163785
 20
64.1999023445
  0
LINE
  5
2ED
330
1F
100
AcDbEntity
  8
0
  6
Continuous
 62
     7
370
    18
100
AcDbLine
 10
214.6562681081
 20
56.6133996345
 30
0.0
 11
214.9624320353
 21
56.2426645786
 31
0.0
  0
LINE
  5
2EE
330
1F
100
AcDbEntity
  8
0
  6
Continuous
 62
     7
370
    18
100
AcDbLine
 10
214.6562681081
 20
48.8492894867
 30
0.0
 11
214.9624320353
 21
49.5368229553
 31
0.0
  0
LINE
  5
2EF
330
1F
100
AcDbEntity
  8
0
  6
Continuous
 62
     7
370
    18
100
AcDbLine
 10
215.6983423521
 20
49.9616549384
 30
0.0
 11
214.9624392793
 21
49.5368271372
 31
0.0
  0
LINE
  5
2F0
330
1F
100
AcDbEntity
  8
0
  6
Continuous
 62
     7
370
    18
100
AcDbLine
 10
215.631766795
 20
50.7048809061
 30
0.0
 11
214.3224953609
 21
49.9490545954
 31
0.0
  0
LINE
  5
2F1
330
1F
100
AcDbEntity
  8
0
  6
Continuous
 62
     7
370
    18
100
AcDbLine
 10
211.1454165293
 20
51.5234635551
 30
0.0
 11
210.8489292551
 21
51.0274019373
 31
0.0
  0
LINE
  5
2F2
330
1F
100
AcDbEntity
  8
0
  6
Continuous
 62
     7
370
    18
100
AcDbLine
 10
212.9772341402
 20
52.5809493526
 30
0.0
 11
211.1454771154
 21
51.5234985307
 31
0.0
  0
LINE
  5
2F3
330
1F
100
AcDbEntity
  8
0
  6
Continuous
 62
     7
370
    18
100
AcDbLine
 10
212.9772341402
 20
52.5809493526
 30
0.0
 11
213.0985442947
 21
52.5191988393
 31
0.0
  0
OLE2FRAME
  5
2F4
330
1F
100
AcDbEntity
  8
0
100
AcDbOle2Frame
 70
     2
  3
Paintbrush-Bild
 10
13.8511154363
 20
38.264191557
 30
0.0
 11
51.6290888628
 21
31.9806341108
 31
0.0
 71
     2
 72
     0
 73
     1
 90
    12928
310
80552BED0767C5B32B40DDAF6807D121434000000000000000006FFBDDFB85D0
310
4940DDAF6807D121434000000000000000006FFBDDFB85D04940416F4BD60AFB
310
3F4000000000000000002BED0767C5B32B40416F4BD60AFB3F40000000000000
310
0000000000000100000000010000010000000100000000000100000000320000
310
D0CF11E0A1B11AE1000000000000000000000000000000003E000300FEFF0900
310
0600000000000000000000000100000001000000000000000010000002000000
310
01000000FEFFFFFF0000000000000000FFFFFFFFFFFFFFFFFFFFFFFFFFFFFFFF
310
FFFFFFFFFFFFFFFFFFFFFFFFFFFFFFFFFFFFFFFFFFFFFFFFFFFFFFFFFFFFFFFF
310
FFFFFFFFFFFFFFFFFFFFFFFFFFFFFFFFFFFFFFFFFFFFFFFFFFFFFFFFFFFFFFFF
310
FFFFFFFFFFFFFFFFFFFFFFFFFFFFFFFFFFFFFFFFFFFFFFFFFFFFFFFFFFFFFFFF
310
FFFFFFFFFFFFFFFFFFFFFFFFFFFFFFFFFFFFFFFFFFFFFFFFFFFFFFFFFFFFFFFF
310
FFFFFFFFFFFFFFFFFFFFFFFFFFFFFFFFFFFFFFFFFFFFFFFFFFFFFFFFFFFFFFFF
310
FFFFFFFFFFFFFFFFFFFFFFFFFFFFFFFFFFFFFFFFFFFFFFFFFFFFFFFFFFFFFFFF
310
FFFFFFFFFFFFFFFFFFFFFFFFFFFFFFFFFFFFFFFFFFFFFFFFFFFFFFFFFFFFFFFF
310
FFFFFFFFFFFFFFFFFFFFFFFFFFFFFFFFFFFFFFFFFFFFFFFFFFFFFFFFFFFFFFFF
310
FFFFFFFFFFFFFFFFFFFFFFFFFFFFFFFFFFFFFFFFFFFFFFFFFFFFFFFFFFFFFFFF
310
FFFFFFFFFFFFFFFFFFFFFFFFFFFFFFFFFFFFFFFFFFFFFFFFFFFFFFFFFFFFFFFF
310
FFFFFFFFFFFFFFFFFFFFFFFFFFFFFFFFFFFFFFFFFFFFFFFFFFFFFFFFFFFFFFFF
310
FFFFFFFFFFFFFFFFFFFFFFFFFFFFFFFFFFFFFFFFFFFFFFFFFFFFFFFFFFFFFFFF
310
FFFFFFFFFFFFFFFFFFFFFFFFFFFFFFFFFFFFFFFFFFFFFFFFFFFFFFFFFFFFFFFF
310
FDFFFFFFFEFFFFFFFEFFFFFFFEFFFFFF05000000060000000700000008000000
310
090000000A0000000B0000000C0000000D0000000E0000000F00000010000000
310
11000000120000001300000014000000150000001600000017000000FEFFFFFF
310
FFFFFFFFFFFFFFFFFFFFFFFFFFFFFFFFFFFFFFFFFFFFFFFFFFFFFFFFFFFFFFFF
310
FFFFFFFFFFFFFFFFFFFFFFFFFFFFFFFFFFFFFFFFFFFFFFFFFFFFFFFFFFFFFFFF
310
FFFFFFFFFFFFFFFFFFFFFFFFFFFFFFFFFFFFFFFFFFFFFFFFFFFFFFFFFFFFFFFF
310
FFFFFFFFFFFFFFFFFFFFFFFFFFFFFFFFFFFFFFFFFFFFFFFFFFFFFFFFFFFFFFFF
310
FFFFFFFFFFFFFFFFFFFFFFFFFFFFFFFFFFFFFFFFFFFFFFFFFFFFFFFFFFFFFFFF
310
FFFFFFFFFFFFFFFFFFFFFFFFFFFFFFFFFFFFFFFFFFFFFFFFFFFFFFFFFFFFFFFF
310
FFFFFFFFFFFFFFFFFFFFFFFFFFFFFFFFFFFFFFFFFFFFFFFFFFFFFFFFFFFFFFFF
310
FFFFFFFFFFFFFFFFFFFFFFFFFFFFFFFFFFFFFFFFFFFFFFFFFFFFFFFFFFFFFFFF
310
FFFFFFFFFFFFFFFFFFFFFFFFFFFFFFFFFFFFFFFFFFFFFFFFFFFFFFFFFFFFFFFF
310
FFFFFFFFFFFFFFFFFFFFFFFFFFFFFFFFFFFFFFFFFFFFFFFFFFFFFFFFFFFFFFFF
310
FFFFFFFFFFFFFFFFFFFFFFFFFFFFFFFFFFFFFFFFFFFFFFFFFFFFFFFFFFFFFFFF
310
FFFFFFFFFFFFFFFFFFFFFFFFFFFFFFFFFFFFFFFFFFFFFFFFFFFFFFFFFFFFFFFF
310
FFFFFFFFFFFFFFFFFFFFFFFFFFFFFFFFFFFFFFFFFFFFFFFFFFFFFFFFFFFFFFFF
310
52006F006F007400200045006E00740072007900000000000000000000000000
310
0000000000000000000000000000000000000000000000000000000000000000
310
16000500FFFFFFFFFFFFFFFF020000000A00030000000000C000000000000046
310
00000000000000000000000000D1DE93A0A5D30103000000C000000000000000
310
01004F006C006500000000000000000000000000000000000000000000000000
310
0000000000000000000000000000000000000000000000000000000000000000
310
0A000200FFFFFFFFFFFFFFFFFFFFFFFF00000000000000000000000000000000
310
0000000000000000000000000000000000000000000000001400000000000000
310
010043006F006D0070004F0062006A0000000000000000000000000000000000
310
0000000000000000000000000000000000000000000000000000000000000000
310
120002010100000003000000FFFFFFFF00000000000000000000000000000000
310
0000000000000000000000000000000000000000010000004D00000000000000
310
01004F006C006500310030004E00610074006900760065000000000000000000
310
0000000000000000000000000000000000000000000000000000000000000000
310
1A000200FFFFFFFFFFFFFFFFFFFFFFFF00000000000000000000000000000000
310
0000000000000000000000000000000000000000040000002426000000000000
310
FEFFFFFF02000000FEFFFFFFFFFFFFFFFFFFFFFFFFFFFFFFFFFFFFFFFFFFFFFF
310
FFFFFFFFFFFFFFFFFFFFFFFFFFFFFFFFFFFFFFFFFFFFFFFFFFFFFFFFFFFFFFFF
310
FFFFFFFFFFFFFFFFFFFFFFFFFFFFFFFFFFFFFFFFFFFFFFFFFFFFFFFFFFFFFFFF
310
FFFFFFFFFFFFFFFFFFFFFFFFFFFFFFFFFFFFFFFFFFFFFFFFFFFFFFFFFFFFFFFF
310
FFFFFFFFFFFFFFFFFFFFFFFFFFFFFFFFFFFFFFFFFFFFFFFFFFFFFFFFFFFFFFFF
310
FFFFFFFFFFFFFFFFFFFFFFFFFFFFFFFFFFFFFFFFFFFFFFFFFFFFFFFFFFFFFFFF
310
FFFFFFFFFFFFFFFFFFFFFFFFFFFFFFFFFFFFFFFFFFFFFFFFFFFFFFFFFFFFFFFF
310
FFFFFFFFFFFFFFFFFFFFFFFFFFFFFFFFFFFFFFFFFFFFFFFFFFFFFFFFFFFFFFFF
310
FFFFFFFFFFFFFFFFFFFFFFFFFFFFFFFFFFFFFFFFFFFFFFFFFFFFFFFFFFFFFFFF
310
FFFFFFFFFFFFFFFFFFFFFFFFFFFFFFFFFFFFFFFFFFFFFFFFFFFFFFFFFFFFFFFF
310
FFFFFFFFFFFFFFFFFFFFFFFFFFFFFFFFFFFFFFFFFFFFFFFFFFFFFFFFFFFFFFFF
310
FFFFFFFFFFFFFFFFFFFFFFFFFFFFFFFFFFFFFFFFFFFFFFFFFFFFFFFFFFFFFFFF
310
FFFFFFFFFFFFFFFFFFFFFFFFFFFFFFFFFFFFFFFFFFFFFFFFFFFFFFFFFFFFFFFF
310
FFFFFFFFFFFFFFFFFFFFFFFFFFFFFFFFFFFFFFFFFFFFFFFFFFFFFFFFFFFFFFFF
310
FFFFFFFFFFFFFFFFFFFFFFFFFFFFFFFFFFFFFFFFFFFFFFFFFFFFFFFFFFFFFFFF
310
FFFFFFFFFFFFFFFFFFFFFFFFFFFFFFFFFFFFFFFFFFFFFFFFFFFFFFFFFFFFFFFF
310
0100000200000000000000000000000000000000000000000000000000000000
310
0000000000000000000000000000000000000000000000000000000000000000
310
0100FEFF030A0000FFFFFFFF0A00030000000000C00000000000004607000000
310
5042727573680007000000504272757368000700000050427275736800F439B2
310
7100000000000000000000000000000000000000000000000000000000000000
310
0000000000000000000000000000000000000000000000000000000000000000
310
0000000000000000000000000000000000000000000000000000000000000000
310
0000000000000000000000000000000000000000000000000000000000000000
310
0000000000000000000000000000000000000000000000000000000000000000
310
0000000000000000000000000000000000000000000000000000000000000000
310
0000000000000000000000000000000000000000000000000000000000000000
310
0000000000000000000000000000000000000000000000000000000000000000
310
0000000000000000000000000000000000000000000000000000000000000000
310
0000000000000000000000000000000000000000000000000000000000000000
310
0000000000000000000000000000000000000000000000000000000000000000
310
0000000000000000000000000000000000000000000000000000000000000000
310
20260000424D0E260000000000003E00000028000000B40200006E0000000100
310
01000000000000000000130B0000130B00000200000002000000000000FFFFFF
310
FFFFFFFFFFFFFFFFFFFFFFFFFFFFFFFFFFFFFFFFFFFFFFFFFFFFFFFFFFFFFFFF
310
FFFFFFFFFFFFFFFFFFFFFFFFFFFFFFFFFFFFFFFFFFFFFFFFFFFFFFFFFFFFFFFF
310
FFFFFFFFFFFFFFFFFFFFFFFFFFFFFFFFFFFFFFFFFFFFFFFFF000FFFFFFFFFFFF
310
FFFFFFFFFFFFFFFFFFFFFFFFFFFFFFFFFFFFFFFFFFFFFFFFFFFFFFFFFFFFFFFF
310
FFFFFFFFFFFFFFFFFFFFFFFFFFFFFFFFFFFFFFFFFFFFFFFFFFFFFFFFFFFFFFFF
310
FFFFFFFFFFFFFFFFFFFFFFFFFFFFFFFFF000FFFFFFFFFFFFFFFFFFFFFFFFFFFF
310
FFFFFFFFFFFFFFFFFFFFFFFFFFFFFFFFFFFFFFFFFFFFFFFFFFFFFFFFFFFFFFFF
310
FFFFFFFFFFFFFFFFFFFFFFFFFFFFFFFFFFFFFFFFFFFFFFFFFFFFFFFFFFFFFFFF
310
FFFFFFFFFFFFFFFFF000FFFFFFFFFFFFFFFFFFFFFFFFFFFFFFFFFFFFFFFFFFFF
310
FFFFFFFFFFFFFFFFFFFFFFFFFFFFFFFFFFFFFFFFFFFFFFFFFFFFFFFFFFFFFFFF
310
FFFFFFFFFFFFFFFFFFFFFFFFFFFFFFFFFFFFFFFFFFFFFFFFFFFFFFFFFFFFFFFF
310
F000FFFFFFFFFFFFFFFFFFFFFFFFFFFFFFFFFFFFFFFFFFFFFFFFFFFFFFFFFFFF
310
FFFFFFFFFFFFFFFFFFFFFFFFFFFFFFFFFFFFFFFFFFFFFFFFFFFFFFFFFFFFFFFF
310
FFFFFFFFFFFFFFFFFFFFFFFFFFFFFFFFFFFFFFFFFFFFFFFFF000FFFFFFFFFFFF
310
FFFFFFFFFFFFFFFFFFFFFFFFFFFFFFFFFFFFFFFFFFFFFFFFFFFFFFFFFFFFFFFF
310
FFFFFFFFFFFFFFFFFFFFFFFFFFFFFFFFFFFFFFFFFFFFFFFFFFFFFFFFFFFFFFFF
310
FFFFFFFFFFFFFFFFFFFFFFFFFFFFFFFFF000FFFFFFFFFFFFFFFFFFFFFFFFFFFF
310
FFFFFFFFFFFFFFFFFFFFFFFFFFFFFFFFFFFFFFFFFFFFFFFFFFFFFFFFFFFFFFFF
310
FFFFFFFFFFFFFFFFFFFFFFFFFFFFFFFFFFFFFFFFFFFFFFFFFFFFFFFFFFFFFFFF
310
FFFFFFFFFFFFFFFFF000FFFFFFFFFFFFFFFFFFFFFFFFFFFFFFFFFFFFFFFFFFFF
310
FFFFFFFFFFFFFFFFFFFFFFFFFFFFFFFFFFFFFFFFFFFFFFFFFFFFFFFFFFFFFFFF
310
FFFFFFFFFFFFFFFFFFFFFFFFFFFFFFFFFFFFFFFFFFFFFFFFFFFFFFFFFFFFFFFF
310
F000FFFFFFFFFFFFFFFFFFFFFFFFFFFFFFFFFFFFFFFFFFFFFFFFFFFFFFFFFFFF
310
FFFFFFFFFFFFFFFFFFFFFFFFFFFFFFFFFFFFFFFFFFFFFFFFFFFFFFFFFFFFFFFF
310
FFFFFFFFFFFFFFFFFFFFFFFFFFFFFFFFFFFFFFFFFFFFFFFFF000FFFFFFFFFFFF
310
FFFFFFFFFFFFFFFFFFFFFFFFFFFFFFFFFFFFFFFFFFFFFFFFFFFFFFFFFFFFFFFF
310
FFFFFFFFFFFFFFFFFFFFFFFFFFFFFFFFFFFFFFFFFFFFFFFFFFFFFFFFFFFFFFFF
310
FFFFFFFFFFFFFFFFFFFFFFFFFFFFFFFFF000FFFFFFFFFFFFFFFFFFFFFFFFFFFF
310
FFFFFFFFFFFFFFFFFFFFFFFFFFFFFFFFFFFFFFFFFFFFFFFFFFFFFFFFFFFFFFFF
310
FFFFFFFFFFFFFFFFFFFFFFFFFFFFFFFFFFFFFFFFFFFFFFFFFFFFFFFFFFFFFFFF
310
FFFFFFFFFFFFFFFFF000FFFFFFFFFFFFFFFFFFFFFFFFFFFFFFFFFFFFFFFFFFFF
310
FFFFFFFFFFFFFFFFFFFFFFFFFFFFFFFFFFFFFFFFFFFFFFFFFFFFFFFFFFFFFFFF
310
FFFFFFFFFFFFFFFFFFFFFFFFFFFFFFFFFFFFFFFFFFFFFFFFFFFFFFFFFFFFFFFF
310
F000FFFFFFFFFFFFFFFFFFFFFFFFFFFFFFFFFFFFFFFFFFFFFFFFFFFFFFFFFFFF
310
FFFFFFFFFFFFFFFFFFFFFFFFFFFFFFFFFFFFFFFFFFFFFFFFFFFFFFFFFFFFFFFF
310
FFFFFFFFFFFFFFFFFFFFFFFFFFFFFFFFFFFFFFFFFFFFFFFFF000FFFFFFFFFFFF
310
FFFFFFFFFFFFFFFFFFFFFFFFFFFFFFFFFFFFFFFFFFFFFFFFFFFFFFFFFFFFFFFF
310
FFFFFFFFFFFFFFFFFFFFFFFFFFFFFFFFFFFFFFFFFFFFFFFFFFFFFFFFFFFFFFFF
310
FFFFFFFFFFFFFFFFFFFFFFFFFFFFFFFFF000FFFFFFFFFFFFFFFFFFFFFFFFFFFF
310
FFFFFFFFFFFFFFFFFFFFFFFFFFFFFFFFFFFFFFFFFFFFFFFFFFFFFFFFFFFFFFFF
310
FFFFFFFFFFFFFFFFFFFFFFFFFFFFFFFFFFFFFFFFFFFFFFFFFFFFFFFFFFFFFFFF
310
FFFFFFFFFFFFFFFFF000FFFFFFFFFFFFFFFFFFFFFFFFFFFFFFFFFFFFFFFFFFFF
310
FFFFFFFFFFFFFFFFFFFFFFFFFFFFFFFFFFFFFFFFFFFFFFFFFFFFFFFFFFFFFFFF
310
FFFFFFFFFFFFFFFFFFFFFFFFFFFFFFFFFFFFFFFFFFFFFFFFFFFFFFFFFFFFFFFF
310
F000FFFFFFFFFFFFFFFFFFFFFFFFFFFFFFFFFFFFFFFFFFFFFFFFFFFFFFFFFFFF
310
FFFFFFFFFFFFFFFFFFFFFFFFFFFFFFFFFFFFFFFFFFFFFFFFFFFFFFFFFFFFFFFF
310
FFFFFFFFFFFFFFFFFFFFFFFFFFFFFFFFFFFFFFFFFFFFFFFFF000FFFFFFFFFFFF
310
FFFFFFFFFFFFFFFFFFFFFFFFFFFFFFFFFFFFFFFFFFFFFFFFFFFFFFFFFFFFFFFF
310
FFFFFFFFFFFFFFFFFFFFFFFFFFFFFFFFFFFFFFFFFFFFFFFFFFFFFFFFFFFFFFFF
310
FFFFFFFFFFFFFFFFFFFFFFFFFFFFFFFFF000FFFFFFFFFFFFFFFFFFFFFFFFFFFF
310
FFFFFFFFFFFFFFFFFFFFFFFFFFFFFFFFFFFFFFFFFFFFFFFFFFFFFFFFFFFFFFFF
310
FFFFFFFFFFFFFFFFFFFFFFFFFFFFFFFFFFFFFFFFFFFFFFFFFFFFFFFFFFFFFFFF
310
FFFFFFFFFFFFFFFFF000FFFFF80003FFFFFFFFFFFFFFFFFFFFFFFFFFFFFFFFFF
310
FFFFF00007FFFFFFFFFF00007FFFFFF800000000000000007FFFFFFFFFFFFFFF
310
FFFFFFFC001FFFFFFFFFFFFFFC001FFFFFFFFFFFFFFFFFFFFFFFFFFE0007FFFF
310
F000FFFF8000007FFFFFFFF8000FFFFFC0007FFFFF80007FFFFF0000007FFFFF
310
FFF8000007FFFFF800000000000000007FFFFFF0001FFFFFFFFFFFC00001FFFF
310
FFFFFFFFC00001FFFFFFFF000000000003FFFFE000007FFFF000FFFE0000000F
310
FFFFFFF0000FFFFF80007FFFFF80007FFFFC0000001FFFFFFFC0000001FFFFF8
310
00000000000000007FFFFFF0001FFFFFFFFFFE0000003FFFFFFFFFFE0000003F
310
FFFFFF000000000003FFFF0000000FFFF000FFF800000003FFFFFFF00007FFFF
310
80007FFFFF80007FFFF000000007FFFFFF000000003FFFF80000000000000000
310
7FFFFFF0001FFFFFFFFFF80000000FFFFFFFFFF80000000FFFFFFF0000000000
310
03FFFC00000003FFF000FFE000000000FFFFFFF00007FFFF80003FFFFF80007F
310
FFC000000001FFFFFC000000001FFFF800000000000000007FFFFFF0001FFFFF
310
FFFFE000000003FFFFFFFFE000000003FFFFFF000000000003FFF000000000FF
310
F000FF80000000007FFFFFF00007FFFF80003FFFFF80007FFF8000000000FFFF
310
F80000000007FFF800000000000000007FFFFFF0001FFFFFFFFFC000000001FF
310
FFFFFFC000000001FFFFFF000000000003FFC0000000007FF000FF0000000000
310
3FFFFFE00007FFFF00003FFFFF80007FFE00000000003FFFF00000000003FFF8
310
00000000000000007FFFFFF0001FFFFFFFFF8000000000FFFFFFFF8000000000
310
FFFFFF000000000003FF80000000003FF000FE00000000001FFFFFE00003FFFF
310
00003FFFFF80007FFC00000000001FFFE00000000001FFF8000001FFFE000000
310
7FFFFFF0001FFFFFFFFE00000000003FFFFFFE00000000003FFFFF0000000000
310
03FF00000000001FF000FC00000000000FFFFFE00003FFFF00001FFFFF80007F
310
F800000000001FFFC00000000000FFF8000001FFFE0000007FFFFFF0001FFFFF
310
FFFC00000000001FFFFFFC00000000001FFFFF000000000003FE00000000000F
310
F000F8000000000007FFFFE00003FFFF00001FFFFF80007FF800000000000FFF
310
800000000000FFF8000001FFFE0000007FFFFFF0001FFFFFFFF800000000000F
310
FFFFF800000000000FFFFF000000000003FC000000000007F000F80000000000
310
03FFFFC00003FFFE00001FFFFF80007FF0000000000007FF0000000000007FF8
310
000001FFFE0000007FFFFFF0001FFFFFFFF0000000000007FFFFF00000000000
310
07FFFF000000000003F8000000000003F000F0000000000003FFFFC00001FFFE
310
00001FFFFF80007FE0000000000007FE0000000000003FF8000001FFFE000000
310
7FFFFFF0001FFFFFFFF0000000000007FFFFF0000000000007FFFF0000000000
310
03F800001F800003F000E00001FFF00001FFFFC00001FFFE00000FFFFF80007F
310
E00001FFE00003FE00001FFF00003FF8000001FFFE0000007FFFFFF0001FFFFF
310
FFE000003E000003FFFFE000003E000003FFFF000000000003F00001FFF80001
310
F000E00007FFFC0001FFFFC00001FFFE00000FFFFF80007FC0000FFFFC0003FC
310
0000FFFFC0001FF8000001FFFE0000007FFFFFF0001FFFFFFFC00003FFE00001
310
FFFFC00003FFE00001FFFF0001FFFFFFFFF00007FFFE0001F000E0000FFFFF00
310
00FFFF800001FFFC00000FFFFF80007FC0001FFFFE0001FC0001FFFFE0001FF8
310
000001FFFE0000007FFFFFF0001FFFFFFF80000FFFF80000FFFF80000FFFF800
310
00FFFF0003FFFFFFFFE0000FFFFF8000F000C0003FFFFF8000FFFF800000FFFC
310
000007FFFF80007F80003FFFFF0001FC0003FFFFF0001FF8000001FFFE000000
310
7FFFFFF0001FFFFFFF80003FFFFE0000FFFF80003FFFFE0000FFFF0003FFFFFF
310
FFE0003FFFFF8000F000C0003FFFFF8000FFFF800000FFFC000007FFFF80007F
310
80007FFFFF8001F80007FFFFF8000FF8000001FFFE0000007FFFFFF0001FFFFF
310
FF00007FFFFF00007FFF00007FFFFF00007FFF0003FFFFFFFFE0003FFFFFC000
310
F000C0007FFFFFC000FFFF000000FFFC000007FFFF80007F8000FFFFFF8000F8
310
000FFFFFF8000FF8000001FFFE0000007FFFFFF0001FFFFFFF0000FFFFFF8000
310
7FFF0000FFFFFF80007FFF0003FFFFFFFFC0007FFFFFC00070008000FFFFFFC0
310
00FFFF000000FFF8000007FFFF80007F8000FFFFFF8000F8000FFFFFF8000FF8
310
000001FFFE0000007FFFFFF0001FFFFFFE0001FFFFFFC0003FFE0001FFFFFFC0
310
003FFF0003FFFFFFFFC0007FFFFFE00070008000FFFFFFC0007FFF0000007FF8
310
000003FFFF80007F0001FFFFFF8000F8000FFFFFF8000FF8000001FFFE000000
310
7FFFFFF0001FFFFFFE0001FFFFFFC0003FFE0001FFFFFFC0003FFF0003FFFFFF
310
FFC000FFFFFFE00070008000FFFFFFC0007FFF0000007FF8000003FFFF80007F
310
0001FFFFFF8000F8001FFFFFF8000FF8000001FFFE0000007FFFFFF0001FFFFF
310
FE0003FFFFFFE0003FFE0003FFFFFFE0003FFF0003FFFFFFFFC000FFFFFFE000
310
70008000FFFFFFC0007FFE0000007FF8000003FFFF80007F0001FFFFFF8000F0
310
001FFFFFF8000FF8000001FFFE0000007FFFFFF0001FFFFFFC0003FFFFFFE000
310
1FFC0003FFFFFFE0001FFF0003FFFFFFFFC000FFFFFFC00070008000FFFFFF80
310
007FFE0000007FF0000003FFFF80007F0001FFFFFF0000F0001FFFFFF8000FF8
310
000001FFFE0000007FFFFFF0001FFFFFFC0007FFFFFFF0001FFC0007FFFFFFF0
310
001FFF0003FFFFFFFFC000FFFFFFC00070008001FFFFFF0000FFFE0000003FF0
310
000001FFFF80007F0001FFFFFF0000F8001FFFFFF0000FF8000001FFFE000000
310
7FFFFFF0001FFFFFFC0007FFFFFFF0001FFC0007FFFFFFF0001FFF0003FFFFFF
310
FFC001FFFFFF80007000FFFFFFFFFE0000FFFE0008003FF0008001FFFF80007F
310
FFFFFFFFFC0000FFFFFFFFFFE0000FF8000001FFFE0000007FFFFFF0001FFFFF
310
F8000FFFFFFFF8000FF8000FFFFFFFF8000FFF0003FFFFFFFFFFFFFFFFFF0000
310
7000FFFFFFFFFC0000FFFC0008003FF0008001FFFF80007FFFFFFFFFF80001FF
310
FFFFFFFF80000FF8000001FFFE0000007FFFFFF0001FFFFFF8000FFFFFFFF800
310
0FF8000FFFFFFFF8000FFF0003FFFFFFFFFFFFFFFFFE0000F000FFFFFFFFE000
310
00FFFC000C003FE000C001FFFF80007FFFFFFFFFC00001FFFFFFFFFE00001FF8
310
000001FFFE0000007FFFFFF0001FFFFFF8000FFFFFFFF8000FF8000FFFFFFFF8
310
000FFF0003FFFFFFFFFFFFFFFFF00000F000FFFFFFFE000001FFFC000C001FE0
310
00C000FFFF80007FFFFFFFFE000001FFFFFFFFE000001FF80FFFFFFFFFFFFFC0
310
7FFFFFF0001FFFFFF8000FFFFFFFF8000FF8000FFFFFFFF8000FFF0003FFFFFF
310
FFFFFFFFFF800000F000FFFFFFC0000001FFFC001C001FE001C000FFFF80007F
310
FFFFFF80000003FFFFFFF80000001FF80FFFFFFFFFFFFFC07FFFFFF0001FFFFF
310
F8001FFFFFFFFC000FF8001FFFFFFFFC000FFF0003FFFFFFFFFFFFFFF0000001
310
F000FFFFF800000001FFF8001C001FE001C000FFFF80007FFFFFF800000003FF
310
FFFF800000003FF80FFFFFFFFFFFFFC07FFFFFF0001FFFFFF8001FFFFFFFFC00
310
0FF8001FFFFFFFFC000FFF0003FFFFFFFFFFFFFE00000001F000FFFFC0000000
310
03FFF8001E001FC001E000FFFF80007FFFFF8000000007FFFFFC000000003FF8
310
0FFFFFFFFFFFFFC07FFFFFF0001FFFFFF8001FFFFFFFFC000FF8001FFFFFFFFC
310
000FFF0003FFFFFFFFFFFFE000000003F000FFFE0000000007FFF8001E000FC0
310
01E0007FFF80007FFFFE0000000007FFFFE0000000007FF80FFFFFFFFFFFFFC0
310
7FFFFFF0001FFFFFF0001FFFFFFFFC0007F0001FFFFFFFFC0007FF0003FFFFFF
310
FFFFFF0000000003F000FFF80000000007FFF8001E000FC003E0007FFF80007F
310
FFF0000000000FFFFF8000000000FFF80FFFFFFFFFFFFFC07FFFFFF0001FFFFF
310
F0001FFFFFFFFC0007F0001FFFFFFFFC0007FF0003FFFFFFFFFFFC0000000007
310
F000FFE0000000000FFFF0003E000FC003E0007FFF80007FFFC0000000001FFF
310
FE0000000001FFF80FFFFFFFFFFFFFC07FFFFFF0001FFFFFF0001FFFFFFFFC00
310
07F0001FFFFFFFFC0007FF0003FFFFFFFFFFF0000000000FF000FFC000000000
310
1FFFF0003F000F8003F0003FFF80007FFF80000000003FFFF80000000003FFF8
310
0FFFFFFFFFFFFFC07FFFFFF0001FFFFFF0001FFFFFFFFC0007F0001FFFFFFFFC
310
0007FF0003FFFFFFFFFFE0000000001FF000FF00000000007FFFF0003F000780
310
03F0003FFF80007FFF00000000007FFFF00000000007FFF80FFFFFFFFFFFFFC0
310
7FFFFFF0001FFFFFF0001FFFFFFFFC0007F0001FFFFFFFFC0007FF0003FFFFFF
310
FFFF80000000007FF000FE0000000000FFFFE0003F00078007F0003FFF80007F
310
FE0000000001FFFFE0000000001FFFF80FFFFFFFFFFFFFC07FFFFFF0001FFFFF
310
F0001FFFFFFFFC0007F0001FFFFFFFFC0007FF0003FFFFFFFFFF0000000000FF
310
F000FC0000000003FFFFE0007F00078007F0003FFF80007FFC0000000007FFFF
310
C0000000007FFFF80FFFFFFFFFFFFFC07FFFFFF0001FFFFFF8001FFFFFFFFC00
310
0FF8001FFFFFFFFC000FFF0003FFFFFFFFFE0000000003FFF000FC000000000F
310
FFFFE0007F80070007F8001FFF80007FF8000000001FFFFF8000000001FFFFF8
310
0FFFFFFFFFFFFFC07FFFFFF0001FFFFFF8001FFFFFFFFC000FF8001FFFFFFFFC
310
000FFF0003FFFFFFFFFC000000000FFFF000F8000000007FFFFFE0007F800700
310
07F8001FFF80007FF000000000FFFFFF800000000FFFFFF80FFFFFFFFFFFFFC0
310
7FFFFFF0001FFFFFF8000FFFFFFFF8000FF8000FFFFFFFF8000FFF0003FFFFFF
310
FFFC000000007FFFF000F800000007FFFFFFC0007F8003000FF8001FFF80007F
310
F000000007FFFFFF000000007FFFFFF80FFFFFFFFFFFFFC07FFFFFF0001FFFFF
310
F8000FFFFFFFF8000FF8000FFFFFFFF8000FFF0003FFFFFFFFF80000000FFFFF
310
F000F0000000FFFFFFFFC000FF8003000FF8001FFF80007FE0000000FFFFFFFF
310
0000000FFFFFFFF8000001FFFE0000007FFFFFF0001FFFFFF8000FFFFFFFF800
310
0FF8000FFFFFFFF8000FFF0003FFFFFFFFF8000000FFFFFFF000F000000FFFFF
310
FFFFC000FFC002000FF8000FFF80007FE000001FFFFFFFFE000001FFFFFFFFF8
310
000001FFFE0000007FFFFFF0001FFFFFF8000FFFFFFFF8000FF8000FFFFFFFF8
310
000FFF0003FFFFFFFFF000001FFFFFFFF000E00000FFFFFFFFFFC000FFC00200
310
0FFC000FFF80007FE00001FFFFFFFFFE00001FFFFFFFFFF8000001FFFE000000
310
7FFFFFF0001FFFFFFC000FFFFFFFF8001FFC000FFFFFFFF8001FFF0003FFFFFF
310
FFF00001FFFFFFFFF000E00007FFFFFFFFFF8000FFC000001FFC000FFF80007F
310
C0000FFFFFFFFFFE0000FFFFFFFFFFF8000001FFFE0000007FFFFFF0001FFFFF
310
FC0007FFFFFFF0001FFC0007FFFFFFF0001FFF0003FFFFFFFFF00007FFFFFFFF
310
F000E0001FFFFFFFFFFF8000FFC000001FFC000FFF80007FC0003FFFFFFFFFFE
310
0001FFFFFFFFFFF8000001FFFE0000007FFFFFF0001FFFFFFC0007FFFFFFF000
310
1FFC0007FFFFFFF0001FFF0003FFFFFFFFF0001FFFFFFFFFF000E0003FFFFF00
310
03FF8001FFE000001FFC0007FF80007FC0007FFFFF0007FC0003FFFFF0003FF8
310
000001FFFE0000007FFFFFF0001FFFFFFC0003FFFFFFE0001FFC0003FFFFFFE0
310
001FFF0003FFFFFFFFF0003FFFFFFFFFF000E0003FFFFF0001FF8001FFE00000
310
1FFE0007FF80007FC0007FFFFE0003FC0007FFFFE0003FF8000001FFFE000000
310
7FFFFFF0001FFFFFFE0003FFFFFFE0003FFE0003FFFFFFE0003FFF0003FFFFFF
310
FFF0003FFFFF8001F000E0003FFFFF0001FF0001FFE000001FFE0007FF80007F
310
C0007FFFFE0003FC0007FFFFE0003FF8000001FFFE0000007FFFFFF0001FFFFF
310
FE0001FFFFFFC0003FFE0001FFFFFFC0003FFF0003FFFFFFFFF0003FFFFF0001
310
F000E0003FFFFF0003FF0001FFE000003FFE0007FF80007FC0007FFFFE0003FC
310
0007FFFFE0003FF8000001FFFE0000007FFFFFF0001FFFFFFF0001FFFFFFC000
310
7FFF0001FFFFFFC0007FFF0003FFFFFFFFF0003FFFFF0001F000E0003FFFFE00
310
03FF0003FFF000003FFE0003FF80007FC0007FFFFC0003FE0007FFFFE0003FF8
310
000001FFFE0000007FFFFFF0001FFFFFFF0000FFFFFF80007FFF0000FFFFFF80
310
007FFF0003FFFFFFFFF0003FFFFF0001F000E0003FFFFE0003FF0003FFF00000
310
3FFF0003FF80007FC0007FFFFC0007FE0007FFFFC0003FF8000001FFFE000000
310
7FFFFFF0001FFFFFFF80007FFFFF0000FFFF80007FFFFF0000FFFF0003FFFFFF
310
FFF0003FFFFF0003F000E0003FFFFC0003FE0003FFF000003FFF0003FF80007F
310
E0003FFFF80007FE0003FFFFC0007FF8000001FFFE0000007FFFFFF0001FFFFF
310
FF80003FFFFE0000FFFF80003FFFFE0000FFFF0003FFFFFFFFF0001FFFFE0003
310
F000F0001FFFF80003FE0003FFF000007FFF0001FF80007FE0003FFFF00007FE
310
0001FFFF80007FF8000001FFFE0000007FFFFFF0001FFFFFFFC0000FFFF80001
310
FFFFC0000FFFF80001FFFF0003FFFFFFFFF0001FFFFC0003F000F0000FFFF000
310
07FE0007FFF800007FFF0001FF80007FE0001FFFE00007FF0000FFFE00007FF8
310
000001FFFE0000007FFFFFF0001FFFFFFFC00003FFE00001FFFFC00003FFE000
310
01FFFF0003FFFFFFFFF8000FFFF80003F000F00003FFC00007FC0007FFF80000
310
7FFF8001FF80007FF00007FF80000FFF00007FF80000FFF8000001FFFE000000
310
7F80000000000001FFE000003E000003FFFFE000003E000003FFFF0003FFFFFF
310
FFF80003FFE00007F000F800000000000FFC0007FFF800007FFF8001FF80007F
310
F000000000000FFF000000000000FFF8000001FFFE0000007F80000000000001
310
FFF0000000000007FFFFF0000000000007FFFF0003FFFFFFFFFC00007E000007
310
F000F800000000000FFC0007FFF80000FFFF8000FF80007FF800000000001FFF
310
800000000001FFF8000001FFFE0000007F80000000000001FFF800000000000F
310
FFFFF800000000000FFFFF0003FFFFFFFFFC00000000000FF000FC0000000000
310
1FFC0007FFFC0000FFFF8000FF80007FF800000000003FFFC00000000001FFF8
310
000001FFFE0000007F80000000000001FFF800000000000FFFFFF80000000000
310
0FFFFF0003FFFFFFFFFE00000000001FF000FE00000000003FF8000FFFFC0000
310
FFFF8000FF80007FFC00000000003FFFC00000000003FFF8000001FFFE000000
310
7F80000000000001FFFC00000000001FFFFFFC00000000001FFFFF0003FFFFFF
310
FFFF00000000001FF000FF00000000003FF8000FFFFC0000FFFFC000FF80007F
310
FE00000000007FFFE00000000007FFF8000001FFFE0000007F80000000000001
310
FFFE00000000003FFFFFFE00000000003FFFFF0003FFFFFFFFFF80000000003F
310
F000FF80000000007FF8000FFFFC0001FFFFC0007F80007FFF0000000000FFFF
310
F0000000000FFFF800000000000000007F80000000000001FFFF8000000000FF
310
FFFFFF8000000000FFFFFF0003FFFFFFFFFFC0000000007FF000FFC000000000
310
FFF8000FFFFE0001FFFFC0007F80007FFF8000000001FFFFF8000000001FFFF8
310
00000000000000007F80000000000001FFFFC000000001FFFFFFFFC000000001
310
FFFFFF0003FFFFFFFFFFE000000000FFF000FFE000000003FFF0001FFFFE0001
310
FFFFC0007F80007FFFC000000007FFFFFE000000003FFFF80000000000000000
310
7F80000000000001FFFFE000000003FFFFFFFFE000000003FFFFFF0003FFFFFF
310
FFFFF000000003FFF000FFF80000000FFFF0001FFFFE0001FFFFE0007F80007F
310
FFF00000000FFFFFFF00000000FFFFF800000000000000007F80000000000001
310
FFFFF80000000FFFFFFFFFF80000000FFFFFFF0003FFFFFFFFFFFC0000000FFF
310
F000FFFE0000003FFFF0001FFFFE0003FFFFE0003F80007FFFFC0000003FFFFF
310
FFC0000003FFFFF800000000000000007F80000000000001FFFFFE0000003FFF
310
FFFFFFFE0000003FFFFFFF0003FFFFFFFFFFFF0000003FFFF000FFFF800000FF
310
FFF0001FFFFF0003FFFFE0003F80007FFFFF000001FFFFFFFFF800001FFFFFF8
310
00000000000000007F80000000000001FFFFFFC00001FFFFFFFFFFFFC00001FF
310
FFFFFF0003FFFFFFFFFFFFC00000FFFFF000FFFFF8000FFFFFFFFFFFFFFFFFFF
310
FFFFFFFFFFFFFFFFFFFFF0001FFFFFFFFFFF0000FFFFFFF80000000000000000
310
7FFFFFFFFFFFFFFFFFFFFFFC001FFFFFFFFFFFFFFC001FFFFFFFFFFFFFFFFFFF
310
FFFFFFFC001FFFFFF000FFFFFFFFFFFFFFFFFFFFFFFFFFFFFFFFFFFFFFFFFFFF
310
FFFFFFFFFFFFFFFFFFFFFFFFFFFFFFFFFFFFFFFFFFFFFFFFFFFFFFFFFFFFFFFF
310
FFFFFFFFFFFFFFFFFFFFFFFFFFFFFFFFFFFFFFFFFFFFFFFFFFFFFFFFFFFFFFFF
310
F000FFFFFFFFFFFFFFFFFFFFFFFFFFFFFFFFFFFFFFFFFFFFFFFFFFFFFFFFFFFF
310
FFFFFFFFFFFFFFFFFFFFFFFFFFFFFFFFFFFFFFFFFFFFFFFFFFFFFFFFFFFFFFFF
310
FFFFFFFFFFFFFFFFFFFFFFFFFFFFFFFFFFFFFFFFFFFFFFFFF000FFFFFFFFFFFF
310
FFFFFFFFFFFFFFFFFFFFFFFFFFFFFFFFFFFFFFFFFFFFFFFFFFFFFFFFFFFFFFFF
310
FFFFFFFFFFFFFFFFFFFFFFFFFFFFFFFFFFFFFFFFFFFFFFFFFFFFFFFFFFFFFFFF
310
FFFFFFFFFFFFFFFFFFFFFFFFFFFFFFFFF000FFFFFFFFFFFFFFFFFFFFFFFFFFFF
310
FFFFFFFFFFFFFFFFFFFFFFFFFFFFFFFFFFFFFFFFFFFFFFFFFFFFFFFFFFFFFFFF
310
FFFFFFFFFFFFFFFFFFFFFFFFFFFFFFFFFFFFFFFFFFFFFFFFFFFFFFFFFFFFFFFF
310
FFFFFFFFFFFFFFFFF000FFFFFFFFFFFFFFFFFFFFFFFFFFFFFFFFFFFFFFFFFFFF
310
FFFFFFFFFFFFFFFFFFFFFFFFFFFFFFFFFFFFFFFFFFFFFFFFFFFFFFFFFFFFFFFF
310
FFFFFFFFFFFFFFFFFFFFFFFFFFFFFFFFFFFFFFFFFFFFFFFFFFFFFFFFFFFFFFFF
310
F000FFFFFFFFFFFFFFFFFFFFFFFFFFFFFFFFFFFFFFFFFFFFFFFFFFFFFFFFFFFF
310
FFFFFFFFFFFFFFFFFFFFFFFFFFFFFFFFFFFFFFFFFFFFFFFFFFFFFFFFFFFFFFFF
310
FFFFFFFFFFFFFFFFFFFFFFFFFFFFFFFFFFFFFFFFFFFFFFFFF000FFFFFFFFFFFF
310
FFFFFFFFFFFFFFFFFFFFFFFFFFFFFFFFFFFFFFFFFFFFFFFFFFFFFFFFFFFFFFFF
310
FFFFFFFFFFFFFFFFFFFFFFFFFFFFFFFFFFFFFFFFFFFFFFFFFFFFFFFFFFFFFFFF
310
FFFFFFFFFFFFFFFFFFFFFFFFFFFFFFFFF000FFFFFFFFFFFFFFFFFFFFFFFFFFFF
310
FFFFFFFFFFFFFFFFFFFFFFFFFFFFFFFFFFFFFFFFFFFFFFFFFFFFFFFFFFFFFFFF
310
FFFFFFFFFFFFFFFFFFFFFFFFFFFFFFFFFFFFFFFFFFFFFFFFFFFFFFFFFFFFFFFF
310
FFFFFFFFFFFFFFFFF000FFFFFFFFFFFFFFFFFFFFFFFFFFFFFFFFFFFFFFFFFFFF
310
FFFFFFFFFFFFFFFFFFFFFFFFFFFFFFFFFFFFFFFFFFFFFFFFFFFFFFFFFFFFFFFF
310
FFFFFFFFFFFFFFFFFFFFFFFFFFFFFFFFFFFFFFFFFFFFFFFFFFFFFFFFFFFFFFFF
310
F000FFFFFFFFFFFFFFFFFFFFFFFFFFFFFFFFFFFFFFFFFFFFFFFFFFFFFFFFFFFF
310
FFFFFFFFFFFFFFFFFFFFFFFFFFFFFFFFFFFFFFFFFFFFFFFFFFFFFFFFFFFFFFFF
310
FFFFFFFFFFFFFFFFFFFFFFFFFFFFFFFFFFFFFFFFFFFFFFFFF000FFFFFFFFFFFF
310
FFFFFFFFFFFFFFFFFFFFFFFFFFFFFFFFFFFFFFFFFFFFFFFFFFFFFFFFFFFFFFFF
310
FFFFFFFFFFFFFFFFFFFFFFFFFFFFFFFFFFFFFFFFFFFFFFFFFFFFFFFFFFFFFFFF
310
FFFFFFFFFFFFFFFFFFFFFFFFFFFFFFFFF000FFFFFFFFFFFFFFFFFFFFFFFFFFFF
310
FFFFFFFFFFFFFFFFFFFFFFFFFFFFFFFFFFFFFFFFFFFFFFFFFFFFFFFFFFFFFFFF
310
FFFFFFFFFFFFFFFFFFFFFFFFFFFFFFFFFFFFFFFFFFFFFFFFFFFFFFFFFFFFFFFF
310
FFFFFFFFFFFFFFFFF000FFFFFFFFFFFFFFFFFFFFFFFFFFFFFFFFFFFFFFFFFFFF
310
FFFFFFFFFFFFFFFFFFFFFFFFFFFFFFFFFFFFFFFFFFFFFFFFFFFFFFFFFFFFFFFF
310
FFFFFFFFFFFFFFFFFFFFFFFFFFFFFFFFFFFFFFFFFFFFFFFFFFFFFFFFFFFFFFFF
310
F000FFFFFFFFFFFFFFFFFFFFFFFFFFFFFFFFFFFFFFFFFFFFFFFFFFFFFFFFFFFF
310
FFFFFFFFFFFFFFFFFFFFFFFFFFFFFFFFFFFFFFFFFFFFFFFFFFFFFFFFFFFFFFFF
310
FFFFFFFFFFFFFFFFFFFFFFFFFFFFFFFFFFFFFFFFFFFFFFFFF000FFFFFFFFFFFF
310
FFFFFFFFFFFFFFFFFFFFFFFFFFFFFFFFFFFFFFFFFFFFFFFFFFFFFFFFFFFFFFFF
310
FFFFFFFFFFFFFFFFFFFFFFFFFFFFFFFFFFFFFFFFFFFFFFFFFFFFFFFFFFFFFFFF
310
FFFFFFFFFFFFFFFFFFFFFFFFFFFFFFFFF000FFFFFFFFFFFFFFFFFFFFFFFFFFFF
310
FFFFFFFFFFFFFFFFFFFFFFFFFFFFFFFFFFFFFFFFFFFFFFFFFFFFFFFFFFFFFFFF
310
FFFFFFFFFFFFFFFFFFFFFFFFFFFFFFFFFFFFFFFFFFFFFFFFFFFFFFFFFFFFFFFF
310
FFFFFFFFFFFFFFFFF000FFFFFFFFFFFFFFFFFFFFFFFFFFFFFFFFFFFFFFFFFFFF
310
FFFFFFFFFFFFFFFFFFFFFFFFFFFFFFFFFFFFFFFFFFFFFFFFFFFFFFFFFFFFFFFF
310
FFFFFFFFFFFFFFFFFFFFFFFFFFFFFFFFFFFFFFFFFFFFFFFFFFFFFFFFFFFFFFFF
310
F000FFFFFFFFFFFFFFFFFFFFFFFFFFFFFFFFFFFFFFFFFFFFFFFFFFFFFFFFFFFF
310
FFFFFFFFFFFFFFFFFFFFFFFFFFFFFFFFFFFFFFFFFFFFFFFFFFFFFFFFFFFFFFFF
310
FFFFFFFFFFFFFFFFFFFFFFFFFFFFFFFFFFFFFFFFFFFFFFFFF000FFFFFFFFFFFF
310
FFFFFFFFFFFFFFFFFFFFFFFFFFFFFFFFFFFFFFFFFFFFFFFFFFFFFFFFFFFFFFFF
310
FFFFFFFFFFFFFFFFFFFFFFFFFFFFFFFFFFFFFFFFFFFFFFFFFFFFFFFFFFFFFFFF
310
FFFFFFFFFFFFFFFFFFFFFFFFFFFFFFFFF000FFFFFFFFFFFFFFFFFFFFFFFFFFFF
310
FFFFFFFFFFFFFFFFFFFFFFFFFFFFFFFFFFFFFFFFFFFFFFFFFFFFFFFFFFFFFFFF
310
FFFFFFFFFFFFFFFFFFFFFFFFFFFFFFFFFFFFFFFFFFFFFFFFFFFFFFFFFFFFFFFF
310
FFFFFFFFFFFFFFFFF000FFFFFFFFFFFFFFFFFFFFFFFFFFFFFFFFFFFFFFFFFFFF
310
FFFFFFFFFFFFFFFFFFFFFFFFFFFFFFFFFFFFFFFFFFFFFFFFFFFFFFFFFFFFFFFF
310
FFFFFFFFFFFFFFFFFFFFFFFFFFFFFFFFFFFFFFFFFFFFFFFFFFFFFFFFFFFFFFFF
310
F000FFFFFFFFFFFFFFFFFFFFFFFFFFFFFFFFFFFFFFFFFFFFFFFFFFFFFFFFFFFF
310
FFFFFFFFFFFFFFFFFFFFFFFFFFFFFFFFFFFFFFFFFFFFFFFFFFFFFFFFFFFFFFFF
310
FFFFFFFFFFFFFFFFFFFFFFFFFFFFFFFFFFFFFFFFFFFFFFFFF000FFFFFFFFFFFF
310
FFFFFFFFFFFFFFFFFFFFFFFFFFFFFFFFFFFFFFFFFFFFFFFFFFFFFFFFFFFFFFFF
310
FFFFFFFFFFFFFFFFFFFFFFFFFFFFFFFFFFFFFFFFFFFFFFFFFFFFFFFFFFFFFFFF
310
FFFFFFFFFFFFFFFFFFFFFFFFFFFFFFFFF0000000000000000000000000000000
310
0000000000000000000000000000000000000000000000000000000000000000
310
0000000000000000000000000000000000000000000000000000000000000000
310
0000000000000000000000000000000000000000000000000000000000000000
310
0000000000000000000000000000000000000000000000000000000000000000
310
0000000000000000000000000000000000000000000000000000000000000000
310
0000000000000000000000000000000000000000000000000000000000000000
310
0000000000000000000000000000000000000000000000000000000000000000
310
0000000000000000000000000000000000000000000000000000000000000000
310
0000000000000000000000000000000000000000000000000000000000000000
310
0000000000000000000000000000000000000000000000000000000000000000
310
0000000000000000000000000000000000000000000000000000000000000000
310
0000000000000000000000000000000000000000000000000000000000000000
310
0000000000000000000000000000000000000000000000000000000000000000
310
0000000000000000000000000000000000000000000000000000000000000000
310
0000000000000000000000000000000000000000000000000000000000000000
  1
OLE
  0
ENDSEC
  0
SECTION
  2
OBJECTS
  0
DICTIONARY
  5
C
330
0
100
AcDbDictionary
281
     1
  3
ACAD_GROUP
350
D
  3
ACAD_LAYOUT
350
1A
  3
ACAD_MLINESTYLE
350
17
  3
ACAD_PLOTSETTINGS
350
19
  3
ACAD_PLOTSTYLENAME
350
E
  3
ACAD_SCALELIST
350
47
  0
DICTIONARY
  5
D
102
{ACAD_REACTORS
330
C
102
}
330
C
100
AcDbDictionary
281
     1
  0
DICTIONARY
  5
1A
102
{ACAD_REACTORS
330
C
102
}
330
C
100
AcDbDictionary
281
     1
  3
Layout1
350
1E
  3
Layout2
350
26
  3
Model
350
22
  0
DICTIONARY
  5
17
102
{ACAD_REACTORS
330
C
102
}
330
C
100
AcDbDictionary
281
     1
  3
Standard
350
18
  0
DICTIONARY
  5
19
102
{ACAD_REACTORS
330
C
102
}
330
C
100
AcDbDictionary
281
     1
  0
ACDBDICTIONARYWDFLT
  5
E
102
{ACAD_REACTORS
330
C
102
}
330
C
100
AcDbDictionary
281
     1
  3
Normal
350
F
100
AcDbDictionaryWithDefault
340
F
  0
DICTIONARY
  5
47
102
{ACAD_REACTORS
330
C
102
}
330
C
100
AcDbDictionary
281
     1
  3
A0
350
48
  3
A1
350
49
  3
A2
350
4A
  3
A3
350
4B
  3
A4
350
4C
  3
A5
350
4D
  3
A6
350
4E
  3
A7
350
4F
  3
A8
350
50
  3
A9
350
51
  3
B0
350
52
  3
B1
350
53
  3
B2
350
54
  3
B3
350
55
  3
B4
350
56
  3
B5
350
57
  3
B6
350
58
  3
B7
350
59
  3
B8
350
5A
  3
B9
350
5B
  3
C0
350
5C
  3
C1
350
5D
  3
C2
350
5E
  3
C3
350
5F
  3
C4
350
60
  3
C5
350
61
  3
C6
350
62
  3
C7
350
63
  3
C8
350
64
  3
C9
350
65
  3
D0
350
66
  3
D1
350
67
  3
D2
350
68
  0
LAYOUT
  5
1E
102
{ACAD_REACTORS
330
1A
102
}
330
1A
100
AcDbPlotSettings
  1

  2
none_device
  4

  6

 40
0.0
 41
0.0
 42
0.0
 43
0.0
 44
0.0
 45
0.0
 46
0.0
 47
0.0
 48
0.0
 49
0.0
140
0.0
141
0.0
142
1.0
143
1.0
 70
   688
 72
     1
 73
     0
 74
     5
  7

 75
    16
147
1.0
148
0.0
149
0.0
100
AcDbLayout
  1
Layout1
 70
     1
 71
     1
 10
0.0
 20
0.0
 11
420.0
 21
297.0
 12
0.0
 22
0.0
 32
0.0
 14
1.0000000000E+20
 24
1.0000000000E+20
 34
1.0000000000E+20
 15
-1.0000000000E+20
 25
-1.0000000000E+20
 35
-1.0000000000E+20
146
0.0
 13
0.0
 23
0.0
 33
0.0
 16
1.0
 26
0.0
 36
0.0
 17
0.0
 27
1.0
 37
0.0
 76
     0
330
1B
  0
LAYOUT
  5
26
102
{ACAD_REACTORS
330
1A
102
}
330
1A
100
AcDbPlotSettings
  1

  2
none_device
  4

  6

 40
0.0
 41
0.0
 42
0.0
 43
0.0
 44
0.0
 45
0.0
 46
0.0
 47
0.0
 48
0.0
 49
0.0
140
0.0
141
0.0
142
1.0
143
1.0
 70
   688
 72
     1
 73
     0
 74
     5
  7

 75
    16
147
1.0
148
0.0
149
0.0
100
AcDbLayout
  1
Layout2
 70
     1
 71
     2
 10
0.0
 20
0.0
 11
0.0
 21
0.0
 12
0.0
 22
0.0
 32
0.0
 14
0.0
 24
0.0
 34
0.0
 15
0.0
 25
0.0
 35
0.0
146
0.0
 13
0.0
 23
0.0
 33
0.0
 16
1.0
 26
0.0
 36
0.0
 17
0.0
 27
1.0
 37
0.0
 76
     0
330
23
  0
LAYOUT
  5
22
102
{ACAD_REACTORS
330
1A
102
}
330
1A
100
AcDbPlotSettings
  1

  2
none_device
  4
Letter_(8.50_x_11.00_Inches)
  6

 40
6.35
 41
6.35
 42
6.35000508
 43
6.35000508
 44
215.9
 45
279.4
 46
0.0
 47
0.0
 48
0.0
 49
0.0
140
0.0
141
0.0
142
1.0
143
1.0
 70
  1712
 72
     1
 73
     0
 74
     0
  7

 75
     0
147
1.0
148
0.0
149
0.0
100
AcDbLayout
  1
Model
 70
     1
 71
     0
 10
0.0
 20
0.0
 11
297.0
 21
210.0
 12
0.0
 22
0.0
 32
0.0
 14
0.0
 24
0.0
 34
0.0
 15
297.0
 25
210.0
 35
0.0
146
0.0
 13
0.0
 23
0.0
 33
0.0
 16
1.0
 26
0.0
 36
0.0
 17
0.0
 27
1.0
 37
0.0
 76
     0
330
1F
331
29
  0
MLINESTYLE
  5
18
102
{ACAD_REACTORS
330
17
102
}
330
17
100
AcDbMlineStyle
  2
Standard
 70
     0
  3

 62
   256
 51
90.0
 52
90.0
 71
     2
 49
0.5
 62
   256
  6
BYLAYER
 49
-0.5
 62
   256
  6
BYLAYER
  0
ACDBPLACEHOLDER
  5
F
102
{ACAD_REACTORS
330
E
102
}
330
E
  0
SCALE
  5
48
102
{ACAD_REACTORS
330
47
102
}
330
47
100
AcDbScale
 70
     0
300
1:1
140
1.0
141
1.0
290
     1
  0
SCALE
  5
49
102
{ACAD_REACTORS
330
47
102
}
330
47
100
AcDbScale
 70
     0
300
1:2
140
1.0
141
2.0
290
     0
  0
SCALE
  5
4A
102
{ACAD_REACTORS
330
47
102
}
330
47
100
AcDbScale
 70
     0
300
1:4
140
1.0
141
4.0
290
     0
  0
SCALE
  5
4B
102
{ACAD_REACTORS
330
47
102
}
330
47
100
AcDbScale
 70
     0
300
1:5
140
1.0
141
5.0
290
     0
  0
SCALE
  5
4C
102
{ACAD_REACTORS
330
47
102
}
330
47
100
AcDbScale
 70
     0
300
1:8
140
1.0
141
8.0
290
     0
  0
SCALE
  5
4D
102
{ACAD_REACTORS
330
47
102
}
330
47
100
AcDbScale
 70
     0
300
1:10
140
1.0
141
10.0
290
     0
  0
SCALE
  5
4E
102
{ACAD_REACTORS
330
47
102
}
330
47
100
AcDbScale
 70
     0
300
1:16
140
1.0
141
16.0
290
     0
  0
SCALE
  5
4F
102
{ACAD_REACTORS
330
47
102
}
330
47
100
AcDbScale
 70
     0
300
1:20
140
1.0
141
20.0
290
     0
  0
SCALE
  5
50
102
{ACAD_REACTORS
330
47
102
}
330
47
100
AcDbScale
 70
     0
300
1:30
140
1.0
141
30.0
290
     0
  0
SCALE
  5
51
102
{ACAD_REACTORS
330
47
102
}
330
47
100
AcDbScale
 70
     0
300
1:40
140
1.0
141
40.0
290
     0
  0
SCALE
  5
52
102
{ACAD_REACTORS
330
47
102
}
330
47
100
AcDbScale
 70
     0
300
1:50
140
1.0
141
50.0
290
     0
  0
SCALE
  5
53
102
{ACAD_REACTORS
330
47
102
}
330
47
100
AcDbScale
 70
     0
300
1:100
140
1.0
141
100.0
290
     0
  0
SCALE
  5
54
102
{ACAD_REACTORS
330
47
102
}
330
47
100
AcDbScale
 70
     0
300
2:1
140
2.0
141
1.0
290
     0
  0
SCALE
  5
55
102
{ACAD_REACTORS
330
47
102
}
330
47
100
AcDbScale
 70
     0
300
4:1
140
4.0
141
1.0
290
     0
  0
SCALE
  5
56
102
{ACAD_REACTORS
330
47
102
}
330
47
100
AcDbScale
 70
     0
300
8:1
140
8.0
141
1.0
290
     0
  0
SCALE
  5
57
102
{ACAD_REACTORS
330
47
102
}
330
47
100
AcDbScale
 70
     0
300
10:1
140
10.0
141
1.0
290
     0
  0
SCALE
  5
58
102
{ACAD_REACTORS
330
47
102
}
330
47
100
AcDbScale
 70
     0
300
100:1
140
100.0
141
1.0
290
     0
  0
SCALE
  5
59
102
{ACAD_REACTORS
330
47
102
}
330
47
100
AcDbScale
 70
     0
300
1/128" = 1'-0"
140
0.0078125
141
12.0
290
     0
  0
SCALE
  5
5A
102
{ACAD_REACTORS
330
47
102
}
330
47
100
AcDbScale
 70
     0
300
1/64" = 1'-0"
140
0.015625
141
12.0
290
     0
  0
SCALE
  5
5B
102
{ACAD_REACTORS
330
47
102
}
330
47
100
AcDbScale
 70
     0
300
1/32" = 1'-0"
140
0.03125
141
12.0
290
     0
  0
SCALE
  5
5C
102
{ACAD_REACTORS
330
47
102
}
330
47
100
AcDbScale
 70
     0
300
1/16" = 1'-0"
140
0.0625
141
12.0
290
     0
  0
SCALE
  5
5D
102
{ACAD_REACTORS
330
47
102
}
330
47
100
AcDbScale
 70
     0
300
3/32" = 1'-0"
140
0.09375
141
12.0
290
     0
  0
SCALE
  5
5E
102
{ACAD_REACTORS
330
47
102
}
330
47
100
AcDbScale
 70
     0
300
1/8" = 1'-0"
140
0.125
141
12.0
290
     0
  0
SCALE
  5
5F
102
{ACAD_REACTORS
330
47
102
}
330
47
100
AcDbScale
 70
     0
300
3/16" = 1'-0"
140
0.1875
141
12.0
290
     0
  0
SCALE
  5
60
102
{ACAD_REACTORS
330
47
102
}
330
47
100
AcDbScale
 70
     0
300
1/4" = 1'-0"
140
0.25
141
12.0
290
     0
  0
SCALE
  5
61
102
{ACAD_REACTORS
330
47
102
}
330
47
100
AcDbScale
 70
     0
300
3/8" = 1'-0"
140
0.375
141
12.0
290
     0
  0
SCALE
  5
62
102
{ACAD_REACTORS
330
47
102
}
330
47
100
AcDbScale
 70
     0
300
1/2" = 1'-0"
140
0.5
141
12.0
290
     0
  0
SCALE
  5
63
102
{ACAD_REACTORS
330
47
102
}
330
47
100
AcDbScale
 70
     0
300
3/4" = 1'-0"
140
0.75
141
12.0
290
     0
  0
SCALE
  5
64
102
{ACAD_REACTORS
330
47
102
}
330
47
100
AcDbScale
 70
     0
300
1" = 1'-0"
140
1.0
141
12.0
290
     0
  0
SCALE
  5
65
102
{ACAD_REACTORS
330
47
102
}
330
47
100
AcDbScale
 70
     0
300
1-1/2" = 1'-0"
140
1.5
141
12.0
290
     0
  0
SCALE
  5
66
102
{ACAD_REACTORS
330
47
102
}
330
47
100
AcDbScale
 70
     0
300
3" = 1'-0"
140
3.0
141
12.0
290
     0
  0
SCALE
  5
67
102
{ACAD_REACTORS
330
47
102
}
330
47
100
AcDbScale
 70
     0
300
6" = 1'-0"
140
6.0
141
12.0
290
     0
  0
SCALE
  5
68
102
{ACAD_REACTORS
330
47
102
}
330
47
100
AcDbScale
 70
     0
300
1'-0" = 1'-0"
140
12.0
141
12.0
290
     0
  0
ENDSEC
  0
EOF
