  0
SECTION
  2
HEADER
  9
$ACADVER
  1
AC1015
  9
$ACADMAINTVER
 70
     6
  9
$DWGCODEPAGE
  3
ANSI_1252
  9
$INSBASE
 10
0.0
 20
0.0
 30
0.0
  9
$EXTMIN
 10
0.0
 20
0.0
 30
0.0
  9
$EXTMAX
 10
297.0
 20
210.0
 30
0.0
  9
$LIMMIN
 10
0.0
 20
0.0
  9
$LIMMAX
 10
297.0
 20
210.0
  9
$ORTHOMODE
 70
     0
  9
$REGENMODE
 70
     1
  9
$FILLMODE
 70
     1
  9
$QTEXTMODE
 70
     0
  9
$MIRRTEXT
 70
     1
  9
$LTSCALE
 40
1.0
  9
$ATTMODE
 70
     1
  9
$TEXTSIZE
 40
2.0
  9
$TRACEWID
 40
1.0
  9
$TEXTSTYLE
  7
Standard
  9
$CLAYER
  8
0
  9
$CELTYPE
  6
ByLayer
  9
$CECOLOR
 62
   256
  9
$CELTSCALE
 40
1.0
  9
$DISPSILH
 70
     0
  9
$DIMSCALE
 40
1.0
  9
$DIMASZ
 40
3.0
  9
$DIMEXO
 40
0.0
  9
$DIMDLI
 40
3.75
  9
$DIMRND
 40
0.0
  9
$DIMDLE
 40
0.0
  9
$DIMEXE
 40
1.0
  9
$DIMTP
 40
0.0
  9
$DIMTM
 40
0.0
  9
$DIMTXT
 40
2.0
  9
$DIMCEN
 40
2.5
  9
$DIMTSZ
 40
0.0
  9
$DIMTOL
 70
     0
  9
$DIMLIM
 70
     0
  9
$DIMTIH
 70
     1
  9
$DIMTOH
 70
     1
  9
$DIMSE1
 70
     0
  9
$DIMSE2
 70
     0
  9
$DIMTAD
 70
     1
  9
$DIMZIN
 70
     0
  9
$DIMBLK
  1

  9
$DIMASO
 70
     1
  9
$DIMSHO
 70
     1
  9
$DIMPOST
  1

  9
$DIMAPOST
  1

  9
$DIMALT
 70
     0
  9
$DIMALTD
 70
     3
  9
$DIMALTF
 40
0.0393700787
  9
$DIMLFAC
 40
2.0
  9
$DIMTOFL
 70
     1
  9
$DIMTVP
 40
0.0
  9
$DIMTIX
 70
     0
  9
$DIMSOXD
 70
     0
  9
$DIMSAH
 70
     0
  9
$DIMBLK1
  1

  9
$DIMBLK2
  1

  9
$DIMSTYLE
  2
ISO-25
  9
$DIMCLRD
 70
     0
  9
$DIMCLRE
 70
     0
  9
$DIMCLRT
 70
     0
  9
$DIMTFAC
 40
1.0
  9
$DIMGAP
 40
1.524
  9
$DIMJUST
 70
     0
  9
$DIMSD1
 70
     0
  9
$DIMSD2
 70
     0
  9
$DIMTOLJ
 70
     0
  9
$DIMTZIN
 70
     0
  9
$DIMALTZ
 70
     0
  9
$DIMALTTZ
 70
     0
  9
$DIMUPT
 70
     0
  9
$DIMDEC
 70
     2
  9
$DIMTDEC
 70
     3
  9
$DIMALTU
 70
     2
  9
$DIMALTTD
 70
     3
  9
$DIMTXSTY
  7
Standard
  9
$DIMAUNIT
 70
     0
  9
$DIMADEC
 70
     2
  9
$DIMALTRND
 40
0.0
  9
$DIMAZIN
 70
     0
  9
$DIMDSEP
 70
    44
  9
$DIMATFIT
 70
     3
  9
$DIMFRAC
 70
     0
  9
$DIMLDRBLK
  1

  9
$DIMLUNIT
 70
     2
  9
$DIMLWD
 70
    -2
  9
$DIMLWE
 70
    -2
  9
$DIMTMOVE
 70
     0
  9
$LUNITS
 70
     2
  9
$LUPREC
 70
     2
  9
$SKETCHINC
 40
1.0
  9
$FILLETRAD
 40
10.0
  9
$AUNITS
 70
     0
  9
$AUPREC
 70
     2
  9
$MENU
  1
.
  9
$ELEVATION
 40
0.0
  9
$PELEVATION
 40
0.0
  9
$THICKNESS
 40
0.0
  9
$LIMCHECK
 70
     0
  9
$CHAMFERA
 40
0.0
  9
$CHAMFERB
 40
0.0
  9
$CHAMFERC
 40
0.0
  9
$CHAMFERD
 40
0.0
  9
$SKPOLY
 70
     0
  9
$TDCREATE
 40
2458164.639476331
  9
$TDUCREATE
 40
2458164.597809664
  9
$TDUPDATE
 40
2458164.639480324
  9
$TDUUPDATE
 40
2458164.597813657
  9
$TDINDWG
 40
0.0000000116
  9
$TDUSRTIMER
 40
0.0000000116
  9
$USRTIMER
 70
     1
  9
$ANGBASE
 50
0.0
  9
$ANGDIR
 70
     0
  9
$PDMODE
 70
     0
  9
$PDSIZE
 40
-1.0
  9
$PLINEWID
 40
0.0
  9
$SPLFRAME
 70
     0
  9
$SPLINETYPE
 70
     6
  9
$SPLINESEGS
 70
     8
  9
$HANDSEED
  5
309
  9
$SURFTAB1
 70
     6
  9
$SURFTAB2
 70
     6
  9
$SURFTYPE
 70
     6
  9
$SURFU
 70
     6
  9
$SURFV
 70
     6
  9
$UCSBASE
  2

  9
$UCSNAME
  2

  9
$UCSORG
 10
0.0
 20
0.0
 30
0.0
  9
$UCSXDIR
 10
1.0
 20
0.0
 30
0.0
  9
$UCSYDIR
 10
0.0
 20
1.0
 30
0.0
  9
$UCSORTHOREF
  2

  9
$UCSORTHOVIEW
 70
     0
  9
$UCSORGTOP
 10
0.0
 20
0.0
 30
0.0
  9
$UCSORGBOTTOM
 10
0.0
 20
0.0
 30
0.0
  9
$UCSORGLEFT
 10
0.0
 20
0.0
 30
0.0
  9
$UCSORGRIGHT
 10
0.0
 20
0.0
 30
0.0
  9
$UCSORGFRONT
 10
0.0
 20
0.0
 30
0.0
  9
$UCSORGBACK
 10
0.0
 20
0.0
 30
0.0
  9
$PUCSBASE
  2

  9
$PUCSNAME
  2

  9
$PUCSORG
 10
0.0
 20
0.0
 30
0.0
  9
$PUCSXDIR
 10
1.0
 20
0.0
 30
0.0
  9
$PUCSYDIR
 10
0.0
 20
1.0
 30
0.0
  9
$PUCSORTHOREF
  2

  9
$PUCSORTHOVIEW
 70
     0
  9
$PUCSORGTOP
 10
0.0
 20
0.0
 30
0.0
  9
$PUCSORGBOTTOM
 10
0.0
 20
0.0
 30
0.0
  9
$PUCSORGLEFT
 10
0.0
 20
0.0
 30
0.0
  9
$PUCSORGRIGHT
 10
0.0
 20
0.0
 30
0.0
  9
$PUCSORGFRONT
 10
0.0
 20
0.0
 30
0.0
  9
$PUCSORGBACK
 10
0.0
 20
0.0
 30
0.0
  9
$USERI1
 70
     0
  9
$USERI2
 70
     0
  9
$USERI3
 70
     0
  9
$USERI4
 70
     0
  9
$USERI5
 70
     0
  9
$USERR1
 40
0.0
  9
$USERR2
 40
0.0
  9
$USERR3
 40
0.0
  9
$USERR4
 40
0.0
  9
$USERR5
 40
0.0
  9
$WORLDVIEW
 70
     1
  9
$SHADEDGE
 70
     3
  9
$SHADEDIF
 70
    70
  9
$TILEMODE
 70
     1
  9
$MAXACTVP
 70
    64
  9
$PINSBASE
 10
0.0
 20
0.0
 30
0.0
  9
$PLIMCHECK
 70
     0
  9
$PEXTMIN
 10
1.0000000000E+20
 20
1.0000000000E+20
 30
1.0000000000E+20
  9
$PEXTMAX
 10
-1.0000000000E+20
 20
-1.0000000000E+20
 30
-1.0000000000E+20
  9
$PLIMMIN
 10
0.0
 20
0.0
  9
$PLIMMAX
 10
420.0
 20
297.0
  9
$UNITMODE
 70
     0
  9
$VISRETAIN
 70
     1
  9
$PLINEGEN
 70
     0
  9
$PSLTSCALE
 70
     1
  9
$TREEDEPTH
 70
  3020
  9
$CMLSTYLE
  2
Standard
  9
$CMLJUST
 70
     0
  9
$CMLSCALE
 40
20.0
  9
$PROXYGRAPHICS
 70
     1
  9
$MEASUREMENT
 70
     1
  9
$CELWEIGHT
370
    -1
  9
$ENDCAPS
280
     0
  9
$JOINSTYLE
280
     0
  9
$LWDISPLAY
290
     1
  9
$INSUNITS
 70
     4
  9
$HYPERLINKBASE
  1

  9
$STYLESHEET
  1

  9
$XEDIT
290
     1
  9
$CEPSNTYPE
380
     0
  9
$PSTYLEMODE
290
     1
  9
$FINGERPRINTGUID
  2
{0DAA000E-8795-4F66-A0E6-1898BEA3154F}
  9
$VERSIONGUID
  2
{FAEB1C32-E019-11D5-929B-00C0DF256EC4}
  9
$EXTNAMES
290
     1
  9
$PSVPSCALE
 40
0.0
  9
$OLESTARTUP
290
     0
  0
ENDSEC
  0
SECTION
  2
CLASSES
  0
CLASS
  1
ACDBDICTIONARYWDFLT
  2
AcDbDictionaryWithDefault
  3
ObjectDBX Classes
 90
        0
280
     0
281
     0
  0
CLASS
  1
VISUALSTYLE
  2
AcDbVisualStyle
  3
ObjectDBX Classes
 90
     4095
280
     0
281
     0
  0
CLASS
  1
MATERIAL
  2
AcDbMaterial
  3
ObjectDBX Classes
 90
     1153
280
     0
281
     0
  0
CLASS
  1
SCALE
  2
AcDbScale
  3
ObjectDBX Classes
 90
     1153
280
     0
281
     0
  0
CLASS
  1
TABLESTYLE
  2
AcDbTableStyle
  3
ObjectDBX Classes
 90
     4095
280
     0
281
     0
  0
CLASS
  1
MLEADERSTYLE
  2
AcDbMLeaderStyle
  3
ACDB_MLEADERSTYLE_CLASS
 90
     4095
280
     0
281
     0
  0
CLASS
  1
SUN
  2
AcDbSun
  3
SCENEOE
 90
     1153
280
     0
281
     0
  0
CLASS
  1
ACDBPLACEHOLDER
  2
AcDbPlaceHolder
  3
ObjectDBX Classes
 90
        0
280
     0
281
     0
  0
CLASS
  1
LAYOUT
  2
AcDbLayout
  3
ObjectDBX Classes
 90
        0
280
     0
281
     0
  0
ENDSEC
  0
SECTION
  2
TABLES
  0
TABLE
  2
VPORT
  5
8
330
0
100
AcDbSymbolTable
 70
     1
  0
VPORT
  5
29
330
8
100
AcDbSymbolTableRecord
100
AcDbViewportTableRecord
  2
*Active
 70
     0
 10
0.0
 20
0.0
 11
1.0
 21
1.0
 12
148.5
 22
105.0
 13
0.0
 23
0.0
 14
10.0
 24
10.0
 15
10.0
 25
10.0
 16
0.0
 26
0.0
 36
1.0
 17
0.0
 27
0.0
 37
0.0
 40
210.0
 41
1.4142857143
 42
50.0
 43
0.0
 44
0.0
 50
0.0
 51
0.0
 71
     0
 72
  2000
 73
     1
 74
     3
 75
     0
 76
     0
 77
     0
 78
     0
281
     0
 65
     1
110
0.0
120
0.0
130
0.0
111
1.0
121
0.0
131
0.0
112
0.0
122
1.0
132
0.0
 79
     0
146
0.0
  0
ENDTAB
  0
TABLE
  2
LTYPE
  5
5
330
0
100
AcDbSymbolTable
 70
     6
  0
LTYPE
  5
14
330
5
100
AcDbSymbolTableRecord
100
AcDbLinetypeTableRecord
  2
ByBlock
 70
     0
  3

 72
    65
 73
     0
 40
0.0
  0
LTYPE
  5
15
330
5
100
AcDbSymbolTableRecord
100
AcDbLinetypeTableRecord
  2
ByLayer
 70
     0
  3

 72
    65
 73
     0
 40
0.0
  0
LTYPE
  5
16
330
5
100
AcDbSymbolTableRecord
100
AcDbLinetypeTableRecord
  2
Continuous
 70
     0
  3
Solid line
 72
    65
 73
     0
 40
0.0
  0
LTYPE
  5
6E
330
5
100
AcDbSymbolTableRecord
100
AcDbLinetypeTableRecord
  2
HIDDEN
 70
     0
  3
Hidden __ __ __ __ __ __ __ __ __ __ __ __ __ __
 72
    65
 73
     2
 40
1.905
 49
1.27
 74
     0
 49
-0.635
 74
     0
  0
LTYPE
  5
6F
330
5
100
AcDbSymbolTableRecord
100
AcDbLinetypeTableRecord
  2
PHANTOM
 70
     0
  3
Phantom ______  __  __  ______  __  __  ______
 72
    65
 73
     6
 40
12.7
 49
6.35
 74
     0
 49
-1.27
 74
     0
 49
1.27
 74
     0
 49
-1.27
 74
     0
 49
1.27
 74
     0
 49
-1.27
 74
     0
  0
LTYPE
  5
70
330
5
100
AcDbSymbolTableRecord
100
AcDbLinetypeTableRecord
  2
CENTER
 70
     0
  3
Center ____ _ ____ _ ____ _ ____ _ ____ _ ____
 72
    65
 73
     4
 40
10.16
 49
6.35
 74
     0
 49
-1.27
 74
     0
 49
1.27
 74
     0
 49
-1.27
 74
     0
  0
LTYPE
  5
71
330
5
100
AcDbSymbolTableRecord
100
AcDbLinetypeTableRecord
  2
CENTERX2
 70
     0
  3
Center (2x) ________  __  ________  __  _____
 72
    65
 73
     4
 40
20.32
 49
12.7
 74
     0
 49
-2.54
 74
     0
 49
2.54
 74
     0
 49
-2.54
 74
     0
  0
LTYPE
  5
72
330
5
100
AcDbSymbolTableRecord
100
AcDbLinetypeTableRecord
  2
DOT2
 70
     0
  3
Dot (.5x) ........................................
 72
    65
 73
     2
 40
0.635
 49
0.0
 74
     0
 49
-0.635
 74
     0
  0
ENDTAB
  0
TABLE
  2
LAYER
  5
2
330
0
100
AcDbSymbolTable
 70
     5
  0
LAYER
  5
10
330
2
100
AcDbSymbolTableRecord
100
AcDbLayerTableRecord
  2
0
 70
     0
 62
     7
  6
Continuous
370
    -3
390
F
  0
LAYER
  5
73
330
2
100
AcDbSymbolTableRecord
100
AcDbLayerTableRecord
  2
FORMAT
 70
     0
 62
     7
  6
Continuous
370
    -3
390
F
  0
LAYER
  5
74
330
2
100
AcDbSymbolTableRecord
100
AcDbLayerTableRecord
  2
VERMASSUNG
 70
     0
 62
     7
  6
Continuous
370
    -3
390
F
  0
LAYER
  5
75
330
2
100
AcDbSymbolTableRecord
100
AcDbLayerTableRecord
  2
KOPF_DÜNN
 70
     0
 62
     7
  6
Continuous
370
    -3
390
F
  0
LAYER
  5
76
330
2
100
AcDbSymbolTableRecord
100
AcDbLayerTableRecord
  2
KOPF_DICK
 70
     0
 62
     7
  6
Continuous
370
    25
390
F
  0
ENDTAB
  0
TABLE
  2
STYLE
  5
3
330
0
100
AcDbSymbolTable
 70
     3
  0
STYLE
  5
11
330
3
100
AcDbSymbolTableRecord
100
AcDbTextStyleTableRecord
  2
Standard
 70
     0
 40
0.0
 41
1.0
 50
0.0
 71
     0
 42
2.0
  3
txt
  4

  0
STYLE
  5
77
330
3
100
AcDbSymbolTableRecord
100
AcDbTextStyleTableRecord
  2
SLDTEXTSTYLE0
 70
     0
 40
0.0
 41
0.7
 50
0.0
 71
     0
 42
2.0
  3
TXT
  4

  0
STYLE
  5
7B
330
3
100
AcDbSymbolTableRecord
100
AcDbTextStyleTableRecord
  2
SLDTEXTSTYLE1
 70
     0
 40
0.0
 41
0.6538461538
 50
0.0
 71
     0
 42
2.0
  3
TXT
  4

  0
ENDTAB
  0
TABLE
  2
VIEW
  5
6
330
0
100
AcDbSymbolTable
 70
     0
  0
ENDTAB
  0
TABLE
  2
UCS
  5
7
330
0
100
AcDbSymbolTable
 70
     0
  0
ENDTAB
  0
TABLE
  2
APPID
  5
9
330
0
100
AcDbSymbolTable
 70
     1
  0
APPID
  5
12
330
9
100
AcDbSymbolTableRecord
100
AcDbRegAppTableRecord
  2
ACAD
 70
     0
  0
ENDTAB
  0
TABLE
  2
DIMSTYLE
  5
A
330
0
100
AcDbSymbolTable
 70
     5
100
AcDbDimStyleTable
  0
DIMSTYLE
105
27
330
A
100
AcDbSymbolTableRecord
100
AcDbDimStyleTableRecord
  2
ISO-25
 70
     0
 41
2.5
 42
0.625
 43
3.75
 44
1.25
 73
     0
 74
     0
 77
     1
 78
     8
140
2.5
141
2.5
143
0.0393700787
147
0.625
171
     3
172
     1
178
     0
271
     2
272
     2
274
     3
278
    44
283
     0
284
     8
340
11
  0
DIMSTYLE
105
207
102
{ACAD_REACTORS
330
206
330
211
330
21C
330
231
330
246
330
250
330
25A
330
264
102
}
330
A
100
AcDbSymbolTableRecord
100
AcDbDimStyleTableRecord
  2
SLDDIMSTYLE0
 70
     0
 41
3.0
 44
0.0
 45
0.000000001
 73
     0
 74
     0
 77
     1
 78
    12
 79
     3
140
2.0
147
0.5
173
     1
178
     0
271
     2
272
     3
276
     2
284
    12
340
77
  0
DIMSTYLE
105
228
102
{ACAD_REACTORS
330
227
102
}
330
A
100
AcDbSymbolTableRecord
100
AcDbDimStyleTableRecord
  2
SLDDIMSTYLE1
 70
     0
 41
3.0
 44
0.0
 73
     0
 74
     0
 77
     1
 78
    12
 79
     3
140
2.0
147
0.5
173
     1
178
     0
179
     2
272
     3
276
     2
284
    12
340
77
  0
DIMSTYLE
105
23C
102
{ACAD_REACTORS
330
23B
102
}
330
A
100
AcDbSymbolTableRecord
100
AcDbDimStyleTableRecord
  2
SLDDIMSTYLE2
 70
     0
 41
3.0
 44
0.0
 45
0.000000001
 73
     0
 74
     0
 77
     1
 78
    12
 79
     3
140
2.0
147
0.5
173
     1
178
     0
271
     1
272
     3
276
     2
284
    12
340
77
  0
DIMSTYLE
105
272
102
{ACAD_REACTORS
330
271
102
}
330
A
100
AcDbSymbolTableRecord
100
AcDbDimStyleTableRecord
  2
SLDDIMSTYLE3
 70
     0
 41
3.0
 44
0.0
 45
0.000000001
 73
     0
 74
     0
 76
     1
 77
     1
 78
    12
 79
     3
140
2.0
147
0.5
173
     1
178
     0
271
     2
272
     3
276
     2
282
     1
284
    12
340
77
  0
ENDTAB
  0
TABLE
  2
BLOCK_RECORD
  5
1
330
0
100
AcDbSymbolTable
 70
    12
  0
BLOCK_RECORD
  5
1F
330
1
100
AcDbSymbolTableRecord
100
AcDbBlockTableRecord
  2
*Model_Space
340
22
  0
BLOCK_RECORD
  5
1B
330
1
100
AcDbSymbolTableRecord
100
AcDbBlockTableRecord
  2
*Paper_Space
340
1E
  0
BLOCK_RECORD
  5
23
330
1
100
AcDbSymbolTableRecord
100
AcDbBlockTableRecord
  2
*Paper_Space0
340
26
  0
BLOCK_RECORD
  5
208
330
1
100
AcDbSymbolTableRecord
100
AcDbBlockTableRecord
  2
_D
340
0
  0
BLOCK_RECORD
  5
212
330
1
100
AcDbSymbolTableRecord
100
AcDbBlockTableRecord
  2
_D_1
340
0
  0
BLOCK_RECORD
  5
21D
330
1
100
AcDbSymbolTableRecord
100
AcDbBlockTableRecord
  2
_D_2
340
0
  0
BLOCK_RECORD
  5
229
330
1
100
AcDbSymbolTableRecord
100
AcDbBlockTableRecord
  2
_D_3
340
0
  0
BLOCK_RECORD
  5
232
330
1
100
AcDbSymbolTableRecord
100
AcDbBlockTableRecord
  2
_D_4
340
0
  0
BLOCK_RECORD
  5
23D
330
1
100
AcDbSymbolTableRecord
100
AcDbBlockTableRecord
  2
_D_5
340
0
  0
BLOCK_RECORD
  5
247
330
1
100
AcDbSymbolTableRecord
100
AcDbBlockTableRecord
  2
_D_6
340
0
  0
BLOCK_RECORD
  5
251
330
1
100
AcDbSymbolTableRecord
100
AcDbBlockTableRecord
  2
_D_7
340
0
  0
BLOCK_RECORD
  5
25B
330
1
100
AcDbSymbolTableRecord
100
AcDbBlockTableRecord
  2
_D_8
340
0
  0
BLOCK_RECORD
  5
265
330
1
100
AcDbSymbolTableRecord
100
AcDbBlockTableRecord
  2
_D_9
340
0
  0
BLOCK_RECORD
  5
273
330
1
100
AcDbSymbolTableRecord
100
AcDbBlockTableRecord
  2
_D_10
340
0
  0
ENDTAB
  0
ENDSEC
  0
SECTION
  2
BLOCKS
  0
BLOCK
  5
20
330
1F
100
AcDbEntity
  8
0
100
AcDbBlockBegin
  2
*Model_Space
 70
     0
 10
0.0
 20
0.0
 30
0.0
  3
*Model_Space
  1

  0
ENDBLK
  5
21
330
1F
100
AcDbEntity
  8
0
100
AcDbBlockEnd
  0
BLOCK
  5
1C
330
1B
100
AcDbEntity
 67
     1
  8
0
100
AcDbBlockBegin
  2
*Paper_Space
 70
     0
 10
0.0
 20
0.0
 30
0.0
  3
*Paper_Space
  1

  0
ENDBLK
  5
1D
330
1B
100
AcDbEntity
 67
     1
  8
0
100
AcDbBlockEnd
  0
BLOCK
  5
24
330
23
100
AcDbEntity
  8
0
100
AcDbBlockBegin
  2
*Paper_Space0
 70
     0
 10
0.0
 20
0.0
 30
0.0
  3
*Paper_Space0
  1

  0
ENDBLK
  5
25
330
23
100
AcDbEntity
  8
0
100
AcDbBlockEnd
  0
BLOCK
  5
209
330
208
100
AcDbEntity
  8
0
100
AcDbBlockBegin
  2
_D
 70
     0
 10
0.0
 20
0.0
 30
0.0
  3
_D
  1

  0
SOLID
  5
20B
330
208
100
AcDbEntity
  8
VERMASSUNG
100
AcDbTrace
 10
224.4909529581
 20
129.8980401522
 30
0.0
 11
224.0409529581
 21
126.8980401522
 31
0.0
 12
224.9409529581
 22
126.8980401522
 32
0.0
 13
224.9409529581
 23
126.8980401522
 33
0.0
  0
SOLID
  5
20C
330
208
100
AcDbEntity
  8
VERMASSUNG
100
AcDbTrace
 10
224.4909529581
 20
108.8980401522
 30
0.0
 11
224.9409529581
 21
111.8980401522
 31
0.0
 12
224.0409529581
 22
111.8980401522
 32
0.0
 13
224.0409529581
 23
111.8980401522
 33
0.0
  0
LINE
  5
20D
330
208
100
AcDbEntity
  8
VERMASSUNG
100
AcDbLine
 10
207.7790036435
 20
129.8980401522
 30
0.0
 11
225.4909529581
 21
129.8980401522
 31
0.0
  0
LINE
  5
20E
330
208
100
AcDbEntity
  8
VERMASSUNG
100
AcDbLine
 10
207.7790036435
 20
108.8980401522
 30
0.0
 11
225.4909529581
 21
108.8980401522
 31
0.0
  0
LINE
  5
20F
330
208
100
AcDbEntity
  8
VERMASSUNG
100
AcDbLine
 10
224.4909529581
 20
129.8980401522
 30
0.0
 11
224.4909529581
 21
108.8980401522
 31
0.0
  0
MTEXT
  5
210
330
208
100
AcDbEntity
  8
VERMASSUNG
100
AcDbMText
 10
221.9128173621
 20
118.1980400952
 30
0.0
 40
2.0
 41
0.0
 71
     1
 72
     1
  1
21
  7
SLDTEXTSTYLE0
 11
-7.044195017643634E-15
 21
1.0
 31
0.0
 73
     1
 44
1.0
  0
ENDBLK
  5
20A
330
208
100
AcDbEntity
  8
0
100
AcDbBlockEnd
  0
BLOCK
  5
213
330
212
100
AcDbEntity
  8
0
100
AcDbBlockBegin
  2
_D_1
 70
     0
 10
0.0
 20
0.0
 30
0.0
  3
_D_1
  1

  0
SOLID
  5
215
330
212
100
AcDbEntity
  8
VERMASSUNG
100
AcDbTrace
 10
185.7790036435
 20
143.3441316001
 30
0.0
 11
188.7790036435
 21
142.8941316001
 31
0.0
 12
188.7790036435
 22
143.7941316001
 32
0.0
 13
188.7790036435
 23
143.7941316001
 33
0.0
  0
SOLID
  5
216
330
212
100
AcDbEntity
  8
VERMASSUNG
100
AcDbTrace
 10
207.7790036435
 20
143.3441316001
 30
0.0
 11
204.7790036435
 21
143.7941316001
 31
0.0
 12
204.7790036435
 22
142.8941316001
 32
0.0
 13
204.7790036435
 23
142.8941316001
 33
0.0
  0
LINE
  5
217
330
212
100
AcDbEntity
  8
VERMASSUNG
100
AcDbLine
 10
185.7790036435
 20
122.3980401522
 30
0.0
 11
185.7790036435
 21
144.3441316001
 31
0.0
  0
LINE
  5
218
330
212
100
AcDbEntity
  8
VERMASSUNG
100
AcDbLine
 10
207.7790036435
 20
128.0492591688
 30
0.0
 11
207.7790036435
 21
144.3441316001
 31
0.0
  0
LINE
  5
219
330
212
100
AcDbEntity
  8
VERMASSUNG
100
AcDbLine
 10
185.7790036435
 20
143.3441316001
 30
0.0
 11
207.7790036435
 21
143.3441316001
 31
0.0
  0
MTEXT
  5
21A
330
212
100
AcDbEntity
  8
VERMASSUNG
100
AcDbMText
 10
192.5790037933
 20
145.922267196
 30
0.0
 40
2.0
 41
0.0
 71
     1
 72
     1
  1
22
  7
SLDTEXTSTYLE0
 73
     1
 44
1.0
  0
MTEXT
  5
21B
330
212
100
AcDbEntity
  8
VERMASSUNG
100
AcDbMText
 10
196.5665036935
 20
145.922267196
 30
0.0
 40
2.0
 41
0.0
 71
     1
 72
     1
  1
min.
  7
SLDTEXTSTYLE0
 73
     1
 44
1.0
  0
ENDBLK
  5
214
330
212
100
AcDbEntity
  8
0
100
AcDbBlockEnd
  0
BLOCK
  5
21E
330
21D
100
AcDbEntity
  8
0
100
AcDbBlockBegin
  2
_D_2
 70
     0
 10
0.0
 20
0.0
 30
0.0
  3
_D_2
  1

  0
SOLID
  5
220
330
21D
100
AcDbEntity
  8
VERMASSUNG
100
AcDbTrace
 10
171.2790036435
 20
151.5312576325
 30
0.0
 11
174.2790036435
 21
151.0812576325
 31
0.0
 12
174.2790036435
 22
151.9812576325
 32
0.0
 13
174.2790036435
 23
151.9812576325
 33
0.0
  0
SOLID
  5
221
330
21D
100
AcDbEntity
  8
VERMASSUNG
100
AcDbTrace
 10
207.7790036435
 20
151.5312576325
 30
0.0
 11
204.7790036435
 21
151.9812576325
 31
0.0
 12
204.7790036435
 22
151.0812576325
 32
0.0
 13
204.7790036435
 23
151.0812576325
 33
0.0
  0
LINE
  5
222
330
21D
100
AcDbEntity
  8
VERMASSUNG
100
AcDbLine
 10
171.2790036435
 20
122.2980401522
 30
0.0
 11
171.2790036435
 21
152.5312576325
 31
0.0
  0
LINE
  5
223
330
21D
100
AcDbEntity
  8
VERMASSUNG
100
AcDbLine
 10
207.7790036435
 20
128.0492591688
 30
0.0
 11
207.7790036435
 21
152.5312576325
 31
0.0
  0
LINE
  5
224
330
21D
100
AcDbEntity
  8
VERMASSUNG
100
AcDbLine
 10
171.2790036435
 20
151.5312576325
 30
0.0
 11
207.7790036435
 21
151.5312576325
 31
0.0
  0
MTEXT
  5
225
330
21D
100
AcDbEntity
  8
VERMASSUNG
100
AcDbMText
 10
183.9290043089
 20
154.1093932284
 30
0.0
 40
2.0
 41
0.0
 71
     1
 72
     1
  1
36.5
  7
SLDTEXTSTYLE0
 73
     1
 44
1.0
  0
MTEXT
  5
226
330
21D
100
AcDbEntity
  8
VERMASSUNG
100
AcDbMText
 10
189.9165040712
 20
154.1093932284
 30
0.0
 40
2.0
 41
0.0
 71
     1
 72
     1
  1
max.
  7
SLDTEXTSTYLE0
 73
     1
 44
1.0
  0
ENDBLK
  5
21F
330
21D
100
AcDbEntity
  8
0
100
AcDbBlockEnd
  0
BLOCK
  5
22A
330
229
100
AcDbEntity
  8
0
100
AcDbBlockBegin
  2
_D_3
 70
     0
 10
0.0
 20
0.0
 30
0.0
  3
_D_3
  1

  0
ARC
  5
22C
330
229
100
AcDbEntity
  8
VERMASSUNG
100
AcDbCircle
 10
341.1941533734
 20
119.3980401522
 30
0.0
 40
164.805358148067
100
AcDbArc
 50
175.5
 51
180.0
  0
ARC
  5
22D
330
229
100
AcDbEntity
  8
VERMASSUNG
100
AcDbCircle
 10
341.1941533734
 20
119.3980401522
 30
0.0
 40
164.805358148067
100
AcDbArc
 50
172.2497845295
 51
175.5
  0
SOLID
  5
22E
330
229
100
AcDbEntity
  8
VERMASSUNG
100
AcDbTrace
 10
176.8968351435
 20
132.3285195236
 30
0.0
 11
176.2397694561
 21
129.3669718399
 31
0.0
 12
177.1376005182
 22
129.304526793
 32
0.0
 13
177.1376005182
 23
129.304526793
 33
0.0
  0
SOLID
  5
22F
330
229
100
AcDbEntity
  8
VERMASSUNG
100
AcDbTrace
 10
176.3887952253
 20
119.3980401522
 30
0.0
 11
176.8660781359
 21
122.3938206887
 31
0.0
 12
175.9661154054
 22
122.4020111523
 32
0.0
 13
175.9661154054
 23
122.4020111523
 33
0.0
  0
MTEXT
  5
230
330
229
100
AcDbEntity
  8
VERMASSUNG
100
AcDbMText
 10
174.5735029075
 20
135.6681143639
 30
0.0
 40
2.0
 41
0.0
 71
     1
 72
     1
  1
4°30'
  7
SLDTEXTSTYLE0
 11
0.1158946280766065
 21
0.9932615139946706
 31
0.0
 73
     1
 44
1.0
  0
ENDBLK
  5
22B
330
229
100
AcDbEntity
  8
0
100
AcDbBlockEnd
  0
BLOCK
  5
233
330
232
100
AcDbEntity
  8
0
100
AcDbBlockBegin
  2
_D_4
 70
     0
 10
0.0
 20
0.0
 30
0.0
  3
_D_4
  1

  0
SOLID
  5
235
330
232
100
AcDbEntity
  8
VERMASSUNG
100
AcDbTrace
 10
233.1014345183
 20
132.8980401522
 30
0.0
 11
232.6514345183
 21
129.8980401522
 31
0.0
 12
233.5514345183
 22
129.8980401522
 32
0.0
 13
233.5514345183
 23
129.8980401522
 33
0.0
  0
SOLID
  5
236
330
232
100
AcDbEntity
  8
VERMASSUNG
100
AcDbTrace
 10
233.1014345183
 20
105.8980401522
 30
0.0
 11
233.5514345183
 21
108.8980401522
 31
0.0
 12
232.6514345183
 22
108.8980401522
 32
0.0
 13
232.6514345183
 23
108.8980401522
 33
0.0
  0
LINE
  5
237
330
232
100
AcDbEntity
  8
VERMASSUNG
100
AcDbLine
 10
169.660389435
 20
132.8980401522
 30
0.0
 11
234.1014345183
 21
132.8980401522
 31
0.0
  0
LINE
  5
238
330
232
100
AcDbEntity
  8
VERMASSUNG
100
AcDbLine
 10
169.660389435
 20
105.8980401522
 30
0.0
 11
234.1014345183
 21
105.8980401522
 31
0.0
  0
LINE
  5
239
330
232
100
AcDbEntity
  8
VERMASSUNG
100
AcDbLine
 10
233.1014345183
 20
132.8980401522
 30
0.0
 11
233.1014345183
 21
105.8980401522
 31
0.0
  0
MTEXT
  5
23A
330
232
100
AcDbEntity
  8
VERMASSUNG
100
AcDbMText
 10
230.5232989223
 20
117.9980402021
 30
0.0
 40
2.0
 41
0.0
 71
     1
 72
     1
  1
27
  7
SLDTEXTSTYLE0
 11
-5.267838178243384E-15
 21
1.0
 31
0.0
 73
     1
 44
1.0
  0
ENDBLK
  5
234
330
232
100
AcDbEntity
  8
0
100
AcDbBlockEnd
  0
BLOCK
  5
23E
330
23D
100
AcDbEntity
  8
0
100
AcDbBlockBegin
  2
_D_5
 70
     0
 10
0.0
 20
0.0
 30
0.0
  3
_D_5
  1

  0
SOLID
  5
240
330
23D
100
AcDbEntity
  8
VERMASSUNG
100
AcDbTrace
 10
207.7790036435
 20
90.6203007519
 30
0.0
 11
204.7790036435
 21
91.0703007519
 31
0.0
 12
204.7790036435
 22
90.1703007519
 32
0.0
 13
204.7790036435
 23
90.1703007519
 33
0.0
  0
SOLID
  5
241
330
23D
100
AcDbEntity
  8
VERMASSUNG
100
AcDbTrace
 10
169.660389435
 20
90.6203007519
 30
0.0
 11
172.660389435
 21
90.1703007519
 31
0.0
 12
172.660389435
 22
91.0703007519
 32
0.0
 13
172.660389435
 23
91.0703007519
 33
0.0
  0
LINE
  5
242
330
23D
100
AcDbEntity
  8
VERMASSUNG
100
AcDbLine
 10
207.7790036435
 20
110.7468211355
 30
0.0
 11
207.7790036435
 21
89.6203007519
 31
0.0
  0
LINE
  5
243
330
23D
100
AcDbEntity
  8
VERMASSUNG
100
AcDbLine
 10
169.660389435
 20
105.8980401522
 30
0.0
 11
169.660389435
 21
89.6203007519
 31
0.0
  0
LINE
  5
244
330
23D
100
AcDbEntity
  8
VERMASSUNG
100
AcDbLine
 10
207.7790036435
 20
90.6203007519
 30
0.0
 11
169.660389435
 21
90.6203007519
 31
0.0
  0
MTEXT
  5
245
330
23D
100
AcDbEntity
  8
VERMASSUNG
100
AcDbMText
 10
186.5196965512
 20
93.1984363478
 30
0.0
 40
2.0
 41
0.0
 71
     1
 72
     1
  1
38.1
  7
SLDTEXTSTYLE0
 73
     1
 44
1.0
  0
ENDBLK
  5
23F
330
23D
100
AcDbEntity
  8
0
100
AcDbBlockEnd
  0
BLOCK
  5
248
330
247
100
AcDbEntity
  8
0
100
AcDbBlockBegin
  2
_D_6
 70
     0
 10
0.0
 20
0.0
 30
0.0
  3
_D_6
  1

  0
SOLID
  5
24A
330
247
100
AcDbEntity
  8
VERMASSUNG
100
AcDbTrace
 10
207.7790036435
 20
83.6591967008
 30
0.0
 11
204.7790036435
 21
84.1091967008
 31
0.0
 12
204.7790036435
 22
83.2091967008
 32
0.0
 13
204.7790036435
 23
83.2091967008
 33
0.0
  0
SOLID
  5
24B
330
247
100
AcDbEntity
  8
VERMASSUNG
100
AcDbTrace
 10
145.7790036435
 20
83.6591967008
 30
0.0
 11
148.7790036435
 21
83.2091967008
 31
0.0
 12
148.7790036435
 22
84.1091967008
 32
0.0
 13
148.7790036435
 23
84.1091967008
 33
0.0
  0
LINE
  5
24C
330
247
100
AcDbEntity
  8
VERMASSUNG
100
AcDbLine
 10
207.7790036435
 20
115.3613459041
 30
0.0
 11
207.7790036435
 21
82.6591967008
 31
0.0
  0
LINE
  5
24D
330
247
100
AcDbEntity
  8
VERMASSUNG
100
AcDbLine
 10
145.7790036435
 20
88.1230401522
 30
0.0
 11
145.7790036435
 21
82.6591967008
 31
0.0
  0
LINE
  5
24E
330
247
100
AcDbEntity
  8
VERMASSUNG
100
AcDbLine
 10
207.7790036435
 20
83.6591967008
 30
0.0
 11
145.7790036435
 21
83.6591967008
 31
0.0
  0
MTEXT
  5
24F
330
247
100
AcDbEntity
  8
VERMASSUNG
100
AcDbMText
 10
175.3790036935
 20
86.2373322968
 30
0.0
 40
2.0
 41
0.0
 71
     1
 72
     1
  1
62
  7
SLDTEXTSTYLE0
 73
     1
 44
1.0
  0
ENDBLK
  5
249
330
247
100
AcDbEntity
  8
0
100
AcDbBlockEnd
  0
BLOCK
  5
252
330
251
100
AcDbEntity
  8
0
100
AcDbBlockBegin
  2
_D_7
 70
     0
 10
0.0
 20
0.0
 30
0.0
  3
_D_7
  1

  0
SOLID
  5
254
330
251
100
AcDbEntity
  8
VERMASSUNG
100
AcDbTrace
 10
127.7790036435
 20
159.3639709611
 30
0.0
 11
130.7790036435
 21
158.9139709611
 31
0.0
 12
130.7790036435
 22
159.8139709611
 32
0.0
 13
130.7790036435
 23
159.8139709611
 33
0.0
  0
SOLID
  5
255
330
251
100
AcDbEntity
  8
VERMASSUNG
100
AcDbTrace
 10
207.7790036435
 20
159.3639709611
 30
0.0
 11
204.7790036435
 21
159.8139709611
 31
0.0
 12
204.7790036435
 22
158.9139709611
 32
0.0
 13
204.7790036435
 23
158.9139709611
 33
0.0
  0
LINE
  5
256
330
251
100
AcDbEntity
  8
VERMASSUNG
100
AcDbLine
 10
127.7790036435
 20
150.6730401522
 30
0.0
 11
127.7790036435
 21
160.3639709611
 31
0.0
  0
LINE
  5
257
330
251
100
AcDbEntity
  8
VERMASSUNG
100
AcDbLine
 10
207.7790036435
 20
128.0492591688
 30
0.0
 11
207.7790036435
 21
160.3639709611
 31
0.0
  0
LINE
  5
258
330
251
100
AcDbEntity
  8
VERMASSUNG
100
AcDbLine
 10
127.7790036435
 20
159.3639709611
 30
0.0
 11
207.7790036435
 21
159.3639709611
 31
0.0
  0
MTEXT
  5
259
330
251
100
AcDbEntity
  8
VERMASSUNG
100
AcDbMText
 10
166.3790036935
 20
161.942106557
 30
0.0
 40
2.0
 41
0.0
 71
     1
 72
     1
  1
80
  7
SLDTEXTSTYLE0
 73
     1
 44
1.0
  0
ENDBLK
  5
253
330
251
100
AcDbEntity
  8
0
100
AcDbBlockEnd
  0
BLOCK
  5
25C
330
25B
100
AcDbEntity
  8
0
100
AcDbBlockBegin
  2
_D_8
 70
     0
 10
0.0
 20
0.0
 30
0.0
  3
_D_8
  1

  0
SOLID
  5
25E
330
25B
100
AcDbEntity
  8
VERMASSUNG
100
AcDbTrace
 10
87.8290036435
 20
166.8730401522
 30
0.0
 11
90.8290036435
 21
166.4230401522
 31
0.0
 12
90.8290036435
 22
167.3230401522
 32
0.0
 13
90.8290036435
 23
167.3230401522
 33
0.0
  0
SOLID
  5
25F
330
25B
100
AcDbEntity
  8
VERMASSUNG
100
AcDbTrace
 10
207.7790036435
 20
166.8730401522
 30
0.0
 11
204.7790036435
 21
167.3230401522
 31
0.0
 12
204.7790036435
 22
166.4230401522
 32
0.0
 13
204.7790036435
 23
166.4230401522
 33
0.0
  0
LINE
  5
260
330
25B
100
AcDbEntity
  8
VERMASSUNG
100
AcDbLine
 10
87.8290036435
 20
141.601134876
 30
0.0
 11
87.8290036435
 21
167.8730401522
 31
0.0
  0
LINE
  5
261
330
25B
100
AcDbEntity
  8
VERMASSUNG
100
AcDbLine
 10
207.7790036435
 20
128.0492591688
 30
0.0
 11
207.7790036435
 21
167.8730401522
 31
0.0
  0
LINE
  5
262
330
25B
100
AcDbEntity
  8
VERMASSUNG
100
AcDbLine
 10
87.8290036435
 20
166.8730401522
 30
0.0
 11
207.7790036435
 21
166.8730401522
 31
0.0
  0
MTEXT
  5
263
330
25B
100
AcDbEntity
  8
VERMASSUNG
100
AcDbMText
 10
144.4040035985
 20
169.4511757481
 30
0.0
 40
2.0
 41
0.0
 71
     1
 72
     1
  1
119.95
  7
SLDTEXTSTYLE0
 73
     1
 44
1.0
  0
ENDBLK
  5
25D
330
25B
100
AcDbEntity
  8
0
100
AcDbBlockEnd
  0
BLOCK
  5
266
330
265
100
AcDbEntity
  8
0
100
AcDbBlockBegin
  2
_D_9
 70
     0
 10
0.0
 20
0.0
 30
0.0
  3
_D_9
  1

  0
SOLID
  5
268
330
265
100
AcDbEntity
  8
VERMASSUNG
100
AcDbTrace
 10
77.8289786435
 20
87.9230401522
 30
0.0
 11
78.2789786435
 21
90.9230401522
 31
0.0
 12
77.3789786435
 22
90.9230401522
 32
0.0
 13
77.3789786435
 23
90.9230401522
 33
0.0
  0
SOLID
  5
269
330
265
100
AcDbEntity
  8
VERMASSUNG
100
AcDbTrace
 10
77.8289786435
 20
150.8730401522
 30
0.0
 11
77.3789786435
 21
147.8730401522
 31
0.0
 12
78.2789786435
 22
147.8730401522
 32
0.0
 13
78.2789786435
 23
147.8730401522
 33
0.0
  0
LINE
  5
26A
330
265
100
AcDbEntity
  8
VERMASSUNG
100
AcDbLine
 10
127.9790036435
 20
87.9230401522
 30
0.0
 11
76.8289786435
 21
87.9230401522
 31
0.0
  0
LINE
  5
26B
330
265
100
AcDbEntity
  8
VERMASSUNG
100
AcDbLine
 10
127.9790036435
 20
150.8730401522
 30
0.0
 11
76.8289786435
 21
150.8730401522
 31
0.0
  0
LINE
  5
26C
330
265
100
AcDbEntity
  8
VERMASSUNG
100
AcDbLine
 10
77.8289786435
 20
87.9230401522
 30
0.0
 11
77.8289786435
 21
150.8730401522
 31
0.0
  0
MTEXT
  5
26D
330
265
100
AcDbEntity
  8
VERMASSUNG
100
AcDbMText
 10
75.0508433873
 20
109.5930406964
 30
0.0
 40
2.0
 41
0.0
 71
     1
 72
     1
  1
KM
  7
SLDTEXTSTYLE0
 11
2.281678389207681E-15
 21
1.0
 31
0.0
 73
     1
 44
1.0
  0
MTEXT
  5
26E
330
265
100
AcDbEntity
  8
VERMASSUNG
100
AcDbMText
 10
75.2508433386
 20
112.9930405086
 30
0.0
 40
2.0
 41
0.0
 71
     1
 72
     1
  1
%%c
  7
SLDTEXTSTYLE0
 11
2.281678389207681E-15
 21
1.0
 31
0.0
 73
     1
 44
1.0
  0
MTEXT
  5
26F
330
265
100
AcDbEntity
  8
VERMASSUNG
100
AcDbMText
 10
75.0508433873
 20
116.6030405229
 30
0.0
 40
2.0
 41
0.0
 71
     1
 72
     1
  1
62.95
  7
SLDTEXTSTYLE0
 11
2.281678389207681E-15
 21
1.0
 31
0.0
 73
     1
 44
1.0
  0
MTEXT
  5
270
330
265
100
AcDbEntity
  8
VERMASSUNG
100
AcDbMText
 10
75.0508433873
 20
123.9905402353
 30
0.0
 40
2.0
 41
0.0
 71
     1
 72
     1
  1
XMZ
  7
SLDTEXTSTYLE0
 11
2.281678389207681E-15
 21
1.0
 31
0.0
 73
     1
 44
1.0
  0
ENDBLK
  5
267
330
265
100
AcDbEntity
  8
0
100
AcDbBlockEnd
  0
BLOCK
  5
274
330
273
100
AcDbEntity
  8
0
100
AcDbBlockBegin
  2
_D_10
 70
     0
 10
0.0
 20
0.0
 30
0.0
  3
_D_10
  1

  0
SOLID
  5
276
330
273
100
AcDbEntity
  8
VERMASSUNG
100
AcDbTrace
 10
217.1737483097
 20
122.3980401522
 30
0.0
 11
216.7237483097
 21
119.3980401522
 31
0.0
 12
217.6237483097
 22
119.3980401522
 32
0.0
 13
217.6237483097
 23
119.3980401522
 33
0.0
  0
LINE
  5
277
330
273
100
AcDbEntity
  8
VERMASSUNG
100
AcDbLine
 10
204.2790036435
 20
122.3980401522
 30
0.0
 11
218.1737483097
 21
122.3980401522
 31
0.0
  0
LINE
  5
278
330
273
100
AcDbEntity
  8
VERMASSUNG
100
AcDbLine
 10
217.1737483097
 20
122.3980401522
 30
0.0
 11
217.1737483097
 21
116.89304017
 31
0.0
  0
MTEXT
  5
279
330
273
100
AcDbEntity
  8
VERMASSUNG
100
AcDbMText
 10
214.5956130048
 20
116.89304017
 30
0.0
 40
2.0
 41
0.0
 71
     1
 72
     1
  1
%%c
  7
SLDTEXTSTYLE0
 11
-5.267838178243384E-15
 21
1.0
 31
0.0
 73
     1
 44
1.0
  0
MTEXT
  5
27A
330
273
100
AcDbEntity
  8
VERMASSUNG
100
AcDbMText
 10
214.3956130535
 20
120.5030401843
 30
0.0
 40
2.0
 41
0.0
 71
     1
 72
     1
  1
6
  7
SLDTEXTSTYLE0
 11
-5.267838178243384E-15
 21
1.0
 31
0.0
 73
     1
 44
1.0
  0
ENDBLK
  5
275
330
273
100
AcDbEntity
  8
0
100
AcDbBlockEnd
  0
ENDSEC
  0
SECTION
  2
ENTITIES
  0
MTEXT
  5
78
330
1F
100
AcDbEntity
  8
KOPF_DÜNN
100
AcDbMText
 10
13.8892156294
 20
23.8442973028
 30
0.0
 40
3.0
 41
0.0
 71
     1
 72
     1
  1
KY6.S06.K01.080
  7
SLDTEXTSTYLE0
 73
     1
 44
1.0
  0
MTEXT
  5
79
330
1F
100
AcDbEntity
  8
VERMASSUNG
100
AcDbMText
 10
13.9329988022
 20
28.8834360957
 30
0.0
 40
3.0
 41
0.0
 71
     1
 72
     1
  1
Schrumpffutter_Heat shrink chuck
  7
SLDTEXTSTYLE0
 73
     1
 44
1.0
  0
MTEXT
  5
7A
330
1F
100
AcDbEntity
  8
VERMASSUNG
100
AcDbMText
 10
98.8601118557
 20
13.8365368761
 30
0.0
 40
2.0
 41
0.0
 71
     1
 72
     1
  1
Datum: 14.02.2018
  7
SLDTEXTSTYLE0
 73
     1
 44
1.0
  0
MTEXT
  5
7C
330
1F
100
AcDbEntity
  8
VERMASSUNG
100
AcDbMText
 10
13.933048693
 20
18.0482802738
 30
0.0
 40
2.0
 41
0.0
 71
     1
 72
     1
  1
KM63 XMZ / Ø6
  7
SLDTEXTSTYLE1
 73
     1
 44
1.0
  0
MTEXT
  5
7D
330
1F
100
AcDbEntity
  8
VERMASSUNG
100
AcDbMText
 10
13.9808475933
 20
13.9090974274
 30
0.0
 40
2.0
 41
0.0
 71
     1
 72
     1
  1
Gewicht: 847g
  7
SLDTEXTSTYLE0
 73
     1
 44
1.0
  0
CIRCLE
  5
7E
330
1F
100
AcDbEntity
  8
0
  6
Continuous
 62
     7
370
    25
100
AcDbCircle
 10
348.4658011365
 20
119.3980401522
 30
0.0
 40
0.7750000000000644
  0
SPLINE
  5
7F
330
1F
100
AcDbEntity
  8
0
  6
Continuous
 62
     7
370
    25
100
AcDbSpline
210
0.0
220
0.0
230
1.0
 70
     8
 71
     3
 72
    11
 73
     7
 74
     0
 42
0.000000001
 43
0.00000001
 40
0.0
 40
0.0
 40
0.0
 40
0.0
 40
0.1224246356588685
 40
0.4773573824126219
 40
0.8144928035110415
 40
1.0
 40
1.0
 40
1.0
 40
1.0
 10
349.025198876831
 20
119.8540089035053
 30
0.0
 10
349.0296138537333
 20
119.8267007923349
 30
0.0
 10
349.0468287043728
 20
119.7202211741048
 30
0.0
 10
349.0792575550432
 20
119.5196376524354
 30
0.0
 10
349.1147099855664
 20
119.3003527871423
 30
0.0
 10
349.1336558757835
 20
119.1831661814706
 30
0.0
 10
349.1403805454926
 20
119.1415718721804
 30
0.0
  0
SPLINE
  5
80
330
1F
100
AcDbEntity
  8
0
  6
Continuous
 62
     7
370
    25
100
AcDbSpline
210
0.0
220
0.0
230
1.0
 70
     8
 71
     3
 72
    10
 73
     6
 74
     0
 42
0.000000001
 43
0.00000001
 40
0.0
 40
0.0
 40
0.0
 40
0.0
 40
0.4391120663930867
 40
0.7513637644901187
 40
0.9999999999999999
 40
0.9999999999999999
 40
0.9999999999999999
 40
0.9999999999999999
 10
348.3506194897078
 20
120.110477183491
 30
0.0
 10
348.4471897011472
 20
120.0737621802067
 30
0.0
 10
348.6124307937018
 20
120.0109392126951
 30
0.0
 10
348.8526386774858
 20
119.9196145031515
 30
0.0
 10
348.9721989541594
 20
119.8741589248965
 30
0.0
 10
349.025198876831
 20
119.8540089035053
 30
0.0
  0
SPLINE
  5
81
330
1F
100
AcDbEntity
  8
0
  6
Continuous
 62
     7
370
    25
100
AcDbSpline
210
0.0
220
0.0
230
1.0
 70
     8
 71
     3
 72
    10
 73
     6
 74
     0
 42
0.000000001
 43
0.00000001
 40
0.0
 40
0.0
 40
0.0
 40
0.0
 40
0.4391120920667593
 40
0.7513637361395576
 40
1.0
 40
1.0
 40
1.0
 40
1.0
 10
347.7912217275904
 20
119.6545084321518
 30
0.0
 10
347.8713029772484
 20
119.7197831797394
 30
0.0
 10
348.0083298276242
 20
119.8314746569479
 30
0.0
 10
348.2075232505144
 20
119.9938384803143
 30
0.0
 10
348.3066690858469
 20
120.0746529148776
 30
0.0
 10
348.3506194897078
 20
120.110477183491
 30
0.0
  0
SPLINE
  5
82
330
1F
100
AcDbEntity
  8
0
  6
Continuous
 62
     7
370
    25
100
AcDbSpline
210
0.0
220
0.0
230
1.0
 70
     8
 71
     3
 72
    11
 73
     7
 74
     0
 42
0.000000001
 43
0.00000001
 40
0.0
 40
0.0
 40
0.0
 40
0.0
 40
0.1855072143189001
 40
0.5226426142253945
 40
0.8775753641809592
 40
1.0
 40
1.0
 40
1.0
 40
1.0
 10
347.9064033962519
 20
118.9420714008268
 30
0.0
 10
347.8996787234441
 20
118.983665714524
 30
0.0
 10
347.8807328264395
 20
119.1008523205946
 30
0.0
 10
347.8452805089457
 20
119.320137201051
 30
0.0
 10
347.8128515475589
 20
119.5207207009553
 30
0.0
 10
347.7956367029266
 20
119.6272003207394
 30
0.0
 10
347.7912217275904
 20
119.6545084321518
 30
0.0
  0
SPLINE
  5
83
330
1F
100
AcDbEntity
  8
0
  6
Continuous
 62
     7
370
    25
100
AcDbSpline
210
0.0
220
0.0
230
1.0
 70
     8
 71
     3
 72
    10
 73
     6
 74
     0
 42
0.000000001
 43
0.00000001
 40
0.0
 40
0.0
 40
0.0
 40
0.0
 40
0.4391120920667593
 40
0.7513637361395576
 40
1.0
 40
1.0
 40
1.0
 40
1.0
 10
349.1403805454926
 20
119.1415718721804
 30
0.0
 10
349.0602992958345
 20
119.0762971245927
 30
0.0
 10
348.9232724454587
 20
118.9646056473842
 30
0.0
 10
348.7240790225684
 20
118.8022418240178
 30
0.0
 10
348.624933187236
 20
118.7214273894545
 30
0.0
 10
348.5809827833751
 20
118.6856031208411
 30
0.0
  0
SPLINE
  5
84
330
1F
100
AcDbEntity
  8
0
  6
Continuous
 62
     7
370
    25
100
AcDbSpline
210
0.0
220
0.0
230
1.0
 70
     8
 71
     3
 72
    10
 73
     6
 74
     0
 42
0.000000001
 43
0.00000001
 40
0.0
 40
0.0
 40
0.0
 40
0.0
 40
0.4391120663930867
 40
0.7513637644901187
 40
0.9999999999999999
 40
0.9999999999999999
 40
0.9999999999999999
 40
0.9999999999999999
 10
348.5809827833751
 20
118.6856031208411
 30
0.0
 10
348.4844125719357
 20
118.7223181241254
 30
0.0
 10
348.3191714793811
 20
118.785141091637
 30
0.0
 10
348.0789635955971
 20
118.8764658011806
 30
0.0
 10
347.9594033189235
 20
118.9219213794356
 30
0.0
 10
347.9064033962519
 20
118.9420714008268
 30
0.0
  0
ARC
  5
85
330
1F
100
AcDbEntity
  8
0
  6
Continuous
 62
     7
370
    25
100
AcDbCircle
 10
348.4658011365
 20
119.3980401522
 30
0.0
 40
0.6250000000000153
100
AcDbArc
 50
189.18370128
 51
249.18370128
  0
ARC
  5
86
330
1F
100
AcDbEntity
  8
0
  6
Continuous
 62
     7
370
    25
100
AcDbCircle
 10
348.4658011365
 20
119.3980401522
 30
0.0
 40
0.6250000000000095
100
AcDbArc
 50
129.18370128
 51
189.18370128
  0
ARC
  5
87
330
1F
100
AcDbEntity
  8
0
  6
Continuous
 62
     7
370
    25
100
AcDbCircle
 10
348.4658011365
 20
119.3980401522
 30
0.0
 40
0.6250000000000095
100
AcDbArc
 50
69.18370128
 51
129.18370128
  0
ARC
  5
88
330
1F
100
AcDbEntity
  8
0
  6
Continuous
 62
     7
370
    25
100
AcDbCircle
 10
348.4658011365
 20
119.3980401522
 30
0.0
 40
0.6249999999999862
100
AcDbArc
 50
9.18370128
 51
69.18370128
  0
ARC
  5
89
330
1F
100
AcDbEntity
  8
0
  6
Continuous
 62
     7
370
    25
100
AcDbCircle
 10
348.4658011365
 20
119.3980401522
 30
0.0
 40
0.6250000000000153
100
AcDbArc
 50
249.18370128
 51
309.18370128
  0
ARC
  5
8A
330
1F
100
AcDbEntity
  8
0
  6
Continuous
 62
     7
370
    25
100
AcDbCircle
 10
348.4658011365
 20
119.3980401522
 30
0.0
 40
0.6249999999999862
100
AcDbArc
 50
309.18370128
 51
9.18370128
  0
SPLINE
  5
8B
330
1F
100
AcDbEntity
  8
0
  6
Continuous
 62
     7
370
    25
100
AcDbSpline
210
0.0
220
0.0
230
1.0
 70
     8
 71
     3
 72
     8
 73
     4
 74
     0
 42
0.000000001
 43
0.00000001
 40
0.0
 40
0.0
 40
0.0
 40
0.0
 40
1.0
 40
1.0
 40
1.0
 40
1.0
 10
338.0766610269086
 20
115.0280392802012
 30
0.0
 10
338.0078226567218
 20
114.9649446068823
 30
0.0
 10
337.9393912962657
 20
114.9012222287515
 30
0.0
 10
337.871375021601
 20
114.8368767964781
 30
0.0
  0
SPLINE
  5
8C
330
1F
100
AcDbEntity
  8
0
  6
Continuous
 62
     7
370
    25
100
AcDbSpline
210
0.0
220
0.0
230
1.0
 70
     8
 71
     3
 72
     8
 73
     4
 74
     0
 42
0.000000001
 43
0.00000001
 40
0.0
 40
0.0
 40
0.0
 40
0.0
 40
1.0
 40
1.0
 40
1.0
 40
1.0
 10
338.3346882681693
 20
114.8587774502738
 30
0.0
 10
338.2479848340089
 20
114.9149383699431
 30
0.0
 10
338.161986786525
 20
114.971363106269
 30
0.0
 10
338.0766610269086
 20
115.0280392802012
 30
0.0
  0
ARC
  5
8D
330
1F
100
AcDbEntity
  8
0
  6
Continuous
 62
     7
370
    25
100
AcDbCircle
 10
348.4658011365
 20
119.3980401522
 30
0.0
 40
11.10154736189901
100
AcDbArc
 50
204.1348482805
 51
335.8651517195
  0
SPLINE
  5
8E
330
1F
100
AcDbEntity
  8
0
  6
Continuous
 62
     7
370
    25
100
AcDbSpline
210
0.0
220
0.0
230
1.0
 70
     8
 71
     3
 72
     8
 73
     4
 74
     0
 42
0.000000001
 43
0.00000001
 40
0.0
 40
0.0
 40
0.0
 40
0.0
 40
1.0
 40
1.0
 40
1.0
 40
1.0
 10
358.8549412461743
 20
115.0280392802012
 30
0.0
 10
358.7696154865579
 20
114.971363106269
 30
0.0
 10
358.683617439074
 20
114.9149383699431
 30
0.0
 10
358.5969140049136
 20
114.8587774502738
 30
0.0
  0
SPLINE
  5
8F
330
1F
100
AcDbEntity
  8
0
  6
Continuous
 62
     7
370
    25
100
AcDbSpline
210
0.0
220
0.0
230
1.0
 70
     8
 71
     3
 72
     8
 73
     4
 74
     0
 42
0.000000001
 43
0.00000001
 40
0.0
 40
0.0
 40
0.0
 40
0.0
 40
1.0
 40
1.0
 40
1.0
 40
1.0
 10
359.0602272514819
 20
114.8368767964781
 30
0.0
 10
358.9922109768172
 20
114.9012222287515
 30
0.0
 10
358.9237796163611
 20
114.9649446068823
 30
0.0
 10
358.8549412461743
 20
115.0280392802012
 30
0.0
  0
ARC
  5
90
330
1F
100
AcDbEntity
  8
0
  6
Continuous
 62
     7
370
    25
100
AcDbCircle
 10
348.4658011365
 20
119.3980401522
 30
0.0
 40
11.53456006379122
100
AcDbArc
 50
203.2930774359
 51
336.7074733161
  0
SPLINE
  5
91
330
1F
100
AcDbEntity
  8
0
  6
Continuous
 62
     7
370
    25
100
AcDbSpline
210
0.0
220
0.0
230
1.0
 70
     8
 71
     3
 72
     8
 73
     4
 74
     0
 42
0.000000001
 43
0.00000001
 40
0.0000004028655191
 40
0.0000004028655191
 40
0.0000004028655191
 40
0.0000004028655191
 40
0.0015137684369673
 40
0.0015137684369673
 40
0.0015137684369673
 40
0.0015137684369673
 10
340.0422064793993
 20
115.0757647483816
 30
0.0
 10
339.8355349918481
 20
115.0034708066669
 30
0.0
 10
339.6289160233075
 20
114.9311393207101
 30
0.0
 10
339.4223396484988
 20
114.8587774502738
 30
0.0
  0
LINE
  5
92
330
1F
100
AcDbEntity
  8
0
  6
Continuous
 62
     7
370
    25
100
AcDbLine
 10
339.4223394934
 20
114.8587776488
 30
0.0
 11
338.3346879054
 21
114.8587776488
 31
0.0
  0
LINE
  5
93
330
1F
100
AcDbEntity
  8
0
  6
Continuous
 62
     7
370
    25
100
AcDbLine
 10
338.2997158114
 20
115.2917900263
 30
0.0
 11
338.0766612608
 21
115.0280394731
 31
0.0
  0
LINE
  5
94
330
1F
100
AcDbEntity
  8
0
  6
Continuous
 62
     7
370
    25
100
AcDbLine
 10
340.0673260111
 20
115.2917900263
 30
0.0
 11
338.2999309469
 21
115.2917900263
 31
0.0
  0
LINE
  5
95
330
1F
100
AcDbEntity
  8
0
  6
Continuous
 62
     7
370
    25
100
AcDbLine
 10
340.0779831353
 20
115.1342093153
 30
0.0
 11
340.0673260111
 21
115.2917900263
 31
0.0
  0
SPLINE
  5
96
330
1F
100
AcDbEntity
  8
0
  6
Continuous
 62
     7
370
    25
100
AcDbSpline
210
0.0
220
0.0
230
1.0
 70
     8
 71
     3
 72
     8
 73
     4
 74
     0
 42
0.000000001
 43
0.00000001
 40
0.0006523765358268
 40
0.0006523765358268
 40
0.0006523765358268
 40
0.0006523765358268
 40
0.0009043636494504
 40
0.0009043636494504
 40
0.0009043636494504
 40
0.0009043636494504
 10
340.0790833544343
 20
115.1360028458303
 30
0.0
 10
340.0667663599168
 20
115.1159272648481
 30
0.0
 10
340.0544741625128
 20
115.0958478763256
 30
0.0
 10
340.0422064793993
 20
115.0757647483816
 30
0.0
  0
LINE
  5
97
330
1F
100
AcDbEntity
  8
0
  6
Continuous
 62
     7
370
    25
100
AcDbLine
 10
338.4898676667
 20
124.6763392491
 30
0.0
 11
338.6982762385
 21
124.4280402688
 31
0.0
  0
SPLINE
  5
98
330
1F
100
AcDbEntity
  8
0
  6
Continuous
 62
     7
370
    25
100
AcDbSpline
210
0.0
220
0.0
230
1.0
 70
     8
 71
     3
 72
     8
 73
     4
 74
     0
 42
0.000000001
 43
0.00000001
 40
0.0
 40
0.0
 40
0.0
 40
0.0
 40
1.0
 40
1.0
 40
1.0
 40
1.0
 10
338.489868087217
 20
124.6763394015552
 30
0.0
 10
338.592764001041
 20
124.7383080106462
 30
0.0
 10
338.6966036705958
 20
124.7998866627868
 30
0.0
 10
338.8014415588224
 20
124.8610528540583
 30
0.0
  0
LINE
  5
99
330
1F
100
AcDbEntity
  8
0
  6
Continuous
 62
     7
370
    25
100
AcDbLine
 10
339.9484901819
 20
124.8610526463
 30
0.0
 11
338.801441634
 21
124.8610526463
 31
0.0
  0
SPLINE
  5
9A
330
1F
100
AcDbEntity
  8
0
  6
Continuous
 62
     7
370
    25
100
AcDbSpline
210
0.0
220
0.0
230
1.0
 70
     8
 71
     3
 72
     8
 73
     4
 74
     0
 42
0.000000001
 43
0.00000001
 40
0.0000004089325119
 40
0.0000004089325119
 40
0.0000004089325119
 40
0.0000004089325119
 40
0.0015399868451459
 40
0.0015399868451459
 40
0.0015399868451459
 40
0.0015399868451459
 10
339.9484897191126
 20
124.8610528540583
 30
0.0
 10
340.160250977907
 20
124.7885979714048
 30
0.0
 10
340.3721713010972
 20
124.7162591013763
 30
0.0
 10
340.5842892843115
 20
124.6440655559505
 30
0.0
  0
LINE
  5
9B
330
1F
100
AcDbEntity
  8
0
  6
Continuous
 62
     7
370
    25
100
AcDbLine
 10
340.5842892024
 20
124.6440656623
 30
0.0
 11
340.5924420003
 21
124.6288529737
 31
0.0
  0
LINE
  5
9C
330
1F
100
AcDbEntity
  8
0
  6
Continuous
 62
     7
370
    25
100
AcDbLine
 10
340.5900717843
 20
124.4280402688
 30
0.0
 11
340.5924429316
 21
124.6288534394
 31
0.0
  0
LINE
  5
9D
330
1F
100
AcDbEntity
  8
0
  6
Continuous
 62
     7
370
    25
100
AcDbLine
 10
340.5900717843
 20
124.4280402688
 30
0.0
 11
338.6982762385
 21
124.4280402688
 31
0.0
  0
ARC
  5
9E
330
1F
100
AcDbEntity
  8
0
  6
Continuous
 62
     7
370
    25
100
AcDbCircle
 10
348.4658011365
 20
119.3980401522
 30
0.0
 40
11.10154736189899
100
AcDbArc
 50
29.4783538465
 51
150.5216461535
  0
SPLINE
  5
9F
330
1F
100
AcDbEntity
  8
0
  6
Continuous
 62
     7
370
    25
100
AcDbSpline
210
0.0
220
0.0
230
1.0
 70
     8
 71
     3
 72
     8
 73
     4
 74
     0
 42
0.000000001
 43
0.00000001
 40
0.0
 40
0.0
 40
0.0
 40
0.0
 40
1.0
 40
1.0
 40
1.0
 40
1.0
 10
338.3013317061032
 20
124.8505292224248
 30
0.0
 10
338.3639000144727
 20
124.7920787533173
 30
0.0
 10
338.4267466078365
 20
124.7340147427843
 30
0.0
 10
338.4898680872193
 20
124.6763394015531
 30
0.0
  0
ARC
  5
A0
330
1F
100
AcDbEntity
  8
0
  6
Continuous
 62
     7
370
    25
100
AcDbCircle
 10
348.4658011365
 20
119.3980401522
 30
0.0
 40
11.53456006379118
100
AcDbArc
 50
28.2102805322
 51
151.7902347364
  0
SPLINE
  5
A1
330
1F
100
AcDbEntity
  8
0
  6
Continuous
 62
     7
370
    25
100
AcDbSpline
210
0.0
220
0.0
230
1.0
 70
     8
 71
     3
 72
     8
 73
     4
 74
     0
 42
0.000000001
 43
0.00000001
 40
0.0
 40
0.0
 40
0.0
 40
0.0
 40
1.0
 40
1.0
 40
1.0
 40
1.0
 10
358.4417341858638
 20
124.6763394015534
 30
0.0
 10
358.5048556652466
 20
124.7340147427844
 30
0.0
 10
358.5677022586102
 20
124.7920787533174
 30
0.0
 10
358.6302705669798
 20
124.8505292224249
 30
0.0
  0
SPLINE
  5
A2
330
1F
100
AcDbEntity
  8
0
  6
Continuous
 62
     7
370
    25
100
AcDbSpline
210
0.0
220
0.0
230
1.0
 70
     8
 71
     3
 72
     8
 73
     4
 74
     0
 42
0.000000001
 43
0.00000001
 40
0.0
 40
0.0
 40
0.0
 40
0.0
 40
1.0
 40
1.0
 40
1.0
 40
1.0
 10
358.1301607142605
 20
124.8610528540583
 30
0.0
 10
358.2349986024867
 20
124.799886662787
 30
0.0
 10
358.3388382720412
 20
124.7383080106466
 30
0.0
 10
358.4417341858648
 20
124.6763394015559
 30
0.0
  0
LINE
  5
A3
330
1F
100
AcDbEntity
  8
0
  6
Continuous
 62
     7
370
    25
100
AcDbLine
 10
358.8549410123
 20
115.0280394731
 30
0.0
 11
358.6318864617
 21
115.2917900263
 31
0.0
  0
LINE
  5
A4
330
1F
100
AcDbEntity
  8
0
  6
Continuous
 62
     7
370
    25
100
AcDbLine
 10
358.5969143677
 20
114.8587776488
 30
0.0
 11
357.5092627797
 21
114.8587776488
 31
0.0
  0
SPLINE
  5
A5
330
1F
100
AcDbEntity
  8
0
  6
Continuous
 62
     7
370
    25
100
AcDbSpline
210
0.0
220
0.0
230
1.0
 70
     8
 71
     3
 72
     8
 73
     4
 74
     0
 42
0.000000001
 43
0.00000001
 40
0.0000004024872366
 40
0.0000004024872366
 40
0.0000004024872366
 40
0.0000004024872366
 40
0.0015137680586847
 40
0.0015137680586847
 40
0.0015137680586847
 40
0.0015137680586847
 10
357.509262624584
 20
114.8587774502738
 30
0.0
 10
357.3026862497754
 20
114.9311393207101
 30
0.0
 10
357.0960672812348
 20
115.0034708066669
 30
0.0
 10
356.8893957936835
 20
115.0757647483816
 30
0.0
  0
SPLINE
  5
A6
330
1F
100
AcDbEntity
  8
0
  6
Continuous
 62
     7
370
    25
100
AcDbSpline
210
0.0
220
0.0
230
1.0
 70
     8
 71
     3
 72
     8
 73
     4
 74
     0
 42
0.000000001
 43
0.00000001
 40
0.0000002414707367
 40
0.0000002414707367
 40
0.0000002414707367
 40
0.0000002414707367
 40
0.0002447240690309
 40
0.0002447240690309
 40
0.0002447240690309
 40
0.0002447240690309
 10
356.8893957936835
 20
115.0757647483816
 30
0.0
 10
356.8774934583284
 20
115.0952497743282
 30
0.0
 10
356.8655680471167
 20
115.1147312801525
 30
0.0
 10
356.8536193018218
 20
115.1342092036644
 30
0.0
  0
LINE
  5
A7
330
1F
100
AcDbEntity
  8
0
  6
Continuous
 62
     7
370
    25
100
AcDbLine
 10
356.864276262
 20
115.2917900263
 30
0.0
 11
356.8536191378
 21
115.1342093153
 31
0.0
  0
LINE
  5
A8
330
1F
100
AcDbEntity
  8
0
  6
Continuous
 62
     7
370
    25
100
AcDbLine
 10
358.6318864617
 20
115.2917900263
 30
0.0
 11
356.8591679577
 21
115.2917900263
 31
0.0
  0
SPLINE
  5
A9
330
1F
100
AcDbEntity
  8
0
  6
Continuous
 62
     7
370
    25
100
AcDbSpline
210
0.0
220
0.0
230
1.0
 70
     8
 71
     3
 72
     8
 73
     4
 74
     0
 42
0.000000001
 43
0.00000001
 40
0.000000410413179
 40
0.000000410413179
 40
0.000000410413179
 40
0.000000410413179
 40
0.0015399883258131
 40
0.0015399883258131
 40
0.0015399883258131
 40
0.0015399883258131
 10
356.3473129887714
 20
124.6440655559505
 30
0.0
 10
356.5594309719856
 20
124.7162591013763
 30
0.0
 10
356.7713512951759
 20
124.7885979714048
 30
0.0
 10
356.9831125539703
 20
124.8610528540583
 30
0.0
  0
LINE
  5
AA
330
1F
100
AcDbEntity
  8
0
  6
Continuous
 62
     7
370
    25
100
AcDbLine
 10
358.130160639
 20
124.8610526463
 30
0.0
 11
356.9831120912
 21
124.8610526463
 31
0.0
  0
LINE
  5
AB
330
1F
100
AcDbEntity
  8
0
  6
Continuous
 62
     7
370
    25
100
AcDbLine
 10
358.2333260346
 20
124.4280402688
 30
0.0
 11
358.4417346064
 21
124.6763392491
 31
0.0
  0
LINE
  5
AC
330
1F
100
AcDbEntity
  8
0
  6
Continuous
 62
     7
370
    25
100
AcDbLine
 10
358.2331360448
 20
124.4280402688
 30
0.0
 11
356.3415304888
 21
124.4280402688
 31
0.0
  0
LINE
  5
AD
330
1F
100
AcDbEntity
  8
0
  6
Continuous
 62
     7
370
    25
100
AcDbLine
 10
356.3391593415
 20
124.6288529737
 30
0.0
 11
356.3415304888
 21
124.4280402688
 31
0.0
  0
LINE
  5
AE
330
1F
100
AcDbEntity
  8
0
  6
Continuous
 62
     7
370
    25
100
AcDbLine
 10
356.3391602728
 20
124.6288529737
 30
0.0
 11
356.3473130706
 21
124.6440656623
 31
0.0
  0
ARC
  5
AF
330
1F
100
AcDbEntity
  8
0
  6
Continuous
 62
     7
370
    25
100
AcDbCircle
 10
348.4658011365
 20
119.3980401522
 30
0.0
 40
10.11875000000003
100
AcDbArc
 50
32.6761561262
 51
147.3238438738
  0
ARC
  5
B0
330
1F
100
AcDbEntity
  8
0
  6
Continuous
 62
     7
370
    25
100
AcDbCircle
 10
348.4658011365
 20
119.3980401522
 30
0.0
 40
10.11875
100
AcDbArc
 50
206.6538426687
 51
333.3461573313
  0
ARC
  5
B1
330
1F
100
AcDbEntity
  8
0
  6
Continuous
 62
     7
370
    25
100
AcDbCircle
 10
348.4658011365
 20
119.3980401522
 30
0.0
 40
9.467788105676714
100
AcDbArc
 50
207.1630537883
 51
332.8369462117
  0
ARC
  5
B2
330
1F
100
AcDbEntity
  8
0
  6
Continuous
 62
     7
370
    25
100
AcDbCircle
 10
348.4658011365
 20
119.3980401522
 30
0.0
 40
9.467788105676675
100
AcDbArc
 50
33.6481949792
 51
146.3518050208
  0
SPLINE
  5
B3
330
1F
100
AcDbEntity
  8
0
  6
Continuous
 62
     7
370
    25
100
AcDbSpline
210
0.0
220
0.0
230
1.0
 70
     8
 71
     3
 72
     8
 73
     4
 74
     0
 42
0.000000001
 43
0.00000001
 40
0.0
 40
0.0
 40
0.0
 40
0.0
 40
1.0
 40
1.0
 40
1.0
 40
1.0
 10
337.871375021411
 20
114.8368767965894
 30
0.0
 10
337.8181321964693
 20
114.8374005228272
 30
0.0
 10
337.7648369108536
 20
114.8381986160896
 30
0.0
 10
337.7114914053641
 20
114.8392716640144
 30
0.0
  0
LINE
  5
B4
330
1F
100
AcDbEntity
  8
0
  6
Continuous
 62
     7
370
    25
100
AcDbLine
 10
338.1395786199
 20
115.2917900263
 30
0.0
 11
338.2997158114
 21
115.2917900263
 31
0.0
  0
LINE
  5
B5
330
1F
100
AcDbEntity
  8
0
  6
Continuous
 62
     7
370
    25
100
AcDbLine
 10
358.6318864617
 20
115.2917900263
 30
0.0
 11
358.7920236531
 21
115.2917900263
 31
0.0
  0
SPLINE
  5
B6
330
1F
100
AcDbEntity
  8
0
  6
Continuous
 62
     7
370
    25
100
AcDbSpline
210
0.0
220
0.0
230
1.0
 70
     8
 71
     3
 72
     8
 73
     4
 74
     0
 42
0.000000001
 43
0.00000001
 40
0.0
 40
0.0
 40
0.0
 40
0.0
 40
1.0
 40
1.0
 40
1.0
 40
1.0
 10
359.2201108677187
 20
114.8392716640144
 30
0.0
 10
359.1667653622292
 20
114.8381986160896
 30
0.0
 10
359.1134700766136
 20
114.8374005228272
 30
0.0
 10
359.0602272516719
 20
114.8368767965894
 30
0.0
  0
LINE
  5
B7
330
1F
100
AcDbEntity
  8
0
  6
Continuous
 62
     7
370
    25
100
AcDbLine
 10
338.6982762385
 20
124.4280402688
 30
0.0
 11
338.5748592335
 21
124.4280402688
 31
0.0
  0
SPLINE
  5
B8
330
1F
100
AcDbEntity
  8
0
  6
Continuous
 62
     7
370
    25
100
AcDbSpline
210
0.0
220
0.0
230
1.0
 70
     8
 71
     3
 72
     8
 73
     4
 74
     0
 42
0.000000001
 43
0.00000001
 40
0.0
 40
0.0
 40
0.0
 40
0.0
 40
1.0
 40
1.0
 40
1.0
 40
1.0
 10
338.1781102118617
 20
124.8484856691024
 30
0.0
 10
338.2192256389035
 20
124.8493546067424
 30
0.0
 10
338.2602999335146
 20
124.8500356443253
 30
0.0
 10
338.3013317060037
 20
124.8505292223867
 30
0.0
  0
SPLINE
  5
B9
330
1F
100
AcDbEntity
  8
0
  6
Continuous
 62
     7
370
    25
100
AcDbSpline
210
0.0
220
0.0
230
1.0
 70
     8
 71
     3
 72
     8
 73
     4
 74
     0
 42
0.000000001
 43
0.00000001
 40
0.0
 40
0.0
 40
0.0
 40
0.0
 40
1.0
 40
1.0
 40
1.0
 40
1.0
 10
358.6302705670792
 20
124.8505292223867
 30
0.0
 10
358.6713023395683
 20
124.8500356443253
 30
0.0
 10
358.7123766341793
 20
124.8493546067424
 30
0.0
 10
358.7534920612212
 20
124.8484856691024
 30
0.0
  0
LINE
  5
BA
330
1F
100
AcDbEntity
  8
0
  6
Continuous
 62
     7
370
    25
100
AcDbLine
 10
358.3567430395
 20
124.4280402688
 30
0.0
 11
358.2333260346
 21
124.4280402688
 31
0.0
  0
SPLINE
  5
BB
330
1F
100
AcDbEntity
  8
0
  6
Continuous
 62
     7
370
    25
100
AcDbSpline
210
0.0
220
0.0
230
1.0
 70
     8
 71
     3
 72
     9
 73
     5
 74
     0
 42
0.000000001
 43
0.00000001
 40
0.0
 40
0.0
 40
0.0
 40
0.0
 40
0.4897878789203671
 40
1.0
 40
1.0
 40
1.0
 40
1.0
 10
355.5713907011927
 20
124.6211570184038
 30
0.0
 10
355.697745783414
 20
124.6224757441571
 30
0.0
 10
355.9557249773862
 20
124.6251681867634
 30
0.0
 10
356.2096197256757
 20
124.6276082645994
 30
0.0
 10
356.3391599037315
 20
124.6288532218877
 30
0.0
  0
ARC
  5
BC
330
1F
100
AcDbEntity
  8
0
  6
Continuous
 62
     7
370
    25
100
AcDbCircle
 10
348.4658011365
 20
119.3980401522
 30
0.0
 40
8.81875000000001
100
AcDbArc
 50
36.3185452201
 51
143.6814533294
  0
SPLINE
  5
BD
330
1F
100
AcDbEntity
  8
0
  6
Continuous
 62
     7
370
    25
100
AcDbSpline
210
0.0
220
0.0
230
1.0
 70
     8
 71
     3
 72
     9
 73
     5
 74
     0
 42
0.000000001
 43
0.00000001
 40
0.0
 40
0.0
 40
0.0
 40
0.0
 40
0.5102121239851032
 40
1.0
 40
1.0
 40
1.0
 40
1.0
 10
340.5924422682267
 20
124.628853410492
 30
0.0
 10
340.7219824860775
 20
124.6276084518011
 30
0.0
 10
340.9758773109183
 20
124.6251683712301
 30
0.0
 10
341.233856583928
 20
124.6224759255369
 30
0.0
 10
341.3602117041113
 20
124.6211571982796
 30
0.0
  0
SPLINE
  5
BE
330
1F
100
AcDbEntity
  8
0
  6
Continuous
 62
     7
370
    25
100
AcDbSpline
210
0.0
220
0.0
230
1.0
 70
     8
 71
     3
 72
     8
 73
     4
 74
     0
 42
0.000000001
 43
0.00000001
 40
0.0
 40
0.0
 40
0.0
 40
0.0
 40
1.0
 40
1.0
 40
1.0
 40
1.0
 10
341.3602114504367
 20
124.6211567290024
 30
0.0
 10
341.3524503924913
 20
124.6105984938033
 30
0.0
 10
341.3447128673953
 20
124.600022960277
 30
0.0
 10
341.3369989520259
 20
124.5894302334975
 30
0.0
  0
SPLINE
  5
BF
330
1F
100
AcDbEntity
  8
0
  6
Continuous
 62
     7
370
    25
100
AcDbSpline
210
0.0
220
0.0
230
1.0
 70
     8
 71
     3
 72
     8
 73
     4
 74
     0
 42
0.000000001
 43
0.00000001
 40
0.0
 40
0.0
 40
0.0
 40
0.0
 40
1.0
 40
1.0
 40
1.0
 40
1.0
 10
341.1654411192629
 20
124.4280404910343
 30
0.0
 10
341.2227015262973
 20
124.4819486680221
 30
0.0
 10
341.2798879174071
 20
124.5357455931052
 30
0.0
 10
341.3369989520259
 20
124.5894302334975
 30
0.0
  0
LINE
  5
C0
330
1F
100
AcDbEntity
  8
0
  6
Continuous
 62
     7
370
    25
100
AcDbLine
 10
341.1654419396
 20
124.4280402688
 30
0.0
 11
340.5900717843
 21
124.4280402688
 31
0.0
  0
SPLINE
  5
C1
330
1F
100
AcDbEntity
  8
0
  6
Continuous
 62
     7
370
    25
100
AcDbSpline
210
0.0
220
0.0
230
1.0
 70
     8
 71
     3
 72
     8
 73
     4
 74
     0
 42
0.000000001
 43
0.00000001
 40
0.0
 40
0.0
 40
0.0
 40
0.0
 40
1.0
 40
1.0
 40
1.0
 40
1.0
 10
355.594718752838
 20
124.5892717191987
 30
0.0
 10
355.5869666401374
 20
124.5999173958712
 30
0.0
 10
355.5791906814702
 20
124.6105457080655
 30
0.0
 10
355.5713909548668
 20
124.6211565491279
 30
0.0
  0
LINE
  5
C2
330
1F
100
AcDbEntity
  8
0
  6
Continuous
 62
     7
370
    25
100
AcDbLine
 10
356.3415304888
 20
124.4280402688
 30
0.0
 11
355.7661319282
 21
124.4280402688
 31
0.0
  0
SPLINE
  5
C3
330
1F
100
AcDbEntity
  8
0
  6
Continuous
 62
     7
370
    25
100
AcDbSpline
210
0.0
220
0.0
230
1.0
 70
     8
 71
     3
 72
     8
 73
     4
 74
     0
 42
0.000000001
 43
0.00000001
 40
0.0
 40
0.0
 40
0.0
 40
0.0
 40
1.0
 40
1.0
 40
1.0
 40
1.0
 10
355.594718752838
 20
124.5892717191987
 30
0.0
 10
355.6517818805241
 20
124.5356397687829
 30
0.0
 10
355.7089202602544
 20
124.4818956824179
 30
0.0
 10
355.7661325537283
 20
124.4280404911677
 30
0.0
  0
ARC
  5
C4
330
1F
100
AcDbEntity
  8
0
  6
Continuous
 62
     7
370
    25
100
AcDbCircle
 10
348.4658011365
 20
119.3980401522
 30
0.0
 40
8.818750000000039
100
AcDbArc
 50
209.2047569376
 51
330.7952430624
  0
SPLINE
  5
C5
330
1F
100
AcDbEntity
  8
0
  6
Continuous
 62
     7
370
    25
100
AcDbSpline
210
0.0
220
0.0
230
1.0
 70
    24
 71
     3
 72
     8
 73
     4
 74
     0
 42
0.000000001
 43
0.00000001
 40
0.0
 40
0.0
 40
0.0
 40
0.0
 40
0.000136040218399
 40
0.000136040218399
 40
0.000136040218399
 40
0.000136040218399
 10
356.2069365333858
 20
115.1384997213149
 30
0.0
 10
356.1924975337017
 20
115.1240607216308
 30
0.0
 10
356.1780270813394
 20
115.1095902692686
 30
0.0
 10
356.163525482788
 20
115.0950886707171
 30
0.0
  0
SPLINE
  5
C6
330
1F
100
AcDbEntity
  8
0
  6
Continuous
 62
     7
370
    25
100
AcDbSpline
210
0.0
220
0.0
230
1.0
 70
     8
 71
     3
 72
     9
 73
     5
 74
     0
 42
0.000000001
 43
0.00000001
 40
0.0
 40
0.0
 40
0.0
 40
0.0
 40
0.5086448740972567
 40
1.0
 40
1.0
 40
1.0
 40
1.0
 10
356.853619262142
 20
115.1342091155298
 30
0.0
 10
356.7444532131442
 20
115.1349029643748
 30
0.0
 10
356.5298318642284
 20
115.1362670769027
 30
0.0
 10
356.313320551551
 20
115.1377638968405
 30
0.0
 10
356.2069366082511
 20
115.1384993669895
 30
0.0
  0
SPLINE
  5
C7
330
1F
100
AcDbEntity
  8
0
  6
Continuous
 62
     7
370
    25
100
AcDbSpline
210
0.0
220
0.0
230
1.0
 70
     8
 71
     3
 72
     9
 73
     5
 74
     0
 42
0.000000001
 43
0.00000001
 40
0.0
 40
0.0
 40
0.0
 40
0.0
 40
0.4913551252639729
 40
1.0
 40
1.0
 40
1.0
 40
1.0
 10
340.7246656952963
 20
115.1384993365249
 30
0.0
 10
340.6182817439042
 20
115.1377638661961
 30
0.0
 10
340.4017704144766
 20
115.1362670458904
 30
0.0
 10
340.1871490491098
 20
115.1349029330361
 30
0.0
 10
340.0779829916071
 20
115.1342090840242
 30
0.0
  0
SPLINE
  5
C8
330
1F
100
AcDbEntity
  8
0
  6
Continuous
 62
     7
370
    25
100
AcDbSpline
210
0.0
220
0.0
230
1.0
 70
    24
 71
     3
 72
     8
 73
     4
 74
     0
 42
0.000000001
 43
0.00000001
 40
0.0
 40
0.0
 40
0.0
 40
0.0
 40
0.000136040122724
 40
0.000136040122724
 40
0.000136040122724
 40
0.000136040122724
 10
340.7680767902949
 20
115.0950886707171
 30
0.0
 10
340.7535752019422
 20
115.1095902590698
 30
0.0
 10
340.739104759735
 20
115.124060701277
 30
0.0
 10
340.7246657701617
 20
115.1384996908504
 30
0.0
  0
LINE
  5
C9
330
1F
100
AcDbEntity
  8
0
  6
Continuous
 62
     7
370
    25
100
AcDbLine
 10
340.0673260111
 20
115.2917900263
 30
0.0
 11
340.5713754836
 21
115.2917900263
 31
0.0
  0
SPLINE
  5
CA
330
1F
100
AcDbEntity
  8
0
  6
Continuous
 62
     7
370
    25
100
AcDbSpline
210
0.0
220
0.0
230
1.0
 70
     8
 71
     3
 72
     8
 73
     4
 74
     0
 42
0.000000001
 43
0.00000001
 40
0.0
 40
0.0
 40
0.0
 40
0.0
 40
1.0
 40
1.0
 40
1.0
 40
1.0
 10
340.7246659699936
 20
115.1384994912633
 30
0.0
 10
340.6735972073892
 20
115.1895419830073
 30
0.0
 10
340.6225002477532
 20
115.2406389550333
 30
0.0
 10
340.5713754062376
 20
115.2917900547745
 30
0.0
  0
SPLINE
  5
CB
330
1F
100
AcDbEntity
  8
0
  6
Continuous
 62
     7
370
    25
100
AcDbSpline
210
0.0
220
0.0
230
1.0
 70
     8
 71
     3
 72
     8
 73
     4
 74
     0
 42
0.000000001
 43
0.00000001
 40
0.0
 40
0.0
 40
0.0
 40
0.0
 40
1.0
 40
1.0
 40
1.0
 40
1.0
 10
356.3602268668454
 20
115.2917900547746
 30
0.0
 10
356.3091020355001
 20
115.2406389652193
 30
0.0
 10
356.2580050860191
 20
115.1895420033483
 30
0.0
 10
356.2069363335538
 20
115.1384995217278
 30
0.0
  0
LINE
  5
CC
330
1F
100
AcDbEntity
  8
0
  6
Continuous
 62
     7
370
    25
100
AcDbLine
 10
356.3602267895
 20
115.2917900263
 30
0.0
 11
356.864276262
 21
115.2917900263
 31
0.0
  0
CIRCLE
  5
CD
330
1F
100
AcDbEntity
  8
0
  6
Continuous
 62
     7
370
    25
100
AcDbCircle
 10
348.4658011365
 20
119.3980401522
 30
0.0
 40
12.47086902276419
  0
SPLINE
  5
CE
330
1F
100
AcDbEntity
  8
0
  6
Continuous
 62
     7
370
    25
100
AcDbSpline
210
0.0
220
0.0
230
1.0
 70
     8
 71
     3
 72
    23
 73
    19
 74
     0
 42
0.000000001
 43
0.00000001
 40
0.0
 40
0.0
 40
0.0
 40
0.0
 40
0.0521036415683759
 40
0.1035646240941235
 40
0.1544751946756683
 40
0.2049306267495642
 40
0.2550287880866983
 40
0.3048696389163111
 40
0.354554670462894
 40
0.4041862979539558
 40
0.453867225213789
 40
0.5036997999428097
 40
0.590187023078111
 40
0.6742716378282376
 40
0.7565997087281883
 40
0.8378563983773627
 40
0.9187511781400207
 40
0.9999999999999999
 40
0.9999999999999999
 40
0.9999999999999999
 40
0.9999999999999999
 10
337.6265489898839
 20
123.888450864916
 30
0.0
 10
337.639843344834
 20
123.9176187580783
 30
0.0
 10
337.6662680789128
 20
123.9755947804837
 30
0.0
 10
337.7054790851374
 20
124.0584940814975
 30
0.0
 10
337.7439210399436
 20
124.1376760625164
 30
0.0
 10
337.7815086214107
 20
124.2129308793191
 30
0.0
 10
337.8181645077184
 20
124.2843505335771
 30
0.0
 10
337.853814371777
 20
124.3519471423584
 30
0.0
 10
337.8883881185379
 20
124.4157534638221
 30
0.0
 10
337.9218198124934
 20
124.4757970058901
 30
0.0
 10
337.9540466897175
 20
124.532103702615
 30
0.0
 10
337.9925481266065
 20
124.5975086844371
 30
0.0
 10
338.0352096073196
 20
124.667069762272
 30
0.0
 10
338.0787026494428
 20
124.7338292589365
 30
0.0
 10
338.115115146271
 20
124.7855533070344
 30
0.0
 10
338.1440159527481
 20
124.8220016190863
 30
0.0
 10
338.1659334088462
 20
124.8445990159697
 30
0.0
 10
338.1740453733393
 20
124.8471882335311
 30
0.0
 10
338.1781102118617
 20
124.8484856691024
 30
0.0
  0
SPLINE
  5
CF
330
1F
100
AcDbEntity
  8
0
  6
Continuous
 62
     7
370
    25
100
AcDbSpline
210
0.0
220
0.0
230
1.0
 70
     8
 71
     3
 72
     8
 73
     4
 74
     0
 42
0.000000001
 43
0.00000001
 40
0.0
 40
0.0
 40
0.0
 40
0.0
 40
1.0
 40
1.0
 40
1.0
 40
1.0
 10
337.5059110500209
 20
123.8862405075061
 30
0.0
 10
337.5461000636139
 20
123.8869708177237
 30
0.0
 10
337.586262365704
 20
123.8875513435531
 30
0.0
 10
337.6263970761797
 20
123.8879823085029
 30
0.0
  0
SPLINE
  5
D0
330
1F
100
AcDbEntity
  8
0
  6
Continuous
 62
     7
370
    25
100
AcDbSpline
210
0.0
220
0.0
230
1.0
 70
     8
 71
     3
 72
    18
 73
    14
 74
     0
 42
0.000000001
 43
0.00000001
 40
0.0
 40
0.0
 40
0.0
 40
0.0
 40
0.0923824559461122
 40
0.1844689291660427
 40
0.2764953616062392
 40
0.3686975365619641
 40
0.4613092840130473
 40
0.5545607518559533
 40
0.6486768051632873
 40
0.7438756050210469
 40
0.8403674044324065
 40
0.9203921078135461
 40
1.0
 40
1.0
 40
1.0
 40
1.0
 10
337.5588500388207
 20
124.153057514388
 30
0.0
 10
337.5606856924734
 20
124.1528492021728
 30
0.0
 10
337.5643511185565
 20
124.1524332451507
 30
0.0
 10
337.567146448176
 20
124.1456288216846
 30
0.0
 10
337.5679487432547
 20
124.1342954430325
 30
0.0
 10
337.5665826062116
 20
124.117995048006
 30
0.0
 10
337.5631210575827
 20
124.0968438091701
 30
0.0
 10
337.5575797518132
 20
124.0708081080537
 30
0.0
 10
337.5499952837441
 20
124.0398837284024
 30
0.0
 10
337.5404182818071
 20
124.0040846969578
 30
0.0
 10
337.5295778057878
 20
123.9658337894259
 30
0.0
 10
337.5180891648484
 20
123.9266155760308
 30
0.0
 10
337.5099891799702
 20
123.8997605991813
 30
0.0
 10
337.5059497623275
 20
123.886368170811
 30
0.0
  0
LINE
  5
D1
330
1F
100
AcDbEntity
  8
0
  6
Continuous
 62
     7
370
    25
100
AcDbLine
 10
337.5060948673
 20
124.1523096478
 30
0.0
 11
337.5588496346
 21
124.1530574998
 31
0.0
  0
SPLINE
  5
D2
330
1F
100
AcDbEntity
  8
0
  6
Continuous
 62
     7
370
    25
100
AcDbSpline
210
0.0
220
0.0
230
1.0
 70
     8
 71
     3
 72
    25
 73
    21
 74
     0
 42
0.000000001
 43
0.00000001
 40
0.0
 40
0.0
 40
0.0
 40
0.0
 40
0.0280105225426455
 40
0.0559601148860774
 40
0.0839014045043129
 40
0.1118870776786379
 40
0.1399695827588941
 40
0.1682008401739877
 40
0.1966319670424218
 40
0.2253130233141493
 40
0.2542927850735863
 40
0.3799486436570518
 40
0.505785022166658
 40
0.6313085886329272
 40
0.7532068238012843
 40
0.8039473267959846
 40
0.8535894438560211
 40
0.902533972239985
 40
0.9511970353794947
 40
1.0
 40
1.0
 40
1.0
 40
1.0
 10
336.5951332717678
 20
121.5853778947004
 30
0.0
 10
336.6021123416787
 20
121.6226879082071
 30
0.0
 10
336.6160553002015
 20
121.6972267762008
 30
0.0
 10
336.6385771976444
 20
121.8085358216839
 30
0.0
 10
336.662210809742
 20
121.9191980306984
 30
0.0
 10
336.6870604002299
 20
122.0291821636427
 30
0.0
 10
336.7130790247162
 20
122.1384773072572
 30
0.0
 10
336.7402604060341
 20
122.2470682764594
 30
0.0
 10
336.7685860473666
 20
122.3549389864017
 30
0.0
 10
336.7980448281992
 20
122.4620839321267
 30
0.0
 10
336.8624531161107
 20
122.6862588186367
 30
0.0
 10
336.9675548081823
 20
123.0129242326719
 30
0.0
 10
337.1130175689783
 20
123.398870837992
 30
0.0
 10
337.2522809770895
 20
123.7209506506861
 30
0.0
 10
337.3494293299566
 20
123.9167712347163
 30
0.0
 10
337.4097247361829
 20
124.0261186851996
 30
0.0
 10
337.4446133190643
 20
124.084046709615
 30
0.0
 10
337.4725078209921
 20
124.12450066238
 30
0.0
 10
337.4938729133638
 20
124.149114877779
 30
0.0
 10
337.5020168609364
 20
124.1512438052867
 30
0.0
 10
337.5060946795815
 20
124.1523097969581
 30
0.0
  0
ARC
  5
D3
330
1F
100
AcDbEntity
  8
0
  6
Continuous
 62
     7
370
    25
100
AcDbCircle
 10
348.4658011365
 20
119.3980401522
 30
0.0
 40
12.07050959801142
100
AcDbArc
 50
169.5595567507
 51
190.4404432494
  0
SPLINE
  5
D4
330
1F
100
AcDbEntity
  8
0
  6
Continuous
 62
     7
370
    25
100
AcDbSpline
210
0.0
220
0.0
230
1.0
 70
     8
 71
     3
 72
    26
 73
    22
 74
     0
 42
0.000000001
 43
0.00000001
 40
0.0
 40
0.0
 40
0.0
 40
0.0
 40
0.0241259796963637
 40
0.048215991227299
 40
0.0723203915124064
 40
0.0964895678710793
 40
0.120773623196351
 40
0.1452220711242841
 40
0.1698835501657706
 40
0.1948055644472381
 40
0.2200342569517629
 40
0.2456142191611394
 40
0.3690971486901671
 40
0.4940698769485191
 40
0.6192566784762444
 40
0.7454656653603234
 40
0.7971495824713715
 40
0.8481710308405401
 40
0.8988013269235245
 40
0.9493179290492194
 40
1.0
 40
1.0
 40
1.0
 40
1.0
 10
337.5060946795815
 20
114.643770507374
 30
0.0
 10
337.504184364841
 20
114.6440574005634
 30
0.0
 10
337.5003665833488
 20
114.6446307592282
 30
0.0
 10
337.4924064581679
 20
114.6506894474746
 30
0.0
 10
337.4828273575924
 20
114.6605687082055
 30
0.0
 10
337.4714801507238
 20
114.6746497993159
 30
0.0
 10
337.4584239674298
 20
114.69284534734
 30
0.0
 10
337.4436680642025
 20
114.7151958900787
 30
0.0
 10
337.4272408839051
 20
114.7417101257708
 30
0.0
 10
337.4091727291849
 20
114.7724056364841
 30
0.0
 10
337.3894955827619
 20
114.8073067397239
 30
0.0
 10
337.3412962013337
 20
114.8960712748317
 30
0.0
 10
337.2529781618982
 20
115.0733515762805
 30
0.0
 10
337.1139185451315
 20
115.3944374831256
 30
0.0
 10
336.9682458652693
 20
115.7810201350161
 30
0.0
 10
336.8545072702599
 20
116.134727839146
 30
0.0
 10
336.7748016517133
 20
116.4169815387588
 30
0.0
 10
336.7241520793591
 20
116.6114249695331
 30
0.0
 10
336.6771854094936
 20
116.8086663464672
 30
0.0
 10
336.6336255874893
 20
117.0085693915623
 30
0.0
 10
336.6079780223578
 20
117.1432513312946
 30
0.0
 10
336.5951332717678
 20
117.2107024096318
 30
0.0
  0
LINE
  5
D5
330
1F
100
AcDbEntity
  8
0
  6
Continuous
 62
     7
370
    25
100
AcDbLine
 10
337.5588496346
 20
114.6430228045
 30
0.0
 11
337.5060948673
 21
114.6437706566
 31
0.0
  0
SPLINE
  5
D6
330
1F
100
AcDbEntity
  8
0
  6
Continuous
 62
     7
370
    25
100
AcDbSpline
210
0.0
220
0.0
230
1.0
 70
     8
 71
     3
 72
    14
 73
    10
 74
     0
 42
0.000000001
 43
0.00000001
 40
0.0
 40
0.0
 40
0.0
 40
0.0
 40
0.0789261963152472
 40
0.1582328720511064
 40
0.3308475394503796
 40
0.5000195457530386
 40
0.6670357883499396
 40
0.8332395193610692
 40
1.0
 40
1.0
 40
1.0
 40
1.0
 10
337.5058531819683
 20
114.9100462672495
 30
0.0
 10
337.5098677285644
 20
114.896743142612
 30
0.0
 10
337.5179161746764
 20
114.8700727629799
 30
0.0
 10
337.5328168814862
 20
114.8192580236599
 30
0.0
 10
337.5487138630832
 20
114.7622182074724
 30
0.0
 10
337.5617923580812
 20
114.7079149907441
 30
0.0
 10
337.5680249651984
 20
114.6697478480211
 30
0.0
 10
337.5678353853614
 20
114.6463391193443
 30
0.0
 10
337.5618484912304
 20
114.6441294646657
 30
0.0
 10
337.5588500388207
 20
114.6430227899441
 30
0.0
  0
SPLINE
  5
D7
330
1F
100
AcDbEntity
  8
0
  6
Continuous
 62
     7
370
    25
100
AcDbSpline
210
0.0
220
0.0
230
1.0
 70
     8
 71
     3
 72
     8
 73
     4
 74
     0
 42
0.000000001
 43
0.00000001
 40
0.0
 40
0.0
 40
0.0
 40
0.0
 40
1.0
 40
1.0
 40
1.0
 40
1.0
 10
337.6531578731932
 20
114.9079851887983
 30
0.0
 10
337.6040899581644
 20
114.9084722420103
 30
0.0
 10
337.5549805206435
 20
114.9091833098851
 30
0.0
 10
337.5058311761182
 20
114.9101188031195
 30
0.0
  0
SPLINE
  5
D8
330
1F
100
AcDbEntity
  8
0
  6
Continuous
 62
     7
370
    25
100
AcDbSpline
210
0.0
220
0.0
230
1.0
 70
     8
 71
     3
 72
    13
 73
     9
 74
     0
 42
0.000000001
 43
0.00000001
 40
0.0
 40
0.0
 40
0.0
 40
0.0
 40
0.1667030582307959
 40
0.3329480818053031
 40
0.4990671507274871
 40
0.6653938523718408
 40
0.8322612710550125
 40
1.0
 40
1.0
 40
1.0
 40
1.0
 10
337.7114914053641
 20
114.8392716640144
 30
0.0
 10
337.7096480915273
 20
114.8396887737802
 30
0.0
 10
337.7059665285574
 20
114.8405218472576
 30
0.0
 10
337.6984492747629
 20
114.846536326084
 30
0.0
 10
337.6894984706464
 20
114.8560310583762
 30
0.0
 10
337.6789481822235
 20
114.8694406654858
 30
0.0
 10
337.6669749967064
 20
114.8863585691094
 30
0.0
 10
337.6577685891
 20
114.9007713042488
 30
0.0
 10
337.6531533986112
 20
114.9079964371104
 30
0.0
  0
SPLINE
  5
D9
330
1F
100
AcDbEntity
  8
0
  6
Continuous
 62
     7
370
    25
100
AcDbSpline
210
0.0
220
0.0
230
1.0
 70
     8
 71
     3
 72
    13
 73
     9
 74
     0
 42
0.000000001
 43
0.00000001
 40
0.0
 40
0.0
 40
0.0
 40
0.0
 40
0.1686319999748108
 40
0.3360343310905541
 40
0.5025367825908723
 40
0.6684737453788424
 40
0.8341822636915195
 40
1.0
 40
1.0
 40
1.0
 40
1.0
 10
359.2784502555897
 20
114.9079998869232
 30
0.0
 10
359.2738130104916
 20
114.9007427269038
 30
0.0
 10
359.2645723352052
 20
114.8862813262615
 30
0.0
 10
359.2525569618381
 20
114.8693006295574
 30
0.0
 10
359.2419914080835
 20
114.8558678483779
 30
0.0
 10
359.2330520587905
 20
114.8463883798239
 30
0.0
 10
359.2255711782019
 20
114.8404231541261
 30
0.0
 10
359.2219313709124
 20
114.8396555783417
 30
0.0
 10
359.2201108677187
 20
114.8392716640144
 30
0.0
  0
SPLINE
  5
DA
330
1F
100
AcDbEntity
  8
0
  6
Continuous
 62
     7
370
    25
100
AcDbSpline
210
0.0
220
0.0
230
1.0
 70
     8
 71
     3
 72
     8
 73
     4
 74
     0
 42
0.000000001
 43
0.00000001
 40
0.0
 40
0.0
 40
0.0
 40
0.0
 40
1.0
 40
1.0
 40
1.0
 40
1.0
 10
359.4257758675624
 20
114.9101189078659
 30
0.0
 10
359.3766249379541
 20
114.9091833776039
 30
0.0
 10
359.3275139178747
 20
114.9084722870919
 30
0.0
 10
359.2784444229669
 20
114.9079852255939
 30
0.0
  0
SPLINE
  5
DB
330
1F
100
AcDbEntity
  8
0
  6
Continuous
 62
     7
370
    25
100
AcDbSpline
210
0.0
220
0.0
230
1.0
 70
     8
 71
     3
 72
    18
 73
    14
 74
     0
 42
0.000000001
 43
0.00000001
 40
0.0
 40
0.0
 40
0.0
 40
0.0
 40
0.0923325137151694
 40
0.1843692047134009
 40
0.2763458873902312
 40
0.368498217575762
 40
0.4610598988406411
 40
0.5542609546627003
 40
0.6483261285518087
 40
0.743473463655427
 40
0.8399130993133287
 40
0.9201660718313618
 40
1.0
 40
1.0
 40
1.0
 40
1.0
 10
359.3727522342622
 20
114.6430227899441
 30
0.0
 10
359.3709165806097
 20
114.6432311021599
 30
0.0
 10
359.367251154527
 20
114.6436470591832
 30
0.0
 10
359.3644558249045
 20
114.6504514826404
 30
0.0
 10
359.3636535298375
 20
114.6617848613262
 30
0.0
 10
359.3650196668367
 20
114.6780852562265
 30
0.0
 10
359.3684812156308
 20
114.6992364955367
 30
0.0
 10
359.3740225207772
 20
114.7252721948642
 30
0.0
 10
359.3816069912046
 20
114.7561965812869
 30
0.0
 10
359.3911839841852
 20
114.791995587015
 30
0.0
 10
359.4020353312114
 20
114.8302848321294
 30
0.0
 10
359.4135500928438
 20
114.8695904565465
 30
0.0
 10
359.4216818016648
 20
114.8965475344401
 30
0.0
 10
359.4257370132726
 20
114.9099907918894
 30
0.0
  0
LINE
  5
DC
330
1F
100
AcDbEntity
  8
0
  6
Continuous
 62
     7
370
    25
100
AcDbLine
 10
359.4255074057
 20
114.6437706566
 30
0.0
 11
359.3727526385
 21
114.6430228045
 31
0.0
  0
SPLINE
  5
DD
330
1F
100
AcDbEntity
  8
0
  6
Continuous
 62
     7
370
    25
100
AcDbSpline
210
0.0
220
0.0
230
1.0
 70
     8
 71
     3
 72
    25
 73
    21
 74
     0
 42
0.000000001
 43
0.00000001
 40
0.0
 40
0.0
 40
0.0
 40
0.0
 40
0.0280105225425618
 40
0.0559601148859273
 40
0.0839014045041196
 40
0.1118870776784247
 40
0.1399695827586811
 40
0.1682008401737953
 40
0.1966319670422708
 40
0.2253130233140565
 40
0.2542927850735732
 40
0.3799486436574536
 40
0.5057850221666685
 40
0.6313085886327393
 40
0.7532068238012419
 40
0.803947326795536
 40
0.8535894438553622
 40
0.9025339722393254
 40
0.951197035379054
 40
1.0
 40
1.0
 40
1.0
 40
1.0
 10
360.3364690013151
 20
117.2107024096318
 30
0.0
 10
360.3294899314042
 20
117.1733923961251
 30
0.0
 10
360.3155469728814
 20
117.0988535281317
 30
0.0
 10
360.2930250754387
 20
116.9875444826488
 30
0.0
 10
360.2693914633411
 20
116.8768822736345
 30
0.0
 10
360.2445418728531
 20
116.7668981406903
 30
0.0
 10
360.2185232483669
 20
116.6576029970758
 30
0.0
 10
360.191341867049
 20
116.5490120278735
 30
0.0
 10
360.1630162257164
 20
116.441141317931
 30
0.0
 10
360.1335574448837
 20
116.3339963722057
 30
0.0
 10
360.0691491569721
 20
116.109821485695
 30
0.0
 10
359.9640474649003
 20
115.7831560716594
 30
0.0
 10
359.8185847041045
 20
115.3972094663398
 30
0.0
 10
359.6793212959939
 20
115.0751296536474
 30
0.0
 10
359.5821729431266
 20
114.8793090696165
 30
0.0
 10
359.5218775369
 20
114.7699616191323
 30
0.0
 10
359.4869889540187
 20
114.712033594717
 30
0.0
 10
359.4590944520908
 20
114.671579641952
 30
0.0
 10
359.4377293597192
 20
114.6469654265531
 30
0.0
 10
359.4295854121465
 20
114.6448364990454
 30
0.0
 10
359.4255075935015
 20
114.643770507374
 30
0.0
  0
ARC
  5
DE
330
1F
100
AcDbEntity
  8
0
  6
Continuous
 62
     7
370
    25
100
AcDbCircle
 10
348.4658011365
 20
119.3980401522
 30
0.0
 40
12.07050959801135
100
AcDbArc
 50
349.5595567507
 51
10.4404432493
  0
SPLINE
  5
DF
330
1F
100
AcDbEntity
  8
0
  6
Continuous
 62
     7
370
    25
100
AcDbSpline
210
0.0
220
0.0
230
1.0
 70
     8
 71
     3
 72
    26
 73
    22
 74
     0
 42
0.000000001
 43
0.00000001
 40
0.0
 40
0.0
 40
0.0
 40
0.0
 40
0.0241259796962594
 40
0.0482159912271147
 40
0.0723203915121655
 40
0.0964895678708044
 40
0.1207736231960655
 40
0.1452220711240092
 40
0.1698835501655297
 40
0.1948055644470513
 40
0.2200342569516523
 40
0.2456142191611222
 40
0.3690971486898452
 40
0.4940698769485167
 40
0.6192566784763793
 40
0.7454656653603262
 40
0.7971495824714568
 40
0.8481710308406679
 40
0.8988013269236526
 40
0.9493179290493045
 40
1.0
 40
1.0
 40
1.0
 40
1.0
 10
359.4255075935015
 20
124.1523097969581
 30
0.0
 10
359.4274179082419
 20
124.1520229037687
 30
0.0
 10
359.4312356897341
 20
124.1514495451039
 30
0.0
 10
359.439195814915
 20
124.1453908568575
 30
0.0
 10
359.4487749154904
 20
124.1355115961266
 30
0.0
 10
359.4601221223591
 20
124.1214305050163
 30
0.0
 10
359.473178305653
 20
124.1032349569921
 30
0.0
 10
359.4879342088803
 20
124.0808844142534
 30
0.0
 10
359.5043613891777
 20
124.0543701785613
 30
0.0
 10
359.5224295438979
 20
124.0236746678481
 30
0.0
 10
359.542106690321
 20
123.9887735646081
 30
0.0
 10
359.590306071749
 20
123.9000090295009
 30
0.0
 10
359.6786241111844
 20
123.7227287280521
 30
0.0
 10
359.8176837279514
 20
123.4016428212066
 30
0.0
 10
359.9633564078136
 20
123.015060169316
 30
0.0
 10
360.0770950028231
 20
122.6613524651858
 30
0.0
 10
360.1568006213696
 20
122.379098765573
 30
0.0
 10
360.207450193724
 20
122.1846553347985
 30
0.0
 10
360.2544168635893
 20
121.9874139578644
 30
0.0
 10
360.2979766855937
 20
121.7875109127695
 30
0.0
 10
360.3236242507251
 20
121.6528289730374
 30
0.0
 10
360.3364690013151
 20
121.5853778947003
 30
0.0
  0
LINE
  5
E0
330
1F
100
AcDbEntity
  8
0
  6
Continuous
 62
     7
370
    25
100
AcDbLine
 10
359.3727526385
 20
124.1530574998
 30
0.0
 11
359.4255074057
 21
124.1523096478
 31
0.0
  0
SPLINE
  5
E1
330
1F
100
AcDbEntity
  8
0
  6
Continuous
 62
     7
370
    25
100
AcDbSpline
210
0.0
220
0.0
230
1.0
 70
     8
 71
     3
 72
    14
 73
    10
 74
     0
 42
0.000000001
 43
0.00000001
 40
0.0
 40
0.0
 40
0.0
 40
0.0
 40
0.0786889129230217
 40
0.1577561817120102
 40
0.3304686003102582
 40
0.4997364082417218
 40
0.666847231663544
 40
0.833145083375537
 40
1.0
 40
1.0
 40
1.0
 40
1.0
 10
359.4256605210392
 20
123.8863260051703
 30
0.0
 10
359.4216625120845
 20
123.8995759096861
 30
0.0
 10
359.4136472707538
 20
123.9261394275544
 30
0.0
 10
359.3987745974642
 20
123.9768609553233
 30
0.0
 10
359.3828884327019
 20
124.0338620343473
 30
0.0
 10
359.3698099090576
 20
124.0881653299564
 30
0.0
 10
359.3635773094525
 20
124.1263324519936
 30
0.0
 10
359.3637668873289
 20
124.1497411860691
 30
0.0
 10
359.3697537817214
 20
124.1519508400272
 30
0.0
 10
359.3727522342622
 20
124.153057514388
 30
0.0
  0
SPLINE
  5
E2
330
1F
100
AcDbEntity
  8
0
  6
Continuous
 62
     7
370
    25
100
AcDbSpline
210
0.0
220
0.0
230
1.0
 70
     8
 71
     3
 72
     8
 73
     4
 74
     0
 42
0.000000001
 43
0.00000001
 40
0.0
 40
0.0
 40
0.0
 40
0.0
 40
1.0
 40
1.0
 40
1.0
 40
1.0
 10
359.3052051803563
 20
123.8879823451358
 30
0.0
 10
359.3453382988629
 20
123.8875513911885
 30
0.0
 10
359.3854990067915
 20
123.886970888176
 30
0.0
 10
359.4256864241345
 20
123.8862406126164
 30
0.0
  0
SPLINE
  5
E3
330
1F
100
AcDbEntity
  8
0
  6
Continuous
 62
     7
370
    25
100
AcDbSpline
210
0.0
220
0.0
230
1.0
 70
     8
 71
     3
 72
    23
 73
    19
 74
     0
 42
0.000000001
 43
0.00000001
 40
0.0
 40
0.0
 40
0.0
 40
0.0
 40
0.0441308420115403
 40
0.0880968635201137
 40
0.1320155028394797
 40
0.1760048571417636
 40
0.220182730577585
 40
0.2646656976919496
 40
0.3095682184552906
 40
0.3550018365579412
 40
0.4010744854732484
 40
0.4478899182331895
 40
0.4955472680210786
 40
0.5953670562466713
 40
0.6949121173423626
 40
0.7950007649006683
 40
0.896438625518418
 40
1.0
 40
1.0
 40
1.0
 40
1.0
 10
358.7534920612212
 20
124.8484856691024
 30
0.0
 10
358.755476451328
 20
124.8482028118725
 30
0.0
 10
358.7594378202128
 20
124.8476381538319
 30
0.0
 10
358.7682981244433
 20
124.8412188006532
 30
0.0
 10
358.7792706025656
 20
124.8306975511466
 30
0.0
 10
358.792550000586
 20
124.8156660148369
 30
0.0
 10
358.8080607242522
 20
124.7962137697744
 30
0.0
 10
358.8257921860053
 20
124.7722937918223
 30
0.0
 10
358.8457088327086
 20
124.7438927011085
 30
0.0
 10
358.8677743667207
 20
124.7109849613078
 30
0.0
 10
358.8919452904149
 20
124.6735449786516
 30
0.0
 10
358.9181723004622
 20
124.6315449070217
 30
0.0
 10
358.9565088806935
 20
124.5682677984985
 30
0.0
 10
359.0088416600721
 20
124.4782089361351
 30
0.0
 10
359.0772422712806
 20
124.3538628165679
 30
0.0
 10
359.1499273460761
 20
124.2141497385874
 30
0.0
 10
359.2262875819757
 20
124.0598137233595
 30
0.0
 10
359.2785763966257
 20
123.9460910691318
 30
0.0
 10
359.3049916245291
 20
123.8886407358377
 30
0.0
  0
SPLINE
  5
E4
330
1F
100
AcDbEntity
  8
0
  6
Continuous
 62
     7
370
    25
100
AcDbSpline
210
0.0
220
0.0
230
1.0
 70
    11
 71
     3
 72
    39
 73
    35
 74
     0
 42
0.000000001
 43
0.00000001
 40
0.0
 40
0.0
 40
0.0
 40
0.0
 40
0.0310664058350965
 40
0.0621048158425859
 40
0.093136155179263
 40
0.1235538293503448
 40
0.1538561545806855
 40
0.1850588072748946
 40
0.2160250992945718
 40
0.2471867223797388
 40
0.2784462884305076
 40
0.3100516090231096
 40
0.3419834369141944
 40
0.3734259894013148
 40
0.4048604886786042
 40
0.4368740651833136
 40
0.4685120685925458
 40
0.4998055358633138
 40
0.5309508213230685
 40
0.5618649784438015
 40
0.5930416446594986
 40
0.6233742450133227
 40
0.6540913579075065
 40
0.6849496782718291
 40
0.71581606451649
 40
0.7471731804043279
 40
0.7784514311862922
 40
0.8101295911560753
 40
0.8419598919688862
 40
0.8735175891922173
 40
0.9050808037887091
 40
0.9370235169792366
 40
0.968744159003463
 40
1.0
 40
1.0
 40
1.0
 40
1.0
 10
351.369927701339
 20
107.9664099684127
 30
0.0
 10
351.5596395302939
 20
108.0051785451601
 30
0.0
 10
351.903380380739
 20
108.0816094909419
 30
0.0
 10
352.2863373679502
 20
108.1697490309366
 30
0.0
 10
352.530777834664
 20
108.2166985175812
 30
0.0
 10
352.6117667714811
 20
108.2047895928679
 30
0.0
 10
352.5310443260013
 20
108.1328316861529
 30
0.0
 10
352.2911821323807
 20
108.0083114199552
 30
0.0
 10
351.9145323982835
 20
107.8509424301298
 30
0.0
 10
351.4082894614545
 20
107.6789183454345
 30
0.0
 10
350.7910150677712
 20
107.5139939378489
 30
0.0
 10
350.0785392536284
 20
107.3762813617699
 30
0.0
 10
349.3030740138566
 20
107.2846485492615
 30
0.0
 10
348.4926095802427
 20
107.2513159711664
 30
0.0
 10
347.6801051072837
 20
107.2805634167197
 30
0.0
 10
346.9005921171465
 20
107.3688923737069
 30
0.0
 10
346.1822638178079
 20
107.5043978733421
 30
0.0
 10
345.5588917104077
 20
107.6681743948338
 30
0.0
 10
345.0457931158117
 20
107.8401805389794
 30
0.0
 10
344.6605910059496
 20
107.9989925534511
 30
0.0
 10
344.4111664007108
 20
108.1262515186157
 30
0.0
 10
344.3205643607648
 20
108.2018584755706
 30
0.0
 10
344.3887759317263
 20
108.2186278722495
 30
0.0
 10
344.6209917981269
 20
108.175847530035
 30
0.0
 10
344.9982088353126
 20
108.0887208451244
 30
0.0
 10
345.5099137030759
 20
107.9739917898187
 30
0.0
 10
346.1333848338231
 20
107.854569644766
 30
0.0
 10
346.8499295369568
 20
107.7499441947162
 30
0.0
 10
347.6282606495698
 20
107.6792957017894
 30
0.0
 10
348.4400921364207
 20
107.6532168773592
 30
0.0
 10
349.253866658417
 20
107.6762424490499
 30
0.0
 10
350.0362405025858
 20
107.7444748871879
 30
0.0
 10
350.7582535373214
 20
107.8477220668985
 30
0.0
 10
351.1790590571687
 20
107.9274049905947
 30
0.0
 10
351.3699277013388
 20
107.9664099684126
 30
0.0
  0
SPLINE
  5
E5
330
1F
100
AcDbEntity
  8
0
  6
Continuous
 62
     7
370
    25
100
AcDbSpline
210
0.0
220
0.0
230
1.0
 70
    11
 71
     3
 72
    39
 73
    35
 74
     0
 42
0.000000001
 43
0.00000001
 40
0.0
 40
0.0
 40
0.0
 40
0.0
 40
0.0312651429932929
 40
0.0629601069329363
 40
0.0948697276489851
 40
0.1264264963751878
 40
0.1579651393672514
 40
0.1898765439017007
 40
0.221552335268766
 40
0.2527844076550835
 40
0.2838418966732524
 40
0.3148645781100705
 40
0.34591276392991
 40
0.3763475365526239
 40
0.406675132466265
 40
0.4379141187435676
 40
0.4688932367346729
 40
0.5000738678969627
 40
0.5313369410961
 40
0.5629183719104931
 40
0.5948445736346094
 40
0.6262809966135477
 40
0.6577486436588904
 40
0.6897584692806558
 40
0.7214430019612538
 40
0.752762334319555
 40
0.7839279690576615
 40
0.8148885765585969
 40
0.846037500498419
 40
0.8763409566916832
 40
0.9067589191462748
 40
0.9378312724751754
 40
0.9689189660503823
 40
0.9999999999999999
 40
0.9999999999999999
 40
0.9999999999999999
 40
0.9999999999999999
 10
351.369823451552
 20
130.8297023883552
 30
0.0
 10
351.1787495152711
 20
130.8687663462358
 30
0.0
 10
350.7578149528321
 20
130.9484853407957
 30
0.0
 10
350.0364255476679
 20
131.0516007561464
 30
0.0
 10
349.2547694993767
 20
131.1198016285703
 30
0.0
 10
348.4416817796658
 20
131.1428585212122
 30
0.0
 10
347.6294015628138
 20
131.116874247566
 30
0.0
 10
346.8507711377652
 20
131.0462840823279
 30
0.0
 10
346.1340953478542
 20
130.941668520089
 30
0.0
 10
345.5122200781927
 20
130.8224961950726
 30
0.0
 10
345.0027091447063
 20
130.7085590273463
 30
0.0
 10
344.6275897984636
 20
130.6224447483999
 30
0.0
 10
344.3916292236181
 20
130.5783890270662
 30
0.0
 10
344.3202286804286
 20
130.593918827774
 30
0.0
 10
344.410825110218
 20
130.6694277099554
 30
0.0
 10
344.6598013905846
 20
130.7966012378023
 30
0.0
 10
345.044716210428
 20
130.9554519164151
 30
0.0
 10
345.557501517253
 20
131.1274761776259
 30
0.0
 10
346.1799606401772
 20
131.2911492571603
 30
0.0
 10
346.8964607849857
 20
131.4265508305407
 30
0.0
 10
347.6745598190942
 20
131.5150684980232
 30
0.0
 10
348.4862825077426
 20
131.5447759065057
 30
0.0
 10
349.2977246954417
 20
131.5118894618556
 30
0.0
 10
350.0748505869257
 20
131.4204085538105
 30
0.0
 10
350.7892886760959
 20
131.2825243638489
 30
0.0
 10
351.4075116343321
 20
131.1173965389985
 30
0.0
 10
351.9138789950556
 20
130.9453460016464
 30
0.0
 10
352.2904315164701
 20
130.7880624799359
 30
0.0
 10
352.5301273278986
 20
130.663658682453
 30
0.0
 10
352.6115940360943
 20
130.5914705090163
 30
0.0
 10
352.5315347936011
 20
130.5791980006388
 30
0.0
 10
352.2871887876496
 20
130.6260934111442
 30
0.0
 10
351.9042153542005
 20
130.7142269592898
 30
0.0
 10
351.5597722229908
 20
130.7908684638997
 30
0.0
 10
351.369823451552
 20
130.8297023883552
 30
0.0
  0
SPLINE
  5
E6
330
1F
100
AcDbEntity
  8
0
  6
Continuous
 62
     7
370
    25
100
AcDbSpline
210
0.0
220
0.0
230
1.0
 70
     8
 71
     3
 72
    23
 73
    19
 74
     0
 42
0.000000001
 43
0.00000001
 40
0.0
 40
0.0
 40
0.0
 40
0.0
 40
0.0449850911547964
 40
0.0909520670823883
 40
0.1379394291328525
 40
0.1859832248994781
 40
0.235117176177667
 40
0.2853728096486027
 40
0.3367795876649756
 40
0.3893650370847659
 40
0.4431548745955978
 40
0.4981731273942729
 40
0.5575107591414307
 40
0.6265492282208773
 40
0.7053073139958764
 40
0.7937970254642376
 40
0.8920262116484563
 40
1.0
 40
1.0
 40
1.0
 40
1.0
 10
338.5748594249842
 20
124.428040152166
 30
0.0
 10
338.5726967356185
 20
124.4276112505064
 30
0.0
 10
338.5683241520977
 20
124.4267440855965
 30
0.0
 10
338.5580431929059
 20
124.4196505179947
 30
0.0
 10
338.5449829148759
 20
124.4080377764145
 30
0.0
 10
338.5288637533216
 20
124.3912484062407
 30
0.0
 10
338.5097633256656
 20
124.369176419625
 30
0.0
 10
338.4876609729097
 20
124.341578945861
 30
0.0
 10
338.4625604943742
 20
124.3082705146515
 30
0.0
 10
338.4344693629964
 20
124.2690701762455
 30
0.0
 10
338.4033534621448
 20
124.2238281307739
 30
0.0
 10
338.3687145312498
 20
124.1714321983689
 30
0.0
 10
338.3279930229517
 20
124.1086497301168
 30
0.0
 10
338.279272101905
 20
124.0308927308113
 30
0.0
 10
338.2214977635796
 20
123.933608173207
 30
0.0
 10
338.1545871139422
 20
123.8138633394914
 30
0.0
 10
338.0786431496714
 20
123.6699431346284
 30
0.0
 10
338.0242819850053
 20
123.5592089297843
 30
0.0
 10
337.9958169209031
 20
123.5012253258909
 30
0.0
  0
LINE
  5
E7
330
1F
100
AcDbEntity
  8
0
  6
Continuous
 62
     7
370
    25
100
AcDbLine
 10
337.9958168734
 20
123.5017514927
 30
0.0
 11
337.6264776233
 21
123.8878363883
 31
0.0
  0
LINE
  5
E8
330
1F
100
AcDbEntity
  8
0
  6
Continuous
 62
     7
370
    25
100
AcDbLine
 10
359.3050920535
 20
123.8877767837
 30
0.0
 11
358.9358254466
 21
123.5017687222
 31
0.0
  0
SPLINE
  5
E9
330
1F
100
AcDbEntity
  8
0
  6
Continuous
 62
     7
370
    25
100
AcDbSpline
210
0.0
220
0.0
230
1.0
 70
     8
 71
     3
 72
    26
 73
    22
 74
     0
 42
0.000000001
 43
0.00000001
 40
0.0
 40
0.0
 40
0.0
 40
0.0
 40
0.0509383868710681
 40
0.0998291548374484
 40
0.1466728126632442
 40
0.1914699456539526
 40
0.2342212299963317
 40
0.2749274506887306
 40
0.3135895241945819
 40
0.3502085273905902
 40
0.384785735024819
 40
0.4173226688625226
 40
0.4478211631676295
 40
0.476283453466084
 40
0.5027122992247393
 40
0.5939067005067384
 40
0.681601599325777
 40
0.7659159552126487
 40
0.8469836289730962
 40
0.9249552229482289
 40
1.0
 40
1.0
 40
1.0
 40
1.0
 10
358.9358258368481
 20
123.5010345956412
 30
0.0
 10
358.9223679726485
 20
123.5286553768086
 30
0.0
 10
358.8959932228483
 20
123.5827866402675
 30
0.0
 10
358.8576210430658
 20
123.6590946773496
 30
0.0
 10
358.8211548605707
 20
123.7298468569465
 30
0.0
 10
358.7866186109448
 20
123.7950186836378
 30
0.0
 10
358.7540061590906
 20
123.8548769288912
 30
0.0
 10
358.723318875297
 20
123.9096420884327
 30
0.0
 10
358.6945562589958
 20
123.9595664797436
 30
0.0
 10
358.6677180945242
 20
124.0049087103364
 30
0.0
 10
358.6428045140973
 20
124.0459346492741
 30
0.0
 10
358.6198138673107
 20
124.0829120342172
 30
0.0
 10
358.5987503618239
 20
124.1161081501958
 30
0.0
 10
358.5795979914481
 20
124.1457838824578
 30
0.0
 10
358.5479269145058
 20
124.1944542075055
 30
0.0
 10
358.5064569690708
 20
124.2563495254244
 30
0.0
 10
358.4594674529266
 20
124.3216901328491
 30
0.0
 10
358.4208488832115
 20
124.3708085241402
 30
0.0
 10
358.3908004234902
 20
124.4042848126508
 30
0.0
 10
358.3685103125213
 20
124.4244022448872
 30
0.0
 10
358.3606149970881
 20
124.4268430787365
 30
0.0
 10
358.3567428480987
 20
124.428040152166
 30
0.0
  0
SPLINE
  5
EA
330
1F
100
AcDbEntity
  8
0
  6
Continuous
 62
     7
370
    25
100
AcDbSpline
210
0.0
220
0.0
230
1.0
 70
     8
 71
     3
 72
     8
 73
     4
 74
     0
 42
0.000000001
 43
0.00000001
 40
0.0
 40
0.0
 40
0.0
 40
0.0
 40
1.0
 40
1.0
 40
1.0
 40
1.0
 10
356.2074815883418
 20
123.6210384786487
 30
0.0
 10
356.2710745686819
 20
123.555369700802
 30
0.0
 10
356.3350309951172
 20
123.4910274031417
 30
0.0
 10
356.3992299148246
 20
123.4292901521661
 30
0.0
  0
SPLINE
  5
EB
330
1F
100
AcDbEntity
  8
0
  6
Continuous
 62
     7
370
    25
100
AcDbSpline
210
0.0
220
0.0
230
1.0
 70
     8
 71
     3
 72
    25
 73
    21
 74
     0
 42
0.000000001
 43
0.00000001
 40
0.0
 40
0.0
 40
0.0
 40
0.0
 40
0.0367725003273524
 40
0.0742084010635883
 40
0.1123590542855501
 40
0.1512729822625089
 40
0.1909959100229794
 40
0.2315708273567468
 40
0.2730380740480022
 40
0.3154354426133704
 40
0.3587982934479269
 40
0.4031596779846243
 40
0.4485504661867954
 40
0.4949994753770925
 40
0.5532504315742431
 40
0.6218294885841514
 40
0.7007739996682805
 40
0.7901076726768732
 40
0.8898461547601584
 40
1.0
 40
1.0
 40
1.0
 40
1.0
 10
355.7655604010303
 20
124.4280401521657
 30
0.0
 10
355.7657841750951
 20
124.4277154645319
 30
0.0
 10
355.766235760258
 20
124.4270602316831
 30
0.0
 10
355.7709528001303
 20
124.4216978598948
 30
0.0
 10
355.7786054092128
 20
124.4129422661937
 30
0.0
 10
355.7894983883498
 20
124.400318048101
 30
0.0
 10
355.8035469747657
 20
124.3837617099698
 30
0.0
 10
355.8207738723749
 20
124.3631045325913
 30
0.0
 10
355.8411724251563
 20
124.338216796623
 30
0.0
 10
355.8647432384485
 20
124.3089692504294
 30
0.0
 10
355.8914885870082
 20
124.2752463152331
 30
0.0
 10
355.9213964404405
 20
124.2369405001084
 30
0.0
 10
355.954512532785
 20
124.1939696047718
 30
0.0
 10
355.9934384543616
 20
124.1425483231001
 30
0.0
 10
356.0422665340821
 20
124.0783320914077
 30
0.0
 10
356.1041871386871
 20
123.9954375623073
 30
0.0
 10
356.1785716970094
 20
123.8914918120897
 30
0.0
 10
356.2655461249965
 20
123.7634056018329
 30
0.0
 10
356.3649709749749
 20
123.6093158219317
 30
0.0
 10
356.4363901507007
 20
123.4912515860672
 30
0.0
 10
356.4738717343793
 20
123.4292901521661
 30
0.0
  0
LINE
  5
EC
330
1F
100
AcDbEntity
  8
0
  6
Continuous
 62
     7
370
    25
100
AcDbLine
 10
356.4738714266
 20
123.4292899398
 30
0.0
 11
356.3992296476
 21
123.4292899398
 31
0.0
  0
SPLINE
  5
ED
330
1F
100
AcDbEntity
  8
0
  6
Continuous
 62
     7
370
    25
100
AcDbSpline
210
0.0
220
0.0
230
1.0
 70
     8
 71
     3
 72
    23
 73
    19
 74
     0
 42
0.000000001
 43
0.00000001
 40
0.0
 40
0.0
 40
0.0
 40
0.0
 40
0.0511129009857237
 40
0.1016896331838987
 40
0.1518293139104701
 40
0.2016336701894375
 40
0.2512064936754073
 40
0.3006530343006341
 40
0.3500793489716446
 40
0.3995916247932064
 40
0.4492954981442684
 40
0.4992953912354717
 40
0.5872572780521592
 40
0.6724255494349295
 40
0.7555067762540847
 40
0.83726167352717
 40
0.9184882400167593
 40
1.0
 40
1.0
 40
1.0
 40
1.0
 10
356.2075442644672
 20
123.6212811947439
 30
0.0
 10
356.1915286805668
 20
123.6504097969748
 30
0.0
 10
356.1596655145038
 20
123.7083614455586
 30
0.0
 10
356.1126216760849
 20
123.7911192807769
 30
0.0
 10
356.0666431519099
 20
123.8702081392611
 30
0.0
 10
356.0218624851063
 20
123.9454251271953
 30
0.0
 10
355.9783787206704
 20
124.016888182241
 30
0.0
 10
355.9362927570858
 20
124.0846295864293
 30
0.0
 10
355.8956982926885
 20
124.1487030981743
 30
0.0
 10
355.8566833863383
 20
124.2091566972455
 30
0.0
 10
355.8193335638508
 20
124.2660342021738
 30
0.0
 10
355.7748053072587
 20
124.3327486752343
 30
0.0
 10
355.7261650467175
 20
124.4040689590987
 30
0.0
 10
355.6783259469617
 20
124.4726492115578
 30
0.0
 10
355.6406744348808
 20
124.5256655395999
 30
0.0
 10
355.6138517334933
 20
124.5629381957275
 30
0.0
 10
355.5971229026697
 20
124.5859755953075
 30
0.0
 10
355.5952744927059
 20
124.5885103205727
 30
0.0
 10
355.5943486680856
 20
124.5897799042161
 30
0.0
  0
SPLINE
  5
EE
330
1F
100
AcDbEntity
  8
0
  6
Continuous
 62
     7
370
    25
100
AcDbSpline
210
0.0
220
0.0
230
1.0
 70
     8
 71
     3
 72
     8
 73
     4
 74
     0
 42
0.000000001
 43
0.00000001
 40
0.0
 40
0.0
 40
0.0
 40
0.0
 40
1.0
 40
1.0
 40
1.0
 40
1.0
 10
358.8696937836135
 20
123.4292901521659
 30
0.0
 10
358.8915791552566
 20
123.4536111683636
 30
0.0
 10
358.9134645268998
 20
123.477635766686
 30
0.0
 10
358.9353498985429
 20
123.5013426187746
 30
0.0
  0
LINE
  5
EF
330
1F
100
AcDbEntity
  8
0
  6
Continuous
 62
     7
370
    25
100
AcDbLine
 10
358.8695339057
 20
123.4292899398
 30
0.0
 11
356.4738714266
 21
123.4292899398
 31
0.0
  0
SPLINE
  5
F0
330
1F
100
AcDbEntity
  8
0
  6
Continuous
 62
     7
370
    25
100
AcDbSpline
210
0.0
220
0.0
230
1.0
 70
     8
 71
     3
 72
     8
 73
     4
 74
     0
 42
0.000000001
 43
0.00000001
 40
0.0
 40
0.0
 40
0.0
 40
0.0
 40
1.0
 40
1.0
 40
1.0
 40
1.0
 10
337.9961581487152
 20
123.5014461862547
 30
0.0
 10
338.0180749212028
 20
123.4777057376956
 30
0.0
 10
338.0399916936903
 20
123.4536465859089
 30
0.0
 10
338.0619084661778
 20
123.429290152166
 30
0.0
  0
SPLINE
  5
F1
330
1F
100
AcDbEntity
  8
0
  6
Continuous
 62
     7
370
    25
100
AcDbSpline
210
0.0
220
0.0
230
1.0
 70
     8
 71
     3
 72
    26
 73
    22
 74
     0
 42
0.000000001
 43
0.00000001
 40
0.0
 40
0.0
 40
0.0
 40
0.0
 40
0.0524616379916458
 40
0.1026498591861474
 40
0.1505655134537972
 40
0.1962095861908931
 40
0.2395832262515146
 40
0.2806877815543323
 40
0.3195248450324018
 40
0.3560963147377176
 40
0.3904044736499266
 40
0.4224520974393497
 40
0.4522426027388373
 40
0.4797802555350637
 40
0.5050704712281464
 40
0.5966394156800096
 40
0.6841917884819306
 40
0.7679874773571161
 40
0.8483228539139546
 40
0.9255341635201179
 40
1.0
 40
1.0
 40
1.0
 40
1.0
 10
340.4575529806253
 20
123.4293050441837
 30
0.0
 10
340.4754144649132
 20
123.4590785042239
 30
0.0
 10
340.5103634088882
 20
123.5173351961155
 30
0.0
 10
340.5611282423692
 20
123.5995341764779
 30
0.0
 10
340.6091982000101
 20
123.6756150453771
 30
0.0
 10
340.6545421727743
 20
123.7455663938424
 30
0.0
 10
340.6971681522792
 20
123.8096735557939
 30
0.0
 10
340.7370744507881
 20
123.868181395264
 30
0.0
 10
340.7742617799034
 20
123.9213699728864
 30
0.0
 10
340.8087306024944
 20
123.9695280131242
 30
0.0
 10
340.8404806911272
 20
124.0129526864014
 30
0.0
 10
340.869515095729
 20
124.0519427774996
 30
0.0
 10
340.895826384931
 20
124.0867968760275
 30
0.0
 10
340.9194430144761
 20
124.1178018704797
 30
0.0
 10
340.9590886934827
 20
124.1700450891138
 30
0.0
 10
341.0106269902823
 20
124.2375744223715
 30
0.0
 10
341.0674531272635
 20
124.3097678685801
 30
0.0
 10
341.1116105552265
 20
124.3642518247026
 30
0.0
 10
341.1427881781685
 20
124.4015166158709
 30
0.0
 10
341.1622477448076
 20
124.4239809681456
 30
0.0
 10
341.1643893424881
 20
124.4267035175729
 30
0.0
 10
341.1654407590448
 20
124.428040152166
 30
0.0
  0
LINE
  5
F2
330
1F
100
AcDbEntity
  8
0
  6
Continuous
 62
     7
370
    25
100
AcDbLine
 10
340.4575529638
 20
123.4292899398
 30
0.0
 11
338.0619081799
 21
123.4292899398
 31
0.0
  0
LINE
  5
F3
330
1F
100
AcDbEntity
  8
0
  6
Continuous
 62
     7
370
    25
100
AcDbLine
 10
340.5323726255
 20
123.4292899398
 30
0.0
 11
340.457253078
 21
123.4292899398
 31
0.0
  0
SPLINE
  5
F4
330
1F
100
AcDbEntity
  8
0
  6
Continuous
 62
     7
370
    25
100
AcDbSpline
210
0.0
220
0.0
230
1.0
 70
     8
 71
     3
 72
     8
 73
     4
 74
     0
 42
0.000000001
 43
0.00000001
 40
0.0
 40
0.0
 40
0.0
 40
0.0
 40
1.0
 40
1.0
 40
1.0
 40
1.0
 10
340.5323723582583
 20
123.429290152166
 30
0.0
 10
340.5962811609182
 20
123.4912590155971
 30
0.0
 10
340.6600560802702
 20
123.5552350807138
 30
0.0
 10
340.7234161461511
 20
123.6207697370595
 30
0.0
  0
SPLINE
  5
F5
330
1F
100
AcDbEntity
  8
0
  6
Continuous
 62
     7
370
    25
100
AcDbSpline
210
0.0
220
0.0
230
1.0
 70
     8
 71
     3
 72
    24
 73
    20
 74
     0
 42
0.000000001
 43
0.00000001
 40
0.0
 40
0.0
 40
0.0
 40
0.0
 40
0.0410257106277056
 40
0.0818520099058079
 40
0.1225800578328279
 40
0.1633117464027038
 40
0.2041489402772657
 40
0.2451927184714171
 40
0.2865426449201731
 40
0.3282960933615133
 40
0.3705476475467034
 40
0.4133885920081624
 40
0.4569065022338602
 40
0.5011849368583825
 40
0.6001856774930499
 40
0.6987388860423923
 40
0.7976800645430001
 40
0.8978349910013272
 40
1.0
 40
1.0
 40
1.0
 40
1.0
 10
341.3369989520259
 20
124.5894302334975
 30
0.0
 10
341.3368041885848
 20
124.58916288334
 30
0.0
 10
341.3364156083784
 20
124.5886294825186
 30
0.0
 10
341.3323608207041
 20
124.5830577365195
 30
0.0
 10
341.3257668617242
 20
124.5739769873657
 30
0.0
 10
341.3164026008142
 20
124.5610395270049
 30
0.0
 10
341.3043544870442
 20
124.5443210840991
 30
0.0
 10
341.2896319175838
 20
124.5237790733273
 30
0.0
 10
341.2722729247365
 20
124.4993976992806
 30
0.0
 10
341.2523157535832
 20
124.4711489552087
 30
0.0
 10
341.2298067038876
 20
124.4390034078076
 30
0.0
 10
341.2047974681263
 20
124.4029265678414
 30
0.0
 10
341.1773480986014
 20
124.362882975322
 30
0.0
 10
341.1354249855351
 20
124.3009625319821
 30
0.0
 10
341.0762188103251
 20
124.2116500408874
 30
0.0
 10
340.9964392172057
 20
124.0871054488603
 30
0.0
 10
340.9104584322191
 20
123.9473206563704
 30
0.0
 10
340.8191736449961
 20
123.7929078373826
 30
0.0
 10
340.755969290937
 20
123.67886181573
 30
0.0
 10
340.7240531409708
 20
123.6212722717136
 30
0.0
  0
LINE
  5
F6
330
1F
100
AcDbEntity
  8
0
  6
Continuous
 62
     7
370
    25
100
AcDbLine
 10
337.6531600151
 20
114.9079850083
 30
0.0
 11
338.0773979369
 21
115.3567781812
 31
0.0
  0
SPLINE
  5
F7
330
1F
100
AcDbEntity
  8
0
  6
Continuous
 62
     7
370
    25
100
AcDbSpline
210
0.0
220
0.0
230
1.0
 70
     8
 71
     3
 72
    13
 73
     9
 74
     0
 42
0.000000001
 43
0.00000001
 40
0.0
 40
0.0
 40
0.0
 40
0.0
 40
0.1706320847381217
 40
0.3395984166493647
 40
0.5069574113007884
 40
0.672769183166934
 40
0.8370955448651839
 40
1.0
 40
1.0
 40
1.0
 40
1.0
 10
338.0773976494191
 20
115.3567574106368
 30
0.0
 10
338.0824031198288
 20
115.3498060375519
 30
0.0
 10
338.0923651960018
 20
115.3359711524143
 30
0.0
 10
338.1052390238957
 20
115.3198433939548
 30
0.0
 10
338.1165053363923
 20
115.3071746637977
 30
0.0
 10
338.1259826998272
 20
115.298318225963
 30
0.0
 10
338.1338649325205
 20
115.2928061974876
 30
0.0
 10
338.1376798387525
 20
115.2921278514074
 30
0.0
 10
338.1395790034679
 20
115.291790152166
 30
0.0
  0
SPLINE
  5
F8
330
1F
100
AcDbEntity
  8
0
  6
Continuous
 62
     7
370
    25
100
AcDbSpline
210
0.0
220
0.0
230
1.0
 70
     8
 71
     3
 72
    13
 73
     9
 74
     0
 42
0.000000001
 43
0.00000001
 40
0.0
 40
0.0
 40
0.0
 40
0.0
 40
0.1621004456877203
 40
0.32594345520649
 40
0.4915935308810087
 40
0.6591130874452793
 40
0.8285624736348074
 40
1.0
 40
1.0
 40
1.0
 40
1.0
 10
358.7920232696151
 20
115.291790152166
 30
0.0
 10
358.7939003759575
 20
115.2921246352668
 30
0.0
 10
358.7976747673509
 20
115.2927971971287
 30
0.0
 10
358.8055218445303
 20
115.2982704815259
 30
0.0
 10
358.8149879043056
 20
115.3070899461877
 30
0.0
 10
358.8262688191077
 20
115.3197427031823
 30
0.0
 10
358.8391834376047
 20
115.3358947045779
 30
0.0
 10
358.8491791518502
 20
115.349780504519
 30
0.0
 10
358.8542061577616
 20
115.3567638972684
 30
0.0
  0
LINE
  5
F9
330
1F
100
AcDbEntity
  8
0
  6
Continuous
 62
     7
370
    25
100
AcDbLine
 10
358.8542192373
 20
115.3567642113
 30
0.0
 11
359.2784413267
 21
114.9079850083
 31
0.0
  0
LINE
  5
FA
330
1F
100
AcDbEntity
  8
0
  6
Continuous
 62
     7
370
    25
100
AcDbLine
 10
356.3992296476
 20
115.3667903645
 30
0.0
 11
356.4079514835
 21
115.3667903645
 31
0.0
  0
SPLINE
  5
FB
330
1F
100
AcDbEntity
  8
0
  6
Continuous
 62
     7
370
    25
100
AcDbSpline
210
0.0
220
0.0
230
1.0
 70
     8
 71
     3
 72
    13
 73
     9
 74
     0
 42
0.000000001
 43
0.00000001
 40
0.0
 40
0.0
 40
0.0
 40
0.0
 40
0.1705273303835771
 40
0.3393382731990408
 40
0.506559245496943
 40
0.6723203022115876
 40
0.8367549624391394
 40
1.0
 40
1.0
 40
1.0
 40
1.0
 10
356.4079641042524
 20
115.3667900178506
 30
0.0
 10
356.4029287007099
 20
115.3587838950829
 30
0.0
 10
356.3929085758473
 20
115.3428522325811
 30
0.0
 10
356.3811055331917
 20
115.3242352074711
 30
0.0
 10
356.3717634294803
 20
115.309596214485
 30
0.0
 10
356.3651678048575
 20
115.2993491449681
 30
0.0
 10
356.3610147821691
 20
115.2929661547004
 30
0.0
 10
356.3604889338601
 20
115.2921812031034
 30
0.0
 10
356.3602269642369
 20
115.291790152166
 30
0.0
  0
SPLINE
  5
FC
330
1F
100
AcDbEntity
  8
0
  6
Continuous
 62
     7
370
    25
100
AcDbSpline
210
0.0
220
0.0
230
1.0
 70
     8
 71
     3
 72
     8
 73
     4
 74
     0
 42
0.000000001
 43
0.00000001
 40
0.0
 40
0.0
 40
0.0
 40
0.0
 40
1.0
 40
1.0
 40
1.0
 40
1.0
 10
358.8542191987545
 20
115.3567645103357
 30
0.0
 10
358.8520357145134
 20
115.359613175852
 30
0.0
 10
358.8498522302722
 20
115.3625539672495
 30
0.0
 10
358.8476687460311
 20
115.365586464526
 30
0.0
  0
LINE
  5
FD
330
1F
100
AcDbEntity
  8
0
  6
Continuous
 62
     7
370
    25
100
AcDbLine
 10
358.8467658628
 20
115.3667903645
 30
0.0
 11
356.4079552088
 21
115.3667903645
 31
0.0
  0
SPLINE
  5
FE
330
1F
100
AcDbEntity
  8
0
  6
Continuous
 62
     7
370
    25
100
AcDbSpline
210
0.0
220
0.0
230
1.0
 70
     8
 71
     3
 72
     8
 73
     4
 74
     0
 42
0.000000001
 43
0.00000001
 40
0.0
 40
0.0
 40
0.0
 40
0.0
 40
1.0
 40
1.0
 40
1.0
 40
1.0
 10
338.0848362934612
 20
115.3667901521737
 30
0.0
 10
338.0823503747747
 20
115.3633284528617
 30
0.0
 10
338.0798644560882
 20
115.3599843009528
 30
0.0
 10
338.0773785374017
 20
115.3567583090124
 30
0.0
  0
LINE
  5
FF
330
1F
100
AcDbEntity
  8
0
  6
Continuous
 62
     7
370
    25
100
AcDbLine
 10
340.5221401844
 20
115.3667903645
 30
0.0
 11
338.0850524772
 21
115.3667903645
 31
0.0
  0
SPLINE
  5
100
330
1F
100
AcDbEntity
  8
0
  6
Continuous
 62
     7
370
    25
100
AcDbSpline
210
0.0
220
0.0
230
1.0
 70
     8
 71
     3
 72
    13
 73
     9
 74
     0
 42
0.000000001
 43
0.00000001
 40
0.0
 40
0.0
 40
0.0
 40
0.0
 40
0.1631595583946182
 40
0.3275424452610066
 40
0.4932858680133646
 40
0.6605236853186202
 40
0.8293862019304667
 40
1.0
 40
1.0
 40
1.0
 40
1.0
 10
340.571375308846
 20
115.291790152166
 30
0.0
 10
340.5711174633593
 20
115.2921808025586
 30
0.0
 10
340.5705998391268
 20
115.2929650323401
 30
0.0
 10
340.5664532428829
 20
115.2993432015753
 30
0.0
 10
340.5598599642074
 20
115.3095856477232
 30
0.0
 10
340.5505155693298
 20
115.3242225637722
 30
0.0
 10
340.5387057563162
 20
115.3428424226217
 30
0.0
 10
340.5286790390016
 20
115.3587801302686
 30
0.0
 10
340.5236398175619
 20
115.3667900936049
 30
0.0
  0
LINE
  5
101
330
1F
100
AcDbEntity
  8
0
  6
Continuous
 62
     7
370
    25
100
AcDbLine
 10
340.5236498583
 20
115.3667903645
 30
0.0
 11
340.5323726255
 21
115.3667903645
 31
0.0
  0
SPLINE
  5
102
330
1F
100
AcDbEntity
  8
0
  6
Continuous
 62
     7
370
    25
100
AcDbSpline
210
0.0
220
0.0
230
1.0
 70
     8
 71
     3
 72
    14
 73
    10
 74
     0
 42
0.000000001
 43
0.00000001
 40
0.0
 40
0.0
 40
0.0
 40
0.0
 40
0.0310276388093398
 40
0.0622853718693698
 40
0.1248003166924349
 40
0.2498289731770658
 40
0.4998892603621822
 40
0.7606803621577949
 40
1.0
 40
1.0
 40
1.0
 40
1.0
 10
337.5057071420823
 20
114.9100519775504
 30
0.0
 10
337.5100364355478
 20
114.914835899829
 30
0.0
 10
337.5187271275817
 20
114.9244392209179
 30
0.0
 10
337.5361279062441
 20
114.943733534916
 30
0.0
 10
337.5666040660891
 20
114.9774984813698
 30
0.0
 10
337.6274254589086
 20
115.0449172402316
 30
0.0
 10
337.7153158013204
 20
115.1423839150968
 30
0.0
 10
337.8181534814041
 20
115.2565284269945
 30
0.0
 10
337.8853595928458
 20
115.3313132400009
 30
0.0
 10
337.9175199544943
 20
115.3671002626466
 30
0.0
  0
LINE
  5
103
330
1F
100
AcDbEntity
  8
0
  6
Continuous
 62
     7
370
    25
100
AcDbLine
 10
337.9171918276
 20
115.3667903645
 30
0.0
 11
338.0848364103
 21
115.3667903645
 31
0.0
  0
LINE
  5
104
330
1F
100
AcDbEntity
  8
0
  6
Continuous
 62
     7
370
    25
100
AcDbLine
 10
358.8467658628
 20
115.3667903645
 30
0.0
 11
359.014417896
 21
115.3667903645
 31
0.0
  0
SPLINE
  5
105
330
1F
100
AcDbEntity
  8
0
  6
Continuous
 62
     7
370
    25
100
AcDbSpline
210
0.0
220
0.0
230
1.0
 70
     8
 71
     3
 72
    11
 73
     7
 74
     0
 42
0.000000001
 43
0.00000001
 40
0.0
 40
0.0
 40
0.0
 40
0.0
 40
0.2392913840897591
 40
0.5001130134987114
 40
0.7515028526612877
 40
1.0
 40
1.0
 40
1.0
 40
1.0
 10
359.0141143892118
 20
115.3670769546776
 30
0.0
 10
359.0462709421458
 20
115.3313002361473
 30
0.0
 10
359.113477334272
 20
115.256527788383
 30
0.0
 10
359.2165054240186
 20
115.1420690750683
 30
0.0
 10
359.3215960886816
 20
115.0259098889296
 30
0.0
 10
359.3912709087625
 20
114.9485219476141
 30
0.0
 10
359.4259067254549
 20
114.9100518870312
 30
0.0
  0
LINE
  5
106
330
1F
100
AcDbEntity
  8
0
  6
Continuous
 62
     7
370
    25
100
AcDbLine
 10
338.0619081799
 20
123.4292899398
 30
0.0
 11
337.9173361826
 21
123.4292899398
 31
0.0
  0
SPLINE
  5
107
330
1F
100
AcDbEntity
  8
0
  6
Continuous
 62
     7
370
    25
100
AcDbSpline
210
0.0
220
0.0
230
1.0
 70
     8
 71
     3
 72
    11
 73
     7
 74
     0
 42
0.000000001
 43
0.00000001
 40
0.0
 40
0.0
 40
0.0
 40
0.0
 40
0.2392845096574327
 40
0.5001120454060707
 40
0.7515010914954734
 40
1.0
 40
1.0
 40
1.0
 40
1.0
 10
337.9176387923318
 20
123.4290043659694
 30
0.0
 10
337.8854776625339
 20
123.46480221506
 30
0.0
 10
337.8182599039385
 20
123.539620829752
 30
0.0
 10
337.7152152554401
 20
123.6541490940118
 30
0.0
 10
337.6101070265814
 20
123.7703800876748
 30
0.0
 10
337.5404215099544
 20
123.8478145833544
 30
0.0
 10
337.5057801975138
 20
123.886307984686
 30
0.0
  0
SPLINE
  5
108
330
1F
100
AcDbEntity
  8
0
  6
Continuous
 62
     7
370
    25
100
AcDbSpline
210
0.0
220
0.0
230
1.0
 70
     8
 71
     3
 72
    14
 73
    10
 74
     0
 42
0.000000001
 43
0.00000001
 40
0.0
 40
0.0
 40
0.0
 40
0.0
 40
0.0310294147488059
 40
0.0622870907567357
 40
0.1248019217230938
 40
0.2498303511435398
 40
0.4998901825558308
 40
0.7606872171869626
 40
1.0
 40
1.0
 40
1.0
 40
1.0
 10
359.425810460244
 20
123.8863078764095
 30
0.0
 10
359.4214802639283
 20
123.8815206898394
 30
0.0
 10
359.4127880171332
 20
123.8719111007842
 30
0.0
 10
359.3953843887858
 20
123.8526051070782
 30
0.0
 10
359.3649036532508
 20
123.8188198914264
 30
0.0
 10
359.3040730315288
 20
123.7513607604794
 30
0.0
 10
359.2161681283442
 20
123.6538342547475
 30
0.0
 10
359.1133138837289
 20
123.5396202479814
 30
0.0
 10
359.0460964255824
 20
123.4647892878728
 30
0.0
 10
359.0139314961978
 20
123.4289811419826
 30
0.0
  0
LINE
  5
109
330
1F
100
AcDbEntity
  8
0
  6
Continuous
 62
     7
370
    25
100
AcDbLine
 10
359.0142586399
 20
123.4292899398
 30
0.0
 11
358.8696940932
 21
123.4292899398
 31
0.0
  0
LINE
  5
10A
330
1F
100
AcDbEntity
  8
0
  6
Continuous
 62
     7
370
    25
100
AcDbLine
 10
336.5951328668
 20
117.2107024258
 30
0.0
 11
337.0351958219
 21
117.2917901212
 31
0.0
  0
SPLINE
  5
10B
330
1F
100
AcDbEntity
  8
0
  6
Continuous
 62
     7
370
    25
100
AcDbSpline
210
0.0
220
0.0
230
1.0
 70
     8
 71
     3
 72
    25
 73
    21
 74
     0
 42
0.000000001
 43
0.00000001
 40
0.0
 40
0.0
 40
0.0
 40
0.0
 40
0.0274788704220519
 40
0.0560416006846
 40
0.0856947086346483
 40
0.1164440166532229
 40
0.1482947438675477
 40
0.1812515840465501
 40
0.2153187716746058
 40
0.2505001382254875
 40
0.3330514552513183
 40
0.5015081958163713
 40
0.5771663066143402
 40
0.6488981303024295
 40
0.7167477700061697
 40
0.7807674423486859
 40
0.8410194131339161
 40
0.897578484992366
 40
0.9505352047787778
 40
1.0
 40
1.0
 40
1.0
 40
1.0
 10
337.0351959291302
 20
117.291790152166
 30
0.0
 10
337.0419040964736
 20
117.2626079476489
 30
0.0
 10
337.0555850240302
 20
117.2030924935006
 30
0.0
 10
337.078349752684
 20
117.1127019964425
 30
0.0
 10
337.1032273899243
 20
117.0195703873217
 30
0.0
 10
337.1303666279418
 20
116.9239843430469
 30
0.0
 10
337.1597280349731
 20
116.8262308734335
 30
0.0
 10
337.1913132052612
 20
116.7266501973757
 30
0.0
 10
337.2251600751262
 20
116.6256410577965
 30
0.0
 10
337.2768613050592
 20
116.4788742505446
 30
0.0
 10
337.3812203180728
 20
116.21460783763
 30
0.0
 10
337.5020935457567
 20
115.9446382078017
 30
0.0
 10
337.6155865922137
 20
115.7272285330857
 30
0.0
 10
337.6868595598295
 20
115.5975249623553
 30
0.0
 10
337.7489341319554
 20
115.4936498850304
 30
0.0
 10
337.8015181441227
 20
115.4137892512119
 30
0.0
 10
337.8447646900502
 20
115.3557706250613
 30
0.0
 10
337.8783715022703
 20
115.3176670664088
 30
0.0
 10
337.903318485143
 20
115.2956645354141
 30
0.0
 10
337.912278022005
 20
115.2930519220628
 30
0.0
 10
337.916605058723
 20
115.291790152166
 30
0.0
  0
LINE
  5
10C
330
1F
100
AcDbEntity
  8
0
  6
Continuous
 62
     7
370
    25
100
AcDbLine
 10
360.3364694062
 20
121.5853778785
 30
0.0
 11
359.8964064512
 21
121.5042901831
 31
0.0
  0
SPLINE
  5
10D
330
1F
100
AcDbEntity
  8
0
  6
Continuous
 62
     7
370
    25
100
AcDbSpline
210
0.0
220
0.0
230
1.0
 70
     8
 71
     3
 72
    25
 73
    21
 74
     0
 42
0.000000001
 43
0.00000001
 40
0.0
 40
0.0
 40
0.0
 40
0.0
 40
0.0274788704238406
 40
0.0560416006876649
 40
0.0856947086384779
 40
0.1164440166573039
 40
0.1482947438713698
 40
0.1812515840496028
 40
0.2153187716763797
 40
0.2505001382254737
 40
0.3330514552645295
 40
0.5015081958164058
 40
0.5771663066140428
 40
0.648898130301891
 40
0.716747770005482
 40
0.7807674423479443
 40
0.8410194131332148
 40
0.8975784849918017
 40
0.9505352047784471
 40
0.9999999999999999
 40
0.9999999999999999
 40
0.9999999999999999
 40
0.9999999999999999
 10
359.8964063439527
 20
121.5042901521661
 30
0.0
 10
359.8896981766089
 20
121.5334723566852
 30
0.0
 10
359.8760172490515
 20
121.5929878108367
 30
0.0
 10
359.8532525203968
 20
121.6833783078988
 30
0.0
 10
359.828374883156
 20
121.776509917022
 30
0.0
 10
359.8012356451383
 20
121.8720959612975
 30
0.0
 10
359.7718742381073
 20
121.96984943091
 30
0.0
 10
359.7402890678197
 20
122.0694301069653
 30
0.0
 10
359.7064421979557
 20
122.1704392465405
 30
0.0
 10
359.6547409680181
 20
122.3172060538018
 30
0.0
 10
359.550381955006
 20
122.581472466714
 30
0.0
 10
359.4295087273216
 20
122.8514420965392
 30
0.0
 10
359.3160156808692
 20
123.0688517712457
 30
0.0
 10
359.2447427132535
 20
123.1985553419759
 30
0.0
 10
359.1826681411276
 20
123.3024304193007
 30
0.0
 10
359.1300841289603
 20
123.3822910531194
 30
0.0
 10
359.0868375830328
 20
123.4403096792703
 30
0.0
 10
359.0532307708127
 20
123.478413237923
 30
0.0
 10
359.0282837879399
 20
123.500415768918
 30
0.0
 10
359.0193242510779
 20
123.5030283822693
 30
0.0
 10
359.0149972143599
 20
123.5042901521661
 30
0.0
  0
SPLINE
  5
10E
330
1F
100
AcDbEntity
  8
0
  6
Continuous
 62
     7
370
    25
100
AcDbSpline
210
0.0
220
0.0
230
1.0
 70
     8
 71
     3
 72
    25
 73
    21
 74
     0
 42
0.000000001
 43
0.00000001
 40
0.0
 40
0.0
 40
0.0
 40
0.0
 40
0.0288821753105771
 40
0.058363659400572
 40
0.088464720430548
 40
0.1192044006616737
 40
0.1506005800085666
 40
0.1826700399669859
 40
0.2154285269576224
 40
0.2488908143379852
 40
0.3610594471136693
 40
0.4984670131067402
 40
0.5822693905005265
 40
0.6661127642780991
 40
0.7499972937224167
 40
0.8007709755018199
 40
0.8511237700786715
 40
0.9010896024485537
 40
0.9507031914094952
 40
1.0
 40
1.0
 40
1.0
 40
1.0
 10
337.916605058723
 20
123.5042901521661
 30
0.0
 10
337.9143147903453
 20
123.5038619101902
 30
0.0
 10
337.9096867302324
 20
123.5029965401634
 30
0.0
 10
337.8993764671451
 20
123.4959216074619
 30
0.0
 10
337.8865403979142
 20
123.4843530663017
 30
0.0
 10
337.8709268391717
 20
123.4676474901895
 30
0.0
 10
337.852605395759
 20
123.4457105791734
 30
0.0
 10
337.8315578099279
 20
123.4183129436886
 30
0.0
 10
337.8077862379357
 20
123.3852784630063
 30
0.0
 10
337.7607297085024
 20
123.3162877968822
 30
0.0
 10
337.6730352906437
 20
123.176261827463
 30
0.0
 10
337.5554836361121
 20
122.9569665262603
 30
0.0
 10
337.4439614717696
 20
122.7200364654804
 30
0.0
 10
337.3525021544215
 20
122.5041945915705
 30
0.0
 10
337.2716205032434
 20
122.3026329706919
 30
0.0
 10
337.2054756013753
 20
122.1237648903047
 30
0.0
 10
337.1561250405493
 20
121.9723886891658
 30
0.0
 10
337.1111580236845
 20
121.818144534043
 30
0.0
 10
337.0704003097642
 20
121.6619886789626
 30
0.0
 10
337.046905640546
 20
121.5567439720097
 30
0.0
 10
337.0351959291302
 20
121.5042901521661
 30
0.0
  0
LINE
  5
10F
330
1F
100
AcDbEntity
  8
0
  6
Continuous
 62
     7
370
    25
100
AcDbLine
 10
336.5951328668
 20
121.5853778785
 30
0.0
 11
337.0351958219
 21
121.5042901831
 31
0.0
  0
SPLINE
  5
110
330
1F
100
AcDbEntity
  8
0
  6
Continuous
 62
     7
370
    25
100
AcDbSpline
210
0.0
220
0.0
230
1.0
 70
     8
 71
     3
 72
    25
 73
    21
 74
     0
 42
0.000000001
 43
0.00000001
 40
0.0
 40
0.0
 40
0.0
 40
0.0
 40
0.0288821753094393
 40
0.0583636593986225
 40
0.0884647204281144
 40
0.1192044006590791
 40
0.1506005800061348
 40
0.1826700399650394
 40
0.2154285269564808
 40
0.2488908143379647
 40
0.361059447113401
 40
0.4984670131067465
 40
0.5822693905006262
 40
0.6661127642782027
 40
0.7499972937224338
 40
0.8007709755032364
 40
0.8511237700807901
 40
0.9010896024506709
 40
0.9507031914109064
 40
1.0
 40
1.0
 40
1.0
 40
1.0
 10
359.0149972143599
 20
115.291790152166
 30
0.0
 10
359.0172874827375
 20
115.2922183941419
 30
0.0
 10
359.0219155428503
 20
115.2930837641686
 30
0.0
 10
359.0322258059374
 20
115.3001586968696
 30
0.0
 10
359.0450618751681
 20
115.3117272380293
 30
0.0
 10
359.0606754339108
 20
115.3284328141411
 30
0.0
 10
359.0789968773234
 20
115.3503697251569
 30
0.0
 10
359.1000444631547
 20
115.3777673606417
 30
0.0
 10
359.1238160351472
 20
115.4108018413246
 30
0.0
 10
359.1708725645794
 20
115.4797925074493
 30
0.0
 10
359.2585669824375
 20
115.6198184768692
 30
0.0
 10
359.3761186369705
 20
115.8391137780718
 30
0.0
 10
359.4876408013142
 20
116.0760438388516
 30
0.0
 10
359.5791001186623
 20
116.2918857127615
 30
0.0
 10
359.6599817698403
 20
116.4934473336415
 30
0.0
 10
359.7261266717083
 20
116.672315414031
 30
0.0
 10
359.7754772325348
 20
116.8236916151722
 30
0.0
 10
359.8204442493997
 20
116.9779357702951
 30
0.0
 10
359.8612019633194
 20
117.1340916253732
 30
0.0
 10
359.8846966325372
 20
117.2393363323239
 30
0.0
 10
359.8964063439527
 20
117.291790152166
 30
0.0
  0
LINE
  5
111
330
1F
100
AcDbEntity
  8
0
  6
Continuous
 62
     7
370
    25
100
AcDbLine
 10
360.3364694062
 20
117.2107024258
 30
0.0
 11
359.8964064512
 21
117.2917901212
 31
0.0
  0
SPLINE
  5
112
330
1F
100
AcDbEntity
  8
0
  6
Continuous
 62
     7
370
    25
100
AcDbSpline
210
0.0
220
0.0
230
1.0
 70
     8
 71
     3
 72
    15
 73
    11
 74
     0
 42
0.000000001
 43
0.00000001
 40
0.0
 40
0.0
 40
0.0
 40
0.0
 40
0.1351922525168508
 40
0.295505352053604
 40
0.3941605101370091
 40
0.4930224738308925
 40
0.5920945925114958
 40
0.7581984282951001
 40
0.9106346529387762
 40
1.0
 40
1.0
 40
1.0
 40
1.0
 10
339.56794339602
 20
121.504290183086
 30
0.0
 10
339.6032042734514
 20
121.6247091343232
 30
0.0
 10
339.6802780539757
 20
121.8879227720638
 30
0.0
 10
339.8050715908533
 20
122.2201453338236
 30
0.0
 10
339.9219751161781
 20
122.4996397338031
 30
0.0
 10
340.0195599650277
 20
122.7146541989197
 30
0.0
 10
340.1436396221496
 20
122.9532859905808
 30
0.0
 10
340.2742526719218
 20
123.1839633599868
 30
0.0
 10
340.3773310099134
 20
123.3611588004115
 30
0.0
 10
340.4112895685962
 20
123.4148634122063
 30
0.0
 10
340.4238400179626
 20
123.4347116341926
 30
0.0
  0
SPLINE
  5
113
330
1F
100
AcDbEntity
  8
0
  6
Continuous
 62
     7
370
    25
100
AcDbSpline
210
0.0
220
0.0
230
1.0
 70
     8
 71
     3
 72
    15
 73
    11
 74
     0
 42
0.000000001
 43
0.00000001
 40
0.0
 40
0.0
 40
0.0
 40
0.0
 40
0.1361835767353471
 40
0.2976722041233961
 40
0.3970507708760626
 40
0.4966376596826896
 40
0.5964362444794897
 40
0.763758069845573
 40
0.9173120635806887
 40
0.9999999999999999
 40
0.9999999999999999
 40
0.9999999999999999
 40
0.9999999999999999
 10
357.3636588770629
 20
117.2917901212462
 30
0.0
 10
357.3283979666155
 20
117.1713711075157
 30
0.0
 10
357.2513241139241
 20
116.9081573331766
 30
0.0
 10
357.1265311120073
 20
116.5759357839963
 30
0.0
 10
357.0096262209667
 20
116.2964387989759
 30
0.0
 10
356.9120458687484
 20
116.0814328451291
 30
0.0
 10
356.7879455035014
 20
115.8427618569156
 30
0.0
 10
356.6574591426947
 20
115.6123242856894
 30
0.0
 10
356.5558159918736
 20
115.437525726322
 30
0.0
 10
356.5227162243756
 20
115.3851296977383
 30
0.0
 10
356.5111308488728
 20
115.3667903645076
 30
0.0
  0
SPLINE
  5
114
330
1F
100
AcDbEntity
  8
0
  6
Continuous
 62
     7
370
    25
100
AcDbSpline
210
0.0
220
0.0
230
1.0
 70
     8
 71
     3
 72
    15
 73
    11
 74
     0
 42
0.000000001
 43
0.00000001
 40
0.0
 40
0.0
 40
0.0
 40
0.0
 40
0.0210214847137796
 40
0.0995173547081305
 40
0.2360971400771362
 40
0.3979401334474181
 40
0.5486162591715825
 40
0.7000321895560188
 40
0.8517812990240201
 40
0.9999999999999999
 40
0.9999999999999999
 40
0.9999999999999999
 40
0.9999999999999999
 10
340.4190250802518
 20
115.3667903645076
 30
0.0
 10
340.4161765789975
 20
115.3712749741008
 30
0.0
 10
340.4026915510099
 20
115.3925054670793
 30
0.0
 10
340.3552826869809
 20
115.4696406562334
 30
0.0
 10
340.2621408688292
 20
115.6255700902776
 30
0.0
 10
340.1257217852512
 20
115.8745855547204
 30
0.0
 10
339.976399349034
 20
116.184224551115
 30
0.0
 10
339.8232342133214
 20
116.5261884252184
 30
0.0
 10
339.6776014466072
 20
116.8972972679039
 30
0.0
 10
339.6042081505261
 20
117.161328322917
 30
0.0
 10
339.56794339602
 20
117.2917901212462
 30
0.0
  0
LINE
  5
115
330
1F
100
AcDbEntity
  8
0
  6
Continuous
 62
     7
370
    25
100
AcDbLine
 10
339.8842037786
 20
121.4294267492
 30
0.0
 11
339.567943396
 21
121.5042901831
 31
0.0
  0
SPLINE
  5
116
330
1F
100
AcDbEntity
  8
0
  6
Continuous
 62
     7
370
    25
100
AcDbSpline
210
0.0
220
0.0
230
1.0
 70
     8
 71
     3
 72
    25
 73
    21
 74
     0
 42
0.000000001
 43
0.00000001
 40
0.0
 40
0.0
 40
0.0
 40
0.0
 40
0.0278144320063459
 40
0.0555680196245752
 40
0.0833316253677715
 40
0.1111760352167582
 40
0.1391714221532259
 40
0.1673868326284758
 40
0.1958897140434715
 40
0.2247454979318968
 40
0.2540172492221455
 40
0.3796724410010767
 40
0.5056484635002251
 40
0.6297527290687337
 40
0.7535891720571736
 40
0.8038564806093723
 40
0.8533396843434523
 40
0.9023264398358549
 40
0.9511131859219458
 40
1.0
 40
1.0
 40
1.0
 40
1.0
 10
340.7518250472529
 20
123.6717884433486
 30
0.0
 10
340.7516772959382
 20
123.671521900795
 30
0.0
 10
340.7513821165165
 20
123.6709893987528
 30
0.0
 10
340.7477574175007
 20
123.6644419500567
 30
0.0
 10
340.7418115218304
 20
123.6536727067704
 30
0.0
 10
340.7333367989153
 20
123.6382619708461
 30
0.0
 10
340.7224218120762
 20
123.6183055945924
 30
0.0
 10
340.7090857438378
 20
123.5937554981219
 30
0.0
 10
340.6933779791509
 20
123.564598874366
 30
0.0
 10
340.675346390993
 20
123.5308029029326
 30
0.0
 10
340.6329288462447
 20
123.450396144875
 30
0.0
 10
340.552407806491
 20
123.293407695204
 30
0.0
 10
340.418981459617
 20
123.0116219574577
 30
0.0
 10
340.2749044829338
 20
122.6737498478307
 30
0.0
 10
340.1592267314822
 20
122.3650689340921
 30
0.0
 10
340.0767152562648
 20
122.1190382143365
 30
0.0
 10
340.0237936317397
 20
121.9502123230633
 30
0.0
 10
339.9739364973622
 20
121.7788967520515
 30
0.0
 10
339.9269185041317
 20
121.6052144018307
 30
0.0
 10
339.8984514934032
 20
121.4880627135273
 30
0.0
 10
339.8842034056043
 20
121.4294268575659
 30
0.0
  0
LINE
  5
117
330
1F
100
AcDbEntity
  8
0
  6
Continuous
 62
     7
370
    25
100
AcDbLine
 10
339.8842037786
 20
117.3666535551
 30
0.0
 11
339.567943396
 21
117.2917901212
 31
0.0
  0
SPLINE
  5
118
330
1F
100
AcDbEntity
  8
0
  6
Continuous
 62
     7
370
    25
100
AcDbSpline
210
0.0
220
0.0
230
1.0
 70
     8
 71
     3
 72
    25
 73
    21
 74
     0
 42
0.000000001
 43
0.00000001
 40
0.0
 40
0.0
 40
0.0
 40
0.0
 40
0.0269872354798654
 40
0.0539362690261339
 40
0.0809037148831245
 40
0.107946071654785
 40
0.1351193706858311
 40
0.1624788388357973
 40
0.1900785854184274
 40
0.2179713214291598
 40
0.2462081170984737
 40
0.3700050494706795
 40
0.4947542611659102
 40
0.6210439034699656
 40
0.7446557472315446
 40
0.7967060293742283
 40
0.8478613449334612
 40
0.8985210411995624
 40
0.9490962115261248
 40
1.0
 40
1.0
 40
1.0
 40
1.0
 10
339.8842034056043
 20
117.3666534467662
 30
0.0
 10
339.8919841503284
 20
117.3342570417384
 30
0.0
 10
339.9075346256995
 20
117.2695100905969
 30
0.0
 10
339.9322200316728
 20
117.1728635541679
 30
0.0
 10
339.9578399886719
 20
117.0767694656764
 30
0.0
 10
339.9844828522993
 20
116.9812571949596
 30
0.0
 10
340.0121080375838
 20
116.886332467567
 30
0.0
 10
340.0407098166431
 20
116.7920063114314
 30
0.0
 10
340.0702719062846
 20
116.6982899669823
 30
0.0
 10
340.1007850533316
 20
116.6051858830922
 30
0.0
 10
340.1675192579208
 20
116.4089206409794
 30
0.0
 10
340.2747024340165
 20
116.1228475253763
 30
0.0
 10
340.4184825243255
 20
115.7855576293825
 30
0.0
 10
340.5517309805376
 20
115.5040484525586
 30
0.0
 10
340.6394021567507
 20
115.3330575223804
 30
0.0
 10
340.6902771925426
 20
115.2371447039986
 30
0.0
 10
340.7179463471941
 20
115.1859275005439
 30
0.0
 10
340.7376452653116
 20
115.1499447064589
 30
0.0
 10
340.7498927740151
 20
115.1277748181368
 30
0.0
 10
340.7511795671712
 20
115.1254553504032
 30
0.0
 10
340.7518250472529
 20
115.1242918609835
 30
0.0
  0
SPLINE
  5
119
330
1F
100
AcDbEntity
  8
0
  6
Continuous
 62
     7
370
    25
100
AcDbSpline
210
0.0
220
0.0
230
1.0
 70
     8
 71
     3
 72
    15
 73
    11
 74
     0
 42
0.000000001
 43
0.00000001
 40
0.0
 40
0.0
 40
0.0
 40
0.0
 40
0.0210214847137796
 40
0.0995173547081305
 40
0.2360971400771362
 40
0.3979401334474181
 40
0.5486162591715825
 40
0.7000321895560188
 40
0.8517812990240201
 40
0.9999999999999999
 40
0.9999999999999999
 40
0.9999999999999999
 40
0.9999999999999999
 10
356.5125771928311
 20
123.4292899398245
 30
0.0
 10
356.5154256940854
 20
123.4248053302313
 30
0.0
 10
356.5289107220729
 20
123.4035748372528
 30
0.0
 10
356.576319586102
 20
123.3264396480987
 30
0.0
 10
356.6694614042537
 20
123.1705102140545
 30
0.0
 10
356.8058804878317
 20
122.9214947496118
 30
0.0
 10
356.955202924049
 20
122.6118557532172
 30
0.0
 10
357.1083680597615
 20
122.2698918791137
 30
0.0
 10
357.2540008264758
 20
121.8987830364282
 30
0.0
 10
357.3273941225568
 20
121.6347519814151
 30
0.0
 10
357.3636588770629
 20
121.504290183086
 30
0.0
  0
LINE
  5
11A
330
1F
100
AcDbEntity
  8
0
  6
Continuous
 62
     7
370
    25
100
AcDbLine
 10
357.0473984945
 20
121.4294267492
 30
0.0
 11
357.3636588771
 21
121.5042901831
 31
0.0
  0
SPLINE
  5
11B
330
1F
100
AcDbEntity
  8
0
  6
Continuous
 62
     7
370
    25
100
AcDbSpline
210
0.0
220
0.0
230
1.0
 70
     8
 71
     3
 72
    14
 73
    10
 74
     0
 42
0.000000001
 43
0.00000001
 40
0.0
 40
0.0
 40
0.0
 40
0.0
 40
0.1400505481383316
 40
0.2837940635646364
 40
0.4267314741655509
 40
0.5707685044357909
 40
0.7165840938251985
 40
0.8593077005344127
 40
1.0
 40
1.0
 40
1.0
 40
1.0
 10
357.0473984945298
 20
121.4294267492481
 30
0.0
 10
357.0106317044049
 20
121.5749867664439
 30
0.0
 10
356.9361286273912
 20
121.8699450463054
 30
0.0
 10
356.8009394804551
 20
122.2880094109044
 30
0.0
 10
356.6570548179404
 20
122.6730619210355
 30
0.0
 10
356.5129190295479
 20
123.0108702011769
 30
0.0
 10
356.3805220039965
 20
123.2908104513357
 30
0.0
 10
356.269602132961
 20
123.5069513271032
 30
0.0
 10
356.2282662674861
 20
123.5830145542425
 30
0.0
 10
356.207746466595
 20
123.6207735864558
 30
0.0
  0
LINE
  5
11C
330
1F
100
AcDbEntity
  8
0
  6
Continuous
 62
     7
370
    25
100
AcDbLine
 10
357.0473984945
 20
117.3666535551
 30
0.0
 11
357.3636588771
 21
117.2917901212
 31
0.0
  0
SPLINE
  5
11D
330
1F
100
AcDbEntity
  8
0
  6
Continuous
 62
     7
370
    25
100
AcDbSpline
210
0.0
220
0.0
230
1.0
 70
     8
 71
     3
 72
    25
 73
    21
 74
     0
 42
0.000000001
 43
0.00000001
 40
0.0
 40
0.0
 40
0.0
 40
0.0
 40
0.0278144320057639
 40
0.0555680196235574
 40
0.0833316253664654
 40
0.1111760352153096
 40
0.1391714221517776
 40
0.1673868326271671
 40
0.1958897140424394
 40
0.2247454979312721
 40
0.2540172492220529
 40
0.3796724409982623
 40
0.5056484635001489
 40
0.62975272906517
 40
0.7535891720570678
 40
0.803856480607963
 40
0.8533396843413759
 40
0.902326439833779
 40
0.9511131859205574
 40
0.9999999999999999
 40
0.9999999999999999
 40
0.9999999999999999
 40
0.9999999999999999
 10
356.1797772258299
 20
115.1242918609835
 30
0.0
 10
356.1799249771447
 20
115.1245584035371
 30
0.0
 10
356.1802201565664
 20
115.1250909055793
 30
0.0
 10
356.1838448555823
 20
115.1316383542755
 30
0.0
 10
356.1897907512526
 20
115.1424075975617
 30
0.0
 10
356.1982654741677
 20
115.157818333486
 30
0.0
 10
356.2091804610067
 20
115.1777747097398
 30
0.0
 10
356.2225165292452
 20
115.2023248062103
 30
0.0
 10
356.2382242939321
 20
115.2314814299662
 30
0.0
 10
356.25625588209
 20
115.2652774013996
 30
0.0
 10
356.2986734268369
 20
115.3456841594546
 30
0.0
 10
356.379194466591
 20
115.5026726091264
 30
0.0
 10
356.5126208134635
 20
115.7844583468692
 30
0.0
 10
356.6566977901479
 20
116.1223304564984
 30
0.0
 10
356.772375541599
 20
116.4310113702352
 30
0.0
 10
356.8548870168167
 20
116.6770420899914
 30
0.0
 10
356.9078086413412
 20
116.8458679812622
 30
0.0
 10
356.9576657757188
 20
117.017183552274
 30
0.0
 10
357.0046837689501
 20
117.1908659024973
 30
0.0
 10
357.0331507796793
 20
117.3080175908032
 30
0.0
 10
357.0473988674785
 20
117.3666534467662
 30
0.0
  0
ARC
  5
11E
330
1F
100
AcDbEntity
  8
0
  6
Continuous
 62
     7
370
    25
100
AcDbCircle
 10
348.4658011365
 20
119.3980401522
 30
0.0
 40
11.62303852141071
100
AcDbArc
 50
169.5595567507
 51
190.4404432494
  0
ARC
  5
11F
330
1F
100
AcDbEntity
  8
0
  6
Continuous
 62
     7
370
    25
100
AcDbCircle
 10
348.4658011365
 20
119.3980401522
 30
0.0
 40
9.143750000000008
100
AcDbArc
 50
166.6824039243
 51
193.3175960757
  0
ARC
  5
120
330
1F
100
AcDbEntity
  8
0
  6
Continuous
 62
     7
370
    25
100
AcDbCircle
 10
348.4658011365
 20
119.3980401522
 30
0.0
 40
8.81875000000008
100
AcDbArc
 50
166.6824039243
 51
193.3175960757
  0
ARC
  5
121
330
1F
100
AcDbEntity
  8
0
  6
Continuous
 62
     7
370
    25
100
AcDbCircle
 10
348.4658011365
 20
119.3980401522
 30
0.0
 40
9.143749999999953
100
AcDbArc
 50
346.6824039243
 51
13.3175960757
  0
ARC
  5
122
330
1F
100
AcDbEntity
  8
0
  6
Continuous
 62
     7
370
    25
100
AcDbCircle
 10
348.4658011365
 20
119.3980401522
 30
0.0
 40
8.81874999999997
100
AcDbArc
 50
346.6824039243
 51
13.3175960757
  0
ARC
  5
123
330
1F
100
AcDbEntity
  8
0
  6
Continuous
 62
     7
370
    25
100
AcDbCircle
 10
348.4658011365
 20
119.3980401522
 30
0.0
 40
11.62303852141071
100
AcDbArc
 50
349.5595567507
 51
10.4404432493
  0
CIRCLE
  5
124
330
1F
100
AcDbEntity
  8
0
  6
Continuous
 62
     7
370
    25
100
AcDbCircle
 10
348.4658011365
 20
119.3980401522
 30
0.0
 40
7.775000000000034
  0
CIRCLE
  5
125
330
1F
100
AcDbEntity
  8
0
  6
Continuous
 62
     7
370
    25
100
AcDbCircle
 10
348.4658011365
 20
119.3980401522
 30
0.0
 40
2.615470053837953
  0
CIRCLE
  5
126
330
1F
100
AcDbEntity
  8
0
  6
Continuous
 62
     7
370
    25
100
AcDbCircle
 10
348.4658011365
 20
119.3980401522
 30
0.0
 40
2.5
  0
CIRCLE
  5
127
330
1F
100
AcDbEntity
  8
0
  6
Continuous
 62
     7
370
    25
100
AcDbCircle
 10
348.4658011365
 20
119.3980401522
 30
0.0
 40
15.73750000000001
  0
CIRCLE
  5
128
330
1F
100
AcDbEntity
  8
0
  6
Continuous
 62
     7
370
    25
100
AcDbCircle
 10
348.4658011365
 20
119.3980401522
 30
0.0
 40
13.42500000000001
  0
CIRCLE
  5
129
330
1F
100
AcDbEntity
  8
0
  6
Continuous
 62
     7
370
    25
100
AcDbCircle
 10
348.4658011365
 20
119.3980401522
 30
0.0
 40
2.0
  0
CIRCLE
  5
12A
330
1F
100
AcDbEntity
  8
0
  6
Continuous
 62
     7
370
    25
100
AcDbCircle
 10
348.4658011365
 20
119.3980401522
 30
0.0
 40
1.050000000000011
  0
LINE
  5
12B
330
1F
100
AcDbEntity
  8
0
  6
CENTER
 62
     7
370
    18
100
AcDbLine
 10
348.4658011365
 20
119.3980401522
 30
0.0
 11
348.4658011365
 21
138.9125401522
 31
0.0
  0
LINE
  5
12C
330
1F
100
AcDbEntity
  8
0
  6
CENTER
 62
     7
370
    18
100
AcDbLine
 10
348.4658011365
 20
119.3980401522
 30
0.0
 11
367.9779588606
 21
119.3980401522
 31
0.0
  0
LINE
  5
12D
330
1F
100
AcDbEntity
  8
0
  6
Continuous
 62
     7
370
    18
100
AcDbLine
 10
360.4658011365
 20
136.9125401522
 30
0.0
 11
348.4658011365
 21
136.9125401522
 31
0.0
  0
SOLID
  5
12E
330
1F
100
AcDbEntity
  8
0
  6
Continuous
 62
     7
370
    18
100
AcDbTrace
 10
348.4658011365
 20
136.9125401522
 30
0.0
 11
354.4658011365
 21
135.4125401522
 31
0.0
 12
354.4658011365
 22
138.4125401522
 32
0.0
 13
354.4658011365
 23
138.4125401522
 33
0.0
  0
LINE
  5
12F
330
1F
100
AcDbEntity
  8
0
  6
Continuous
 62
     7
370
    18
100
AcDbLine
 10
377.9779588606
 20
119.3980401522
 30
0.0
 11
365.9779588606
 21
119.3980401522
 31
0.0
  0
SOLID
  5
130
330
1F
100
AcDbEntity
  8
0
  6
Continuous
 62
     7
370
    18
100
AcDbTrace
 10
365.9779588606
 20
119.3980401522
 30
0.0
 11
371.9779588606
 21
117.8980401522
 31
0.0
 12
371.9779588606
 22
120.8980401522
 32
0.0
 13
371.9779588606
 23
120.8980401522
 33
0.0
  0
MTEXT
  5
131
330
1F
100
AcDbEntity
  8
0
  6
Continuous
 62
     7
100
AcDbMText
 10
357.3160718132
 20
143.5617130845
 30
0.0
 40
3.5
 41
0.0
 71
     1
 72
     1
  1
A
  7
SLDTEXTSTYLE0
 73
     1
 44
1.0
  0
MTEXT
  5
132
330
1F
100
AcDbEntity
  8
0
  6
Continuous
 62
     7
100
AcDbMText
 10
374.8282295373
 20
117.1838655657
 30
0.0
 40
3.5
 41
0.0
 71
     1
 72
     1
  1
A
  7
SLDTEXTSTYLE0
 73
     1
 44
1.0
  0
LINE
  5
133
330
1F
100
AcDbEntity
  8
0
  6
Continuous
 62
     7
370
    25
100
AcDbLine
 10
127.9790036435
 20
87.9230401522
 30
0.0
 11
134.344805839
 21
87.9230401522
 31
0.0
  0
LINE
  5
134
330
1F
100
AcDbEntity
  8
0
  6
Continuous
 62
     7
370
    25
100
AcDbLine
 10
141.0132014481
 20
87.9230401522
 30
0.0
 11
145.5790036435
 21
87.9230401522
 31
0.0
  0
ARC
  5
135
330
1F
100
AcDbEntity
  8
0
  6
Continuous
 62
     7
370
    25
100
AcDbCircle
 10
145.5790036435
 20
88.1230401522
 30
0.0
 40
0.2000000000000171
100
AcDbArc
 50
270.0
 51
0.0
  0
ARC
  5
136
330
1F
100
AcDbEntity
  8
0
  6
Continuous
 62
     7
370
    25
100
AcDbCircle
 10
127.9790036435
 20
88.1230401522
 30
0.0
 40
0.2000000000000171
100
AcDbArc
 50
180.0
 51
270.0
  0
LINE
  5
137
330
1F
100
AcDbEntity
  8
0
  6
Continuous
 62
     7
370
    25
100
AcDbLine
 10
134.344805839
 20
87.9230401522
 30
0.0
 11
135.8040036435
 21
90.450444888
 31
0.0
  0
LINE
  5
138
330
1F
100
AcDbEntity
  8
0
  6
Continuous
 62
     7
370
    25
100
AcDbLine
 10
139.5540036435
 20
90.450444888
 30
0.0
 11
141.0132014481
 21
87.9230401522
 31
0.0
  0
ARC
  5
139
330
1F
100
AcDbEntity
  8
0
  6
Continuous
 62
     7
370
    25
100
AcDbCircle
 10
136.8040036435
 20
90.5480401522
 30
0.0
 40
1.0
100
AcDbArc
 50
90.0
 51
180.0
  0
ARC
  5
13A
330
1F
100
AcDbEntity
  8
0
  6
Continuous
 62
     7
370
    25
100
AcDbCircle
 10
138.5540036435
 20
90.5480401522
 30
0.0
 40
1.0
100
AcDbArc
 50
0.0
 51
90.0
  0
LINE
  5
13B
330
1F
100
AcDbEntity
  8
0
  6
Continuous
 62
     7
370
    25
100
AcDbLine
 10
136.8040036435
 20
91.5480401522
 30
0.0
 11
138.5540036435
 21
91.5480401522
 31
0.0
  0
ARC
  5
13C
330
1F
100
AcDbEntity
  8
0
  6
Continuous
 62
     7
370
    25
100
AcDbCircle
 10
127.350068769
 20
93.8480401522
 30
0.0
 40
0.8000000000000004
100
AcDbArc
 50
57.576802718
 51
107.5
  0
LINE
  5
13D
330
1F
100
AcDbEntity
  8
0
  6
Continuous
 62
     7
370
    25
100
AcDbLine
 10
126.6188216035
 20
94.4563021066
 30
0.0
 11
127.1095041294
 21
94.6110137128
 31
0.0
  0
LINE
  5
13E
330
1F
100
AcDbEntity
  8
0
  6
Continuous
 62
     7
370
    25
100
AcDbLine
 10
113.2925581755
 20
95.1255196314
 30
0.0
 11
126.6188216035
 21
94.4563021066
 31
0.0
  0
LINE
  5
13F
330
1F
100
AcDbEntity
  8
0
  6
Continuous
 62
     7
370
    25
100
AcDbLine
 10
89.3290036435
 20
96.3289200246
 30
0.0
 11
97.3838405071
 21
95.9244226936
 31
0.0
  0
LINE
  5
140
330
1F
100
AcDbEntity
  8
0
  6
Continuous
 62
     7
370
    25
100
AcDbLine
 10
87.8290036435
 20
97.1949454284
 30
0.0
 11
89.3290036435
 21
96.3289200246
 31
0.0
  0
ARC
  5
141
330
1F
100
AcDbEntity
  8
0
  6
Continuous
 62
     7
370
    25
100
AcDbCircle
 10
148.7790036435
 20
102.8980401522
 30
0.0
 40
3.0
100
AcDbArc
 50
90.0
 51
180.0
  0
LINE
  5
142
330
1F
100
AcDbEntity
  8
0
  6
Continuous
 62
     7
370
    25
100
AcDbLine
 10
148.7790036435
 20
105.8980401522
 30
0.0
 11
169.660389435
 21
105.8980401522
 31
0.0
  0
LINE
  5
143
330
1F
100
AcDbEntity
  8
0
  6
Continuous
 62
     7
370
    25
100
AcDbLine
 10
169.660389435
 20
105.8980401522
 30
0.0
 11
205.935921835
 21
108.752986468
 31
0.0
  0
ARC
  5
144
330
1F
100
AcDbEntity
  8
0
  6
Continuous
 62
     7
370
    25
100
AcDbCircle
 10
205.7790036435
 20
110.7468211355
 30
0.0
 40
2.0
100
AcDbArc
 50
274.5
 51
0.0
  0
LINE
  5
145
330
1F
100
AcDbEntity
  8
0
  6
Continuous
 62
     7
370
    25
100
AcDbLine
 10
171.2790036435
 20
121.8980401522
 30
0.0
 11
160.0790036435
 21
121.8980401522
 31
0.0
  0
LINE
  5
146
330
1F
100
AcDbEntity
  8
0
  6
Continuous
 62
     7
370
    25
100
AcDbLine
 10
171.6790036435
 20
121.4980401522
 30
0.0
 11
171.2790036435
 21
121.8980401522
 31
0.0
  0
LINE
  5
147
330
1F
100
AcDbEntity
  8
0
  6
Continuous
 62
     7
370
    25
100
AcDbLine
 10
160.0790036435
 20
121.8980401522
 30
0.0
 11
159.6790036435
 21
121.4980401522
 31
0.0
  0
LINE
  5
148
330
1F
100
AcDbEntity
  8
0
  6
Continuous
 62
     7
370
    25
100
AcDbLine
 10
172.6790036435
 20
121.0613878099
 30
0.0
 11
173.6790036435
 21
121.0613878099
 31
0.0
  0
LINE
  5
149
330
1F
100
AcDbEntity
  8
0
  6
Continuous
 62
     7
370
    25
100
AcDbLine
 10
172.6790036435
 20
121.4980401522
 30
0.0
 11
171.6790036435
 21
121.4980401522
 31
0.0
  0
LINE
  5
14A
330
1F
100
AcDbEntity
  8
0
  6
Continuous
 62
     7
370
    25
100
AcDbLine
 10
159.7856279706
 20
120.8229142113
 30
0.0
 11
159.8917113868
 21
120.7353324089
 31
0.0
  0
SPLINE
  5
14B
330
1F
100
AcDbEntity
  8
0
  6
Continuous
 62
     7
370
    25
100
AcDbSpline
210
0.0
220
0.0
230
1.0
 70
     8
 71
     3
 72
    10
 73
     6
 74
     0
 42
0.000000001
 43
0.00000001
 40
0.0
 40
0.0
 40
0.0
 40
0.0
 40
0.4391119879276914
 40
0.7513633230734739
 40
1.0
 40
1.0
 40
1.0
 40
1.0
 10
159.7856279705696
 20
119.9109767140028
 30
0.0
 10
159.8712393684878
 20
120.0415261272135
 30
0.0
 10
160.0177287976112
 20
120.2649088715521
 30
0.0
 10
159.9526177991286
 20
120.589637283469
 30
0.0
 10
159.8369170746793
 20
120.7512657478149
 30
0.0
 10
159.7856279705696
 20
120.8229142113348
 30
0.0
  0
SPLINE
  5
14C
330
1F
100
AcDbEntity
  8
0
  6
Continuous
 62
     7
370
    25
100
AcDbSpline
210
0.0
220
0.0
230
1.0
 70
     8
 71
     3
 72
     9
 73
     5
 74
     0
 42
0.000000001
 43
0.00000001
 40
0.0
 40
0.0
 40
0.0
 40
0.0
 40
0.6624638369355926
 40
1.0
 40
1.0
 40
1.0
 40
1.0
 10
159.9407775434405
 20
119.3980401521663
 30
0.0
 10
159.9221338672969
 20
119.5164778296494
 30
0.0
 10
159.8939909331409
 20
119.6952614414929
 30
0.0
 10
159.8129740862221
 20
119.8565395276238
 30
0.0
 10
159.7856279705696
 20
119.9109767140028
 30
0.0
  0
LINE
  5
14D
330
1F
100
AcDbEntity
  8
0
  6
Continuous
 62
     7
370
    25
100
AcDbLine
 10
159.6790036435
 20
120.9480401522
 30
0.0
 11
159.8917113868
 21
120.7353324089
 31
0.0
  0
LINE
  5
14E
330
1F
100
AcDbEntity
  8
0
  6
Continuous
 62
     7
370
    25
100
AcDbLine
 10
159.6790036435
 20
120.9480401522
 30
0.0
 11
159.6790036435
 21
119.3980401522
 31
0.0
  0
LINE
  5
14F
330
1F
100
AcDbEntity
  8
0
  6
Continuous
 62
     7
370
    25
100
AcDbLine
 10
169.6790036435
 20
120.3669454627
 30
0.0
 11
169.6790036435
 21
120.6480401522
 31
0.0
  0
LINE
  5
150
330
1F
100
AcDbEntity
  8
0
  6
Continuous
 62
     7
370
    25
100
AcDbLine
 10
169.6790036435
 20
119.3980401522
 30
0.0
 11
169.6790036435
 21
120.3669454627
 31
0.0
  0
LINE
  5
151
330
1F
100
AcDbEntity
  8
0
  6
Continuous
 62
     7
370
    25
100
AcDbLine
 10
163.6790036435
 20
120.3669454627
 30
0.0
 11
163.6790036435
 21
119.3980401522
 31
0.0
  0
LINE
  5
152
330
1F
100
AcDbEntity
  8
0
  6
Continuous
 62
     7
370
    25
100
AcDbLine
 10
163.6790036435
 20
120.6480401522
 30
0.0
 11
163.6790036435
 21
120.3669454627
 31
0.0
  0
LINE
  5
153
330
1F
100
AcDbEntity
  8
0
  6
Continuous
 62
     7
370
    25
100
AcDbLine
 10
163.6790036435
 20
120.6480401522
 30
0.0
 11
169.6790036435
 21
120.6480401522
 31
0.0
  0
LINE
  5
154
330
1F
100
AcDbEntity
  8
0
  6
Continuous
 62
     7
370
    25
100
AcDbLine
 10
172.6790036435
 20
120.7353324089
 30
0.0
 11
172.6790036435
 21
121.4980401522
 31
0.0
  0
LINE
  5
155
330
1F
100
AcDbEntity
  8
0
  6
Continuous
 62
     7
370
    25
100
AcDbLine
 10
169.6790036435
 20
120.7353324089
 30
0.0
 11
172.6790036435
 21
120.7353324089
 31
0.0
  0
LINE
  5
156
330
1F
100
AcDbEntity
  8
0
  6
Continuous
 62
     7
370
    25
100
AcDbLine
 10
169.6790036435
 20
120.6480401522
 30
0.0
 11
169.6790036435
 21
120.7353324089
 31
0.0
  0
LINE
  5
157
330
1F
100
AcDbEntity
  8
0
  6
Continuous
 62
     7
370
    25
100
AcDbLine
 10
163.6790036435
 20
120.7353324089
 30
0.0
 11
163.6790036435
 21
120.6480401522
 31
0.0
  0
LINE
  5
158
330
1F
100
AcDbEntity
  8
0
  6
Continuous
 62
     7
370
    25
100
AcDbLine
 10
159.8917113868
 20
120.7353324089
 30
0.0
 11
163.6790036435
 21
120.7353324089
 31
0.0
  0
LINE
  5
159
330
1F
100
AcDbEntity
  8
0
  6
Continuous
 62
     7
370
    25
100
AcDbLine
 10
159.6790036435
 20
121.4980401522
 30
0.0
 11
159.6790036435
 21
120.9480401522
 31
0.0
  0
LINE
  5
15A
330
1F
100
AcDbEntity
  8
0
  6
Continuous
 62
     7
370
    25
100
AcDbLine
 10
163.6790036435
 20
119.910976714
 30
0.0
 11
159.7856279706
 21
119.910976714
 31
0.0
  0
LINE
  5
15B
330
1F
100
AcDbEntity
  8
0
  6
Continuous
 62
     7
370
    25
100
AcDbLine
 10
173.4518792991
 20
120.0933642135
 30
0.0
 11
173.5723793165
 21
119.910976714
 31
0.0
  0
LINE
  5
15C
330
1F
100
AcDbEntity
  8
0
  6
Continuous
 62
     7
370
    25
100
AcDbLine
 10
169.6790036435
 20
119.910976714
 30
0.0
 11
173.5723793165
 21
119.910976714
 31
0.0
  0
LINE
  5
15D
330
1F
100
AcDbEntity
  8
0
  6
Continuous
 62
     7
370
    25
100
AcDbLine
 10
173.4518792991
 20
120.0933642135
 30
0.0
 11
172.6790036435
 21
120.0933642135
 31
0.0
  0
LINE
  5
15E
330
1F
100
AcDbEntity
  8
0
  6
Continuous
 62
     7
370
    25
100
AcDbLine
 10
172.6790036435
 20
120.0933642135
 30
0.0
 11
172.6790036435
 21
120.7353324089
 31
0.0
  0
SPLINE
  5
15F
330
1F
100
AcDbEntity
  8
0
  6
Continuous
 62
     7
370
    25
100
AcDbSpline
210
0.0
220
0.0
230
1.0
 70
     8
 71
     3
 72
     9
 73
     5
 74
     0
 42
0.000000001
 43
0.00000001
 40
0.0
 40
0.0
 40
0.0
 40
0.0
 40
0.3375361630644107
 40
1.0
 40
1.0
 40
1.0
 40
1.0
 10
173.5723793165177
 20
119.9109767140028
 30
0.0
 10
173.5450332008652
 20
119.8565395276238
 30
0.0
 10
173.4640163539464
 20
119.6952614414929
 30
0.0
 10
173.4358734197904
 20
119.5164778296494
 30
0.0
 10
173.4172297436468
 20
119.3980401521663
 30
0.0
  0
SPLINE
  5
160
330
1F
100
AcDbEntity
  8
0
  6
Continuous
 62
     7
370
    25
100
AcDbSpline
210
0.0
220
0.0
230
1.0
 70
     8
 71
     3
 72
     9
 73
     5
 74
     0
 42
0.000000001
 43
0.00000001
 40
0.0
 40
0.0
 40
0.0
 40
0.0
 40
0.7432396161805868
 40
0.9999999999999999
 40
0.9999999999999999
 40
0.9999999999999999
 40
0.9999999999999999
 10
173.6790036435437
 20
120.4075313603856
 30
0.0
 10
173.6208417442673
 20
120.331005080393
 30
0.0
 10
173.5425871706275
 20
120.2280419466653
 30
0.0
 10
173.4704112230727
 20
120.1208793284526
 30
0.0
 10
173.451879299076
 20
120.0933642134692
 30
0.0
  0
LINE
  5
161
330
1F
100
AcDbEntity
  8
0
  6
Continuous
 62
     7
370
    25
100
AcDbLine
 10
173.6790036435
 20
120.4075313604
 30
0.0
 11
173.6790036435
 21
119.3980401522
 31
0.0
  0
LINE
  5
162
330
1F
100
AcDbEntity
  8
0
  6
Continuous
 62
     7
370
    25
100
AcDbLine
 10
173.6790036435
 20
121.0613878099
 30
0.0
 11
173.6790036435
 21
120.4075313604
 31
0.0
  0
SPLINE
  5
163
330
1F
100
AcDbEntity
  8
0
  6
Continuous
 62
     7
370
    25
100
AcDbSpline
210
0.0
220
0.0
230
1.0
 70
     8
 71
     3
 72
    14
 73
    10
 74
     0
 42
0.000000001
 43
0.00000001
 40
0.0
 40
0.0
 40
0.0
 40
0.0
 40
0.25
 40
0.25
 40
0.5
 40
0.5
 40
0.75
 40
0.75
 40
1.0
 40
1.0
 40
1.0
 40
1.0
 10
134.3448058389736
 20
116.1031420666495
 30
0.0
 10
134.1479299534485
 20
116.3306386345787
 30
0.0
 10
133.9718216320591
 20
116.5722254096498
 30
0.0
 10
133.6620852382858
 20
117.084382644024
 30
0.0
 10
133.5275272367923
 20
117.3579154471322
 30
0.0
 10
133.3122850840832
 20
117.9180205816696
 30
0.0
 10
133.2306418465642
 20
118.2049930770796
 30
0.0
 10
133.1201188242942
 20
118.7930320621239
 30
0.0
 10
133.0915036435436
 20
119.0974755178947
 30
0.0
 10
133.0915036435436
 20
119.3980401521664
 30
0.0
  0
LINE
  5
164
330
1F
100
AcDbEntity
  8
0
  6
Continuous
 62
     7
370
    25
100
AcDbLine
 10
134.344805839
 20
87.9230401522
 30
0.0
 11
134.344805839
 21
116.1031420666
 31
0.0
  0
LINE
  5
165
330
1F
100
AcDbEntity
  8
0
  6
Continuous
 62
     7
370
    25
100
AcDbLine
 10
134.344805839
 20
150.8730401522
 30
0.0
 11
127.9790036435
 21
150.8730401522
 31
0.0
  0
LINE
  5
166
330
1F
100
AcDbEntity
  8
0
  6
Continuous
 62
     7
370
    25
100
AcDbLine
 10
141.0132014481
 20
87.9230401522
 30
0.0
 11
141.0132014481
 21
114.5083328725
 31
0.0
  0
SPLINE
  5
167
330
1F
100
AcDbEntity
  8
0
  6
Continuous
 62
     7
370
    25
100
AcDbSpline
210
0.0
220
0.0
230
1.0
 70
     8
 71
     3
 72
    20
 73
    16
 74
     0
 42
0.000000001
 43
0.00000001
 40
0.0
 40
0.0
 40
0.0
 40
0.0
 40
0.1249999999999999
 40
0.1249999999999999
 40
0.2499999999999997
 40
0.2499999999999997
 40
0.3749999999999996
 40
0.3749999999999996
 40
0.4999999999999994
 40
0.4999999999999994
 40
0.7499999999999998
 40
0.7499999999999998
 40
0.8749999999999999
 40
0.8749999999999999
 40
1.0
 40
1.0
 40
1.0
 40
1.0
 10
144.5665036435437
 20
119.3980401521664
 30
0.0
 10
144.5665036435437
 20
119.1313720646852
 30
0.0
 10
144.5444566144999
 20
118.8630598894111
 30
0.0
 10
144.4554505767951
 20
118.3302168541778
 30
0.0
 10
144.3895716085957
 20
118.0709266441919
 30
0.0
 10
144.2173967008885
 20
117.5657996781704
 30
0.0
 10
144.1106901299815
 20
117.3192194622491
 30
0.0
 10
143.8580132271053
 20
116.8428028115094
 30
0.0
 10
143.7145559629106
 20
116.6173827497445
 30
0.0
 10
143.2362337706301
 20
115.9767750681308
 30
0.0
 10
142.8482067876645
 20
115.5940093530277
 30
0.0
 10
142.2064021392191
 20
115.1181071048561
 30
0.0
 10
141.981597511572
 20
114.9745114687044
 30
0.0
 10
141.5102884539498
 20
114.7171800833138
 30
0.0
 10
141.2645918540608
 20
114.6041277047919
 30
0.0
 10
141.0132014481137
 20
114.5083328724812
 30
0.0
  0
LINE
  5
168
330
1F
100
AcDbEntity
  8
0
  6
Continuous
 62
     7
370
    25
100
AcDbLine
 10
145.5790036435
 20
150.8730401522
 30
0.0
 11
141.0132014481
 21
150.8730401522
 31
0.0
  0
LINE
  5
169
330
1F
100
AcDbEntity
  8
0
  6
Continuous
 62
     7
370
    25
100
AcDbLine
 10
145.7790036435
 20
119.3980401522
 30
0.0
 11
145.7790036435
 21
88.1230401552
 31
0.0
  0
ARC
  5
16A
330
1F
100
AcDbEntity
  8
0
  6
Continuous
 62
     7
370
    25
100
AcDbCircle
 10
145.5790036435
 20
150.6730401522
 30
0.0
 40
0.2000000000000171
100
AcDbArc
 50
0.0
 51
90.0
  0
LINE
  5
16B
330
1F
100
AcDbEntity
  8
0
  6
Continuous
 62
     7
370
    25
100
AcDbLine
 10
127.7790036435
 20
88.1230401522
 30
0.0
 11
127.7790036435
 21
119.3980401522
 31
0.0
  0
LINE
  5
16C
330
1F
100
AcDbEntity
  8
0
  6
Continuous
 62
     7
370
    25
100
AcDbLine
 10
127.7790036435
 20
119.3980401522
 30
0.0
 11
127.9790036435
 21
119.3980401522
 31
0.0
  0
ARC
  5
16D
330
1F
100
AcDbEntity
  8
0
  6
Continuous
 62
     7
370
    25
100
AcDbCircle
 10
127.9790036435
 20
150.6730401522
 30
0.0
 40
0.2000000000000171
100
AcDbArc
 50
90.0
 51
180.0
  0
ARC
  5
16E
330
1F
100
AcDbEntity
  8
0
  6
Continuous
 62
     7
370
    25
100
AcDbCircle
 10
138.8290036435
 20
119.3980401522
 30
0.0
 40
3.737500000000011
100
AcDbArc
 50
180.0
 51
206.113804444
  0
SPLINE
  5
16F
330
1F
100
AcDbEntity
  8
0
  6
Continuous
 62
     7
370
    25
100
AcDbSpline
210
0.0
220
0.0
230
1.0
 70
     8
 71
     3
 72
    10
 73
     6
 74
     0
 42
0.000000001
 43
0.00000001
 40
0.0
 40
0.0
 40
0.0
 40
0.0
 40
0.5
 40
0.5
 40
1.0
 40
1.0
 40
1.0
 40
1.0
 10
135.4730218360904
 20
117.7529588903307
 30
0.0
 10
135.296136689667
 20
117.4545085749741
 30
0.0
 10
135.1105873147896
 20
117.1755158708467
 30
0.0
 10
134.732638374742
 20
116.630196576721
 30
0.0
 10
134.5398518325628
 20
116.3648611908995
 30
0.0
 10
134.3448058389735
 20
116.1031420666496
 30
0.0
  0
SPLINE
  5
170
330
1F
100
AcDbEntity
  8
0
  6
Continuous
 62
     7
370
    25
100
AcDbSpline
210
0.0
220
0.0
230
1.0
 70
     8
 71
     3
 72
     8
 73
     4
 74
     0
 42
0.000000001
 43
0.00000001
 40
0.0
 40
0.0
 40
0.0
 40
0.0
 40
1.0
 40
1.0
 40
1.0
 40
1.0
 10
141.0132014481133
 20
114.5083328724801
 30
0.0
 10
140.664800043433
 20
114.946308198894
 30
0.0
 10
140.3202316582002
 20
115.3893913374788
 30
0.0
 10
139.9818473588793
 20
115.8427824093274
 30
0.0
  0
ARC
  5
171
330
1F
100
AcDbEntity
  8
0
  6
Continuous
 62
     7
370
    25
100
AcDbCircle
 10
138.8290036435
 20
119.3980401522
 30
0.0
 40
3.737500000000011
100
AcDbArc
 50
287.9660359156
 51
0.0
  0
SPLINE
  5
172
330
1F
100
AcDbEntity
  8
0
  6
Continuous
 62
     7
370
    25
100
AcDbSpline
210
0.0
220
0.0
230
1.0
 70
     8
 71
     3
 72
     8
 73
     4
 74
     0
 42
0.000000001
 43
0.00000001
 40
0.0
 40
0.0
 40
0.0
 40
0.0
 40
1.0
 40
1.0
 40
1.0
 40
1.0
 10
135.8040036435437
 20
117.2029817816439
 30
0.0
 10
135.6857068841137
 20
117.3660060101024
 30
0.0
 10
135.5742784019423
 20
117.5463945091248
 30
0.0
 10
135.4730218360904
 20
117.7529588903307
 30
0.0
  0
LINE
  5
173
330
1F
100
AcDbEntity
  8
0
  6
Continuous
 62
     7
370
    25
100
AcDbLine
 10
135.8040036435
 20
90.450444888
 30
0.0
 11
135.8040036435
 21
117.2029817816
 31
0.0
  0
SPLINE
  5
174
330
1F
100
AcDbEntity
  8
0
  6
Continuous
 62
     7
370
    25
100
AcDbSpline
210
0.0
220
0.0
230
1.0
 70
     8
 71
     3
 72
     8
 73
     4
 74
     0
 42
0.000000001
 43
0.00000001
 40
0.0
 40
0.0
 40
0.0
 40
0.0
 40
1.0
 40
1.0
 40
1.0
 40
1.0
 10
139.9818473588796
 20
115.8427824093282
 30
0.0
 10
139.8403092705978
 20
115.7968866382311
 30
0.0
 10
139.6976988018609
 20
115.7599457872938
 30
0.0
 10
139.5540036435439
 20
115.7315321063532
 30
0.0
  0
LINE
  5
175
330
1F
100
AcDbEntity
  8
0
  6
Continuous
 62
     7
370
    25
100
AcDbLine
 10
139.5540036435
 20
90.450444888
 30
0.0
 11
139.5540036435
 21
115.7315321064
 31
0.0
  0
SPLINE
  5
176
330
1F
100
AcDbEntity
  8
0
  6
Continuous
 62
     7
370
    25
100
AcDbSpline
210
0.0
220
0.0
230
1.0
 70
     8
 71
     3
 72
    14
 73
    10
 74
     0
 42
0.000000001
 43
0.00000001
 40
0.0
 40
0.0
 40
0.0
 40
0.0
 40
0.25
 40
0.25
 40
0.5
 40
0.5
 40
0.75
 40
0.75
 40
1.0
 40
1.0
 40
1.0
 40
1.0
 10
136.8040036435436
 20
116.2566580916713
 30
0.0
 10
136.6696555571872
 20
116.3432616532989
 30
0.0
 10
136.5464788833312
 20
116.4347300506222
 30
0.0
 10
136.3177322784132
 20
116.6259214372532
 30
0.0
 10
136.215810314446
 20
116.7227832893941
 30
0.0
 10
136.0363869120172
 20
116.9106579041294
 30
0.0
 10
135.9599456238345
 20
117.0008932554807
 30
0.0
 10
135.8426556509844
 20
117.1486996194581
 30
0.0
 10
135.8040036435436
 20
117.202981781644
 30
0.0
 10
135.8040036435436
 20
117.202981781644
 30
0.0
  0
SPLINE
  5
177
330
1F
100
AcDbEntity
  8
0
  6
Continuous
 62
     7
370
    25
100
AcDbSpline
210
0.0
220
0.0
230
1.0
 70
     8
 71
     3
 72
    14
 73
    10
 74
     0
 42
0.000000001
 43
0.00000001
 40
0.0
 40
0.0
 40
0.0
 40
0.0
 40
0.25
 40
0.25
 40
0.5
 40
0.5
 40
0.75
 40
0.75
 40
1.0
 40
1.0
 40
1.0
 40
1.0
 10
139.5540036435438
 20
115.7315321063538
 30
0.0
 10
139.5540036435439
 20
115.7315321063538
 30
0.0
 10
139.5280871209728
 20
115.7261553753654
 30
0.0
 10
139.4286422743953
 20
115.708610787765
 30
0.0
 10
139.356343881983
 20
115.6967613841187
 30
0.0
 10
139.1716399874591
 20
115.6751175661184
 30
0.0
 10
139.0620627255832
 20
115.665828305434
 30
0.0
 10
138.818732547365
 20
115.6585727690764
 30
0.0
 10
138.6871962884449
 20
115.6608441752358
 30
0.0
 10
138.5540036435436
 20
115.6706709391689
 30
0.0
  0
SPLINE
  5
178
330
1F
100
AcDbEntity
  8
0
  6
Continuous
 62
     7
370
    25
100
AcDbSpline
210
0.0
220
0.0
230
1.0
 70
     8
 71
     3
 72
    10
 73
     6
 74
     0
 42
0.000000001
 43
0.00000001
 40
0.0
 40
0.0
 40
0.0
 40
0.0
 40
0.5
 40
0.5
 40
1.0
 40
1.0
 40
1.0
 40
1.0
 10
138.5540036435436
 20
115.670670939169
 30
0.0
 10
138.2415397412555
 20
115.6937240815381
 30
0.0
 10
137.9386507592577
 20
115.7549587839445
 30
0.0
 10
137.3513075744537
 20
115.9511307478684
 30
0.0
 10
137.0668399138818
 20
116.0872283829682
 30
0.0
 10
136.8040036435436
 20
116.2566580916713
 30
0.0
  0
LINE
  5
179
330
1F
100
AcDbEntity
  8
0
  6
Continuous
 62
     7
370
    25
100
AcDbLine
 10
127.7790036435
 20
146.2480401522
 30
0.0
 11
128.1130423296
 21
145.1886047918
 31
0.0
  0
LINE
  5
17A
330
1F
100
AcDbEntity
  8
0
  6
Continuous
 62
     7
370
    25
100
AcDbLine
 10
127.7790036435
 20
146.2480401522
 30
0.0
 11
127.7790036435
 21
144.2727514188
 31
0.0
  0
ARC
  5
17B
330
1F
100
AcDbEntity
  8
0
  6
Continuous
 62
     7
370
    25
100
AcDbCircle
 10
127.350068769
 20
144.9480401522
 30
0.0
 40
0.8000000000000181
100
AcDbArc
 50
252.5
 51
17.5
  0
LINE
  5
17C
330
1F
100
AcDbEntity
  8
0
  6
Continuous
 62
     7
370
    25
100
AcDbLine
 10
126.6188216035
 20
94.4563021066
 30
0.0
 11
126.6188216035
 21
119.3980401522
 31
0.0
  0
LINE
  5
17D
330
1F
100
AcDbEntity
  8
0
  6
Continuous
 62
     7
370
    25
100
AcDbLine
 10
127.1095041294
 20
144.1850665916
 30
0.0
 11
126.6188216035
 21
144.3397781977
 31
0.0
  0
SPLINE
  5
17E
330
1F
100
AcDbEntity
  8
0
  6
Continuous
 62
     7
370
    25
100
AcDbSpline
210
0.0
220
0.0
230
1.0
 70
     8
 71
     3
 72
    23
 73
    19
 74
     0
 42
0.000000001
 43
0.00000001
 40
0.0
 40
0.0
 40
0.0
 40
0.0
 40
0.0014604812709587
 40
0.0696150530453911
 40
0.1372664155514836
 40
0.2039701081708307
 40
0.2703009355130554
 40
0.3365574227929706
 40
0.4028683808907192
 40
0.4678692457982493
 40
0.5326412087562223
 40
0.5993596676726427
 40
0.6655231146106837
 40
0.7321169419750754
 40
0.7988868443759477
 40
0.8663366769539913
 40
0.9345228517286657
 40
1.0
 40
1.0
 40
1.0
 40
1.0
 10
97.53879396159711
 20
142.8223087405812
 30
0.0
 10
97.53994909038408
 20
142.821952368781
 30
0.0
 10
97.59500926361551
 20
142.8049656108771
 30
0.0
 10
97.99142668814942
 20
142.6877002555061
 30
0.0
 10
98.70747655906487
 20
142.4870925640974
 30
0.0
 10
99.71715833523628
 20
142.246476915772
 30
0.0
 10
100.9331359504222
 20
142.0192048164388
 30
0.0
 10
102.3373360514216
 20
141.8468152649212
 30
0.0
 10
103.8544001298146
 20
141.758746968258
 30
0.0
 10
105.4286979795223
 20
141.7897946271453
 30
0.0
 10
106.9945182055781
 20
141.9408178668495
 30
0.0
 10
108.4843752750909
 20
142.1951546654273
 30
0.0
 10
109.8560554674485
 20
142.5128914440846
 30
0.0
 10
111.0419785611671
 20
142.8568078642206
 30
0.0
 10
112.0195779051735
 20
143.1846504645285
 30
0.0
 10
112.7390890567649
 20
143.4535748940126
 30
0.0
 10
113.2117240584668
 20
143.6361642296337
 30
0.0
 10
113.2691951728189
 20
143.6594126222183
 30
0.0
 10
113.2973483309927
 20
143.6708012246684
 30
0.0
  0
LINE
  5
17F
330
1F
100
AcDbEntity
  8
0
  6
Continuous
 62
     7
370
    25
100
AcDbLine
 10
97.3794377583
 20
142.8714365137
 30
0.0
 11
89.3290036435
 21
142.4671602797
 31
0.0
  0
LINE
  5
180
330
1F
100
AcDbEntity
  8
0
  6
Continuous
 62
     7
370
    25
100
AcDbLine
 10
89.3290036435
 20
96.3289200246
 30
0.0
 11
89.3290036435
 21
110.2759171176
 31
0.0
  0
SPLINE
  5
181
330
1F
100
AcDbEntity
  8
0
  6
Continuous
 62
     7
370
    25
100
AcDbSpline
210
0.0
220
0.0
230
1.0
 70
     8
 71
     3
 72
     8
 73
     4
 74
     0
 42
0.000000001
 43
0.00000001
 40
0.0
 40
0.0
 40
0.0
 40
0.0
 40
1.0
 40
1.0
 40
1.0
 40
1.0
 10
95.14717809649062
 20
110.280503175863
 30
0.0
 10
93.2077866121792
 20
110.2783570800134
 30
0.0
 10
91.2683951278678
 20
110.2767608934886
 30
0.0
 10
89.3290036435564
 20
110.2757134410129
 30
0.0
  0
SPLINE
  5
182
330
1F
100
AcDbEntity
  8
0
  6
Continuous
 62
     7
370
    25
100
AcDbSpline
210
0.0
220
0.0
230
1.0
 70
     8
 71
     3
 72
    13
 73
     9
 74
     0
 42
0.000000001
 43
0.00000001
 40
0.0
 40
0.0
 40
0.0
 40
0.0
 40
0.1686319999748108
 40
0.3360343310905541
 40
0.5025367825908723
 40
0.6684737453788424
 40
0.8341822636915195
 40
1.0
 40
1.0
 40
1.0
 40
1.0
 10
96.2306731459576
 20
110.4179596216806
 30
0.0
 10
96.17118324989788
 20
110.4034453016418
 30
0.0
 10
96.0526372596228
 20
110.3745225003572
 30
0.0
 10
95.8727605640369
 20
110.340561106949
 30
0.0
 10
95.6923702764089
 20
110.31369554459
 30
0.0
 10
95.51125810437507
 20
110.294736607482
 30
0.0
 10
95.32949726720763
 20
110.2828061560864
 30
0.0
 10
95.20796449931298
 20
110.2812710045175
 30
0.0
 10
95.14717809649062
 20
110.280503175863
 30
0.0
  0
SPLINE
  5
183
330
1F
100
AcDbEntity
  8
0
  6
Continuous
 62
     7
370
    25
100
AcDbSpline
210
0.0
220
0.0
230
1.0
 70
     8
 71
     3
 72
     8
 73
     4
 74
     0
 42
0.000000001
 43
0.00000001
 40
0.0
 40
0.0
 40
0.0
 40
0.0
 40
1.0
 40
1.0
 40
1.0
 40
1.0
 10
101.6228665624578
 20
110.4221976635661
 30
0.0
 10
99.82547189101757
 20
110.4203266030421
 30
0.0
 10
98.02807721957727
 20
110.4189044220179
 30
0.0
 10
96.23068254813698
 20
110.4179302990219
 30
0.0
  0
SPLINE
  5
184
330
1F
100
AcDbEntity
  8
0
  6
Continuous
 62
     7
370
    25
100
AcDbSpline
210
0.0
220
0.0
230
1.0
 70
     8
 71
     3
 72
    18
 73
    14
 74
     0
 42
0.000000001
 43
0.00000001
 40
0.0
 40
0.0
 40
0.0
 40
0.0
 40
0.0923325137151694
 40
0.1843692047134009
 40
0.2763458873902312
 40
0.368498217575762
 40
0.4610598988406411
 40
0.5542609546627003
 40
0.6483261285518087
 40
0.743473463655427
 40
0.8399130993133287
 40
0.9201660718313618
 40
1.0
 40
1.0
 40
1.0
 40
1.0
 10
103.8191882110528
 20
109.8880054277224
 30
0.0
 10
103.7488579075367
 20
109.888422052154
 30
0.0
 10
103.6084226306795
 20
109.8892539662006
 30
0.0
 10
103.39806010417
 20
109.902862813115
 30
0.0
 10
103.1886164412491
 20
109.9255295704866
 30
0.0
 10
102.9800667708743
 20
109.9581303602873
 30
0.0
 10
102.772423153599
 20
110.0004328389075
 30
0.0
 10
102.5656849660616
 20
110.0525042375626
 30
0.0
 10
102.3598628741013
 20
110.114353010408
 30
0.0
 10
102.1549311953159
 20
110.1859510218642
 30
0.0
 10
101.9634504499261
 20
110.262529512093
 30
0.0
 10
101.7857272978764
 20
110.3411407609272
 30
0.0
 10
101.6773933033136
 20
110.3950549167143
 30
0.0
 10
101.6233680938614
 20
110.4219414316129
 30
0.0
  0
LINE
  5
185
330
1F
100
AcDbEntity
  8
0
  6
Continuous
 62
     7
370
    25
100
AcDbLine
 10
105.7340614903
 20
109.8895008626
 30
0.0
 11
103.8191882111
 21
109.8880054277
 31
0.0
  0
SPLINE
  5
186
330
1F
100
AcDbEntity
  8
0
  6
Continuous
 62
     7
370
    25
100
AcDbSpline
210
0.0
220
0.0
230
1.0
 70
     8
 71
     3
 72
    25
 73
    21
 74
     0
 42
0.000000001
 43
0.00000001
 40
0.0
 40
0.0
 40
0.0
 40
0.0
 40
0.0280105225425618
 40
0.0559601148859273
 40
0.0839014045041196
 40
0.1118870776784247
 40
0.1399695827586811
 40
0.1682008401737953
 40
0.1966319670422708
 40
0.2253130233140565
 40
0.2542927850735732
 40
0.3799486436574536
 40
0.5057850221666685
 40
0.6313085886327393
 40
0.7532068238012419
 40
0.803947326795536
 40
0.8535894438553622
 40
0.9025339722393254
 40
0.951197035379054
 40
1.0
 40
1.0
 40
1.0
 40
1.0
 10
110.6739457967451
 20
115.0233646670977
 30
0.0
 10
110.6739830184789
 20
114.9487446400845
 30
0.0
 10
110.6740573809796
 20
114.7996669040976
 30
0.0
 10
110.6616413303331
 20
114.5770488131318
 30
0.0
 10
110.6400367699793
 20
114.3557243951032
 30
0.0
 10
110.6083513003193
 20
114.1357561292148
 30
0.0
 10
110.5668251619994
 20
113.9171658419857
 30
0.0
 10
110.5153944062695
 20
113.6999839035812
 30
0.0
 10
110.4540805315582
 20
113.4842424836961
 30
0.0
 10
110.3828701960588
 20
113.2699525922456
 30
0.0
 10
110.2120335888553
 20
112.8216028192242
 30
0.0
 10
109.8743013554194
 20
112.1682719911529
 30
0.0
 10
109.2627466912219
 20
111.3963787805138
 30
0.0
 10
108.5265118560723
 20
110.7522191551289
 30
0.0
 10
107.840025784425
 20
110.3605779870671
 30
0.0
 10
107.2913216382752
 20
110.1418830860989
 30
0.0
 10
106.9092854597704
 20
110.0260270372682
 30
0.0
 10
106.522119361066
 20
109.9451191317383
 30
0.0
 10
106.1298926922793
 20
109.8958907009403
 30
0.0
 10
105.8661314241639
 20
109.891632845925
 30
0.0
 10
105.7340614903422
 20
109.8895008625822
 30
0.0
  0
LINE
  5
187
330
1F
100
AcDbEntity
  8
0
  6
Continuous
 62
     7
370
    25
100
AcDbLine
 10
110.6739457967
 20
119.3980401522
 30
0.0
 11
110.6739457967
 21
115.0233646671
 31
0.0
  0
LINE
  5
188
330
1F
100
AcDbEntity
  8
0
  6
Continuous
 62
     7
370
    25
100
AcDbLine
 10
126.6188216035
 20
144.3397781977
 30
0.0
 11
113.297348331
 21
143.6708012247
 31
0.0
  0
SPLINE
  5
189
330
1F
100
AcDbEntity
  8
0
  6
Continuous
 62
     7
370
    25
100
AcDbSpline
210
0.0
220
0.0
230
1.0
 70
     8
 71
     3
 72
    20
 73
    16
 74
     0
 42
0.000000001
 43
0.00000001
 40
0.0
 40
0.0
 40
0.0
 40
0.0
 40
0.0829621378691685
 40
0.1658495135105456
 40
0.2487180070845901
 40
0.3299477216397851
 40
0.4108693994437826
 40
0.4941953814850109
 40
0.5768901676624029
 40
0.6601065810557436
 40
0.7435845489352617
 40
0.8279858465401662
 40
0.9132590745401026
 40
0.9972257035811778
 40
1.0
 40
1.0
 40
1.0
 40
1.0
 10
99.69141973827061
 20
96.53477978465948
 30
0.0
 10
100.0771655743477
 20
96.61169821126325
 30
0.0
 10
100.8483096274697
 20
96.76546574859879
 30
0.0
 10
102.2560577786259
 20
96.94138096998708
 30
0.0
 10
103.7639091464969
 20
97.03537725731542
 30
0.0
 10
105.3363981215097
 20
97.01153287544972
 30
0.0
 10
106.9036951527294
 20
96.86762783055009
 30
0.0
 10
108.3994711795094
 20
96.61857022775038
 30
0.0
 10
109.7797250551875
 20
96.30388953521147
 30
0.0
 10
110.9773192382431
 20
95.95962818323024
 30
0.0
 10
111.9641812680675
 20
95.63058095741047
 30
0.0
 10
112.7114195142655
 20
95.3521200492018
 30
0.0
 10
113.158620943632
 20
95.18026425417084
 30
0.0
 10
113.3453755557802
 20
95.106413582573
 30
0.0
 10
113.2942773418808
 20
95.12656487364593
 30
0.0
 10
113.2926430315356
 20
95.12720938665248
 30
0.0
  0
SPLINE
  5
18A
330
1F
100
AcDbEntity
  8
0
  6
Continuous
 62
     7
370
    25
100
AcDbSpline
210
0.0
220
0.0
230
1.0
 70
     8
 71
     3
 72
    11
 73
     7
 74
     0
 42
0.000000001
 43
0.00000001
 40
0.0
 40
0.0
 40
0.0
 40
0.0
 40
0.2435512231736163
 40
0.4981153923402337
 40
0.7509097881751986
 40
1.0
 40
1.0
 40
1.0
 40
1.0
 10
97.38392562052711
 20
95.92611757527635
 30
0.0
 10
97.40987654205357
 20
95.93435311181449
 30
0.0
 10
97.4629518388609
 20
95.9511965809639
 30
0.0
 10
97.94064682252373
 20
96.09209802310201
 30
0.0
 10
98.65198627078288
 20
96.29738857355213
 30
0.0
 10
99.34665091796315
 20
96.45603969174842
 30
0.0
 10
99.69141973827061
 20
96.53477978465948
 30
0.0
  0
LINE
  5
18B
330
1F
100
AcDbEntity
  8
0
  6
Continuous
 62
     7
370
    25
100
AcDbLine
 10
110.6739457967
 20
115.0233646671
 30
0.0
 11
109.7790036435
 21
115.1855401522
 31
0.0
  0
LINE
  5
18C
330
1F
100
AcDbEntity
  8
0
  6
Continuous
 62
     7
370
    25
100
AcDbLine
 10
109.7790036435
 20
115.1855401522
 30
0.0
 11
109.7790036435
 21
119.3980401522
 31
0.0
  0
SPLINE
  5
18D
330
1F
100
AcDbEntity
  8
0
  6
Continuous
 62
     7
370
    25
100
AcDbSpline
210
0.0
220
0.0
230
1.0
 70
     8
 71
     3
 72
    25
 73
    21
 74
     0
 42
0.000000001
 43
0.00000001
 40
0.0
 40
0.0
 40
0.0
 40
0.0
 40
0.0288821753094393
 40
0.0583636593986225
 40
0.0884647204281144
 40
0.1192044006590791
 40
0.1506005800061348
 40
0.1826700399650394
 40
0.2154285269564808
 40
0.2488908143379647
 40
0.361059447113401
 40
0.4984670131067465
 40
0.5822693905006262
 40
0.6661127642782027
 40
0.7499972937224338
 40
0.8007709755032364
 40
0.8511237700807901
 40
0.9010896024506709
 40
0.9507031914109064
 40
1.0
 40
1.0
 40
1.0
 40
1.0
 10
105.7790036435436
 20
111.1855401521663
 30
0.0
 10
105.8418040967776
 20
111.186396636118
 30
0.0
 10
105.9687081205692
 20
111.1881273761714
 30
0.0
 10
106.1600625282734
 20
111.2022772415735
 30
0.0
 10
106.353967340946
 20
111.2254143238928
 30
0.0
 10
106.5498680616726
 20
111.2588254761163
 30
0.0
 10
106.7472057296791
 20
111.3026992981479
 30
0.0
 10
106.9453590714706
 20
111.3574945691175
 30
0.0
 10
107.1436748154889
 20
111.4235635304833
 30
0.0
 10
107.4949958029841
 20
111.5615448627327
 30
0.0
 10
108.0201075733122
 20
111.8415968015727
 30
0.0
 10
108.5570994018006
 20
112.2801874039777
 30
0.0
 10
108.9691591318503
 20
112.7540475255373
 30
0.0
 10
109.2560777199027
 20
113.1857312733571
 30
0.0
 10
109.4545044071099
 20
113.5888545151173
 30
0.0
 10
109.5865902811583
 20
113.9465906758963
 30
0.0
 10
109.672224160956
 20
114.2493430781786
 30
0.0
 10
109.7333063723091
 20
114.5578313884243
 30
0.0
 10
109.7718073156746
 20
114.8701430985807
 30
0.0
 10
109.7766099947681
 20
115.0806325124821
 30
0.0
 10
109.7790036435436
 20
115.1855401521663
 30
0.0
  0
SPLINE
  5
18E
330
1F
100
AcDbEntity
  8
0
  6
Continuous
 62
     7
370
    25
100
AcDbSpline
210
0.0
220
0.0
230
1.0
 70
     8
 71
     3
 72
    13
 73
     9
 74
     0
 42
0.000000001
 43
0.00000001
 40
0.0
 40
0.0
 40
0.0
 40
0.0
 40
0.1722587823387897
 40
0.3421398270959865
 40
0.5097456257587107
 40
0.6751828992986529
 40
0.838562618995617
 40
1.0
 40
1.0
 40
1.0
 40
1.0
 10
102.7790220124539
 20
111.3355349749161
 30
0.0
 10
102.839885402116
 20
111.3192712472192
 30
0.0
 10
102.9607720665447
 20
111.2869682847427
 30
0.0
 10
103.1438332244979
 20
111.2495806300509
 30
0.0
 10
103.3259359074319
 20
111.2204476951393
 30
0.0
 10
103.5068773557546
 20
111.2002609795308
 30
0.0
 10
103.6862163594701
 20
111.1878141752268
 30
0.0
 10
103.8050625879005
 20
111.186295131999
 30
0.0
 10
103.8641303642542
 20
111.1855401521663
 30
0.0
  0
LINE
  5
18F
330
1F
100
AcDbEntity
  8
0
  6
Continuous
 62
     7
370
    25
100
AcDbLine
 10
103.8191882111
 20
109.8880054277
 30
0.0
 11
103.8641303643
 21
111.1855401522
 31
0.0
  0
SPLINE
  5
190
330
1F
100
AcDbEntity
  8
0
  6
Continuous
 62
     7
370
    25
100
AcDbSpline
210
0.0
220
0.0
230
1.0
 70
     8
 71
     3
 72
    11
 73
     7
 74
     0
 42
0.000000001
 43
0.00000001
 40
0.0
 40
0.0
 40
0.0
 40
0.0
 40
0.2392913840897591
 40
0.5001130134987114
 40
0.7515028526612877
 40
1.0
 40
1.0
 40
1.0
 40
1.0
 10
102.4515311513977
 20
111.3361137571894
 30
0.0
 10
102.3827062155591
 20
111.2645603201288
 30
0.0
 10
102.2388638194067
 20
111.1150154246001
 30
0.0
 10
102.0311150210116
 20
110.8860979979709
 30
0.0
 10
101.8231288162177
 20
110.6537796256935
 30
0.0
 10
101.6901278924941
 20
110.4990037430624
 30
0.0
 10
101.6240122482961
 20
110.4220636218966
 30
0.0
  0
SPLINE
  5
191
330
1F
100
AcDbEntity
  8
0
  6
Continuous
 62
     7
370
    25
100
AcDbSpline
210
0.0
220
0.0
230
1.0
 70
    24
 71
     3
 72
     9
 73
     5
 74
     0
 42
0.000000001
 43
0.00000001
 40
0.0
 40
0.0
 40
0.0
 40
0.0
 40
0.5090839669866044
 40
1.0
 40
1.0
 40
1.0
 40
1.0
 10
102.4537614197171
 20
111.3355401521663
 30
0.0
 10
102.5084948198295
 20
111.3355401521663
 30
0.0
 10
102.6160083218483
 20
111.3355401521663
 30
0.0
 10
102.7254008822193
 20
111.3355401521663
 30
0.0
 10
102.7791034439978
 20
111.3355401521663
 30
0.0
  0
LINE
  5
192
330
1F
100
AcDbEntity
  8
0
  6
Continuous
 62
     7
370
    25
100
AcDbLine
 10
96.2051535551
 20
111.3154883784
 30
0.0
 11
96.2305680467
 21
110.4179302078
 31
0.0
  0
SPLINE
  5
193
330
1F
100
AcDbEntity
  8
0
  6
Continuous
 62
     7
370
    25
100
AcDbSpline
210
0.0
220
0.0
230
1.0
 70
     8
 71
     3
 72
     8
 73
     4
 74
     0
 42
0.000000001
 43
0.00000001
 40
0.0
 40
0.0
 40
0.0
 40
0.0
 40
1.0
 40
1.0
 40
1.0
 40
1.0
 10
96.20516474627188
 20
111.3154888685055
 30
0.0
 10
96.2269676027539
 20
111.3211861995382
 30
0.0
 10
96.24872231215141
 20
111.3270677823332
 30
0.0
 10
96.27042576746948
 20
111.3331327768862
 30
0.0
  0
LINE
  5
194
330
1F
100
AcDbEntity
  8
0
  6
Continuous
 62
     7
370
    25
100
AcDbLine
 10
96.2790036436
 20
111.3355401522
 30
0.0
 11
102.4526766159
 21
111.3355401522
 31
0.0
  0
LINE
  5
195
330
1F
100
AcDbEntity
  8
0
  6
Continuous
 62
     7
370
    25
100
AcDbLine
 10
103.8641303643
 20
111.1855401522
 30
0.0
 11
105.7790036435
 21
111.1855401522
 31
0.0
  0
SPLINE
  5
196
330
1F
100
AcDbEntity
  8
0
  6
Continuous
 62
     7
370
    25
100
AcDbSpline
210
0.0
220
0.0
230
1.0
 70
     8
 71
     3
 72
    13
 73
     9
 74
     0
 42
0.000000001
 43
0.00000001
 40
0.0
 40
0.0
 40
0.0
 40
0.0
 40
0.1621004456877203
 40
0.32594345520649
 40
0.4915935308810087
 40
0.6591130874452793
 40
0.8285624736348074
 40
1.0
 40
1.0
 40
1.0
 40
1.0
 10
95.1938769228331
 20
111.1855401521663
 30
0.0
 10
95.24943188090914
 20
111.1862091183678
 30
0.0
 10
95.36113900739069
 20
111.1875542420916
 30
0.0
 10
95.52898669680323
 20
111.1985008108859
 30
0.0
 10
95.69777311567768
 20
111.2161397402096
 30
0.0
 10
95.86709747220297
 20
111.2414452541988
 30
0.0
 10
96.03684412036148
 20
111.27374925699
 30
0.0
 10
96.14883701900264
 20
111.3015208568722
 30
0.0
 10
96.20516005402214
 20
111.3154876423711
 30
0.0
  0
LINE
  5
197
330
1F
100
AcDbEntity
  8
0
  6
Continuous
 62
     7
370
    25
100
AcDbLine
 10
88.415343822
 20
110.6580384082
 30
0.0
 11
89.3290036436
 21
111.1855401522
 31
0.0
  0
LINE
  5
198
330
1F
100
AcDbEntity
  8
0
  6
Continuous
 62
     7
370
    25
100
AcDbLine
 10
89.3290036436
 20
111.1855401522
 30
0.0
 11
95.1938769228
 21
111.1855401522
 31
0.0
  0
SPLINE
  5
199
330
1F
100
AcDbEntity
  8
0
  6
Continuous
 62
     7
370
    25
100
AcDbSpline
210
0.0
220
0.0
230
1.0
 70
     8
 71
     3
 72
     8
 73
     4
 74
     0
 42
0.000000001
 43
0.00000001
 40
0.0
 40
0.0
 40
0.0
 40
0.0
 40
1.0
 40
1.0
 40
1.0
 40
1.0
 10
89.32900364309268
 20
110.2757134407903
 30
0.0
 10
89.02445036938717
 20
110.4044043053371
 30
0.0
 10
88.71989709568162
 20
110.5318490615988
 30
0.0
 10
88.41534382197611
 20
110.6580384082365
 30
0.0
  0
LINE
  5
19A
330
1F
100
AcDbEntity
  8
0
  6
Continuous
 62
     7
370
    25
100
AcDbLine
 10
87.8290036435
 20
97.1949454284
 30
0.0
 11
87.8290036435
 21
110.3195147484
 31
0.0
  0
SPLINE
  5
19B
330
1F
100
AcDbEntity
  8
0
  6
Continuous
 62
     7
370
    25
100
AcDbSpline
210
0.0
220
0.0
230
1.0
 70
    24
 71
     3
 72
     8
 73
     4
 74
     0
 42
0.000000001
 43
0.00000001
 40
0.0
 40
0.0
 40
0.0
 40
0.0
 40
1.0
 40
1.0
 40
1.0
 40
1.0
 10
88.41534382197611
 20
110.6580384082365
 30
0.0
 10
88.21901179631774
 20
110.5446860603722
 30
0.0
 10
88.02355077607754
 20
110.4318365877204
 30
0.0
 10
87.82900364354366
 20
110.3195147483819
 30
0.0
  0
LINE
  5
19C
330
1F
100
AcDbEntity
  8
0
  6
Continuous
 62
     7
370
    25
100
AcDbLine
 10
119.5542441171
 20
137.6480401522
 30
0.0
 11
120.9790036435
 21
137.6480401522
 31
0.0
  0
ARC
  5
19D
330
1F
100
AcDbEntity
  8
0
  6
Continuous
 62
     7
370
    25
100
AcDbCircle
 10
120.9790036435
 20
136.8480401522
 30
0.0
 40
0.8000000000000114
100
AcDbArc
 50
0.0
 51
90.0
  0
ARC
  5
19E
330
1F
100
AcDbEntity
  8
0
  6
Continuous
 62
     7
370
    25
100
AcDbCircle
 10
119.5542441171
 20
136.8480401522
 30
0.0
 40
0.8000000000000114
100
AcDbArc
 50
90.0
 51
120.0
  0
LINE
  5
19F
330
1F
100
AcDbEntity
  8
0
  6
Continuous
 62
     7
370
    25
100
AcDbLine
 10
118.2790036435
 20
137.0355401522
 30
0.0
 11
118.2790036435
 21
119.3980401522
 31
0.0
  0
LINE
  5
1A0
330
1F
100
AcDbEntity
  8
0
  6
Continuous
 62
     7
370
    25
100
AcDbLine
 10
118.2790036435
 20
137.0355401522
 30
0.0
 11
119.1542441171
 21
137.5408604752
 31
0.0
  0
LINE
  5
1A1
330
1F
100
AcDbEntity
  8
0
  6
Continuous
 62
     7
370
    25
100
AcDbLine
 10
88.5806696934
 20
110.7534893446
 30
0.0
 11
88.444200921
 21
110.6746990621
 31
0.0
  0
SPLINE
  5
1A2
330
1F
100
AcDbEntity
  8
0
  6
Continuous
 62
     7
370
    25
100
AcDbSpline
210
0.0
220
0.0
230
1.0
 70
     8
 71
     3
 72
    32
 73
    28
 74
     0
 42
0.000000001
 43
0.00000001
 40
0.0
 40
0.0
 40
0.0
 40
0.0
 40
0.1249999999999998
 40
0.1249999999999998
 40
0.1874999999999997
 40
0.1874999999999997
 40
0.2499999999999996
 40
0.2499999999999996
 40
0.3124999999999994
 40
0.3124999999999994
 40
0.3749999999999994
 40
0.3749999999999994
 40
0.4999999999999991
 40
0.4999999999999991
 40
0.5624999999999992
 40
0.5624999999999992
 40
0.6249999999999993
 40
0.6249999999999993
 40
0.7499999999999993
 40
0.7499999999999993
 40
0.8124999999999996
 40
0.8124999999999996
 40
0.8749999999999997
 40
0.8749999999999997
 40
0.9374999999999998
 40
0.9374999999999998
 40
1.0
 40
1.0
 40
1.0
 40
1.0
 10
102.2466339748843
 20
135.5707089063758
 30
0.0
 10
101.7625597309303
 20
135.5710682989955
 30
0.0
 10
101.2791621603634
 20
135.5860275051768
 30
0.0
 10
100.5552568106273
 20
135.6330115516855
 30
0.0
 10
100.3145943770905
 20
135.65278810681
 30
0.0
 10
99.84324826801488
 20
135.6997521903091
 30
0.0
 10
99.61141245172462
 20
135.7270060394936
 30
0.0
 10
99.15570936516829
 20
135.7886339681062
 30
0.0
 10
98.93184104222696
 20
135.8230090689016
 30
0.0
 10
98.49251345021916
 20
135.8983285125547
 30
0.0
 10
98.27579605755274
 20
135.9395464633029
 30
0.0
 10
97.6494540788799
 20
136.0697832824837
 30
0.0
 10
97.26506144452651
 20
136.1648231943829
 30
0.0
 10
96.73751969890668
 20
136.3110901563354
 30
0.0
 10
96.56988554737558
 20
136.360458791526
 30
0.0
 10
96.25148080013501
 20
136.4588624990263
 30
0.0
 10
96.10189992559589
 20
136.5075457636588
 30
0.0
 10
95.68887985604744
 20
136.6471685668272
 30
0.0
 10
95.4573280848883
 20
136.7327552454077
 30
0.0
 10
95.17401856979862
 20
136.8417182933238
 30
0.0
 10
95.09045088802684
 20
136.8747669458982
 30
0.0
 10
94.94852605570264
 20
136.9317703421386
 30
0.0
 10
94.88953794426011
 20
136.955967047749
 30
0.0
 10
94.79482204055029
 20
136.995169328128
 30
0.0
 10
94.75909407340353
 20
137.0101764946251
 30
0.0
 10
94.7111297956861
 20
137.030385492352
 30
0.0
 10
94.69900348825266
 20
137.0355401521663
 30
0.0
 10
94.69900348825264
 20
137.0355401521663
 30
0.0
  0
SPLINE
  5
1A3
330
1F
100
AcDbEntity
  8
0
  6
Continuous
 62
     7
370
    25
100
AcDbSpline
210
0.0
220
0.0
230
1.0
 70
     8
 71
     3
 72
    31
 73
    27
 74
     0
 42
0.000000001
 43
0.00000001
 40
0.0
 40
0.0
 40
0.0
 40
0.0
 40
0.0161756722759863
 40
0.032316913782708
 40
0.0484425619880545
 40
0.0645715089957379
 40
0.0807226353336784
 40
0.0969147439446219
 40
0.1131664955251027
 40
0.1294963463046717
 40
0.1459224892609526
 40
0.1624627996343605
 40
0.1791347854480604
 40
0.1959555435639787
 40
0.2945755146264772
 40
0.3932797312250197
 40
0.4928176221931105
 40
0.5924285912822785
 40
0.693902091744934
 40
0.7927115381486464
 40
0.8267756331445589
 40
0.8608043324981163
 40
0.8949846314027681
 40
0.9295010594372529
 40
0.964532832247543
 40
1.0
 40
1.0
 40
1.0
 40
1.0
 10
113.2549530336277
 20
137.0355401521663
 30
0.0
 10
113.2542199331765
 20
137.0351937607384
 30
0.0
 10
113.252755292717
 20
137.0345017151949
 30
0.0
 10
113.239698913052
 20
137.0289193531487
 30
0.0
 10
113.2186843525291
 20
137.0200525901547
 30
0.0
 10
113.1889371471884
 20
137.0076114894401
 30
0.0
 10
113.1506648345328
 20
136.9917208308851
 30
0.0
 10
113.1038121536116
 20
136.9723950870581
 30
0.0
 10
113.0483944235747
 20
136.9496789975388
 30
0.0
 10
112.9844084597442
 20
136.9236099931641
 30
0.0
 10
112.9118549755936
 20
136.8942275457959
 30
0.0
 10
112.830738278114
 20
136.8615732984609
 30
0.0
 10
112.7410446233639
 20
136.8256808514261
 30
0.0
 10
112.4839987767133
 20
136.7234429437597
 30
0.0
 10
111.9559627911198
 20
136.516918730293
 30
0.0
 10
110.9773281438733
 20
136.1798334169439
 30
0.0
 10
109.7914518409522
 20
135.8366885576135
 30
0.0
 10
108.4209855758761
 20
135.5395766569537
 30
0.0
 10
106.9351283039108
 20
135.3295332292208
 30
0.0
 10
105.7149756701401
 20
135.2713078263522
 30
0.0
 10
104.8485516371874
 20
135.285000167612
 30
0.0
 10
104.3203067087007
 20
135.3103682532229
 30
0.0
 10
103.7955334774919
 20
135.3523908689402
 30
0.0
 10
103.2745442379042
 20
135.4106748321681
 30
0.0
 10
102.7573032928553
 20
135.4832983774136
 30
0.0
 10
102.4216661805305
 20
135.5421786951042
 30
0.0
 10
102.2528111924732
 20
135.5718006736499
 30
0.0
  0
LINE
  5
1A4
330
1F
100
AcDbEntity
  8
0
  6
Continuous
 62
     7
370
    25
100
AcDbLine
 10
113.2549530336
 20
137.0355401522
 30
0.0
 11
118.2790036435
 21
137.0355401522
 31
0.0
  0
LINE
  5
1A5
330
1F
100
AcDbEntity
  8
0
  6
Continuous
 62
     7
370
    25
100
AcDbLine
 10
110.4290036435
 20
123.460813563
 30
0.0
 11
110.4290036435
 21
119.3980401522
 31
0.0
  0
SPLINE
  5
1A6
330
1F
100
AcDbEntity
  8
0
  6
Continuous
 62
     7
370
    25
100
AcDbSpline
210
0.0
220
0.0
230
1.0
 70
     8
 71
     3
 72
    25
 73
    21
 74
     0
 42
0.000000001
 43
0.00000001
 40
0.0
 40
0.0
 40
0.0
 40
0.0
 40
0.0278144320063459
 40
0.0555680196245752
 40
0.0833316253677715
 40
0.1111760352167582
 40
0.1391714221532259
 40
0.1673868326284758
 40
0.1958897140434715
 40
0.2247454979318968
 40
0.2540172492221455
 40
0.3796724410010767
 40
0.5056484635002251
 40
0.6297527290687337
 40
0.7535891720571736
 40
0.8038564806093723
 40
0.8533396843434523
 40
0.9023264398358549
 40
0.9511131859219458
 40
1.0
 40
1.0
 40
1.0
 40
1.0
 10
105.7790036435436
 20
127.9455367345313
 30
0.0
 10
105.847658997506
 20
127.9450036494242
 30
0.0
 10
105.9848195210586
 20
127.9439386453398
 30
0.0
 10
106.1900621036444
 20
127.9308437479476
 30
0.0
 10
106.3943831201415
 20
127.9093052613751
 30
0.0
 10
106.5977841722305
 20
127.8784837895265
 30
0.0
 10
106.8002598030764
 20
127.838571037019
 30
0.0
 10
107.001808667324
 20
127.789470844078
 30
0.0
 10
107.2024226881267
 20
127.7311575965662
 30
0.0
 10
107.402120452459
 20
127.6635656536994
 30
0.0
 10
107.817685273137
 20
127.5027521375843
 30
0.0
 10
108.4204616896788
 20
127.1887752382421
 30
0.0
 10
109.1145182451837
 20
126.6252037627497
 30
0.0
 10
109.6812918745832
 20
125.9494595434955
 30
0.0
 10
110.0188696802535
 20
125.3320977160184
 30
0.0
 10
110.207332089543
 20
124.8400362765071
 30
0.0
 10
110.3065933070674
 20
124.5023844939607
 30
0.0
 10
110.3769378957743
 20
124.1597533519372
 30
0.0
 10
110.4209364942929
 20
123.8123886514956
 30
0.0
 10
110.4263127577732
 20
123.5780852748888
 30
0.0
 10
110.4290036435437
 20
123.460813562966
 30
0.0
  0
LINE
  5
1A7
330
1F
100
AcDbEntity
  8
0
  6
Continuous
 62
     7
370
    25
100
AcDbLine
 10
103.8641303643
 20
127.9455367345
 30
0.0
 11
105.7790036435
 21
127.9455367345
 31
0.0
  0
SPLINE
  5
1A8
330
1F
100
AcDbEntity
  8
0
  6
Continuous
 62
     7
370
    25
100
AcDbSpline
210
0.0
220
0.0
230
1.0
 70
     8
 71
     3
 72
    12
 73
     8
 74
     0
 42
0.000000001
 43
0.00000001
 40
0.0
 40
0.0
 40
0.0
 40
0.0
 40
0.1992838849048542
 40
0.3984605265906603
 40
0.5979968005081432
 40
0.79835706849064
 40
1.0
 40
1.0
 40
1.0
 40
1.0
 10
102.8630965219664
 20
127.8433424218072
 30
0.0
 10
102.928549799266
 20
127.8563647745719
 30
0.0
 10
103.0594211306448
 20
127.8824024722139
 30
0.0
 10
103.258270582262
 20
127.9108330311883
 30
0.0
 10
103.4586770981228
 20
127.9312641921699
 30
0.0
 10
103.6608480155261
 20
127.9437032692407
 30
0.0
 10
103.7962255991666
 20
127.9449242808154
 30
0.0
 10
103.8641303642542
 20
127.9455367345313
 30
0.0
  0
LINE
  5
1A9
330
1F
100
AcDbEntity
  8
0
  6
Continuous
 62
     7
370
    25
100
AcDbLine
 10
97.4383335144
 20
127.8431784977
 30
0.0
 11
102.8623235329
 21
127.8431784977
 31
0.0
  0
SPLINE
  5
1AA
330
1F
100
AcDbEntity
  8
0
  6
Continuous
 62
     7
370
    25
100
AcDbSpline
210
0.0
220
0.0
230
1.0
 70
     8
 71
     3
 72
    24
 73
    20
 74
     0
 42
0.000000001
 43
0.00000001
 40
0.0
 40
0.0
 40
0.0
 40
0.0
 40
0.0410257106277056
 40
0.0818520099058079
 40
0.1225800578328279
 40
0.1633117464027038
 40
0.2041489402772657
 40
0.2451927184714171
 40
0.2865426449201731
 40
0.3282960933615133
 40
0.3705476475467034
 40
0.4133885920081624
 40
0.4569065022338602
 40
0.5011849368583825
 40
0.6001856774930499
 40
0.6987388860423923
 40
0.7976800645430001
 40
0.8978349910013272
 40
1.0
 40
1.0
 40
1.0
 40
1.0
 10
93.66634660739352
 20
129.7808203148293
 30
0.0
 10
93.72938569534638
 20
129.7802856145142
 30
0.0
 10
93.85515746072528
 20
129.7792188128715
 30
0.0
 10
94.04309562223202
 20
129.7680753208733
 30
0.0
 10
94.22968571505342
 20
129.7499138225656
 30
0.0
 10
94.4149274975863
 20
129.7240389018441
 30
0.0
 10
94.59881668081286
 20
129.6906020160325
 30
0.0
 10
94.78135034678517
 20
129.6495179944888
 30
0.0
 10
94.96252575372489
 20
129.6007552463953
 30
0.0
 10
95.1423405377024
 20
129.5442577582516
 30
0.0
 10
95.32079373678421
 20
129.4799666634493
 30
0.0
 10
95.49788177493703
 20
129.407812983517
 30
0.0
 10
95.67361389922678
 20
129.3277257984782
 30
0.0
 10
95.91862853282562
 20
129.2038849117984
 30
0.0
 10
96.22281161200902
 20
129.025259929609
 30
0.0
 10
96.57011909345307
 20
128.7761707455547
 30
0.0
 10
96.88929335692548
 20
128.496601160575
 30
0.0
 10
97.18320525919123
 20
128.1877755225995
 30
0.0
 10
97.35272934588357
 20
127.9596834792942
 30
0.0
 10
97.43833351436699
 20
127.8445043912614
 30
0.0
  0
LINE
  5
1AB
330
1F
100
AcDbEntity
  8
0
  6
Continuous
 62
     7
370
    25
100
AcDbLine
 10
90.8748048905
 20
129.7808203148
 30
0.0
 11
93.6663466074
 21
129.7808203148
 31
0.0
  0
SPLINE
  5
1AC
330
1F
100
AcDbEntity
  8
0
  6
Continuous
 62
     7
370
    25
100
AcDbSpline
210
0.0
220
0.0
230
1.0
 70
     8
 71
     3
 72
     8
 73
     4
 74
     0
 42
0.000000001
 43
0.00000001
 40
0.0
 40
0.0
 40
0.0
 40
0.0
 40
1.0
 40
1.0
 40
1.0
 40
1.0
 10
90.82900081878489
 20
129.844273305839
 30
0.0
 10
90.84426884268258
 20
129.8231568354408
 30
0.0
 10
90.85953686658027
 20
129.8020057683881
 30
0.0
 10
90.87480489047795
 20
129.7808203148292
 30
0.0
  0
LINE
  5
1AD
330
1F
100
AcDbEntity
  8
0
  6
Continuous
 62
     7
370
    25
100
AcDbLine
 10
90.8290036435
 20
137.0355401522
 30
0.0
 11
90.8290036435
 21
129.8442733058
 31
0.0
  0
LINE
  5
1AE
330
1F
100
AcDbEntity
  8
0
  6
Continuous
 62
     7
370
    25
100
AcDbLine
 10
90.8290036435
 20
137.0355401522
 30
0.0
 11
94.6990034883
 21
137.0355401522
 31
0.0
  0
ARC
  5
1AF
330
1F
100
AcDbEntity
  8
0
  6
Continuous
 62
     7
370
    25
100
AcDbCircle
 10
148.7790036435
 20
135.8980401522
 30
0.0
 40
3.000000000000028
100
AcDbArc
 50
180.0
 51
270.0
  0
ARC
  5
1B0
330
1F
100
AcDbEntity
  8
0
  6
Continuous
 62
     7
370
    25
100
AcDbCircle
 10
125.4790036435
 20
133.7480401522
 30
0.0
 40
1.200000000000017
100
AcDbArc
 50
0.0
 51
90.0
  0
LINE
  5
1B1
330
1F
100
AcDbEntity
  8
0
  6
Continuous
 62
     7
370
    25
100
AcDbLine
 10
121.7790036435
 20
134.9480401522
 30
0.0
 11
125.4790036435
 21
134.9480401522
 31
0.0
  0
LINE
  5
1B2
330
1F
100
AcDbEntity
  8
0
  6
Continuous
 62
     7
370
    25
100
AcDbLine
 10
121.7790036435
 20
134.9480401522
 30
0.0
 11
121.7790036435
 21
119.3980401522
 31
0.0
  0
LINE
  5
1B3
330
1F
100
AcDbEntity
  8
0
  6
Continuous
 62
     7
370
    25
100
AcDbLine
 10
169.660389435
 20
105.8980401522
 30
0.0
 11
169.660389435
 21
119.3980401522
 31
0.0
  0
LINE
  5
1B4
330
1F
100
AcDbEntity
  8
0
  6
Continuous
 62
     7
370
    25
100
AcDbLine
 10
169.660389435
 20
132.8980401522
 30
0.0
 11
148.7790036435
 21
132.8980401522
 31
0.0
  0
LINE
  5
1B5
330
1F
100
AcDbEntity
  8
0
  6
Continuous
 62
     7
370
    25
100
AcDbLine
 10
205.935921835
 20
130.0430938363
 30
0.0
 11
169.660389435
 21
132.8980401522
 31
0.0
  0
LINE
  5
1B6
330
1F
100
AcDbEntity
  8
0
  6
Continuous
 62
     7
370
    25
100
AcDbLine
 10
207.7790036435
 20
110.7468211565
 30
0.0
 11
207.7790036435
 21
119.3980401522
 31
0.0
  0
ARC
  5
1B7
330
1F
100
AcDbEntity
  8
0
  6
Continuous
 62
     7
370
    25
100
AcDbCircle
 10
205.7790036435
 20
128.0492591688
 30
0.0
 40
2.000000000000014
100
AcDbArc
 50
0.0
 51
85.5
  0
LINE
  5
1B8
330
1F
100
AcDbEntity
  8
0
  6
Continuous
 62
     7
370
    25
100
AcDbLine
 10
130.5040036435
 20
125.1480401522
 30
0.0
 11
131.3290036435
 21
125.1480401522
 31
0.0
  0
LINE
  5
1B9
330
1F
100
AcDbEntity
  8
0
  6
Continuous
 62
     7
370
    25
100
AcDbLine
 10
127.0790036435
 20
124.3980401522
 30
0.0
 11
127.0790036435
 21
119.3980401522
 31
0.0
  0
LINE
  5
1BA
330
1F
100
AcDbEntity
  8
0
  6
Continuous
 62
     7
370
    25
100
AcDbLine
 10
126.6790036435
 20
124.6289802598
 30
0.0
 11
127.0790036435
 21
124.3980401522
 31
0.0
  0
LINE
  5
1BB
330
1F
100
AcDbEntity
  8
0
  6
Continuous
 62
     7
370
    25
100
AcDbLine
 10
126.6790036435
 20
124.6289802598
 30
0.0
 11
126.6790036435
 21
119.3980401522
 31
0.0
  0
LINE
  5
1BC
330
1F
100
AcDbEntity
  8
0
  6
Continuous
 62
     7
370
    25
100
AcDbLine
 10
127.0790036435
 20
124.3980401522
 30
0.0
 11
130.5040036435
 21
124.3980401522
 31
0.0
  0
LINE
  5
1BD
330
1F
100
AcDbEntity
  8
0
  6
Continuous
 62
     7
370
    25
100
AcDbLine
 10
130.5040036435
 20
124.3980401522
 30
0.0
 11
130.5040036435
 21
119.3980401522
 31
0.0
  0
ARC
  5
1BE
330
1F
100
AcDbEntity
  8
0
  6
Continuous
 62
     7
370
    25
100
AcDbCircle
 10
207.2790036435
 20
123.4347344002
 30
0.0
 40
0.4999999999999966
100
AcDbArc
 50
280.0
 51
0.0
  0
LINE
  5
1BF
330
1F
100
AcDbEntity
  8
0
  6
Continuous
 62
     7
370
    25
100
AcDbLine
 10
207.7790036435
 20
123.4347344002
 30
0.0
 11
207.7790036435
 21
119.3980401522
 31
0.0
  0
LINE
  5
1C0
330
1F
100
AcDbEntity
  8
0
  6
Continuous
 62
     7
370
    25
100
AcDbLine
 10
148.9206388197
 20
121.4980401522
 30
0.0
 11
148.9206388197
 21
119.3980401522
 31
0.0
  0
LINE
  5
1C1
330
1F
100
AcDbEntity
  8
0
  6
Continuous
 62
     7
370
    25
100
AcDbLine
 10
147.7790036435
 20
123.3980401522
 30
0.0
 11
147.7790036435
 21
119.3980401522
 31
0.0
  0
LINE
  5
1C2
330
1F
100
AcDbEntity
  8
0
  6
Continuous
 62
     7
370
    25
100
AcDbLine
 10
147.7790036435
 20
123.3980401522
 30
0.0
 11
148.9206388197
 21
121.4980401522
 31
0.0
  0
LINE
  5
1C3
330
1F
100
AcDbEntity
  8
0
  6
Continuous
 62
     7
370
    25
100
AcDbLine
 10
131.3290036435
 20
123.3980401522
 30
0.0
 11
147.7790036435
 21
123.3980401522
 31
0.0
  0
LINE
  5
1C4
330
1F
100
AcDbEntity
  8
0
  6
Continuous
 62
     7
370
    25
100
AcDbLine
 10
131.3290036435
 20
123.3980401522
 30
0.0
 11
131.3290036435
 21
119.3980401522
 31
0.0
  0
LINE
  5
1C5
330
1F
100
AcDbEntity
  8
0
  6
Continuous
 62
     7
370
    25
100
AcDbLine
 10
204.2790036435
 20
122.3980401522
 30
0.0
 11
204.2790036435
 21
119.3980401522
 31
0.0
  0
LINE
  5
1C6
330
1F
100
AcDbEntity
  8
0
  6
Continuous
 62
     7
370
    25
100
AcDbLine
 10
204.2790036435
 20
122.3980401522
 30
0.0
 11
207.3658277324
 21
122.9423305237
 31
0.0
  0
ARC
  5
1C7
330
1F
100
AcDbEntity
  8
0
  6
Continuous
 62
     7
370
    25
100
AcDbCircle
 10
184.8842296254
 20
122.2980401522
 30
0.0
 40
0.3999999999999915
100
AcDbArc
 50
70.0
 51
90.0
  0
LINE
  5
1C8
330
1F
100
AcDbEntity
  8
0
  6
Continuous
 62
     7
370
    25
100
AcDbLine
 10
171.6790036435
 20
122.6980401522
 30
0.0
 11
184.8842296254
 21
122.6980401522
 31
0.0
  0
ARC
  5
1C9
330
1F
100
AcDbEntity
  8
0
  6
Continuous
 62
     7
370
    25
100
AcDbCircle
 10
171.6790036435
 20
122.2980401522
 30
0.0
 40
0.4000000000000057
100
AcDbArc
 50
90.0
 51
180.0
  0
LINE
  5
1CA
330
1F
100
AcDbEntity
  8
0
  6
Continuous
 62
     7
370
    25
100
AcDbLine
 10
185.7790036435
 20
122.3980401522
 30
0.0
 11
185.7790036435
 21
119.3980401522
 31
0.0
  0
LINE
  5
1CB
330
1F
100
AcDbEntity
  8
0
  6
Continuous
 62
     7
370
    25
100
AcDbLine
 10
185.0210376828
 20
122.6739172005
 30
0.0
 11
185.7790036435
 21
122.3980401522
 31
0.0
  0
LINE
  5
1CC
330
1F
100
AcDbEntity
  8
0
  6
Continuous
 62
     7
370
    25
100
AcDbLine
 10
185.7790036435
 20
122.3980401522
 30
0.0
 11
204.2790036435
 21
122.3980401522
 31
0.0
  0
LINE
  5
1CD
330
1F
100
AcDbEntity
  8
0
  6
Continuous
 62
     7
370
    25
100
AcDbLine
 10
170.8790036435
 20
121.4980401522
 30
0.0
 11
171.2790036435
 21
121.8980401522
 31
0.0
  0
LINE
  5
1CE
330
1F
100
AcDbEntity
  8
0
  6
Continuous
 62
     7
370
    25
100
AcDbLine
 10
148.9206388197
 20
121.4980401522
 30
0.0
 11
170.8790036435
 21
121.4980401522
 31
0.0
  0
SPLINE
  5
1CF
330
1F
100
AcDbEntity
  8
0
  6
Continuous
 62
     7
370
    25
100
AcDbSpline
210
0.0
220
0.0
230
1.0
 70
     8
 71
     3
 72
    37
 73
    33
 74
     0
 42
0.000000001
 43
0.00000001
 40
0.0
 40
0.0
 40
0.0
 40
0.0
 40
0.01148785481024
 40
0.0231559765620936
 40
0.0350076484353421
 40
0.0470460033794244
 40
0.0592740307998809
 40
0.0716945830964731
 40
0.0843103820273739
 40
0.0971240248797315
 40
0.1101379904320149
 40
0.1233546446979434
 40
0.1811510010988678
 40
0.2483631736114456
 40
0.2888373415759031
 40
0.3232297457524295
 40
0.3515392131431702
 40
0.3737664266256256
 40
0.4399300285917608
 40
0.4987424063270092
 40
0.5023253005651697
 40
0.5613100074514545
 40
0.6252595444338135
 40
0.6818650083849763
 40
0.7483890016987825
 40
0.7860781471950072
 40
0.8194856599780315
 40
0.8486127715267076
 40
0.8734622727747279
 40
0.9389926156601978
 40
0.9981523731393414
 40
1.0
 40
1.0
 40
1.0
 40
1.0
 10
112.6290036435436
 20
142.8616924555195
 30
0.0
 10
112.6280771922651
 20
142.8612489385111
 30
0.0
 10
112.626209751873
 20
142.8603549448436
 30
0.0
 10
112.6109366915334
 20
142.8531629673853
 30
0.0
 10
112.5860349890696
 20
142.8417117237929
 30
0.0
 10
112.5501807171339
 20
142.8255619650184
 30
0.0
 10
112.5032132062964
 20
142.8048342854647
 30
0.0
 10
112.4446702958756
 20
142.779495766463
 30
0.0
 10
112.374192156298
 20
142.7495553459085
 30
0.0
 10
112.2914175920204
 20
142.7150113718665
 30
0.0
 10
112.1960010469021
 20
142.6758616302519
 30
0.0
 10
111.9664322135092
 20
142.5831629590891
 30
0.0
 10
111.4820139995337
 20
142.3944400685767
 30
0.0
 10
110.7030140280148
 20
142.1163502686134
 30
0.0
 10
109.9117955766558
 20
141.8657634012976
 30
0.0
 10
109.2807450834597
 20
141.6907466399774
 30
0.0
 10
108.7277071270906
 20
141.5509119993698
 30
0.0
 10
107.9347491981679
 20
141.3705011540136
 30
0.0
 10
106.8644148577947
 20
141.1814348323606
 30
0.0
 10
105.8834245783589
 20
141.0761480246506
 30
0.0
 10
104.9554573492109
 20
141.0191152526959
 30
0.0
 10
103.9830018554504
 20
141.0045206543264
 30
0.0
 10
102.6568716500171
 20
141.0827138708173
 30
0.0
 10
101.386836165524
 20
141.2431935924115
 30
0.0
 10
100.427060164863
 20
141.4283051306235
 30
0.0
 10
99.72840851752635
 20
141.595794734351
 30
0.0
 10
99.28460037937437
 20
141.7094179405575
 30
0.0
 10
98.95206331743579
 20
141.8026017754675
 30
0.0
 10
98.56490490718515
 20
141.91726663973
 30
0.0
 10
98.22765694506977
 20
142.0246124487947
 30
0.0
 10
98.12993287874046
 20
142.0621780220789
 30
0.0
 10
98.12903095846852
 20
142.0623094308937
 30
0.0
 10
98.12900364354364
 20
142.062313410649
 30
0.0
  0
LINE
  5
1D0
330
1F
100
AcDbEntity
  8
0
  6
Continuous
 62
     7
370
    25
100
AcDbLine
 10
112.6290036435
 20
142.8616924555
 30
0.0
 11
112.6290036435
 21
137.5042661729
 31
0.0
  0
SPLINE
  5
1D1
330
1F
100
AcDbEntity
  8
0
  6
Continuous
 62
     7
370
    25
100
AcDbSpline
210
0.0
220
0.0
230
1.0
 70
     8
 71
     3
 72
    30
 73
    26
 74
     0
 42
0.000000001
 43
0.00000001
 40
0.0
 40
0.0
 40
0.0
 40
0.0
 40
0.0192411700742979
 40
0.0381353539378545
 40
0.0566868884863262
 40
0.0749003554933474
 40
0.0927805967286092
 40
0.1103327298327973
 40
0.1275621649290815
 40
0.1444746219341811
 40
0.24558658305279
 40
0.3577720192516805
 40
0.4505017408947174
 40
0.5720127868619871
 40
0.6168069840224216
 40
0.6590088499470531
 40
0.6986242498815174
 40
0.7356603299373994
 40
0.7701258931928707
 40
0.8073679165915963
 40
0.8483950324910879
 40
0.8881367798844436
 40
0.9266264622133246
 40
0.9639007443629765
 40
1.0
 40
1.0
 40
1.0
 40
1.0
 10
103.4581850529316
 20
135.8401748625749
 30
0.0
 10
103.5412175328117
 20
135.82904775725
 30
0.0
 10
103.7057851238852
 20
135.8069942075838
 30
0.0
 10
103.9536666395666
 20
135.778942318321
 30
0.0
 10
104.1989433150095
 20
135.754990787795
 30
0.0
 10
104.441501148621
 20
135.7354608356015
 30
0.0
 10
104.6809358257297
 20
135.7202685434248
 30
0.0
 10
104.9169490211362
 20
135.7094369821939
 30
0.0
 10
105.1492670664461
 20
135.7029564169408
 30
0.0
 10
105.7578178360676
 20
135.6973249253546
 30
0.0
 10
106.7961303332871
 20
135.7572983248401
 30
0.0
 10
108.1114818613847
 20
135.9567207980129
 30
0.0
 10
109.3910270742784
 20
136.2622021586968
 30
0.0
 10
110.2824676183776
 20
136.5421449616185
 30
0.0
 10
110.9001324872511
 20
136.769594058139
 30
0.0
 10
111.243455572543
 20
136.8998727186435
 30
0.0
 10
111.5351466574374
 20
137.0159636566025
 30
0.0
 10
111.7796920132551
 20
137.1173318860033
 30
0.0
 10
111.9920466936865
 20
137.2086699385169
 30
0.0
 10
112.1831096683083
 20
137.2927450224589
 30
0.0
 10
112.348357072481
 20
137.367737976423
 30
0.0
 10
112.4778976227246
 20
137.4287264759688
 30
0.0
 10
112.5662639919445
 20
137.4719641377343
 30
0.0
 10
112.6194098372052
 20
137.4991942236134
 30
0.0
 10
112.6258400331459
 20
137.5025936697434
 30
0.0
 10
112.6290036435436
 20
137.5042661729179
 30
0.0
  0
SPLINE
  5
1D2
330
1F
100
AcDbEntity
  8
0
  6
Continuous
 62
     7
370
    25
100
AcDbSpline
210
0.0
220
0.0
230
1.0
 70
     8
 71
     3
 72
    38
 73
    34
 74
     0
 42
0.000000001
 43
0.00000001
 40
0.0
 40
0.0
 40
0.0
 40
0.0
 40
0.1250000000000008
 40
0.1250000000000008
 40
0.2500000000000016
 40
0.2500000000000016
 40
0.3125000000000017
 40
0.3125000000000017
 40
0.3750000000000018
 40
0.3750000000000018
 40
0.4375000000000019
 40
0.4375000000000019
 40
0.5000000000000019
 40
0.5000000000000019
 40
0.5625000000000021
 40
0.5625000000000021
 40
0.6250000000000021
 40
0.6250000000000021
 40
0.6875000000000022
 40
0.6875000000000022
 40
0.718750000000002
 40
0.718750000000002
 40
0.7500000000000017
 40
0.7500000000000017
 40
0.7812500000000014
 40
0.7812500000000014
 40
0.8125000000000012
 40
0.8125000000000012
 40
0.8750000000000009
 40
0.8750000000000009
 40
0.9375000000000004
 40
0.9375000000000004
 40
1.0
 40
1.0
 40
1.0
 40
1.0
 10
98.12900364354364
 20
141.9340880370702
 30
0.0
 10
98.12900364354377
 20
141.9340880370702
 30
0.0
 10
98.19080940110724
 20
141.9114439544082
 30
0.0
 10
98.44043194654276
 20
141.8188595653522
 30
0.0
 10
98.62415957748091
 20
141.7504719853995
 30
0.0
 10
98.98054841406595
 20
141.6146298861976
 30
0.0
 10
99.11370887557148
 20
141.5634369011411
 30
0.0
 10
99.40478788626783
 20
141.4497482960287
 30
0.0
 10
99.56127783777714
 20
141.3878216885223
 30
0.0
 10
99.89465927906504
 20
141.2529365798319
 30
0.0
 10
100.0715630374281
 20
141.1799983255452
 30
0.0
 10
100.4448046849014
 20
141.0210223907494
 30
0.0
 10
100.6425486757825
 20
140.9343826208728
 30
0.0
 10
101.0485721090356
 20
140.7474649483204
 30
0.0
 10
101.2566255024226
 20
140.6474300345114
 30
0.0
 10
101.6789197751568
 20
140.4281664843324
 30
0.0
 10
101.8932850782318
 20
140.3091632926678
 30
0.0
 10
102.3211273898112
 20
140.0388894423439
 30
0.0
 10
102.5375290409178
 20
139.8856406168323
 30
0.0
 10
102.8361614837979
 20
139.6195720932491
 30
0.0
 10
102.9313540732676
 20
139.5247998469764
 30
0.0
 10
103.1089793251244
 20
139.3190429897865
 30
0.0
 10
103.1915936357528
 20
139.2071844480159
 30
0.0
 10
103.3336739107744
 20
138.9736689437936
 30
0.0
 10
103.3940594600194
 20
138.8511078778378
 30
0.0
 10
103.4935099521743
 20
138.5946371146127
 30
0.0
 10
103.5328013911991
 20
138.459397101063
 30
0.0
 10
103.6194979773522
 20
138.0511150980985
 30
0.0
 10
103.638206304347
 20
137.7748549203136
 30
0.0
 10
103.6347102837153
 20
137.218107141678
 30
0.0
 10
103.6122306635067
 20
136.9398768976872
 30
0.0
 10
103.5466030157247
 20
136.3884910775025
 30
0.0
 10
103.5031054720352
 20
136.1142374084001
 30
0.0
 10
103.4536259249252
 20
135.8408079364385
 30
0.0
  0
LINE
  5
1D3
330
1F
100
AcDbEntity
  8
0
  6
Continuous
 62
     7
370
    25
100
AcDbLine
 10
98.1290036435
 20
141.9340880371
 30
0.0
 11
98.1290036435
 21
142.0623134106
 31
0.0
  0
SPLINE
  5
1D4
330
1F
100
AcDbEntity
  8
0
  6
Continuous
 62
     7
370
    25
100
AcDbSpline
210
0.0
220
0.0
230
1.0
 70
     8
 71
     3
 72
    14
 73
    10
 74
     0
 42
0.000000001
 43
0.00000001
 40
0.0
 40
0.0
 40
0.0
 40
0.0
 40
0.0003951392850831
 40
0.0003951392850831
 40
0.0003951392850831
 40
0.0008159035679249
 40
0.0008159035679249
 40
0.0008159035679249
 40
0.0012369936130996
 40
0.0012369936130996
 40
0.0012369936130996
 40
0.0012369936130996
 10
102.2568875932752
 20
135.5730131491666
 30
0.0
 10
102.3853968313819
 20
135.6018871168801
 30
0.0
 10
102.5139603391109
 20
135.6305753303563
 30
0.0
 10
102.6425107173943
 20
135.6590781743938
 30
0.0
 10
102.7793959650579
 20
135.6894290680845
 30
0.0
 10
102.9162916109577
 20
135.7195750331135
 30
0.0
 10
103.0531118723068
 20
135.749526852682
 30
0.0
 10
103.1900378612517
 20
135.7795018174619
 30
0.0
 10
103.3269149332158
 20
135.8092878669071
 30
0.0
 10
103.463651782403
 20
135.8389103400758
 30
0.0
  0
LINE
  5
1D5
330
1F
100
AcDbEntity
  8
0
  6
Continuous
 62
     7
370
    25
100
AcDbLine
 10
94.6990034883
 20
137.0355401522
 30
0.0
 11
98.1290036435
 21
141.9340880371
 31
0.0
  0
LINE
  5
1D6
330
1F
100
AcDbEntity
  8
0
  6
Continuous
 62
     7
370
    25
100
AcDbLine
 10
97.3794417952
 20
142.8714258618
 30
0.0
 11
98.1290317741
 21
142.062314524
 31
0.0
  0
LINE
  5
1D7
330
1F
100
AcDbEntity
  8
0
  6
Continuous
 62
     7
370
    25
100
AcDbLine
 10
112.6290165917
 20
142.8616927113
 30
0.0
 11
113.2973467376
 21
143.6708045337
 31
0.0
  0
LINE
  5
1D8
330
1F
100
AcDbEntity
  8
0
  6
Continuous
 62
     7
370
    25
100
AcDbLine
 10
88.5806696934
 20
138.3336163635
 30
0.0
 11
90.8290036435
 21
137.0355401522
 31
0.0
  0
LINE
  5
1D9
330
1F
100
AcDbEntity
  8
0
  6
Continuous
 62
     7
370
    25
100
AcDbLine
 10
87.8290036435
 20
139.6355401522
 30
0.0
 11
88.5806696934
 21
138.3336163635
 31
0.0
  0
LINE
  5
1DA
330
1F
100
AcDbEntity
  8
0
  6
Continuous
 62
     7
370
    25
100
AcDbLine
 10
87.8290036435
 20
141.601134876
 30
0.0
 11
87.8290036435
 21
139.6355401522
 31
0.0
  0
LINE
  5
1DB
330
1F
100
AcDbEntity
  8
0
  6
Continuous
 62
     7
370
    25
100
AcDbLine
 10
89.3290036435
 20
142.4671602797
 30
0.0
 11
87.8290036435
 21
141.601134876
 31
0.0
  0
LINE
  5
1DC
330
1F
100
AcDbEntity
  8
0
  6
Continuous
 62
     7
370
    25
100
AcDbLine
 10
135.8040036435
 20
148.2480401522
 30
0.0
 11
135.8040036435
 21
148.3456354164
 31
0.0
  0
ARC
  5
1DD
330
1F
100
AcDbEntity
  8
0
  6
Continuous
 62
     7
370
    25
100
AcDbCircle
 10
136.8040036435
 20
148.2480401522
 30
0.0
 40
1.0
100
AcDbArc
 50
180.0
 51
270.0
  0
LINE
  5
1DE
330
1F
100
AcDbEntity
  8
0
  6
Continuous
 62
     7
370
    25
100
AcDbLine
 10
138.5540036435
 20
147.2480401522
 30
0.0
 11
136.8040036435
 21
147.2480401522
 31
0.0
  0
ARC
  5
1DF
330
1F
100
AcDbEntity
  8
0
  6
Continuous
 62
     7
370
    25
100
AcDbCircle
 10
138.5540036435
 20
148.2480401522
 30
0.0
 40
1.0
100
AcDbArc
 50
270.0
 51
0.0
  0
LINE
  5
1E0
330
1F
100
AcDbEntity
  8
0
  6
Continuous
 62
     7
370
    25
100
AcDbLine
 10
139.5540036435
 20
148.3456354164
 30
0.0
 11
139.5540036435
 21
148.2480401522
 31
0.0
  0
LINE
  5
1E1
330
1F
100
AcDbEntity
  8
0
  6
Continuous
 62
     7
370
    25
100
AcDbLine
 10
141.0132014481
 20
150.8730401522
 30
0.0
 11
139.5540036435
 21
148.3456354164
 31
0.0
  0
LINE
  5
1E2
330
1F
100
AcDbEntity
  8
0
  6
Continuous
 62
     7
370
    25
100
AcDbLine
 10
113.2549527853
 20
137.0355414425
 30
0.0
 11
112.6290067718
 21
137.5042662978
 31
0.0
  0
LINE
  5
1E3
330
1F
100
AcDbEntity
  8
0
  6
Continuous
 62
     7
370
    25
100
AcDbLine
 10
135.8040036435
 20
148.3456354164
 30
0.0
 11
134.344805839
 21
150.8730401522
 31
0.0
  0
LINE
  5
1E4
330
1F
100
AcDbEntity
  8
0
  6
Continuous
 62
     7
370
    25
100
AcDbLine
 10
171.2790036435
 20
121.8980401522
 30
0.0
 11
171.2790036435
 21
122.2980401522
 31
0.0
  0
LINE
  5
1E5
330
1F
100
AcDbEntity
  8
0
  6
Continuous
 62
     7
370
    25
100
AcDbLine
 10
131.3290036435
 20
125.1480401522
 30
0.0
 11
131.3290036435
 21
123.3980401522
 31
0.0
  0
LINE
  5
1E6
330
1F
100
AcDbEntity
  8
0
  6
Continuous
 62
     7
370
    25
100
AcDbLine
 10
130.5040036435
 20
124.3980401522
 30
0.0
 11
130.5040036435
 21
125.1480401522
 31
0.0
  0
LINE
  5
1E7
330
1F
100
AcDbEntity
  8
0
  6
Continuous
 62
     7
370
    25
100
AcDbLine
 10
207.7790036435
 20
123.4347344002
 30
0.0
 11
207.7790036435
 21
128.0492591688
 31
0.0
  0
LINE
  5
1E8
330
1F
100
AcDbEntity
  8
0
  6
Continuous
 62
     7
370
    25
100
AcDbLine
 10
126.6790036435
 20
133.7480401522
 30
0.0
 11
126.6790036435
 21
124.6289802598
 31
0.0
  0
LINE
  5
1E9
330
1F
100
AcDbEntity
  8
0
  6
Continuous
 62
     7
370
    25
100
AcDbLine
 10
121.7790036435
 20
136.8480401522
 30
0.0
 11
121.7790036435
 21
134.9480401522
 31
0.0
  0
LINE
  5
1EA
330
1F
100
AcDbEntity
  8
0
  6
Continuous
 62
     7
370
    25
100
AcDbLine
 10
127.7790036435
 20
150.6730401522
 30
0.0
 11
127.7790036435
 21
146.2480401522
 31
0.0
  0
LINE
  5
1EB
330
1F
100
AcDbEntity
  8
0
  6
Continuous
 62
     7
370
    25
100
AcDbLine
 10
145.7790036435
 20
135.8980401522
 30
0.0
 11
145.7790036435
 21
150.6730401522
 31
0.0
  0
SPLINE
  5
1EC
330
1F
100
AcDbEntity
  8
0
  6
Continuous
 62
     7
370
    25
100
AcDbSpline
210
0.0
220
0.0
230
1.0
 70
     8
 71
     3
 72
     9
 73
     5
 74
     0
 42
0.000000001
 43
0.00000001
 40
0.0
 40
0.0
 40
0.0
 40
0.0
 40
0.5102121239851032
 40
1.0
 40
1.0
 40
1.0
 40
1.0
 10
88.63336704021475
 20
129.8596666688181
 30
0.0
 10
89.0082290971935
 20
129.8571767514364
 30
0.0
 10
89.74294714750327
 20
129.8522965902944
 30
0.0
 10
90.47194773796004
 20
129.8469116989081
 30
0.0
 10
90.82900338877344
 20
129.8442742443933
 30
0.0
  0
LINE
  5
1ED
330
1F
100
AcDbEntity
  8
0
  6
Continuous
 62
     7
370
    25
100
AcDbLine
 10
88.5806696934
 20
129.8900909597
 30
0.0
 11
88.6333670421
 21
129.8596661313
 31
0.0
  0
LINE
  5
1EE
330
1F
100
AcDbEntity
  8
0
  6
Continuous
 62
     7
370
    25
100
AcDbLine
 10
88.5806696934
 20
138.3336163635
 30
0.0
 11
88.5806696934
 21
129.8900909597
 31
0.0
  0
SPLINE
  5
1EF
330
1F
100
AcDbEntity
  8
0
  6
Continuous
 62
     7
370
    25
100
AcDbSpline
210
0.0
220
0.0
230
1.0
 70
    24
 71
     3
 72
     8
 73
     4
 74
     0
 42
0.000000001
 43
0.00000001
 40
0.0000004089325119
 40
0.0000004089325119
 40
0.0000004089325119
 40
0.0000004089325119
 40
0.0015399868451459
 40
0.0015399868451459
 40
0.0015399868451459
 40
0.0015399868451459
 10
87.82900364354366
 20
130.3240655559507
 30
0.0
 10
88.07999471956809
 20
130.1791557906438
 30
0.0
 10
88.33058391607105
 20
130.0344780505868
 30
0.0
 10
88.58066969338319
 20
129.8900909597352
 30
0.0
  0
LINE
  5
1F0
330
1F
100
AcDbEntity
  8
0
  6
Continuous
 62
     7
370
    25
100
AcDbLine
 10
87.8290036435
 20
139.6355401522
 30
0.0
 11
87.8290036435
 21
130.324065556
 31
0.0
  0
SPLINE
  5
1F1
330
1F
100
AcDbEntity
  8
0
  6
Continuous
 62
     7
370
    25
100
AcDbSpline
210
0.0
220
0.0
230
1.0
 70
     8
 71
     3
 72
     8
 73
     4
 74
     0
 42
0.000000001
 43
0.00000001
 40
0.0
 40
0.0
 40
0.0
 40
0.0
 40
1.0
 40
1.0
 40
1.0
 40
1.0
 10
90.95868538630039
 20
129.4580408299028
 30
0.0
 10
90.93073716618088
 20
129.5658571838783
 30
0.0
 10
90.90277707801216
 20
129.6734510340446
 30
0.0
 10
90.87480489047795
 20
129.7808203148293
 30
0.0
  0
LINE
  5
1F2
330
1F
100
AcDbEntity
  8
0
  6
Continuous
 62
     7
370
    25
100
AcDbLine
 10
90.9586885249
 20
129.4580401522
 30
0.0
 11
89.3290028568
 21
129.4580401522
 31
0.0
  0
LINE
  5
1F3
330
1F
100
AcDbEntity
  8
0
  6
Continuous
 62
     7
370
    25
100
AcDbLine
 10
89.3290030567
 20
129.458040491
 30
0.0
 11
88.6333665787
 21
129.8596663988
 31
0.0
  0
LINE
  5
1F4
330
1F
100
AcDbEntity
  8
0
  6
Continuous
 62
     7
370
    25
100
AcDbLine
 10
97.3829645408
 20
127.4605401522
 30
0.0
 11
97.1307929128
 21
127.4605401522
 31
0.0
  0
SPLINE
  5
1F5
330
1F
100
AcDbEntity
  8
0
  6
Continuous
 62
     7
370
    25
100
AcDbSpline
210
0.0
220
0.0
230
1.0
 70
     8
 71
     3
 72
    26
 73
    22
 74
     0
 42
0.000000001
 43
0.00000001
 40
0.0
 40
0.0
 40
0.0
 40
0.0
 40
0.0524616379916458
 40
0.1026498591861474
 40
0.1505655134537972
 40
0.1962095861908931
 40
0.2395832262515146
 40
0.2806877815543323
 40
0.3195248450324018
 40
0.3560963147377176
 40
0.3904044736499266
 40
0.4224520974393497
 40
0.4522426027388373
 40
0.4797802555350637
 40
0.5050704712281464
 40
0.5966394156800096
 40
0.6841917884819306
 40
0.7679874773571161
 40
0.8483228539139546
 40
0.9255341635201179
 40
1.0
 40
1.0
 40
1.0
 40
1.0
 10
97.12898641887423
 20
127.4605699362017
 30
0.0
 10
97.09335001984415
 20
127.520116856282
 30
0.0
 10
97.02362151950787
 20
127.6366302400651
 30
0.0
 10
96.91014335875161
 20
127.80102820079
 30
0.0
 10
96.79461780902987
 20
127.9531899385884
 30
0.0
 10
96.67749611302251
 20
128.0930926355189
 30
0.0
 10
96.56012441254533
 20
128.221306959422
 30
0.0
 10
96.44350344651315
 20
128.3383226383622
 30
0.0
 10
96.32860052606873
 20
128.4446997936069
 30
0.0
 10
96.2162763003791
 20
128.5410158740826
 30
0.0
 10
96.10730732634296
 20
128.6278652206371
 30
0.0
 10
96.00238828550397
 20
128.7058454028334
 30
0.0
 10
95.90213095955177
 20
128.7755535998893
 30
0.0
 10
95.80709361696412
 20
128.8375635887937
 30
0.0
 10
95.63698671252993
 20
128.9420500260618
 30
0.0
 10
95.3840676811229
 20
129.0771086925773
 30
0.0
 10
95.03808652406173
 20
129.2214955849944
 30
0.0
 10
94.69012797473741
 20
129.3304634972394
 30
0.0
 10
94.34398821436135
 20
129.4049930795761
 30
0.0
 10
94.00292343092724
 20
129.4499217841255
 30
0.0
 10
93.7771768194116
 20
129.4553668829799
 30
0.0
 10
93.66634660739352
 20
129.4580401521663
 30
0.0
  0
SPLINE
  5
1F6
330
1F
100
AcDbEntity
  8
0
  6
Continuous
 62
     7
370
    25
100
AcDbSpline
210
0.0
220
0.0
230
1.0
 70
     8
 71
     3
 72
     8
 73
     4
 74
     0
 42
0.000000001
 43
0.00000001
 40
0.0
 40
0.0
 40
0.0
 40
0.0
 40
1.0
 40
1.0
 40
1.0
 40
1.0
 10
97.38296454077613
 20
127.4605401521661
 30
0.0
 10
97.41196924720371
 20
127.5844778790285
 30
0.0
 10
97.43100176688516
 20
127.7124300092618
 30
0.0
 10
97.4392533590768
 20
127.8434993219532
 30
0.0
  0
LINE
  5
1F7
330
1F
100
AcDbEntity
  8
0
  6
Continuous
 62
     7
370
    25
100
AcDbLine
 10
93.6663466074
 20
129.4580401522
 30
0.0
 11
90.9586885249
 21
129.4580401522
 31
0.0
  0
LINE
  5
1F8
330
1F
100
AcDbEntity
  8
0
  6
Continuous
 62
     7
370
    25
100
AcDbLine
 10
110.4290036435
 20
123.460813563
 30
0.0
 11
109.7790036435
 21
123.6105401522
 31
0.0
  0
SPLINE
  5
1F9
330
1F
100
AcDbEntity
  8
0
  6
Continuous
 62
     7
370
    25
100
AcDbSpline
210
0.0
220
0.0
230
1.0
 70
     8
 71
     3
 72
    26
 73
    22
 74
     0
 42
0.000000001
 43
0.00000001
 40
0.0
 40
0.0
 40
0.0
 40
0.0
 40
0.0305951740619132
 40
0.0629166281945905
 40
0.0969720532990741
 40
0.1327680143378763
 40
0.1703101548900729
 40
0.2096033578568503
 40
0.2506518729757663
 40
0.3342141733901709
 40
0.4179517165478233
 40
0.5018670561022144
 40
0.5659795686765051
 40
0.6277136397901657
 40
0.6871358192149355
 40
0.7443207393909679
 40
0.7993521466062465
 40
0.8523240128016296
 40
0.9033417028108085
 40
0.9525231537651235
 40
1.0
 40
1.0
 40
1.0
 40
1.0
 10
109.7790036435436
 20
123.6105401521663
 30
0.0
 10
109.7780954316987
 20
123.6750753195633
 30
0.0
 10
109.7762277637178
 20
123.8077869401731
 30
0.0
 10
109.7606351746526
 20
124.0106010317162
 30
0.0
 10
109.7339913134614
 20
124.222314072626
 30
0.0
 10
109.6938368843797
 20
124.4420260659984
 30
0.0
 10
109.6389387676958
 20
124.6687729368594
 30
0.0
 10
109.5676957990875
 20
124.9014039406229
 30
0.0
 10
109.4492834048096
 20
125.2168022550835
 30
0.0
 10
109.2611525084064
 20
125.601284153609
 30
0.0
 10
108.9771357451719
 20
126.0313117681386
 30
0.0
 10
108.6677177886193
 20
126.389798480483
 30
0.0
 10
108.3518081778117
 20
126.6815651367771
 30
0.0
 10
108.0450627696803
 20
126.9140242236183
 30
0.0
 10
107.7266436558519
 20
127.1108344581835
 30
0.0
 10
107.400672779691
 20
127.2729351604408
 30
0.0
 10
107.0711339445649
 20
127.401405043918
 30
0.0
 10
106.7415720297206
 20
127.4979888632877
 30
0.0
 10
106.4151537064268
 20
127.5638410925708
 30
0.0
 10
106.0946355141317
 20
127.6034060403938
 30
0.0
 10
105.8829700006079
 20
127.6081902386088
 30
0.0
 10
105.7790036435436
 20
127.6105401521663
 30
0.0
  0
SPLINE
  5
1FA
330
1F
100
AcDbEntity
  8
0
  6
Continuous
 62
     7
370
    25
100
AcDbSpline
210
0.0
220
0.0
230
1.0
 70
     8
 71
     3
 72
    13
 73
     9
 74
     0
 42
0.000000001
 43
0.00000001
 40
0.0
 40
0.0
 40
0.0
 40
0.0
 40
0.160406168812509
 40
0.3231296685880656
 40
0.4883154214487667
 40
0.6561019687086515
 40
0.826621511861129
 40
1.0
 40
1.0
 40
1.0
 40
1.0
 10
103.8641303642542
 20
127.6105401521663
 30
0.0
 10
103.8050804127086
 20
127.6097845821275
 30
0.0
 10
103.6861274359352
 20
127.6082625265979
 30
0.0
 10
103.506873802275
 20
127.5958174674612
 30
0.0
 10
103.3259408205698
 20
127.5756332863214
 30
0.0
 10
103.1438123261901
 20
127.5464979201766
 30
0.0
 10
102.9606453184503
 20
127.5090817683627
 30
0.0
 10
102.8399060036238
 20
127.4768158960176
 30
0.0
 10
102.7790344720685
 20
127.4605488410866
 30
0.0
  0
SPLINE
  5
1FB
330
1F
100
AcDbEntity
  8
0
  6
Continuous
 62
     7
370
    25
100
AcDbSpline
210
0.0
220
0.0
230
1.0
 70
    24
 71
     3
 72
    10
 73
     6
 74
     0
 42
0.000000001
 43
0.00000001
 40
0.0
 40
0.0
 40
0.0
 40
0.0
 40
0.3216623556917169
 40
0.6548175346390043
 40
1.0
 40
1.0
 40
1.0
 40
1.0
 10
102.7791824784484
 20
127.4605401521663
 30
0.0
 10
102.7106365705911
 20
127.4605401521663
 30
0.0
 10
102.5710956463939
 20
127.4605401521663
 30
0.0
 10
102.3614872310434
 20
127.4605401521663
 30
0.0
 10
102.2218102358895
 20
127.4605401521663
 30
0.0
 10
102.1507334646887
 20
127.4605401521663
 30
0.0
  0
SPLINE
  5
1FC
330
1F
100
AcDbEntity
  8
0
  6
Continuous
 62
     7
370
    25
100
AcDbSpline
210
0.0
220
0.0
230
1.0
 70
     8
 71
     3
 72
     8
 73
     4
 74
     0
 42
0.000000001
 43
0.00000001
 40
0.0
 40
0.0
 40
0.0
 40
0.0
 40
1.0
 40
1.0
 40
1.0
 40
1.0
 10
102.8653337599852
 20
127.8389865013647
 30
0.0
 10
102.5960374299112
 20
127.7422971161698
 30
0.0
 10
102.3598767444835
 20
127.6142979467875
 30
0.0
 10
102.1506792282881
 20
127.4608213491345
 30
0.0
  0
LINE
  5
1FD
330
1F
100
AcDbEntity
  8
0
  6
Continuous
 62
     7
370
    25
100
AcDbLine
 10
102.1512249399
 20
111.3355401522
 30
0.0
 11
102.3043846695
 21
111.3355401522
 31
0.0
  0
LINE
  5
1FE
330
1F
100
AcDbEntity
  8
0
  6
Continuous
 62
     7
370
    25
100
AcDbLine
 10
105.7790036435
 20
127.6105401522
 30
0.0
 11
103.8641303643
 21
127.6105401522
 31
0.0
  0
LINE
  5
1FF
330
1F
100
AcDbEntity
  8
0
  6
Continuous
 62
     7
370
    25
100
AcDbLine
 10
102.1510918255
 20
127.4605401522
 30
0.0
 11
97.3829645408
 21
127.4605401522
 31
0.0
  0
LINE
  5
200
330
1F
100
AcDbEntity
  8
0
  6
Continuous
 62
     7
370
    25
100
AcDbLine
 10
109.7790036435
 20
119.3980401522
 30
0.0
 11
109.7790036435
 21
123.6105401522
 31
0.0
  0
HATCH
  5
201
330
1F
100
AcDbEntity
  8
0
  6
Continuous
 62
     7
370
    18
100
AcDbHatch
 10
0.0
 20
0.0
 30
0.0
210
0.0
220
0.0
230
1.0
  2
ANSI31
 70
     0
 71
     0
 91
        1
 92
        0
 93
       51
 72
     1
 10
135.8040036435437
 20
148.345635416358
 11
134.3448058389736
 21
150.8730401521663
 72
     1
 10
134.3448058389736
 20
150.8730401521663
 11
127.9790036435437
 21
150.8730401521663
 72
     2
 10
127.9790036435437
 20
150.6730401521663
 40
0.2000000000000028
 50
90.0
 51
180.0
 73
     1
 72
     1
 10
127.7790036435437
 20
150.6730401521663
 11
127.7790036435437
 21
146.2480401521663
 72
     1
 10
127.7790036435437
 20
146.2480401521663
 11
128.1130423295723
 21
145.1886047917697
 72
     2
 10
127.3500687689737
 20
144.9480401521663
 40
0.8000000000000032
 50
342.4999999999994
 51
467.5000000000007
 73
     0
 72
     1
 10
127.1095041293703
 20
144.1850665915677
 11
126.6188216035129
 21
144.3397781976946
 72
     1
 10
126.6188216035129
 20
144.3397781976946
 11
113.2973483309935
 21
143.6708012246685
 72
     1
 10
113.2973467375949
 20
143.6708045337369
 11
112.6290165916653
 21
142.8616927113457
 72
     1
 10
112.6290165916653
 20
142.8616927113457
 11
112.6290036435437
 21
137.5042661729179
 72
     1
 10
112.6290067717773
 20
137.5042662977984
 11
113.2549527853195
 21
137.0355414424584
 72
     1
 10
113.2549530336284
 20
137.0355401521663
 11
118.2790036435437
 21
137.0355401521663
 72
     1
 10
118.2790036435437
 20
137.0355401521663
 11
119.1542441171245
 21
137.5408604751939
 72
     2
 10
119.5542441171245
 20
136.8480401521663
 40
0.7999999999999918
 50
240.0000000000003
 51
269.9999999999998
 73
     0
 72
     1
 10
119.5542441171245
 20
137.6480401521663
 11
120.9790036435437
 21
137.6480401521663
 72
     2
 10
120.9790036435437
 20
136.8480401521663
 40
0.7999999999999977
 50
270.0000000000008
 51
360.0000000000008
 73
     0
 72
     1
 10
121.7790036435437
 20
136.8480401521663
 11
121.7790036435437
 21
134.9480401521663
 72
     1
 10
121.7790036435437
 20
134.9480401521663
 11
125.4790036435436
 21
134.9480401521663
 72
     2
 10
125.4790036435436
 20
133.7480401521663
 40
1.2
 50
270.0000000000008
 51
360.0000000000008
 73
     0
 72
     1
 10
126.6790036435437
 20
133.7480401521663
 11
126.6790036435437
 21
124.6289802598422
 72
     1
 10
126.6790036435437
 20
124.6289802598422
 11
127.0790036435436
 21
124.3980401521663
 72
     1
 10
127.0790036435436
 20
124.3980401521663
 11
130.5040036435437
 21
124.3980401521663
 72
     1
 10
130.5040036435437
 20
124.3980401521663
 11
130.5040036435437
 21
125.1480401521663
 72
     1
 10
130.5040036435437
 20
125.1480401521663
 11
131.3290036435436
 21
125.1480401521663
 72
     1
 10
131.3290036435436
 20
125.1480401521663
 11
131.3290036435436
 21
123.3980401521663
 72
     1
 10
131.3290036435436
 20
123.3980401521663
 11
147.7790036435437
 21
123.3980401521663
 72
     1
 10
147.7790036435437
 20
123.3980401521663
 11
148.920638819696
 21
121.4980401521663
 72
     1
 10
148.920638819696
 20
121.4980401521663
 11
170.8790036435436
 21
121.4980401521663
 72
     1
 10
170.8790036435436
 20
121.4980401521663
 11
171.2790036435437
 21
121.8980401521662
 72
     1
 10
171.2790036435437
 20
121.8980401521662
 11
171.2790036435437
 21
122.2980401521663
 72
     2
 10
171.6790036435436
 20
122.2980401521663
 40
0.3999999999999989
 50
180.0
 51
270.0000000000008
 73
     0
 72
     1
 10
171.6790036435436
 20
122.6980401521662
 11
184.8842296254239
 21
122.6980401521662
 72
     2
 10
184.8842296254239
 20
122.2980401521662
 40
0.4000000000000002
 50
270.0000000000008
 51
289.9999999999992
 73
     0
 72
     1
 10
185.0210376827541
 20
122.6739172004806
 11
185.7790036435436
 21
122.3980401521662
 72
     1
 10
185.7790036435436
 20
122.3980401521662
 11
204.2790036435436
 21
122.3980401521662
 72
     1
 10
204.2790036435436
 20
122.3980401521662
 11
207.3658277323771
 21
122.9423305237284
 72
     2
 10
207.2790036435436
 20
123.4347344002345
 40
0.5000000000000013
 50
280.0000000000026
 51
360.0000000000008
 73
     1
 72
     1
 10
207.7790036435436
 20
123.4347344002345
 11
207.7790036435436
 21
128.0492591688498
 72
     2
 10
205.7790036435437
 20
128.0492591688498
 40
1.999999999999994
 50
0.0
 51
85.50000000000207
 73
     1
 72
     1
 10
205.9359218349993
 20
130.043093836316
 11
169.6603894350195
 21
132.8980401521663
 72
     1
 10
169.6603894350195
 20
132.8980401521663
 11
148.7790036435437
 21
132.8980401521663
 72
     2
 10
148.7790036435437
 20
135.8980401521663
 40
3.0
 50
90.0
 51
180.0
 73
     0
 72
     1
 10
145.7790036435437
 20
135.8980401521663
 11
145.7790036435437
 21
150.6730401521663
 72
     2
 10
145.5790036435437
 20
150.6730401521663
 40
0.2
 50
0.0
 51
90.0
 73
     1
 72
     1
 10
145.5790036435437
 20
150.8730401521663
 11
141.0132014481137
 21
150.8730401521663
 72
     1
 10
141.0132014481137
 20
150.8730401521663
 11
139.5540036435437
 21
148.345635416358
 72
     1
 10
139.5540036435437
 20
148.345635416358
 11
139.5540036435437
 21
148.2480401521663
 72
     2
 10
138.5540036435437
 20
148.2480401521663
 40
1.000000000000003
 50
0.0
 51
90.0
 73
     0
 72
     1
 10
138.5540036435437
 20
147.2480401521663
 11
136.8040036435437
 21
147.2480401521663
 72
     2
 10
136.8040036435437
 20
148.2480401521663
 40
1.000000000000003
 50
90.0
 51
180.0
 73
     0
 72
     1
 10
135.8040036435437
 20
148.2480401521663
 11
135.8040036435437
 21
148.345635416358
 97
        0
 75
     0
 76
     1
 52
0.0
 41
1.0
 77
     0
 78
     1
 53
45.0
 43
0.0
 44
0.0
 45
-2.245064030267288
 46
2.245064030267288
 79
     0
 98
        1
 10
0.0
 20
0.0
  0
HATCH
  5
202
330
1F
100
AcDbEntity
  8
0
  6
Continuous
 62
     7
370
    18
100
AcDbHatch
 10
0.0
 20
0.0
 30
0.0
210
0.0
220
0.0
230
1.0
  2
ANSI31
 70
     0
 71
     0
 91
        1
 92
        0
 93
        9
 72
     1
 10
98.12903177413182
 20
142.0623145240492
 11
97.37944179519613
 21
142.8714258618168
 72
     1
 10
97.37944179519613
 20
142.8714258618168
 11
89.32900364354369
 21
142.4671602797487
 72
     1
 10
89.32900364354369
 20
142.4671602797487
 11
87.82900364354367
 21
141.6011348759643
 72
     1
 10
87.82900364354367
 20
141.6011348759643
 11
87.82900364354366
 21
139.6355401521663
 72
     1
 10
87.82900364354366
 20
139.6355401521663
 11
88.5806696933832
 21
138.3336163635197
 72
     1
 10
88.5806696933832
 20
138.3336163635197
 11
90.82900364354366
 21
137.0355401521663
 72
     1
 10
90.82900364354366
 20
137.0355401521663
 11
94.69900348825261
 21
137.0355401521663
 72
     1
 10
94.69900348825261
 20
137.0355401521663
 11
98.12900364354367
 21
141.9340880370703
 72
     1
 10
98.12900364354365
 20
141.9340880370703
 11
98.12900364354365
 21
142.0623134105558
 97
        0
 75
     0
 76
     1
 52
0.0
 41
1.0
 77
     0
 78
     1
 53
45.0
 43
0.0
 44
0.0
 45
-2.245064030267288
 46
2.245064030267288
 79
     0
 98
        1
 10
0.0
 20
0.0
  0
HATCH
  5
203
330
1F
100
AcDbEntity
  8
0
  6
Continuous
 62
     7
370
    18
100
AcDbHatch
 10
0.0
 20
0.0
 30
0.0
210
0.0
220
0.0
230
1.0
  2
ANSI31
 70
     0
 71
     0
 91
        1
 92
        0
 93
       12
 72
     1
 10
171.6790036435437
 20
121.4980401521663
 11
171.2790036435437
 21
121.8980401521662
 72
     1
 10
171.2790036435437
 20
121.8980401521662
 11
160.0790036435437
 21
121.8980401521663
 72
     1
 10
160.0790036435437
 20
121.8980401521663
 11
159.6790036435436
 21
121.4980401521663
 72
     1
 10
159.6790036435436
 20
121.4980401521663
 11
159.6790036435436
 21
120.9480401521663
 72
     1
 10
159.6790036435436
 20
120.9480401521663
 11
159.8917113867903
 21
120.7353324089197
 72
     1
 10
159.8917113867903
 20
120.7353324089197
 11
163.6790036434768
 21
120.7353324089196
 72
     1
 10
163.6790036434768
 20
120.7353324089196
 11
163.6790036434768
 21
120.6480401521663
 72
     1
 10
163.6790036434768
 20
120.6480401521663
 11
169.6790036435437
 21
120.6480401521662
 72
     1
 10
169.6790036435437
 20
120.6480401521662
 11
169.6790036435437
 21
120.7353324089196
 72
     1
 10
169.6790036435437
 20
120.7353324089196
 11
172.6790036435437
 21
120.7353324089196
 72
     1
 10
172.6790036435437
 20
120.7353324089196
 11
172.6790036435437
 21
121.4980401521663
 72
     1
 10
172.6790036435437
 20
121.4980401521663
 11
171.6790036435437
 21
121.4980401521663
 97
        0
 75
     0
 76
     1
 52
0.0
 41
1.0
 77
     0
 78
     1
 53
45.0
 43
0.0
 44
0.0
 45
-2.245064030267288
 46
2.245064030267288
 79
     0
 98
        1
 10
0.0
 20
0.0
  0
POINT
  5
204
330
1F
100
AcDbEntity
  8
VERMASSUNG
100
AcDbPoint
 10
207.7790036435
 20
129.8980401522
 30
0.0
  0
POINT
  5
205
330
1F
100
AcDbEntity
  8
VERMASSUNG
100
AcDbPoint
 10
207.7790036435
 20
108.8980401522
 30
0.0
  0
DIMENSION
  5
206
330
1F
100
AcDbEntity
  8
VERMASSUNG
100
AcDbDimension
  2
_D
 10
224.4909529581
 20
108.8980401522
 30
0.0
 11
224.4909529581
 21
119.3980401522
 31
0.0
 70
   160
  1
<>
 71
     2
 42
-1.0
  3
SLDDIMSTYLE0
100
AcDbAlignedDimension
 13
207.7790036435
 23
129.8980401522
 33
0.0
 14
207.7790036435
 24
108.8980401522
 34
0.0
 50
90.0
100
AcDbRotatedDimension
  0
DIMENSION
  5
211
330
1F
100
AcDbEntity
  8
VERMASSUNG
100
AcDbDimension
  2
_D_1
 10
207.7790036435
 20
143.3441316001
 30
0.0
 11
196.7790036435
 21
143.3441316001
 31
0.0
 70
   160
  1
<> min.
 71
     2
 42
-1.0
  3
SLDDIMSTYLE0
100
AcDbAlignedDimension
 13
185.7790036435
 23
122.3980401522
 33
0.0
 14
207.7790036435
 24
128.0492591688
 34
0.0
100
AcDbRotatedDimension
  0
DIMENSION
  5
21C
330
1F
100
AcDbEntity
  8
VERMASSUNG
100
AcDbDimension
  2
_D_2
 10
207.7790036435
 20
151.5312576325
 30
0.0
 11
189.5290036435
 21
151.5312576325
 31
0.0
 70
   160
  1
<> max.
 71
     2
 42
-1.0
  3
SLDDIMSTYLE0
100
AcDbAlignedDimension
 13
171.2790036435
 23
122.2980401522
 33
0.0
 14
207.7790036435
 24
128.0492591688
 34
0.0
 50
0.0
100
AcDbRotatedDimension
  0
DIMENSION
  5
227
330
1F
100
AcDbEntity
  8
VERMASSUNG
100
AcDbDimension
  2
_D_3
 10
84.8963892512
 20
119.3980401522
 30
0.0
 11
177.4993338248
 21
138.4980958398
 31
0.0
 70
   162
  1
<>
 71
     1
 42
-1.0
  3
SLDDIMSTYLE1
100
AcDb2LineAngularDimension
 13
169.660389435
 23
132.8980401522
 33
0.0
 14
205.935921835
 24
130.0430938363
 34
0.0
 15
210.3739418
 25
119.3980401522
 35
0.0
 16
176.5158541838
 26
125.8682681492
 36
0.0
  0
DIMENSION
  5
231
330
1F
100
AcDbEntity
  8
VERMASSUNG
100
AcDbDimension
  2
_D_4
 10
233.1014345183
 20
105.8980401522
 30
0.0
 11
233.1014345183
 21
119.3980401522
 31
0.0
 70
   160
  1
<>
 71
     2
 42
-1.0
  3
SLDDIMSTYLE0
100
AcDbAlignedDimension
 13
169.660389435
 23
132.8980401522
 33
0.0
 14
169.660389435
 24
105.8980401522
 34
0.0
 50
90.0
100
AcDbRotatedDimension
  0
DIMENSION
  5
23B
330
1F
100
AcDbEntity
  8
VERMASSUNG
100
AcDbDimension
  2
_D_5
 10
169.660389435
 20
90.6203007519
 30
0.0
 11
188.7196965393
 21
90.6203007519
 31
0.0
 70
   160
  1
<>
 71
     2
 42
-1.0
  3
SLDDIMSTYLE2
100
AcDbAlignedDimension
 13
207.7790036435
 23
110.7468211355
 33
0.0
 14
169.660389435
 24
105.8980401522
 34
0.0
 50
0.0
100
AcDbRotatedDimension
  0
DIMENSION
  5
246
330
1F
100
AcDbEntity
  8
VERMASSUNG
100
AcDbDimension
  2
_D_6
 10
145.7790036435
 20
83.6591967008
 30
0.0
 11
176.7790036435
 21
83.6591967008
 31
0.0
 70
   160
  1
<>
 71
     2
 42
-1.0
  3
SLDDIMSTYLE0
100
AcDbAlignedDimension
 13
207.7790036435
 23
115.3613459041
 33
0.0
 14
145.7790036435
 24
88.1230401522
 34
0.0
 50
0.0
100
AcDbRotatedDimension
  0
DIMENSION
  5
250
330
1F
100
AcDbEntity
  8
VERMASSUNG
100
AcDbDimension
  2
_D_7
 10
207.7790036435
 20
159.3639709611
 30
0.0
 11
167.7790036435
 21
159.3639709611
 31
0.0
 70
   160
  1
<>
 71
     2
 42
-1.0
  3
SLDDIMSTYLE0
100
AcDbAlignedDimension
 13
127.7790036435
 23
150.6730401522
 33
0.0
 14
207.7790036435
 24
128.0492591688
 34
0.0
 50
0.0
100
AcDbRotatedDimension
  0
DIMENSION
  5
25A
330
1F
100
AcDbEntity
  8
VERMASSUNG
100
AcDbDimension
  2
_D_8
 10
207.7790036435
 20
166.8730401522
 30
0.0
 11
147.8040036435
 21
166.8730401522
 31
0.0
 70
   160
  1
<>
 71
     2
 42
-1.0
  3
SLDDIMSTYLE0
100
AcDbAlignedDimension
 13
87.8290036435
 23
141.601134876
 33
0.0
 14
207.7790036435
 24
128.0492591688
 34
0.0
 50
0.0
100
AcDbRotatedDimension
  0
DIMENSION
  5
264
330
1F
100
AcDbEntity
  8
VERMASSUNG
100
AcDbDimension
  2
_D_9
 10
77.8289786435
 20
150.8730401522
 30
0.0
 11
77.8289786435
 21
119.3980401522
 31
0.0
 70
   160
  1
KM%%c<> XMZ
 71
     2
 42
-1.0
  3
SLDDIMSTYLE0
100
AcDbAlignedDimension
 13
127.9790036435
 23
87.9230401522
 33
0.0
 14
127.9790036435
 24
150.8730401522
 34
0.0
 50
90.0
100
AcDbRotatedDimension
  0
DIMENSION
  5
271
330
1F
100
AcDbEntity
  8
VERMASSUNG
100
AcDbDimension
  2
_D_10
 10
217.1737483097
 20
116.3980401522
 30
0.0
 11
217.1737483097
 21
119.3980401522
 31
0.0
 70
   160
  1
%%c<>
 71
     2
 42
-1.0
  3
SLDDIMSTYLE3
100
AcDbAlignedDimension
 13
204.2790036435
 23
122.3980401522
 33
0.0
 14
204.2790036435
 24
116.3980401522
 34
0.0
 50
90.0
100
AcDbRotatedDimension
  0
LINE
  5
27B
330
1F
100
AcDbEntity
  8
VERMASSUNG
  6
CENTERX2
370
    18
100
AcDbLine
 10
210.3739418
 20
119.3980401522
 30
0.0
 11
84.8963892512
 21
119.3980401522
 31
0.0
  0
LINE
  5
27C
330
1F
100
AcDbEntity
  8
0
  6
Continuous
 62
     7
370
    25
100
AcDbLine
 10
250.5976393711
 20
36.7299418497
 30
0.0
 11
264.0958230231
 21
30.583310883
 31
0.0
  0
LINE
  5
27D
330
1F
100
AcDbEntity
  8
0
  6
Continuous
 62
     7
370
    25
100
AcDbLine
 10
269.4096682135
 20
39.7881584366
 30
0.0
 11
257.3366297006
 21
48.4034801076
 31
0.0
  0
SPLINE
  5
27E
330
1F
100
AcDbEntity
  8
0
  6
Continuous
 62
     7
370
    25
100
AcDbSpline
210
0.0
220
0.0
230
1.0
 70
     8
 71
     3
 72
    30
 73
    26
 74
     0
 42
0.000000001
 43
0.00000001
 40
0.0
 40
0.0
 40
0.0
 40
0.0
 40
0.0091278694002916
 40
0.0511157681012336
 40
0.0932174722951638
 40
0.1363305838269454
 40
0.1810382482851939
 40
0.2274217374574252
 40
0.2750398928662184
 40
0.3232315502610646
 40
0.3714105305770768
 40
0.4194161044944131
 40
0.4672610888421573
 40
0.5150292364804849
 40
0.562832444811894
 40
0.6107609929024482
 40
0.6589359839121439
 40
0.7074801115813839
 40
0.7564782446892494
 40
0.8058949029842378
 40
0.8552522273734567
 40
0.8985069204798292
 40
0.9401880998343257
 40
0.9849686411650187
 40
0.9999999999999999
 40
0.9999999999999999
 40
0.9999999999999999
 40
0.9999999999999999
 10
264.0833622085873
 20
30.59881106060744
 30
0.0
 10
264.1150275329924
 20
30.58107918173613
 30
0.0
 10
264.2923523070618
 20
30.48178124388919
 30
0.0
 10
264.6590173240002
 20
30.39265793139644
 30
0.0
 10
265.1659830049895
 20
30.33770207787175
 30
0.0
 10
265.6958547683158
 20
30.3838661264936
 30
0.0
 10
266.2404320816412
 20
30.52104955944594
 30
0.0
 10
266.7954422204938
 20
30.75301877624222
 30
0.0
 10
267.350394147855
 20
31.07719102552582
 30
0.0
 10
267.8921321532592
 20
31.48699258509216
 30
0.0
 10
268.4078188979119
 20
31.97166869757372
 30
0.0
 10
268.8869330578069
 20
32.51920270647645
 30
0.0
 10
269.3212953029591
 20
33.11813650006874
 30
0.0
 10
269.7037978422837
 20
33.75723754601637
 30
0.0
 10
270.0278317457468
 20
34.42521001456271
 30
0.0
 10
270.2872778442395
 20
35.11080118714014
 30
0.0
 10
270.476437108633
 20
35.80296796761883
 30
0.0
 10
270.5897927172017
 20
36.49112650843728
 30
0.0
 10
270.6215863988526
 20
37.16459526548438
 30
0.0
 10
270.5659363188856
 20
37.81099644497361
 30
0.0
 10
270.4227935847251
 20
38.39261527836986
 30
0.0
 10
270.2046177154727
 20
38.89916355411381
 30
0.0
 10
269.912898836622
 20
39.33129849905152
 30
0.0
 10
269.6362515713899
 20
39.63507883905223
 30
0.0
 10
269.4339786447887
 20
39.76039064927788
 30
0.0
 10
269.383145333459
 20
39.79188282358677
 30
0.0
  0
SPLINE
  5
27F
330
1F
100
AcDbEntity
  8
0
  6
Continuous
 62
     7
370
    25
100
AcDbSpline
210
0.0
220
0.0
230
1.0
 70
     8
 71
     3
 72
    11
 73
     7
 74
     0
 42
0.000000001
 43
0.00000001
 40
0.0
 40
0.0
 40
0.0
 40
0.0
 40
0.0782582107527631
 40
0.4256262437772204
 40
0.7605300679683213
 40
1.0
 40
1.0
 40
1.0
 40
1.0
 10
266.1209278922443
 20
33.52916568599882
 30
0.0
 10
266.1102776889821
 20
33.53613790170302
 30
0.0
 10
266.0523539776385
 20
33.57405798641287
 30
0.0
 10
265.9781871662413
 20
33.71338948058451
 30
0.0
 10
265.9119805711061
 20
33.92927808489655
 30
0.0
 10
265.9051388257487
 20
34.10144208710199
 30
0.0
 10
265.9022863411463
 20
34.17322131005528
 30
0.0
  0
SPLINE
  5
280
330
1F
100
AcDbEntity
  8
0
  6
Continuous
 62
     7
370
    25
100
AcDbSpline
210
0.0
220
0.0
230
1.0
 70
     8
 71
     3
 72
    17
 73
    13
 74
     0
 42
0.000000001
 43
0.00000001
 40
0.0
 40
0.0
 40
0.0
 40
0.0
 40
0.0545517252867196
 40
0.1599733691220969
 40
0.2661777961891133
 40
0.372947094434225
 40
0.4799172728264736
 40
0.58656493736044
 40
0.6923865782822304
 40
0.797055819598259
 40
0.9008402607528404
 40
1.0
 40
1.0
 40
1.0
 40
1.0
 10
265.9022863411463
 20
34.17322131005528
 30
0.0
 10
265.9040418567263
 20
34.23123204832599
 30
0.0
 10
265.9091899201544
 20
34.40134900058825
 30
0.0
 10
265.9685996719481
 20
34.71663916437241
 30
0.0
 10
266.1022569465508
 20
35.10633778948693
 30
0.0
 10
266.2967558944543
 20
35.4907858898471
 30
0.0
 10
266.539817977316
 20
35.84518562040044
 30
0.0
 10
266.8161341161116
 20
36.14777949179308
 30
0.0
 10
267.107029943393
 20
36.38096090167308
 30
0.0
 10
267.3899271979471
 20
36.5311674935606
 30
0.0
 10
267.6439884235459
 20
36.59964507473295
 30
0.0
 10
267.7700535370275
 20
36.5841207621595
 30
0.0
 10
267.8316497047829
 20
36.57653549026982
 30
0.0
  0
LINE
  5
281
330
1F
100
AcDbEntity
  8
0
  6
Continuous
 62
     7
370
    25
100
AcDbLine
 10
235.7828624225
 20
34.892659918
 30
0.0
 11
237.3971170135
 21
33.9607705784
 31
0.0
  0
LINE
  5
282
330
1F
100
AcDbEntity
  8
0
  6
Continuous
 62
     7
370
    25
100
AcDbLine
 10
253.133338328
 20
61.2196589722
 30
0.0
 11
251.519083737
 21
62.1515483118
 31
0.0
  0
LINE
  5
283
330
1F
100
AcDbEntity
  8
0
  6
Continuous
 62
     7
370
    25
100
AcDbLine
 10
231.1745774911
 20
37.5529661826
 30
0.0
 11
233.4252284675
 21
36.2536930298
 31
0.0
  0
LINE
  5
284
330
1F
100
AcDbEntity
  8
0
  6
Continuous
 62
     7
370
    25
100
AcDbLine
 10
249.161449782
 20
63.5125814236
 30
0.0
 11
246.9107988056
 21
64.8118545764
 31
0.0
  0
LINE
  5
285
330
1F
100
AcDbEntity
  8
0
  6
Continuous
 62
     7
370
    25
100
AcDbLine
 10
243.0218727553
 20
41.091258226
 30
0.0
 11
250.4045577434
 21
36.8293249002
 31
0.0
  0
LINE
  5
286
330
1F
100
AcDbEntity
  8
0
  6
Continuous
 62
     7
370
    25
100
AcDbLine
 10
257.1540093816
 20
48.5209849578
 30
0.0
 11
249.7713243935
 21
52.7829182836
 31
0.0
  0
LINE
  5
287
330
1F
100
AcDbEntity
  8
0
  6
Continuous
 62
     7
370
    25
100
AcDbLine
 10
240.1334096154
 20
64.5917364841
 30
0.0
 11
230.9361974318
 21
69.1723890939
 31
0.0
  0
LINE
  5
288
330
1F
100
AcDbEntity
  8
0
  6
Continuous
 62
     7
370
    25
100
AcDbLine
 10
219.4098496421
 20
49.2060056383
 30
0.0
 11
227.9759496478
 21
43.5321160419
 31
0.0
  0
LINE
  5
289
330
1F
100
AcDbEntity
  8
0
  6
Continuous
 62
     7
370
    25
100
AcDbLine
 10
224.3892870838
 20
50.1524955039
 30
0.0
 11
224.3892870838
 21
49.7871767989
 31
0.0
  0
LINE
  5
28A
330
1F
100
AcDbEntity
  8
0
  6
Continuous
 62
     7
370
    25
100
AcDbLine
 10
228.2872538441
 20
69.5493574706
 30
0.0
 11
227.6477037354
 21
69.4621457152
 31
0.0
  0
LWPOLYLINE
  5
28B
330
1F
100
AcDbEntity
  8
0
  6
Continuous
 62
     7
370
    25
100
AcDbPolyline
 90
       20
 70
   128
 43
0.0
 10
249.0063126657
 20
39.9197774801
 10
249.0471463764
 20
40.6627650474
 10
249.1689478052
 20
41.4401848607
 10
249.3696336464
 20
42.2387356214
 10
249.6457695904
 20
43.0447534168
 10
249.9926312389
 20
43.8444472204
 10
250.4042834596
 20
44.6241343902
 10
250.8736831189
 20
45.3704738361
 10
251.3927981141
 20
46.0706955732
 10
251.9527466554
 20
46.7128185816
 10
252.5439478258
 20
47.2858563548
 10
253.1562858465
 20
47.780003364
 10
253.7792835625
 20
48.1868055522
 10
254.4022812785
 20
48.4993012163
 10
255.0146192992
 20
48.712144637
 10
255.6058204696
 20
48.8216932058
 10
256.1657690109
 20
48.8260730221
 10
256.6848840061
 20
48.7252087008
 10
257.1542836654
 20
48.5208265657
 10
257.3366297006
 20
48.4034801076
  0
ARC
  5
28C
330
1F
100
AcDbEntity
  8
0
  6
Continuous
 62
     7
370
    25
100
AcDbCircle
 10
252.3184564329
 20
39.5802668241
 30
0.0
 40
3.329499034457541
100
AcDbArc
 50
174.147348482
 51
238.8795018673
  0
LINE
  5
28D
330
1F
100
AcDbEntity
  8
0
  6
Continuous
 62
     7
370
    25
100
AcDbLine
 10
267.8168443072
 20
36.5823290544
 30
0.0
 11
267.8787602502
 21
36.5659719142
 31
0.0
  0
ARC
  5
28E
330
1F
100
AcDbEntity
  8
0
  6
Continuous
 62
     7
370
    25
100
AcDbCircle
 10
264.8761101569
 20
36.2693883526
 30
0.0
 40
2.199281583818093
100
AcDbArc
 50
298.0346582149
 51
1.8404805595
  0
LWPOLYLINE
  5
28F
330
1F
100
AcDbEntity
  8
0
  6
Continuous
 62
     7
370
    25
100
AcDbPolyline
 90
       29
 70
   128
 43
0.0
 10
234.1371346723
 20
41.1661034284
 10
234.1783292655
 20
42.2945590024
 10
234.3016068217
 20
43.462221284
 10
234.506055257
 20
44.660445987
 10
234.7901612359
 20
45.8803618834
 10
235.1518207088
 20
47.1129367726
 10
235.5883560337
 20
48.349044971
 10
236.0965357327
 20
49.5795353713
 10
236.6725975411
 20
50.7952979811
 10
237.312276066
 20
51.9873304608
 10
238.0108350554
 20
53.1468088433
 10
238.7631029592
 20
54.2651476077
 10
239.5635111251
 20
55.3340681169
 10
240.4061323232
 20
56.3456550789
 10
241.2847284907
 20
57.2924206106
 10
242.1927948542
 20
58.1673540448
 10
243.1236084975
 20
58.9639773438
 10
244.0702780815
 20
59.6763943347
 10
245.0257945319
 20
60.2993290966
 10
245.9830836606
 20
60.8281700265
 10
246.9350581499
 20
61.2590021302
 10
247.8746696185
 20
61.5886347985
 10
248.7949616962
 20
61.8146278834
 10
249.6891209168
 20
61.9353089108
 10
250.5505274263
 20
61.9497841026
 10
251.3728032211
 20
61.8579456911
 10
252.1498607158
 20
61.6604741015
 10
252.8759468656
 20
61.3588307227
 10
253.133338328
 20
61.2196589722
  0
LWPOLYLINE
  5
290
330
1F
100
AcDbEntity
  8
0
  6
Continuous
 62
     7
370
    25
100
AcDbPolyline
 90
       11
 70
   128
 43
0.0
 10
237.3971170135
 20
33.9607705784
 10
237.312276066
 20
34.0108166173
 10
236.6725975411
 20
34.4642919927
 10
236.0965357327
 20
35.0149477958
 10
235.5883560337
 20
35.6587064046
 10
235.1518207088
 20
36.390801645
 10
234.7901612359
 20
37.2058133949
 10
234.506055257
 20
38.0977075102
 10
234.3016068217
 20
39.0598810744
 10
234.1783292655
 20
40.0852101192
 10
234.1371346723
 20
41.1661034284
  0
LWPOLYLINE
  5
291
330
1F
100
AcDbEntity
  8
0
  6
Continuous
 62
     7
370
    25
100
AcDbPolyline
 90
       11
 70
   128
 43
0.0
 10
234.2785557883
 20
41.1661034284
 10
234.3194882808
 20
40.0920782644
 10
234.4419828276
 20
39.0732643687
 10
234.6451326131
 20
38.1172052382
 10
234.9274328629
 20
37.2309782618
 10
235.2867940155
 20
36.4211450996
 10
235.7205562095
 20
35.6937018709
 10
236.2255064062
 20
35.0540337148
 10
236.7979073657
 20
34.5068767648
 10
237.4335213539
 20
34.0562831646
 10
237.5676385528
 20
33.9781615353
  0
LWPOLYLINE
  5
292
330
1F
100
AcDbEntity
  8
0
  6
Continuous
 62
     7
370
    25
100
AcDbPolyline
 90
       13
 70
   128
 43
0.0
 10
239.6082598829
 20
33.3207825896
 10
239.6704515092
 20
33.3135158543
 10
240.5077187404
 20
33.2750447515
 10
241.3807320969
 20
33.3422550545
 10
242.2830282934
 20
33.5146505974
 10
243.2079275485
 20
33.7909547144
 10
244.1485816577
 20
34.1691205019
 10
245.0980265129
 20
34.64635049
 10
246.04923281
 20
35.2191084255
 10
246.9951580741
 20
35.8831569095
 10
247.9287991783
 20
36.6335770696
 10
248.8432435453
 20
37.4648148483
 10
249.0146024239
 20
37.631728929
  0
LWPOLYLINE
  5
293
330
1F
100
AcDbEntity
  8
0
  6
Continuous
 62
     7
370
    25
100
AcDbPolyline
 90
       13
 70
   128
 43
0.0
 10
255.7640537329
 20
49.3233887965
 10
255.8953708006
 20
49.8566008865
 10
256.1383203819
 20
51.0591016719
 10
256.301293684
 20
52.2356181005
 10
256.3830829363
 20
53.3774391833
 10
256.3830829363
 20
54.4761114814
 10
256.301293684
 20
55.5235007036
 10
256.1383203819
 20
56.5118521627
 10
255.8953708006
 20
57.4338493322
 10
255.5742427665
 20
58.2826651776
 10
255.1773136254
 20
59.052015581
 10
254.7075224614
 20
59.7362047798
 10
254.2677688295
 20
60.2327112
  0
LWPOLYLINE
  5
294
330
1F
100
AcDbEntity
  8
0
  6
Continuous
 62
     7
370
    25
100
AcDbPolyline
 90
       28
 70
   128
 43
0.0
 10
252.6847246383
 20
61.3324392723
 10
252.1768241622
 20
61.5302472062
 10
251.4047044341
 20
61.7264643292
 10
250.5876538607
 20
61.8177191654
 10
249.7317211732
 20
61.8033362365
 10
248.8432435453
 20
61.6834225534
 10
247.9287991783
 20
61.4588653391
 10
246.9951580741
 20
61.1313264254
 10
246.04923281
 20
60.7032328463
 10
245.0980265129
 20
60.1777513678
 10
244.1485816577
 20
59.5587756596
 10
243.2079275485
 20
58.8508853299
 10
242.2830282934
 20
58.0593234972
 10
241.3807320969
 20
57.1899500262
 10
240.5077187404
 20
56.2492005629
 10
239.6704515092
 20
55.2440412914
 10
238.8751299411
 20
54.1819127594
 10
238.1276417533
 20
53.0706800722
 10
237.4335213539
 20
51.9185693982
 10
236.7979073657
 20
50.734111508
 10
236.2255064062
 20
49.5260744774
 10
235.7205562095
 20
48.3034032337
 10
235.2867940155
 20
47.0751488359
 10
234.9274328629
 20
45.8504061186
 10
234.6451326131
 20
44.6382422115
 10
234.4419828276
 20
43.4476313312
 10
234.3194882808
 20
42.2873882422
 10
234.2785557883
 20
41.1661034284
  0
SPLINE
  5
295
330
1F
100
AcDbEntity
  8
0
  6
Continuous
 62
     7
370
    25
100
AcDbSpline
210
0.0
220
0.0
230
1.0
 70
     8
 71
     3
 72
    25
 73
    21
 74
     0
 42
0.000000001
 43
0.00000001
 40
0.0
 40
0.0
 40
0.0
 40
0.0
 40
0.1249999999999998
 40
0.1249999999999998
 40
0.2499999999999997
 40
0.2499999999999997
 40
0.3749999999999995
 40
0.3749999999999995
 40
0.4999999999999993
 40
0.4999999999999993
 40
0.5624999999999996
 40
0.5624999999999996
 40
0.6249999999999998
 40
0.6875000000000001
 40
0.6875000000000001
 40
0.7500000000000003
 40
0.7500000000000003
 40
0.8750000000000001
 40
0.8750000000000001
 40
1.0
 40
1.0
 40
1.0
 40
1.0
 10
239.0414343788578
 20
57.55709754656429
 30
0.0
 10
239.0705576771188
 20
57.4459120260351
 30
0.0
 10
239.0829467179781
 20
57.33066981360707
 30
0.0
 10
239.0759692328778
 20
57.09157424577128
 30
0.0
 10
239.0559516450258
 20
56.96680027589601
 30
0.0
 10
238.9857294873125
 20
56.72043136668358
 30
0.0
 10
238.9350788327189
 20
56.59622021932248
 30
0.0
 10
238.8051640890637
 20
56.35259172401231
 30
0.0
 10
238.7274631410744
 20
56.23553462895414
 30
0.0
 10
238.5920895588482
 20
56.06687811110411
 30
0.0
 10
238.5434550615412
 20
56.01151108983195
 30
0.0
 10
238.4420157261591
 20
55.90579127843493
 30
0.0
 10
238.3361457434184
 20
55.80463031981449
 30
0.0
 10
238.2215539510909
 20
55.71245599813768
 30
0.0
 10
238.1024712818727
 20
55.62491915539756
 30
0.0
 10
238.0405132688153
 20
55.58342068588539
 30
0.0
 10
237.8526495652947
 20
55.46930036414728
 30
0.0
 10
237.7232721289407
 20
55.40569293303268
 30
0.0
 10
237.4555888758787
 20
55.30442463205845
 30
0.0
 10
237.3197171894136
 20
55.26788372383366
 30
0.0
 10
237.184199922686
 20
55.24671553948358
 30
0.0
  0
LWPOLYLINE
  5
296
330
1F
100
AcDbEntity
  8
0
  6
Continuous
 62
     7
370
    25
100
AcDbPolyline
 90
       15
 70
   128
 43
0.0
 10
239.0414344906
 20
57.5570975791
 10
239.9463833044
 20
58.5008273417
 10
240.8798135096
 20
59.3678400761
 10
241.8345482882
 20
60.151470238
 10
242.8032479147
 20
60.8456936061
 10
243.7784648887
 20
61.4451705169
 10
244.7527017426
 20
61.9452959659
 10
245.7184684588
 20
62.3422228682
 10
246.6683400509
 20
62.6328991017
 10
247.5950139188
 20
62.8150907314
 10
248.4913657633
 20
62.887397558
 10
249.3505045748
 20
62.8492628089
 10
250.1658248225
 20
62.700979692
 10
250.9310588091
 20
62.4436889194
 10
251.519083737
 20
62.1515483118
  0
LWPOLYLINE
  5
297
330
1F
100
AcDbEntity
  8
0
  6
Continuous
 62
     7
370
    25
100
AcDbPolyline
 90
       21
 70
   128
 43
0.0
 10
235.7828624225
 20
34.892659918
 10
235.1567024992
 20
35.3168660896
 10
234.5641560047
 20
35.8585187984
 10
234.040348386
 20
36.4959674118
 10
233.5892427638
 20
37.2243913639
 10
233.2142510574
 20
38.0382788797
 10
232.9182102764
 20
38.931473746
 10
232.7033594721
 20
39.8972184694
 10
232.5713239324
 20
40.928207986
 10
232.5231039865
 20
42.0166438808
 10
232.5590618337
 20
43.1542909601
 10
232.6789281294
 20
44.3325447186
 10
232.8817940822
 20
45.5424909649
 10
233.1661259418
 20
46.7749769114
 10
233.5297729021
 20
48.0206798653
 10
233.9699835639
 20
49.270175668
 10
234.4834283262
 20
50.5140124584
 10
235.0662230936
 20
51.7427813938
 10
235.7139589106
 20
52.9471862289
 10
236.4217355475
 20
54.1181166979
 10
237.1841996959
 20
55.2467150511
  0
LWPOLYLINE
  5
298
330
1F
100
AcDbEntity
  8
0
  6
Continuous
 62
     7
370
    25
100
AcDbPolyline
 90
       12
 70
   128
 43
0.0
 10
237.3788130982
 20
57.6813740597
 10
238.2499723225
 20
58.6113207513
 10
239.1515665106
 20
59.464086539
 10
240.0758864111
 20
60.2323791171
 10
241.0150281729
 20
60.9096288278
 10
241.9609613292
 20
61.4900446382
 10
242.9055970912
 20
61.9686642116
 10
243.8408579678
 20
62.341393338
 10
244.7587466873
 20
62.6050464819
 10
245.6514143046
 20
62.7573678486
 10
246.5112274656
 20
62.7970557666
 10
247.1793636744
 20
62.7462606927
  0
SPLINE
  5
299
330
1F
100
AcDbEntity
  8
0
  6
Continuous
 62
     7
370
    25
100
AcDbSpline
210
0.0
220
0.0
230
1.0
 70
     8
 71
     3
 72
    26
 73
    22
 74
     0
 42
0.000000001
 43
0.00000001
 40
0.0
 40
0.0
 40
0.0
 40
0.0
 40
0.1250000000000011
 40
0.1250000000000011
 40
0.2500000000000023
 40
0.2500000000000023
 40
0.3125000000000019
 40
0.3125000000000019
 40
0.3750000000000016
 40
0.3750000000000016
 40
0.4375000000000013
 40
0.4375000000000013
 40
0.500000000000001
 40
0.500000000000001
 40
0.5625000000000007
 40
0.5625000000000007
 40
0.6250000000000003
 40
0.6250000000000003
 40
0.7500000000000002
 40
0.7500000000000002
 40
1.0
 40
1.0
 40
1.0
 40
1.0
 10
236.0346198932302
 20
56.00921077343912
 30
0.0
 10
236.0109822969982
 20
56.11878663301211
 30
0.0
 10
235.9934145181165
 20
56.22967589137664
 30
0.0
 10
235.974601935247
 20
56.45500585123958
 30
0.0
 10
235.9734221604796
 20
56.57068276455795
 30
0.0
 10
235.989520163715
 20
56.74203827441751
 30
0.0
 10
235.9978388808152
 20
56.79883678651168
 30
0.0
 10
236.0215960300722
 20
56.91166299890876
 30
0.0
 10
236.0372184091212
 20
56.96811585257491
 30
0.0
 10
236.0760756215182
 20
57.07669896898351
 30
0.0
 10
236.0993015782207
 20
57.12907892920905
 30
0.0
 10
236.154300227699
 20
57.22953570448117
 30
0.0
 10
236.1863784947217
 20
57.27781457225261
 30
0.0
 10
236.2567932432567
 20
57.36551154783635
 30
0.0
 10
236.2953716653834
 20
57.40550067581231
 30
0.0
 10
236.3790799289796
 20
57.4779793599279
 30
0.0
 10
236.4242086389215
 20
57.51031598430452
 30
0.0
 10
236.5634892811116
 20
57.59351575165817
 30
0.0
 10
236.6642783526733
 20
57.63234447429425
 30
0.0
 10
236.9673506239059
 20
57.70776076174943
 30
0.0
 10
237.175874714391
 20
57.70763061537868
 30
0.0
 10
237.3788131340814
 20
57.68137438605245
 30
0.0
  0
LWPOLYLINE
  5
29A
330
1F
100
AcDbEntity
  8
0
  6
Continuous
 62
     7
370
    25
100
AcDbPolyline
 90
       18
 70
   128
 43
0.0
 10
233.0976412643
 20
38.3533594834
 10
232.7711151409
 20
38.8227265258
 10
232.3712416473
 20
39.5657670906
 10
232.0498633663
 20
40.3921394183
 10
231.8096526716
 20
41.2949700042
 10
231.6526075871
 20
42.2667507059
 10
231.5800346653
 20
43.2993994151
 10
231.5925364742
 20
44.3843270983
 10
231.6900096224
 20
45.5125108968
 10
231.8716441003
 20
46.6745680341
 10
232.1359278895
 20
47.8608332163
 10
232.4806634271
 20
49.061440594
 10
232.9029847273
 20
50.2664053684
 10
233.3993777968
 20
51.4657057288
 10
233.9657148784
 20
52.6493659299
 10
234.5972860618
 20
53.8075437427
 10
235.2888381377
 20
54.9306057357
 10
236.0346200366
 20
56.0092105424
  0
LINE
  5
29B
330
1F
100
AcDbEntity
  8
0
  6
Continuous
 62
     7
370
    25
100
AcDbLine
 10
234.5592276223
 20
35.7652895983
 30
0.0
 11
234.6774309285
 21
35.8211520499
 31
0.0
  0
LWPOLYLINE
  5
29C
330
1F
100
AcDbEntity
  8
0
  6
Continuous
 62
     7
370
    25
100
AcDbPolyline
 90
       41
 70
   128
 43
0.0
 10
234.5592276223
 20
35.7652895983
 10
233.8228787148
 20
36.0462447867
 10
233.1417902527
 20
36.4295542356
 10
232.5210014185
 20
36.912384748
 10
231.9651035844
 20
37.4911632384
 10
231.4782100195
 20
38.1616086752
 10
231.0639216452
 20
38.9187621223
 10
230.7253033275
 20
39.7570217223
 10
230.4648595113
 20
40.6701873766
 10
230.2845177564
 20
41.6515040925
 10
230.1856109567
 20
42.6937123187
 10
230.1688720724
 20
43.789103293
 10
230.2344222756
 20
44.9295725845
 10
230.3817801704
 20
46.1066858257
 10
230.6098532313
 20
47.3117340368
 10
230.9169555844
 20
48.535803705
 10
231.3008152512
 20
49.7698404022
 10
231.7585919292
 20
51.0047146575
 10
232.2869000411
 20
52.2312924887
 10
232.8818317838
 20
53.4405004192
 10
233.5389854458
 20
54.623393537
 10
234.2535003101
 20
55.7712212715
 10
235.0200915569
 20
56.8754939307
 10
235.8330871426
 20
57.9280412533
 10
236.686473897
 20
58.9210785645
 10
237.573939342
 20
59.8472590545
 10
238.4889177886
 20
60.6997323291
 10
239.4246417044
 20
61.4721923145
 10
240.374188881
 20
62.1589250191
 10
241.3305351875
 20
62.7548496342
 10
242.2866064127
 20
63.2555575868
 10
243.2353300794
 20
63.6573470147
 10
244.1696883384
 20
63.9572449362
 10
245.0827695184
 20
64.1530316858
 10
245.9678187635
 20
64.2432602613
 10
246.8182898122
 20
64.2272626398
 10
247.6278912594
 20
64.1051574736
 10
248.3906339722
 20
63.877847804
 10
249.1008761997
 20
63.5470151636
 10
249.7533634153
 20
63.1151068348
 10
250.2514877982
 20
62.6782791072
  0
LWPOLYLINE
  5
29D
330
1F
100
AcDbEntity
  8
0
  6
Continuous
 62
     7
370
    25
100
AcDbPolyline
 90
       27
 70
   128
 43
0.0
 10
227.9145950316
 20
44.8399397734
 10
227.955527524
 20
45.9612245872
 10
228.0780220709
 20
47.1214676762
 10
228.2811718563
 20
48.3120785565
 10
228.5634721062
 20
49.5242424636
 10
228.9228332588
 20
50.7489851809
 10
229.3565954528
 20
51.9772395788
 10
229.8615456495
 20
53.1999108224
 10
230.433946609
 20
54.407947853
 10
231.0695605972
 20
55.5924057432
 10
231.7636809966
 20
56.7445164173
 10
232.5111691843
 20
57.8557491044
 10
233.3064907524
 20
58.9178776364
 10
234.1437579837
 20
59.9230369079
 10
235.0167713402
 20
60.8637863713
 10
235.9190675367
 20
61.7331598422
 10
236.8439667917
 20
62.5247216749
 10
237.784620901
 20
63.2326120046
 10
238.7340657562
 20
63.8515877129
 10
239.6852720533
 20
64.3770691914
 10
240.6311973174
 20
64.8051627704
 10
241.5648384215
 20
65.1327016841
 10
242.4792827886
 20
65.3572588984
 10
243.3677604165
 20
65.4771725816
 10
244.223693104
 20
65.4915555105
 10
245.0407436774
 20
65.4003006742
 10
245.7350932503
 20
65.2292606494
  0
LWPOLYLINE
  5
29E
330
1F
100
AcDbEntity
  8
0
  6
Continuous
 62
     7
370
    25
100
AcDbPolyline
 90
        3
 70
   128
 43
0.0
 10
227.9887906071
 20
43.4060714748
 10
227.955527524
 20
43.7659146094
 10
227.924544322
 20
44.3041471052
  0
SPLINE
  5
29F
330
1F
100
AcDbEntity
  8
0
  6
Continuous
 62
     7
370
    25
100
AcDbSpline
210
0.0
220
0.0
230
1.0
 70
     8
 71
     3
 72
    10
 73
     6
 74
     0
 42
0.000000001
 43
0.00000001
 40
0.0
 40
0.0
 40
0.0
 40
0.0
 40
0.5
 40
0.5
 40
1.0
 40
1.0
 40
1.0
 40
1.0
 10
236.7613079608615
 20
54.54615749261939
 30
0.0
 10
236.6573434700773
 20
54.61949586568976
 30
0.0
 10
236.5675351936499
 20
54.70673162348318
 30
0.0
 10
236.4154927656512
 20
54.90766216467917
 30
0.0
 10
236.3535871772903
 20
55.02183293087614
 30
0.0
 10
236.3091374726998
 20
55.14485061403624
 30
0.0
  0
SPLINE
  5
2A0
330
1F
100
AcDbEntity
  8
0
  6
Continuous
 62
     7
370
    25
100
AcDbSpline
210
0.0
220
0.0
230
1.0
 70
     8
 71
     3
 72
    14
 73
    10
 74
     0
 42
0.000000001
 43
0.00000001
 40
0.0
 40
0.0
 40
0.0
 40
0.0
 40
0.25
 40
0.25
 40
0.5
 40
0.5
 40
0.75
 40
0.75
 40
1.0
 40
1.0
 40
1.0
 40
1.0
 10
236.3091374726998
 20
55.14485061403624
 30
0.0
 10
236.2864166698347
 20
55.20773203369378
 30
0.0
 10
236.2645021594852
 20
55.2767784631672
 30
0.0
 10
236.2223911054224
 20
55.42443097978597
 30
0.0
 10
236.2028695515094
 20
55.50083076664428
 30
0.0
 10
236.1645233093356
 20
55.65516305803988
 30
0.0
 10
236.1461637164518
 20
55.73211565437153
 30
0.0
 10
236.1041602718701
 20
55.87750582188751
 30
0.0
 10
236.0803839508571
 20
55.94409672808054
 30
0.0
 10
236.0519224467549
 20
55.98459234331188
 30
0.0
  0
LINE
  5
2A1
330
1F
100
AcDbEntity
  8
0
  6
Continuous
 62
     7
370
    25
100
AcDbLine
 10
236.051922635
 20
55.9845927351
 30
0.0
 11
236.0346200366
 21
56.0092105424
 31
0.0
  0
LINE
  5
2A2
330
1F
100
AcDbEntity
  8
0
  6
Continuous
 62
     7
370
    25
100
AcDbLine
 10
237.3788130982
 20
57.6813740597
 30
0.0
 11
237.3961156966
 21
57.6567562523
 31
0.0
  0
SPLINE
  5
2A3
330
1F
100
AcDbEntity
  8
0
  6
Continuous
 62
     7
370
    25
100
AcDbSpline
210
0.0
220
0.0
230
1.0
 70
     8
 71
     3
 72
    16
 73
    12
 74
     0
 42
0.000000001
 43
0.00000001
 40
0.0
 40
0.0
 40
0.0
 40
0.0
 40
0.1250000000000001
 40
0.1250000000000001
 40
0.2500000000000003
 40
0.2500000000000003
 40
0.5000000000000002
 40
0.5000000000000002
 40
0.7500000000000001
 40
0.7500000000000001
 40
1.0
 40
1.0
 40
1.0
 40
1.0
 10
237.3961156876061
 20
57.65675595592516
 30
0.0
 10
237.4102680940102
 20
57.63661962011237
 30
0.0
 10
237.4319264984839
 20
57.61982219943495
 30
0.0
 10
237.4843444275192
 20
57.59297667810346
 30
0.0
 10
237.5149373066576
 20
57.58275119354248
 30
0.0
 10
237.6140181555151
 20
57.55825075310979
 30
0.0
 10
237.687900693131
 20
57.54999083070829
 30
0.0
 10
237.8410002855223
 20
57.53880486400337
 30
0.0
 10
237.9190842601699
 20
57.53620819225218
 30
0.0
 10
238.0784278939121
 20
57.53417919141847
 30
0.0
 10
238.1570807887436
 20
57.5348167800807
 30
0.0
 10
238.2328332565363
 20
57.53790988089575
 30
0.0
  0
SPLINE
  5
2A4
330
1F
100
AcDbEntity
  8
0
  6
Continuous
 62
     7
370
    25
100
AcDbSpline
210
0.0
220
0.0
230
1.0
 70
     8
 71
     3
 72
    10
 73
     6
 74
     0
 42
0.000000001
 43
0.00000001
 40
0.0
 40
0.0
 40
0.0
 40
0.0
 40
0.5
 40
0.5
 40
1.0
 40
1.0
 40
1.0
 40
1.0
 10
238.2328332565362
 20
57.53790988089575
 30
0.0
 10
238.381027596437
 20
57.54396090532951
 30
0.0
 10
238.5232520621676
 20
57.53379867511638
 30
0.0
 10
238.7956434525083
 20
57.48274823917629
 30
0.0
 10
238.9257707823769
 20
57.44138713653174
 30
0.0
 10
239.0438461245622
 20
57.38561326857946
 30
0.0
  0
LINE
  5
2A5
330
1F
100
AcDbEntity
  8
0
  6
Continuous
 62
     7
370
    25
100
AcDbLine
 10
239.199049216
 20
57.4140318761
 30
0.0
 11
239.1816560677
 21
57.4387791607
 31
0.0
  0
ARC
  5
2A6
330
1F
100
AcDbEntity
  8
0
  6
Continuous
 62
     7
370
    25
100
AcDbCircle
 10
221.7264671133
 20
52.6616841032
 30
0.0
 40
4.160340149630193
100
AcDbArc
 50
211.7954354499
 51
236.1628935314
  0
SPLINE
  5
2A7
330
1F
100
AcDbEntity
  8
0
  6
Continuous
 62
     7
370
    25
100
AcDbSpline
210
0.0
220
0.0
230
1.0
 70
     8
 71
     3
 72
     8
 73
     4
 74
     0
 42
0.000000001
 43
0.00000001
 40
0.0
 40
0.0
 40
0.0
 40
0.0
 40
1.0
 40
1.0
 40
1.0
 40
1.0
 10
219.6208924554254
 20
49.5449088493408
 30
0.0
 10
219.1441191636013
 20
49.85300165727344
 30
0.0
 10
218.6673167867564
 20
50.16123110284619
 30
0.0
 10
218.1904843422307
 20
50.46959625906611
 30
0.0
  0
SPLINE
  5
2A8
330
1F
100
AcDbEntity
  8
0
  6
Continuous
 62
     7
370
    25
100
AcDbSpline
210
0.0
220
0.0
230
1.0
 70
     8
 71
     3
 72
    23
 73
    19
 74
     0
 42
0.000000001
 43
0.00000001
 40
0.0
 40
0.0
 40
0.0
 40
0.0
 40
0.0521036415683759
 40
0.1035646240941235
 40
0.1544751946756683
 40
0.2049306267495642
 40
0.2550287880866983
 40
0.3048696389163111
 40
0.354554670462894
 40
0.4041862979539558
 40
0.453867225213789
 40
0.5036997999428097
 40
0.590187023078111
 40
0.6742716378282376
 40
0.7565997087281883
 40
0.8378563983773627
 40
0.9187511781400207
 40
0.9999999999999999
 40
0.9999999999999999
 40
0.9999999999999999
 40
0.9999999999999999
 10
220.5014572589671
 20
49.3701781512207
 30
0.0
 10
220.4961883200272
 20
49.36025668898531
 30
0.0
 10
220.4857154305276
 20
49.34053613825329
 30
0.0
 10
220.4664691347656
 20
49.31596830929983
 30
0.0
 10
220.4446733944334
 20
49.29527972703973
 30
0.0
 10
220.4200221032288
 20
49.27874879174225
 30
0.0
 10
220.39252558869
 20
49.26623129216593
 30
0.0
 10
220.3621145346826
 20
49.25769666834375
 30
0.0
 10
220.3287441629097
 20
49.25308679569621
 30
0.0
 10
220.2923682746373
 20
49.25235205256061
 30
0.0
 10
220.2529399030475
 20
49.25544713511308
 30
0.0
 10
220.2000915114951
 20
49.26398291059444
 30
0.0
 10
220.1315525177218
 20
49.28157934944403
 30
0.0
 10
220.0438312857647
 20
49.31321595753163
 30
0.0
 10
219.9491003662698
 20
49.35539561486488
 30
0.0
 10
219.8470661189409
 20
49.40813205059116
 30
0.0
 10
219.7381522057549
 20
49.4704486065
 30
0.0
 10
219.6600358947714
 20
49.52005266474943
 30
0.0
 10
219.6208924554254
 20
49.54490884934079
 30
0.0
  0
SPLINE
  5
2A9
330
1F
100
AcDbEntity
  8
0
  6
Continuous
 62
     7
370
    25
100
AcDbSpline
210
0.0
220
0.0
230
1.0
 70
     8
 71
     3
 72
     8
 73
     4
 74
     0
 42
0.000000001
 43
0.00000001
 40
0.0
 40
0.0
 40
0.0
 40
0.0
 40
1.0
 40
1.0
 40
1.0
 40
1.0
 10
221.9749602854249
 20
48.42285801466192
 30
0.0
 10
221.4835929733822
 20
48.73873263463026
 30
0.0
 10
220.9922067734546
 20
49.0547186559206
 30
0.0
 10
220.5008010633093
 20
49.37081553676415
 30
0.0
  0
SPLINE
  5
2AA
330
1F
100
AcDbEntity
  8
0
  6
Continuous
 62
     7
370
    25
100
AcDbSpline
210
0.0
220
0.0
230
1.0
 70
     8
 71
     3
 72
    18
 73
    14
 74
     0
 42
0.000000001
 43
0.00000001
 40
0.0
 40
0.0
 40
0.0
 40
0.0
 40
0.0923824559461122
 40
0.1844689291660427
 40
0.2764953616062392
 40
0.3686975365619641
 40
0.4613092840130473
 40
0.5545607518559533
 40
0.6486768051632873
 40
0.7438756050210469
 40
0.8403674044324065
 40
0.9203921078135461
 40
1.0
 40
1.0
 40
1.0
 40
1.0
 10
222.7885244046205
 20
47.77855029012014
 30
0.0
 10
222.7649568904962
 20
47.79382426438647
 30
0.0
 10
222.7178973698427
 20
47.82432327686845
 30
0.0
 10
222.6454995818771
 20
47.87395584948109
 30
0.0
 10
222.5720173729798
 20
47.92628539215076
 30
0.0
 10
222.4973179252339
 20
47.98160307785921
 30
0.0
 10
222.4214571354658
 20
48.03984139297278
 30
0.0
 10
222.3444458546799
 20
48.10103430460976
 30
0.0
 10
222.2663137226008
 20
48.16519802119015
 30
0.0
 10
222.1870874879596
 20
48.2323469810555
 30
0.0
 10
222.1117910035521
 20
48.29819789080047
 30
0.0
 10
222.040963695432
 20
48.36172947760785
 30
0.0
 10
221.9970593246256
 20
48.40239022262093
 30
0.0
 10
221.9751644578208
 20
48.42266751118918
 30
0.0
  0
LINE
  5
2AB
330
1F
100
AcDbEntity
  8
0
  6
Continuous
 62
     7
370
    25
100
AcDbLine
 10
223.4282309365
 20
47.3667964836
 30
0.0
 11
222.7885240941
 21
47.7785501512
 31
0.0
  0
SPLINE
  5
2AC
330
1F
100
AcDbEntity
  8
0
  6
Continuous
 62
     7
370
    25
100
AcDbSpline
210
0.0
220
0.0
230
1.0
 70
     8
 71
     3
 72
    25
 73
    21
 74
     0
 42
0.000000001
 43
0.00000001
 40
0.0
 40
0.0
 40
0.0
 40
0.0
 40
0.0280105225426455
 40
0.0559601148860774
 40
0.0839014045043129
 40
0.1118870776786379
 40
0.1399695827588941
 40
0.1682008401739877
 40
0.1966319670424218
 40
0.2253130233141493
 40
0.2542927850735863
 40
0.3799486436570518
 40
0.505785022166658
 40
0.6313085886329272
 40
0.7532068238012843
 40
0.8039473267959846
 40
0.8535894438560211
 40
0.902533972239985
 40
0.9511970353794947
 40
1.0
 40
1.0
 40
1.0
 40
1.0
 10
224.5305965296107
 20
48.08270247399722
 30
0.0
 10
224.5355446371414
 20
48.05507861288974
 30
0.0
 10
224.5454300887769
 20
47.99989097978442
 30
0.0
 10
224.5569657383801
 20
47.9207302724145
 30
0.0
 10
224.5660388601928
 20
47.84442693331612
 30
0.0
 10
224.5724076689058
 20
47.7712311723465
 30
0.0
 10
224.5761239077159
 20
47.70108370413313
 30
0.0
 10
224.5771605286987
 20
47.63400741762034
 30
0.0
 10
224.5755120534718
 20
47.5700035083939
 30
0.0
 10
224.5711659016029
 20
47.50907465512707
 30
0.0
 10
224.5563095770355
 20
47.38718653363095
 30
0.0
 10
224.5112213199693
 20
47.2322856619769
 30
0.0
 10
224.3978617994785
 20
47.10134254363341
 30
0.0
 10
224.2360375774855
 20
47.0454661428206
 30
0.0
 10
224.0620223583521
 20
47.06534019520515
 30
0.0
 10
223.9106614376645
 20
47.11265799756162
 30
0.0
 10
223.8002612049657
 20
47.15757342129729
 30
0.0
 10
223.6831017095169
 20
47.21494915258842
 30
0.0
 10
223.5595360425836
 20
47.28362621704088
 30
0.0
 10
223.4720409924891
 20
47.33904646299371
 30
0.0
 10
223.4282306728078
 20
47.36679636072378
 30
0.0
  0
ARC
  5
2AD
330
1F
100
AcDbEntity
  8
0
  6
Continuous
 62
     7
370
    25
100
AcDbCircle
 10
235.723617694
 20
49.8687528426
 30
0.0
 40
11.33462419218391
100
AcDbArc
 50
170.9338462887
 51
189.0661537113
  0
SPLINE
  5
2AE
330
1F
100
AcDbEntity
  8
0
  6
Continuous
 62
     7
370
    25
100
AcDbSpline
210
0.0
220
0.0
230
1.0
 70
     8
 71
     3
 72
    26
 73
    22
 74
     0
 42
0.000000001
 43
0.00000001
 40
0.0
 40
0.0
 40
0.0
 40
0.0
 40
0.0241259796963637
 40
0.048215991227299
 40
0.0723203915124064
 40
0.0964895678710793
 40
0.120773623196351
 40
0.1452220711242841
 40
0.1698835501657706
 40
0.1948055644472381
 40
0.2200342569517629
 40
0.2456142191611394
 40
0.3690971486901671
 40
0.4940698769485191
 40
0.6192566784762444
 40
0.7454656653603234
 40
0.7971495824713715
 40
0.8481710308405401
 40
0.8988013269235245
 40
0.9493179290492194
 40
1.0
 40
1.0
 40
1.0
 40
1.0
 10
223.4282306728078
 20
55.13090675208834
 30
0.0
 10
223.4499489021838
 20
55.11657522869325
 30
0.0
 10
223.4933529823599
 20
55.08793354802421
 30
0.0
 10
223.5566600997213
 20
55.0399412500954
 30
0.0
 10
223.6185216674393
 20
54.98834205220972
 30
0.0
 10
223.6788261825758
 20
54.93276725933649
 30
0.0
 10
223.7376160345156
 20
54.87331201870933
 30
0.0
 10
223.7948965529454
 20
54.80994770987192
 30
0.0
 10
223.8506876922716
 20
54.742678931908
 30
0.0
 10
223.9050089396935
 20
54.67150481794788
 30
0.0
 10
223.9578879149024
 20
54.5964156781996
 30
0.0
 10
224.0746827396387
 20
54.41716122949774
 30
0.0
 10
224.2365522975652
 20
54.10685575765437
 30
0.0
 10
224.3997372050971
 20
53.63694196952268
 30
0.0
 10
224.5112486102705
 20
53.13797893561264
 30
0.0
 10
224.558382448379
 20
52.72909526255563
 30
0.0
 10
224.5735013879115
 20
52.42482330596493
 30
0.0
 10
224.5754545268941
 20
52.22357406426961
 30
0.0
 10
224.568976501255
 20
52.02791414454702
 30
0.0
 10
224.5548495785678
 20
51.83727785664955
 30
0.0
 10
224.5386896868828
 20
51.71569458291074
 30
0.0
 10
224.5305965296107
 20
51.65480354631185
 30
0.0
  0
LINE
  5
2AF
330
1F
100
AcDbEntity
  8
0
  6
Continuous
 62
     7
370
    25
100
AcDbLine
 10
222.7885240941
 20
55.5438816024
 30
0.0
 11
223.4282309365
 21
55.1309066313
 31
0.0
  0
SPLINE
  5
2B0
330
1F
100
AcDbEntity
  8
0
  6
Continuous
 62
     7
370
    25
100
AcDbSpline
210
0.0
220
0.0
230
1.0
 70
     8
 71
     3
 72
    14
 73
    10
 74
     0
 42
0.000000001
 43
0.00000001
 40
0.0
 40
0.0
 40
0.0
 40
0.0
 40
0.0789261963152472
 40
0.1582328720511064
 40
0.3308475394503796
 40
0.5000195457530386
 40
0.6670357883499396
 40
0.8332395193610692
 40
1.0
 40
1.0
 40
1.0
 40
1.0
 10
221.9745716887705
 20
55.75246403537131
 30
0.0
 10
221.9962885701057
 20
55.75406719923005
 30
0.0
 10
222.0398270233202
 20
55.75728125531765
 30
0.0
 10
222.1313521419672
 20
55.75810229538714
 30
0.0
 10
222.2482604753984
 20
55.75016631360566
 30
0.0
 10
222.3890808137792
 20
55.72389064472882
 30
0.0
 10
222.5262931215917
 20
55.68093304619646
 30
0.0
 10
222.6602237960102
 20
55.6225759213856
 30
0.0
 10
222.7457098879711
 20
55.57014237523443
 30
0.0
 10
222.7885244046205
 20
55.54388176507923
 30
0.0
  0
SPLINE
  5
2B1
330
1F
100
AcDbEntity
  8
0
  6
Continuous
 62
     7
370
    25
100
AcDbSpline
210
0.0
220
0.0
230
1.0
 70
     8
 71
     3
 72
     8
 73
     4
 74
     0
 42
0.000000001
 43
0.00000001
 40
0.0
 40
0.0
 40
0.0
 40
0.0
 40
1.0
 40
1.0
 40
1.0
 40
1.0
 10
220.1722681057648
 20
56.91485544678564
 30
0.0
 10
220.7730263294617
 20
56.52758796362623
 30
0.0
 10
221.3737551923229
 20
56.14012061370241
 30
0.0
 10
221.9744558366706
 20
55.75245372111229
 30
0.0
  0
SPLINE
  5
2B2
330
1F
100
AcDbEntity
  8
0
  6
Continuous
 62
     7
370
    25
100
AcDbSpline
210
0.0
220
0.0
230
1.0
 70
     8
 71
     3
 72
    13
 73
     9
 74
     0
 42
0.000000001
 43
0.00000001
 40
0.0
 40
0.0
 40
0.0
 40
0.0
 40
0.1667030582307959
 40
0.3329480818053031
 40
0.4990671507274871
 40
0.6653938523718408
 40
0.8322612710550125
 40
1.0
 40
1.0
 40
1.0
 40
1.0
 10
219.8304395707304
 20
57.21592022587142
 30
0.0
 10
219.8507407531704
 20
57.20235511919219
 30
0.0
 10
219.891287338359
 20
57.17526217742935
 30
0.0
 10
219.9504369753467
 20
57.13006760442163
 30
0.0
 10
220.0082085202492
 20
57.08165645593867
 30
0.0
 10
220.0644582577088
 20
57.02962134116822
 30
0.0
 10
220.1193854664549
 20
56.9743233739592
 30
0.0
 10
220.1546061760455
 20
56.93470611879884
 30
0.0
 10
220.1722623879864
 20
56.91484590979791
 30
0.0
  0
SPLINE
  5
2B3
330
1F
100
AcDbEntity
  8
0
  6
Continuous
 62
     7
370
    25
100
AcDbSpline
210
0.0
220
0.0
230
1.0
 70
     8
 71
     3
 72
     8
 73
     4
 74
     0
 42
0.000000001
 43
0.00000001
 40
0.0
 40
0.0
 40
0.0
 40
0.0
 40
1.0
 40
1.0
 40
1.0
 40
1.0
 10
217.8864590549397
 20
58.4706420782509
 30
0.0
 10
218.53448912734
 20
58.05264676236614
 30
0.0
 10
219.1824821044418
 20
57.63440599994851
 30
0.0
 10
219.8304395707304
 20
57.21592022587142
 30
0.0
  0
LWPOLYLINE
  5
2B4
330
1F
100
AcDbEntity
  8
0
  6
Continuous
 62
     7
370
    25
100
AcDbPolyline
 90
       20
 70
   128
 43
0.0
 10
217.8864597052
 20
58.4706421287
 10
218.2507829907
 20
59.536200866
 10
218.6880934225
 20
60.596995679
 10
219.1939122394
 20
61.6421626349
 10
219.763059989
 20
62.6609983244
 10
220.3897069059
 20
63.6430687929
 10
221.067436791
 20
64.5783179011
 10
221.789308256
 20
65.4571665591
 10
222.547929468
 20
66.2706159526
 10
223.3355314127
 20
67.0103347037
 10
224.1440483195
 20
67.6687478856
 10
224.9652002258
 20
68.239112823
 10
225.7905780122
 20
68.7155887142
 10
226.6117291776
 20
69.0932960341
 10
227.420244438
 20
69.3683665267
 10
228.2078439132
 20
69.5379830738
 10
228.9664618324
 20
69.6004095825
 10
229.6883300047
 20
69.5550057114
 10
230.3660549507
 20
69.4022371774
 10
230.9361974318
 20
69.1723890939
  0
SPLINE
  5
2B5
330
1F
100
AcDbEntity
  8
0
  6
Continuous
 62
     7
370
    25
100
AcDbSpline
210
0.0
220
0.0
230
1.0
 70
    11
 71
     3
 72
    39
 73
    35
 74
     0
 42
0.000000001
 43
0.00000001
 40
0.0
 40
0.0
 40
0.0
 40
0.0
 40
0.0310664058350965
 40
0.0621048158425859
 40
0.093136155179263
 40
0.1235538293503448
 40
0.1538561545806855
 40
0.1850588072748946
 40
0.2160250992945718
 40
0.2471867223797388
 40
0.2784462884305076
 40
0.3100516090231096
 40
0.3419834369141944
 40
0.3734259894013148
 40
0.4048604886786042
 40
0.4368740651833136
 40
0.4685120685925458
 40
0.4998055358633138
 40
0.5309508213230685
 40
0.5618649784438015
 40
0.5930416446594986
 40
0.6233742450133227
 40
0.6540913579075065
 40
0.6849496782718291
 40
0.71581606451649
 40
0.7471731804043279
 40
0.7784514311862922
 40
0.8101295911560753
 40
0.8419598919688862
 40
0.8735175891922173
 40
0.9050808037887091
 40
0.9370235169792366
 40
0.968744159003463
 40
1.0
 40
1.0
 40
1.0
 40
1.0
 10
231.0950445361451
 20
67.47583245359233
 30
0.0
 10
231.3579301563454
 20
67.44729796630132
 30
0.0
 10
231.8848187668281
 20
67.36135547797815
 30
0.0
 10
232.6488308359019
 20
67.16098035790876
 30
0.0
 10
233.3559810239506
 20
66.91397825168971
 30
0.0
 10
233.9688920885449
 20
66.63599637353765
 30
0.0
 10
234.4660234142193
 20
66.34186267620775
 30
0.0
 10
234.8252151352916
 20
66.0403561480157
 30
0.0
 10
235.0469344040524
 20
65.73335864311235
 30
0.0
 10
235.1121862814337
 20
65.4228533817105
 30
0.0
 10
235.0253390703206
 20
65.10370889696125
 30
0.0
 10
234.7829934825602
 20
64.77438893138819
 30
0.0
 10
234.4030556198347
 20
64.43544820983041
 30
0.0
 10
233.8892496666744
 20
64.09760974542009
 30
0.0
 10
233.2633588557636
 20
63.77171184411248
 30
0.0
 10
232.549887869275
 20
63.47506495087142
 30
0.0
 10
231.7859853930108
 20
63.2189616424314
 30
0.0
 10
231.0001923101044
 20
63.02993407444298
 30
0.0
 10
230.2186548550638
 20
62.92175815238944
 30
0.0
 10
229.4625418703083
 20
62.91409426902059
 30
0.0
 10
228.7601772839186
 20
63.01201630440708
 30
0.0
 10
228.1411569368746
 20
63.23366473791067
 30
0.0
 10
227.6320996718653
 20
63.56953282482264
 30
0.0
 10
227.2591560784305
 20
64.00934339100151
 30
0.0
 10
227.0305541271856
 20
64.5204180315238
 30
0.0
 10
226.9617078204635
 20
65.07160311928443
 30
0.0
 10
227.0463242336872
 20
65.6292750475973
 30
0.0
 10
227.2894330236232
 20
66.15935518851678
 30
0.0
 10
227.67156286644
 20
66.63187953763165
 30
0.0
 10
228.1876984408526
 20
67.01800104852451
 30
0.0
 10
228.8146763013551
 20
67.30162523585668
 30
0.0
 10
229.5305837337214
 20
67.4713624545841
 30
0.0
 10
230.2990271259055
 20
67.53290128929693
 30
0.0
 10
230.8305559052789
 20
67.50454093703965
 30
0.0
 10
231.0950445361451
 20
67.47583245359232
 30
0.0
  0
LINE
  5
2B6
330
1F
100
AcDbEntity
  8
0
  6
Continuous
 62
     7
370
    25
100
AcDbLine
 10
221.8705071231
 20
51.0367058362
 30
0.0
 11
222.1845521817
 21
50.868561609
 31
0.0
  0
LINE
  5
2B7
330
1F
100
AcDbEntity
  8
0
  6
Continuous
 62
     7
370
    25
100
AcDbLine
 10
220.8835491032
 20
51.6064645735
 30
0.0
 11
221.8705071231
 21
51.0367058362
 31
0.0
  0
ARC
  5
2B8
330
1F
100
AcDbEntity
  8
0
  6
Continuous
 62
     7
370
    25
100
AcDbCircle
 10
223.1155341007
 20
55.1143780208
 30
0.0
 40
4.399246259572664
100
AcDbArc
 50
267.4956853267
 51
287.1750110524
  0
SPLINE
  5
2B9
330
1F
100
AcDbEntity
  8
0
  6
Continuous
 62
     7
370
    25
100
AcDbSpline
210
0.0
220
0.0
230
1.0
 70
     8
 71
     3
 72
    14
 73
    10
 74
     0
 42
0.000000001
 43
0.00000001
 40
0.0
 40
0.0
 40
0.0
 40
0.0
 40
0.1520927654964334
 40
0.2674857265629534
 40
0.3827932169674477
 40
0.4986859355030901
 40
0.6145509981003119
 40
0.825743267810779
 40
1.0
 40
1.0
 40
1.0
 40
1.0
 10
232.4335504944444
 20
64.47333673825659
 30
0.0
 10
232.2287555531521
 20
64.585717638487
 30
0.0
 10
231.8685824476844
 20
64.78336206063828
 30
0.0
 10
231.2689592794826
 20
65.0474849274404
 30
0.0
 10
230.6897866451
 20
65.26060132197328
 30
0.0
 10
230.078894829606
 20
65.43138947305918
 30
0.0
 10
229.2897591398298
 20
65.57076822827837
 30
0.0
 10
228.3904858149068
 20
65.59790214295532
 30
0.0
 10
227.825890465239
 20
65.38990758663762
 30
0.0
 10
227.5706438822735
 20
65.2958758171469
 30
0.0
  0
SPLINE
  5
2BA
330
1F
100
AcDbEntity
  8
0
  6
Continuous
 62
     7
370
    25
100
AcDbSpline
210
0.0
220
0.0
230
1.0
 70
     8
 71
     3
 72
    10
 73
     6
 74
     0
 42
0.000000001
 43
0.00000001
 40
0.0
 40
0.0
 40
0.0
 40
0.0
 40
0.3798174073072795
 40
0.9603711649033085
 40
1.0
 40
1.0
 40
1.0
 40
1.0
 10
233.5734306163039
 20
63.94510981073809
 30
0.0
 10
233.4437779990555
 20
64.01543837257546
 30
0.0
 10
233.1159503833011
 20
64.19326466899658
 30
0.0
 10
232.7080218382909
 20
64.366317519399
 30
0.0
 10
232.451389056859
 20
64.46552295164732
 30
0.0
 10
232.4349905666473
 20
64.47186204558767
 30
0.0
  0
SPLINE
  5
2BB
330
1F
100
AcDbEntity
  8
0
  6
Continuous
 62
     7
370
    25
100
AcDbSpline
210
0.0
220
0.0
230
1.0
 70
     8
 71
     3
 72
    24
 73
    20
 74
     0
 42
0.000000001
 43
0.00000001
 40
0.0
 40
0.0
 40
0.0
 40
0.0
 40
0.0618858212107145
 40
0.1150115607194259
 40
0.1593831488268445
 40
0.2428114970815824
 40
0.318331853291959
 40
0.3935543804326023
 40
0.4204843226990471
 40
0.4483397435477174
 40
0.4771286702554668
 40
0.5451537905345539
 40
0.6363475754294583
 40
0.6968782859867285
 40
0.7498596693403015
 40
0.7959701295389731
 40
0.8771179302751783
 40
0.9543004207779655
 40
1.0
 40
1.0
 40
1.0
 40
1.0
 10
231.0401659691428
 20
66.90197455363554
 30
0.0
 10
230.8562091798066
 20
66.9208691186015
 30
0.0
 10
230.5143351118443
 20
66.955983678986
 30
0.0
 10
230.0501171388675
 20
66.94949313059873
 30
0.0
 10
229.5406555265946
 20
66.90176893780142
 30
0.0
 10
229.00156042722
 20
66.77715233963451
 30
0.0
 10
228.4587224424964
 20
66.53466205569151
 30
0.0
 10
228.1183294270013
 20
66.27728930506561
 30
0.0
 10
227.9117027184503
 20
66.06248220456679
 30
0.0
 10
227.7937186622392
 20
65.9159788532678
 30
0.0
 10
227.6415482580482
 20
65.68622802904734
 30
0.0
 10
227.4748676194686
 20
65.31328533362033
 30
0.0
 10
227.4065060386313
 20
64.85072628092745
 30
0.0
 10
227.4568615022508
 20
64.42239358272562
 30
0.0
 10
227.562290645766
 20
64.10246668908124
 30
0.0
 10
227.744489972452
 20
63.76200117388805
 30
0.0
 10
228.0453683975225
 20
63.42605291703296
 30
0.0
 10
228.435053292121
 20
63.15299361631794
 30
0.0
 10
228.7279722483154
 20
63.05903854539065
 30
0.0
 10
228.8369081823716
 20
63.02409685522569
 30
0.0
  0
SPLINE
  5
2BC
330
1F
100
AcDbEntity
  8
0
  6
Continuous
 62
     7
370
    25
100
AcDbSpline
210
0.0
220
0.0
230
1.0
 70
     8
 71
     3
 72
    22
 73
    18
 74
     0
 42
0.000000001
 43
0.00000001
 40
0.0
 40
0.0
 40
0.0
 40
0.0
 40
0.0348562931077237
 40
0.0924900623539491
 40
0.1569277788850789
 40
0.2282085360920659
 40
0.2894089077515647
 40
0.3420696922203051
 40
0.3861903498429299
 40
0.4217735408338573
 40
0.5236918810098915
 40
0.6145479843395962
 40
0.7067593487247504
 40
0.7559111409869668
 40
0.8071360726317764
 40
0.8951475619903156
 40
1.0
 40
1.0
 40
1.0
 40
1.0
 10
234.3039099165271
 20
64.38483046586582
 30
0.0
 10
234.3415458064027
 20
64.4200036882774
 30
0.0
 10
234.4414114401516
 20
64.51333471243373
 30
0.0
 10
234.5602354888867
 20
64.66867995203404
 30
0.0
 10
234.656646557405
 20
64.85740915683638
 30
0.0
 10
234.6879227125469
 20
65.04338804244887
 30
0.0
 10
234.6585173883734
 20
65.2151996037843
 30
0.0
 10
234.5900223651653
 20
65.36200619429509
 30
0.0
 10
234.5022097181509
 20
65.48321711630895
 30
0.0
 10
234.3479185661966
 20
65.64880026349239
 30
0.0
 10
234.0800922482406
 20
65.85896450584794
 30
0.0
 10
233.6285221087741
 20
66.11440831630996
 30
0.0
 10
233.1809594720508
 20
66.32104501298096
 30
0.0
 10
232.7720657031669
 20
66.47954922962467
 30
0.0
 10
232.3499861033595
 20
66.62206597755946
 30
0.0
 10
231.7716734859804
 20
66.78532254641492
 30
0.0
 10
231.2977948921127
 20
66.8608909963367
 30
0.0
 10
231.0401659691428
 20
66.90197455363554
 30
0.0
  0
LINE
  5
2BD
330
1F
100
AcDbEntity
  8
0
  6
Continuous
 62
     7
370
    25
100
AcDbLine
 10
224.5305962473
 20
51.6548033655
 30
0.0
 11
224.5253581842
 21
51.9508867885
 31
0.0
  0
LINE
  5
2BE
330
1F
100
AcDbEntity
  8
0
  6
Continuous
 62
     7
370
    25
100
AcDbLine
 10
224.5253581842
 20
51.9508867885
 30
0.0
 11
224.568455971
 21
52.6025119841
 31
0.0
  0
LINE
  5
2BF
330
1F
100
AcDbEntity
  8
0
  6
Continuous
 62
     7
370
    25
100
AcDbLine
 10
224.0458093662
 20
54.4315750059
 30
0.0
 11
223.7343948637
 21
54.7601715754
 31
0.0
  0
SPLINE
  5
2C0
330
1F
100
AcDbEntity
  8
0
  6
Continuous
 62
     7
370
    25
100
AcDbSpline
210
0.0
220
0.0
230
1.0
 70
     8
 71
     3
 72
    19
 73
    15
 74
     0
 42
0.000000001
 43
0.00000001
 40
0.0
 40
0.0
 40
0.0
 40
0.0
 40
0.0210492621018804
 40
0.1455865440207667
 40
0.2712169722633744
 40
0.3929514297049947
 40
0.5136082229787104
 40
0.6366369099308349
 40
0.699422462668311
 40
0.7643939711952468
 40
0.8122544601557282
 40
0.8606584764820763
 40
0.9188817427801165
 40
1.0
 40
1.0
 40
1.0
 40
1.0
 10
227.4509214168005
 20
64.64722460617773
 30
0.0
 10
227.4434528418146
 20
64.70198495308314
 30
0.0
 10
227.3917966832429
 20
65.0807331304183
 30
0.0
 10
227.6345675779025
 20
65.69088403923246
 30
0.0
 10
228.2188980453175
 20
66.38025774247203
 30
0.0
 10
229.1250244129577
 20
66.79755729270407
 30
0.0
 10
230.1993705414198
 20
66.91798325039272
 30
0.0
 10
231.1533044105155
 20
66.75728370680513
 30
0.0
 10
231.8879669530847
 20
66.45991760796332
 30
0.0
 10
232.3607701925571
 20
66.16225953055863
 30
0.0
 10
232.7177403626765
 20
65.79134772578126
 30
0.0
 10
232.9125885041848
 20
65.3590264304737
 30
0.0
 10
232.9416175344289
 20
64.85608509924855
 30
0.0
 10
232.8792439328086
 20
64.52234008667335
 30
0.0
 10
232.8429328768345
 20
64.32804901612649
 30
0.0
  0
SPLINE
  5
2C1
330
1F
100
AcDbEntity
  8
0
  6
Continuous
 62
     7
370
    25
100
AcDbSpline
210
0.0
220
0.0
230
1.0
 70
     8
 71
     3
 72
    10
 73
     6
 74
     0
 42
0.000000001
 43
0.00000001
 40
0.0
 40
0.0
 40
0.0
 40
0.0
 40
0.2950355258923527
 40
0.9801030833761959
 40
1.0
 40
1.0
 40
1.0
 40
1.0
 10
232.8456607328227
 20
64.3268104627041
 30
0.0
 10
232.9284853030832
 20
64.28804528101534
 30
0.0
 10
233.2036271404808
 20
64.15926799568372
 30
0.0
 10
233.478694075021
 20
64.01799871579387
 30
0.0
 10
233.6272726856001
 20
63.92393597985502
 30
0.0
 10
233.6314661681589
 20
63.9212811532884
 30
0.0
  0
ARC
  5
2C2
330
1F
100
AcDbEntity
  8
0
  6
Continuous
 62
     7
370
    25
100
AcDbCircle
 10
236.8557692982
 20
50.1135914704
 30
0.0
 40
12.46654291791654
100
AcDbArc
 50
171.5249863735
 51
179.8211981812
  0
SPLINE
  5
2C3
330
1F
100
AcDbEntity
  8
0
  6
Continuous
 62
     7
370
    25
100
AcDbSpline
210
0.0
220
0.0
230
1.0
 70
     8
 71
     3
 72
    14
 73
    10
 74
     0
 42
0.000000001
 43
0.00000001
 40
0.0
 40
0.0
 40
0.0
 40
0.0
 40
0.0003951393068452
 40
0.0003951393068452
 40
0.0003951393068452
 40
0.0008163352168664
 40
0.0008163352168664
 40
0.0008163352168664
 40
0.0012378579337219
 40
0.0012378579337219
 40
0.0012378579337219
 40
0.0012378579337219
 10
232.4375830699841
 20
64.47205778487225
 30
0.0
 10
232.4830448842154
 20
64.45762092224722
 30
0.0
 10
232.5279324888364
 20
64.44275506168161
 30
0.0
 10
232.5722161815115
 20
64.42747127407614
 30
0.0
 10
232.6194194737509
 20
64.41117983473846
 30
0.0
 10
232.6659452868101
 20
64.39441035665452
 30
0.0
 10
232.7117561960517
 20
64.37718154585926
 30
0.0
 10
232.7576025840408
 20
64.35993939202761
 30
0.0
 10
232.8027418196132
 20
64.3422336858231
 30
0.0
 10
232.8471353776555
 20
64.32409082913232
 30
0.0
  0
LINE
  5
2C4
330
1F
100
AcDbEntity
  8
0
  6
Continuous
 62
     7
370
    25
100
AcDbLine
 10
223.7343948637
 20
54.7601715754
 30
0.0
 11
223.0944581893
 21
55.1724032155
 31
0.0
  0
LINE
  5
2C5
330
1F
100
AcDbEntity
  8
0
  6
Continuous
 62
     7
370
    25
100
AcDbLine
 10
222.7885240941
 20
55.5438816024
 30
0.0
 11
223.0944581893
 21
55.1724032155
 31
0.0
  0
SPLINE
  5
2C6
330
1F
100
AcDbEntity
  8
0
  6
Continuous
 62
     7
370
    25
100
AcDbSpline
210
0.0
220
0.0
230
1.0
 70
     8
 71
     3
 72
    13
 73
     9
 74
     0
 42
0.000000001
 43
0.00000001
 40
0.0
 40
0.0
 40
0.0
 40
0.0
 40
0.1618542298650875
 40
0.3254858841233149
 40
0.4910085196246548
 40
0.6585318472470939
 40
0.8281616954004768
 40
1.0
 40
1.0
 40
1.0
 40
1.0
 10
223.0944586009625
 20
55.17240321944235
 30
0.0
 10
223.0748812089475
 20
55.18496619647397
 30
0.0
 10
223.0355114331056
 20
55.21023011259012
 30
0.0
 10
222.9739754933395
 20
55.24292380950299
 30
0.0
 10
222.9104188340915
 20
55.27186988320981
 30
0.0
 10
222.8448007314331
 20
55.29638225067683
 30
0.0
 10
222.777373462374
 20
55.31681731403266
 30
0.0
 10
222.7314888621719
 20
55.3264139690239
 30
0.0
 10
222.7083981819946
 20
55.33124332985953
 30
0.0
  0
SPLINE
  5
2C7
330
1F
100
AcDbEntity
  8
0
  6
Continuous
 62
     7
370
    25
100
AcDbSpline
210
0.0
220
0.0
230
1.0
 70
     8
 71
     3
 72
     9
 73
     5
 74
     0
 42
0.000000001
 43
0.00000001
 40
0.0
 40
0.0
 40
0.0
 40
0.0
 40
0.4907282259506041
 40
1.0
 40
1.0
 40
1.0
 40
1.0
 10
222.7083923547027
 20
55.33121533282852
 30
0.0
 10
222.6842988322248
 20
55.33931086504665
 30
0.0
 10
222.6352013456656
 20
55.35580784196792
 30
0.0
 10
222.5845006518454
 20
55.37060151098416
 30
0.0
 10
222.5586802195581
 20
55.37813550904875
 30
0.0
  0
SPLINE
  5
2C8
330
1F
100
AcDbEntity
  8
0
  6
Continuous
 62
     7
370
    25
100
AcDbSpline
210
0.0
220
0.0
230
1.0
 70
     8
 71
     3
 72
    14
 73
    10
 74
     0
 42
0.000000001
 43
0.00000001
 40
0.0
 40
0.0
 40
0.0
 40
0.0
 40
0.0310276388093398
 40
0.0622853718693698
 40
0.1248003166924349
 40
0.2498289731770658
 40
0.4998892603621822
 40
0.7606803621577949
 40
1.0
 40
1.0
 40
1.0
 40
1.0
 10
221.9747395302701
 20
55.75224325169464
 30
0.0
 10
221.9807317696749
 20
55.74841220804068
 30
0.0
 10
221.9927606856344
 20
55.7407217105426
 30
0.0
 10
222.0168204936842
 20
55.72528382103566
 30
0.0
 10
222.0590541663304
 20
55.69821336810477
 30
0.0
 10
222.1436167408427
 20
55.64400134330933
 30
0.0
 10
222.2669037103112
 20
55.56499816144457
 30
0.0
 10
222.4130354167649
 20
55.47139198676683
 30
0.0
 10
222.511402033306
 20
55.40840891037436
 30
0.0
 10
222.5584737339925
 20
55.37826941158386
 30
0.0
  0
LINE
  5
2C9
330
1F
100
AcDbEntity
  8
0
  6
Continuous
 62
     7
370
    25
100
AcDbLine
 10
220.172239375
 20
56.9148739287
 30
0.0
 11
220.4632067292
 21
56.7267953896
 31
0.0
  0
SPLINE
  5
2CA
330
1F
100
AcDbEntity
  8
0
  6
Continuous
 62
     7
370
    25
100
AcDbSpline
210
0.0
220
0.0
230
1.0
 70
     8
 71
     3
 72
     8
 73
     4
 74
     0
 42
0.000000001
 43
0.00000001
 40
0.0
 40
0.0
 40
0.0
 40
0.0
 40
1.0
 40
1.0
 40
1.0
 40
1.0
 10
220.494595032565
 20
56.70657285938344
 30
0.0
 10
220.4841525267132
 20
56.71339828428085
 30
0.0
 10
220.4736865938234
 20
56.72014125106737
 30
0.0
 10
220.4631988290069
 20
56.72680033872036
 30
0.0
  0
SPLINE
  5
2CB
330
1F
100
AcDbEntity
  8
0
  6
Continuous
 62
     7
370
    25
100
AcDbSpline
210
0.0
220
0.0
230
1.0
 70
     8
 71
     3
 72
     8
 73
     4
 74
     0
 42
0.000000001
 43
0.00000001
 40
0.0
 40
0.0
 40
0.0
 40
0.0
 40
1.0
 40
1.0
 40
1.0
 40
1.0
 10
217.7085906537412
 20
58.58482851119253
 30
0.0
 10
217.7675904179112
 20
58.54608784427356
 30
0.0
 10
217.8268779814217
 20
58.50802586697427
 30
0.0
 10
217.8864590549101
 20
58.47064207851398
 30
0.0
  0
SPLINE
  5
2CC
330
1F
100
AcDbEntity
  8
0
  6
Continuous
 62
     7
370
    25
100
AcDbSpline
210
0.0
220
0.0
230
1.0
 70
     8
 71
     3
 72
     8
 73
     4
 74
     0
 42
0.000000001
 43
0.00000001
 40
0.0
 40
0.0
 40
0.0
 40
0.0
 40
1.0
 40
1.0
 40
1.0
 40
1.0
 10
217.6837409076416
 20
58.94803868913085
 30
0.0
 10
217.6912151197322
 20
58.82708084841901
 30
0.0
 10
217.6995112236223
 20
58.70600900600835
 30
0.0
 10
217.7085906537412
 20
58.58482851119253
 30
0.0
  0
LWPOLYLINE
  5
2CD
330
1F
100
AcDbEntity
  8
0
  6
Continuous
 62
     7
370
    25
100
AcDbPolyline
 90
       16
 70
   128
 43
0.0
 10
217.6837412664
 20
58.9480380237
 10
218.0576516428
 20
60.0066182341
 10
218.505650252
 20
61.0583298359
 10
219.0228480595
 20
62.0916963819
 10
219.6036016682
 20
63.095442448
 10
220.2415745628
 20
64.058616062
 10
220.9298052694
 20
64.9707063788
 10
221.6607844049
 20
65.8217630658
 10
222.4265356783
 20
66.6024985778
 10
223.2187034767
 20
67.3043934726
 10
224.028644239
 20
67.9197902245
 10
224.8475201332
 20
68.4419731596
 10
225.6663960273
 20
68.8652442073
 10
226.4763367896
 20
69.1849851546
 10
227.2685045881
 20
69.3977077318
 10
227.6477037354
 20
69.4621457152
  0
SPLINE
  5
2CE
330
1F
100
AcDbEntity
  8
0
  6
Continuous
 62
     7
370
    25
100
AcDbSpline
210
0.0
220
0.0
230
1.0
 70
     8
 71
     3
 72
    10
 73
     6
 74
     0
 42
0.000000001
 43
0.00000001
 40
0.0
 40
0.0
 40
0.0
 40
0.0
 40
0.2409818396634726
 40
0.5031433556203718
 40
1.0
 40
1.0
 40
1.0
 40
1.0
 10
223.7343948636803
 20
48.05432995217702
 30
0.0
 10
223.8166407346833
 20
48.00265343025647
 30
0.0
 10
223.9883609920278
 20
47.89475858356509
 30
0.0
 10
224.2660823510547
 20
47.76503587310084
 30
0.0
 10
224.3870595980987
 20
47.78781381420583
 30
0.0
 10
224.4662518390142
 20
47.80272435518456
 30
0.0
  0
LINE
  5
2CF
330
1F
100
AcDbEntity
  8
0
  6
Continuous
 62
     7
370
    25
100
AcDbLine
 10
218.9512208075
 20
57.7834026851
 30
0.0
 11
218.1893421052
 21
58.2740370928
 31
0.0
  0
LINE
  5
2D0
330
1F
100
AcDbEntity
  8
0
  6
Continuous
 62
     7
370
    25
100
AcDbLine
 10
218.1893421052
 20
58.2740370928
 30
0.0
 11
217.7085907849
 21
58.5848284689
 31
0.0
  0
LINE
  5
2D1
330
1F
100
AcDbEntity
  8
0
  6
Continuous
 62
     7
370
    25
100
AcDbLine
 10
222.7885240941
 20
47.7785501512
 30
0.0
 11
223.0944581893
 21
48.4665615923
 31
0.0
  0
LINE
  5
2D2
330
1F
100
AcDbEntity
  8
0
  6
Continuous
 62
     7
370
    25
100
AcDbLine
 10
223.0944581893
 20
48.4665615923
 30
0.0
 11
223.7343948637
 21
48.0543299522
 31
0.0
  0
SPLINE
  5
2D3
330
1F
100
AcDbEntity
  8
0
  6
Continuous
 62
     7
370
    25
100
AcDbSpline
210
0.0
220
0.0
230
1.0
 70
     8
 71
     3
 72
    13
 73
     9
 74
     0
 42
0.000000001
 43
0.00000001
 40
0.0
 40
0.0
 40
0.0
 40
0.0
 40
0.1722587823402174
 40
0.3421398270982735
 40
0.5097456257612809
 40
0.6751828993009421
 40
0.8385626189970466
 40
1.0
 40
1.0
 40
1.0
 40
1.0
 10
222.7083866701893
 20
48.74787129769564
 30
0.0
 10
222.73153819414
 20
48.72975170676262
 30
0.0
 10
222.7775216748888
 20
48.69376263482858
 30
0.0
 10
222.8450626875998
 20
48.6427626514134
 30
0.0
 10
222.910722302285
 20
48.59443797122274
 30
0.0
 10
222.9742463735353
 20
48.5490069653134
 30
0.0
 10
223.0356767522572
 20
48.50618139755317
 30
0.0
 10
223.0749429192309
 20
48.47971558037772
 30
0.0
 10
223.0944586009625
 20
48.46656180183062
 30
0.0
  0
SPLINE
  5
2D4
330
1F
100
AcDbEntity
  8
0
  6
Continuous
 62
     7
370
    25
100
AcDbSpline
210
0.0
220
0.0
230
1.0
 70
     8
 71
     3
 72
    11
 73
     7
 74
     0
 42
0.000000001
 43
0.00000001
 40
0.0
 40
0.0
 40
0.0
 40
0.0
 40
0.2392845096574327
 40
0.5001120454060707
 40
0.7515010914954734
 40
1.0
 40
1.0
 40
1.0
 40
1.0
 10
222.5590062587132
 20
48.79518528990851
 30
0.0
 10
222.5119370266655
 20
48.7668707671744
 30
0.0
 10
222.4135608720672
 20
48.70769253662566
 30
0.0
 10
222.2672636504894
 20
48.61450463615813
 30
0.0
 10
222.119422906903
 20
48.51913272018475
 30
0.0
 10
222.0231364441743
 20
48.45459746493716
 30
0.0
 10
221.975271556309
 20
48.42251639488594
 30
0.0
  0
SPLINE
  5
2D5
330
1F
100
AcDbEntity
  8
0
  6
Continuous
 62
     7
370
    25
100
AcDbSpline
210
0.0
220
0.0
230
1.0
 70
     8
 71
     3
 72
     9
 73
     5
 74
     0
 42
0.000000001
 43
0.00000001
 40
0.0
 40
0.0
 40
0.0
 40
0.0
 40
0.509066935386983
 40
0.9999999999999999
 40
0.9999999999999999
 40
0.9999999999999999
 40
0.9999999999999999
 10
222.5595772622973
 20
48.79448633569674
 30
0.0
 10
222.5852258369213
 20
48.78699362753686
 30
0.0
 10
222.6356093382668
 20
48.77227511482459
 30
0.0
 10
222.6844168497621
 20
48.75588275697244
 30
0.0
 10
222.7083780709566
 20
48.74783520649584
 30
0.0
  0
LINE
  5
2D6
330
1F
100
AcDbEntity
  8
0
  6
Continuous
 62
     7
370
    25
100
AcDbLine
 10
224.3894958424
 20
49.7183649029
 30
0.0
 11
222.7083798861
 21
48.7478773187
 31
0.0
  0
LINE
  5
2D7
330
1F
100
AcDbEntity
  8
0
  6
Continuous
 62
     7
370
    25
100
AcDbLine
 10
220.7018922348
 20
49.8716986174
 30
0.0
 11
220.5015965813
 21
49.3705412032
 31
0.0
  0
SPLINE
  5
2D8
330
1F
100
AcDbEntity
  8
0
  6
Continuous
 62
     7
370
    25
100
AcDbSpline
210
0.0
220
0.0
230
1.0
 70
     8
 71
     3
 72
     8
 73
     4
 74
     0
 42
0.000000001
 43
0.00000001
 40
0.0
 40
0.0
 40
0.0
 40
0.0
 40
1.0
 40
1.0
 40
1.0
 40
1.0
 10
220.7014490641571
 20
49.87248236955809
 30
0.0
 10
220.7276243987264
 20
49.89464974653636
 30
0.0
 10
220.7534454386918
 20
49.91728188762797
 30
0.0
 10
220.7789029924002
 20
49.94036660771926
 30
0.0
  0
LINE
  5
2D9
330
1F
100
AcDbEntity
  8
0
  6
Continuous
 62
     7
370
    25
100
AcDbLine
 10
220.7789030881
 20
49.9403664921
 30
0.0
 11
222.5591958474
 21
48.794595607
 31
0.0
  0
LINE
  5
2DA
330
1F
100
AcDbEntity
  8
0
  6
Continuous
 62
     7
370
    25
100
AcDbLine
 10
224.3892870838
 20
49.8164148381
 30
0.0
 11
224.3012877569
 21
49.9239059065
 31
0.0
  0
LINE
  5
2DB
330
1F
100
AcDbEntity
  8
0
  6
Continuous
 62
     7
370
    25
100
AcDbLine
 10
222.4728797602
 20
50.9182784094
 30
0.0
 11
220.7789030881
 21
49.9403664921
 31
0.0
  0
LINE
  5
2DC
330
1F
100
AcDbEntity
  8
0
  6
Continuous
 62
     7
370
    25
100
AcDbLine
 10
222.6155738427
 20
50.8969862477
 30
0.0
 11
222.4732999116
 21
50.9177910319
 31
0.0
  0
LINE
  5
2DD
330
1F
100
AcDbEntity
  8
0
  6
Continuous
 62
     7
370
    25
100
AcDbLine
 10
224.3013615138
 20
49.92380174
 30
0.0
 11
222.6155738427
 21
50.8969862477
 31
0.0
  0
LINE
  5
2DE
330
1F
100
AcDbEntity
  8
0
  6
Continuous
 62
     7
370
    25
100
AcDbLine
 10
224.3892870838
 20
49.8730376572
 30
0.0
 11
224.3013147572
 21
49.9238287134
 31
0.0
  0
SPLINE
  5
2DF
330
1F
100
AcDbEntity
  8
0
  6
Continuous
 62
     7
370
    25
100
AcDbSpline
210
0.0
220
0.0
230
1.0
 70
     8
 71
     3
 72
    19
 73
    15
 74
     0
 42
0.000000001
 43
0.00000001
 40
0.0
 40
0.0
 40
0.0
 40
0.0
 40
0.0637853009172641
 40
0.1289628367748405
 40
0.1955871994416645
 40
0.2637095015536399
 40
0.333377557949238
 40
0.4046360709686026
 40
0.4775268158973639
 40
0.5520888236427515
 40
0.6283585584336152
 40
0.7063700889344581
 40
0.8377041806176546
 40
0.9999999999999999
 40
0.9999999999999999
 40
0.9999999999999999
 40
0.9999999999999999
 10
219.9173799581958
 20
50.04097045690997
 30
0.0
 10
219.9380693272024
 20
50.02761131689874
 30
0.0
 10
219.9798996498598
 20
50.00060144835622
 30
0.0
 10
220.040390623458
 20
49.96307948282817
 30
0.0
 10
220.0998748216397
 20
49.92755974173685
 30
0.0
 10
220.1579559811127
 20
49.89457961282044
 30
0.0
 10
220.2144880982003
 20
49.86437317655074
 30
0.0
 10
220.2692331529535
 20
49.83725973659021
 30
0.0
 10
220.3219555305442
 20
49.81352811884135
 30
0.0
 10
220.3723971634727
 20
49.79348786539771
 30
0.0
 10
220.4202800819351
 20
49.77736800386026
 30
0.0
 10
220.4752442363102
 20
49.76309003417552
 30
0.0
 10
220.5380755502713
 20
49.75295147692501
 30
0.0
 10
220.5765830659314
 20
49.75942572824081
 30
0.0
 10
220.5978670311233
 20
49.76300419175077
 30
0.0
  0
LINE
  5
2E0
330
1F
100
AcDbEntity
  8
0
  6
Continuous
 62
     7
370
    25
100
AcDbLine
 10
220.6225027188
 20
49.789074646
 30
0.0
 11
220.6902155822
 21
49.8607291664
 31
0.0
  0
SPLINE
  5
2E1
330
1F
100
AcDbEntity
  8
0
  6
Continuous
 62
     7
370
    25
100
AcDbSpline
210
0.0
220
0.0
230
1.0
 70
     8
 71
     3
 72
     9
 73
     5
 74
     0
 42
0.000000001
 43
0.00000001
 40
0.0
 40
0.0
 40
0.0
 40
0.0
 40
0.5232016984460688
 40
1.0
 40
1.0
 40
1.0
 40
1.0
 10
222.3067019805102
 20
50.82234618864284
 30
0.0
 10
222.2376778178616
 20
50.84738835375934
 30
0.0
 10
222.1057513297526
 20
50.89525166381907
 30
0.0
 10
221.864313916934
 20
51.03284979450574
 30
0.0
 10
221.7491969685705
 20
51.09845634951413
 30
0.0
  0
LINE
  5
2E2
330
1F
100
AcDbEntity
  8
0
  6
Continuous
 62
     7
370
    25
100
AcDbLine
 10
218.0196957716
 20
50.8643459122
 30
0.0
 11
218.4711668859
 21
50.976609885
 31
0.0
  0
LINE
  5
2E3
330
1F
100
AcDbEntity
  8
0
  6
Continuous
 62
     7
370
    25
100
AcDbLine
 10
218.4711668859
 20
50.976609885
 30
0.0
 11
219.9173793577
 21
50.040970552
 31
0.0
  0
SPLINE
  5
2E4
330
1F
100
AcDbEntity
  8
0
  6
Continuous
 62
     7
370
    25
100
AcDbSpline
210
0.0
220
0.0
230
1.0
 70
     8
 71
     3
 72
     8
 73
     4
 74
     0
 42
0.000000001
 43
0.00000001
 40
0.0
 40
0.0
 40
0.0
 40
0.0
 40
1.0
 40
1.0
 40
1.0
 40
1.0
 10
218.1904843422126
 20
50.46959625912664
 30
0.0
 10
218.1333590732885
 20
50.60138244292221
 30
0.0
 10
218.076430581571
 20
50.73296666458291
 30
0.0
 10
218.0196964636216
 20
50.8643457314842
 30
0.0
  0
LINE
  5
2E5
330
1F
100
AcDbEntity
  8
0
  6
Continuous
 62
     7
370
    25
100
AcDbLine
 10
219.808868345
 20
51.7488484998
 30
0.0
 11
218.4711668859
 21
50.976609885
 31
0.0
  0
LINE
  5
2E6
330
1F
100
AcDbEntity
  8
0
  6
Continuous
 62
     7
370
    25
100
AcDbLine
 10
220.7918968298
 20
51.6510950969
 30
0.0
 11
219.808868345
 21
51.7488484998
 31
0.0
  0
LINE
  5
2E7
330
1F
100
AcDbEntity
  8
0
  6
Continuous
 62
     7
370
    25
100
AcDbLine
 10
221.7491969686
 20
51.0984563495
 30
0.0
 11
220.791895842
 21
51.6510945266
 31
0.0
  0
SPLINE
  5
2E8
330
1F
100
AcDbEntity
  8
0
  6
Continuous
 62
     7
370
    25
100
AcDbSpline
210
0.0
220
0.0
230
1.0
 70
     8
 71
     3
 72
     8
 73
     4
 74
     0
 42
0.000000001
 43
0.00000001
 40
0.0
 40
0.0
 40
0.0
 40
0.0
 40
1.0
 40
1.0
 40
1.0
 40
1.0
 10
218.0196964636237
 20
50.86434573147932
 30
0.0
 10
218.0165591258736
 20
50.89956203835184
 30
0.0
 10
218.0145667219756
 20
50.93520629457954
 30
0.0
 10
218.0137853246036
 20
50.97130319657441
 30
0.0
  0
LINE
  5
2E9
330
1F
100
AcDbEntity
  8
0
  6
Continuous
 62
     7
370
    25
100
AcDbLine
 10
218.8248717997
 20
51.4395329112
 30
0.0
 11
218.0137859931
 21
50.9713030417
 31
0.0
  0
SPLINE
  5
2EA
330
1F
100
AcDbEntity
  8
0
  6
Continuous
 62
     7
370
    25
100
AcDbSpline
210
0.0
220
0.0
230
1.0
 70
     8
 71
     3
 72
     8
 73
     4
 74
     0
 42
0.000000001
 43
0.00000001
 40
0.0000004089325119
 40
0.0000004089325119
 40
0.0000004089325119
 40
0.0000004089325119
 40
0.0015399868451459
 40
0.0015399868451459
 40
0.0015399868451459
 40
0.0015399868451459
 10
218.8248708570923
 20
51.43953290793053
 30
0.0
 10
219.0633474251156
 20
51.53390929374688
 30
0.0
 10
219.3017943827843
 20
51.62833790567709
 30
0.0
 10
219.5402031216346
 20
51.72283128863955
 30
0.0
  0
LINE
  5
2EB
330
1F
100
AcDbEntity
  8
0
  6
Continuous
 62
     7
370
    25
100
AcDbLine
 10
219.5402026006
 20
51.7228314358
 30
0.0
 11
219.5645990404
 21
51.7278254622
 31
0.0
  0
LINE
  5
2EC
330
1F
100
AcDbEntity
  8
0
  6
Continuous
 62
     7
370
    25
100
AcDbLine
 10
219.808868345
 20
51.7488484998
 30
0.0
 11
219.564599699
 21
51.7278254621
 31
0.0
  0
SPLINE
  5
2ED
330
1F
100
AcDbEntity
  8
0
  6
Continuous
 62
     7
370
    25
100
AcDbSpline
210
0.0
220
0.0
230
1.0
 70
     8
 71
     3
 72
     8
 73
     4
 74
     0
 42
0.000000001
 43
0.00000001
 40
0.0
 40
0.0
 40
0.0
 40
0.0
 40
1.0
 40
1.0
 40
1.0
 40
1.0
 10
220.7918950361426
 20
51.65109528122652
 30
0.0
 10
220.8225030702658
 20
51.63615527342039
 30
0.0
 10
220.8530545712378
 20
51.62127831602702
 30
0.0
 10
220.8835485093524
 20
51.6064647523461
 30
0.0
  0
LWPOLYLINE
  5
2EE
330
1F
100
AcDbEntity
  8
0
  6
Continuous
 62
     7
370
    25
100
AcDbPolyline
 90
        3
 70
   128
 43
0.0
 10
224.4316681684
 20
51.1395452106
 10
223.9571384885
 20
50.9415829048
 10
223.2202838189
 20
50.7155405729
  0
LWPOLYLINE
  5
2EF
330
1F
100
AcDbEntity
  8
0
  6
Continuous
 62
     7
370
    18
100
AcDbPolyline
 90
       18
 70
   128
 43
0.0
 10
262.8410262261
 20
33.0985682866
 10
262.8830624391
 20
33.7705819771
 10
263.0082319938
 20
34.4761179115
 10
263.2137390393
 20
35.1994156638
 10
263.4949928619
 20
35.9243182047
 10
263.8457107824
 20
36.6346320664
 10
264.2580579322
 20
37.3144902605
 10
264.7228235785
 20
37.9487053063
 10
265.2296253554
 20
38.5231108967
 10
265.7671423068
 20
39.0248745698
 10
266.3233671288
 20
39.4427889542
 10
266.8858747329
 20
39.7675176821
 10
267.4420995549
 20
39.9918068074
 10
267.9796165062
 20
40.1106469964
 10
268.4864182832
 20
40.1213822826
 10
268.9511839294
 20
40.02377423
 10
269.3635310792
 20
39.8200019212
 10
269.4096682135
 20
39.7881584366
  0
ARC
  5
2F0
330
1F
100
AcDbEntity
  8
0
  6
Continuous
 62
     7
370
    18
100
AcDbCircle
 10
265.3971226394
 20
32.8031170892
 30
0.0
 40
2.573114899130652
100
AcDbArc
 50
173.406619228
 51
239.6202226006
  0
LWPOLYLINE
  5
2F1
330
1F
100
AcDbEntity
  8
0
  6
Continuous
 62
     7
370
    18
100
AcDbPolyline
 90
       39
 70
   128
 43
0.0
 10
264.1975801681
 20
33.1293375075
 10
264.2392966577
 20
33.7347740802
 10
264.363307174
 20
34.3718601456
 10
264.5662300909
 20
35.0232182558
 10
264.8425293539
 20
35.6710806672
 10
265.1846687444
 20
36.2977754048
 10
265.5833153696
 20
36.8862081383
 10
266.0275952603
 20
37.4203276097
 10
266.505389551
 20
37.8855646773
 10
267.0036652963
 20
38.2692288067
 10
267.5088308783
 20
38.5608546898
 10
268.0071066235
 20
38.7524874903
 10
268.4849009143
 20
38.8388999687
 10
268.929180805
 20
38.8177351404
 10
269.3278274302
 20
38.6895700032
 10
269.6699668206
 20
38.4579009976
 10
269.9462660837
 20
38.129046925
 10
270.1491890006
 20
37.7119786277
 10
270.2731995169
 20
37.2180720567
 10
270.3149160065
 20
36.6608003177
 10
270.2731995169
 20
36.055363745
 10
270.1491890006
 20
35.4182776796
 10
269.9462660837
 20
34.7669195694
 10
269.6699668206
 20
34.119057158
 10
269.3278274302
 20
33.4923624205
 10
268.929180805
 20
32.9039296869
 10
268.4849009143
 20
32.3698102155
 10
268.0071066235
 20
31.9045731479
 10
267.5088308783
 20
31.5209090185
 10
267.0036652963
 20
31.2292831355
 10
266.505389551
 20
31.0376503349
 10
266.0275952603
 20
30.9512378566
 10
265.5833153696
 20
30.9724026848
 10
265.1846687444
 20
31.100567822
 10
264.8425293539
 20
31.3322368276
 10
264.5662300909
 20
31.6610909002
 10
264.363307174
 20
32.0781591976
 10
264.2392966577
 20
32.5720657685
 10
264.1975801681
 20
33.1293375075
  0
LWPOLYLINE
  5
2F2
330
1F
100
AcDbEntity
  8
0
  6
Continuous
 62
     7
370
    18
100
AcDbPolyline
 90
       27
 70
   128
 43
0.0
 10
265.8290611309
 20
34.0711714199
 10
265.8705326421
 20
34.489519648
 10
265.9925368202
 20
34.931436903
 10
266.1879833636
 20
35.3712405943
 10
266.4455135319
 20
35.783370919
 10
266.7501606253
 20
36.1438763401
 10
267.0842197159
 20
36.4318056037
 10
267.4282764587
 20
36.6304253336
 10
267.7623355493
 20
36.7281924862
 10
268.0669826427
 20
36.7194251121
 10
268.324512811
 20
36.6046327908
 10
268.5199593544
 20
36.3904868752
 10
268.6419635325
 20
36.0894326459
 10
268.6834350436
 20
35.7189664054
 10
268.6419635325
 20
35.3006181772
 10
268.5199593544
 20
34.8587009223
 10
268.324512811
 20
34.4188972309
 10
268.0669826427
 20
34.0067669062
 10
267.7623355493
 20
33.6462614851
 10
267.4282764587
 20
33.3583322215
 10
267.0842197159
 20
33.1597124916
 10
266.7501606253
 20
33.0619453391
 10
266.4455135319
 20
33.0707127131
 10
266.1879833636
 20
33.1855050344
 10
265.9925368202
 20
33.39965095
 10
265.8705326421
 20
33.7007051793
 10
265.8290611309
 20
34.0711714199
  0
LWPOLYLINE
  5
2F3
330
1F
100
AcDbEntity
  8
0
  6
Continuous
 62
     7
370
    18
100
AcDbPolyline
 90
       15
 70
   128
 43
0.0
 10
267.8787602502
 20
36.5659719142
 10
267.9962423678
 20
36.5141209431
 10
268.1953826051
 20
36.3293926176
 10
268.3205673885
 20
36.052664466
 10
268.3632656034
 20
35.7027949863
 10
268.3205673885
 20
35.303627197
 10
268.1953826051
 20
34.882363771
 10
267.9962423678
 20
34.4677130215
 10
267.736717674
 20
34.087932809
 10
267.434494827
 20
33.7689045057
 10
267.1101697445
 20
33.5323692983
 10
266.7858446621
 20
33.3944467361
 10
266.4836218151
 20
33.3645359676
 10
266.2240971212
 20
33.4446753466
 10
266.1164087129
 20
33.5242349554
  0
ARC
  5
2F4
330
1F
100
AcDbEntity
  8
0
  6
Continuous
 62
     7
370
    18
100
AcDbCircle
 10
240.2369316386
 20
38.7682071895
 30
0.0
 40
5.483581215551815
100
AcDbArc
 50
240.8708956358
 51
263.4167810929
  0
ARC
  5
2F5
330
1F
100
AcDbEntity
  8
0
  6
Continuous
 62
     7
370
    18
100
AcDbCircle
 10
250.5061097401
 20
56.5071018412
 30
0.0
 40
5.294359658946075
100
AcDbArc
 50
44.7241341794
 51
65.7010700972
  0
LWPOLYLINE
  5
2F6
330
1F
100
AcDbEntity
  8
0
  6
Continuous
 62
     7
370
    18
100
AcDbPolyline
 90
       27
 70
   128
 43
0.0
 10
239.5023073156
 20
44.181710996
 10
239.5432529789
 20
45.0020910989
 10
239.6655150595
 20
45.8582296623
 10
239.867378049
 20
46.7381088719
 10
240.1460072425
 20
47.6293764148
 10
240.4974915442
 20
48.5195213322
 10
240.9168971387
 20
49.3960475906
 10
241.3983366379
 20
50.2466508825
 10
241.9350510705
 20
51.0593908637
 10
242.5195066872
 20
51.8228578755
 10
243.1434988465
 20
52.5263351993
 10
243.7982679188
 20
53.1599469551
 10
244.4746226807
 20
53.7147989182
 10
245.1630683404
 20
54.1831022376
 10
245.8539406953
 20
54.5582824419
 10
246.5375415048
 20
54.8350739386
 10
247.2042744375
 20
55.0095893695
 10
247.8447799297
 20
55.0793811125
 10
248.4500667908
 20
55.0434678258
 10
249.0116383151
 20
54.9023540184
 10
249.5216109015
 20
54.6580213407
 10
249.9728258421
 20
54.3138984411
 10
250.3589489264
 20
53.8748173248
 10
250.6745600038
 20
53.3469407214
 10
250.9152287162
 20
52.7376795672
 10
251.0775764011
 20
52.0555861549
 10
251.0825648757
 20
52.0259549157
  0
LWPOLYLINE
  5
2F7
330
1F
100
AcDbEntity
  8
0
  6
Continuous
 62
     7
370
    18
100
AcDbPolyline
 90
       13
 70
   128
 43
0.0
 10
244.3331134844
 20
40.3342950957
 10
243.7982679188
 20
40.1634855727
 10
243.1434988465
 20
40.041117049
 10
242.5195066872
 20
40.0241483608
 10
241.9350510705
 20
40.1128172811
 10
241.3983366379
 20
40.3058799687
 10
240.9168971387
 20
40.6006250465
 10
240.4974915442
 20
40.9929159128
 10
240.1460072425
 20
41.4772456935
 10
239.867378049
 20
42.046814817
 10
239.6655150595
 20
42.6936279799
 10
239.5432529789
 20
43.4086057497
 10
239.5023073156
 20
44.181710996
  0
LWPOLYLINE
  5
2F8
330
1F
100
AcDbEntity
  8
0
  6
Continuous
 62
     7
370
    18
100
AcDbPolyline
 90
       29
 70
   128
 43
0.0
 10
227.9145951499
 20
44.7582990326
 10
227.9557897431
 20
45.8867546067
 10
228.0790672994
 20
47.0544168883
 10
228.2835157346
 20
48.2526415913
 10
228.5676217135
 20
49.4725574877
 10
228.9292811864
 20
50.7051323769
 10
229.3658165113
 20
51.9412405752
 10
229.8739962103
 20
53.1717309755
 10
230.4500580187
 20
54.3874935854
 10
231.0897365436
 20
55.579526065
 10
231.788295533
 20
56.7390044476
 10
232.5405634368
 20
57.8573432119
 10
233.3409716027
 20
58.9262637212
 10
234.1835928008
 20
59.9378506831
 10
235.0621889683
 20
60.8846162149
 10
235.9702553318
 20
61.7595496491
 10
236.9010689751
 20
62.556172948
 10
237.8477385591
 20
63.268589939
 10
238.8032550095
 20
63.8915247009
 10
239.7605441382
 20
64.4203656307
 10
240.7125186275
 20
64.8511977344
 10
241.6521300961
 20
65.1808304027
 10
242.5724221738
 20
65.4068234876
 10
243.4665813944
 20
65.5275045151
 10
244.3279879039
 20
65.5419797068
 10
245.1502636987
 20
65.4501412954
 10
245.9273211934
 20
65.2526697057
 10
246.6534073432
 20
64.951026327
 10
246.9107988056
 20
64.8118545764
  0
LWPOLYLINE
  5
2F9
330
1F
100
AcDbEntity
  8
0
  6
Continuous
 62
     7
370
    18
100
AcDbPolyline
 90
       11
 70
   128
 43
0.0
 10
231.1745774911
 20
37.5529661826
 10
231.0897365436
 20
37.6030122215
 10
230.4500580187
 20
38.056487597
 10
229.8739962103
 20
38.6071434001
 10
229.3658165113
 20
39.2509020088
 10
228.9292811864
 20
39.9829972493
 10
228.5676217135
 20
40.7980089992
 10
228.2835157346
 20
41.6899031144
 10
228.0790672994
 20
42.6520766786
 10
227.9557897431
 20
43.6774057234
 10
227.9145951499
 20
44.7582990326
  0
LWPOLYLINE
  5
2FA
330
1F
100
AcDbEntity
  8
0
  6
Continuous
 62
     7
370
    18
100
AcDbPolyline
 90
       19
 70
   128
 43
0.0
 10
241.6236276776
 20
44.1817108059
 10
241.6644613883
 20
44.9246983733
 10
241.7862628171
 20
45.7021181865
 10
241.9869486583
 20
46.5006689472
 10
242.2630846023
 20
47.3066867426
 10
242.6099462508
 20
48.1063805462
 10
243.0215984715
 20
48.8860677161
 10
243.4909981308
 20
49.632407162
 10
244.010113126
 20
50.332628899
 10
244.5700616673
 20
50.9747519074
 10
245.1612628377
 20
51.5477896806
 10
245.7736008584
 20
52.0419366899
 10
246.3965985744
 20
52.448738878
 10
247.0195962904
 20
52.7612345421
 10
247.6319343111
 20
52.9740779628
 10
248.2231354815
 20
53.0836265317
 10
248.7830840228
 20
53.0880063479
 10
249.302199018
 20
52.9871420266
 10
249.7713243935
 20
52.7829182836
  0
ARC
  5
2FB
330
1F
100
AcDbEntity
  8
0
  6
Continuous
 62
     7
370
    18
100
AcDbCircle
 10
245.0192805736
 20
43.8565033324
 30
0.0
 40
3.411190186859663
100
AcDbArc
 50
174.5293706269
 51
234.1584479231
  0
LWPOLYLINE
  5
2FC
330
1F
100
AcDbEntity
  8
0
  6
Continuous
 62
     7
370
    18
100
AcDbPolyline
 90
       14
 70
   128
 43
0.0
 10
232.5386765884
 20
41.4226624049
 10
232.4653898043
 20
41.8120865486
 10
232.3493028955
 20
42.7863248353
 10
232.3168787981
 20
43.816786405
 10
232.3683934423
 20
44.8946859724
 10
232.5034069202
 20
46.0108337768
 10
232.7207700718
 20
47.1557153589
 10
233.0186277771
 20
48.319569401
 10
233.3944420057
 20
49.492474382
 10
233.8450082799
 20
50.6644308957
 10
234.3664859681
 20
51.8254472003
 10
234.954428578
 20
52.9656259084
 10
235.6038245856
 20
54.0752476336
 10
236.3091376075
 20
55.144850836
  0
LWPOLYLINE
  5
2FD
330
1F
100
AcDbEntity
  8
0
  6
Continuous
 62
     7
370
    18
100
AcDbPolyline
 90
       18
 70
   128
 43
0.0
 10
233.0504723553
 20
38.4927347039
 10
232.8006087152
 20
38.8605735174
 10
232.4023690705
 20
39.6010542108
 10
232.0823164397
 20
40.4245210655
 10
231.8431100253
 20
41.3241287155
 10
231.6867386319
 20
42.2924002931
 10
231.6145022263
 20
43.3212882915
 10
231.6270007425
 20
44.4022405127
 10
231.7241301305
 20
45.5262724537
 10
231.9050836733
 20
46.6840417849
 10
232.1683565967
 20
47.8659252748
 10
232.5117612158
 20
49.062099659
 10
232.9324433988
 20
50.2626227234
 10
233.4269069328
 20
51.4575171428
 10
233.9910405245
 20
52.636848996
 10
234.6201566541
 20
53.7908186374
 10
235.3090258195
 20
54.9098329383
 10
236.051922635
 20
55.9845927351
  0
LINE
  5
2FE
330
1F
100
AcDbEntity
  8
0
  6
Continuous
 62
     7
370
    18
100
AcDbLine
 10
239.0438460806
 20
57.3856133025
 30
0.0
 11
239.0870057705
 21
57.4308400645
 31
0.0
  0
ARC
  5
2FF
330
1F
100
AcDbEntity
  8
0
  6
Continuous
 62
     7
370
    18
100
AcDbCircle
 10
249.2110858721
 20
48.0918238698
 30
0.0
 40
14.48276781207039
100
AcDbArc
 50
110.0665409331
 51
139.2901057068
  0
LWPOLYLINE
  5
300
330
1F
100
AcDbEntity
  8
0
  6
Continuous
 62
     7
370
    18
100
AcDbPolyline
 90
       12
 70
   128
 43
0.0
 10
237.3961156966
 20
57.6567562523
 10
238.264198201
 20
58.5831282966
 10
239.1625780333
 20
59.4326019619
 10
240.0835775525
 20
60.1979153579
 10
241.0193254228
 20
60.8725297652
 10
241.9618241769
 20
61.4506785243
 10
242.9030189717
 20
61.9274204159
 10
243.8348658713
 20
62.2986813613
 10
244.7494009529
 20
62.5612882328
 10
245.6388081163
 20
62.7129973526
 10
246.495485947
 20
62.7525110386
 10
247.0350792069
 20
62.7174093414
  0
LINE
  5
301
330
1F
100
AcDbEntity
  8
0
  6
Continuous
 62
     7
370
    18
100
AcDbLine
 10
223.4282309365
 20
55.1309066313
 30
0.0
 11
223.7343948637
 21
54.7601715754
 31
0.0
  0
LINE
  5
302
330
1F
100
AcDbEntity
  8
0
  6
Continuous
 62
     7
370
    18
100
AcDbLine
 10
223.4282309365
 20
47.3667964836
 30
0.0
 11
223.7343948637
 21
48.0543299522
 31
0.0
  0
LINE
  5
303
330
1F
100
AcDbEntity
  8
0
  6
Continuous
 62
     7
370
    18
100
AcDbLine
 10
224.4703051805
 20
48.4791619353
 30
0.0
 11
223.7344021077
 21
48.054334134
 31
0.0
  0
LINE
  5
304
330
1F
100
AcDbEntity
  8
0
  6
Continuous
 62
     7
370
    18
100
AcDbLine
 10
224.4037296234
 20
49.222387903
 30
0.0
 11
223.0944581893
 21
48.4665615923
 31
0.0
  0
LINE
  5
305
330
1F
100
AcDbEntity
  8
0
  6
Continuous
 62
     7
370
    18
100
AcDbLine
 10
219.9173793577
 20
50.040970552
 30
0.0
 11
219.6208920835
 21
49.5449089341
 31
0.0
  0
LINE
  5
306
330
1F
100
AcDbEntity
  8
0
  6
Continuous
 62
     7
370
    18
100
AcDbLine
 10
221.7491969686
 20
51.0984563495
 30
0.0
 11
219.9174399438
 21
50.0410055276
 31
0.0
  0
LINE
  5
307
330
1F
100
AcDbEntity
  8
0
  6
Continuous
 62
     7
370
    18
100
AcDbLine
 10
221.7491969686
 20
51.0984563495
 30
0.0
 11
221.8705071231
 21
51.0367058362
 31
0.0
  0
OLE2FRAME
  5
308
330
1F
100
AcDbEntity
  8
0
100
AcDbOle2Frame
 70
     2
  3
Paintbrush-Bild
 10
13.8511154363
 20
38.264191557
 30
0.0
 11
51.6290888628
 21
31.9806341108
 31
0.0
 71
     2
 72
     0
 73
     1
 90
    12928
310
80552BED0767C5B32B40DDAF6807D121434000000000000000006FFBDDFB85D0
310
4940DDAF6807D121434000000000000000006FFBDDFB85D04940416F4BD60AFB
310
3F4000000000000000002BED0767C5B32B40416F4BD60AFB3F40000000000000
310
0000000000000100000000010000010000000100000000000100000000320000
310
D0CF11E0A1B11AE1000000000000000000000000000000003E000300FEFF0900
310
0600000000000000000000000100000001000000000000000010000002000000
310
01000000FEFFFFFF0000000000000000FFFFFFFFFFFFFFFFFFFFFFFFFFFFFFFF
310
FFFFFFFFFFFFFFFFFFFFFFFFFFFFFFFFFFFFFFFFFFFFFFFFFFFFFFFFFFFFFFFF
310
FFFFFFFFFFFFFFFFFFFFFFFFFFFFFFFFFFFFFFFFFFFFFFFFFFFFFFFFFFFFFFFF
310
FFFFFFFFFFFFFFFFFFFFFFFFFFFFFFFFFFFFFFFFFFFFFFFFFFFFFFFFFFFFFFFF
310
FFFFFFFFFFFFFFFFFFFFFFFFFFFFFFFFFFFFFFFFFFFFFFFFFFFFFFFFFFFFFFFF
310
FFFFFFFFFFFFFFFFFFFFFFFFFFFFFFFFFFFFFFFFFFFFFFFFFFFFFFFFFFFFFFFF
310
FFFFFFFFFFFFFFFFFFFFFFFFFFFFFFFFFFFFFFFFFFFFFFFFFFFFFFFFFFFFFFFF
310
FFFFFFFFFFFFFFFFFFFFFFFFFFFFFFFFFFFFFFFFFFFFFFFFFFFFFFFFFFFFFFFF
310
FFFFFFFFFFFFFFFFFFFFFFFFFFFFFFFFFFFFFFFFFFFFFFFFFFFFFFFFFFFFFFFF
310
FFFFFFFFFFFFFFFFFFFFFFFFFFFFFFFFFFFFFFFFFFFFFFFFFFFFFFFFFFFFFFFF
310
FFFFFFFFFFFFFFFFFFFFFFFFFFFFFFFFFFFFFFFFFFFFFFFFFFFFFFFFFFFFFFFF
310
FFFFFFFFFFFFFFFFFFFFFFFFFFFFFFFFFFFFFFFFFFFFFFFFFFFFFFFFFFFFFFFF
310
FFFFFFFFFFFFFFFFFFFFFFFFFFFFFFFFFFFFFFFFFFFFFFFFFFFFFFFFFFFFFFFF
310
FFFFFFFFFFFFFFFFFFFFFFFFFFFFFFFFFFFFFFFFFFFFFFFFFFFFFFFFFFFFFFFF
310
FDFFFFFFFEFFFFFFFEFFFFFFFEFFFFFF05000000060000000700000008000000
310
090000000A0000000B0000000C0000000D0000000E0000000F00000010000000
310
11000000120000001300000014000000150000001600000017000000FEFFFFFF
310
FFFFFFFFFFFFFFFFFFFFFFFFFFFFFFFFFFFFFFFFFFFFFFFFFFFFFFFFFFFFFFFF
310
FFFFFFFFFFFFFFFFFFFFFFFFFFFFFFFFFFFFFFFFFFFFFFFFFFFFFFFFFFFFFFFF
310
FFFFFFFFFFFFFFFFFFFFFFFFFFFFFFFFFFFFFFFFFFFFFFFFFFFFFFFFFFFFFFFF
310
FFFFFFFFFFFFFFFFFFFFFFFFFFFFFFFFFFFFFFFFFFFFFFFFFFFFFFFFFFFFFFFF
310
FFFFFFFFFFFFFFFFFFFFFFFFFFFFFFFFFFFFFFFFFFFFFFFFFFFFFFFFFFFFFFFF
310
FFFFFFFFFFFFFFFFFFFFFFFFFFFFFFFFFFFFFFFFFFFFFFFFFFFFFFFFFFFFFFFF
310
FFFFFFFFFFFFFFFFFFFFFFFFFFFFFFFFFFFFFFFFFFFFFFFFFFFFFFFFFFFFFFFF
310
FFFFFFFFFFFFFFFFFFFFFFFFFFFFFFFFFFFFFFFFFFFFFFFFFFFFFFFFFFFFFFFF
310
FFFFFFFFFFFFFFFFFFFFFFFFFFFFFFFFFFFFFFFFFFFFFFFFFFFFFFFFFFFFFFFF
310
FFFFFFFFFFFFFFFFFFFFFFFFFFFFFFFFFFFFFFFFFFFFFFFFFFFFFFFFFFFFFFFF
310
FFFFFFFFFFFFFFFFFFFFFFFFFFFFFFFFFFFFFFFFFFFFFFFFFFFFFFFFFFFFFFFF
310
FFFFFFFFFFFFFFFFFFFFFFFFFFFFFFFFFFFFFFFFFFFFFFFFFFFFFFFFFFFFFFFF
310
FFFFFFFFFFFFFFFFFFFFFFFFFFFFFFFFFFFFFFFFFFFFFFFFFFFFFFFFFFFFFFFF
310
52006F006F007400200045006E00740072007900000000000000000000000000
310
0000000000000000000000000000000000000000000000000000000000000000
310
16000500FFFFFFFFFFFFFFFF020000000A00030000000000C000000000000046
310
000000000000000000000000A09718049FA5D30103000000C000000000000000
310
01004F006C006500000000000000000000000000000000000000000000000000
310
0000000000000000000000000000000000000000000000000000000000000000
310
0A000200FFFFFFFFFFFFFFFFFFFFFFFF00000000000000000000000000000000
310
0000000000000000000000000000000000000000000000001400000000000000
310
010043006F006D0070004F0062006A0000000000000000000000000000000000
310
0000000000000000000000000000000000000000000000000000000000000000
310
120002010100000003000000FFFFFFFF00000000000000000000000000000000
310
0000000000000000000000000000000000000000010000004D00000000000000
310
01004F006C006500310030004E00610074006900760065000000000000000000
310
0000000000000000000000000000000000000000000000000000000000000000
310
1A000200FFFFFFFFFFFFFFFFFFFFFFFF00000000000000000000000000000000
310
0000000000000000000000000000000000000000040000002426000000000000
310
FEFFFFFF02000000FEFFFFFFFFFFFFFFFFFFFFFFFFFFFFFFFFFFFFFFFFFFFFFF
310
FFFFFFFFFFFFFFFFFFFFFFFFFFFFFFFFFFFFFFFFFFFFFFFFFFFFFFFFFFFFFFFF
310
FFFFFFFFFFFFFFFFFFFFFFFFFFFFFFFFFFFFFFFFFFFFFFFFFFFFFFFFFFFFFFFF
310
FFFFFFFFFFFFFFFFFFFFFFFFFFFFFFFFFFFFFFFFFFFFFFFFFFFFFFFFFFFFFFFF
310
FFFFFFFFFFFFFFFFFFFFFFFFFFFFFFFFFFFFFFFFFFFFFFFFFFFFFFFFFFFFFFFF
310
FFFFFFFFFFFFFFFFFFFFFFFFFFFFFFFFFFFFFFFFFFFFFFFFFFFFFFFFFFFFFFFF
310
FFFFFFFFFFFFFFFFFFFFFFFFFFFFFFFFFFFFFFFFFFFFFFFFFFFFFFFFFFFFFFFF
310
FFFFFFFFFFFFFFFFFFFFFFFFFFFFFFFFFFFFFFFFFFFFFFFFFFFFFFFFFFFFFFFF
310
FFFFFFFFFFFFFFFFFFFFFFFFFFFFFFFFFFFFFFFFFFFFFFFFFFFFFFFFFFFFFFFF
310
FFFFFFFFFFFFFFFFFFFFFFFFFFFFFFFFFFFFFFFFFFFFFFFFFFFFFFFFFFFFFFFF
310
FFFFFFFFFFFFFFFFFFFFFFFFFFFFFFFFFFFFFFFFFFFFFFFFFFFFFFFFFFFFFFFF
310
FFFFFFFFFFFFFFFFFFFFFFFFFFFFFFFFFFFFFFFFFFFFFFFFFFFFFFFFFFFFFFFF
310
FFFFFFFFFFFFFFFFFFFFFFFFFFFFFFFFFFFFFFFFFFFFFFFFFFFFFFFFFFFFFFFF
310
FFFFFFFFFFFFFFFFFFFFFFFFFFFFFFFFFFFFFFFFFFFFFFFFFFFFFFFFFFFFFFFF
310
FFFFFFFFFFFFFFFFFFFFFFFFFFFFFFFFFFFFFFFFFFFFFFFFFFFFFFFFFFFFFFFF
310
FFFFFFFFFFFFFFFFFFFFFFFFFFFFFFFFFFFFFFFFFFFFFFFFFFFFFFFFFFFFFFFF
310
0100000200000000000000000000000000000000000000000000000000000000
310
0000000000000000000000000000000000000000000000000000000000000000
310
0100FEFF030A0000FFFFFFFF0A00030000000000C00000000000004607000000
310
5042727573680007000000504272757368000700000050427275736800F439B2
310
7100000000000000000000000000000000000000000000000000000000000000
310
0000000000000000000000000000000000000000000000000000000000000000
310
0000000000000000000000000000000000000000000000000000000000000000
310
0000000000000000000000000000000000000000000000000000000000000000
310
0000000000000000000000000000000000000000000000000000000000000000
310
0000000000000000000000000000000000000000000000000000000000000000
310
0000000000000000000000000000000000000000000000000000000000000000
310
0000000000000000000000000000000000000000000000000000000000000000
310
0000000000000000000000000000000000000000000000000000000000000000
310
0000000000000000000000000000000000000000000000000000000000000000
310
0000000000000000000000000000000000000000000000000000000000000000
310
0000000000000000000000000000000000000000000000000000000000000000
310
20260000424D0E260000000000003E00000028000000B40200006E0000000100
310
01000000000000000000130B0000130B00000200000002000000000000FFFFFF
310
FFFFFFFFFFFFFFFFFFFFFFFFFFFFFFFFFFFFFFFFFFFFFFFFFFFFFFFFFFFFFFFF
310
FFFFFFFFFFFFFFFFFFFFFFFFFFFFFFFFFFFFFFFFFFFFFFFFFFFFFFFFFFFFFFFF
310
FFFFFFFFFFFFFFFFFFFFFFFFFFFFFFFFFFFFFFFFFFFFFFFFF000FFFFFFFFFFFF
310
FFFFFFFFFFFFFFFFFFFFFFFFFFFFFFFFFFFFFFFFFFFFFFFFFFFFFFFFFFFFFFFF
310
FFFFFFFFFFFFFFFFFFFFFFFFFFFFFFFFFFFFFFFFFFFFFFFFFFFFFFFFFFFFFFFF
310
FFFFFFFFFFFFFFFFFFFFFFFFFFFFFFFFF000FFFFFFFFFFFFFFFFFFFFFFFFFFFF
310
FFFFFFFFFFFFFFFFFFFFFFFFFFFFFFFFFFFFFFFFFFFFFFFFFFFFFFFFFFFFFFFF
310
FFFFFFFFFFFFFFFFFFFFFFFFFFFFFFFFFFFFFFFFFFFFFFFFFFFFFFFFFFFFFFFF
310
FFFFFFFFFFFFFFFFF000FFFFFFFFFFFFFFFFFFFFFFFFFFFFFFFFFFFFFFFFFFFF
310
FFFFFFFFFFFFFFFFFFFFFFFFFFFFFFFFFFFFFFFFFFFFFFFFFFFFFFFFFFFFFFFF
310
FFFFFFFFFFFFFFFFFFFFFFFFFFFFFFFFFFFFFFFFFFFFFFFFFFFFFFFFFFFFFFFF
310
F000FFFFFFFFFFFFFFFFFFFFFFFFFFFFFFFFFFFFFFFFFFFFFFFFFFFFFFFFFFFF
310
FFFFFFFFFFFFFFFFFFFFFFFFFFFFFFFFFFFFFFFFFFFFFFFFFFFFFFFFFFFFFFFF
310
FFFFFFFFFFFFFFFFFFFFFFFFFFFFFFFFFFFFFFFFFFFFFFFFF000FFFFFFFFFFFF
310
FFFFFFFFFFFFFFFFFFFFFFFFFFFFFFFFFFFFFFFFFFFFFFFFFFFFFFFFFFFFFFFF
310
FFFFFFFFFFFFFFFFFFFFFFFFFFFFFFFFFFFFFFFFFFFFFFFFFFFFFFFFFFFFFFFF
310
FFFFFFFFFFFFFFFFFFFFFFFFFFFFFFFFF000FFFFFFFFFFFFFFFFFFFFFFFFFFFF
310
FFFFFFFFFFFFFFFFFFFFFFFFFFFFFFFFFFFFFFFFFFFFFFFFFFFFFFFFFFFFFFFF
310
FFFFFFFFFFFFFFFFFFFFFFFFFFFFFFFFFFFFFFFFFFFFFFFFFFFFFFFFFFFFFFFF
310
FFFFFFFFFFFFFFFFF000FFFFFFFFFFFFFFFFFFFFFFFFFFFFFFFFFFFFFFFFFFFF
310
FFFFFFFFFFFFFFFFFFFFFFFFFFFFFFFFFFFFFFFFFFFFFFFFFFFFFFFFFFFFFFFF
310
FFFFFFFFFFFFFFFFFFFFFFFFFFFFFFFFFFFFFFFFFFFFFFFFFFFFFFFFFFFFFFFF
310
F000FFFFFFFFFFFFFFFFFFFFFFFFFFFFFFFFFFFFFFFFFFFFFFFFFFFFFFFFFFFF
310
FFFFFFFFFFFFFFFFFFFFFFFFFFFFFFFFFFFFFFFFFFFFFFFFFFFFFFFFFFFFFFFF
310
FFFFFFFFFFFFFFFFFFFFFFFFFFFFFFFFFFFFFFFFFFFFFFFFF000FFFFFFFFFFFF
310
FFFFFFFFFFFFFFFFFFFFFFFFFFFFFFFFFFFFFFFFFFFFFFFFFFFFFFFFFFFFFFFF
310
FFFFFFFFFFFFFFFFFFFFFFFFFFFFFFFFFFFFFFFFFFFFFFFFFFFFFFFFFFFFFFFF
310
FFFFFFFFFFFFFFFFFFFFFFFFFFFFFFFFF000FFFFFFFFFFFFFFFFFFFFFFFFFFFF
310
FFFFFFFFFFFFFFFFFFFFFFFFFFFFFFFFFFFFFFFFFFFFFFFFFFFFFFFFFFFFFFFF
310
FFFFFFFFFFFFFFFFFFFFFFFFFFFFFFFFFFFFFFFFFFFFFFFFFFFFFFFFFFFFFFFF
310
FFFFFFFFFFFFFFFFF000FFFFFFFFFFFFFFFFFFFFFFFFFFFFFFFFFFFFFFFFFFFF
310
FFFFFFFFFFFFFFFFFFFFFFFFFFFFFFFFFFFFFFFFFFFFFFFFFFFFFFFFFFFFFFFF
310
FFFFFFFFFFFFFFFFFFFFFFFFFFFFFFFFFFFFFFFFFFFFFFFFFFFFFFFFFFFFFFFF
310
F000FFFFFFFFFFFFFFFFFFFFFFFFFFFFFFFFFFFFFFFFFFFFFFFFFFFFFFFFFFFF
310
FFFFFFFFFFFFFFFFFFFFFFFFFFFFFFFFFFFFFFFFFFFFFFFFFFFFFFFFFFFFFFFF
310
FFFFFFFFFFFFFFFFFFFFFFFFFFFFFFFFFFFFFFFFFFFFFFFFF000FFFFFFFFFFFF
310
FFFFFFFFFFFFFFFFFFFFFFFFFFFFFFFFFFFFFFFFFFFFFFFFFFFFFFFFFFFFFFFF
310
FFFFFFFFFFFFFFFFFFFFFFFFFFFFFFFFFFFFFFFFFFFFFFFFFFFFFFFFFFFFFFFF
310
FFFFFFFFFFFFFFFFFFFFFFFFFFFFFFFFF000FFFFFFFFFFFFFFFFFFFFFFFFFFFF
310
FFFFFFFFFFFFFFFFFFFFFFFFFFFFFFFFFFFFFFFFFFFFFFFFFFFFFFFFFFFFFFFF
310
FFFFFFFFFFFFFFFFFFFFFFFFFFFFFFFFFFFFFFFFFFFFFFFFFFFFFFFFFFFFFFFF
310
FFFFFFFFFFFFFFFFF000FFFFFFFFFFFFFFFFFFFFFFFFFFFFFFFFFFFFFFFFFFFF
310
FFFFFFFFFFFFFFFFFFFFFFFFFFFFFFFFFFFFFFFFFFFFFFFFFFFFFFFFFFFFFFFF
310
FFFFFFFFFFFFFFFFFFFFFFFFFFFFFFFFFFFFFFFFFFFFFFFFFFFFFFFFFFFFFFFF
310
F000FFFFFFFFFFFFFFFFFFFFFFFFFFFFFFFFFFFFFFFFFFFFFFFFFFFFFFFFFFFF
310
FFFFFFFFFFFFFFFFFFFFFFFFFFFFFFFFFFFFFFFFFFFFFFFFFFFFFFFFFFFFFFFF
310
FFFFFFFFFFFFFFFFFFFFFFFFFFFFFFFFFFFFFFFFFFFFFFFFF000FFFFFFFFFFFF
310
FFFFFFFFFFFFFFFFFFFFFFFFFFFFFFFFFFFFFFFFFFFFFFFFFFFFFFFFFFFFFFFF
310
FFFFFFFFFFFFFFFFFFFFFFFFFFFFFFFFFFFFFFFFFFFFFFFFFFFFFFFFFFFFFFFF
310
FFFFFFFFFFFFFFFFFFFFFFFFFFFFFFFFF000FFFFFFFFFFFFFFFFFFFFFFFFFFFF
310
FFFFFFFFFFFFFFFFFFFFFFFFFFFFFFFFFFFFFFFFFFFFFFFFFFFFFFFFFFFFFFFF
310
FFFFFFFFFFFFFFFFFFFFFFFFFFFFFFFFFFFFFFFFFFFFFFFFFFFFFFFFFFFFFFFF
310
FFFFFFFFFFFFFFFFF000FFFFF80003FFFFFFFFFFFFFFFFFFFFFFFFFFFFFFFFFF
310
FFFFF00007FFFFFFFFFF00007FFFFFF800000000000000007FFFFFFFFFFFFFFF
310
FFFFFFFC001FFFFFFFFFFFFFFC001FFFFFFFFFFFFFFFFFFFFFFFFFFE0007FFFF
310
F000FFFF8000007FFFFFFFF8000FFFFFC0007FFFFF80007FFFFF0000007FFFFF
310
FFF8000007FFFFF800000000000000007FFFFFF0001FFFFFFFFFFFC00001FFFF
310
FFFFFFFFC00001FFFFFFFF000000000003FFFFE000007FFFF000FFFE0000000F
310
FFFFFFF0000FFFFF80007FFFFF80007FFFFC0000001FFFFFFFC0000001FFFFF8
310
00000000000000007FFFFFF0001FFFFFFFFFFE0000003FFFFFFFFFFE0000003F
310
FFFFFF000000000003FFFF0000000FFFF000FFF800000003FFFFFFF00007FFFF
310
80007FFFFF80007FFFF000000007FFFFFF000000003FFFF80000000000000000
310
7FFFFFF0001FFFFFFFFFF80000000FFFFFFFFFF80000000FFFFFFF0000000000
310
03FFFC00000003FFF000FFE000000000FFFFFFF00007FFFF80003FFFFF80007F
310
FFC000000001FFFFFC000000001FFFF800000000000000007FFFFFF0001FFFFF
310
FFFFE000000003FFFFFFFFE000000003FFFFFF000000000003FFF000000000FF
310
F000FF80000000007FFFFFF00007FFFF80003FFFFF80007FFF8000000000FFFF
310
F80000000007FFF800000000000000007FFFFFF0001FFFFFFFFFC000000001FF
310
FFFFFFC000000001FFFFFF000000000003FFC0000000007FF000FF0000000000
310
3FFFFFE00007FFFF00003FFFFF80007FFE00000000003FFFF00000000003FFF8
310
00000000000000007FFFFFF0001FFFFFFFFF8000000000FFFFFFFF8000000000
310
FFFFFF000000000003FF80000000003FF000FE00000000001FFFFFE00003FFFF
310
00003FFFFF80007FFC00000000001FFFE00000000001FFF8000001FFFE000000
310
7FFFFFF0001FFFFFFFFE00000000003FFFFFFE00000000003FFFFF0000000000
310
03FF00000000001FF000FC00000000000FFFFFE00003FFFF00001FFFFF80007F
310
F800000000001FFFC00000000000FFF8000001FFFE0000007FFFFFF0001FFFFF
310
FFFC00000000001FFFFFFC00000000001FFFFF000000000003FE00000000000F
310
F000F8000000000007FFFFE00003FFFF00001FFFFF80007FF800000000000FFF
310
800000000000FFF8000001FFFE0000007FFFFFF0001FFFFFFFF800000000000F
310
FFFFF800000000000FFFFF000000000003FC000000000007F000F80000000000
310
03FFFFC00003FFFE00001FFFFF80007FF0000000000007FF0000000000007FF8
310
000001FFFE0000007FFFFFF0001FFFFFFFF0000000000007FFFFF00000000000
310
07FFFF000000000003F8000000000003F000F0000000000003FFFFC00001FFFE
310
00001FFFFF80007FE0000000000007FE0000000000003FF8000001FFFE000000
310
7FFFFFF0001FFFFFFFF0000000000007FFFFF0000000000007FFFF0000000000
310
03F800001F800003F000E00001FFF00001FFFFC00001FFFE00000FFFFF80007F
310
E00001FFE00003FE00001FFF00003FF8000001FFFE0000007FFFFFF0001FFFFF
310
FFE000003E000003FFFFE000003E000003FFFF000000000003F00001FFF80001
310
F000E00007FFFC0001FFFFC00001FFFE00000FFFFF80007FC0000FFFFC0003FC
310
0000FFFFC0001FF8000001FFFE0000007FFFFFF0001FFFFFFFC00003FFE00001
310
FFFFC00003FFE00001FFFF0001FFFFFFFFF00007FFFE0001F000E0000FFFFF00
310
00FFFF800001FFFC00000FFFFF80007FC0001FFFFE0001FC0001FFFFE0001FF8
310
000001FFFE0000007FFFFFF0001FFFFFFF80000FFFF80000FFFF80000FFFF800
310
00FFFF0003FFFFFFFFE0000FFFFF8000F000C0003FFFFF8000FFFF800000FFFC
310
000007FFFF80007F80003FFFFF0001FC0003FFFFF0001FF8000001FFFE000000
310
7FFFFFF0001FFFFFFF80003FFFFE0000FFFF80003FFFFE0000FFFF0003FFFFFF
310
FFE0003FFFFF8000F000C0003FFFFF8000FFFF800000FFFC000007FFFF80007F
310
80007FFFFF8001F80007FFFFF8000FF8000001FFFE0000007FFFFFF0001FFFFF
310
FF00007FFFFF00007FFF00007FFFFF00007FFF0003FFFFFFFFE0003FFFFFC000
310
F000C0007FFFFFC000FFFF000000FFFC000007FFFF80007F8000FFFFFF8000F8
310
000FFFFFF8000FF8000001FFFE0000007FFFFFF0001FFFFFFF0000FFFFFF8000
310
7FFF0000FFFFFF80007FFF0003FFFFFFFFC0007FFFFFC00070008000FFFFFFC0
310
00FFFF000000FFF8000007FFFF80007F8000FFFFFF8000F8000FFFFFF8000FF8
310
000001FFFE0000007FFFFFF0001FFFFFFE0001FFFFFFC0003FFE0001FFFFFFC0
310
003FFF0003FFFFFFFFC0007FFFFFE00070008000FFFFFFC0007FFF0000007FF8
310
000003FFFF80007F0001FFFFFF8000F8000FFFFFF8000FF8000001FFFE000000
310
7FFFFFF0001FFFFFFE0001FFFFFFC0003FFE0001FFFFFFC0003FFF0003FFFFFF
310
FFC000FFFFFFE00070008000FFFFFFC0007FFF0000007FF8000003FFFF80007F
310
0001FFFFFF8000F8001FFFFFF8000FF8000001FFFE0000007FFFFFF0001FFFFF
310
FE0003FFFFFFE0003FFE0003FFFFFFE0003FFF0003FFFFFFFFC000FFFFFFE000
310
70008000FFFFFFC0007FFE0000007FF8000003FFFF80007F0001FFFFFF8000F0
310
001FFFFFF8000FF8000001FFFE0000007FFFFFF0001FFFFFFC0003FFFFFFE000
310
1FFC0003FFFFFFE0001FFF0003FFFFFFFFC000FFFFFFC00070008000FFFFFF80
310
007FFE0000007FF0000003FFFF80007F0001FFFFFF0000F0001FFFFFF8000FF8
310
000001FFFE0000007FFFFFF0001FFFFFFC0007FFFFFFF0001FFC0007FFFFFFF0
310
001FFF0003FFFFFFFFC000FFFFFFC00070008001FFFFFF0000FFFE0000003FF0
310
000001FFFF80007F0001FFFFFF0000F8001FFFFFF0000FF8000001FFFE000000
310
7FFFFFF0001FFFFFFC0007FFFFFFF0001FFC0007FFFFFFF0001FFF0003FFFFFF
310
FFC001FFFFFF80007000FFFFFFFFFE0000FFFE0008003FF0008001FFFF80007F
310
FFFFFFFFFC0000FFFFFFFFFFE0000FF8000001FFFE0000007FFFFFF0001FFFFF
310
F8000FFFFFFFF8000FF8000FFFFFFFF8000FFF0003FFFFFFFFFFFFFFFFFF0000
310
7000FFFFFFFFFC0000FFFC0008003FF0008001FFFF80007FFFFFFFFFF80001FF
310
FFFFFFFF80000FF8000001FFFE0000007FFFFFF0001FFFFFF8000FFFFFFFF800
310
0FF8000FFFFFFFF8000FFF0003FFFFFFFFFFFFFFFFFE0000F000FFFFFFFFE000
310
00FFFC000C003FE000C001FFFF80007FFFFFFFFFC00001FFFFFFFFFE00001FF8
310
000001FFFE0000007FFFFFF0001FFFFFF8000FFFFFFFF8000FF8000FFFFFFFF8
310
000FFF0003FFFFFFFFFFFFFFFFF00000F000FFFFFFFE000001FFFC000C001FE0
310
00C000FFFF80007FFFFFFFFE000001FFFFFFFFE000001FF80FFFFFFFFFFFFFC0
310
7FFFFFF0001FFFFFF8000FFFFFFFF8000FF8000FFFFFFFF8000FFF0003FFFFFF
310
FFFFFFFFFF800000F000FFFFFFC0000001FFFC001C001FE001C000FFFF80007F
310
FFFFFF80000003FFFFFFF80000001FF80FFFFFFFFFFFFFC07FFFFFF0001FFFFF
310
F8001FFFFFFFFC000FF8001FFFFFFFFC000FFF0003FFFFFFFFFFFFFFF0000001
310
F000FFFFF800000001FFF8001C001FE001C000FFFF80007FFFFFF800000003FF
310
FFFF800000003FF80FFFFFFFFFFFFFC07FFFFFF0001FFFFFF8001FFFFFFFFC00
310
0FF8001FFFFFFFFC000FFF0003FFFFFFFFFFFFFE00000001F000FFFFC0000000
310
03FFF8001E001FC001E000FFFF80007FFFFF8000000007FFFFFC000000003FF8
310
0FFFFFFFFFFFFFC07FFFFFF0001FFFFFF8001FFFFFFFFC000FF8001FFFFFFFFC
310
000FFF0003FFFFFFFFFFFFE000000003F000FFFE0000000007FFF8001E000FC0
310
01E0007FFF80007FFFFE0000000007FFFFE0000000007FF80FFFFFFFFFFFFFC0
310
7FFFFFF0001FFFFFF0001FFFFFFFFC0007F0001FFFFFFFFC0007FF0003FFFFFF
310
FFFFFF0000000003F000FFF80000000007FFF8001E000FC003E0007FFF80007F
310
FFF0000000000FFFFF8000000000FFF80FFFFFFFFFFFFFC07FFFFFF0001FFFFF
310
F0001FFFFFFFFC0007F0001FFFFFFFFC0007FF0003FFFFFFFFFFFC0000000007
310
F000FFE0000000000FFFF0003E000FC003E0007FFF80007FFFC0000000001FFF
310
FE0000000001FFF80FFFFFFFFFFFFFC07FFFFFF0001FFFFFF0001FFFFFFFFC00
310
07F0001FFFFFFFFC0007FF0003FFFFFFFFFFF0000000000FF000FFC000000000
310
1FFFF0003F000F8003F0003FFF80007FFF80000000003FFFF80000000003FFF8
310
0FFFFFFFFFFFFFC07FFFFFF0001FFFFFF0001FFFFFFFFC0007F0001FFFFFFFFC
310
0007FF0003FFFFFFFFFFE0000000001FF000FF00000000007FFFF0003F000780
310
03F0003FFF80007FFF00000000007FFFF00000000007FFF80FFFFFFFFFFFFFC0
310
7FFFFFF0001FFFFFF0001FFFFFFFFC0007F0001FFFFFFFFC0007FF0003FFFFFF
310
FFFF80000000007FF000FE0000000000FFFFE0003F00078007F0003FFF80007F
310
FE0000000001FFFFE0000000001FFFF80FFFFFFFFFFFFFC07FFFFFF0001FFFFF
310
F0001FFFFFFFFC0007F0001FFFFFFFFC0007FF0003FFFFFFFFFF0000000000FF
310
F000FC0000000003FFFFE0007F00078007F0003FFF80007FFC0000000007FFFF
310
C0000000007FFFF80FFFFFFFFFFFFFC07FFFFFF0001FFFFFF8001FFFFFFFFC00
310
0FF8001FFFFFFFFC000FFF0003FFFFFFFFFE0000000003FFF000FC000000000F
310
FFFFE0007F80070007F8001FFF80007FF8000000001FFFFF8000000001FFFFF8
310
0FFFFFFFFFFFFFC07FFFFFF0001FFFFFF8001FFFFFFFFC000FF8001FFFFFFFFC
310
000FFF0003FFFFFFFFFC000000000FFFF000F8000000007FFFFFE0007F800700
310
07F8001FFF80007FF000000000FFFFFF800000000FFFFFF80FFFFFFFFFFFFFC0
310
7FFFFFF0001FFFFFF8000FFFFFFFF8000FF8000FFFFFFFF8000FFF0003FFFFFF
310
FFFC000000007FFFF000F800000007FFFFFFC0007F8003000FF8001FFF80007F
310
F000000007FFFFFF000000007FFFFFF80FFFFFFFFFFFFFC07FFFFFF0001FFFFF
310
F8000FFFFFFFF8000FF8000FFFFFFFF8000FFF0003FFFFFFFFF80000000FFFFF
310
F000F0000000FFFFFFFFC000FF8003000FF8001FFF80007FE0000000FFFFFFFF
310
0000000FFFFFFFF8000001FFFE0000007FFFFFF0001FFFFFF8000FFFFFFFF800
310
0FF8000FFFFFFFF8000FFF0003FFFFFFFFF8000000FFFFFFF000F000000FFFFF
310
FFFFC000FFC002000FF8000FFF80007FE000001FFFFFFFFE000001FFFFFFFFF8
310
000001FFFE0000007FFFFFF0001FFFFFF8000FFFFFFFF8000FF8000FFFFFFFF8
310
000FFF0003FFFFFFFFF000001FFFFFFFF000E00000FFFFFFFFFFC000FFC00200
310
0FFC000FFF80007FE00001FFFFFFFFFE00001FFFFFFFFFF8000001FFFE000000
310
7FFFFFF0001FFFFFFC000FFFFFFFF8001FFC000FFFFFFFF8001FFF0003FFFFFF
310
FFF00001FFFFFFFFF000E00007FFFFFFFFFF8000FFC000001FFC000FFF80007F
310
C0000FFFFFFFFFFE0000FFFFFFFFFFF8000001FFFE0000007FFFFFF0001FFFFF
310
FC0007FFFFFFF0001FFC0007FFFFFFF0001FFF0003FFFFFFFFF00007FFFFFFFF
310
F000E0001FFFFFFFFFFF8000FFC000001FFC000FFF80007FC0003FFFFFFFFFFE
310
0001FFFFFFFFFFF8000001FFFE0000007FFFFFF0001FFFFFFC0007FFFFFFF000
310
1FFC0007FFFFFFF0001FFF0003FFFFFFFFF0001FFFFFFFFFF000E0003FFFFF00
310
03FF8001FFE000001FFC0007FF80007FC0007FFFFF0007FC0003FFFFF0003FF8
310
000001FFFE0000007FFFFFF0001FFFFFFC0003FFFFFFE0001FFC0003FFFFFFE0
310
001FFF0003FFFFFFFFF0003FFFFFFFFFF000E0003FFFFF0001FF8001FFE00000
310
1FFE0007FF80007FC0007FFFFE0003FC0007FFFFE0003FF8000001FFFE000000
310
7FFFFFF0001FFFFFFE0003FFFFFFE0003FFE0003FFFFFFE0003FFF0003FFFFFF
310
FFF0003FFFFF8001F000E0003FFFFF0001FF0001FFE000001FFE0007FF80007F
310
C0007FFFFE0003FC0007FFFFE0003FF8000001FFFE0000007FFFFFF0001FFFFF
310
FE0001FFFFFFC0003FFE0001FFFFFFC0003FFF0003FFFFFFFFF0003FFFFF0001
310
F000E0003FFFFF0003FF0001FFE000003FFE0007FF80007FC0007FFFFE0003FC
310
0007FFFFE0003FF8000001FFFE0000007FFFFFF0001FFFFFFF0001FFFFFFC000
310
7FFF0001FFFFFFC0007FFF0003FFFFFFFFF0003FFFFF0001F000E0003FFFFE00
310
03FF0003FFF000003FFE0003FF80007FC0007FFFFC0003FE0007FFFFE0003FF8
310
000001FFFE0000007FFFFFF0001FFFFFFF0000FFFFFF80007FFF0000FFFFFF80
310
007FFF0003FFFFFFFFF0003FFFFF0001F000E0003FFFFE0003FF0003FFF00000
310
3FFF0003FF80007FC0007FFFFC0007FE0007FFFFC0003FF8000001FFFE000000
310
7FFFFFF0001FFFFFFF80007FFFFF0000FFFF80007FFFFF0000FFFF0003FFFFFF
310
FFF0003FFFFF0003F000E0003FFFFC0003FE0003FFF000003FFF0003FF80007F
310
E0003FFFF80007FE0003FFFFC0007FF8000001FFFE0000007FFFFFF0001FFFFF
310
FF80003FFFFE0000FFFF80003FFFFE0000FFFF0003FFFFFFFFF0001FFFFE0003
310
F000F0001FFFF80003FE0003FFF000007FFF0001FF80007FE0003FFFF00007FE
310
0001FFFF80007FF8000001FFFE0000007FFFFFF0001FFFFFFFC0000FFFF80001
310
FFFFC0000FFFF80001FFFF0003FFFFFFFFF0001FFFFC0003F000F0000FFFF000
310
07FE0007FFF800007FFF0001FF80007FE0001FFFE00007FF0000FFFE00007FF8
310
000001FFFE0000007FFFFFF0001FFFFFFFC00003FFE00001FFFFC00003FFE000
310
01FFFF0003FFFFFFFFF8000FFFF80003F000F00003FFC00007FC0007FFF80000
310
7FFF8001FF80007FF00007FF80000FFF00007FF80000FFF8000001FFFE000000
310
7F80000000000001FFE000003E000003FFFFE000003E000003FFFF0003FFFFFF
310
FFF80003FFE00007F000F800000000000FFC0007FFF800007FFF8001FF80007F
310
F000000000000FFF000000000000FFF8000001FFFE0000007F80000000000001
310
FFF0000000000007FFFFF0000000000007FFFF0003FFFFFFFFFC00007E000007
310
F000F800000000000FFC0007FFF80000FFFF8000FF80007FF800000000001FFF
310
800000000001FFF8000001FFFE0000007F80000000000001FFF800000000000F
310
FFFFF800000000000FFFFF0003FFFFFFFFFC00000000000FF000FC0000000000
310
1FFC0007FFFC0000FFFF8000FF80007FF800000000003FFFC00000000001FFF8
310
000001FFFE0000007F80000000000001FFF800000000000FFFFFF80000000000
310
0FFFFF0003FFFFFFFFFE00000000001FF000FE00000000003FF8000FFFFC0000
310
FFFF8000FF80007FFC00000000003FFFC00000000003FFF8000001FFFE000000
310
7F80000000000001FFFC00000000001FFFFFFC00000000001FFFFF0003FFFFFF
310
FFFF00000000001FF000FF00000000003FF8000FFFFC0000FFFFC000FF80007F
310
FE00000000007FFFE00000000007FFF8000001FFFE0000007F80000000000001
310
FFFE00000000003FFFFFFE00000000003FFFFF0003FFFFFFFFFF80000000003F
310
F000FF80000000007FF8000FFFFC0001FFFFC0007F80007FFF0000000000FFFF
310
F0000000000FFFF800000000000000007F80000000000001FFFF8000000000FF
310
FFFFFF8000000000FFFFFF0003FFFFFFFFFFC0000000007FF000FFC000000000
310
FFF8000FFFFE0001FFFFC0007F80007FFF8000000001FFFFF8000000001FFFF8
310
00000000000000007F80000000000001FFFFC000000001FFFFFFFFC000000001
310
FFFFFF0003FFFFFFFFFFE000000000FFF000FFE000000003FFF0001FFFFE0001
310
FFFFC0007F80007FFFC000000007FFFFFE000000003FFFF80000000000000000
310
7F80000000000001FFFFE000000003FFFFFFFFE000000003FFFFFF0003FFFFFF
310
FFFFF000000003FFF000FFF80000000FFFF0001FFFFE0001FFFFE0007F80007F
310
FFF00000000FFFFFFF00000000FFFFF800000000000000007F80000000000001
310
FFFFF80000000FFFFFFFFFF80000000FFFFFFF0003FFFFFFFFFFFC0000000FFF
310
F000FFFE0000003FFFF0001FFFFE0003FFFFE0003F80007FFFFC0000003FFFFF
310
FFC0000003FFFFF800000000000000007F80000000000001FFFFFE0000003FFF
310
FFFFFFFE0000003FFFFFFF0003FFFFFFFFFFFF0000003FFFF000FFFF800000FF
310
FFF0001FFFFF0003FFFFE0003F80007FFFFF000001FFFFFFFFF800001FFFFFF8
310
00000000000000007F80000000000001FFFFFFC00001FFFFFFFFFFFFC00001FF
310
FFFFFF0003FFFFFFFFFFFFC00000FFFFF000FFFFF8000FFFFFFFFFFFFFFFFFFF
310
FFFFFFFFFFFFFFFFFFFFF0001FFFFFFFFFFF0000FFFFFFF80000000000000000
310
7FFFFFFFFFFFFFFFFFFFFFFC001FFFFFFFFFFFFFFC001FFFFFFFFFFFFFFFFFFF
310
FFFFFFFC001FFFFFF000FFFFFFFFFFFFFFFFFFFFFFFFFFFFFFFFFFFFFFFFFFFF
310
FFFFFFFFFFFFFFFFFFFFFFFFFFFFFFFFFFFFFFFFFFFFFFFFFFFFFFFFFFFFFFFF
310
FFFFFFFFFFFFFFFFFFFFFFFFFFFFFFFFFFFFFFFFFFFFFFFFFFFFFFFFFFFFFFFF
310
F000FFFFFFFFFFFFFFFFFFFFFFFFFFFFFFFFFFFFFFFFFFFFFFFFFFFFFFFFFFFF
310
FFFFFFFFFFFFFFFFFFFFFFFFFFFFFFFFFFFFFFFFFFFFFFFFFFFFFFFFFFFFFFFF
310
FFFFFFFFFFFFFFFFFFFFFFFFFFFFFFFFFFFFFFFFFFFFFFFFF000FFFFFFFFFFFF
310
FFFFFFFFFFFFFFFFFFFFFFFFFFFFFFFFFFFFFFFFFFFFFFFFFFFFFFFFFFFFFFFF
310
FFFFFFFFFFFFFFFFFFFFFFFFFFFFFFFFFFFFFFFFFFFFFFFFFFFFFFFFFFFFFFFF
310
FFFFFFFFFFFFFFFFFFFFFFFFFFFFFFFFF000FFFFFFFFFFFFFFFFFFFFFFFFFFFF
310
FFFFFFFFFFFFFFFFFFFFFFFFFFFFFFFFFFFFFFFFFFFFFFFFFFFFFFFFFFFFFFFF
310
FFFFFFFFFFFFFFFFFFFFFFFFFFFFFFFFFFFFFFFFFFFFFFFFFFFFFFFFFFFFFFFF
310
FFFFFFFFFFFFFFFFF000FFFFFFFFFFFFFFFFFFFFFFFFFFFFFFFFFFFFFFFFFFFF
310
FFFFFFFFFFFFFFFFFFFFFFFFFFFFFFFFFFFFFFFFFFFFFFFFFFFFFFFFFFFFFFFF
310
FFFFFFFFFFFFFFFFFFFFFFFFFFFFFFFFFFFFFFFFFFFFFFFFFFFFFFFFFFFFFFFF
310
F000FFFFFFFFFFFFFFFFFFFFFFFFFFFFFFFFFFFFFFFFFFFFFFFFFFFFFFFFFFFF
310
FFFFFFFFFFFFFFFFFFFFFFFFFFFFFFFFFFFFFFFFFFFFFFFFFFFFFFFFFFFFFFFF
310
FFFFFFFFFFFFFFFFFFFFFFFFFFFFFFFFFFFFFFFFFFFFFFFFF000FFFFFFFFFFFF
310
FFFFFFFFFFFFFFFFFFFFFFFFFFFFFFFFFFFFFFFFFFFFFFFFFFFFFFFFFFFFFFFF
310
FFFFFFFFFFFFFFFFFFFFFFFFFFFFFFFFFFFFFFFFFFFFFFFFFFFFFFFFFFFFFFFF
310
FFFFFFFFFFFFFFFFFFFFFFFFFFFFFFFFF000FFFFFFFFFFFFFFFFFFFFFFFFFFFF
310
FFFFFFFFFFFFFFFFFFFFFFFFFFFFFFFFFFFFFFFFFFFFFFFFFFFFFFFFFFFFFFFF
310
FFFFFFFFFFFFFFFFFFFFFFFFFFFFFFFFFFFFFFFFFFFFFFFFFFFFFFFFFFFFFFFF
310
FFFFFFFFFFFFFFFFF000FFFFFFFFFFFFFFFFFFFFFFFFFFFFFFFFFFFFFFFFFFFF
310
FFFFFFFFFFFFFFFFFFFFFFFFFFFFFFFFFFFFFFFFFFFFFFFFFFFFFFFFFFFFFFFF
310
FFFFFFFFFFFFFFFFFFFFFFFFFFFFFFFFFFFFFFFFFFFFFFFFFFFFFFFFFFFFFFFF
310
F000FFFFFFFFFFFFFFFFFFFFFFFFFFFFFFFFFFFFFFFFFFFFFFFFFFFFFFFFFFFF
310
FFFFFFFFFFFFFFFFFFFFFFFFFFFFFFFFFFFFFFFFFFFFFFFFFFFFFFFFFFFFFFFF
310
FFFFFFFFFFFFFFFFFFFFFFFFFFFFFFFFFFFFFFFFFFFFFFFFF000FFFFFFFFFFFF
310
FFFFFFFFFFFFFFFFFFFFFFFFFFFFFFFFFFFFFFFFFFFFFFFFFFFFFFFFFFFFFFFF
310
FFFFFFFFFFFFFFFFFFFFFFFFFFFFFFFFFFFFFFFFFFFFFFFFFFFFFFFFFFFFFFFF
310
FFFFFFFFFFFFFFFFFFFFFFFFFFFFFFFFF000FFFFFFFFFFFFFFFFFFFFFFFFFFFF
310
FFFFFFFFFFFFFFFFFFFFFFFFFFFFFFFFFFFFFFFFFFFFFFFFFFFFFFFFFFFFFFFF
310
FFFFFFFFFFFFFFFFFFFFFFFFFFFFFFFFFFFFFFFFFFFFFFFFFFFFFFFFFFFFFFFF
310
FFFFFFFFFFFFFFFFF000FFFFFFFFFFFFFFFFFFFFFFFFFFFFFFFFFFFFFFFFFFFF
310
FFFFFFFFFFFFFFFFFFFFFFFFFFFFFFFFFFFFFFFFFFFFFFFFFFFFFFFFFFFFFFFF
310
FFFFFFFFFFFFFFFFFFFFFFFFFFFFFFFFFFFFFFFFFFFFFFFFFFFFFFFFFFFFFFFF
310
F000FFFFFFFFFFFFFFFFFFFFFFFFFFFFFFFFFFFFFFFFFFFFFFFFFFFFFFFFFFFF
310
FFFFFFFFFFFFFFFFFFFFFFFFFFFFFFFFFFFFFFFFFFFFFFFFFFFFFFFFFFFFFFFF
310
FFFFFFFFFFFFFFFFFFFFFFFFFFFFFFFFFFFFFFFFFFFFFFFFF000FFFFFFFFFFFF
310
FFFFFFFFFFFFFFFFFFFFFFFFFFFFFFFFFFFFFFFFFFFFFFFFFFFFFFFFFFFFFFFF
310
FFFFFFFFFFFFFFFFFFFFFFFFFFFFFFFFFFFFFFFFFFFFFFFFFFFFFFFFFFFFFFFF
310
FFFFFFFFFFFFFFFFFFFFFFFFFFFFFFFFF000FFFFFFFFFFFFFFFFFFFFFFFFFFFF
310
FFFFFFFFFFFFFFFFFFFFFFFFFFFFFFFFFFFFFFFFFFFFFFFFFFFFFFFFFFFFFFFF
310
FFFFFFFFFFFFFFFFFFFFFFFFFFFFFFFFFFFFFFFFFFFFFFFFFFFFFFFFFFFFFFFF
310
FFFFFFFFFFFFFFFFF000FFFFFFFFFFFFFFFFFFFFFFFFFFFFFFFFFFFFFFFFFFFF
310
FFFFFFFFFFFFFFFFFFFFFFFFFFFFFFFFFFFFFFFFFFFFFFFFFFFFFFFFFFFFFFFF
310
FFFFFFFFFFFFFFFFFFFFFFFFFFFFFFFFFFFFFFFFFFFFFFFFFFFFFFFFFFFFFFFF
310
F000FFFFFFFFFFFFFFFFFFFFFFFFFFFFFFFFFFFFFFFFFFFFFFFFFFFFFFFFFFFF
310
FFFFFFFFFFFFFFFFFFFFFFFFFFFFFFFFFFFFFFFFFFFFFFFFFFFFFFFFFFFFFFFF
310
FFFFFFFFFFFFFFFFFFFFFFFFFFFFFFFFFFFFFFFFFFFFFFFFF000FFFFFFFFFFFF
310
FFFFFFFFFFFFFFFFFFFFFFFFFFFFFFFFFFFFFFFFFFFFFFFFFFFFFFFFFFFFFFFF
310
FFFFFFFFFFFFFFFFFFFFFFFFFFFFFFFFFFFFFFFFFFFFFFFFFFFFFFFFFFFFFFFF
310
FFFFFFFFFFFFFFFFFFFFFFFFFFFFFFFFF000FFFFFFFFFFFFFFFFFFFFFFFFFFFF
310
FFFFFFFFFFFFFFFFFFFFFFFFFFFFFFFFFFFFFFFFFFFFFFFFFFFFFFFFFFFFFFFF
310
FFFFFFFFFFFFFFFFFFFFFFFFFFFFFFFFFFFFFFFFFFFFFFFFFFFFFFFFFFFFFFFF
310
FFFFFFFFFFFFFFFFF000FFFFFFFFFFFFFFFFFFFFFFFFFFFFFFFFFFFFFFFFFFFF
310
FFFFFFFFFFFFFFFFFFFFFFFFFFFFFFFFFFFFFFFFFFFFFFFFFFFFFFFFFFFFFFFF
310
FFFFFFFFFFFFFFFFFFFFFFFFFFFFFFFFFFFFFFFFFFFFFFFFFFFFFFFFFFFFFFFF
310
F000FFFFFFFFFFFFFFFFFFFFFFFFFFFFFFFFFFFFFFFFFFFFFFFFFFFFFFFFFFFF
310
FFFFFFFFFFFFFFFFFFFFFFFFFFFFFFFFFFFFFFFFFFFFFFFFFFFFFFFFFFFFFFFF
310
FFFFFFFFFFFFFFFFFFFFFFFFFFFFFFFFFFFFFFFFFFFFFFFFF000FFFFFFFFFFFF
310
FFFFFFFFFFFFFFFFFFFFFFFFFFFFFFFFFFFFFFFFFFFFFFFFFFFFFFFFFFFFFFFF
310
FFFFFFFFFFFFFFFFFFFFFFFFFFFFFFFFFFFFFFFFFFFFFFFFFFFFFFFFFFFFFFFF
310
FFFFFFFFFFFFFFFFFFFFFFFFFFFFFFFFF0000000000000000000000000000000
310
0000000000000000000000000000000000000000000000000000000000000000
310
0000000000000000000000000000000000000000000000000000000000000000
310
0000000000000000000000000000000000000000000000000000000000000000
310
0000000000000000000000000000000000000000000000000000000000000000
310
0000000000000000000000000000000000000000000000000000000000000000
310
0000000000000000000000000000000000000000000000000000000000000000
310
0000000000000000000000000000000000000000000000000000000000000000
310
0000000000000000000000000000000000000000000000000000000000000000
310
0000000000000000000000000000000000000000000000000000000000000000
310
0000000000000000000000000000000000000000000000000000000000000000
310
0000000000000000000000000000000000000000000000000000000000000000
310
0000000000000000000000000000000000000000000000000000000000000000
310
0000000000000000000000000000000000000000000000000000000000000000
310
0000000000000000000000000000000000000000000000000000000000000000
310
0000000000000000000000000000000000000000000000000000000000000000
  1
OLE
  0
ENDSEC
  0
SECTION
  2
OBJECTS
  0
DICTIONARY
  5
C
330
0
100
AcDbDictionary
281
     1
  3
ACAD_GROUP
350
D
  3
ACAD_LAYOUT
350
1A
  3
ACAD_MLINESTYLE
350
17
  3
ACAD_PLOTSETTINGS
350
19
  3
ACAD_PLOTSTYLENAME
350
E
  3
ACAD_SCALELIST
350
47
  0
DICTIONARY
  5
D
102
{ACAD_REACTORS
330
C
102
}
330
C
100
AcDbDictionary
281
     1
  0
DICTIONARY
  5
1A
102
{ACAD_REACTORS
330
C
102
}
330
C
100
AcDbDictionary
281
     1
  3
Layout1
350
1E
  3
Layout2
350
26
  3
Model
350
22
  0
DICTIONARY
  5
17
102
{ACAD_REACTORS
330
C
102
}
330
C
100
AcDbDictionary
281
     1
  3
Standard
350
18
  0
DICTIONARY
  5
19
102
{ACAD_REACTORS
330
C
102
}
330
C
100
AcDbDictionary
281
     1
  0
ACDBDICTIONARYWDFLT
  5
E
102
{ACAD_REACTORS
330
C
102
}
330
C
100
AcDbDictionary
281
     1
  3
Normal
350
F
100
AcDbDictionaryWithDefault
340
F
  0
DICTIONARY
  5
47
102
{ACAD_REACTORS
330
C
102
}
330
C
100
AcDbDictionary
281
     1
  3
A0
350
48
  3
A1
350
49
  3
A2
350
4A
  3
A3
350
4B
  3
A4
350
4C
  3
A5
350
4D
  3
A6
350
4E
  3
A7
350
4F
  3
A8
350
50
  3
A9
350
51
  3
B0
350
52
  3
B1
350
53
  3
B2
350
54
  3
B3
350
55
  3
B4
350
56
  3
B5
350
57
  3
B6
350
58
  3
B7
350
59
  3
B8
350
5A
  3
B9
350
5B
  3
C0
350
5C
  3
C1
350
5D
  3
C2
350
5E
  3
C3
350
5F
  3
C4
350
60
  3
C5
350
61
  3
C6
350
62
  3
C7
350
63
  3
C8
350
64
  3
C9
350
65
  3
D0
350
66
  3
D1
350
67
  3
D2
350
68
  0
LAYOUT
  5
1E
102
{ACAD_REACTORS
330
1A
102
}
330
1A
100
AcDbPlotSettings
  1

  2
none_device
  4

  6

 40
0.0
 41
0.0
 42
0.0
 43
0.0
 44
0.0
 45
0.0
 46
0.0
 47
0.0
 48
0.0
 49
0.0
140
0.0
141
0.0
142
1.0
143
1.0
 70
   688
 72
     1
 73
     0
 74
     5
  7

 75
    16
147
1.0
148
0.0
149
0.0
100
AcDbLayout
  1
Layout1
 70
     1
 71
     1
 10
0.0
 20
0.0
 11
420.0
 21
297.0
 12
0.0
 22
0.0
 32
0.0
 14
1.0000000000E+20
 24
1.0000000000E+20
 34
1.0000000000E+20
 15
-1.0000000000E+20
 25
-1.0000000000E+20
 35
-1.0000000000E+20
146
0.0
 13
0.0
 23
0.0
 33
0.0
 16
1.0
 26
0.0
 36
0.0
 17
0.0
 27
1.0
 37
0.0
 76
     0
330
1B
  0
LAYOUT
  5
26
102
{ACAD_REACTORS
330
1A
102
}
330
1A
100
AcDbPlotSettings
  1

  2
none_device
  4

  6

 40
0.0
 41
0.0
 42
0.0
 43
0.0
 44
0.0
 45
0.0
 46
0.0
 47
0.0
 48
0.0
 49
0.0
140
0.0
141
0.0
142
1.0
143
1.0
 70
   688
 72
     1
 73
     0
 74
     5
  7

 75
    16
147
1.0
148
0.0
149
0.0
100
AcDbLayout
  1
Layout2
 70
     1
 71
     2
 10
0.0
 20
0.0
 11
0.0
 21
0.0
 12
0.0
 22
0.0
 32
0.0
 14
0.0
 24
0.0
 34
0.0
 15
0.0
 25
0.0
 35
0.0
146
0.0
 13
0.0
 23
0.0
 33
0.0
 16
1.0
 26
0.0
 36
0.0
 17
0.0
 27
1.0
 37
0.0
 76
     0
330
23
  0
LAYOUT
  5
22
102
{ACAD_REACTORS
330
1A
102
}
330
1A
100
AcDbPlotSettings
  1

  2
none_device
  4
Letter_(8.50_x_11.00_Inches)
  6

 40
6.35
 41
6.35
 42
6.35000508
 43
6.35000508
 44
215.9
 45
279.4
 46
0.0
 47
0.0
 48
0.0
 49
0.0
140
0.0
141
0.0
142
1.0
143
1.0
 70
  1712
 72
     1
 73
     0
 74
     0
  7

 75
     0
147
1.0
148
0.0
149
0.0
100
AcDbLayout
  1
Model
 70
     1
 71
     0
 10
0.0
 20
0.0
 11
297.0
 21
210.0
 12
0.0
 22
0.0
 32
0.0
 14
0.0
 24
0.0
 34
0.0
 15
297.0
 25
210.0
 35
0.0
146
0.0
 13
0.0
 23
0.0
 33
0.0
 16
1.0
 26
0.0
 36
0.0
 17
0.0
 27
1.0
 37
0.0
 76
     0
330
1F
331
29
  0
MLINESTYLE
  5
18
102
{ACAD_REACTORS
330
17
102
}
330
17
100
AcDbMlineStyle
  2
Standard
 70
     0
  3

 62
   256
 51
90.0
 52
90.0
 71
     2
 49
0.5
 62
   256
  6
BYLAYER
 49
-0.5
 62
   256
  6
BYLAYER
  0
ACDBPLACEHOLDER
  5
F
102
{ACAD_REACTORS
330
E
102
}
330
E
  0
SCALE
  5
48
102
{ACAD_REACTORS
330
47
102
}
330
47
100
AcDbScale
 70
     0
300
1:1
140
1.0
141
1.0
290
     1
  0
SCALE
  5
49
102
{ACAD_REACTORS
330
47
102
}
330
47
100
AcDbScale
 70
     0
300
1:2
140
1.0
141
2.0
290
     0
  0
SCALE
  5
4A
102
{ACAD_REACTORS
330
47
102
}
330
47
100
AcDbScale
 70
     0
300
1:4
140
1.0
141
4.0
290
     0
  0
SCALE
  5
4B
102
{ACAD_REACTORS
330
47
102
}
330
47
100
AcDbScale
 70
     0
300
1:5
140
1.0
141
5.0
290
     0
  0
SCALE
  5
4C
102
{ACAD_REACTORS
330
47
102
}
330
47
100
AcDbScale
 70
     0
300
1:8
140
1.0
141
8.0
290
     0
  0
SCALE
  5
4D
102
{ACAD_REACTORS
330
47
102
}
330
47
100
AcDbScale
 70
     0
300
1:10
140
1.0
141
10.0
290
     0
  0
SCALE
  5
4E
102
{ACAD_REACTORS
330
47
102
}
330
47
100
AcDbScale
 70
     0
300
1:16
140
1.0
141
16.0
290
     0
  0
SCALE
  5
4F
102
{ACAD_REACTORS
330
47
102
}
330
47
100
AcDbScale
 70
     0
300
1:20
140
1.0
141
20.0
290
     0
  0
SCALE
  5
50
102
{ACAD_REACTORS
330
47
102
}
330
47
100
AcDbScale
 70
     0
300
1:30
140
1.0
141
30.0
290
     0
  0
SCALE
  5
51
102
{ACAD_REACTORS
330
47
102
}
330
47
100
AcDbScale
 70
     0
300
1:40
140
1.0
141
40.0
290
     0
  0
SCALE
  5
52
102
{ACAD_REACTORS
330
47
102
}
330
47
100
AcDbScale
 70
     0
300
1:50
140
1.0
141
50.0
290
     0
  0
SCALE
  5
53
102
{ACAD_REACTORS
330
47
102
}
330
47
100
AcDbScale
 70
     0
300
1:100
140
1.0
141
100.0
290
     0
  0
SCALE
  5
54
102
{ACAD_REACTORS
330
47
102
}
330
47
100
AcDbScale
 70
     0
300
2:1
140
2.0
141
1.0
290
     0
  0
SCALE
  5
55
102
{ACAD_REACTORS
330
47
102
}
330
47
100
AcDbScale
 70
     0
300
4:1
140
4.0
141
1.0
290
     0
  0
SCALE
  5
56
102
{ACAD_REACTORS
330
47
102
}
330
47
100
AcDbScale
 70
     0
300
8:1
140
8.0
141
1.0
290
     0
  0
SCALE
  5
57
102
{ACAD_REACTORS
330
47
102
}
330
47
100
AcDbScale
 70
     0
300
10:1
140
10.0
141
1.0
290
     0
  0
SCALE
  5
58
102
{ACAD_REACTORS
330
47
102
}
330
47
100
AcDbScale
 70
     0
300
100:1
140
100.0
141
1.0
290
     0
  0
SCALE
  5
59
102
{ACAD_REACTORS
330
47
102
}
330
47
100
AcDbScale
 70
     0
300
1/128" = 1'-0"
140
0.0078125
141
12.0
290
     0
  0
SCALE
  5
5A
102
{ACAD_REACTORS
330
47
102
}
330
47
100
AcDbScale
 70
     0
300
1/64" = 1'-0"
140
0.015625
141
12.0
290
     0
  0
SCALE
  5
5B
102
{ACAD_REACTORS
330
47
102
}
330
47
100
AcDbScale
 70
     0
300
1/32" = 1'-0"
140
0.03125
141
12.0
290
     0
  0
SCALE
  5
5C
102
{ACAD_REACTORS
330
47
102
}
330
47
100
AcDbScale
 70
     0
300
1/16" = 1'-0"
140
0.0625
141
12.0
290
     0
  0
SCALE
  5
5D
102
{ACAD_REACTORS
330
47
102
}
330
47
100
AcDbScale
 70
     0
300
3/32" = 1'-0"
140
0.09375
141
12.0
290
     0
  0
SCALE
  5
5E
102
{ACAD_REACTORS
330
47
102
}
330
47
100
AcDbScale
 70
     0
300
1/8" = 1'-0"
140
0.125
141
12.0
290
     0
  0
SCALE
  5
5F
102
{ACAD_REACTORS
330
47
102
}
330
47
100
AcDbScale
 70
     0
300
3/16" = 1'-0"
140
0.1875
141
12.0
290
     0
  0
SCALE
  5
60
102
{ACAD_REACTORS
330
47
102
}
330
47
100
AcDbScale
 70
     0
300
1/4" = 1'-0"
140
0.25
141
12.0
290
     0
  0
SCALE
  5
61
102
{ACAD_REACTORS
330
47
102
}
330
47
100
AcDbScale
 70
     0
300
3/8" = 1'-0"
140
0.375
141
12.0
290
     0
  0
SCALE
  5
62
102
{ACAD_REACTORS
330
47
102
}
330
47
100
AcDbScale
 70
     0
300
1/2" = 1'-0"
140
0.5
141
12.0
290
     0
  0
SCALE
  5
63
102
{ACAD_REACTORS
330
47
102
}
330
47
100
AcDbScale
 70
     0
300
3/4" = 1'-0"
140
0.75
141
12.0
290
     0
  0
SCALE
  5
64
102
{ACAD_REACTORS
330
47
102
}
330
47
100
AcDbScale
 70
     0
300
1" = 1'-0"
140
1.0
141
12.0
290
     0
  0
SCALE
  5
65
102
{ACAD_REACTORS
330
47
102
}
330
47
100
AcDbScale
 70
     0
300
1-1/2" = 1'-0"
140
1.5
141
12.0
290
     0
  0
SCALE
  5
66
102
{ACAD_REACTORS
330
47
102
}
330
47
100
AcDbScale
 70
     0
300
3" = 1'-0"
140
3.0
141
12.0
290
     0
  0
SCALE
  5
67
102
{ACAD_REACTORS
330
47
102
}
330
47
100
AcDbScale
 70
     0
300
6" = 1'-0"
140
6.0
141
12.0
290
     0
  0
SCALE
  5
68
102
{ACAD_REACTORS
330
47
102
}
330
47
100
AcDbScale
 70
     0
300
1'-0" = 1'-0"
140
12.0
141
12.0
290
     0
  0
ENDSEC
  0
EOF
