  0
SECTION
  2
HEADER
  9
$ACADVER
  1
AC1015
  9
$ACADMAINTVER
 70
     6
  9
$DWGCODEPAGE
  3
ANSI_1252
  9
$INSBASE
 10
0.0
 20
0.0
 30
0.0
  9
$EXTMIN
 10
0.0
 20
0.0
 30
0.0
  9
$EXTMAX
 10
297.0
 20
210.0
 30
0.0
  9
$LIMMIN
 10
0.0
 20
0.0
  9
$LIMMAX
 10
297.0
 20
210.0
  9
$ORTHOMODE
 70
     0
  9
$REGENMODE
 70
     1
  9
$FILLMODE
 70
     1
  9
$QTEXTMODE
 70
     0
  9
$MIRRTEXT
 70
     1
  9
$LTSCALE
 40
1.0
  9
$ATTMODE
 70
     1
  9
$TEXTSIZE
 40
2.0
  9
$TRACEWID
 40
1.0
  9
$TEXTSTYLE
  7
Standard
  9
$CLAYER
  8
0
  9
$CELTYPE
  6
ByLayer
  9
$CECOLOR
 62
   256
  9
$CELTSCALE
 40
1.0
  9
$DISPSILH
 70
     0
  9
$DIMSCALE
 40
1.0
  9
$DIMASZ
 40
3.0
  9
$DIMEXO
 40
0.0
  9
$DIMDLI
 40
3.75
  9
$DIMRND
 40
0.0
  9
$DIMDLE
 40
0.0
  9
$DIMEXE
 40
1.0
  9
$DIMTP
 40
0.0
  9
$DIMTM
 40
0.0
  9
$DIMTXT
 40
2.0
  9
$DIMCEN
 40
2.5
  9
$DIMTSZ
 40
0.0
  9
$DIMTOL
 70
     0
  9
$DIMLIM
 70
     0
  9
$DIMTIH
 70
     1
  9
$DIMTOH
 70
     1
  9
$DIMSE1
 70
     0
  9
$DIMSE2
 70
     0
  9
$DIMTAD
 70
     1
  9
$DIMZIN
 70
     0
  9
$DIMBLK
  1

  9
$DIMASO
 70
     1
  9
$DIMSHO
 70
     1
  9
$DIMPOST
  1

  9
$DIMAPOST
  1

  9
$DIMALT
 70
     0
  9
$DIMALTD
 70
     3
  9
$DIMALTF
 40
0.0393700787
  9
$DIMLFAC
 40
2.0
  9
$DIMTOFL
 70
     1
  9
$DIMTVP
 40
0.0
  9
$DIMTIX
 70
     0
  9
$DIMSOXD
 70
     0
  9
$DIMSAH
 70
     0
  9
$DIMBLK1
  1

  9
$DIMBLK2
  1

  9
$DIMSTYLE
  2
ISO-25
  9
$DIMCLRD
 70
     0
  9
$DIMCLRE
 70
     0
  9
$DIMCLRT
 70
     0
  9
$DIMTFAC
 40
1.0
  9
$DIMGAP
 40
1.524
  9
$DIMJUST
 70
     0
  9
$DIMSD1
 70
     0
  9
$DIMSD2
 70
     0
  9
$DIMTOLJ
 70
     0
  9
$DIMTZIN
 70
     0
  9
$DIMALTZ
 70
     0
  9
$DIMALTTZ
 70
     0
  9
$DIMUPT
 70
     0
  9
$DIMDEC
 70
     2
  9
$DIMTDEC
 70
     3
  9
$DIMALTU
 70
     2
  9
$DIMALTTD
 70
     3
  9
$DIMTXSTY
  7
Standard
  9
$DIMAUNIT
 70
     0
  9
$DIMADEC
 70
     2
  9
$DIMALTRND
 40
0.0
  9
$DIMAZIN
 70
     0
  9
$DIMDSEP
 70
    44
  9
$DIMATFIT
 70
     3
  9
$DIMFRAC
 70
     0
  9
$DIMLDRBLK
  1

  9
$DIMLUNIT
 70
     2
  9
$DIMLWD
 70
    -2
  9
$DIMLWE
 70
    -2
  9
$DIMTMOVE
 70
     0
  9
$LUNITS
 70
     2
  9
$LUPREC
 70
     2
  9
$SKETCHINC
 40
1.0
  9
$FILLETRAD
 40
10.0
  9
$AUNITS
 70
     0
  9
$AUPREC
 70
     2
  9
$MENU
  1
.
  9
$ELEVATION
 40
0.0
  9
$PELEVATION
 40
0.0
  9
$THICKNESS
 40
0.0
  9
$LIMCHECK
 70
     0
  9
$CHAMFERA
 40
0.0
  9
$CHAMFERB
 40
0.0
  9
$CHAMFERC
 40
0.0
  9
$CHAMFERD
 40
0.0
  9
$SKPOLY
 70
     0
  9
$TDCREATE
 40
2458164.616781458
  9
$TDUCREATE
 40
2458164.575114792
  9
$TDUPDATE
 40
2458164.616787083
  9
$TDUUPDATE
 40
2458164.575120416
  9
$TDINDWG
 40
0.0000000116
  9
$TDUSRTIMER
 40
0.0000000116
  9
$USRTIMER
 70
     1
  9
$ANGBASE
 50
0.0
  9
$ANGDIR
 70
     0
  9
$PDMODE
 70
     0
  9
$PDSIZE
 40
-1.0
  9
$PLINEWID
 40
0.0
  9
$SPLFRAME
 70
     0
  9
$SPLINETYPE
 70
     6
  9
$SPLINESEGS
 70
     8
  9
$HANDSEED
  5
2F8
  9
$SURFTAB1
 70
     6
  9
$SURFTAB2
 70
     6
  9
$SURFTYPE
 70
     6
  9
$SURFU
 70
     6
  9
$SURFV
 70
     6
  9
$UCSBASE
  2

  9
$UCSNAME
  2

  9
$UCSORG
 10
0.0
 20
0.0
 30
0.0
  9
$UCSXDIR
 10
1.0
 20
0.0
 30
0.0
  9
$UCSYDIR
 10
0.0
 20
1.0
 30
0.0
  9
$UCSORTHOREF
  2

  9
$UCSORTHOVIEW
 70
     0
  9
$UCSORGTOP
 10
0.0
 20
0.0
 30
0.0
  9
$UCSORGBOTTOM
 10
0.0
 20
0.0
 30
0.0
  9
$UCSORGLEFT
 10
0.0
 20
0.0
 30
0.0
  9
$UCSORGRIGHT
 10
0.0
 20
0.0
 30
0.0
  9
$UCSORGFRONT
 10
0.0
 20
0.0
 30
0.0
  9
$UCSORGBACK
 10
0.0
 20
0.0
 30
0.0
  9
$PUCSBASE
  2

  9
$PUCSNAME
  2

  9
$PUCSORG
 10
0.0
 20
0.0
 30
0.0
  9
$PUCSXDIR
 10
1.0
 20
0.0
 30
0.0
  9
$PUCSYDIR
 10
0.0
 20
1.0
 30
0.0
  9
$PUCSORTHOREF
  2

  9
$PUCSORTHOVIEW
 70
     0
  9
$PUCSORGTOP
 10
0.0
 20
0.0
 30
0.0
  9
$PUCSORGBOTTOM
 10
0.0
 20
0.0
 30
0.0
  9
$PUCSORGLEFT
 10
0.0
 20
0.0
 30
0.0
  9
$PUCSORGRIGHT
 10
0.0
 20
0.0
 30
0.0
  9
$PUCSORGFRONT
 10
0.0
 20
0.0
 30
0.0
  9
$PUCSORGBACK
 10
0.0
 20
0.0
 30
0.0
  9
$USERI1
 70
     0
  9
$USERI2
 70
     0
  9
$USERI3
 70
     0
  9
$USERI4
 70
     0
  9
$USERI5
 70
     0
  9
$USERR1
 40
0.0
  9
$USERR2
 40
0.0
  9
$USERR3
 40
0.0
  9
$USERR4
 40
0.0
  9
$USERR5
 40
0.0
  9
$WORLDVIEW
 70
     1
  9
$SHADEDGE
 70
     3
  9
$SHADEDIF
 70
    70
  9
$TILEMODE
 70
     1
  9
$MAXACTVP
 70
    64
  9
$PINSBASE
 10
0.0
 20
0.0
 30
0.0
  9
$PLIMCHECK
 70
     0
  9
$PEXTMIN
 10
1.0000000000E+20
 20
1.0000000000E+20
 30
1.0000000000E+20
  9
$PEXTMAX
 10
-1.0000000000E+20
 20
-1.0000000000E+20
 30
-1.0000000000E+20
  9
$PLIMMIN
 10
0.0
 20
0.0
  9
$PLIMMAX
 10
420.0
 20
297.0
  9
$UNITMODE
 70
     0
  9
$VISRETAIN
 70
     1
  9
$PLINEGEN
 70
     0
  9
$PSLTSCALE
 70
     1
  9
$TREEDEPTH
 70
  3020
  9
$CMLSTYLE
  2
Standard
  9
$CMLJUST
 70
     0
  9
$CMLSCALE
 40
20.0
  9
$PROXYGRAPHICS
 70
     1
  9
$MEASUREMENT
 70
     1
  9
$CELWEIGHT
370
    -1
  9
$ENDCAPS
280
     0
  9
$JOINSTYLE
280
     0
  9
$LWDISPLAY
290
     1
  9
$INSUNITS
 70
     4
  9
$HYPERLINKBASE
  1

  9
$STYLESHEET
  1

  9
$XEDIT
290
     1
  9
$CEPSNTYPE
380
     0
  9
$PSTYLEMODE
290
     1
  9
$FINGERPRINTGUID
  2
{784F04EF-111F-40FD-9CE1-8A63DE3A2BEB}
  9
$VERSIONGUID
  2
{FAEB1C32-E019-11D5-929B-00C0DF256EC4}
  9
$EXTNAMES
290
     1
  9
$PSVPSCALE
 40
0.0
  9
$OLESTARTUP
290
     0
  0
ENDSEC
  0
SECTION
  2
CLASSES
  0
CLASS
  1
ACDBDICTIONARYWDFLT
  2
AcDbDictionaryWithDefault
  3
ObjectDBX Classes
 90
        0
280
     0
281
     0
  0
CLASS
  1
VISUALSTYLE
  2
AcDbVisualStyle
  3
ObjectDBX Classes
 90
     4095
280
     0
281
     0
  0
CLASS
  1
MATERIAL
  2
AcDbMaterial
  3
ObjectDBX Classes
 90
     1153
280
     0
281
     0
  0
CLASS
  1
SCALE
  2
AcDbScale
  3
ObjectDBX Classes
 90
     1153
280
     0
281
     0
  0
CLASS
  1
TABLESTYLE
  2
AcDbTableStyle
  3
ObjectDBX Classes
 90
     4095
280
     0
281
     0
  0
CLASS
  1
MLEADERSTYLE
  2
AcDbMLeaderStyle
  3
ACDB_MLEADERSTYLE_CLASS
 90
     4095
280
     0
281
     0
  0
CLASS
  1
SUN
  2
AcDbSun
  3
SCENEOE
 90
     1153
280
     0
281
     0
  0
CLASS
  1
ACDBPLACEHOLDER
  2
AcDbPlaceHolder
  3
ObjectDBX Classes
 90
        0
280
     0
281
     0
  0
CLASS
  1
LAYOUT
  2
AcDbLayout
  3
ObjectDBX Classes
 90
        0
280
     0
281
     0
  0
ENDSEC
  0
SECTION
  2
TABLES
  0
TABLE
  2
VPORT
  5
8
330
0
100
AcDbSymbolTable
 70
     1
  0
VPORT
  5
29
330
8
100
AcDbSymbolTableRecord
100
AcDbViewportTableRecord
  2
*Active
 70
     0
 10
0.0
 20
0.0
 11
1.0
 21
1.0
 12
148.5
 22
105.0
 13
0.0
 23
0.0
 14
10.0
 24
10.0
 15
10.0
 25
10.0
 16
0.0
 26
0.0
 36
1.0
 17
0.0
 27
0.0
 37
0.0
 40
210.0
 41
1.4142857143
 42
50.0
 43
0.0
 44
0.0
 50
0.0
 51
0.0
 71
     0
 72
  2000
 73
     1
 74
     3
 75
     0
 76
     0
 77
     0
 78
     0
281
     0
 65
     1
110
0.0
120
0.0
130
0.0
111
1.0
121
0.0
131
0.0
112
0.0
122
1.0
132
0.0
 79
     0
146
0.0
  0
ENDTAB
  0
TABLE
  2
LTYPE
  5
5
330
0
100
AcDbSymbolTable
 70
     6
  0
LTYPE
  5
14
330
5
100
AcDbSymbolTableRecord
100
AcDbLinetypeTableRecord
  2
ByBlock
 70
     0
  3

 72
    65
 73
     0
 40
0.0
  0
LTYPE
  5
15
330
5
100
AcDbSymbolTableRecord
100
AcDbLinetypeTableRecord
  2
ByLayer
 70
     0
  3

 72
    65
 73
     0
 40
0.0
  0
LTYPE
  5
16
330
5
100
AcDbSymbolTableRecord
100
AcDbLinetypeTableRecord
  2
Continuous
 70
     0
  3
Solid line
 72
    65
 73
     0
 40
0.0
  0
LTYPE
  5
6E
330
5
100
AcDbSymbolTableRecord
100
AcDbLinetypeTableRecord
  2
HIDDEN
 70
     0
  3
Hidden __ __ __ __ __ __ __ __ __ __ __ __ __ __
 72
    65
 73
     2
 40
1.905
 49
1.27
 74
     0
 49
-0.635
 74
     0
  0
LTYPE
  5
6F
330
5
100
AcDbSymbolTableRecord
100
AcDbLinetypeTableRecord
  2
PHANTOM
 70
     0
  3
Phantom ______  __  __  ______  __  __  ______
 72
    65
 73
     6
 40
12.7
 49
6.35
 74
     0
 49
-1.27
 74
     0
 49
1.27
 74
     0
 49
-1.27
 74
     0
 49
1.27
 74
     0
 49
-1.27
 74
     0
  0
LTYPE
  5
70
330
5
100
AcDbSymbolTableRecord
100
AcDbLinetypeTableRecord
  2
CENTER
 70
     0
  3
Center ____ _ ____ _ ____ _ ____ _ ____ _ ____
 72
    65
 73
     4
 40
10.16
 49
6.35
 74
     0
 49
-1.27
 74
     0
 49
1.27
 74
     0
 49
-1.27
 74
     0
  0
LTYPE
  5
71
330
5
100
AcDbSymbolTableRecord
100
AcDbLinetypeTableRecord
  2
CENTERX2
 70
     0
  3
Center (2x) ________  __  ________  __  _____
 72
    65
 73
     4
 40
20.32
 49
12.7
 74
     0
 49
-2.54
 74
     0
 49
2.54
 74
     0
 49
-2.54
 74
     0
  0
LTYPE
  5
72
330
5
100
AcDbSymbolTableRecord
100
AcDbLinetypeTableRecord
  2
DOT2
 70
     0
  3
Dot (.5x) ........................................
 72
    65
 73
     2
 40
0.635
 49
0.0
 74
     0
 49
-0.635
 74
     0
  0
ENDTAB
  0
TABLE
  2
LAYER
  5
2
330
0
100
AcDbSymbolTable
 70
     5
  0
LAYER
  5
10
330
2
100
AcDbSymbolTableRecord
100
AcDbLayerTableRecord
  2
0
 70
     0
 62
     7
  6
Continuous
370
    -3
390
F
  0
LAYER
  5
73
330
2
100
AcDbSymbolTableRecord
100
AcDbLayerTableRecord
  2
FORMAT
 70
     0
 62
     7
  6
Continuous
370
    -3
390
F
  0
LAYER
  5
74
330
2
100
AcDbSymbolTableRecord
100
AcDbLayerTableRecord
  2
VERMASSUNG
 70
     0
 62
     7
  6
Continuous
370
    -3
390
F
  0
LAYER
  5
75
330
2
100
AcDbSymbolTableRecord
100
AcDbLayerTableRecord
  2
KOPF_DÜNN
 70
     0
 62
     7
  6
Continuous
370
    -3
390
F
  0
LAYER
  5
76
330
2
100
AcDbSymbolTableRecord
100
AcDbLayerTableRecord
  2
KOPF_DICK
 70
     0
 62
     7
  6
Continuous
370
    25
390
F
  0
ENDTAB
  0
TABLE
  2
STYLE
  5
3
330
0
100
AcDbSymbolTable
 70
     3
  0
STYLE
  5
11
330
3
100
AcDbSymbolTableRecord
100
AcDbTextStyleTableRecord
  2
Standard
 70
     0
 40
0.0
 41
1.0
 50
0.0
 71
     0
 42
2.0
  3
txt
  4

  0
STYLE
  5
77
330
3
100
AcDbSymbolTableRecord
100
AcDbTextStyleTableRecord
  2
SLDTEXTSTYLE0
 70
     0
 40
0.0
 41
0.7
 50
0.0
 71
     0
 42
2.0
  3
TXT
  4

  0
STYLE
  5
7B
330
3
100
AcDbSymbolTableRecord
100
AcDbTextStyleTableRecord
  2
SLDTEXTSTYLE1
 70
     0
 40
0.0
 41
0.6538461538
 50
0.0
 71
     0
 42
2.0
  3
TXT
  4

  0
ENDTAB
  0
TABLE
  2
VIEW
  5
6
330
0
100
AcDbSymbolTable
 70
     0
  0
ENDTAB
  0
TABLE
  2
UCS
  5
7
330
0
100
AcDbSymbolTable
 70
     0
  0
ENDTAB
  0
TABLE
  2
APPID
  5
9
330
0
100
AcDbSymbolTable
 70
     1
  0
APPID
  5
12
330
9
100
AcDbSymbolTableRecord
100
AcDbRegAppTableRecord
  2
ACAD
 70
     0
  0
ENDTAB
  0
TABLE
  2
DIMSTYLE
  5
A
330
0
100
AcDbSymbolTable
 70
     5
100
AcDbDimStyleTable
  0
DIMSTYLE
105
27
330
A
100
AcDbSymbolTableRecord
100
AcDbDimStyleTableRecord
  2
ISO-25
 70
     0
 41
2.5
 42
0.625
 43
3.75
 44
1.25
 73
     0
 74
     0
 77
     1
 78
     8
140
2.5
141
2.5
143
0.0393700787
147
0.625
171
     3
172
     1
178
     0
271
     2
272
     2
274
     3
278
    44
283
     0
284
     8
340
11
  0
DIMSTYLE
105
1F9
102
{ACAD_REACTORS
330
1F8
330
20E
330
223
330
22D
330
237
330
241
102
}
330
A
100
AcDbSymbolTableRecord
100
AcDbDimStyleTableRecord
  2
SLDDIMSTYLE0
 70
     0
 41
3.0
 44
0.0
 45
0.000000001
 73
     0
 74
     0
 77
     1
 78
    12
 79
     3
140
2.0
147
0.5
173
     1
178
     0
271
     2
272
     3
276
     2
284
    12
340
77
  0
DIMSTYLE
105
205
102
{ACAD_REACTORS
330
204
102
}
330
A
100
AcDbSymbolTableRecord
100
AcDbDimStyleTableRecord
  2
SLDDIMSTYLE1
 70
     0
 41
3.0
 44
0.0
 73
     0
 74
     0
 77
     1
 78
    12
 79
     3
140
2.0
147
0.5
173
     1
178
     0
179
     2
272
     3
276
     2
284
    12
340
77
  0
DIMSTYLE
105
219
102
{ACAD_REACTORS
330
218
102
}
330
A
100
AcDbSymbolTableRecord
100
AcDbDimStyleTableRecord
  2
SLDDIMSTYLE2
 70
     0
 41
3.0
 44
0.0
 45
0.000000001
 73
     0
 74
     0
 76
     1
 77
     1
 78
    12
 79
     3
140
2.0
147
0.5
173
     1
178
     0
271
     2
272
     3
276
     2
282
     1
284
    12
340
77
  0
DIMSTYLE
105
24F
102
{ACAD_REACTORS
330
24E
102
}
330
A
100
AcDbSymbolTableRecord
100
AcDbDimStyleTableRecord
  2
SLDDIMSTYLE3
 70
     0
 41
3.0
 44
0.0
 45
0.000000001
 73
     0
 74
     0
 77
     1
 78
    12
 79
     3
140
2.0
147
0.5
173
     1
178
     0
271
     1
272
     3
276
     2
284
    12
340
77
  0
ENDTAB
  0
TABLE
  2
BLOCK_RECORD
  5
1
330
0
100
AcDbSymbolTable
 70
    12
  0
BLOCK_RECORD
  5
1F
330
1
100
AcDbSymbolTableRecord
100
AcDbBlockTableRecord
  2
*Model_Space
340
22
  0
BLOCK_RECORD
  5
1B
330
1
100
AcDbSymbolTableRecord
100
AcDbBlockTableRecord
  2
*Paper_Space
340
1E
  0
BLOCK_RECORD
  5
23
330
1
100
AcDbSymbolTableRecord
100
AcDbBlockTableRecord
  2
*Paper_Space0
340
26
  0
BLOCK_RECORD
  5
121
330
1
100
AcDbSymbolTableRecord
100
AcDbBlockTableRecord
  2
SW_CENTERMARKSYMBOL_0
340
0
102
{BLKREFS
331
12C
102
}
  0
BLOCK_RECORD
  5
1FA
330
1
100
AcDbSymbolTableRecord
100
AcDbBlockTableRecord
  2
_D
340
0
  0
BLOCK_RECORD
  5
206
330
1
100
AcDbSymbolTableRecord
100
AcDbBlockTableRecord
  2
_D_1
340
0
  0
BLOCK_RECORD
  5
20F
330
1
100
AcDbSymbolTableRecord
100
AcDbBlockTableRecord
  2
_D_2
340
0
  0
BLOCK_RECORD
  5
21A
330
1
100
AcDbSymbolTableRecord
100
AcDbBlockTableRecord
  2
_D_3
340
0
  0
BLOCK_RECORD
  5
224
330
1
100
AcDbSymbolTableRecord
100
AcDbBlockTableRecord
  2
_D_4
340
0
  0
BLOCK_RECORD
  5
22E
330
1
100
AcDbSymbolTableRecord
100
AcDbBlockTableRecord
  2
_D_5
340
0
  0
BLOCK_RECORD
  5
238
330
1
100
AcDbSymbolTableRecord
100
AcDbBlockTableRecord
  2
_D_6
340
0
  0
BLOCK_RECORD
  5
242
330
1
100
AcDbSymbolTableRecord
100
AcDbBlockTableRecord
  2
_D_7
340
0
  0
BLOCK_RECORD
  5
250
330
1
100
AcDbSymbolTableRecord
100
AcDbBlockTableRecord
  2
_D_8
340
0
  0
BLOCK_RECORD
  5
266
330
1
100
AcDbSymbolTableRecord
100
AcDbBlockTableRecord
  2
SW_CENTERMARKSYMBOL_1
340
0
102
{BLKREFS
331
271
102
}
  0
ENDTAB
  0
ENDSEC
  0
SECTION
  2
BLOCKS
  0
BLOCK
  5
20
330
1F
100
AcDbEntity
  8
0
100
AcDbBlockBegin
  2
*Model_Space
 70
     0
 10
0.0
 20
0.0
 30
0.0
  3
*Model_Space
  1

  0
ENDBLK
  5
21
330
1F
100
AcDbEntity
  8
0
100
AcDbBlockEnd
  0
BLOCK
  5
1C
330
1B
100
AcDbEntity
 67
     1
  8
0
100
AcDbBlockBegin
  2
*Paper_Space
 70
     0
 10
0.0
 20
0.0
 30
0.0
  3
*Paper_Space
  1

  0
ENDBLK
  5
1D
330
1B
100
AcDbEntity
 67
     1
  8
0
100
AcDbBlockEnd
  0
BLOCK
  5
24
330
23
100
AcDbEntity
  8
0
100
AcDbBlockBegin
  2
*Paper_Space0
 70
     0
 10
0.0
 20
0.0
 30
0.0
  3
*Paper_Space0
  1

  0
ENDBLK
  5
25
330
23
100
AcDbEntity
  8
0
100
AcDbBlockEnd
  0
BLOCK
  5
122
330
121
100
AcDbEntity
  8
0
100
AcDbBlockBegin
  2
SW_CENTERMARKSYMBOL_0
 70
     0
 10
0.0
 20
0.0
 30
0.0
  3
SW_CENTERMARKSYMBOL_0
  1

  0
LINE
  5
124
330
121
100
AcDbEntity
  8
VERMASSUNG
 62
     0
100
AcDbLine
 10
0.0
 20
0.0
 30
0.0
 11
0.0
 21
1.25
 31
0.0
  0
LINE
  5
125
330
121
100
AcDbEntity
  8
VERMASSUNG
 62
     0
100
AcDbLine
 10
0.0
 20
0.0
 30
0.0
 11
-1.25
 21
0.0
 31
0.0
  0
LINE
  5
126
330
121
100
AcDbEntity
  8
VERMASSUNG
 62
     0
100
AcDbLine
 10
0.0
 20
0.0
 30
0.0
 11
0.0
 21
-1.25
 31
0.0
  0
LINE
  5
127
330
121
100
AcDbEntity
  8
VERMASSUNG
 62
     0
100
AcDbLine
 10
0.0
 20
0.0
 30
0.0
 11
1.25
 21
0.0
 31
0.0
  0
LINE
  5
128
330
121
100
AcDbEntity
  8
VERMASSUNG
 62
     0
100
AcDbLine
 10
0.0
 20
2.5
 30
0.0
 11
0.0
 21
16.9875
 31
0.0
  0
LINE
  5
129
330
121
100
AcDbEntity
  8
VERMASSUNG
 62
     0
100
AcDbLine
 10
-2.5
 20
0.0
 30
0.0
 11
-16.9875
 21
0.0
 31
0.0
  0
LINE
  5
12A
330
121
100
AcDbEntity
  8
VERMASSUNG
 62
     0
100
AcDbLine
 10
0.0
 20
-2.5
 30
0.0
 11
0.0
 21
-16.9875
 31
0.0
  0
LINE
  5
12B
330
121
100
AcDbEntity
  8
VERMASSUNG
 62
     0
100
AcDbLine
 10
2.5
 20
0.0
 30
0.0
 11
16.9875
 21
0.0
 31
0.0
  0
ENDBLK
  5
123
330
121
100
AcDbEntity
  8
0
100
AcDbBlockEnd
  0
BLOCK
  5
1FB
330
1FA
100
AcDbEntity
  8
0
100
AcDbBlockBegin
  2
_D
 70
     0
 10
0.0
 20
0.0
 30
0.0
  3
_D
  1

  0
SOLID
  5
1FD
330
1FA
100
AcDbEntity
  8
VERMASSUNG
100
AcDbTrace
 10
273.5393563766
 20
130.4051536931
 30
0.0
 11
273.0893563766
 21
127.4051536931
 31
0.0
 12
273.9893563766
 22
127.4051536931
 32
0.0
 13
273.9893563766
 23
127.4051536931
 33
0.0
  0
SOLID
  5
1FE
330
1FA
100
AcDbEntity
  8
VERMASSUNG
100
AcDbTrace
 10
273.5393563766
 20
120.4051536931
 30
0.0
 11
273.9893563766
 21
123.4051536931
 31
0.0
 12
273.0893563766
 22
123.4051536931
 32
0.0
 13
273.0893563766
 23
123.4051536931
 33
0.0
  0
LINE
  5
1FF
330
1FA
100
AcDbEntity
  8
VERMASSUNG
100
AcDbLine
 10
257.5393563766
 20
130.4051536931
 30
0.0
 11
274.5393563766
 21
130.4051536931
 31
0.0
  0
LINE
  5
200
330
1FA
100
AcDbEntity
  8
VERMASSUNG
100
AcDbLine
 10
257.5393563766
 20
120.4051536931
 30
0.0
 11
274.5393563766
 21
120.4051536931
 31
0.0
  0
LINE
  5
201
330
1FA
100
AcDbEntity
  8
VERMASSUNG
100
AcDbLine
 10
273.5393563766
 20
130.4051536931
 30
0.0
 11
273.5393563766
 21
120.4051536931
 31
0.0
  0
MTEXT
  5
202
330
1FA
100
AcDbEntity
  8
VERMASSUNG
100
AcDbMText
 10
270.9612210717
 20
122.4001536289
 30
0.0
 40
2.0
 41
0.0
 71
     1
 72
     1
  1
%%c
  7
SLDTEXTSTYLE0
 11
-7.044195017643634E-15
 21
1.0
 31
0.0
 73
     1
 44
1.0
  0
MTEXT
  5
203
330
1FA
100
AcDbEntity
  8
VERMASSUNG
100
AcDbMText
 10
270.7612211204
 20
126.0101536433
 30
0.0
 40
2.0
 41
0.0
 71
     1
 72
     1
  1
10
  7
SLDTEXTSTYLE0
 11
-7.044195017643634E-15
 21
1.0
 31
0.0
 73
     1
 44
1.0
  0
ENDBLK
  5
1FC
330
1FA
100
AcDbEntity
  8
0
100
AcDbBlockEnd
  0
BLOCK
  5
207
330
206
100
AcDbEntity
  8
0
100
AcDbBlockBegin
  2
_D_1
 70
     0
 10
0.0
 20
0.0
 30
0.0
  3
_D_1
  1

  0
ARC
  5
209
330
206
100
AcDbEntity
  8
VERMASSUNG
100
AcDbCircle
 10
321.0703800575
 20
125.4051536931
 30
0.0
 40
111.8441807993469
100
AcDbArc
 50
175.5
 51
180.0
  0
ARC
  5
20A
330
206
100
AcDbEntity
  8
VERMASSUNG
100
AcDbCircle
 10
321.0703800575
 20
125.4051536931
 30
0.0
 40
111.8441807993469
100
AcDbArc
 50
169.1260479422
 51
175.5
  0
SOLID
  5
20B
330
206
100
AcDbEntity
  8
VERMASSUNG
100
AcDbTrace
 10
209.5709775414
 20
134.180346981
 30
0.0
 11
208.9266752515
 21
131.2159963676
 31
0.0
 12
209.8247669748
 22
131.1574194391
 32
0.0
 13
209.8247669748
 23
131.1574194391
 33
0.0
  0
SOLID
  5
20C
330
206
100
AcDbEntity
  8
VERMASSUNG
100
AcDbTrace
 10
209.2261992581
 20
125.4051536931
 30
0.0
 11
209.7163825047
 21
128.3988504688
 31
0.0
 12
208.8164634057
 22
128.4109175779
 32
0.0
 13
208.8164634057
 23
128.4109175779
 33
0.0
  0
MTEXT
  5
20D
330
206
100
AcDbEntity
  8
VERMASSUNG
100
AcDbMText
 10
207.6324839303
 20
140.70981671
 30
0.0
 40
2.0
 41
0.0
 71
     1
 72
     1
  1
4°30'
  7
SLDTEXTSTYLE0
 11
0.1609267090802711
 21
0.9869663592567853
 31
0.0
 73
     1
 44
1.0
  0
ENDBLK
  5
208
330
206
100
AcDbEntity
  8
0
100
AcDbBlockEnd
  0
BLOCK
  5
210
330
20F
100
AcDbEntity
  8
0
100
AcDbBlockBegin
  2
_D_2
 70
     0
 10
0.0
 20
0.0
 30
0.0
  3
_D_2
  1

  0
SOLID
  5
212
330
20F
100
AcDbEntity
  8
VERMASSUNG
100
AcDbTrace
 10
257.5393563766
 20
156.5039122989
 30
0.0
 11
254.5393563766
 21
156.9539122989
 31
0.0
 12
254.5393563766
 22
156.0539122989
 32
0.0
 13
254.5393563766
 23
156.0539122989
 33
0.0
  0
SOLID
  5
213
330
20F
100
AcDbEntity
  8
VERMASSUNG
100
AcDbTrace
 10
245.5393563766
 20
156.5039122989
 30
0.0
 11
248.5393563766
 21
156.0539122989
 31
0.0
 12
248.5393563766
 22
156.9539122989
 32
0.0
 13
248.5393563766
 23
156.9539122989
 33
0.0
  0
LINE
  5
214
330
20F
100
AcDbEntity
  8
VERMASSUNG
100
AcDbLine
 10
257.5393563766
 20
129.9429584473
 30
0.0
 11
257.5393563766
 21
157.5039122989
 31
0.0
  0
LINE
  5
215
330
20F
100
AcDbEntity
  8
VERMASSUNG
100
AcDbLine
 10
245.5393563766
 20
127.4051536931
 30
0.0
 11
245.5393563766
 21
157.5039122989
 31
0.0
  0
LINE
  5
216
330
20F
100
AcDbEntity
  8
VERMASSUNG
100
AcDbLine
 10
257.5393563766
 20
156.5039122989
 30
0.0
 11
245.5393563766
 21
156.5039122989
 31
0.0
  0
MTEXT
  5
217
330
20F
100
AcDbEntity
  8
VERMASSUNG
100
AcDbMText
 10
250.3393563196
 20
159.0820478949
 30
0.0
 40
2.0
 41
0.0
 71
     1
 72
     1
  1
12
  7
SLDTEXTSTYLE0
 73
     1
 44
1.0
  0
ENDBLK
  5
211
330
20F
100
AcDbEntity
  8
0
100
AcDbBlockEnd
  0
BLOCK
  5
21B
330
21A
100
AcDbEntity
  8
0
100
AcDbBlockBegin
  2
_D_3
 70
     0
 10
0.0
 20
0.0
 30
0.0
  3
_D_3
  1

  0
SOLID
  5
21D
330
21A
100
AcDbEntity
  8
VERMASSUNG
100
AcDbTrace
 10
266.0239869271
 20
127.4051536931
 30
0.0
 11
265.5739869271
 21
124.4051536931
 31
0.0
 12
266.4739869271
 22
124.4051536931
 32
0.0
 13
266.4739869271
 23
124.4051536931
 33
0.0
  0
LINE
  5
21E
330
21A
100
AcDbEntity
  8
VERMASSUNG
100
AcDbLine
 10
256.0393563766
 20
127.4051536931
 30
0.0
 11
267.0239869271
 21
127.4051536931
 31
0.0
  0
LINE
  5
21F
330
21A
100
AcDbEntity
  8
VERMASSUNG
100
AcDbLine
 10
266.0239869271
 20
123.4051536931
 30
0.0
 11
266.0239869271
 21
127.4051536931
 31
0.0
  0
LINE
  5
220
330
21A
100
AcDbEntity
  8
VERMASSUNG
100
AcDbLine
 10
266.0239869271
 20
127.4051536931
 30
0.0
 11
266.0239869271
 21
120.6889100479
 31
0.0
  0
MTEXT
  5
221
330
21A
100
AcDbEntity
  8
VERMASSUNG
100
AcDbMText
 10
263.4458516222
 20
120.6889100479
 30
0.0
 40
2.0
 41
0.0
 71
     1
 72
     1
  1
%%c
  7
SLDTEXTSTYLE0
 11
-7.044195017643634E-15
 21
1.0
 31
0.0
 73
     1
 44
1.0
  0
MTEXT
  5
222
330
21A
100
AcDbEntity
  8
VERMASSUNG
100
AcDbMText
 10
263.2458516709
 20
124.2989100622
 30
0.0
 40
2.0
 41
0.0
 71
     1
 72
     1
  1
4
  7
SLDTEXTSTYLE0
 11
-7.044195017643634E-15
 21
1.0
 31
0.0
 73
     1
 44
1.0
  0
ENDBLK
  5
21C
330
21A
100
AcDbEntity
  8
0
100
AcDbBlockEnd
  0
BLOCK
  5
225
330
224
100
AcDbEntity
  8
0
100
AcDbBlockBegin
  2
_D_4
 70
     0
 10
0.0
 20
0.0
 30
0.0
  3
_D_4
  1

  0
SOLID
  5
227
330
224
100
AcDbEntity
  8
VERMASSUNG
100
AcDbTrace
 10
195.5393563766
 20
163.8299617864
 30
0.0
 11
198.5393563766
 21
163.3799617864
 31
0.0
 12
198.5393563766
 22
164.2799617864
 32
0.0
 13
198.5393563766
 23
164.2799617864
 33
0.0
  0
SOLID
  5
228
330
224
100
AcDbEntity
  8
VERMASSUNG
100
AcDbTrace
 10
257.5393563766
 20
163.8299617864
 30
0.0
 11
254.5393563766
 21
164.2799617864
 31
0.0
 12
254.5393563766
 22
163.3799617864
 32
0.0
 13
254.5393563766
 23
163.3799617864
 33
0.0
  0
LINE
  5
229
330
224
100
AcDbEntity
  8
VERMASSUNG
100
AcDbLine
 10
195.5393563766
 20
155.8801536931
 30
0.0
 11
195.5393563766
 21
164.8299617864
 31
0.0
  0
LINE
  5
22A
330
224
100
AcDbEntity
  8
VERMASSUNG
100
AcDbLine
 10
257.5393563766
 20
129.9429584473
 30
0.0
 11
257.5393563766
 21
164.8299617864
 31
0.0
  0
LINE
  5
22B
330
224
100
AcDbEntity
  8
VERMASSUNG
100
AcDbLine
 10
195.5393563766
 20
163.8299617864
 30
0.0
 11
257.5393563766
 21
163.8299617864
 31
0.0
  0
MTEXT
  5
22C
330
224
100
AcDbEntity
  8
VERMASSUNG
100
AcDbMText
 10
225.1393564265
 20
166.4080973824
 30
0.0
 40
2.0
 41
0.0
 71
     1
 72
     1
  1
62
  7
SLDTEXTSTYLE0
 73
     1
 44
1.0
  0
ENDBLK
  5
226
330
224
100
AcDbEntity
  8
0
100
AcDbBlockEnd
  0
BLOCK
  5
22F
330
22E
100
AcDbEntity
  8
0
100
AcDbBlockBegin
  2
_D_5
 70
     0
 10
0.0
 20
0.0
 30
0.0
  3
_D_5
  1

  0
SOLID
  5
231
330
22E
100
AcDbEntity
  8
VERMASSUNG
100
AcDbTrace
 10
177.5393563766
 20
171.4143053888
 30
0.0
 11
180.5393563766
 21
170.9643053888
 31
0.0
 12
180.5393563766
 22
171.8643053888
 32
0.0
 13
180.5393563766
 23
171.8643053888
 33
0.0
  0
SOLID
  5
232
330
22E
100
AcDbEntity
  8
VERMASSUNG
100
AcDbTrace
 10
257.5393563766
 20
171.4143053888
 30
0.0
 11
254.5393563766
 21
171.8643053888
 31
0.0
 12
254.5393563766
 22
170.9643053888
 32
0.0
 13
254.5393563766
 23
170.9643053888
 33
0.0
  0
LINE
  5
233
330
22E
100
AcDbEntity
  8
VERMASSUNG
100
AcDbLine
 10
177.5393563766
 20
156.6801536931
 30
0.0
 11
177.5393563766
 21
172.4143053888
 31
0.0
  0
LINE
  5
234
330
22E
100
AcDbEntity
  8
VERMASSUNG
100
AcDbLine
 10
257.5393563766
 20
129.9429584473
 30
0.0
 11
257.5393563766
 21
172.4143053888
 31
0.0
  0
LINE
  5
235
330
22E
100
AcDbEntity
  8
VERMASSUNG
100
AcDbLine
 10
177.5393563766
 20
171.4143053888
 30
0.0
 11
257.5393563766
 21
171.4143053888
 31
0.0
  0
MTEXT
  5
236
330
22E
100
AcDbEntity
  8
VERMASSUNG
100
AcDbMText
 10
216.1393564265
 20
173.9924409847
 30
0.0
 40
2.0
 41
0.0
 71
     1
 72
     1
  1
80
  7
SLDTEXTSTYLE0
 73
     1
 44
1.0
  0
ENDBLK
  5
230
330
22E
100
AcDbEntity
  8
0
100
AcDbBlockEnd
  0
BLOCK
  5
239
330
238
100
AcDbEntity
  8
0
100
AcDbBlockBegin
  2
_D_6
 70
     0
 10
0.0
 20
0.0
 30
0.0
  3
_D_6
  1

  0
SOLID
  5
23B
330
238
100
AcDbEntity
  8
VERMASSUNG
100
AcDbTrace
 10
257.5393563766
 20
178.8801536931
 30
0.0
 11
254.5393563766
 21
179.3301536931
 31
0.0
 12
254.5393563766
 22
178.4301536931
 32
0.0
 13
254.5393563766
 23
178.4301536931
 33
0.0
  0
SOLID
  5
23C
330
238
100
AcDbEntity
  8
VERMASSUNG
100
AcDbTrace
 10
137.5893563766
 20
178.8801536931
 30
0.0
 11
140.5893563766
 21
178.4301536931
 31
0.0
 12
140.5893563766
 22
179.3301536931
 32
0.0
 13
140.5893563766
 23
179.3301536931
 33
0.0
  0
LINE
  5
23D
330
238
100
AcDbEntity
  8
VERMASSUNG
100
AcDbLine
 10
257.5393563766
 20
129.9429584473
 30
0.0
 11
257.5393563766
 21
179.8801536931
 31
0.0
  0
LINE
  5
23E
330
238
100
AcDbEntity
  8
VERMASSUNG
100
AcDbLine
 10
137.5893563766
 20
147.6082484169
 30
0.0
 11
137.5893563766
 21
179.8801536931
 31
0.0
  0
LINE
  5
23F
330
238
100
AcDbEntity
  8
VERMASSUNG
100
AcDbLine
 10
257.5393563766
 20
178.8801536931
 30
0.0
 11
137.5893563766
 21
178.8801536931
 31
0.0
  0
MTEXT
  5
240
330
238
100
AcDbEntity
  8
VERMASSUNG
100
AcDbMText
 10
194.1643563315
 20
181.4582892891
 30
0.0
 40
2.0
 41
0.0
 71
     1
 72
     1
  1
119.95
  7
SLDTEXTSTYLE0
 73
     1
 44
1.0
  0
ENDBLK
  5
23A
330
238
100
AcDbEntity
  8
0
100
AcDbBlockEnd
  0
BLOCK
  5
243
330
242
100
AcDbEntity
  8
0
100
AcDbBlockBegin
  2
_D_7
 70
     0
 10
0.0
 20
0.0
 30
0.0
  3
_D_7
  1

  0
SOLID
  5
245
330
242
100
AcDbEntity
  8
VERMASSUNG
100
AcDbTrace
 10
124.5572334711
 20
93.9301536931
 30
0.0
 11
125.0072334711
 21
96.9301536931
 31
0.0
 12
124.1072334711
 22
96.9301536931
 32
0.0
 13
124.1072334711
 23
96.9301536931
 33
0.0
  0
SOLID
  5
246
330
242
100
AcDbEntity
  8
VERMASSUNG
100
AcDbTrace
 10
124.5572334711
 20
156.8801536931
 30
0.0
 11
124.1072334711
 21
153.8801536931
 31
0.0
 12
125.0072334711
 22
153.8801536931
 32
0.0
 13
125.0072334711
 23
153.8801536931
 33
0.0
  0
LINE
  5
247
330
242
100
AcDbEntity
  8
VERMASSUNG
100
AcDbLine
 10
177.7393563766
 20
93.9301536931
 30
0.0
 11
123.5572334711
 21
93.9301536931
 31
0.0
  0
LINE
  5
248
330
242
100
AcDbEntity
  8
VERMASSUNG
100
AcDbLine
 10
177.7393563766
 20
156.8801536931
 30
0.0
 11
123.5572334711
 21
156.8801536931
 31
0.0
  0
LINE
  5
249
330
242
100
AcDbEntity
  8
VERMASSUNG
100
AcDbLine
 10
124.5572334711
 20
93.9301536931
 30
0.0
 11
124.5572334711
 21
156.8801536931
 31
0.0
  0
MTEXT
  5
24A
330
242
100
AcDbEntity
  8
VERMASSUNG
100
AcDbMText
 10
121.7790982149
 20
115.6001542373
 30
0.0
 40
2.0
 41
0.0
 71
     1
 72
     1
  1
KM
  7
SLDTEXTSTYLE0
 11
6.123233995736766E-17
 21
1.0
 31
0.0
 73
     1
 44
1.0
  0
MTEXT
  5
24B
330
242
100
AcDbEntity
  8
VERMASSUNG
100
AcDbMText
 10
121.9790981662
 20
119.0001540495
 30
0.0
 40
2.0
 41
0.0
 71
     1
 72
     1
  1
%%c
  7
SLDTEXTSTYLE0
 11
6.123233995736766E-17
 21
1.0
 31
0.0
 73
     1
 44
1.0
  0
MTEXT
  5
24C
330
242
100
AcDbEntity
  8
VERMASSUNG
100
AcDbMText
 10
121.7790982149
 20
122.6101540638
 30
0.0
 40
2.0
 41
0.0
 71
     1
 72
     1
  1
62.95
  7
SLDTEXTSTYLE0
 11
6.123233995736766E-17
 21
1.0
 31
0.0
 73
     1
 44
1.0
  0
MTEXT
  5
24D
330
242
100
AcDbEntity
  8
VERMASSUNG
100
AcDbMText
 10
121.7790982149
 20
129.9976537762
 30
0.0
 40
2.0
 41
0.0
 71
     1
 72
     1
  1
XMZ
  7
SLDTEXTSTYLE0
 11
6.123233995736766E-17
 21
1.0
 31
0.0
 73
     1
 44
1.0
  0
ENDBLK
  5
244
330
242
100
AcDbEntity
  8
0
100
AcDbBlockEnd
  0
BLOCK
  5
251
330
250
100
AcDbEntity
  8
0
100
AcDbBlockBegin
  2
_D_8
 70
     0
 10
0.0
 20
0.0
 30
0.0
  3
_D_8
  1

  0
SOLID
  5
253
330
250
100
AcDbEntity
  8
VERMASSUNG
100
AcDbTrace
 10
282.912530644
 20
112.752476395
 30
0.0
 11
283.362530644
 21
115.752476395
 31
0.0
 12
282.462530644
 22
115.752476395
 32
0.0
 13
282.462530644
 23
115.752476395
 33
0.0
  0
SOLID
  5
254
330
250
100
AcDbEntity
  8
VERMASSUNG
100
AcDbTrace
 10
282.912530644
 20
138.0578309912
 30
0.0
 11
282.462530644
 21
135.0578309912
 31
0.0
 12
283.362530644
 22
135.0578309912
 32
0.0
 13
283.362530644
 23
135.0578309912
 33
0.0
  0
LINE
  5
255
330
250
100
AcDbEntity
  8
VERMASSUNG
100
AcDbLine
 10
195.5393563766
 20
112.752476395
 30
0.0
 11
283.912530644
 21
112.752476395
 31
0.0
  0
LINE
  5
256
330
250
100
AcDbEntity
  8
VERMASSUNG
100
AcDbLine
 10
195.5393563766
 20
138.0578309912
 30
0.0
 11
283.912530644
 21
138.0578309912
 31
0.0
  0
LINE
  5
257
330
250
100
AcDbEntity
  8
VERMASSUNG
100
AcDbLine
 10
282.912530644
 20
112.752476395
 30
0.0
 11
282.912530644
 21
138.0578309912
 31
0.0
  0
MTEXT
  5
258
330
250
100
AcDbEntity
  8
VERMASSUNG
100
AcDbMText
 10
280.3343953391
 20
121.2001540376
 30
0.0
 40
2.0
 41
0.0
 71
     1
 72
     1
  1
%%c
  7
SLDTEXTSTYLE0
 11
-1.608122649676637E-16
 21
1.0
 31
0.0
 73
     1
 44
1.0
  0
MTEXT
  5
259
330
250
100
AcDbEntity
  8
VERMASSUNG
100
AcDbMText
 10
280.1343953878
 20
124.8101540519
 30
0.0
 40
2.0
 41
0.0
 71
     1
 72
     1
  1
25.3
  7
SLDTEXTSTYLE0
 11
-1.608122649676637E-16
 21
1.0
 31
0.0
 73
     1
 44
1.0
  0
ENDBLK
  5
252
330
250
100
AcDbEntity
  8
0
100
AcDbBlockEnd
  0
BLOCK
  5
267
330
266
100
AcDbEntity
  8
0
100
AcDbBlockBegin
  2
SW_CENTERMARKSYMBOL_1
 70
     0
 10
0.0
 20
0.0
 30
0.0
  3
SW_CENTERMARKSYMBOL_1
  1

  0
LINE
  5
269
330
266
100
AcDbEntity
  8
VERMASSUNG
 62
     0
100
AcDbLine
 10
0.0
 20
0.0
 30
0.0
 11
0.0
 21
2.5
 31
0.0
  0
LINE
  5
26A
330
266
100
AcDbEntity
  8
VERMASSUNG
 62
     0
100
AcDbLine
 10
0.0
 20
0.0
 30
0.0
 11
-2.5
 21
0.0
 31
0.0
  0
LINE
  5
26B
330
266
100
AcDbEntity
  8
VERMASSUNG
 62
     0
100
AcDbLine
 10
0.0
 20
0.0
 30
0.0
 11
0.0
 21
-2.5
 31
0.0
  0
LINE
  5
26C
330
266
100
AcDbEntity
  8
VERMASSUNG
 62
     0
100
AcDbLine
 10
0.0
 20
0.0
 30
0.0
 11
2.5
 21
0.0
 31
0.0
  0
LINE
  5
26D
330
266
100
AcDbEntity
  8
VERMASSUNG
 62
     0
100
AcDbLine
 10
0.0
 20
2.5
 30
0.0
 11
0.0
 21
4.5
 31
0.0
  0
LINE
  5
26E
330
266
100
AcDbEntity
  8
VERMASSUNG
 62
     0
100
AcDbLine
 10
-2.5
 20
0.0
 30
0.0
 11
-4.5
 21
0.0
 31
0.0
  0
LINE
  5
26F
330
266
100
AcDbEntity
  8
VERMASSUNG
 62
     0
100
AcDbLine
 10
0.0
 20
-2.5
 30
0.0
 11
0.0
 21
-4.5
 31
0.0
  0
LINE
  5
270
330
266
100
AcDbEntity
  8
VERMASSUNG
 62
     0
100
AcDbLine
 10
2.5
 20
0.0
 30
0.0
 11
4.5
 21
0.0
 31
0.0
  0
ENDBLK
  5
268
330
266
100
AcDbEntity
  8
0
100
AcDbBlockEnd
  0
ENDSEC
  0
SECTION
  2
ENTITIES
  0
MTEXT
  5
78
330
1F
100
AcDbEntity
  8
KOPF_DÜNN
100
AcDbMText
 10
13.8892156294
 20
23.8442973028
 30
0.0
 40
3.0
 41
0.0
 71
     1
 72
     1
  1
KY6.S04.K01.080
  7
SLDTEXTSTYLE0
 73
     1
 44
1.0
  0
MTEXT
  5
79
330
1F
100
AcDbEntity
  8
VERMASSUNG
100
AcDbMText
 10
13.9329988022
 20
28.8834360957
 30
0.0
 40
3.0
 41
0.0
 71
     1
 72
     1
  1
Schrumpffutter_Heat shrink chuck
  7
SLDTEXTSTYLE0
 73
     1
 44
1.0
  0
MTEXT
  5
7A
330
1F
100
AcDbEntity
  8
VERMASSUNG
100
AcDbMText
 10
98.8601118557
 20
13.8365368761
 30
0.0
 40
2.0
 41
0.0
 71
     1
 72
     1
  1
Datum: 14.02.2018
  7
SLDTEXTSTYLE0
 73
     1
 44
1.0
  0
MTEXT
  5
7C
330
1F
100
AcDbEntity
  8
VERMASSUNG
100
AcDbMText
 10
13.933048693
 20
18.0482802738
 30
0.0
 40
2.0
 41
0.0
 71
     1
 72
     1
  1
KM63 XMZ / Ø4
  7
SLDTEXTSTYLE1
 73
     1
 44
1.0
  0
MTEXT
  5
7D
330
1F
100
AcDbEntity
  8
VERMASSUNG
100
AcDbMText
 10
13.9808475933
 20
13.9090974274
 30
0.0
 40
2.0
 41
0.0
 71
     1
 72
     1
  1
Gewicht: 684g
  7
SLDTEXTSTYLE0
 73
     1
 44
1.0
  0
LINE
  5
7E
330
1F
100
AcDbEntity
  8
0
  6
Continuous
 62
     7
370
    25
100
AcDbLine
 10
332.6177712905
 20
129.7751545651
 30
0.0
 11
332.8408263973
 21
129.5114036931
 31
0.0
  0
SPLINE
  5
7F
330
1F
100
AcDbEntity
  8
0
  6
Continuous
 62
     7
370
    25
100
AcDbSpline
210
0.0
220
0.0
230
1.0
 70
     8
 71
     3
 72
     8
 73
     4
 74
     0
 42
0.000000001
 43
0.00000001
 40
0.0
 40
0.0
 40
0.0
 40
0.0
 40
1.0
 40
1.0
 40
1.0
 40
1.0
 10
332.61777129047
 20
129.7751545650598
 30
0.0
 10
332.7030970500865
 20
129.831830738992
 30
0.0
 10
332.7890950975703
 20
129.8882554753179
 30
0.0
 10
332.8757985317308
 20
129.9444163949871
 30
0.0
  0
LINE
  5
80
330
1F
100
AcDbEntity
  8
0
  6
Continuous
 62
     7
370
    25
100
AcDbLine
 10
332.8757985317
 20
129.944416395
 30
0.0
 11
333.9634499121
 21
129.944416395
 31
0.0
  0
SPLINE
  5
81
330
1F
100
AcDbEntity
  8
0
  6
Continuous
 62
     7
370
    25
100
AcDbSpline
210
0.0
220
0.0
230
1.0
 70
     8
 71
     3
 72
     8
 73
     4
 74
     0
 42
0.000000001
 43
0.00000001
 40
0.0000004024872366
 40
0.0000004024872366
 40
0.0000004024872366
 40
0.0000004024872366
 40
0.0015137680586847
 40
0.0015137680586847
 40
0.0015137680586847
 40
0.0015137680586847
 10
333.9634499120603
 20
129.9444163949871
 30
0.0
 10
334.1700262868689
 20
129.8720545245508
 30
0.0
 10
334.3766452554095
 20
129.799723038594
 30
0.0
 10
334.5833167429608
 20
129.7274290968793
 30
0.0
  0
SPLINE
  5
82
330
1F
100
AcDbEntity
  8
0
  6
Continuous
 62
     7
370
    25
100
AcDbSpline
210
0.0
220
0.0
230
1.0
 70
     8
 71
     3
 72
     8
 73
     4
 74
     0
 42
0.000000001
 43
0.00000001
 40
0.0000002414707367
 40
0.0000002414707367
 40
0.0000002414707367
 40
0.0000002414707367
 40
0.0002447240690309
 40
0.0002447240690309
 40
0.0002447240690309
 40
0.0002447240690309
 10
334.5833167429608
 20
129.7274290968793
 30
0.0
 10
334.5952190783159
 20
129.7079440709328
 30
0.0
 10
334.6071444895277
 20
129.6884625651084
 30
0.0
 10
334.6190932348226
 20
129.6689846415966
 30
0.0
  0
LINE
  5
83
330
1F
100
AcDbEntity
  8
0
  6
Continuous
 62
     7
370
    25
100
AcDbLine
 10
334.6084362425
 20
129.5114037688
 30
0.0
 11
334.6190935941
 21
129.6689846966
 31
0.0
  0
LINE
  5
84
330
1F
100
AcDbEntity
  8
0
  6
Continuous
 62
     7
370
    25
100
AcDbLine
 10
332.8408263973
 20
129.5114036931
 30
0.0
 11
334.6135448337
 21
129.5114036931
 31
0.0
  0
SPLINE
  5
85
330
1F
100
AcDbEntity
  8
0
  6
Continuous
 62
     7
370
    25
100
AcDbSpline
210
0.0
220
0.0
230
1.0
 70
     8
 71
     3
 72
     8
 73
     4
 74
     0
 42
0.000000001
 43
0.00000001
 40
0.0000004028655191
 40
0.0000004028655191
 40
0.0000004028655191
 40
0.0000004028655191
 40
0.0015137684369673
 40
0.0015137684369673
 40
0.0015137684369673
 40
0.0015137684369673
 10
351.430506057245
 20
129.7274290968793
 30
0.0
 10
351.6371775447963
 20
129.799723038594
 30
0.0
 10
351.8437965133369
 20
129.8720545245508
 30
0.0
 10
352.0503728881455
 20
129.9444163949871
 30
0.0
  0
LINE
  5
86
330
1F
100
AcDbEntity
  8
0
  6
Continuous
 62
     7
370
    25
100
AcDbLine
 10
352.0503728881
 20
129.944416395
 30
0.0
 11
353.1380242685
 21
129.944416395
 31
0.0
  0
SPLINE
  5
87
330
1F
100
AcDbEntity
  8
0
  6
Continuous
 62
     7
370
    25
100
AcDbSpline
210
0.0
220
0.0
230
1.0
 70
     8
 71
     3
 72
     8
 73
     4
 74
     0
 42
0.000000001
 43
0.00000001
 40
0.0
 40
0.0
 40
0.0
 40
0.0
 40
1.0
 40
1.0
 40
1.0
 40
1.0
 10
353.1380242684751
 20
129.9444163949871
 30
0.0
 10
353.2247277026351
 20
129.8882554753181
 30
0.0
 10
353.3107257501185
 20
129.8318307389926
 30
0.0
 10
353.3960515097345
 20
129.7751545650607
 30
0.0
  0
LINE
  5
88
330
1F
100
AcDbEntity
  8
0
  6
Continuous
 62
     7
370
    25
100
AcDbLine
 10
353.1729964029
 20
129.5114036931
 30
0.0
 11
353.3960515097
 21
129.7751545651
 31
0.0
  0
LINE
  5
89
330
1F
100
AcDbEntity
  8
0
  6
Continuous
 62
     7
370
    25
100
AcDbLine
 10
351.4053865756
 20
129.5114036931
 30
0.0
 11
353.1727819455
 21
129.5114036931
 31
0.0
  0
LINE
  5
8A
330
1F
100
AcDbEntity
  8
0
  6
Continuous
 62
     7
370
    25
100
AcDbLine
 10
351.3947292254
 20
129.6689847282
 30
0.0
 11
351.4053865722
 21
129.5114037688
 31
0.0
  0
SPLINE
  5
8B
330
1F
100
AcDbEntity
  8
0
  6
Continuous
 62
     7
370
    25
100
AcDbSpline
210
0.0
220
0.0
230
1.0
 70
     8
 71
     3
 72
     8
 73
     4
 74
     0
 42
0.000000001
 43
0.00000001
 40
0.0006523765358268
 40
0.0006523765358268
 40
0.0006523765358268
 40
0.0006523765358268
 40
0.0009043636494504
 40
0.0009043636494504
 40
0.0009043636494504
 40
0.0009043636494504
 10
351.3936291822101
 20
129.6671909994307
 30
0.0
 10
351.4059461767275
 20
129.6872665804129
 30
0.0
 10
351.4182383741316
 20
129.7073459689354
 30
0.0
 10
351.430506057245
 20
129.7274290968793
 30
0.0
  0
LINE
  5
8C
330
1F
100
AcDbEntity
  8
0
  6
Continuous
 62
     7
370
    25
100
AcDbLine
 10
352.9828444494
 20
120.1268544437
 30
0.0
 11
352.7744361279
 21
120.3751536931
 31
0.0
  0
SPLINE
  5
8D
330
1F
100
AcDbEntity
  8
0
  6
Continuous
 62
     7
370
    25
100
AcDbSpline
210
0.0
220
0.0
230
1.0
 70
     8
 71
     3
 72
     8
 73
     4
 74
     0
 42
0.000000001
 43
0.00000001
 40
0.0
 40
0.0
 40
0.0
 40
0.0
 40
1.0
 40
1.0
 40
1.0
 40
1.0
 10
352.9828444494273
 20
120.1268544437057
 30
0.0
 10
352.8799485356034
 20
120.0648858346148
 30
0.0
 10
352.7761088660486
 20
120.0033071824742
 30
0.0
 10
352.671270977822
 20
119.9421409912027
 30
0.0
  0
LINE
  5
8E
330
1F
100
AcDbEntity
  8
0
  6
Continuous
 62
     7
370
    25
100
AcDbLine
 10
351.5242228175
 20
119.9421409912
 30
0.0
 11
352.6712709778
 21
119.9421409912
 31
0.0
  0
SPLINE
  5
8F
330
1F
100
AcDbEntity
  8
0
  6
Continuous
 62
     7
370
    25
100
AcDbSpline
210
0.0
220
0.0
230
1.0
 70
     8
 71
     3
 72
     8
 73
     4
 74
     0
 42
0.000000001
 43
0.00000001
 40
0.0000004089325119
 40
0.0000004089325119
 40
0.0000004089325119
 40
0.0000004089325119
 40
0.0015399868451459
 40
0.0015399868451459
 40
0.0015399868451459
 40
0.0015399868451459
 10
351.5242228175318
 20
119.9421409912027
 30
0.0
 10
351.3124615587374
 20
120.0145958738562
 30
0.0
 10
351.1005412355472
 20
120.0869347438846
 30
0.0
 10
350.8884232523328
 20
120.1591282893105
 30
0.0
  0
LINE
  5
90
330
1F
100
AcDbEntity
  8
0
  6
Continuous
 62
     7
370
    25
100
AcDbLine
 10
350.8884232523
 20
120.1591282893
 30
0.0
 11
350.8802704463
 21
120.1743407035
 31
0.0
  0
LINE
  5
91
330
1F
100
AcDbEntity
  8
0
  6
Continuous
 62
     7
370
    25
100
AcDbLine
 10
350.8826409336
 20
120.3751535237
 30
0.0
 11
350.8802694485
 21
120.1743405698
 31
0.0
  0
LINE
  5
92
330
1F
100
AcDbEntity
  8
0
  6
Continuous
 62
     7
370
    25
100
AcDbLine
 10
350.8826409336
 20
120.3751536931
 30
0.0
 11
352.7744361279
 21
120.3751536931
 31
0.0
  0
SPLINE
  5
93
330
1F
100
AcDbEntity
  8
0
  6
Continuous
 62
     7
370
    25
100
AcDbSpline
210
0.0
220
0.0
230
1.0
 70
     8
 71
     3
 72
     8
 73
     4
 74
     0
 42
0.000000001
 43
0.00000001
 40
0.000000410413179
 40
0.000000410413179
 40
0.000000410413179
 40
0.000000410413179
 40
0.0015399883258131
 40
0.0015399883258131
 40
0.0015399883258131
 40
0.0015399883258131
 10
335.125399547873
 20
120.1591282893105
 30
0.0
 10
334.9132815646586
 20
120.0869347438846
 30
0.0
 10
334.7013612414685
 20
120.0145958738562
 30
0.0
 10
334.489599982674
 20
119.9421409912027
 30
0.0
  0
LINE
  5
94
330
1F
100
AcDbEntity
  8
0
  6
Continuous
 62
     7
370
    25
100
AcDbLine
 10
333.3425518224
 20
119.9421409912
 30
0.0
 11
334.4895999827
 21
119.9421409912
 31
0.0
  0
SPLINE
  5
95
330
1F
100
AcDbEntity
  8
0
  6
Continuous
 62
     7
370
    25
100
AcDbSpline
210
0.0
220
0.0
230
1.0
 70
     8
 71
     3
 72
     8
 73
     4
 74
     0
 42
0.000000001
 43
0.00000001
 40
0.0
 40
0.0
 40
0.0
 40
0.0
 40
1.0
 40
1.0
 40
1.0
 40
1.0
 10
333.3425518223839
 20
119.9421409912027
 30
0.0
 10
333.2377139341577
 20
120.003307182474
 30
0.0
 10
333.1338742646032
 20
120.0648858346143
 30
0.0
 10
333.0309783507797
 20
120.126854443705
 30
0.0
  0
LINE
  5
96
330
1F
100
AcDbEntity
  8
0
  6
Continuous
 62
     7
370
    25
100
AcDbLine
 10
333.2393866723
 20
120.3751536931
 30
0.0
 11
333.0309783508
 21
120.1268544437
 31
0.0
  0
LINE
  5
97
330
1F
100
AcDbEntity
  8
0
  6
Continuous
 62
     7
370
    25
100
AcDbLine
 10
333.239576728
 20
120.3751536931
 30
0.0
 11
335.1311816659
 21
120.3751536931
 31
0.0
  0
LINE
  5
98
330
1F
100
AcDbEntity
  8
0
  6
Continuous
 62
     7
370
    25
100
AcDbLine
 10
335.1335534528
 20
120.1743407584
 30
0.0
 11
335.1311819426
 21
120.3751535237
 31
0.0
  0
LINE
  5
99
330
1F
100
AcDbEntity
  8
0
  6
Continuous
 62
     7
370
    25
100
AcDbLine
 10
335.133552455
 20
120.1743408921
 30
0.0
 11
335.1253995479
 21
120.1591282893
 31
0.0
  0
ARC
  5
9A
330
1F
100
AcDbEntity
  8
0
  6
Continuous
 62
     7
370
    25
100
AcDbCircle
 10
343.0069114001
 20
125.4051536931
 30
0.0
 40
11.10154736189894
100
AcDbArc
 50
209.4783538465
 51
330.5216461535
  0
SPLINE
  5
9B
330
1F
100
AcDbEntity
  8
0
  6
Continuous
 62
     7
370
    25
100
AcDbSpline
210
0.0
220
0.0
230
1.0
 70
     8
 71
     3
 72
     8
 73
     4
 74
     0
 42
0.000000001
 43
0.00000001
 40
0.0
 40
0.0
 40
0.0
 40
0.0
 40
1.0
 40
1.0
 40
1.0
 40
1.0
 10
353.1713808305412
 20
119.9526646228361
 30
0.0
 10
353.1088125221724
 20
120.0111150919429
 30
0.0
 10
353.0459659288094
 20
120.0691791024753
 30
0.0
 10
352.9828444494273
 20
120.1268544437057
 30
0.0
  0
ARC
  5
9C
330
1F
100
AcDbEntity
  8
0
  6
Continuous
 62
     7
370
    25
100
AcDbCircle
 10
343.0069114001
 20
125.4051536931
 30
0.0
 40
11.53456006379118
100
AcDbArc
 50
208.2102805322
 51
331.7902347364
  0
SPLINE
  5
9D
330
1F
100
AcDbEntity
  8
0
  6
Continuous
 62
     7
370
    25
100
AcDbSpline
210
0.0
220
0.0
230
1.0
 70
     8
 71
     3
 72
     8
 73
     4
 74
     0
 42
0.000000001
 43
0.00000001
 40
0.0
 40
0.0
 40
0.0
 40
0.0
 40
1.0
 40
1.0
 40
1.0
 40
1.0
 10
333.0309783507807
 20
120.1268544437078
 30
0.0
 10
332.9678568713979
 20
120.0691791024767
 30
0.0
 10
332.9050102780342
 20
120.0111150919436
 30
0.0
 10
332.8424419696646
 20
119.9526646228361
 30
0.0
  0
SPLINE
  5
9E
330
1F
100
AcDbEntity
  8
0
  6
Continuous
 62
     7
370
    25
100
AcDbSpline
210
0.0
220
0.0
230
1.0
 70
     8
 71
     3
 72
     8
 73
     4
 74
     0
 42
0.000000001
 43
0.00000001
 40
0.0
 40
0.0
 40
0.0
 40
0.0
 40
1.0
 40
1.0
 40
1.0
 40
1.0
 10
353.3960515097335
 20
129.7751545650577
 30
0.0
 10
353.4648898799211
 20
129.8382492383772
 30
0.0
 10
353.533321240378
 20
129.9019716165088
 30
0.0
 10
353.6013375150434
 20
129.9663170487829
 30
0.0
  0
ARC
  5
9F
330
1F
100
AcDbEntity
  8
0
  6
Continuous
 62
     7
370
    25
100
AcDbCircle
 10
343.0069114001
 20
125.4051536931
 30
0.0
 40
11.10154736189897
100
AcDbArc
 50
24.1348482805
 51
155.8651517195
  0
SPLINE
  5
A0
330
1F
100
AcDbEntity
  8
0
  6
Continuous
 62
     7
370
    25
100
AcDbSpline
210
0.0
220
0.0
230
1.0
 70
     8
 71
     3
 72
     8
 73
     4
 74
     0
 42
0.000000001
 43
0.00000001
 40
0.0
 40
0.0
 40
0.0
 40
0.0
 40
1.0
 40
1.0
 40
1.0
 40
1.0
 10
332.4124852851625
 20
129.9663170487829
 30
0.0
 10
332.4805015598272
 20
129.9019716165095
 30
0.0
 10
332.5489329202833
 20
129.8382492383786
 30
0.0
 10
332.61777129047
 20
129.7751545650598
 30
0.0
  0
ARC
  5
A1
330
1F
100
AcDbEntity
  8
0
  6
Continuous
 62
     7
370
    25
100
AcDbCircle
 10
343.0069114001
 20
125.4051536931
 30
0.0
 40
11.53456006379121
100
AcDbArc
 50
23.2930774359
 51
156.7074733161
  0
ARC
  5
A2
330
1F
100
AcDbEntity
  8
0
  6
Continuous
 62
     7
370
    25
100
AcDbCircle
 10
343.0069114001
 20
125.4051536931
 30
0.0
 40
10.11875000000001
100
AcDbArc
 50
26.6538426687
 51
153.3461573313
  0
ARC
  5
A3
330
1F
100
AcDbEntity
  8
0
  6
Continuous
 62
     7
370
    25
100
AcDbCircle
 10
343.0069114001
 20
125.4051536931
 30
0.0
 40
9.467788105676664
100
AcDbArc
 50
27.1630537883
 51
152.8369462117
  0
ARC
  5
A4
330
1F
100
AcDbEntity
  8
0
  6
Continuous
 62
     7
370
    25
100
AcDbCircle
 10
343.0069114001
 20
125.4051536931
 30
0.0
 40
10.11875000000003
100
AcDbArc
 50
212.6761561262
 51
327.3238438738
  0
ARC
  5
A5
330
1F
100
AcDbEntity
  8
0
  6
Continuous
 62
     7
370
    25
100
AcDbCircle
 10
343.0069114001
 20
125.4051536931
 30
0.0
 40
9.467788105676629
100
AcDbArc
 50
213.6481949792
 51
326.3518050208
  0
SPLINE
  5
A6
330
1F
100
AcDbEntity
  8
0
  6
Continuous
 62
     7
370
    25
100
AcDbSpline
210
0.0
220
0.0
230
1.0
 70
     8
 71
     3
 72
     8
 73
     4
 74
     0
 42
0.000000001
 43
0.00000001
 40
0.0
 40
0.0
 40
0.0
 40
0.0
 40
1.0
 40
1.0
 40
1.0
 40
1.0
 10
353.6013375152334
 20
129.9663170486716
 30
0.0
 10
353.6545803401751
 20
129.9657933224337
 30
0.0
 10
353.7078756257907
 20
129.9649952291714
 30
0.0
 10
353.7612211312803
 20
129.9639221812466
 30
0.0
  0
LINE
  5
A7
330
1F
100
AcDbEntity
  8
0
  6
Continuous
 62
     7
370
    25
100
AcDbLine
 10
353.3331335332
 20
129.5114036931
 30
0.0
 11
353.1729964029
 21
129.5114036931
 31
0.0
  0
LINE
  5
A8
330
1F
100
AcDbEntity
  8
0
  6
Continuous
 62
     7
370
    25
100
AcDbLine
 10
332.8408263973
 20
129.5114036931
 30
0.0
 11
332.680689267
 21
129.5114036931
 31
0.0
  0
SPLINE
  5
A9
330
1F
100
AcDbEntity
  8
0
  6
Continuous
 62
     7
370
    25
100
AcDbSpline
210
0.0
220
0.0
230
1.0
 70
     8
 71
     3
 72
     8
 73
     4
 74
     0
 42
0.000000001
 43
0.00000001
 40
0.0
 40
0.0
 40
0.0
 40
0.0
 40
1.0
 40
1.0
 40
1.0
 40
1.0
 10
332.2526016689256
 20
129.9639221812466
 30
0.0
 10
332.3059471744152
 20
129.9649952291714
 30
0.0
 10
332.3592424600308
 20
129.9657933224337
 30
0.0
 10
332.4124852849725
 20
129.9663170486716
 30
0.0
  0
SPLINE
  5
AA
330
1F
100
AcDbEntity
  8
0
  6
Continuous
 62
     7
370
    25
100
AcDbSpline
210
0.0
220
0.0
230
1.0
 70
     8
 71
     3
 72
     8
 73
     4
 74
     0
 42
0.000000001
 43
0.00000001
 40
0.0
 40
0.0
 40
0.0
 40
0.0
 40
1.0
 40
1.0
 40
1.0
 40
1.0
 10
332.8424419695652
 20
119.9526646228742
 30
0.0
 10
332.8014101970761
 20
119.9531582009357
 30
0.0
 10
332.760335902465
 20
119.9538392385185
 30
0.0
 10
332.7192204754232
 20
119.9547081761585
 30
0.0
  0
LINE
  5
AB
330
1F
100
AcDbEntity
  8
0
  6
Continuous
 62
     7
370
    25
100
AcDbLine
 10
333.1159696885
 20
120.3751536931
 30
0.0
 11
333.2393866723
 21
120.3751536931
 31
0.0
  0
LINE
  5
AC
330
1F
100
AcDbEntity
  8
0
  6
Continuous
 62
     7
370
    25
100
AcDbLine
 10
352.7744361279
 20
120.3751536931
 30
0.0
 11
352.8978531117
 21
120.3751536931
 31
0.0
  0
SPLINE
  5
AD
330
1F
100
AcDbEntity
  8
0
  6
Continuous
 62
     7
370
    25
100
AcDbSpline
210
0.0
220
0.0
230
1.0
 70
     8
 71
     3
 72
     8
 73
     4
 74
     0
 42
0.000000001
 43
0.00000001
 40
0.0
 40
0.0
 40
0.0
 40
0.0
 40
1.0
 40
1.0
 40
1.0
 40
1.0
 10
353.2946023247827
 20
119.9547081761585
 30
0.0
 10
353.2534868977409
 20
119.9538392385186
 30
0.0
 10
353.2124126031298
 20
119.9531582009357
 30
0.0
 10
353.1713808306407
 20
119.9526646228742
 30
0.0
  0
SPLINE
  5
AE
330
1F
100
AcDbEntity
  8
0
  6
Continuous
 62
     7
370
    25
100
AcDbSpline
210
0.0
220
0.0
230
1.0
 70
     8
 71
     3
 72
     9
 73
     5
 74
     0
 42
0.000000001
 43
0.00000001
 40
0.0
 40
0.0
 40
0.0
 40
0.0
 40
0.4897878789203671
 40
1.0
 40
1.0
 40
1.0
 40
1.0
 10
335.9013218354516
 20
120.1820368268572
 30
0.0
 10
335.7749667532304
 20
120.1807181011039
 30
0.0
 10
335.5169875592582
 20
120.1780256584976
 30
0.0
 10
335.2630928109687
 20
120.1755855806616
 30
0.0
 10
335.1335526329129
 20
120.1743406233733
 30
0.0
  0
ARC
  5
AF
330
1F
100
AcDbEntity
  8
0
  6
Continuous
 62
     7
370
    25
100
AcDbCircle
 10
343.0069114001
 20
125.4051536931
 30
0.0
 40
8.818749999999993
100
AcDbArc
 50
216.3185452201
 51
323.6814533294
  0
SPLINE
  5
B0
330
1F
100
AcDbEntity
  8
0
  6
Continuous
 62
     7
370
    25
100
AcDbSpline
210
0.0
220
0.0
230
1.0
 70
     8
 71
     3
 72
     9
 73
     5
 74
     0
 42
0.000000001
 43
0.00000001
 40
0.0
 40
0.0
 40
0.0
 40
0.0
 40
0.5102121239851032
 40
1.0
 40
1.0
 40
1.0
 40
1.0
 10
350.8802702684177
 20
120.174340434769
 30
0.0
 10
350.7507300505669
 20
120.1755853934598
 30
0.0
 10
350.4968352257261
 20
120.1780254740309
 30
0.0
 10
350.2388559527164
 20
120.180717919724
 30
0.0
 10
350.112500832533
 20
120.1820366469814
 30
0.0
  0
SPLINE
  5
B1
330
1F
100
AcDbEntity
  8
0
  6
Continuous
 62
     7
370
    25
100
AcDbSpline
210
0.0
220
0.0
230
1.0
 70
     8
 71
     3
 72
     8
 73
     4
 74
     0
 42
0.000000001
 43
0.00000001
 40
0.0
 40
0.0
 40
0.0
 40
0.0
 40
1.0
 40
1.0
 40
1.0
 40
1.0
 10
350.1125010862076
 20
120.1820371162586
 30
0.0
 10
350.1202621441531
 20
120.1925953514577
 30
0.0
 10
350.1279996692489
 20
120.203170884984
 30
0.0
 10
350.1357135846184
 20
120.2137636117634
 30
0.0
  0
SPLINE
  5
B2
330
1F
100
AcDbEntity
  8
0
  6
Continuous
 62
     7
370
    25
100
AcDbSpline
210
0.0
220
0.0
230
1.0
 70
     8
 71
     3
 72
     8
 73
     4
 74
     0
 42
0.000000001
 43
0.00000001
 40
0.0
 40
0.0
 40
0.0
 40
0.0
 40
1.0
 40
1.0
 40
1.0
 40
1.0
 10
350.3072714173815
 20
120.3751533542266
 30
0.0
 10
350.250011010347
 20
120.3212451772389
 30
0.0
 10
350.1928246192373
 20
120.2674482521558
 30
0.0
 10
350.1357135846184
 20
120.2137636117634
 30
0.0
  0
LINE
  5
B3
330
1F
100
AcDbEntity
  8
0
  6
Continuous
 62
     7
370
    25
100
AcDbLine
 10
350.3072707176
 20
120.3751536931
 30
0.0
 11
350.8826412103
 21
120.3751536931
 31
0.0
  0
SPLINE
  5
B4
330
1F
100
AcDbEntity
  8
0
  6
Continuous
 62
     7
370
    25
100
AcDbSpline
210
0.0
220
0.0
230
1.0
 70
     8
 71
     3
 72
     8
 73
     4
 74
     0
 42
0.000000001
 43
0.00000001
 40
0.0
 40
0.0
 40
0.0
 40
0.0
 40
1.0
 40
1.0
 40
1.0
 40
1.0
 10
335.8779937838063
 20
120.2139221260623
 30
0.0
 10
335.8857458965069
 20
120.2032764493897
 30
0.0
 10
335.8935218551742
 20
120.1926481371955
 30
0.0
 10
335.9013215817776
 20
120.1820372961331
 30
0.0
  0
LINE
  5
B5
330
1F
100
AcDbEntity
  8
0
  6
Continuous
 62
     7
370
    25
100
AcDbLine
 10
335.1311816659
 20
120.3751536931
 30
0.0
 11
335.7065806823
 21
120.3751536931
 31
0.0
  0
SPLINE
  5
B6
330
1F
100
AcDbEntity
  8
0
  6
Continuous
 62
     7
370
    25
100
AcDbSpline
210
0.0
220
0.0
230
1.0
 70
     8
 71
     3
 72
     8
 73
     4
 74
     0
 42
0.000000001
 43
0.00000001
 40
0.0
 40
0.0
 40
0.0
 40
0.0
 40
1.0
 40
1.0
 40
1.0
 40
1.0
 10
335.8779937838063
 20
120.2139221260623
 30
0.0
 10
335.8209306561203
 20
120.2675540764781
 30
0.0
 10
335.7637922763899
 20
120.321298162843
 30
0.0
 10
335.7065799829161
 20
120.3751533540932
 30
0.0
  0
ARC
  5
B7
330
1F
100
AcDbEntity
  8
0
  6
Continuous
 62
     7
370
    25
100
AcDbCircle
 10
343.0069114001
 20
125.4051536931
 30
0.0
 40
8.818749999999989
100
AcDbArc
 50
29.2047569376
 51
150.7952430624
  0
SPLINE
  5
B8
330
1F
100
AcDbEntity
  8
0
  6
Continuous
 62
     7
370
    25
100
AcDbSpline
210
0.0
220
0.0
230
1.0
 70
    24
 71
     3
 72
     8
 73
     4
 74
     0
 42
0.000000001
 43
0.00000001
 40
0.0
 40
0.0
 40
0.0
 40
0.0
 40
0.000136040218399
 40
0.000136040218399
 40
0.000136040218399
 40
0.000136040218399
 10
335.2657760032586
 20
129.6646941239461
 30
0.0
 10
335.2802150029427
 20
129.6791331236301
 30
0.0
 10
335.2946854553049
 20
129.6936035759924
 30
0.0
 10
335.3091870538564
 20
129.7081051745438
 30
0.0
  0
SPLINE
  5
B9
330
1F
100
AcDbEntity
  8
0
  6
Continuous
 62
     7
370
    25
100
AcDbSpline
210
0.0
220
0.0
230
1.0
 70
     8
 71
     3
 72
     9
 73
     5
 74
     0
 42
0.000000001
 43
0.00000001
 40
0.0
 40
0.0
 40
0.0
 40
0.0
 40
0.5086448740972567
 40
1.0
 40
1.0
 40
1.0
 40
1.0
 10
334.6190932745023
 20
129.6689847297312
 30
0.0
 10
334.7282593235002
 20
129.6682908808862
 30
0.0
 10
334.942880672416
 20
129.6669267683583
 30
0.0
 10
335.1593919850933
 20
129.6654299484204
 30
0.0
 10
335.2657759283933
 20
129.6646944782715
 30
0.0
  0
SPLINE
  5
BA
330
1F
100
AcDbEntity
  8
0
  6
Continuous
 62
     7
370
    25
100
AcDbSpline
210
0.0
220
0.0
230
1.0
 70
     8
 71
     3
 72
     9
 73
     5
 74
     0
 42
0.000000001
 43
0.00000001
 40
0.0
 40
0.0
 40
0.0
 40
0.0
 40
0.4913551252639729
 40
1.0
 40
1.0
 40
1.0
 40
1.0
 10
350.7480468413481
 20
129.664694508736
 30
0.0
 10
350.8544307927401
 20
129.6654299790649
 30
0.0
 10
351.0709421221678
 20
129.6669267993706
 30
0.0
 10
351.2855634875346
 20
129.6682909122249
 30
0.0
 10
351.3947295450373
 20
129.6689847612368
 30
0.0
  0
SPLINE
  5
BB
330
1F
100
AcDbEntity
  8
0
  6
Continuous
 62
     7
370
    25
100
AcDbSpline
210
0.0
220
0.0
230
1.0
 70
    24
 71
     3
 72
     8
 73
     4
 74
     0
 42
0.000000001
 43
0.00000001
 40
0.0
 40
0.0
 40
0.0
 40
0.0
 40
0.000136040122724
 40
0.000136040122724
 40
0.000136040122724
 40
0.000136040122724
 10
350.7046357463494
 20
129.7081051745438
 30
0.0
 10
350.7191373347021
 20
129.6936035861912
 30
0.0
 10
350.7336077769094
 20
129.6791331439839
 30
0.0
 10
350.7480467664827
 20
129.6646941544106
 30
0.0
  0
LINE
  5
BC
330
1F
100
AcDbEntity
  8
0
  6
Continuous
 62
     7
370
    25
100
AcDbLine
 10
351.4053866942
 20
129.5114036931
 30
0.0
 11
350.9013368221
 21
129.5114036931
 31
0.0
  0
SPLINE
  5
BD
330
1F
100
AcDbEntity
  8
0
  6
Continuous
 62
     7
370
    25
100
AcDbSpline
210
0.0
220
0.0
230
1.0
 70
     8
 71
     3
 72
     8
 73
     4
 74
     0
 42
0.000000001
 43
0.00000001
 40
0.0
 40
0.0
 40
0.0
 40
0.0
 40
1.0
 40
1.0
 40
1.0
 40
1.0
 10
350.7480465666508
 20
129.6646943539977
 30
0.0
 10
350.7991153292552
 20
129.6136518622536
 30
0.0
 10
350.8502122888912
 20
129.5625548902277
 30
0.0
 10
350.9013371304068
 20
129.5114037904865
 30
0.0
  0
SPLINE
  5
BE
330
1F
100
AcDbEntity
  8
0
  6
Continuous
 62
     7
370
    25
100
AcDbSpline
210
0.0
220
0.0
230
1.0
 70
     8
 71
     3
 72
     8
 73
     4
 74
     0
 42
0.000000001
 43
0.00000001
 40
0.0
 40
0.0
 40
0.0
 40
0.0
 40
1.0
 40
1.0
 40
1.0
 40
1.0
 10
335.112485669799
 20
129.5114037904864
 30
0.0
 10
335.1636105011442
 20
129.5625548800417
 30
0.0
 10
335.2147074506253
 20
129.6136518419127
 30
0.0
 10
335.2657762030906
 20
129.6646943235332
 30
0.0
  0
LINE
  5
BF
330
1F
100
AcDbEntity
  8
0
  6
Continuous
 62
     7
370
    25
100
AcDbLine
 10
335.1124859781
 20
129.5114036931
 30
0.0
 11
334.6084361205
 21
129.5114036931
 31
0.0
  0
CIRCLE
  5
C0
330
1F
100
AcDbEntity
  8
0
  6
Continuous
 62
     7
370
    25
100
AcDbCircle
 10
343.0069114001
 20
125.4051536931
 30
0.0
 40
12.47086902276419
  0
SPLINE
  5
C1
330
1F
100
AcDbEntity
  8
0
  6
Continuous
 62
     7
370
    25
100
AcDbSpline
210
0.0
220
0.0
230
1.0
 70
     8
 71
     3
 72
    23
 73
    19
 74
     0
 42
0.000000001
 43
0.00000001
 40
0.0
 40
0.0
 40
0.0
 40
0.0
 40
0.0521036415683759
 40
0.1035646240941235
 40
0.1544751946756683
 40
0.2049306267495642
 40
0.2550287880866983
 40
0.3048696389163111
 40
0.354554670462894
 40
0.4041862979539558
 40
0.453867225213789
 40
0.5036997999428097
 40
0.590187023078111
 40
0.6742716378282376
 40
0.7565997087281883
 40
0.8378563983773627
 40
0.9187511781400207
 40
0.9999999999999999
 40
0.9999999999999999
 40
0.9999999999999999
 40
0.9999999999999999
 10
353.8461635467604
 20
120.914742980345
 30
0.0
 10
353.8328691918103
 20
120.8855750871827
 30
0.0
 10
353.8064444577316
 20
120.8275990647772
 30
0.0
 10
353.767233451507
 20
120.7446997637634
 30
0.0
 10
353.7287914967007
 20
120.6655177827446
 30
0.0
 10
353.6912039152336
 20
120.5902629659419
 30
0.0
 10
353.6545480289259
 20
120.5188433116839
 30
0.0
 10
353.6188981648673
 20
120.4512467029026
 30
0.0
 10
353.5843244181065
 20
120.3874403814388
 30
0.0
 10
353.550892724151
 20
120.3273968393709
 30
0.0
 10
353.5186658469269
 20
120.271090142646
 30
0.0
 10
353.4801644100378
 20
120.2056851608239
 30
0.0
 10
353.4375029293248
 20
120.136124082989
 30
0.0
 10
353.3940098872015
 20
120.0693645863244
 30
0.0
 10
353.3575973903734
 20
120.0176405382266
 30
0.0
 10
353.3286965838962
 20
119.9811922261746
 30
0.0
 10
353.3067791277981
 20
119.9585948292913
 30
0.0
 10
353.298667163305
 20
119.9560056117299
 30
0.0
 10
353.2946023247827
 20
119.9547081761585
 30
0.0
  0
SPLINE
  5
C2
330
1F
100
AcDbEntity
  8
0
  6
Continuous
 62
     7
370
    25
100
AcDbSpline
210
0.0
220
0.0
230
1.0
 70
     8
 71
     3
 72
     8
 73
     4
 74
     0
 42
0.000000001
 43
0.00000001
 40
0.0
 40
0.0
 40
0.0
 40
0.0
 40
1.0
 40
1.0
 40
1.0
 40
1.0
 10
353.9668014866235
 20
120.9169533377548
 30
0.0
 10
353.9266124730304
 20
120.9162230275373
 30
0.0
 10
353.8864501709403
 20
120.9156425017078
 30
0.0
 10
353.8463154604646
 20
120.9152115367581
 30
0.0
  0
SPLINE
  5
C3
330
1F
100
AcDbEntity
  8
0
  6
Continuous
 62
     7
370
    25
100
AcDbSpline
210
0.0
220
0.0
230
1.0
 70
     8
 71
     3
 72
    18
 73
    14
 74
     0
 42
0.000000001
 43
0.00000001
 40
0.0
 40
0.0
 40
0.0
 40
0.0
 40
0.0923824559461122
 40
0.1844689291660427
 40
0.2764953616062392
 40
0.3686975365619641
 40
0.4613092840130473
 40
0.5545607518559533
 40
0.6486768051632873
 40
0.7438756050210469
 40
0.8403674044324065
 40
0.9203921078135461
 40
1.0
 40
1.0
 40
1.0
 40
1.0
 10
353.9138624978237
 20
120.650136330873
 30
0.0
 10
353.912026844171
 20
120.6503446430882
 30
0.0
 10
353.9083614180878
 20
120.6507606001103
 30
0.0
 10
353.9055660884684
 20
120.6575650235763
 30
0.0
 10
353.9047637933897
 20
120.6688984022285
 30
0.0
 10
353.9061299304328
 20
120.685198797255
 30
0.0
 10
353.9095914790616
 20
120.7063500360908
 30
0.0
 10
353.9151327848311
 20
120.7323857372073
 30
0.0
 10
353.9227172529003
 20
120.7633101168585
 30
0.0
 10
353.9322942548373
 20
120.7991091483032
 30
0.0
 10
353.9431347308566
 20
120.8373600558351
 30
0.0
 10
353.9546233717959
 20
120.8765782692301
 30
0.0
 10
353.9627233566742
 20
120.9034332460797
 30
0.0
 10
353.9667627743169
 20
120.91682567445
 30
0.0
  0
LINE
  5
C4
330
1F
100
AcDbEntity
  8
0
  6
Continuous
 62
     7
370
    25
100
AcDbLine
 10
353.9666178571
 20
120.6508840483
 30
0.0
 11
353.9138624978
 21
120.6501363309
 31
0.0
  0
SPLINE
  5
C5
330
1F
100
AcDbEntity
  8
0
  6
Continuous
 62
     7
370
    25
100
AcDbSpline
210
0.0
220
0.0
230
1.0
 70
     8
 71
     3
 72
    25
 73
    21
 74
     0
 42
0.000000001
 43
0.00000001
 40
0.0
 40
0.0
 40
0.0
 40
0.0
 40
0.0280105225426455
 40
0.0559601148860774
 40
0.0839014045043129
 40
0.1118870776786379
 40
0.1399695827588941
 40
0.1682008401739877
 40
0.1966319670424218
 40
0.2253130233141493
 40
0.2542927850735863
 40
0.3799486436570518
 40
0.505785022166658
 40
0.6313085886329272
 40
0.7532068238012843
 40
0.8039473267959846
 40
0.8535894438560211
 40
0.902533972239985
 40
0.9511970353794947
 40
1.0
 40
1.0
 40
1.0
 40
1.0
 10
354.8775792648766
 20
123.2178159505605
 30
0.0
 10
354.8706001949656
 20
123.1805059370538
 30
0.0
 10
354.8566572364429
 20
123.1059670690602
 30
0.0
 10
354.834135339
 20
122.994658023577
 30
0.0
 10
354.8105017269024
 20
122.8839958145626
 30
0.0
 10
354.7856521364144
 20
122.7740116816183
 30
0.0
 10
354.7596335119281
 20
122.6647165380037
 30
0.0
 10
354.7324521306102
 20
122.5561255688016
 30
0.0
 10
354.7041264892777
 20
122.4482548588592
 30
0.0
 10
354.6746677084452
 20
122.3411099131342
 30
0.0
 10
354.6102594205336
 20
122.1169350266243
 30
0.0
 10
354.5051577284621
 20
121.7902696125891
 30
0.0
 10
354.3596949676661
 20
121.4043230072689
 30
0.0
 10
354.2204315595549
 20
121.0822431945749
 30
0.0
 10
354.1232832066878
 20
120.8864226105447
 30
0.0
 10
354.0629878004614
 20
120.7770751600614
 30
0.0
 10
354.0280992175801
 20
120.719147135646
 30
0.0
 10
354.0002047156522
 20
120.678693182881
 30
0.0
 10
353.9788396232806
 20
120.654078967482
 30
0.0
 10
353.970695675708
 20
120.6519500399743
 30
0.0
 10
353.9666178570629
 20
120.6508840483028
 30
0.0
  0
ARC
  5
C6
330
1F
100
AcDbEntity
  8
0
  6
Continuous
 62
     7
370
    25
100
AcDbCircle
 10
343.0069114001
 20
125.4051536931
 30
0.0
 40
12.07050959801142
100
AcDbArc
 50
349.5595567507
 51
10.4404432493
  0
SPLINE
  5
C7
330
1F
100
AcDbEntity
  8
0
  6
Continuous
 62
     7
370
    25
100
AcDbSpline
210
0.0
220
0.0
230
1.0
 70
     8
 71
     3
 72
    26
 73
    22
 74
     0
 42
0.000000001
 43
0.00000001
 40
0.0
 40
0.0
 40
0.0
 40
0.0
 40
0.0241259796963637
 40
0.048215991227299
 40
0.0723203915124064
 40
0.0964895678710793
 40
0.120773623196351
 40
0.1452220711242841
 40
0.1698835501657706
 40
0.1948055644472381
 40
0.2200342569517629
 40
0.2456142191611394
 40
0.3690971486901671
 40
0.4940698769485191
 40
0.6192566784762444
 40
0.7454656653603234
 40
0.7971495824713715
 40
0.8481710308405401
 40
0.8988013269235245
 40
0.9493179290492194
 40
1.0
 40
1.0
 40
1.0
 40
1.0
 10
353.9666178570629
 20
130.159423337887
 30
0.0
 10
353.9685281718034
 20
130.1591364446975
 30
0.0
 10
353.9723459532956
 20
130.1585630860328
 30
0.0
 10
353.9803060784765
 20
130.1525043977864
 30
0.0
 10
353.989885179052
 20
130.1426251370555
 30
0.0
 10
354.0012323859206
 20
130.1285440459451
 30
0.0
 10
354.0142885692145
 20
130.1103484979209
 30
0.0
 10
354.0290444724418
 20
130.0879979551823
 30
0.0
 10
354.0454716527392
 20
130.0614837194902
 30
0.0
 10
354.0635398074594
 20
130.0307882087769
 30
0.0
 10
354.0832169538825
 20
129.995887105537
 30
0.0
 10
354.1314163353107
 20
129.9071225704293
 30
0.0
 10
354.2197343747461
 20
129.7298422689805
 30
0.0
 10
354.3587939915129
 20
129.4087563621354
 30
0.0
 10
354.504466671375
 20
129.0221737102449
 30
0.0
 10
354.6182052663845
 20
128.6684660061149
 30
0.0
 10
354.697910884931
 20
128.3862123065022
 30
0.0
 10
354.7485604572853
 20
128.1917688757278
 30
0.0
 10
354.7955271271507
 20
127.9945274987937
 30
0.0
 10
354.839086949155
 20
127.7946244536986
 30
0.0
 10
354.8647345142866
 20
127.6599425139664
 30
0.0
 10
354.8775792648766
 20
127.5924914356292
 30
0.0
  0
LINE
  5
C8
330
1F
100
AcDbEntity
  8
0
  6
Continuous
 62
     7
370
    25
100
AcDbLine
 10
353.9138624978
 20
130.1601710553
 30
0.0
 11
353.9666178571
 21
130.1594233379
 31
0.0
  0
SPLINE
  5
C9
330
1F
100
AcDbEntity
  8
0
  6
Continuous
 62
     7
370
    25
100
AcDbSpline
210
0.0
220
0.0
230
1.0
 70
     8
 71
     3
 72
    14
 73
    10
 74
     0
 42
0.000000001
 43
0.00000001
 40
0.0
 40
0.0
 40
0.0
 40
0.0
 40
0.0789261963152472
 40
0.1582328720511064
 40
0.3308475394503796
 40
0.5000195457530386
 40
0.6670357883499396
 40
0.8332395193610692
 40
1.0
 40
1.0
 40
1.0
 40
1.0
 10
353.966859354676
 20
129.8931475780115
 30
0.0
 10
353.96284480808
 20
129.906450702649
 30
0.0
 10
353.9547963619679
 20
129.933121082281
 30
0.0
 10
353.9398956551582
 20
129.9839358216011
 30
0.0
 10
353.9239986735612
 20
130.0409756377886
 30
0.0
 10
353.9109201785632
 20
130.0952788545168
 30
0.0
 10
353.9046875714459
 20
130.1334459972398
 30
0.0
 10
353.904877151283
 20
130.1568547259167
 30
0.0
 10
353.9108640454139
 20
130.1590643805953
 30
0.0
 10
353.9138624978237
 20
130.1601710553169
 30
0.0
  0
SPLINE
  5
CA
330
1F
100
AcDbEntity
  8
0
  6
Continuous
 62
     7
370
    25
100
AcDbSpline
210
0.0
220
0.0
230
1.0
 70
     8
 71
     3
 72
     8
 73
     4
 74
     0
 42
0.000000001
 43
0.00000001
 40
0.0
 40
0.0
 40
0.0
 40
0.0
 40
1.0
 40
1.0
 40
1.0
 40
1.0
 10
353.8195546634512
 20
129.8952086564626
 30
0.0
 10
353.86862257848
 20
129.8947216032507
 30
0.0
 10
353.9177320160008
 20
129.8940105353758
 30
0.0
 10
353.9668813605262
 20
129.8930750421415
 30
0.0
  0
SPLINE
  5
CB
330
1F
100
AcDbEntity
  8
0
  6
Continuous
 62
     7
370
    25
100
AcDbSpline
210
0.0
220
0.0
230
1.0
 70
     8
 71
     3
 72
    13
 73
     9
 74
     0
 42
0.000000001
 43
0.00000001
 40
0.0
 40
0.0
 40
0.0
 40
0.0
 40
0.1667030582307959
 40
0.3329480818053031
 40
0.4990671507274871
 40
0.6653938523718408
 40
0.8322612710550125
 40
1.0
 40
1.0
 40
1.0
 40
1.0
 10
353.7612211312803
 20
129.9639221812466
 30
0.0
 10
353.7630644451171
 20
129.9635050714808
 30
0.0
 10
353.766746008087
 20
129.9626719980034
 30
0.0
 10
353.7742632618815
 20
129.956657519177
 30
0.0
 10
353.7832140659979
 20
129.9471627868848
 30
0.0
 10
353.7937643544209
 20
129.9337531797752
 30
0.0
 10
353.805737539938
 20
129.9168352761515
 30
0.0
 10
353.8149439475444
 20
129.9024225410121
 30
0.0
 10
353.8195591380332
 20
129.8951974081506
 30
0.0
  0
SPLINE
  5
CC
330
1F
100
AcDbEntity
  8
0
  6
Continuous
 62
     7
370
    25
100
AcDbSpline
210
0.0
220
0.0
230
1.0
 70
     8
 71
     3
 72
    13
 73
     9
 74
     0
 42
0.000000001
 43
0.00000001
 40
0.0
 40
0.0
 40
0.0
 40
0.0
 40
0.1686319999748108
 40
0.3360343310905541
 40
0.5025367825908723
 40
0.6684737453788424
 40
0.8341822636915195
 40
1.0
 40
1.0
 40
1.0
 40
1.0
 10
332.1942622810546
 20
129.8951939583378
 30
0.0
 10
332.1988995261528
 20
129.9024511183572
 30
0.0
 10
332.2081402014392
 20
129.9169125189995
 30
0.0
 10
332.2201555748063
 20
129.9338932157036
 30
0.0
 10
332.2307211285609
 20
129.9473259968831
 30
0.0
 10
332.2396604778539
 20
129.9568054654371
 30
0.0
 10
332.2471413584424
 20
129.9627706911349
 30
0.0
 10
332.250781165732
 20
129.9635382669193
 30
0.0
 10
332.2526016689256
 20
129.9639221812466
 30
0.0
  0
SPLINE
  5
CD
330
1F
100
AcDbEntity
  8
0
  6
Continuous
 62
     7
370
    25
100
AcDbSpline
210
0.0
220
0.0
230
1.0
 70
     8
 71
     3
 72
     8
 73
     4
 74
     0
 42
0.000000001
 43
0.00000001
 40
0.0
 40
0.0
 40
0.0
 40
0.0
 40
1.0
 40
1.0
 40
1.0
 40
1.0
 10
332.0469366690819
 20
129.893074937395
 30
0.0
 10
332.0960875986903
 20
129.894010467657
 30
0.0
 10
332.1451986187697
 20
129.8947215581691
 30
0.0
 10
332.1942681136775
 20
129.8952086196671
 30
0.0
  0
SPLINE
  5
CE
330
1F
100
AcDbEntity
  8
0
  6
Continuous
 62
     7
370
    25
100
AcDbSpline
210
0.0
220
0.0
230
1.0
 70
     8
 71
     3
 72
    18
 73
    14
 74
     0
 42
0.000000001
 43
0.00000001
 40
0.0
 40
0.0
 40
0.0
 40
0.0
 40
0.0923325137151694
 40
0.1843692047134009
 40
0.2763458873902312
 40
0.368498217575762
 40
0.4610598988406411
 40
0.5542609546627003
 40
0.6483261285518087
 40
0.743473463655427
 40
0.8399130993133287
 40
0.9201660718313618
 40
1.0
 40
1.0
 40
1.0
 40
1.0
 10
332.0999603023821
 20
130.1601710553169
 30
0.0
 10
332.1017959560347
 20
130.159962743101
 30
0.0
 10
332.1054613821173
 20
130.1595467860778
 30
0.0
 10
332.1082567117399
 20
130.1527423626205
 30
0.0
 10
332.1090590068068
 20
130.1414089839348
 30
0.0
 10
332.1076928698077
 20
130.1251085890344
 30
0.0
 10
332.1042313210136
 20
130.1039573497243
 30
0.0
 10
332.0986900158672
 20
130.0779216503967
 30
0.0
 10
332.0911055454398
 20
130.046997263974
 30
0.0
 10
332.0815285524592
 20
130.011198258246
 30
0.0
 10
332.070677205433
 20
129.9729090131316
 30
0.0
 10
332.0591624438006
 20
129.9336033887145
 30
0.0
 10
332.0510307349795
 20
129.9066463108209
 30
0.0
 10
332.0469755233718
 20
129.8932030533716
 30
0.0
  0
LINE
  5
CF
330
1F
100
AcDbEntity
  8
0
  6
Continuous
 62
     7
370
    25
100
AcDbLine
 10
332.0472049431
 20
130.1594233379
 30
0.0
 11
332.0999603024
 21
130.1601710553
 31
0.0
  0
SPLINE
  5
D0
330
1F
100
AcDbEntity
  8
0
  6
Continuous
 62
     7
370
    25
100
AcDbSpline
210
0.0
220
0.0
230
1.0
 70
     8
 71
     3
 72
    25
 73
    21
 74
     0
 42
0.000000001
 43
0.00000001
 40
0.0
 40
0.0
 40
0.0
 40
0.0
 40
0.0280105225425618
 40
0.0559601148859273
 40
0.0839014045041196
 40
0.1118870776784247
 40
0.1399695827586811
 40
0.1682008401737953
 40
0.1966319670422708
 40
0.2253130233140565
 40
0.2542927850735732
 40
0.3799486436574536
 40
0.5057850221666685
 40
0.6313085886327393
 40
0.7532068238012419
 40
0.803947326795536
 40
0.8535894438553622
 40
0.9025339722393254
 40
0.951197035379054
 40
1.0
 40
1.0
 40
1.0
 40
1.0
 10
331.1362435353292
 20
127.5924914356292
 30
0.0
 10
331.1432226052402
 20
127.6298014491358
 30
0.0
 10
331.1571655637629
 20
127.7043403171292
 30
0.0
 10
331.1796874612057
 20
127.8156493626122
 30
0.0
 10
331.2033210733032
 20
127.9263115716265
 30
0.0
 10
331.2281706637912
 20
128.0362957045707
 30
0.0
 10
331.2541892882775
 20
128.1455908481852
 30
0.0
 10
331.2813706695954
 20
128.2541818173875
 30
0.0
 10
331.309696310928
 20
128.36205252733
 30
0.0
 10
331.3391550917606
 20
128.4691974730552
 30
0.0
 10
331.4035633796723
 20
128.693372359566
 30
0.0
 10
331.508665071744
 20
129.0200377736016
 30
0.0
 10
331.6541278325399
 20
129.4059843789211
 30
0.0
 10
331.7933912406505
 20
129.7280641916136
 30
0.0
 10
331.8905395935178
 20
129.9238847756445
 30
0.0
 10
331.9508349997444
 20
130.0332322261286
 30
0.0
 10
331.9857235826257
 20
130.091160250544
 30
0.0
 10
332.0136180845535
 20
130.1316142033089
 30
0.0
 10
332.0349831769252
 20
130.1562284187079
 30
0.0
 10
332.0431271244978
 20
130.1583573462156
 30
0.0
 10
332.0472049431429
 20
130.159423337887
 30
0.0
  0
ARC
  5
D1
330
1F
100
AcDbEntity
  8
0
  6
Continuous
 62
     7
370
    25
100
AcDbCircle
 10
343.0069114001
 20
125.4051536931
 30
0.0
 40
12.07050959801141
100
AcDbArc
 50
169.5595567507
 51
190.4404432494
  0
SPLINE
  5
D2
330
1F
100
AcDbEntity
  8
0
  6
Continuous
 62
     7
370
    25
100
AcDbSpline
210
0.0
220
0.0
230
1.0
 70
     8
 71
     3
 72
    26
 73
    22
 74
     0
 42
0.000000001
 43
0.00000001
 40
0.0
 40
0.0
 40
0.0
 40
0.0
 40
0.0241259796962594
 40
0.0482159912271147
 40
0.0723203915121655
 40
0.0964895678708044
 40
0.1207736231960655
 40
0.1452220711240092
 40
0.1698835501655297
 40
0.1948055644470513
 40
0.2200342569516523
 40
0.2456142191611222
 40
0.3690971486898452
 40
0.4940698769485167
 40
0.6192566784763793
 40
0.7454656653603262
 40
0.7971495824714568
 40
0.8481710308406679
 40
0.8988013269236526
 40
0.9493179290493045
 40
1.0
 40
1.0
 40
1.0
 40
1.0
 10
332.0472049431429
 20
120.6508840483028
 30
0.0
 10
332.0452946284025
 20
120.6511709414923
 30
0.0
 10
332.0414768469103
 20
120.651744300157
 30
0.0
 10
332.0335167217294
 20
120.6578029884034
 30
0.0
 10
332.0239376211539
 20
120.6676822491343
 30
0.0
 10
332.0125904142853
 20
120.6817633402447
 30
0.0
 10
331.9995342309914
 20
120.6999588882689
 30
0.0
 10
331.984778327764
 20
120.7223094310076
 30
0.0
 10
331.9683511474666
 20
120.7488236666996
 30
0.0
 10
331.9502829927465
 20
120.7795191774129
 30
0.0
 10
331.9306058463234
 20
120.8144202806528
 30
0.0
 10
331.8824064648954
 20
120.9031848157601
 30
0.0
 10
331.7940884254599
 20
121.0804651172089
 30
0.0
 10
331.655028808693
 20
121.4015510240543
 30
0.0
 10
331.5093561288307
 20
121.788133675945
 30
0.0
 10
331.3956175338213
 20
122.1418413800751
 30
0.0
 10
331.3159119152747
 20
122.4240950796879
 30
0.0
 10
331.2652623429204
 20
122.6185385104624
 30
0.0
 10
331.218295673055
 20
122.8157798873965
 30
0.0
 10
331.1747358510507
 20
123.0156829324915
 30
0.0
 10
331.1490882859193
 20
123.1503648722236
 30
0.0
 10
331.1362435353292
 20
123.2178159505606
 30
0.0
  0
LINE
  5
D3
330
1F
100
AcDbEntity
  8
0
  6
Continuous
 62
     7
370
    25
100
AcDbLine
 10
332.0999603024
 20
120.6501363309
 30
0.0
 11
332.0472049431
 21
120.6508840483
 31
0.0
  0
SPLINE
  5
D4
330
1F
100
AcDbEntity
  8
0
  6
Continuous
 62
     7
370
    25
100
AcDbSpline
210
0.0
220
0.0
230
1.0
 70
     8
 71
     3
 72
    14
 73
    10
 74
     0
 42
0.000000001
 43
0.00000001
 40
0.0
 40
0.0
 40
0.0
 40
0.0
 40
0.0786889129230217
 40
0.1577561817120102
 40
0.3304686003102582
 40
0.4997364082417218
 40
0.666847231663544
 40
0.833145083375537
 40
1.0
 40
1.0
 40
1.0
 40
1.0
 10
332.0470520156052
 20
120.9168678400907
 30
0.0
 10
332.0510500245599
 20
120.9036179355748
 30
0.0
 10
332.0590652658906
 20
120.8770544177065
 30
0.0
 10
332.0739379391801
 20
120.8263328899376
 30
0.0
 10
332.0898241039424
 20
120.7693318109136
 30
0.0
 10
332.1029026275868
 20
120.7150285153046
 30
0.0
 10
332.1091352271918
 20
120.6768613932673
 30
0.0
 10
332.1089456493154
 20
120.6534526591918
 30
0.0
 10
332.1029587549229
 20
120.6512430052338
 30
0.0
 10
332.0999603023821
 20
120.650136330873
 30
0.0
  0
SPLINE
  5
D5
330
1F
100
AcDbEntity
  8
0
  6
Continuous
 62
     7
370
    25
100
AcDbSpline
210
0.0
220
0.0
230
1.0
 70
     8
 71
     3
 72
     8
 73
     4
 74
     0
 42
0.000000001
 43
0.00000001
 40
0.0
 40
0.0
 40
0.0
 40
0.0
 40
1.0
 40
1.0
 40
1.0
 40
1.0
 10
332.1675073562881
 20
120.9152115001252
 30
0.0
 10
332.1273742377814
 20
120.9156424540725
 30
0.0
 10
332.0872135298528
 20
120.9162229570849
 30
0.0
 10
332.0470261125099
 20
120.9169532326445
 30
0.0
  0
SPLINE
  5
D6
330
1F
100
AcDbEntity
  8
0
  6
Continuous
 62
     7
370
    25
100
AcDbSpline
210
0.0
220
0.0
230
1.0
 70
     8
 71
     3
 72
    23
 73
    19
 74
     0
 42
0.000000001
 43
0.00000001
 40
0.0
 40
0.0
 40
0.0
 40
0.0
 40
0.0441308420115403
 40
0.0880968635201137
 40
0.1320155028394797
 40
0.1760048571417636
 40
0.220182730577585
 40
0.2646656976919496
 40
0.3095682184552906
 40
0.3550018365579412
 40
0.4010744854732484
 40
0.4478899182331895
 40
0.4955472680210786
 40
0.5953670562466713
 40
0.6949121173423626
 40
0.7950007649006683
 40
0.896438625518418
 40
1.0
 40
1.0
 40
1.0
 40
1.0
 10
332.7192204754232
 20
119.9547081761585
 30
0.0
 10
332.7172360853164
 20
119.9549910333884
 30
0.0
 10
332.7132747164316
 20
119.955555691429
 30
0.0
 10
332.7044144122011
 20
119.9619750446078
 30
0.0
 10
332.6934419340788
 20
119.9724962941144
 30
0.0
 10
332.6801625360584
 20
119.9875278304241
 30
0.0
 10
332.6646518123921
 20
120.0069800754865
 30
0.0
 10
332.646920350639
 20
120.0309000534387
 30
0.0
 10
332.6270037039358
 20
120.0593011441525
 30
0.0
 10
332.6049381699236
 20
120.0922088839531
 30
0.0
 10
332.5807672462295
 20
120.1296488666094
 30
0.0
 10
332.5545402361822
 20
120.1716489382392
 30
0.0
 10
332.5162036559509
 20
120.2349260467625
 30
0.0
 10
332.4638708765722
 20
120.3249849091259
 30
0.0
 10
332.3954702653638
 20
120.4493310286931
 30
0.0
 10
332.3227851905683
 20
120.5890441066736
 30
0.0
 10
332.2464249546687
 20
120.7433801219015
 30
0.0
 10
332.1941361400187
 20
120.8571027761291
 30
0.0
 10
332.1677209121153
 20
120.9145531094233
 30
0.0
  0
SPLINE
  5
D7
330
1F
100
AcDbEntity
  8
0
  6
Continuous
 62
     7
370
    25
100
AcDbSpline
210
0.0
220
0.0
230
1.0
 70
    11
 71
     3
 72
    39
 73
    35
 74
     0
 42
0.000000001
 43
0.00000001
 40
0.0
 40
0.0
 40
0.0
 40
0.0
 40
0.0310664058350965
 40
0.0621048158425859
 40
0.093136155179263
 40
0.1235538293503448
 40
0.1538561545806855
 40
0.1850588072748946
 40
0.2160250992945718
 40
0.2471867223797388
 40
0.2784462884305076
 40
0.3100516090231096
 40
0.3419834369141944
 40
0.3734259894013148
 40
0.4048604886786042
 40
0.4368740651833136
 40
0.4685120685925458
 40
0.4998055358633138
 40
0.5309508213230685
 40
0.5618649784438015
 40
0.5930416446594986
 40
0.6233742450133227
 40
0.6540913579075065
 40
0.6849496782718291
 40
0.71581606451649
 40
0.7471731804043279
 40
0.7784514311862922
 40
0.8101295911560753
 40
0.8419598919688862
 40
0.8735175891922173
 40
0.9050808037887091
 40
0.9370235169792366
 40
0.968744159003463
 40
1.0
 40
1.0
 40
1.0
 40
1.0
 10
340.1027848353057
 20
136.8367838768484
 30
0.0
 10
339.9130730063505
 20
136.7980153001009
 30
0.0
 10
339.5693321559054
 20
136.7215843543191
 30
0.0
 10
339.1863751686941
 20
136.6334448143244
 30
0.0
 10
338.9419347019804
 20
136.5864953276798
 30
0.0
 10
338.8609457651633
 20
136.5984042523931
 30
0.0
 10
338.9416682106431
 20
136.6703621591081
 30
0.0
 10
339.1815304042636
 20
136.7948824253058
 30
0.0
 10
339.5581801383608
 20
136.9522514151311
 30
0.0
 10
340.0644230751898
 20
137.1242754998264
 30
0.0
 10
340.6816974688731
 20
137.2891999074121
 30
0.0
 10
341.3941732830159
 20
137.426912483491
 30
0.0
 10
342.1696385227877
 20
137.5185452959995
 30
0.0
 10
342.9801029564017
 20
137.5518778740946
 30
0.0
 10
343.7926074293607
 20
137.5226304285413
 30
0.0
 10
344.5721204194979
 20
137.4343014715541
 30
0.0
 10
345.2904487188364
 20
137.2987959719188
 30
0.0
 10
345.9138208262366
 20
137.1350194504272
 30
0.0
 10
346.4269194208326
 20
136.9630133062815
 30
0.0
 10
346.8121215306948
 20
136.8042012918099
 30
0.0
 10
347.0615461359336
 20
136.6769423266453
 30
0.0
 10
347.1521481758796
 20
136.6013353696904
 30
0.0
 10
347.0839366049181
 20
136.5845659730115
 30
0.0
 10
346.8517207385174
 20
136.627346315226
 30
0.0
 10
346.4745037013318
 20
136.7144730001365
 30
0.0
 10
345.9627988335684
 20
136.8292020554423
 30
0.0
 10
345.3393277028213
 20
136.948624200495
 30
0.0
 10
344.6227829996875
 20
137.0532496505448
 30
0.0
 10
343.8444518870746
 20
137.1238981434716
 30
0.0
 10
343.0326204002237
 20
137.1499769679018
 30
0.0
 10
342.2188458782274
 20
137.126951396211
 30
0.0
 10
341.4364720340586
 20
137.0587189580731
 30
0.0
 10
340.714458999323
 20
136.9554717783625
 30
0.0
 10
340.2936534794756
 20
136.8757888546662
 30
0.0
 10
340.1027848353056
 20
136.8367838768484
 30
0.0
  0
SPLINE
  5
D8
330
1F
100
AcDbEntity
  8
0
  6
Continuous
 62
     7
370
    25
100
AcDbSpline
210
0.0
220
0.0
230
1.0
 70
    11
 71
     3
 72
    39
 73
    35
 74
     0
 42
0.000000001
 43
0.00000001
 40
0.0
 40
0.0
 40
0.0
 40
0.0
 40
0.0312651429932929
 40
0.0629601069329363
 40
0.0948697276489851
 40
0.1264264963751878
 40
0.1579651393672514
 40
0.1898765439017007
 40
0.221552335268766
 40
0.2527844076550835
 40
0.2838418966732524
 40
0.3148645781100705
 40
0.34591276392991
 40
0.3763475365526239
 40
0.406675132466265
 40
0.4379141187435676
 40
0.4688932367346729
 40
0.5000738678969627
 40
0.5313369410961
 40
0.5629183719104931
 40
0.5948445736346094
 40
0.6262809966135477
 40
0.6577486436588904
 40
0.6897584692806558
 40
0.7214430019612538
 40
0.752762334319555
 40
0.7839279690576615
 40
0.8148885765585969
 40
0.846037500498419
 40
0.8763409566916832
 40
0.9067589191462748
 40
0.9378312724751754
 40
0.9689189660503823
 40
0.9999999999999999
 40
0.9999999999999999
 40
0.9999999999999999
 40
0.9999999999999999
 10
340.1028890850924
 20
113.9734914569057
 30
0.0
 10
340.2939630213733
 20
113.9344274990252
 30
0.0
 10
340.7148975838123
 20
113.8547085044652
 30
0.0
 10
341.4362869889765
 20
113.7515930891146
 30
0.0
 10
342.2179430372677
 20
113.6833922166906
 30
0.0
 10
343.0310307569786
 20
113.6603353240487
 30
0.0
 10
343.8433109738305
 20
113.6863195976949
 30
0.0
 10
344.6219413988792
 20
113.756909762933
 30
0.0
 10
345.3386171887902
 20
113.861525325172
 30
0.0
 10
345.9604924584516
 20
113.9806976501884
 30
0.0
 10
346.4700033919381
 20
114.0946348179147
 30
0.0
 10
346.8451227381807
 20
114.1807490968611
 30
0.0
 10
347.0810833130263
 20
114.2248048181947
 30
0.0
 10
347.1524838562157
 20
114.2092750174869
 30
0.0
 10
347.0618874264263
 20
114.1337661353055
 30
0.0
 10
346.8129111460598
 20
114.0065926074586
 30
0.0
 10
346.4279963262164
 20
113.8477419288458
 30
0.0
 10
345.9152110193914
 20
113.6757176676351
 30
0.0
 10
345.2927518964671
 20
113.5120445881007
 30
0.0
 10
344.5762517516587
 20
113.3766430147203
 30
0.0
 10
343.7981527175502
 20
113.2881253472378
 30
0.0
 10
342.9864300289018
 20
113.2584179387552
 30
0.0
 10
342.1749878412026
 20
113.2913043834054
 30
0.0
 10
341.3978619497187
 20
113.3827852914505
 30
0.0
 10
340.6834238605485
 20
113.520669481412
 30
0.0
 10
340.0652009023123
 20
113.6857973062625
 30
0.0
 10
339.5588335415887
 20
113.8578478436145
 30
0.0
 10
339.1822810201743
 20
114.0151313653251
 30
0.0
 10
338.9425852087458
 20
114.1395351628079
 30
0.0
 10
338.8611185005501
 20
114.2117233362446
 30
0.0
 10
338.9411777430432
 20
114.2239958446221
 30
0.0
 10
339.1855237489947
 20
114.1771004341168
 30
0.0
 10
339.5684971824439
 20
114.0889668859711
 30
0.0
 10
339.9129403136536
 20
114.0123253813612
 30
0.0
 10
340.1028890850924
 20
113.9734914569057
 30
0.0
  0
SPLINE
  5
D9
330
1F
100
AcDbEntity
  8
0
  6
Continuous
 62
     7
370
    25
100
AcDbSpline
210
0.0
220
0.0
230
1.0
 70
     8
 71
     3
 72
    23
 73
    19
 74
     0
 42
0.000000001
 43
0.00000001
 40
0.0
 40
0.0
 40
0.0
 40
0.0
 40
0.0449850911547964
 40
0.0909520670823883
 40
0.1379394291328525
 40
0.1859832248994781
 40
0.235117176177667
 40
0.2853728096486027
 40
0.3367795876649756
 40
0.3893650370847659
 40
0.4431548745955978
 40
0.4981731273942729
 40
0.5575107591414307
 40
0.6265492282208773
 40
0.7053073139958764
 40
0.7937970254642376
 40
0.8920262116484563
 40
1.0
 40
1.0
 40
1.0
 40
1.0
 10
352.8978531116601
 20
120.3751536930949
 30
0.0
 10
352.9000158010259
 20
120.3755825947545
 30
0.0
 10
352.9043883845467
 20
120.3764497596645
 30
0.0
 10
352.9146693437384
 20
120.3835433272663
 30
0.0
 10
352.9277296217685
 20
120.3951560688464
 30
0.0
 10
352.9438487833228
 20
120.4119454390202
 30
0.0
 10
352.9629492109788
 20
120.434017425636
 30
0.0
 10
352.9850515637347
 20
120.4616148994
 30
0.0
 10
353.0101520422702
 20
120.4949233306095
 30
0.0
 10
353.038243173648
 20
120.5341236690155
 30
0.0
 10
353.0693590744995
 20
120.5793657144871
 30
0.0
 10
353.1039980053946
 20
120.6317616468921
 30
0.0
 10
353.1447195136927
 20
120.6945441151442
 30
0.0
 10
353.1934404347394
 20
120.7723011144497
 30
0.0
 10
353.2512147730647
 20
120.869585672054
 30
0.0
 10
353.3181254227022
 20
120.9893305057696
 30
0.0
 10
353.3940693869729
 20
121.1332507106326
 30
0.0
 10
353.4484305516391
 20
121.2439849154767
 30
0.0
 10
353.4768956157412
 20
121.30196851937
 30
0.0
  0
LINE
  5
DA
330
1F
100
AcDbEntity
  8
0
  6
Continuous
 62
     7
370
    25
100
AcDbLine
 10
353.4768956157
 20
121.3014421875
 30
0.0
 11
353.8462353537
 21
120.9153576605
 31
0.0
  0
LINE
  5
DB
330
1F
100
AcDbEntity
  8
0
  6
Continuous
 62
     7
370
    25
100
AcDbLine
 10
332.1676200182
 20
120.9154170654
 30
0.0
 11
332.5368866998
 21
121.3014251703
 31
0.0
  0
SPLINE
  5
DC
330
1F
100
AcDbEntity
  8
0
  6
Continuous
 62
     7
370
    25
100
AcDbSpline
210
0.0
220
0.0
230
1.0
 70
     8
 71
     3
 72
    26
 73
    22
 74
     0
 42
0.000000001
 43
0.00000001
 40
0.0
 40
0.0
 40
0.0
 40
0.0
 40
0.0509383868710681
 40
0.0998291548374484
 40
0.1466728126632442
 40
0.1914699456539526
 40
0.2342212299963317
 40
0.2749274506887306
 40
0.3135895241945819
 40
0.3502085273905902
 40
0.384785735024819
 40
0.4173226688625226
 40
0.4478211631676295
 40
0.476283453466084
 40
0.5027122992247393
 40
0.5939067005067384
 40
0.681601599325777
 40
0.7659159552126487
 40
0.8469836289730962
 40
0.9249552229482289
 40
1.0
 40
1.0
 40
1.0
 40
1.0
 10
332.5368866997963
 20
121.3021592496197
 30
0.0
 10
332.5503445639958
 20
121.2745384684523
 30
0.0
 10
332.576719313796
 20
121.2204072049934
 30
0.0
 10
332.6150914935786
 20
121.1440991679113
 30
0.0
 10
332.6515576760737
 20
121.0733469883145
 30
0.0
 10
332.6860939256995
 20
121.0081751616231
 30
0.0
 10
332.7187063775538
 20
120.9483169163698
 30
0.0
 10
332.7493936613474
 20
120.8935517568283
 30
0.0
 10
332.7781562776486
 20
120.8436273655174
 30
0.0
 10
332.8049944421202
 20
120.7982851349245
 30
0.0
 10
332.829908022547
 20
120.7572591959869
 30
0.0
 10
332.8528986693336
 20
120.7202818110438
 30
0.0
 10
332.8739621748205
 20
120.6870856950651
 30
0.0
 10
332.8931145451962
 20
120.6574099628031
 30
0.0
 10
332.9247856221386
 20
120.6087396377555
 30
0.0
 10
332.9662555675736
 20
120.5468443198365
 30
0.0
 10
333.0132450837178
 20
120.4815037124118
 30
0.0
 10
333.0518636534329
 20
120.4323853211208
 30
0.0
 10
333.0819121131541
 20
120.3989090326102
 30
0.0
 10
333.1042022241231
 20
120.3787916003738
 30
0.0
 10
333.1120975395563
 20
120.3763507665245
 30
0.0
 10
333.1159696885457
 20
120.3751536930949
 30
0.0
  0
SPLINE
  5
DD
330
1F
100
AcDbEntity
  8
0
  6
Continuous
 62
     7
370
    25
100
AcDbSpline
210
0.0
220
0.0
230
1.0
 70
     8
 71
     3
 72
     8
 73
     4
 74
     0
 42
0.000000001
 43
0.00000001
 40
0.0
 40
0.0
 40
0.0
 40
0.0
 40
1.0
 40
1.0
 40
1.0
 40
1.0
 10
335.2652309483026
 20
121.1821553666122
 30
0.0
 10
335.2016379679625
 20
121.247824144459
 30
0.0
 10
335.1376815415272
 20
121.3121664421192
 30
0.0
 10
335.0734826218198
 20
121.3739036930949
 30
0.0
  0
SPLINE
  5
DE
330
1F
100
AcDbEntity
  8
0
  6
Continuous
 62
     7
370
    25
100
AcDbSpline
210
0.0
220
0.0
230
1.0
 70
     8
 71
     3
 72
    25
 73
    21
 74
     0
 42
0.000000001
 43
0.00000001
 40
0.0
 40
0.0
 40
0.0
 40
0.0
 40
0.0367725003273524
 40
0.0742084010635883
 40
0.1123590542855501
 40
0.1512729822625089
 40
0.1909959100229794
 40
0.2315708273567468
 40
0.2730380740480022
 40
0.3154354426133704
 40
0.3587982934479269
 40
0.4031596779846243
 40
0.4485504661867954
 40
0.4949994753770925
 40
0.5532504315742431
 40
0.6218294885841514
 40
0.7007739996682805
 40
0.7901076726768732
 40
0.8898461547601584
 40
1.0
 40
1.0
 40
1.0
 40
1.0
 10
335.7071521356141
 20
120.3751536930953
 30
0.0
 10
335.7069283615493
 20
120.375478380729
 30
0.0
 10
335.7064767763863
 20
120.3761336135779
 30
0.0
 10
335.7017597365141
 20
120.3814959853661
 30
0.0
 10
335.6941071274315
 20
120.3902515790673
 30
0.0
 10
335.6832141482946
 20
120.40287579716
 30
0.0
 10
335.6691655618787
 20
120.4194321352912
 30
0.0
 10
335.6519386642695
 20
120.4400893126696
 30
0.0
 10
335.6315401114881
 20
120.464977048638
 30
0.0
 10
335.6079692981959
 20
120.4942245948315
 30
0.0
 10
335.5812239496362
 20
120.5279475300278
 30
0.0
 10
335.5513160962038
 20
120.5662533451525
 30
0.0
 10
335.5182000038594
 20
120.6092242404892
 30
0.0
 10
335.4792740822827
 20
120.6606455221608
 30
0.0
 10
335.4304460025622
 20
120.7248617538533
 30
0.0
 10
335.3685253979572
 20
120.8077562829536
 30
0.0
 10
335.294140839635
 20
120.9117020331712
 30
0.0
 10
335.2071664116478
 20
121.039788243428
 30
0.0
 10
335.1077415616695
 20
121.1938780233292
 30
0.0
 10
335.0363223859436
 20
121.3119422591938
 30
0.0
 10
334.998840802265
 20
121.3739036930949
 30
0.0
  0
LINE
  5
DF
330
1F
100
AcDbEntity
  8
0
  6
Continuous
 62
     7
370
    25
100
AcDbLine
 10
334.9988408023
 20
121.3739036931
 30
0.0
 11
335.0734826218
 21
121.3739036931
 31
0.0
  0
SPLINE
  5
E0
330
1F
100
AcDbEntity
  8
0
  6
Continuous
 62
     7
370
    25
100
AcDbSpline
210
0.0
220
0.0
230
1.0
 70
     8
 71
     3
 72
    23
 73
    19
 74
     0
 42
0.000000001
 43
0.00000001
 40
0.0
 40
0.0
 40
0.0
 40
0.0
 40
0.0511129009857237
 40
0.1016896331838987
 40
0.1518293139104701
 40
0.2016336701894375
 40
0.2512064936754073
 40
0.3006530343006341
 40
0.3500793489716446
 40
0.3995916247932064
 40
0.4492954981442684
 40
0.4992953912354717
 40
0.5872572780521592
 40
0.6724255494349295
 40
0.7555067762540847
 40
0.83726167352717
 40
0.9184882400167593
 40
1.0
 40
1.0
 40
1.0
 40
1.0
 10
335.2651682721771
 20
121.1819126505171
 30
0.0
 10
335.2811838560776
 20
121.1527840482861
 30
0.0
 10
335.3130470221406
 20
121.0948323997023
 30
0.0
 10
335.3600908605595
 20
121.0120745644841
 30
0.0
 10
335.4060693847345
 20
120.9329857059999
 30
0.0
 10
335.450850051538
 20
120.8577687180657
 30
0.0
 10
335.494333815974
 20
120.78630566302
 30
0.0
 10
335.5364197795586
 20
120.7185642588317
 30
0.0
 10
335.5770142439559
 20
120.6544907470867
 30
0.0
 10
335.6160291503061
 20
120.5940371480155
 30
0.0
 10
335.6533789727936
 20
120.5371596430872
 30
0.0
 10
335.6979072293857
 20
120.4704451700267
 30
0.0
 10
335.7465474899269
 20
120.3991248861622
 30
0.0
 10
335.7943865896827
 20
120.3305446337032
 30
0.0
 10
335.8320381017636
 20
120.277528305661
 30
0.0
 10
335.858860803151
 20
120.2402556495335
 30
0.0
 10
335.8755896339746
 20
120.2172182499534
 30
0.0
 10
335.8774380439385
 20
120.2146835246882
 30
0.0
 10
335.8783638685588
 20
120.2134139410448
 30
0.0
  0
SPLINE
  5
E1
330
1F
100
AcDbEntity
  8
0
  6
Continuous
 62
     7
370
    25
100
AcDbSpline
210
0.0
220
0.0
230
1.0
 70
     8
 71
     3
 72
     8
 73
     4
 74
     0
 42
0.000000001
 43
0.00000001
 40
0.0
 40
0.0
 40
0.0
 40
0.0
 40
1.0
 40
1.0
 40
1.0
 40
1.0
 10
332.6030187530309
 20
121.373903693095
 30
0.0
 10
332.5811333813877
 20
121.3495826768974
 30
0.0
 10
332.5592480097446
 20
121.3255580785749
 30
0.0
 10
332.5373626381015
 20
121.3018512264864
 30
0.0
  0
LINE
  5
E2
330
1F
100
AcDbEntity
  8
0
  6
Continuous
 62
     7
370
    25
100
AcDbLine
 10
332.6031789634
 20
121.3739036931
 30
0.0
 11
334.9988408023
 21
121.3739036931
 31
0.0
  0
SPLINE
  5
E3
330
1F
100
AcDbEntity
  8
0
  6
Continuous
 62
     7
370
    25
100
AcDbSpline
210
0.0
220
0.0
230
1.0
 70
     8
 71
     3
 72
     8
 73
     4
 74
     0
 42
0.000000001
 43
0.00000001
 40
0.0
 40
0.0
 40
0.0
 40
0.0
 40
1.0
 40
1.0
 40
1.0
 40
1.0
 10
353.4765543879292
 20
121.3017476590063
 30
0.0
 10
353.4546376154416
 20
121.3254881075654
 30
0.0
 10
353.4327208429541
 20
121.349547259352
 30
0.0
 10
353.4108040704666
 20
121.3739036930949
 30
0.0
  0
SPLINE
  5
E4
330
1F
100
AcDbEntity
  8
0
  6
Continuous
 62
     7
370
    25
100
AcDbSpline
210
0.0
220
0.0
230
1.0
 70
     8
 71
     3
 72
    26
 73
    22
 74
     0
 42
0.000000001
 43
0.00000001
 40
0.0
 40
0.0
 40
0.0
 40
0.0
 40
0.0524616379916458
 40
0.1026498591861474
 40
0.1505655134537972
 40
0.1962095861908931
 40
0.2395832262515146
 40
0.2806877815543323
 40
0.3195248450324018
 40
0.3560963147377176
 40
0.3904044736499266
 40
0.4224520974393497
 40
0.4522426027388373
 40
0.4797802555350637
 40
0.5050704712281464
 40
0.5966394156800096
 40
0.6841917884819306
 40
0.7679874773571161
 40
0.8483228539139546
 40
0.9255341635201179
 40
1.0
 40
1.0
 40
1.0
 40
1.0
 10
351.0151595560191
 20
121.3738888010772
 30
0.0
 10
350.9972980717312
 20
121.3441153410371
 30
0.0
 10
350.9623491277562
 20
121.2858586491455
 30
0.0
 10
350.9115842942751
 20
121.203659668783
 30
0.0
 10
350.8635143366342
 20
121.1275787998838
 30
0.0
 10
350.8181703638701
 20
121.0576274514186
 30
0.0
 10
350.7755443843652
 20
120.9935202894671
 30
0.0
 10
350.7356380858563
 20
120.9350124499969
 30
0.0
 10
350.698450756741
 20
120.8818238723746
 30
0.0
 10
350.6639819341499
 20
120.8336658321368
 30
0.0
 10
350.6322318455172
 20
120.7902411588595
 30
0.0
 10
350.6031974409154
 20
120.7512510677614
 30
0.0
 10
350.5768861517134
 20
120.7163969692334
 30
0.0
 10
350.5532695221682
 20
120.6853919747812
 30
0.0
 10
350.5136238431616
 20
120.6331487561472
 30
0.0
 10
350.4620855463621
 20
120.5656194228894
 30
0.0
 10
350.4052594093809
 20
120.4934259766809
 30
0.0
 10
350.3611019814178
 20
120.4389420205584
 30
0.0
 10
350.3299243584759
 20
120.40167722939
 30
0.0
 10
350.3104647918368
 20
120.3792128771153
 30
0.0
 10
350.3083231941563
 20
120.3764903276881
 30
0.0
 10
350.3072717775996
 20
120.3751536930949
 30
0.0
  0
LINE
  5
E5
330
1F
100
AcDbEntity
  8
0
  6
Continuous
 62
     7
370
    25
100
AcDbLine
 10
351.015159556
 20
121.3739036931
 30
0.0
 11
353.4108040705
 21
121.3739036931
 31
0.0
  0
LINE
  5
E6
330
1F
100
AcDbEntity
  8
0
  6
Continuous
 62
     7
370
    25
100
AcDbLine
 10
350.9403401784
 20
121.3739036931
 30
0.0
 11
351.0154597767
 21
121.3739036931
 31
0.0
  0
SPLINE
  5
E7
330
1F
100
AcDbEntity
  8
0
  6
Continuous
 62
     7
370
    25
100
AcDbSpline
210
0.0
220
0.0
230
1.0
 70
     8
 71
     3
 72
     8
 73
     4
 74
     0
 42
0.000000001
 43
0.00000001
 40
0.0
 40
0.0
 40
0.0
 40
0.0
 40
1.0
 40
1.0
 40
1.0
 40
1.0
 10
350.9403401783861
 20
121.373903693095
 30
0.0
 10
350.8764313757262
 20
121.3119348296638
 30
0.0
 10
350.8126564563742
 20
121.2479587645472
 30
0.0
 10
350.7492963904932
 20
121.1824241082014
 30
0.0
  0
SPLINE
  5
E8
330
1F
100
AcDbEntity
  8
0
  6
Continuous
 62
     7
370
    25
100
AcDbSpline
210
0.0
220
0.0
230
1.0
 70
     8
 71
     3
 72
    24
 73
    20
 74
     0
 42
0.000000001
 43
0.00000001
 40
0.0
 40
0.0
 40
0.0
 40
0.0
 40
0.0410257106277056
 40
0.0818520099058079
 40
0.1225800578328279
 40
0.1633117464027038
 40
0.2041489402772657
 40
0.2451927184714171
 40
0.2865426449201731
 40
0.3282960933615133
 40
0.3705476475467034
 40
0.4133885920081624
 40
0.4569065022338602
 40
0.5011849368583825
 40
0.6001856774930499
 40
0.6987388860423923
 40
0.7976800645430001
 40
0.8978349910013272
 40
1.0
 40
1.0
 40
1.0
 40
1.0
 10
350.1357135846184
 20
120.2137636117634
 30
0.0
 10
350.1359083480594
 20
120.214030961921
 30
0.0
 10
350.1362969282659
 20
120.2145643627423
 30
0.0
 10
350.1403517159403
 20
120.2201361087414
 30
0.0
 10
350.1469456749202
 20
120.2292168578953
 30
0.0
 10
350.1563099358301
 20
120.242154318256
 30
0.0
 10
350.1683580496002
 20
120.2588727611618
 30
0.0
 10
350.1830806190605
 20
120.2794147719336
 30
0.0
 10
350.2004396119078
 20
120.3037961459804
 30
0.0
 10
350.2203967830612
 20
120.3320448900523
 30
0.0
 10
350.2429058327567
 20
120.3641904374534
 30
0.0
 10
350.2679150685181
 20
120.4002672774196
 30
0.0
 10
350.295364438043
 20
120.440310869939
 30
0.0
 10
350.3372875511093
 20
120.5022313132789
 30
0.0
 10
350.3964937263193
 20
120.5915438043735
 30
0.0
 10
350.4762733194387
 20
120.7160883964007
 30
0.0
 10
350.5622541044253
 20
120.8558731888905
 30
0.0
 10
350.6535388916483
 20
121.0102860078783
 30
0.0
 10
350.7167432457074
 20
121.1243320295309
 30
0.0
 10
350.7486593956735
 20
121.1819215735474
 30
0.0
  0
SPLINE
  5
E9
330
1F
100
AcDbEntity
  8
0
  6
Continuous
 62
     7
370
    25
100
AcDbSpline
210
0.0
220
0.0
230
1.0
 70
     8
 71
     3
 72
    13
 73
     9
 74
     0
 42
0.000000001
 43
0.00000001
 40
0.0
 40
0.0
 40
0.0
 40
0.0
 40
0.1621004456877203
 40
0.32594345520649
 40
0.4915935308810087
 40
0.6591130874452793
 40
0.8285624736348074
 40
1.0
 40
1.0
 40
1.0
 40
1.0
 10
332.6806892670293
 20
129.5114036930949
 30
0.0
 10
332.6788121606868
 20
129.5110692099942
 30
0.0
 10
332.6750377692934
 20
129.5103966481323
 30
0.0
 10
332.667190692114
 20
129.5049233637351
 30
0.0
 10
332.6577246323388
 20
129.4961038990733
 30
0.0
 10
332.6464437175367
 20
129.4834511420787
 30
0.0
 10
332.6335290990396
 20
129.4672991406831
 30
0.0
 10
332.6235333847941
 20
129.4534133407419
 30
0.0
 10
332.6185063788828
 20
129.4464299479925
 30
0.0
  0
LINE
  5
EA
330
1F
100
AcDbEntity
  8
0
  6
Continuous
 62
     7
370
    25
100
AcDbLine
 10
332.6184934111
 20
129.44642958
 30
0.0
 11
332.1942712463
 21
129.8952086653
 31
0.0
  0
LINE
  5
EB
330
1F
100
AcDbEntity
  8
0
  6
Continuous
 62
     7
370
    25
100
AcDbLine
 10
353.8195523022
 20
129.8952086908
 30
0.0
 11
353.3953148872
 21
129.4464157922
 31
0.0
  0
SPLINE
  5
EC
330
1F
100
AcDbEntity
  8
0
  6
Continuous
 62
     7
370
    25
100
AcDbSpline
210
0.0
220
0.0
230
1.0
 70
     8
 71
     3
 72
    13
 73
     9
 74
     0
 42
0.000000001
 43
0.00000001
 40
0.0
 40
0.0
 40
0.0
 40
0.0
 40
0.1706320847381217
 40
0.3395984166493647
 40
0.5069574113007884
 40
0.672769183166934
 40
0.8370955448651839
 40
1.0
 40
1.0
 40
1.0
 40
1.0
 10
353.3953148872252
 20
129.4464364346242
 30
0.0
 10
353.3903094168155
 20
129.453387807709
 30
0.0
 10
353.3803473406426
 20
129.4672226928467
 30
0.0
 10
353.3674735127487
 20
129.4833504513062
 30
0.0
 10
353.3562072002521
 20
129.4960191814632
 30
0.0
 10
353.3467298368172
 20
129.504875619298
 30
0.0
 10
353.3388476041239
 20
129.5103876477734
 30
0.0
 10
353.3350326978919
 20
129.5110659938536
 30
0.0
 10
353.3331335331765
 20
129.5114036930949
 30
0.0
  0
SPLINE
  5
ED
330
1F
100
AcDbEntity
  8
0
  6
Continuous
 62
     7
370
    25
100
AcDbSpline
210
0.0
220
0.0
230
1.0
 70
     8
 71
     3
 72
     8
 73
     4
 74
     0
 42
0.000000001
 43
0.00000001
 40
0.0
 40
0.0
 40
0.0
 40
0.0
 40
1.0
 40
1.0
 40
1.0
 40
1.0
 10
332.6184933378899
 20
129.4464293349253
 30
0.0
 10
332.620676822131
 20
129.443580669409
 30
0.0
 10
332.6228603063722
 20
129.4406398780115
 30
0.0
 10
332.6250437906132
 20
129.4376073807349
 30
0.0
  0
SPLINE
  5
EE
330
1F
100
AcDbEntity
  8
0
  6
Continuous
 62
     7
370
    25
100
AcDbSpline
210
0.0
220
0.0
230
1.0
 70
     8
 71
     3
 72
    13
 73
     9
 74
     0
 42
0.000000001
 43
0.00000001
 40
0.0
 40
0.0
 40
0.0
 40
0.0
 40
0.1705273303835771
 40
0.3393382731990408
 40
0.506559245496943
 40
0.6723203022115876
 40
0.8367549624391394
 40
1.0
 40
1.0
 40
1.0
 40
1.0
 10
335.064748432392
 20
129.4364038274104
 30
0.0
 10
335.0697838359344
 20
129.4444099501781
 30
0.0
 10
335.0798039607971
 20
129.4603416126799
 30
0.0
 10
335.0916070034526
 20
129.4789586377898
 30
0.0
 10
335.100949107164
 20
129.493597630776
 30
0.0
 10
335.1075447317868
 20
129.5038447002928
 30
0.0
 10
335.1116977544753
 20
129.5102276905605
 30
0.0
 10
335.1122236027843
 20
129.5110126421576
 30
0.0
 10
335.1124855724075
 20
129.5114036930949
 30
0.0
  0
LINE
  5
EF
330
1F
100
AcDbEntity
  8
0
  6
Continuous
 62
     7
370
    25
100
AcDbLine
 10
332.6259465337
 20
129.4364036931
 30
0.0
 11
335.064756893
 21
129.4364036931
 31
0.0
  0
LINE
  5
F0
330
1F
100
AcDbEntity
  8
0
  6
Continuous
 62
     7
370
    25
100
AcDbLine
 10
335.0734826218
 20
129.4364036931
 30
0.0
 11
335.0647613122
 21
129.4364036931
 31
0.0
  0
SPLINE
  5
F1
330
1F
100
AcDbEntity
  8
0
  6
Continuous
 62
     7
370
    25
100
AcDbSpline
210
0.0
220
0.0
230
1.0
 70
     8
 71
     3
 72
     8
 73
     4
 74
     0
 42
0.000000001
 43
0.00000001
 40
0.0
 40
0.0
 40
0.0
 40
0.0
 40
1.0
 40
1.0
 40
1.0
 40
1.0
 10
353.3878762431831
 20
129.4364036930873
 30
0.0
 10
353.3903621618696
 20
129.4398653923993
 30
0.0
 10
353.3928480805562
 20
129.4432095443082
 30
0.0
 10
353.3953339992427
 20
129.4464355362486
 30
0.0
  0
LINE
  5
F2
330
1F
100
AcDbEntity
  8
0
  6
Continuous
 62
     7
370
    25
100
AcDbLine
 10
350.9505721866
 20
129.4364036931
 30
0.0
 11
353.3876597969
 21
129.4364036931
 31
0.0
  0
SPLINE
  5
F3
330
1F
100
AcDbEntity
  8
0
  6
Continuous
 62
     7
370
    25
100
AcDbSpline
210
0.0
220
0.0
230
1.0
 70
     8
 71
     3
 72
    13
 73
     9
 74
     0
 42
0.000000001
 43
0.00000001
 40
0.0
 40
0.0
 40
0.0
 40
0.0
 40
0.1631595583946182
 40
0.3275424452610066
 40
0.4932858680133646
 40
0.6605236853186202
 40
0.8293862019304667
 40
1.0
 40
1.0
 40
1.0
 40
1.0
 10
350.9013372277984
 20
129.5114036930949
 30
0.0
 10
350.901595073285
 20
129.5110130427023
 30
0.0
 10
350.9021126975175
 20
129.5102288129209
 30
0.0
 10
350.9062592937614
 20
129.5038506436857
 30
0.0
 10
350.912852572437
 20
129.4936081975378
 30
0.0
 10
350.9221969673145
 20
129.4789712814888
 30
0.0
 10
350.9340067803282
 20
129.4603514226393
 30
0.0
 10
350.9440334976427
 20
129.4444137149924
 30
0.0
 10
350.9490727190824
 20
129.4364037516561
 30
0.0
  0
LINE
  5
F4
330
1F
100
AcDbEntity
  8
0
  6
Continuous
 62
     7
370
    25
100
AcDbLine
 10
350.9490623286
 20
129.4364036931
 30
0.0
 11
350.9403401784
 21
129.4364036931
 31
0.0
  0
SPLINE
  5
F5
330
1F
100
AcDbEntity
  8
0
  6
Continuous
 62
     7
370
    25
100
AcDbSpline
210
0.0
220
0.0
230
1.0
 70
     8
 71
     3
 72
    14
 73
    10
 74
     0
 42
0.000000001
 43
0.00000001
 40
0.0
 40
0.0
 40
0.0
 40
0.0
 40
0.0310276388093398
 40
0.0622853718693698
 40
0.1248003166924349
 40
0.2498289731770658
 40
0.4998892603621822
 40
0.7606803621577949
 40
1.0
 40
1.0
 40
1.0
 40
1.0
 10
353.9670053945621
 20
129.8931418677105
 30
0.0
 10
353.9626761010966
 20
129.8883579454319
 30
0.0
 10
353.9539854090627
 20
129.8787546243431
 30
0.0
 10
353.9365846304003
 20
129.859460310345
 30
0.0
 10
353.9061084705552
 20
129.8256953638912
 30
0.0
 10
353.8452870777357
 20
129.7582766050294
 30
0.0
 10
353.7573967353239
 20
129.6608099301642
 30
0.0
 10
353.6545590552402
 20
129.5466654182664
 30
0.0
 10
353.5873529437985
 20
129.4718806052601
 30
0.0
 10
353.5551925821501
 20
129.4360935826143
 30
0.0
  0
LINE
  5
F6
330
1F
100
AcDbEntity
  8
0
  6
Continuous
 62
     7
370
    25
100
AcDbLine
 10
353.5555210813
 20
129.4364036931
 30
0.0
 11
353.3878762432
 21
129.4364036931
 31
0.0
  0
LINE
  5
F7
330
1F
100
AcDbEntity
  8
0
  6
Continuous
 62
     7
370
    25
100
AcDbLine
 10
332.6259465337
 20
129.4364036931
 30
0.0
 11
332.4582943344
 21
129.4364036931
 31
0.0
  0
SPLINE
  5
F8
330
1F
100
AcDbEntity
  8
0
  6
Continuous
 62
     7
370
    25
100
AcDbSpline
210
0.0
220
0.0
230
1.0
 70
     8
 71
     3
 72
    11
 73
     7
 74
     0
 42
0.000000001
 43
0.00000001
 40
0.0
 40
0.0
 40
0.0
 40
0.0
 40
0.2392913840897591
 40
0.5001130134987114
 40
0.7515028526612877
 40
1.0
 40
1.0
 40
1.0
 40
1.0
 10
332.4585981474326
 20
129.4361168905833
 30
0.0
 10
332.4264415944986
 20
129.4718936091137
 30
0.0
 10
332.3592352023724
 20
129.546666056878
 30
0.0
 10
332.2562071126258
 20
129.6611247701927
 30
0.0
 10
332.1511164479627
 20
129.7772839563313
 30
0.0
 10
332.0814416278819
 20
129.8546718976469
 30
0.0
 10
332.0468058111894
 20
129.8931419582298
 30
0.0
  0
LINE
  5
F9
330
1F
100
AcDbEntity
  8
0
  6
Continuous
 62
     7
370
    25
100
AcDbLine
 10
353.4108040705
 20
121.3739036931
 30
0.0
 11
353.5553763665
 21
121.3739036931
 31
0.0
  0
SPLINE
  5
FA
330
1F
100
AcDbEntity
  8
0
  6
Continuous
 62
     7
370
    25
100
AcDbSpline
210
0.0
220
0.0
230
1.0
 70
     8
 71
     3
 72
    11
 73
     7
 74
     0
 42
0.000000001
 43
0.00000001
 40
0.0
 40
0.0
 40
0.0
 40
0.0
 40
0.239284509383631
 40
0.5001120454057238
 40
0.7515010915050501
 40
1.0
 40
1.0
 40
1.0
 40
1.0
 10
353.5550737443126
 20
121.3741894792915
 30
0.0
 10
353.5872348740739
 20
121.3383916302385
 30
0.0
 10
353.65445263267
 20
121.2635730155395
 30
0.0
 10
353.7574972811678
 20
121.149044751286
 30
0.0
 10
353.8626055100631
 20
121.032813757608
 30
0.0
 10
353.932291026691
 20
120.9553792619128
 30
0.0
 10
353.9669323391306
 20
120.916885860575
 30
0.0
  0
SPLINE
  5
FB
330
1F
100
AcDbEntity
  8
0
  6
Continuous
 62
     7
370
    25
100
AcDbSpline
210
0.0
220
0.0
230
1.0
 70
     8
 71
     3
 72
    14
 73
    10
 74
     0
 42
0.000000001
 43
0.00000001
 40
0.0
 40
0.0
 40
0.0
 40
0.0
 40
0.0310294147488059
 40
0.0622870907567357
 40
0.1248019217230938
 40
0.2498303511435398
 40
0.4998901825558308
 40
0.7606872171869626
 40
1.0
 40
1.0
 40
1.0
 40
1.0
 10
332.0469020764004
 20
120.9168859688514
 30
0.0
 10
332.051232272716
 20
120.9216731554215
 30
0.0
 10
332.0599245195112
 20
120.9312827444768
 30
0.0
 10
332.0773281478586
 20
120.9505887381827
 30
0.0
 10
332.1078088833936
 20
120.9843739538346
 30
0.0
 10
332.1686395051156
 20
121.0518330847816
 30
0.0
 10
332.2565444083002
 20
121.1493595905135
 30
0.0
 10
332.3593986529154
 20
121.2635735972795
 30
0.0
 10
332.4266161110619
 20
121.3384045573882
 30
0.0
 10
332.4587810404466
 20
121.3742127032784
 30
0.0
  0
LINE
  5
FC
330
1F
100
AcDbEntity
  8
0
  6
Continuous
 62
     7
370
    25
100
AcDbLine
 10
332.4584538304
 20
121.3739036931
 30
0.0
 11
332.603018753
 21
121.3739036931
 31
0.0
  0
LINE
  5
FD
330
1F
100
AcDbEntity
  8
0
  6
Continuous
 62
     7
370
    25
100
AcDbLine
 10
331.1362435353
 20
123.2178159506
 30
0.0
 11
331.5763061927
 21
123.2989036931
 31
0.0
  0
SPLINE
  5
FE
330
1F
100
AcDbEntity
  8
0
  6
Continuous
 62
     7
370
    25
100
AcDbSpline
210
0.0
220
0.0
230
1.0
 70
     8
 71
     3
 72
    25
 73
    21
 74
     0
 42
0.000000001
 43
0.00000001
 40
0.0
 40
0.0
 40
0.0
 40
0.0
 40
0.0274788704238406
 40
0.0560416006876649
 40
0.0856947086384779
 40
0.1164440166573039
 40
0.1482947438713698
 40
0.1812515840496028
 40
0.2153187716763797
 40
0.2505001382254737
 40
0.3330514552645295
 40
0.5015081958164058
 40
0.5771663066140428
 40
0.648898130301891
 40
0.716747770005482
 40
0.7807674423479443
 40
0.8410194131332148
 40
0.8975784849918017
 40
0.9505352047784471
 40
0.9999999999999999
 40
0.9999999999999999
 40
0.9999999999999999
 40
0.9999999999999999
 10
331.5763061926917
 20
123.2989036930949
 30
0.0
 10
331.5830143600355
 20
123.2697214885758
 30
0.0
 10
331.5966952875928
 20
123.2102060344243
 30
0.0
 10
331.6194600162476
 20
123.1198155373621
 30
0.0
 10
331.6443376534884
 20
123.0266839282389
 30
0.0
 10
331.671476891506
 20
122.9310978839634
 30
0.0
 10
331.7008382985371
 20
122.8333444143509
 30
0.0
 10
331.7324234688247
 20
122.7337637382956
 30
0.0
 10
331.7662703386887
 20
122.6327545987205
 30
0.0
 10
331.8179715686263
 20
122.4859877914591
 30
0.0
 10
331.9223305816384
 20
122.2217213785469
 30
0.0
 10
332.0432038093227
 20
121.9517517487218
 30
0.0
 10
332.1566968557751
 20
121.7343420740152
 30
0.0
 10
332.2279698233909
 20
121.6046385032851
 30
0.0
 10
332.2900443955168
 20
121.5007634259603
 30
0.0
 10
332.342628407684
 20
121.4209027921416
 30
0.0
 10
332.3858749536116
 20
121.3628841659907
 30
0.0
 10
332.4194817658317
 20
121.324780607338
 30
0.0
 10
332.4444287487044
 20
121.302778076343
 30
0.0
 10
332.4533882855664
 20
121.3001654629917
 30
0.0
 10
332.4577153222845
 20
121.2989036930949
 30
0.0
  0
LINE
  5
FF
330
1F
100
AcDbEntity
  8
0
  6
Continuous
 62
     7
370
    25
100
AcDbLine
 10
354.8775792649
 20
127.5924914356
 30
0.0
 11
354.4375166075
 21
127.5114036931
 31
0.0
  0
SPLINE
  5
100
330
1F
100
AcDbEntity
  8
0
  6
Continuous
 62
     7
370
    25
100
AcDbSpline
210
0.0
220
0.0
230
1.0
 70
     8
 71
     3
 72
    25
 73
    21
 74
     0
 42
0.000000001
 43
0.00000001
 40
0.0
 40
0.0
 40
0.0
 40
0.0
 40
0.0274788704220519
 40
0.0560416006846
 40
0.0856947086346483
 40
0.1164440166532229
 40
0.1482947438675477
 40
0.1812515840465501
 40
0.2153187716746058
 40
0.2505001382254875
 40
0.3330514552513183
 40
0.5015081958163713
 40
0.5771663066143402
 40
0.6488981303024295
 40
0.7167477700061697
 40
0.7807674423486859
 40
0.8410194131339161
 40
0.897578484992366
 40
0.9505352047787778
 40
1.0
 40
1.0
 40
1.0
 40
1.0
 10
354.4375166075142
 20
127.5114036930949
 30
0.0
 10
354.4308084401708
 20
127.5405858976121
 30
0.0
 10
354.4171275126141
 20
127.6001013517604
 30
0.0
 10
354.3943627839603
 20
127.6904918488185
 30
0.0
 10
354.3694851467201
 20
127.7836234579393
 30
0.0
 10
354.3423459087026
 20
127.8792095022141
 30
0.0
 10
354.3129845016713
 20
127.9769629718274
 30
0.0
 10
354.2813993313832
 20
128.0765436478853
 30
0.0
 10
354.2475524615182
 20
128.1775527874644
 30
0.0
 10
354.1958512315852
 20
128.3243195947164
 30
0.0
 10
354.0914922185715
 20
128.5885860076309
 30
0.0
 10
353.9706189908876
 20
128.8585556374593
 30
0.0
 10
353.8571259444307
 20
129.0759653121752
 30
0.0
 10
353.7858529768149
 20
129.2056688829057
 30
0.0
 10
353.7237784046889
 20
129.3095439602305
 30
0.0
 10
353.6711943925217
 20
129.389404594049
 30
0.0
 10
353.6279478465942
 20
129.4474232201997
 30
0.0
 10
353.5943410343741
 20
129.4855267788521
 30
0.0
 10
353.5693940515014
 20
129.5075293098469
 30
0.0
 10
353.5604345146394
 20
129.5101419231982
 30
0.0
 10
353.5561074779213
 20
129.5114036930949
 30
0.0
  0
SPLINE
  5
101
330
1F
100
AcDbEntity
  8
0
  6
Continuous
 62
     7
370
    25
100
AcDbSpline
210
0.0
220
0.0
230
1.0
 70
     8
 71
     3
 72
    25
 73
    21
 74
     0
 42
0.000000001
 43
0.00000001
 40
0.0
 40
0.0
 40
0.0
 40
0.0
 40
0.0288821753105771
 40
0.058363659400572
 40
0.088464720430548
 40
0.1192044006616737
 40
0.1506005800085666
 40
0.1826700399669859
 40
0.2154285269576224
 40
0.2488908143379852
 40
0.3610594471136693
 40
0.4984670131067402
 40
0.5822693905005265
 40
0.6661127642780991
 40
0.7499972937224167
 40
0.8007709755018199
 40
0.8511237700786715
 40
0.9010896024485537
 40
0.9507031914094952
 40
1.0
 40
1.0
 40
1.0
 40
1.0
 10
353.5561074779214
 20
121.2989036930949
 30
0.0
 10
353.558397746299
 20
121.2993319350708
 30
0.0
 10
353.563025806412
 20
121.3001973050976
 30
0.0
 10
353.5733360694992
 20
121.307272237799
 30
0.0
 10
353.58617213873
 20
121.3188407789593
 30
0.0
 10
353.6017856974727
 20
121.3355463550715
 30
0.0
 10
353.6201071408853
 20
121.3574832660876
 30
0.0
 10
353.6411547267165
 20
121.3848809015723
 30
0.0
 10
353.6649262987087
 20
121.4179153822546
 30
0.0
 10
353.711982828142
 20
121.4869060483787
 30
0.0
 10
353.7996772460006
 20
121.626932017798
 30
0.0
 10
353.9172289005323
 20
121.8462273190007
 30
0.0
 10
354.0287510648747
 20
122.0831573797805
 30
0.0
 10
354.1202103822228
 20
122.2989992536904
 30
0.0
 10
354.201092033401
 20
122.500560874569
 30
0.0
 10
354.2672369352691
 20
122.6794289549563
 30
0.0
 10
354.316587496095
 20
122.8308051560952
 30
0.0
 10
354.3615545129599
 20
122.9850493112179
 30
0.0
 10
354.40231222688
 20
123.1412051662983
 30
0.0
 10
354.4258068960984
 20
123.2464498732513
 30
0.0
 10
354.4375166075142
 20
123.2989036930949
 30
0.0
  0
LINE
  5
102
330
1F
100
AcDbEntity
  8
0
  6
Continuous
 62
     7
370
    25
100
AcDbLine
 10
354.8775792649
 20
123.2178159506
 30
0.0
 11
354.4375166075
 21
123.2989036931
 31
0.0
  0
SPLINE
  5
103
330
1F
100
AcDbEntity
  8
0
  6
Continuous
 62
     7
370
    25
100
AcDbSpline
210
0.0
220
0.0
230
1.0
 70
     8
 71
     3
 72
    25
 73
    21
 74
     0
 42
0.000000001
 43
0.00000001
 40
0.0
 40
0.0
 40
0.0
 40
0.0
 40
0.0288821753094393
 40
0.0583636593986225
 40
0.0884647204281144
 40
0.1192044006590791
 40
0.1506005800061348
 40
0.1826700399650394
 40
0.2154285269564808
 40
0.2488908143379647
 40
0.361059447113401
 40
0.4984670131067465
 40
0.5822693905006262
 40
0.6661127642782027
 40
0.7499972937224338
 40
0.8007709755032364
 40
0.8511237700807901
 40
0.9010896024506709
 40
0.9507031914109064
 40
1.0
 40
1.0
 40
1.0
 40
1.0
 10
332.4577153222845
 20
129.5114036930949
 30
0.0
 10
332.4554250539069
 20
129.5109754511191
 30
0.0
 10
332.4507969937941
 20
129.5101100810923
 30
0.0
 10
332.440486730707
 20
129.5030351483913
 30
0.0
 10
332.4276506614762
 20
129.4914666072316
 30
0.0
 10
332.4120371027336
 20
129.4747610311199
 30
0.0
 10
332.3937156593209
 20
129.4528241201041
 30
0.0
 10
332.3726680734896
 20
129.4254264846193
 30
0.0
 10
332.3488965014972
 20
129.3923920039364
 30
0.0
 10
332.3018399720648
 20
129.3234013378117
 30
0.0
 10
332.2141455542069
 20
129.1833753683917
 30
0.0
 10
332.0965938996738
 20
128.9640800671892
 30
0.0
 10
331.9850717353302
 20
128.7271500064094
 30
0.0
 10
331.8936124179821
 20
128.5113081324995
 30
0.0
 10
331.8127307668041
 20
128.3097465116194
 30
0.0
 10
331.746585864936
 20
128.1308784312299
 30
0.0
 10
331.6972353041096
 20
127.9795022300888
 30
0.0
 10
331.6522682872447
 20
127.8252580749659
 30
0.0
 10
331.6115105733249
 20
127.6691022198877
 30
0.0
 10
331.5880159041071
 20
127.563857512937
 30
0.0
 10
331.5763061926917
 20
127.5114036930949
 30
0.0
  0
LINE
  5
104
330
1F
100
AcDbEntity
  8
0
  6
Continuous
 62
     7
370
    25
100
AcDbLine
 10
331.1362435353
 20
127.5924914356
 30
0.0
 11
331.5763061927
 21
127.5114036931
 31
0.0
  0
SPLINE
  5
105
330
1F
100
AcDbEntity
  8
0
  6
Continuous
 62
     7
370
    25
100
AcDbSpline
210
0.0
220
0.0
230
1.0
 70
     8
 71
     3
 72
    15
 73
    11
 74
     0
 42
0.000000001
 43
0.00000001
 40
0.0
 40
0.0
 40
0.0
 40
0.0
 40
0.1361835441106048
 40
0.2976721489142183
 40
0.397050741949508
 40
0.496637746878435
 40
0.5964362006984231
 40
0.7637580076000893
 40
0.9173119606670107
 40
1.0
 40
1.0
 40
1.0
 40
1.0
 10
334.1090535118244
 20
127.5114036930949
 30
0.0
 10
334.1443144600846
 20
127.6318226642693
 30
0.0
 10
334.221388399597
 20
127.8950363598272
 30
0.0
 10
334.3461812204151
 20
128.2272582565264
 30
0.0
 10
334.4630864413548
 20
128.5067551500765
 30
0.0
 10
334.5606672012199
 20
128.7217605468035
 30
0.0
 10
334.6847662080829
 20
128.9604324233622
 30
0.0
 10
334.8152541716598
 20
129.1908694667222
 30
0.0
 10
334.9168970948402
 20
129.3656678989534
 30
0.0
 10
334.9499963057368
 20
129.418064234448
 30
0.0
 10
334.961581497788
 20
129.4364036930949
 30
0.0
  0
SPLINE
  5
106
330
1F
100
AcDbEntity
  8
0
  6
Continuous
 62
     7
370
    25
100
AcDbSpline
210
0.0
220
0.0
230
1.0
 70
     8
 71
     3
 72
    15
 73
    11
 74
     0
 42
0.000000001
 43
0.00000001
 40
0.0
 40
0.0
 40
0.0
 40
0.0
 40
0.1351922116967844
 40
0.2955052788112897
 40
0.3941604568314481
 40
0.4930225296348534
 40
0.5920945121114559
 40
0.758198319203085
 40
0.9106344939650397
 40
1.0
 40
1.0
 40
1.0
 40
1.0
 10
351.9047692883814
 20
123.2989036930949
 30
0.0
 10
351.8695083731576
 20
123.1784847843963
 30
0.0
 10
351.7924345058573
 20
122.9152712254011
 30
0.0
 10
351.6676411497447
 20
122.5830483163873
 30
0.0
 10
351.5507372953728
 20
122.3035540072049
 30
0.0
 10
351.4531520360708
 20
122.0885401014262
 30
0.0
 10
351.3290737502168
 20
121.849907411133
 30
0.0
 10
351.19845901875
 20
121.619230632329
 30
0.0
 10
351.0953811535676
 20
121.4420350910167
 30
0.0
 10
351.061422758741
 20
121.3883304838183
 30
0.0
 10
351.048872353269
 20
121.3684822371771
 30
0.0
  0
SPLINE
  5
107
330
1F
100
AcDbEntity
  8
0
  6
Continuous
 62
     7
370
    25
100
AcDbSpline
210
0.0
220
0.0
230
1.0
 70
     8
 71
     3
 72
    15
 73
    11
 74
     0
 42
0.000000001
 43
0.00000001
 40
0.0
 40
0.0
 40
0.0
 40
0.0
 40
0.0210215874042763
 40
0.0995174370238995
 40
0.236097070246486
 40
0.3979402345645534
 40
0.5486163820125471
 40
0.7000321414519953
 40
0.851781360940656
 40
1.0
 40
1.0
 40
1.0
 40
1.0
 10
334.9601356944994
 20
121.3739036930949
 30
0.0
 10
334.9572868836745
 20
121.3783883405971
 30
0.0
 10
334.9438004448813
 20
121.3996189268888
 30
0.0
 10
334.8963944709315
 20
121.4767538641193
 30
0.0
 10
334.8032511421318
 20
121.632683845996
 30
0.0
 10
334.6668321217923
 20
121.8816990707028
 30
0.0
 10
334.5175089415573
 20
122.1913379232448
 30
0.0
 10
334.3643452450259
 20
122.5333023127794
 30
0.0
 10
334.2187112523569
 20
122.9044106386738
 30
0.0
 10
334.1453181497616
 20
123.1684418787457
 30
0.0
 10
334.1090535118244
 20
123.2989036930949
 30
0.0
  0
LINE
  5
108
330
1F
100
AcDbEntity
  8
0
  6
Continuous
 62
     7
370
    25
100
AcDbLine
 10
334.4253136692
 20
123.3737669877
 30
0.0
 11
334.1090535118
 21
123.2989036931
 31
0.0
  0
SPLINE
  5
109
330
1F
100
AcDbEntity
  8
0
  6
Continuous
 62
     7
370
    25
100
AcDbSpline
210
0.0
220
0.0
230
1.0
 70
     8
 71
     3
 72
    14
 73
    10
 74
     0
 42
0.000000001
 43
0.00000001
 40
0.0
 40
0.0
 40
0.0
 40
0.0
 40
0.140050538934948
 40
0.2837941391409934
 40
0.4267315409796236
 40
0.5707684557843756
 40
0.7165839699842738
 40
0.8593076663238391
 40
1.0
 40
1.0
 40
1.0
 40
1.0
 10
334.4253136691659
 20
123.373766987695
 30
0.0
 10
334.4620805983681
 20
123.2282069564515
 30
0.0
 10
334.5365839819407
 20
122.9332485501916
 30
0.0
 10
334.6717732011259
 20
122.5151845413184
 30
0.0
 10
334.8156576042298
 20
122.1301318478839
 30
0.0
 10
334.959794344202
 20
121.7923238392983
 30
0.0
 10
335.0921900169851
 20
121.5123830486725
 30
0.0
 10
335.2031107978086
 20
121.2962425610372
 30
0.0
 10
335.2444462782459
 20
121.2201794153532
 30
0.0
 10
335.2649658840213
 20
121.1824204308934
 30
0.0
  0
LINE
  5
10A
330
1F
100
AcDbEntity
  8
0
  6
Continuous
 62
     7
370
    25
100
AcDbLine
 10
334.4253136692
 20
127.4365403985
 30
0.0
 11
334.1090535118
 21
127.5114036931
 31
0.0
  0
SPLINE
  5
10B
330
1F
100
AcDbEntity
  8
0
  6
Continuous
 62
     7
370
    25
100
AcDbSpline
210
0.0
220
0.0
230
1.0
 70
     8
 71
     3
 72
    25
 73
    21
 74
     0
 42
0.000000001
 43
0.00000001
 40
0.0
 40
0.0
 40
0.0
 40
0.0
 40
0.0278144320057639
 40
0.0555680196235574
 40
0.0833316253664654
 40
0.1111760352153096
 40
0.1391714221517776
 40
0.1673868326271671
 40
0.1958897140424394
 40
0.2247454979312721
 40
0.2540172492220529
 40
0.3796724409982623
 40
0.5056484635001489
 40
0.62975272906517
 40
0.7535891720570678
 40
0.803856480607963
 40
0.8533396843413759
 40
0.902326439833779
 40
0.9511131859205574
 40
0.9999999999999999
 40
0.9999999999999999
 40
0.9999999999999999
 40
0.9999999999999999
 10
335.2929353108145
 20
129.6789019842774
 30
0.0
 10
335.2927875594997
 20
129.6786354417239
 30
0.0
 10
335.292492380078
 20
129.6781029396816
 30
0.0
 10
335.2888676810621
 20
129.6715554909855
 30
0.0
 10
335.2829217853918
 20
129.6607862476993
 30
0.0
 10
335.2744470624767
 20
129.6453755117749
 30
0.0
 10
335.2635320756376
 20
129.6254191355211
 30
0.0
 10
335.2501960073992
 20
129.6008690390507
 30
0.0
 10
335.2344882427123
 20
129.5717124152948
 30
0.0
 10
335.2164566545544
 20
129.5379164438613
 30
0.0
 10
335.1740391098075
 20
129.4575096858063
 30
0.0
 10
335.0935180700534
 20
129.3005212361346
 30
0.0
 10
334.9600917231808
 20
129.0187354983918
 30
0.0
 10
334.8160147464965
 20
128.6808633887626
 30
0.0
 10
334.7003369950453
 20
128.3721824750257
 30
0.0
 10
334.6178255198277
 20
128.1261517552696
 30
0.0
 10
334.5649038953031
 20
127.9573258639987
 30
0.0
 10
334.5150467609256
 20
127.786010292987
 30
0.0
 10
334.4680287676942
 20
127.6123279427637
 30
0.0
 10
334.439561756965
 20
127.4951762544578
 30
0.0
 10
334.4253136691659
 20
127.4365403984948
 30
0.0
  0
SPLINE
  5
10C
330
1F
100
AcDbEntity
  8
0
  6
Continuous
 62
     7
370
    25
100
AcDbSpline
210
0.0
220
0.0
230
1.0
 70
     8
 71
     3
 72
    15
 73
    11
 74
     0
 42
0.000000001
 43
0.00000001
 40
0.0
 40
0.0
 40
0.0
 40
0.0
 40
0.0210215874059965
 40
0.0995174370240547
 40
0.2360970702503468
 40
0.3979402345646559
 40
0.5486163820126447
 40
0.7000321414520474
 40
0.8517813609410961
 40
0.9999999999999999
 40
0.9999999999999999
 40
0.9999999999999999
 40
0.9999999999999999
 10
351.0536871057056
 20
129.4364036930949
 30
0.0
 10
351.0565359165308
 20
129.4319190455923
 30
0.0
 10
351.0700223553241
 20
129.4106884593004
 30
0.0
 10
351.117428329276
 20
129.3335535220688
 30
0.0
 10
351.2105716580755
 20
129.1776235401919
 30
0.0
 10
351.3469906784146
 20
128.9286083154845
 30
0.0
 10
351.4963138586489
 20
128.6189694629451
 30
0.0
 10
351.6494775551801
 20
128.2770050734101
 30
0.0
 10
351.795111547849
 20
127.9058967475156
 30
0.0
 10
351.8685046504443
 20
127.6418655074437
 30
0.0
 10
351.9047692883814
 20
127.5114036930949
 30
0.0
  0
LINE
  5
10D
330
1F
100
AcDbEntity
  8
0
  6
Continuous
 62
     7
370
    25
100
AcDbLine
 10
351.588509131
 20
127.4365403985
 30
0.0
 11
351.9047692884
 21
127.5114036931
 31
0.0
  0
SPLINE
  5
10E
330
1F
100
AcDbEntity
  8
0
  6
Continuous
 62
     7
370
    25
100
AcDbSpline
210
0.0
220
0.0
230
1.0
 70
     8
 71
     3
 72
    25
 73
    21
 74
     0
 42
0.000000001
 43
0.00000001
 40
0.0
 40
0.0
 40
0.0
 40
0.0
 40
0.0269872354798654
 40
0.0539362690261339
 40
0.0809037148831245
 40
0.107946071654785
 40
0.1351193706858311
 40
0.1624788388357973
 40
0.1900785854184274
 40
0.2179713214291598
 40
0.2462081170984737
 40
0.3700050494706795
 40
0.4947542611659102
 40
0.6210439034699656
 40
0.7446557472315446
 40
0.7967060293742283
 40
0.8478613449334612
 40
0.8985210411995624
 40
0.9490962115261248
 40
1.0
 40
1.0
 40
1.0
 40
1.0
 10
351.58850913104
 20
127.4365403984948
 30
0.0
 10
351.5807283863159
 20
127.4689368035226
 30
0.0
 10
351.5651779109449
 20
127.5336837546641
 30
0.0
 10
351.5404925049716
 20
127.6303302910931
 30
0.0
 10
351.5148725479725
 20
127.7264243795845
 30
0.0
 10
351.488229684345
 20
127.8219366503013
 30
0.0
 10
351.4606044990605
 20
127.916861377694
 30
0.0
 10
351.4320027200013
 20
128.0111875338296
 30
0.0
 10
351.4024406303598
 20
128.1049038782787
 30
0.0
 10
351.3719274833127
 20
128.1980079621687
 30
0.0
 10
351.3051932787235
 20
128.3942732042815
 30
0.0
 10
351.1980101026278
 20
128.6803463198846
 30
0.0
 10
351.0542300123189
 20
129.0176362158785
 30
0.0
 10
350.9209815561068
 20
129.2991453927024
 30
0.0
 10
350.8333103798936
 20
129.4701363228806
 30
0.0
 10
350.7824353441018
 20
129.5660491412623
 30
0.0
 10
350.7547661894503
 20
129.6172663447171
 30
0.0
 10
350.7350672713328
 20
129.6532491388021
 30
0.0
 10
350.7228197626292
 20
129.6754190271241
 30
0.0
 10
350.7215329694732
 20
129.6777384948577
 30
0.0
 10
350.7208874893914
 20
129.6789019842774
 30
0.0
  0
LINE
  5
10F
330
1F
100
AcDbEntity
  8
0
  6
Continuous
 62
     7
370
    25
100
AcDbLine
 10
351.588509131
 20
123.3737669877
 30
0.0
 11
351.9047692884
 21
123.2989036931
 31
0.0
  0
SPLINE
  5
110
330
1F
100
AcDbEntity
  8
0
  6
Continuous
 62
     7
370
    25
100
AcDbSpline
210
0.0
220
0.0
230
1.0
 70
     8
 71
     3
 72
    25
 73
    21
 74
     0
 42
0.000000001
 43
0.00000001
 40
0.0
 40
0.0
 40
0.0
 40
0.0
 40
0.0278144320063459
 40
0.0555680196245752
 40
0.0833316253677715
 40
0.1111760352167582
 40
0.1391714221532259
 40
0.1673868326284758
 40
0.1958897140434715
 40
0.2247454979318968
 40
0.2540172492221455
 40
0.3796724410010767
 40
0.5056484635002251
 40
0.6297527290687337
 40
0.7535891720571736
 40
0.8038564806093723
 40
0.8533396843434523
 40
0.9023264398358549
 40
0.9511131859219458
 40
1.0
 40
1.0
 40
1.0
 40
1.0
 10
350.7208874893914
 20
121.1314054019124
 30
0.0
 10
350.7210352407062
 20
121.1316719444659
 30
0.0
 10
350.7213304201279
 20
121.1322044465082
 30
0.0
 10
350.7249551191437
 20
121.1387518952043
 30
0.0
 10
350.730901014814
 20
121.1495211384905
 30
0.0
 10
350.7393757377291
 20
121.1649318744148
 30
0.0
 10
350.7502907245682
 20
121.1848882506686
 30
0.0
 10
350.7636267928066
 20
121.209438347139
 30
0.0
 10
350.7793345574935
 20
121.238594970895
 30
0.0
 10
350.7973661456514
 20
121.2723909423284
 30
0.0
 10
350.8397836903997
 20
121.3527977003859
 30
0.0
 10
350.9203047301534
 20
121.509786150057
 30
0.0
 10
351.0537310770274
 20
121.7915718878032
 30
0.0
 10
351.1978080537106
 20
122.1294439974303
 30
0.0
 10
351.3134858051621
 20
122.4381249111688
 30
0.0
 10
351.3959972803796
 20
122.6841556309245
 30
0.0
 10
351.4489189049047
 20
122.8529815221977
 30
0.0
 10
351.4987760392821
 20
123.0242970932094
 30
0.0
 10
351.5457940325127
 20
123.1979794434302
 30
0.0
 10
351.5742610432412
 20
123.3151311317337
 30
0.0
 10
351.58850913104
 20
123.373766987695
 30
0.0
  0
ARC
  5
111
330
1F
100
AcDbEntity
  8
0
  6
Continuous
 62
     7
370
    25
100
AcDbCircle
 10
343.0069114001
 20
125.4051536931
 30
0.0
 40
9.143750000000006
100
AcDbArc
 50
346.6824039243
 51
13.3175960757
  0
ARC
  5
112
330
1F
100
AcDbEntity
  8
0
  6
Continuous
 62
     7
370
    25
100
AcDbCircle
 10
343.0069114001
 20
125.4051536931
 30
0.0
 40
8.818749999999973
100
AcDbArc
 50
346.6824039243
 51
13.3175960757
  0
ARC
  5
113
330
1F
100
AcDbEntity
  8
0
  6
Continuous
 62
     7
370
    25
100
AcDbCircle
 10
343.0069114001
 20
125.4051536931
 30
0.0
 40
11.62303852141071
100
AcDbArc
 50
349.5595567507
 51
10.4404432493
  0
ARC
  5
114
330
1F
100
AcDbEntity
  8
0
  6
Continuous
 62
     7
370
    25
100
AcDbCircle
 10
343.0069114001
 20
125.4051536931
 30
0.0
 40
11.6230385214107
100
AcDbArc
 50
169.5595567507
 51
190.4404432494
  0
ARC
  5
115
330
1F
100
AcDbEntity
  8
0
  6
Continuous
 62
     7
370
    25
100
AcDbCircle
 10
343.0069114001
 20
125.4051536931
 30
0.0
 40
9.143750000000006
100
AcDbArc
 50
166.6824039243
 51
193.3175960757
  0
ARC
  5
116
330
1F
100
AcDbEntity
  8
0
  6
Continuous
 62
     7
370
    25
100
AcDbCircle
 10
343.0069114001
 20
125.4051536931
 30
0.0
 40
8.818749999999973
100
AcDbArc
 50
166.6824039243
 51
193.3175960757
  0
CIRCLE
  5
117
330
1F
100
AcDbEntity
  8
0
  6
Continuous
 62
     7
370
    25
100
AcDbCircle
 10
343.0069114001
 20
125.4051536931
 30
0.0
 40
7.774999999999977
  0
CIRCLE
  5
118
330
1F
100
AcDbEntity
  8
0
  6
Continuous
 62
     7
370
    25
100
AcDbCircle
 10
343.0069114001
 20
125.4051536931
 30
0.0
 40
2.615470053837953
  0
CIRCLE
  5
119
330
1F
100
AcDbEntity
  8
0
  6
Continuous
 62
     7
370
    25
100
AcDbCircle
 10
343.0069114001
 20
125.4051536931
 30
0.0
 40
2.5
  0
CIRCLE
  5
11A
330
1F
100
AcDbEntity
  8
0
  6
Continuous
 62
     7
370
    25
100
AcDbCircle
 10
343.0069114001
 20
125.4051536931
 30
0.0
 40
13.42500000000001
  0
CIRCLE
  5
11B
330
1F
100
AcDbEntity
  8
0
  6
Continuous
 62
     7
370
    25
100
AcDbCircle
 10
343.0069114001
 20
125.4051536931
 30
0.0
 40
15.73750000000001
  0
CIRCLE
  5
11C
330
1F
100
AcDbEntity
  8
0
  6
Continuous
 62
     7
370
    25
100
AcDbCircle
 10
343.0069114001
 20
125.4051536931
 30
0.0
 40
2.0
  0
CIRCLE
  5
11D
330
1F
100
AcDbEntity
  8
0
  6
Continuous
 62
     7
370
    25
100
AcDbCircle
 10
343.0069114001
 20
125.4051536931
 30
0.0
 40
1.375
  0
CIRCLE
  5
11E
330
1F
100
AcDbEntity
  8
0
  6
Continuous
 62
     7
370
    25
100
AcDbCircle
 10
343.0069114001
 20
125.4051536931
 30
0.0
 40
1.0
  0
LINE
  5
11F
330
1F
100
AcDbEntity
  8
VERMASSUNG
100
AcDbLine
 10
343.0069114001
 20
125.4051536931
 30
0.0
 11
343.0069114001
 21
144.9196536931
 31
0.0
  0
LINE
  5
120
330
1F
100
AcDbEntity
  8
VERMASSUNG
  6
CENTERX2
100
AcDbLine
 10
343.0069114001
 20
125.4051536931
 30
0.0
 11
323.4947548614
 21
125.4051536931
 31
0.0
  0
INSERT
  5
12C
330
1F
100
AcDbEntity
  8
VERMASSUNG
100
AcDbBlockReference
  2
SW_CENTERMARKSYMBOL_0
 10
343.0069114001
 20
125.4051536931
 30
0.0
  0
LINE
  5
12D
330
1F
100
AcDbEntity
  8
0
  6
CENTER
 62
     7
370
    18
100
AcDbLine
 10
343.0069114001
 20
125.4051536931
 30
0.0
 11
343.0069114001
 21
144.9126198163
 31
0.0
  0
LINE
  5
12E
330
1F
100
AcDbEntity
  8
0
  6
CENTER
 62
     7
370
    18
100
AcDbLine
 10
343.0069114001
 20
125.4051536931
 30
0.0
 11
362.5214114001
 21
125.4051536931
 31
0.0
  0
LINE
  5
12F
330
1F
100
AcDbEntity
  8
0
  6
Continuous
 62
     7
370
    18
100
AcDbLine
 10
355.0069114001
 20
142.9126198163
 30
0.0
 11
343.0069114001
 21
142.9126198163
 31
0.0
  0
SOLID
  5
130
330
1F
100
AcDbEntity
  8
0
  6
Continuous
 62
     7
370
    18
100
AcDbTrace
 10
343.0069114001
 20
142.9126198163
 30
0.0
 11
349.0069114001
 21
141.4126198163
 31
0.0
 12
349.0069114001
 22
144.4126198163
 32
0.0
 13
349.0069114001
 23
144.4126198163
 33
0.0
  0
LINE
  5
131
330
1F
100
AcDbEntity
  8
0
  6
Continuous
 62
     7
370
    18
100
AcDbLine
 10
372.5214114001
 20
125.4051536931
 30
0.0
 11
360.5214114001
 21
125.4051536931
 31
0.0
  0
SOLID
  5
132
330
1F
100
AcDbEntity
  8
0
  6
Continuous
 62
     7
370
    18
100
AcDbTrace
 10
360.5214114001
 20
125.4051536931
 30
0.0
 11
366.5214114001
 21
123.9051536931
 31
0.0
 12
366.5214114001
 22
126.9051536931
 32
0.0
 13
366.5214114001
 23
126.9051536931
 33
0.0
  0
MTEXT
  5
133
330
1F
100
AcDbEntity
  8
0
  6
Continuous
 62
     7
100
AcDbMText
 10
351.8571820768
 20
149.5617927486
 30
0.0
 40
3.5
 41
0.0
 71
     1
 72
     1
  1
A
  7
SLDTEXTSTYLE0
 73
     1
 44
1.0
  0
MTEXT
  5
134
330
1F
100
AcDbEntity
  8
0
  6
Continuous
 62
     7
100
AcDbMText
 10
369.3716820768
 20
123.1909791066
 30
0.0
 40
3.5
 41
0.0
 71
     1
 72
     1
  1
A
  7
SLDTEXTSTYLE0
 73
     1
 44
1.0
  0
LINE
  5
135
330
1F
100
AcDbEntity
  8
VERMASSUNG
  6
CENTERX2
370
    18
100
AcDbLine
 10
331.3387325775
 20
122.3751536931
 30
0.0
 11
337.6851795816
 21
122.3751536931
 31
0.0
  0
LINE
  5
136
330
1F
100
AcDbEntity
  8
VERMASSUNG
  6
CENTERX2
370
    18
100
AcDbLine
 10
330.3694947845
 20
123.2989036931
 30
0.0
 11
337.1384445255
 21
123.2989036931
 31
0.0
  0
LINE
  5
137
330
1F
100
AcDbEntity
  8
VERMASSUNG
  6
CENTERX2
370
    18
100
AcDbLine
 10
330.3701404267
 20
127.5114036931
 30
0.0
 11
337.1399857715
 21
127.5114036931
 31
0.0
  0
LINE
  5
138
330
1F
100
AcDbEntity
  8
VERMASSUNG
  6
CENTERX2
370
    18
100
AcDbLine
 10
349.6125919184
 20
127.5114036931
 30
0.0
 11
356.5673112627
 21
127.5114036931
 31
0.0
  0
LINE
  5
139
330
1F
100
AcDbEntity
  8
VERMASSUNG
  6
CENTERX2
370
    18
100
AcDbLine
 10
349.7187264187
 20
123.2989036931
 30
0.0
 11
356.5669641551
 21
123.2989036931
 31
0.0
  0
LINE
  5
13A
330
1F
100
AcDbEntity
  8
VERMASSUNG
  6
CENTERX2
370
    18
100
AcDbLine
 10
349.110613726
 20
122.3751536931
 30
0.0
 11
355.4549317747
 21
122.3751536931
 31
0.0
  0
LINE
  5
13B
330
1F
100
AcDbEntity
  8
VERMASSUNG
  6
CENTERX2
370
    18
100
AcDbLine
 10
346.6506614001
 20
131.7163138232
 30
0.0
 11
351.1855254304
 21
139.570928729
 31
0.0
  0
LINE
  5
13C
330
1F
100
AcDbEntity
  8
VERMASSUNG
  6
CENTERX2
370
    18
100
AcDbLine
 10
347.3756614001
 20
117.8382567275
 30
0.0
 11
352.3788618834
 21
109.1724592901
 31
0.0
  0
LINE
  5
13D
330
1F
100
AcDbEntity
  8
0
  6
Continuous
 62
     7
370
    25
100
AcDbLine
 10
177.7393563766
 20
93.9301536931
 30
0.0
 11
184.105158572
 21
93.9301536931
 31
0.0
  0
ARC
  5
13E
330
1F
100
AcDbEntity
  8
0
  6
Continuous
 62
     7
370
    25
100
AcDbCircle
 10
177.7393563766
 20
94.1301536931
 30
0.0
 40
0.2000000000000171
100
AcDbArc
 50
180.0
 51
270.0
  0
ARC
  5
13F
330
1F
100
AcDbEntity
  8
0
  6
Continuous
 62
     7
370
    25
100
AcDbCircle
 10
194.5393563766
 20
94.9301536931
 30
0.0
 40
1.0
100
AcDbArc
 50
270.0
 51
0.0
  0
ARC
  5
140
330
1F
100
AcDbEntity
  8
0
  6
Continuous
 62
     7
370
    25
100
AcDbCircle
 10
177.110421502
 20
99.8551536931
 30
0.0
 40
0.8000000000000081
100
AcDbArc
 50
57.576802718
 51
107.5
  0
LINE
  5
141
330
1F
100
AcDbEntity
  8
0
  6
Continuous
 62
     7
370
    25
100
AcDbLine
 10
163.0538680827
 20
101.132585105
 30
0.0
 11
176.3791743366
 21
100.4634156476
 31
0.0
  0
LINE
  5
142
330
1F
100
AcDbEntity
  8
0
  6
Continuous
 62
     7
370
    25
100
AcDbLine
 10
139.0893563766
 20
102.3360335655
 30
0.0
 11
147.1442037621
 21
101.9315357062
 31
0.0
  0
LINE
  5
143
330
1F
100
AcDbEntity
  8
0
  6
Continuous
 62
     7
370
    25
100
AcDbLine
 10
176.3791743366
 20
100.4634156476
 30
0.0
 11
176.8698568624
 21
100.6181272537
 31
0.0
  0
LINE
  5
144
330
1F
100
AcDbEntity
  8
0
  6
Continuous
 62
     7
370
    25
100
AcDbLine
 10
137.5893563766
 20
103.2020589693
 30
0.0
 11
139.0893563766
 21
102.3360335655
 31
0.0
  0
LINE
  5
145
330
1F
100
AcDbEntity
  8
0
  6
Continuous
 62
     7
370
    25
100
AcDbLine
 10
190.7735541812
 20
93.9301536931
 30
0.0
 11
194.5393563766
 21
93.9301536931
 31
0.0
  0
ARC
  5
146
330
1F
100
AcDbEntity
  8
0
  6
Continuous
 62
     7
370
    25
100
AcDbCircle
 10
198.5393563766
 20
112.752476395
 30
0.0
 40
2.999999999999996
100
AcDbArc
 50
94.5
 51
180.0
  0
LINE
  5
147
330
1F
100
AcDbEntity
  8
0
  6
Continuous
 62
     7
370
    25
100
AcDbLine
 10
184.105158572
 20
93.9301536931
 30
0.0
 11
185.5643563766
 21
96.4575584289
 31
0.0
  0
ARC
  5
148
330
1F
100
AcDbEntity
  8
0
  6
Continuous
 62
     7
370
    25
100
AcDbCircle
 10
186.5643563766
 20
96.5551536931
 30
0.0
 40
1.0
100
AcDbArc
 50
90.0
 51
180.0
  0
LINE
  5
149
330
1F
100
AcDbEntity
  8
0
  6
Continuous
 62
     7
370
    25
100
AcDbLine
 10
189.3143563766
 20
96.4575584289
 30
0.0
 11
190.7735541812
 21
93.9301536931
 31
0.0
  0
LINE
  5
14A
330
1F
100
AcDbEntity
  8
0
  6
Continuous
 62
     7
370
    25
100
AcDbLine
 10
186.5643563766
 20
97.5551536931
 30
0.0
 11
188.3143563766
 21
97.5551536931
 31
0.0
  0
ARC
  5
14B
330
1F
100
AcDbEntity
  8
0
  6
Continuous
 62
     7
370
    25
100
AcDbCircle
 10
188.3143563766
 20
96.5551536931
 30
0.0
 40
1.0
100
AcDbArc
 50
0.0
 51
90.0
  0
LINE
  5
14C
330
1F
100
AcDbEntity
  8
0
  6
Continuous
 62
     7
370
    25
100
AcDbLine
 10
198.3039790894
 20
115.7432283962
 30
0.0
 11
257.0785859244
 21
120.3688902721
 31
0.0
  0
ARC
  5
14D
330
1F
100
AcDbEntity
  8
0
  6
Continuous
 62
     7
370
    25
100
AcDbCircle
 10
257.0393563766
 20
120.8673489389
 30
0.0
 40
0.5
100
AcDbArc
 50
274.5
 51
0.0
  0
LINE
  5
14E
330
1F
100
AcDbEntity
  8
0
  6
Continuous
 62
     7
370
    25
100
AcDbLine
 10
185.5643563766
 20
101.951596837
 30
0.0
 11
185.5643563766
 21
125.4051536931
 31
0.0
  0
SPLINE
  5
14F
330
1F
100
AcDbEntity
  8
0
  6
Continuous
 62
     7
370
    25
100
AcDbSpline
210
0.0
220
0.0
230
1.0
 70
     8
 71
     3
 72
     8
 73
     4
 74
     0
 42
0.000000001
 43
0.00000001
 40
0.0
 40
0.0
 40
0.0
 40
0.0
 40
1.0
 40
1.0
 40
1.0
 40
1.0
 10
185.1968327104361
 20
101.1486207305795
 30
0.0
 10
185.3145672152656
 20
101.4162644101954
 30
0.0
 10
185.4380333282239
 20
101.6852297125277
 30
0.0
 10
185.5643563765841
 20
101.9515968370381
 30
0.0
  0
SPLINE
  5
150
330
1F
100
AcDbEntity
  8
0
  6
Continuous
 62
     7
370
    25
100
AcDbSpline
210
0.0
220
0.0
230
1.0
 70
     8
 71
     3
 72
     8
 73
     4
 74
     0
 42
0.000000001
 43
0.00000001
 40
0.0
 40
0.0
 40
0.0
 40
0.0
 40
1.0
 40
1.0
 40
1.0
 40
1.0
 10
184.105158572014
 20
100.3474283714606
 30
0.0
 10
184.4750459527436
 20
100.6218201903926
 30
0.0
 10
184.8403794455051
 20
100.8922464984891
 30
0.0
 10
185.1968327104361
 20
101.1486207305795
 30
0.0
  0
LINE
  5
151
330
1F
100
AcDbEntity
  8
0
  6
Continuous
 62
     7
370
    25
100
AcDbLine
 10
184.105158572
 20
100.3474283715
 30
0.0
 11
184.105158572
 21
125.4051536931
 31
0.0
  0
SPLINE
  5
152
330
1F
100
AcDbEntity
  8
0
  6
Continuous
 62
     7
370
    25
100
AcDbSpline
210
0.0
220
0.0
230
1.0
 70
     8
 71
     3
 72
    27
 73
    23
 74
     0
 42
0.000000001
 43
0.00000001
 40
0.0
 40
0.0
 40
0.0
 40
0.0
 40
0.1250000000000002
 40
0.1250000000000002
 40
0.2500000000000003
 40
0.2500000000000003
 40
0.3750000000000005
 40
0.3750000000000005
 40
0.4375000000000003
 40
0.4375000000000003
 40
0.5000000000000002
 40
0.5625000000000001
 40
0.5625000000000001
 40
0.6249999999999999
 40
0.6249999999999999
 40
0.7499999999999997
 40
0.7499999999999997
 40
0.8124999999999998
 40
0.8124999999999998
 40
0.8749999999999998
 40
0.8749999999999998
 40
1.0
 40
1.0
 40
1.0
 40
1.0
 10
184.105158572014
 20
96.3811547785467
 30
0.0
 10
183.8352016780467
 20
96.481033866409
 30
0.0
 10
183.5915446538295
 20
96.59233912656804
 30
0.0
 10
183.1589595216243
 20
96.8418249322441
 30
0.0
 10
182.9703649544281
 20
96.9807674503113
 30
0.0
 10
182.6679251780673
 20
97.2774604854852
 30
0.0
 10
182.5513419307765
 20
97.43647909484949
 30
0.0
 10
182.4320832583517
 20
97.69350961874375
 30
0.0
 10
182.40186659132
 20
97.78226242714884
 30
0.0
 10
182.3619699946074
 20
97.96153818403944
 30
0.0
 10
182.3420085511594
 20
98.14370678728199
 30
0.0
 10
182.3614438527473
 20
98.33166950837035
 30
0.0
 10
182.4008967304306
 20
98.52253808533489
 30
0.0
 10
182.4309254138538
 20
98.61998726578042
 30
0.0
 10
182.549400401986
 20
98.91032411257767
 30
0.0
 10
182.6657412170948
 20
99.10241032025358
 30
0.0
 10
182.8937776285923
 20
99.38721426983497
 30
0.0
 10
182.9793115480229
 20
99.48208525839831
 30
0.0
 10
183.1656250981585
 20
99.66744632625392
 30
0.0
 10
183.2662537867308
 20
99.75792457818632
 30
0.0
 10
183.5895152710668
 20
100.0226050336982
 30
0.0
 10
183.8337959567896
 20
100.1903886231526
 30
0.0
 10
184.105158572014
 20
100.3474283714606
 30
0.0
  0
LINE
  5
153
330
1F
100
AcDbEntity
  8
0
  6
Continuous
 62
     7
370
    25
100
AcDbLine
 10
184.105158572
 20
93.9301536931
 30
0.0
 11
184.105158572
 21
96.3811547785
 31
0.0
  0
LINE
  5
154
330
1F
100
AcDbEntity
  8
0
  6
Continuous
 62
     7
370
    25
100
AcDbLine
 10
184.105158572
 20
156.8801536931
 30
0.0
 11
177.7393563766
 21
156.8801536931
 31
0.0
  0
LINE
  5
155
330
1F
100
AcDbEntity
  8
0
  6
Continuous
 62
     7
370
    25
100
AcDbLine
 10
177.5393563766
 20
94.1301536931
 30
0.0
 11
177.5393563766
 21
125.4051536931
 31
0.0
  0
ARC
  5
156
330
1F
100
AcDbEntity
  8
0
  6
Continuous
 62
     7
370
    25
100
AcDbCircle
 10
177.7393563766
 20
156.6801536931
 30
0.0
 40
0.2000000000000171
100
AcDbArc
 50
90.0
 51
180.0
  0
SPLINE
  5
157
330
1F
100
AcDbEntity
  8
0
  6
Continuous
 62
     7
370
    25
100
AcDbSpline
210
0.0
220
0.0
230
1.0
 70
     8
 71
     3
 72
    14
 73
    10
 74
     0
 42
0.000000001
 43
0.00000001
 40
0.0
 40
0.0
 40
0.0
 40
0.0
 40
0.25
 40
0.25
 40
0.5
 40
0.5
 40
0.75
 40
0.75
 40
1.0
 40
1.0
 40
1.0
 40
1.0
 10
194.5393563765841
 20
97.33203376803854
 30
0.0
 10
194.6344268642497
 20
97.45715170284217
 30
0.0
 10
194.6947311774694
 20
97.59794723521335
 30
0.0
 10
194.7749947614518
 20
97.88381753391026
 30
0.0
 10
194.7939109283629
 20
98.03060307107748
 30
0.0
 10
194.7939170458214
 20
98.32039394543463
 30
0.0
 10
194.7752700368554
 20
98.46297913147994
 30
0.0
 10
194.6953117331238
 20
98.74840706719914
 30
0.0
 10
194.6342213257207
 20
98.8917017994797
 30
0.0
 10
194.5393563765841
 20
99.04253710222606
 30
0.0
  0
LINE
  5
158
330
1F
100
AcDbEntity
  8
0
  6
Continuous
 62
     7
370
    25
100
AcDbLine
 10
195.5393563766
 20
125.4051536931
 30
0.0
 11
195.5393563766
 21
94.9301537005
 31
0.0
  0
ARC
  5
159
330
1F
100
AcDbEntity
  8
0
  6
Continuous
 62
     7
370
    25
100
AcDbCircle
 10
194.5393563766
 20
155.8801536931
 30
0.0
 40
1.0
100
AcDbArc
 50
0.0
 51
90.0
  0
SPLINE
  5
15A
330
1F
100
AcDbEntity
  8
0
  6
Continuous
 62
     7
370
    25
100
AcDbSpline
210
0.0
220
0.0
230
1.0
 70
     8
 71
     3
 72
    18
 73
    14
 74
     0
 42
0.000000001
 43
0.00000001
 40
0.0
 40
0.0
 40
0.0
 40
0.0
 40
0.2499999999999998
 40
0.2499999999999998
 40
0.3749999999999998
 40
0.3749999999999998
 40
0.4999999999999998
 40
0.4999999999999998
 40
0.6249999999999998
 40
0.6249999999999998
 40
0.7499999999999998
 40
0.7499999999999998
 40
1.0
 40
1.0
 40
1.0
 40
1.0
 10
190.7735541811542
 20
101.2191297628029
 30
0.0
 10
191.202056607317
 20
101.1233798284395
 30
0.0
 10
191.6106463885438
 20
101.0012838387042
 30
0.0
 10
192.1927947894618
 20
100.7802013347555
 30
0.0
 10
192.3827723097291
 20
100.6995648265284
 30
0.0
 10
192.7438721352279
 20
100.5290385979228
 30
0.0
 10
192.9155304734383
 20
100.4390617301197
 30
0.0
 10
193.2410862947664
 20
100.2502869775063
 30
0.0
 10
193.3949862417081
 20
100.1514889283056
 30
0.0
 10
193.6843169430282
 20
99.94532576459605
 30
0.0
 10
193.820485810524
 20
99.83729342963979
 30
0.0
 10
194.1936866320447
 20
99.50492235638511
 30
0.0
 10
194.3923153831579
 20
99.27633233388347
 30
0.0
 10
194.5393563765841
 20
99.04253710222606
 30
0.0
  0
LINE
  5
15B
330
1F
100
AcDbEntity
  8
0
  6
Continuous
 62
     7
370
    25
100
AcDbLine
 10
190.7735541812
 20
101.2191297628
 30
0.0
 11
190.7735541812
 21
125.4051536931
 31
0.0
  0
SPLINE
  5
15C
330
1F
100
AcDbEntity
  8
0
  6
Continuous
 62
     7
370
    25
100
AcDbSpline
210
0.0
220
0.0
230
1.0
 70
     8
 71
     3
 72
     8
 73
     4
 74
     0
 42
0.000000001
 43
0.00000001
 40
0.0
 40
0.0
 40
0.0
 40
0.0
 40
1.0
 40
1.0
 40
1.0
 40
1.0
 10
189.7800675016366
 20
101.9124396112555
 30
0.0
 10
190.1063263378489
 20
101.6886158819258
 30
0.0
 10
190.4381647468918
 20
101.4560500346224
 30
0.0
 10
190.7735541811542
 20
101.2191297628029
 30
0.0
  0
SPLINE
  5
15D
330
1F
100
AcDbEntity
  8
0
  6
Continuous
 62
     7
370
    25
100
AcDbSpline
210
0.0
220
0.0
230
1.0
 70
     8
 71
     3
 72
     8
 73
     4
 74
     0
 42
0.000000001
 43
0.00000001
 40
0.0
 40
0.0
 40
0.0
 40
0.0
 40
1.0
 40
1.0
 40
1.0
 40
1.0
 10
189.3143563765841
 20
102.6854187899299
 30
0.0
 10
189.4708387400852
 20
102.4311985322544
 30
0.0
 10
189.6260650285627
 20
102.173564745907
 30
0.0
 10
189.7800675016366
 20
101.9124396112555
 30
0.0
  0
LINE
  5
15E
330
1F
100
AcDbEntity
  8
0
  6
Continuous
 62
     7
370
    25
100
AcDbLine
 10
189.3143563766
 20
102.6854187899
 30
0.0
 11
189.3143563766
 21
125.4051536931
 31
0.0
  0
SPLINE
  5
15F
330
1F
100
AcDbEntity
  8
0
  6
Continuous
 62
     7
370
    25
100
AcDbSpline
210
0.0
220
0.0
230
1.0
 70
     8
 71
     3
 72
    14
 73
    10
 74
     0
 42
0.000000001
 43
0.00000001
 40
0.0
 40
0.0
 40
0.0
 40
0.0
 40
0.25
 40
0.25
 40
0.5
 40
0.5
 40
0.75
 40
0.75
 40
1.0
 40
1.0
 40
1.0
 40
1.0
 10
185.5643563765841
 20
102.0365659637899
 30
0.0
 10
185.5643563765841
 20
102.1673057851609
 30
0.0
 10
185.5997774535165
 20
102.3160034988749
 30
0.0
 10
185.7123031247065
 20
102.5929333144215
 30
0.0
 10
185.7899833109809
 20
102.7262438815104
 30
0.0
 10
185.9700485427032
 20
102.9635838772723
 30
0.0
 10
186.0753285953585
 20
103.0712674772623
 30
0.0
 10
186.304312129721
 20
103.2478394212429
 30
0.0
 10
186.4309253217199
 20
103.3191425737137
 30
0.0
 10
186.5643563765839
 20
103.3639148675107
 30
0.0
  0
LINE
  5
160
330
1F
100
AcDbEntity
  8
0
  6
Continuous
 62
     7
370
    25
100
AcDbLine
 10
185.5643563766
 20
125.4051536931
 30
0.0
 11
186.5643563766
 21
125.4051536931
 31
0.0
  0
SPLINE
  5
161
330
1F
100
AcDbEntity
  8
0
  6
Continuous
 62
     7
370
    25
100
AcDbSpline
210
0.0
220
0.0
230
1.0
 70
     8
 71
     3
 72
    14
 73
    10
 74
     0
 42
0.000000001
 43
0.00000001
 40
0.0
 40
0.0
 40
0.0
 40
0.0
 40
0.25
 40
0.25
 40
0.5
 40
0.5
 40
0.75
 40
0.75
 40
1.0
 40
1.0
 40
1.0
 40
1.0
 10
188.3143563765841
 20
103.6802618222156
 30
0.0
 10
188.4477846838172
 20
103.6857548853859
 30
0.0
 10
188.5795593556128
 20
103.6635028663211
 30
0.0
 10
188.8227552424742
 20
103.5700646066147
 30
0.0
 10
188.933676104187
 20
103.498769141434
 30
0.0
 10
189.1163224530529
 20
103.3252617445217
 30
0.0
 10
189.1896381923929
 20
103.2217033822755
 30
0.0
 10
189.2882763032283
 20
103.0024652695015
 30
0.0
 10
189.3143563765841
 20
102.8854597937932
 30
0.0
 10
189.3143563765841
 20
102.7708348592274
 30
0.0
  0
SPLINE
  5
162
330
1F
100
AcDbEntity
  8
0
  6
Continuous
 62
     7
370
    25
100
AcDbSpline
210
0.0
220
0.0
230
1.0
 70
     8
 71
     3
 72
    10
 73
     6
 74
     0
 42
0.000000001
 43
0.00000001
 40
0.0
 40
0.0
 40
0.0
 40
0.0
 40
0.5
 40
0.5
 40
1.0
 40
1.0
 40
1.0
 40
1.0
 10
186.5643563765841
 20
103.36391486751
 30
0.0
 10
186.8348750966994
 20
103.4546864171085
 30
0.0
 10
187.1164502613486
 20
103.5268634426007
 30
0.0
 10
187.7010438323679
 20
103.6333523546541
 30
0.0
 10
188.0063923667884
 20
103.6675833599381
 30
0.0
 10
188.3143563765841
 20
103.6802618222156
 30
0.0
  0
LINE
  5
163
330
1F
100
AcDbEntity
  8
0
  6
Continuous
 62
     7
370
    25
100
AcDbLine
 10
177.5393563766
 20
152.2551536931
 30
0.0
 11
177.8733950626
 21
151.1957183327
 31
0.0
  0
LINE
  5
164
330
1F
100
AcDbEntity
  8
0
  6
Continuous
 62
     7
370
    25
100
AcDbLine
 10
177.5393563766
 20
152.2551536931
 30
0.0
 11
177.5393563766
 21
150.2798649598
 31
0.0
  0
ARC
  5
165
330
1F
100
AcDbEntity
  8
0
  6
Continuous
 62
     7
370
    25
100
AcDbCircle
 10
177.110421502
 20
150.9551536931
 30
0.0
 40
0.799999999999991
100
AcDbArc
 50
252.5
 51
17.5
  0
SPLINE
  5
166
330
1F
100
AcDbEntity
  8
0
  6
Continuous
 62
     7
370
    25
100
AcDbSpline
210
0.0
220
0.0
230
1.0
 70
     8
 71
     3
 72
    44
 73
    40
 74
     0
 42
0.000000001
 43
0.00000001
 40
0.0
 40
0.0
 40
0.0
 40
0.0
 40
0.0113520356880705
 40
0.0226678073993016
 40
0.0339609990862535
 40
0.045245370576966
 40
0.0565347077538569
 40
0.067842772220906
 40
0.0791832513747355
 40
0.0905697097784662
 40
0.1020155426831986
 40
0.113533932454588
 40
0.1251378085475831
 40
0.1885391104632099
 40
0.251011396179709
 40
0.3131050503459783
 40
0.3751427481442413
 40
0.4371663135130733
 40
0.4979633220420628
 40
0.5585297780805956
 40
0.6208957542333825
 40
0.641768062754192
 40
0.6625116947501581
 40
0.6832134372204827
 40
0.7039607879638934
 40
0.7248408275028293
 40
0.7459345654319411
 40
0.766955566436471
 40
0.7878962933979987
 40
0.8088380765271499
 40
0.8298621338894288
 40
0.8510486198538713
 40
0.8724926157989287
 40
0.8941408045459602
 40
0.9155188607486918
 40
0.9367091949820366
 40
0.9577963548360442
 40
0.9788660651923471
 40
1.0
 40
1.0
 40
1.0
 40
1.0
 10
147.1395083030908
 20
148.8785358837409
 30
0.0
 10
147.1404704989391
 20
148.8782369682706
 30
0.0
 10
147.1423918169096
 20
148.8776400922128
 30
0.0
 10
147.1578799173532
 20
148.872829721658
 30
0.0
 10
147.182609226974
 20
148.8652095730394
 30
0.0
 10
147.2174761429567
 20
148.8545452741286
 30
0.0
 10
147.2622408925797
 20
148.840959449656
 30
0.0
 10
147.3169674137174
 20
148.8244790846572
 30
0.0
 10
147.3816376532927
 20
148.8051567515089
 30
0.0
 10
147.4562569235593
 20
148.7830374898194
 30
0.0
 10
147.5408182421068
 20
148.7581699593377
 30
0.0
 10
147.6353397867206
 20
148.7305948204505
 30
0.0
 10
147.8947547932292
 20
148.6555243698671
 30
0.0
 10
148.4237619835422
 20
148.5057492120523
 30
0.0
 10
149.4118488590783
 20
148.2678194282788
 30
0.0
 10
150.6186929454292
 20
148.0380117357451
 30
0.0
 10
152.0137274080139
 20
147.8617382372361
 30
0.0
 10
153.5249476544616
 20
147.7678310886052
 30
0.0
 10
155.0966326133529
 20
147.7916755355835
 30
0.0
 10
156.6638435231448
 20
147.9354927761988
 30
0.0
 10
157.8285526011432
 20
148.1295533167448
 30
0.0
 10
158.6202370647296
 20
148.292873222054
 30
0.0
 10
159.0785964795173
 20
148.3966718882184
 30
0.0
 10
159.5175373265381
 20
148.5048508029256
 30
0.0
 10
159.937131914178
 20
148.6163887198891
 30
0.0
 10
160.3373037767678
 20
148.7301438912142
 30
0.0
 10
160.7158167330607
 20
148.8441923425302
 30
0.0
 10
161.0705380247386
 20
148.9564251195793
 30
0.0
 10
161.3985781038811
 20
149.0650275927931
 30
0.0
 10
161.6994314216704
 20
149.1687809215742
 30
0.0
 10
161.9730896257948
 20
149.2665773065553
 30
0.0
 10
162.2195935809798
 20
149.3572826885267
 30
0.0
 10
162.4386078526723
 20
149.4395334014878
 30
0.0
 10
162.6280769924996
 20
149.5114121317364
 30
0.0
 10
162.784462148663
 20
149.5713886421024
 30
0.0
 10
162.9064001495037
 20
149.6186230952672
 30
0.0
 10
162.9930240623593
 20
149.6524754760778
 30
0.0
 10
163.0474456748466
 20
149.6739071155137
 30
0.0
 10
163.0544605157507
 20
149.6765866362331
 30
0.0
 10
163.0579732737074
 20
149.6779284354066
 30
0.0
  0
LINE
  5
167
330
1F
100
AcDbEntity
  8
0
  6
Continuous
 62
     7
370
    25
100
AcDbLine
 10
147.1395083031
 20
148.8785358837
 30
0.0
 11
139.0893563766
 21
148.4742738207
 31
0.0
  0
LINE
  5
168
330
1F
100
AcDbEntity
  8
0
  6
Continuous
 62
     7
370
    25
100
AcDbLine
 10
139.0893563766
 20
102.3360335655
 30
0.0
 11
139.0893563766
 21
114.5003583738
 31
0.0
  0
SPLINE
  5
169
330
1F
100
AcDbEntity
  8
0
  6
Continuous
 62
     7
370
    25
100
AcDbSpline
210
0.0
220
0.0
230
1.0
 70
     8
 71
     3
 72
     8
 73
     4
 74
     0
 42
0.000000001
 43
0.00000001
 40
0.0
 40
0.0
 40
0.0
 40
0.0
 40
1.0
 40
1.0
 40
1.0
 40
1.0
 10
143.381604471695
 20
114.5042626592222
 30
0.0
 10
141.9508551066614
 20
114.5025247839422
 30
0.0
 10
140.5201057416278
 20
114.5011627087765
 30
0.0
 10
139.0893563765941
 20
114.5001755526536
 30
0.0
  0
SPLINE
  5
16A
330
1F
100
AcDbEntity
  8
0
  6
Continuous
 62
     7
370
    25
100
AcDbSpline
210
0.0
220
0.0
230
1.0
 70
     8
 71
     3
 72
    23
 73
    19
 74
     0
 42
0.000000001
 43
0.00000001
 40
0.0
 40
0.0
 40
0.0
 40
0.0
 40
0.0521036415683759
 40
0.1035646240941235
 40
0.1544751946756683
 40
0.2049306267495642
 40
0.2550287880866983
 40
0.3048696389163111
 40
0.354554670462894
 40
0.4041862979539558
 40
0.453867225213789
 40
0.5036997999428097
 40
0.590187023078111
 40
0.6742716378282376
 40
0.7565997087281883
 40
0.8378563983773627
 40
0.9187511781400207
 40
0.9999999999999999
 40
0.9999999999999999
 40
0.9999999999999999
 40
0.9999999999999999
 10
146.9753402910845
 20
116.4243322675951
 30
0.0
 10
146.9338487713683
 20
116.3659964812705
 30
0.0
 10
146.8513774984756
 20
116.2500444364596
 30
0.0
 10
146.7185187410421
 20
116.084245834432
 30
0.0
 10
146.5799871682701
 20
115.9258818723943
 30
0.0
 10
146.4350876246329
 20
115.7753722387888
 30
0.0
 10
146.28400396446
 20
115.6325329302729
 30
0.0
 10
146.1266887862962
 20
115.4973397127102
 30
0.0
 10
145.9631556280891
 20
115.3697270697827
 30
0.0
 10
145.7934056911019
 20
115.2496399856469
 30
0.0
 10
145.6174316609644
 20
115.137026592197
 30
0.0
 10
145.3909509630203
 20
115.0062166285529
 30
0.0
 10
145.1117704525028
 20
114.867094472883
 30
0.0
 10
144.7766712563726
 20
114.733575479554
 30
0.0
 10
144.4359067604651
 20
114.6301273833582
 30
0.0
 10
144.0895087147127
 20
114.5572307592543
 30
0.0
 10
143.7376187361987
 20
114.5120359654876
 30
0.0
 10
143.5004485143418
 20
114.5068575303648
 30
0.0
 10
143.381604471695
 20
114.5042626592222
 30
0.0
  0
SPLINE
  5
16B
330
1F
100
AcDbEntity
  8
0
  6
Continuous
 62
     7
370
    25
100
AcDbSpline
210
0.0
220
0.0
230
1.0
 70
     8
 71
     3
 72
     8
 73
     4
 74
     0
 42
0.000000001
 43
0.00000001
 40
0.0
 40
0.0
 40
0.0
 40
0.0
 40
1.0
 40
1.0
 40
1.0
 40
1.0
 10
151.3843120992396
 20
116.4287529824148
 30
0.0
 10
149.9141374384582
 20
116.4272923619797
 30
0.0
 10
148.4439627776768
 20
116.4261313103207
 30
0.0
 10
146.9737881168954
 20
116.4252693804212
 30
0.0
  0
SPLINE
  5
16C
330
1F
100
AcDbEntity
  8
0
  6
Continuous
 62
     7
370
    25
100
AcDbSpline
210
0.0
220
0.0
230
1.0
 70
     8
 71
     3
 72
    18
 73
    14
 74
     0
 42
0.000000001
 43
0.00000001
 40
0.0
 40
0.0
 40
0.0
 40
0.0
 40
0.0923824559461122
 40
0.1844689291660427
 40
0.2764953616062392
 40
0.3686975365619641
 40
0.4613092840130473
 40
0.5545607518559533
 40
0.6486768051632873
 40
0.7438756050210469
 40
0.8403674044324065
 40
0.9203921078135461
 40
1.0
 40
1.0
 40
1.0
 40
1.0
 10
153.5795409440932
 20
115.895118968651
 30
0.0
 10
153.5092106405756
 20
115.8955355930814
 30
0.0
 10
153.3687753637155
 20
115.8963675071256
 30
0.0
 10
153.1584128372231
 20
115.9099763540578
 30
0.0
 10
152.9489691742342
 20
115.932643111362
 30
0.0
 10
152.7404195041124
 20
115.9652439014151
 30
0.0
 10
152.5327758858853
 20
116.0075463790868
 30
0.0
 10
152.3260377019382
 20
116.0596177813197
 30
0.0
 10
152.1202155963892
 20
116.1214665406221
 30
0.0
 10
151.9152839692128
 20
116.1930646035115
 30
0.0
 10
151.7239943023552
 20
116.2695664185752
 30
0.0
 10
151.5466417047744
 20
116.3480028453654
 30
0.0
 10
151.4386613612471
 20
116.4017127990644
 30
0.0
 10
151.384812161369
 20
116.4284976558051
 30
0.0
  0
LINE
  5
16D
330
1F
100
AcDbEntity
  8
0
  6
Continuous
 62
     7
370
    25
100
AcDbLine
 10
155.4944142234
 20
115.8966144035
 30
0.0
 11
153.5795409441
 21
115.8951189687
 31
0.0
  0
SPLINE
  5
16E
330
1F
100
AcDbEntity
  8
0
  6
Continuous
 62
     7
370
    25
100
AcDbSpline
210
0.0
220
0.0
230
1.0
 70
     8
 71
     3
 72
    25
 73
    21
 74
     0
 42
0.000000001
 43
0.00000001
 40
0.0
 40
0.0
 40
0.0
 40
0.0
 40
0.0280105225426455
 40
0.0559601148860774
 40
0.0839014045043129
 40
0.1118870776786379
 40
0.1399695827588941
 40
0.1682008401739877
 40
0.1966319670424218
 40
0.2253130233141493
 40
0.2542927850735863
 40
0.3799486436570518
 40
0.505785022166658
 40
0.6313085886329272
 40
0.7532068238012843
 40
0.8039473267959846
 40
0.8535894438560211
 40
0.902533972239985
 40
0.9511970353794947
 40
1.0
 40
1.0
 40
1.0
 40
1.0
 10
160.4342985297856
 20
121.0304782080262
 30
0.0
 10
160.4343357515194
 20
120.9558581810127
 30
0.0
 10
160.43441011402
 20
120.8067804450255
 30
0.0
 10
160.4219940633735
 20
120.5841623540591
 30
0.0
 10
160.4003895030198
 20
120.3628379360302
 30
0.0
 10
160.3687040333598
 20
120.1428696701416
 30
0.0
 10
160.3271778950399
 20
119.9242793829126
 30
0.0
 10
160.2757471393099
 20
119.7070974445083
 30
0.0
 10
160.2144332645987
 20
119.4913560246235
 30
0.0
 10
160.1432229290992
 20
119.2770661331735
 30
0.0
 10
159.9723863218957
 20
118.8287163601537
 30
0.0
 10
159.6346540884588
 20
118.1753855320833
 30
0.0
 10
159.0230994242626
 20
117.403492321443
 30
0.0
 10
158.2868645891143
 20
116.7593326960549
 30
0.0
 10
157.6003785174644
 20
116.3676915279944
 30
0.0
 10
157.0516743713124
 20
116.1489966270278
 30
0.0
 10
156.669638192806
 20
116.033140578197
 30
0.0
 10
156.2824720941016
 20
115.9522326726671
 30
0.0
 10
155.8902454253167
 20
115.903004241869
 30
0.0
 10
155.6264841572032
 20
115.8987463868536
 30
0.0
 10
155.4944142233827
 20
115.8966144035108
 30
0.0
  0
LINE
  5
16F
330
1F
100
AcDbEntity
  8
0
  6
Continuous
 62
     7
370
    25
100
AcDbLine
 10
160.4342985298
 20
125.4051536931
 30
0.0
 11
160.4342985298
 21
121.030478208
 31
0.0
  0
LINE
  5
170
330
1F
100
AcDbEntity
  8
0
  6
Continuous
 62
     7
370
    25
100
AcDbLine
 10
176.3791743366
 20
100.4634156476
 30
0.0
 11
176.3791743366
 21
125.4051536931
 31
0.0
  0
LINE
  5
171
330
1F
100
AcDbEntity
  8
0
  6
Continuous
 62
     7
370
    25
100
AcDbLine
 10
176.3791743366
 20
150.3468917386
 30
0.0
 11
163.0579732737
 21
149.6779284354
 31
0.0
  0
SPLINE
  5
172
330
1F
100
AcDbEntity
  8
0
  6
Continuous
 62
     7
370
    25
100
AcDbSpline
210
0.0
220
0.0
230
1.0
 70
     8
 71
     3
 72
    24
 73
    20
 74
     0
 42
0.000000001
 43
0.00000001
 40
0.0
 40
0.0
 40
0.0
 40
0.0
 40
0.0018911158365204
 40
0.0649665819681582
 40
0.1287875496753661
 40
0.1921373046432293
 40
0.2545996472532063
 40
0.3167128332007495
 40
0.3787564059940687
 40
0.4408509860817692
 40
0.5017187751705754
 40
0.5623722170255796
 40
0.6248483870185793
 40
0.6868048354341845
 40
0.7491642985643833
 40
0.8116886410111813
 40
0.8748496803185221
 40
0.9387002415512321
 40
1.0
 40
1.0
 40
1.0
 40
1.0
 10
147.1442841515053
 20
101.9331365159357
 30
0.0
 10
147.1427776025728
 20
101.9326790834231
 30
0.0
 10
147.09102226701
 20
101.9169646431665
 30
0.0
 10
147.274627089739
 20
101.9745202808842
 30
0.0
 10
147.7225014051831
 20
102.1067861603357
 30
0.0
 10
148.4755293045238
 20
102.3183913035458
 30
0.0
 10
149.4754728565719
 20
102.5561107554261
 30
0.0
 10
150.6940328593353
 20
102.7841508681135
 30
0.0
 10
152.0975428044753
 20
102.9563351702086
 30
0.0
 10
153.6147911590752
 20
103.0444582477772
 30
0.0
 10
155.1890404958645
 20
103.0133962478257
 30
0.0
 10
156.7548741093776
 20
102.8623766644673
 30
0.0
 10
158.2447258249775
 20
102.6080395182905
 30
0.0
 10
159.6164137037419
 20
102.2903003792165
 30
0.0
 10
160.8023112862453
 20
101.9463938020349
 30
0.0
 10
161.7800056460777
 20
101.6185139298509
 30
0.0
 10
162.4991574550482
 20
101.3497306275404
 30
0.0
 10
162.9730971017679
 20
101.1666286386736
 30
0.0
 10
163.0273561767177
 20
101.1446422269729
 30
0.0
 10
163.0539327623511
 20
101.1338730836751
 30
0.0
  0
LINE
  5
173
330
1F
100
AcDbEntity
  8
0
  6
Continuous
 62
     7
370
    25
100
AcDbLine
 10
176.8698568624
 20
150.1921801325
 30
0.0
 11
176.3791743366
 21
150.3468917386
 31
0.0
  0
LINE
  5
174
330
1F
100
AcDbEntity
  8
0
  6
Continuous
 62
     7
370
    25
100
AcDbLine
 10
160.4342985298
 20
121.030478208
 30
0.0
 11
159.5393563766
 21
121.1926536931
 31
0.0
  0
LINE
  5
175
330
1F
100
AcDbEntity
  8
0
  6
Continuous
 62
     7
370
    25
100
AcDbLine
 10
159.5393563766
 20
121.1926536931
 30
0.0
 11
159.5393563766
 21
125.4051536931
 31
0.0
  0
SPLINE
  5
176
330
1F
100
AcDbEntity
  8
0
  6
Continuous
 62
     7
370
    25
100
AcDbSpline
210
0.0
220
0.0
230
1.0
 70
     8
 71
     3
 72
    25
 73
    21
 74
     0
 42
0.000000001
 43
0.00000001
 40
0.0
 40
0.0
 40
0.0
 40
0.0
 40
0.0288821753105771
 40
0.058363659400572
 40
0.088464720430548
 40
0.1192044006616737
 40
0.1506005800085666
 40
0.1826700399669859
 40
0.2154285269576224
 40
0.2488908143379852
 40
0.3610594471136693
 40
0.4984670131067402
 40
0.5822693905005265
 40
0.6661127642780991
 40
0.7499972937224167
 40
0.8007709755018199
 40
0.8511237700786715
 40
0.9010896024485537
 40
0.9507031914094952
 40
1.0
 40
1.0
 40
1.0
 40
1.0
 10
155.5393563765841
 20
117.1926536930949
 30
0.0
 10
155.6021568298205
 20
117.1935101770467
 30
0.0
 10
155.7290608536163
 20
117.1952409171002
 30
0.0
 10
155.9204152613258
 20
117.2093907825032
 30
0.0
 10
156.1143200740015
 20
117.2325278648236
 30
0.0
 10
156.310220794729
 20
117.2659390170481
 30
0.0
 10
156.5075584627343
 20
117.3098128390803
 30
0.0
 10
156.7057118045226
 20
117.3646081100497
 30
0.0
 10
156.9040275485357
 20
117.4306770714144
 30
0.0
 10
157.2553485360268
 20
117.5686584036626
 30
0.0
 10
157.7804603063522
 20
117.848710342501
 30
0.0
 10
158.3174521348412
 20
118.2873009449064
 30
0.0
 10
158.7295118648909
 20
118.7611610664661
 30
0.0
 10
159.0164304529433
 20
119.1928448142859
 30
0.0
 10
159.214857140149
 20
119.5959680560431
 30
0.0
 10
159.3469430141962
 20
119.9537042168176
 30
0.0
 10
159.4325768939936
 20
120.2564566190954
 30
0.0
 10
159.4936591053477
 20
120.5649449293409
 30
0.0
 10
159.5321600487147
 20
120.8772566395018
 30
0.0
 10
159.5369627278084
 20
121.0877460534077
 30
0.0
 10
159.5393563765841
 20
121.1926536930949
 30
0.0
  0
SPLINE
  5
177
330
1F
100
AcDbEntity
  8
0
  6
Continuous
 62
     7
370
    25
100
AcDbSpline
210
0.0
220
0.0
230
1.0
 70
     8
 71
     3
 72
    13
 73
     9
 74
     0
 42
0.000000001
 43
0.00000001
 40
0.0
 40
0.0
 40
0.0
 40
0.0
 40
0.1722587823402174
 40
0.3421398270982735
 40
0.5097456257612809
 40
0.6751828993009421
 40
0.8385626189970466
 40
1.0
 40
1.0
 40
1.0
 40
1.0
 10
152.5393747454943
 20
117.3426485158447
 30
0.0
 10
152.600238135157
 20
117.3263847881477
 30
0.0
 10
152.7211247995865
 20
117.2940818256709
 30
0.0
 10
152.9041859575407
 20
117.2566941709791
 30
0.0
 10
153.0862886404749
 20
117.2275612360676
 30
0.0
 10
153.2672300887974
 20
117.2073745204592
 30
0.0
 10
153.4465690925119
 20
117.1949277161554
 30
0.0
 10
153.5654153209415
 20
117.1934086729276
 30
0.0
 10
153.6244830972946
 20
117.1926536930949
 30
0.0
  0
LINE
  5
178
330
1F
100
AcDbEntity
  8
0
  6
Continuous
 62
     7
370
    25
100
AcDbLine
 10
153.5795409441
 20
115.8951189687
 30
0.0
 11
153.6244830973
 21
117.1926536931
 31
0.0
  0
SPLINE
  5
179
330
1F
100
AcDbEntity
  8
0
  6
Continuous
 62
     7
370
    25
100
AcDbSpline
210
0.0
220
0.0
230
1.0
 70
     8
 71
     3
 72
    11
 73
     7
 74
     0
 42
0.000000001
 43
0.00000001
 40
0.0
 40
0.0
 40
0.0
 40
0.0
 40
0.239284509383631
 40
0.5001120454057238
 40
0.7515010915050501
 40
1.0
 40
1.0
 40
1.0
 40
1.0
 10
152.2127880875651
 20
117.3432252654882
 30
0.0
 10
152.1439784545828
 20
117.2716295673821
 30
0.0
 10
152.0001641876958
 20
117.121992337984
 30
0.0
 10
151.7924624548841
 20
116.8929358094771
 30
0.0
 10
151.5845221431609
 20
116.6604738221212
 30
0.0
 10
151.4515539335243
 20
116.5056048307306
 30
0.0
 10
151.3854542112654
 20
116.428618028055
 30
0.0
  0
SPLINE
  5
17A
330
1F
100
AcDbEntity
  8
0
  6
Continuous
 62
     7
370
    25
100
AcDbSpline
210
0.0
220
0.0
230
1.0
 70
    24
 71
     3
 72
     9
 73
     5
 74
     0
 42
0.000000001
 43
0.00000001
 40
0.0
 40
0.0
 40
0.0
 40
0.0
 40
0.509066935386983
 40
0.9999999999999999
 40
0.9999999999999999
 40
0.9999999999999999
 40
0.9999999999999999
 10
152.2147362099807
 20
117.3426536930949
 30
0.0
 10
152.2693640726878
 20
117.3426536930949
 30
0.0
 10
152.3766738563523
 20
117.3426536930949
 30
0.0
 10
152.4858553645967
 20
117.3426536930949
 30
0.0
 10
152.5394561770382
 20
117.3426536930949
 30
0.0
  0
LINE
  5
17B
330
1F
100
AcDbEntity
  8
0
  6
Continuous
 62
     7
370
    25
100
AcDbLine
 10
146.8037205586
 20
117.1977306819
 30
0.0
 11
146.9758772472
 21
116.425561628
 31
0.0
  0
SPLINE
  5
17C
330
1F
100
AcDbEntity
  8
0
  6
Continuous
 62
     7
370
    25
100
AcDbSpline
210
0.0
220
0.0
230
1.0
 70
     8
 71
     3
 72
     8
 73
     4
 74
     0
 42
0.000000001
 43
0.00000001
 40
0.0
 40
0.0
 40
0.0
 40
0.0
 40
1.0
 40
1.0
 40
1.0
 40
1.0
 10
146.8017842199486
 20
117.1983416249176
 30
0.0
 10
146.8319857012684
 20
117.2458225220359
 30
0.0
 10
146.8611850861208
 20
117.2939408256091
 30
0.0
 10
146.8893563765841
 20
117.3426536930949
 30
0.0
  0
LINE
  5
17D
330
1F
100
AcDbEntity
  8
0
  6
Continuous
 62
     7
370
    25
100
AcDbLine
 10
146.8893563766
 20
117.3426536931
 30
0.0
 11
152.2139299526
 21
117.3426536931
 31
0.0
  0
LINE
  5
17E
330
1F
100
AcDbEntity
  8
0
  6
Continuous
 62
     7
370
    25
100
AcDbLine
 10
153.6244830973
 20
117.1926536931
 30
0.0
 11
155.5393563766
 21
117.1926536931
 31
0.0
  0
SPLINE
  5
17F
330
1F
100
AcDbEntity
  8
0
  6
Continuous
 62
     7
370
    25
100
AcDbSpline
210
0.0
220
0.0
230
1.0
 70
     8
 71
     3
 72
    23
 73
    19
 74
     0
 42
0.000000001
 43
0.00000001
 40
0.0
 40
0.0
 40
0.0
 40
0.0
 40
0.0449850911547964
 40
0.0909520670823883
 40
0.1379394291328525
 40
0.1859832248994781
 40
0.235117176177667
 40
0.2853728096486027
 40
0.3367795876649756
 40
0.3893650370847659
 40
0.4431548745955978
 40
0.4981731273942729
 40
0.5575107591414307
 40
0.6265492282208773
 40
0.7053073139958764
 40
0.7937970254642376
 40
0.8920262116484563
 40
1.0
 40
1.0
 40
1.0
 40
1.0
 10
143.426699340434
 20
115.3451536930949
 30
0.0
 10
143.4895430914103
 20
115.3460114964142
 30
0.0
 10
143.6166022771933
 20
115.347745826234
 30
0.0
 10
143.8082585099439
 20
115.3619329614377
 30
0.0
 10
144.0026257705522
 20
115.385158444598
 30
0.0
 10
144.1991424788299
 20
115.4187371849455
 30
0.0
 10
144.3972400825479
 20
115.4628811581771
 30
0.0
 10
144.5962880545081
 20
115.5180761057051
 30
0.0
 10
144.7956070603823
 20
115.584692968124
 30
0.0
 10
144.9944727572111
 20
115.6630936449361
 30
0.0
 10
145.1920878965921
 20
115.7535777358793
 30
0.0
 10
145.3913343637722
 20
115.8583696006893
 30
0.0
 10
145.6001628435182
 20
115.9839345371934
 30
0.0
 10
145.8249739397483
 20
116.1394485358045
 30
0.0
 10
146.0667406686966
 20
116.3340176510131
 30
0.0
 10
146.317955377406
 20
116.5735073184442
 30
0.0
 10
146.5729538615456
 20
116.8613477281703
 30
0.0
 10
146.7233259903807
 20
117.0828161378585
 30
0.0
 10
146.8020651475115
 20
117.1987833456451
 30
0.0
  0
LINE
  5
180
330
1F
100
AcDbEntity
  8
0
  6
Continuous
 62
     7
370
    25
100
AcDbLine
 10
138.2292225457
 20
114.8485551943
 30
0.0
 11
139.0893563766
 21
115.3451536931
 31
0.0
  0
LINE
  5
181
330
1F
100
AcDbEntity
  8
0
  6
Continuous
 62
     7
370
    25
100
AcDbLine
 10
139.0893563766
 20
115.3451536931
 30
0.0
 11
143.4266993404
 21
115.3451536931
 31
0.0
  0
SPLINE
  5
182
330
1F
100
AcDbEntity
  8
0
  6
Continuous
 62
     7
370
    25
100
AcDbSpline
210
0.0
220
0.0
230
1.0
 70
     8
 71
     3
 72
     8
 73
     4
 74
     0
 42
0.000000001
 43
0.00000001
 40
0.0
 40
0.0
 40
0.0
 40
0.0
 40
1.0
 40
1.0
 40
1.0
 40
1.0
 10
139.0893563763438
 20
114.5001755525773
 30
0.0
 10
138.8026450994751
 20
114.617076490791
 30
0.0
 10
138.5159338226063
 20
114.7332045118556
 30
0.0
 10
138.2292225457375
 20
114.8485551943165
 30
0.0
  0
SPLINE
  5
183
330
1F
100
AcDbEntity
  8
0
  6
Continuous
 62
     7
370
    25
100
AcDbSpline
210
0.0
220
0.0
230
1.0
 70
     8
 71
     3
 72
     8
 73
     4
 74
     0
 42
0.000000001
 43
0.00000001
 40
0.0
 40
0.0
 40
0.0
 40
0.0
 40
1.0
 40
1.0
 40
1.0
 40
1.0
 10
190.7735541811542
 20
95.8684063601295
 30
0.0
 10
190.4381435557304
 20
96.52667341243873
 30
0.0
 10
190.1063012366205
 20
97.18572985042012
 30
0.0
 10
189.7800675016366
 20
97.84567022184137
 30
0.0
  0
LWPOLYLINE
  5
184
330
1F
100
AcDbEntity
  8
0
  6
Continuous
 62
     7
370
    25
100
AcDbPolyline
 90
       10
 70
   128
 43
0.0
 10
189.7800675016
 20
97.8456702218
 10
190.5561761206
 20
98.0023539318
 10
191.2555520561
 20
98.2322544696
 10
191.8509101478
 20
98.5264025917
 10
192.3190233438
 20
98.8733225262
 10
192.6416288717
 20
99.2594796839
 10
192.8061407341
 20
99.6698086907
 10
192.8061407341
 20
100.0883011424
 10
192.6416288717
 20
100.4986301492
 10
192.511431244
 20
100.681198137
  0
SPLINE
  5
185
330
1F
100
AcDbEntity
  8
0
  6
Continuous
 62
     7
370
    25
100
AcDbSpline
210
0.0
220
0.0
230
1.0
 70
     8
 71
     3
 72
    18
 73
    14
 74
     0
 42
0.000000001
 43
0.00000001
 40
0.0
 40
0.0
 40
0.0
 40
0.0
 40
0.2499999999999992
 40
0.2499999999999992
 40
0.3749999999999994
 40
0.3749999999999994
 40
0.4999999999999996
 40
0.4999999999999996
 40
0.75
 40
0.75
 40
0.875
 40
0.875
 40
1.0
 40
1.0
 40
1.0
 40
1.0
 10
194.5393563765841
 20
97.33203376803854
 30
0.0
 10
194.3927401500437
 20
97.13907883613618
 30
0.0
 10
194.1891536773913
 20
96.95996079354258
 30
0.0
 10
193.8201800731771
 20
96.72309861830493
 30
0.0
 10
193.6862384854604
 20
96.6488599389923
 30
0.0
 10
193.3968932666691
 20
96.50897945314478
 30
0.0
 10
193.2405338590195
 20
96.44303814964422
 30
0.0
 10
192.749234036938
 20
96.26095739591304
 30
0.0
 10
192.3909892140548
 20
96.15926579053111
 30
0.0
 10
191.8095886996418
 20
96.0310289601076
 30
0.0
 10
191.6079494035033
 20
95.99236796981315
 30
0.0
 10
191.1974567441277
 20
95.92408398711129
 30
0.0
 10
190.9877223224298
 20
95.89424342264577
 30
0.0
 10
190.7735541811542
 20
95.86840636012948
 30
0.0
  0
LINE
  5
186
330
1F
100
AcDbEntity
  8
0
  6
Continuous
 62
     7
370
    25
100
AcDbLine
 10
137.5893563766
 20
103.2020589693
 30
0.0
 11
137.5893563766
 21
114.4791282893
 31
0.0
  0
SPLINE
  5
187
330
1F
100
AcDbEntity
  8
0
  6
Continuous
 62
     7
370
    25
100
AcDbSpline
210
0.0
220
0.0
230
1.0
 70
    24
 71
     3
 72
     8
 73
     4
 74
     0
 42
0.000000001
 43
0.00000001
 40
0.0
 40
0.0
 40
0.0
 40
0.0
 40
1.0
 40
1.0
 40
1.0
 40
1.0
 10
138.2292225457375
 20
114.8485551943165
 30
0.0
 10
138.0145569868977
 20
114.7246179761347
 30
0.0
 10
137.8012422785596
 20
114.6014606718535
 30
0.0
 10
137.5893563765841
 20
114.4791282893105
 30
0.0
  0
ARC
  5
188
330
1F
100
AcDbEntity
  8
0
  6
Continuous
 62
     7
370
    25
100
AcDbCircle
 10
185.7699413196
 20
99.8723041012
 30
0.0
 40
1.386778713021212
100
AcDbArc
 50
117.5068033461
 51
245.5898290501
  0
SPLINE
  5
189
330
1F
100
AcDbEntity
  8
0
  6
Continuous
 62
     7
370
    25
100
AcDbSpline
210
0.0
220
0.0
230
1.0
 70
     8
 71
     3
 72
     8
 73
     4
 74
     0
 42
0.000000001
 43
0.00000001
 40
0.0
 40
0.0
 40
0.0
 40
0.0
 40
1.0
 40
1.0
 40
1.0
 40
1.0
 10
185.1968327104361
 20
98.60948910251737
 30
0.0
 10
184.8403794455051
 20
97.86532512933286
 30
0.0
 10
184.4750459527436
 20
97.12258590344328
 30
0.0
 10
184.105158572014
 20
96.3811547785467
 30
0.0
  0
SPLINE
  5
18A
330
1F
100
AcDbEntity
  8
0
  6
Continuous
 62
     7
370
    25
100
AcDbSpline
210
0.0
220
0.0
230
1.0
 70
     8
 71
     3
 72
     8
 73
     4
 74
     0
 42
0.000000001
 43
0.00000001
 40
0.0
 40
0.0
 40
0.0
 40
0.0
 40
1.0
 40
1.0
 40
1.0
 40
1.0
 10
189.7800675016366
 20
97.84567022184137
 30
0.0
 10
189.6259850344126
 20
98.06181712323932
 30
0.0
 10
189.4707584125682
 20
98.2834698325586
 30
0.0
 10
189.3143563765841
 20
98.51040007739704
 30
0.0
  0
LINE
  5
18B
330
1F
100
AcDbEntity
  8
0
  6
Continuous
 62
     7
370
    25
100
AcDbLine
 10
189.3143563766
 20
98.5104000774
 30
0.0
 11
189.3143563766
 21
98.5958161467
 31
0.0
  0
SPLINE
  5
18C
330
1F
100
AcDbEntity
  8
0
  6
Continuous
 62
     7
370
    25
100
AcDbSpline
210
0.0
220
0.0
230
1.0
 70
     8
 71
     3
 72
    14
 73
    10
 74
     0
 42
0.000000001
 43
0.00000001
 40
0.0
 40
0.0
 40
0.0
 40
0.0
 40
0.25
 40
0.25
 40
0.5
 40
0.5
 40
0.75
 40
0.75
 40
1.0
 40
1.0
 40
1.0
 40
1.0
 10
189.3143563765841
 20
98.59581614669443
 30
0.0
 10
189.3143563765841
 20
98.7099420508918
 30
0.0
 10
189.2883162198271
 20
98.82264946447553
 30
0.0
 10
189.1895250366258
 20
99.0268452282911
 30
0.0
 10
189.1168173892088
 20
99.1192494194931
 30
0.0
 10
188.9330456113422
 20
99.2748021477981
 30
0.0
 10
188.82397558065
 20
99.33681161443059
 30
0.0
 10
188.5783512321913
 20
99.42470172315589
 30
0.0
 10
188.4477961066039
 20
99.4485099755779
 30
0.0
 10
188.3143563765841
 20
99.451694541209
 30
0.0
  0
SPLINE
  5
18D
330
1F
100
AcDbEntity
  8
0
  6
Continuous
 62
     7
370
    25
100
AcDbSpline
210
0.0
220
0.0
230
1.0
 70
     8
 71
     3
 72
    10
 73
     6
 74
     0
 42
0.000000001
 43
0.00000001
 40
0.0
 40
0.0
 40
0.0
 40
0.0
 40
0.5
 40
0.5
 40
1.0
 40
1.0
 40
1.0
 40
1.0
 10
188.3143563765841
 20
99.45169454120898
 30
0.0
 10
188.0063765179562
 20
99.45904454163768
 30
0.0
 10
187.7063565078328
 20
99.47842737840033
 30
0.0
 10
187.1215451638384
 20
99.54124083383127
 30
0.0
 10
186.8348933574905
 20
99.58518137195213
 30
0.0
 10
186.5643563765841
 20
99.64157941110638
 30
0.0
  0
SPLINE
  5
18E
330
1F
100
AcDbEntity
  8
0
  6
Continuous
 62
     7
370
    25
100
AcDbSpline
210
0.0
220
0.0
230
1.0
 70
     8
 71
     3
 72
    16
 73
    12
 74
     0
 42
0.000000001
 43
0.00000001
 40
0.0
 40
0.0
 40
0.0
 40
0.0
 40
0.2499999999999992
 40
0.2499999999999992
 40
0.4999999999999984
 40
0.4999999999999984
 40
0.7499999999999977
 40
0.7499999999999977
 40
0.8749999999999988
 40
0.8749999999999988
 40
1.0
 40
1.0
 40
1.0
 40
1.0
 10
186.5643563765841
 20
99.64157941110638
 30
0.0
 10
186.4305792078387
 20
99.66946753928599
 30
0.0
 10
186.3070007180005
 20
99.67657765254145
 30
0.0
 10
186.0759407707104
 20
99.65749597211374
 30
0.0
 10
185.9716234476691
 20
99.6311545721558
 30
0.0
 10
185.7897962444997
 20
99.54294335377534
 30
0.0
 10
185.7130314781034
 20
99.48195440678705
 30
0.0
 10
185.6275258359735
 20
99.35352565472436
 30
0.0
 10
185.6047751860733
 20
99.30538840108773
 30
0.0
 10
185.5730449118474
 20
99.19602347617528
 30
0.0
 10
185.5643563765841
 20
99.13458962362755
 30
0.0
 10
185.5643563765841
 20
99.06911229945025
 30
0.0
  0
LINE
  5
18F
330
1F
100
AcDbEntity
  8
0
  6
Continuous
 62
     7
370
    25
100
AcDbLine
 10
185.5643563766
 20
99.0691122995
 30
0.0
 11
185.5643563766
 21
98.9841431727
 31
0.0
  0
SPLINE
  5
190
330
1F
100
AcDbEntity
  8
0
  6
Continuous
 62
     7
370
    25
100
AcDbSpline
210
0.0
220
0.0
230
1.0
 70
     8
 71
     3
 72
     8
 73
     4
 74
     0
 42
0.000000001
 43
0.00000001
 40
0.0
 40
0.0
 40
0.0
 40
0.0
 40
1.0
 40
1.0
 40
1.0
 40
1.0
 10
185.5643563765842
 20
98.9841431726988
 30
0.0
 10
185.437596363555
 20
98.84607286255174
 30
0.0
 10
185.3147439498233
 20
98.71999381171815
 30
0.0
 10
185.1968327104361
 20
98.60948910251737
 30
0.0
  0
ARC
  5
191
330
1F
100
AcDbEntity
  8
0
  6
Continuous
 62
     7
370
    25
100
AcDbCircle
 10
170.7393563766
 20
142.8551536931
 30
0.0
 40
0.799999999999983
100
AcDbArc
 50
0.0
 51
90.0
  0
LINE
  5
192
330
1F
100
AcDbEntity
  8
0
  6
Continuous
 62
     7
370
    25
100
AcDbLine
 10
169.3145968502
 20
143.6551536931
 30
0.0
 11
170.7393563766
 21
143.6551536931
 31
0.0
  0
ARC
  5
193
330
1F
100
AcDbEntity
  8
0
  6
Continuous
 62
     7
370
    25
100
AcDbCircle
 10
169.3145968502
 20
142.8551536931
 30
0.0
 40
0.7999999999999996
100
AcDbArc
 50
90.0
 51
120.0
  0
LINE
  5
194
330
1F
100
AcDbEntity
  8
0
  6
Continuous
 62
     7
370
    25
100
AcDbLine
 10
168.0393563766
 20
143.0426536931
 30
0.0
 11
168.0393563766
 21
125.4051536931
 31
0.0
  0
LINE
  5
195
330
1F
100
AcDbEntity
  8
0
  6
Continuous
 62
     7
370
    25
100
AcDbLine
 10
168.0393563766
 20
143.0426536931
 30
0.0
 11
168.9145968502
 21
143.5479740161
 31
0.0
  0
SPLINE
  5
196
330
1F
100
AcDbEntity
  8
0
  6
Continuous
 62
     7
370
    25
100
AcDbSpline
210
0.0
220
0.0
230
1.0
 70
     8
 71
     3
 72
    32
 73
    28
 74
     0
 42
0.000000001
 43
0.00000001
 40
0.0
 40
0.0
 40
0.0
 40
0.0
 40
0.1250000000000007
 40
0.1250000000000007
 40
0.1875000000000011
 40
0.1875000000000011
 40
0.2500000000000014
 40
0.2500000000000014
 40
0.3125000000000017
 40
0.3125000000000017
 40
0.3750000000000021
 40
0.3750000000000021
 40
0.5000000000000021
 40
0.5000000000000021
 40
0.562500000000002
 40
0.562500000000002
 40
0.6250000000000019
 40
0.6250000000000019
 40
0.7500000000000013
 40
0.7500000000000013
 40
0.8125000000000011
 40
0.8125000000000011
 40
0.8750000000000008
 40
0.8750000000000008
 40
0.9375000000000004
 40
0.9375000000000004
 40
1.0
 40
1.0
 40
1.0
 40
1.0
 10
152.0084046236972
 20
141.5778214363684
 30
0.0
 10
151.5242699663105
 20
141.578152349612
 30
0.0
 10
151.0408120692058
 20
141.5930849488819
 30
0.0
 10
150.3168163163007
 20
141.6400327756195
 30
0.0
 10
150.076109860533
 20
141.6597989956583
 30
0.0
 10
149.6046818349218
 20
141.7067448992763
 30
0.0
 10
149.3728058155259
 20
141.7339908710873
 30
0.0
 10
148.9170237355388
 20
141.7956054902947
 30
0.0
 10
148.6931166227475
 20
141.829975159281
 30
0.0
 10
148.2537127936058
 20
141.9052861869292
 30
0.0
 10
148.0369591150698
 20
141.9465007621724
 30
0.0
 10
147.4104795670488
 20
142.0767384851167
 30
0.0
 10
147.0260043520408
 20
142.1717844011006
 30
0.0
 10
146.4983499977951
 20
142.3180656498941
 30
0.0
 10
146.3306802027961
 20
142.3674399297349
 30
0.0
 10
146.0122077141075
 20
142.465856234783
 30
0.0
 10
145.8625881357227
 20
142.5145486366625
 30
0.0
 10
145.4494690287861
 20
142.6541967051221
 30
0.0
 10
145.2178632586819
 20
142.7398003968596
 30
0.0
 10
144.9344875562587
 20
142.8487862339278
 30
0.0
 10
144.8508990315915
 20
142.8818425466226
 30
0.0
 10
144.7089392812057
 20
142.9388592060377
 30
0.0
 10
144.6499368357841
 20
142.9630615979489
 30
0.0
 10
144.5551979779515
 20
143.0022731510504
 30
0.0
 10
144.5194613917728
 20
143.0172839049285
 30
0.0
 10
144.4714855061198
 20
143.037497764133
 30
0.0
 10
144.4593562212931
 20
143.0426536930949
 30
0.0
 10
144.4593562212931
 20
143.0426536930949
 30
0.0
  0
SPLINE
  5
197
330
1F
100
AcDbEntity
  8
0
  6
Continuous
 62
     7
370
    25
100
AcDbSpline
210
0.0
220
0.0
230
1.0
 70
     8
 71
     3
 72
    27
 73
    23
 74
     0
 42
0.000000001
 43
0.00000001
 40
0.0
 40
0.0
 40
0.0
 40
0.0
 40
0.0177982419009726
 40
0.0355305659555567
 40
0.0532207708723855
 40
0.0708928255252307
 40
0.0885707726163857
 40
0.1062786308474801
 40
0.1240402975766239
 40
0.1418794539179687
 40
0.1598194741262374
 40
0.1778833409139099
 40
0.196093568088194
 40
0.2940272481309832
 40
0.3934824454776634
 40
0.4929594753532135
 40
0.5923489756379764
 40
0.6936372957927901
 40
0.7924895749653386
 40
0.8914488649731586
 40
0.9930637468952574
 40
1.0
 40
1.0
 40
1.0
 40
1.0
 10
163.0153013799542
 20
143.0426536930949
 30
0.0
 10
163.0143304488028
 20
143.0422345598248
 30
0.0
 10
163.0123921824558
 20
143.0413978455933
 30
0.0
 10
162.9967271518757
 20
143.0346582328915
 30
0.0
 10
162.9717078164919
 20
143.0239819232316
 30
0.0
 10
162.9364283457177
 20
143.0090425127254
 30
0.0
 10
162.8911309272397
 20
142.990013683441
 30
0.0
 10
162.8357509833918
 20
142.9669362366134
 30
0.0
 10
162.7703071036225
 20
142.9398874437402
 30
0.0
 10
162.6947930348019
 20
142.9089349586707
 30
0.0
 10
162.6092198216036
 20
142.8741514956793
 30
0.0
 10
162.5135548263146
 20
142.8356018287746
 30
0.0
 10
162.2541655985524
 20
142.731919969302
 30
0.0
 10
161.7200304493967
 20
142.5244506098663
 30
0.0
 10
160.7401809184561
 20
142.188170672004
 30
0.0
 10
159.5552290836931
 20
141.8437251036022
 30
0.0
 10
158.1881196648226
 20
141.5464110397455
 30
0.0
 10
156.7041755252703
 20
141.3365468614636
 30
0.0
 10
155.1485400035901
 20
141.2621890301038
 30
0.0
 10
153.5919182870777
 20
141.3356853809509
 30
0.0
 10
152.5613200345963
 20
141.4802826589141
 30
0.0
 10
152.0480639063827
 20
141.5731036011982
 30
0.0
 10
152.0152676172239
 20
141.5790347188134
 30
0.0
  0
LINE
  5
198
330
1F
100
AcDbEntity
  8
0
  6
Continuous
 62
     7
370
    25
100
AcDbLine
 10
163.0153013799
 20
143.0426536931
 30
0.0
 11
168.0393563766
 21
143.0426536931
 31
0.0
  0
LINE
  5
199
330
1F
100
AcDbEntity
  8
0
  6
Continuous
 62
     7
370
    25
100
AcDbLine
 10
160.1893563766
 20
129.4679271039
 30
0.0
 11
160.1893563766
 21
125.4051536931
 31
0.0
  0
SPLINE
  5
19A
330
1F
100
AcDbEntity
  8
0
  6
Continuous
 62
     7
370
    25
100
AcDbSpline
210
0.0
220
0.0
230
1.0
 70
     8
 71
     3
 72
    25
 73
    21
 74
     0
 42
0.000000001
 43
0.00000001
 40
0.0
 40
0.0
 40
0.0
 40
0.0
 40
0.0278144320057639
 40
0.0555680196235574
 40
0.0833316253664654
 40
0.1111760352153096
 40
0.1391714221517776
 40
0.1673868326271671
 40
0.1958897140424394
 40
0.2247454979312721
 40
0.2540172492220529
 40
0.3796724409982623
 40
0.5056484635001489
 40
0.62975272906517
 40
0.7535891720570678
 40
0.803856480607963
 40
0.8533396843413759
 40
0.902326439833779
 40
0.9511131859205574
 40
0.9999999999999999
 40
0.9999999999999999
 40
0.9999999999999999
 40
0.9999999999999999
 10
155.5393563765841
 20
133.9526502754599
 30
0.0
 10
155.608011730545
 20
133.9521171903528
 30
0.0
 10
155.7451722540951
 20
133.9510521862684
 30
0.0
 10
155.9504148366777
 20
133.9379572888761
 30
0.0
 10
156.1547358531726
 20
133.9164188023036
 30
0.0
 10
156.3581369052605
 20
133.8855973304549
 30
0.0
 10
156.5606125361064
 20
133.8456845779474
 30
0.0
 10
156.7621614003551
 20
133.7965843850065
 30
0.0
 10
156.9627754211599
 20
133.7382711374946
 30
0.0
 10
157.1624731854954
 20
133.6706791946278
 30
0.0
 10
157.5780380061711
 20
133.5098656785178
 30
0.0
 10
158.1808144227138
 20
133.1958887791743
 30
0.0
 10
158.8748709782138
 20
132.6323173036887
 30
0.0
 10
159.4416446076179
 20
131.9565730844302
 30
0.0
 10
159.7792224132871
 20
131.3392112569565
 30
0.0
 10
159.9676848225844
 20
130.8471498174443
 30
0.0
 10
160.0669460401084
 20
130.5094980349025
 30
0.0
 10
160.1372906288152
 20
130.1668668928791
 30
0.0
 10
160.1812892273335
 20
129.8195021924325
 30
0.0
 10
160.1866654908137
 20
129.5851988158207
 30
0.0
 10
160.1893563765841
 20
129.4679271038946
 30
0.0
  0
LINE
  5
19B
330
1F
100
AcDbEntity
  8
0
  6
Continuous
 62
     7
370
    25
100
AcDbLine
 10
153.6244830973
 20
133.9526502755
 30
0.0
 11
155.5393563766
 21
133.9526502755
 31
0.0
  0
SPLINE
  5
19C
330
1F
100
AcDbEntity
  8
0
  6
Continuous
 62
     7
370
    25
100
AcDbSpline
210
0.0
220
0.0
230
1.0
 70
     8
 71
     3
 72
    12
 73
     8
 74
     0
 42
0.000000001
 43
0.00000001
 40
0.0
 40
0.0
 40
0.0
 40
0.0
 40
0.1992838848988201
 40
0.3984605265816151
 40
0.5979968004991016
 40
0.7983570684846223
 40
1.0
 40
1.0
 40
1.0
 40
1.0
 10
152.6234492549647
 20
133.8504559627363
 30
0.0
 10
152.688902532265
 20
133.863478315501
 30
0.0
 10
152.8197738636464
 20
133.8895160131432
 30
0.0
 10
153.018623315269
 20
133.9179465721173
 30
0.0
 10
153.2190298311382
 20
133.9383777330988
 30
0.0
 10
153.421200748553
 20
133.9508168101694
 30
0.0
 10
153.5565783322023
 20
133.952037821744
 30
0.0
 10
153.6244830972946
 20
133.9526502754599
 30
0.0
  0
LINE
  5
19D
330
1F
100
AcDbEntity
  8
0
  6
Continuous
 62
     7
370
    25
100
AcDbLine
 10
146.1765257782
 20
133.8502920387
 30
0.0
 11
152.6226762659
 21
133.8502920387
 31
0.0
  0
SPLINE
  5
19E
330
1F
100
AcDbEntity
  8
0
  6
Continuous
 62
     7
370
    25
100
AcDbSpline
210
0.0
220
0.0
230
1.0
 70
     8
 71
     3
 72
    13
 73
     9
 74
     0
 42
0.000000001
 43
0.00000001
 40
0.0
 40
0.0
 40
0.0
 40
0.0
 40
0.1669629733016842
 40
0.333268261715708
 40
0.4993197351340666
 40
0.6655231134850657
 40
0.8322830075705294
 40
1.0
 40
1.0
 40
1.0
 40
1.0
 10
144.9542296558736
 20
134.0110566559928
 30
0.0
 10
145.0232695929948
 20
134.0101203128992
 30
0.0
 10
145.1610775115911
 20
134.0082513150671
 30
0.0
 10
145.3670311317092
 20
133.9942395327854
 30
0.0
 10
145.5716725959691
 20
133.9720443443937
 30
0.0
 10
145.7749270503613
 20
133.9406471361457
 30
0.0
 10
145.9770540227028
 20
133.900995782805
 30
0.0
 10
146.1099084729634
 20
133.8672042578991
 30
0.0
 10
146.1765257781553
 20
133.8502601485889
 30
0.0
  0
LINE
  5
19F
330
1F
100
AcDbEntity
  8
0
  6
Continuous
 62
     7
370
    25
100
AcDbLine
 10
140.5893563766
 20
134.011056656
 30
0.0
 11
144.9542296559
 21
134.011056656
 31
0.0
  0
LINE
  5
1A0
330
1F
100
AcDbEntity
  8
0
  6
Continuous
 62
     7
370
    25
100
AcDbLine
 10
140.5893563766
 20
143.0426536931
 30
0.0
 11
140.5893563766
 21
134.011056656
 31
0.0
  0
LINE
  5
1A1
330
1F
100
AcDbEntity
  8
0
  6
Continuous
 62
     7
370
    25
100
AcDbLine
 10
140.5893563766
 20
143.0426536931
 30
0.0
 11
144.4593562213
 21
143.0426536931
 31
0.0
  0
ARC
  5
1A2
330
1F
100
AcDbEntity
  8
0
  6
Continuous
 62
     7
370
    25
100
AcDbCircle
 10
175.2393563766
 20
139.7551536931
 30
0.0
 40
1.200000000000017
100
AcDbArc
 50
0.0
 51
90.0
  0
LINE
  5
1A3
330
1F
100
AcDbEntity
  8
0
  6
Continuous
 62
     7
370
    25
100
AcDbLine
 10
171.5393563766
 20
140.9551536931
 30
0.0
 11
175.2393563766
 21
140.9551536931
 31
0.0
  0
LINE
  5
1A4
330
1F
100
AcDbEntity
  8
0
  6
Continuous
 62
     7
370
    25
100
AcDbLine
 10
171.5393563766
 20
140.9551536931
 30
0.0
 11
171.5393563766
 21
125.4051536931
 31
0.0
  0
LINE
  5
1A5
330
1F
100
AcDbEntity
  8
0
  6
Continuous
 62
     7
370
    25
100
AcDbLine
 10
190.7735541812
 20
93.9301536931
 30
0.0
 11
190.7735541812
 21
95.8684063601
 31
0.0
  0
LINE
  5
1A6
330
1F
100
AcDbEntity
  8
0
  6
Continuous
 62
     7
370
    25
100
AcDbLine
 10
194.5393563766
 20
156.8801536931
 30
0.0
 11
190.7735541812
 21
156.8801536931
 31
0.0
  0
ARC
  5
1A7
330
1F
100
AcDbEntity
  8
0
  6
Continuous
 62
     7
370
    25
100
AcDbCircle
 10
198.5393563766
 20
138.0578309912
 30
0.0
 40
3.0
100
AcDbArc
 50
180.0
 51
265.5
  0
LINE
  5
1A8
330
1F
100
AcDbEntity
  8
0
  6
Continuous
 62
     7
370
    25
100
AcDbLine
 10
185.5643563766
 20
96.4575584289
 30
0.0
 11
185.5643563766
 21
98.9841431727
 31
0.0
  0
LINE
  5
1A9
330
1F
100
AcDbEntity
  8
0
  6
Continuous
 62
     7
370
    25
100
AcDbLine
 10
189.3143563766
 20
96.4575584289
 30
0.0
 11
189.3143563766
 21
98.5104000774
 31
0.0
  0
LINE
  5
1AA
330
1F
100
AcDbEntity
  8
0
  6
Continuous
 62
     7
370
    25
100
AcDbLine
 10
257.0785859244
 20
130.4414171141
 30
0.0
 11
198.3039790894
 21
135.06707899
 31
0.0
  0
LINE
  5
1AB
330
1F
100
AcDbEntity
  8
0
  6
Continuous
 62
     7
370
    25
100
AcDbLine
 10
180.2643563766
 20
131.1551536931
 30
0.0
 11
181.0893563766
 21
131.1551536931
 31
0.0
  0
LINE
  5
1AC
330
1F
100
AcDbEntity
  8
0
  6
Continuous
 62
     7
370
    25
100
AcDbLine
 10
176.8393563766
 20
130.4051536931
 30
0.0
 11
176.8393563766
 21
125.4051536931
 31
0.0
  0
LINE
  5
1AD
330
1F
100
AcDbEntity
  8
0
  6
Continuous
 62
     7
370
    25
100
AcDbLine
 10
176.4393563766
 20
130.6360938008
 30
0.0
 11
176.8393563766
 21
130.4051536931
 31
0.0
  0
LINE
  5
1AE
330
1F
100
AcDbEntity
  8
0
  6
Continuous
 62
     7
370
    25
100
AcDbLine
 10
176.4393563766
 20
130.6360938008
 30
0.0
 11
176.4393563766
 21
125.4051536931
 31
0.0
  0
LINE
  5
1AF
330
1F
100
AcDbEntity
  8
0
  6
Continuous
 62
     7
370
    25
100
AcDbLine
 10
257.5393563766
 20
120.8673491014
 30
0.0
 11
257.5393563766
 21
125.4051536931
 31
0.0
  0
ARC
  5
1B0
330
1F
100
AcDbEntity
  8
0
  6
Continuous
 62
     7
370
    25
100
AcDbCircle
 10
257.0393563766
 20
129.9429584473
 30
0.0
 40
0.5000000000000167
100
AcDbArc
 50
0.0
 51
85.5
  0
LINE
  5
1B1
330
1F
100
AcDbEntity
  8
0
  6
Continuous
 62
     7
370
    25
100
AcDbLine
 10
176.8393563766
 20
130.4051536931
 30
0.0
 11
180.2643563766
 21
130.4051536931
 31
0.0
  0
LINE
  5
1B2
330
1F
100
AcDbEntity
  8
0
  6
Continuous
 62
     7
370
    25
100
AcDbLine
 10
180.2643563766
 20
130.4051536931
 30
0.0
 11
180.2643563766
 21
125.4051536931
 31
0.0
  0
LINE
  5
1B3
330
1F
100
AcDbEntity
  8
0
  6
Continuous
 62
     7
370
    25
100
AcDbLine
 10
230.2904321504
 20
128.1551536931
 30
0.0
 11
230.2904321504
 21
125.4051536931
 31
0.0
  0
LINE
  5
1B4
330
1F
100
AcDbEntity
  8
0
  6
Continuous
 62
     7
370
    25
100
AcDbLine
 10
229.5393563766
 20
129.4051536931
 30
0.0
 11
229.5393563766
 21
125.4051536931
 31
0.0
  0
LINE
  5
1B5
330
1F
100
AcDbEntity
  8
0
  6
Continuous
 62
     7
370
    25
100
AcDbLine
 10
229.5393563766
 20
129.4051536931
 30
0.0
 11
230.2904321504
 21
128.1551536931
 31
0.0
  0
LINE
  5
1B6
330
1F
100
AcDbEntity
  8
0
  6
Continuous
 62
     7
370
    25
100
AcDbLine
 10
181.0893563766
 20
129.4051536931
 30
0.0
 11
229.5393563766
 21
129.4051536931
 31
0.0
  0
LINE
  5
1B7
330
1F
100
AcDbEntity
  8
0
  6
Continuous
 62
     7
370
    25
100
AcDbLine
 10
181.0893563766
 20
129.4051536931
 30
0.0
 11
181.0893563766
 21
125.4051536931
 31
0.0
  0
LINE
  5
1B8
330
1F
100
AcDbEntity
  8
0
  6
Continuous
 62
     7
370
    25
100
AcDbLine
 10
256.0393563766
 20
127.4051536931
 30
0.0
 11
256.0393563766
 21
125.4051536931
 31
0.0
  0
LINE
  5
1B9
330
1F
100
AcDbEntity
  8
0
  6
Continuous
 62
     7
370
    25
100
AcDbLine
 10
256.0393563766
 20
127.4051536931
 30
0.0
 11
257.5393563766
 21
128.2711790969
 31
0.0
  0
LINE
  5
1BA
330
1F
100
AcDbEntity
  8
0
  6
Continuous
 62
     7
370
    25
100
AcDbLine
 10
257.5393563766
 20
128.2711790969
 30
0.0
 11
257.5393563766
 21
125.4051536931
 31
0.0
  0
LINE
  5
1BB
330
1F
100
AcDbEntity
  8
0
  6
Continuous
 62
     7
370
    25
100
AcDbLine
 10
245.5393563766
 20
127.4051536931
 30
0.0
 11
245.5393563766
 21
125.4051536931
 31
0.0
  0
LINE
  5
1BC
330
1F
100
AcDbEntity
  8
0
  6
Continuous
 62
     7
370
    25
100
AcDbLine
 10
245.0887109123
 20
128.1551536931
 30
0.0
 11
245.0887109123
 21
125.4051536931
 31
0.0
  0
LINE
  5
1BD
330
1F
100
AcDbEntity
  8
0
  6
Continuous
 62
     7
370
    25
100
AcDbLine
 10
245.0887109123
 20
128.1551536931
 30
0.0
 11
245.5393563766
 21
127.4051536931
 31
0.0
  0
LINE
  5
1BE
330
1F
100
AcDbEntity
  8
0
  6
Continuous
 62
     7
370
    25
100
AcDbLine
 10
230.2904321504
 20
128.1551536931
 30
0.0
 11
245.0887109123
 21
128.1551536931
 31
0.0
  0
LINE
  5
1BF
330
1F
100
AcDbEntity
  8
0
  6
Continuous
 62
     7
370
    25
100
AcDbLine
 10
245.5393563766
 20
127.4051536931
 30
0.0
 11
256.0393563766
 21
127.4051536931
 31
0.0
  0
SPLINE
  5
1C0
330
1F
100
AcDbEntity
  8
0
  6
Continuous
 62
     7
370
    25
100
AcDbSpline
210
0.0
220
0.0
230
1.0
 70
     8
 71
     3
 72
    38
 73
    34
 74
     0
 42
0.000000001
 43
0.00000001
 40
0.0
 40
0.0
 40
0.0
 40
0.0
 40
0.1250000000000003
 40
0.1250000000000003
 40
0.2500000000000006
 40
0.2500000000000006
 40
0.3125000000000007
 40
0.3125000000000007
 40
0.3750000000000008
 40
0.3750000000000008
 40
0.437500000000001
 40
0.437500000000001
 40
0.5000000000000011
 40
0.5000000000000011
 40
0.5625000000000012
 40
0.5625000000000012
 40
0.6250000000000013
 40
0.6250000000000013
 40
0.6875000000000016
 40
0.6875000000000016
 40
0.7187500000000013
 40
0.7187500000000013
 40
0.7500000000000012
 40
0.7500000000000012
 40
0.7812500000000011
 40
0.7812500000000011
 40
0.8125000000000009
 40
0.8125000000000009
 40
0.8750000000000006
 40
0.8750000000000006
 40
0.9375000000000003
 40
0.9375000000000003
 40
1.0
 40
1.0
 40
1.0
 40
1.0
 10
147.8893563765841
 20
147.9412015779988
 30
0.0
 10
147.8893563765842
 20
147.9412015779988
 30
0.0
 10
147.9511558185207
 20
147.9185597978751
 30
0.0
 10
148.2007522418137
 20
147.8259851772759
 30
0.0
 10
148.3844621838913
 20
147.7576042580357
 30
0.0
 10
148.740815530206
 20
147.621776248345
 30
0.0
 10
148.8739618411579
 20
147.5705889776364
 30
0.0
 10
149.1650144085155
 20
147.4569115628361
 30
0.0
 10
149.3214902484713
 20
147.3949911210565
 30
0.0
 10
149.6548417258091
 20
147.2601198996373
 30
0.0
 10
149.8317296281527
 20
147.1871893552218
 30
0.0
 10
150.204937865414
 20
147.0282312398013
 30
0.0
 10
150.4026638592747
 20
146.9416018222092
 30
0.0
 10
150.8086580238812
 20
146.7547050158841
 30
0.0
 10
151.016696878291
 20
146.6546819764872
 30
0.0
 10
151.4389636873396
 20
146.4354480456015
 30
0.0
 10
151.6533159716542
 20
146.3164624227809
 30
0.0
 10
152.0811376145608
 20
146.0462370442654
 30
0.0
 10
152.2975320198496
 20
145.8930200306631
 30
0.0
 10
152.5961789944035
 20
145.6270071156406
 30
0.0
 10
152.6913789124296
 20
145.5322560583084
 30
0.0
 10
152.869025537102
 20
145.3265486189873
 30
0.0
 10
152.9516590140603
 20
145.2147127296453
 30
0.0
 10
153.0937844006468
 20
144.9812379486168
 30
0.0
 10
153.1541943184008
 20
144.8586980133317
 30
0.0
 10
153.2536943714166
 20
144.6022696637575
 30
0.0
 10
153.2930119365074
 20
144.467050235694
 30
0.0
 10
153.3797848932687
 20
144.0587978349482
 30
0.0
 10
153.3985317331067
 20
143.7825560395051
 30
0.0
 10
153.3950978540922
 20
143.2258434761295
 30
0.0
 10
153.3726410320725
 20
142.9476206553036
 30
0.0
 10
153.3070509455505
 20
142.3962587972885
 30
0.0
 10
153.2635682293724
 20
142.1220176242288
 30
0.0
 10
153.2141015910645
 20
141.84860089212
 30
0.0
  0
SPLINE
  5
1C1
330
1F
100
AcDbEntity
  8
0
  6
Continuous
 62
     7
370
    25
100
AcDbSpline
210
0.0
220
0.0
230
1.0
 70
     8
 71
     3
 72
    14
 73
    10
 74
     0
 42
0.000000001
 43
0.00000001
 40
0.0
 40
0.0
 40
0.0
 40
0.0
 40
0.0003951393068452
 40
0.0003951393068452
 40
0.0003951393068452
 40
0.0008163352168664
 40
0.0008163352168664
 40
0.0008163352168664
 40
0.0012378579337219
 40
0.0012378579337219
 40
0.0012378579337219
 40
0.0012378579337219
 10
152.0198002509834
 20
141.5803801688347
 30
0.0
 10
152.1483148106121
 20
141.6092305458466
 30
0.0
 10
152.2768831388132
 20
141.6378958366068
 30
0.0
 10
152.4054375579719
 20
141.6663774897074
 30
0.0
 10
152.5424674994612
 20
141.6967369225719
 30
0.0
 10
152.6795070005414
 20
141.7268929704364
 30
0.0
 10
152.8164696620958
 20
141.7568579838121
 30
0.0
 10
152.9535383958449
 20
141.7868462039121
 30
0.0
 10
153.0905568383284
 20
141.8166486376568
 30
0.0
 10
153.2274330559032
 20
141.8462925078744
 30
0.0
  0
LINE
  5
1C2
330
1F
100
AcDbEntity
  8
0
  6
Continuous
 62
     7
370
    25
100
AcDbLine
 10
144.4593562213
 20
143.0426536931
 30
0.0
 11
147.8893563766
 21
147.941201578
 31
0.0
  0
SPLINE
  5
1C3
330
1F
100
AcDbEntity
  8
0
  6
Continuous
 62
     7
370
    25
100
AcDbSpline
210
0.0
220
0.0
230
1.0
 70
     8
 71
     3
 72
    29
 73
    25
 74
     0
 42
0.000000001
 43
0.00000001
 40
0.0
 40
0.0
 40
0.0
 40
0.0
 40
0.0193093456276319
 40
0.0382723610568799
 40
0.0568933978496768
 40
0.0751770518511898
 40
0.0931281781446524
 40
0.1107519067414546
 40
0.1280536589844257
 40
0.14503916462571
 40
0.2460190476488668
 40
0.3581023754380517
 40
0.4497446758417687
 40
0.5719624763742708
 40
0.6350627238751415
 40
0.6918261171156757
 40
0.7422663249894489
 40
0.7864037660019076
 40
0.8237398821331005
 40
0.8603454171336048
 40
0.8962461070851876
 40
0.9314692338205901
 40
0.9660436838695505
 40
0.9999999999999999
 40
0.9999999999999999
 40
0.9999999999999999
 40
0.9999999999999999
 10
153.2201531520118
 20
141.8477606279664
 30
0.0
 10
153.3034775283809
 20
141.8365992154799
 30
0.0
 10
153.4686317847049
 20
141.8144765803151
 30
0.0
 10
153.7174148474259
 20
141.7863372248499
 30
0.0
 10
153.9636101616275
 20
141.7623091424145
 30
0.0
 10
154.2071021333502
 20
141.7427146959687
 30
0.0
 10
154.4474830998778
 20
141.727469991318
 30
0.0
 10
154.6844519952952
 20
141.71659688258
 30
0.0
 10
154.9177324759376
 20
141.7100903604257
 30
0.0
 10
155.5262909018346
 20
141.7044092724892
 30
0.0
 10
156.5636357900887
 20
141.7645914364845
 30
0.0
 10
157.8727053341057
 20
141.9639611921416
 30
0.0
 10
159.1500584413095
 20
142.2701555466051
 30
0.0
 10
160.1035858516741
 20
142.5689512002031
 30
0.0
 10
160.8086960168448
 20
142.8312235930177
 30
0.0
 10
161.2436261421684
 20
143.002543425513
 30
0.0
 10
161.5766601435414
 20
143.1434338176153
 30
0.0
 10
161.8235139541143
 20
143.2524847686791
 30
0.0
 10
162.0093060642154
 20
143.3350388458698
 30
0.0
 10
162.1510850759537
 20
143.3993094742806
 30
0.0
 10
162.259473172733
 20
143.4493534322098
 30
0.0
 10
162.3347689592877
 20
143.4848628230554
 30
0.0
 10
162.380920505893
 20
143.507187821828
 30
0.0
 10
162.3865613795409
 20
143.5099903912019
 30
0.0
 10
162.3893563765841
 20
143.5113790365789
 30
0.0
  0
LINE
  5
1C4
330
1F
100
AcDbEntity
  8
0
  6
Continuous
 62
     7
370
    25
100
AcDbLine
 10
147.8893563766
 20
147.941201578
 30
0.0
 11
147.8893563766
 21
148.0693065083
 31
0.0
  0
SPLINE
  5
1C5
330
1F
100
AcDbEntity
  8
0
  6
Continuous
 62
     7
370
    25
100
AcDbSpline
210
0.0
220
0.0
230
1.0
 70
     8
 71
     3
 72
    32
 73
    28
 74
     0
 42
0.000000001
 43
0.00000001
 40
0.0
 40
0.0
 40
0.0
 40
0.0
 40
0.0020321896300555
 40
0.0618778889225992
 40
0.1267893353944151
 40
0.1843943767862436
 40
0.2519221056952897
 40
0.2915647447733671
 40
0.3256757764790283
 40
0.3542549896100182
 40
0.3773040540563205
 40
0.4433217410891391
 40
0.5021738381429702
 40
0.561903804713006
 40
0.6268280315908275
 40
0.6838375806064015
 40
0.7517558599944433
 40
0.7815069186952774
 40
0.8088200397102113
 40
0.8336962568025432
 40
0.8561370967113251
 40
0.8761448027552337
 40
0.902589756108967
 40
0.9284104889160406
 40
0.9532437392705752
 40
0.9771021529746481
 40
1.0
 40
1.0
 40
1.0
 40
1.0
 10
162.3893563765841
 20
148.8687100682205
 30
0.0
 10
162.3893233957126
 20
148.868692919973
 30
0.0
 10
162.3883191652635
 20
148.8681707751217
 30
0.0
 10
162.288507548747
 20
148.8200611378939
 30
0.0
 10
161.8765298063944
 20
148.6473361910596
 30
0.0
 10
161.1971370812448
 20
148.3839918512681
 30
0.0
 10
160.4108076512461
 20
148.1054318335862
 30
0.0
 10
159.6169565897709
 20
147.8561028486564
 30
0.0
 10
158.9872329755504
 20
147.6829810828907
 30
0.0
 10
158.4259969376508
 20
147.5428724213658
 30
0.0
 10
157.6223884879314
 20
147.3631453544021
 30
0.0
 10
156.542240338409
 20
147.1765868812407
 30
0.0
 10
155.1327109970223
 20
147.0316697659627
 30
0.0
 10
153.7235099393357
 20
147.0114585005681
 30
0.0
 10
152.3827820217298
 20
147.0925979242641
 30
0.0
 10
151.0985672134011
 20
147.2583308511946
 30
0.0
 10
150.181733689678
 20
147.4371227364362
 30
0.0
 10
149.546987496021
 20
147.5892996442879
 30
0.0
 10
149.1728371302262
 20
147.6833269443029
 30
0.0
 10
148.8699607639682
 20
147.764960399774
 30
0.0
 10
148.6292354930694
 20
147.8337366432091
 30
0.0
 10
148.4139559173609
 20
147.8978865828748
 30
0.0
 10
148.2249200924658
 20
147.9557520534717
 30
0.0
 10
148.0689651267748
 20
148.0060685147641
 30
0.0
 10
147.9633148416196
 20
148.0419700058399
 30
0.0
 10
147.9005832227993
 20
148.064756500308
 30
0.0
 10
147.8930470506233
 20
148.0678107546613
 30
0.0
 10
147.8893563765841
 20
148.0693065083393
 30
0.0
  0
LINE
  5
1C6
330
1F
100
AcDbEntity
  8
0
  6
Continuous
 62
     7
370
    25
100
AcDbLine
 10
162.3893563766
 20
148.8687100682
 30
0.0
 11
162.3893563766
 21
143.5113790366
 31
0.0
  0
LINE
  5
1C7
330
1F
100
AcDbEntity
  8
0
  6
Continuous
 62
     7
370
    25
100
AcDbLine
 10
147.1395171558
 20
148.8785317248
 30
0.0
 11
147.8893665667
 21
148.069309971
 31
0.0
  0
LINE
  5
1C8
330
1F
100
AcDbEntity
  8
0
  6
Continuous
 62
     7
370
    25
100
AcDbLine
 10
162.3893862225
 20
148.8687140691
 30
0.0
 11
163.0579646319
 21
149.6779362554
 31
0.0
  0
LINE
  5
1C9
330
1F
100
AcDbEntity
  8
0
  6
Continuous
 62
     7
370
    25
100
AcDbLine
 10
189.3143563766
 20
154.3527489573
 30
0.0
 11
189.3143563766
 21
154.2551536931
 31
0.0
  0
LINE
  5
1CA
330
1F
100
AcDbEntity
  8
0
  6
Continuous
 62
     7
370
    25
100
AcDbLine
 10
190.7735541812
 20
156.8801536931
 30
0.0
 11
189.3143563766
 21
154.3527489573
 31
0.0
  0
LINE
  5
1CB
330
1F
100
AcDbEntity
  8
0
  6
Continuous
 62
     7
370
    25
100
AcDbLine
 10
163.0153007596
 20
143.0426544595
 30
0.0
 11
162.3893551243
 21
143.511379301
 31
0.0
  0
LINE
  5
1CC
330
1F
100
AcDbEntity
  8
0
  6
Continuous
 62
     7
370
    25
100
AcDbLine
 10
185.5643563766
 20
154.3527489573
 30
0.0
 11
184.105158572
 21
156.8801536931
 31
0.0
  0
LINE
  5
1CD
330
1F
100
AcDbEntity
  8
0
  6
Continuous
 62
     7
370
    25
100
AcDbLine
 10
185.5643563766
 20
154.2551536931
 30
0.0
 11
185.5643563766
 21
154.3527489573
 31
0.0
  0
ARC
  5
1CE
330
1F
100
AcDbEntity
  8
0
  6
Continuous
 62
     7
370
    25
100
AcDbCircle
 10
186.5643563766
 20
154.2551536931
 30
0.0
 40
1.000000000000028
100
AcDbArc
 50
180.0
 51
270.0
  0
LINE
  5
1CF
330
1F
100
AcDbEntity
  8
0
  6
Continuous
 62
     7
370
    25
100
AcDbLine
 10
188.3143563766
 20
153.2551536931
 30
0.0
 11
186.5643563766
 21
153.2551536931
 31
0.0
  0
ARC
  5
1D0
330
1F
100
AcDbEntity
  8
0
  6
Continuous
 62
     7
370
    25
100
AcDbCircle
 10
188.3143563766
 20
154.2551536931
 30
0.0
 40
1.0
100
AcDbArc
 50
270.0
 51
0.0
  0
LINE
  5
1D1
330
1F
100
AcDbEntity
  8
0
  6
Continuous
 62
     7
370
    25
100
AcDbLine
 10
257.5393563766
 20
128.2711790969
 30
0.0
 11
257.5393563766
 21
129.9429584473
 31
0.0
  0
LINE
  5
1D2
330
1F
100
AcDbEntity
  8
0
  6
Continuous
 62
     7
370
    25
100
AcDbLine
 10
181.0893563766
 20
131.1551536931
 30
0.0
 11
181.0893563766
 21
129.4051536931
 31
0.0
  0
LINE
  5
1D3
330
1F
100
AcDbEntity
  8
0
  6
Continuous
 62
     7
370
    25
100
AcDbLine
 10
180.2643563766
 20
130.4051536931
 30
0.0
 11
180.2643563766
 21
131.1551536931
 31
0.0
  0
LINE
  5
1D4
330
1F
100
AcDbEntity
  8
0
  6
Continuous
 62
     7
370
    25
100
AcDbLine
 10
176.4393563766
 20
139.7551536931
 30
0.0
 11
176.4393563766
 21
130.6360938008
 31
0.0
  0
LINE
  5
1D5
330
1F
100
AcDbEntity
  8
0
  6
Continuous
 62
     7
370
    25
100
AcDbLine
 10
171.5393563766
 20
142.8551536931
 30
0.0
 11
171.5393563766
 21
140.9551536931
 31
0.0
  0
LINE
  5
1D6
330
1F
100
AcDbEntity
  8
0
  6
Continuous
 62
     7
370
    25
100
AcDbLine
 10
195.5393563766
 20
138.0578309912
 30
0.0
 11
195.5393563766
 21
155.8801536931
 31
0.0
  0
LINE
  5
1D7
330
1F
100
AcDbEntity
  8
0
  6
Continuous
 62
     7
370
    25
100
AcDbLine
 10
177.5393563766
 20
156.6801536931
 30
0.0
 11
177.5393563766
 21
152.2551536931
 31
0.0
  0
LINE
  5
1D8
330
1F
100
AcDbEntity
  8
0
  6
Continuous
 62
     7
370
    25
100
AcDbLine
 10
138.3410224264
 20
144.3407299044
 30
0.0
 11
140.5893563766
 21
143.0426536931
 31
0.0
  0
LINE
  5
1D9
330
1F
100
AcDbEntity
  8
0
  6
Continuous
 62
     7
370
    25
100
AcDbLine
 10
137.5893563766
 20
145.6426536931
 30
0.0
 11
138.3410224264
 21
144.3407299044
 31
0.0
  0
LINE
  5
1DA
330
1F
100
AcDbEntity
  8
0
  6
Continuous
 62
     7
370
    25
100
AcDbLine
 10
137.5893563766
 20
147.6082484169
 30
0.0
 11
137.5893563766
 21
145.6426536931
 31
0.0
  0
LINE
  5
1DB
330
1F
100
AcDbEntity
  8
0
  6
Continuous
 62
     7
370
    25
100
AcDbLine
 10
139.0893563766
 20
148.4742738207
 30
0.0
 11
137.5893563766
 21
147.6082484169
 31
0.0
  0
LINE
  5
1DC
330
1F
100
AcDbEntity
  8
0
  6
Continuous
 62
     7
370
    25
100
AcDbLine
 10
138.3410224264
 20
144.3407299044
 30
0.0
 11
138.3410224264
 21
134.0497045007
 31
0.0
  0
SPLINE
  5
1DD
330
1F
100
AcDbEntity
  8
0
  6
Continuous
 62
     7
370
    25
100
AcDbSpline
210
0.0
220
0.0
230
1.0
 70
    24
 71
     3
 72
     8
 73
     4
 74
     0
 42
0.000000001
 43
0.00000001
 40
0.0000004024872366
 40
0.0000004024872366
 40
0.0000004024872366
 40
0.0000004024872366
 40
0.0015137680586847
 40
0.0015137680586847
 40
0.0015137680586847
 40
0.0015137680586847
 10
137.5893563765841
 20
134.4836790968793
 30
0.0
 10
137.8400252488369
 20
134.3389553560067
 30
0.0
 10
138.0905888661651
 20
134.1942923840932
 30
0.0
 10
138.3410224264236
 20
134.0497045006638
 30
0.0
  0
LINE
  5
1DE
330
1F
100
AcDbEntity
  8
0
  6
Continuous
 62
     7
370
    25
100
AcDbLine
 10
137.5893563766
 20
145.6426536931
 30
0.0
 11
137.5893563766
 21
134.4836790969
 31
0.0
  0
SPLINE
  5
1DF
330
1F
100
AcDbEntity
  8
0
  6
Continuous
 62
     7
370
    25
100
AcDbSpline
210
0.0
220
0.0
230
1.0
 70
     8
 71
     3
 72
     8
 73
     4
 74
     0
 42
0.000000001
 43
0.00000001
 40
0.0
 40
0.0
 40
0.0
 40
0.0
 40
0.000136040218399
 40
0.000136040218399
 40
0.000136040218399
 40
0.000136040218399
 10
140.5307834604023
 20
133.9242345547972
 30
0.0
 10
140.5504925721331
 20
133.9531125541654
 30
0.0
 10
140.5700184372975
 20
133.9820534588899
 30
0.0
 10
140.5893563765841
 20
134.0110566559928
 30
0.0
  0
SPLINE
  5
1E0
330
1F
100
AcDbEntity
  8
0
  6
Continuous
 62
     7
370
    25
100
AcDbSpline
210
0.0
220
0.0
230
1.0
 70
     8
 71
     3
 72
     9
 73
     5
 74
     0
 42
0.000000001
 43
0.00000001
 40
0.0
 40
0.0
 40
0.0
 40
0.0
 40
0.5086448740972567
 40
1.0
 40
1.0
 40
1.0
 40
1.0
 10
138.543479942547
 20
133.9328157663675
 30
0.0
 10
138.8810460897213
 20
133.9314280686775
 30
0.0
 10
139.5447039075131
 20
133.9286998436217
 30
0.0
 10
140.2059003702648
 20
133.925706203746
 30
0.0
 10
140.5307826414666
 20
133.924235263448
 30
0.0
  0
SPLINE
  5
1E1
330
1F
100
AcDbEntity
  8
0
  6
Continuous
 62
     7
370
    25
100
AcDbSpline
210
0.0
220
0.0
230
1.0
 70
    24
 71
     3
 72
     8
 73
     4
 74
     0
 42
0.000000001
 43
0.00000001
 40
0.0000002414707367
 40
0.0000002414707367
 40
0.0000002414707367
 40
0.0000002414707367
 40
0.0002447240690309
 40
0.0002447240690309
 40
0.0002447240690309
 40
0.0002447240690309
 10
138.3410224264236
 20
134.0497045006638
 30
0.0
 10
138.4085205362762
 20
134.0107344487706
 30
0.0
 10
138.4760064520676
 20
133.9717714371219
 30
0.0
 10
138.5434799583646
 20
133.9328155900982
 30
0.0
  0
LINE
  5
1E2
330
1F
100
AcDbEntity
  8
0
  6
Continuous
 62
     7
370
    25
100
AcDbLine
 10
146.4179297834
 20
116.7521462328
 30
0.0
 11
146.8893563766
 21
117.3426536931
 31
0.0
  0
LINE
  5
1E3
330
1F
100
AcDbEntity
  8
0
  6
Continuous
 62
     7
370
    25
100
AcDbLine
 10
146.1931695429
 20
133.4676536931
 30
0.0
 11
146.0393453127
 21
133.4676536931
 31
0.0
  0
SPLINE
  5
1E4
330
1F
100
AcDbEntity
  8
0
  6
Continuous
 62
     7
370
    25
100
AcDbSpline
210
0.0
220
0.0
230
1.0
 70
     8
 71
     3
 72
    13
 73
     9
 74
     0
 42
0.000000001
 43
0.00000001
 40
0.0
 40
0.0
 40
0.0
 40
0.0
 40
0.1705273303835771
 40
0.3393382731990408
 40
0.506559245496943
 40
0.6723203022115876
 40
0.8367549624391394
 40
1.0
 40
1.0
 40
1.0
 40
1.0
 10
146.0393554234884
 20
133.4676539617258
 30
0.0
 10
145.9794916067398
 20
133.4836662072612
 30
0.0
 10
145.8603665130854
 20
133.5155295322649
 30
0.0
 10
145.6790687322072
 20
133.5527635824847
 30
0.0
 10
145.4975903533003
 20
133.5820415684571
 30
0.0
 10
145.316059448293
 20
133.6025357074908
 30
0.0
 10
145.134946737256
 20
133.6153016880261
 30
0.0
 10
145.0143227100913
 20
133.6168715912203
 30
0.0
 10
144.9542296558736
 20
133.6176536930949
 30
0.0
  0
SPLINE
  5
1E5
330
1F
100
AcDbEntity
  8
0
  6
Continuous
 62
     7
370
    25
100
AcDbSpline
210
0.0
220
0.0
230
1.0
 70
     8
 71
     3
 72
    10
 73
     6
 74
     0
 42
0.000000001
 43
0.00000001
 40
0.0
 40
0.0
 40
0.0
 40
0.0
 40
0.294086771106153
 40
0.6276647931922208
 40
1.0
 40
1.0
 40
1.0
 40
1.0
 10
146.1931695428876
 20
133.4676536930949
 30
0.0
 10
146.1897351489513
 20
133.5051043743919
 30
0.0
 10
146.1824051757203
 20
133.5850347773909
 30
0.0
 10
146.177851785665
 20
133.7126745566926
 30
0.0
 10
146.1768233209332
 20
133.8027555159627
 30
0.0
 10
146.176280855354
 20
133.8502688805328
 30
0.0
  0
LINE
  5
1E6
330
1F
100
AcDbEntity
  8
0
  6
Continuous
 62
     7
370
    25
100
AcDbLine
 10
144.9542296559
 20
133.6176536931
 30
0.0
 11
140.6309670836
 21
133.6176536931
 31
0.0
  0
SPLINE
  5
1E7
330
1F
100
AcDbEntity
  8
0
  6
Continuous
 62
     7
370
    25
100
AcDbSpline
210
0.0
220
0.0
230
1.0
 70
     8
 71
     3
 72
     8
 73
     4
 74
     0
 42
0.000000001
 43
0.00000001
 40
0.0
 40
0.0
 40
0.0
 40
0.0
 40
1.0
 40
1.0
 40
1.0
 40
1.0
 10
140.630965787905
 20
133.6176538878779
 30
0.0
 10
140.5975738573868
 20
133.7199560669885
 30
0.0
 10
140.5641793543971
 20
133.8221499907305
 30
0.0
 10
140.5307822506078
 20
133.9242349539714
 30
0.0
  0
LINE
  5
1E8
330
1F
100
AcDbEntity
  8
0
  6
Continuous
 62
     7
370
    25
100
AcDbLine
 10
160.1893563766
 20
129.4679271039
 30
0.0
 11
159.5393563766
 21
129.6176536931
 31
0.0
  0
SPLINE
  5
1E9
330
1F
100
AcDbEntity
  8
0
  6
Continuous
 62
     7
370
    25
100
AcDbSpline
210
0.0
220
0.0
230
1.0
 70
     8
 71
     3
 72
    26
 73
    22
 74
     0
 42
0.000000001
 43
0.00000001
 40
0.0
 40
0.0
 40
0.0
 40
0.0
 40
0.030595174061445
 40
0.06291662819381
 40
0.096972053298136
 40
0.1327680143369388
 40
0.17031015488929
 40
0.2096033578563775
 40
0.2506518729757587
 40
0.334214173390137
 40
0.4179517165477876
 40
0.501867056102202
 40
0.5659795686763219
 40
0.6277136397898526
 40
0.6871358192145355
 40
0.744320739390523
 40
0.7993521466058
 40
0.8523240128012268
 40
0.9033417028104946
 40
0.9525231537649436
 40
1.0
 40
1.0
 40
1.0
 40
1.0
 10
159.5393563765841
 20
129.6176536930949
 30
0.0
 10
159.5384481647392
 20
129.682188860491
 30
0.0
 10
159.5365804967583
 20
129.8149004810991
 30
0.0
 10
159.5209879076935
 20
130.0177145726402
 30
0.0
 10
159.4943440465027
 20
130.2294276135491
 30
0.0
 10
159.4541896174213
 20
130.4491396069215
 30
0.0
 10
159.3992915007375
 20
130.6758864777835
 30
0.0
 10
159.3280485321288
 20
130.908517481549
 30
0.0
 10
159.2096361378505
 20
131.2239157960112
 30
0.0
 10
159.0215052414468
 20
131.6083976945377
 30
0.0
 10
158.7374884782123
 20
132.0384253090673
 30
0.0
 10
158.42807052166
 20
132.3969120214113
 30
0.0
 10
158.112160910853
 20
132.6886786777049
 30
0.0
 10
157.8054155027224
 20
132.9211377645458
 30
0.0
 10
157.4869963888947
 20
133.1179479991109
 30
0.0
 10
157.1610255127342
 20
133.2800487013682
 30
0.0
 10
156.8314866776081
 20
133.4085185848457
 30
0.0
 10
156.5019247627635
 20
133.5051024042157
 30
0.0
 10
156.1755064394692
 20
133.5709546334991
 30
0.0
 10
155.8549882471733
 20
133.6105195813223
 30
0.0
 10
155.6433227336488
 20
133.6153037795374
 30
0.0
 10
155.5393563765841
 20
133.6176536930949
 30
0.0
  0
SPLINE
  5
1EA
330
1F
100
AcDbEntity
  8
0
  6
Continuous
 62
     7
370
    25
100
AcDbSpline
210
0.0
220
0.0
230
1.0
 70
     8
 71
     3
 72
    13
 73
     9
 74
     0
 42
0.000000001
 43
0.00000001
 40
0.0
 40
0.0
 40
0.0
 40
0.0
 40
0.1604061687446607
 40
0.3231296684796313
 40
0.4883154213269544
 40
0.6561019686005766
 40
0.8266215117937276
 40
1.0
 40
1.0
 40
1.0
 40
1.0
 10
153.6244830972946
 20
133.6176536930949
 30
0.0
 10
153.5654331457741
 20
133.6168981230568
 30
0.0
 10
153.4464801690408
 20
133.6153760675283
 30
0.0
 10
153.2672265354253
 20
133.6029310083992
 30
0.0
 10
153.0862935537346
 20
133.5827468272669
 30
0.0
 10
152.9041650593392
 20
133.5536114611255
 30
0.0
 10
152.7209980515545
 20
133.5161953093073
 30
0.0
 10
152.6002587366886
 20
133.4839294369524
 30
0.0
 10
152.539387205109
 20
133.4676623820152
 30
0.0
  0
SPLINE
  5
1EB
330
1F
100
AcDbEntity
  8
0
  6
Continuous
 62
     7
370
    25
100
AcDbSpline
210
0.0
220
0.0
230
1.0
 70
    24
 71
     3
 72
    10
 73
     6
 74
     0
 42
0.000000001
 43
0.00000001
 40
0.0
 40
0.0
 40
0.0
 40
0.0
 40
0.3216623556917355
 40
0.6548175346390249
 40
1.0
 40
1.0
 40
1.0
 40
1.0
 10
152.5395352114889
 20
133.4676536930949
 30
0.0
 10
152.4709893036316
 20
133.4676536930949
 30
0.0
 10
152.3314483794343
 20
133.4676536930949
 30
0.0
 10
152.1218399640838
 20
133.4676536930949
 30
0.0
 10
151.98216296893
 20
133.4676536930949
 30
0.0
 10
151.9110861977291
 20
133.4676536930949
 30
0.0
  0
SPLINE
  5
1EC
330
1F
100
AcDbEntity
  8
0
  6
Continuous
 62
     7
370
    25
100
AcDbSpline
210
0.0
220
0.0
230
1.0
 70
     8
 71
     3
 72
     8
 73
     4
 74
     0
 42
0.000000001
 43
0.00000001
 40
0.0
 40
0.0
 40
0.0
 40
0.0
 40
1.0
 40
1.0
 40
1.0
 40
1.0
 10
152.6256864929903
 20
133.8461000422805
 30
0.0
 10
152.3563901629308
 20
133.749410657087
 30
0.0
 10
152.1202294775145
 20
133.6214114877092
 30
0.0
 10
151.9110319613286
 20
133.4679348900631
 30
0.0
  0
LINE
  5
1ED
330
1F
100
AcDbEntity
  8
0
  6
Continuous
 62
     7
370
    25
100
AcDbLine
 10
151.9115776729
 20
117.3426536931
 30
0.0
 11
152.0653594598
 21
117.3426536931
 31
0.0
  0
LINE
  5
1EE
330
1F
100
AcDbEntity
  8
0
  6
Continuous
 62
     7
370
    25
100
AcDbLine
 10
155.5393563766
 20
133.6176536931
 30
0.0
 11
153.6244830973
 21
133.6176536931
 31
0.0
  0
LINE
  5
1EF
330
1F
100
AcDbEntity
  8
0
  6
Continuous
 62
     7
370
    25
100
AcDbLine
 10
151.9114445585
 20
133.4676536931
 30
0.0
 11
146.1931695429
 21
133.4676536931
 31
0.0
  0
LINE
  5
1F0
330
1F
100
AcDbEntity
  8
0
  6
Continuous
 62
     7
370
    25
100
AcDbLine
 10
140.6309670836
 20
133.6176536931
 30
0.0
 11
139.0893560172
 21
133.6176536931
 31
0.0
  0
LINE
  5
1F1
330
1F
100
AcDbEntity
  8
0
  6
Continuous
 62
     7
370
    25
100
AcDbLine
 10
139.0893561144
 20
133.6176538444
 30
0.0
 11
138.5434797677
 21
133.9328157002
 31
0.0
  0
LINE
  5
1F2
330
1F
100
AcDbEntity
  8
0
  6
Continuous
 62
     7
370
    25
100
AcDbLine
 10
159.5393563766
 20
125.4051536931
 30
0.0
 11
159.5393563766
 21
129.6176536931
 31
0.0
  0
LINE
  5
1F3
330
1F
100
AcDbEntity
  8
VERMASSUNG
  6
CENTERX2
100
AcDbLine
 10
269.5343563766
 20
125.4051536931
 30
0.0
 11
125.5943563766
 21
125.4051536931
 31
0.0
  0
HATCH
  5
1F4
330
1F
100
AcDbEntity
  8
0
  6
Continuous
 62
     7
370
    18
100
AcDbHatch
 10
0.0
 20
0.0
 30
0.0
210
0.0
220
0.0
230
1.0
  2
ANSI31
 70
     0
 71
     0
 91
        1
 92
        0
 93
       44
 72
     2
 10
188.3143563765841
 20
154.2551536930949
 40
1.000000000000003
 50
0.0
 51
90.0
 73
     0
 72
     1
 10
188.3143563765841
 20
153.2551536930949
 11
186.5643563765841
 21
153.2551536930949
 72
     2
 10
186.5643563765841
 20
154.2551536930949
 40
1.000000000000003
 50
90.0
 51
180.0
 73
     0
 72
     1
 10
185.5643563765841
 20
154.2551536930949
 11
185.5643563765841
 21
154.3527489572866
 72
     1
 10
185.5643563765841
 20
154.3527489572866
 11
184.105158572014
 21
156.8801536930949
 72
     1
 10
184.105158572014
 20
156.8801536930949
 11
177.7393563765841
 21
156.8801536930949
 72
     2
 10
177.7393563765841
 20
156.6801536930949
 40
0.2000000000000028
 50
90.0
 51
180.0
 73
     1
 72
     1
 10
177.5393563765841
 20
156.6801536930949
 11
177.5393563765841
 21
152.2551536930949
 72
     1
 10
177.5393563765841
 20
152.2551536930949
 11
177.8733950626127
 21
151.1957183326983
 72
     2
 10
177.1104215020141
 20
150.9551536930949
 40
0.8000000000000049
 50
342.4999999999994
 51
467.5000000000003
 73
     0
 72
     1
 10
176.8698568624107
 20
150.1921801324963
 11
176.3791743365534
 21
150.3468917386232
 72
     1
 10
176.3791743365534
 20
150.3468917386232
 11
163.057973273717
 21
149.6779284354072
 72
     1
 10
163.0579646318599
 20
149.6779362554317
 11
162.3893862224624
 21
148.8687140690505
 72
     1
 10
162.3893862224624
 20
148.8687140690505
 11
162.3893563765841
 21
143.5113790365789
 72
     1
 10
162.3893551242854
 20
143.5113793009702
 11
163.0153007596142
 21
143.0426544595491
 72
     1
 10
163.0153013799393
 20
143.0426536930949
 11
168.0393563765841
 21
143.0426536930949
 72
     1
 10
168.0393563765841
 20
143.0426536930949
 11
168.9145968501649
 21
143.5479740161225
 72
     2
 10
169.3145968501649
 20
142.8551536930949
 40
0.7999999999999923
 50
240.0000000000003
 51
269.9999999999987
 73
     0
 72
     1
 10
169.3145968501649
 20
143.6551536930949
 11
170.7393563765841
 21
143.6551536930949
 72
     2
 10
170.7393563765841
 20
142.8551536930949
 40
0.7999999999999977
 50
270.0000000000008
 51
360.0000000000008
 73
     0
 72
     1
 10
171.5393563765841
 20
142.8551536930949
 11
171.5393563765841
 21
140.9551536930949
 72
     1
 10
171.5393563765841
 20
140.9551536930949
 11
175.2393563765841
 21
140.9551536930949
 72
     2
 10
175.2393563765841
 20
139.7551536930949
 40
1.2
 50
270.0000000000008
 51
360.0000000000008
 73
     0
 72
     1
 10
176.4393563765841
 20
139.7551536930949
 11
176.4393563765841
 21
130.6360938007708
 72
     1
 10
176.4393563765841
 20
130.6360938007708
 11
176.8393563765841
 21
130.4051536930949
 72
     1
 10
176.8393563765841
 20
130.4051536930949
 11
180.2643563765841
 21
130.4051536930949
 72
     1
 10
180.2643563765841
 20
130.4051536930949
 11
180.2643563765841
 21
131.1551536930949
 72
     1
 10
180.2643563765841
 20
131.1551536930949
 11
181.0893563765841
 21
131.1551536930949
 72
     1
 10
181.0893563765841
 20
131.1551536930949
 11
181.0893563765841
 21
129.4051536930949
 72
     1
 10
181.0893563765841
 20
129.4051536930949
 11
229.5393563765841
 21
129.4051536930949
 72
     1
 10
229.5393563765841
 20
129.4051536930949
 11
230.2904321503686
 21
128.1551536930949
 72
     1
 10
230.2904321503686
 20
128.1551536930949
 11
245.0887109123135
 21
128.1551536930949
 72
     1
 10
245.0887109123135
 20
128.1551536930949
 11
245.5393563765841
 21
127.4051536930949
 72
     1
 10
245.5393563765841
 20
127.4051536930949
 11
256.0393563765841
 21
127.4051536930949
 72
     1
 10
256.0393563765841
 20
127.4051536930949
 11
257.5393563765841
 21
128.2711790968793
 72
     1
 10
257.5393563765841
 20
128.2711790968793
 11
257.5393563765841
 21
129.9429584472658
 72
     2
 10
257.0393563765841
 20
129.9429584472658
 40
0.5000000000000007
 50
0.0
 51
85.50000000000307
 73
     1
 72
     1
 10
257.078585924448
 20
130.4414171141324
 11
198.3039790894006
 21
135.0670789899961
 72
     2
 10
198.5393563765841
 20
138.0578309911955
 40
3.0
 50
94.49999999999929
 51
180.0
 73
     0
 72
     1
 10
195.5393563765841
 20
138.0578309911955
 11
195.5393563765841
 21
155.8801536930949
 72
     2
 10
194.5393563765841
 20
155.8801536930949
 40
1.0
 50
0.0
 51
90.0
 73
     1
 72
     1
 10
194.5393563765841
 20
156.8801536930949
 11
190.7735541811542
 21
156.8801536930949
 72
     1
 10
190.7735541811542
 20
156.8801536930949
 11
189.3143563765841
 21
154.3527489572866
 72
     1
 10
189.3143563765841
 20
154.3527489572866
 11
189.3143563765841
 21
154.2551536930949
 97
        0
 75
     0
 76
     1
 52
0.0
 41
1.0
 77
     0
 78
     1
 53
45.0
 43
0.0
 44
0.0
 45
-2.245064030267288
 46
2.245064030267288
 79
     0
 98
        1
 10
0.0
 20
0.0
  0
HATCH
  5
1F5
330
1F
100
AcDbEntity
  8
0
  6
Continuous
 62
     7
370
    18
100
AcDbHatch
 10
0.0
 20
0.0
 30
0.0
210
0.0
220
0.0
230
1.0
  2
ANSI31
 70
     0
 71
     0
 91
        1
 92
        0
 93
        9
 72
     1
 10
147.8893665667229
 20
148.069309971034
 11
147.1395171558237
 21
148.878531724828
 72
     1
 10
147.1395083030907
 20
148.8785358837409
 11
139.0893563765841
 21
148.4742738206773
 72
     1
 10
139.0893563765841
 20
148.4742738206773
 11
137.5893563765841
 21
147.6082484168928
 72
     1
 10
137.5893563765841
 20
147.6082484168928
 11
137.5893563765841
 21
145.6426536930949
 72
     1
 10
137.5893563765841
 20
145.6426536930949
 11
138.3410224264236
 21
144.3407299044482
 72
     1
 10
138.3410224264236
 20
144.3407299044482
 11
140.5893563765841
 21
143.0426536930949
 72
     1
 10
140.5893563765841
 20
143.0426536930949
 11
144.4593562212931
 21
143.0426536930949
 72
     1
 10
144.4593562212931
 20
143.0426536930949
 11
147.8893563765841
 21
147.9412015779988
 72
     1
 10
147.8893563765841
 20
147.9412015779988
 11
147.8893563765841
 21
148.0693065082625
 97
        0
 75
     0
 76
     1
 52
0.0
 41
1.0
 77
     0
 78
     1
 53
45.0
 43
0.0
 44
0.0
 45
-2.245064030267288
 46
2.245064030267288
 79
     0
 98
        1
 10
0.0
 20
0.0
  0
POINT
  5
1F6
330
1F
100
AcDbEntity
  8
VERMASSUNG
100
AcDbPoint
 10
257.5393563766
 20
120.4051536931
 30
0.0
  0
POINT
  5
1F7
330
1F
100
AcDbEntity
  8
VERMASSUNG
100
AcDbPoint
 10
257.5393563766
 20
130.4051536931
 30
0.0
  0
DIMENSION
  5
1F8
330
1F
100
AcDbEntity
  8
VERMASSUNG
100
AcDbDimension
  2
_D
 10
273.5393563766
 20
120.4051536931
 30
0.0
 11
273.5393563766
 21
125.4051536931
 31
0.0
 70
   160
  1
%%c<>
 71
     2
 42
-1.0
  3
SLDDIMSTYLE0
100
AcDbAlignedDimension
 13
257.5393563766
 23
130.4051536931
 33
0.0
 14
257.5393563766
 24
120.4051536931
 34
0.0
 50
90.0
100
AcDbRotatedDimension
  0
DIMENSION
  5
204
330
1F
100
AcDbEntity
  8
VERMASSUNG
100
AcDbDimension
  2
_D_1
 10
133.1756092839
 20
125.4051536931
 30
0.0
 11
210.6839361299
 21
143.4038696389
 31
0.0
 70
   162
  1
<>
 71
     1
 42
-1.0
  3
SLDDIMSTYLE1
100
AcDb2LineAngularDimension
 13
198.3039790894
 23
135.06707899
 33
0.0
 14
257.0785859244
 24
130.4414171141
 34
0.0
 15
258.9155709195
 25
125.4051536931
 35
0.0
 16
209.3124270682
 26
129.796135625
 36
0.0
  0
DIMENSION
  5
20E
330
1F
100
AcDbEntity
  8
VERMASSUNG
100
AcDbDimension
  2
_D_2
 10
245.5393563766
 20
156.5039122989
 30
0.0
 11
251.5393563766
 21
156.5039122989
 31
0.0
 70
   160
  1
<>
 71
     2
 42
-1.0
  3
SLDDIMSTYLE0
100
AcDbAlignedDimension
 13
257.5393563766
 23
129.9429584473
 33
0.0
 14
245.5393563766
 24
127.4051536931
 34
0.0
100
AcDbRotatedDimension
  0
DIMENSION
  5
218
330
1F
100
AcDbEntity
  8
VERMASSUNG
100
AcDbDimension
  2
_D_3
 10
266.0239869271
 20
123.4051536931
 30
0.0
 11
266.0239869271
 21
123.293910093
 31
0.0
 70
   160
  1
%%c<>
 71
     2
 42
-1.0
  3
SLDDIMSTYLE2
100
AcDbAlignedDimension
 13
256.0393563766
 23
127.4051536931
 33
0.0
 14
256.0393563766
 24
123.4051536931
 34
0.0
 50
90.0
100
AcDbRotatedDimension
  0
DIMENSION
  5
223
330
1F
100
AcDbEntity
  8
VERMASSUNG
100
AcDbDimension
  2
_D_4
 10
257.5393563766
 20
163.8299617864
 30
0.0
 11
226.5393563766
 21
163.8299617864
 31
0.0
 70
   160
  1
<>
 71
     2
 42
-1.0
  3
SLDDIMSTYLE0
100
AcDbAlignedDimension
 13
195.5393563766
 23
155.8801536931
 33
0.0
 14
257.5393563766
 24
129.9429584473
 34
0.0
100
AcDbRotatedDimension
  0
DIMENSION
  5
22D
330
1F
100
AcDbEntity
  8
VERMASSUNG
100
AcDbDimension
  2
_D_5
 10
257.5393563766
 20
171.4143053888
 30
0.0
 11
217.5393563766
 21
171.4143053888
 31
0.0
 70
   160
  1
<>
 71
     2
 42
-1.0
  3
SLDDIMSTYLE0
100
AcDbAlignedDimension
 13
177.5393563766
 23
156.6801536931
 33
0.0
 14
257.5393563766
 24
129.9429584473
 34
0.0
100
AcDbRotatedDimension
  0
DIMENSION
  5
237
330
1F
100
AcDbEntity
  8
VERMASSUNG
100
AcDbDimension
  2
_D_6
 10
137.5893563766
 20
178.8801536931
 30
0.0
 11
197.5643563766
 21
178.8801536931
 31
0.0
 70
   160
  1
<>
 71
     2
 42
-1.0
  3
SLDDIMSTYLE0
100
AcDbAlignedDimension
 13
257.5393563766
 23
129.9429584473
 33
0.0
 14
137.5893563766
 24
147.6082484169
 34
0.0
100
AcDbRotatedDimension
  0
DIMENSION
  5
241
330
1F
100
AcDbEntity
  8
VERMASSUNG
100
AcDbDimension
  2
_D_7
 10
124.5572334711
 20
156.8801536931
 30
0.0
 11
124.5572334711
 21
125.4051536931
 31
0.0
 70
   160
  1
KM%%c<> XMZ
 71
     2
 42
-1.0
  3
SLDDIMSTYLE0
100
AcDbAlignedDimension
 13
177.7393563766
 23
93.9301536931
 33
0.0
 14
177.7393563766
 24
156.8801536931
 34
0.0
 50
90.0
100
AcDbRotatedDimension
  0
DIMENSION
  5
24E
330
1F
100
AcDbEntity
  8
VERMASSUNG
100
AcDbDimension
  2
_D_8
 10
282.912530644
 20
138.0578309912
 30
0.0
 11
282.912530644
 21
125.4051536931
 31
0.0
 70
   160
  1
%%c<>
 71
     2
 42
-1.0
  3
SLDDIMSTYLE3
100
AcDbAlignedDimension
 13
195.5393563766
 23
112.752476395
 33
0.0
 14
195.5393563766
 24
138.0578309912
 34
0.0
 50
90.0
100
AcDbRotatedDimension
  0
CIRCLE
  5
25A
330
1F
100
AcDbEntity
  8
0
  6
Continuous
 62
     7
370
    25
100
AcDbCircle
 10
58.9599294282
 20
125.4051536931
 30
0.0
 40
2.866025403784427
  0
CIRCLE
  5
25B
330
1F
100
AcDbEntity
  8
0
  6
Continuous
 62
     7
370
    25
100
AcDbCircle
 10
58.9599294282
 20
125.4051536931
 30
0.0
 40
2.0
  0
ARC
  5
25C
330
1F
100
AcDbEntity
  8
0
  6
Continuous
 62
     7
370
    25
100
AcDbCircle
 10
58.9599294282
 20
125.4051536931
 30
0.0
 40
31.475
100
AcDbArc
 50
243.1152637523
 51
236.8847362477
  0
SPLINE
  5
25D
330
1F
100
AcDbEntity
  8
0
  6
Continuous
 62
     7
370
    25
100
AcDbSpline
210
0.0
220
0.0
230
1.0
 70
     8
 71
     3
 72
    14
 73
    10
 74
     0
 42
0.000000001
 43
0.00000001
 40
0.0
 40
0.0
 40
0.0
 40
0.0
 40
0.25
 40
0.25
 40
0.5
 40
0.5
 40
0.75
 40
0.75
 40
1.0
 40
1.0
 40
1.0
 40
1.0
 10
44.72702520333015
 20
97.33203376803854
 30
0.0
 10
44.48024136125331
 20
97.45715170284217
 30
0.0
 10
44.23561657818404
 20
97.59794723521335
 30
0.0
 10
43.74100894331038
 20
97.88381753391026
 30
0.0
 10
43.48992638140479
 20
98.03060307107748
 30
0.0
 10
42.98799453680433
 20
98.32039394543463
 30
0.0
 10
42.73790298598598
 20
98.46297913147994
 30
0.0
 10
42.24293635250703
 20
98.74840706719914
 30
0.0
 10
41.99559272495755
 20
98.8917017994797
 30
0.0
 10
41.76434652200135
 20
99.04253710222606
 30
0.0
  0
SPLINE
  5
25E
330
1F
100
AcDbEntity
  8
0
  6
Continuous
 62
     7
370
    25
100
AcDbSpline
210
0.0
220
0.0
230
1.0
 70
     8
 71
     3
 72
    22
 73
    18
 74
     0
 42
0.000000001
 43
0.00000001
 40
0.0
 40
0.0
 40
0.0
 40
0.0
 40
0.125
 40
0.125
 40
0.25
 40
0.25
 40
0.375
 40
0.375
 40
0.5
 40
0.5
 40
0.625
 40
0.625
 40
0.75
 40
0.75
 40
0.875
 40
0.875
 40
1.0
 40
1.0
 40
1.0
 40
1.0
 10
90.26199440168139
 20
128.7000517786117
 30
0.0
 10
90.28592422003668
 20
128.4727146320535
 30
0.0
 10
90.3088432316573
 20
128.2313068749238
 30
0.0
 10
90.35077380789625
 20
127.71954942275
 30
0.0
 10
90.36993015916062
 20
127.4462400904709
 30
0.0
 10
90.4012970145954
 20
126.8865664977046
 30
0.0
 10
90.41362204129086
 20
126.5998191653533
 30
0.0
 10
90.43044636665566
 20
126.0122518859657
 30
0.0
 10
90.4349052058607
 20
125.7080507434107
 30
0.0
 10
90.43495344750208
 20
125.1073117689558
 30
0.0
 10
90.43067917500144
 20
124.8096822702859
 30
0.0
 10
90.41398617072221
 20
124.2198308343857
 30
0.0
 10
90.40140605635675
 20
123.9260983858586
 30
0.0
 10
90.37010946812376
 20
123.36685856717
 30
0.0
 10
90.35135433218197
 20
123.0984682351101
 30
0.0
 10
90.30926528822255
 20
122.5835413100902
 30
0.0
 10
90.28599459530088
 20
122.3382613305343
 30
0.0
 10
90.26199440168136
 20
122.1102556075782
 30
0.0
  0
SPLINE
  5
25F
330
1F
100
AcDbEntity
  8
0
  6
Continuous
 62
     7
370
    25
100
AcDbSpline
210
0.0
220
0.0
230
1.0
 70
     8
 71
     3
 72
    11
 73
     7
 74
     0
 42
0.000000001
 43
0.00000001
 40
0.0
 40
0.0
 40
0.0
 40
0.0
 40
0.2592826661473816
 40
0.5230428212524253
 40
0.8556060198970724
 40
1.0
 40
1.0
 40
1.0
 40
1.0
 10
46.78277409499158
 20
96.3811547785467
 30
0.0
 10
46.61536622766521
 20
96.45223630710103
 30
0.0
 10
46.27765956748891
 20
96.59562685374432
 30
0.0
 10
45.64815684388303
 20
96.88152765011847
 30
0.0
 10
45.06556926680739
 20
97.1567296588006
 30
0.0
 10
44.66467155193517
 20
97.36652623381403
 30
0.0
 10
44.54330380815454
 20
97.4300400330144
 30
0.0
  0
SPLINE
  5
260
330
1F
100
AcDbEntity
  8
0
  6
Continuous
 62
     7
370
    25
100
AcDbSpline
210
0.0
220
0.0
230
1.0
 70
     8
 71
     3
 72
    11
 73
     7
 74
     0
 42
0.000000001
 43
0.00000001
 40
0.0
 40
0.0
 40
0.0
 40
0.0
 40
0.3197330568592565
 40
0.6444709176927274
 40
0.9772780208961747
 40
1.0
 40
1.0
 40
1.0
 40
1.0
 10
41.76883840256706
 20
99.03971142531476
 30
0.0
 10
41.54304050377869
 20
99.18940352661619
 30
0.0
 10
41.08791027584832
 20
99.49113087018439
 30
0.0
 10
40.47790014003493
 20
99.92494743927432
 30
0.0
 10
40.10285845639465
 20
100.2032299852064
 30
0.0
 10
39.92439253061679
 20
100.3387662074813
 30
0.0
 10
39.91298671534578
 20
100.3474283714606
 30
0.0
  0
CIRCLE
  5
261
330
1F
100
AcDbEntity
  8
0
  6
Continuous
 62
     7
370
    18
100
AcDbCircle
 10
58.9599294282
 20
125.4051536931
 30
0.0
 40
4.537804754170892
  0
CIRCLE
  5
262
330
1F
100
AcDbEntity
  8
0
  6
Continuous
 62
     7
370
    18
100
AcDbCircle
 10
58.9599294282
 20
125.4051536931
 30
0.0
 40
5.036263421037461
  0
CIRCLE
  5
263
330
1F
100
AcDbEntity
  8
0
  6
Continuous
 62
     7
370
    18
100
AcDbCircle
 10
58.9599294282
 20
125.4051536931
 30
0.0
 40
9.661925296901153
  0
CIRCLE
  5
264
330
1F
100
AcDbEntity
  8
0
  6
Continuous
 62
     7
370
    18
100
AcDbCircle
 10
58.9599294282
 20
125.4051536931
 30
0.0
 40
12.65267729810053
  0
CIRCLE
  5
265
330
1F
100
AcDbEntity
  8
0
  6
Continuous
 62
     7
370
    18
100
AcDbCircle
 10
58.9599294282
 20
125.4051536931
 30
0.0
 40
30.475
  0
INSERT
  5
271
330
1F
100
AcDbEntity
  8
VERMASSUNG
100
AcDbBlockReference
  2
SW_CENTERMARKSYMBOL_1
 10
58.9599294282
 20
125.4051536931
 30
0.0
  0
LINE
  5
272
330
1F
100
AcDbEntity
  8
0
  6
Continuous
 62
     7
370
    25
100
AcDbLine
 10
211.5690571498
 20
43.13784867
 30
0.0
 11
233.4391823646
 21
33.1789097055
 31
0.0
  0
LINE
  5
273
330
1F
100
AcDbEntity
  8
0
  6
Continuous
 62
     7
370
    25
100
AcDbLine
 10
235.9532067911
 20
37.5337996049
 30
0.0
 11
216.3921400929
 21
51.4925786288
 31
0.0
  0
SPLINE
  5
274
330
1F
100
AcDbEntity
  8
0
  6
Continuous
 62
     7
370
    25
100
AcDbSpline
210
0.0
220
0.0
230
1.0
 70
     8
 71
     3
 72
    26
 73
    22
 74
     0
 42
0.000000001
 43
0.00000001
 40
0.0
 40
0.0
 40
0.0
 40
0.0
 40
0.0273251437430838
 40
0.07790255382473
 40
0.1290247595298916
 40
0.1816448756390159
 40
0.2357890847665014
 40
0.2908338134703431
 40
0.3461103047142009
 40
0.401280710384313
 40
0.4563155879915811
 40
0.5112691866522898
 40
0.5662247346323097
 40
0.6212567269090716
 40
0.6764512530666672
 40
0.7319040915211028
 40
0.7876826777330372
 40
0.8437478290919384
 40
0.8995993979770016
 40
0.954335294159539
 40
1.0
 40
1.0
 40
1.0
 40
1.0
 10
233.4053924583183
 20
33.20457937107801
 30
0.0
 10
233.4465307275966
 20
33.18216812214514
 30
0.0
 10
233.5638137789445
 20
33.1182748250892
 30
0.0
 10
233.7882232449367
 20
33.07976624512018
 30
0.0
 10
234.0647466763627
 20
33.0845085244249
 30
0.0
 10
234.3559177746335
 20
33.15280649573317
 30
0.0
 10
234.6551442052254
 20
33.28071607115034
 30
0.0
 10
234.9552574702294
 20
33.46714151505194
 30
0.0
 10
235.2468915667829
 20
33.70632393550614
 30
0.0
 10
235.5215481359644
 20
33.99075428965413
 30
0.0
 10
235.7720114802419
 20
34.31208116138
 30
0.0
 10
235.9921016301746
 20
34.66169877100804
 30
0.0
 10
236.1763000889165
 20
35.03058939750188
 30
0.0
 10
236.3197878244507
 20
35.4094787399583
 30
0.0
 10
236.418481208905
 20
35.78905870295257
 30
0.0
 10
236.4690305739716
 20
36.16030037713461
 30
0.0
 10
236.4684784704472
 20
36.51421045840895
 30
0.0
 10
236.4148823949879
 20
36.84199077044913
 30
0.0
 10
236.3056790567836
 20
37.13100124345427
 30
0.0
 10
236.155482303913
 20
37.36685933174507
 30
0.0
 10
236.0206606801886
 20
37.47498391695063
 30
0.0
 10
235.9593404324585
 20
37.52416168359792
 30
0.0
  0
SPLINE
  5
275
330
1F
100
AcDbEntity
  8
0
  6
Continuous
 62
     7
370
    25
100
AcDbSpline
210
0.0
220
0.0
230
1.0
 70
     8
 71
     3
 72
    24
 73
    20
 74
     0
 42
0.000000001
 43
0.00000001
 40
0.0
 40
0.0
 40
0.0
 40
0.0
 40
0.0299694322175934
 40
0.0919271757060139
 40
0.1542086512102157
 40
0.216786358675677
 40
0.2796086989801136
 40
0.3426145181039386
 40
0.4057445668364971
 40
0.4689483264258433
 40
0.5321866344480235
 40
0.5954274230743384
 40
0.6586518773538835
 40
0.7218509641455572
 40
0.7850205111082148
 40
0.848159714971663
 40
0.9112700277279648
 40
0.9743543640132414
 40
1.0
 40
1.0
 40
1.0
 40
1.0
 10
207.0214226560941
 20
33.79188430759444
 30
0.0
 10
207.1253491925625
 20
33.77995018393372
 30
0.0
 10
207.4441297723573
 20
33.74334387538936
 30
0.0
 10
208.0004522207203
 20
33.74916926816982
 30
0.0
 10
208.6866767862076
 20
33.80592651801927
 30
0.0
 10
209.3909483816918
 20
33.92837165180303
 30
0.0
 10
210.1086534681897
 20
34.11184958454386
 30
0.0
 10
210.8368498890289
 20
34.3567655027561
 30
0.0
 10
211.5720436440172
 20
34.66166437659108
 30
0.0
 10
212.3108909584522
 20
35.02514406306074
 30
0.0
 10
213.0500574702969
 20
35.44539608174375
 30
0.0
 10
213.7863010250749
 20
35.92038306287461
 30
0.0
 10
214.5164560011942
 20
36.44786489143976
 30
0.0
 10
215.2375042048673
 20
37.02536363853826
 30
0.0
 10
215.9463312747086
 20
37.65047756468586
 30
0.0
 10
216.6405351986926
 20
38.31972756010274
 30
0.0
 10
217.3153637730874
 20
39.03287183883452
 30
0.0
 10
217.8447078428139
 20
39.62976177502426
 30
0.0
 10
218.1395157835674
 20
40.00005106423771
 30
0.0
 10
218.2247241628893
 20
40.10707582799903
 30
0.0
  0
SPLINE
  5
276
330
1F
100
AcDbEntity
  8
0
  6
Continuous
 62
     7
370
    25
100
AcDbSpline
210
0.0
220
0.0
230
1.0
 70
     8
 71
     3
 72
    26
 73
    22
 74
     0
 42
0.000000001
 43
0.00000001
 40
0.0
 40
0.0
 40
0.0
 40
0.0
 40
0.0271252517650226
 40
0.0823329056826087
 40
0.137563182516381
 40
0.1928201856231739
 40
0.2481075540977591
 40
0.3034281258237001
 40
0.358783427099048
 40
0.4141729252877235
 40
0.4695929740743128
 40
0.5250353922099701
 40
0.5804822950337921
 40
0.6359045392716023
 40
0.6912654216613575
 40
0.7465171925060495
 40
0.8016033926790628
 40
0.8564653190233684
 40
0.911053124320779
 40
0.9653399465140415
 40
0.9999999999999999
 40
0.9999999999999999
 40
0.9999999999999999
 40
0.9999999999999999
 10
222.3449525162668
 20
47.24465112714054
 30
0.0
 10
222.4049953087168
 20
47.39854953211245
 30
0.0
 10
222.5872423754182
 20
47.86567525581158
 30
0.0
 10
222.8460590209953
 20
48.64901059651147
 30
0.0
 10
223.1220660254837
 20
49.58958704320429
 30
0.0
 10
223.350640638763
 20
50.52464459233889
 30
0.0
 10
223.5335304842611
 20
51.45004836040792
 30
0.0
 10
223.6690539313252
 20
52.36202832086886
 30
0.0
 10
223.7566584010186
 20
53.2567764719092
 30
0.0
 10
223.795698661534
 20
54.13056252284337
 30
0.0
 10
223.7857670456283
 20
54.97970496801972
 30
0.0
 10
223.7266138179909
 20
55.80055890826675
 30
0.0
 10
223.6181910487083
 20
56.58949403254547
 30
0.0
 10
223.460683869245
 20
57.34291317780858
 30
0.0
 10
223.254533770132
 20
58.05724434520822
 30
0.0
 10
223.0005486221488
 20
58.72906188253462
 30
0.0
 10
222.6997152285659
 20
59.3547807602078
 30
0.0
 10
222.3541329469477
 20
59.93201240721005
 30
0.0
 10
221.9636742603348
 20
60.45496732631157
 30
0.0
 10
221.5887661213419
 20
60.87537896331443
 30
0.0
 10
221.3280353181522
 20
61.09735919365344
 30
0.0
 10
221.226435981301
 20
61.18385854056837
 30
0.0
  0
SPLINE
  5
277
330
1F
100
AcDbEntity
  8
0
  6
Continuous
 62
     7
370
    25
100
AcDbSpline
210
0.0
220
0.0
230
1.0
 70
     8
 71
     3
 72
    10
 73
     6
 74
     0
 42
0.000000001
 43
0.00000001
 40
0.0
 40
0.0
 40
0.0
 40
0.0
 40
0.3625082304764328
 40
0.7830207935820434
 40
1.0
 40
1.0
 40
1.0
 40
1.0
 10
205.5594923891102
 20
34.11326787272757
 30
0.0
 10
205.7287646145306
 20
34.05635718313025
 30
0.0
 10
206.0943940296361
 20
33.93342962015264
 30
0.0
 10
206.5850222639343
 20
33.82992832406786
 30
0.0
 10
206.9106057723878
 20
33.80154497569877
 30
0.0
 10
207.0214226560941
 20
33.79188430759444
 30
0.0
  0
LINE
  5
278
330
1F
100
AcDbEntity
  8
0
  6
Continuous
 62
     7
370
    25
100
AcDbLine
 10
203.3156362185
 20
35.3003578979
 30
0.0
 11
204.647048353
 21
34.5317500329
 31
0.0
  0
LINE
  5
279
330
1F
100
AcDbEntity
  8
0
  6
Continuous
 62
     7
370
    25
100
AcDbLine
 10
220.3832694079
 20
61.7906379763
 30
0.0
 11
219.0518572734
 21
62.5592458413
 31
0.0
  0
LINE
  5
27A
330
1F
100
AcDbEntity
  8
0
  6
Continuous
 62
     7
370
    25
100
AcDbLine
 10
198.707351391
 20
37.9606641025
 30
0.0
 11
200.9580023411
 21
36.6613909649
 31
0.0
  0
LINE
  5
27B
330
1F
100
AcDbEntity
  8
0
  6
Continuous
 62
     7
370
    25
100
AcDbLine
 10
216.6942233959
 20
63.9202789083
 30
0.0
 11
214.4435724459
 21
65.219552046
 31
0.0
  0
LINE
  5
27C
330
1F
100
AcDbEntity
  8
0
  6
Continuous
 62
     7
370
    25
100
AcDbLine
 10
195.4184614149
 20
45.2413720109
 30
0.0
 11
195.4180796277
 21
45.20681715
 31
0.0
  0
LINE
  5
27D
330
1F
100
AcDbEntity
  8
0
  6
Continuous
 62
     7
370
    25
100
AcDbLine
 10
195.4186437111
 20
45.1694252554
 30
0.0
 11
195.4200323714
 21
45.0773739048
 31
0.0
  0
LINE
  5
27E
330
1F
100
AcDbEntity
  8
0
  6
Continuous
 62
     7
370
    25
100
AcDbLine
 10
195.4180796277
 20
45.20681715
 30
0.0
 11
195.4186437111
 21
45.1694252554
 31
0.0
  0
LINE
  5
27F
330
1F
100
AcDbEntity
  8
0
  6
Continuous
 62
     7
370
    25
100
AcDbLine
 10
212.1041071459
 20
62.7891354403
 30
0.0
 11
198.4689710165
 21
69.5800867404
 31
0.0
  0
LINE
  5
280
330
1F
100
AcDbEntity
  8
0
  6
Continuous
 62
     7
370
    25
100
AcDbLine
 10
186.9426233048
 20
49.613703479
 30
0.0
 11
195.5002335059
 21
43.94543745
 31
0.0
  0
LINE
  5
281
330
1F
100
AcDbEntity
  8
0
  6
Continuous
 62
     7
370
    25
100
AcDbLine
 10
191.9220608532
 20
50.5601935166
 30
0.0
 11
191.9220608532
 21
50.1948744999
 31
0.0
  0
LINE
  5
282
330
1F
100
AcDbEntity
  8
0
  6
Continuous
 62
     7
370
    25
100
AcDbLine
 10
195.8200273541
 20
69.9570552142
 30
0.0
 11
195.1804769016
 21
69.8698441487
 31
0.0
  0
LINE
  5
283
330
1F
100
AcDbEntity
  8
0
  6
Continuous
 62
     7
370
    25
100
AcDbLine
 10
233.4391823646
 20
33.1789097055
 30
0.0
 11
233.4077503922
 21
33.1940132052
 31
0.0
  0
LWPOLYLINE
  5
284
330
1F
100
AcDbEntity
  8
0
  6
Continuous
 62
     7
370
    25
100
AcDbPolyline
 90
       28
 70
   128
 43
0.0
 10
233.7757294888
 20
34.7178046463
 10
233.8030429327
 20
35.0034190721
 10
233.8835107897
 20
35.3051713814
 10
234.0127950166
 20
35.6067940291
 10
234.1839258675
 20
35.8920264601
 10
234.3876776338
 20
36.1454917204
 10
234.6130660051
 20
36.353525432
 10
234.8479402359
 20
36.5049124438
 10
235.0796381956
 20
36.5914914428
 10
235.2956689873
 20
36.6085949327
 10
235.4843863351
 20
36.55530086
 10
235.6356164379
 20
36.4344823219
 10
235.7412064417
 20
36.252652677
 10
235.7954639621
 20
36.0196144087
 10
235.7954639621
 20
35.7479306702
 10
235.7412064417
 20
35.4522480022
 10
235.6356164379
 20
35.148506734
 10
235.4843863351
 20
34.8530816358
 10
235.2956689873
 20
34.5818991512
 10
235.0796381956
 20
34.3495787981
 10
234.8479402359
 20
34.1686450269
 10
234.6130660051
 20
34.0488520241
 10
234.3876776338
 20
33.9966578614
 10
234.1839258675
 20
34.0148763397
 10
234.0127950166
 20
34.102525296
 10
233.8835107897
 20
34.2548795524
 10
233.8030429327
 20
34.4637256516
 10
233.7757294888
 20
34.7178046463
  0
LWPOLYLINE
  5
285
330
1F
100
AcDbEntity
  8
0
  6
Continuous
 62
     7
370
    25
100
AcDbPolyline
 90
       13
 70
   128
 43
0.0
 10
234.7751756686
 20
36.4647767431
 10
234.8535484797
 20
36.3937776815
 10
234.9371563901
 20
36.2306343395
 10
234.9657991831
 20
36.0171233412
 10
234.9371563901
 20
35.7705420781
 10
234.8535484797
 20
35.5108670975
 10
234.7217488676
 20
35.259135722
 10
234.5524351746
 20
35.0357417305
 10
234.3593241891
 20
34.8587831758
 10
234.1580606147
 20
34.7425961874
 10
233.9649496292
 20
34.6965935441
 10
233.7956359362
 20
34.7245021067
 10
233.7758218657
 20
34.7336576113
  0
ARC
  5
286
330
1F
100
AcDbEntity
  8
0
  6
Continuous
 62
     7
370
    25
100
AcDbCircle
 10
207.2883007229
 20
39.1070175412
 30
0.0
 40
5.282789781119329
100
AcDbArc
 50
229.7763083095
 51
250.2626155312
  0
ARC
  5
287
330
1F
100
AcDbEntity
  8
0
  6
Continuous
 62
     7
370
    25
100
AcDbCircle
 10
217.7419027498
 20
57.2148889449
 30
0.0
 40
5.283256754441958
100
AcDbArc
 50
49.3829032773
 51
69.7997415469
  0
LWPOLYLINE
  5
288
330
1F
100
AcDbEntity
  8
0
  6
Continuous
 62
     7
370
    25
100
AcDbPolyline
 90
       26
 70
   128
 43
0.0
 10
203.3156362185
 20
35.3003578979
 10
202.9347498789
 20
35.5426352523
 10
202.4306706667
 20
35.941753613
 10
201.9697970974
 20
36.4049816616
 10
201.5544040672
 20
36.9300328801
 10
201.1865419778
 20
37.5143155881
 10
200.8680266158
 20
38.1549457355
 10
200.6004301899
 20
38.8487611383
 10
200.3850735699
 20
39.5923370872
 10
200.2230197674
 20
40.3820032524
 10
200.1150686886
 20
41.2138618002
 10
200.0617531856
 20
42.0838066331
 10
200.0633364266
 20
42.9875436579
 10
200.1198105965
 20
43.920611981
 10
200.230896936
 20
44.8784059284
 10
200.396047117
 20
45.8561977787
 10
200.6144459495
 20
46.8491611001
 10
200.8850154055
 20
47.8523945736
 10
201.2064199399
 20
48.8609461861
 10
201.577073083
 20
49.8698376738
 10
201.9951452716
 20
50.8740890954
 10
202.4585728793
 20
51.8687434133
 10
202.9650684032
 20
52.8488909614
 10
203.5121317547
 20
53.8096936801
 10
204.0970626004
 20
54.7464089967
 10
204.716973691
 20
55.6544132352
  0
SPLINE
  5
289
330
1F
100
AcDbEntity
  8
0
  6
Continuous
 62
     7
370
    25
100
AcDbSpline
210
0.0
220
0.0
230
1.0
 70
     8
 71
     3
 72
    25
 73
    21
 74
     0
 42
0.000000001
 43
0.00000001
 40
0.0
 40
0.0
 40
0.0
 40
0.0
 40
0.1249999999999998
 40
0.1249999999999998
 40
0.2499999999999997
 40
0.2499999999999997
 40
0.3749999999999995
 40
0.3749999999999995
 40
0.4999999999999993
 40
0.4999999999999993
 40
0.5624999999999996
 40
0.5624999999999996
 40
0.6249999999999998
 40
0.6875000000000001
 40
0.6875000000000001
 40
0.7500000000000003
 40
0.7500000000000003
 40
0.8750000000000001
 40
0.8750000000000001
 40
1.0
 40
1.0
 40
1.0
 40
1.0
 10
206.5742081471712
 20
57.96479524231891
 30
0.0
 10
206.6033314454323
 20
57.85360972178972
 30
0.0
 10
206.6157204862915
 20
57.73836750936169
 30
0.0
 10
206.6087430011912
 20
57.4992719415259
 30
0.0
 10
206.5887254133392
 20
57.37449797165063
 30
0.0
 10
206.518503255626
 20
57.12812906243821
 30
0.0
 10
206.4678526010323
 20
57.00391791507709
 30
0.0
 10
206.3379378573771
 20
56.76028941976693
 30
0.0
 10
206.2602369093879
 20
56.64323232470876
 30
0.0
 10
206.1248633271617
 20
56.47457580685873
 30
0.0
 10
206.0762288298546
 20
56.41920878558657
 30
0.0
 10
205.9747894944726
 20
56.31348897418955
 30
0.0
 10
205.8689195117319
 20
56.21232801556911
 30
0.0
 10
205.7543277194044
 20
56.12015369389231
 30
0.0
 10
205.6352450501862
 20
56.03261685115219
 30
0.0
 10
205.5732870371288
 20
55.99111838164001
 30
0.0
 10
205.3854233336082
 20
55.8769980599019
 30
0.0
 10
205.2560458972542
 20
55.8133906287873
 30
0.0
 10
204.9883626441921
 20
55.71212232781307
 30
0.0
 10
204.8524909577271
 20
55.67558141958828
 30
0.0
 10
204.7169736909995
 20
55.65441323523821
 30
0.0
  0
LWPOLYLINE
  5
28A
330
1F
100
AcDbEntity
  8
0
  6
Continuous
 62
     7
370
    25
100
AcDbPolyline
 90
       19
 70
   128
 43
0.0
 10
206.5742081472
 20
57.9647952423
 10
207.3026983475
 20
58.7327805905
 10
208.0506580445
 20
59.451588747
 10
208.8143350563
 20
60.1176137706
 10
209.5898983546
 20
60.7275145093
 10
210.3734572825
 20
61.2782313621
 10
211.1610810729
 20
61.767001627
 10
211.9488185669
 20
62.1913733606
 10
212.7327180353
 20
62.5492176783
 10
213.5088470025
 20
62.838739434
 10
214.273311974
 20
63.0584862258
 10
215.0222779686
 20
63.2073556814
 10
215.7519877565
 20
63.284600989
 10
216.4587807075
 20
63.289834643
 10
217.1391111553
 20
63.2230303887
 10
217.7895661842
 20
63.0845233533
 10
218.40688275
 20
62.875008365
 10
218.9879640496
 20
62.5955364676
 10
219.0518572734
 20
62.5592458413
  0
LWPOLYLINE
  5
28B
330
1F
100
AcDbEntity
  8
0
  6
Continuous
 62
     7
370
    25
100
AcDbPolyline
 90
       15
 70
   128
 43
0.0
 10
204.9115869024
 20
58.0890720818
 10
205.5862580759
 20
58.8187636881
 10
206.2803625264
 20
59.502788542
 10
206.9903087764
 20
60.1376073205
 10
207.7124233791
 20
60.7199353058
 10
208.4429699252
 20
61.246759381
 10
209.1781683762
 20
61.7153536209
 10
209.9142146238
 20
62.1232933969
 10
210.6473001727
 20
62.4684679221
 10
211.3736318472
 20
62.7490911735
 10
212.0894514177
 20
62.9637111333
 10
212.7910550472
 20
63.1112173017
 10
213.4748124555
 20
63.1908464436
 10
214.1371857036
 20
63.2021865368
 10
214.7121374076
 20
63.1539584894
  0
SPLINE
  5
28C
330
1F
100
AcDbEntity
  8
0
  6
Continuous
 62
     7
370
    25
100
AcDbSpline
210
0.0
220
0.0
230
1.0
 70
     8
 71
     3
 72
    26
 73
    22
 74
     0
 42
0.000000001
 43
0.00000001
 40
0.0
 40
0.0
 40
0.0
 40
0.0
 40
0.1250000000000009
 40
0.1250000000000009
 40
0.2500000000000019
 40
0.2500000000000019
 40
0.3125000000000011
 40
0.3125000000000011
 40
0.3750000000000004
 40
0.3750000000000004
 40
0.4375000000000002
 40
0.4375000000000002
 40
0.5000000000000001
 40
0.5000000000000001
 40
0.5625
 40
0.5625
 40
0.6249999999999999
 40
0.6249999999999999
 40
0.7500000000000001
 40
0.7500000000000001
 40
1.0
 40
1.0
 40
1.0
 40
1.0
 10
203.5673936615437
 20
56.41690846919374
 30
0.0
 10
203.5437560653117
 20
56.52648432876673
 30
0.0
 10
203.5261882864299
 20
56.63737358713125
 30
0.0
 10
203.5073757035605
 20
56.8627035469942
 30
0.0
 10
203.506195928793
 20
56.97838046031257
 30
0.0
 10
203.5222939320284
 20
57.14973597017213
 30
0.0
 10
203.5306126491287
 20
57.20653448226629
 30
0.0
 10
203.5543697983856
 20
57.31936069466338
 30
0.0
 10
203.5699921774346
 20
57.37581354832953
 30
0.0
 10
203.6088493898316
 20
57.48439666473814
 30
0.0
 10
203.6320753465341
 20
57.53677662496368
 30
0.0
 10
203.6870739960125
 20
57.63723340023579
 30
0.0
 10
203.7191522630351
 20
57.68551226800723
 30
0.0
 10
203.7895670115702
 20
57.77320924359097
 30
0.0
 10
203.8281454336969
 20
57.81319837156693
 30
0.0
 10
203.9118536972931
 20
57.88567705568252
 30
0.0
 10
203.956982407235
 20
57.91801368005914
 30
0.0
 10
204.096263049425
 20
58.00121344741278
 30
0.0
 10
204.1970521209867
 20
58.04004217004888
 30
0.0
 10
204.5001243922194
 20
58.11545845750405
 30
0.0
 10
204.7086484827044
 20
58.1153283111333
 30
0.0
 10
204.9115869023949
 20
58.08907208180707
 30
0.0
  0
LWPOLYLINE
  5
28D
330
1F
100
AcDbEntity
  8
0
  6
Continuous
 62
     7
370
    25
100
AcDbPolyline
 90
       22
 70
   128
 43
0.0
 10
200.6304152668
 20
38.7610572618
 10
200.3721715298
 20
39.123910223
 10
200.0337058163
 20
39.7064993569
 10
199.7457560975
 20
40.3449131491
 10
199.5098850702
 20
41.0356869426
 10
199.3273728009
 20
41.7750719236
 10
199.1992097797
 20
42.5590554666
 10
199.1260915443
 20
43.3833829106
 10
199.1084149057
 20
44.2435806494
 10
199.1462757948
 20
45.1349804092
 10
199.2394687412
 20
46.0527445839
 10
199.387487989
 20
46.991892488
 10
199.5895302411
 20
47.9473273872
 10
199.8444990188
 20
48.913864158
 10
200.1510106122
 20
49.8862574272
 10
200.5074015899
 20
50.8592300385
 10
200.9117378262
 20
51.8275016918
 10
201.3618249975
 20
52.7858175987
 10
201.8552204909
 20
53.7289770004
 10
202.3892466602
 20
54.6518613924
 10
202.9610053576
 20
55.5494623019
 10
203.5673936615
 20
56.4169084692
  0
LINE
  5
28E
330
1F
100
AcDbEntity
  8
0
  6
Continuous
 62
     7
370
    25
100
AcDbLine
 10
202.092001692
 20
36.1729876135
 30
0.0
 11
202.1777484144
 21
36.2136071571
 31
0.0
  0
LWPOLYLINE
  5
28F
330
1F
100
AcDbEntity
  8
0
  6
Continuous
 62
     7
370
    25
100
AcDbPolyline
 90
       51
 70
   128
 43
0.0
 10
202.092001692
 20
36.1729876135
 10
201.4936147418
 20
36.3916773714
 10
200.9305610784
 20
36.6773433373
 10
200.4055539021
 20
37.0286089657
 10
199.9211230776
 20
37.4437816042
 10
199.4796029436
 20
37.9208606505
 10
199.0831210639
 20
38.4575471921
 10
198.7335879753
 20
39.0512550847
 10
198.4326879813
 20
39.6991234135
 10
198.1818710362
 20
40.3980302797
 10
197.9823457576
 20
41.1446078439
 10
197.8350736027
 20
41.9352585545
 10
197.7407642356
 20
42.7661724839
 10
197.699872107
 20
43.633345687
 10
197.7125942649
 20
44.5325994951
 10
197.7788694046
 20
45.459600652
 10
197.8983781646
 20
46.4098821949
 10
198.070544665
 20
47.378864979
 10
198.2945392831
 20
48.3618797434
 10
198.5692826504
 20
49.3541896111
 10
198.8934508544
 20
50.3510129142
 10
199.2654818181
 20
51.3475462363
 10
199.6835828266
 20
52.3389875581
 10
200.1457391666
 20
53.320559397
 10
200.649723834
 20
54.2875318292
 10
201.1931082658
 20
55.235245281
 10
201.7732740421
 20
56.1591329827
 10
202.3874255041
 20
57.0547429741
 10
203.0326032252
 20
57.9177595577
 10
203.7056982718
 20
58.7440240945
 10
204.4034671845
 20
59.5295550435
 10
205.1225476074
 20
60.2705671476
 10
205.85947449
 20
60.9634896739
 10
206.6106967851
 20
61.6049836197
 10
207.3725945594
 20
62.1919578027
 10
208.1414964377
 20
62.721583756
 10
208.9136972937
 20
63.1913093582
 10
209.6854761046
 20
63.5988711311
 10
210.453113881
 20
63.9423051471
 10
211.2129115881
 20
64.2199564921
 10
211.9612079703
 20
64.430487241
 10
212.6943971936
 20
64.572882904
 10
213.4089462214
 20
64.6464573159
 10
214.1014118388
 20
64.6508559417
 10
214.768457245
 20
64.5860575858
 10
215.4068681322
 20
64.4523744934
 10
216.0135681742
 20
64.2504508466
 10
216.5856338508
 20
63.9812596598
 10
217.1203085353
 20
63.6460980911
 10
217.6150157779
 20
63.2465811916
 10
217.7842617531
 20
63.085976698
  0
LWPOLYLINE
  5
290
330
1F
100
AcDbEntity
  8
0
  6
Continuous
 62
     7
370
    25
100
AcDbPolyline
 90
       36
 70
   128
 43
0.0
 10
195.4476469091
 20
45.2569824045
 10
195.4738841649
 20
46.0678613161
 10
195.5533034539
 20
46.9960419084
 10
195.6852483474
 20
47.9461153181
 10
195.869090068
 20
48.9135540128
 10
196.1039525261
 20
49.8937477065
 10
196.3887164951
 20
50.8820253299
 10
196.7220249451
 20
51.87367729
 10
197.1022895095
 20
52.8639779136
 10
197.5276980545
 20
53.8482079674
 10
197.9962233147
 20
54.8216771468
 10
198.5056325537
 20
55.7797464279
 10
199.0534982047
 20
56.7178501744
 10
199.6372094382
 20
57.6315178945
 10
200.2539846045
 20
58.5163955456
 10
200.9008844889
 20
59.3682662828
 10
201.574826319
 20
60.1830705539
 10
202.272598455
 20
60.9569254455
 10
202.9908756949
 20
61.6861431868
 10
203.7262351206
 20
62.367248723
 10
204.4751724095
 20
62.9969962762
 10
205.2341185344
 20
63.5723848124
 10
205.9994567714
 20
64.0906723433
 10
206.7675399352
 20
64.5493889927
 10
207.5347077597
 20
64.9463487669
 10
208.297304341
 20
65.2796599718
 10
209.0516955591
 20
65.5477342277
 10
209.7942863961
 20
65.7492940388
 10
210.5215380687
 20
65.8833788806
 10
211.2299848914
 20
65.9493497779
 10
211.9162507925
 20
65.9468923494
 10
212.5770654024
 20
65.8760183057
 10
213.2092796386
 20
65.7370653941
 10
213.8098807123
 20
65.5306957883
 10
214.3760064859
 20
65.2578929335
 10
214.4435724459
 20
65.219552046
  0
LWPOLYLINE
  5
291
330
1F
100
AcDbEntity
  8
0
  6
Continuous
 62
     7
370
    25
100
AcDbPolyline
 90
       13
 70
   128
 43
0.0
 10
198.707351391
 20
37.9606641025
 10
198.5056325537
 20
38.0832430588
 10
197.9962233147
 20
38.4531609517
 10
197.5276980545
 20
38.8856823802
 10
197.1022895095
 20
39.3787461826
 10
196.7220249451
 20
39.9300026855
 10
196.3887164951
 20
40.5368249005
 10
196.1039525261
 20
41.1963210436
 10
195.869090068
 20
41.9053483151
 10
195.6852483474
 20
42.6605278773
 10
195.5533034539
 20
43.4582609556
 10
195.4738841649
 20
44.2947459887
 10
195.44794939
 20
45.0350842092
  0
ARC
  5
292
330
1F
100
AcDbEntity
  8
0
  6
Continuous
 62
     7
370
    25
100
AcDbCircle
 10
219.8769844403
 20
43.8667874381
 30
0.0
 40
24.53064067266597
100
AcDbArc
 50
124.4578903328
 51
172.8819764148
  0
SPLINE
  5
293
330
1F
100
AcDbEntity
  8
0
  6
Continuous
 62
     7
370
    25
100
AcDbSpline
210
0.0
220
0.0
230
1.0
 70
     8
 71
     3
 72
    10
 73
     6
 74
     0
 42
0.000000001
 43
0.00000001
 40
0.0
 40
0.0
 40
0.0
 40
0.0
 40
0.5
 40
0.5
 40
1.0
 40
1.0
 40
1.0
 40
1.0
 10
204.294081729175
 20
54.95385518837401
 30
0.0
 10
204.1901172383907
 20
55.02719356144439
 30
0.0
 10
204.1003089619633
 20
55.11442931923779
 30
0.0
 10
203.9482665339647
 20
55.31535986043379
 30
0.0
 10
203.8863609456037
 20
55.42953062663076
 30
0.0
 10
203.8419112410133
 20
55.55254830979086
 30
0.0
  0
SPLINE
  5
294
330
1F
100
AcDbEntity
  8
0
  6
Continuous
 62
     7
370
    25
100
AcDbSpline
210
0.0
220
0.0
230
1.0
 70
     8
 71
     3
 72
    14
 73
    10
 74
     0
 42
0.000000001
 43
0.00000001
 40
0.0
 40
0.0
 40
0.0
 40
0.0
 40
0.25
 40
0.25
 40
0.5
 40
0.5
 40
0.75
 40
0.75
 40
1.0
 40
1.0
 40
1.0
 40
1.0
 10
203.8419112410133
 20
55.55254830979086
 30
0.0
 10
203.8191904381481
 20
55.61542972944841
 30
0.0
 10
203.7972759277987
 20
55.68447615892182
 30
0.0
 10
203.7551648737359
 20
55.83212867554059
 30
0.0
 10
203.7356433198228
 20
55.9085284623989
 30
0.0
 10
203.6972970776491
 20
56.0628607537945
 30
0.0
 10
203.6789374847653
 20
56.13981335012615
 30
0.0
 10
203.6369340401836
 20
56.28520351764213
 30
0.0
 10
203.6131577191706
 20
56.35179442383516
 30
0.0
 10
203.5846962150684
 20
56.3922900390665
 30
0.0
  0
LINE
  5
295
330
1F
100
AcDbEntity
  8
0
  6
Continuous
 62
     7
370
    25
100
AcDbLine
 10
203.5846962151
 20
56.3922900391
 30
0.0
 11
203.5673936615
 21
56.4169084692
 31
0.0
  0
LINE
  5
296
330
1F
100
AcDbEntity
  8
0
  6
Continuous
 62
     7
370
    25
100
AcDbLine
 10
204.9115869024
 20
58.0890720818
 30
0.0
 11
204.9288894559
 21
58.0644536517
 31
0.0
  0
SPLINE
  5
297
330
1F
100
AcDbEntity
  8
0
  6
Continuous
 62
     7
370
    25
100
AcDbSpline
210
0.0
220
0.0
230
1.0
 70
     8
 71
     3
 72
    16
 73
    12
 74
     0
 42
0.000000001
 43
0.00000001
 40
0.0
 40
0.0
 40
0.0
 40
0.0
 40
0.1250000000000001
 40
0.1250000000000001
 40
0.2500000000000003
 40
0.2500000000000003
 40
0.5000000000000002
 40
0.5000000000000002
 40
0.7500000000000001
 40
0.7500000000000001
 40
1.0
 40
1.0
 40
1.0
 40
1.0
 10
204.9288894559196
 20
58.06445365167978
 30
0.0
 10
204.9430418623237
 20
58.044317315867
 30
0.0
 10
204.9647002667974
 20
58.02751989518957
 30
0.0
 10
205.0171181958327
 20
58.00067437385808
 30
0.0
 10
205.0477110749711
 20
57.99044888929709
 30
0.0
 10
205.1467919238285
 20
57.96594844886441
 30
0.0
 10
205.2206744614444
 20
57.95768852646291
 30
0.0
 10
205.3737740538357
 20
57.946502559758
 30
0.0
 10
205.4518580284834
 20
57.94390588800681
 30
0.0
 10
205.6112016622255
 20
57.9418768871731
 30
0.0
 10
205.6898545570571
 20
57.94251447583533
 30
0.0
 10
205.7656070248497
 20
57.94560757665036
 30
0.0
  0
SPLINE
  5
298
330
1F
100
AcDbEntity
  8
0
  6
Continuous
 62
     7
370
    25
100
AcDbSpline
210
0.0
220
0.0
230
1.0
 70
     8
 71
     3
 72
    10
 73
     6
 74
     0
 42
0.000000001
 43
0.00000001
 40
0.0
 40
0.0
 40
0.0
 40
0.0
 40
0.5
 40
0.5
 40
1.0
 40
1.0
 40
1.0
 40
1.0
 10
205.7656070248497
 20
57.94560757665036
 30
0.0
 10
205.9138013647504
 20
57.95165860108413
 30
0.0
 10
206.056025830481
 20
57.94149637087099
 30
0.0
 10
206.3284172208218
 20
57.89044593493092
 30
0.0
 10
206.4585445506903
 20
57.84908483228636
 30
0.0
 10
206.5766198928756
 20
57.79331096433408
 30
0.0
  0
ARC
  5
299
330
1F
100
AcDbEntity
  8
0
  6
Continuous
 62
     7
370
    25
100
AcDbCircle
 10
189.2520277506
 20
53.0624209713
 30
0.0
 40
4.15054228217411
100
AcDbArc
 50
211.7662230405
 51
236.1920927301
  0
SPLINE
  5
29A
330
1F
100
AcDbEntity
  8
0
  6
Continuous
 62
     7
370
    25
100
AcDbSpline
210
0.0
220
0.0
230
1.0
 70
     8
 71
     3
 72
     8
 73
     4
 74
     0
 42
0.000000001
 43
0.00000001
 40
0.0
 40
0.0
 40
0.0
 40
0.0
 40
1.0
 40
1.0
 40
1.0
 40
1.0
 10
187.1536662237389
 20
49.95260654509541
 30
0.0
 10
186.6768929319147
 20
50.26069935302806
 30
0.0
 10
186.2000905550698
 20
50.56892879860082
 30
0.0
 10
185.7232581105442
 20
50.87729395482073
 30
0.0
  0
SPLINE
  5
29B
330
1F
100
AcDbEntity
  8
0
  6
Continuous
 62
     7
370
    25
100
AcDbSpline
210
0.0
220
0.0
230
1.0
 70
     8
 71
     3
 72
    23
 73
    19
 74
     0
 42
0.000000001
 43
0.00000001
 40
0.0
 40
0.0
 40
0.0
 40
0.0
 40
0.0521036415683759
 40
0.1035646240941235
 40
0.1544751946756683
 40
0.2049306267495642
 40
0.2550287880866983
 40
0.3048696389163111
 40
0.354554670462894
 40
0.4041862979539558
 40
0.453867225213789
 40
0.5036997999428097
 40
0.590187023078111
 40
0.6742716378282376
 40
0.7565997087281883
 40
0.8378563983773627
 40
0.9187511781400207
 40
0.9999999999999999
 40
0.9999999999999999
 40
0.9999999999999999
 40
0.9999999999999999
 10
188.0342310272805
 20
49.77787584697531
 30
0.0
 10
188.0289620883407
 20
49.76795438473993
 30
0.0
 10
188.018489198841
 20
49.74823383400791
 30
0.0
 10
187.9992429030791
 20
49.72366600505445
 30
0.0
 10
187.9774471627469
 20
49.70297742279434
 30
0.0
 10
187.9527958715423
 20
49.68644648749687
 30
0.0
 10
187.9252993570035
 20
49.67392898792055
 30
0.0
 10
187.8948883029961
 20
49.66539436409836
 30
0.0
 10
187.8615179312232
 20
49.66078449145084
 30
0.0
 10
187.8251420429508
 20
49.66004974831523
 30
0.0
 10
187.785713671361
 20
49.6631448308677
 30
0.0
 10
187.7328652798086
 20
49.67168060634906
 30
0.0
 10
187.6643262860352
 20
49.68927704519865
 30
0.0
 10
187.5766050540781
 20
49.72091365328626
 30
0.0
 10
187.4818741345833
 20
49.7630933106195
 30
0.0
 10
187.3798398872544
 20
49.81582974634578
 30
0.0
 10
187.2709259740683
 20
49.87814630225463
 30
0.0
 10
187.1928096630849
 20
49.92775036050405
 30
0.0
 10
187.1536662237389
 20
49.95260654509541
 30
0.0
  0
SPLINE
  5
29C
330
1F
100
AcDbEntity
  8
0
  6
Continuous
 62
     7
370
    25
100
AcDbSpline
210
0.0
220
0.0
230
1.0
 70
     8
 71
     3
 72
     8
 73
     4
 74
     0
 42
0.000000001
 43
0.00000001
 40
0.0
 40
0.0
 40
0.0
 40
0.0
 40
1.0
 40
1.0
 40
1.0
 40
1.0
 10
189.5077340537383
 20
48.83055571041653
 30
0.0
 10
189.0163667416956
 20
49.14643033038487
 30
0.0
 10
188.524980541768
 20
49.46241635167522
 30
0.0
 10
188.0335748316227
 20
49.77851323251876
 30
0.0
  0
SPLINE
  5
29D
330
1F
100
AcDbEntity
  8
0
  6
Continuous
 62
     7
370
    25
100
AcDbSpline
210
0.0
220
0.0
230
1.0
 70
     8
 71
     3
 72
    18
 73
    14
 74
     0
 42
0.000000001
 43
0.00000001
 40
0.0
 40
0.0
 40
0.0
 40
0.0
 40
0.0923824559461122
 40
0.1844689291660427
 40
0.2764953616062392
 40
0.3686975365619641
 40
0.4613092840130473
 40
0.5545607518559533
 40
0.6486768051632873
 40
0.7438756050210469
 40
0.8403674044324065
 40
0.9203921078135461
 40
1.0
 40
1.0
 40
1.0
 40
1.0
 10
190.321298172934
 20
48.18624798587477
 30
0.0
 10
190.2977306588097
 20
48.20152196014109
 30
0.0
 10
190.2506711381562
 20
48.23202097262307
 30
0.0
 10
190.1782733501906
 20
48.28165354523571
 30
0.0
 10
190.1047911412932
 20
48.33398308790539
 30
0.0
 10
190.0300916935474
 20
48.38930077361382
 30
0.0
 10
189.9542309037792
 20
48.44753908872739
 30
0.0
 10
189.8772196229934
 20
48.50873200036439
 30
0.0
 10
189.7990874909142
 20
48.57289571694477
 30
0.0
 10
189.719861256273
 20
48.64004467681013
 30
0.0
 10
189.6445647718656
 20
48.70589558655509
 30
0.0
 10
189.5737374637455
 20
48.76942717336248
 30
0.0
 10
189.5298330929391
 20
48.81008791837555
 30
0.0
 10
189.5079382261342
 20
48.8303652069438
 30
0.0
  0
LINE
  5
29E
330
1F
100
AcDbEntity
  8
0
  6
Continuous
 62
     7
370
    25
100
AcDbLine
 10
190.9610044411
 20
47.7744940565
 30
0.0
 11
190.3212981729
 21
48.1862479859
 31
0.0
  0
SPLINE
  5
29F
330
1F
100
AcDbEntity
  8
0
  6
Continuous
 62
     7
370
    25
100
AcDbSpline
210
0.0
220
0.0
230
1.0
 70
     8
 71
     3
 72
    25
 73
    21
 74
     0
 42
0.000000001
 43
0.00000001
 40
0.0
 40
0.0
 40
0.0
 40
0.0
 40
0.0280105225426455
 40
0.0559601148860774
 40
0.0839014045043129
 40
0.1118870776786379
 40
0.1399695827588941
 40
0.1682008401739877
 40
0.1966319670424218
 40
0.2253130233141493
 40
0.2542927850735863
 40
0.3799486436570518
 40
0.505785022166658
 40
0.6313085886329272
 40
0.7532068238012843
 40
0.8039473267959846
 40
0.8535894438560211
 40
0.902533972239985
 40
0.9511970353794947
 40
1.0
 40
1.0
 40
1.0
 40
1.0
 10
192.0633702979242
 20
48.49040016975185
 30
0.0
 10
192.0683184054548
 20
48.46277630864436
 30
0.0
 10
192.0782038570903
 20
48.40758867553905
 30
0.0
 10
192.0897395066935
 20
48.32842796816912
 30
0.0
 10
192.0988126285063
 20
48.25212462907075
 30
0.0
 10
192.1051814372192
 20
48.17892886810113
 30
0.0
 10
192.1088976760294
 20
48.10878139988775
 30
0.0
 10
192.1099342970122
 20
48.04170511337496
 30
0.0
 10
192.1082858217853
 20
47.97770120414852
 30
0.0
 10
192.1039396699164
 20
47.91677235088169
 30
0.0
 10
192.089083345349
 20
47.79488422938557
 30
0.0
 10
192.0439950882827
 20
47.63998335773152
 30
0.0
 10
191.9306355677919
 20
47.50904023938804
 30
0.0
 10
191.768811345799
 20
47.45316383857523
 30
0.0
 10
191.5947961266655
 20
47.47303789095978
 30
0.0
 10
191.4434352059779
 20
47.52035569331624
 30
0.0
 10
191.3330349732791
 20
47.56527111705191
 30
0.0
 10
191.2158754778304
 20
47.62264684834305
 30
0.0
 10
191.0923098108971
 20
47.69132391279549
 30
0.0
 10
191.0048147608025
 20
47.74674415874833
 30
0.0
 10
190.9610044411212
 20
47.77449405647839
 30
0.0
  0
ARC
  5
2A0
330
1F
100
AcDbEntity
  8
0
  6
Continuous
 62
     7
370
    25
100
AcDbCircle
 10
203.25636863
 20
50.2764507059
 30
0.0
 40
11.33460136833988
100
AcDbArc
 50
170.9338278112
 51
189.0661721888
  0
SPLINE
  5
2A1
330
1F
100
AcDbEntity
  8
0
  6
Continuous
 62
     7
370
    25
100
AcDbSpline
210
0.0
220
0.0
230
1.0
 70
     8
 71
     3
 72
    26
 73
    22
 74
     0
 42
0.000000001
 43
0.00000001
 40
0.0
 40
0.0
 40
0.0
 40
0.0
 40
0.0241259796963637
 40
0.048215991227299
 40
0.0723203915124064
 40
0.0964895678710793
 40
0.120773623196351
 40
0.1452220711242841
 40
0.1698835501657706
 40
0.1948055644472381
 40
0.2200342569517629
 40
0.2456142191611394
 40
0.3690971486901671
 40
0.4940698769485191
 40
0.6192566784762444
 40
0.7454656653603234
 40
0.7971495824713715
 40
0.8481710308405401
 40
0.8988013269235245
 40
0.9493179290492194
 40
1.0
 40
1.0
 40
1.0
 40
1.0
 10
190.9610044411212
 20
55.53860444784296
 30
0.0
 10
190.9827226704973
 20
55.52427292444788
 30
0.0
 10
191.0261267506734
 20
55.49563124377883
 30
0.0
 10
191.0894338680348
 20
55.44763894585002
 30
0.0
 10
191.1512954357527
 20
55.39603974796434
 30
0.0
 10
191.2115999508893
 20
55.34046495509111
 30
0.0
 10
191.2703898028291
 20
55.28100971446396
 30
0.0
 10
191.3276703212589
 20
55.21764540562655
 30
0.0
 10
191.3834614605851
 20
55.15037662766263
 30
0.0
 10
191.4377827080069
 20
55.0792025137025
 30
0.0
 10
191.4906616832159
 20
55.00411337395422
 30
0.0
 10
191.6074565079522
 20
54.82485892525236
 30
0.0
 10
191.7693260658787
 20
54.51455345340899
 30
0.0
 10
191.9325109734105
 20
54.0446396652773
 30
0.0
 10
192.0440223785839
 20
53.54567663136726
 30
0.0
 10
192.0911562166924
 20
53.13679295831026
 30
0.0
 10
192.106275156225
 20
52.83252100171955
 30
0.0
 10
192.1082282952075
 20
52.63127176002423
 30
0.0
 10
192.1017502695684
 20
52.43561184030164
 30
0.0
 10
192.0876233468813
 20
52.24497555240417
 30
0.0
 10
192.0714634551963
 20
52.12339227866536
 30
0.0
 10
192.0633702979242
 20
52.06250124206647
 30
0.0
  0
LINE
  5
2A2
330
1F
100
AcDbEntity
  8
0
  6
Continuous
 62
     7
370
    25
100
AcDbLine
 10
190.3212981729
 20
55.9515794608
 30
0.0
 11
190.9610044411
 21
55.5386044478
 31
0.0
  0
SPLINE
  5
2A3
330
1F
100
AcDbEntity
  8
0
  6
Continuous
 62
     7
370
    25
100
AcDbSpline
210
0.0
220
0.0
230
1.0
 70
     8
 71
     3
 72
    14
 73
    10
 74
     0
 42
0.000000001
 43
0.00000001
 40
0.0
 40
0.0
 40
0.0
 40
0.0
 40
0.0789261963152472
 40
0.1582328720511064
 40
0.3308475394503796
 40
0.5000195457530386
 40
0.6670357883499396
 40
0.8332395193610692
 40
1.0
 40
1.0
 40
1.0
 40
1.0
 10
189.5073454570839
 20
56.16016173112593
 30
0.0
 10
189.5290623384192
 20
56.16176489498467
 30
0.0
 10
189.5726007916336
 20
56.16497895107226
 30
0.0
 10
189.6641259102806
 20
56.16579999114177
 30
0.0
 10
189.7810342437119
 20
56.15786400936029
 30
0.0
 10
189.9218545820926
 20
56.13158834048344
 30
0.0
 10
190.0590668899052
 20
56.08863074195109
 30
0.0
 10
190.1929975643236
 20
56.03027361714023
 30
0.0
 10
190.2784836562845
 20
55.97784007098904
 30
0.0
 10
190.321298172934
 20
55.95157946083384
 30
0.0
  0
SPLINE
  5
2A4
330
1F
100
AcDbEntity
  8
0
  6
Continuous
 62
     7
370
    25
100
AcDbSpline
210
0.0
220
0.0
230
1.0
 70
     8
 71
     3
 72
     8
 73
     4
 74
     0
 42
0.000000001
 43
0.00000001
 40
0.0
 40
0.0
 40
0.0
 40
0.0
 40
1.0
 40
1.0
 40
1.0
 40
1.0
 10
187.7050418740783
 20
57.32255314254026
 30
0.0
 10
188.3058000977752
 20
56.93528565938085
 30
0.0
 10
188.9065289606363
 20
56.54781830945704
 30
0.0
 10
189.507229604984
 20
56.16015141686691
 30
0.0
  0
SPLINE
  5
2A5
330
1F
100
AcDbEntity
  8
0
  6
Continuous
 62
     7
370
    25
100
AcDbSpline
210
0.0
220
0.0
230
1.0
 70
     8
 71
     3
 72
    13
 73
     9
 74
     0
 42
0.000000001
 43
0.00000001
 40
0.0
 40
0.0
 40
0.0
 40
0.0
 40
0.1667030582307959
 40
0.3329480818053031
 40
0.4990671507274871
 40
0.6653938523718408
 40
0.8322612710550125
 40
1.0
 40
1.0
 40
1.0
 40
1.0
 10
187.3632133390439
 20
57.62361792162604
 30
0.0
 10
187.3835145214838
 20
57.61005281494681
 30
0.0
 10
187.4240611066725
 20
57.58295987318397
 30
0.0
 10
187.4832107436601
 20
57.53776530017625
 30
0.0
 10
187.5409822885626
 20
57.4893541516933
 30
0.0
 10
187.5972320260223
 20
57.43731903692284
 30
0.0
 10
187.6521592347684
 20
57.38202106971382
 30
0.0
 10
187.6873799443589
 20
57.34240381455345
 30
0.0
 10
187.7050361562999
 20
57.32254360555253
 30
0.0
  0
SPLINE
  5
2A6
330
1F
100
AcDbEntity
  8
0
  6
Continuous
 62
     7
370
    25
100
AcDbSpline
210
0.0
220
0.0
230
1.0
 70
     8
 71
     3
 72
     8
 73
     4
 74
     0
 42
0.000000001
 43
0.00000001
 40
0.0
 40
0.0
 40
0.0
 40
0.0
 40
1.0
 40
1.0
 40
1.0
 40
1.0
 10
185.4192328232532
 20
58.87833977400551
 30
0.0
 10
186.0672628956534
 20
58.46034445812076
 30
0.0
 10
186.7152558727553
 20
58.04210369570313
 30
0.0
 10
187.3632133390439
 20
57.62361792162604
 30
0.0
  0
LWPOLYLINE
  5
2A7
330
1F
100
AcDbEntity
  8
0
  6
Continuous
 62
     7
370
    25
100
AcDbPolyline
 90
       25
 70
   128
 43
0.0
 10
185.4192328233
 20
58.8783397742
 10
185.7130281778
 20
59.753655619
 10
186.0565721675
 20
60.6270706788
 10
186.447490271
 20
61.4925480472
 10
186.8830805244
 20
62.3441056821
 10
187.360332197
 20
63.1758577523
 10
187.875946601
 20
63.9820553195
 10
188.4263598916
 20
64.7571260742
 10
189.0077676994
 20
65.4957128504
 10
189.6161514259
 20
66.1927106534
 10
190.2473060196
 20
66.8433019453
 10
190.8968690399
 20
67.4429899422
 10
191.5603508105
 20
67.9876296959
 10
192.2331654506
 20
68.4734567428
 10
192.9106625723
 20
68.8971131237
 10
193.5881594231
 20
69.2556705929
 10
194.2609732523
 20
69.5466508579
 10
194.9244536775
 20
69.7680427096
 10
195.5740148273
 20
69.9183159224
 10
196.2051670383
 20
69.9964318319
 10
196.8135478864
 20
70.0018505132
 10
197.39495234
 20
69.9345345133
 10
197.9453618237
 20
69.7949491098
 10
198.4609719945
 20
69.5840590946
 10
198.4689710165
 20
69.5800867404
  0
SPLINE
  5
2A8
330
1F
100
AcDbEntity
  8
0
  6
Continuous
 62
     7
370
    25
100
AcDbSpline
210
0.0
220
0.0
230
1.0
 70
    11
 71
     3
 72
    39
 73
    35
 74
     0
 42
0.000000001
 43
0.00000001
 40
0.0
 40
0.0
 40
0.0
 40
0.0
 40
0.0310664058350965
 40
0.0621048158425859
 40
0.093136155179263
 40
0.1235538293503448
 40
0.1538561545806855
 40
0.1850588072748946
 40
0.2160250992945718
 40
0.2471867223797388
 40
0.2784462884305076
 40
0.3100516090231096
 40
0.3419834369141944
 40
0.3734259894013148
 40
0.4048604886786042
 40
0.4368740651833136
 40
0.4685120685925458
 40
0.4998055358633138
 40
0.5309508213230685
 40
0.5618649784438015
 40
0.5930416446594986
 40
0.6233742450133227
 40
0.6540913579075065
 40
0.6849496782718291
 40
0.71581606451649
 40
0.7471731804043279
 40
0.7784514311862922
 40
0.8101295911560753
 40
0.8419598919688862
 40
0.8735175891922173
 40
0.9050808037887091
 40
0.9370235169792366
 40
0.968744159003463
 40
1.0
 40
1.0
 40
1.0
 40
1.0
 10
198.6278183044585
 20
67.88353014934695
 30
0.0
 10
198.8907039246589
 20
67.85499566205593
 30
0.0
 10
199.4175925351416
 20
67.76905317373277
 30
0.0
 10
200.1816046042154
 20
67.56867805366338
 30
0.0
 10
200.888754792264
 20
67.32167594744433
 30
0.0
 10
201.5016658568583
 20
67.04369406929229
 30
0.0
 10
201.9987971825327
 20
66.74956037196236
 30
0.0
 10
202.3579889036051
 20
66.44805384377034
 30
0.0
 10
202.5797081723659
 20
66.14105633886696
 30
0.0
 10
202.6449600497472
 20
65.83055107746512
 30
0.0
 10
202.558112838634
 20
65.51140659271587
 30
0.0
 10
202.3157672508736
 20
65.18208662714281
 30
0.0
 10
201.9358293881481
 20
64.84314590558502
 30
0.0
 10
201.4220234349879
 20
64.5053074411747
 30
0.0
 10
200.796132624077
 20
64.17940953986712
 30
0.0
 10
200.0826616375884
 20
63.88276264662604
 30
0.0
 10
199.3187591613243
 20
63.62665933818602
 30
0.0
 10
198.5329660784179
 20
63.4376317701976
 30
0.0
 10
197.7514286233773
 20
63.32945584814406
 30
0.0
 10
196.9953156386218
 20
63.32179196477521
 30
0.0
 10
196.2929510522321
 20
63.41971400016169
 30
0.0
 10
195.6739307051881
 20
63.64136243366529
 30
0.0
 10
195.1648734401788
 20
63.97723052057726
 30
0.0
 10
194.7919298467439
 20
64.41704108675614
 30
0.0
 10
194.5633278954991
 20
64.92811572727842
 30
0.0
 10
194.4944815887769
 20
65.47930081503905
 30
0.0
 10
194.5790980020007
 20
66.03697274335192
 30
0.0
 10
194.8222067919367
 20
66.5670528842714
 30
0.0
 10
195.2043366347534
 20
67.03957723338627
 30
0.0
 10
195.7204722091661
 20
67.42569874427913
 30
0.0
 10
196.3474500696686
 20
67.70932293161128
 30
0.0
 10
197.0633575020348
 20
67.87906015033872
 30
0.0
 10
197.831800894219
 20
67.94059898505155
 30
0.0
 10
198.3633296735923
 20
67.91223863279427
 30
0.0
 10
198.6278183044585
 20
67.88353014934694
 30
0.0
  0
LINE
  5
2A9
330
1F
100
AcDbEntity
  8
0
  6
Continuous
 62
     7
370
    25
100
AcDbLine
 10
189.4032813167
 20
51.4444031226
 30
0.0
 11
189.7173259238
 21
51.2762593382
 31
0.0
  0
LINE
  5
2AA
330
1F
100
AcDbEntity
  8
0
  6
Continuous
 62
     7
370
    25
100
AcDbLine
 10
188.4163222777
 20
52.0141624481
 30
0.0
 11
189.4032813167
 21
51.4444031226
 31
0.0
  0
ARC
  5
2AB
330
1F
100
AcDbEntity
  8
0
  6
Continuous
 62
     7
370
    25
100
AcDbCircle
 10
190.6370055638
 20
55.609876748
 30
0.0
 40
4.486495191534253
100
AcDbArc
 50
267.6888785345
 51
286.9818041585
  0
SPLINE
  5
2AC
330
1F
100
AcDbEntity
  8
0
  6
Continuous
 62
     7
370
    25
100
AcDbSpline
210
0.0
220
0.0
230
1.0
 70
     8
 71
     3
 72
    20
 73
    16
 74
     0
 42
0.000000001
 43
0.00000001
 40
0.0
 40
0.0
 40
0.0
 40
0.0
 40
0.0749251189561969
 40
0.1504869670764478
 40
0.2629644813284006
 40
0.3205771366029504
 40
0.3786293505388554
 40
0.4347549383528388
 40
0.4913334906926085
 40
0.5493834846585772
 40
0.6079593150305853
 40
0.7111774280793333
 40
0.8174559707865229
 40
0.9196813188767622
 40
1.0
 40
1.0
 40
1.0
 40
1.0
 10
199.9663240992852
 20
64.88103451648414
 30
0.0
 10
199.8665253417354
 20
64.93709980851362
 30
0.0
 10
199.6660797161442
 20
65.04970684702508
 30
0.0
 10
199.2825111745313
 20
65.24187675108739
 30
0.0
 10
198.8963848426805
 20
65.4136959983429
 30
0.0
 10
198.5173040524772
 20
65.56001429785725
 30
0.0
 10
198.2229179740342
 20
65.6615710934129
 30
0.0
 10
197.923342121206
 20
65.75191518884321
 30
0.0
 10
197.6188725186802
 20
65.8297507758799
 30
0.0
 10
197.3071714061093
 20
65.89374059916926
 30
0.0
 10
196.9111719198991
 20
65.95299916406968
 30
0.0
 10
196.4317538172387
 20
65.98494034446743
 30
0.0
 10
195.8971898238283
 20
65.95048719649057
 30
0.0
 10
195.4277039463298
 20
65.85914572711813
 30
0.0
 10
195.1678080582425
 20
65.74777302256416
 30
0.0
 10
195.0534548523312
 20
65.69876945459511
 30
0.0
  0
SPLINE
  5
2AD
330
1F
100
AcDbEntity
  8
0
  6
Continuous
 62
     7
370
    25
100
AcDbSpline
210
0.0
220
0.0
230
1.0
 70
     8
 71
     3
 72
    10
 73
     6
 74
     0
 42
0.000000001
 43
0.00000001
 40
0.0
 40
0.0
 40
0.0
 40
0.0
 40
0.3798174487130384
 40
0.9603712743693774
 40
1.0
 40
1.0
 40
1.0
 40
1.0
 10
201.106204548331
 20
64.35280749370334
 30
0.0
 10
200.9765518899837
 20
64.42313619960281
 30
0.0
 10
200.6487241686816
 20
64.60096286116949
 30
0.0
 10
200.2407957650362
 20
64.7740151616676
 30
0.0
 10
199.9841629664651
 20
64.87322080826704
 30
0.0
 10
199.9677645193607
 20
64.87955989881696
 30
0.0
  0
SPLINE
  5
2AE
330
1F
100
AcDbEntity
  8
0
  6
Continuous
 62
     7
370
    25
100
AcDbSpline
210
0.0
220
0.0
230
1.0
 70
     8
 71
     3
 72
    27
 73
    23
 74
     0
 42
0.000000001
 43
0.00000001
 40
0.0
 40
0.0
 40
0.0
 40
0.0
 40
0.047241474719446
 40
0.0895510256232171
 40
0.1269312045956389
 40
0.1593865704273181
 40
0.2427895507014937
 40
0.3182869402948891
 40
0.3934865883309936
 40
0.4204083536757867
 40
0.4482553024508308
 40
0.4770354886982222
 40
0.5198213861857821
 40
0.5729273400121266
 40
0.6363542731938812
 40
0.6968665484626764
 40
0.7498318217460114
 40
0.7959282541761554
 40
0.8770514506938827
 40
0.9162761449815807
 40
0.9543143298322516
 40
1.0
 40
1.0
 40
1.0
 40
1.0
 10
198.5729393634134
 20
67.30967228682447
 30
0.0
 10
198.4325352790759
 20
67.3249884138848
 30
0.0
 10
198.1663850407784
 20
67.35402169226938
 30
0.0
 10
197.793606437295
 20
67.36128834654511
 30
0.0
 10
197.4710458289048
 20
67.34790189070061
 30
0.0
 10
197.0419290285926
 20
67.30194411153315
 30
0.0
 10
196.5343116468058
 20
67.18492336287457
 30
0.0
 10
195.9915027065289
 20
66.94234066534584
 30
0.0
 10
195.6511026021741
 20
66.68498863110503
 30
0.0
 10
195.4444759565012
 20
66.47018050497472
 30
0.0
 10
195.3264941943448
 20
66.32367122872127
 30
0.0
 10
195.2051046289298
 20
66.14044258811289
 30
0.0
 10
195.083749662554
 20
65.89742540660076
 30
0.0
 10
194.9830184296652
 20
65.57276775238319
 30
0.0
 10
194.9461355935001
 20
65.2003450404056
 30
0.0
 10
194.9896545576492
 20
64.83013666967719
 30
0.0
 10
195.0949791133385
 20
64.5100291420653
 30
0.0
 10
195.2776311027656
 20
64.17027125501114
 30
0.0
 10
195.5202956348881
 20
63.8929981673904
 30
0.0
 10
195.8115249616293
 20
63.67756413881495
 30
0.0
 10
196.0599273690931
 20
63.52934506346236
 30
0.0
 10
196.2603286147231
 20
63.46623291563203
 30
0.0
 10
196.3696817400307
 20
63.43179445399261
 30
0.0
  0
SPLINE
  5
2AF
330
1F
100
AcDbEntity
  8
0
  6
Continuous
 62
     7
370
    25
100
AcDbSpline
210
0.0
220
0.0
230
1.0
 70
     8
 71
     3
 72
    25
 73
    21
 74
     0
 42
0.000000001
 43
0.00000001
 40
0.0
 40
0.0
 40
0.0
 40
0.0
 40
0.032528824522267
 40
0.0752264597774057
 40
0.1217561716342176
 40
0.1721371744598465
 40
0.2263844196031144
 40
0.2761524716132078
 40
0.3204395800283973
 40
0.35924594275665
 40
0.392572611013601
 40
0.42042204301079
 40
0.5225737789454362
 40
0.6136379186880861
 40
0.7060604200916021
 40
0.7386838600378962
 40
0.7722228977668646
 40
0.806694310092522
 40
0.8949074035609007
 40
1.0
 40
1.0
 40
1.0
 40
1.0
 10
201.8479806530819
 20
64.7999658795699
 30
0.0
 10
201.8814857973896
 20
64.83263969276113
 30
0.0
 10
201.9589701033125
 20
64.90820145467244
 30
0.0
 10
202.0571834856295
 20
65.02884524550736
 30
0.0
 10
202.1421312343679
 20
65.16542908610715
 30
0.0
 10
202.1982349676237
 20
65.31127951607787
 30
0.0
 10
202.2166667409885
 20
65.45611500811447
 30
0.0
 10
202.1972252876902
 20
65.59344295340728
 30
0.0
 10
202.1498378567223
 20
65.71683912839683
 30
0.0
 10
202.0853165858305
 20
65.82390876755107
 30
0.0
 10
202.0129493266977
 20
65.91501168233772
 30
0.0
 10
201.8715666239601
 20
66.0636931710077
 30
0.0
 10
201.6128499328217
 20
66.26666564839778
 30
0.0
 10
201.1613279055692
 20
66.52207650413655
 30
0.0
 10
200.7456494522511
 20
66.71405626072897
 30
0.0
 10
200.4135405062006
 20
66.84532601889605
 30
0.0
 10
200.1944148522106
 20
66.9249438339501
 30
0.0
 10
199.8429611601992
 20
67.04088158030105
 30
0.0
 10
199.3044139071236
 20
67.19307791220866
 30
0.0
 10
198.8305566572953
 20
67.26860902969725
 30
0.0
 10
198.5729393634134
 20
67.30967228682447
 30
0.0
  0
LINE
  5
2B0
330
1F
100
AcDbEntity
  8
0
  6
Continuous
 62
     7
370
    25
100
AcDbLine
 10
192.0633702979
 20
52.0625012421
 30
0.0
 11
192.0581317544
 21
52.3585846609
 31
0.0
  0
SPLINE
  5
2B1
330
1F
100
AcDbEntity
  8
0
  6
Continuous
 62
     7
370
    25
100
AcDbSpline
210
0.0
220
0.0
230
1.0
 70
     8
 71
     3
 72
    10
 73
     6
 74
     0
 42
0.000000001
 43
0.00000001
 40
0.0
 40
0.0
 40
0.0
 40
0.0
 40
0.3758769231059986
 40
0.7752790050324808
 40
1.0
 40
1.0
 40
1.0
 40
1.0
 10
192.0581317544429
 20
52.35858466090546
 30
0.0
 10
192.0651764684067
 20
52.40205160740297
 30
0.0
 10
192.0797068066551
 20
52.49170598350548
 30
0.0
 10
192.0939699547826
 20
52.61183848035783
 30
0.0
 10
192.0991774939215
 20
52.68905483383101
 30
0.0
 10
192.1010525141217
 20
52.71685726002331
 30
0.0
  0
SPLINE
  5
2B2
330
1F
100
AcDbEntity
  8
0
  6
Continuous
 62
     7
370
    25
100
AcDbSpline
210
0.0
220
0.0
230
1.0
 70
     8
 71
     3
 72
     9
 73
     5
 74
     0
 42
0.000000001
 43
0.00000001
 40
0.0
 40
0.0
 40
0.0
 40
0.0
 40
0.3484916508015974
 40
1.0
 40
1.0
 40
1.0
 40
1.0
 10
191.5682382637513
 20
54.87388891801902
 30
0.0
 10
191.5377136673813
 20
54.91567927347619
 30
0.0
 10
191.4501230571049
 20
55.03559708315988
 30
0.0
 10
191.3393428163698
 20
55.11568877329337
 30
0.0
 10
191.2671685646046
 20
55.16786917811675
 30
0.0
  0
SPLINE
  5
2B3
330
1F
100
AcDbEntity
  8
0
  6
Continuous
 62
     7
370
    25
100
AcDbSpline
210
0.0
220
0.0
230
1.0
 70
     8
 71
     3
 72
    40
 73
    36
 74
     0
 42
0.000000001
 43
0.00000001
 40
0.0
 40
0.0
 40
0.0
 40
0.0
 40
0.0207361951232864
 40
0.0513661859238885
 40
0.0822015816856119
 40
0.1136927926056569
 40
0.1454151573764371
 40
0.1762783676971358
 40
0.2073666050471746
 40
0.2391745572792534
 40
0.2712350862590641
 40
0.301157356459143
 40
0.33129162477244
 40
0.3620939820502538
 40
0.3931264274040285
 40
0.4228042091246708
 40
0.4526835145338005
 40
0.4831892780042347
 40
0.5139074591149996
 40
0.54417879698324
 40
0.5746505171610656
 40
0.6057442275086443
 40
0.6370503183349064
 40
0.6682568738940009
 40
0.6996898608661691
 40
0.7319286323162244
 40
0.764554737749266
 40
0.7882326105417231
 40
0.8123919062451596
 40
0.8361400218163855
 40
0.8608898036677333
 40
0.8896146896611586
 40
0.9190865871893245
 40
0.9594021650680488
 40
1.0
 40
1.0
 40
1.0
 40
1.0
 10
194.9626534212961
 20
65.06330931842128
 30
0.0
 10
194.9626071014917
 20
65.11516608536287
 30
0.0
 10
194.96249236146
 20
65.24362187565114
 30
0.0
 10
194.9876355758027
 20
65.44185589441031
 30
0.0
 10
195.0353971872009
 20
65.65946250608665
 30
0.0
 10
195.1078334975339
 20
65.8705995378446
 30
0.0
 10
195.2034926896974
 20
66.07168624293547
 30
0.0
 10
195.3215260159232
 20
66.26053677934634
 30
0.0
 10
195.461564293187
 20
66.4370457067458
 30
0.0
 10
195.6250704491925
 20
66.60164419761284
 30
0.0
 10
195.8071885317396
 20
66.74875701714562
 30
0.0
 10
196.0043867298884
 20
66.87737614019451
 30
0.0
 10
196.2150819491279
 20
66.98819554054936
 30
0.0
 10
196.4434308328973
 20
67.08308485799488
 30
0.0
 10
196.6841318952725
 20
67.1593555192371
 30
0.0
 10
196.9336738540175
 20
67.21667320612283
 30
0.0
 10
197.1909889284478
 20
67.25554540286561
 30
0.0
 10
197.4588398122873
 20
67.27600810130457
 30
0.0
 10
197.7335299729039
 20
67.27716591707461
 30
0.0
 10
198.0117295055173
 20
67.25889876980438
 30
0.0
 10
198.2926533242374
 20
67.2210553702148
 30
0.0
 10
198.5762360634332
 20
67.16269944494047
 30
0.0
 10
198.8592541920622
 20
67.08315524693806
 30
0.0
 10
199.1379962939575
 20
66.98203474663092
 30
0.0
 10
199.4113095483529
 20
66.85744988413502
 30
0.0
 10
199.6764840273793
 20
66.70610301916315
 30
0.0
 10
199.9036805875434
 20
66.54062371257918
 30
0.0
 10
200.0891895033828
 20
66.36641926133309
 30
0.0
 10
200.2313613391183
 20
66.19222818581963
 30
0.0
 10
200.3426421965669
 20
65.99883791615055
 30
0.0
 10
200.4187406390856
 20
65.78538040507297
 30
0.0
 10
200.4558605045585
 20
65.55944495771243
 30
0.0
 10
200.4603081793742
 20
65.3023116766976
 30
0.0
 10
200.4331971709929
 20
65.02661575761114
 30
0.0
 10
200.394914746675
 20
64.83292843352903
 30
0.0
 10
200.3757067626181
 20
64.73574694360848
 30
0.0
  0
SPLINE
  5
2B4
330
1F
100
AcDbEntity
  8
0
  6
Continuous
 62
     7
370
    25
100
AcDbSpline
210
0.0
220
0.0
230
1.0
 70
     8
 71
     3
 72
    10
 73
     6
 74
     0
 42
0.000000001
 43
0.00000001
 40
0.0
 40
0.0
 40
0.0
 40
0.0
 40
0.2946747270709981
 40
0.9789051757874475
 40
1.0
 40
1.0
 40
1.0
 40
1.0
 10
200.3784346375979
 20
64.73450838560397
 30
0.0
 10
200.4612610522318
 20
64.69574311804044
 30
0.0
 10
200.7364092021356
 20
64.56696546060122
 30
0.0
 10
201.0117557583729
 20
64.42552586166438
 30
0.0
 10
201.1605653874808
 20
64.33130670816506
 30
0.0
 10
201.1650159765744
 20
64.32848880760656
 30
0.0
  0
ARC
  5
2B5
330
1F
100
AcDbEntity
  8
0
  6
Continuous
 62
     7
370
    25
100
AcDbCircle
 10
204.3884424839
 20
50.5212983157
 30
0.0
 40
12.46644230717348
100
AcDbArc
 50
171.5249591672
 51
179.8212373334
  0
SPLINE
  5
2B6
330
1F
100
AcDbEntity
  8
0
  6
Continuous
 62
     7
370
    25
100
AcDbSpline
210
0.0
220
0.0
230
1.0
 70
     8
 71
     3
 72
    14
 73
    10
 74
     0
 42
0.000000001
 43
0.00000001
 40
0.0
 40
0.0
 40
0.0
 40
0.0
 40
0.0003951393068452
 40
0.0003951393068452
 40
0.0003951393068452
 40
0.0008163352168664
 40
0.0008163352168664
 40
0.0008163352168664
 40
0.0012378579337219
 40
0.0012378579337219
 40
0.0012378579337219
 40
0.0012378579337219
 10
199.9703568382976
 20
64.87975548062688
 30
0.0
 10
200.0158186525288
 20
64.86531861800184
 30
0.0
 10
200.0607062571499
 20
64.85045275743623
 30
0.0
 10
200.104989949825
 20
64.83516896983076
 30
0.0
 10
200.1521932420644
 20
64.81887753049308
 30
0.0
 10
200.1987190551235
 20
64.80210805240915
 30
0.0
 10
200.2445299643651
 20
64.78487924161387
 30
0.0
 10
200.2903763523543
 20
64.76763708778223
 30
0.0
 10
200.3355155879266
 20
64.74993138157772
 30
0.0
 10
200.379909145969
 20
64.73178852488695
 30
0.0
  0
LINE
  5
2B7
330
1F
100
AcDbEntity
  8
0
  6
Continuous
 62
     7
370
    25
100
AcDbLine
 10
191.2671685646
 20
55.1678691781
 30
0.0
 11
190.6272323693
 21
55.5801009152
 31
0.0
  0
LINE
  5
2B8
330
1F
100
AcDbEntity
  8
0
  6
Continuous
 62
     7
370
    25
100
AcDbLine
 10
190.3212981729
 20
55.9515794608
 30
0.0
 11
190.6272323693
 21
55.5801009152
 31
0.0
  0
SPLINE
  5
2B9
330
1F
100
AcDbEntity
  8
0
  6
Continuous
 62
     7
370
    25
100
AcDbSpline
210
0.0
220
0.0
230
1.0
 70
     8
 71
     3
 72
    13
 73
     9
 74
     0
 42
0.000000001
 43
0.00000001
 40
0.0
 40
0.0
 40
0.0
 40
0.0
 40
0.1618542298650875
 40
0.3254858841233149
 40
0.4910085196246548
 40
0.6585318472470939
 40
0.8281616954004768
 40
1.0
 40
1.0
 40
1.0
 40
1.0
 10
190.627232369276
 20
55.58010091519697
 30
0.0
 10
190.6076549772609
 20
55.59266389222859
 30
0.0
 10
190.5682852014191
 20
55.61792780834475
 30
0.0
 10
190.506749261653
 20
55.65062150525761
 30
0.0
 10
190.4431926024049
 20
55.67956757896443
 30
0.0
 10
190.3775744997466
 20
55.70407994643144
 30
0.0
 10
190.3101472306874
 20
55.72451500978728
 30
0.0
 10
190.2642626304853
 20
55.73411166477852
 30
0.0
 10
190.241171950308
 20
55.73894102561415
 30
0.0
  0
SPLINE
  5
2BA
330
1F
100
AcDbEntity
  8
0
  6
Continuous
 62
     7
370
    25
100
AcDbSpline
210
0.0
220
0.0
230
1.0
 70
     8
 71
     3
 72
     9
 73
     5
 74
     0
 42
0.000000001
 43
0.00000001
 40
0.0
 40
0.0
 40
0.0
 40
0.0
 40
0.4907282259506041
 40
1.0
 40
1.0
 40
1.0
 40
1.0
 10
190.2411661230161
 20
55.73891302858313
 30
0.0
 10
190.2170726005383
 20
55.74700856080127
 30
0.0
 10
190.1679751139791
 20
55.76350553772254
 30
0.0
 10
190.1172744201589
 20
55.77829920673877
 30
0.0
 10
190.0914539878715
 20
55.78583320480337
 30
0.0
  0
SPLINE
  5
2BB
330
1F
100
AcDbEntity
  8
0
  6
Continuous
 62
     7
370
    25
100
AcDbSpline
210
0.0
220
0.0
230
1.0
 70
     8
 71
     3
 72
    14
 73
    10
 74
     0
 42
0.000000001
 43
0.00000001
 40
0.0
 40
0.0
 40
0.0
 40
0.0
 40
0.0310276388093398
 40
0.0622853718693698
 40
0.1248003166924349
 40
0.2498289731770658
 40
0.4998892603621822
 40
0.7606803621577949
 40
1.0
 40
1.0
 40
1.0
 40
1.0
 10
189.5075132985836
 20
56.15994094744926
 30
0.0
 10
189.5135055379884
 20
56.1561099037953
 30
0.0
 10
189.5255344539479
 20
56.14841940629722
 30
0.0
 10
189.5495942619976
 20
56.13298151679027
 30
0.0
 10
189.5918279346439
 20
56.10591106385939
 30
0.0
 10
189.6763905091562
 20
56.05169903906394
 30
0.0
 10
189.7996774786246
 20
55.97269585719919
 30
0.0
 10
189.9458091850783
 20
55.87908968252145
 30
0.0
 10
190.0441758016194
 20
55.81610660612898
 30
0.0
 10
190.091247502306
 20
55.78596710733848
 30
0.0
  0
LINE
  5
2BC
330
1F
100
AcDbEntity
  8
0
  6
Continuous
 62
     7
370
    25
100
AcDbLine
 10
187.7050130319
 20
57.3225717485
 30
0.0
 11
187.9959798664
 21
57.1344933195
 31
0.0
  0
SPLINE
  5
2BD
330
1F
100
AcDbEntity
  8
0
  6
Continuous
 62
     7
370
    25
100
AcDbSpline
210
0.0
220
0.0
230
1.0
 70
     8
 71
     3
 72
     8
 73
     4
 74
     0
 42
0.000000001
 43
0.00000001
 40
0.0
 40
0.0
 40
0.0
 40
0.0
 40
1.0
 40
1.0
 40
1.0
 40
1.0
 10
188.0273688008785
 20
57.11427055513807
 30
0.0
 10
188.0169262950266
 20
57.12109598003546
 30
0.0
 10
188.0064603621369
 20
57.127838946822
 30
0.0
 10
187.9959725973203
 20
57.13449803447499
 30
0.0
  0
SPLINE
  5
2BE
330
1F
100
AcDbEntity
  8
0
  6
Continuous
 62
     7
370
    25
100
AcDbSpline
210
0.0
220
0.0
230
1.0
 70
     8
 71
     3
 72
     8
 73
     4
 74
     0
 42
0.000000001
 43
0.00000001
 40
0.0
 40
0.0
 40
0.0
 40
0.0
 40
1.0
 40
1.0
 40
1.0
 40
1.0
 10
185.2413644220527
 20
58.9925262069484
 30
0.0
 10
185.3003641862233
 20
58.95378554002901
 30
0.0
 10
185.3596517497345
 20
58.9157235627293
 30
0.0
 10
185.4192328232236
 20
58.8783397742686
 30
0.0
  0
SPLINE
  5
2BF
330
1F
100
AcDbEntity
  8
0
  6
Continuous
 62
     7
370
    25
100
AcDbSpline
210
0.0
220
0.0
230
1.0
 70
     8
 71
     3
 72
     8
 73
     4
 74
     0
 42
0.000000001
 43
0.00000001
 40
0.0
 40
0.0
 40
0.0
 40
0.0
 40
1.0
 40
1.0
 40
1.0
 40
1.0
 10
185.2165146759551
 20
59.35573638488546
 30
0.0
 10
185.2239888880456
 20
59.23477854417425
 30
0.0
 10
185.2322849919357
 20
59.11370670176422
 30
0.0
 10
185.2413644220545
 20
58.99252620694902
 30
0.0
  0
LWPOLYLINE
  5
2C0
330
1F
100
AcDbEntity
  8
0
  6
Continuous
 62
     7
370
    25
100
AcDbPolyline
 90
       20
 70
   128
 43
0.0
 10
185.216514676
 20
59.3557363849
 10
185.5039128081
 20
60.1876628784
 10
185.8376477286
 20
61.0168746932
 10
186.2154705501
 20
61.8377841495
 10
186.6348352972
 20
62.6448595133
 10
187.0929160624
 20
63.4326622722
 10
187.5866260485
 20
64.1958837832
 10
188.1126383694
 20
64.929381045
 10
188.6674084681
 20
65.6282113543
 10
189.2471980023
 20
66.287665613
 10
189.8481000351
 20
66.9033000597
 10
190.4660653621
 20
67.4709662151
 10
191.096929797
 20
67.9868388362
 10
191.7364422324
 20
68.4474416929
 10
192.3802932861
 20
68.8496709928
 10
193.0241443399
 20
69.1908162963
 10
193.6636567753
 20
69.4685787811
 10
194.2945212102
 20
69.6810867325
 10
194.9124865372
 20
69.8269081566
 10
195.1804769016
 20
69.8698441487
  0
SPLINE
  5
2C1
330
1F
100
AcDbEntity
  8
0
  6
Continuous
 62
     7
370
    25
100
AcDbSpline
210
0.0
220
0.0
230
1.0
 70
     8
 71
     3
 72
    15
 73
    11
 74
     0
 42
0.000000001
 43
0.00000001
 40
0.0
 40
0.0
 40
0.0
 40
0.0
 40
0.1839591247850753
 40
0.2820456637769783
 40
0.3843897452688195
 40
0.4957589812013201
 40
0.6244618953163704
 40
0.7705876784599878
 40
0.9648100227946824
 40
1.0
 40
1.0
 40
1.0
 40
1.0
 10
191.2671685646046
 20
48.46202776050502
 30
0.0
 10
191.3498110410266
 20
48.40981435101002
 30
0.0
 10
191.4765182763748
 20
48.32976088393529
 30
0.0
 10
191.6218847995008
 20
48.25714488158799
 30
0.0
 10
191.7283502620166
 20
48.21351806217484
 30
0.0
 10
191.8291444254252
 20
48.18560009784755
 30
0.0
 10
191.9254695807505
 20
48.17890701004458
 30
0.0
 10
192.013829018634
 20
48.20961203158559
 30
0.0
 10
192.071328606258
 20
48.25733755711551
 30
0.0
 10
192.0823110064291
 20
48.31722575142216
 30
0.0
 10
192.0839956169552
 20
48.32641211150244
 30
0.0
  0
LINE
  5
2C2
330
1F
100
AcDbEntity
  8
0
  6
Continuous
 62
     7
370
    25
100
AcDbLine
 10
186.48399511
 20
58.191100114
 30
0.0
 11
185.7221157285
 21
58.6817350327
 31
0.0
  0
LINE
  5
2C3
330
1F
100
AcDbEntity
  8
0
  6
Continuous
 62
     7
370
    25
100
AcDbLine
 10
185.7221157285
 20
58.6817350327
 30
0.0
 11
185.2413644221
 21
58.9925262069
 31
0.0
  0
LINE
  5
2C4
330
1F
100
AcDbEntity
  8
0
  6
Continuous
 62
     7
370
    25
100
AcDbLine
 10
190.3212981729
 20
48.1862479859
 30
0.0
 11
190.6272323693
 21
48.8742594976
 31
0.0
  0
LINE
  5
2C5
330
1F
100
AcDbEntity
  8
0
  6
Continuous
 62
     7
370
    25
100
AcDbLine
 10
190.6272323693
 20
48.8742594976
 30
0.0
 11
191.2671685646
 21
48.4620277605
 31
0.0
  0
SPLINE
  5
2C6
330
1F
100
AcDbEntity
  8
0
  6
Continuous
 62
     7
370
    25
100
AcDbSpline
210
0.0
220
0.0
230
1.0
 70
     8
 71
     3
 72
    13
 73
     9
 74
     0
 42
0.000000001
 43
0.00000001
 40
0.0
 40
0.0
 40
0.0
 40
0.0
 40
0.1722587823402174
 40
0.3421398270982735
 40
0.5097456257612809
 40
0.6751828993009421
 40
0.8385626189970466
 40
1.0
 40
1.0
 40
1.0
 40
1.0
 10
190.2411604385027
 20
49.15556899345026
 30
0.0
 10
190.2643119624534
 20
49.13744940251725
 30
0.0
 10
190.3102954432023
 20
49.10146033058321
 30
0.0
 10
190.3778364559132
 20
49.05046034716802
 30
0.0
 10
190.4434960705984
 20
49.00213566697736
 30
0.0
 10
190.5070201418488
 20
48.95670466106802
 30
0.0
 10
190.5684505205707
 20
48.9138790933078
 30
0.0
 10
190.6077166875443
 20
48.88741327613235
 30
0.0
 10
190.627232369276
 20
48.87425949758525
 30
0.0
  0
SPLINE
  5
2C7
330
1F
100
AcDbEntity
  8
0
  6
Continuous
 62
     7
370
    25
100
AcDbSpline
210
0.0
220
0.0
230
1.0
 70
     8
 71
     3
 72
    11
 73
     7
 74
     0
 42
0.000000001
 43
0.00000001
 40
0.0
 40
0.0
 40
0.0
 40
0.0
 40
0.239284509383631
 40
0.5001120454057238
 40
0.7515010915050501
 40
1.0
 40
1.0
 40
1.0
 40
1.0
 10
190.0917800270266
 20
49.20288298566313
 30
0.0
 10
190.0447107950353
 20
49.17456846295692
 30
0.0
 10
189.9463346404424
 20
49.11539023239879
 30
0.0
 10
189.800037418857
 20
49.02220233194141
 30
0.0
 10
189.6521966751957
 20
48.92683041596904
 30
0.0
 10
189.5559102124796
 20
48.86229516070079
 30
0.0
 10
189.5080453246224
 20
48.83021409064055
 30
0.0
  0
SPLINE
  5
2C8
330
1F
100
AcDbEntity
  8
0
  6
Continuous
 62
     7
370
    25
100
AcDbSpline
210
0.0
220
0.0
230
1.0
 70
     8
 71
     3
 72
     9
 73
     5
 74
     0
 42
0.000000001
 43
0.00000001
 40
0.0
 40
0.0
 40
0.0
 40
0.0
 40
0.509066935386983
 40
0.9999999999999999
 40
0.9999999999999999
 40
0.9999999999999999
 40
0.9999999999999999
 10
190.0923510306108
 20
49.20218403145137
 30
0.0
 10
190.1179996052348
 20
49.19469132329148
 30
0.0
 10
190.1683831065803
 20
49.17997281057922
 30
0.0
 10
190.2171906180755
 20
49.16358045272705
 30
0.0
 10
190.24115183927
 20
49.15553290225046
 30
0.0
  0
LINE
  5
2C9
330
1F
100
AcDbEntity
  8
0
  6
Continuous
 62
     7
370
    25
100
AcDbLine
 10
191.9222696049
 20
50.1260622699
 30
0.0
 11
190.2411539441
 21
49.1555748563
 31
0.0
  0
LINE
  5
2CA
330
1F
100
AcDbEntity
  8
0
  6
Continuous
 62
     7
370
    25
100
AcDbLine
 10
188.2346661471
 20
50.2793961341
 30
0.0
 11
188.0343700947
 21
49.7782388527
 31
0.0
  0
SPLINE
  5
2CB
330
1F
100
AcDbEntity
  8
0
  6
Continuous
 62
     7
370
    25
100
AcDbSpline
210
0.0
220
0.0
230
1.0
 70
     8
 71
     3
 72
     8
 73
     4
 74
     0
 42
0.000000001
 43
0.00000001
 40
0.0
 40
0.0
 40
0.0
 40
0.0
 40
1.0
 40
1.0
 40
1.0
 40
1.0
 10
188.2342228324706
 20
50.28018006531271
 30
0.0
 10
188.2603981670398
 20
50.30234744229098
 30
0.0
 10
188.2862192070053
 20
50.3249795833826
 30
0.0
 10
188.3116767607137
 20
50.34806430347388
 30
0.0
  0
LINE
  5
2CC
330
1F
100
AcDbEntity
  8
0
  6
Continuous
 62
     7
370
    25
100
AcDbLine
 10
188.3116767607
 20
50.3480643035
 30
0.0
 11
190.091969751
 21
49.202293041
 31
0.0
  0
LINE
  5
2CD
330
1F
100
AcDbEntity
  8
0
  6
Continuous
 62
     7
370
    25
100
AcDbLine
 10
191.9220608532
 20
50.2241123043
 30
0.0
 11
191.8340618307
 21
50.3316034409
 31
0.0
  0
LINE
  5
2CE
330
1F
100
AcDbEntity
  8
0
  6
Continuous
 62
     7
370
    25
100
AcDbLine
 10
190.0056532422
 20
51.3259761108
 30
0.0
 11
188.3116767607
 21
50.3480643035
 31
0.0
  0
LINE
  5
2CF
330
1F
100
AcDbEntity
  8
0
  6
Continuous
 62
     7
370
    25
100
AcDbLine
 10
190.1483472678
 20
51.3046837501
 30
0.0
 11
190.0060735563
 21
51.325488366
 31
0.0
  0
LINE
  5
2D0
330
1F
100
AcDbEntity
  8
0
  6
Continuous
 62
     7
370
    25
100
AcDbLine
 10
191.8341348361
 20
50.3314993017
 30
0.0
 11
190.1483472678
 21
51.3046837501
 31
0.0
  0
LINE
  5
2D1
330
1F
100
AcDbEntity
  8
0
  6
Continuous
 62
     7
370
    25
100
AcDbLine
 10
191.9220608532
 20
50.2807349608
 30
0.0
 11
191.8340883791
 21
50.3315261021
 31
0.0
  0
SPLINE
  5
2D2
330
1F
100
AcDbEntity
  8
0
  6
Continuous
 62
     7
370
    25
100
AcDbSpline
210
0.0
220
0.0
230
1.0
 70
     8
 71
     3
 72
    11
 73
     7
 74
     0
 42
0.000000001
 43
0.00000001
 40
0.0
 40
0.0
 40
0.0
 40
0.0
 40
0.2427865396750039
 40
0.514412220229484
 40
0.728655310277242
 40
1.0
 40
1.0
 40
1.0
 40
1.0
 10
187.4501537265093
 20
50.44866815266458
 30
0.0
 10
187.5535841335044
 20
50.38423635739534
 30
0.0
 10
187.7727308183776
 20
50.2477193045876
 30
0.0
 10
187.9934314643686
 20
50.16586274279346
 30
0.0
 10
188.1542926261331
 20
50.15408500446095
 30
0.0
 10
188.198264319781
 20
50.22733304682529
 30
0.0
 10
188.2228355426712
 20
50.26826378716959
 30
0.0
  0
SPLINE
  5
2D3
330
1F
100
AcDbEntity
  8
0
  6
Continuous
 62
     7
370
    25
100
AcDbSpline
210
0.0
220
0.0
230
1.0
 70
     8
 71
     3
 72
     9
 73
     5
 74
     0
 42
0.000000001
 43
0.00000001
 40
0.0
 40
0.0
 40
0.0
 40
0.0
 40
0.5232027762885619
 40
0.9999999999999999
 40
0.9999999999999999
 40
0.9999999999999999
 40
0.9999999999999999
 10
189.8394758880146
 20
51.23004396619972
 30
0.0
 10
189.7704515750209
 20
51.25508612527396
 30
0.0
 10
189.6385250713366
 20
51.30294932518257
 30
0.0
 10
189.3970879189822
 20
51.44054752211249
 30
0.0
 10
189.2819713550388
 20
51.50615396039638
 30
0.0
  0
LINE
  5
2D4
330
1F
100
AcDbEntity
  8
0
  6
Continuous
 62
     7
370
    25
100
AcDbLine
 10
185.5524702319
 20
51.2720434272
 30
0.0
 11
186.0039404016
 21
51.3843079609
 31
0.0
  0
LINE
  5
2D5
330
1F
100
AcDbEntity
  8
0
  6
Continuous
 62
     7
370
    25
100
AcDbLine
 10
186.0039404016
 20
51.3843079609
 30
0.0
 11
187.4501537265
 21
50.4486681527
 31
0.0
  0
SPLINE
  5
2D6
330
1F
100
AcDbEntity
  8
0
  6
Continuous
 62
     7
370
    25
100
AcDbSpline
210
0.0
220
0.0
230
1.0
 70
     8
 71
     3
 72
     8
 73
     4
 74
     0
 42
0.000000001
 43
0.00000001
 40
0.0
 40
0.0
 40
0.0
 40
0.0
 40
1.0
 40
1.0
 40
1.0
 40
1.0
 10
185.723258110526
 20
50.87729395488127
 30
0.0
 10
185.6661328416027
 20
51.00908013867519
 30
0.0
 10
185.6092043498859
 20
51.14066436033428
 30
0.0
 10
185.5524702319371
 20
51.27204342723395
 30
0.0
  0
LINE
  5
2D7
330
1F
100
AcDbEntity
  8
0
  6
Continuous
 62
     7
370
    25
100
AcDbLine
 10
187.3416416121
 20
52.1565464321
 30
0.0
 11
186.0039404016
 21
51.3843079609
 31
0.0
  0
LINE
  5
2D8
330
1F
100
AcDbEntity
  8
0
  6
Continuous
 62
     7
370
    25
100
AcDbLine
 10
188.3246704089
 20
52.0587928987
 30
0.0
 11
187.3416411383
 21
52.1565464797
 31
0.0
  0
LINE
  5
2D9
330
1F
100
AcDbEntity
  8
0
  6
Continuous
 62
     7
370
    25
100
AcDbLine
 10
189.281971355
 20
51.5061539604
 30
0.0
 11
188.3246696594
 21
52.0587924661
 31
0.0
  0
SPLINE
  5
2DA
330
1F
100
AcDbEntity
  8
0
  6
Continuous
 62
     7
370
    25
100
AcDbSpline
210
0.0
220
0.0
230
1.0
 70
     8
 71
     3
 72
     8
 73
     4
 74
     0
 42
0.000000001
 43
0.00000001
 40
0.0
 40
0.0
 40
0.0
 40
0.0
 40
1.0
 40
1.0
 40
1.0
 40
1.0
 10
185.5524702319371
 20
51.27204342723395
 30
0.0
 10
185.549332894187
 20
51.30725973410646
 30
0.0
 10
185.5473404902891
 20
51.34290399033416
 30
0.0
 10
185.546559092917
 20
51.37900089232903
 30
0.0
  0
LINE
  5
2DB
330
1F
100
AcDbEntity
  8
0
  6
Continuous
 62
     7
370
    25
100
AcDbLine
 10
186.3576446254
 20
51.8472306037
 30
0.0
 11
185.5465590929
 21
51.3790008923
 31
0.0
  0
SPLINE
  5
2DC
330
1F
100
AcDbEntity
  8
0
  6
Continuous
 62
     7
370
    25
100
AcDbSpline
210
0.0
220
0.0
230
1.0
 70
     8
 71
     3
 72
     8
 73
     4
 74
     0
 42
0.000000001
 43
0.00000001
 40
0.0000004089325119
 40
0.0000004089325119
 40
0.0000004089325119
 40
0.0000004089325119
 40
0.0015399868451459
 40
0.0015399868451459
 40
0.0015399868451459
 40
0.0015399868451459
 10
186.3576446254058
 20
51.84723060368515
 30
0.0
 10
186.596121193429
 20
51.9416069895015
 30
0.0
 10
186.8345681510977
 20
52.03603560143171
 30
0.0
 10
187.072976889948
 20
52.13052898439417
 30
0.0
  0
LINE
  5
2DD
330
1F
100
AcDbEntity
  8
0
  6
Continuous
 62
     7
370
    25
100
AcDbLine
 10
187.0729768899
 20
52.1305289844
 30
0.0
 11
187.0973731207
 21
52.1355229142
 31
0.0
  0
LINE
  5
2DE
330
1F
100
AcDbEntity
  8
0
  6
Continuous
 62
     7
370
    25
100
AcDbLine
 10
187.3416414046
 20
52.1565464136
 30
0.0
 11
187.0973736624
 21
52.1355233069
 31
0.0
  0
SPLINE
  5
2DF
330
1F
100
AcDbEntity
  8
0
  6
Continuous
 62
     7
370
    25
100
AcDbSpline
210
0.0
220
0.0
230
1.0
 70
     8
 71
     3
 72
     8
 73
     4
 74
     0
 42
0.000000001
 43
0.00000001
 40
0.0
 40
0.0
 40
0.0
 40
0.0
 40
1.0
 40
1.0
 40
1.0
 40
1.0
 10
188.3246688044561
 20
52.05879297698113
 30
0.0
 10
188.3552768385793
 20
52.04385296917502
 30
0.0
 10
188.3858283395512
 20
52.02897601178164
 30
0.0
 10
188.4163222776658
 20
52.01416244810072
 30
0.0
  0
ARC
  5
2E0
330
1F
100
AcDbEntity
  8
0
  6
Continuous
 62
     7
370
    25
100
AcDbCircle
 10
189.2535606177
 20
57.3497868451
 30
0.0
 40
6.40456095661543
100
AcDbArc
 50
283.5403219229
 51
295.0414388057
  0
LWPOLYLINE
  5
2E1
330
1F
100
AcDbEntity
  8
0
  6
Continuous
 62
     7
370
    18
100
AcDbPolyline
 90
       15
 70
   128
 43
0.0
 10
232.8455275237
 20
34.3688988496
 10
232.8725786566
 20
34.7415631062
 10
232.95291012
 20
35.1341367212
 10
233.0840810832
 20
35.5346915438
 10
233.2621059828
 20
35.9310569184
 10
233.4815756224
 20
36.3111894837
 10
233.735821528
 20
36.6635391041
 10
234.0171185663
 20
36.9773998147
 10
234.3169196693
 20
37.2432351165
 10
234.6261155322
 20
37.4529677384
 10
234.935311395
 20
37.600225061
 10
235.235112498
 20
37.6805327448
 10
235.5164095364
 20
37.6914506817
 10
235.7706554419
 20
37.6326471355
 10
235.9532067911
 20
37.5337996049
  0
ARC
  5
2E2
330
1F
100
AcDbEntity
  8
0
  6
Continuous
 62
     7
370
    18
100
AcDbCircle
 10
234.0867286368
 20
34.2408916974
 30
0.0
 40
1.247784450188431
100
AcDbArc
 50
174.1118071842
 51
237.0336037996
  0
ARC
  5
2E3
330
1F
100
AcDbEntity
  8
0
  6
Continuous
 62
     7
370
    18
100
AcDbCircle
 10
212.6863325323
 20
45.1207946088
 30
0.0
 40
2.276044568248408
100
AcDbArc
 50
172.4255917946
 51
240.6012551585
  0
LWPOLYLINE
  5
2E4
330
1F
100
AcDbEntity
  8
0
  6
Continuous
 62
     7
370
    18
100
AcDbPolyline
 90
       21
 70
   128
 43
0.0
 10
216.3921400929
 20
51.4925786288
 10
216.3363155368
 20
51.5306845483
 10
216.0235984642
 20
51.6892655678
 10
215.6765417917
 20
51.7800891824
 10
215.3006188104
 20
51.8017230496
 10
214.9017580503
 20
51.7538259905
 10
214.4862497838
 20
51.6371533701
 10
214.0606468245
 20
51.4535451854
 10
213.6316611852
 20
51.2058970472
 10
213.2060582259
 20
50.8981145146
 10
212.7905499594
 20
50.5350515019
 10
212.3916891993
 20
50.1224337298
 10
212.015766218
 20
49.666768427
 10
211.6687095455
 20
49.1752417075
 10
211.3559924729
 20
48.6556052413
 10
211.0825467352
 20
48.116054006
 10
210.8526847351
 20
47.5650970467
 10
210.6700315335
 20
47.0114232839
 10
210.5374676806
 20
46.4637644836
 10
210.4570837876
 20
45.9307575522
 10
210.4301475565
 20
45.4208083274
  0
LWPOLYLINE
  5
2E5
330
1F
100
AcDbEntity
  8
0
  6
Continuous
 62
     7
370
    18
100
AcDbPolyline
 90
       35
 70
   128
 43
0.0
 10
233.1846662311
 20
34.3765910906
 10
233.2119834452
 20
34.732784782
 10
233.2930048324
 20
35.1083885085
 10
233.4249713066
 20
35.4906115356
 10
233.6033889077
 20
35.8664377166
 10
233.8221818384
 20
36.2230687416
 10
234.0738993679
 20
36.5483599688
 10
234.3499695575
 20
36.8312339956
 10
234.640991168
 20
37.0620578863
 10
234.9370538076
 20
37.2329712102
 10
235.2280754182
 20
37.3381537189
 10
235.5041456077
 20
37.3740235483
 10
235.7558631372
 20
37.3393591945
 10
235.9746560679
 20
37.2353411102
 10
236.1530736691
 20
37.0655115068
 10
236.2850401432
 20
36.8356537276
 10
236.3660615304
 20
36.5535953036
 10
236.3933787445
 20
36.2289413962
 10
236.3660615304
 20
35.8727477048
 10
236.2850401432
 20
35.4971439783
 10
236.1530736691
 20
35.1149209512
 10
235.9746560679
 20
34.7390947702
 10
235.7558631372
 20
34.3824637452
 10
235.5041456077
 20
34.057172518
 10
235.2280754182
 20
33.7742984912
 10
234.9370538076
 20
33.5434746005
 10
234.640991168
 20
33.3725612766
 10
234.3499695575
 20
33.2673787679
 10
234.0738993679
 20
33.2315089385
 10
233.8221818384
 20
33.2661732923
 10
233.6033889077
 20
33.3701913766
 10
233.4249713066
 20
33.54002098
 10
233.2930048324
 20
33.7698787592
 10
233.2119834452
 20
34.0519371832
 10
233.1846662311
 20
34.3765910906
  0
LWPOLYLINE
  5
2E6
330
1F
100
AcDbEntity
  8
0
  6
Continuous
 62
     7
370
    18
100
AcDbPolyline
 90
       44
 70
   128
 43
0.0
 10
203.876815284
 20
35.0734539838
 10
203.6290431374
 20
35.2960389076
 10
203.1860704285
 20
35.7702423085
 10
202.7879805716
 20
36.3040593849
 10
202.436688803
 20
36.894921908
 10
202.1338852101
 20
37.5399871997
 10
201.8810266008
 20
38.236151809
 10
201.6793294944
 20
38.9800664426
 10
201.5297642687
 20
39.7681520787
 10
201.4330504918
 20
40.596617186
 10
201.38965346
 20
41.4614759649
 10
201.3997819591
 20
42.3585675236
 10
201.4633872604
 20
43.2835758961
 10
201.5801633547
 20
44.2320508069
 10
201.7495484244
 20
45.1994290815
 10
201.970727547
 20
46.1810566
 10
202.2426366153
 20
47.1722106885
 10
202.5639674572
 20
48.1681228401
 10
202.933174129
 20
49.1640016567
 10
203.3484803533
 20
50.1550559003
 10
203.8078880649
 20
51.1365175445
 10
204.3091870234
 20
52.1036647135
 10
204.8499654468
 20
53.0518443991
 10
205.4276216149
 20
53.9764948472
 10
206.0393763864
 20
54.8731675044
 10
206.682286569
 20
55.7375484199
 10
207.3532590802
 20
56.5654790011
 10
208.0490658274
 20
57.3529760199
 10
208.7663592391
 20
58.0962507769
 10
209.50168837
 20
58.7917273288
 10
210.2515155037
 20
59.4360596927
 10
211.0122331731
 20
60.0261479437
 10
211.780181516
 20
60.5591531286
 10
212.5516658828
 20
61.032510925
 10
213.322974612
 20
61.4439439775
 10
214.0903968872
 20
61.791472855
 10
214.8502405897
 20
62.0734255734
 10
215.5988500621
 20
62.2884456398
 10
216.3326236954
 20
62.4354985787
 10
217.0480312569
 20
62.5138769089
 10
217.7416308743
 20
62.523203547
 10
218.4100855945
 20
62.4634336221
 10
219.0501794385
 20
62.3348546911
 10
219.5662241581
 20
62.1731803172
  0
LWPOLYLINE
  5
2E7
330
1F
100
AcDbEntity
  8
0
  6
Continuous
 62
     7
370
    18
100
AcDbPolyline
 90
       31
 70
   128
 43
0.0
 10
202.0941726927
 20
41.7370826747
 10
202.1210117998
 20
40.8749279677
 10
202.20139541
 20
40.0480562455
 10
202.3349230563
 20
39.2605869415
 10
202.5209295105
 20
38.5164431881
 10
202.758488098
 20
37.8193322721
 10
203.0464153137
 20
37.172727165
 10
203.3832767188
 20
36.5798492209
 10
203.7673940866
 20
36.043652128
 10
204.1968537639
 20
35.5668071931
 10
204.669516204
 20
35.1516900337
 10
205.1830266265
 20
34.8003687427
 10
205.7348267483
 20
34.5145935851
 10
206.3221675289
 20
34.2957882782
 10
206.9421228662
 20
34.1450428992
 10
207.5916041737
 20
34.063108454
 10
208.2673757683
 20
34.0503931357
 10
208.9660709899
 20
34.1069602916
 10
209.6842089741
 20
34.2325281068
 10
210.4182119935
 20
34.4264710089
 10
211.164423282
 20
34.687822784
 10
211.9191252525
 20
35.0152813907
 10
212.6785580178
 20
35.4072154468
 10
213.4389381221
 20
35.8616723565
 10
214.1964773898
 20
36.3763880384
 10
214.9474017985
 20
36.9487982047
 10
215.6879702805
 20
37.5760511369
 10
216.4144933609
 20
38.2550218923
 10
217.1233515383
 20
38.9823278729
 10
217.8110133169
 20
39.7543456768
 10
218.1381322488
 20
40.1465069505
  0
LWPOLYLINE
  5
2E8
330
1F
100
AcDbEntity
  8
0
  6
Continuous
 62
     7
370
    18
100
AcDbPolyline
 90
       54
 70
   128
 43
0.0
 10
222.26764903
 20
47.2998149022
 10
222.528596032
 20
48.0224456302
 10
222.8411850659
 20
49.0034810733
 10
223.104091742
 20
49.9793034584
 10
223.3160062724
 20
50.9450512877
 10
223.4758729096
 20
51.895913254
 10
223.582895206
 20
52.8271522109
 10
223.636539982
 20
53.7341287726
 10
223.636539982
 20
54.6123244276
 10
223.582895206
 20
55.4573640493
 10
223.4758729096
 20
56.2650376928
 10
223.3160062724
 20
57.0313215686
 10
223.104091742
 20
57.7523980891
 10
222.8411850659
 20
58.4246748872
 10
222.528596032
 20
59.0448027138
 10
222.1678819431
 20
59.6096921232
 10
221.7608398586
 20
60.1165288649
 10
221.3094976418
 20
60.5627879036
 10
220.8161038569
 20
60.9462459993
 10
220.2831165669
 20
61.264992783
 10
219.7131910876
 20
61.5174402743
 10
219.1091667591
 20
61.7023307925
 10
218.4740528003
 20
61.8187432224
 10
217.8110133169
 20
61.866097603
 10
217.1233515383
 20
61.8441580172
 10
216.4144933609
 20
61.7530337669
 10
215.6879702805
 20
61.5931788286
 10
214.9474017985
 20
61.3653895915
 10
214.1964773898
 20
61.0708008901
 10
213.4389381221
 20
60.7108803506
 10
212.6785580178
 20
60.2874210789
 10
211.9191252525
 20
59.8025327279
 10
211.164423282
 20
59.2586309869
 10
210.4182119935
 20
58.6584255471
 10
209.6842089741
 20
58.0049066016
 10
208.9660709899
 20
57.3013299492
 10
208.2673757683
 20
56.5512007732
 10
207.5916041737
 20
55.7582561794
 10
206.9421228662
 20
54.9264465781
 10
206.3221675289
 20
54.0599160026
 10
205.7348267483
 20
53.1629814649
 10
205.1830266265
 20
52.2401114475
 10
204.669516204
 20
51.2959036427
 10
204.1968537639
 20
50.335062046
 10
203.7673940866
 20
49.3623735221
 10
203.3832767188
 20
48.3826839562
 10
203.0464153137
 20
47.4008741125
 10
202.758488098
 20
46.4218353181
 10
202.5209295105
 20
45.4504450953
 10
202.3349230563
 20
44.4915428611
 10
202.20139541
 20
43.5499058183
 10
202.1210117998
 20
42.6302251552
 10
202.0941726927
 20
41.7370826747
 10
202.0941726927
 20
41.7370826747
  0
LWPOLYLINE
  5
2E9
330
1F
100
AcDbEntity
  8
0
  6
Continuous
 62
     7
370
    18
100
AcDbPolyline
 90
       30
 70
   128
 43
0.0
 10
208.3953153122
 20
45.374654881
 10
208.4224658018
 20
45.958599499
 10
208.5035877005
 20
46.5668031085
 10
208.6376962984
 20
47.1918829414
 10
208.8231636987
 20
47.8262513755
 10
209.0577385784
 20
48.4622080372
 10
209.3385735162
 20
49.0920332742
 10
209.6622595565
 20
49.7080818613
 10
210.0248675891
 20
50.3028758031
 10
210.4219960438
 20
50.869195107
 10
210.8488243192
 20
51.4001654237
 10
211.300171298
 20
51.8893414928
 10
211.7705582394
 20
52.3307853796
 10
212.2542752832
 20
52.7191385533
 10
212.7454507597
 20
53.0496869323
 10
213.2381224639
 20
53.3184181072
 10
213.7263100288
 20
53.5220700456
 10
214.2040875187
 20
53.6581706886
 10
214.665655362
 20
53.725067959
 10
215.1054107504
 20
53.7219498145
 10
215.5180156492
 20
53.6488541051
 10
215.8984615938
 20
53.5066681138
 10
216.2421304858
 20
53.2971177858
 10
216.5448506505
 20
53.0227467782
 10
216.802947475
 20
52.6868855835
 10
217.0132880137
 20
52.2936111016
 10
217.1733190172
 20
51.8476971519
 10
217.281097926
 20
51.3545565257
 10
217.3353164501
 20
50.8201752822
 10
217.335349371
 20
50.8195043998
  0
LWPOLYLINE
  5
2EA
330
1F
100
AcDbEntity
  8
0
  6
Continuous
 62
     7
370
    18
100
AcDbPolyline
 90
       15
 70
   128
 43
0.0
 10
212.6236062363
 20
42.6576415434
 10
212.2542752832
 20
42.4856315542
 10
211.7705582394
 20
42.3154969168
 10
211.300171298
 20
42.2138436012
 10
210.8488243192
 20
42.1819055408
 10
210.4219960438
 20
42.2200704205
 10
210.0248675891
 20
42.3278749703
 10
209.6622595565
 20
42.504010589
 10
209.3385735162
 20
42.7463392289
 10
209.0577385784
 20
43.0519193484
 10
208.8231636987
 20
43.4170416189
 10
208.6376962984
 20
43.8372739506
 10
208.5035877005
 20
44.3075152923
 10
208.4224658018
 20
44.8220575511
 10
208.3953153122
 20
45.374654881
  0
LWPOLYLINE
  5
2EB
330
1F
100
AcDbEntity
  8
0
  6
Continuous
 62
     7
370
    18
100
AcDbPolyline
 90
        3
 70
   128
 43
0.0
 10
195.44794939
 20
45.0350842092
 10
195.4473689495
 20
45.1659967444
 10
195.4476469091
 20
45.2569824045
  0
LWPOLYLINE
  5
2EC
330
1F
100
AcDbEntity
  8
0
  6
Continuous
 62
     7
370
    18
100
AcDbPolyline
 90
       17
 70
   128
 43
0.0
 10
200.0714500511
 20
41.8303600181
 10
199.998163432
 20
42.2197841161
 10
199.898622587
 20
42.9944039564
 10
199.8525490326
 20
43.8061051108
 10
199.8601942174
 20
44.650457683
 10
199.9215164174
 20
45.5228535805
 10
200.0361809638
 20
46.4185316628
 10
200.2035620697
 20
47.3326037259
 10
200.4227462451
 20
48.2600811799
 10
200.6925372824
 20
49.1959022742
 10
201.0114627845
 20
50.1349597226
 10
201.3777822012
 20
51.0721285762
 10
201.7894963274
 20
52.0022941931
 10
202.2443582145
 20
52.9203801522
 10
202.739885433
 20
53.8213759575
 10
203.2733736206
 20
54.7003643831
 10
203.841911241
 20
55.5525483098
  0
LWPOLYLINE
  5
2ED
330
1F
100
AcDbEntity
  8
0
  6
Continuous
 62
     7
370
    18
100
AcDbPolyline
 90
       22
 70
   128
 43
0.0
 10
200.5832461255
 20
38.9004324693
 10
200.4013875177
 20
39.1621185095
 10
200.0643018971
 20
39.7427130888
 10
199.7775343996
 20
40.3789006314
 10
199.542640322
 20
41.0672307444
 10
199.3608936235
 20
41.8039702373
 10
199.2332800157
 20
42.5851233689
 10
199.160491617
 20
43.4064535186
 10
199.1429231987
 20
44.263506164
 10
199.1806700439
 20
45.15163304
 10
199.2735274309
 20
46.0660173488
 10
199.4209917432
 20
47.0016998844
 10
199.6222632013
 20
47.9536059288
 10
199.8762502001
 20
48.916572775
 10
200.181575229
 20
49.8853777273
 10
200.5365823436
 20
50.8547664266
 10
200.9393461462
 20
51.819481348
 10
201.3876822283
 20
52.774290315
 10
201.8791590184
 20
53.7140148765
 10
202.411110969
 20
54.6335583924
 10
202.9806530139
 20
55.5279336753
 10
203.5846962151
 20
56.3922900391
  0
ARC
  5
2EE
330
1F
100
AcDbEntity
  8
0
  6
Continuous
 62
     7
370
    18
100
AcDbCircle
 10
216.8385078933
 20
48.3627199815
 30
0.0
 40
14.64379965385443
100
AcDbArc
 50
110.2307331869
 51
139.1259066685
  0
LWPOLYLINE
  5
2EF
330
1F
100
AcDbEntity
  8
0
  6
Continuous
 62
     7
370
    18
100
AcDbPolyline
 90
       15
 70
   128
 43
0.0
 10
204.9288894559
 20
58.0644536517
 10
205.6274469986
 20
58.8184141667
 10
206.346719928
 20
59.5231572338
 10
207.0826970082
 20
60.1747526472
 10
207.8312738479
 20
60.7695665946
 10
208.5882757896
 20
61.3042819222
 10
209.3494811906
 20
61.7759166335
 10
210.1106449665
 20
62.1818405198
 10
210.8675222649
 20
62.5197898279
 10
211.6158921384
 20
62.7878798846
 10
212.3515810836
 20
62.9846156073
 10
213.0704863159
 20
63.1088998418
 10
213.7685986503
 20
63.1600394807
 10
214.4420248592
 20
63.1377493289
 10
214.5678530733
 20
63.1251070208
  0
LINE
  5
2F0
330
1F
100
AcDbEntity
  8
0
  6
Continuous
 62
     7
370
    18
100
AcDbLine
 10
190.9610044411
 20
55.5386044478
 30
0.0
 11
191.2671685646
 21
55.1678691781
 31
0.0
  0
LINE
  5
2F1
330
1F
100
AcDbEntity
  8
0
  6
Continuous
 62
     7
370
    18
100
AcDbLine
 10
190.9610044411
 20
47.7744940565
 30
0.0
 11
191.2671685646
 21
48.4620277605
 31
0.0
  0
LINE
  5
2F2
330
1F
100
AcDbEntity
  8
0
  6
Continuous
 62
     7
370
    18
100
AcDbLine
 10
192.0030787184
 20
48.8868596495
 30
0.0
 11
191.2671758907
 21
48.4620319898
 31
0.0
  0
LINE
  5
2F3
330
1F
100
AcDbEntity
  8
0
  6
Continuous
 62
     7
370
    18
100
AcDbLine
 10
191.9365033432
 20
49.6300855426
 30
0.0
 11
190.6272323693
 21
48.8742594976
 31
0.0
  0
LINE
  5
2F4
330
1F
100
AcDbEntity
  8
0
  6
Continuous
 62
     7
370
    18
100
AcDbLine
 10
187.4501537265
 20
50.4486681527
 30
0.0
 11
187.1536662237
 21
49.9526065451
 31
0.0
  0
LINE
  5
2F5
330
1F
100
AcDbEntity
  8
0
  6
Continuous
 62
     7
370
    18
100
AcDbLine
 10
189.281971355
 20
51.5061539604
 30
0.0
 11
187.4502139759
 21
50.4487029339
 31
0.0
  0
LINE
  5
2F6
330
1F
100
AcDbEntity
  8
0
  6
Continuous
 62
     7
370
    18
100
AcDbLine
 10
189.281971355
 20
51.5061539604
 30
0.0
 11
189.4032813167
 21
51.4444031226
 31
0.0
  0
OLE2FRAME
  5
2F7
330
1F
100
AcDbEntity
  8
0
100
AcDbOle2Frame
 70
     2
  3
Paintbrush-Bild
 10
13.8511154363
 20
38.264191557
 30
0.0
 11
51.6290888628
 21
31.9806341108
 31
0.0
 71
     2
 72
     0
 73
     1
 90
    12928
310
80552BED0767C5B32B40DDAF6807D121434000000000000000006FFBDDFB85D0
310
4940DDAF6807D121434000000000000000006FFBDDFB85D04940416F4BD60AFB
310
3F4000000000000000002BED0767C5B32B40416F4BD60AFB3F40000000000000
310
0000000000000100000000010000010000000100000000000100000000320000
310
D0CF11E0A1B11AE1000000000000000000000000000000003E000300FEFF0900
310
0600000000000000000000000100000001000000000000000010000002000000
310
01000000FEFFFFFF0000000000000000FFFFFFFFFFFFFFFFFFFFFFFFFFFFFFFF
310
FFFFFFFFFFFFFFFFFFFFFFFFFFFFFFFFFFFFFFFFFFFFFFFFFFFFFFFFFFFFFFFF
310
FFFFFFFFFFFFFFFFFFFFFFFFFFFFFFFFFFFFFFFFFFFFFFFFFFFFFFFFFFFFFFFF
310
FFFFFFFFFFFFFFFFFFFFFFFFFFFFFFFFFFFFFFFFFFFFFFFFFFFFFFFFFFFFFFFF
310
FFFFFFFFFFFFFFFFFFFFFFFFFFFFFFFFFFFFFFFFFFFFFFFFFFFFFFFFFFFFFFFF
310
FFFFFFFFFFFFFFFFFFFFFFFFFFFFFFFFFFFFFFFFFFFFFFFFFFFFFFFFFFFFFFFF
310
FFFFFFFFFFFFFFFFFFFFFFFFFFFFFFFFFFFFFFFFFFFFFFFFFFFFFFFFFFFFFFFF
310
FFFFFFFFFFFFFFFFFFFFFFFFFFFFFFFFFFFFFFFFFFFFFFFFFFFFFFFFFFFFFFFF
310
FFFFFFFFFFFFFFFFFFFFFFFFFFFFFFFFFFFFFFFFFFFFFFFFFFFFFFFFFFFFFFFF
310
FFFFFFFFFFFFFFFFFFFFFFFFFFFFFFFFFFFFFFFFFFFFFFFFFFFFFFFFFFFFFFFF
310
FFFFFFFFFFFFFFFFFFFFFFFFFFFFFFFFFFFFFFFFFFFFFFFFFFFFFFFFFFFFFFFF
310
FFFFFFFFFFFFFFFFFFFFFFFFFFFFFFFFFFFFFFFFFFFFFFFFFFFFFFFFFFFFFFFF
310
FFFFFFFFFFFFFFFFFFFFFFFFFFFFFFFFFFFFFFFFFFFFFFFFFFFFFFFFFFFFFFFF
310
FFFFFFFFFFFFFFFFFFFFFFFFFFFFFFFFFFFFFFFFFFFFFFFFFFFFFFFFFFFFFFFF
310
FDFFFFFFFEFFFFFFFEFFFFFFFEFFFFFF05000000060000000700000008000000
310
090000000A0000000B0000000C0000000D0000000E0000000F00000010000000
310
11000000120000001300000014000000150000001600000017000000FEFFFFFF
310
FFFFFFFFFFFFFFFFFFFFFFFFFFFFFFFFFFFFFFFFFFFFFFFFFFFFFFFFFFFFFFFF
310
FFFFFFFFFFFFFFFFFFFFFFFFFFFFFFFFFFFFFFFFFFFFFFFFFFFFFFFFFFFFFFFF
310
FFFFFFFFFFFFFFFFFFFFFFFFFFFFFFFFFFFFFFFFFFFFFFFFFFFFFFFFFFFFFFFF
310
FFFFFFFFFFFFFFFFFFFFFFFFFFFFFFFFFFFFFFFFFFFFFFFFFFFFFFFFFFFFFFFF
310
FFFFFFFFFFFFFFFFFFFFFFFFFFFFFFFFFFFFFFFFFFFFFFFFFFFFFFFFFFFFFFFF
310
FFFFFFFFFFFFFFFFFFFFFFFFFFFFFFFFFFFFFFFFFFFFFFFFFFFFFFFFFFFFFFFF
310
FFFFFFFFFFFFFFFFFFFFFFFFFFFFFFFFFFFFFFFFFFFFFFFFFFFFFFFFFFFFFFFF
310
FFFFFFFFFFFFFFFFFFFFFFFFFFFFFFFFFFFFFFFFFFFFFFFFFFFFFFFFFFFFFFFF
310
FFFFFFFFFFFFFFFFFFFFFFFFFFFFFFFFFFFFFFFFFFFFFFFFFFFFFFFFFFFFFFFF
310
FFFFFFFFFFFFFFFFFFFFFFFFFFFFFFFFFFFFFFFFFFFFFFFFFFFFFFFFFFFFFFFF
310
FFFFFFFFFFFFFFFFFFFFFFFFFFFFFFFFFFFFFFFFFFFFFFFFFFFFFFFFFFFFFFFF
310
FFFFFFFFFFFFFFFFFFFFFFFFFFFFFFFFFFFFFFFFFFFFFFFFFFFFFFFFFFFFFFFF
310
FFFFFFFFFFFFFFFFFFFFFFFFFFFFFFFFFFFFFFFFFFFFFFFFFFFFFFFFFFFFFFFF
310
52006F006F007400200045006E00740072007900000000000000000000000000
310
0000000000000000000000000000000000000000000000000000000000000000
310
16000500FFFFFFFFFFFFFFFF020000000A00030000000000C000000000000046
310
00000000000000000000000020206E739AA5D30103000000C000000000000000
310
01004F006C006500000000000000000000000000000000000000000000000000
310
0000000000000000000000000000000000000000000000000000000000000000
310
0A000200FFFFFFFFFFFFFFFFFFFFFFFF00000000000000000000000000000000
310
0000000000000000000000000000000000000000000000001400000000000000
310
010043006F006D0070004F0062006A0000000000000000000000000000000000
310
0000000000000000000000000000000000000000000000000000000000000000
310
120002010100000003000000FFFFFFFF00000000000000000000000000000000
310
0000000000000000000000000000000000000000010000004D00000000000000
310
01004F006C006500310030004E00610074006900760065000000000000000000
310
0000000000000000000000000000000000000000000000000000000000000000
310
1A000200FFFFFFFFFFFFFFFFFFFFFFFF00000000000000000000000000000000
310
0000000000000000000000000000000000000000040000002426000000000000
310
FEFFFFFF02000000FEFFFFFFFFFFFFFFFFFFFFFFFFFFFFFFFFFFFFFFFFFFFFFF
310
FFFFFFFFFFFFFFFFFFFFFFFFFFFFFFFFFFFFFFFFFFFFFFFFFFFFFFFFFFFFFFFF
310
FFFFFFFFFFFFFFFFFFFFFFFFFFFFFFFFFFFFFFFFFFFFFFFFFFFFFFFFFFFFFFFF
310
FFFFFFFFFFFFFFFFFFFFFFFFFFFFFFFFFFFFFFFFFFFFFFFFFFFFFFFFFFFFFFFF
310
FFFFFFFFFFFFFFFFFFFFFFFFFFFFFFFFFFFFFFFFFFFFFFFFFFFFFFFFFFFFFFFF
310
FFFFFFFFFFFFFFFFFFFFFFFFFFFFFFFFFFFFFFFFFFFFFFFFFFFFFFFFFFFFFFFF
310
FFFFFFFFFFFFFFFFFFFFFFFFFFFFFFFFFFFFFFFFFFFFFFFFFFFFFFFFFFFFFFFF
310
FFFFFFFFFFFFFFFFFFFFFFFFFFFFFFFFFFFFFFFFFFFFFFFFFFFFFFFFFFFFFFFF
310
FFFFFFFFFFFFFFFFFFFFFFFFFFFFFFFFFFFFFFFFFFFFFFFFFFFFFFFFFFFFFFFF
310
FFFFFFFFFFFFFFFFFFFFFFFFFFFFFFFFFFFFFFFFFFFFFFFFFFFFFFFFFFFFFFFF
310
FFFFFFFFFFFFFFFFFFFFFFFFFFFFFFFFFFFFFFFFFFFFFFFFFFFFFFFFFFFFFFFF
310
FFFFFFFFFFFFFFFFFFFFFFFFFFFFFFFFFFFFFFFFFFFFFFFFFFFFFFFFFFFFFFFF
310
FFFFFFFFFFFFFFFFFFFFFFFFFFFFFFFFFFFFFFFFFFFFFFFFFFFFFFFFFFFFFFFF
310
FFFFFFFFFFFFFFFFFFFFFFFFFFFFFFFFFFFFFFFFFFFFFFFFFFFFFFFFFFFFFFFF
310
FFFFFFFFFFFFFFFFFFFFFFFFFFFFFFFFFFFFFFFFFFFFFFFFFFFFFFFFFFFFFFFF
310
FFFFFFFFFFFFFFFFFFFFFFFFFFFFFFFFFFFFFFFFFFFFFFFFFFFFFFFFFFFFFFFF
310
0100000200000000000000000000000000000000000000000000000000000000
310
0000000000000000000000000000000000000000000000000000000000000000
310
0100FEFF030A0000FFFFFFFF0A00030000000000C00000000000004607000000
310
5042727573680007000000504272757368000700000050427275736800F439B2
310
7100000000000000000000000000000000000000000000000000000000000000
310
0000000000000000000000000000000000000000000000000000000000000000
310
0000000000000000000000000000000000000000000000000000000000000000
310
0000000000000000000000000000000000000000000000000000000000000000
310
0000000000000000000000000000000000000000000000000000000000000000
310
0000000000000000000000000000000000000000000000000000000000000000
310
0000000000000000000000000000000000000000000000000000000000000000
310
0000000000000000000000000000000000000000000000000000000000000000
310
0000000000000000000000000000000000000000000000000000000000000000
310
0000000000000000000000000000000000000000000000000000000000000000
310
0000000000000000000000000000000000000000000000000000000000000000
310
0000000000000000000000000000000000000000000000000000000000000000
310
20260000424D0E260000000000003E00000028000000B40200006E0000000100
310
01000000000000000000130B0000130B00000200000002000000000000FFFFFF
310
FFFFFFFFFFFFFFFFFFFFFFFFFFFFFFFFFFFFFFFFFFFFFFFFFFFFFFFFFFFFFFFF
310
FFFFFFFFFFFFFFFFFFFFFFFFFFFFFFFFFFFFFFFFFFFFFFFFFFFFFFFFFFFFFFFF
310
FFFFFFFFFFFFFFFFFFFFFFFFFFFFFFFFFFFFFFFFFFFFFFFFF000FFFFFFFFFFFF
310
FFFFFFFFFFFFFFFFFFFFFFFFFFFFFFFFFFFFFFFFFFFFFFFFFFFFFFFFFFFFFFFF
310
FFFFFFFFFFFFFFFFFFFFFFFFFFFFFFFFFFFFFFFFFFFFFFFFFFFFFFFFFFFFFFFF
310
FFFFFFFFFFFFFFFFFFFFFFFFFFFFFFFFF000FFFFFFFFFFFFFFFFFFFFFFFFFFFF
310
FFFFFFFFFFFFFFFFFFFFFFFFFFFFFFFFFFFFFFFFFFFFFFFFFFFFFFFFFFFFFFFF
310
FFFFFFFFFFFFFFFFFFFFFFFFFFFFFFFFFFFFFFFFFFFFFFFFFFFFFFFFFFFFFFFF
310
FFFFFFFFFFFFFFFFF000FFFFFFFFFFFFFFFFFFFFFFFFFFFFFFFFFFFFFFFFFFFF
310
FFFFFFFFFFFFFFFFFFFFFFFFFFFFFFFFFFFFFFFFFFFFFFFFFFFFFFFFFFFFFFFF
310
FFFFFFFFFFFFFFFFFFFFFFFFFFFFFFFFFFFFFFFFFFFFFFFFFFFFFFFFFFFFFFFF
310
F000FFFFFFFFFFFFFFFFFFFFFFFFFFFFFFFFFFFFFFFFFFFFFFFFFFFFFFFFFFFF
310
FFFFFFFFFFFFFFFFFFFFFFFFFFFFFFFFFFFFFFFFFFFFFFFFFFFFFFFFFFFFFFFF
310
FFFFFFFFFFFFFFFFFFFFFFFFFFFFFFFFFFFFFFFFFFFFFFFFF000FFFFFFFFFFFF
310
FFFFFFFFFFFFFFFFFFFFFFFFFFFFFFFFFFFFFFFFFFFFFFFFFFFFFFFFFFFFFFFF
310
FFFFFFFFFFFFFFFFFFFFFFFFFFFFFFFFFFFFFFFFFFFFFFFFFFFFFFFFFFFFFFFF
310
FFFFFFFFFFFFFFFFFFFFFFFFFFFFFFFFF000FFFFFFFFFFFFFFFFFFFFFFFFFFFF
310
FFFFFFFFFFFFFFFFFFFFFFFFFFFFFFFFFFFFFFFFFFFFFFFFFFFFFFFFFFFFFFFF
310
FFFFFFFFFFFFFFFFFFFFFFFFFFFFFFFFFFFFFFFFFFFFFFFFFFFFFFFFFFFFFFFF
310
FFFFFFFFFFFFFFFFF000FFFFFFFFFFFFFFFFFFFFFFFFFFFFFFFFFFFFFFFFFFFF
310
FFFFFFFFFFFFFFFFFFFFFFFFFFFFFFFFFFFFFFFFFFFFFFFFFFFFFFFFFFFFFFFF
310
FFFFFFFFFFFFFFFFFFFFFFFFFFFFFFFFFFFFFFFFFFFFFFFFFFFFFFFFFFFFFFFF
310
F000FFFFFFFFFFFFFFFFFFFFFFFFFFFFFFFFFFFFFFFFFFFFFFFFFFFFFFFFFFFF
310
FFFFFFFFFFFFFFFFFFFFFFFFFFFFFFFFFFFFFFFFFFFFFFFFFFFFFFFFFFFFFFFF
310
FFFFFFFFFFFFFFFFFFFFFFFFFFFFFFFFFFFFFFFFFFFFFFFFF000FFFFFFFFFFFF
310
FFFFFFFFFFFFFFFFFFFFFFFFFFFFFFFFFFFFFFFFFFFFFFFFFFFFFFFFFFFFFFFF
310
FFFFFFFFFFFFFFFFFFFFFFFFFFFFFFFFFFFFFFFFFFFFFFFFFFFFFFFFFFFFFFFF
310
FFFFFFFFFFFFFFFFFFFFFFFFFFFFFFFFF000FFFFFFFFFFFFFFFFFFFFFFFFFFFF
310
FFFFFFFFFFFFFFFFFFFFFFFFFFFFFFFFFFFFFFFFFFFFFFFFFFFFFFFFFFFFFFFF
310
FFFFFFFFFFFFFFFFFFFFFFFFFFFFFFFFFFFFFFFFFFFFFFFFFFFFFFFFFFFFFFFF
310
FFFFFFFFFFFFFFFFF000FFFFFFFFFFFFFFFFFFFFFFFFFFFFFFFFFFFFFFFFFFFF
310
FFFFFFFFFFFFFFFFFFFFFFFFFFFFFFFFFFFFFFFFFFFFFFFFFFFFFFFFFFFFFFFF
310
FFFFFFFFFFFFFFFFFFFFFFFFFFFFFFFFFFFFFFFFFFFFFFFFFFFFFFFFFFFFFFFF
310
F000FFFFFFFFFFFFFFFFFFFFFFFFFFFFFFFFFFFFFFFFFFFFFFFFFFFFFFFFFFFF
310
FFFFFFFFFFFFFFFFFFFFFFFFFFFFFFFFFFFFFFFFFFFFFFFFFFFFFFFFFFFFFFFF
310
FFFFFFFFFFFFFFFFFFFFFFFFFFFFFFFFFFFFFFFFFFFFFFFFF000FFFFFFFFFFFF
310
FFFFFFFFFFFFFFFFFFFFFFFFFFFFFFFFFFFFFFFFFFFFFFFFFFFFFFFFFFFFFFFF
310
FFFFFFFFFFFFFFFFFFFFFFFFFFFFFFFFFFFFFFFFFFFFFFFFFFFFFFFFFFFFFFFF
310
FFFFFFFFFFFFFFFFFFFFFFFFFFFFFFFFF000FFFFFFFFFFFFFFFFFFFFFFFFFFFF
310
FFFFFFFFFFFFFFFFFFFFFFFFFFFFFFFFFFFFFFFFFFFFFFFFFFFFFFFFFFFFFFFF
310
FFFFFFFFFFFFFFFFFFFFFFFFFFFFFFFFFFFFFFFFFFFFFFFFFFFFFFFFFFFFFFFF
310
FFFFFFFFFFFFFFFFF000FFFFFFFFFFFFFFFFFFFFFFFFFFFFFFFFFFFFFFFFFFFF
310
FFFFFFFFFFFFFFFFFFFFFFFFFFFFFFFFFFFFFFFFFFFFFFFFFFFFFFFFFFFFFFFF
310
FFFFFFFFFFFFFFFFFFFFFFFFFFFFFFFFFFFFFFFFFFFFFFFFFFFFFFFFFFFFFFFF
310
F000FFFFFFFFFFFFFFFFFFFFFFFFFFFFFFFFFFFFFFFFFFFFFFFFFFFFFFFFFFFF
310
FFFFFFFFFFFFFFFFFFFFFFFFFFFFFFFFFFFFFFFFFFFFFFFFFFFFFFFFFFFFFFFF
310
FFFFFFFFFFFFFFFFFFFFFFFFFFFFFFFFFFFFFFFFFFFFFFFFF000FFFFFFFFFFFF
310
FFFFFFFFFFFFFFFFFFFFFFFFFFFFFFFFFFFFFFFFFFFFFFFFFFFFFFFFFFFFFFFF
310
FFFFFFFFFFFFFFFFFFFFFFFFFFFFFFFFFFFFFFFFFFFFFFFFFFFFFFFFFFFFFFFF
310
FFFFFFFFFFFFFFFFFFFFFFFFFFFFFFFFF000FFFFFFFFFFFFFFFFFFFFFFFFFFFF
310
FFFFFFFFFFFFFFFFFFFFFFFFFFFFFFFFFFFFFFFFFFFFFFFFFFFFFFFFFFFFFFFF
310
FFFFFFFFFFFFFFFFFFFFFFFFFFFFFFFFFFFFFFFFFFFFFFFFFFFFFFFFFFFFFFFF
310
FFFFFFFFFFFFFFFFF000FFFFF80003FFFFFFFFFFFFFFFFFFFFFFFFFFFFFFFFFF
310
FFFFF00007FFFFFFFFFF00007FFFFFF800000000000000007FFFFFFFFFFFFFFF
310
FFFFFFFC001FFFFFFFFFFFFFFC001FFFFFFFFFFFFFFFFFFFFFFFFFFE0007FFFF
310
F000FFFF8000007FFFFFFFF8000FFFFFC0007FFFFF80007FFFFF0000007FFFFF
310
FFF8000007FFFFF800000000000000007FFFFFF0001FFFFFFFFFFFC00001FFFF
310
FFFFFFFFC00001FFFFFFFF000000000003FFFFE000007FFFF000FFFE0000000F
310
FFFFFFF0000FFFFF80007FFFFF80007FFFFC0000001FFFFFFFC0000001FFFFF8
310
00000000000000007FFFFFF0001FFFFFFFFFFE0000003FFFFFFFFFFE0000003F
310
FFFFFF000000000003FFFF0000000FFFF000FFF800000003FFFFFFF00007FFFF
310
80007FFFFF80007FFFF000000007FFFFFF000000003FFFF80000000000000000
310
7FFFFFF0001FFFFFFFFFF80000000FFFFFFFFFF80000000FFFFFFF0000000000
310
03FFFC00000003FFF000FFE000000000FFFFFFF00007FFFF80003FFFFF80007F
310
FFC000000001FFFFFC000000001FFFF800000000000000007FFFFFF0001FFFFF
310
FFFFE000000003FFFFFFFFE000000003FFFFFF000000000003FFF000000000FF
310
F000FF80000000007FFFFFF00007FFFF80003FFFFF80007FFF8000000000FFFF
310
F80000000007FFF800000000000000007FFFFFF0001FFFFFFFFFC000000001FF
310
FFFFFFC000000001FFFFFF000000000003FFC0000000007FF000FF0000000000
310
3FFFFFE00007FFFF00003FFFFF80007FFE00000000003FFFF00000000003FFF8
310
00000000000000007FFFFFF0001FFFFFFFFF8000000000FFFFFFFF8000000000
310
FFFFFF000000000003FF80000000003FF000FE00000000001FFFFFE00003FFFF
310
00003FFFFF80007FFC00000000001FFFE00000000001FFF8000001FFFE000000
310
7FFFFFF0001FFFFFFFFE00000000003FFFFFFE00000000003FFFFF0000000000
310
03FF00000000001FF000FC00000000000FFFFFE00003FFFF00001FFFFF80007F
310
F800000000001FFFC00000000000FFF8000001FFFE0000007FFFFFF0001FFFFF
310
FFFC00000000001FFFFFFC00000000001FFFFF000000000003FE00000000000F
310
F000F8000000000007FFFFE00003FFFF00001FFFFF80007FF800000000000FFF
310
800000000000FFF8000001FFFE0000007FFFFFF0001FFFFFFFF800000000000F
310
FFFFF800000000000FFFFF000000000003FC000000000007F000F80000000000
310
03FFFFC00003FFFE00001FFFFF80007FF0000000000007FF0000000000007FF8
310
000001FFFE0000007FFFFFF0001FFFFFFFF0000000000007FFFFF00000000000
310
07FFFF000000000003F8000000000003F000F0000000000003FFFFC00001FFFE
310
00001FFFFF80007FE0000000000007FE0000000000003FF8000001FFFE000000
310
7FFFFFF0001FFFFFFFF0000000000007FFFFF0000000000007FFFF0000000000
310
03F800001F800003F000E00001FFF00001FFFFC00001FFFE00000FFFFF80007F
310
E00001FFE00003FE00001FFF00003FF8000001FFFE0000007FFFFFF0001FFFFF
310
FFE000003E000003FFFFE000003E000003FFFF000000000003F00001FFF80001
310
F000E00007FFFC0001FFFFC00001FFFE00000FFFFF80007FC0000FFFFC0003FC
310
0000FFFFC0001FF8000001FFFE0000007FFFFFF0001FFFFFFFC00003FFE00001
310
FFFFC00003FFE00001FFFF0001FFFFFFFFF00007FFFE0001F000E0000FFFFF00
310
00FFFF800001FFFC00000FFFFF80007FC0001FFFFE0001FC0001FFFFE0001FF8
310
000001FFFE0000007FFFFFF0001FFFFFFF80000FFFF80000FFFF80000FFFF800
310
00FFFF0003FFFFFFFFE0000FFFFF8000F000C0003FFFFF8000FFFF800000FFFC
310
000007FFFF80007F80003FFFFF0001FC0003FFFFF0001FF8000001FFFE000000
310
7FFFFFF0001FFFFFFF80003FFFFE0000FFFF80003FFFFE0000FFFF0003FFFFFF
310
FFE0003FFFFF8000F000C0003FFFFF8000FFFF800000FFFC000007FFFF80007F
310
80007FFFFF8001F80007FFFFF8000FF8000001FFFE0000007FFFFFF0001FFFFF
310
FF00007FFFFF00007FFF00007FFFFF00007FFF0003FFFFFFFFE0003FFFFFC000
310
F000C0007FFFFFC000FFFF000000FFFC000007FFFF80007F8000FFFFFF8000F8
310
000FFFFFF8000FF8000001FFFE0000007FFFFFF0001FFFFFFF0000FFFFFF8000
310
7FFF0000FFFFFF80007FFF0003FFFFFFFFC0007FFFFFC00070008000FFFFFFC0
310
00FFFF000000FFF8000007FFFF80007F8000FFFFFF8000F8000FFFFFF8000FF8
310
000001FFFE0000007FFFFFF0001FFFFFFE0001FFFFFFC0003FFE0001FFFFFFC0
310
003FFF0003FFFFFFFFC0007FFFFFE00070008000FFFFFFC0007FFF0000007FF8
310
000003FFFF80007F0001FFFFFF8000F8000FFFFFF8000FF8000001FFFE000000
310
7FFFFFF0001FFFFFFE0001FFFFFFC0003FFE0001FFFFFFC0003FFF0003FFFFFF
310
FFC000FFFFFFE00070008000FFFFFFC0007FFF0000007FF8000003FFFF80007F
310
0001FFFFFF8000F8001FFFFFF8000FF8000001FFFE0000007FFFFFF0001FFFFF
310
FE0003FFFFFFE0003FFE0003FFFFFFE0003FFF0003FFFFFFFFC000FFFFFFE000
310
70008000FFFFFFC0007FFE0000007FF8000003FFFF80007F0001FFFFFF8000F0
310
001FFFFFF8000FF8000001FFFE0000007FFFFFF0001FFFFFFC0003FFFFFFE000
310
1FFC0003FFFFFFE0001FFF0003FFFFFFFFC000FFFFFFC00070008000FFFFFF80
310
007FFE0000007FF0000003FFFF80007F0001FFFFFF0000F0001FFFFFF8000FF8
310
000001FFFE0000007FFFFFF0001FFFFFFC0007FFFFFFF0001FFC0007FFFFFFF0
310
001FFF0003FFFFFFFFC000FFFFFFC00070008001FFFFFF0000FFFE0000003FF0
310
000001FFFF80007F0001FFFFFF0000F8001FFFFFF0000FF8000001FFFE000000
310
7FFFFFF0001FFFFFFC0007FFFFFFF0001FFC0007FFFFFFF0001FFF0003FFFFFF
310
FFC001FFFFFF80007000FFFFFFFFFE0000FFFE0008003FF0008001FFFF80007F
310
FFFFFFFFFC0000FFFFFFFFFFE0000FF8000001FFFE0000007FFFFFF0001FFFFF
310
F8000FFFFFFFF8000FF8000FFFFFFFF8000FFF0003FFFFFFFFFFFFFFFFFF0000
310
7000FFFFFFFFFC0000FFFC0008003FF0008001FFFF80007FFFFFFFFFF80001FF
310
FFFFFFFF80000FF8000001FFFE0000007FFFFFF0001FFFFFF8000FFFFFFFF800
310
0FF8000FFFFFFFF8000FFF0003FFFFFFFFFFFFFFFFFE0000F000FFFFFFFFE000
310
00FFFC000C003FE000C001FFFF80007FFFFFFFFFC00001FFFFFFFFFE00001FF8
310
000001FFFE0000007FFFFFF0001FFFFFF8000FFFFFFFF8000FF8000FFFFFFFF8
310
000FFF0003FFFFFFFFFFFFFFFFF00000F000FFFFFFFE000001FFFC000C001FE0
310
00C000FFFF80007FFFFFFFFE000001FFFFFFFFE000001FF80FFFFFFFFFFFFFC0
310
7FFFFFF0001FFFFFF8000FFFFFFFF8000FF8000FFFFFFFF8000FFF0003FFFFFF
310
FFFFFFFFFF800000F000FFFFFFC0000001FFFC001C001FE001C000FFFF80007F
310
FFFFFF80000003FFFFFFF80000001FF80FFFFFFFFFFFFFC07FFFFFF0001FFFFF
310
F8001FFFFFFFFC000FF8001FFFFFFFFC000FFF0003FFFFFFFFFFFFFFF0000001
310
F000FFFFF800000001FFF8001C001FE001C000FFFF80007FFFFFF800000003FF
310
FFFF800000003FF80FFFFFFFFFFFFFC07FFFFFF0001FFFFFF8001FFFFFFFFC00
310
0FF8001FFFFFFFFC000FFF0003FFFFFFFFFFFFFE00000001F000FFFFC0000000
310
03FFF8001E001FC001E000FFFF80007FFFFF8000000007FFFFFC000000003FF8
310
0FFFFFFFFFFFFFC07FFFFFF0001FFFFFF8001FFFFFFFFC000FF8001FFFFFFFFC
310
000FFF0003FFFFFFFFFFFFE000000003F000FFFE0000000007FFF8001E000FC0
310
01E0007FFF80007FFFFE0000000007FFFFE0000000007FF80FFFFFFFFFFFFFC0
310
7FFFFFF0001FFFFFF0001FFFFFFFFC0007F0001FFFFFFFFC0007FF0003FFFFFF
310
FFFFFF0000000003F000FFF80000000007FFF8001E000FC003E0007FFF80007F
310
FFF0000000000FFFFF8000000000FFF80FFFFFFFFFFFFFC07FFFFFF0001FFFFF
310
F0001FFFFFFFFC0007F0001FFFFFFFFC0007FF0003FFFFFFFFFFFC0000000007
310
F000FFE0000000000FFFF0003E000FC003E0007FFF80007FFFC0000000001FFF
310
FE0000000001FFF80FFFFFFFFFFFFFC07FFFFFF0001FFFFFF0001FFFFFFFFC00
310
07F0001FFFFFFFFC0007FF0003FFFFFFFFFFF0000000000FF000FFC000000000
310
1FFFF0003F000F8003F0003FFF80007FFF80000000003FFFF80000000003FFF8
310
0FFFFFFFFFFFFFC07FFFFFF0001FFFFFF0001FFFFFFFFC0007F0001FFFFFFFFC
310
0007FF0003FFFFFFFFFFE0000000001FF000FF00000000007FFFF0003F000780
310
03F0003FFF80007FFF00000000007FFFF00000000007FFF80FFFFFFFFFFFFFC0
310
7FFFFFF0001FFFFFF0001FFFFFFFFC0007F0001FFFFFFFFC0007FF0003FFFFFF
310
FFFF80000000007FF000FE0000000000FFFFE0003F00078007F0003FFF80007F
310
FE0000000001FFFFE0000000001FFFF80FFFFFFFFFFFFFC07FFFFFF0001FFFFF
310
F0001FFFFFFFFC0007F0001FFFFFFFFC0007FF0003FFFFFFFFFF0000000000FF
310
F000FC0000000003FFFFE0007F00078007F0003FFF80007FFC0000000007FFFF
310
C0000000007FFFF80FFFFFFFFFFFFFC07FFFFFF0001FFFFFF8001FFFFFFFFC00
310
0FF8001FFFFFFFFC000FFF0003FFFFFFFFFE0000000003FFF000FC000000000F
310
FFFFE0007F80070007F8001FFF80007FF8000000001FFFFF8000000001FFFFF8
310
0FFFFFFFFFFFFFC07FFFFFF0001FFFFFF8001FFFFFFFFC000FF8001FFFFFFFFC
310
000FFF0003FFFFFFFFFC000000000FFFF000F8000000007FFFFFE0007F800700
310
07F8001FFF80007FF000000000FFFFFF800000000FFFFFF80FFFFFFFFFFFFFC0
310
7FFFFFF0001FFFFFF8000FFFFFFFF8000FF8000FFFFFFFF8000FFF0003FFFFFF
310
FFFC000000007FFFF000F800000007FFFFFFC0007F8003000FF8001FFF80007F
310
F000000007FFFFFF000000007FFFFFF80FFFFFFFFFFFFFC07FFFFFF0001FFFFF
310
F8000FFFFFFFF8000FF8000FFFFFFFF8000FFF0003FFFFFFFFF80000000FFFFF
310
F000F0000000FFFFFFFFC000FF8003000FF8001FFF80007FE0000000FFFFFFFF
310
0000000FFFFFFFF8000001FFFE0000007FFFFFF0001FFFFFF8000FFFFFFFF800
310
0FF8000FFFFFFFF8000FFF0003FFFFFFFFF8000000FFFFFFF000F000000FFFFF
310
FFFFC000FFC002000FF8000FFF80007FE000001FFFFFFFFE000001FFFFFFFFF8
310
000001FFFE0000007FFFFFF0001FFFFFF8000FFFFFFFF8000FF8000FFFFFFFF8
310
000FFF0003FFFFFFFFF000001FFFFFFFF000E00000FFFFFFFFFFC000FFC00200
310
0FFC000FFF80007FE00001FFFFFFFFFE00001FFFFFFFFFF8000001FFFE000000
310
7FFFFFF0001FFFFFFC000FFFFFFFF8001FFC000FFFFFFFF8001FFF0003FFFFFF
310
FFF00001FFFFFFFFF000E00007FFFFFFFFFF8000FFC000001FFC000FFF80007F
310
C0000FFFFFFFFFFE0000FFFFFFFFFFF8000001FFFE0000007FFFFFF0001FFFFF
310
FC0007FFFFFFF0001FFC0007FFFFFFF0001FFF0003FFFFFFFFF00007FFFFFFFF
310
F000E0001FFFFFFFFFFF8000FFC000001FFC000FFF80007FC0003FFFFFFFFFFE
310
0001FFFFFFFFFFF8000001FFFE0000007FFFFFF0001FFFFFFC0007FFFFFFF000
310
1FFC0007FFFFFFF0001FFF0003FFFFFFFFF0001FFFFFFFFFF000E0003FFFFF00
310
03FF8001FFE000001FFC0007FF80007FC0007FFFFF0007FC0003FFFFF0003FF8
310
000001FFFE0000007FFFFFF0001FFFFFFC0003FFFFFFE0001FFC0003FFFFFFE0
310
001FFF0003FFFFFFFFF0003FFFFFFFFFF000E0003FFFFF0001FF8001FFE00000
310
1FFE0007FF80007FC0007FFFFE0003FC0007FFFFE0003FF8000001FFFE000000
310
7FFFFFF0001FFFFFFE0003FFFFFFE0003FFE0003FFFFFFE0003FFF0003FFFFFF
310
FFF0003FFFFF8001F000E0003FFFFF0001FF0001FFE000001FFE0007FF80007F
310
C0007FFFFE0003FC0007FFFFE0003FF8000001FFFE0000007FFFFFF0001FFFFF
310
FE0001FFFFFFC0003FFE0001FFFFFFC0003FFF0003FFFFFFFFF0003FFFFF0001
310
F000E0003FFFFF0003FF0001FFE000003FFE0007FF80007FC0007FFFFE0003FC
310
0007FFFFE0003FF8000001FFFE0000007FFFFFF0001FFFFFFF0001FFFFFFC000
310
7FFF0001FFFFFFC0007FFF0003FFFFFFFFF0003FFFFF0001F000E0003FFFFE00
310
03FF0003FFF000003FFE0003FF80007FC0007FFFFC0003FE0007FFFFE0003FF8
310
000001FFFE0000007FFFFFF0001FFFFFFF0000FFFFFF80007FFF0000FFFFFF80
310
007FFF0003FFFFFFFFF0003FFFFF0001F000E0003FFFFE0003FF0003FFF00000
310
3FFF0003FF80007FC0007FFFFC0007FE0007FFFFC0003FF8000001FFFE000000
310
7FFFFFF0001FFFFFFF80007FFFFF0000FFFF80007FFFFF0000FFFF0003FFFFFF
310
FFF0003FFFFF0003F000E0003FFFFC0003FE0003FFF000003FFF0003FF80007F
310
E0003FFFF80007FE0003FFFFC0007FF8000001FFFE0000007FFFFFF0001FFFFF
310
FF80003FFFFE0000FFFF80003FFFFE0000FFFF0003FFFFFFFFF0001FFFFE0003
310
F000F0001FFFF80003FE0003FFF000007FFF0001FF80007FE0003FFFF00007FE
310
0001FFFF80007FF8000001FFFE0000007FFFFFF0001FFFFFFFC0000FFFF80001
310
FFFFC0000FFFF80001FFFF0003FFFFFFFFF0001FFFFC0003F000F0000FFFF000
310
07FE0007FFF800007FFF0001FF80007FE0001FFFE00007FF0000FFFE00007FF8
310
000001FFFE0000007FFFFFF0001FFFFFFFC00003FFE00001FFFFC00003FFE000
310
01FFFF0003FFFFFFFFF8000FFFF80003F000F00003FFC00007FC0007FFF80000
310
7FFF8001FF80007FF00007FF80000FFF00007FF80000FFF8000001FFFE000000
310
7F80000000000001FFE000003E000003FFFFE000003E000003FFFF0003FFFFFF
310
FFF80003FFE00007F000F800000000000FFC0007FFF800007FFF8001FF80007F
310
F000000000000FFF000000000000FFF8000001FFFE0000007F80000000000001
310
FFF0000000000007FFFFF0000000000007FFFF0003FFFFFFFFFC00007E000007
310
F000F800000000000FFC0007FFF80000FFFF8000FF80007FF800000000001FFF
310
800000000001FFF8000001FFFE0000007F80000000000001FFF800000000000F
310
FFFFF800000000000FFFFF0003FFFFFFFFFC00000000000FF000FC0000000000
310
1FFC0007FFFC0000FFFF8000FF80007FF800000000003FFFC00000000001FFF8
310
000001FFFE0000007F80000000000001FFF800000000000FFFFFF80000000000
310
0FFFFF0003FFFFFFFFFE00000000001FF000FE00000000003FF8000FFFFC0000
310
FFFF8000FF80007FFC00000000003FFFC00000000003FFF8000001FFFE000000
310
7F80000000000001FFFC00000000001FFFFFFC00000000001FFFFF0003FFFFFF
310
FFFF00000000001FF000FF00000000003FF8000FFFFC0000FFFFC000FF80007F
310
FE00000000007FFFE00000000007FFF8000001FFFE0000007F80000000000001
310
FFFE00000000003FFFFFFE00000000003FFFFF0003FFFFFFFFFF80000000003F
310
F000FF80000000007FF8000FFFFC0001FFFFC0007F80007FFF0000000000FFFF
310
F0000000000FFFF800000000000000007F80000000000001FFFF8000000000FF
310
FFFFFF8000000000FFFFFF0003FFFFFFFFFFC0000000007FF000FFC000000000
310
FFF8000FFFFE0001FFFFC0007F80007FFF8000000001FFFFF8000000001FFFF8
310
00000000000000007F80000000000001FFFFC000000001FFFFFFFFC000000001
310
FFFFFF0003FFFFFFFFFFE000000000FFF000FFE000000003FFF0001FFFFE0001
310
FFFFC0007F80007FFFC000000007FFFFFE000000003FFFF80000000000000000
310
7F80000000000001FFFFE000000003FFFFFFFFE000000003FFFFFF0003FFFFFF
310
FFFFF000000003FFF000FFF80000000FFFF0001FFFFE0001FFFFE0007F80007F
310
FFF00000000FFFFFFF00000000FFFFF800000000000000007F80000000000001
310
FFFFF80000000FFFFFFFFFF80000000FFFFFFF0003FFFFFFFFFFFC0000000FFF
310
F000FFFE0000003FFFF0001FFFFE0003FFFFE0003F80007FFFFC0000003FFFFF
310
FFC0000003FFFFF800000000000000007F80000000000001FFFFFE0000003FFF
310
FFFFFFFE0000003FFFFFFF0003FFFFFFFFFFFF0000003FFFF000FFFF800000FF
310
FFF0001FFFFF0003FFFFE0003F80007FFFFF000001FFFFFFFFF800001FFFFFF8
310
00000000000000007F80000000000001FFFFFFC00001FFFFFFFFFFFFC00001FF
310
FFFFFF0003FFFFFFFFFFFFC00000FFFFF000FFFFF8000FFFFFFFFFFFFFFFFFFF
310
FFFFFFFFFFFFFFFFFFFFF0001FFFFFFFFFFF0000FFFFFFF80000000000000000
310
7FFFFFFFFFFFFFFFFFFFFFFC001FFFFFFFFFFFFFFC001FFFFFFFFFFFFFFFFFFF
310
FFFFFFFC001FFFFFF000FFFFFFFFFFFFFFFFFFFFFFFFFFFFFFFFFFFFFFFFFFFF
310
FFFFFFFFFFFFFFFFFFFFFFFFFFFFFFFFFFFFFFFFFFFFFFFFFFFFFFFFFFFFFFFF
310
FFFFFFFFFFFFFFFFFFFFFFFFFFFFFFFFFFFFFFFFFFFFFFFFFFFFFFFFFFFFFFFF
310
F000FFFFFFFFFFFFFFFFFFFFFFFFFFFFFFFFFFFFFFFFFFFFFFFFFFFFFFFFFFFF
310
FFFFFFFFFFFFFFFFFFFFFFFFFFFFFFFFFFFFFFFFFFFFFFFFFFFFFFFFFFFFFFFF
310
FFFFFFFFFFFFFFFFFFFFFFFFFFFFFFFFFFFFFFFFFFFFFFFFF000FFFFFFFFFFFF
310
FFFFFFFFFFFFFFFFFFFFFFFFFFFFFFFFFFFFFFFFFFFFFFFFFFFFFFFFFFFFFFFF
310
FFFFFFFFFFFFFFFFFFFFFFFFFFFFFFFFFFFFFFFFFFFFFFFFFFFFFFFFFFFFFFFF
310
FFFFFFFFFFFFFFFFFFFFFFFFFFFFFFFFF000FFFFFFFFFFFFFFFFFFFFFFFFFFFF
310
FFFFFFFFFFFFFFFFFFFFFFFFFFFFFFFFFFFFFFFFFFFFFFFFFFFFFFFFFFFFFFFF
310
FFFFFFFFFFFFFFFFFFFFFFFFFFFFFFFFFFFFFFFFFFFFFFFFFFFFFFFFFFFFFFFF
310
FFFFFFFFFFFFFFFFF000FFFFFFFFFFFFFFFFFFFFFFFFFFFFFFFFFFFFFFFFFFFF
310
FFFFFFFFFFFFFFFFFFFFFFFFFFFFFFFFFFFFFFFFFFFFFFFFFFFFFFFFFFFFFFFF
310
FFFFFFFFFFFFFFFFFFFFFFFFFFFFFFFFFFFFFFFFFFFFFFFFFFFFFFFFFFFFFFFF
310
F000FFFFFFFFFFFFFFFFFFFFFFFFFFFFFFFFFFFFFFFFFFFFFFFFFFFFFFFFFFFF
310
FFFFFFFFFFFFFFFFFFFFFFFFFFFFFFFFFFFFFFFFFFFFFFFFFFFFFFFFFFFFFFFF
310
FFFFFFFFFFFFFFFFFFFFFFFFFFFFFFFFFFFFFFFFFFFFFFFFF000FFFFFFFFFFFF
310
FFFFFFFFFFFFFFFFFFFFFFFFFFFFFFFFFFFFFFFFFFFFFFFFFFFFFFFFFFFFFFFF
310
FFFFFFFFFFFFFFFFFFFFFFFFFFFFFFFFFFFFFFFFFFFFFFFFFFFFFFFFFFFFFFFF
310
FFFFFFFFFFFFFFFFFFFFFFFFFFFFFFFFF000FFFFFFFFFFFFFFFFFFFFFFFFFFFF
310
FFFFFFFFFFFFFFFFFFFFFFFFFFFFFFFFFFFFFFFFFFFFFFFFFFFFFFFFFFFFFFFF
310
FFFFFFFFFFFFFFFFFFFFFFFFFFFFFFFFFFFFFFFFFFFFFFFFFFFFFFFFFFFFFFFF
310
FFFFFFFFFFFFFFFFF000FFFFFFFFFFFFFFFFFFFFFFFFFFFFFFFFFFFFFFFFFFFF
310
FFFFFFFFFFFFFFFFFFFFFFFFFFFFFFFFFFFFFFFFFFFFFFFFFFFFFFFFFFFFFFFF
310
FFFFFFFFFFFFFFFFFFFFFFFFFFFFFFFFFFFFFFFFFFFFFFFFFFFFFFFFFFFFFFFF
310
F000FFFFFFFFFFFFFFFFFFFFFFFFFFFFFFFFFFFFFFFFFFFFFFFFFFFFFFFFFFFF
310
FFFFFFFFFFFFFFFFFFFFFFFFFFFFFFFFFFFFFFFFFFFFFFFFFFFFFFFFFFFFFFFF
310
FFFFFFFFFFFFFFFFFFFFFFFFFFFFFFFFFFFFFFFFFFFFFFFFF000FFFFFFFFFFFF
310
FFFFFFFFFFFFFFFFFFFFFFFFFFFFFFFFFFFFFFFFFFFFFFFFFFFFFFFFFFFFFFFF
310
FFFFFFFFFFFFFFFFFFFFFFFFFFFFFFFFFFFFFFFFFFFFFFFFFFFFFFFFFFFFFFFF
310
FFFFFFFFFFFFFFFFFFFFFFFFFFFFFFFFF000FFFFFFFFFFFFFFFFFFFFFFFFFFFF
310
FFFFFFFFFFFFFFFFFFFFFFFFFFFFFFFFFFFFFFFFFFFFFFFFFFFFFFFFFFFFFFFF
310
FFFFFFFFFFFFFFFFFFFFFFFFFFFFFFFFFFFFFFFFFFFFFFFFFFFFFFFFFFFFFFFF
310
FFFFFFFFFFFFFFFFF000FFFFFFFFFFFFFFFFFFFFFFFFFFFFFFFFFFFFFFFFFFFF
310
FFFFFFFFFFFFFFFFFFFFFFFFFFFFFFFFFFFFFFFFFFFFFFFFFFFFFFFFFFFFFFFF
310
FFFFFFFFFFFFFFFFFFFFFFFFFFFFFFFFFFFFFFFFFFFFFFFFFFFFFFFFFFFFFFFF
310
F000FFFFFFFFFFFFFFFFFFFFFFFFFFFFFFFFFFFFFFFFFFFFFFFFFFFFFFFFFFFF
310
FFFFFFFFFFFFFFFFFFFFFFFFFFFFFFFFFFFFFFFFFFFFFFFFFFFFFFFFFFFFFFFF
310
FFFFFFFFFFFFFFFFFFFFFFFFFFFFFFFFFFFFFFFFFFFFFFFFF000FFFFFFFFFFFF
310
FFFFFFFFFFFFFFFFFFFFFFFFFFFFFFFFFFFFFFFFFFFFFFFFFFFFFFFFFFFFFFFF
310
FFFFFFFFFFFFFFFFFFFFFFFFFFFFFFFFFFFFFFFFFFFFFFFFFFFFFFFFFFFFFFFF
310
FFFFFFFFFFFFFFFFFFFFFFFFFFFFFFFFF000FFFFFFFFFFFFFFFFFFFFFFFFFFFF
310
FFFFFFFFFFFFFFFFFFFFFFFFFFFFFFFFFFFFFFFFFFFFFFFFFFFFFFFFFFFFFFFF
310
FFFFFFFFFFFFFFFFFFFFFFFFFFFFFFFFFFFFFFFFFFFFFFFFFFFFFFFFFFFFFFFF
310
FFFFFFFFFFFFFFFFF000FFFFFFFFFFFFFFFFFFFFFFFFFFFFFFFFFFFFFFFFFFFF
310
FFFFFFFFFFFFFFFFFFFFFFFFFFFFFFFFFFFFFFFFFFFFFFFFFFFFFFFFFFFFFFFF
310
FFFFFFFFFFFFFFFFFFFFFFFFFFFFFFFFFFFFFFFFFFFFFFFFFFFFFFFFFFFFFFFF
310
F000FFFFFFFFFFFFFFFFFFFFFFFFFFFFFFFFFFFFFFFFFFFFFFFFFFFFFFFFFFFF
310
FFFFFFFFFFFFFFFFFFFFFFFFFFFFFFFFFFFFFFFFFFFFFFFFFFFFFFFFFFFFFFFF
310
FFFFFFFFFFFFFFFFFFFFFFFFFFFFFFFFFFFFFFFFFFFFFFFFF000FFFFFFFFFFFF
310
FFFFFFFFFFFFFFFFFFFFFFFFFFFFFFFFFFFFFFFFFFFFFFFFFFFFFFFFFFFFFFFF
310
FFFFFFFFFFFFFFFFFFFFFFFFFFFFFFFFFFFFFFFFFFFFFFFFFFFFFFFFFFFFFFFF
310
FFFFFFFFFFFFFFFFFFFFFFFFFFFFFFFFF000FFFFFFFFFFFFFFFFFFFFFFFFFFFF
310
FFFFFFFFFFFFFFFFFFFFFFFFFFFFFFFFFFFFFFFFFFFFFFFFFFFFFFFFFFFFFFFF
310
FFFFFFFFFFFFFFFFFFFFFFFFFFFFFFFFFFFFFFFFFFFFFFFFFFFFFFFFFFFFFFFF
310
FFFFFFFFFFFFFFFFF000FFFFFFFFFFFFFFFFFFFFFFFFFFFFFFFFFFFFFFFFFFFF
310
FFFFFFFFFFFFFFFFFFFFFFFFFFFFFFFFFFFFFFFFFFFFFFFFFFFFFFFFFFFFFFFF
310
FFFFFFFFFFFFFFFFFFFFFFFFFFFFFFFFFFFFFFFFFFFFFFFFFFFFFFFFFFFFFFFF
310
F000FFFFFFFFFFFFFFFFFFFFFFFFFFFFFFFFFFFFFFFFFFFFFFFFFFFFFFFFFFFF
310
FFFFFFFFFFFFFFFFFFFFFFFFFFFFFFFFFFFFFFFFFFFFFFFFFFFFFFFFFFFFFFFF
310
FFFFFFFFFFFFFFFFFFFFFFFFFFFFFFFFFFFFFFFFFFFFFFFFF000FFFFFFFFFFFF
310
FFFFFFFFFFFFFFFFFFFFFFFFFFFFFFFFFFFFFFFFFFFFFFFFFFFFFFFFFFFFFFFF
310
FFFFFFFFFFFFFFFFFFFFFFFFFFFFFFFFFFFFFFFFFFFFFFFFFFFFFFFFFFFFFFFF
310
FFFFFFFFFFFFFFFFFFFFFFFFFFFFFFFFF0000000000000000000000000000000
310
0000000000000000000000000000000000000000000000000000000000000000
310
0000000000000000000000000000000000000000000000000000000000000000
310
0000000000000000000000000000000000000000000000000000000000000000
310
0000000000000000000000000000000000000000000000000000000000000000
310
0000000000000000000000000000000000000000000000000000000000000000
310
0000000000000000000000000000000000000000000000000000000000000000
310
0000000000000000000000000000000000000000000000000000000000000000
310
0000000000000000000000000000000000000000000000000000000000000000
310
0000000000000000000000000000000000000000000000000000000000000000
310
0000000000000000000000000000000000000000000000000000000000000000
310
0000000000000000000000000000000000000000000000000000000000000000
310
0000000000000000000000000000000000000000000000000000000000000000
310
0000000000000000000000000000000000000000000000000000000000000000
310
0000000000000000000000000000000000000000000000000000000000000000
310
0000000000000000000000000000000000000000000000000000000000000000
  1
OLE
  0
ENDSEC
  0
SECTION
  2
OBJECTS
  0
DICTIONARY
  5
C
330
0
100
AcDbDictionary
281
     1
  3
ACAD_GROUP
350
D
  3
ACAD_LAYOUT
350
1A
  3
ACAD_MLINESTYLE
350
17
  3
ACAD_PLOTSETTINGS
350
19
  3
ACAD_PLOTSTYLENAME
350
E
  3
ACAD_SCALELIST
350
47
  0
DICTIONARY
  5
D
102
{ACAD_REACTORS
330
C
102
}
330
C
100
AcDbDictionary
281
     1
  0
DICTIONARY
  5
1A
102
{ACAD_REACTORS
330
C
102
}
330
C
100
AcDbDictionary
281
     1
  3
Layout1
350
1E
  3
Layout2
350
26
  3
Model
350
22
  0
DICTIONARY
  5
17
102
{ACAD_REACTORS
330
C
102
}
330
C
100
AcDbDictionary
281
     1
  3
Standard
350
18
  0
DICTIONARY
  5
19
102
{ACAD_REACTORS
330
C
102
}
330
C
100
AcDbDictionary
281
     1
  0
ACDBDICTIONARYWDFLT
  5
E
102
{ACAD_REACTORS
330
C
102
}
330
C
100
AcDbDictionary
281
     1
  3
Normal
350
F
100
AcDbDictionaryWithDefault
340
F
  0
DICTIONARY
  5
47
102
{ACAD_REACTORS
330
C
102
}
330
C
100
AcDbDictionary
281
     1
  3
A0
350
48
  3
A1
350
49
  3
A2
350
4A
  3
A3
350
4B
  3
A4
350
4C
  3
A5
350
4D
  3
A6
350
4E
  3
A7
350
4F
  3
A8
350
50
  3
A9
350
51
  3
B0
350
52
  3
B1
350
53
  3
B2
350
54
  3
B3
350
55
  3
B4
350
56
  3
B5
350
57
  3
B6
350
58
  3
B7
350
59
  3
B8
350
5A
  3
B9
350
5B
  3
C0
350
5C
  3
C1
350
5D
  3
C2
350
5E
  3
C3
350
5F
  3
C4
350
60
  3
C5
350
61
  3
C6
350
62
  3
C7
350
63
  3
C8
350
64
  3
C9
350
65
  3
D0
350
66
  3
D1
350
67
  3
D2
350
68
  0
LAYOUT
  5
1E
102
{ACAD_REACTORS
330
1A
102
}
330
1A
100
AcDbPlotSettings
  1

  2
none_device
  4

  6

 40
0.0
 41
0.0
 42
0.0
 43
0.0
 44
0.0
 45
0.0
 46
0.0
 47
0.0
 48
0.0
 49
0.0
140
0.0
141
0.0
142
1.0
143
1.0
 70
   688
 72
     1
 73
     0
 74
     5
  7

 75
    16
147
1.0
148
0.0
149
0.0
100
AcDbLayout
  1
Layout1
 70
     1
 71
     1
 10
0.0
 20
0.0
 11
420.0
 21
297.0
 12
0.0
 22
0.0
 32
0.0
 14
1.0000000000E+20
 24
1.0000000000E+20
 34
1.0000000000E+20
 15
-1.0000000000E+20
 25
-1.0000000000E+20
 35
-1.0000000000E+20
146
0.0
 13
0.0
 23
0.0
 33
0.0
 16
1.0
 26
0.0
 36
0.0
 17
0.0
 27
1.0
 37
0.0
 76
     0
330
1B
  0
LAYOUT
  5
26
102
{ACAD_REACTORS
330
1A
102
}
330
1A
100
AcDbPlotSettings
  1

  2
none_device
  4

  6

 40
0.0
 41
0.0
 42
0.0
 43
0.0
 44
0.0
 45
0.0
 46
0.0
 47
0.0
 48
0.0
 49
0.0
140
0.0
141
0.0
142
1.0
143
1.0
 70
   688
 72
     1
 73
     0
 74
     5
  7

 75
    16
147
1.0
148
0.0
149
0.0
100
AcDbLayout
  1
Layout2
 70
     1
 71
     2
 10
0.0
 20
0.0
 11
0.0
 21
0.0
 12
0.0
 22
0.0
 32
0.0
 14
0.0
 24
0.0
 34
0.0
 15
0.0
 25
0.0
 35
0.0
146
0.0
 13
0.0
 23
0.0
 33
0.0
 16
1.0
 26
0.0
 36
0.0
 17
0.0
 27
1.0
 37
0.0
 76
     0
330
23
  0
LAYOUT
  5
22
102
{ACAD_REACTORS
330
1A
102
}
330
1A
100
AcDbPlotSettings
  1

  2
none_device
  4
Letter_(8.50_x_11.00_Inches)
  6

 40
6.35
 41
6.35
 42
6.35000508
 43
6.35000508
 44
215.9
 45
279.4
 46
0.0
 47
0.0
 48
0.0
 49
0.0
140
0.0
141
0.0
142
1.0
143
1.0
 70
  1712
 72
     1
 73
     0
 74
     0
  7

 75
     0
147
1.0
148
0.0
149
0.0
100
AcDbLayout
  1
Model
 70
     1
 71
     0
 10
0.0
 20
0.0
 11
297.0
 21
210.0
 12
0.0
 22
0.0
 32
0.0
 14
0.0
 24
0.0
 34
0.0
 15
297.0
 25
210.0
 35
0.0
146
0.0
 13
0.0
 23
0.0
 33
0.0
 16
1.0
 26
0.0
 36
0.0
 17
0.0
 27
1.0
 37
0.0
 76
     0
330
1F
331
29
  0
MLINESTYLE
  5
18
102
{ACAD_REACTORS
330
17
102
}
330
17
100
AcDbMlineStyle
  2
Standard
 70
     0
  3

 62
   256
 51
90.0
 52
90.0
 71
     2
 49
0.5
 62
   256
  6
BYLAYER
 49
-0.5
 62
   256
  6
BYLAYER
  0
ACDBPLACEHOLDER
  5
F
102
{ACAD_REACTORS
330
E
102
}
330
E
  0
SCALE
  5
48
102
{ACAD_REACTORS
330
47
102
}
330
47
100
AcDbScale
 70
     0
300
1:1
140
1.0
141
1.0
290
     1
  0
SCALE
  5
49
102
{ACAD_REACTORS
330
47
102
}
330
47
100
AcDbScale
 70
     0
300
1:2
140
1.0
141
2.0
290
     0
  0
SCALE
  5
4A
102
{ACAD_REACTORS
330
47
102
}
330
47
100
AcDbScale
 70
     0
300
1:4
140
1.0
141
4.0
290
     0
  0
SCALE
  5
4B
102
{ACAD_REACTORS
330
47
102
}
330
47
100
AcDbScale
 70
     0
300
1:5
140
1.0
141
5.0
290
     0
  0
SCALE
  5
4C
102
{ACAD_REACTORS
330
47
102
}
330
47
100
AcDbScale
 70
     0
300
1:8
140
1.0
141
8.0
290
     0
  0
SCALE
  5
4D
102
{ACAD_REACTORS
330
47
102
}
330
47
100
AcDbScale
 70
     0
300
1:10
140
1.0
141
10.0
290
     0
  0
SCALE
  5
4E
102
{ACAD_REACTORS
330
47
102
}
330
47
100
AcDbScale
 70
     0
300
1:16
140
1.0
141
16.0
290
     0
  0
SCALE
  5
4F
102
{ACAD_REACTORS
330
47
102
}
330
47
100
AcDbScale
 70
     0
300
1:20
140
1.0
141
20.0
290
     0
  0
SCALE
  5
50
102
{ACAD_REACTORS
330
47
102
}
330
47
100
AcDbScale
 70
     0
300
1:30
140
1.0
141
30.0
290
     0
  0
SCALE
  5
51
102
{ACAD_REACTORS
330
47
102
}
330
47
100
AcDbScale
 70
     0
300
1:40
140
1.0
141
40.0
290
     0
  0
SCALE
  5
52
102
{ACAD_REACTORS
330
47
102
}
330
47
100
AcDbScale
 70
     0
300
1:50
140
1.0
141
50.0
290
     0
  0
SCALE
  5
53
102
{ACAD_REACTORS
330
47
102
}
330
47
100
AcDbScale
 70
     0
300
1:100
140
1.0
141
100.0
290
     0
  0
SCALE
  5
54
102
{ACAD_REACTORS
330
47
102
}
330
47
100
AcDbScale
 70
     0
300
2:1
140
2.0
141
1.0
290
     0
  0
SCALE
  5
55
102
{ACAD_REACTORS
330
47
102
}
330
47
100
AcDbScale
 70
     0
300
4:1
140
4.0
141
1.0
290
     0
  0
SCALE
  5
56
102
{ACAD_REACTORS
330
47
102
}
330
47
100
AcDbScale
 70
     0
300
8:1
140
8.0
141
1.0
290
     0
  0
SCALE
  5
57
102
{ACAD_REACTORS
330
47
102
}
330
47
100
AcDbScale
 70
     0
300
10:1
140
10.0
141
1.0
290
     0
  0
SCALE
  5
58
102
{ACAD_REACTORS
330
47
102
}
330
47
100
AcDbScale
 70
     0
300
100:1
140
100.0
141
1.0
290
     0
  0
SCALE
  5
59
102
{ACAD_REACTORS
330
47
102
}
330
47
100
AcDbScale
 70
     0
300
1/128" = 1'-0"
140
0.0078125
141
12.0
290
     0
  0
SCALE
  5
5A
102
{ACAD_REACTORS
330
47
102
}
330
47
100
AcDbScale
 70
     0
300
1/64" = 1'-0"
140
0.015625
141
12.0
290
     0
  0
SCALE
  5
5B
102
{ACAD_REACTORS
330
47
102
}
330
47
100
AcDbScale
 70
     0
300
1/32" = 1'-0"
140
0.03125
141
12.0
290
     0
  0
SCALE
  5
5C
102
{ACAD_REACTORS
330
47
102
}
330
47
100
AcDbScale
 70
     0
300
1/16" = 1'-0"
140
0.0625
141
12.0
290
     0
  0
SCALE
  5
5D
102
{ACAD_REACTORS
330
47
102
}
330
47
100
AcDbScale
 70
     0
300
3/32" = 1'-0"
140
0.09375
141
12.0
290
     0
  0
SCALE
  5
5E
102
{ACAD_REACTORS
330
47
102
}
330
47
100
AcDbScale
 70
     0
300
1/8" = 1'-0"
140
0.125
141
12.0
290
     0
  0
SCALE
  5
5F
102
{ACAD_REACTORS
330
47
102
}
330
47
100
AcDbScale
 70
     0
300
3/16" = 1'-0"
140
0.1875
141
12.0
290
     0
  0
SCALE
  5
60
102
{ACAD_REACTORS
330
47
102
}
330
47
100
AcDbScale
 70
     0
300
1/4" = 1'-0"
140
0.25
141
12.0
290
     0
  0
SCALE
  5
61
102
{ACAD_REACTORS
330
47
102
}
330
47
100
AcDbScale
 70
     0
300
3/8" = 1'-0"
140
0.375
141
12.0
290
     0
  0
SCALE
  5
62
102
{ACAD_REACTORS
330
47
102
}
330
47
100
AcDbScale
 70
     0
300
1/2" = 1'-0"
140
0.5
141
12.0
290
     0
  0
SCALE
  5
63
102
{ACAD_REACTORS
330
47
102
}
330
47
100
AcDbScale
 70
     0
300
3/4" = 1'-0"
140
0.75
141
12.0
290
     0
  0
SCALE
  5
64
102
{ACAD_REACTORS
330
47
102
}
330
47
100
AcDbScale
 70
     0
300
1" = 1'-0"
140
1.0
141
12.0
290
     0
  0
SCALE
  5
65
102
{ACAD_REACTORS
330
47
102
}
330
47
100
AcDbScale
 70
     0
300
1-1/2" = 1'-0"
140
1.5
141
12.0
290
     0
  0
SCALE
  5
66
102
{ACAD_REACTORS
330
47
102
}
330
47
100
AcDbScale
 70
     0
300
3" = 1'-0"
140
3.0
141
12.0
290
     0
  0
SCALE
  5
67
102
{ACAD_REACTORS
330
47
102
}
330
47
100
AcDbScale
 70
     0
300
6" = 1'-0"
140
6.0
141
12.0
290
     0
  0
SCALE
  5
68
102
{ACAD_REACTORS
330
47
102
}
330
47
100
AcDbScale
 70
     0
300
1'-0" = 1'-0"
140
12.0
141
12.0
290
     0
  0
ENDSEC
  0
EOF
