  0
SECTION
  2
HEADER
  9
$ACADVER
  1
AC1015
  9
$ACADMAINTVER
 70
     6
  9
$DWGCODEPAGE
  3
ANSI_1252
  9
$INSBASE
 10
0.0
 20
0.0
 30
0.0
  9
$EXTMIN
 10
0.0
 20
0.0
 30
0.0
  9
$EXTMAX
 10
297.0
 20
210.0
 30
0.0
  9
$LIMMIN
 10
0.0
 20
0.0
  9
$LIMMAX
 10
297.0
 20
210.0
  9
$ORTHOMODE
 70
     0
  9
$REGENMODE
 70
     1
  9
$FILLMODE
 70
     1
  9
$QTEXTMODE
 70
     0
  9
$MIRRTEXT
 70
     1
  9
$LTSCALE
 40
1.0
  9
$ATTMODE
 70
     1
  9
$TEXTSIZE
 40
2.0
  9
$TRACEWID
 40
1.0
  9
$TEXTSTYLE
  7
Standard
  9
$CLAYER
  8
0
  9
$CELTYPE
  6
ByLayer
  9
$CECOLOR
 62
   256
  9
$CELTSCALE
 40
1.0
  9
$DISPSILH
 70
     0
  9
$DIMSCALE
 40
1.0
  9
$DIMASZ
 40
3.0
  9
$DIMEXO
 40
0.0
  9
$DIMDLI
 40
3.75
  9
$DIMRND
 40
0.0
  9
$DIMDLE
 40
0.0
  9
$DIMEXE
 40
1.0
  9
$DIMTP
 40
0.0
  9
$DIMTM
 40
0.0
  9
$DIMTXT
 40
2.0
  9
$DIMCEN
 40
2.5
  9
$DIMTSZ
 40
0.0
  9
$DIMTOL
 70
     0
  9
$DIMLIM
 70
     0
  9
$DIMTIH
 70
     1
  9
$DIMTOH
 70
     1
  9
$DIMSE1
 70
     0
  9
$DIMSE2
 70
     0
  9
$DIMTAD
 70
     1
  9
$DIMZIN
 70
     0
  9
$DIMBLK
  1

  9
$DIMASO
 70
     1
  9
$DIMSHO
 70
     1
  9
$DIMPOST
  1

  9
$DIMAPOST
  1

  9
$DIMALT
 70
     0
  9
$DIMALTD
 70
     3
  9
$DIMALTF
 40
0.0393700787
  9
$DIMLFAC
 40
2.0
  9
$DIMTOFL
 70
     1
  9
$DIMTVP
 40
0.0
  9
$DIMTIX
 70
     0
  9
$DIMSOXD
 70
     0
  9
$DIMSAH
 70
     0
  9
$DIMBLK1
  1

  9
$DIMBLK2
  1

  9
$DIMSTYLE
  2
ISO-25
  9
$DIMCLRD
 70
     0
  9
$DIMCLRE
 70
     0
  9
$DIMCLRT
 70
     0
  9
$DIMTFAC
 40
1.0
  9
$DIMGAP
 40
1.524
  9
$DIMJUST
 70
     0
  9
$DIMSD1
 70
     0
  9
$DIMSD2
 70
     0
  9
$DIMTOLJ
 70
     0
  9
$DIMTZIN
 70
     0
  9
$DIMALTZ
 70
     0
  9
$DIMALTTZ
 70
     0
  9
$DIMUPT
 70
     0
  9
$DIMDEC
 70
     2
  9
$DIMTDEC
 70
     3
  9
$DIMALTU
 70
     2
  9
$DIMALTTD
 70
     3
  9
$DIMTXSTY
  7
Standard
  9
$DIMAUNIT
 70
     0
  9
$DIMADEC
 70
     2
  9
$DIMALTRND
 40
0.0
  9
$DIMAZIN
 70
     0
  9
$DIMDSEP
 70
    44
  9
$DIMATFIT
 70
     3
  9
$DIMFRAC
 70
     0
  9
$DIMLDRBLK
  1

  9
$DIMLUNIT
 70
     2
  9
$DIMLWD
 70
    -2
  9
$DIMLWE
 70
    -2
  9
$DIMTMOVE
 70
     0
  9
$LUNITS
 70
     2
  9
$LUPREC
 70
     2
  9
$SKETCHINC
 40
1.0
  9
$FILLETRAD
 40
10.0
  9
$AUNITS
 70
     0
  9
$AUPREC
 70
     2
  9
$MENU
  1
.
  9
$ELEVATION
 40
0.0
  9
$PELEVATION
 40
0.0
  9
$THICKNESS
 40
0.0
  9
$LIMCHECK
 70
     0
  9
$CHAMFERA
 40
0.0
  9
$CHAMFERB
 40
0.0
  9
$CHAMFERC
 40
0.0
  9
$CHAMFERD
 40
0.0
  9
$SKPOLY
 70
     0
  9
$TDCREATE
 40
2458166.602452986
  9
$TDUCREATE
 40
2458166.560786319
  9
$TDUPDATE
 40
2458166.602455382
  9
$TDUUPDATE
 40
2458166.560788715
  9
$TDINDWG
 40
0.0000000116
  9
$TDUSRTIMER
 40
0.0000000116
  9
$USRTIMER
 70
     1
  9
$ANGBASE
 50
0.0
  9
$ANGDIR
 70
     0
  9
$PDMODE
 70
     0
  9
$PDSIZE
 40
-1.0
  9
$PLINEWID
 40
0.0
  9
$SPLFRAME
 70
     0
  9
$SPLINETYPE
 70
     6
  9
$SPLINESEGS
 70
     8
  9
$HANDSEED
  5
278
  9
$SURFTAB1
 70
     6
  9
$SURFTAB2
 70
     6
  9
$SURFTYPE
 70
     6
  9
$SURFU
 70
     6
  9
$SURFV
 70
     6
  9
$UCSBASE
  2

  9
$UCSNAME
  2

  9
$UCSORG
 10
0.0
 20
0.0
 30
0.0
  9
$UCSXDIR
 10
1.0
 20
0.0
 30
0.0
  9
$UCSYDIR
 10
0.0
 20
1.0
 30
0.0
  9
$UCSORTHOREF
  2

  9
$UCSORTHOVIEW
 70
     0
  9
$UCSORGTOP
 10
0.0
 20
0.0
 30
0.0
  9
$UCSORGBOTTOM
 10
0.0
 20
0.0
 30
0.0
  9
$UCSORGLEFT
 10
0.0
 20
0.0
 30
0.0
  9
$UCSORGRIGHT
 10
0.0
 20
0.0
 30
0.0
  9
$UCSORGFRONT
 10
0.0
 20
0.0
 30
0.0
  9
$UCSORGBACK
 10
0.0
 20
0.0
 30
0.0
  9
$PUCSBASE
  2

  9
$PUCSNAME
  2

  9
$PUCSORG
 10
0.0
 20
0.0
 30
0.0
  9
$PUCSXDIR
 10
1.0
 20
0.0
 30
0.0
  9
$PUCSYDIR
 10
0.0
 20
1.0
 30
0.0
  9
$PUCSORTHOREF
  2

  9
$PUCSORTHOVIEW
 70
     0
  9
$PUCSORGTOP
 10
0.0
 20
0.0
 30
0.0
  9
$PUCSORGBOTTOM
 10
0.0
 20
0.0
 30
0.0
  9
$PUCSORGLEFT
 10
0.0
 20
0.0
 30
0.0
  9
$PUCSORGRIGHT
 10
0.0
 20
0.0
 30
0.0
  9
$PUCSORGFRONT
 10
0.0
 20
0.0
 30
0.0
  9
$PUCSORGBACK
 10
0.0
 20
0.0
 30
0.0
  9
$USERI1
 70
     0
  9
$USERI2
 70
     0
  9
$USERI3
 70
     0
  9
$USERI4
 70
     0
  9
$USERI5
 70
     0
  9
$USERR1
 40
0.0
  9
$USERR2
 40
0.0
  9
$USERR3
 40
0.0
  9
$USERR4
 40
0.0
  9
$USERR5
 40
0.0
  9
$WORLDVIEW
 70
     1
  9
$SHADEDGE
 70
     3
  9
$SHADEDIF
 70
    70
  9
$TILEMODE
 70
     1
  9
$MAXACTVP
 70
    64
  9
$PINSBASE
 10
0.0
 20
0.0
 30
0.0
  9
$PLIMCHECK
 70
     0
  9
$PEXTMIN
 10
1.0000000000E+20
 20
1.0000000000E+20
 30
1.0000000000E+20
  9
$PEXTMAX
 10
-1.0000000000E+20
 20
-1.0000000000E+20
 30
-1.0000000000E+20
  9
$PLIMMIN
 10
0.0
 20
0.0
  9
$PLIMMAX
 10
420.0
 20
297.0
  9
$UNITMODE
 70
     0
  9
$VISRETAIN
 70
     1
  9
$PLINEGEN
 70
     0
  9
$PSLTSCALE
 70
     1
  9
$TREEDEPTH
 70
  3020
  9
$CMLSTYLE
  2
Standard
  9
$CMLJUST
 70
     0
  9
$CMLSCALE
 40
20.0
  9
$PROXYGRAPHICS
 70
     1
  9
$MEASUREMENT
 70
     1
  9
$CELWEIGHT
370
    -1
  9
$ENDCAPS
280
     0
  9
$JOINSTYLE
280
     0
  9
$LWDISPLAY
290
     1
  9
$INSUNITS
 70
     4
  9
$HYPERLINKBASE
  1

  9
$STYLESHEET
  1

  9
$XEDIT
290
     1
  9
$CEPSNTYPE
380
     0
  9
$PSTYLEMODE
290
     1
  9
$FINGERPRINTGUID
  2
{2C17172E-AB53-4D53-9379-7A0E5C758936}
  9
$VERSIONGUID
  2
{FAEB1C32-E019-11D5-929B-00C0DF256EC4}
  9
$EXTNAMES
290
     1
  9
$PSVPSCALE
 40
0.0
  9
$OLESTARTUP
290
     0
  0
ENDSEC
  0
SECTION
  2
CLASSES
  0
CLASS
  1
ACDBDICTIONARYWDFLT
  2
AcDbDictionaryWithDefault
  3
ObjectDBX Classes
 90
        0
280
     0
281
     0
  0
CLASS
  1
VISUALSTYLE
  2
AcDbVisualStyle
  3
ObjectDBX Classes
 90
     4095
280
     0
281
     0
  0
CLASS
  1
MATERIAL
  2
AcDbMaterial
  3
ObjectDBX Classes
 90
     1153
280
     0
281
     0
  0
CLASS
  1
SCALE
  2
AcDbScale
  3
ObjectDBX Classes
 90
     1153
280
     0
281
     0
  0
CLASS
  1
TABLESTYLE
  2
AcDbTableStyle
  3
ObjectDBX Classes
 90
     4095
280
     0
281
     0
  0
CLASS
  1
MLEADERSTYLE
  2
AcDbMLeaderStyle
  3
ACDB_MLEADERSTYLE_CLASS
 90
     4095
280
     0
281
     0
  0
CLASS
  1
SUN
  2
AcDbSun
  3
SCENEOE
 90
     1153
280
     0
281
     0
  0
CLASS
  1
ACDBPLACEHOLDER
  2
AcDbPlaceHolder
  3
ObjectDBX Classes
 90
        0
280
     0
281
     0
  0
CLASS
  1
LAYOUT
  2
AcDbLayout
  3
ObjectDBX Classes
 90
        0
280
     0
281
     0
  0
ENDSEC
  0
SECTION
  2
TABLES
  0
TABLE
  2
VPORT
  5
8
330
0
100
AcDbSymbolTable
 70
     1
  0
VPORT
  5
29
330
8
100
AcDbSymbolTableRecord
100
AcDbViewportTableRecord
  2
*Active
 70
     0
 10
0.0
 20
0.0
 11
1.0
 21
1.0
 12
148.5
 22
105.0
 13
0.0
 23
0.0
 14
10.0
 24
10.0
 15
10.0
 25
10.0
 16
0.0
 26
0.0
 36
1.0
 17
0.0
 27
0.0
 37
0.0
 40
210.0
 41
1.4142857143
 42
50.0
 43
0.0
 44
0.0
 50
0.0
 51
0.0
 71
     0
 72
  2000
 73
     1
 74
     3
 75
     0
 76
     0
 77
     0
 78
     0
281
     0
 65
     1
110
0.0
120
0.0
130
0.0
111
1.0
121
0.0
131
0.0
112
0.0
122
1.0
132
0.0
 79
     0
146
0.0
  0
ENDTAB
  0
TABLE
  2
LTYPE
  5
5
330
0
100
AcDbSymbolTable
 70
     6
  0
LTYPE
  5
14
330
5
100
AcDbSymbolTableRecord
100
AcDbLinetypeTableRecord
  2
ByBlock
 70
     0
  3

 72
    65
 73
     0
 40
0.0
  0
LTYPE
  5
15
330
5
100
AcDbSymbolTableRecord
100
AcDbLinetypeTableRecord
  2
ByLayer
 70
     0
  3

 72
    65
 73
     0
 40
0.0
  0
LTYPE
  5
16
330
5
100
AcDbSymbolTableRecord
100
AcDbLinetypeTableRecord
  2
Continuous
 70
     0
  3
Solid line
 72
    65
 73
     0
 40
0.0
  0
LTYPE
  5
6E
330
5
100
AcDbSymbolTableRecord
100
AcDbLinetypeTableRecord
  2
HIDDEN
 70
     0
  3
Hidden __ __ __ __ __ __ __ __ __ __ __ __ __ __
 72
    65
 73
     2
 40
1.905
 49
1.27
 74
     0
 49
-0.635
 74
     0
  0
LTYPE
  5
6F
330
5
100
AcDbSymbolTableRecord
100
AcDbLinetypeTableRecord
  2
PHANTOM
 70
     0
  3
Phantom ______  __  __  ______  __  __  ______
 72
    65
 73
     6
 40
12.7
 49
6.35
 74
     0
 49
-1.27
 74
     0
 49
1.27
 74
     0
 49
-1.27
 74
     0
 49
1.27
 74
     0
 49
-1.27
 74
     0
  0
LTYPE
  5
70
330
5
100
AcDbSymbolTableRecord
100
AcDbLinetypeTableRecord
  2
CENTER
 70
     0
  3
Center ____ _ ____ _ ____ _ ____ _ ____ _ ____
 72
    65
 73
     4
 40
10.16
 49
6.35
 74
     0
 49
-1.27
 74
     0
 49
1.27
 74
     0
 49
-1.27
 74
     0
  0
LTYPE
  5
71
330
5
100
AcDbSymbolTableRecord
100
AcDbLinetypeTableRecord
  2
CENTERX2
 70
     0
  3
Center (2x) ________  __  ________  __  _____
 72
    65
 73
     4
 40
20.32
 49
12.7
 74
     0
 49
-2.54
 74
     0
 49
2.54
 74
     0
 49
-2.54
 74
     0
  0
LTYPE
  5
72
330
5
100
AcDbSymbolTableRecord
100
AcDbLinetypeTableRecord
  2
DOT2
 70
     0
  3
Dot (.5x) ........................................
 72
    65
 73
     2
 40
0.635
 49
0.0
 74
     0
 49
-0.635
 74
     0
  0
ENDTAB
  0
TABLE
  2
LAYER
  5
2
330
0
100
AcDbSymbolTable
 70
     5
  0
LAYER
  5
10
330
2
100
AcDbSymbolTableRecord
100
AcDbLayerTableRecord
  2
0
 70
     0
 62
     7
  6
Continuous
370
    -3
390
F
  0
LAYER
  5
73
330
2
100
AcDbSymbolTableRecord
100
AcDbLayerTableRecord
  2
FORMAT
 70
     0
 62
     7
  6
Continuous
370
    -3
390
F
  0
LAYER
  5
74
330
2
100
AcDbSymbolTableRecord
100
AcDbLayerTableRecord
  2
VERMASSUNG
 70
     0
 62
     7
  6
Continuous
370
    -3
390
F
  0
LAYER
  5
75
330
2
100
AcDbSymbolTableRecord
100
AcDbLayerTableRecord
  2
KOPF_DÜNN
 70
     0
 62
     7
  6
Continuous
370
    -3
390
F
  0
LAYER
  5
76
330
2
100
AcDbSymbolTableRecord
100
AcDbLayerTableRecord
  2
KOPF_DICK
 70
     0
 62
     7
  6
Continuous
370
    25
390
F
  0
ENDTAB
  0
TABLE
  2
STYLE
  5
3
330
0
100
AcDbSymbolTable
 70
     2
  0
STYLE
  5
11
330
3
100
AcDbSymbolTableRecord
100
AcDbTextStyleTableRecord
  2
Standard
 70
     0
 40
0.0
 41
1.0
 50
0.0
 71
     0
 42
2.0
  3
txt
  4

  0
STYLE
  5
77
330
3
100
AcDbSymbolTableRecord
100
AcDbTextStyleTableRecord
  2
SLDTEXTSTYLE0
 70
     0
 40
0.0
 41
0.7
 50
0.0
 71
     0
 42
2.0
  3
TXT
  4

  0
ENDTAB
  0
TABLE
  2
VIEW
  5
6
330
0
100
AcDbSymbolTable
 70
     0
  0
ENDTAB
  0
TABLE
  2
UCS
  5
7
330
0
100
AcDbSymbolTable
 70
     0
  0
ENDTAB
  0
TABLE
  2
APPID
  5
9
330
0
100
AcDbSymbolTable
 70
     1
  0
APPID
  5
12
330
9
100
AcDbSymbolTableRecord
100
AcDbRegAppTableRecord
  2
ACAD
 70
     0
  0
ENDTAB
  0
TABLE
  2
DIMSTYLE
  5
A
330
0
100
AcDbSymbolTable
 70
     3
100
AcDbDimStyleTable
  0
DIMSTYLE
105
27
330
A
100
AcDbSymbolTableRecord
100
AcDbDimStyleTableRecord
  2
ISO-25
 70
     0
 41
2.5
 42
0.625
 43
3.75
 44
1.25
 73
     0
 74
     0
 77
     1
 78
     8
140
2.5
141
2.5
143
0.0393700787
147
0.625
171
     3
172
     1
178
     0
271
     2
272
     2
274
     3
278
    44
283
     0
284
     8
340
11
  0
DIMSTYLE
105
143
102
{ACAD_REACTORS
330
142
330
14E
330
158
330
162
330
16C
102
}
330
A
100
AcDbSymbolTableRecord
100
AcDbDimStyleTableRecord
  2
SLDDIMSTYLE0
 70
     0
 41
3.0
 44
0.0
 45
0.000000001
 73
     0
 74
     0
 77
     1
 78
    12
 79
     3
140
2.0
147
0.5
173
     1
178
     0
271
     2
272
     3
276
     2
284
    12
340
77
  0
DIMSTYLE
105
177
102
{ACAD_REACTORS
330
176
102
}
330
A
100
AcDbSymbolTableRecord
100
AcDbDimStyleTableRecord
  2
SLDDIMSTYLE1
 70
     0
 41
3.0
 44
0.0
 45
0.000000001
 73
     0
 74
     0
 77
     1
 78
    12
 79
     3
140
2.0
147
0.5
173
     1
178
     0
271
     1
272
     3
276
     2
284
    12
340
77
  0
ENDTAB
  0
TABLE
  2
BLOCK_RECORD
  5
1
330
0
100
AcDbSymbolTable
 70
     7
  0
BLOCK_RECORD
  5
1F
330
1
100
AcDbSymbolTableRecord
100
AcDbBlockTableRecord
  2
*Model_Space
340
22
  0
BLOCK_RECORD
  5
1B
330
1
100
AcDbSymbolTableRecord
100
AcDbBlockTableRecord
  2
*Paper_Space
340
1E
  0
BLOCK_RECORD
  5
23
330
1
100
AcDbSymbolTableRecord
100
AcDbBlockTableRecord
  2
*Paper_Space0
340
26
  0
BLOCK_RECORD
  5
144
330
1
100
AcDbSymbolTableRecord
100
AcDbBlockTableRecord
  2
_D
340
0
  0
BLOCK_RECORD
  5
14F
330
1
100
AcDbSymbolTableRecord
100
AcDbBlockTableRecord
  2
_D_1
340
0
  0
BLOCK_RECORD
  5
159
330
1
100
AcDbSymbolTableRecord
100
AcDbBlockTableRecord
  2
_D_2
340
0
  0
BLOCK_RECORD
  5
163
330
1
100
AcDbSymbolTableRecord
100
AcDbBlockTableRecord
  2
_D_3
340
0
  0
BLOCK_RECORD
  5
16D
330
1
100
AcDbSymbolTableRecord
100
AcDbBlockTableRecord
  2
_D_4
340
0
  0
BLOCK_RECORD
  5
178
330
1
100
AcDbSymbolTableRecord
100
AcDbBlockTableRecord
  2
_D_5
340
0
  0
ENDTAB
  0
ENDSEC
  0
SECTION
  2
BLOCKS
  0
BLOCK
  5
20
330
1F
100
AcDbEntity
  8
0
100
AcDbBlockBegin
  2
*Model_Space
 70
     0
 10
0.0
 20
0.0
 30
0.0
  3
*Model_Space
  1

  0
ENDBLK
  5
21
330
1F
100
AcDbEntity
  8
0
100
AcDbBlockEnd
  0
BLOCK
  5
1C
330
1B
100
AcDbEntity
 67
     1
  8
0
100
AcDbBlockBegin
  2
*Paper_Space
 70
     0
 10
0.0
 20
0.0
 30
0.0
  3
*Paper_Space
  1

  0
ENDBLK
  5
1D
330
1B
100
AcDbEntity
 67
     1
  8
0
100
AcDbBlockEnd
  0
BLOCK
  5
24
330
23
100
AcDbEntity
  8
0
100
AcDbBlockBegin
  2
*Paper_Space0
 70
     0
 10
0.0
 20
0.0
 30
0.0
  3
*Paper_Space0
  1

  0
ENDBLK
  5
25
330
23
100
AcDbEntity
  8
0
100
AcDbBlockEnd
  0
BLOCK
  5
145
330
144
100
AcDbEntity
  8
0
100
AcDbBlockBegin
  2
_D
 70
     0
 10
0.0
 20
0.0
 30
0.0
  3
_D
  1

  0
SOLID
  5
147
330
144
100
AcDbEntity
  8
VERMASSUNG
100
AcDbTrace
 10
229.6840886303
 20
148.3276298545
 30
0.0
 11
229.2340886303
 21
145.3276298545
 31
0.0
 12
230.1340886303
 22
145.3276298545
 32
0.0
 13
230.1340886303
 23
145.3276298545
 33
0.0
  0
SOLID
  5
148
330
144
100
AcDbEntity
  8
VERMASSUNG
100
AcDbTrace
 10
229.6840886303
 20
85.6276298545
 30
0.0
 11
230.1340886303
 21
88.6276298545
 31
0.0
 12
229.2340886303
 22
88.6276298545
 32
0.0
 13
229.2340886303
 23
88.6276298545
 33
0.0
  0
LINE
  5
149
330
144
100
AcDbEntity
  8
VERMASSUNG
100
AcDbLine
 10
213.3142080627
 20
148.3276298545
 30
0.0
 11
230.6840886303
 21
148.3276298545
 31
0.0
  0
LINE
  5
14A
330
144
100
AcDbEntity
  8
VERMASSUNG
100
AcDbLine
 10
213.3142080627
 20
85.6276298545
 30
0.0
 11
230.6840886303
 21
85.6276298545
 31
0.0
  0
LINE
  5
14B
330
144
100
AcDbEntity
  8
VERMASSUNG
100
AcDbLine
 10
229.6840886303
 20
148.3276298545
 30
0.0
 11
229.6840886303
 21
85.6276298545
 31
0.0
  0
MTEXT
  5
14C
330
144
100
AcDbEntity
  8
VERMASSUNG
100
AcDbMText
 10
227.1059533254
 20
112.772630199
 30
0.0
 40
2.0
 41
0.0
 71
     1
 72
     1
  1
%%c
  7
SLDTEXTSTYLE0
 11
-7.044195017643634E-15
 21
1.0
 31
0.0
 73
     1
 44
1.0
  0
MTEXT
  5
14D
330
144
100
AcDbEntity
  8
VERMASSUNG
100
AcDbMText
 10
226.9059533741
 20
116.3826302133
 30
0.0
 40
2.0
 41
0.0
 71
     1
 72
     1
  1
62.7
  7
SLDTEXTSTYLE0
 11
-7.044195017643634E-15
 21
1.0
 31
0.0
 73
     1
 44
1.0
  0
ENDBLK
  5
146
330
144
100
AcDbEntity
  8
0
100
AcDbBlockEnd
  0
BLOCK
  5
150
330
14F
100
AcDbEntity
  8
0
100
AcDbBlockBegin
  2
_D_1
 70
     0
 10
0.0
 20
0.0
 30
0.0
  3
_D_1
  1

  0
SOLID
  5
152
330
14F
100
AcDbEntity
  8
VERMASSUNG
100
AcDbTrace
 10
168.580601669
 20
91.9776298545
 30
0.0
 11
169.030601669
 21
94.9776298545
 31
0.0
 12
168.130601669
 22
94.9776298545
 32
0.0
 13
168.130601669
 23
94.9776298545
 33
0.0
  0
SOLID
  5
153
330
14F
100
AcDbEntity
  8
VERMASSUNG
100
AcDbTrace
 10
168.580601669
 20
141.9776298545
 30
0.0
 11
168.130601669
 21
138.9776298545
 31
0.0
 12
169.030601669
 22
138.9776298545
 32
0.0
 13
169.030601669
 23
138.9776298545
 33
0.0
  0
LINE
  5
154
330
14F
100
AcDbEntity
  8
VERMASSUNG
100
AcDbLine
 10
168.580601669
 20
91.9776298545
 30
0.0
 11
168.580601669
 21
141.9776298545
 31
0.0
  0
LINE
  5
155
330
14F
100
AcDbEntity
  8
VERMASSUNG
100
AcDbLine
 10
168.580601669
 20
141.9776298545
 30
0.0
 11
168.580601669
 21
153.7079695285
 31
0.0
  0
MTEXT
  5
156
330
14F
100
AcDbEntity
  8
VERMASSUNG
100
AcDbMText
 10
166.0024663641
 20
147.2979696141
 30
0.0
 40
2.0
 41
0.0
 71
     1
 72
     1
  1
%%c
  7
SLDTEXTSTYLE0
 11
-1.608122649676637E-16
 21
1.0
 31
0.0
 73
     1
 44
1.0
  0
MTEXT
  5
157
330
14F
100
AcDbEntity
  8
VERMASSUNG
100
AcDbMText
 10
165.8024664128
 20
150.9079696284
 30
0.0
 40
2.0
 41
0.0
 71
     1
 72
     1
  1
50
  7
SLDTEXTSTYLE0
 11
-1.608122649676637E-16
 21
1.0
 31
0.0
 73
     1
 44
1.0
  0
ENDBLK
  5
151
330
14F
100
AcDbEntity
  8
0
100
AcDbBlockEnd
  0
BLOCK
  5
15A
330
159
100
AcDbEntity
  8
0
100
AcDbBlockBegin
  2
_D_2
 70
     0
 10
0.0
 20
0.0
 30
0.0
  3
_D_2
  1

  0
SOLID
  5
15C
330
159
100
AcDbEntity
  8
VERMASSUNG
100
AcDbTrace
 10
145.5577330629
 20
163.7997315688
 30
0.0
 11
148.5577330629
 21
163.3497315688
 31
0.0
 12
148.5577330629
 22
164.2497315688
 32
0.0
 13
148.5577330629
 23
164.2497315688
 33
0.0
  0
SOLID
  5
15D
330
159
100
AcDbEntity
  8
VERMASSUNG
100
AcDbTrace
 10
217.5577330629
 20
163.7997315688
 30
0.0
 11
214.5577330629
 21
164.2497315688
 31
0.0
 12
214.5577330629
 22
163.3497315688
 32
0.0
 13
214.5577330629
 23
163.3497315688
 33
0.0
  0
LINE
  5
15E
330
159
100
AcDbEntity
  8
VERMASSUNG
100
AcDbLine
 10
145.5577330629
 20
148.4526298545
 30
0.0
 11
145.5577330629
 21
164.7997315688
 31
0.0
  0
LINE
  5
15F
330
159
100
AcDbEntity
  8
VERMASSUNG
100
AcDbLine
 10
217.5577330629
 20
140.9776298545
 30
0.0
 11
217.5577330629
 21
164.7997315688
 31
0.0
  0
LINE
  5
160
330
159
100
AcDbEntity
  8
VERMASSUNG
100
AcDbLine
 10
145.5577330629
 20
163.7997315688
 30
0.0
 11
217.5577330629
 21
163.7997315688
 31
0.0
  0
MTEXT
  5
161
330
159
100
AcDbEntity
  8
VERMASSUNG
100
AcDbMText
 10
180.1577331128
 20
166.3778671648
 30
0.0
 40
2.0
 41
0.0
 71
     1
 72
     1
  1
72
  7
SLDTEXTSTYLE0
 73
     1
 44
1.0
  0
ENDBLK
  5
15B
330
159
100
AcDbEntity
  8
0
100
AcDbBlockEnd
  0
BLOCK
  5
164
330
163
100
AcDbEntity
  8
0
100
AcDbBlockBegin
  2
_D_3
 70
     0
 10
0.0
 20
0.0
 30
0.0
  3
_D_3
  1

  0
SOLID
  5
166
330
163
100
AcDbEntity
  8
VERMASSUNG
100
AcDbTrace
 10
127.5577330629
 20
173.2345635091
 30
0.0
 11
130.5577330629
 21
172.7845635091
 31
0.0
 12
130.5577330629
 22
173.6845635091
 32
0.0
 13
130.5577330629
 23
173.6845635091
 33
0.0
  0
SOLID
  5
167
330
163
100
AcDbEntity
  8
VERMASSUNG
100
AcDbTrace
 10
217.5577330629
 20
173.2345635091
 30
0.0
 11
214.5577330629
 21
173.6845635091
 31
0.0
 12
214.5577330629
 22
172.7845635091
 32
0.0
 13
214.5577330629
 23
172.7845635091
 33
0.0
  0
LINE
  5
168
330
163
100
AcDbEntity
  8
VERMASSUNG
100
AcDbLine
 10
127.5577330629
 20
148.2526298545
 30
0.0
 11
127.5577330629
 21
174.2345635091
 31
0.0
  0
LINE
  5
169
330
163
100
AcDbEntity
  8
VERMASSUNG
100
AcDbLine
 10
217.5577330629
 20
140.9776298545
 30
0.0
 11
217.5577330629
 21
174.2345635091
 31
0.0
  0
LINE
  5
16A
330
163
100
AcDbEntity
  8
VERMASSUNG
100
AcDbLine
 10
127.5577330629
 20
173.2345635091
 30
0.0
 11
217.5577330629
 21
173.2345635091
 31
0.0
  0
MTEXT
  5
16B
330
163
100
AcDbEntity
  8
VERMASSUNG
100
AcDbMText
 10
171.1577331128
 20
175.812699105
 30
0.0
 40
2.0
 41
0.0
 71
     1
 72
     1
  1
90
  7
SLDTEXTSTYLE0
 73
     1
 44
1.0
  0
ENDBLK
  5
165
330
163
100
AcDbEntity
  8
0
100
AcDbBlockEnd
  0
BLOCK
  5
16E
330
16D
100
AcDbEntity
  8
0
100
AcDbBlockBegin
  2
_D_4
 70
     0
 10
0.0
 20
0.0
 30
0.0
  3
_D_4
  1

  0
SOLID
  5
170
330
16D
100
AcDbEntity
  8
VERMASSUNG
100
AcDbTrace
 10
87.6077330629
 20
182.2967024958
 30
0.0
 11
90.6077330629
 21
181.8467024958
 31
0.0
 12
90.6077330629
 22
182.7467024958
 32
0.0
 13
90.6077330629
 23
182.7467024958
 33
0.0
  0
SOLID
  5
171
330
16D
100
AcDbEntity
  8
VERMASSUNG
100
AcDbTrace
 10
217.5577330629
 20
182.2967024958
 30
0.0
 11
214.5577330629
 21
182.7467024958
 31
0.0
 12
214.5577330629
 22
181.8467024958
 32
0.0
 13
214.5577330629
 23
181.8467024958
 33
0.0
  0
LINE
  5
172
330
16D
100
AcDbEntity
  8
VERMASSUNG
100
AcDbLine
 10
87.6077330629
 20
139.1807245783
 30
0.0
 11
87.6077330629
 21
183.2967024958
 31
0.0
  0
LINE
  5
173
330
16D
100
AcDbEntity
  8
VERMASSUNG
100
AcDbLine
 10
217.5577330629
 20
140.9776298545
 30
0.0
 11
217.5577330629
 21
183.2967024958
 31
0.0
  0
LINE
  5
174
330
16D
100
AcDbEntity
  8
VERMASSUNG
100
AcDbLine
 10
87.6077330629
 20
182.2967024958
 30
0.0
 11
217.5577330629
 21
182.2967024958
 31
0.0
  0
MTEXT
  5
175
330
16D
100
AcDbEntity
  8
VERMASSUNG
100
AcDbMText
 10
148.9827331247
 20
184.8748380918
 30
0.0
 40
2.0
 41
0.0
 71
     1
 72
     1
  1
129.95
  7
SLDTEXTSTYLE0
 73
     1
 44
1.0
  0
ENDBLK
  5
16F
330
16D
100
AcDbEntity
  8
0
100
AcDbBlockEnd
  0
BLOCK
  5
179
330
178
100
AcDbEntity
  8
0
100
AcDbBlockBegin
  2
_D_5
 70
     0
 10
0.0
 20
0.0
 30
0.0
  3
_D_5
  1

  0
SOLID
  5
17B
330
178
100
AcDbEntity
  8
VERMASSUNG
100
AcDbTrace
 10
74.9585897835
 20
148.4526298545
 30
0.0
 11
74.5085897835
 21
145.4526298545
 31
0.0
 12
75.4085897835
 22
145.4526298545
 32
0.0
 13
75.4085897835
 23
145.4526298545
 33
0.0
  0
SOLID
  5
17C
330
178
100
AcDbEntity
  8
VERMASSUNG
100
AcDbTrace
 10
74.9585897835
 20
85.5026298545
 30
0.0
 11
75.4085897835
 21
88.5026298545
 31
0.0
 12
74.5085897835
 22
88.5026298545
 32
0.0
 13
74.5085897835
 23
88.5026298545
 33
0.0
  0
LINE
  5
17D
330
178
100
AcDbEntity
  8
VERMASSUNG
100
AcDbLine
 10
127.7577330629
 20
148.4526298545
 30
0.0
 11
73.9585897835
 21
148.4526298545
 31
0.0
  0
LINE
  5
17E
330
178
100
AcDbEntity
  8
VERMASSUNG
100
AcDbLine
 10
127.7577330629
 20
85.5026298545
 30
0.0
 11
73.9585897835
 21
85.5026298545
 31
0.0
  0
LINE
  5
17F
330
178
100
AcDbEntity
  8
VERMASSUNG
100
AcDbLine
 10
74.9585897835
 20
148.4526298545
 30
0.0
 11
74.9585897835
 21
85.5026298545
 31
0.0
  0
MTEXT
  5
180
330
178
100
AcDbEntity
  8
VERMASSUNG
100
AcDbMText
 10
72.1804545272
 20
108.8726312361
 30
0.0
 40
2.0
 41
0.0
 71
     1
 72
     1
  1
KM
  7
SLDTEXTSTYLE0
 11
-7.044195017643634E-15
 21
1.0
 31
0.0
 73
     1
 44
1.0
  0
MTEXT
  5
181
330
178
100
AcDbEntity
  8
VERMASSUNG
100
AcDbMText
 10
72.3804544785
 20
112.2726310483
 30
0.0
 40
2.0
 41
0.0
 71
     1
 72
     1
  1
%%c
  7
SLDTEXTSTYLE0
 11
-7.044195017643634E-15
 21
1.0
 31
0.0
 73
     1
 44
1.0
  0
MTEXT
  5
182
330
178
100
AcDbEntity
  8
VERMASSUNG
100
AcDbMText
 10
72.1804545272
 20
115.8826310626
 30
0.0
 40
2.0
 41
0.0
 71
     1
 72
     1
  1
63
  7
SLDTEXTSTYLE0
 11
-7.044195017643634E-15
 21
1.0
 31
0.0
 73
     1
 44
1.0
  0
MTEXT
  5
183
330
178
100
AcDbEntity
  8
VERMASSUNG
100
AcDbMText
 10
72.1804545272
 20
119.8701309628
 30
0.0
 40
2.0
 41
0.0
 71
     1
 72
     1
  1
XMZ
  7
SLDTEXTSTYLE0
 11
-7.044195017643634E-15
 21
1.0
 31
0.0
 73
     1
 44
1.0
  0
ENDBLK
  5
17A
330
178
100
AcDbEntity
  8
0
100
AcDbBlockEnd
  0
ENDSEC
  0
SECTION
  2
ENTITIES
  0
MTEXT
  5
78
330
1F
100
AcDbEntity
  8
KOPF_DÜNN
100
AcDbMText
 10
13.8892156294
 20
23.8442973028
 30
0.0
 40
3.0
 41
0.0
 71
     1
 72
     1
  1
KY6.E40.K01.090
  7
SLDTEXTSTYLE0
 73
     1
 44
1.0
  0
MTEXT
  5
79
330
1F
100
AcDbEntity
  8
VERMASSUNG
100
AcDbMText
 10
13.9329988022
 20
28.8834360957
 30
0.0
 40
3.0
 41
0.0
 71
     1
 72
     1
  1
Spannzangenfutter ER_Collet chuck ER
  7
SLDTEXTSTYLE0
 73
     1
 44
1.0
  0
MTEXT
  5
7A
330
1F
100
AcDbEntity
  8
VERMASSUNG
100
AcDbMText
 10
98.8601118557
 20
13.8365368761
 30
0.0
 40
2.0
 41
0.0
 71
     1
 72
     1
  1
Datum: 16.02.2018
  7
SLDTEXTSTYLE0
 73
     1
 44
1.0
  0
MTEXT
  5
7B
330
1F
100
AcDbEntity
  8
VERMASSUNG
100
AcDbMText
 10
13.933048693
 20
18.0482802738
 30
0.0
 40
2.0
 41
0.0
 71
     1
 72
     1
  1
KM63 XMZ / Ø63
  7
SLDTEXTSTYLE0
 73
     1
 44
1.0
  0
MTEXT
  5
7C
330
1F
100
AcDbEntity
  8
VERMASSUNG
100
AcDbMText
 10
13.9808475933
 20
13.9090974274
 30
0.0
 40
2.0
 41
0.0
 71
     1
 72
     1
  1
Gewicht: 1446g
  7
SLDTEXTSTYLE0
 73
     1
 44
1.0
  0
LINE
  5
7D
330
1F
100
AcDbEntity
  8
0
  6
Continuous
 62
     7
370
    25
100
AcDbLine
 10
192.857735757
 20
85.6276281617
 30
0.0
 11
213.3142063061
 21
85.6276281617
 31
0.0
  0
LINE
  5
7E
330
1F
100
AcDbEntity
  8
0
  6
Continuous
 62
     7
370
    25
100
AcDbLine
 10
213.3142063061
 20
148.3276315472
 30
0.0
 11
192.857735757
 21
148.3276315472
 31
0.0
  0
LINE
  5
7F
330
1F
100
AcDbEntity
  8
0
  6
Continuous
 62
     7
370
    25
100
AcDbLine
 10
192.857735757
 20
148.3276315472
 30
0.0
 11
192.0577296654
 21
147.5276291809
 31
0.0
  0
LINE
  5
80
330
1F
100
AcDbEntity
  8
0
  6
Continuous
 62
     7
370
    25
100
AcDbLine
 10
192.0577296654
 20
86.427630528
 30
0.0
 11
192.857735757
 21
85.6276281617
 31
0.0
  0
LINE
  5
81
330
1F
100
AcDbEntity
  8
0
  6
Continuous
 62
     7
370
    25
100
AcDbLine
 10
213.3142063061
 20
85.6276281617
 30
0.0
 11
217.5577366392
 21
92.9776296458
 31
0.0
  0
LINE
  5
82
330
1F
100
AcDbEntity
  8
0
  6
Continuous
 62
     7
370
    25
100
AcDbLine
 10
217.5577366392
 20
140.9776300631
 30
0.0
 11
213.3142063061
 21
148.3276315472
 31
0.0
  0
LINE
  5
83
330
1F
100
AcDbEntity
  8
0
  6
Continuous
 62
     7
370
    25
100
AcDbLine
 10
127.7577330578
 20
85.502629771
 30
0.0
 11
134.1235353278
 21
85.502629771
 31
0.0
  0
LINE
  5
84
330
1F
100
AcDbEntity
  8
0
  6
Continuous
 62
     7
370
    25
100
AcDbLine
 10
134.1235353278
 20
148.4526299379
 30
0.0
 11
127.7577330578
 21
148.4526299379
 31
0.0
  0
LINE
  5
85
330
1F
100
AcDbEntity
  8
0
  6
Continuous
 62
     7
370
    25
100
AcDbLine
 10
135.5827329347
 20
145.9252253614
 30
0.0
 11
134.1235353278
 21
148.4526299379
 31
0.0
  0
LINE
  5
86
330
1F
100
AcDbEntity
  8
0
  6
Continuous
 62
     7
370
    25
100
AcDbLine
 10
140.7919311563
 20
85.502629771
 30
0.0
 11
145.557732288
 21
85.502629771
 31
0.0
  0
LINE
  5
87
330
1F
100
AcDbEntity
  8
0
  6
Continuous
 62
     7
370
    25
100
AcDbLine
 10
145.557732288
 20
148.4526299379
 30
0.0
 11
140.7919311563
 21
148.4526299379
 31
0.0
  0
ARC
  5
88
330
1F
100
AcDbEntity
  8
0
  6
Continuous
 62
     7
370
    25
100
AcDbCircle
 10
127.7577330629
 20
85.7026298545
 30
0.0
 40
0.2000000000000028
100
AcDbArc
 50
180.0
 51
270.0
  0
ARC
  5
89
330
1F
100
AcDbEntity
  8
0
  6
Continuous
 62
     7
370
    25
100
AcDbCircle
 10
127.7577330629
 20
148.2526298545
 30
0.0
 40
0.2000000000000171
100
AcDbArc
 50
90.0
 51
180.0
  0
ARC
  5
8A
330
1F
100
AcDbEntity
  8
0
  6
Continuous
 62
     7
370
    25
100
AcDbCircle
 10
149.5577330629
 20
87.9776298545
 30
0.0
 40
4.0
100
AcDbArc
 50
90.0
 51
180.0
  0
ARC
  5
8B
330
1F
100
AcDbEntity
  8
0
  6
Continuous
 62
     7
370
    25
100
AcDbCircle
 10
149.5577330629
 20
145.9776298545
 30
0.0
 40
4.000000000000028
100
AcDbArc
 50
180.0
 51
270.0
  0
ARC
  5
8C
330
1F
100
AcDbEntity
  8
0
  6
Continuous
 62
     7
370
    25
100
AcDbCircle
 10
127.1287981883
 20
91.4276298545
 30
0.0
 40
0.8000000000000081
100
AcDbArc
 50
57.576802718
 51
107.5
  0
ARC
  5
8D
330
1F
100
AcDbEntity
  8
0
  6
Continuous
 62
     7
370
    25
100
AcDbCircle
 10
127.1287981883
 20
142.5276298545
 30
0.0
 40
0.7999999999999962
100
AcDbArc
 50
252.5
 51
302.423197282
  0
LINE
  5
8E
330
1F
100
AcDbEntity
  8
0
  6
Continuous
 62
     7
370
    25
100
AcDbLine
 10
192.0577296654
 20
141.977630227
 30
0.0
 11
149.5577329437
 21
141.977630227
 31
0.0
  0
LINE
  5
8F
330
1F
100
AcDbEntity
  8
0
  6
Continuous
 62
     7
370
    25
100
AcDbLine
 10
149.5577329437
 20
91.9776294819
 30
0.0
 11
192.0577296654
 21
91.9776294819
 31
0.0
  0
LINE
  5
90
330
1F
100
AcDbEntity
  8
0
  6
Continuous
 62
     7
370
    25
100
AcDbLine
 10
126.3975510041
 20
92.0358911595
 30
0.0
 11
126.8882335529
 21
92.1906043283
 31
0.0
  0
LINE
  5
91
330
1F
100
AcDbEntity
  8
0
  6
Continuous
 62
     7
370
    25
100
AcDbLine
 10
126.8882335529
 20
141.7646553806
 30
0.0
 11
126.3975510041
 21
141.9193685494
 31
0.0
  0
LINE
  5
92
330
1F
100
AcDbEntity
  8
0
  6
Continuous
 62
     7
370
    25
100
AcDbLine
 10
97.1625698397
 20
140.4512465439
 30
0.0
 11
89.1077341179
 21
140.046750798
 31
0.0
  0
LINE
  5
93
330
1F
100
AcDbEntity
  8
0
  6
Continuous
 62
     7
370
    25
100
AcDbLine
 10
126.3975510041
 20
141.9193685494
 30
0.0
 11
113.0712879489
 21
141.2501499496
 31
0.0
  0
LINE
  5
94
330
1F
100
AcDbEntity
  8
0
  6
Continuous
 62
     7
370
    25
100
AcDbLine
 10
113.0722444171
 20
92.7050613306
 30
0.0
 11
126.3975510041
 21
92.0358911595
 31
0.0
  0
LINE
  5
95
330
1F
100
AcDbEntity
  8
0
  6
Continuous
 62
     7
370
    25
100
AcDbLine
 10
89.1077341179
 20
93.9085089109
 30
0.0
 11
97.1625810156
 21
93.5040113024
 31
0.0
  0
LINE
  5
96
330
1F
100
AcDbEntity
  8
0
  6
Continuous
 62
     7
370
    25
100
AcDbLine
 10
89.1077341179
 20
140.046750798
 30
0.0
 11
87.6077348033
 21
139.1807251117
 31
0.0
  0
LINE
  5
97
330
1F
100
AcDbEntity
  8
0
  6
Continuous
 62
     7
370
    25
100
AcDbLine
 10
87.6077348033
 20
94.7745345972
 30
0.0
 11
89.1077341179
 21
93.9085089109
 31
0.0
  0
LINE
  5
98
330
1F
100
AcDbEntity
  8
0
  6
Continuous
 62
     7
370
    25
100
AcDbLine
 10
140.7919311563
 20
148.4526299379
 30
0.0
 11
139.3327330837
 21
145.9252253614
 31
0.0
  0
ARC
  5
99
330
1F
100
AcDbEntity
  8
0
  6
Continuous
 62
     7
370
    25
100
AcDbCircle
 10
136.5827330629
 20
145.8276298545
 30
0.0
 40
1.0
100
AcDbArc
 50
180.0
 51
270.0
  0
LINE
  5
9A
330
1F
100
AcDbEntity
  8
0
  6
Continuous
 62
     7
370
    25
100
AcDbLine
 10
134.1235353278
 20
85.502629771
 30
0.0
 11
135.5827329347
 21
88.0300343475
 31
0.0
  0
ARC
  5
9B
330
1F
100
AcDbEntity
  8
0
  6
Continuous
 62
     7
370
    25
100
AcDbCircle
 10
136.5827330629
 20
88.1276298545
 30
0.0
 40
1.0
100
AcDbArc
 50
90.0
 51
180.0
  0
LINE
  5
9C
330
1F
100
AcDbEntity
  8
0
  6
Continuous
 62
     7
370
    25
100
AcDbLine
 10
138.3327329198
 20
144.8276300422
 30
0.0
 11
136.5827330986
 21
144.8276300422
 31
0.0
  0
LINE
  5
9D
330
1F
100
AcDbEntity
  8
0
  6
Continuous
 62
     7
370
    25
100
AcDbLine
 10
139.3327330837
 20
88.0300343475
 30
0.0
 11
140.7919311563
 21
85.502629771
 31
0.0
  0
ARC
  5
9E
330
1F
100
AcDbEntity
  8
0
  6
Continuous
 62
     7
370
    25
100
AcDbCircle
 10
138.3327330629
 20
145.8276298545
 30
0.0
 40
1.0
100
AcDbArc
 50
270.0
 51
0.0
  0
LINE
  5
9F
330
1F
100
AcDbEntity
  8
0
  6
Continuous
 62
     7
370
    25
100
AcDbLine
 10
136.5827330986
 20
89.1276296667
 30
0.0
 11
138.3327329198
 21
89.1276296667
 31
0.0
  0
ARC
  5
A0
330
1F
100
AcDbEntity
  8
0
  6
Continuous
 62
     7
370
    25
100
AcDbCircle
 10
138.3327330629
 20
88.1276298545
 30
0.0
 40
1.0
100
AcDbArc
 50
0.0
 51
90.0
  0
LINE
  5
A1
330
1F
100
AcDbEntity
  8
0
  6
Continuous
 62
     7
370
    25
100
AcDbLine
 10
213.3142063061
 20
147.3703865401
 30
0.0
 11
213.3142063061
 21
148.3276315472
 31
0.0
  0
LINE
  5
A2
330
1F
100
AcDbEntity
  8
0
  6
Continuous
 62
     7
370
    25
100
AcDbLine
 10
202.4280214349
 20
147.3703865401
 30
0.0
 11
213.3142063061
 21
147.3703865401
 31
0.0
  0
SPLINE
  5
A3
330
1F
100
AcDbEntity
  8
0
  6
Continuous
 62
     7
370
    25
100
AcDbSpline
210
0.0
220
0.0
230
1.0
 70
     8
 71
     3
 72
    18
 73
    14
 74
     0
 42
0.000000001
 43
0.00000001
 40
0.0
 40
0.0
 40
0.0
 40
0.0
 40
0.0823402622594231
 40
0.1971293035381493
 40
0.3099452935779594
 40
0.4180296822186734
 40
0.5204026801248112
 40
0.5325622667294775
 40
0.6297980580117787
 40
0.7297580309939489
 40
0.8340301035715202
 40
0.9435578161964673
 40
1.0
 40
1.0
 40
1.0
 40
1.0
 10
202.4280214349149
 20
147.3703865400672
 30
0.0
 10
202.1367815925746
 20
147.3653220785277
 30
0.0
 10
201.4395296564294
 20
147.3531973445436
 30
0.0
 10
200.4155340498365
 20
147.2374624014537
 30
0.0
 10
199.5363392388942
 20
147.0131877109525
 30
0.0
 10
199.0190887888848
 20
146.6980373077797
 30
0.0
 10
198.9356631079611
 20
146.4294552675728
 30
0.0
 10
199.0034011504981
 20
146.165753467312
 30
0.0
 10
199.2091429989699
 20
145.8956320272336
 30
0.0
 10
199.8230202146103
 20
145.5375311345893
 30
0.0
 10
200.7211831945499
 20
145.2502720778951
 30
0.0
 10
201.6424223522843
 20
145.1077707159225
 30
0.0
 10
202.2286575884391
 20
145.0948741766672
 30
0.0
 10
202.4280214349149
 20
145.0904883883119
 30
0.0
  0
LINE
  5
A4
330
1F
100
AcDbEntity
  8
0
  6
Continuous
 62
     7
370
    25
100
AcDbLine
 10
202.4280214349
 20
145.0904883883
 30
0.0
 11
213.3142063061
 21
145.0904883883
 31
0.0
  0
LINE
  5
A5
330
1F
100
AcDbEntity
  8
0
  6
Continuous
 62
     7
370
    25
100
AcDbLine
 10
213.3142063061
 20
125.5161460928
 30
0.0
 11
213.3142063061
 21
145.0904883883
 31
0.0
  0
LINE
  5
A6
330
1F
100
AcDbEntity
  8
0
  6
Continuous
 62
     7
370
    25
100
AcDbLine
 10
202.4280214349
 20
125.5161460928
 30
0.0
 11
213.3142063061
 21
125.5161460928
 31
0.0
  0
SPLINE
  5
A7
330
1F
100
AcDbEntity
  8
0
  6
Continuous
 62
     7
370
    25
100
AcDbSpline
210
0.0
220
0.0
230
1.0
 70
     8
 71
     3
 72
    18
 73
    14
 74
     0
 42
0.000000001
 43
0.00000001
 40
0.0
 40
0.0
 40
0.0
 40
0.0
 40
0.0823402340684795
 40
0.1971292386220563
 40
0.3099451717142552
 40
0.4180295898808581
 40
0.5204025299383196
 40
0.5326711728212897
 40
0.6299064107568376
 40
0.7298700077477778
 40
0.8341477964606199
 40
0.9436807899431319
 40
0.9999999999999999
 40
0.9999999999999999
 40
0.9999999999999999
 40
0.9999999999999999
 10
202.4280214349149
 20
119.0187641392618
 30
0.0
 10
202.1367815984815
 20
119.0394797384671
 30
0.0
 10
201.4395296673686
 20
119.089074573181
 30
0.0
 10
200.4155339762877
 20
119.5511626641769
 30
0.0
 10
199.5363396901313
 20
120.3735846523915
 30
0.0
 10
199.0190861810682
 20
121.4109695958321
 30
0.0
 10
198.9356285057002
 20
122.201143693026
 30
0.0
 10
199.0035270119937
 20
122.9338548635554
 30
0.0
 10
199.2096462200809
 20
123.6457028047819
 30
0.0
 10
199.8238630543414
 20
124.5142063286716
 30
0.0
 10
200.7223033701528
 20
125.1680482685395
 30
0.0
 10
201.643276377107
 20
125.4786927037521
 30
0.0
 10
202.2290929542594
 20
125.506651868257
 30
0.0
 10
202.4280214349149
 20
125.5161460927844
 30
0.0
  0
LINE
  5
A8
330
1F
100
AcDbEntity
  8
0
  6
Continuous
 62
     7
370
    25
100
AcDbLine
 10
202.4280214349
 20
119.0187641393
 30
0.0
 11
213.3142063061
 21
119.0187641393
 31
0.0
  0
LINE
  5
A9
330
1F
100
AcDbEntity
  8
0
  6
Continuous
 62
     7
370
    25
100
AcDbLine
 10
213.3142063061
 20
95.1233894072
 30
0.0
 11
213.3142063061
 21
119.0187641393
 31
0.0
  0
LINE
  5
AA
330
1F
100
AcDbEntity
  8
0
  6
Continuous
 62
     7
370
    25
100
AcDbLine
 10
202.4280214349
 20
95.1233894072
 30
0.0
 11
213.3142063061
 21
95.1233894072
 31
0.0
  0
SPLINE
  5
AB
330
1F
100
AcDbEntity
  8
0
  6
Continuous
 62
     7
370
    25
100
AcDbSpline
210
0.0
220
0.0
230
1.0
 70
     8
 71
     3
 72
    18
 73
    14
 74
     0
 42
0.000000001
 43
0.00000001
 40
0.0
 40
0.0
 40
0.0
 40
0.0
 40
0.082339165226325
 40
0.1971267355667303
 40
0.30994123660379
 40
0.4180241641295217
 40
0.5203958476988901
 40
0.5371614261605562
 40
0.6343759290756855
 40
0.7344796845501551
 40
0.8389931437280861
 40
0.9487431082022332
 40
1.0
 40
1.0
 40
1.0
 40
1.0
 10
202.4280214349149
 20
90.90590630389453
 30
0.0
 10
202.1367816331472
 20
90.91741113733349
 30
0.0
 10
201.4395295875166
 20
90.94495465508503
 30
0.0
 10
200.4155328187148
 20
91.20402870239533
 30
0.0
 10
199.5363447354635
 20
91.68122856266298
 30
0.0
 10
199.0190698668969
 20
92.31158735767424
 30
0.0
 10
198.9339797821709
 20
92.82711118281183
 30
0.0
 10
199.0091250142129
 20
93.31895168839482
 30
0.0
 10
199.2308570396655
 20
93.80824271548028
 30
0.0
 10
199.8587486831648
 20
94.41426249095127
 30
0.0
 10
200.7685980016905
 20
94.88184825489027
 30
0.0
 10
201.6784101733234
 20
95.09900238743084
 30
0.0
 10
202.2470072783516
 20
95.11750049376185
 30
0.0
 10
202.4280214349149
 20
95.12338940716982
 30
0.0
  0
LINE
  5
AC
330
1F
100
AcDbEntity
  8
0
  6
Continuous
 62
     7
370
    25
100
AcDbLine
 10
202.4280214349
 20
90.9059063039
 30
0.0
 11
213.3142063061
 21
90.9059063039
 31
0.0
  0
LINE
  5
AD
330
1F
100
AcDbEntity
  8
0
  6
Continuous
 62
     7
370
    25
100
AcDbLine
 10
213.3142063061
 20
85.6276281617
 30
0.0
 11
213.3142063061
 21
90.9059063039
 31
0.0
  0
LINE
  5
AE
330
1F
100
AcDbEntity
  8
0
  6
Continuous
 62
     7
370
    25
100
AcDbLine
 10
192.857735757
 20
106.1365778065
 30
0.0
 11
192.857735757
 21
148.3276315472
 31
0.0
  0
LINE
  5
AF
330
1F
100
AcDbEntity
  8
0
  6
Continuous
 62
     7
370
    25
100
AcDbLine
 10
192.857735757
 20
85.6276281617
 30
0.0
 11
192.857735757
 21
106.1365778065
 31
0.0
  0
LINE
  5
B0
330
1F
100
AcDbEntity
  8
0
  6
Continuous
 62
     7
370
    25
100
AcDbLine
 10
192.0577296654
 20
106.413223452
 30
0.0
 11
192.0577296654
 21
147.5276291809
 31
0.0
  0
LINE
  5
B1
330
1F
100
AcDbEntity
  8
0
  6
Continuous
 62
     7
370
    25
100
AcDbLine
 10
192.0577296654
 20
86.427630528
 30
0.0
 11
192.0577296654
 21
106.413223452
 31
0.0
  0
LINE
  5
B2
330
1F
100
AcDbEntity
  8
0
  6
Continuous
 62
     7
370
    25
100
AcDbLine
 10
213.3142063061
 20
90.9059063039
 30
0.0
 11
213.5834404866
 21
91.5061381153
 31
0.0
  0
LINE
  5
B3
330
1F
100
AcDbEntity
  8
0
  6
Continuous
 62
     7
370
    25
100
AcDbLine
 10
213.5834404866
 20
91.5061381153
 30
0.0
 11
214.6349856297
 21
93.0927057258
 31
0.0
  0
LINE
  5
B4
330
1F
100
AcDbEntity
  8
0
  6
Continuous
 62
     7
370
    25
100
AcDbLine
 10
214.6349856297
 20
93.0927057258
 30
0.0
 11
214.8219952027
 21
93.5152020744
 31
0.0
  0
SPLINE
  5
B5
330
1F
100
AcDbEntity
  8
0
  6
Continuous
 62
     7
370
    25
100
AcDbSpline
210
0.0
220
0.0
230
1.0
 70
     8
 71
     3
 72
     9
 73
     5
 74
     0
 42
0.000000001
 43
0.00000001
 40
0.0
 40
0.0
 40
0.0
 40
0.0
 40
0.5000513412285803
 40
1.0
 40
1.0
 40
1.0
 40
1.0
 10
214.8219952026723
 20
93.51520207442046
 30
0.0
 10
214.8475263648824
 20
93.99563912117372
 30
0.0
 10
214.8985834466361
 20
94.95641455989745
 30
0.0
 10
214.8475228696517
 20
95.9171898023607
 30
0.0
 10
214.8219952026723
 20
96.39752809621096
 30
0.0
  0
LINE
  5
B6
330
1F
100
AcDbEntity
  8
0
  6
Continuous
 62
     7
370
    25
100
AcDbLine
 10
214.6349856297
 20
96.3588465444
 30
0.0
 11
214.8219952027
 21
96.3975280962
 31
0.0
  0
LINE
  5
B7
330
1F
100
AcDbEntity
  8
0
  6
Continuous
 62
     7
370
    25
100
AcDbLine
 10
213.5834404866
 20
95.178343027
 30
0.0
 11
214.6349856297
 21
96.3588465444
 31
0.0
  0
LINE
  5
B8
330
1F
100
AcDbEntity
  8
0
  6
Continuous
 62
     7
370
    25
100
AcDbLine
 10
213.3142063061
 20
95.1233894072
 30
0.0
 11
213.5834404866
 21
95.178343027
 31
0.0
  0
LINE
  5
B9
330
1F
100
AcDbEntity
  8
0
  6
Continuous
 62
     7
370
    25
100
AcDbLine
 10
213.3142063061
 20
119.0187641393
 30
0.0
 11
213.5834404866
 21
119.3664715598
 31
0.0
  0
LINE
  5
BA
330
1F
100
AcDbEntity
  8
0
  6
Continuous
 62
     7
370
    25
100
AcDbLine
 10
213.5834404866
 20
119.3664715598
 30
0.0
 11
214.6349856297
 21
119.3738427452
 31
0.0
  0
LINE
  5
BB
330
1F
100
AcDbEntity
  8
0
  6
Continuous
 62
     7
370
    25
100
AcDbLine
 10
214.6349856297
 20
119.3738427452
 30
0.0
 11
214.8219952027
 21
119.6185901269
 31
0.0
  0
SPLINE
  5
BC
330
1F
100
AcDbEntity
  8
0
  6
Continuous
 62
     7
370
    25
100
AcDbSpline
210
0.0
220
0.0
230
1.0
 70
     8
 71
     3
 72
     9
 73
     5
 74
     0
 42
0.000000001
 43
0.00000001
 40
0.0
 40
0.0
 40
0.0
 40
0.0
 40
0.5000511997350038
 40
1.0
 40
1.0
 40
1.0
 40
1.0
 10
214.8219952026723
 20
119.6185901268542
 30
0.0
 10
214.8475263600651
 20
120.3587430866085
 30
0.0
 10
214.8985834466322
 20
121.8388974390958
 30
0.0
 10
214.8475228744671
 20
123.3190515415307
 30
0.0
 10
214.8219952026723
 20
124.0590528092504
 30
0.0
  0
LINE
  5
BD
330
1F
100
AcDbEntity
  8
0
  6
Continuous
 62
     7
370
    25
100
AcDbLine
 10
214.6349856297
 20
124.4056049242
 30
0.0
 11
214.8219952027
 21
124.0590528093
 31
0.0
  0
LINE
  5
BE
330
1F
100
AcDbEntity
  8
0
  6
Continuous
 62
     7
370
    25
100
AcDbLine
 10
213.5834404866
 20
125.0238070703
 30
0.0
 11
214.6349856297
 21
124.4056049242
 31
0.0
  0
LINE
  5
BF
330
1F
100
AcDbEntity
  8
0
  6
Continuous
 62
     7
370
    25
100
AcDbLine
 10
213.3142063061
 20
125.5161460928
 30
0.0
 11
213.5834404866
 21
125.0238070703
 31
0.0
  0
LINE
  5
C0
330
1F
100
AcDbEntity
  8
0
  6
Continuous
 62
     7
370
    25
100
AcDbLine
 10
213.3142063061
 20
145.0904883883
 30
0.0
 11
213.5834404866
 21
144.8379621349
 31
0.0
  0
LINE
  5
C1
330
1F
100
AcDbEntity
  8
0
  6
Continuous
 62
     7
370
    25
100
AcDbLine
 10
213.5834404866
 20
144.8379621349
 30
0.0
 11
214.6349856297
 21
143.2587668738
 31
0.0
  0
LINE
  5
C2
330
1F
100
AcDbEntity
  8
0
  6
Continuous
 62
     7
370
    25
100
AcDbLine
 10
214.6349856297
 20
143.2587668738
 30
0.0
 11
214.8219952027
 21
143.0810183725
 31
0.0
  0
SPLINE
  5
C3
330
1F
100
AcDbEntity
  8
0
  6
Continuous
 62
     7
370
    25
100
AcDbSpline
210
0.0
220
0.0
230
1.0
 70
     8
 71
     3
 72
     9
 73
     5
 74
     0
 42
0.000000001
 43
0.00000001
 40
0.0
 40
0.0
 40
0.0
 40
0.0
 40
0.1255455575553678
 40
1.0
 40
1.0
 40
1.0
 40
1.0
 10
214.8219952026723
 20
144.639154567492
 30
0.0
 10
214.8299939328002
 20
144.5739955356671
 30
0.0
 10
214.8937057063083
 20
144.0549884668888
 30
0.0
 10
214.8554489730358
 20
143.5353865644435
 30
0.0
 10
214.8219952026723
 20
143.0810183725476
 30
0.0
  0
LINE
  5
C4
330
1F
100
AcDbEntity
  8
0
  6
Continuous
 62
     7
370
    25
100
AcDbLine
 10
214.6349856297
 20
145.0243886999
 30
0.0
 11
214.8219952027
 21
144.6391545675
 31
0.0
  0
LINE
  5
C5
330
1F
100
AcDbEntity
  8
0
  6
Continuous
 62
     7
370
    25
100
AcDbLine
 10
213.5834404866
 20
146.8230929664
 30
0.0
 11
214.6349856297
 21
145.0243886999
 31
0.0
  0
LINE
  5
C6
330
1F
100
AcDbEntity
  8
0
  6
Continuous
 62
     7
370
    25
100
AcDbLine
 10
213.3142063061
 20
147.3703865401
 30
0.0
 11
213.5834404866
 21
146.8230929664
 31
0.0
  0
LINE
  5
C7
330
1F
100
AcDbEntity
  8
0
  6
Continuous
 62
     7
370
    25
100
AcDbLine
 10
217.5577366392
 20
108.6782595582
 30
0.0
 11
217.5577366392
 21
140.9776300631
 31
0.0
  0
LINE
  5
C8
330
1F
100
AcDbEntity
  8
0
  6
Continuous
 62
     7
370
    25
100
AcDbLine
 10
217.5577366392
 20
92.9776296458
 30
0.0
 11
217.5577366392
 21
108.6782595582
 31
0.0
  0
ARC
  5
C9
330
1F
100
AcDbEntity
  8
0
  6
Continuous
 62
     7
370
    25
100
AcDbCircle
 10
202.3947714207
 20
122.1951393151
 30
0.0
 40
2.828863169715327
100
AcDbArc
 50
89.3265388827
 51
270.6734611173
  0
ARC
  5
CA
330
1F
100
AcDbEntity
  8
0
  6
Continuous
 62
     7
370
    25
100
AcDbCircle
 10
202.3984489291
 20
121.8897238347
 30
0.0
 40
2.516054886041457
100
AcDbArc
 50
89.326557303
 51
270.673442697
  0
LINE
  5
CB
330
1F
100
AcDbEntity
  8
0
  6
Continuous
 62
     7
370
    25
100
AcDbLine
 10
202.4280214349
 20
119.3664715598
 30
0.0
 11
213.5834404866
 21
119.3664715598
 31
0.0
  0
LINE
  5
CC
330
1F
100
AcDbEntity
  8
0
  6
Continuous
 62
     7
370
    25
100
AcDbLine
 10
202.4280214349
 20
119.3738427452
 30
0.0
 11
214.6349856297
 21
119.3738427452
 31
0.0
  0
ARC
  5
CD
330
1F
100
AcDbEntity
  8
0
  6
Continuous
 62
     7
370
    25
100
AcDbCircle
 10
202.4033054242
 20
121.8388214681
 30
0.0
 40
2.22036890845304
100
AcDbArc
 50
89.3621995232
 51
270.6378004768
  0
LINE
  5
CE
330
1F
100
AcDbEntity
  8
0
  6
Continuous
 62
     7
370
    25
100
AcDbLine
 10
202.4280214349
 20
125.0238070703
 30
0.0
 11
213.5834404866
 21
125.0238070703
 31
0.0
  0
LINE
  5
CF
330
1F
100
AcDbEntity
  8
0
  6
Continuous
 62
     7
370
    25
100
AcDbLine
 10
202.4280214349
 20
119.6185901269
 30
0.0
 11
214.8219952027
 21
119.6185901269
 31
0.0
  0
LINE
  5
D0
330
1F
100
AcDbEntity
  8
0
  6
Continuous
 62
     7
370
    25
100
AcDbLine
 10
202.4280214349
 20
124.0590528093
 30
0.0
 11
214.8219952027
 21
124.0590528093
 31
0.0
  0
LINE
  5
D1
330
1F
100
AcDbEntity
  8
0
  6
Continuous
 62
     7
370
    25
100
AcDbLine
 10
202.4280214349
 20
124.4056049242
 30
0.0
 11
214.6349856297
 21
124.4056049242
 31
0.0
  0
LWPOLYLINE
  5
D2
330
1F
100
AcDbEntity
  8
0
  6
Continuous
 62
     7
370
    25
100
AcDbPolyline
 90
       11
 70
   128
 43
0.0
 10
202.4280214349
 20
91.5061381153
 10
201.6851314942
 20
91.5687025032
 10
200.9928756992
 20
91.7521302096
 10
200.3984236757
 20
92.0439210228
 10
199.9422767798
 20
92.4241893432
 10
199.6555337349
 20
92.8670220516
 10
199.5577299634
 20
93.3422405712
 10
199.6555337349
 20
93.8174590907
 10
199.9422767798
 20
94.2602917991
 10
200.3984236757
 20
94.6405619822
 10
200.8367338816
 20
94.8703378878
  0
ARC
  5
D3
330
1F
100
AcDbEntity
  8
0
  6
Continuous
 62
     7
370
    25
100
AcDbCircle
 10
202.1592679556
 20
95.6674840106
 30
0.0
 40
2.588766433705002
100
AcDbArc
 50
212.1852552669
 51
275.9589133417
  0
ARC
  5
D4
330
1F
100
AcDbEntity
  8
0
  6
Continuous
 62
     7
370
    25
100
AcDbCircle
 10
202.1696532232
 20
95.7502962468
 30
0.0
 40
2.24997779820305
100
AcDbArc
 50
212.2330447061
 51
276.5939034078
  0
LINE
  5
D5
330
1F
100
AcDbEntity
  8
0
  6
Continuous
 62
     7
370
    25
100
AcDbLine
 10
202.4280214349
 20
93.5152020744
 30
0.0
 11
214.8219952027
 21
93.5152020744
 31
0.0
  0
LINE
  5
D6
330
1F
100
AcDbEntity
  8
0
  6
Continuous
 62
     7
370
    25
100
AcDbLine
 10
202.4280214349
 20
91.5061381153
 30
0.0
 11
213.5834404866
 21
91.5061381153
 31
0.0
  0
LINE
  5
D7
330
1F
100
AcDbEntity
  8
0
  6
Continuous
 62
     7
370
    25
100
AcDbLine
 10
202.4280214349
 20
93.0927057258
 30
0.0
 11
214.6349856297
 21
93.0927057258
 31
0.0
  0
LWPOLYLINE
  5
D8
330
1F
100
AcDbEntity
  8
0
  6
Continuous
 62
     7
370
    25
100
AcDbPolyline
 90
        8
 70
   128
 43
0.0
 10
202.4280214349
 20
146.8230929664
 10
201.6851314942
 20
146.7892729185
 10
200.9928756992
 20
146.690115004
 10
200.3984236757
 20
146.5323787621
 10
199.9422767798
 20
146.3268116555
 10
199.6555337349
 20
146.0874226383
 10
199.5577299634
 20
145.830528482
 10
199.5638021866
 20
145.7660269431
  0
LINE
  5
D9
330
1F
100
AcDbEntity
  8
0
  6
Continuous
 62
     7
370
    25
100
AcDbLine
 10
213.7158224026
 20
144.6391545675
 30
0.0
 11
214.8219952027
 21
144.6391545675
 31
0.0
  0
LINE
  5
DA
330
1F
100
AcDbEntity
  8
0
  6
Continuous
 62
     7
370
    25
100
AcDbLine
 10
213.384681348
 20
145.0243886999
 30
0.0
 11
214.6349856297
 21
145.0243886999
 31
0.0
  0
LINE
  5
DB
330
1F
100
AcDbEntity
  8
0
  6
Continuous
 62
     7
370
    25
100
AcDbLine
 10
202.4280214349
 20
146.8230929664
 30
0.0
 11
213.5834404866
 21
146.8230929664
 31
0.0
  0
LINE
  5
DC
330
1F
100
AcDbEntity
  8
0
  6
Continuous
 62
     7
370
    25
100
AcDbLine
 10
134.1235353278
 20
91.9199042461
 30
0.0
 11
134.1235353278
 21
148.4526299379
 31
0.0
  0
SPLINE
  5
DD
330
1F
100
AcDbEntity
  8
0
  6
Continuous
 62
     7
370
    25
100
AcDbSpline
210
0.0
220
0.0
230
1.0
 70
     8
 71
     3
 72
    27
 73
    23
 74
     0
 42
0.000000001
 43
0.00000001
 40
0.0
 40
0.0
 40
0.0
 40
0.0
 40
0.1250000000000002
 40
0.1250000000000002
 40
0.2500000000000003
 40
0.2500000000000003
 40
0.3750000000000005
 40
0.3750000000000005
 40
0.4375000000000003
 40
0.4375000000000003
 40
0.5000000000000002
 40
0.5625000000000001
 40
0.5625000000000001
 40
0.6249999999999999
 40
0.6249999999999999
 40
0.7499999999999997
 40
0.7499999999999997
 40
0.8124999999999998
 40
0.8124999999999998
 40
0.8749999999999998
 40
0.8749999999999998
 40
1.0
 40
1.0
 40
1.0
 40
1.0
 10
134.123535258305
 20
87.95363093990441
 30
0.0
 10
133.8535783643376
 20
88.05351002776672
 30
0.0
 10
133.6099213401205
 20
88.16481528792575
 30
0.0
 10
133.1773362079153
 20
88.41430109360181
 30
0.0
 10
132.988741640719
 20
88.55324361166902
 30
0.0
 10
132.6863018643583
 20
88.8499366468429
 30
0.0
 10
132.5697186170675
 20
89.0089552562072
 30
0.0
 10
132.4504599446426
 20
89.26598578010146
 30
0.0
 10
132.420243277611
 20
89.35473858850655
 30
0.0
 10
132.3803466808984
 20
89.53401434539715
 30
0.0
 10
132.3603852374503
 20
89.7161829486397
 30
0.0
 10
132.3798205390383
 20
89.90414566972807
 30
0.0
 10
132.4192734167216
 20
90.0950142466926
 30
0.0
 10
132.4493021001448
 20
90.19246342713814
 30
0.0
 10
132.567777088277
 20
90.48280027393538
 30
0.0
 10
132.6841179033858
 20
90.6748864816113
 30
0.0
 10
132.9121543148833
 20
90.95969043119268
 30
0.0
 10
132.9976882343139
 20
91.05456141975603
 30
0.0
 10
133.1840017844494
 20
91.23992248761164
 30
0.0
 10
133.2846304730218
 20
91.33040073954403
 30
0.0
 10
133.6078919573577
 20
91.59508119505595
 30
0.0
 10
133.8521726430805
 20
91.76286478451034
 30
0.0
 10
134.123535258305
 20
91.91990453281831
 30
0.0
  0
LINE
  5
DE
330
1F
100
AcDbEntity
  8
0
  6
Continuous
 62
     7
370
    25
100
AcDbLine
 10
134.1235353278
 20
85.502629771
 30
0.0
 11
134.1235353278
 21
87.9536305062
 31
0.0
  0
LINE
  5
DF
330
1F
100
AcDbEntity
  8
0
  6
Continuous
 62
     7
370
    25
100
AcDbLine
 10
135.5827329347
 20
143.0723328582
 30
0.0
 11
135.5827329347
 21
145.9252253614
 31
0.0
  0
SPLINE
  5
E0
330
1F
100
AcDbEntity
  8
0
  6
Continuous
 62
     7
370
    25
100
AcDbSpline
210
0.0
220
0.0
230
1.0
 70
     8
 71
     3
 72
    26
 73
    22
 74
     0
 42
0.000000001
 43
0.00000001
 40
0.0
 40
0.0
 40
0.0
 40
0.0
 40
0.1250000000000009
 40
0.1250000000000009
 40
0.2500000000000019
 40
0.2500000000000019
 40
0.3125000000000011
 40
0.3125000000000011
 40
0.3750000000000004
 40
0.3750000000000004
 40
0.4375000000000002
 40
0.4375000000000002
 40
0.5000000000000001
 40
0.5000000000000001
 40
0.5625
 40
0.5625
 40
0.6249999999999999
 40
0.6249999999999999
 40
0.7500000000000001
 40
0.7500000000000001
 40
1.0
 40
1.0
 40
1.0
 40
1.0
 10
135.5827330628751
 20
140.8772753644861
 30
0.0
 10
135.4908281521923
 20
141.0871989711804
 30
0.0
 10
135.4031313759673
 20
141.2959643880599
 30
0.0
 10
135.2389251052
 20
141.7102990167532
 30
0.0
 10
135.1616546869333
 20
141.9180434023897
 30
0.0
 10
135.0618885806082
 20
142.2152420222064
 30
0.0
 10
135.0312756517059
 20
142.311991374145
 30
0.0
 10
134.9764067778029
 20
142.4998908742549
 30
0.0
 10
134.9520215568739
 20
142.5916930219849
 30
0.0
 10
134.9123421803755
 20
142.7630354502504
 30
0.0
 10
134.8968761011382
 20
142.8430279847831
 30
0.0
 10
134.8757797660557
 20
142.9902223939949
 30
0.0
 10
134.8702666998957
 20
143.0576042615679
 30
0.0
 10
134.8701997422733
 20
143.172773211968
 30
0.0
 10
134.8754680496228
 20
143.2214390546772
 30
0.0
 10
134.8963105767909
 20
143.301442248128
 30
0.0
 10
134.9119846900011
 20
143.332506491496
 30
0.0
 10
134.9713036201787
 20
143.3986611565993
 30
0.0
 10
135.0283234556927
 20
143.4082630238377
 30
0.0
 10
135.2271583443366
 20
143.3632477537308
 30
0.0
 10
135.3984285495687
 20
143.2393216784811
 30
0.0
 10
135.582733062875
 20
143.0723337350086
 30
0.0
  0
LINE
  5
E1
330
1F
100
AcDbEntity
  8
0
  6
Continuous
 62
     7
370
    25
100
AcDbLine
 10
135.5827329347
 20
93.5240738533
 30
0.0
 11
135.5827329347
 21
140.8772744677
 31
0.0
  0
SPLINE
  5
E2
330
1F
100
AcDbEntity
  8
0
  6
Continuous
 62
     7
370
    25
100
AcDbSpline
210
0.0
220
0.0
230
1.0
 70
     8
 71
     3
 72
     8
 73
     4
 74
     0
 42
0.000000001
 43
0.00000001
 40
0.0
 40
0.0
 40
0.0
 40
0.0
 40
1.0
 40
1.0
 40
1.0
 40
1.0
 10
135.215209396727
 20
92.72109689193718
 30
0.0
 10
135.3329439015565
 20
92.9887405715531
 30
0.0
 10
135.4564100145149
 20
93.25770587388541
 30
0.0
 10
135.5827330628751
 20
93.52407299839577
 30
0.0
  0
SPLINE
  5
E3
330
1F
100
AcDbEntity
  8
0
  6
Continuous
 62
     7
370
    25
100
AcDbSpline
210
0.0
220
0.0
230
1.0
 70
     8
 71
     3
 72
     8
 73
     4
 74
     0
 42
0.000000001
 43
0.00000001
 40
0.0
 40
0.0
 40
0.0
 40
0.0
 40
1.0
 40
1.0
 40
1.0
 40
1.0
 10
134.123535258305
 20
91.91990453281831
 30
0.0
 10
134.4934226390346
 20
92.19429635175032
 30
0.0
 10
134.858756131796
 20
92.46472265984679
 30
0.0
 10
135.215209396727
 20
92.72109689193718
 30
0.0
  0
SPLINE
  5
E4
330
1F
100
AcDbEntity
  8
0
  6
Continuous
 62
     7
370
    25
100
AcDbSpline
210
0.0
220
0.0
230
1.0
 70
     8
 71
     3
 72
    24
 73
    20
 74
     0
 42
0.000000001
 43
0.00000001
 40
0.0
 40
0.0
 40
0.0
 40
0.0
 40
0.1250000000000003
 40
0.1250000000000003
 40
0.2500000000000006
 40
0.2500000000000006
 40
0.3750000000000009
 40
0.3750000000000009
 40
0.5000000000000012
 40
0.5000000000000012
 40
0.6250000000000016
 40
0.6250000000000016
 40
0.7500000000000018
 40
0.7500000000000018
 40
0.8125000000000014
 40
0.8125000000000014
 40
0.875000000000001
 40
0.875000000000001
 40
1.0
 40
1.0
 40
1.0
 40
1.0
 10
140.791930867445
 20
145.625367221511
 30
0.0
 10
141.0312737676066
 20
145.5536334432522
 30
0.0
 10
141.2475681759234
 20
145.469938789989
 30
0.0
 10
141.6337013741708
 20
145.2757830183294
 30
0.0
 10
141.7993205275612
 20
145.1669205194096
 30
0.0
 10
142.0673276028475
 20
144.9302114642334
 30
0.0
 10
142.1719893339974
 20
144.7996059955669
 30
0.0
 10
142.3100478659658
 20
144.5272509340526
 30
0.0
 10
142.3452204267201
 20
144.3848935214853
 30
0.0
 10
142.3452456923167
 20
144.0868237563729
 30
0.0
 10
142.3101044091193
 20
143.9371371673457
 30
0.0
 10
142.1720407349757
 20
143.6370795986625
 30
0.0
 10
142.0674117853193
 20
143.4859031038205
 30
0.0
 10
141.8663991474821
 20
143.271501447735
 30
0.0
 10
141.7918491226159
 20
143.2016143218871
 30
0.0
 10
141.627502959232
 20
143.0652990884369
 30
0.0
 10
141.537023139265
 20
142.9984502206783
 30
0.0
 10
141.2476358406377
 20
142.8077018368524
 30
0.0
 10
141.0313954107863
 20
142.6932033184315
 30
0.0
 10
140.791930867445
 20
142.59251605462
 30
0.0
  0
LINE
  5
E5
330
1F
100
AcDbEntity
  8
0
  6
Continuous
 62
     7
370
    25
100
AcDbLine
 10
140.7919311563
 20
145.625367432
 30
0.0
 11
140.7919311563
 21
148.4526299379
 31
0.0
  0
LINE
  5
E6
330
1F
100
AcDbEntity
  8
0
  6
Continuous
 62
     7
370
    25
100
AcDbLine
 10
140.7919311563
 20
85.502629771
 30
0.0
 11
140.7919311563
 21
87.4408834121
 31
0.0
  0
SPLINE
  5
E7
330
1F
100
AcDbEntity
  8
0
  6
Continuous
 62
     7
370
    25
100
AcDbSpline
210
0.0
220
0.0
230
1.0
 70
     8
 71
     3
 72
    34
 73
    30
 74
     0
 42
0.000000001
 43
0.00000001
 40
0.0
 40
0.0
 40
0.0
 40
0.0
 40
0.1249999999999991
 40
0.1249999999999991
 40
0.2499999999999983
 40
0.2499999999999983
 40
0.3124999999999984
 40
0.3124999999999984
 40
0.3749999999999986
 40
0.3749999999999986
 40
0.4374999999999988
 40
0.4374999999999988
 40
0.499999999999999
 40
0.499999999999999
 40
0.5624999999999992
 40
0.5624999999999992
 40
0.6249999999999994
 40
0.6249999999999994
 40
0.6874999999999997
 40
0.6874999999999997
 40
0.7499999999999999
 40
0.7499999999999999
 40
0.8125000000000002
 40
0.8125000000000002
 40
0.8750000000000001
 40
0.8750000000000001
 40
0.9375
 40
0.9375
 40
1.0
 40
1.0
 40
1.0
 40
1.0
 10
140.7919308674451
 20
92.7916059241606
 30
0.0
 10
141.3564049857494
 20
92.66547277653417
 30
0.0
 10
141.8872758196318
 20
92.49370560395474
 30
0.0
 10
142.873157128388
 20
92.06293427245883
 30
0.0
 10
143.3049886799971
 20
91.81435536770981
 30
0.0
 10
143.8568021953082
 20
91.39783861886923
 30
0.0
 10
144.0247747960551
 20
91.25079916623571
 30
0.0
 10
144.3134337247734
 20
90.95366160933268
 30
0.0
 10
144.4360255257318
 20
90.8023253338975
 30
0.0
 10
144.6363299242634
 20
90.49502285893557
 30
0.0
 10
144.714484576972
 20
90.33737017401229
 30
0.0
 10
144.8182424824728
 20
90.02742390248419
 30
0.0
 10
144.844443260407
 20
89.87533391066225
 30
0.0
 10
144.8459878964504
 20
89.5771239432246
 30
0.0
 10
144.820738572944
 20
89.42964268346192
 30
0.0
 10
144.7191586257819
 20
89.14803293542757
 30
0.0
 10
144.6436634657661
 20
89.01442088970934
 30
0.0
 10
144.4453460552383
 20
88.76024031126305
 30
0.0
 10
144.3211005825083
 20
88.63871401066575
 30
0.0
 10
144.0320192510378
 20
88.41373290005288
 30
0.0
 10
143.8677018654492
 20
88.31009084504004
 30
0.0
 10
143.5015269161716
 20
88.11818659447019
 30
0.0
 10
143.2978526994571
 20
88.02934806071187
 30
0.0
 10
142.86316512925
 20
87.86948740869566
 30
0.0
 10
142.6322998382255
 20
87.79821502714917
 30
0.0
 10
142.144742526473
 20
87.6706651327439
 30
0.0
 10
141.8865540050335
 20
87.6141393373945
 30
0.0
 10
141.3510518195073
 20
87.5162571186587
 30
0.0
 10
141.0753648152768
 20
87.47507575202907
 30
0.0
 10
140.7919308674452
 20
87.4408825214872
 30
0.0
  0
LINE
  5
E8
330
1F
100
AcDbEntity
  8
0
  6
Continuous
 62
     7
370
    25
100
AcDbLine
 10
140.7919311563
 20
92.7916054121
 30
0.0
 11
140.7919311563
 21
142.5925154678
 31
0.0
  0
LINE
  5
E9
330
1F
100
AcDbEntity
  8
0
  6
Continuous
 62
     7
370
    25
100
AcDbLine
 10
145.557732288
 20
116.9776298545
 30
0.0
 11
145.557732288
 21
148.4526299379
 31
0.0
  0
LINE
  5
EA
330
1F
100
AcDbEntity
  8
0
  6
Continuous
 62
     7
370
    25
100
AcDbLine
 10
145.557732288
 20
85.502629771
 30
0.0
 11
145.557732288
 21
116.9776298545
 31
0.0
  0
LINE
  5
EB
330
1F
100
AcDbEntity
  8
0
  6
Continuous
 62
     7
370
    25
100
AcDbLine
 10
127.5577330629
 20
116.9776298545
 30
0.0
 11
127.5577330629
 21
148.2526302776
 31
0.0
  0
LINE
  5
EC
330
1F
100
AcDbEntity
  8
0
  6
Continuous
 62
     7
370
    25
100
AcDbLine
 10
127.5577330629
 20
85.7026294313
 30
0.0
 11
127.5577330629
 21
116.9776298545
 31
0.0
  0
LINE
  5
ED
330
1F
100
AcDbEntity
  8
0
  6
Continuous
 62
     7
370
    25
100
AcDbLine
 10
139.3327330837
 20
94.2578945748
 30
0.0
 11
139.3327330837
 21
140.0118243388
 31
0.0
  0
SPLINE
  5
EE
330
1F
100
AcDbEntity
  8
0
  6
Continuous
 62
     7
370
    25
100
AcDbSpline
210
0.0
220
0.0
230
1.0
 70
     8
 71
     3
 72
    10
 73
     6
 74
     0
 42
0.000000001
 43
0.00000001
 40
0.0
 40
0.0
 40
0.0
 40
0.0
 40
0.5
 40
0.5
 40
1.0
 40
1.0
 40
1.0
 40
1.0
 10
140.791930867445
 20
142.5925160546199
 30
0.0
 10
140.5571999234759
 20
142.1400766669177
 30
0.0
 10
140.3178166157592
 20
141.7005494935584
 30
0.0
 10
139.8311952644484
 20
140.8414573980166
 30
0.0
 10
139.5839259527465
 20
140.4220003447934
 30
0.0
 10
139.3327330628751
 20
140.011824288256
 30
0.0
  0
SPLINE
  5
EF
330
1F
100
AcDbEntity
  8
0
  6
Continuous
 62
     7
370
    25
100
AcDbSpline
210
0.0
220
0.0
230
1.0
 70
     8
 71
     3
 72
     8
 73
     4
 74
     0
 42
0.000000001
 43
0.00000001
 40
0.0
 40
0.0
 40
0.0
 40
0.0
 40
1.0
 40
1.0
 40
1.0
 40
1.0
 10
139.7984441879276
 20
93.4849157726132
 30
0.0
 10
140.1247030241399
 20
93.2610920432835
 30
0.0
 10
140.4565414331828
 20
93.02852619598012
 30
0.0
 10
140.7919308674452
 20
92.7916059241606
 30
0.0
  0
SPLINE
  5
F0
330
1F
100
AcDbEntity
  8
0
  6
Continuous
 62
     7
370
    25
100
AcDbSpline
210
0.0
220
0.0
230
1.0
 70
     8
 71
     3
 72
     8
 73
     4
 74
     0
 42
0.000000001
 43
0.00000001
 40
0.0
 40
0.0
 40
0.0
 40
0.0
 40
1.0
 40
1.0
 40
1.0
 40
1.0
 10
139.3327330628751
 20
94.25789495128758
 30
0.0
 10
139.4892154263762
 20
94.00367469361207
 30
0.0
 10
139.6444417148537
 20
93.74604090726467
 30
0.0
 10
139.7984441879276
 20
93.48491577261319
 30
0.0
  0
SPLINE
  5
F1
330
1F
100
AcDbEntity
  8
0
  6
Continuous
 62
     7
370
    25
100
AcDbSpline
210
0.0
220
0.0
230
1.0
 70
     8
 71
     3
 72
    14
 73
    10
 74
     0
 42
0.000000001
 43
0.00000001
 40
0.0
 40
0.0
 40
0.0
 40
0.0
 40
0.25
 40
0.25
 40
0.5
 40
0.5
 40
0.75
 40
0.75
 40
1.0
 40
1.0
 40
1.0
 40
1.0
 10
139.3327330628752
 20
139.9266157235032
 30
0.0
 10
139.3327330628752
 20
139.8124436459503
 30
0.0
 10
139.3068036246093
 20
139.6953556412754
 30
0.0
 10
139.2073613673329
 20
139.4742006292573
 30
0.0
 10
139.135078981612
 20
139.3716262887582
 30
0.0
 10
138.9503416448475
 20
139.1955928832703
 30
0.0
 10
138.8407950085254
 20
139.1251870762899
 30
0.0
 10
138.5974337635222
 20
139.0316212154508
 30
0.0
 10
138.4659226560763
 20
139.0097008954814
 30
0.0
 10
138.332733062875
 20
139.0157634646186
 30
0.0
  0
SPLINE
  5
F2
330
1F
100
AcDbEntity
  8
0
  6
Continuous
 62
     7
370
    25
100
AcDbSpline
210
0.0
220
0.0
230
1.0
 70
     8
 71
     3
 72
    14
 73
    10
 74
     0
 42
0.000000001
 43
0.00000001
 40
0.0
 40
0.0
 40
0.0
 40
0.0
 40
0.25
 40
0.25
 40
0.5
 40
0.5
 40
0.75
 40
0.75
 40
1.0
 40
1.0
 40
1.0
 40
1.0
 10
138.3327330628751
 20
95.25273798357327
 30
0.0
 10
138.4661613701082
 20
95.2582310467436
 30
0.0
 10
138.5979360419038
 20
95.23597902767878
 30
0.0
 10
138.8411319287652
 20
95.1425407679724
 30
0.0
 10
138.952052790478
 20
95.07124530279168
 30
0.0
 10
139.1346991393438
 20
94.89773790587944
 30
0.0
 10
139.2080148786839
 20
94.79417954363322
 30
0.0
 10
139.3066529895193
 20
94.57494143085924
 30
0.0
 10
139.3327330628751
 20
94.4579359551509
 30
0.0
 10
139.3327330628751
 20
94.34331102058513
 30
0.0
  0
SPLINE
  5
F3
330
1F
100
AcDbEntity
  8
0
  6
Continuous
 62
     7
370
    25
100
AcDbSpline
210
0.0
220
0.0
230
1.0
 70
     8
 71
     3
 72
    14
 73
    10
 74
     0
 42
0.000000001
 43
0.00000001
 40
0.0
 40
0.0
 40
0.0
 40
0.0
 40
0.25
 40
0.25
 40
0.5
 40
0.5
 40
0.75
 40
0.75
 40
1.0
 40
1.0
 40
1.0
 40
1.0
 10
136.582733062875
 20
139.3718228018608
 30
0.0
 10
136.4483823143339
 20
139.4236397819386
 30
0.0
 10
136.3252034115405
 20
139.5005870179719
 30
0.0
 10
136.0964529906512
 20
139.6930718513809
 30
0.0
 10
135.994529898658
 20
139.8058988401609
 30
0.0
 10
135.8151048343127
 20
140.0587387847335
 30
0.0
 10
135.7386635854083
 20
140.1967545092153
 30
0.0
 10
135.6213756109466
 20
140.4949902159453
 30
0.0
 10
135.582733062875
 20
140.6530781849958
 30
0.0
 10
135.582733062875
 20
140.7925105097207
 30
0.0
  0
SPLINE
  5
F4
330
1F
100
AcDbEntity
  8
0
  6
Continuous
 62
     7
370
    25
100
AcDbSpline
210
0.0
220
0.0
230
1.0
 70
     8
 71
     3
 72
    14
 73
    10
 74
     0
 42
0.000000001
 43
0.00000001
 40
0.0
 40
0.0
 40
0.0
 40
0.0
 40
0.25
 40
0.25
 40
0.5
 40
0.5
 40
0.75
 40
0.75
 40
1.0
 40
1.0
 40
1.0
 40
1.0
 10
135.582733062875
 20
93.60904212514761
 30
0.0
 10
135.582733062875
 20
93.73978194651859
 30
0.0
 10
135.6181541398074
 20
93.88847966023263
 30
0.0
 10
135.7306798109975
 20
94.16540947577917
 30
0.0
 10
135.8083599972719
 20
94.2987200428681
 30
0.0
 10
135.9884252289942
 20
94.53606003862998
 30
0.0
 10
136.0937052816495
 20
94.64374363862004
 30
0.0
 10
136.3226888160119
 20
94.82031558260059
 30
0.0
 10
136.4493020080109
 20
94.89161873507146
 30
0.0
 10
136.5827330628749
 20
94.9363910288684
 30
0.0
  0
SPLINE
  5
F5
330
1F
100
AcDbEntity
  8
0
  6
Continuous
 62
     7
370
    25
100
AcDbSpline
210
0.0
220
0.0
230
1.0
 70
     8
 71
     3
 72
    10
 73
     6
 74
     0
 42
0.000000001
 43
0.00000001
 40
0.0
 40
0.0
 40
0.0
 40
0.0
 40
0.5
 40
0.5
 40
1.0
 40
1.0
 40
1.0
 40
1.0
 10
138.332733062875
 20
139.0157634646189
 30
0.0
 10
138.0222552831331
 20
139.0298958976418
 30
0.0
 10
137.7183147187811
 20
139.0674657828013
 30
0.0
 10
137.1237513532066
 20
139.1891272666808
 30
0.0
 10
136.8434177954866
 20
139.2712807822368
 30
0.0
 10
136.582733062875
 20
139.3718228018608
 30
0.0
  0
SPLINE
  5
F6
330
1F
100
AcDbEntity
  8
0
  6
Continuous
 62
     7
370
    25
100
AcDbSpline
210
0.0
220
0.0
230
1.0
 70
     8
 71
     3
 72
    13
 73
     9
 74
     0
 42
0.000000001
 43
0.00000001
 40
0.0
 40
0.0
 40
0.0
 40
0.0
 40
0.25
 40
0.25
 40
0.5
 40
0.75
 40
0.75
 40
1.0
 40
1.0
 40
1.0
 40
1.0
 10
136.582733062875
 20
94.9363910288677
 30
0.0
 10
136.7172453418383
 20
94.98152612338656
 30
0.0
 10
136.857035240658
 20
95.022775416252
 30
0.0
 10
137.1397722944693
 20
95.09510469556035
 30
0.0
 10
137.4272528312876
 20
95.15786063832529
 30
0.0
 10
137.7241026714022
 20
95.20130853810134
 30
0.0
 10
138.0257420966366
 20
95.23474160408676
 30
0.0
 10
138.1797720040522
 20
95.24644078340533
 30
0.0
 10
138.3327330628751
 20
95.25273798357325
 30
0.0
  0
LINE
  5
F7
330
1F
100
AcDbEntity
  8
0
  6
Continuous
 62
     7
370
    25
100
AcDbLine
 10
126.3975510041
 20
116.9776298545
 30
0.0
 11
126.3975510041
 21
141.9193685494
 31
0.0
  0
LINE
  5
F8
330
1F
100
AcDbEntity
  8
0
  6
Continuous
 62
     7
370
    25
100
AcDbLine
 10
126.3975510041
 20
92.0358911595
 30
0.0
 11
126.3975510041
 21
116.9776298545
 31
0.0
  0
LINE
  5
F9
330
1F
100
AcDbEntity
  8
0
  6
Continuous
 62
     7
370
    25
100
AcDbLine
 10
89.1077341179
 20
106.0728343642
 30
0.0
 11
89.1077341179
 21
93.9085089109
 31
0.0
  0
SPLINE
  5
FA
330
1F
100
AcDbEntity
  8
0
  6
Continuous
 62
     7
370
    25
100
AcDbSpline
210
0.0
220
0.0
230
1.0
 70
     8
 71
     3
 72
     8
 73
     4
 74
     0
 42
0.000000001
 43
0.00000001
 40
0.0
 40
0.0
 40
0.0
 40
0.0
 40
1.0
 40
1.0
 40
1.0
 40
1.0
 10
93.39998115798598
 20
106.0767388205799
 30
0.0
 10
91.96923179295234
 20
106.0750009452999
 30
0.0
 10
90.53848242791871
 20
106.0736388701342
 30
0.0
 10
89.10773306288507
 20
106.0726517140113
 30
0.0
  0
SPLINE
  5
FB
330
1F
100
AcDbEntity
  8
0
  6
Continuous
 62
     7
370
    25
100
AcDbSpline
210
0.0
220
0.0
230
1.0
 70
     8
 71
     3
 72
    23
 73
    19
 74
     0
 42
0.000000001
 43
0.00000001
 40
0.0
 40
0.0
 40
0.0
 40
0.0
 40
0.0521036415683759
 40
0.1035646240941235
 40
0.1544751946756683
 40
0.2049306267495642
 40
0.2550287880866983
 40
0.3048696389163111
 40
0.354554670462894
 40
0.4041862979539558
 40
0.453867225213789
 40
0.5036997999428097
 40
0.590187023078111
 40
0.6742716378282376
 40
0.7565997087281883
 40
0.8378563983773627
 40
0.9187511781400207
 40
0.9999999999999999
 40
0.9999999999999999
 40
0.9999999999999999
 40
0.9999999999999999
 10
96.99371697737541
 20
107.9968084289528
 30
0.0
 10
96.9522254576593
 20
107.9384726426282
 30
0.0
 10
96.86975418476648
 20
107.8225205978173
 30
0.0
 10
96.73689542733305
 20
107.6567219957897
 30
0.0
 10
96.59836385456106
 20
107.498358033752
 30
0.0
 10
96.45346431092388
 20
107.3478484001465
 30
0.0
 10
96.30238065075096
 20
107.2050090916306
 30
0.0
 10
96.14506547258712
 20
107.0698158740679
 30
0.0
 10
95.98153231438003
 20
106.9422032311404
 30
0.0
 10
95.81178237739282
 20
106.8221161470046
 30
0.0
 10
95.63580834725532
 20
106.7095027535547
 30
0.0
 10
95.40932764931125
 20
106.5786927899106
 30
0.0
 10
95.13014713879375
 20
106.4395706342407
 30
0.0
 10
94.79504794266354
 20
106.3060516409117
 30
0.0
 10
94.45428344675611
 20
106.202603544716
 30
0.0
 10
94.10788540100364
 20
106.1297069206121
 30
0.0
 10
93.75599542248968
 20
106.0845121268454
 30
0.0
 10
93.51882520063276
 20
106.0793336917225
 30
0.0
 10
93.39998115798598
 20
106.0767388205799
 30
0.0
  0
SPLINE
  5
FC
330
1F
100
AcDbEntity
  8
0
  6
Continuous
 62
     7
370
    25
100
AcDbSpline
210
0.0
220
0.0
230
1.0
 70
     8
 71
     3
 72
     8
 73
     4
 74
     0
 42
0.000000001
 43
0.00000001
 40
0.0
 40
0.0
 40
0.0
 40
0.0
 40
1.0
 40
1.0
 40
1.0
 40
1.0
 10
101.4026887855305
 20
108.0012291437725
 30
0.0
 10
99.93251412474913
 20
107.9997685233374
 30
0.0
 10
98.46233946396772
 20
107.9986074716784
 30
0.0
 10
96.99216480318631
 20
107.9977455417789
 30
0.0
  0
SPLINE
  5
FD
330
1F
100
AcDbEntity
  8
0
  6
Continuous
 62
     7
370
    25
100
AcDbSpline
210
0.0
220
0.0
230
1.0
 70
     8
 71
     3
 72
    18
 73
    14
 74
     0
 42
0.000000001
 43
0.00000001
 40
0.0
 40
0.0
 40
0.0
 40
0.0
 40
0.0923824559461122
 40
0.1844689291660427
 40
0.2764953616062392
 40
0.3686975365619641
 40
0.4613092840130473
 40
0.5545607518559533
 40
0.6486768051632873
 40
0.7438756050210469
 40
0.8403674044324065
 40
0.9203921078135461
 40
1.0
 40
1.0
 40
1.0
 40
1.0
 10
103.5979176303842
 20
107.4675951300087
 30
0.0
 10
103.5275873268666
 20
107.4680117544391
 30
0.0
 10
103.3871520500064
 20
107.4688436684834
 30
0.0
 10
103.1767895235141
 20
107.4824525154155
 30
0.0
 10
102.9673458605252
 20
107.5051192727197
 30
0.0
 10
102.7587961904033
 20
107.5377200627728
 30
0.0
 10
102.5511525721763
 20
107.5800225404445
 30
0.0
 10
102.3444143882291
 20
107.6320939426774
 30
0.0
 10
102.1385922826802
 20
107.6939427019798
 30
0.0
 10
101.9336606555038
 20
107.7655407648692
 30
0.0
 10
101.7423709886461
 20
107.842042579933
 30
0.0
 10
101.5650183910654
 20
107.9204790067231
 30
0.0
 10
101.457038047538
 20
107.9741889604221
 30
0.0
 10
101.4031888476599
 20
108.0009738171628
 30
0.0
  0
LINE
  5
FE
330
1F
100
AcDbEntity
  8
0
  6
Continuous
 62
     7
370
    25
100
AcDbLine
 10
105.5127912799
 20
107.4690908632
 30
0.0
 11
103.5979175607
 21
107.4675951592
 31
0.0
  0
SPLINE
  5
FF
330
1F
100
AcDbEntity
  8
0
  6
Continuous
 62
     7
370
    25
100
AcDbSpline
210
0.0
220
0.0
230
1.0
 70
     8
 71
     3
 72
    25
 73
    21
 74
     0
 42
0.000000001
 43
0.00000001
 40
0.0
 40
0.0
 40
0.0
 40
0.0
 40
0.0280105225426455
 40
0.0559601148860774
 40
0.0839014045043129
 40
0.1118870776786379
 40
0.1399695827588941
 40
0.1682008401739877
 40
0.1966319670424218
 40
0.2253130233141493
 40
0.2542927850735863
 40
0.3799486436570518
 40
0.505785022166658
 40
0.6313085886329272
 40
0.7532068238012843
 40
0.8039473267959846
 40
0.8535894438560211
 40
0.902533972239985
 40
0.9511970353794947
 40
1.0
 40
1.0
 40
1.0
 40
1.0
 10
110.4526752160765
 20
112.6029543693839
 30
0.0
 10
110.4527124378103
 20
112.5283343423704
 30
0.0
 10
110.452786800311
 20
112.3792566063832
 30
0.0
 10
110.4403707496645
 20
112.1566385154168
 30
0.0
 10
110.4187661893107
 20
111.9353140973879
 30
0.0
 10
110.3870807196507
 20
111.7153458314993
 30
0.0
 10
110.3455545813308
 20
111.4967555442703
 30
0.0
 10
110.2941238256009
 20
111.279573605866
 30
0.0
 10
110.2328099508897
 20
111.0638321859812
 30
0.0
 10
110.1615996153902
 20
110.8495422945312
 30
0.0
 10
109.9907630081867
 20
110.4011925215114
 30
0.0
 10
109.6530307747498
 20
109.747861693441
 30
0.0
 10
109.0414761105536
 20
108.9759684828007
 30
0.0
 10
108.3052412754053
 20
108.3318088574126
 30
0.0
 10
107.6187552037553
 20
107.9401676893521
 30
0.0
 10
107.0700510576034
 20
107.7214727883855
 30
0.0
 10
106.688014879097
 20
107.6056167395548
 30
0.0
 10
106.3008487803926
 20
107.5247088340248
 30
0.0
 10
105.9086221116077
 20
107.4754804032267
 30
0.0
 10
105.6448608434941
 20
107.4712225482113
 30
0.0
 10
105.5127909096736
 20
107.4690905648685
 30
0.0
  0
LINE
  5
100
330
1F
100
AcDbEntity
  8
0
  6
Continuous
 62
     7
370
    25
100
AcDbLine
 10
110.4526752273
 20
121.3523053072
 30
0.0
 11
110.4526752273
 21
112.6029544017
 31
0.0
  0
SPLINE
  5
101
330
1F
100
AcDbEntity
  8
0
  6
Continuous
 62
     7
370
    25
100
AcDbSpline
210
0.0
220
0.0
230
1.0
 70
     8
 71
     3
 72
    26
 73
    22
 74
     0
 42
0.000000001
 43
0.00000001
 40
0.0
 40
0.0
 40
0.0
 40
0.0
 40
0.0241259796963637
 40
0.048215991227299
 40
0.0723203915124064
 40
0.0964895678710793
 40
0.120773623196351
 40
0.1452220711242841
 40
0.1698835501657706
 40
0.1948055644472381
 40
0.2200342569517629
 40
0.2456142191611394
 40
0.3690971486901671
 40
0.4940698769485191
 40
0.6192566784762444
 40
0.7454656653603234
 40
0.7971495824713715
 40
0.8481710308405401
 40
0.8988013269235245
 40
0.9493179290492194
 40
1.0
 40
1.0
 40
1.0
 40
1.0
 10
105.5127909096736
 20
126.4861691440367
 30
0.0
 10
105.5780399682232
 20
126.4855953576579
 30
0.0
 10
105.7084408089023
 20
126.4844486403284
 30
0.0
 10
105.9034206271986
 20
126.4723312638355
 30
0.0
 10
106.0975497644622
 20
126.4525727423738
 30
0.0
 10
106.2908111045564
 20
126.424410560153
 30
0.0
 10
106.4832062830307
 20
126.3880194641047
 30
0.0
 10
106.6747318615317
 20
126.3433183786273
 30
0.0
 10
106.8653873939171
 20
126.2902899072432
 30
0.0
 10
107.0551673930155
 20
126.2288988858166
 30
0.0
 10
107.2440860136713
 20
126.1590966793368
 30
0.0
 10
107.670830426842
 20
125.9815676091214
 30
0.0
 10
108.3053027540227
 20
125.6270070062237
 30
0.0
 10
109.0449786063686
 20
124.9848351925335
 30
0.0
 10
109.651725849204
 20
124.2116698887526
 30
0.0
 10
110.0125176654224
 20
123.5042544804926
 30
0.0
 10
110.2146917211866
 20
122.9397470812671
 30
0.0
 10
110.3215151771719
 20
122.5508602197185
 30
0.0
 10
110.3971258934701
 20
122.1563774658503
 30
0.0
 10
110.4442885661614
 20
121.75657137566
 30
0.0
 10
110.4498766204497
 20
121.4872074961955
 30
0.0
 10
110.4526752160765
 20
121.3523053395212
 30
0.0
  0
LINE
  5
102
330
1F
100
AcDbEntity
  8
0
  6
Continuous
 62
     7
370
    25
100
AcDbLine
 10
103.5979175607
 20
126.4876645497
 30
0.0
 11
105.5127912799
 21
126.4861688457
 31
0.0
  0
SPLINE
  5
103
330
1F
100
AcDbEntity
  8
0
  6
Continuous
 62
     7
370
    25
100
AcDbSpline
210
0.0
220
0.0
230
1.0
 70
     8
 71
     3
 72
    14
 73
    10
 74
     0
 42
0.000000001
 43
0.00000001
 40
0.0
 40
0.0
 40
0.0
 40
0.0
 40
0.0789261963152472
 40
0.1582328720511064
 40
0.3308475394503796
 40
0.5000195457530386
 40
0.6670357883499396
 40
0.8332395193610692
 40
1.0
 40
1.0
 40
1.0
 40
1.0
 10
101.4017054043177
 20
125.9536176242858
 30
0.0
 10
101.4551009273591
 20
125.9802238735607
 30
0.0
 10
101.5621493771763
 20
126.0335646328248
 30
0.0
 10
101.7912200917334
 20
126.135194111465
 30
0.0
 10
102.0900928299254
 20
126.24927374384
 30
0.0
 10
102.4622359047215
 20
126.3578801772965
 30
0.0
 10
102.837865703753
 20
126.4342144627424
 30
0.0
 10
103.2170580157877
 20
126.4810319200962
 30
0.0
 10
103.4708229853404
 20
126.4854512294533
 30
0.0
 10
103.5979176303842
 20
126.4876645788965
 30
0.0
  0
SPLINE
  5
104
330
1F
100
AcDbEntity
  8
0
  6
Continuous
 62
     7
370
    25
100
AcDbSpline
210
0.0
220
0.0
230
1.0
 70
     8
 71
     3
 72
     8
 73
     4
 74
     0
 42
0.000000001
 43
0.00000001
 40
0.0
 40
0.0
 40
0.0
 40
0.0
 40
1.0
 40
1.0
 40
1.0
 40
1.0
 10
96.00941168066743
 20
125.9577397811881
 30
0.0
 10
97.80674836604364
 20
125.9567656747642
 30
0.0
 10
99.60408505141986
 20
125.9553435390144
 30
0.0
 10
101.4014217367961
 20
125.9534725525458
 30
0.0
  0
SPLINE
  5
105
330
1F
100
AcDbEntity
  8
0
  6
Continuous
 62
     7
370
    25
100
AcDbSpline
210
0.0
220
0.0
230
1.0
 70
     8
 71
     3
 72
    13
 73
     9
 74
     0
 42
0.000000001
 43
0.00000001
 40
0.0
 40
0.0
 40
0.0
 40
0.0
 40
0.1667030582307959
 40
0.3329480818053031
 40
0.4990671507274871
 40
0.6653938523718408
 40
0.8322612710550125
 40
1.0
 40
1.0
 40
1.0
 40
1.0
 10
94.92590751582203
 20
126.0951668307559
 30
0.0
 10
94.98701455857336
 20
126.0943326112244
 30
0.0
 10
95.10906074587653
 20
126.0926664642696
 30
0.0
 10
95.29139569114024
 20
126.0806375066168
 30
0.0
 10
95.47269990401394
 20
126.0616480420324
 30
0.0
 10
95.65289876405059
 20
126.0348288278131
 30
0.0
 10
95.8322027421889
 20
126.0009930205659
 30
0.0
 10
95.95023476776029
 20
125.9721675502871
 30
0.0
 10
96.00940445751193
 20
125.957717284564
 30
0.0
  0
SPLINE
  5
106
330
1F
100
AcDbEntity
  8
0
  6
Continuous
 62
     7
370
    25
100
AcDbSpline
210
0.0
220
0.0
230
1.0
 70
     8
 71
     3
 72
     8
 73
     4
 74
     0
 42
0.000000001
 43
0.00000001
 40
0.0
 40
0.0
 40
0.0
 40
0.0
 40
1.0
 40
1.0
 40
1.0
 40
1.0
 10
89.10773306288783
 20
126.099956565606
 30
0.0
 10
91.04712454719923
 20
126.0989091131303
 30
0.0
 10
92.98651603151063
 20
126.0973129266056
 30
0.0
 10
94.92590751582205
 20
126.0951668307559
 30
0.0
  0
LINE
  5
107
330
1F
100
AcDbEntity
  8
0
  6
Continuous
 62
     7
370
    25
100
AcDbLine
 10
89.1077341179
 20
126.0999568246
 30
0.0
 11
89.1077341179
 21
140.046750798
 31
0.0
  0
SPLINE
  5
108
330
1F
100
AcDbEntity
  8
0
  6
Continuous
 62
     7
370
    25
100
AcDbSpline
210
0.0
220
0.0
230
1.0
 70
     8
 71
     3
 72
    24
 73
    20
 74
     0
 42
0.000000001
 43
0.00000001
 40
0.0
 40
0.0
 40
0.0
 40
0.0
 40
0.0607845451296407
 40
0.1248046360965166
 40
0.1880736642923821
 40
0.2506536944642078
 40
0.3129374270624571
 40
0.3747588850641116
 40
0.4371053349657547
 40
0.4977639019418345
 40
0.5591913128303959
 40
0.6209011577381788
 40
0.6826271159280655
 40
0.7453344255371981
 40
0.8078840402472991
 40
0.8712333803613398
 40
0.9348869687710366
 40
0.9979954054018167
 40
1.0
 40
1.0
 40
1.0
 40
1.0
 10
113.0713726992128
 20
141.2484605304122
 30
0.0
 10
113.0456608856738
 20
141.2380574403317
 30
0.0
 10
112.9928686253175
 20
141.2166975063384
 30
0.0
 10
112.5196378760639
 20
141.03429083285
 30
0.0
 10
111.8008327343452
 20
140.7653447803214
 30
0.0
 10
110.8236519900641
 20
140.4372486252542
 30
0.0
 10
109.6396896290016
 20
140.0933781915085
 30
0.0
 10
108.2713873411026
 20
139.7757173992355
 30
0.0
 10
106.7836760752327
 20
139.5212089508359
 30
0.0
 10
105.2140164949178
 20
139.3699945698577
 30
0.0
 10
103.6377739999392
 20
139.3364529232326
 30
0.0
 10
102.1184598436099
 20
139.4220251188964
 30
0.0
 10
100.7175856283104
 20
139.5962329375669
 30
0.0
 10
99.49890583390133
 20
139.8258586022374
 30
0.0
 10
98.49333300500054
 20
140.0640761046299
 30
0.0
 10
97.74015166856142
 20
140.2756968642587
 30
0.0
 10
97.29320810750991
 20
140.4081166219905
 30
0.0
 10
97.10953131956555
 20
140.4657841082335
 30
0.0
 10
97.16106886683016
 20
140.4500363531994
 30
0.0
 10
97.16265552140453
 20
140.4495515368104
 30
0.0
  0
SPLINE
  5
109
330
1F
100
AcDbEntity
  8
0
  6
Continuous
 62
     7
370
    25
100
AcDbSpline
210
0.0
220
0.0
230
1.0
 70
     8
 71
     3
 72
    24
 73
    20
 74
     0
 42
0.000000001
 43
0.00000001
 40
0.0
 40
0.0
 40
0.0
 40
0.0
 40
0.0018911184661179
 40
0.0649665885217893
 40
0.1287875560009952
 40
0.1921372900365662
 40
0.2545996475903032
 40
0.3167128323446347
 40
0.3787563804671794
 40
0.440851011115251
 40
0.501718739255822
 40
0.5623721854420992
 40
0.6248484186975057
 40
0.6868048398220544
 40
0.7491642775858319
 40
0.8116886268192671
 40
0.8748496752066125
 40
0.9387002417378669
 40
1.0
 40
1.0
 40
1.0
 40
1.0
 10
97.16266110933998
 20
93.50561317719222
 30
0.0
 10
97.16115442747169
 20
93.50515535935298
 30
0.0
 10
97.10939459183784
 20
93.48942770203683
 30
0.0
 10
97.29300530645148
 20
93.547003917142
 30
0.0
 10
97.74087903148417
 20
93.67926032016541
 30
0.0
 10
98.49390457899814
 20
93.89086872988797
 30
0.0
 10
99.49385007927872
 20
94.12858573492362
 30
0.0
 10
100.7124092930784
 20
94.35662620860538
 30
0.0
 10
102.1159196002872
 20
94.52881075683403
 30
0.0
 10
103.6331674844999
 20
94.61693421412649
 30
0.0
 10
105.2074168928304
 20
94.58587282067774
 30
0.0
 10
106.7732503848532
 20
94.43485172914984
 30
0.0
 10
108.2631028022793
 20
94.18051563911034
 30
0.0
 10
109.6347904826071
 20
93.86277598000048
 30
0.0
 10
110.8206876760535
 20
93.51886970930845
 30
0.0
 10
111.7983814324944
 20
93.19099104419803
 30
0.0
 10
112.5175348522747
 20
92.92220662410537
 30
0.0
 10
112.991474112829
 20
92.73910455907696
 30
0.0
 10
113.045733078689
 20
92.71711775391357
 30
0.0
 10
113.0723096097229
 20
92.70634841836691
 30
0.0
  0
LINE
  5
10A
330
1F
100
AcDbEntity
  8
0
  6
Continuous
 62
     7
370
    25
100
AcDbLine
 10
110.4526752273
 20
112.6029544017
 30
0.0
 11
109.5577338377
 21
112.7651297926
 31
0.0
  0
LINE
  5
10B
330
1F
100
AcDbEntity
  8
0
  6
Continuous
 62
     7
370
    25
100
AcDbLine
 10
109.5577338377
 20
112.7651297926
 30
0.0
 11
109.5577338377
 21
121.1901299163
 31
0.0
  0
LINE
  5
10C
330
1F
100
AcDbEntity
  8
0
  6
Continuous
 62
     7
370
    25
100
AcDbLine
 10
110.4526752273
 20
121.3523053072
 30
0.0
 11
109.5577338377
 21
121.1901299163
 31
0.0
  0
SPLINE
  5
10D
330
1F
100
AcDbEntity
  8
0
  6
Continuous
 62
     7
370
    25
100
AcDbSpline
210
0.0
220
0.0
230
1.0
 70
     8
 71
     3
 72
    25
 73
    21
 74
     0
 42
0.000000001
 43
0.00000001
 40
0.0
 40
0.0
 40
0.0
 40
0.0
 40
0.0288821753105771
 40
0.058363659400572
 40
0.088464720430548
 40
0.1192044006616737
 40
0.1506005800085666
 40
0.1826700399669859
 40
0.2154285269576224
 40
0.2488908143379852
 40
0.3610594471136693
 40
0.4984670131067402
 40
0.5822693905005265
 40
0.6661127642780991
 40
0.7499972937224167
 40
0.8007709755018199
 40
0.8511237700786715
 40
0.9010896024485537
 40
0.9507031914094952
 40
1.0
 40
1.0
 40
1.0
 40
1.0
 10
105.5577330628751
 20
108.7651298544526
 30
0.0
 10
105.6205335161114
 20
108.7659863384044
 30
0.0
 10
105.7474375399073
 20
108.7677170784579
 30
0.0
 10
105.9387919476168
 20
108.7818669438609
 30
0.0
 10
106.1326967602924
 20
108.8050040261813
 30
0.0
 10
106.32859748102
 20
108.8384151784058
 30
0.0
 10
106.5259351490253
 20
108.882289000438
 30
0.0
 10
106.7240884908135
 20
108.9370842714074
 30
0.0
 10
106.9224042348266
 20
109.0031532327721
 30
0.0
 10
107.2737252223178
 20
109.1411345650203
 30
0.0
 10
107.7988369926431
 20
109.4211865038587
 30
0.0
 10
108.3358288211321
 20
109.8597771062642
 30
0.0
 10
108.7478885511818
 20
110.3336372278238
 30
0.0
 10
109.0348071392342
 20
110.7653209756436
 30
0.0
 10
109.23323382644
 20
111.1684442174008
 30
0.0
 10
109.3653197004871
 20
111.5261803781753
 30
0.0
 10
109.4509535802846
 20
111.8289327804531
 30
0.0
 10
109.5120357916387
 20
112.1374210906986
 30
0.0
 10
109.5505367350056
 20
112.4497328008595
 30
0.0
 10
109.5553394140993
 20
112.6602222147654
 30
0.0
 10
109.5577330628751
 20
112.7651298544526
 30
0.0
  0
SPLINE
  5
10E
330
1F
100
AcDbEntity
  8
0
  6
Continuous
 62
     7
370
    25
100
AcDbSpline
210
0.0
220
0.0
230
1.0
 70
     8
 71
     3
 72
    25
 73
    21
 74
     0
 42
0.000000001
 43
0.00000001
 40
0.0
 40
0.0
 40
0.0
 40
0.0
 40
0.0274788704220519
 40
0.0560416006846
 40
0.0856947086346483
 40
0.1164440166532229
 40
0.1482947438675477
 40
0.1812515840465501
 40
0.2153187716746058
 40
0.2505001382254875
 40
0.3330514552513183
 40
0.5015081958163713
 40
0.5771663066143402
 40
0.6488981303024295
 40
0.7167477700061697
 40
0.7807674423486859
 40
0.8410194131339161
 40
0.897578484992366
 40
0.9505352047787778
 40
1.0
 40
1.0
 40
1.0
 40
1.0
 10
109.5577330628751
 20
121.1901298544526
 30
0.0
 10
109.556991611267
 20
121.248494263487
 30
0.0
 10
109.5554794626848
 20
121.3675251717835
 30
0.0
 10
109.5429833216143
 20
121.5483061658997
 30
0.0
 10
109.5220637176499
 20
121.7345693841413
 30
0.0
 10
109.4911429761052
 20
121.9257414726909
 30
0.0
 10
109.4496183314555
 20
122.1212484119177
 30
0.0
 10
109.3966181456381
 20
122.3204097640334
 30
0.0
 10
109.3313889658211
 20
122.5224280431917
 30
0.0
 10
109.2187989390856
 20
122.8159616576956
 30
0.0
 10
108.9587785481078
 20
123.3444944835247
 30
0.0
 10
108.5476991549536
 20
123.8844337431814
 30
0.0
 10
108.0633645866813
 20
124.3192530926132
 30
0.0
 10
107.698209882002
 20
124.5786602340742
 30
0.0
 10
107.325374812884
 20
124.7864103887239
 30
0.0
 10
106.9521272505581
 20
124.9461316563609
 30
0.0
 10
106.5848379402241
 20
125.0621689086622
 30
0.0
 10
106.2286451374011
 20
125.138376025967
 30
0.0
 10
105.8878064362551
 20
125.1823810879566
 30
0.0
 10
105.665228016157
 20
125.1876063146592
 30
0.0
 10
105.5577330628751
 20
125.1901298544526
 30
0.0
  0
LINE
  5
10F
330
1F
100
AcDbEntity
  8
0
  6
Continuous
 62
     7
370
    25
100
AcDbLine
 10
103.5979175607
 20
126.4876645497
 30
0.0
 11
103.6428594629
 21
125.1901301063
 31
0.0
  0
SPLINE
  5
110
330
1F
100
AcDbEntity
  8
0
  6
Continuous
 62
     7
370
    25
100
AcDbSpline
210
0.0
220
0.0
230
1.0
 70
     8
 71
     3
 72
    13
 73
     9
 74
     0
 42
0.000000001
 43
0.00000001
 40
0.0
 40
0.0
 40
0.0
 40
0.0
 40
0.1618542298650875
 40
0.3254858841233149
 40
0.4910085196246548
 40
0.6585318472470939
 40
0.8281616954004768
 40
1.0
 40
1.0
 40
1.0
 40
1.0
 10
103.6428597835856
 20
125.1901298544526
 30
0.0
 10
103.5836379527847
 20
125.1893709783492
 30
0.0
 10
103.4645439385369
 20
125.1878448924404
 30
0.0
 10
103.2849314625976
 20
125.1753509612001
 30
0.0
 10
103.1039024216877
 20
125.1551186923289
 30
0.0
 10
102.9218964278932
 20
125.1259647471205
 30
0.0
 10
102.739112183907
 20
125.0886040364576
 30
0.0
 10
102.6184631530239
 20
125.0563603256846
 30
0.0
 10
102.5577484868057
 20
125.040134201671
 30
0.0
  0
SPLINE
  5
111
330
1F
100
AcDbEntity
  8
0
  6
Continuous
 62
     7
370
    25
100
AcDbSpline
210
0.0
220
0.0
230
1.0
 70
    24
 71
     3
 72
     9
 73
     5
 74
     0
 42
0.000000001
 43
0.00000001
 40
0.0
 40
0.0
 40
0.0
 40
0.0
 40
0.4907282259506041
 40
1.0
 40
1.0
 40
1.0
 40
1.0
 10
102.5578044837171
 20
125.0401298544526
 30
0.0
 10
102.5038990254866
 20
125.0401298544526
 30
0.0
 10
102.3940511394678
 20
125.0401298544526
 30
0.0
 10
102.2861086633587
 20
125.0401298544526
 30
0.0
 10
102.2311366070554
 20
125.0401298544526
 30
0.0
  0
SPLINE
  5
112
330
1F
100
AcDbEntity
  8
0
  6
Continuous
 62
     7
370
    25
100
AcDbSpline
210
0.0
220
0.0
230
1.0
 70
     8
 71
     3
 72
    14
 73
    10
 74
     0
 42
0.000000001
 43
0.00000001
 40
0.0
 40
0.0
 40
0.0
 40
0.0
 40
0.0310276388093398
 40
0.0622853718693698
 40
0.1248003166924349
 40
0.2498289731770658
 40
0.4998892603621822
 40
0.7606803621577949
 40
1.0
 40
1.0
 40
1.0
 40
1.0
 10
101.40247221154
 20
125.9536062036839
 30
0.0
 10
101.4107622370795
 20
125.9440383591267
 30
0.0
 10
101.427403765193
 20
125.9248317169489
 30
0.0
 10
101.4606536215721
 20
125.8862430889527
 30
0.0
 10
101.5191561671724
 20
125.8187131960452
 30
0.0
 10
101.6366924610224
 20
125.6838756783216
 30
0.0
 10
101.809619984771
 20
125.4889423285911
 30
0.0
 10
102.0172675069228
 20
125.2606533047956
 30
0.0
 10
102.1610780904336
 20
125.1110836787829
 30
0.0
 10
102.2298962421666
 20
125.0395096334915
 30
0.0
  0
SPLINE
  5
113
330
1F
100
AcDbEntity
  8
0
  6
Continuous
 62
     7
370
    25
100
AcDbSpline
210
0.0
220
0.0
230
1.0
 70
     8
 71
     3
 72
    13
 73
     9
 74
     0
 42
0.000000001
 43
0.00000001
 40
0.0
 40
0.0
 40
0.0
 40
0.0
 40
0.1722587823402174
 40
0.3421398270982735
 40
0.5097456257612809
 40
0.6751828993009421
 40
0.8385626189970466
 40
1.0
 40
1.0
 40
1.0
 40
1.0
 10
102.5577514317853
 20
108.9151246772024
 30
0.0
 10
102.618614821448
 20
108.8988609495054
 30
0.0
 10
102.7395014858775
 20
108.8665579870287
 30
0.0
 10
102.9225626438316
 20
108.8291703323368
 30
0.0
 10
103.1046653267659
 20
108.8000373974253
 30
0.0
 10
103.2856067750884
 20
108.7798506818169
 30
0.0
 10
103.4649457788028
 20
108.7674038775131
 30
0.0
 10
103.5837920072325
 20
108.7658848342853
 30
0.0
 10
103.6428597835856
 20
108.7651298544526
 30
0.0
  0
LINE
  5
114
330
1F
100
AcDbEntity
  8
0
  6
Continuous
 62
     7
370
    25
100
AcDbLine
 10
103.5979175607
 20
107.4675951592
 30
0.0
 11
103.6428594629
 21
108.7651296026
 31
0.0
  0
SPLINE
  5
115
330
1F
100
AcDbEntity
  8
0
  6
Continuous
 62
     7
370
    25
100
AcDbSpline
210
0.0
220
0.0
230
1.0
 70
     8
 71
     3
 72
    11
 73
     7
 74
     0
 42
0.000000001
 43
0.00000001
 40
0.0
 40
0.0
 40
0.0
 40
0.0
 40
0.239284509383631
 40
0.5001120454057238
 40
0.7515010915050501
 40
1.0
 40
1.0
 40
1.0
 40
1.0
 10
102.2311647738561
 20
108.9157014268459
 30
0.0
 10
102.1623551408737
 20
108.8441057287399
 30
0.0
 10
102.0185408739868
 20
108.6944684993417
 30
0.0
 10
101.8108391411751
 20
108.4654119708348
 30
0.0
 10
101.6028988294518
 20
108.2329499834789
 30
0.0
 10
101.4699306198152
 20
108.0780809920883
 30
0.0
 10
101.4038308975564
 20
108.0010941894127
 30
0.0
  0
SPLINE
  5
116
330
1F
100
AcDbEntity
  8
0
  6
Continuous
 62
     7
370
    25
100
AcDbSpline
210
0.0
220
0.0
230
1.0
 70
    24
 71
     3
 72
     9
 73
     5
 74
     0
 42
0.000000001
 43
0.00000001
 40
0.0
 40
0.0
 40
0.0
 40
0.0
 40
0.509066935386983
 40
0.9999999999999999
 40
0.9999999999999999
 40
0.9999999999999999
 40
0.9999999999999999
 10
102.2331128962716
 20
108.9151298544526
 30
0.0
 10
102.2877407589788
 20
108.9151298544526
 30
0.0
 10
102.3950505426433
 20
108.9151298544526
 30
0.0
 10
102.5042320508877
 20
108.9151298544526
 30
0.0
 10
102.5578328633292
 20
108.9151298544526
 30
0.0
  0
LINE
  5
117
330
1F
100
AcDbEntity
  8
0
  6
Continuous
 62
     7
370
    25
100
AcDbLine
 10
96.0093261341
 20
125.9577401421
 30
0.0
 11
95.9838302473
 21
125.0601537964
 31
0.0
  0
LINE
  5
118
330
1F
100
AcDbEntity
  8
0
  6
Continuous
 62
     7
370
    25
100
AcDbLine
 10
102.2311346272
 20
125.0401294298
 30
0.0
 11
96.0577325562
 21
125.0401294298
 31
0.0
  0
SPLINE
  5
119
330
1F
100
AcDbEntity
  8
0
  6
Continuous
 62
     7
370
    25
100
AcDbSpline
210
0.0
220
0.0
230
1.0
 70
     8
 71
     3
 72
     8
 73
     4
 74
     0
 42
0.000000001
 43
0.00000001
 40
0.0
 40
0.0
 40
0.0
 40
0.0
 40
1.0
 40
1.0
 40
1.0
 40
1.0
 10
96.05773306292924
 20
125.0401298544374
 30
0.0
 10
96.03316903350063
 20
125.0470532530614
 30
0.0
 10
96.00853874240242
 20
125.0537415568792
 30
0.0
 10
95.98384670129037
 20
125.06019354076
 30
0.0
  0
LINE
  5
11A
330
1F
100
AcDbEntity
  8
0
  6
Continuous
 62
     7
370
    25
100
AcDbLine
 10
96.8220969329
 20
108.7702071733
 30
0.0
 11
96.9942537735
 21
107.9980373821
 31
0.0
  0
SPLINE
  5
11B
330
1F
100
AcDbEntity
  8
0
  6
Continuous
 62
     7
370
    25
100
AcDbSpline
210
0.0
220
0.0
230
1.0
 70
     8
 71
     3
 72
     8
 73
     4
 74
     0
 42
0.000000001
 43
0.00000001
 40
0.0
 40
0.0
 40
0.0
 40
0.0
 40
1.0
 40
1.0
 40
1.0
 40
1.0
 10
96.8201609062396
 20
108.7708177862754
 30
0.0
 10
96.85036238755936
 20
108.8182986833936
 30
0.0
 10
96.87956177241175
 20
108.8664169869669
 30
0.0
 10
96.9077330628751
 20
108.9151298544527
 30
0.0
  0
LINE
  5
11C
330
1F
100
AcDbEntity
  8
0
  6
Continuous
 62
     7
370
    25
100
AcDbLine
 10
96.9077339063
 20
108.9151302791
 30
0.0
 11
102.232306231
 21
108.9151302791
 31
0.0
  0
LINE
  5
11D
330
1F
100
AcDbEntity
  8
0
  6
Continuous
 62
     7
370
    25
100
AcDbLine
 10
105.5577331821
 20
125.1901301063
 30
0.0
 11
103.6428594629
 21
125.1901301063
 31
0.0
  0
LINE
  5
11E
330
1F
100
AcDbEntity
  8
0
  6
Continuous
 62
     7
370
    25
100
AcDbLine
 10
103.6428594629
 20
108.7651296026
 30
0.0
 11
105.5577331821
 21
108.7651296026
 31
0.0
  0
SPLINE
  5
11F
330
1F
100
AcDbEntity
  8
0
  6
Continuous
 62
     7
370
    25
100
AcDbSpline
210
0.0
220
0.0
230
1.0
 70
     8
 71
     3
 72
    23
 73
    19
 74
     0
 42
0.000000001
 43
0.00000001
 40
0.0
 40
0.0
 40
0.0
 40
0.0
 40
0.0449850911547964
 40
0.0909520670823883
 40
0.1379394291328525
 40
0.1859832248994781
 40
0.235117176177667
 40
0.2853728096486027
 40
0.3367795876649756
 40
0.3893650370847659
 40
0.4431548745955978
 40
0.4981731273942729
 40
0.5575107591414307
 40
0.6265492282208773
 40
0.7053073139958764
 40
0.7937970254642376
 40
0.8920262116484563
 40
1.0
 40
1.0
 40
1.0
 40
1.0
 10
93.44507602672495
 20
106.9176298544526
 30
0.0
 10
93.50791977770123
 20
106.9184876577719
 30
0.0
 10
93.63497896348429
 20
106.9202219875917
 30
0.0
 10
93.82663519623483
 20
106.9344091227954
 30
0.0
 10
94.02100245684316
 20
106.9576346059557
 30
0.0
 10
94.21751916512089
 20
106.9912133463032
 30
0.0
 10
94.4156167688388
 20
107.0353573195348
 30
0.0
 10
94.61466474079899
 20
107.0905522670628
 30
0.0
 10
94.81398374667322
 20
107.1571691294817
 30
0.0
 10
95.01284944350208
 20
107.2355698062938
 30
0.0
 10
95.21046458288306
 20
107.326053897237
 30
0.0
 10
95.40971105006315
 20
107.430845762047
 30
0.0
 10
95.61853952980917
 20
107.5564106985511
 30
0.0
 10
95.84335062603927
 20
107.7119246971622
 30
0.0
 10
96.08511735498752
 20
107.9064938123708
 30
0.0
 10
96.33633206369689
 20
108.1459834798019
 30
0.0
 10
96.59133054783655
 20
108.433823889528
 30
0.0
 10
96.74170267667168
 20
108.6552922992162
 30
0.0
 10
96.8204418338025
 20
108.7712595070029
 30
0.0
  0
SPLINE
  5
120
330
1F
100
AcDbEntity
  8
0
  6
Continuous
 62
     7
370
    25
100
AcDbSpline
210
0.0
220
0.0
230
1.0
 70
     8
 71
     3
 72
    13
 73
     9
 74
     0
 42
0.000000001
 43
0.00000001
 40
0.0
 40
0.0
 40
0.0
 40
0.0
 40
0.1706320847381217
 40
0.3395984166493647
 40
0.5069574113007884
 40
0.672769183166934
 40
0.8370955448651839
 40
1.0
 40
1.0
 40
1.0
 40
1.0
 10
95.98383982501545
 20
125.0601953375112
 30
0.0
 10
95.92778589476784
 20
125.0740980836809
 30
0.0
 10
95.81622524667358
 20
125.1017678539562
 30
0.0
 10
95.64697951426476
 20
125.1340233708751
 30
0.0
 10
95.47783442533347
 20
125.1593608311892
 30
0.0
 10
95.30889916336527
 20
125.1770737068587
 30
0.0
 10
95.14057093115129
 20
125.1880977638095
 30
0.0
 10
95.02843211397844
 20
125.1894544559699
 30
0.0
 10
94.97260634216451
 20
125.1901298544526
 30
0.0
  0
SPLINE
  5
121
330
1F
100
AcDbEntity
  8
0
  6
Continuous
 62
     7
370
    25
100
AcDbSpline
210
0.0
220
0.0
230
1.0
 70
     8
 71
     3
 72
     8
 73
     4
 74
     0
 42
0.000000001
 43
0.00000001
 40
0.0
 40
0.0
 40
0.0
 40
0.0
 40
1.0
 40
1.0
 40
1.0
 40
1.0
 10
88.19407324129746
 20
125.7176315983782
 30
0.0
 10
88.49862651500634
 20
125.8438209450173
 30
0.0
 10
88.80317978871521
 20
125.9712657012804
 30
0.0
 10
89.1077330624241
 20
126.0999565658286
 30
0.0
  0
LINE
  5
122
330
1F
100
AcDbEntity
  8
0
  6
Continuous
 62
     7
370
    25
100
AcDbLine
 10
94.9726076464
 20
125.1901301063
 30
0.0
 11
89.1077341179
 21
125.1901301063
 31
0.0
  0
LINE
  5
123
330
1F
100
AcDbEntity
  8
0
  6
Continuous
 62
     7
370
    25
100
AcDbLine
 10
89.1077341179
 20
125.1901301063
 30
0.0
 11
88.1940731446
 21
125.7176312125
 31
0.0
  0
SPLINE
  5
124
330
1F
100
AcDbEntity
  8
0
  6
Continuous
 62
     7
370
    25
100
AcDbSpline
210
0.0
220
0.0
230
1.0
 70
    24
 71
     3
 72
     8
 73
     4
 74
     0
 42
0.000000001
 43
0.00000001
 40
0.0
 40
0.0
 40
0.0
 40
0.0
 40
1.0
 40
1.0
 40
1.0
 40
1.0
 10
87.60773306287506
 20
126.056155258237
 30
0.0
 10
87.80228019540795
 20
125.9438334188991
 30
0.0
 10
87.99774121564714
 20
125.830983946248
 30
0.0
 10
88.19407324130447
 20
125.7176315983841
 30
0.0
  0
LINE
  5
125
330
1F
100
AcDbEntity
  8
0
  6
Continuous
 62
     7
370
    25
100
AcDbLine
 10
87.6077348033
 20
126.0561548612
 30
0.0
 11
87.6077348033
 21
139.1807251117
 31
0.0
  0
LINE
  5
126
330
1F
100
AcDbEntity
  8
0
  6
Continuous
 62
     7
370
    25
100
AcDbLine
 10
88.2475981156
 20
106.4210316605
 30
0.0
 11
89.1077341179
 21
106.9176296211
 31
0.0
  0
LINE
  5
127
330
1F
100
AcDbEntity
  8
0
  6
Continuous
 62
     7
370
    25
100
AcDbLine
 10
89.1077341179
 20
106.9176296211
 30
0.0
 11
93.4450747112
 21
106.9176296211
 31
0.0
  0
SPLINE
  5
128
330
1F
100
AcDbEntity
  8
0
  6
Continuous
 62
     7
370
    25
100
AcDbSpline
210
0.0
220
0.0
230
1.0
 70
     8
 71
     3
 72
     8
 73
     4
 74
     0
 42
0.000000001
 43
0.00000001
 40
0.0
 40
0.0
 40
0.0
 40
0.0
 40
1.0
 40
1.0
 40
1.0
 40
1.0
 10
89.10773306263481
 20
106.072651713935
 30
0.0
 10
88.821021785766
 20
106.1895526521487
 30
0.0
 10
88.53431050889724
 20
106.3056806732133
 30
0.0
 10
88.24759923202843
 20
106.4210313556742
 30
0.0
  0
SPLINE
  5
129
330
1F
100
AcDbEntity
  8
0
  6
Continuous
 62
     7
370
    25
100
AcDbSpline
210
0.0
220
0.0
230
1.0
 70
     8
 71
     3
 72
     8
 73
     4
 74
     0
 42
0.000000001
 43
0.00000001
 40
0.0
 40
0.0
 40
0.0
 40
0.0
 40
1.0
 40
1.0
 40
1.0
 40
1.0
 10
140.7919308674452
 20
87.44088252148721
 30
0.0
 10
140.4565202420213
 20
88.09914957379644
 30
0.0
 10
140.1246779229115
 20
88.75820601177783
 30
0.0
 10
139.7984441879276
 20
89.41814638319909
 30
0.0
  0
LWPOLYLINE
  5
12A
330
1F
100
AcDbEntity
  8
0
  6
Continuous
 62
     7
370
    25
100
AcDbPolyline
 90
        9
 70
   128
 43
0.0
 10
139.7984437311
 20
89.4181464306
 10
140.6361637304
 20
89.5912979237
 10
141.3810616026
 20
89.8495741627
 10
141.9990490789
 20
90.1811585269
 10
142.4618465493
 20
90.5708760462
 10
142.7482776011
 20
91.0008918933
 10
142.8452329377
 20
91.4515309475
 10
142.7482776011
 20
91.9021700016
 10
142.5699824134
 20
92.202694758
  0
LINE
  5
12B
330
1F
100
AcDbEntity
  8
0
  6
Continuous
 62
     7
370
    25
100
AcDbLine
 10
87.6077348033
 20
94.7745345972
 30
0.0
 11
87.6077348033
 21
106.0516048662
 31
0.0
  0
SPLINE
  5
12C
330
1F
100
AcDbEntity
  8
0
  6
Continuous
 62
     7
370
    25
100
AcDbSpline
210
0.0
220
0.0
230
1.0
 70
    24
 71
     3
 72
     8
 73
     4
 74
     0
 42
0.000000001
 43
0.00000001
 40
0.0
 40
0.0
 40
0.0
 40
0.0
 40
1.0
 40
1.0
 40
1.0
 40
1.0
 10
88.24759923202843
 20
106.4210313556742
 30
0.0
 10
88.0329336731887
 20
106.2970941374924
 30
0.0
 10
87.8196189648505
 20
106.1739368332112
 30
0.0
 10
87.60773306287506
 20
106.0516044506682
 30
0.0
  0
ARC
  5
12D
330
1F
100
AcDbEntity
  8
0
  6
Continuous
 62
     7
370
    25
100
AcDbCircle
 10
135.7883170592
 20
91.44477993
 30
0.0
 40
1.386778252398802
100
AcDbArc
 50
117.5067796727
 51
245.5898588898
  0
SPLINE
  5
12E
330
1F
100
AcDbEntity
  8
0
  6
Continuous
 62
     7
370
    25
100
AcDbSpline
210
0.0
220
0.0
230
1.0
 70
     8
 71
     3
 72
     8
 73
     4
 74
     0
 42
0.000000001
 43
0.00000001
 40
0.0
 40
0.0
 40
0.0
 40
0.0
 40
1.0
 40
1.0
 40
1.0
 40
1.0
 10
135.215209396727
 20
90.18196526387509
 30
0.0
 10
134.858756131796
 20
89.43780129069057
 30
0.0
 10
134.4934226390346
 20
88.695062064801
 30
0.0
 10
134.123535258305
 20
87.95363093990441
 30
0.0
  0
LINE
  5
12F
330
1F
100
AcDbEntity
  8
0
  6
Continuous
 62
     7
370
    25
100
AcDbLine
 10
135.5827329347
 20
143.0723328582
 30
0.0
 11
135.5827329347
 21
142.9875694654
 31
0.0
  0
SPLINE
  5
130
330
1F
100
AcDbEntity
  8
0
  6
Continuous
 62
     7
370
    25
100
AcDbSpline
210
0.0
220
0.0
230
1.0
 70
     8
 71
     3
 72
    16
 73
    12
 74
     0
 42
0.000000001
 43
0.00000001
 40
0.0
 40
0.0
 40
0.0
 40
0.0
 40
0.1250000000000001
 40
0.1250000000000001
 40
0.2500000000000003
 40
0.2500000000000003
 40
0.5000000000000002
 40
0.5000000000000002
 40
0.7500000000000001
 40
0.7500000000000001
 40
1.0
 40
1.0
 40
1.0
 40
1.0
 10
135.582733062875
 20
142.987568880243
 30
0.0
 10
135.582733062875
 20
142.9182365315978
 30
0.0
 10
135.5925056265147
 20
142.8562399945952
 30
0.0
 10
135.6267016719151
 20
142.7505581166048
 30
0.0
 10
135.650886863626
 20
142.7064356816859
 30
0.0
 10
135.7386035277223
 20
142.5940290554452
 30
0.0
 10
135.8153136935717
 20
142.5460265492869
 30
0.0
 10
135.9943957938127
 20
142.4812007865743
 30
0.0
 10
136.0952785634325
 20
142.4652975151121
 30
0.0
 10
136.3240900616955
 20
142.4637927747414
 30
0.0
 10
136.4483876701304
 20
142.4784179515172
 30
0.0
 10
136.582733062875
 20
142.5132048623558
 30
0.0
  0
SPLINE
  5
131
330
1F
100
AcDbEntity
  8
0
  6
Continuous
 62
     7
370
    25
100
AcDbSpline
210
0.0
220
0.0
230
1.0
 70
     8
 71
     3
 72
    12
 73
     8
 74
     0
 42
0.000000001
 43
0.00000001
 40
0.0
 40
0.0
 40
0.0
 40
0.0
 40
0.4999999999999983
 40
0.4999999999999983
 40
0.7499999999999991
 40
0.7499999999999991
 40
1.0
 40
1.0
 40
1.0
 40
1.0
 10
136.582733062875
 20
142.5132048623558
 30
0.0
 10
136.8425352898026
 20
142.5804771127781
 30
0.0
 10
137.127859298576
 20
142.6342249222521
 30
0.0
 10
137.5677563317881
 20
142.6915010394103
 30
0.0
 10
137.7170967490951
 20
142.7069140730308
 30
0.0
 10
138.0212555698814
 20
142.7305239466779
 30
0.0
 10
138.1772150765935
 20
142.7387377022606
 30
0.0
 10
138.3327330628751
 20
142.7431326776162
 30
0.0
  0
SPLINE
  5
132
330
1F
100
AcDbEntity
  8
0
  6
Continuous
 62
     7
370
    25
100
AcDbSpline
210
0.0
220
0.0
230
1.0
 70
     8
 71
     3
 72
    14
 73
    10
 74
     0
 42
0.000000001
 43
0.00000001
 40
0.0
 40
0.0
 40
0.0
 40
0.0
 40
0.25
 40
0.25
 40
0.5
 40
0.5
 40
0.75
 40
0.75
 40
1.0
 40
1.0
 40
1.0
 40
1.0
 10
138.3327330628751
 20
142.7431326776162
 30
0.0
 10
138.4659625138984
 20
142.7468977736536
 30
0.0
 10
138.5976638765086
 20
142.7711597904913
 30
0.0
 10
138.8407415347257
 20
142.8573911411348
 30
0.0
 10
138.9516474752743
 20
142.9195473013067
 30
0.0
 10
139.1343445483519
 20
143.0723535282942
 30
0.0
 10
139.2077320778336
 20
143.1643392363524
 30
0.0
 10
139.3065663567518
 20
143.3668085734312
 30
0.0
 10
139.3327330628751
 20
143.4785698017892
 30
0.0
 10
139.3327330628751
 20
143.5931237693153
 30
0.0
  0
LINE
  5
133
330
1F
100
AcDbEntity
  8
0
  6
Continuous
 62
     7
370
    25
100
AcDbLine
 10
139.3327330837
 20
143.593122854
 30
0.0
 11
139.3327330837
 21
143.678331419
 31
0.0
  0
SPLINE
  5
134
330
1F
100
AcDbEntity
  8
0
  6
Continuous
 62
     7
370
    25
100
AcDbSpline
210
0.0
220
0.0
230
1.0
 70
     8
 71
     3
 72
    10
 73
     6
 74
     0
 42
0.000000001
 43
0.00000001
 40
0.0
 40
0.0
 40
0.0
 40
0.0
 40
0.5
 40
0.5
 40
1.0
 40
1.0
 40
1.0
 40
1.0
 10
139.3327330628751
 20
143.6783323340675
 30
0.0
 10
139.5839259527465
 20
144.0388385568335
 30
0.0
 10
139.8311952644484
 20
144.3829294367428
 30
0.0
 10
140.3178166157592
 20
145.0343908517985
 30
0.0
 10
140.5571999234759
 20
145.3419762916028
 30
0.0
 10
140.791930867445
 20
145.6253672215108
 30
0.0
  0
SPLINE
  5
135
330
1F
100
AcDbEntity
  8
0
  6
Continuous
 62
     7
370
    25
100
AcDbSpline
210
0.0
220
0.0
230
1.0
 70
     8
 71
     3
 72
     8
 73
     4
 74
     0
 42
0.000000001
 43
0.00000001
 40
0.0
 40
0.0
 40
0.0
 40
0.0
 40
1.0
 40
1.0
 40
1.0
 40
1.0
 10
139.7984441879276
 20
89.41814638319909
 30
0.0
 10
139.6443617207036
 20
89.63429328459704
 30
0.0
 10
139.4891350988592
 20
89.85594599391631
 30
0.0
 10
139.3327330628751
 20
90.08287623875475
 30
0.0
  0
LINE
  5
136
330
1F
100
AcDbEntity
  8
0
  6
Continuous
 62
     7
370
    25
100
AcDbLine
 10
139.3327330837
 20
90.0828760556
 30
0.0
 11
139.3327330837
 21
90.1682932369
 31
0.0
  0
SPLINE
  5
137
330
1F
100
AcDbEntity
  8
0
  6
Continuous
 62
     7
370
    25
100
AcDbSpline
210
0.0
220
0.0
230
1.0
 70
     8
 71
     3
 72
    14
 73
    10
 74
     0
 42
0.000000001
 43
0.00000001
 40
0.0
 40
0.0
 40
0.0
 40
0.0
 40
0.25
 40
0.25
 40
0.5
 40
0.5
 40
0.75
 40
0.75
 40
1.0
 40
1.0
 40
1.0
 40
1.0
 10
139.3327330628751
 20
90.16829230805214
 30
0.0
 10
139.3327330628751
 20
90.28241821224951
 30
0.0
 10
139.306692906118
 20
90.39512562583326
 30
0.0
 10
139.2079017229167
 20
90.59932138964884
 30
0.0
 10
139.1351940754997
 20
90.69172558085083
 30
0.0
 10
138.9514222976331
 20
90.84727830915583
 30
0.0
 10
138.842352266941
 20
90.90928777578831
 30
0.0
 10
138.5967279184822
 20
90.99717788451362
 30
0.0
 10
138.4661727928948
 20
91.02098613693563
 30
0.0
 10
138.332733062875
 20
91.02417070256672
 30
0.0
  0
SPLINE
  5
138
330
1F
100
AcDbEntity
  8
0
  6
Continuous
 62
     7
370
    25
100
AcDbSpline
210
0.0
220
0.0
230
1.0
 70
     8
 71
     3
 72
    12
 73
     8
 74
     0
 42
0.000000001
 43
0.00000001
 40
0.0
 40
0.0
 40
0.0
 40
0.0
 40
0.4999999999999987
 40
0.4999999999999987
 40
0.7499999999999993
 40
0.7499999999999993
 40
1.0
 40
1.0
 40
1.0
 40
1.0
 10
138.332733062875
 20
91.02417070256669
 30
0.0
 10
138.0267248584224
 20
91.03147364907736
 30
0.0
 10
137.7263576730553
 20
91.05070801965003
 30
0.0
 10
137.2842582230158
 20
91.09822466117704
 30
0.0
 10
137.1376847898146
 20
91.11734044055017
 30
0.0
 10
136.8541537259659
 20
91.16129252420488
 30
0.0
 10
136.7164559337818
 20
91.18617876359328
 30
0.0
 10
136.582733062875
 20
91.21405557246409
 30
0.0
  0
SPLINE
  5
139
330
1F
100
AcDbEntity
  8
0
  6
Continuous
 62
     7
370
    25
100
AcDbSpline
210
0.0
220
0.0
230
1.0
 70
     8
 71
     3
 72
    16
 73
    12
 74
     0
 42
0.000000001
 43
0.00000001
 40
0.0
 40
0.0
 40
0.0
 40
0.0
 40
0.2499999999999992
 40
0.2499999999999992
 40
0.4999999999999984
 40
0.4999999999999984
 40
0.7499999999999977
 40
0.7499999999999977
 40
0.8749999999999988
 40
0.8749999999999988
 40
1.0
 40
1.0
 40
1.0
 40
1.0
 10
136.582733062875
 20
91.21405557246409
 30
0.0
 10
136.4489558941297
 20
91.2419437006437
 30
0.0
 10
136.3253774042915
 20
91.24905381389917
 30
0.0
 10
136.0943174570014
 20
91.22997213347145
 30
0.0
 10
135.9900001339601
 20
91.2036307335135
 30
0.0
 10
135.8081729307906
 20
91.11541951513306
 30
0.0
 10
135.7314081643944
 20
91.05443056814477
 30
0.0
 10
135.6459025222644
 20
90.92600181608208
 30
0.0
 10
135.6231518723643
 20
90.87786456244544
 30
0.0
 10
135.5914215981384
 20
90.768499637533
 30
0.0
 10
135.582733062875
 20
90.70706578498526
 30
0.0
 10
135.582733062875
 20
90.64158846080797
 30
0.0
  0
LINE
  5
13A
330
1F
100
AcDbEntity
  8
0
  6
Continuous
 62
     7
370
    25
100
AcDbLine
 10
135.5827329347
 20
90.641587644
 30
0.0
 11
135.5827329347
 21
90.5566193602
 31
0.0
  0
SPLINE
  5
13B
330
1F
100
AcDbEntity
  8
0
  6
Continuous
 62
     7
370
    25
100
AcDbSpline
210
0.0
220
0.0
230
1.0
 70
     8
 71
     3
 72
     8
 73
     4
 74
     0
 42
0.000000001
 43
0.00000001
 40
0.0
 40
0.0
 40
0.0
 40
0.0
 40
1.0
 40
1.0
 40
1.0
 40
1.0
 10
135.5827330628751
 20
90.5566193340565
 30
0.0
 10
135.4559730498459
 20
90.41854902390945
 30
0.0
 10
135.3331206361143
 20
90.29246997307587
 30
0.0
 10
135.215209396727
 20
90.18196526387509
 30
0.0
  0
LINE
  5
13C
330
1F
100
AcDbEntity
  8
0
  6
Continuous
 62
     7
370
    25
100
AcDbLine
 10
88.2229292432
 20
125.700970783
 30
0.0
 11
88.3593978027
 21
125.6221808932
 31
0.0
  0
LINE
  5
13D
330
1F
100
AcDbEntity
  8
0
  6
Continuous
 62
     7
370
    25
100
AcDbLine
 10
139.3327330837
 20
143.678331419
 30
0.0
 11
139.3327330837
 21
145.9252253614
 31
0.0
  0
LINE
  5
13E
330
1F
100
AcDbEntity
  8
0
  6
Continuous
 62
     7
370
    25
100
AcDbLine
 10
135.5827329347
 20
88.0300343475
 30
0.0
 11
135.5827329347
 21
90.5566193602
 31
0.0
  0
LINE
  5
13F
330
1F
100
AcDbEntity
  8
0
  6
Continuous
 62
     7
370
    25
100
AcDbLine
 10
139.3327330837
 20
88.0300343475
 30
0.0
 11
139.3327330837
 21
90.0828760556
 31
0.0
  0
LINE
  5
140
330
1F
100
AcDbEntity
  8
0
  6
Continuous
 62
     7
370
    25
100
AcDbLine
 10
102.0583593885
 20
125.0401294298
 30
0.0
 11
101.9294624815
 21
125.0401294298
 31
0.0
  0
LINE
  5
141
330
1F
100
AcDbEntity
  8
0
  6
Continuous
 62
     7
370
    25
100
AcDbLine
 10
101.9299542198
 20
108.9151302791
 30
0.0
 11
102.060335655
 21
108.9151302791
 31
0.0
  0
DIMENSION
  5
142
330
1F
100
AcDbEntity
  8
VERMASSUNG
100
AcDbDimension
  2
_D
 10
229.6840886303
 20
85.6276298545
 30
0.0
 11
229.6840886303
 21
116.9776298545
 31
0.0
 70
   160
  1
%%c<>
 71
     2
 42
-1.0
  3
SLDDIMSTYLE0
100
AcDbAlignedDimension
 13
213.3142080627
 23
148.3276298545
 33
0.0
 14
213.3142080627
 24
85.6276298545
 34
0.0
 50
90.0
100
AcDbRotatedDimension
  0
DIMENSION
  5
14E
330
1F
100
AcDbEntity
  8
VERMASSUNG
100
AcDbDimension
  2
_D_1
 10
168.580601669
 20
141.9776298545
 30
0.0
 11
168.580601669
 21
150.5029695713
 31
0.0
 70
   160
  1
%%c<>
 71
     2
 42
-1.0
  3
SLDDIMSTYLE0
100
AcDbAlignedDimension
 13
149.5577330629
 23
91.9776298545
 33
0.0
 14
149.5577330629
 24
141.9776298545
 34
0.0
 50
90.0
100
AcDbRotatedDimension
  0
DIMENSION
  5
158
330
1F
100
AcDbEntity
  8
VERMASSUNG
100
AcDbDimension
  2
_D_2
 10
217.5577330629
 20
163.7997315688
 30
0.0
 11
181.5577330629
 21
163.7997315688
 31
0.0
 70
   160
  1
<>
 71
     2
 42
-1.0
  3
SLDDIMSTYLE0
100
AcDbAlignedDimension
 13
145.5577330629
 23
148.4526298545
 33
0.0
 14
217.5577330629
 24
140.9776298545
 34
0.0
100
AcDbRotatedDimension
  0
DIMENSION
  5
162
330
1F
100
AcDbEntity
  8
VERMASSUNG
100
AcDbDimension
  2
_D_3
 10
217.5577330629
 20
173.2345635091
 30
0.0
 11
172.5577330629
 21
173.2345635091
 31
0.0
 70
   160
  1
<>
 71
     2
 42
-1.0
  3
SLDDIMSTYLE0
100
AcDbAlignedDimension
 13
127.5577330629
 23
148.2526298545
 33
0.0
 14
217.5577330629
 24
140.9776298545
 34
0.0
100
AcDbRotatedDimension
  0
DIMENSION
  5
16C
330
1F
100
AcDbEntity
  8
VERMASSUNG
100
AcDbDimension
  2
_D_4
 10
217.5577330629
 20
182.2967024958
 30
0.0
 11
152.5827330629
 21
182.2967024958
 31
0.0
 70
   160
  1
<>
 71
     2
 42
-1.0
  3
SLDDIMSTYLE0
100
AcDbAlignedDimension
 13
87.6077330629
 23
139.1807245783
 33
0.0
 14
217.5577330629
 24
140.9776298545
 34
0.0
100
AcDbRotatedDimension
  0
DIMENSION
  5
176
330
1F
100
AcDbEntity
  8
VERMASSUNG
100
AcDbDimension
  2
_D_5
 10
74.9585897835
 20
85.5026298545
 30
0.0
 11
74.9585897835
 21
116.9776298545
 31
0.0
 70
   160
  1
KM%%c<> XMZ
 71
     2
 42
-1.0
  3
SLDDIMSTYLE1
100
AcDbAlignedDimension
 13
127.7577330629
 23
148.4526298545
 33
0.0
 14
127.7577330629
 24
85.5026298545
 34
0.0
 50
90.0
100
AcDbRotatedDimension
  0
LINE
  5
184
330
1F
100
AcDbEntity
  8
VERMASSUNG
  6
CENTERX2
370
    18
100
AcDbLine
 10
219.5577330629
 20
116.9776298545
 30
0.0
 11
85.6077330629
 21
116.9776298545
 31
0.0
  0
LINE
  5
185
330
1F
100
AcDbEntity
  8
0
  6
Continuous
 62
     7
370
    25
100
AcDbLine
 10
254.9852115661
 20
23.4999602051
 30
0.0
 11
257.7647277368
 21
21.8953796742
 31
0.0
  0
LINE
  5
186
330
1F
100
AcDbEntity
  8
0
  6
Continuous
 62
     7
370
    25
100
AcDbLine
 10
273.4384544946
 20
49.0460121535
 30
0.0
 11
270.6589383239
 21
50.6505926844
 31
0.0
  0
LINE
  5
187
330
1F
100
AcDbEntity
  8
0
  6
Continuous
 62
     7
370
    25
100
AcDbLine
 10
262.8202734997
 20
49.873512889
 30
0.0
 11
262.5374746035
 21
49.7102065227
 31
0.0
  0
LINE
  5
188
330
1F
100
AcDbEntity
  8
0
  6
Continuous
 62
     7
370
    25
100
AcDbLine
 10
251.7381742343
 20
31.0032424938
 30
0.0
 11
251.7381755514
 21
30.6766775228
 31
0.0
  0
LINE
  5
189
330
1F
100
AcDbEntity
  8
0
  6
Continuous
 62
     7
370
    25
100
AcDbLine
 10
264.3421319881
 20
50.6311319085
 30
0.0
 11
253.7627040294
 21
56.73850567
 31
0.0
  0
LINE
  5
18A
330
1F
100
AcDbEntity
  8
0
  6
Continuous
 62
     7
370
    25
100
AcDbLine
 10
241.2637202458
 20
35.0872839889
 30
0.0
 11
251.8431482045
 21
28.9799102274
 31
0.0
  0
LINE
  5
18B
330
1F
100
AcDbEntity
  8
0
  6
Continuous
 62
     7
370
    25
100
AcDbLine
 10
236.5459225372
 20
34.072568554
 30
0.0
 11
238.2308876862
 21
33.0998588782
 31
0.0
  0
LINE
  5
18C
330
1F
100
AcDbEntity
  8
0
  6
Continuous
 62
     7
370
    25
100
AcDbLine
 10
253.9671090007
 20
60.358747272
 30
0.0
 11
252.2821438517
 21
61.3314569478
 31
0.0
  0
LINE
  5
18D
330
1F
100
AcDbEntity
  8
0
  6
Continuous
 62
     7
370
    25
100
AcDbLine
 10
231.9376376058
 20
36.7328748187
 30
0.0
 11
234.1882885822
 21
35.4336016658
 31
0.0
  0
LINE
  5
18E
330
1F
100
AcDbEntity
  8
0
  6
Continuous
 62
     7
370
    25
100
AcDbLine
 10
249.9245098968
 20
62.6924900596
 30
0.0
 11
247.6738589203
 21
63.9917632125
 31
0.0
  0
LINE
  5
18F
330
1F
100
AcDbEntity
  8
0
  6
Continuous
 62
     7
370
    25
100
AcDbLine
 10
240.8964697301
 20
63.7716451201
 30
0.0
 11
231.6992575465
 21
68.3522977299
 31
0.0
  0
LINE
  5
190
330
1F
100
AcDbEntity
  8
0
  6
Continuous
 62
     7
370
    25
100
AcDbLine
 10
220.1729097568
 20
48.3859142743
 30
0.0
 11
228.7390097625
 21
42.7120246779
 31
0.0
  0
LINE
  5
191
330
1F
100
AcDbEntity
  8
0
  6
Continuous
 62
     7
370
    25
100
AcDbLine
 10
225.1523471985
 20
49.33240414
 30
0.0
 11
225.1523471985
 21
48.9670854349
 31
0.0
  0
LINE
  5
192
330
1F
100
AcDbEntity
  8
0
  6
Continuous
 62
     7
370
    25
100
AcDbLine
 10
229.0503139589
 20
68.7292661067
 30
0.0
 11
228.4107638501
 21
68.6420543512
 31
0.0
  0
LINE
  5
193
330
1F
100
AcDbEntity
  8
0
  6
Continuous
 62
     7
370
    25
100
AcDbLine
 10
281.1149109193
 20
38.4517569011
 30
0.0
 11
281.0360311167
 21
38.1543594261
 31
0.0
  0
LINE
  5
194
330
1F
100
AcDbEntity
  8
0
  6
Continuous
 62
     7
370
    25
100
AcDbLine
 10
281.0360311167
 20
38.1543594261
 30
0.0
 11
280.7616004737
 21
37.5636795588
 31
0.0
  0
LINE
  5
195
330
1F
100
AcDbEntity
  8
0
  6
Continuous
 62
     7
370
    25
100
AcDbLine
 10
280.7616004737
 20
37.5636795588
 30
0.0
 11
280.7051935024
 21
37.3548553284
 31
0.0
  0
SPLINE
  5
196
330
1F
100
AcDbEntity
  8
0
  6
Continuous
 62
     7
370
    25
100
AcDbSpline
210
0.0
220
0.0
230
1.0
 70
     8
 71
     3
 72
     9
 73
     5
 74
     0
 42
0.000000001
 43
0.00000001
 40
0.0
 40
0.0
 40
0.0
 40
0.0
 40
0.5000511997350038
 40
1.0
 40
1.0
 40
1.0
 40
1.0
 10
280.7051935024123
 20
37.35485532839834
 30
0.0
 10
280.6691655892851
 20
37.02145238551928
 30
0.0
 10
280.5971171407534
 20
36.35471477333929
 30
0.0
 10
280.4889646280717
 20
35.70881967313284
 30
0.0
 10
280.4348939091109
 20
35.38590519268757
 30
0.0
  0
LINE
  5
197
330
1F
100
AcDbEntity
  8
0
  6
Continuous
 62
     7
370
    25
100
AcDbLine
 10
280.4553074718
 20
35.3325407851
 30
0.0
 11
280.4348939091
 21
35.3859051927
 31
0.0
  0
LINE
  5
198
330
1F
100
AcDbEntity
  8
0
  6
Continuous
 62
     7
370
    25
100
AcDbLine
 10
280.6916584371
 20
35.6458346444
 30
0.0
 11
280.4553074718
 21
35.3325407851
 31
0.0
  0
LINE
  5
199
330
1F
100
AcDbEntity
  8
0
  6
Continuous
 62
     7
370
    25
100
AcDbLine
 10
280.7194029173
 20
35.5707462237
 30
0.0
 11
280.6916584371
 21
35.6458346444
 31
0.0
  0
ARC
  5
19A
330
1F
100
AcDbEntity
  8
0
  6
Continuous
 62
     7
370
    25
100
AcDbCircle
 10
255.346517113
 20
41.3604218102
 30
0.0
 40
26.02505864417797
100
AcDbArc
 50
318.9057080731
 51
347.1461196698
  0
LINE
  5
19B
330
1F
100
AcDbEntity
  8
0
  6
Continuous
 62
     7
370
    25
100
AcDbLine
 10
274.9597528941
 20
24.2541463644
 30
0.0
 11
274.8614443821
 21
24.19059058
 31
0.0
  0
LINE
  5
19C
330
1F
100
AcDbEntity
  8
0
  6
Continuous
 62
     7
370
    25
100
AcDbLine
 10
274.8614443821
 20
24.19059058
 30
0.0
 11
274.9078605747
 21
24.4328797755
 31
0.0
  0
LINE
  5
19D
330
1F
100
AcDbEntity
  8
0
  6
Continuous
 62
     7
370
    25
100
AcDbLine
 10
274.9078605747
 20
24.4328797755
 30
0.0
 11
274.8377776096
 21
24.3886531275
 31
0.0
  0
SPLINE
  5
19E
330
1F
100
AcDbEntity
  8
0
  6
Continuous
 62
     7
370
    25
100
AcDbSpline
210
0.0
220
0.0
230
1.0
 70
     8
 71
     3
 72
     9
 73
     5
 74
     0
 42
0.000000001
 43
0.00000001
 40
0.0
 40
0.0
 40
0.0
 40
0.0
 40
0.1255455116107906
 40
1.0
 40
1.0
 40
1.0
 40
1.0
 10
274.8377776096127
 20
24.38865312751483
 30
0.0
 10
274.7780971377415
 20
24.32433297707364
 30
0.0
 10
274.3027279182014
 20
23.8120076090382
 30
0.0
 10
273.7907345793694
 20
23.31991737465662
 30
0.0
 10
273.3430197062024
 20
22.88960686050914
 30
0.0
  0
LINE
  5
19F
330
1F
100
AcDbEntity
  8
0
  6
Continuous
 62
     7
370
    25
100
AcDbLine
 10
273.2140577584
 20
22.7342170833
 30
0.0
 11
273.3430197062
 21
22.8896068605
 31
0.0
  0
LINE
  5
1A0
330
1F
100
AcDbEntity
  8
0
  6
Continuous
 62
     7
370
    25
100
AcDbLine
 10
272.9570597763
 20
22.2807425775
 30
0.0
 11
273.2140577584
 21
22.7342170833
 31
0.0
  0
LINE
  5
1A1
330
1F
100
AcDbEntity
  8
0
  6
Continuous
 62
     7
370
    25
100
AcDbLine
 10
272.7725902644
 20
22.06070931
 30
0.0
 11
272.9570597763
 21
22.2807425775
 31
0.0
  0
LWPOLYLINE
  5
1A2
330
1F
100
AcDbEntity
  8
0
  6
Continuous
 62
     7
370
    25
100
AcDbPolyline
 90
        9
 70
   128
 43
0.0
 10
272.7725902644
 20
22.06070931
 10
271.6362111298
 20
21.1448672851
 10
270.4825545861
 20
20.3574334171
 10
269.3242224587
 20
19.7070088321
 10
268.1738677748
 20
19.2006979655
 10
267.0440567985
 20
18.8440334792
 10
265.9471304068
 20
18.6409091635
 10
264.895071311
 20
18.5935458715
 10
263.899371442
 20
18.7024590693
  0
LINE
  5
1A3
330
1F
100
AcDbEntity
  8
0
  6
Continuous
 62
     7
370
    25
100
AcDbLine
 10
263.899371442
 20
18.7024590693
 30
0.0
 11
263.9751310607
 21
18.8813485672
 31
0.0
  0
LINE
  5
1A4
330
1F
100
AcDbEntity
  8
0
  6
Continuous
 62
     7
370
    25
100
AcDbLine
 10
263.9751310607
 20
18.8813485672
 30
0.0
 11
264.6677559056
 21
19.4996959892
 31
0.0
  0
LINE
  5
1A5
330
1F
100
AcDbEntity
  8
0
  6
Continuous
 62
     7
370
    25
100
AcDbLine
 10
264.6677559056
 20
19.4996959892
 30
0.0
 11
264.7201977804
 21
19.6261247286
 31
0.0
  0
SPLINE
  5
1A6
330
1F
100
AcDbEntity
  8
0
  6
Continuous
 62
     7
370
    25
100
AcDbSpline
210
0.0
220
0.0
230
1.0
 70
     8
 71
     3
 72
     9
 73
     5
 74
     0
 42
0.000000001
 43
0.00000001
 40
0.0
 40
0.0
 40
0.0
 40
0.0
 40
0.5000513412285803
 40
1.0
 40
1.0
 40
1.0
 40
1.0
 10
264.720197780356
 20
19.62612472864856
 30
0.0
 10
264.5251269740205
 20
19.69923905330606
 30
0.0
 10
264.1350254179357
 20
19.84545268904564
 30
0.0
 10
263.7088198689268
 20
20.01250869566273
 30
0.0
 10
263.4957389763389
 20
20.09602812211066
 30
0.0
  0
LINE
  5
1A7
330
1F
100
AcDbEntity
  8
0
  6
Continuous
 62
     7
370
    25
100
AcDbLine
 10
263.2802460912
 20
20.0321722608
 30
0.0
 11
263.4957389763
 21
20.0960281221
 31
0.0
  0
LINE
  5
1A8
330
1F
100
AcDbEntity
  8
0
  6
Continuous
 62
     7
370
    25
100
AcDbLine
 10
262.4151194638
 20
19.4800256315
 30
0.0
 11
263.2802460912
 21
20.0321722608
 31
0.0
  0
LINE
  5
1A9
330
1F
100
AcDbEntity
  8
0
  6
Continuous
 62
     7
370
    25
100
AcDbLine
 10
262.1077168143
 20
19.3900324071
 30
0.0
 11
262.4151194638
 21
19.4800256315
 31
0.0
  0
LWPOLYLINE
  5
1AA
330
1F
100
AcDbEntity
  8
0
  6
Continuous
 62
     7
370
    25
100
AcDbPolyline
 90
        9
 70
   128
 43
0.0
 10
262.1077168143
 20
19.3900324071
 10
261.3446691955
 20
19.9560625433
 10
260.6767641358
 20
20.6634872638
 10
260.1112969915
 20
21.5045780602
 10
259.65444491
 20
22.4701475809
 10
259.3111983416
 20
23.5496484977
 10
259.0853063801
 20
24.7312887214
 10
258.9792372503
 20
26.0021608738
 10
258.9941480151
 20
27.3483817406
  0
LINE
  5
1AB
330
1F
100
AcDbEntity
  8
0
  6
Continuous
 62
     7
370
    25
100
AcDbLine
 10
258.9941480151
 20
27.3483817406
 30
0.0
 11
259.2634051324
 21
27.5358767311
 31
0.0
  0
LINE
  5
1AC
330
1F
100
AcDbEntity
  8
0
  6
Continuous
 62
     7
370
    25
100
AcDbLine
 10
259.2634051324
 20
27.5358767311
 30
0.0
 11
260.2813904769
 21
27.697311606
 31
0.0
  0
LINE
  5
1AD
330
1F
100
AcDbEntity
  8
0
  6
Continuous
 62
     7
370
    25
100
AcDbLine
 10
260.2813904769
 20
27.697311606
 30
0.0
 11
260.4700331854
 21
27.8297977703
 31
0.0
  0
SPLINE
  5
1AE
330
1F
100
AcDbEntity
  8
0
  6
Continuous
 62
     7
370
    25
100
AcDbSpline
210
0.0
220
0.0
230
1.0
 70
     8
 71
     3
 72
     9
 73
     5
 74
     0
 42
0.000000001
 43
0.00000001
 40
0.0
 40
0.0
 40
0.0
 40
0.0
 40
0.5000511997350038
 40
1.0
 40
1.0
 40
1.0
 40
1.0
 10
260.4700331853546
 20
27.82979777026469
 30
0.0
 10
260.5241143530059
 20
28.15277879114388
 30
0.0
 10
260.6322656136768
 20
28.79867469350417
 30
0.0
 10
260.7043128495292
 20
29.46541292636558
 30
0.0
 10
260.7403327786561
 20
29.79874790597545
 30
0.0
  0
LINE
  5
1AF
330
1F
100
AcDbEntity
  8
0
  6
Continuous
 62
     7
370
    25
100
AcDbLine
 10
260.5876834788
 20
29.9284503797
 30
0.0
 11
260.7403327787
 21
29.798747906
 31
0.0
  0
LINE
  5
1B0
330
1F
100
AcDbEntity
  8
0
  6
Continuous
 62
     7
370
    25
100
AcDbLine
 10
259.607777812
 20
30.0444015128
 30
0.0
 11
260.5876834788
 21
29.9284503797
 31
0.0
  0
LINE
  5
1B1
330
1F
100
AcDbEntity
  8
0
  6
Continuous
 62
     7
370
    25
100
AcDbLine
 10
259.3896560171
 20
30.229392418
 30
0.0
 11
259.607777812
 21
30.0444015128
 31
0.0
  0
ARC
  5
1B2
330
1F
100
AcDbEntity
  8
0
  6
Continuous
 62
     7
370
    25
100
AcDbCircle
 10
284.7625418214
 20
24.4397168315
 30
0.0
 40
26.02505864417914
100
AcDbArc
 50
138.9057080731
 51
167.1461196698
  0
LINE
  5
1B3
330
1F
100
AcDbEntity
  8
0
  6
Continuous
 62
     7
370
    25
100
AcDbLine
 10
265.1493060403
 20
41.5459922773
 30
0.0
 11
265.437991867
 21
41.4996455772
 31
0.0
  0
LINE
  5
1B4
330
1F
100
AcDbEntity
  8
0
  6
Continuous
 62
     7
370
    25
100
AcDbLine
 10
265.437991867
 20
41.4996455772
 30
0.0
 11
266.1351303759
 21
40.8281113894
 31
0.0
  0
LINE
  5
1B5
330
1F
100
AcDbEntity
  8
0
  6
Continuous
 62
     7
370
    25
100
AcDbLine
 10
266.1351303759
 20
40.8281113894
 30
0.0
 11
266.3374490782
 21
40.7959999711
 31
0.0
  0
SPLINE
  5
1B6
330
1F
100
AcDbEntity
  8
0
  6
Continuous
 62
     7
370
    25
100
AcDbSpline
210
0.0
220
0.0
230
1.0
 70
     8
 71
     3
 72
     9
 73
     5
 74
     0
 42
0.000000001
 43
0.00000001
 40
0.0
 40
0.0
 40
0.0
 40
0.0
 40
0.1255455575553678
 40
1.0
 40
1.0
 40
1.0
 40
1.0
 10
267.8322069815645
 20
42.29504623815389
 30
0.0
 10
267.7725265702352
 20
42.23072585158698
 30
0.0
 10
267.2971580068924
 20
41.71839879024474
 30
0.0
 10
266.7851642731389
 20
41.22630957313175
 30
0.0
 10
266.3374490781542
 20
40.7959999711482
 30
0.0
  0
LINE
  5
1B7
330
1F
100
AcDbEntity
  8
0
  6
Continuous
 62
     7
370
    25
100
AcDbLine
 10
267.8289331922
 20
42.5267740816
 30
0.0
 11
267.8322069816
 21
42.2950462382
 31
0.0
  0
LINE
  5
1B8
330
1F
100
AcDbEntity
  8
0
  6
Continuous
 62
     7
370
    25
100
AcDbLine
 10
267.3423764728
 20
43.4094935797
 30
0.0
 11
267.8289331922
 21
42.5267740816
 31
0.0
  0
LINE
  5
1B9
330
1F
100
AcDbEntity
  8
0
  6
Continuous
 62
     7
370
    25
100
AcDbLine
 10
267.33646867
 20
43.7394293317
 30
0.0
 11
267.3423764728
 21
43.4094935797
 31
0.0
  0
LWPOLYLINE
  5
1BA
330
1F
100
AcDbEntity
  8
0
  6
Continuous
 62
     7
370
    25
100
AcDbPolyline
 90
        9
 70
   128
 43
0.0
 10
267.33646867
 20
43.7394293317
 10
268.4728478046
 20
44.6552713566
 10
269.6265043483
 20
45.4427052246
 10
270.7848364757
 20
46.0931298096
 10
271.9351911596
 20
46.5994406762
 10
273.0650021359
 20
46.9561051625
 10
274.1619285276
 20
47.1592294782
 10
275.2139876234
 20
47.2065927702
 10
276.2096874924
 20
47.0976795724
  0
LINE
  5
1BB
330
1F
100
AcDbEntity
  8
0
  6
Continuous
 62
     7
370
    25
100
AcDbLine
 10
276.2096874924
 20
47.0976795724
 30
0.0
 11
276.3243051884
 21
46.8088875901
 31
0.0
  0
LINE
  5
1BC
330
1F
100
AcDbEntity
  8
0
  6
Continuous
 62
     7
370
    25
100
AcDbLine
 10
276.3243051884
 20
46.8088875901
 30
0.0
 11
276.375235045
 21
45.7612951757
 31
0.0
  0
LINE
  5
1BD
330
1F
100
AcDbEntity
  8
0
  6
Continuous
 62
     7
370
    25
100
AcDbLine
 10
276.375235045
 20
45.7612951757
 30
0.0
 11
276.4550289074
 21
45.55852837
 31
0.0
  0
SPLINE
  5
1BE
330
1F
100
AcDbEntity
  8
0
  6
Continuous
 62
     7
370
    25
100
AcDbSpline
210
0.0
220
0.0
230
1.0
 70
     8
 71
     3
 72
     9
 73
     5
 74
     0
 42
0.000000001
 43
0.00000001
 40
0.0
 40
0.0
 40
0.0
 40
0.0
 40
0.5000513412285803
 40
1.0
 40
1.0
 40
1.0
 40
1.0
 10
276.4550289074108
 20
45.55852837001446
 30
0.0
 10
276.6681529716769
 20
45.47499212139066
 30
0.0
 10
277.0943573364974
 20
45.3079367777962
 30
0.0
 10
277.4844576052691
 20
45.16172390580132
 30
0.0
 10
277.679487711428
 20
45.08862497655237
 30
0.0
  0
LINE
  5
1BF
330
1F
100
AcDbEntity
  8
0
  6
Continuous
 62
     7
370
    25
100
AcDbLine
 10
277.7627448594
 20
45.2288189041
 30
0.0
 11
277.6794877114
 21
45.0886249766
 31
0.0
  0
LINE
  5
1C0
330
1F
100
AcDbEntity
  8
0
  6
Continuous
 62
     7
370
    25
100
AcDbLine
 10
277.8843167854
 20
46.2102105257
 30
0.0
 11
277.7627448594
 21
45.2288189041
 31
0.0
  0
LINE
  5
1C1
330
1F
100
AcDbEntity
  8
0
  6
Continuous
 62
     7
370
    25
100
AcDbLine
 10
278.0013421201
 20
46.4101062346
 30
0.0
 11
277.8843167854
 21
46.2102105257
 31
0.0
  0
LWPOLYLINE
  5
1C2
330
1F
100
AcDbEntity
  8
0
  6
Continuous
 62
     7
370
    25
100
AcDbPolyline
 90
        9
 70
   128
 43
0.0
 10
278.0013421201
 20
46.4101062346
 10
278.7643897389
 20
45.8440760984
 10
279.4322947986
 20
45.1366513779
 10
279.9977619429
 20
44.2955605815
 10
280.4546140244
 20
43.3299910608
 10
280.7978605929
 20
42.2504901439
 10
281.0237525543
 20
41.0688499203
 10
281.1298216841
 20
39.7979777679
 10
281.1149109193
 20
38.4517569011
  0
LWPOLYLINE
  5
1C3
330
1F
100
AcDbEntity
  8
0
  6
Continuous
 62
     7
370
    25
100
AcDbPolyline
 90
       60
 70
   128
 43
0.0
 10
263.5930567081
 20
24.0493269218
 10
263.3262678156
 20
24.8917689818
 10
263.1527123618
 20
25.8151349369
 10
263.074356102
 20
26.8089624631
 10
263.0920874129
 20
27.8619914217
 10
263.2057047798
 20
28.9622902403
 10
263.4139214067
 20
30.0973921773
 10
263.7143783872
 20
31.2544367908
 10
264.1036703876
 20
32.4203130696
 10
264.5773871354
 20
33.5818114265
 10
265.1301614929
 20
34.7257725548
 10
265.7557300432
 20
35.839234572
 10
266.4470048718
 20
36.9095809233
 10
267.1961535795
 20
37.9246839109
 10
267.9946881863
 20
38.8730434708
 10
268.8335604552
 20
39.743912925
 10
269.7032659426
 20
40.5274259693
 10
270.5939507646
 20
41.2147039357
 10
271.4955227577
 20
41.7979610293
 10
272.3977668984
 20
42.2705876889
 10
273.2904604458
 20
42.6272292247
 10
274.1634886195
 20
42.8638449928
 10
275.0069599986
 20
42.9777537213
 10
275.8113174559
 20
42.9676648508
 10
276.567447394
 20
42.8336921653
 10
277.2667824781
 20
42.5773545426
 10
277.9013987714
 20
42.2015559835
 10
278.4641066142
 20
41.7105548042
 10
278.9485293201
 20
41.1099136287
 10
279.3491785791
 20
40.4064379742
 10
279.661515044
 20
39.6080990583
 10
279.8819996965
 20
38.7239419687
 10
280.0081346774
 20
37.7639848026
 10
280.0384902865
 20
36.7391041076
 10
279.9727227636
 20
35.6609121251
 10
279.8115769225
 20
34.5416251105
 10
279.5568795657
 20
33.3939255241
 10
279.2115157766
 20
32.2308166304
 10
278.7793986268
 20
31.0654774546
 10
278.2654243947
 20
29.9111114544
 10
277.6754165893
 20
28.780798045
 10
277.0160607545
 20
27.6873446953
 10
276.2948267606
 20
26.6431394055
 10
275.5198868157
 20
25.6600147816
 10
274.7000216231
 20
24.7491090701
 10
273.8445199529
 20
23.9207443028
 10
272.9630755804
 20
23.1843044426
 10
272.0656752507
 20
22.548135726
 10
271.1624870968
 20
22.0194442244
 10
270.2637444476
 20
21.6042219242
 10
269.3796305003
 20
21.3071717844
 10
268.5201625812
 20
21.1316614543
 10
267.6950787526
 20
21.079677585
 10
266.9137278769
 20
21.1518102739
 10
266.1849624388
 20
21.3472421433
 10
265.5170399277
 20
21.6637590912
 10
264.917528008
 20
22.0977742546
 10
264.3932198954
 20
22.6443704134
 10
263.9500556615
 20
23.2973541806
 10
263.5930567081
 20
24.0493269218
  0
LINE
  5
1C4
330
1F
100
AcDbEntity
  8
0
  6
Continuous
 62
     7
370
    25
100
AcDbLine
 10
272.3608399206
 20
49.3195719813
 30
0.0
 11
276.2096874924
 21
47.0976795724
 31
0.0
  0
LINE
  5
1C5
330
1F
100
AcDbEntity
  8
0
  6
Continuous
 62
     7
370
    25
100
AcDbLine
 10
263.4876210982
 20
45.9613217406
 30
0.0
 11
267.33646867
 21
43.7394293317
 31
0.0
  0
SPLINE
  5
1C6
330
1F
100
AcDbEntity
  8
0
  6
Continuous
 62
     7
370
    25
100
AcDbSpline
210
0.0
220
0.0
230
1.0
 70
     8
 71
     3
 72
    18
 73
    14
 74
     0
 42
0.000000001
 43
0.00000001
 40
0.0
 40
0.0
 40
0.0
 40
0.0
 40
0.0823402622594231
 40
0.1971293035381493
 40
0.3099452935779594
 40
0.4180296822186734
 40
0.5204026801248112
 40
0.5325622667294775
 40
0.6297980580117787
 40
0.7297580309939489
 40
0.8340301035715202
 40
0.9435578161964673
 40
1.0
 40
1.0
 40
1.0
 40
1.0
 10
263.4876210981891
 20
45.9613217406059
 30
0.0
 10
263.377535041693
 20
46.01458802803646
 30
0.0
 10
263.1139800437998
 20
46.1421118645548
 30
0.0
 10
262.5933640091412
 20
46.21231463268129
 30
0.0
 10
262.0014775076557
 20
46.1379519972536
 30
0.0
 10
261.466205889139
 20
45.91142341783519
 30
0.0
 10
261.1702907950713
 20
45.66499587294519
 30
0.0
 10
260.9481546225491
 20
45.40144680539496
 30
0.0
 10
260.7827069858939
 20
45.11166867074875
 30
0.0
 10
260.7107991953959
 20
44.67336802082671
 30
0.0
 10
260.8119279266821
 20
44.24783525176897
 30
0.0
 10
261.0350867284113
 20
43.94242943629943
 30
0.0
 10
261.2331142823367
 20
43.81217943340134
 30
0.0
 10
261.3004584684653
 20
43.76788468620812
 30
0.0
  0
LINE
  5
1C7
330
1F
100
AcDbEntity
  8
0
  6
Continuous
 62
     7
370
    25
100
AcDbLine
 10
261.3004584685
 20
43.7678846862
 30
0.0
 11
265.1493060403
 21
41.5459922773
 31
0.0
  0
LINE
  5
1C8
330
1F
100
AcDbEntity
  8
0
  6
Continuous
 62
     7
370
    25
100
AcDbLine
 10
255.5408084453
 20
32.4512848269
 30
0.0
 11
259.3896560171
 21
30.229392418
 31
0.0
  0
SPLINE
  5
1C9
330
1F
100
AcDbEntity
  8
0
  6
Continuous
 62
     7
370
    25
100
AcDbSpline
210
0.0
220
0.0
230
1.0
 70
     8
 71
     3
 72
    18
 73
    14
 74
     0
 42
0.000000001
 43
0.00000001
 40
0.0
 40
0.0
 40
0.0
 40
0.0
 40
0.0823402340684795
 40
0.1971292386220563
 40
0.3099451717142552
 40
0.4180295898808581
 40
0.5204025299383196
 40
0.5326711728212897
 40
0.6299064107568376
 40
0.7298700077477778
 40
0.8341477964606199
 40
0.9436807899431319
 40
0.9999999999999999
 40
0.9999999999999999
 40
0.9999999999999999
 40
0.9999999999999999
 10
255.1453004432534
 20
29.57027414951825
 30
0.0
 10
255.0427997764081
 20
29.63844462263986
 30
0.0
 10
254.7974048167988
 20
29.80165029742325
 30
0.0
 10
254.4468110190539
 20
30.205912892879
 30
0.0
 10
254.1629107139163
 20
30.73668196779353
 30
0.0
 10
254.0256128599812
 20
31.29210015613251
 30
0.0
 10
254.0411324362681
 20
31.65773187782885
 30
0.0
 10
254.1121593732758
 20
31.97016269716202
 30
0.0
 10
254.2357299710008
 20
32.24798623599539
 30
0.0
 10
254.5249161968391
 20
32.51878837398341
 30
0.0
 10
254.9031181262568
 20
32.6373170338271
 30
0.0
 10
255.2596090320768
 20
32.59399686607183
 30
0.0
 10
255.4695259676731
 20
32.48746153017874
 30
0.0
 10
255.5408084453132
 20
32.45128482686942
 30
0.0
  0
LINE
  5
1CA
330
1F
100
AcDbEntity
  8
0
  6
Continuous
 62
     7
370
    25
100
AcDbLine
 10
255.1453004433
 20
29.5702741495
 30
0.0
 11
258.9941480151
 21
27.3483817406
 31
0.0
  0
LINE
  5
1CB
330
1F
100
AcDbEntity
  8
0
  6
Continuous
 62
     7
370
    25
100
AcDbLine
 10
258.2588692425
 20
21.611924816
 30
0.0
 11
262.1077168143
 21
19.3900324071
 31
0.0
  0
SPLINE
  5
1CC
330
1F
100
AcDbEntity
  8
0
  6
Continuous
 62
     7
370
    25
100
AcDbSpline
210
0.0
220
0.0
230
1.0
 70
     8
 71
     3
 72
    10
 73
     6
 74
     0
 42
0.000000001
 43
0.00000001
 40
0.0
 40
0.0
 40
0.0
 40
0.0
 40
0.0426657286523247
 40
0.6952304995143148
 40
1.0
 40
1.0
 40
1.0
 40
1.0
 10
257.7648370551383
 20
21.89557130061444
 30
0.0
 10
257.7681645889793
 20
21.89356746723413
 30
0.0
 10
257.8223861641761
 20
21.86091535684141
 30
0.0
 10
258.0063676530996
 20
21.75764179830823
 30
0.0
 10
258.197895822566
 20
21.6471121697852
 30
0.0
 10
258.2588692424928
 20
21.61192481602379
 30
0.0
  0
LINE
  5
1CD
330
1F
100
AcDbEntity
  8
0
  6
Continuous
 62
     7
370
    25
100
AcDbLine
 10
262.4803397362
 20
19.5216486362
 30
0.0
 11
263.899371442
 21
18.7024590693
 31
0.0
  0
LINE
  5
1CE
330
1F
100
AcDbEntity
  8
0
  6
Continuous
 62
     7
370
    25
100
AcDbLine
 10
274.1524945482
 20
48.6319986435
 30
0.0
 11
278.0013421201
 21
46.4101062346
 31
0.0
  0
SPLINE
  5
1CF
330
1F
100
AcDbEntity
  8
0
  6
Continuous
 62
     7
370
    25
100
AcDbSpline
210
0.0
220
0.0
230
1.0
 70
     8
 71
     3
 72
    18
 73
    14
 74
     0
 42
0.000000001
 43
0.00000001
 40
0.0
 40
0.0
 40
0.0
 40
0.0
 40
0.082339165226325
 40
0.1971267355667303
 40
0.30994123660379
 40
0.4180241641295217
 40
0.5203958476988901
 40
0.5371614261605562
 40
0.6343759290756855
 40
0.7344796845501551
 40
0.8389931437280861
 40
0.9487431082022332
 40
1.0
 40
1.0
 40
1.0
 40
1.0
 10
272.3608399205806
 20
49.31957198127655
 30
0.0
 10
272.2639794825564
 20
49.37784382592393
 30
0.0
 10
272.0320876252514
 20
49.51735141601444
 30
0.0
 10
271.8058155802178
 20
49.69895471262839
 30
0.0
 10
271.7333150785101
 20
49.82116262469733
 30
0.0
 10
271.8452861454908
 20
49.83959900401532
 30
0.0
 10
272.0390305808369
 20
49.77570628216645
 30
0.0
 10
272.2704112591586
 20
49.67780099320014
 30
0.0
 10
272.5445095217477
 20
49.54575959372924
 30
0.0
 10
272.9940596731524
 20
49.30155151681115
 30
0.0
 10
273.4825793988232
 20
49.02126233980547
 30
0.0
 10
273.8790816989099
 20
48.79011162103657
 30
0.0
 10
274.0864715322472
 20
48.67017934960074
 30
0.0
 10
274.1524945482446
 20
48.63199864349675
 30
0.0
  0
LWPOLYLINE
  5
1D0
330
1F
100
AcDbEntity
  8
0
  6
Continuous
 62
     7
370
    25
100
AcDbPolyline
 90
       30
 70
   128
 43
0.0
 10
252.4219903878
 20
26.6453547048
 10
252.1087708147
 20
27.6085852524
 10
251.8897000573
 20
28.6550092108
 10
251.7667036995
 20
29.7754310719
 10
251.740862413
 20
30.9600042371
 10
251.8124033956
 20
32.19831878
 10
251.9806970788
 20
33.4794917037
 10
252.2442656887
 20
34.792265088
 10
252.6007924657
 20
36.1251014074
 10
253.0471440551
 20
37.4662875458
 10
253.5793981656
 20
38.8040382175
 10
254.1928771559
 20
40.1265959643
 10
254.8821895218
 20
41.4223383774
 10
255.6412786296
 20
42.6798792339
 10
256.4634721064
 20
43.8881658319
 10
257.3415460481
 20
45.0365814564
 10
258.2677823131
 20
46.1150324471
 10
259.2340422792
 20
47.1140417287
 10
260.2318340148
 20
48.0248301737
 10
261.2523886706
 20
48.8393926416
 10
262.2867378994
 20
49.5505723309
 10
263.3257916467
 20
50.1521193748
 10
264.3604187813
 20
50.6387457532
 10
265.3815267792
 20
51.0061758562
 10
266.3801421893
 20
51.2511807687
 10
267.3474894124
 20
51.3716077783
 10
268.2750671326
 20
51.3663978825
 10
269.1547232275
 20
51.2355970939
 10
269.9787283602
 20
50.9803548169
 10
270.6589383239
 20
50.6505926844
  0
ARC
  5
1D1
330
1F
100
AcDbEntity
  8
0
  6
Continuous
 62
     7
370
    25
100
AcDbCircle
 10
258.1509724947
 20
28.6968759316
 30
0.0
 40
6.085225988018055
100
AcDbArc
 50
199.7022042121
 51
238.6518362595
  0
LWPOLYLINE
  5
1D2
330
1F
100
AcDbEntity
  8
0
  6
Continuous
 62
     7
370
    25
100
AcDbPolyline
 90
       50
 70
   128
 43
0.0
 10
265.9981797893
 20
26.4613503695
 10
265.781923651
 20
27.1764638613
 10
265.6604584092
 20
27.9713371661
 10
265.6357787952
 20
28.8329185571
 10
265.7082898139
 20
29.7470607251
 10
265.8768014754
 20
30.6987537651
 10
266.1385462462
 20
31.6723709472
 10
266.4892264651
 20
32.6519252732
 10
266.923084148
 20
33.6213325427
 10
267.4329951606
 20
34.5646750347
 10
268.0105867678
 20
35.466463286
 10
268.646374941
 20
36.3118898826
 10
269.3299201035
 20
37.0870729838
 10
270.0499985164
 20
37.7792841594
 10
270.7947864247
 20
38.3771565966
 10
271.5520544287
 20
38.8708744957
 10
272.3093682465
 20
39.2523296526
 10
273.0542928851
 20
39.5152598563
 10
273.7745965202
 20
39.655347575
 10
274.4584520217
 20
39.6702918073
 10
275.0946300533
 20
39.5598476921
 10
275.6726852759
 20
39.325829058
 10
276.183125429
 20
38.9720775136
 10
276.6175692165
 20
38.5044022608
 10
276.9688832845
 20
37.930482553
 10
277.2312994415
 20
37.2597423974
 10
277.400507843
 20
36.5031945566
 10
277.4737307483
 20
35.6732620229
 10
277.4497656551
 20
34.7835722141
 10
277.3290057145
 20
33.8487335853
 10
277.113435121
 20
32.8840967495
 10
276.8065919052
 20
31.9055004857
 10
276.4135152494
 20
30.9290132824
 10
275.9406595486
 20
29.9706692742
 10
275.395788713
 20
29.0462045614
 10
274.7878497285
 20
28.1707986649
 10
274.1268249772
 20
27.3588253927
 10
273.4235682606
 20
26.6236182532
 10
272.6896270742
 20
25.9772480834
 10
271.9370529061
 20
25.4303291253
 10
271.1782028087
 20
24.9918413575
 10
270.425537144
 20
24.6689848378
 10
269.6914147756
 20
24.4670614708
 10
268.9878897021
 20
24.3893861238
 10
268.3265139466
 20
24.4372340549
 10
267.7181475667
 20
24.6098205879
 10
267.1727792008
 20
24.9043104453
 10
266.6993647249
 20
25.3158694748
 10
266.3056766105
 20
25.8377390936
 10
265.9981797893
 20
26.4613503695
  0
LINE
  5
1D3
330
1F
100
AcDbEntity
  8
0
  6
Continuous
 62
     7
370
    25
100
AcDbLine
 10
268.6521323487
 20
24.8645504447
 30
0.0
 11
268.0015257716
 21
24.5635000326
 31
0.0
  0
ARC
  5
1D4
330
1F
100
AcDbEntity
  8
0
  6
Continuous
 62
     7
370
    25
100
AcDbCircle
 10
261.5643234965
 20
37.3392516709
 30
0.0
 40
14.34765503518427
100
AcDbArc
 50
299.6041397458
 51
330.5600057545
  0
ARC
  5
1D5
330
1F
100
AcDbEntity
  8
0
  6
Continuous
 62
     7
370
    25
100
AcDbCircle
 10
262.4895761037
 20
37.8039019282
 30
0.0
 40
13.79705338641461
100
AcDbArc
 50
326.9887209659
 51
4.3354041447
  0
LWPOLYLINE
  5
1D6
330
1F
100
AcDbEntity
  8
0
  6
Continuous
 62
     7
370
    25
100
AcDbPolyline
 90
       26
 70
   128
 43
0.0
 10
275.6602825779
 20
39.3324856428
 10
276.0212499205
 20
39.0655262555
 10
276.4556937081
 20
38.5978510027
 10
276.807007776
 20
38.0239312949
 10
277.069423933
 20
37.3531911393
 10
277.2386323345
 20
36.5966432985
 10
277.3118552398
 20
35.7667107648
 10
277.2878901467
 20
34.877020956
 10
277.167130206
 20
33.9421823272
 10
276.9515596126
 20
32.9775454914
 10
276.6447163968
 20
31.9989492276
 10
276.251639741
 20
31.0224620243
 10
275.7787840401
 20
30.0641180161
 10
275.2339132046
 20
29.1396533033
 10
274.62597422
 20
28.2642474068
 10
273.9649494688
 20
27.4522741346
 10
273.2616927522
 20
26.7170669951
 10
272.5277515658
 20
26.0706968253
 10
271.7751773976
 20
25.5237778672
 10
271.0163273003
 20
25.0852900994
 10
270.2636616356
 20
24.7624335797
 10
269.5295392672
 20
24.5605102127
 10
268.8260141937
 20
24.4828348657
 10
268.1646384382
 20
24.5306827968
 10
267.5562720583
 20
24.7032693298
 10
267.2875272886
 20
24.8288766283
  0
LINE
  5
1D7
330
1F
100
AcDbEntity
  8
0
  6
Continuous
 62
     7
370
    25
100
AcDbLine
 10
261.4939556378
 20
43.7764892284
 30
0.0
 11
265.437991867
 21
41.4996455772
 31
0.0
  0
ARC
  5
1D8
330
1F
100
AcDbEntity
  8
0
  6
Continuous
 62
     7
370
    25
100
AcDbCircle
 10
255.4718993448
 20
41.2688529134
 30
0.0
 40
20.2980295794016
100
AcDbArc
 50
318.2495213755
 51
353.0593287598
  0
LINE
  5
1D9
330
1F
100
AcDbEntity
  8
0
  6
Continuous
 62
     7
370
    25
100
AcDbLine
 10
265.9157329803
 20
41.0394514924
 30
0.0
 11
266.3374490782
 21
40.7959999711
 31
0.0
  0
LWPOLYLINE
  5
1DA
330
1F
100
AcDbEntity
  8
0
  6
Continuous
 62
     7
370
    25
100
AcDbPolyline
 90
        9
 70
   128
 43
0.0
 10
263.450275533
 20
44.8246814186
 10
263.1327765731
 20
44.936748418
 10
262.7634276053
 20
44.9448946512
 10
262.3867790009
 20
44.8481364664
 10
262.0482588063
 20
44.6581469208
 10
261.7886967812
 20
44.3978401136
 10
261.6394001315
 20
44.0986133804
 10
261.6183764273
 20
43.7965584511
 10
261.6448278553
 20
43.6893931577
  0
LINE
  5
1DB
330
1F
100
AcDbEntity
  8
0
  6
Continuous
 62
     7
370
    25
100
AcDbLine
 10
263.450275533
 20
44.8246814186
 30
0.0
 11
267.8322069816
 21
42.2950462382
 31
0.0
  0
LINE
  5
1DC
330
1F
100
AcDbEntity
  8
0
  6
Continuous
 62
     7
370
    25
100
AcDbLine
 10
263.5131196123
 20
45.0182402289
 30
0.0
 11
267.8289331922
 21
42.5267740816
 31
0.0
  0
LINE
  5
1DD
330
1F
100
AcDbEntity
  8
0
  6
Continuous
 62
     7
370
    25
100
AcDbLine
 10
263.3983402436
 20
45.6863372309
 30
0.0
 11
267.3423764728
 21
43.4094935797
 31
0.0
  0
LINE
  5
1DE
330
1F
100
AcDbEntity
  8
0
  6
Continuous
 62
     7
370
    25
100
AcDbLine
 10
255.6637415828
 20
32.321245164
 30
0.0
 11
259.607777812
 21
30.0444015128
 31
0.0
  0
LWPOLYLINE
  5
1DF
330
1F
100
AcDbEntity
  8
0
  6
Continuous
 62
     7
370
    25
100
AcDbPolyline
 90
       19
 70
   128
 43
0.0
 10
251.7381742343
 20
31.0032424938
 10
251.7423177964
 20
31.3510869333
 10
251.819643434
 20
32.5793088303
 10
251.9940470931
 20
33.8497253837
 10
252.2639502426
 20
35.1508322926
 10
252.6269070482
 20
36.4708454636
 10
253.0796320313
 20
37.7978114886
 10
253.6180244352
 20
39.1197127772
 10
254.2372083965
 20
40.4245774393
 10
254.9315770672
 20
41.7005899287
 10
255.6948420057
 20
42.9361937006
 10
256.5200904705
 20
44.1201980516
 10
257.399848969
 20
45.241880966
 10
258.3261507592
 20
46.2910851181
 10
259.2906069719
 20
47.2583083608
 10
260.2844831665
 20
48.1347912663
 10
261.2987786037
 20
48.9125955891
 10
262.3243078019
 20
49.5846787244
 10
262.5374746035
 20
49.7102065227
  0
LINE
  5
1E0
330
1F
100
AcDbEntity
  8
0
  6
Continuous
 62
     7
370
    25
100
AcDbLine
 10
256.0881017368
 20
30.3594329507
 30
0.0
 11
260.4700331854
 21
27.8297977703
 31
0.0
  0
LWPOLYLINE
  5
1E1
330
1F
100
AcDbEntity
  8
0
  6
Continuous
 62
     7
370
    25
100
AcDbPolyline
 90
        8
 70
   128
 43
0.0
 10
256.0881017368
 20
30.3594329507
 10
255.8238258502
 20
30.5760728622
 10
255.6077264455
 20
30.8853248264
 10
255.4658700316
 20
31.2498877883
 10
255.4153642776
 20
31.6257908758
 10
255.4623013789
 20
31.9676955305
 10
255.6010191697
 20
32.2343622859
 10
255.6789355217
 20
32.312473612
  0
LINE
  5
1E2
330
1F
100
AcDbEntity
  8
0
  6
Continuous
 62
     7
370
    25
100
AcDbLine
 10
260.4970875108
 20
29.9391704101
 30
0.0
 11
260.7403327787
 21
29.798747906
 31
0.0
  0
LINE
  5
1E3
330
1F
100
AcDbEntity
  8
0
  6
Continuous
 62
     7
370
    25
100
AcDbLine
 10
255.3193689032
 20
29.8127203823
 30
0.0
 11
259.2634051324
 21
27.5358767311
 31
0.0
  0
LINE
  5
1E4
330
1F
100
AcDbEntity
  8
0
  6
Continuous
 62
     7
370
    25
100
AcDbLine
 10
255.965576897
 20
30.1887777533
 30
0.0
 11
260.2813904769
 21
27.697311606
 31
0.0
  0
ARC
  5
1E5
330
1F
100
AcDbEntity
  8
0
  6
Continuous
 62
     7
370
    25
100
AcDbCircle
 10
261.3380091796
 20
36.1008575676
 30
0.0
 40
13.21353265992303
100
AcDbArc
 50
311.2483209754
 51
315.1120863578
  0
SPLINE
  5
1E6
330
1F
100
AcDbEntity
  8
0
  6
Continuous
 62
     7
370
    25
100
AcDbSpline
210
0.0
220
0.0
230
1.0
 70
     8
 71
     3
 72
    24
 73
    20
 74
     0
 42
0.000000001
 43
0.00000001
 40
0.0
 40
0.0
 40
0.0
 40
0.0
 40
0.3313913199185338
 40
0.732980454029188
 40
0.7989071796766336
 40
0.830845179684408
 40
0.8420639037130888
 40
0.8496731838284617
 40
0.8548995079371748
 40
0.8603249366025597
 40
0.8623846357180629
 40
0.8644629039739717
 40
0.8658870761261471
 40
0.8673105814464741
 40
0.8694388677966358
 40
0.8735736339190298
 40
0.8889109159269734
 40
0.9497213259104154
 40
1.0
 40
1.0
 40
1.0
 40
1.0
 10
270.0500055133899
 20
26.16614241140772
 30
0.0
 10
269.8125241626647
 20
25.96323456792147
 30
0.0
 10
269.2872563665113
 20
25.51443740787153
 30
0.0
 10
268.7207733491316
 20
25.10559667093588
 30
0.0
 10
268.4015921613894
 20
24.86379485943949
 30
0.0
 10
268.3378246111572
 20
24.80994813817401
 30
0.0
 10
268.311801582422
 20
24.78390689123417
 30
0.0
 10
268.3009969248216
 20
24.77114079621325
 30
0.0
 10
268.2943824067317
 20
24.76110998261496
 30
0.0
 10
268.2913602524564
 20
24.75375099920564
 30
0.0
 10
268.291665379198
 20
24.74808162436318
 30
0.0
 10
268.2934189597121
 20
24.74484034228973
 30
0.0
 10
268.2967766173353
 20
24.74249586930765
 30
0.0
 10
268.3013706663478
 20
24.74091638084813
 30
0.0
 10
268.3094401083948
 20
24.73992090849594
 30
0.0
 10
268.3322194147852
 20
24.74123261763189
 30
0.0
 10
268.409435766845
 20
24.76060367627038
 30
0.0
 10
268.51805134243
 20
24.80338660293366
 30
0.0
 10
268.6103556314041
 20
24.84549312554158
 30
0.0
 10
268.6521323487218
 20
24.86455044467347
 30
0.0
  0
ARC
  5
1E7
330
1F
100
AcDbEntity
  8
0
  6
Continuous
 62
     7
370
    25
100
AcDbCircle
 10
262.3177716097
 20
34.6107535458
 30
0.0
 40
10.7194480174317
100
AcDbArc
 50
296.2065675461
 51
315.9938338441
  0
LWPOLYLINE
  5
1E8
330
1F
100
AcDbEntity
  8
0
  6
Continuous
 62
     7
370
    25
100
AcDbPolyline
 90
       11
 70
   128
 43
0.0
 10
263.3983402436
 20
45.6863372309
 10
263.0381453737
 20
45.8206319786
 10
262.6200015505
 20
45.8483067685
 10
262.1848409373
 20
45.766652477
 10
261.7752601684
 20
45.5836597951
 10
261.4313468236
 20
45.317246015
 10
261.1867732715
 20
44.9934842132
 10
261.065471678
 20
44.6440715057
 10
261.0793225154
 20
44.3032076606
 10
261.2269685234
 20
44.0042589334
 10
261.4939556378
 20
43.7764892284
  0
LWPOLYLINE
  5
1E9
330
1F
100
AcDbEntity
  8
0
  6
Continuous
 62
     7
370
    25
100
AcDbPolyline
 90
       11
 70
   128
 43
0.0
 10
255.3193689032
 20
29.8127203823
 10
255.0142053051
 20
30.055140565
 10
254.7557674155
 20
30.3966069973
 10
254.5693551973
 20
30.8036942644
 10
254.4732156016
 20
31.2365528159
 10
254.4767539613
 20
31.6528150358
 10
254.5796324429
 20
32.0117294239
 10
254.7717720227
 20
32.2781679497
 10
255.0343705965
 20
32.4260460437
 10
255.3417231966
 20
32.440889434
 10
255.6637415828
 20
32.321245164
  0
LWPOLYLINE
  5
1EA
330
1F
100
AcDbEntity
  8
0
  6
Continuous
 62
     7
370
    25
100
AcDbPolyline
 90
        9
 70
   128
 43
0.0
 10
263.5131196123
 20
45.0182402289
 10
263.1533432474
 20
45.1452291374
 10
262.7348098952
 20
45.15446051
 10
262.3080055532
 20
45.0448190156
 10
261.92440667
 20
44.8295299746
 10
261.6302809364
 20
44.5345603295
 10
261.461104145
 20
44.1954880497
 10
261.4372816267
 20
43.8532101003
 10
261.4463106012
 20
43.8057313335
  0
LWPOLYLINE
  5
1EB
330
1F
100
AcDbEntity
  8
0
  6
Continuous
 62
     7
370
    25
100
AcDbPolyline
 90
        8
 70
   128
 43
0.0
 10
255.965576897
 20
30.1887777533
 10
255.6661110259
 20
30.4342647905
 10
255.4212338848
 20
30.7846978567
 10
255.2604871217
 20
31.1978073342
 10
255.2032556527
 20
31.6237670137
 10
255.2564429999
 20
32.0112001853
 10
255.4136336227
 20
32.3133768161
 10
255.4985127657
 20
32.3990547447
  0
SPLINE
  5
1EC
330
1F
100
AcDbEntity
  8
0
  6
Continuous
 62
     7
370
    25
100
AcDbSpline
210
0.0
220
0.0
230
1.0
 70
     8
 71
     3
 72
    23
 73
    19
 74
     0
 42
0.000000001
 43
0.00000001
 40
0.0
 40
0.0
 40
0.0
 40
0.0
 40
0.0668771282605936
 40
0.0993347267428009
 40
0.1107236511218545
 40
0.1184459878428985
 40
0.1237468490241059
 40
0.1292244615688267
 40
0.131316398888128
 40
0.1334290840964517
 40
0.1348553940665227
 40
0.1362820641482985
 40
0.1383834146966593
 40
0.1424297748277684
 40
0.1572615101293825
 40
0.2160695593432047
 40
0.4504741094442208
 40
1.0
 40
1.0
 40
1.0
 40
1.0
 10
274.0592792195009
 20
30.28721037143465
 30
0.0
 10
274.0908273143842
 20
30.34917606228924
 30
0.0
 10
274.1376867036251
 20
30.4412156747631
 30
0.0
 10
274.1824174669134
 20
30.54700803135617
 30
0.0
 10
274.1996546519485
 20
30.59718604836939
 30
0.0
 10
274.206336057193
 20
30.62122713793806
 30
0.0
 10
274.2099156735446
 20
30.63951897613367
 30
0.0
 10
274.2109312794286
 20
30.65234054807145
 30
0.0
 10
274.2094394373526
 20
30.66136318976409
 30
0.0
 10
274.2072012620144
 20
30.66600249231988
 30
0.0
 10
274.2037641730686
 20
30.66865672053727
 30
0.0
 10
274.1994526922503
 20
30.66965506973823
 30
0.0
 10
274.1923335336948
 20
30.66858695677357
 30
0.0
 10
274.1733843453938
 20
30.65925329558506
 30
0.0
 10
274.1124277706023
 20
30.60508516365824
 30
0.0
 10
273.9036152006843
 20
30.35813455889152
 30
0.0
 10
273.3667753157512
 20
29.65109739920995
 30
0.0
 10
272.8465491309903
 20
29.03609792442951
 30
0.0
 10
272.481876779153
 20
28.60499062645687
 30
0.0
  0
ARC
  5
1ED
330
1F
100
AcDbEntity
  8
0
  6
Continuous
 62
     7
370
    25
100
AcDbCircle
 10
261.652940475
 20
38.1003489001
 30
0.0
 40
14.40235016320037
100
AcDbArc
 50
315.1060141926
 51
318.7540796602
  0
LWPOLYLINE
  5
1EE
330
1F
100
AcDbEntity
  8
0
  6
Continuous
 62
     7
370
    25
100
AcDbPolyline
 90
       13
 70
   128
 43
0.0
 10
275.5646266832
 20
39.381184473
 10
275.5958897667
 20
39.1214776636
 10
275.6378212711
 20
38.1974959762
 10
275.5804732397
 20
37.2172783195
 10
275.424682024
 20
36.1951183587
 10
275.1727182855
 20
35.145921084
 10
274.8282580195
 20
34.0849869491
 10
274.3963232865
 20
33.0277867199
 10
273.8832124062
 20
31.9897357193
 10
273.2964077613
 20
30.9859717797
 10
272.6444668084
 20
30.0311320584
 10
271.9368962959
 20
29.1391412598
 10
271.1840136408
 20
28.3230046124
  0
LINE
  5
1EF
330
1F
100
AcDbEntity
  8
0
  6
Continuous
 62
     7
370
    25
100
AcDbLine
 10
276.3712205577
 20
45.8438715285
 30
0.0
 11
277.6794877114
 21
45.0886249766
 31
0.0
  0
LINE
  5
1F0
330
1F
100
AcDbEntity
  8
0
  6
Continuous
 62
     7
370
    25
100
AcDbLine
 10
276.3618046883
 20
46.0375644502
 30
0.0
 11
277.7627448594
 21
45.2288189041
 31
0.0
  0
LINE
  5
1F1
330
1F
100
AcDbEntity
  8
0
  6
Continuous
 62
     7
370
    25
100
AcDbLine
 10
273.9402805562
 20
48.4870541769
 30
0.0
 11
277.8843167854
 21
46.2102105257
 31
0.0
  0
ARC
  5
1F2
330
1F
100
AcDbEntity
  8
0
  6
Continuous
 62
     7
370
    25
100
AcDbCircle
 10
265.242888678
 20
33.2435302221
 30
0.0
 40
17.55020364676743
100
AcDbArc
 50
60.2925154037
 51
65.0806023344
  0
LINE
  5
1F3
330
1F
100
AcDbEntity
  8
0
  6
Continuous
 62
     7
370
    25
100
AcDbLine
 10
262.6634921591
 20
19.6385415878
 30
0.0
 11
263.9751310607
 21
18.8813485672
 31
0.0
  0
LINE
  5
1F4
330
1F
100
AcDbEntity
  8
0
  6
Continuous
 62
     7
370
    25
100
AcDbLine
 10
263.9226891859
 20
19.9298138511
 30
0.0
 11
264.6677559056
 21
19.4996959892
 31
0.0
  0
LINE
  5
1F5
330
1F
100
AcDbEntity
  8
0
  6
Continuous
 62
     7
370
    25
100
AcDbLine
 10
271.8557659175
 20
27.9352102776
 30
0.0
 11
270.6996480637
 21
26.7757751144
 31
0.0
  0
LINE
  5
1F6
330
1F
100
AcDbEntity
  8
0
  6
Continuous
 62
     7
370
    25
100
AcDbLine
 10
271.1840136408
 20
28.3230046124
 30
0.0
 11
270.027895787
 21
27.1635694493
 31
0.0
  0
LINE
  5
1F7
330
1F
100
AcDbEntity
  8
0
  6
Continuous
 62
     7
370
    25
100
AcDbLine
 10
280.4937473732
 20
35.7600862697
 30
0.0
 11
280.6916584371
 21
35.6458346444
 31
0.0
  0
LINE
  5
1F8
330
1F
100
AcDbEntity
  8
0
  6
Continuous
 62
     7
370
    25
100
AcDbLine
 10
274.7260054845
 20
24.2687777914
 30
0.0
 11
274.8614443821
 21
24.19059058
 31
0.0
  0
ARC
  5
1F9
330
1F
100
AcDbEntity
  8
0
  6
Continuous
 62
     7
370
    25
100
AcDbCircle
 10
256.0880068495
 20
40.9627711236
 30
0.0
 40
18.77738124529124
100
AcDbArc
 50
304.0923407981
 51
355.9130360753
  0
LWPOLYLINE
  5
1FA
330
1F
100
AcDbEntity
  8
0
  6
Continuous
 62
     7
370
    25
100
AcDbPolyline
 90
       34
 70
   128
 43
0.0
 10
234.970905345
 20
40.3051917281
 10
235.0198022748
 20
41.536741583
 10
235.1660636929
 20
42.8139239538
 10
235.4084041206
 20
44.125514719
 10
235.7446938248
 20
45.4599879325
 10
236.1719779165
 20
46.8056158226
 10
236.6865007162
 20
48.1505727835
 10
237.2837406574
 20
49.4830397449
 10
237.9584497989
 20
50.7913072114
 10
238.7046979473
 20
52.0638771603
 10
239.5159279751
 20
53.2895664593
 10
240.3850098209
 20
54.4576042009
 10
241.3043066731
 20
55.5577254231
 10
242.2657391787
 20
56.5802621684
 10
243.2608585407
 20
57.5162282695
 10
244.2809199467
 20
58.3573982396
 10
245.3169583833
 20
59.0963799372
 10
246.3598694727
 20
59.7266802439
 10
247.4004880041
 20
60.2427587641
 10
248.4296690167
 20
60.6400799572
 10
249.4383678958
 20
60.9151532917
 10
250.4177207145
 20
61.0655613748
 10
251.3591199668
 20
61.0899808582
 10
252.2542933459
 20
60.9881990181
 10
253.0953738792
 20
60.7611086158
 10
253.8749694044
 20
60.4107069401
 10
254.5862297417
 20
59.9400722272
 10
255.2229039866
 20
59.3533404608
 10
255.7793971449
 20
58.6556688647
 10
256.2508188651
 20
57.8531879893
 10
256.6330255852
 20
56.9529496154
 10
256.9226587282
 20
55.9628653438
 10
257.1171736781
 20
54.8916364395
 10
257.1295404854
 20
54.7948722698
  0
LWPOLYLINE
  5
1FB
330
1F
100
AcDbEntity
  8
0
  6
Continuous
 62
     7
370
    25
100
AcDbPolyline
 90
       17
 70
   128
 43
0.0
 10
244.6305565371
 20
33.1436506837
 10
244.2809199467
 20
33.0020992744
 10
243.2608585407
 20
32.665531414
 10
242.2657391787
 20
32.4525571556
 10
241.3043066731
 20
32.365047558
 10
240.3850098209
 20
32.403771227
 10
239.5159279751
 20
32.568388428
 10
238.7046979473
 20
32.8574514736
 10
237.9584497989
 20
33.2684216499
 10
237.2837406574
 20
33.7976865232
 10
236.6865007162
 20
34.4405949261
 10
236.1719779165
 20
35.1914965073
 10
235.7446938248
 20
36.0437926861
 10
235.4084041206
 20
36.9899940716
 10
235.1660636929
 20
38.0217845347
 10
235.0198022748
 20
39.1300970666
 10
234.970905345
 20
40.3051917281
  0
SPLINE
  5
1FC
330
1F
100
AcDbEntity
  8
0
  6
Continuous
 62
     7
370
    25
100
AcDbSpline
210
0.0
220
0.0
230
1.0
 70
     8
 71
     3
 72
    24
 73
    20
 74
     0
 42
0.000000001
 43
0.00000001
 40
0.0
 40
0.0
 40
0.0
 40
0.0
 40
0.1250000000000003
 40
0.1250000000000003
 40
0.2500000000000006
 40
0.2500000000000006
 40
0.3750000000000009
 40
0.3750000000000009
 40
0.5000000000000012
 40
0.5000000000000012
 40
0.6250000000000016
 40
0.6250000000000016
 40
0.7500000000000018
 40
0.7500000000000018
 40
0.8125000000000014
 40
0.8125000000000014
 40
0.875000000000001
 40
0.875000000000001
 40
1.0
 40
1.0
 40
1.0
 40
1.0
 10
239.8044944935606
 20
56.73700618258336
 30
0.0
 10
239.8333878686528
 20
56.62669845161567
 30
0.0
 10
239.8460318667399
 20
56.51153537153412
 30
0.0
 10
239.8390061916087
 20
56.27059034225359
 30
0.0
 10
239.8190883997822
 20
56.14704029900373
 30
0.0
 10
239.7488364026071
 20
55.90044180709315
 30
0.0
 10
239.6974495308111
 20
55.77473110657785
 30
0.0
 10
239.5682045756708
 20
55.53256901789864
 30
0.0
 10
239.4904718132717
 20
55.41521694876457
 30
0.0
 10
239.3079489165034
 20
55.18814534576531
 30
0.0
 10
239.2068504623096
 20
55.0830146603131
 30
0.0
 10
238.9855644679643
 20
54.88912250130791
 30
0.0
 10
238.8644050019114
 20
54.80016770305
 30
0.0
 10
238.6770830710474
 20
54.68654937704781
 30
0.0
 10
238.6133590511031
 20
54.65166106064788
 30
0.0
 10
238.4832562509398
 20
54.58798760757553
 30
0.0
 10
238.4164210366649
 20
54.55904627475206
 30
0.0
 10
238.2157706236425
 20
54.48346540582064
 30
0.0
 10
238.0817763164682
 20
54.44763600272133
 30
0.0
 10
237.9472600373887
 20
54.42662417550257
 30
0.0
  0
LWPOLYLINE
  5
1FD
330
1F
100
AcDbEntity
  8
0
  6
Continuous
 62
     7
370
    25
100
AcDbPolyline
 90
       14
 70
   128
 43
0.0
 10
239.8044946053
 20
56.7370062151
 10
240.8064809401
 20
57.7757335927
 10
241.8423437923
 20
58.7198643829
 10
242.9023561302
 20
59.5605330713
 10
243.976563683
 20
60.2898448724
 10
245.0548792776
 20
60.9009499598
 10
246.1271771337
 20
61.3881123519
 10
247.1833876941
 20
61.7467555296
 10
248.2135926611
 20
61.973511977
 10
249.2081183453
 20
62.0662527353
 10
250.1576252683
 20
62.0241071905
 10
251.0531970669
 20
61.8474695286
 10
251.8864237983
 20
61.5380004392
 10
252.2821438517
 20
61.3314569478
  0
LWPOLYLINE
  5
1FE
330
1F
100
AcDbEntity
  8
0
  6
Continuous
 62
     7
370
    25
100
AcDbPolyline
 90
       20
 70
   128
 43
0.0
 10
236.5459225372
 20
34.072568554
 10
236.5045475028
 20
34.0967072471
 10
235.7895183153
 20
34.6026312139
 10
235.1541789402
 20
35.2295924827
 10
234.604398326
 20
35.9717957756
 10
234.1452571438
 20
36.8223842824
 10
233.7809977372
 20
37.7734986012
 10
233.5149852686
 20
38.8163505073
 10
233.3496780848
 20
39.9413043247
 10
233.2866040089
 20
41.1379659153
 10
233.3263445358
 20
42.3952775831
 10
233.4685335147
 20
43.7016226621
 10
233.7118571493
 20
45.0449307212
 10
234.0540665101
 20
46.4127896013
 10
234.4920005836
 20
47.7925608958
 10
235.0216119551
 20
49.1714954437
 10
235.6380076389
 20
50.5368521487
 10
236.3354925422
 20
51.8760154655
 10
237.1076214898
 20
53.1766121272
 10
237.9472598106
 20
54.4266236871
  0
LWPOLYLINE
  5
1FF
330
1F
100
AcDbEntity
  8
0
  6
Continuous
 62
     7
370
    25
100
AcDbPolyline
 90
       12
 70
   128
 43
0.0
 10
238.1418732129
 20
56.8612826957
 10
239.0574522521
 20
57.8357645802
 10
240.0061649705
 20
58.7247397599
 10
240.9790680043
 20
59.5198293433
 10
241.9669900922
 20
60.2135380944
 10
242.9606182625
 20
60.7993270011
 10
243.9505859543
 20
61.2716725123
 10
244.9275607688
 20
61.6261232785
 10
245.8823332491
 20
61.8593377156
 10
246.8059030674
 20
61.9691170292
 10
247.6895637714
 20
61.9544267611
 10
247.9424237891
 20
61.9261693287
  0
SPLINE
  5
200
330
1F
100
AcDbEntity
  8
0
  6
Continuous
 62
     7
370
    25
100
AcDbSpline
210
0.0
220
0.0
230
1.0
 70
     8
 71
     3
 72
    26
 73
    22
 74
     0
 42
0.000000001
 43
0.00000001
 40
0.0
 40
0.0
 40
0.0
 40
0.0
 40
0.1250000000000009
 40
0.1250000000000009
 40
0.2500000000000019
 40
0.2500000000000019
 40
0.3125000000000011
 40
0.3125000000000011
 40
0.3750000000000004
 40
0.3750000000000004
 40
0.4375000000000002
 40
0.4375000000000002
 40
0.5000000000000001
 40
0.5000000000000001
 40
0.5625
 40
0.5625
 40
0.6249999999999999
 40
0.6249999999999999
 40
0.7500000000000001
 40
0.7500000000000001
 40
1.0
 40
1.0
 40
1.0
 40
1.0
 10
236.797680007933
 20
55.18911940945811
 30
0.0
 10
236.774042411701
 20
55.2986952690311
 30
0.0
 10
236.7564746328193
 20
55.40958452739562
 30
0.0
 10
236.7376620499498
 20
55.63491448725858
 30
0.0
 10
236.7364822751824
 20
55.75059140057695
 30
0.0
 10
236.7525802784178
 20
55.9219469104365
 30
0.0
 10
236.760898995518
 20
55.97874542253066
 30
0.0
 10
236.784656144775
 20
56.09157163492775
 30
0.0
 10
236.800278523824
 20
56.1480244885939
 30
0.0
 10
236.839135736221
 20
56.25660760500251
 30
0.0
 10
236.8623616929235
 20
56.30898756522805
 30
0.0
 10
236.9173603424018
 20
56.40944434050017
 30
0.0
 10
236.9494386094245
 20
56.4577232082716
 30
0.0
 10
237.0198533579596
 20
56.54542018385535
 30
0.0
 10
237.0584317800862
 20
56.5854093118313
 30
0.0
 10
237.1421400436824
 20
56.6578879959469
 30
0.0
 10
237.1872687536243
 20
56.69022462032351
 30
0.0
 10
237.3265493958144
 20
56.77342438767716
 30
0.0
 10
237.4273384673761
 20
56.81225311031325
 30
0.0
 10
237.7304107386087
 20
56.88766939776843
 30
0.0
 10
237.9389348290938
 20
56.88753925139767
 30
0.0
 10
238.1418732487842
 20
56.86128302207145
 30
0.0
  0
LWPOLYLINE
  5
201
330
1F
100
AcDbEntity
  8
0
  6
Continuous
 62
     7
370
    25
100
AcDbPolyline
 90
       17
 70
   128
 43
0.0
 10
233.860701379
 20
37.5332681194
 10
233.8002772862
 20
37.6129999582
 10
233.3141193155
 20
38.3829264198
 10
232.9220100617
 20
39.2583202595
 10
232.6279324018
 20
40.2302895814
 10
232.4348741524
 20
41.2889602549
 10
232.3447958004
 20
42.4235777249
 10
232.3586127227
 20
43.622616235
 10
232.4761846494
 20
44.8738955591
 10
232.6963169806
 20
46.1647043869
 10
233.0167739578
 20
47.4819304568
 10
233.434299737
 20
48.8121929692
 10
233.9446532914
 20
50.141977946
 10
234.5426499002
 20
51.4577773909
 10
235.2222151489
 20
52.7462244574
 10
235.9764461739
 20
53.9942314663
 10
236.7976801513
 20
55.1891191784
  0
LINE
  5
202
330
1F
100
AcDbEntity
  8
0
  6
Continuous
 62
     7
370
    25
100
AcDbLine
 10
235.322287737
 20
34.9451982344
 30
0.0
 11
235.4439421457
 21
35.0026923461
 31
0.0
  0
LWPOLYLINE
  5
203
330
1F
100
AcDbEntity
  8
0
  6
Continuous
 62
     7
370
    25
100
AcDbPolyline
 90
       38
 70
   128
 43
0.0
 10
235.322287737
 20
34.9451982344
 10
234.5186098976
 20
35.2582881568
 10
233.7818092286
 20
35.6938576607
 10
233.1184231014
 20
36.2480426009
 10
232.5343369283
 20
36.9159256524
 10
232.0347341129
 20
37.6915819425
 10
231.6240460014
 20
38.5681292466
 10
231.3059176376
 20
39.5377911093
 10
231.0831702261
 20
40.5919633888
 10
230.9577800591
 20
41.7212934418
 10
230.9308613937
 20
42.9157623978
 10
231.0026506476
 20
44.1647712357
 10
231.1725129839
 20
45.4572395478
 10
231.4389403355
 20
46.7816998378
 10
231.7995691862
 20
48.1264005143
 10
232.2511990098
 20
49.4794113554
 10
232.7898238799
 20
50.8287280699
 10
233.4106647392
 20
52.1623791388
 10
234.1082135213
 20
53.4685326567
 10
234.8762805664
 20
54.7355986093
 10
235.7080512559
 20
55.9523364734
 10
236.5961472573
 20
57.1079498893
 10
237.5326877682
 20
58.1921866555
 10
238.509364262
 20
59.1954275061
 10
239.5175111161
 20
60.1087702297
 10
240.5481836498
 20
60.9241119832
 10
241.5922375609
 20
61.634218723
 10
242.64040968
 20
62.232790836
 10
243.6834002887
 20
62.714515983
 10
244.7119556018
 20
63.0751220389
 10
245.716950168
 20
63.3114079309
 10
246.6894669654
 20
63.42127847
 10
247.6208777439
 20
63.4037587919
 10
248.502919087
 20
63.2590032854
 10
249.3277645225
 20
62.9882976771
 10
250.0880969623
 20
62.5940422942
 10
250.7771689595
 20
62.0797366597
 10
251.0145479129
 20
61.8581877432
  0
LWPOLYLINE
  5
204
330
1F
100
AcDbEntity
  8
0
  6
Continuous
 62
     7
370
    25
100
AcDbPolyline
 90
       19
 70
   128
 43
0.0
 10
228.7650513648
 20
45.5960051487
 10
228.8728136125
 20
46.4469398943
 10
229.1151540402
 20
47.7585306595
 10
229.4514437444
 20
49.0930038729
 10
229.8787278361
 20
50.4386317631
 10
230.3932506358
 20
51.783588724
 10
230.990490577
 20
53.1160556854
 10
231.6651997185
 20
54.4243231519
 10
232.4114478669
 20
55.6968931008
 10
233.2226778947
 20
56.9225823998
 10
234.0917597405
 20
58.0906201414
 10
235.0110565927
 20
59.1907413635
 10
235.9724890983
 20
60.2132781089
 10
236.9676084603
 20
61.14924421
 10
237.9876698663
 20
61.9904141801
 10
239.0237083029
 20
62.7293958777
 10
240.0666193923
 20
63.3596961844
 10
241.1072379237
 20
63.8757747046
 10
241.5779056928
 20
64.0716809622
  0
LWPOLYLINE
  5
205
330
1F
100
AcDbEntity
  8
0
  6
Continuous
 62
     7
370
    25
100
AcDbPolyline
 90
       24
 70
   128
 43
0.0
 10
228.6776551463
 20
44.0198484094
 10
228.7262419016
 20
45.2435730352
 10
228.8715734549
 20
46.5126395481
 10
229.1123742055
 20
47.8158961647
 10
229.4465269328
 20
49.141889657
 10
229.8710958455
 20
50.4789671572
 10
230.3823489717
 20
51.8153783429
 10
230.9757943794
 20
53.1393786665
 10
231.6462157376
 20
54.4393320143
 10
232.3877223656
 20
55.7038156457
 10
233.193797307
 20
56.921717528
 10
234.057357257
 20
58.0823332897
 10
234.9708124903
 20
59.1754639345
 10
235.9261360077
 20
60.1915029076
 10
236.9149323546
 20
61.1215222119
 10
237.928511707
 20
61.9573471163
 10
238.9579669211
 20
62.6916333356
 10
239.9942510772
 20
63.3179285258
 10
241.0282573277
 20
63.8307275049
 10
242.0508985818
 20
64.2255243371
 10
243.0531881765
 20
64.4988497787
 10
244.0263174203
 20
64.6483008329
 10
244.9617351128
 20
64.6725661234
 10
245.6966678203
 20
64.5985716141
  0
LWPOLYLINE
  5
206
330
1F
100
AcDbEntity
  8
0
  6
Continuous
 62
     7
370
    25
100
AcDbPolyline
 90
        3
 70
   128
 43
0.0
 10
228.7926640177
 20
42.2494182195
 10
228.7262419016
 20
42.8522208572
 10
228.6924427632
 20
43.3682519031
  0
SPLINE
  5
207
330
1F
100
AcDbEntity
  8
0
  6
Continuous
 62
     7
370
    25
100
AcDbSpline
210
0.0
220
0.0
230
1.0
 70
     8
 71
     3
 72
    10
 73
     6
 74
     0
 42
0.000000001
 43
0.00000001
 40
0.0
 40
0.0
 40
0.0
 40
0.0
 40
0.5
 40
0.5
 40
1.0
 40
1.0
 40
1.0
 40
1.0
 10
237.5243680755643
 20
53.72606612863839
 30
0.0
 10
237.4210644170158
 20
53.79893833907306
 30
0.0
 10
237.3307662376492
 20
53.88621875309079
 30
0.0
 10
237.1769973816803
 20
54.08982384277336
 30
0.0
 10
237.116283433473
 20
54.20274857093614
 30
0.0
 10
237.0721975874026
 20
54.32475925005524
 30
0.0
  0
SPLINE
  5
208
330
1F
100
AcDbEntity
  8
0
  6
Continuous
 62
     7
370
    25
100
AcDbSpline
210
0.0
220
0.0
230
1.0
 70
     8
 71
     3
 72
    14
 73
    10
 74
     0
 42
0.000000001
 43
0.00000001
 40
0.0
 40
0.0
 40
0.0
 40
0.0
 40
0.25
 40
0.25
 40
0.5
 40
0.5
 40
0.75
 40
0.75
 40
1.0
 40
1.0
 40
1.0
 40
1.0
 10
237.0721975874026
 20
54.32475925005524
 30
0.0
 10
237.0494767845375
 20
54.38764066971278
 30
0.0
 10
237.027562274188
 20
54.45668709918619
 30
0.0
 10
236.9854512201252
 20
54.60433961580497
 30
0.0
 10
236.9659296662122
 20
54.68073940266328
 30
0.0
 10
236.9275834240384
 20
54.83507169405888
 30
0.0
 10
236.9092238311546
 20
54.91202429039052
 30
0.0
 10
236.867220386573
 20
55.0574144579065
 30
0.0
 10
236.8434440655599
 20
55.12400536409953
 30
0.0
 10
236.8149825614578
 20
55.16450097933088
 30
0.0
  0
LINE
  5
209
330
1F
100
AcDbEntity
  8
0
  6
Continuous
 62
     7
370
    25
100
AcDbLine
 10
236.8149827497
 20
55.1645013711
 30
0.0
 11
236.7976801513
 21
55.1891191784
 31
0.0
  0
LINE
  5
20A
330
1F
100
AcDbEntity
  8
0
  6
Continuous
 62
     7
370
    25
100
AcDbLine
 10
238.1418732129
 20
56.8612826957
 30
0.0
 11
238.1591758113
 21
56.8366648883
 31
0.0
  0
SPLINE
  5
20B
330
1F
100
AcDbEntity
  8
0
  6
Continuous
 62
     7
370
    25
100
AcDbSpline
210
0.0
220
0.0
230
1.0
 70
     8
 71
     3
 72
    16
 73
    12
 74
     0
 42
0.000000001
 43
0.00000001
 40
0.0
 40
0.0
 40
0.0
 40
0.0
 40
0.1250000000000001
 40
0.1250000000000001
 40
0.2500000000000003
 40
0.2500000000000003
 40
0.5000000000000002
 40
0.5000000000000002
 40
0.7500000000000001
 40
0.7500000000000001
 40
1.0
 40
1.0
 40
1.0
 40
1.0
 10
238.1591758023089
 20
56.83666459194416
 30
0.0
 10
238.173328208713
 20
56.81652825613137
 30
0.0
 10
238.1949866131867
 20
56.79973083545395
 30
0.0
 10
238.247404542222
 20
56.77288531412246
 30
0.0
 10
238.2779974213604
 20
56.76265982956147
 30
0.0
 10
238.3770782702179
 20
56.73815938912878
 30
0.0
 10
238.4509608078338
 20
56.72989946672729
 30
0.0
 10
238.6040604002251
 20
56.71871350002237
 30
0.0
 10
238.6821443748727
 20
56.71611682827118
 30
0.0
 10
238.8414880086148
 20
56.71408782743747
 30
0.0
 10
238.9201409034464
 20
56.7147254160997
 30
0.0
 10
238.995893371239
 20
56.71781851691474
 30
0.0
  0
SPLINE
  5
20C
330
1F
100
AcDbEntity
  8
0
  6
Continuous
 62
     7
370
    25
100
AcDbSpline
210
0.0
220
0.0
230
1.0
 70
     8
 71
     3
 72
    12
 73
     8
 74
     0
 42
0.000000001
 43
0.00000001
 40
0.0
 40
0.0
 40
0.0
 40
0.0
 40
0.4999999999999983
 40
0.4999999999999983
 40
0.7499999999999991
 40
0.7499999999999991
 40
1.0
 40
1.0
 40
1.0
 40
1.0
 10
238.995893371239
 20
56.71781851691474
 30
0.0
 10
239.1423863727905
 20
56.72380007283892
 30
0.0
 10
239.2882580710521
 20
56.71348323414865
 30
0.0
 10
239.4922212409379
 20
56.67504505630418
 30
0.0
 10
239.558172071379
 20
56.65844898175653
 30
0.0
 10
239.6859200300907
 20
56.61767665697679
 30
0.0
 10
239.7481352501299
 20
56.59328286913838
 30
0.0
 10
239.806906239265
 20
56.56552190459846
 30
0.0
  0
ARC
  5
20D
330
1F
100
AcDbEntity
  8
0
  6
Continuous
 62
     7
370
    25
100
AcDbCircle
 10
222.4769461896
 20
51.8294522102
 30
0.0
 40
4.143252031906411
100
AcDbArc
 50
211.7444095219
 51
236.2139194594
  0
SPLINE
  5
20E
330
1F
100
AcDbEntity
  8
0
  6
Continuous
 62
     7
370
    25
100
AcDbSpline
210
0.0
220
0.0
230
1.0
 70
     8
 71
     3
 72
     8
 73
     4
 74
     0
 42
0.000000001
 43
0.00000001
 40
0.0
 40
0.0
 40
0.0
 40
0.0
 40
1.0
 40
1.0
 40
1.0
 40
1.0
 10
220.3839525701282
 20
48.72481748535979
 30
0.0
 10
219.9071792783041
 20
49.03291029329243
 30
0.0
 10
219.4303769014592
 20
49.34113973886519
 30
0.0
 10
218.9535444569335
 20
49.6495048950851
 30
0.0
  0
SPLINE
  5
20F
330
1F
100
AcDbEntity
  8
0
  6
Continuous
 62
     7
370
    25
100
AcDbSpline
210
0.0
220
0.0
230
1.0
 70
     8
 71
     3
 72
    23
 73
    19
 74
     0
 42
0.000000001
 43
0.00000001
 40
0.0
 40
0.0
 40
0.0
 40
0.0
 40
0.0521036415683759
 40
0.1035646240941235
 40
0.1544751946756683
 40
0.2049306267495642
 40
0.2550287880866983
 40
0.3048696389163111
 40
0.354554670462894
 40
0.4041862979539558
 40
0.453867225213789
 40
0.5036997999428097
 40
0.590187023078111
 40
0.6742716378282376
 40
0.7565997087281883
 40
0.8378563983773627
 40
0.9187511781400207
 40
0.9999999999999999
 40
0.9999999999999999
 40
0.9999999999999999
 40
0.9999999999999999
 10
221.2645173736698
 20
48.5500867872397
 30
0.0
 10
221.25924843473
 20
48.5401653250043
 30
0.0
 10
221.2487755452304
 20
48.52044477427229
 30
0.0
 10
221.2295292494684
 20
48.49587694531883
 30
0.0
 10
221.2077335091362
 20
48.47518836305872
 30
0.0
 10
221.1830822179316
 20
48.45865742776125
 30
0.0
 10
221.1555857033928
 20
48.44613992818493
 30
0.0
 10
221.1251746493854
 20
48.43760530436274
 30
0.0
 10
221.0918042776125
 20
48.43299543171521
 30
0.0
 10
221.0554283893401
 20
48.43226068857961
 30
0.0
 10
221.0160000177503
 20
48.43535577113207
 30
0.0
 10
220.9631516261979
 20
48.44389154661343
 30
0.0
 10
220.8946126324246
 20
48.46148798546303
 30
0.0
 10
220.8068914004674
 20
48.49312459355063
 30
0.0
 10
220.7121604809726
 20
48.53530425088387
 30
0.0
 10
220.6101262336438
 20
48.58804068661016
 30
0.0
 10
220.5012123204577
 20
48.650357242519
 30
0.0
 10
220.4230960094742
 20
48.69996130076842
 30
0.0
 10
220.3839525701282
 20
48.72481748535979
 30
0.0
  0
SPLINE
  5
210
330
1F
100
AcDbEntity
  8
0
  6
Continuous
 62
     7
370
    25
100
AcDbSpline
210
0.0
220
0.0
230
1.0
 70
     8
 71
     3
 72
     8
 73
     4
 74
     0
 42
0.000000001
 43
0.00000001
 40
0.0
 40
0.0
 40
0.0
 40
0.0
 40
1.0
 40
1.0
 40
1.0
 40
1.0
 10
222.7380204001277
 20
47.60276665068091
 30
0.0
 10
222.246653088085
 20
47.91864127064926
 30
0.0
 10
221.7552668881574
 20
48.2346272919396
 30
0.0
 10
221.2638611780121
 20
48.55072417278314
 30
0.0
  0
SPLINE
  5
211
330
1F
100
AcDbEntity
  8
0
  6
Continuous
 62
     7
370
    25
100
AcDbSpline
210
0.0
220
0.0
230
1.0
 70
     8
 71
     3
 72
    18
 73
    14
 74
     0
 42
0.000000001
 43
0.00000001
 40
0.0
 40
0.0
 40
0.0
 40
0.0
 40
0.0923824559461122
 40
0.1844689291660427
 40
0.2764953616062392
 40
0.3686975365619641
 40
0.4613092840130473
 40
0.5545607518559533
 40
0.6486768051632873
 40
0.7438756050210469
 40
0.8403674044324065
 40
0.9203921078135461
 40
1.0
 40
1.0
 40
1.0
 40
1.0
 10
223.5515845193233
 20
46.95845892613914
 30
0.0
 10
223.528017005199
 20
46.97373290040547
 30
0.0
 10
223.4809574845455
 20
47.00423191288744
 30
0.0
 10
223.4085596965799
 20
47.05386448550008
 30
0.0
 10
223.3350774876826
 20
47.10619402816976
 30
0.0
 10
223.2603780399367
 20
47.1615117138782
 30
0.0
 10
223.1845172501686
 20
47.21975002899177
 30
0.0
 10
223.1075059693827
 20
47.28094294062876
 30
0.0
 10
223.0293738373035
 20
47.34510665720914
 30
0.0
 10
222.9501476026624
 20
47.4122556170745
 30
0.0
 10
222.8748511182549
 20
47.47810652681947
 30
0.0
 10
222.8040238101348
 20
47.54163811362685
 30
0.0
 10
222.7601194393284
 20
47.58229885863992
 30
0.0
 10
222.7382245725236
 20
47.60257614720817
 30
0.0
  0
LINE
  5
212
330
1F
100
AcDbEntity
  8
0
  6
Continuous
 62
     7
370
    25
100
AcDbLine
 10
224.1912910512
 20
46.5467051196
 30
0.0
 11
223.5515842088
 21
46.9584587873
 31
0.0
  0
SPLINE
  5
213
330
1F
100
AcDbEntity
  8
0
  6
Continuous
 62
     7
370
    25
100
AcDbSpline
210
0.0
220
0.0
230
1.0
 70
     8
 71
     3
 72
    25
 73
    21
 74
     0
 42
0.000000001
 43
0.00000001
 40
0.0
 40
0.0
 40
0.0
 40
0.0
 40
0.0280105225426455
 40
0.0559601148860774
 40
0.0839014045043129
 40
0.1118870776786379
 40
0.1399695827588941
 40
0.1682008401739877
 40
0.1966319670424218
 40
0.2253130233141493
 40
0.2542927850735863
 40
0.3799486436570518
 40
0.505785022166658
 40
0.6313085886329272
 40
0.7532068238012843
 40
0.8039473267959846
 40
0.8535894438560211
 40
0.902533972239985
 40
0.9511970353794947
 40
1.0
 40
1.0
 40
1.0
 40
1.0
 10
225.2936566443136
 20
47.26261111001622
 30
0.0
 10
225.2986047518442
 20
47.23498724890873
 30
0.0
 10
225.3084902034797
 20
47.17979961580342
 30
0.0
 10
225.3200258530829
 20
47.1006389084335
 30
0.0
 10
225.3290989748956
 20
47.02433556933512
 30
0.0
 10
225.3354677836086
 20
46.9511398083655
 30
0.0
 10
225.3391840224187
 20
46.88099234015212
 30
0.0
 10
225.3402206434015
 20
46.81391605363934
 30
0.0
 10
225.3385721681746
 20
46.7499121444129
 30
0.0
 10
225.3342260163057
 20
46.68898329114607
 30
0.0
 10
225.3193696917383
 20
46.56709516964995
 30
0.0
 10
225.2742814346721
 20
46.4121942979959
 30
0.0
 10
225.1609219141813
 20
46.28125117965241
 30
0.0
 10
224.9990976921883
 20
46.2253747788396
 30
0.0
 10
224.8250824730549
 20
46.24524883122415
 30
0.0
 10
224.6737215523673
 20
46.29256663358061
 30
0.0
 10
224.5633213196684
 20
46.33748205731629
 30
0.0
 10
224.4461618242197
 20
46.39485778860742
 30
0.0
 10
224.3225961572864
 20
46.46353485305987
 30
0.0
 10
224.2351011071919
 20
46.5189550990127
 30
0.0
 10
224.1912907875106
 20
46.54670499674277
 30
0.0
  0
ARC
  5
214
330
1F
100
AcDbEntity
  8
0
  6
Continuous
 62
     7
370
    25
100
AcDbCircle
 10
236.4866778087
 20
49.0486614786
 30
0.0
 40
11.33462419218118
100
AcDbArc
 50
170.9338462887
 51
189.0661537113
  0
SPLINE
  5
215
330
1F
100
AcDbEntity
  8
0
  6
Continuous
 62
     7
370
    25
100
AcDbSpline
210
0.0
220
0.0
230
1.0
 70
     8
 71
     3
 72
    26
 73
    22
 74
     0
 42
0.000000001
 43
0.00000001
 40
0.0
 40
0.0
 40
0.0
 40
0.0
 40
0.0241259796963637
 40
0.048215991227299
 40
0.0723203915124064
 40
0.0964895678710793
 40
0.120773623196351
 40
0.1452220711242841
 40
0.1698835501657706
 40
0.1948055644472381
 40
0.2200342569517629
 40
0.2456142191611394
 40
0.3690971486901671
 40
0.4940698769485191
 40
0.6192566784762444
 40
0.7454656653603234
 40
0.7971495824713715
 40
0.8481710308405401
 40
0.8988013269235245
 40
0.9493179290492194
 40
1.0
 40
1.0
 40
1.0
 40
1.0
 10
224.1912907875106
 20
54.31081538810734
 30
0.0
 10
224.2130090168866
 20
54.29648386471225
 30
0.0
 10
224.2564130970627
 20
54.26784218404321
 30
0.0
 10
224.3197202144241
 20
54.21984988611439
 30
0.0
 10
224.3815817821421
 20
54.16825068822871
 30
0.0
 10
224.4418862972786
 20
54.11267589535548
 30
0.0
 10
224.5006761492184
 20
54.05322065472834
 30
0.0
 10
224.5579566676482
 20
53.98985634589092
 30
0.0
 10
224.6137478069744
 20
53.922587567927
 30
0.0
 10
224.6680690543962
 20
53.85141345396688
 30
0.0
 10
224.7209480296052
 20
53.7763243142186
 30
0.0
 10
224.8377428543415
 20
53.59706986551674
 30
0.0
 10
224.999612412268
 20
53.28676439367336
 30
0.0
 10
225.1627973197999
 20
52.81685060554168
 30
0.0
 10
225.2743087249733
 20
52.31788757163163
 30
0.0
 10
225.3214425630818
 20
51.90900389857463
 30
0.0
 10
225.3365615026143
 20
51.60473194198392
 30
0.0
 10
225.3385146415969
 20
51.40348270028861
 30
0.0
 10
225.3320366159577
 20
51.20782278056601
 30
0.0
 10
225.3179096932706
 20
51.01718649266854
 30
0.0
 10
225.3017498015856
 20
50.89560321892974
 30
0.0
 10
225.2936566443135
 20
50.83471218233085
 30
0.0
  0
LINE
  5
216
330
1F
100
AcDbEntity
  8
0
  6
Continuous
 62
     7
370
    25
100
AcDbLine
 10
223.5515842088
 20
54.7237902384
 30
0.0
 11
224.1912910512
 21
54.3108152674
 31
0.0
  0
SPLINE
  5
217
330
1F
100
AcDbEntity
  8
0
  6
Continuous
 62
     7
370
    25
100
AcDbSpline
210
0.0
220
0.0
230
1.0
 70
     8
 71
     3
 72
    14
 73
    10
 74
     0
 42
0.000000001
 43
0.00000001
 40
0.0
 40
0.0
 40
0.0
 40
0.0
 40
0.0789261963152472
 40
0.1582328720511064
 40
0.3308475394503796
 40
0.5000195457530386
 40
0.6670357883499396
 40
0.8332395193610692
 40
1.0
 40
1.0
 40
1.0
 40
1.0
 10
222.7376318034733
 20
54.93237267139031
 30
0.0
 10
222.7593486848085
 20
54.93397583524904
 30
0.0
 10
222.802887138023
 20
54.93718989133664
 30
0.0
 10
222.8944122566699
 20
54.93801093140614
 30
0.0
 10
223.0113205901012
 20
54.93007494962466
 30
0.0
 10
223.152140928482
 20
54.90379928074781
 30
0.0
 10
223.2893532362945
 20
54.86084168221546
 30
0.0
 10
223.4232839107129
 20
54.8024845574046
 30
0.0
 10
223.5087700026739
 20
54.75005101125343
 30
0.0
 10
223.5515845193233
 20
54.72379040109822
 30
0.0
  0
SPLINE
  5
218
330
1F
100
AcDbEntity
  8
0
  6
Continuous
 62
     7
370
    25
100
AcDbSpline
210
0.0
220
0.0
230
1.0
 70
     8
 71
     3
 72
     8
 73
     4
 74
     0
 42
0.000000001
 43
0.00000001
 40
0.0
 40
0.0
 40
0.0
 40
0.0
 40
1.0
 40
1.0
 40
1.0
 40
1.0
 10
220.9353282204676
 20
56.09476408280463
 30
0.0
 10
221.5360864441645
 20
55.70749659964523
 30
0.0
 10
222.1368153070257
 20
55.32002924972141
 30
0.0
 10
222.7375159513734
 20
54.93236235713128
 30
0.0
  0
SPLINE
  5
219
330
1F
100
AcDbEntity
  8
0
  6
Continuous
 62
     7
370
    25
100
AcDbSpline
210
0.0
220
0.0
230
1.0
 70
     8
 71
     3
 72
    13
 73
     9
 74
     0
 42
0.000000001
 43
0.00000001
 40
0.0
 40
0.0
 40
0.0
 40
0.0
 40
0.1667030582307959
 40
0.3329480818053031
 40
0.4990671507274871
 40
0.6653938523718408
 40
0.8322612710550125
 40
1.0
 40
1.0
 40
1.0
 40
1.0
 10
220.5934996854332
 20
56.39582886189041
 30
0.0
 10
220.6138008678732
 20
56.38226375521118
 30
0.0
 10
220.6543474530618
 20
56.35517081344835
 30
0.0
 10
220.7134970900495
 20
56.30997624044063
 30
0.0
 10
220.771268634952
 20
56.26156509195767
 30
0.0
 10
220.8275183724116
 20
56.20952997718722
 30
0.0
 10
220.8824455811577
 20
56.15423200997819
 30
0.0
 10
220.9176662907483
 20
56.11461475481783
 30
0.0
 10
220.9353225026892
 20
56.0947545458169
 30
0.0
  0
SPLINE
  5
21A
330
1F
100
AcDbEntity
  8
0
  6
Continuous
 62
     7
370
    25
100
AcDbSpline
210
0.0
220
0.0
230
1.0
 70
     8
 71
     3
 72
     8
 73
     4
 74
     0
 42
0.000000001
 43
0.00000001
 40
0.0
 40
0.0
 40
0.0
 40
0.0
 40
1.0
 40
1.0
 40
1.0
 40
1.0
 10
218.6495191696425
 20
57.65055071426989
 30
0.0
 10
219.2975492420427
 20
57.23255539838514
 30
0.0
 10
219.9455422191446
 20
56.81431463596751
 30
0.0
 10
220.5934996854332
 20
56.39582886189041
 30
0.0
  0
LWPOLYLINE
  5
21B
330
1F
100
AcDbEntity
  8
0
  6
Continuous
 62
     7
370
    25
100
AcDbPolyline
 90
       19
 70
   128
 43
0.0
 10
218.6495198199
 20
57.6505507648
 10
219.0524120816
 20
58.8175147502
 10
219.5423672199
 20
59.9775191749
 10
220.1133674551
 20
61.116316571
 10
220.7583986298
 20
62.2199192618
 10
221.469539112
 20
63.2747738803
 10
222.2380542967
 20
64.2679235289
 10
223.0545052653
 20
65.1871701277
 10
223.9088641961
 20
66.0212243103
 10
224.7906375116
 20
66.7598403943
 10
225.6889951592
 20
67.3939480478
 10
226.5929033081
 20
67.9157577918
 10
227.4912599679
 20
68.318861344
 10
228.3730313901
 20
68.5983080808
 10
229.2273873574
 20
68.7506648868
 10
230.0438347041
 20
68.7740612949
 10
230.8123452789
 20
68.6682093654
 10
231.5234804928
 20
68.4344094247
 10
231.6992575465
 20
68.3522977299
  0
SPLINE
  5
21C
330
1F
100
AcDbEntity
  8
0
  6
Continuous
 62
     7
370
    25
100
AcDbSpline
210
0.0
220
0.0
230
1.0
 70
    11
 71
     3
 72
    39
 73
    35
 74
     0
 42
0.000000001
 43
0.00000001
 40
0.0
 40
0.0
 40
0.0
 40
0.0
 40
0.0310664058350965
 40
0.0621048158425859
 40
0.093136155179263
 40
0.1235538293503448
 40
0.1538561545806855
 40
0.1850588072748946
 40
0.2160250992945718
 40
0.2471867223797388
 40
0.2784462884305076
 40
0.3100516090231096
 40
0.3419834369141944
 40
0.3734259894013148
 40
0.4048604886786042
 40
0.4368740651833136
 40
0.4685120685925458
 40
0.4998055358633138
 40
0.5309508213230685
 40
0.5618649784438015
 40
0.5930416446594986
 40
0.6233742450133227
 40
0.6540913579075065
 40
0.6849496782718291
 40
0.71581606451649
 40
0.7471731804043279
 40
0.7784514311862922
 40
0.8101295911560753
 40
0.8419598919688862
 40
0.8735175891922173
 40
0.9050808037887091
 40
0.9370235169792366
 40
0.968744159003463
 40
1.0
 40
1.0
 40
1.0
 40
1.0
 10
231.8581046508479
 20
66.65574108961133
 30
0.0
 10
232.1209902710482
 20
66.62720660232031
 30
0.0
 10
232.6478788815309
 20
66.54126411399714
 30
0.0
 10
233.4118909506047
 20
66.34088899392776
 30
0.0
 10
234.1190411386534
 20
66.0938868877087
 30
0.0
 10
234.7319522032476
 20
65.81590500955664
 30
0.0
 10
235.2290835289221
 20
65.52177131222675
 30
0.0
 10
235.5882752499944
 20
65.2202647840347
 30
0.0
 10
235.8099945187552
 20
64.91326727913135
 30
0.0
 10
235.8752463961365
 20
64.60276201772949
 30
0.0
 10
235.7883991850234
 20
64.28361753298024
 30
0.0
 10
235.546053597263
 20
63.9542975674072
 30
0.0
 10
235.1661157345375
 20
63.6153568458494
 30
0.0
 10
234.6523097813772
 20
63.27751838143908
 30
0.0
 10
234.0264189704664
 20
62.95162048013147
 30
0.0
 10
233.3129479839778
 20
62.65497358689043
 30
0.0
 10
232.5490455077136
 20
62.3988702784504
 30
0.0
 10
231.7632524248072
 20
62.20984271046198
 30
0.0
 10
230.9817149697666
 20
62.10166678840844
 30
0.0
 10
230.2256019850112
 20
62.09400290503959
 30
0.0
 10
229.5232373986215
 20
62.19192494042607
 30
0.0
 10
228.9042170515774
 20
62.41357337392967
 30
0.0
 10
228.3951597865681
 20
62.74944146084163
 30
0.0
 10
228.0222161931333
 20
63.18925202702052
 30
0.0
 10
227.7936142418884
 20
63.7003266675428
 30
0.0
 10
227.7247679351663
 20
64.25151175530344
 30
0.0
 10
227.80938434839
 20
64.8091836836163
 30
0.0
 10
228.052493138326
 20
65.33926382453578
 30
0.0
 10
228.4346229811428
 20
65.81178817365065
 30
0.0
 10
228.9507585555554
 20
66.1979096845435
 30
0.0
 10
229.5777364160579
 20
66.48153387187567
 30
0.0
 10
230.2936438484241
 20
66.65127109060309
 30
0.0
 10
231.0620872406083
 20
66.71280992531592
 30
0.0
 10
231.5936160199817
 20
66.68444957305866
 30
0.0
 10
231.8581046508479
 20
66.65574108961133
 30
0.0
  0
LINE
  5
21D
330
1F
100
AcDbEntity
  8
0
  6
Continuous
 62
     7
370
    25
100
AcDbLine
 10
222.6334500169
 20
50.216732355
 30
0.0
 11
222.9447752867
 21
50.050046392
 31
0.0
  0
LINE
  5
21E
330
1F
100
AcDbEntity
  8
0
  6
Continuous
 62
     7
370
    25
100
AcDbLine
 10
221.6466079008
 20
50.7864241824
 30
0.0
 11
222.6334500169
 21
50.216732355
 31
0.0
  0
ARC
  5
21F
330
1F
100
AcDbEntity
  8
0
  6
Continuous
 62
     7
370
    25
100
AcDbCircle
 10
223.8675791287
 20
54.3798539735
 30
0.0
 40
4.484274790565987
100
AcDbArc
 50
267.6840627222
 51
286.9866336569
  0
SPLINE
  5
220
330
1F
100
AcDbEntity
  8
0
  6
Continuous
 62
     7
370
    25
100
AcDbSpline
210
0.0
220
0.0
230
1.0
 70
     8
 71
     3
 72
    13
 73
     9
 74
     0
 42
0.000000001
 43
0.00000001
 40
0.0
 40
0.0
 40
0.0
 40
0.0
 40
0.2512101538376236
 40
0.3783067624295602
 40
0.5053129060033886
 40
0.7241877491152423
 40
0.932071107513572
 40
1.0
 40
1.0
 40
1.0
 40
1.0
 10
233.1966106091472
 20
63.65324537427558
 30
0.0
 10
232.8461634131334
 20
63.84035008930053
 30
0.0
 10
232.3184118788057
 20
64.12211807477037
 30
0.0
 10
231.4651733049701
 20
64.43726253093757
 30
0.0
 10
230.6310147621721
 20
64.67123269262203
 30
0.0
 10
229.6302511466322
 20
64.7873008169369
 30
0.0
 10
228.7853760943653
 20
64.69464270943077
 30
0.0
 10
228.4046699452491
 20
64.51670759703649
 30
0.0
 10
228.3109070794254
 20
64.47288454319961
 30
0.0
  0
SPLINE
  5
221
330
1F
100
AcDbEntity
  8
0
  6
Continuous
 62
     7
370
    25
100
AcDbSpline
210
0.0
220
0.0
230
1.0
 70
     8
 71
     3
 72
    10
 73
     6
 74
     0
 42
0.000000001
 43
0.00000001
 40
0.0
 40
0.0
 40
0.0
 40
0.0
 40
0.3798174073072795
 40
0.9603711649033085
 40
1.0
 40
1.0
 40
1.0
 40
1.0
 10
234.3364907310067
 20
63.1250184467571
 30
0.0
 10
234.2068381137583
 20
63.19534700859447
 30
0.0
 10
233.8790104980039
 20
63.37317330501557
 30
0.0
 10
233.4710819529937
 20
63.546226155418
 30
0.0
 10
233.2144491715618
 20
63.64543158766631
 30
0.0
 10
233.1980506813501
 20
63.65177068160668
 30
0.0
  0
SPLINE
  5
222
330
1F
100
AcDbEntity
  8
0
  6
Continuous
 62
     7
370
    25
100
AcDbSpline
210
0.0
220
0.0
230
1.0
 70
     8
 71
     3
 72
    24
 73
    20
 74
     0
 42
0.000000001
 43
0.00000001
 40
0.0
 40
0.0
 40
0.0
 40
0.0
 40
0.0618858212107145
 40
0.1150115607194259
 40
0.1593831488268445
 40
0.2428114970815824
 40
0.318331853291959
 40
0.3935543804326023
 40
0.4204843226990471
 40
0.4483397435477174
 40
0.4771286702554668
 40
0.5451537905345539
 40
0.6363475754294583
 40
0.6968782859867285
 40
0.7498596693403015
 40
0.7959701295389731
 40
0.8771179302751783
 40
0.9543004207779655
 40
1.0
 40
1.0
 40
1.0
 40
1.0
 10
231.8032260838456
 20
66.08188318965455
 30
0.0
 10
231.6192692945094
 20
66.1007777546205
 30
0.0
 10
231.2773952265471
 20
66.135892315005
 30
0.0
 10
230.8131772535703
 20
66.12940176661772
 30
0.0
 10
230.3037156412974
 20
66.08167757382041
 30
0.0
 10
229.7646205419228
 20
65.9570609756535
 30
0.0
 10
229.2217825571992
 20
65.7145706917105
 30
0.0
 10
228.8813895417041
 20
65.4571979410846
 30
0.0
 10
228.6747628331531
 20
65.24239084058578
 30
0.0
 10
228.5567787769421
 20
65.0958874892868
 30
0.0
 10
228.404608372751
 20
64.86613666506635
 30
0.0
 10
228.2379277341714
 20
64.49319396963934
 30
0.0
 10
228.1695661533341
 20
64.03063491694644
 30
0.0
 10
228.2199216169536
 20
63.60230221874462
 30
0.0
 10
228.3253507604688
 20
63.28237532510024
 30
0.0
 10
228.5075500871548
 20
62.94190980990705
 30
0.0
 10
228.8084285122253
 20
62.60596155305196
 30
0.0
 10
229.1981134068238
 20
62.33290225233694
 30
0.0
 10
229.4910323630182
 20
62.23894718140964
 30
0.0
 10
229.5999682970745
 20
62.20400549124469
 30
0.0
  0
SPLINE
  5
223
330
1F
100
AcDbEntity
  8
0
  6
Continuous
 62
     7
370
    25
100
AcDbSpline
210
0.0
220
0.0
230
1.0
 70
     8
 71
     3
 72
    22
 73
    18
 74
     0
 42
0.000000001
 43
0.00000001
 40
0.0
 40
0.0
 40
0.0
 40
0.0
 40
0.0231900027626869
 40
0.0815204271089806
 40
0.1467370422692523
 40
0.218879414180508
 40
0.2808195526746297
 40
0.3341168806933331
 40
0.3787708520581123
 40
0.4147841591390464
 40
0.5179344494790684
 40
0.609888786857748
 40
0.7032147671724752
 40
0.7529606876203856
 40
0.8048048067718904
 40
0.8938801455667607
 40
0.9999999999999999
 40
0.9999999999999999
 40
0.9999999999999999
 40
0.9999999999999999
 10
235.1042052901641
 20
63.60080788026858
 30
0.0
 10
235.1287268720351
 20
63.62391643108128
 30
0.0
 10
235.2149282342328
 20
63.70515052800654
 30
0.0
 10
235.3227241839364
 20
63.84855447894157
 30
0.0
 10
235.419886823269
 20
64.03732854641628
 30
0.0
 10
235.4509400847655
 20
64.22329412708876
 30
0.0
 10
235.4215866137972
 20
64.39510878363934
 30
0.0
 10
235.3530805956713
 20
64.54191471784284
 30
0.0
 10
235.2652701861387
 20
64.66312577341618
 30
0.0
 10
235.1109784039341
 20
64.82870888297882
 30
0.0
 10
234.8431524535099
 20
65.03887314727301
 30
0.0
 10
234.3915821995504
 20
65.29431695090075
 30
0.0
 10
233.9440195899485
 20
65.50095364919068
 30
0.0
 10
233.5351258172258
 20
65.65945786560523
 30
0.0
 10
233.1130462183798
 20
65.80197461359741
 30
0.0
 10
232.5347336005658
 20
65.96523118242692
 30
0.0
 10
232.0608550067742
 20
66.04079963235324
 30
0.0
 10
231.8032260838456
 20
66.08188318965453
 30
0.0
  0
LINE
  5
224
330
1F
100
AcDbEntity
  8
0
  6
Continuous
 62
     7
370
    25
100
AcDbLine
 10
225.293656362
 20
50.8347120015
 30
0.0
 11
225.2884182989
 21
51.1307954245
 31
0.0
  0
LINE
  5
225
330
1F
100
AcDbEntity
  8
0
  6
Continuous
 62
     7
370
    25
100
AcDbLine
 10
225.2884182989
 20
51.1307954245
 30
0.0
 11
225.3315187199
 21
51.7824590223
 31
0.0
  0
LINE
  5
226
330
1F
100
AcDbEntity
  8
0
  6
Continuous
 62
     7
370
    25
100
AcDbLine
 10
224.9013337397
 20
53.513918128
 30
0.0
 11
224.4974549784
 21
53.9400802114
 31
0.0
  0
SPLINE
  5
227
330
1F
100
AcDbEntity
  8
0
  6
Continuous
 62
     7
370
    25
100
AcDbSpline
210
0.0
220
0.0
230
1.0
 70
     8
 71
     3
 72
    18
 73
    14
 74
     0
 42
0.000000001
 43
0.00000001
 40
0.0
 40
0.0
 40
0.0
 40
0.0
 40
0.0707943140208255
 40
0.1980684859852275
 40
0.3219456980797736
 40
0.4427972789066824
 40
0.5640588087926915
 40
0.6887793780430184
 40
0.7629730969043459
 40
0.811666558538083
 40
0.8526846007253863
 40
0.9053445042636868
 40
1.0
 40
1.0
 40
1.0
 40
1.0
 10
228.2233402721423
 20
63.82323440195914
 30
0.0
 10
228.2214635615741
 20
64.00092455990983
 30
0.0
 10
228.2162128966581
 20
64.49806647090311
 30
0.0
 10
228.5935437696907
 20
65.18105928446428
 30
0.0
 10
229.3275422615947
 20
65.76723290231642
 30
0.0
 10
230.315544420156
 20
66.06424876711688
 30
0.0
 10
231.4346701955194
 20
66.05671087070338
 30
0.0
 10
232.4181262466298
 20
65.77466078528322
 30
0.0
 10
233.0951464448979
 20
65.36991262734459
 30
0.0
 10
233.4598460096536
 20
64.9945274725452
 30
0.0
 10
233.653727227758
 20
64.60263456378706
 30
0.0
 10
233.7156618190028
 20
64.08858396301845
 30
0.0
 10
233.6488938421958
 20
63.73509022232814
 30
0.0
 10
233.6059929915373
 20
63.50795765214549
 30
0.0
  0
SPLINE
  5
228
330
1F
100
AcDbEntity
  8
0
  6
Continuous
 62
     7
370
    25
100
AcDbSpline
210
0.0
220
0.0
230
1.0
 70
     8
 71
     3
 72
    10
 73
     6
 74
     0
 42
0.000000001
 43
0.00000001
 40
0.0
 40
0.0
 40
0.0
 40
0.0
 40
0.2952204873994457
 40
0.9807175224097985
 40
1.0
 40
1.0
 40
1.0
 40
1.0
 10
233.6087208475255
 20
63.5067190987231
 30
0.0
 10
233.6915444296147
 20
63.46795415773376
 30
0.0
 10
233.9666829843239
 20
63.33917767200162
 30
0.0
 10
234.2416075950672
 20
63.19798958999924
 30
0.0
 10
234.3900672215674
 20
63.10401216575423
 30
0.0
 10
234.3941290158873
 20
63.10144098207964
 30
0.0
  0
ARC
  5
229
330
1F
100
AcDbEntity
  8
0
  6
Continuous
 62
     7
370
    25
100
AcDbCircle
 10
237.6188294129
 20
49.2935001064
 30
0.0
 40
12.46654291792339
100
AcDbArc
 50
171.5249863735
 51
179.8211981812
  0
SPLINE
  5
22A
330
1F
100
AcDbEntity
  8
0
  6
Continuous
 62
     7
370
    25
100
AcDbSpline
210
0.0
220
0.0
230
1.0
 70
     8
 71
     3
 72
    14
 73
    10
 74
     0
 42
0.000000001
 43
0.00000001
 40
0.0
 40
0.0
 40
0.0
 40
0.0
 40
0.0003951393068452
 40
0.0003951393068452
 40
0.0003951393068452
 40
0.0008163352168664
 40
0.0008163352168664
 40
0.0008163352168664
 40
0.0012378579337219
 40
0.0012378579337219
 40
0.0012378579337219
 40
0.0012378579337219
 10
233.2006431846869
 20
63.65196642089124
 30
0.0
 10
233.2461049989182
 20
63.63752955826621
 30
0.0
 10
233.2909926035392
 20
63.62266369770062
 30
0.0
 10
233.3352762962143
 20
63.60737991009513
 30
0.0
 10
233.3824795884537
 20
63.59108847075745
 30
0.0
 10
233.4290054015129
 20
63.57431899267353
 30
0.0
 10
233.4748163107545
 20
63.55709018187824
 30
0.0
 10
233.5206626987436
 20
63.53984802804661
 30
0.0
 10
233.565801934316
 20
63.52214232184211
 30
0.0
 10
233.6101954923584
 20
63.50399946515131
 30
0.0
  0
LINE
  5
22B
330
1F
100
AcDbEntity
  8
0
  6
Continuous
 62
     7
370
    25
100
AcDbLine
 10
224.4974549784
 20
53.9400802114
 30
0.0
 11
223.857518304
 21
54.3523118516
 31
0.0
  0
LINE
  5
22C
330
1F
100
AcDbEntity
  8
0
  6
Continuous
 62
     7
370
    25
100
AcDbLine
 10
223.5515842088
 20
54.7237902384
 30
0.0
 11
223.857518304
 21
54.3523118516
 31
0.0
  0
SPLINE
  5
22D
330
1F
100
AcDbEntity
  8
0
  6
Continuous
 62
     7
370
    25
100
AcDbSpline
210
0.0
220
0.0
230
1.0
 70
     8
 71
     3
 72
    13
 73
     9
 74
     0
 42
0.000000001
 43
0.00000001
 40
0.0
 40
0.0
 40
0.0
 40
0.0
 40
0.1618542298650875
 40
0.3254858841233149
 40
0.4910085196246548
 40
0.6585318472470939
 40
0.8281616954004768
 40
1.0
 40
1.0
 40
1.0
 40
1.0
 10
223.8575187156653
 20
54.35231185546134
 30
0.0
 10
223.8379413236503
 20
54.36487483249296
 30
0.0
 10
223.7985715478084
 20
54.39013874860912
 30
0.0
 10
223.7370356080423
 20
54.42283244552198
 30
0.0
 10
223.6734789487943
 20
54.45177851922881
 30
0.0
 10
223.607860846136
 20
54.47629088669582
 30
0.0
 10
223.5404335770767
 20
54.49672595005165
 30
0.0
 10
223.4945489768747
 20
54.5063226050429
 30
0.0
 10
223.4714582966974
 20
54.51115196587853
 30
0.0
  0
SPLINE
  5
22E
330
1F
100
AcDbEntity
  8
0
  6
Continuous
 62
     7
370
    25
100
AcDbSpline
210
0.0
220
0.0
230
1.0
 70
     8
 71
     3
 72
     9
 73
     5
 74
     0
 42
0.000000001
 43
0.00000001
 40
0.0
 40
0.0
 40
0.0
 40
0.0
 40
0.4907282259506041
 40
1.0
 40
1.0
 40
1.0
 40
1.0
 10
223.4714524694054
 20
54.51112396884751
 30
0.0
 10
223.4473589469276
 20
54.51921950106564
 30
0.0
 10
223.3982614603684
 20
54.53571647798691
 30
0.0
 10
223.3475607665482
 20
54.55051014700315
 30
0.0
 10
223.3217403342609
 20
54.55804414506775
 30
0.0
  0
SPLINE
  5
22F
330
1F
100
AcDbEntity
  8
0
  6
Continuous
 62
     7
370
    25
100
AcDbSpline
210
0.0
220
0.0
230
1.0
 70
     8
 71
     3
 72
    14
 73
    10
 74
     0
 42
0.000000001
 43
0.00000001
 40
0.0
 40
0.0
 40
0.0
 40
0.0
 40
0.0310276388093398
 40
0.0622853718693698
 40
0.1248003166924349
 40
0.2498289731770658
 40
0.4998892603621822
 40
0.7606803621577949
 40
1.0
 40
1.0
 40
1.0
 40
1.0
 10
222.7377996449729
 20
54.93215188771364
 30
0.0
 10
222.7437918843778
 20
54.92832084405968
 30
0.0
 10
222.7558208003372
 20
54.9206303465616
 30
0.0
 10
222.7798806083869
 20
54.90519245705465
 30
0.0
 10
222.8221142810332
 20
54.87812200412376
 30
0.0
 10
222.9066768555455
 20
54.82390997932832
 30
0.0
 10
223.0299638250139
 20
54.74490679746356
 30
0.0
 10
223.1760955314677
 20
54.65130062278583
 30
0.0
 10
223.2744621480088
 20
54.58831754639336
 30
0.0
 10
223.3215338486953
 20
54.55817804760286
 30
0.0
  0
LINE
  5
230
330
1F
100
AcDbEntity
  8
0
  6
Continuous
 62
     7
370
    25
100
AcDbLine
 10
220.9352994897
 20
56.0947825647
 30
0.0
 11
221.2262668439
 21
55.9067040256
 31
0.0
  0
SPLINE
  5
231
330
1F
100
AcDbEntity
  8
0
  6
Continuous
 62
     7
370
    25
100
AcDbSpline
210
0.0
220
0.0
230
1.0
 70
     8
 71
     3
 72
     8
 73
     4
 74
     0
 42
0.000000001
 43
0.00000001
 40
0.0
 40
0.0
 40
0.0
 40
0.0
 40
1.0
 40
1.0
 40
1.0
 40
1.0
 10
221.2576551472678
 20
55.88648149540244
 30
0.0
 10
221.247212641416
 20
55.89330692029984
 30
0.0
 10
221.2367467085262
 20
55.90004988708637
 30
0.0
 10
221.2262589437096
 20
55.90670897473936
 30
0.0
  0
SPLINE
  5
232
330
1F
100
AcDbEntity
  8
0
  6
Continuous
 62
     7
370
    25
100
AcDbSpline
210
0.0
220
0.0
230
1.0
 70
     8
 71
     3
 72
     8
 73
     4
 74
     0
 42
0.000000001
 43
0.00000001
 40
0.0
 40
0.0
 40
0.0
 40
0.0
 40
1.0
 40
1.0
 40
1.0
 40
1.0
 10
218.4716507684421
 20
57.76473714721278
 30
0.0
 10
218.5306505326127
 20
57.72599648029338
 30
0.0
 10
218.5899380961238
 20
57.68793450299367
 30
0.0
 10
218.6495191696129
 20
57.65055071453298
 30
0.0
  0
SPLINE
  5
233
330
1F
100
AcDbEntity
  8
0
  6
Continuous
 62
     7
370
    25
100
AcDbSpline
210
0.0
220
0.0
230
1.0
 70
     8
 71
     3
 72
     8
 73
     4
 74
     0
 42
0.000000001
 43
0.00000001
 40
0.0
 40
0.0
 40
0.0
 40
0.0
 40
1.0
 40
1.0
 40
1.0
 40
1.0
 10
218.4468010223444
 20
58.12794732514984
 30
0.0
 10
218.454275234435
 20
58.00698948443862
 30
0.0
 10
218.462571338325
 20
57.8859176420286
 30
0.0
 10
218.4716507684439
 20
57.7647371472134
 30
0.0
  0
LWPOLYLINE
  5
234
330
1F
100
AcDbEntity
  8
0
  6
Continuous
 62
     7
370
    25
100
AcDbPolyline
 90
       15
 70
   128
 43
0.0
 10
218.4468013811
 20
58.1279466597
 10
218.8622527451
 20
59.2921980363
 10
219.3667841075
 20
60.4467436313
 10
219.9537362664
 20
61.5763443935
 10
220.6153614456
 20
62.6660887527
 10
221.3429253693
 20
63.7015914717
 10
222.1268241536
 20
64.6691835608
 10
222.9567100888
 20
65.5560928762
 10
223.8216282869
 20
66.3506112182
 10
224.7101613148
 20
67.0422508314
 10
225.6105802479
 20
67.6218817956
 10
226.510999181
 20
68.081852403
 10
227.3995322089
 20
68.4160911874
 10
228.264450407
 20
68.6201861408
 10
228.4107638501
 20
68.6420543512
  0
SPLINE
  5
235
330
1F
100
AcDbEntity
  8
0
  6
Continuous
 62
     7
370
    25
100
AcDbSpline
210
0.0
220
0.0
230
1.0
 70
     8
 71
     3
 72
    10
 73
     6
 74
     0
 42
0.000000001
 43
0.00000001
 40
0.0
 40
0.0
 40
0.0
 40
0.0
 40
0.2409818396634726
 40
0.5031433556203718
 40
1.0
 40
1.0
 40
1.0
 40
1.0
 10
224.4974549783831
 20
47.23423858819601
 30
0.0
 10
224.5797008493861
 20
47.18256206627546
 30
0.0
 10
224.7514211067306
 20
47.07466721958408
 30
0.0
 10
225.0291424657575
 20
46.94494450911984
 30
0.0
 10
225.1501197128015
 20
46.96772245022483
 30
0.0
 10
225.229311953717
 20
46.98263299120356
 30
0.0
  0
LINE
  5
236
330
1F
100
AcDbEntity
  8
0
  6
Continuous
 62
     7
370
    25
100
AcDbLine
 10
219.7142809222
 20
56.9633113211
 30
0.0
 11
218.9524022199
 21
57.4539457288
 31
0.0
  0
LINE
  5
237
330
1F
100
AcDbEntity
  8
0
  6
Continuous
 62
     7
370
    25
100
AcDbLine
 10
218.9524022199
 20
57.4539457288
 30
0.0
 11
218.4716508996
 21
57.7647371049
 31
0.0
  0
LINE
  5
238
330
1F
100
AcDbEntity
  8
0
  6
Continuous
 62
     7
370
    25
100
AcDbLine
 10
223.5515842088
 20
46.9584587873
 30
0.0
 11
223.857518304
 21
47.6464702283
 31
0.0
  0
LINE
  5
239
330
1F
100
AcDbEntity
  8
0
  6
Continuous
 62
     7
370
    25
100
AcDbLine
 10
223.857518304
 20
47.6464702283
 30
0.0
 11
224.4974549784
 21
47.2342385882
 31
0.0
  0
SPLINE
  5
23A
330
1F
100
AcDbEntity
  8
0
  6
Continuous
 62
     7
370
    25
100
AcDbSpline
210
0.0
220
0.0
230
1.0
 70
     8
 71
     3
 72
    13
 73
     9
 74
     0
 42
0.000000001
 43
0.00000001
 40
0.0
 40
0.0
 40
0.0
 40
0.0
 40
0.1722587823402174
 40
0.3421398270982735
 40
0.5097456257612809
 40
0.6751828993009421
 40
0.8385626189970466
 40
1.0
 40
1.0
 40
1.0
 40
1.0
 10
223.4714467848921
 20
47.92777993371464
 30
0.0
 10
223.4945983088428
 20
47.90966034278162
 30
0.0
 10
223.5405817895916
 20
47.87367127084758
 30
0.0
 10
223.6081228023025
 20
47.82267128743239
 30
0.0
 10
223.6737824169878
 20
47.77434660724173
 30
0.0
 10
223.7373064882381
 20
47.7289156013324
 30
0.0
 10
223.79873686696
 20
47.68609003357217
 30
0.0
 10
223.8380030339337
 20
47.65962421639672
 30
0.0
 10
223.8575187156653
 20
47.64647043784962
 30
0.0
  0
SPLINE
  5
23B
330
1F
100
AcDbEntity
  8
0
  6
Continuous
 62
     7
370
    25
100
AcDbSpline
210
0.0
220
0.0
230
1.0
 70
     8
 71
     3
 72
    11
 73
     7
 74
     0
 42
0.000000001
 43
0.00000001
 40
0.0
 40
0.0
 40
0.0
 40
0.0
 40
0.239284509383631
 40
0.5001120454057238
 40
0.7515010915050501
 40
1.0
 40
1.0
 40
1.0
 40
1.0
 10
223.322066373416
 20
47.9750939259275
 30
0.0
 10
223.2749971414247
 20
47.94677940322129
 30
0.0
 10
223.1766209868317
 20
47.88760117266316
 30
0.0
 10
223.0303237652463
 20
47.79441327220579
 30
0.0
 10
222.882483021585
 20
47.69904135623342
 30
0.0
 10
222.7861965588689
 20
47.63450610096516
 30
0.0
 10
222.7383316710118
 20
47.60242503090493
 30
0.0
  0
SPLINE
  5
23C
330
1F
100
AcDbEntity
  8
0
  6
Continuous
 62
     7
370
    25
100
AcDbSpline
210
0.0
220
0.0
230
1.0
 70
     8
 71
     3
 72
     9
 73
     5
 74
     0
 42
0.000000001
 43
0.00000001
 40
0.0
 40
0.0
 40
0.0
 40
0.0
 40
0.509066935386983
 40
0.9999999999999999
 40
0.9999999999999999
 40
0.9999999999999999
 40
0.9999999999999999
 10
223.3226373770001
 20
47.97439497171574
 30
0.0
 10
223.3482859516241
 20
47.96690226355586
 30
0.0
 10
223.3986694529696
 20
47.9521837508436
 30
0.0
 10
223.4474769644649
 20
47.93579139299143
 30
0.0
 10
223.4714381856594
 20
47.92774384251484
 30
0.0
  0
LINE
  5
23D
330
1F
100
AcDbEntity
  8
0
  6
Continuous
 62
     7
370
    25
100
AcDbLine
 10
225.1525559571
 20
48.898273539
 30
0.0
 11
223.4714400008
 21
47.9277859548
 31
0.0
  0
LINE
  5
23E
330
1F
100
AcDbEntity
  8
0
  6
Continuous
 62
     7
370
    25
100
AcDbLine
 10
221.4649523495
 20
49.0516072534
 30
0.0
 11
221.264656696
 21
48.5504498392
 31
0.0
  0
SPLINE
  5
23F
330
1F
100
AcDbEntity
  8
0
  6
Continuous
 62
     7
370
    25
100
AcDbSpline
210
0.0
220
0.0
230
1.0
 70
     8
 71
     3
 72
     8
 73
     4
 74
     0
 42
0.000000001
 43
0.00000001
 40
0.0
 40
0.0
 40
0.0
 40
0.0
 40
1.0
 40
1.0
 40
1.0
 40
1.0
 10
221.46450917886
 20
49.05239100557709
 30
0.0
 10
221.4906845134292
 20
49.07455838255535
 30
0.0
 10
221.5165055533946
 20
49.09719052364697
 30
0.0
 10
221.541963107103
 20
49.12027524373826
 30
0.0
  0
LINE
  5
240
330
1F
100
AcDbEntity
  8
0
  6
Continuous
 62
     7
370
    25
100
AcDbLine
 10
221.5419632028
 20
49.1202751281
 30
0.0
 11
223.3222559621
 21
47.974504243
 31
0.0
  0
LINE
  5
241
330
1F
100
AcDbEntity
  8
0
  6
Continuous
 62
     7
370
    25
100
AcDbLine
 10
225.1523471985
 20
48.9963234742
 30
0.0
 11
225.0643478716
 21
49.1038145425
 31
0.0
  0
LINE
  5
242
330
1F
100
AcDbEntity
  8
0
  6
Continuous
 62
     7
370
    25
100
AcDbLine
 10
223.2360761936
 20
50.0982657406
 30
0.0
 11
221.5419632028
 21
49.1202751281
 31
0.0
  0
LINE
  5
243
330
1F
100
AcDbEntity
  8
0
  6
Continuous
 62
     7
370
    25
100
AcDbLine
 10
223.3783870032
 20
50.0770374474
 30
0.0
 11
223.236496345
 21
50.0977783631
 31
0.0
  0
LINE
  5
244
330
1F
100
AcDbEntity
  8
0
  6
Continuous
 62
     7
370
    25
100
AcDbLine
 10
225.0644216285
 20
49.103710376
 30
0.0
 11
223.3783870032
 21
50.0770374474
 31
0.0
  0
LINE
  5
245
330
1F
100
AcDbEntity
  8
0
  6
Continuous
 62
     7
370
    25
100
AcDbLine
 10
225.1523471985
 20
49.0529462932
 30
0.0
 11
225.0643748719
 21
49.1037373494
 31
0.0
  0
SPLINE
  5
246
330
1F
100
AcDbEntity
  8
0
  6
Continuous
 62
     7
370
    25
100
AcDbSpline
210
0.0
220
0.0
230
1.0
 70
     8
 71
     3
 72
    19
 73
    15
 74
     0
 42
0.000000001
 43
0.00000001
 40
0.0
 40
0.0
 40
0.0
 40
0.0
 40
0.0637853009172641
 40
0.1289628367748405
 40
0.1955871994416645
 40
0.2637095015536399
 40
0.333377557949238
 40
0.4046360709686026
 40
0.4775268158973639
 40
0.5520888236427515
 40
0.6283585584336152
 40
0.7063700889344581
 40
0.8377041806176546
 40
0.9999999999999999
 40
0.9999999999999999
 40
0.9999999999999999
 40
0.9999999999999999
 10
220.6804400728986
 20
49.22087909292896
 30
0.0
 10
220.7011294419052
 20
49.20751995291774
 30
0.0
 10
220.7429597645626
 20
49.18051008437522
 30
0.0
 10
220.8034507381608
 20
49.14298811884716
 30
0.0
 10
220.8629349363425
 20
49.10746837775585
 30
0.0
 10
220.9210160958155
 20
49.07448824883944
 30
0.0
 10
220.9775482129031
 20
49.04428181256974
 30
0.0
 10
221.0322932676563
 20
49.0171683726092
 30
0.0
 10
221.085015645247
 20
48.99343675486035
 30
0.0
 10
221.1354572781755
 20
48.9733965014167
 30
0.0
 10
221.1833401966379
 20
48.95727663987925
 30
0.0
 10
221.238304351013
 20
48.94299867019451
 30
0.0
 10
221.3011356649741
 20
48.93286011294401
 30
0.0
 10
221.3396431806342
 20
48.93933436425981
 30
0.0
 10
221.3609271458261
 20
48.94291282776977
 30
0.0
  0
LINE
  5
247
330
1F
100
AcDbEntity
  8
0
  6
Continuous
 62
     7
370
    25
100
AcDbLine
 10
221.3855628335
 20
48.968983282
 30
0.0
 11
221.4643669035
 21
49.0523748858
 31
0.0
  0
SPLINE
  5
248
330
1F
100
AcDbEntity
  8
0
  6
Continuous
 62
     7
370
    25
100
AcDbSpline
210
0.0
220
0.0
230
1.0
 70
     8
 71
     3
 72
     9
 73
     5
 74
     0
 42
0.000000001
 43
0.00000001
 40
0.0
 40
0.0
 40
0.0
 40
0.0
 40
0.5231976711515671
 40
0.9999999999999999
 40
0.9999999999999999
 40
0.9999999999999999
 40
0.9999999999999999
 10
223.0698266325748
 20
50.00229208128776
 30
0.0
 10
223.0007918410499
 20
50.02732877620446
 30
0.0
 10
222.8688440222209
 20
50.07518199936883
 30
0.0
 10
222.627405051851
 20
50.21277651675578
 30
0.0
 10
222.5122863885039
 20
50.27838190308266
 30
0.0
  0
LINE
  5
249
330
1F
100
AcDbEntity
  8
0
  6
Continuous
 62
     7
370
    25
100
AcDbLine
 10
218.7827558863
 20
50.0442545482
 30
0.0
 11
219.2342270006
 21
50.156518521
 31
0.0
  0
LINE
  5
24A
330
1F
100
AcDbEntity
  8
0
  6
Continuous
 62
     7
370
    25
100
AcDbLine
 10
219.2342270006
 20
50.156518521
 30
0.0
 11
220.6804394724
 21
49.220879188
 31
0.0
  0
SPLINE
  5
24B
330
1F
100
AcDbEntity
  8
0
  6
Continuous
 62
     7
370
    25
100
AcDbSpline
210
0.0
220
0.0
230
1.0
 70
     8
 71
     3
 72
     8
 73
     4
 74
     0
 42
0.000000001
 43
0.00000001
 40
0.0
 40
0.0
 40
0.0
 40
0.0
 40
1.0
 40
1.0
 40
1.0
 40
1.0
 10
218.9535444569154
 20
49.64950489514564
 30
0.0
 10
218.8964191879921
 20
49.78129107893957
 30
0.0
 10
218.8394906962752
 20
49.91287530059865
 30
0.0
 10
218.7827565783265
 20
50.04425436749832
 30
0.0
  0
LINE
  5
24C
330
1F
100
AcDbEntity
  8
0
  6
Continuous
 62
     7
370
    25
100
AcDbLine
 10
220.5719284597
 20
50.9287571358
 30
0.0
 11
219.2342270006
 21
50.156518521
 31
0.0
  0
LINE
  5
24D
330
1F
100
AcDbEntity
  8
0
  6
Continuous
 62
     7
370
    25
100
AcDbLine
 10
221.5550267502
 20
50.8309968899
 30
0.0
 11
220.5719284597
 21
50.9287571358
 31
0.0
  0
LINE
  5
24E
330
1F
100
AcDbEntity
  8
0
  6
Continuous
 62
     7
370
    25
100
AcDbLine
 10
222.5122863885
 20
50.2783819031
 30
0.0
 11
221.5550260917
 21
50.8309965097
 31
0.0
  0
SPLINE
  5
24F
330
1F
100
AcDbEntity
  8
0
  6
Continuous
 62
     7
370
    25
100
AcDbSpline
210
0.0
220
0.0
230
1.0
 70
     8
 71
     3
 72
     8
 73
     4
 74
     0
 42
0.000000001
 43
0.00000001
 40
0.0
 40
0.0
 40
0.0
 40
0.0
 40
1.0
 40
1.0
 40
1.0
 40
1.0
 10
218.7827565783265
 20
50.04425436749832
 30
0.0
 10
218.7796192405764
 20
50.07947067437083
 30
0.0
 10
218.7776268366784
 20
50.11511493059853
 30
0.0
 10
218.7768454393064
 20
50.1512118325934
 30
0.0
  0
LINE
  5
250
330
1F
100
AcDbEntity
  8
0
  6
Continuous
 62
     7
370
    25
100
AcDbLine
 10
219.5879319144
 20
50.6194415473
 30
0.0
 11
218.7768461078
 21
50.1512116777
 31
0.0
  0
SPLINE
  5
251
330
1F
100
AcDbEntity
  8
0
  6
Continuous
 62
     7
370
    25
100
AcDbSpline
210
0.0
220
0.0
230
1.0
 70
     8
 71
     3
 72
     8
 73
     4
 74
     0
 42
0.000000001
 43
0.00000001
 40
0.0000004089325119
 40
0.0000004089325119
 40
0.0000004089325119
 40
0.0000004089325119
 40
0.0015399868451459
 40
0.0015399868451459
 40
0.0015399868451459
 40
0.0015399868451459
 10
219.5879309717951
 20
50.61944154394952
 30
0.0
 10
219.8264075398184
 20
50.71381792976587
 30
0.0
 10
220.0648544974871
 20
50.80824654169609
 30
0.0
 10
220.3032632363374
 20
50.90273992465854
 30
0.0
  0
LINE
  5
252
330
1F
100
AcDbEntity
  8
0
  6
Continuous
 62
     7
370
    25
100
AcDbLine
 10
220.3032627153
 20
50.9027400718
 30
0.0
 11
220.3276591551
 21
50.9077340982
 31
0.0
  0
LINE
  5
253
330
1F
100
AcDbEntity
  8
0
  6
Continuous
 62
     7
370
    25
100
AcDbLine
 10
220.5719284597
 20
50.9287571358
 30
0.0
 11
220.3276598137
 21
50.9077340981
 31
0.0
  0
SPLINE
  5
254
330
1F
100
AcDbEntity
  8
0
  6
Continuous
 62
     7
370
    25
100
AcDbSpline
210
0.0
220
0.0
230
1.0
 70
     8
 71
     3
 72
     8
 73
     4
 74
     0
 42
0.000000001
 43
0.00000001
 40
0.0
 40
0.0
 40
0.0
 40
0.0
 40
1.0
 40
1.0
 40
1.0
 40
1.0
 10
221.5550246939731
 20
50.83099725463025
 30
0.0
 10
221.5856093604714
 20
50.81607645342248
 30
0.0
 10
221.6161376014705
 20
50.80121858798451
 30
0.0
 10
221.6466083896814
 20
50.78642400085628
 30
0.0
  0
ARC
  5
255
330
1F
100
AcDbEntity
  8
0
  6
Continuous
 62
     7
370
    25
100
AcDbCircle
 10
222.4356386311
 20
56.2597238625
 30
0.0
 40
6.549762100194611
100
AcDbArc
 50
283.6682343678
 51
294.9135532271
  0
LINE
  5
256
330
1F
100
AcDbEntity
  8
0
  6
Continuous
 62
     7
370
    18
100
AcDbLine
 10
261.4939556378
 20
43.7764892284
 30
0.0
 11
261.3004584685
 21
43.7678846862
 31
0.0
  0
LINE
  5
257
330
1F
100
AcDbEntity
  8
0
  6
Continuous
 62
     7
370
    18
100
AcDbLine
 10
263.5131196123
 20
45.0182402289
 30
0.0
 11
263.3983402436
 21
45.6863372309
 31
0.0
  0
LINE
  5
258
330
1F
100
AcDbEntity
  8
0
  6
Continuous
 62
     7
370
    18
100
AcDbLine
 10
255.6637415828
 20
32.321245164
 30
0.0
 11
255.5408084453
 21
32.4512848269
 31
0.0
  0
LINE
  5
259
330
1F
100
AcDbEntity
  8
0
  6
Continuous
 62
     7
370
    18
100
AcDbLine
 10
263.3983402436
 20
45.6863372309
 30
0.0
 11
263.4876210982
 21
45.9613217406
 31
0.0
  0
LINE
  5
25A
330
1F
100
AcDbEntity
  8
0
  6
Continuous
 62
     7
370
    18
100
AcDbLine
 10
263.450275533
 20
44.8246814186
 30
0.0
 11
263.5131196123
 21
45.0182402289
 31
0.0
  0
LINE
  5
25B
330
1F
100
AcDbEntity
  8
0
  6
Continuous
 62
     7
370
    18
100
AcDbLine
 10
255.965576897
 20
30.1887777533
 30
0.0
 11
255.3193689032
 21
29.8127203823
 31
0.0
  0
LINE
  5
25C
330
1F
100
AcDbEntity
  8
0
  6
Continuous
 62
     7
370
    18
100
AcDbLine
 10
255.3193689032
 20
29.8127203823
 30
0.0
 11
255.1453004433
 21
29.5702741495
 31
0.0
  0
LINE
  5
25D
330
1F
100
AcDbEntity
  8
0
  6
Continuous
 62
     7
370
    18
100
AcDbLine
 10
270.6996480637
 20
26.7757751144
 30
0.0
 11
270.027895787
 21
27.1635694493
 31
0.0
  0
LINE
  5
25E
330
1F
100
AcDbEntity
  8
0
  6
Continuous
 62
     7
370
    18
100
AcDbLine
 10
256.0881017368
 20
30.3594329507
 30
0.0
 11
255.965576897
 21
30.1887777533
 31
0.0
  0
LINE
  5
25F
330
1F
100
AcDbEntity
  8
0
  6
Continuous
 62
     7
370
    18
100
AcDbLine
 10
271.8557659175
 20
27.9352102776
 30
0.0
 11
271.1840136408
 21
28.3230046124
 31
0.0
  0
LINE
  5
260
330
1F
100
AcDbEntity
  8
0
  6
Continuous
 62
     7
370
    18
100
AcDbLine
 10
273.9030885965
 20
48.4292503196
 30
0.0
 11
273.9402805562
 21
48.4870541769
 31
0.0
  0
LINE
  5
261
330
1F
100
AcDbEntity
  8
0
  6
Continuous
 62
     7
370
    18
100
AcDbLine
 10
273.9402805562
 20
48.4870541769
 30
0.0
 11
274.1524945482
 21
48.6319986435
 31
0.0
  0
ARC
  5
262
330
1F
100
AcDbEntity
  8
0
  6
Continuous
 62
     7
370
    18
100
AcDbCircle
 10
261.1049293976
 20
37.5175100938
 30
0.0
 40
14.45226400871527
100
AcDbArc
 50
308.2387276741
 51
321.9254162377
  0
LWPOLYLINE
  5
263
330
1F
100
AcDbEntity
  8
0
  6
Continuous
 62
     7
370
    18
100
AcDbPolyline
 90
        9
 70
   128
 43
0.0
 10
238.6743772411
 20
40.8103440545
 10
238.7227973846
 20
39.7713994818
 10
238.8675270282
 20
38.7997422751
 10
239.1069810553
 20
37.9060184934
 10
239.4385345075
 20
37.1000191526
 10
239.8585568288
 20
36.3905762291
 10
240.3624447933
 20
35.7854617053
 10
240.9446778222
 20
35.2913050543
 10
241.2637202458
 20
35.0872839889
  0
LWPOLYLINE
  5
264
330
1F
100
AcDbEntity
  8
0
  6
Continuous
 62
     7
370
    18
100
AcDbPolyline
 90
       24
 70
   128
 43
0.0
 10
253.7627040294
 20
56.73850567
 10
253.4275470217
 20
56.9122686686
 10
252.7085487865
 20
57.1695410342
 10
251.9326295859
 20
57.3034836372
 10
251.1082902419
 20
57.3126289372
 10
250.244562363
 20
57.1968751352
 10
249.3509092339
 20
56.9574928372
 10
248.4371219296
 20
56.5971031055
 10
247.5132121376
 20
56.1196551301
 10
246.5893023457
 20
55.5303795656
 10
245.6755150414
 20
54.8357329328
 10
244.7818619123
 20
54.0433252902
 10
243.9181340334
 20
53.1618401101
 10
243.0937946894
 20
52.2009328623
 10
242.3178754888
 20
51.1711330192
 10
241.5988772536
 20
50.0837229611
 10
240.9446778222
 20
48.9506163111
 10
240.3624447933
 20
47.7842277138
 10
239.8585568288
 20
46.5973365297
 10
239.4385345075
 20
45.4029461563
 10
239.1069810553
 20
44.2141433478
 10
238.8675270282
 20
43.0439518312
 10
238.7227973846
 20
41.9051933349
 10
238.6743772411
 20
40.8103440545
  0
LWPOLYLINE
  5
265
330
1F
100
AcDbEntity
  8
0
  6
Continuous
 62
     7
370
    18
100
AcDbPolyline
 90
       16
 70
   128
 43
0.0
 10
266.0070993013
 20
26.4387370906
 10
266.6727674293
 20
26.8322382129
 10
267.5097250623
 20
27.4262973106
 10
268.3302804919
 20
28.120336479
 10
269.1237364034
 20
28.9053080214
 10
269.8797487913
 20
29.7709773156
 10
270.5884618785
 20
30.7060592565
 10
271.2406366147
 20
31.6983646812
 10
271.8277711904
 20
32.7349570123
 10
272.342210355
 20
33.8023218316
 10
272.7772494668
 20
34.8865455788
 10
273.1272151648
 20
35.9734929216
 10
273.3875463699
 20
37.0489942028
 10
273.5548482851
 20
38.0990283261
 10
273.626941128
 20
39.1099069977
 10
273.6258597979
 20
39.6362477535
  0
ARC
  5
266
330
1F
100
AcDbEntity
  8
0
  6
Continuous
 62
     7
370
    18
100
AcDbCircle
 10
257.9018303894
 20
39.9156724443
 30
0.0
 40
15.07814682003767
100
AcDbArc
 50
301.6136262931
 51
358.3917530257
  0
LWPOLYLINE
  5
267
330
1F
100
AcDbEntity
  8
0
  6
Continuous
 62
     7
370
    18
100
AcDbPolyline
 90
       31
 70
   128
 43
0.0
 10
235.8459503113
 20
40.8103444347
 10
235.895321393
 20
41.9993531905
 10
236.0429591692
 20
43.2339137685
 10
236.2874431592
 20
44.5021374152
 10
236.6264170909
 20
45.7918096067
 10
237.0566172177
 20
47.0905101989
 10
237.5738999774
 20
48.3857318673
 10
238.1732847981
 20
49.665002347
 10
238.8489982199
 20
50.9159996392
 10
239.5945331647
 20
52.126676721
 10
240.4027101801
 20
53.285374849
 10
241.2657449409
 20
54.3809332498
 10
242.1753266154
 20
55.4028028014
 10
243.1226955737
 20
56.3411418448
 10
244.0987278463
 20
57.1869143703
 10
245.0940238629
 20
57.9319731852
 10
246.0989983435
 20
58.5691445067
 10
247.103972824
 20
59.0922920224
 10
248.0992688406
 20
59.496377528
 10
249.0753011133
 20
59.7775078777
 10
250.0226700716
 20
59.9329777512
 10
250.932251746
 20
59.9612888471
 10
251.7952865068
 20
59.8621691714
 10
252.6034635222
 20
59.6365723638
 10
253.348998467
 20
59.2866716071
 10
254.0247118888
 20
58.8158364256
 10
254.6240967095
 20
58.2286009294
 10
255.1413794693
 20
57.5306212228
 10
255.571579596
 20
56.7286191243
 10
255.9105535277
 20
55.8303179038
 10
256.02302371
 20
55.433651047
  0
LWPOLYLINE
  5
268
330
1F
100
AcDbEntity
  8
0
  6
Continuous
 62
     7
370
    18
100
AcDbPolyline
 90
       15
 70
   128
 43
0.0
 10
243.5240394325
 20
33.7824290808
 10
243.1226955737
 20
33.6810982725
 10
242.1753266154
 20
33.5256283989
 10
241.2657449409
 20
33.497317303
 10
240.4027101801
 20
33.5964369788
 10
239.5945331647
 20
33.8220337864
 10
238.8489982199
 20
34.1719345431
 10
238.1732847981
 20
34.6427697246
 10
237.5738999774
 20
35.2300052208
 10
237.0566172177
 20
35.9279849274
 10
236.6264170909
 20
36.7299870258
 10
236.2874431592
 20
37.6282882463
 10
236.0429591692
 20
38.6142366866
 10
235.895321393
 20
39.6783383165
 10
235.8459503113
 20
40.8103444347
  0
LWPOLYLINE
  5
269
330
1F
100
AcDbEntity
  8
0
  6
Continuous
 62
     7
370
    18
100
AcDbPolyline
 90
        3
 70
   128
 43
0.0
 10
228.6776552646
 20
43.9382076686
 10
228.7265521944
 20
45.1697575235
 10
228.7650513648
 20
45.5960051487
  0
ARC
  5
26A
330
1F
100
AcDbEntity
  8
0
  6
Continuous
 62
     7
370
    18
100
AcDbCircle
 10
244.5440962386
 20
57.7932575848
 30
0.0
 40
6.943838020850068
100
AcDbArc
 50
63.2097793608
 51
115.2880150625
  0
LWPOLYLINE
  5
26B
330
1F
100
AcDbEntity
  8
0
  6
Continuous
 62
     7
370
    18
100
AcDbPolyline
 90
       10
 70
   128
 43
0.0
 10
231.9376376058
 20
36.7328748187
 10
231.6651997185
 20
36.9014375904
 10
230.990490577
 20
37.4307024637
 10
230.3932506358
 20
38.0736108666
 10
229.8787278361
 20
38.8245124478
 10
229.4514437444
 20
39.6768086266
 10
229.1151540402
 20
40.6230100121
 10
228.8728136125
 20
41.6548004752
 10
228.7265521944
 20
42.7631130071
 10
228.6776552646
 20
43.9382076686
  0
LWPOLYLINE
  5
26C
330
1F
100
AcDbEntity
  8
0
  6
Continuous
 62
     7
370
    18
100
AcDbPolyline
 90
       13
 70
   128
 43
0.0
 10
233.3017367031
 20
40.6025710409
 10
233.2655226821
 20
40.7839786791
 10
233.1211420671
 20
41.8550520223
 10
233.0799389128
 20
42.996695041
 10
233.1423465417
 20
44.1968937
 10
233.3077077262
 20
45.4430177346
 10
233.5742832503
 20
46.7219546107
 10
233.9392677144
 20
48.0202453492
 10
234.3988198284
 20
49.3242280241
 10
234.9481039
 20
50.6201801561
 10
235.5813392254
 20
51.8944641462
 10
236.2918626514
 20
53.133670617
 10
237.0721977222
 20
54.3247594721
  0
LWPOLYLINE
  5
26D
330
1F
100
AcDbEntity
  8
0
  6
Continuous
 62
     7
370
    18
100
AcDbPolyline
 90
       16
 70
   128
 43
0.0
 10
233.81353247
 20
37.6726433399
 10
233.344510486
 20
38.4194706542
 10
232.9540113735
 20
39.2918110843
 10
232.6611572893
 20
40.2603255085
 10
232.4689209035
 20
41.3151814329
 10
232.3792541418
 20
42.4456702162
 10
232.3930671129
 20
43.6403150572
 10
232.5102195466
 20
44.8869879167
 10
232.7295221118
 20
46.1730323323
 10
233.0487489279
 20
47.4853928859
 10
233.4646586388
 20
48.8107463818
 10
233.9730293157
 20
50.1356375856
 10
234.5686992868
 20
51.4466159142
 10
235.2456224549
 20
52.7303734539
 10
235.996925591
 20
53.9738757554
 10
236.8149827497
 20
55.1645013711
  0
ARC
  5
26E
330
1F
100
AcDbEntity
  8
0
  6
Continuous
 62
     7
370
    18
100
AcDbCircle
 10
249.8142144948
 20
47.5028897185
 30
0.0
 40
14.21094567369465
100
AcDbArc
 50
109.7806436426
 51
139.5760029973
  0
LWPOLYLINE
  5
26F
330
1F
100
AcDbEntity
  8
0
  6
Continuous
 62
     7
370
    18
100
AcDbPolyline
 90
       12
 70
   128
 43
0.0
 10
238.1591758113
 20
56.8366648883
 10
239.0715204092
 20
57.8074004658
 10
240.0168488673
 20
58.6929428533
 10
240.9862540419
 20
59.4849485176
 10
241.9706025381
 20
60.1759554892
 10
242.9606201558
 20
60.7594539829
 10
243.9469791884
 20
61.2299451587
 10
244.9203862556
 20
61.5829963901
 10
245.8716704257
 20
61.8152822491
 10
246.7918684961
 20
61.924613206
 10
247.6723112224
 20
61.9099603124
 10
247.7981393216
 20
61.8973179774
  0
LINE
  5
270
330
1F
100
AcDbEntity
  8
0
  6
Continuous
 62
     7
370
    18
100
AcDbLine
 10
224.1912910512
 20
54.3108152674
 30
0.0
 11
224.4974549784
 21
53.9400802114
 31
0.0
  0
LINE
  5
271
330
1F
100
AcDbEntity
  8
0
  6
Continuous
 62
     7
370
    18
100
AcDbLine
 10
224.1912910512
 20
46.5467051196
 30
0.0
 11
224.4974549784
 21
47.2342385882
 31
0.0
  0
LINE
  5
272
330
1F
100
AcDbEntity
  8
0
  6
Continuous
 62
     7
370
    18
100
AcDbLine
 10
225.2333652952
 20
47.6590705713
 30
0.0
 11
224.4974622224
 21
47.2342427701
 31
0.0
  0
LINE
  5
273
330
1F
100
AcDbEntity
  8
0
  6
Continuous
 62
     7
370
    18
100
AcDbLine
 10
225.1667897381
 20
48.402296539
 30
0.0
 11
223.857518304
 21
47.6464702283
 31
0.0
  0
LINE
  5
274
330
1F
100
AcDbEntity
  8
0
  6
Continuous
 62
     7
370
    18
100
AcDbLine
 10
220.6804394724
 20
49.220879188
 30
0.0
 11
220.3839521982
 21
48.7248175702
 31
0.0
  0
LINE
  5
275
330
1F
100
AcDbEntity
  8
0
  6
Continuous
 62
     7
370
    18
100
AcDbLine
 10
222.5122863885
 20
50.2783819031
 30
0.0
 11
220.6805000585
 21
49.2209141636
 31
0.0
  0
LINE
  5
276
330
1F
100
AcDbEntity
  8
0
  6
Continuous
 62
     7
370
    18
100
AcDbLine
 10
222.5122863885
 20
50.2783819031
 30
0.0
 11
222.6334500169
 21
50.216732355
 31
0.0
  0
OLE2FRAME
  5
277
330
1F
100
AcDbEntity
  8
0
100
AcDbOle2Frame
 70
     2
  3
Paintbrush-Bild
 10
13.8511154363
 20
38.264191557
 30
0.0
 11
51.6290888628
 21
31.9806341108
 31
0.0
 71
     2
 72
     0
 73
     1
 90
    12928
310
80552BED0767C5B32B40DDAF6807D121434000000000000000006FFBDDFB85D0
310
4940DDAF6807D121434000000000000000006FFBDDFB85D04940416F4BD60AFB
310
3F4000000000000000002BED0767C5B32B40416F4BD60AFB3F40000000000000
310
0000000000000100000000010000010000000100000000000100000000320000
310
D0CF11E0A1B11AE1000000000000000000000000000000003E000300FEFF0900
310
0600000000000000000000000100000001000000000000000010000002000000
310
01000000FEFFFFFF0000000000000000FFFFFFFFFFFFFFFFFFFFFFFFFFFFFFFF
310
FFFFFFFFFFFFFFFFFFFFFFFFFFFFFFFFFFFFFFFFFFFFFFFFFFFFFFFFFFFFFFFF
310
FFFFFFFFFFFFFFFFFFFFFFFFFFFFFFFFFFFFFFFFFFFFFFFFFFFFFFFFFFFFFFFF
310
FFFFFFFFFFFFFFFFFFFFFFFFFFFFFFFFFFFFFFFFFFFFFFFFFFFFFFFFFFFFFFFF
310
FFFFFFFFFFFFFFFFFFFFFFFFFFFFFFFFFFFFFFFFFFFFFFFFFFFFFFFFFFFFFFFF
310
FFFFFFFFFFFFFFFFFFFFFFFFFFFFFFFFFFFFFFFFFFFFFFFFFFFFFFFFFFFFFFFF
310
FFFFFFFFFFFFFFFFFFFFFFFFFFFFFFFFFFFFFFFFFFFFFFFFFFFFFFFFFFFFFFFF
310
FFFFFFFFFFFFFFFFFFFFFFFFFFFFFFFFFFFFFFFFFFFFFFFFFFFFFFFFFFFFFFFF
310
FFFFFFFFFFFFFFFFFFFFFFFFFFFFFFFFFFFFFFFFFFFFFFFFFFFFFFFFFFFFFFFF
310
FFFFFFFFFFFFFFFFFFFFFFFFFFFFFFFFFFFFFFFFFFFFFFFFFFFFFFFFFFFFFFFF
310
FFFFFFFFFFFFFFFFFFFFFFFFFFFFFFFFFFFFFFFFFFFFFFFFFFFFFFFFFFFFFFFF
310
FFFFFFFFFFFFFFFFFFFFFFFFFFFFFFFFFFFFFFFFFFFFFFFFFFFFFFFFFFFFFFFF
310
FFFFFFFFFFFFFFFFFFFFFFFFFFFFFFFFFFFFFFFFFFFFFFFFFFFFFFFFFFFFFFFF
310
FFFFFFFFFFFFFFFFFFFFFFFFFFFFFFFFFFFFFFFFFFFFFFFFFFFFFFFFFFFFFFFF
310
FDFFFFFFFEFFFFFFFEFFFFFFFEFFFFFF05000000060000000700000008000000
310
090000000A0000000B0000000C0000000D0000000E0000000F00000010000000
310
11000000120000001300000014000000150000001600000017000000FEFFFFFF
310
FFFFFFFFFFFFFFFFFFFFFFFFFFFFFFFFFFFFFFFFFFFFFFFFFFFFFFFFFFFFFFFF
310
FFFFFFFFFFFFFFFFFFFFFFFFFFFFFFFFFFFFFFFFFFFFFFFFFFFFFFFFFFFFFFFF
310
FFFFFFFFFFFFFFFFFFFFFFFFFFFFFFFFFFFFFFFFFFFFFFFFFFFFFFFFFFFFFFFF
310
FFFFFFFFFFFFFFFFFFFFFFFFFFFFFFFFFFFFFFFFFFFFFFFFFFFFFFFFFFFFFFFF
310
FFFFFFFFFFFFFFFFFFFFFFFFFFFFFFFFFFFFFFFFFFFFFFFFFFFFFFFFFFFFFFFF
310
FFFFFFFFFFFFFFFFFFFFFFFFFFFFFFFFFFFFFFFFFFFFFFFFFFFFFFFFFFFFFFFF
310
FFFFFFFFFFFFFFFFFFFFFFFFFFFFFFFFFFFFFFFFFFFFFFFFFFFFFFFFFFFFFFFF
310
FFFFFFFFFFFFFFFFFFFFFFFFFFFFFFFFFFFFFFFFFFFFFFFFFFFFFFFFFFFFFFFF
310
FFFFFFFFFFFFFFFFFFFFFFFFFFFFFFFFFFFFFFFFFFFFFFFFFFFFFFFFFFFFFFFF
310
FFFFFFFFFFFFFFFFFFFFFFFFFFFFFFFFFFFFFFFFFFFFFFFFFFFFFFFFFFFFFFFF
310
FFFFFFFFFFFFFFFFFFFFFFFFFFFFFFFFFFFFFFFFFFFFFFFFFFFFFFFFFFFFFFFF
310
FFFFFFFFFFFFFFFFFFFFFFFFFFFFFFFFFFFFFFFFFFFFFFFFFFFFFFFFFFFFFFFF
310
FFFFFFFFFFFFFFFFFFFFFFFFFFFFFFFFFFFFFFFFFFFFFFFFFFFFFFFFFFFFFFFF
310
52006F006F007400200045006E00740072007900000000000000000000000000
310
0000000000000000000000000000000000000000000000000000000000000000
310
16000500FFFFFFFFFFFFFFFF020000000A00030000000000C000000000000046
310
000000000000000000000000007332E629A7D30103000000C000000000000000
310
01004F006C006500000000000000000000000000000000000000000000000000
310
0000000000000000000000000000000000000000000000000000000000000000
310
0A000200FFFFFFFFFFFFFFFFFFFFFFFF00000000000000000000000000000000
310
0000000000000000000000000000000000000000000000001400000000000000
310
010043006F006D0070004F0062006A0000000000000000000000000000000000
310
0000000000000000000000000000000000000000000000000000000000000000
310
120002010100000003000000FFFFFFFF00000000000000000000000000000000
310
0000000000000000000000000000000000000000010000004D00000000000000
310
01004F006C006500310030004E00610074006900760065000000000000000000
310
0000000000000000000000000000000000000000000000000000000000000000
310
1A000200FFFFFFFFFFFFFFFFFFFFFFFF00000000000000000000000000000000
310
0000000000000000000000000000000000000000040000002426000000000000
310
FEFFFFFF02000000FEFFFFFFFFFFFFFFFFFFFFFFFFFFFFFFFFFFFFFFFFFFFFFF
310
FFFFFFFFFFFFFFFFFFFFFFFFFFFFFFFFFFFFFFFFFFFFFFFFFFFFFFFFFFFFFFFF
310
FFFFFFFFFFFFFFFFFFFFFFFFFFFFFFFFFFFFFFFFFFFFFFFFFFFFFFFFFFFFFFFF
310
FFFFFFFFFFFFFFFFFFFFFFFFFFFFFFFFFFFFFFFFFFFFFFFFFFFFFFFFFFFFFFFF
310
FFFFFFFFFFFFFFFFFFFFFFFFFFFFFFFFFFFFFFFFFFFFFFFFFFFFFFFFFFFFFFFF
310
FFFFFFFFFFFFFFFFFFFFFFFFFFFFFFFFFFFFFFFFFFFFFFFFFFFFFFFFFFFFFFFF
310
FFFFFFFFFFFFFFFFFFFFFFFFFFFFFFFFFFFFFFFFFFFFFFFFFFFFFFFFFFFFFFFF
310
FFFFFFFFFFFFFFFFFFFFFFFFFFFFFFFFFFFFFFFFFFFFFFFFFFFFFFFFFFFFFFFF
310
FFFFFFFFFFFFFFFFFFFFFFFFFFFFFFFFFFFFFFFFFFFFFFFFFFFFFFFFFFFFFFFF
310
FFFFFFFFFFFFFFFFFFFFFFFFFFFFFFFFFFFFFFFFFFFFFFFFFFFFFFFFFFFFFFFF
310
FFFFFFFFFFFFFFFFFFFFFFFFFFFFFFFFFFFFFFFFFFFFFFFFFFFFFFFFFFFFFFFF
310
FFFFFFFFFFFFFFFFFFFFFFFFFFFFFFFFFFFFFFFFFFFFFFFFFFFFFFFFFFFFFFFF
310
FFFFFFFFFFFFFFFFFFFFFFFFFFFFFFFFFFFFFFFFFFFFFFFFFFFFFFFFFFFFFFFF
310
FFFFFFFFFFFFFFFFFFFFFFFFFFFFFFFFFFFFFFFFFFFFFFFFFFFFFFFFFFFFFFFF
310
FFFFFFFFFFFFFFFFFFFFFFFFFFFFFFFFFFFFFFFFFFFFFFFFFFFFFFFFFFFFFFFF
310
FFFFFFFFFFFFFFFFFFFFFFFFFFFFFFFFFFFFFFFFFFFFFFFFFFFFFFFFFFFFFFFF
310
0100000200000000000000000000000000000000000000000000000000000000
310
0000000000000000000000000000000000000000000000000000000000000000
310
0100FEFF030A0000FFFFFFFF0A00030000000000C00000000000004607000000
310
5042727573680007000000504272757368000700000050427275736800F439B2
310
7100000000000000000000000000000000000000000000000000000000000000
310
0000000000000000000000000000000000000000000000000000000000000000
310
0000000000000000000000000000000000000000000000000000000000000000
310
0000000000000000000000000000000000000000000000000000000000000000
310
0000000000000000000000000000000000000000000000000000000000000000
310
0000000000000000000000000000000000000000000000000000000000000000
310
0000000000000000000000000000000000000000000000000000000000000000
310
0000000000000000000000000000000000000000000000000000000000000000
310
0000000000000000000000000000000000000000000000000000000000000000
310
0000000000000000000000000000000000000000000000000000000000000000
310
0000000000000000000000000000000000000000000000000000000000000000
310
0000000000000000000000000000000000000000000000000000000000000000
310
20260000424D0E260000000000003E00000028000000B40200006E0000000100
310
01000000000000000000130B0000130B00000200000002000000000000FFFFFF
310
FFFFFFFFFFFFFFFFFFFFFFFFFFFFFFFFFFFFFFFFFFFFFFFFFFFFFFFFFFFFFFFF
310
FFFFFFFFFFFFFFFFFFFFFFFFFFFFFFFFFFFFFFFFFFFFFFFFFFFFFFFFFFFFFFFF
310
FFFFFFFFFFFFFFFFFFFFFFFFFFFFFFFFFFFFFFFFFFFFFFFFF000FFFFFFFFFFFF
310
FFFFFFFFFFFFFFFFFFFFFFFFFFFFFFFFFFFFFFFFFFFFFFFFFFFFFFFFFFFFFFFF
310
FFFFFFFFFFFFFFFFFFFFFFFFFFFFFFFFFFFFFFFFFFFFFFFFFFFFFFFFFFFFFFFF
310
FFFFFFFFFFFFFFFFFFFFFFFFFFFFFFFFF000FFFFFFFFFFFFFFFFFFFFFFFFFFFF
310
FFFFFFFFFFFFFFFFFFFFFFFFFFFFFFFFFFFFFFFFFFFFFFFFFFFFFFFFFFFFFFFF
310
FFFFFFFFFFFFFFFFFFFFFFFFFFFFFFFFFFFFFFFFFFFFFFFFFFFFFFFFFFFFFFFF
310
FFFFFFFFFFFFFFFFF000FFFFFFFFFFFFFFFFFFFFFFFFFFFFFFFFFFFFFFFFFFFF
310
FFFFFFFFFFFFFFFFFFFFFFFFFFFFFFFFFFFFFFFFFFFFFFFFFFFFFFFFFFFFFFFF
310
FFFFFFFFFFFFFFFFFFFFFFFFFFFFFFFFFFFFFFFFFFFFFFFFFFFFFFFFFFFFFFFF
310
F000FFFFFFFFFFFFFFFFFFFFFFFFFFFFFFFFFFFFFFFFFFFFFFFFFFFFFFFFFFFF
310
FFFFFFFFFFFFFFFFFFFFFFFFFFFFFFFFFFFFFFFFFFFFFFFFFFFFFFFFFFFFFFFF
310
FFFFFFFFFFFFFFFFFFFFFFFFFFFFFFFFFFFFFFFFFFFFFFFFF000FFFFFFFFFFFF
310
FFFFFFFFFFFFFFFFFFFFFFFFFFFFFFFFFFFFFFFFFFFFFFFFFFFFFFFFFFFFFFFF
310
FFFFFFFFFFFFFFFFFFFFFFFFFFFFFFFFFFFFFFFFFFFFFFFFFFFFFFFFFFFFFFFF
310
FFFFFFFFFFFFFFFFFFFFFFFFFFFFFFFFF000FFFFFFFFFFFFFFFFFFFFFFFFFFFF
310
FFFFFFFFFFFFFFFFFFFFFFFFFFFFFFFFFFFFFFFFFFFFFFFFFFFFFFFFFFFFFFFF
310
FFFFFFFFFFFFFFFFFFFFFFFFFFFFFFFFFFFFFFFFFFFFFFFFFFFFFFFFFFFFFFFF
310
FFFFFFFFFFFFFFFFF000FFFFFFFFFFFFFFFFFFFFFFFFFFFFFFFFFFFFFFFFFFFF
310
FFFFFFFFFFFFFFFFFFFFFFFFFFFFFFFFFFFFFFFFFFFFFFFFFFFFFFFFFFFFFFFF
310
FFFFFFFFFFFFFFFFFFFFFFFFFFFFFFFFFFFFFFFFFFFFFFFFFFFFFFFFFFFFFFFF
310
F000FFFFFFFFFFFFFFFFFFFFFFFFFFFFFFFFFFFFFFFFFFFFFFFFFFFFFFFFFFFF
310
FFFFFFFFFFFFFFFFFFFFFFFFFFFFFFFFFFFFFFFFFFFFFFFFFFFFFFFFFFFFFFFF
310
FFFFFFFFFFFFFFFFFFFFFFFFFFFFFFFFFFFFFFFFFFFFFFFFF000FFFFFFFFFFFF
310
FFFFFFFFFFFFFFFFFFFFFFFFFFFFFFFFFFFFFFFFFFFFFFFFFFFFFFFFFFFFFFFF
310
FFFFFFFFFFFFFFFFFFFFFFFFFFFFFFFFFFFFFFFFFFFFFFFFFFFFFFFFFFFFFFFF
310
FFFFFFFFFFFFFFFFFFFFFFFFFFFFFFFFF000FFFFFFFFFFFFFFFFFFFFFFFFFFFF
310
FFFFFFFFFFFFFFFFFFFFFFFFFFFFFFFFFFFFFFFFFFFFFFFFFFFFFFFFFFFFFFFF
310
FFFFFFFFFFFFFFFFFFFFFFFFFFFFFFFFFFFFFFFFFFFFFFFFFFFFFFFFFFFFFFFF
310
FFFFFFFFFFFFFFFFF000FFFFFFFFFFFFFFFFFFFFFFFFFFFFFFFFFFFFFFFFFFFF
310
FFFFFFFFFFFFFFFFFFFFFFFFFFFFFFFFFFFFFFFFFFFFFFFFFFFFFFFFFFFFFFFF
310
FFFFFFFFFFFFFFFFFFFFFFFFFFFFFFFFFFFFFFFFFFFFFFFFFFFFFFFFFFFFFFFF
310
F000FFFFFFFFFFFFFFFFFFFFFFFFFFFFFFFFFFFFFFFFFFFFFFFFFFFFFFFFFFFF
310
FFFFFFFFFFFFFFFFFFFFFFFFFFFFFFFFFFFFFFFFFFFFFFFFFFFFFFFFFFFFFFFF
310
FFFFFFFFFFFFFFFFFFFFFFFFFFFFFFFFFFFFFFFFFFFFFFFFF000FFFFFFFFFFFF
310
FFFFFFFFFFFFFFFFFFFFFFFFFFFFFFFFFFFFFFFFFFFFFFFFFFFFFFFFFFFFFFFF
310
FFFFFFFFFFFFFFFFFFFFFFFFFFFFFFFFFFFFFFFFFFFFFFFFFFFFFFFFFFFFFFFF
310
FFFFFFFFFFFFFFFFFFFFFFFFFFFFFFFFF000FFFFFFFFFFFFFFFFFFFFFFFFFFFF
310
FFFFFFFFFFFFFFFFFFFFFFFFFFFFFFFFFFFFFFFFFFFFFFFFFFFFFFFFFFFFFFFF
310
FFFFFFFFFFFFFFFFFFFFFFFFFFFFFFFFFFFFFFFFFFFFFFFFFFFFFFFFFFFFFFFF
310
FFFFFFFFFFFFFFFFF000FFFFFFFFFFFFFFFFFFFFFFFFFFFFFFFFFFFFFFFFFFFF
310
FFFFFFFFFFFFFFFFFFFFFFFFFFFFFFFFFFFFFFFFFFFFFFFFFFFFFFFFFFFFFFFF
310
FFFFFFFFFFFFFFFFFFFFFFFFFFFFFFFFFFFFFFFFFFFFFFFFFFFFFFFFFFFFFFFF
310
F000FFFFFFFFFFFFFFFFFFFFFFFFFFFFFFFFFFFFFFFFFFFFFFFFFFFFFFFFFFFF
310
FFFFFFFFFFFFFFFFFFFFFFFFFFFFFFFFFFFFFFFFFFFFFFFFFFFFFFFFFFFFFFFF
310
FFFFFFFFFFFFFFFFFFFFFFFFFFFFFFFFFFFFFFFFFFFFFFFFF000FFFFFFFFFFFF
310
FFFFFFFFFFFFFFFFFFFFFFFFFFFFFFFFFFFFFFFFFFFFFFFFFFFFFFFFFFFFFFFF
310
FFFFFFFFFFFFFFFFFFFFFFFFFFFFFFFFFFFFFFFFFFFFFFFFFFFFFFFFFFFFFFFF
310
FFFFFFFFFFFFFFFFFFFFFFFFFFFFFFFFF000FFFFFFFFFFFFFFFFFFFFFFFFFFFF
310
FFFFFFFFFFFFFFFFFFFFFFFFFFFFFFFFFFFFFFFFFFFFFFFFFFFFFFFFFFFFFFFF
310
FFFFFFFFFFFFFFFFFFFFFFFFFFFFFFFFFFFFFFFFFFFFFFFFFFFFFFFFFFFFFFFF
310
FFFFFFFFFFFFFFFFF000FFFFF80003FFFFFFFFFFFFFFFFFFFFFFFFFFFFFFFFFF
310
FFFFF00007FFFFFFFFFF00007FFFFFF800000000000000007FFFFFFFFFFFFFFF
310
FFFFFFFC001FFFFFFFFFFFFFFC001FFFFFFFFFFFFFFFFFFFFFFFFFFE0007FFFF
310
F000FFFF8000007FFFFFFFF8000FFFFFC0007FFFFF80007FFFFF0000007FFFFF
310
FFF8000007FFFFF800000000000000007FFFFFF0001FFFFFFFFFFFC00001FFFF
310
FFFFFFFFC00001FFFFFFFF000000000003FFFFE000007FFFF000FFFE0000000F
310
FFFFFFF0000FFFFF80007FFFFF80007FFFFC0000001FFFFFFFC0000001FFFFF8
310
00000000000000007FFFFFF0001FFFFFFFFFFE0000003FFFFFFFFFFE0000003F
310
FFFFFF000000000003FFFF0000000FFFF000FFF800000003FFFFFFF00007FFFF
310
80007FFFFF80007FFFF000000007FFFFFF000000003FFFF80000000000000000
310
7FFFFFF0001FFFFFFFFFF80000000FFFFFFFFFF80000000FFFFFFF0000000000
310
03FFFC00000003FFF000FFE000000000FFFFFFF00007FFFF80003FFFFF80007F
310
FFC000000001FFFFFC000000001FFFF800000000000000007FFFFFF0001FFFFF
310
FFFFE000000003FFFFFFFFE000000003FFFFFF000000000003FFF000000000FF
310
F000FF80000000007FFFFFF00007FFFF80003FFFFF80007FFF8000000000FFFF
310
F80000000007FFF800000000000000007FFFFFF0001FFFFFFFFFC000000001FF
310
FFFFFFC000000001FFFFFF000000000003FFC0000000007FF000FF0000000000
310
3FFFFFE00007FFFF00003FFFFF80007FFE00000000003FFFF00000000003FFF8
310
00000000000000007FFFFFF0001FFFFFFFFF8000000000FFFFFFFF8000000000
310
FFFFFF000000000003FF80000000003FF000FE00000000001FFFFFE00003FFFF
310
00003FFFFF80007FFC00000000001FFFE00000000001FFF8000001FFFE000000
310
7FFFFFF0001FFFFFFFFE00000000003FFFFFFE00000000003FFFFF0000000000
310
03FF00000000001FF000FC00000000000FFFFFE00003FFFF00001FFFFF80007F
310
F800000000001FFFC00000000000FFF8000001FFFE0000007FFFFFF0001FFFFF
310
FFFC00000000001FFFFFFC00000000001FFFFF000000000003FE00000000000F
310
F000F8000000000007FFFFE00003FFFF00001FFFFF80007FF800000000000FFF
310
800000000000FFF8000001FFFE0000007FFFFFF0001FFFFFFFF800000000000F
310
FFFFF800000000000FFFFF000000000003FC000000000007F000F80000000000
310
03FFFFC00003FFFE00001FFFFF80007FF0000000000007FF0000000000007FF8
310
000001FFFE0000007FFFFFF0001FFFFFFFF0000000000007FFFFF00000000000
310
07FFFF000000000003F8000000000003F000F0000000000003FFFFC00001FFFE
310
00001FFFFF80007FE0000000000007FE0000000000003FF8000001FFFE000000
310
7FFFFFF0001FFFFFFFF0000000000007FFFFF0000000000007FFFF0000000000
310
03F800001F800003F000E00001FFF00001FFFFC00001FFFE00000FFFFF80007F
310
E00001FFE00003FE00001FFF00003FF8000001FFFE0000007FFFFFF0001FFFFF
310
FFE000003E000003FFFFE000003E000003FFFF000000000003F00001FFF80001
310
F000E00007FFFC0001FFFFC00001FFFE00000FFFFF80007FC0000FFFFC0003FC
310
0000FFFFC0001FF8000001FFFE0000007FFFFFF0001FFFFFFFC00003FFE00001
310
FFFFC00003FFE00001FFFF0001FFFFFFFFF00007FFFE0001F000E0000FFFFF00
310
00FFFF800001FFFC00000FFFFF80007FC0001FFFFE0001FC0001FFFFE0001FF8
310
000001FFFE0000007FFFFFF0001FFFFFFF80000FFFF80000FFFF80000FFFF800
310
00FFFF0003FFFFFFFFE0000FFFFF8000F000C0003FFFFF8000FFFF800000FFFC
310
000007FFFF80007F80003FFFFF0001FC0003FFFFF0001FF8000001FFFE000000
310
7FFFFFF0001FFFFFFF80003FFFFE0000FFFF80003FFFFE0000FFFF0003FFFFFF
310
FFE0003FFFFF8000F000C0003FFFFF8000FFFF800000FFFC000007FFFF80007F
310
80007FFFFF8001F80007FFFFF8000FF8000001FFFE0000007FFFFFF0001FFFFF
310
FF00007FFFFF00007FFF00007FFFFF00007FFF0003FFFFFFFFE0003FFFFFC000
310
F000C0007FFFFFC000FFFF000000FFFC000007FFFF80007F8000FFFFFF8000F8
310
000FFFFFF8000FF8000001FFFE0000007FFFFFF0001FFFFFFF0000FFFFFF8000
310
7FFF0000FFFFFF80007FFF0003FFFFFFFFC0007FFFFFC00070008000FFFFFFC0
310
00FFFF000000FFF8000007FFFF80007F8000FFFFFF8000F8000FFFFFF8000FF8
310
000001FFFE0000007FFFFFF0001FFFFFFE0001FFFFFFC0003FFE0001FFFFFFC0
310
003FFF0003FFFFFFFFC0007FFFFFE00070008000FFFFFFC0007FFF0000007FF8
310
000003FFFF80007F0001FFFFFF8000F8000FFFFFF8000FF8000001FFFE000000
310
7FFFFFF0001FFFFFFE0001FFFFFFC0003FFE0001FFFFFFC0003FFF0003FFFFFF
310
FFC000FFFFFFE00070008000FFFFFFC0007FFF0000007FF8000003FFFF80007F
310
0001FFFFFF8000F8001FFFFFF8000FF8000001FFFE0000007FFFFFF0001FFFFF
310
FE0003FFFFFFE0003FFE0003FFFFFFE0003FFF0003FFFFFFFFC000FFFFFFE000
310
70008000FFFFFFC0007FFE0000007FF8000003FFFF80007F0001FFFFFF8000F0
310
001FFFFFF8000FF8000001FFFE0000007FFFFFF0001FFFFFFC0003FFFFFFE000
310
1FFC0003FFFFFFE0001FFF0003FFFFFFFFC000FFFFFFC00070008000FFFFFF80
310
007FFE0000007FF0000003FFFF80007F0001FFFFFF0000F0001FFFFFF8000FF8
310
000001FFFE0000007FFFFFF0001FFFFFFC0007FFFFFFF0001FFC0007FFFFFFF0
310
001FFF0003FFFFFFFFC000FFFFFFC00070008001FFFFFF0000FFFE0000003FF0
310
000001FFFF80007F0001FFFFFF0000F8001FFFFFF0000FF8000001FFFE000000
310
7FFFFFF0001FFFFFFC0007FFFFFFF0001FFC0007FFFFFFF0001FFF0003FFFFFF
310
FFC001FFFFFF80007000FFFFFFFFFE0000FFFE0008003FF0008001FFFF80007F
310
FFFFFFFFFC0000FFFFFFFFFFE0000FF8000001FFFE0000007FFFFFF0001FFFFF
310
F8000FFFFFFFF8000FF8000FFFFFFFF8000FFF0003FFFFFFFFFFFFFFFFFF0000
310
7000FFFFFFFFFC0000FFFC0008003FF0008001FFFF80007FFFFFFFFFF80001FF
310
FFFFFFFF80000FF8000001FFFE0000007FFFFFF0001FFFFFF8000FFFFFFFF800
310
0FF8000FFFFFFFF8000FFF0003FFFFFFFFFFFFFFFFFE0000F000FFFFFFFFE000
310
00FFFC000C003FE000C001FFFF80007FFFFFFFFFC00001FFFFFFFFFE00001FF8
310
000001FFFE0000007FFFFFF0001FFFFFF8000FFFFFFFF8000FF8000FFFFFFFF8
310
000FFF0003FFFFFFFFFFFFFFFFF00000F000FFFFFFFE000001FFFC000C001FE0
310
00C000FFFF80007FFFFFFFFE000001FFFFFFFFE000001FF80FFFFFFFFFFFFFC0
310
7FFFFFF0001FFFFFF8000FFFFFFFF8000FF8000FFFFFFFF8000FFF0003FFFFFF
310
FFFFFFFFFF800000F000FFFFFFC0000001FFFC001C001FE001C000FFFF80007F
310
FFFFFF80000003FFFFFFF80000001FF80FFFFFFFFFFFFFC07FFFFFF0001FFFFF
310
F8001FFFFFFFFC000FF8001FFFFFFFFC000FFF0003FFFFFFFFFFFFFFF0000001
310
F000FFFFF800000001FFF8001C001FE001C000FFFF80007FFFFFF800000003FF
310
FFFF800000003FF80FFFFFFFFFFFFFC07FFFFFF0001FFFFFF8001FFFFFFFFC00
310
0FF8001FFFFFFFFC000FFF0003FFFFFFFFFFFFFE00000001F000FFFFC0000000
310
03FFF8001E001FC001E000FFFF80007FFFFF8000000007FFFFFC000000003FF8
310
0FFFFFFFFFFFFFC07FFFFFF0001FFFFFF8001FFFFFFFFC000FF8001FFFFFFFFC
310
000FFF0003FFFFFFFFFFFFE000000003F000FFFE0000000007FFF8001E000FC0
310
01E0007FFF80007FFFFE0000000007FFFFE0000000007FF80FFFFFFFFFFFFFC0
310
7FFFFFF0001FFFFFF0001FFFFFFFFC0007F0001FFFFFFFFC0007FF0003FFFFFF
310
FFFFFF0000000003F000FFF80000000007FFF8001E000FC003E0007FFF80007F
310
FFF0000000000FFFFF8000000000FFF80FFFFFFFFFFFFFC07FFFFFF0001FFFFF
310
F0001FFFFFFFFC0007F0001FFFFFFFFC0007FF0003FFFFFFFFFFFC0000000007
310
F000FFE0000000000FFFF0003E000FC003E0007FFF80007FFFC0000000001FFF
310
FE0000000001FFF80FFFFFFFFFFFFFC07FFFFFF0001FFFFFF0001FFFFFFFFC00
310
07F0001FFFFFFFFC0007FF0003FFFFFFFFFFF0000000000FF000FFC000000000
310
1FFFF0003F000F8003F0003FFF80007FFF80000000003FFFF80000000003FFF8
310
0FFFFFFFFFFFFFC07FFFFFF0001FFFFFF0001FFFFFFFFC0007F0001FFFFFFFFC
310
0007FF0003FFFFFFFFFFE0000000001FF000FF00000000007FFFF0003F000780
310
03F0003FFF80007FFF00000000007FFFF00000000007FFF80FFFFFFFFFFFFFC0
310
7FFFFFF0001FFFFFF0001FFFFFFFFC0007F0001FFFFFFFFC0007FF0003FFFFFF
310
FFFF80000000007FF000FE0000000000FFFFE0003F00078007F0003FFF80007F
310
FE0000000001FFFFE0000000001FFFF80FFFFFFFFFFFFFC07FFFFFF0001FFFFF
310
F0001FFFFFFFFC0007F0001FFFFFFFFC0007FF0003FFFFFFFFFF0000000000FF
310
F000FC0000000003FFFFE0007F00078007F0003FFF80007FFC0000000007FFFF
310
C0000000007FFFF80FFFFFFFFFFFFFC07FFFFFF0001FFFFFF8001FFFFFFFFC00
310
0FF8001FFFFFFFFC000FFF0003FFFFFFFFFE0000000003FFF000FC000000000F
310
FFFFE0007F80070007F8001FFF80007FF8000000001FFFFF8000000001FFFFF8
310
0FFFFFFFFFFFFFC07FFFFFF0001FFFFFF8001FFFFFFFFC000FF8001FFFFFFFFC
310
000FFF0003FFFFFFFFFC000000000FFFF000F8000000007FFFFFE0007F800700
310
07F8001FFF80007FF000000000FFFFFF800000000FFFFFF80FFFFFFFFFFFFFC0
310
7FFFFFF0001FFFFFF8000FFFFFFFF8000FF8000FFFFFFFF8000FFF0003FFFFFF
310
FFFC000000007FFFF000F800000007FFFFFFC0007F8003000FF8001FFF80007F
310
F000000007FFFFFF000000007FFFFFF80FFFFFFFFFFFFFC07FFFFFF0001FFFFF
310
F8000FFFFFFFF8000FF8000FFFFFFFF8000FFF0003FFFFFFFFF80000000FFFFF
310
F000F0000000FFFFFFFFC000FF8003000FF8001FFF80007FE0000000FFFFFFFF
310
0000000FFFFFFFF8000001FFFE0000007FFFFFF0001FFFFFF8000FFFFFFFF800
310
0FF8000FFFFFFFF8000FFF0003FFFFFFFFF8000000FFFFFFF000F000000FFFFF
310
FFFFC000FFC002000FF8000FFF80007FE000001FFFFFFFFE000001FFFFFFFFF8
310
000001FFFE0000007FFFFFF0001FFFFFF8000FFFFFFFF8000FF8000FFFFFFFF8
310
000FFF0003FFFFFFFFF000001FFFFFFFF000E00000FFFFFFFFFFC000FFC00200
310
0FFC000FFF80007FE00001FFFFFFFFFE00001FFFFFFFFFF8000001FFFE000000
310
7FFFFFF0001FFFFFFC000FFFFFFFF8001FFC000FFFFFFFF8001FFF0003FFFFFF
310
FFF00001FFFFFFFFF000E00007FFFFFFFFFF8000FFC000001FFC000FFF80007F
310
C0000FFFFFFFFFFE0000FFFFFFFFFFF8000001FFFE0000007FFFFFF0001FFFFF
310
FC0007FFFFFFF0001FFC0007FFFFFFF0001FFF0003FFFFFFFFF00007FFFFFFFF
310
F000E0001FFFFFFFFFFF8000FFC000001FFC000FFF80007FC0003FFFFFFFFFFE
310
0001FFFFFFFFFFF8000001FFFE0000007FFFFFF0001FFFFFFC0007FFFFFFF000
310
1FFC0007FFFFFFF0001FFF0003FFFFFFFFF0001FFFFFFFFFF000E0003FFFFF00
310
03FF8001FFE000001FFC0007FF80007FC0007FFFFF0007FC0003FFFFF0003FF8
310
000001FFFE0000007FFFFFF0001FFFFFFC0003FFFFFFE0001FFC0003FFFFFFE0
310
001FFF0003FFFFFFFFF0003FFFFFFFFFF000E0003FFFFF0001FF8001FFE00000
310
1FFE0007FF80007FC0007FFFFE0003FC0007FFFFE0003FF8000001FFFE000000
310
7FFFFFF0001FFFFFFE0003FFFFFFE0003FFE0003FFFFFFE0003FFF0003FFFFFF
310
FFF0003FFFFF8001F000E0003FFFFF0001FF0001FFE000001FFE0007FF80007F
310
C0007FFFFE0003FC0007FFFFE0003FF8000001FFFE0000007FFFFFF0001FFFFF
310
FE0001FFFFFFC0003FFE0001FFFFFFC0003FFF0003FFFFFFFFF0003FFFFF0001
310
F000E0003FFFFF0003FF0001FFE000003FFE0007FF80007FC0007FFFFE0003FC
310
0007FFFFE0003FF8000001FFFE0000007FFFFFF0001FFFFFFF0001FFFFFFC000
310
7FFF0001FFFFFFC0007FFF0003FFFFFFFFF0003FFFFF0001F000E0003FFFFE00
310
03FF0003FFF000003FFE0003FF80007FC0007FFFFC0003FE0007FFFFE0003FF8
310
000001FFFE0000007FFFFFF0001FFFFFFF0000FFFFFF80007FFF0000FFFFFF80
310
007FFF0003FFFFFFFFF0003FFFFF0001F000E0003FFFFE0003FF0003FFF00000
310
3FFF0003FF80007FC0007FFFFC0007FE0007FFFFC0003FF8000001FFFE000000
310
7FFFFFF0001FFFFFFF80007FFFFF0000FFFF80007FFFFF0000FFFF0003FFFFFF
310
FFF0003FFFFF0003F000E0003FFFFC0003FE0003FFF000003FFF0003FF80007F
310
E0003FFFF80007FE0003FFFFC0007FF8000001FFFE0000007FFFFFF0001FFFFF
310
FF80003FFFFE0000FFFF80003FFFFE0000FFFF0003FFFFFFFFF0001FFFFE0003
310
F000F0001FFFF80003FE0003FFF000007FFF0001FF80007FE0003FFFF00007FE
310
0001FFFF80007FF8000001FFFE0000007FFFFFF0001FFFFFFFC0000FFFF80001
310
FFFFC0000FFFF80001FFFF0003FFFFFFFFF0001FFFFC0003F000F0000FFFF000
310
07FE0007FFF800007FFF0001FF80007FE0001FFFE00007FF0000FFFE00007FF8
310
000001FFFE0000007FFFFFF0001FFFFFFFC00003FFE00001FFFFC00003FFE000
310
01FFFF0003FFFFFFFFF8000FFFF80003F000F00003FFC00007FC0007FFF80000
310
7FFF8001FF80007FF00007FF80000FFF00007FF80000FFF8000001FFFE000000
310
7F80000000000001FFE000003E000003FFFFE000003E000003FFFF0003FFFFFF
310
FFF80003FFE00007F000F800000000000FFC0007FFF800007FFF8001FF80007F
310
F000000000000FFF000000000000FFF8000001FFFE0000007F80000000000001
310
FFF0000000000007FFFFF0000000000007FFFF0003FFFFFFFFFC00007E000007
310
F000F800000000000FFC0007FFF80000FFFF8000FF80007FF800000000001FFF
310
800000000001FFF8000001FFFE0000007F80000000000001FFF800000000000F
310
FFFFF800000000000FFFFF0003FFFFFFFFFC00000000000FF000FC0000000000
310
1FFC0007FFFC0000FFFF8000FF80007FF800000000003FFFC00000000001FFF8
310
000001FFFE0000007F80000000000001FFF800000000000FFFFFF80000000000
310
0FFFFF0003FFFFFFFFFE00000000001FF000FE00000000003FF8000FFFFC0000
310
FFFF8000FF80007FFC00000000003FFFC00000000003FFF8000001FFFE000000
310
7F80000000000001FFFC00000000001FFFFFFC00000000001FFFFF0003FFFFFF
310
FFFF00000000001FF000FF00000000003FF8000FFFFC0000FFFFC000FF80007F
310
FE00000000007FFFE00000000007FFF8000001FFFE0000007F80000000000001
310
FFFE00000000003FFFFFFE00000000003FFFFF0003FFFFFFFFFF80000000003F
310
F000FF80000000007FF8000FFFFC0001FFFFC0007F80007FFF0000000000FFFF
310
F0000000000FFFF800000000000000007F80000000000001FFFF8000000000FF
310
FFFFFF8000000000FFFFFF0003FFFFFFFFFFC0000000007FF000FFC000000000
310
FFF8000FFFFE0001FFFFC0007F80007FFF8000000001FFFFF8000000001FFFF8
310
00000000000000007F80000000000001FFFFC000000001FFFFFFFFC000000001
310
FFFFFF0003FFFFFFFFFFE000000000FFF000FFE000000003FFF0001FFFFE0001
310
FFFFC0007F80007FFFC000000007FFFFFE000000003FFFF80000000000000000
310
7F80000000000001FFFFE000000003FFFFFFFFE000000003FFFFFF0003FFFFFF
310
FFFFF000000003FFF000FFF80000000FFFF0001FFFFE0001FFFFE0007F80007F
310
FFF00000000FFFFFFF00000000FFFFF800000000000000007F80000000000001
310
FFFFF80000000FFFFFFFFFF80000000FFFFFFF0003FFFFFFFFFFFC0000000FFF
310
F000FFFE0000003FFFF0001FFFFE0003FFFFE0003F80007FFFFC0000003FFFFF
310
FFC0000003FFFFF800000000000000007F80000000000001FFFFFE0000003FFF
310
FFFFFFFE0000003FFFFFFF0003FFFFFFFFFFFF0000003FFFF000FFFF800000FF
310
FFF0001FFFFF0003FFFFE0003F80007FFFFF000001FFFFFFFFF800001FFFFFF8
310
00000000000000007F80000000000001FFFFFFC00001FFFFFFFFFFFFC00001FF
310
FFFFFF0003FFFFFFFFFFFFC00000FFFFF000FFFFF8000FFFFFFFFFFFFFFFFFFF
310
FFFFFFFFFFFFFFFFFFFFF0001FFFFFFFFFFF0000FFFFFFF80000000000000000
310
7FFFFFFFFFFFFFFFFFFFFFFC001FFFFFFFFFFFFFFC001FFFFFFFFFFFFFFFFFFF
310
FFFFFFFC001FFFFFF000FFFFFFFFFFFFFFFFFFFFFFFFFFFFFFFFFFFFFFFFFFFF
310
FFFFFFFFFFFFFFFFFFFFFFFFFFFFFFFFFFFFFFFFFFFFFFFFFFFFFFFFFFFFFFFF
310
FFFFFFFFFFFFFFFFFFFFFFFFFFFFFFFFFFFFFFFFFFFFFFFFFFFFFFFFFFFFFFFF
310
F000FFFFFFFFFFFFFFFFFFFFFFFFFFFFFFFFFFFFFFFFFFFFFFFFFFFFFFFFFFFF
310
FFFFFFFFFFFFFFFFFFFFFFFFFFFFFFFFFFFFFFFFFFFFFFFFFFFFFFFFFFFFFFFF
310
FFFFFFFFFFFFFFFFFFFFFFFFFFFFFFFFFFFFFFFFFFFFFFFFF000FFFFFFFFFFFF
310
FFFFFFFFFFFFFFFFFFFFFFFFFFFFFFFFFFFFFFFFFFFFFFFFFFFFFFFFFFFFFFFF
310
FFFFFFFFFFFFFFFFFFFFFFFFFFFFFFFFFFFFFFFFFFFFFFFFFFFFFFFFFFFFFFFF
310
FFFFFFFFFFFFFFFFFFFFFFFFFFFFFFFFF000FFFFFFFFFFFFFFFFFFFFFFFFFFFF
310
FFFFFFFFFFFFFFFFFFFFFFFFFFFFFFFFFFFFFFFFFFFFFFFFFFFFFFFFFFFFFFFF
310
FFFFFFFFFFFFFFFFFFFFFFFFFFFFFFFFFFFFFFFFFFFFFFFFFFFFFFFFFFFFFFFF
310
FFFFFFFFFFFFFFFFF000FFFFFFFFFFFFFFFFFFFFFFFFFFFFFFFFFFFFFFFFFFFF
310
FFFFFFFFFFFFFFFFFFFFFFFFFFFFFFFFFFFFFFFFFFFFFFFFFFFFFFFFFFFFFFFF
310
FFFFFFFFFFFFFFFFFFFFFFFFFFFFFFFFFFFFFFFFFFFFFFFFFFFFFFFFFFFFFFFF
310
F000FFFFFFFFFFFFFFFFFFFFFFFFFFFFFFFFFFFFFFFFFFFFFFFFFFFFFFFFFFFF
310
FFFFFFFFFFFFFFFFFFFFFFFFFFFFFFFFFFFFFFFFFFFFFFFFFFFFFFFFFFFFFFFF
310
FFFFFFFFFFFFFFFFFFFFFFFFFFFFFFFFFFFFFFFFFFFFFFFFF000FFFFFFFFFFFF
310
FFFFFFFFFFFFFFFFFFFFFFFFFFFFFFFFFFFFFFFFFFFFFFFFFFFFFFFFFFFFFFFF
310
FFFFFFFFFFFFFFFFFFFFFFFFFFFFFFFFFFFFFFFFFFFFFFFFFFFFFFFFFFFFFFFF
310
FFFFFFFFFFFFFFFFFFFFFFFFFFFFFFFFF000FFFFFFFFFFFFFFFFFFFFFFFFFFFF
310
FFFFFFFFFFFFFFFFFFFFFFFFFFFFFFFFFFFFFFFFFFFFFFFFFFFFFFFFFFFFFFFF
310
FFFFFFFFFFFFFFFFFFFFFFFFFFFFFFFFFFFFFFFFFFFFFFFFFFFFFFFFFFFFFFFF
310
FFFFFFFFFFFFFFFFF000FFFFFFFFFFFFFFFFFFFFFFFFFFFFFFFFFFFFFFFFFFFF
310
FFFFFFFFFFFFFFFFFFFFFFFFFFFFFFFFFFFFFFFFFFFFFFFFFFFFFFFFFFFFFFFF
310
FFFFFFFFFFFFFFFFFFFFFFFFFFFFFFFFFFFFFFFFFFFFFFFFFFFFFFFFFFFFFFFF
310
F000FFFFFFFFFFFFFFFFFFFFFFFFFFFFFFFFFFFFFFFFFFFFFFFFFFFFFFFFFFFF
310
FFFFFFFFFFFFFFFFFFFFFFFFFFFFFFFFFFFFFFFFFFFFFFFFFFFFFFFFFFFFFFFF
310
FFFFFFFFFFFFFFFFFFFFFFFFFFFFFFFFFFFFFFFFFFFFFFFFF000FFFFFFFFFFFF
310
FFFFFFFFFFFFFFFFFFFFFFFFFFFFFFFFFFFFFFFFFFFFFFFFFFFFFFFFFFFFFFFF
310
FFFFFFFFFFFFFFFFFFFFFFFFFFFFFFFFFFFFFFFFFFFFFFFFFFFFFFFFFFFFFFFF
310
FFFFFFFFFFFFFFFFFFFFFFFFFFFFFFFFF000FFFFFFFFFFFFFFFFFFFFFFFFFFFF
310
FFFFFFFFFFFFFFFFFFFFFFFFFFFFFFFFFFFFFFFFFFFFFFFFFFFFFFFFFFFFFFFF
310
FFFFFFFFFFFFFFFFFFFFFFFFFFFFFFFFFFFFFFFFFFFFFFFFFFFFFFFFFFFFFFFF
310
FFFFFFFFFFFFFFFFF000FFFFFFFFFFFFFFFFFFFFFFFFFFFFFFFFFFFFFFFFFFFF
310
FFFFFFFFFFFFFFFFFFFFFFFFFFFFFFFFFFFFFFFFFFFFFFFFFFFFFFFFFFFFFFFF
310
FFFFFFFFFFFFFFFFFFFFFFFFFFFFFFFFFFFFFFFFFFFFFFFFFFFFFFFFFFFFFFFF
310
F000FFFFFFFFFFFFFFFFFFFFFFFFFFFFFFFFFFFFFFFFFFFFFFFFFFFFFFFFFFFF
310
FFFFFFFFFFFFFFFFFFFFFFFFFFFFFFFFFFFFFFFFFFFFFFFFFFFFFFFFFFFFFFFF
310
FFFFFFFFFFFFFFFFFFFFFFFFFFFFFFFFFFFFFFFFFFFFFFFFF000FFFFFFFFFFFF
310
FFFFFFFFFFFFFFFFFFFFFFFFFFFFFFFFFFFFFFFFFFFFFFFFFFFFFFFFFFFFFFFF
310
FFFFFFFFFFFFFFFFFFFFFFFFFFFFFFFFFFFFFFFFFFFFFFFFFFFFFFFFFFFFFFFF
310
FFFFFFFFFFFFFFFFFFFFFFFFFFFFFFFFF000FFFFFFFFFFFFFFFFFFFFFFFFFFFF
310
FFFFFFFFFFFFFFFFFFFFFFFFFFFFFFFFFFFFFFFFFFFFFFFFFFFFFFFFFFFFFFFF
310
FFFFFFFFFFFFFFFFFFFFFFFFFFFFFFFFFFFFFFFFFFFFFFFFFFFFFFFFFFFFFFFF
310
FFFFFFFFFFFFFFFFF000FFFFFFFFFFFFFFFFFFFFFFFFFFFFFFFFFFFFFFFFFFFF
310
FFFFFFFFFFFFFFFFFFFFFFFFFFFFFFFFFFFFFFFFFFFFFFFFFFFFFFFFFFFFFFFF
310
FFFFFFFFFFFFFFFFFFFFFFFFFFFFFFFFFFFFFFFFFFFFFFFFFFFFFFFFFFFFFFFF
310
F000FFFFFFFFFFFFFFFFFFFFFFFFFFFFFFFFFFFFFFFFFFFFFFFFFFFFFFFFFFFF
310
FFFFFFFFFFFFFFFFFFFFFFFFFFFFFFFFFFFFFFFFFFFFFFFFFFFFFFFFFFFFFFFF
310
FFFFFFFFFFFFFFFFFFFFFFFFFFFFFFFFFFFFFFFFFFFFFFFFF000FFFFFFFFFFFF
310
FFFFFFFFFFFFFFFFFFFFFFFFFFFFFFFFFFFFFFFFFFFFFFFFFFFFFFFFFFFFFFFF
310
FFFFFFFFFFFFFFFFFFFFFFFFFFFFFFFFFFFFFFFFFFFFFFFFFFFFFFFFFFFFFFFF
310
FFFFFFFFFFFFFFFFFFFFFFFFFFFFFFFFF000FFFFFFFFFFFFFFFFFFFFFFFFFFFF
310
FFFFFFFFFFFFFFFFFFFFFFFFFFFFFFFFFFFFFFFFFFFFFFFFFFFFFFFFFFFFFFFF
310
FFFFFFFFFFFFFFFFFFFFFFFFFFFFFFFFFFFFFFFFFFFFFFFFFFFFFFFFFFFFFFFF
310
FFFFFFFFFFFFFFFFF000FFFFFFFFFFFFFFFFFFFFFFFFFFFFFFFFFFFFFFFFFFFF
310
FFFFFFFFFFFFFFFFFFFFFFFFFFFFFFFFFFFFFFFFFFFFFFFFFFFFFFFFFFFFFFFF
310
FFFFFFFFFFFFFFFFFFFFFFFFFFFFFFFFFFFFFFFFFFFFFFFFFFFFFFFFFFFFFFFF
310
F000FFFFFFFFFFFFFFFFFFFFFFFFFFFFFFFFFFFFFFFFFFFFFFFFFFFFFFFFFFFF
310
FFFFFFFFFFFFFFFFFFFFFFFFFFFFFFFFFFFFFFFFFFFFFFFFFFFFFFFFFFFFFFFF
310
FFFFFFFFFFFFFFFFFFFFFFFFFFFFFFFFFFFFFFFFFFFFFFFFF000FFFFFFFFFFFF
310
FFFFFFFFFFFFFFFFFFFFFFFFFFFFFFFFFFFFFFFFFFFFFFFFFFFFFFFFFFFFFFFF
310
FFFFFFFFFFFFFFFFFFFFFFFFFFFFFFFFFFFFFFFFFFFFFFFFFFFFFFFFFFFFFFFF
310
FFFFFFFFFFFFFFFFFFFFFFFFFFFFFFFFF0000000000000000000000000000000
310
0000000000000000000000000000000000000000000000000000000000000000
310
0000000000000000000000000000000000000000000000000000000000000000
310
0000000000000000000000000000000000000000000000000000000000000000
310
0000000000000000000000000000000000000000000000000000000000000000
310
0000000000000000000000000000000000000000000000000000000000000000
310
0000000000000000000000000000000000000000000000000000000000000000
310
0000000000000000000000000000000000000000000000000000000000000000
310
0000000000000000000000000000000000000000000000000000000000000000
310
0000000000000000000000000000000000000000000000000000000000000000
310
0000000000000000000000000000000000000000000000000000000000000000
310
0000000000000000000000000000000000000000000000000000000000000000
310
0000000000000000000000000000000000000000000000000000000000000000
310
0000000000000000000000000000000000000000000000000000000000000000
310
0000000000000000000000000000000000000000000000000000000000000000
310
0000000000000000000000000000000000000000000000000000000000000000
  1
OLE
  0
ENDSEC
  0
SECTION
  2
OBJECTS
  0
DICTIONARY
  5
C
330
0
100
AcDbDictionary
281
     1
  3
ACAD_GROUP
350
D
  3
ACAD_LAYOUT
350
1A
  3
ACAD_MLINESTYLE
350
17
  3
ACAD_PLOTSETTINGS
350
19
  3
ACAD_PLOTSTYLENAME
350
E
  3
ACAD_SCALELIST
350
47
  0
DICTIONARY
  5
D
102
{ACAD_REACTORS
330
C
102
}
330
C
100
AcDbDictionary
281
     1
  0
DICTIONARY
  5
1A
102
{ACAD_REACTORS
330
C
102
}
330
C
100
AcDbDictionary
281
     1
  3
Layout1
350
1E
  3
Layout2
350
26
  3
Model
350
22
  0
DICTIONARY
  5
17
102
{ACAD_REACTORS
330
C
102
}
330
C
100
AcDbDictionary
281
     1
  3
Standard
350
18
  0
DICTIONARY
  5
19
102
{ACAD_REACTORS
330
C
102
}
330
C
100
AcDbDictionary
281
     1
  0
ACDBDICTIONARYWDFLT
  5
E
102
{ACAD_REACTORS
330
C
102
}
330
C
100
AcDbDictionary
281
     1
  3
Normal
350
F
100
AcDbDictionaryWithDefault
340
F
  0
DICTIONARY
  5
47
102
{ACAD_REACTORS
330
C
102
}
330
C
100
AcDbDictionary
281
     1
  3
A0
350
48
  3
A1
350
49
  3
A2
350
4A
  3
A3
350
4B
  3
A4
350
4C
  3
A5
350
4D
  3
A6
350
4E
  3
A7
350
4F
  3
A8
350
50
  3
A9
350
51
  3
B0
350
52
  3
B1
350
53
  3
B2
350
54
  3
B3
350
55
  3
B4
350
56
  3
B5
350
57
  3
B6
350
58
  3
B7
350
59
  3
B8
350
5A
  3
B9
350
5B
  3
C0
350
5C
  3
C1
350
5D
  3
C2
350
5E
  3
C3
350
5F
  3
C4
350
60
  3
C5
350
61
  3
C6
350
62
  3
C7
350
63
  3
C8
350
64
  3
C9
350
65
  3
D0
350
66
  3
D1
350
67
  3
D2
350
68
  0
LAYOUT
  5
1E
102
{ACAD_REACTORS
330
1A
102
}
330
1A
100
AcDbPlotSettings
  1

  2
none_device
  4

  6

 40
0.0
 41
0.0
 42
0.0
 43
0.0
 44
0.0
 45
0.0
 46
0.0
 47
0.0
 48
0.0
 49
0.0
140
0.0
141
0.0
142
1.0
143
1.0
 70
   688
 72
     1
 73
     0
 74
     5
  7

 75
    16
147
1.0
148
0.0
149
0.0
100
AcDbLayout
  1
Layout1
 70
     1
 71
     1
 10
0.0
 20
0.0
 11
420.0
 21
297.0
 12
0.0
 22
0.0
 32
0.0
 14
1.0000000000E+20
 24
1.0000000000E+20
 34
1.0000000000E+20
 15
-1.0000000000E+20
 25
-1.0000000000E+20
 35
-1.0000000000E+20
146
0.0
 13
0.0
 23
0.0
 33
0.0
 16
1.0
 26
0.0
 36
0.0
 17
0.0
 27
1.0
 37
0.0
 76
     0
330
1B
  0
LAYOUT
  5
26
102
{ACAD_REACTORS
330
1A
102
}
330
1A
100
AcDbPlotSettings
  1

  2
none_device
  4

  6

 40
0.0
 41
0.0
 42
0.0
 43
0.0
 44
0.0
 45
0.0
 46
0.0
 47
0.0
 48
0.0
 49
0.0
140
0.0
141
0.0
142
1.0
143
1.0
 70
   688
 72
     1
 73
     0
 74
     5
  7

 75
    16
147
1.0
148
0.0
149
0.0
100
AcDbLayout
  1
Layout2
 70
     1
 71
     2
 10
0.0
 20
0.0
 11
0.0
 21
0.0
 12
0.0
 22
0.0
 32
0.0
 14
0.0
 24
0.0
 34
0.0
 15
0.0
 25
0.0
 35
0.0
146
0.0
 13
0.0
 23
0.0
 33
0.0
 16
1.0
 26
0.0
 36
0.0
 17
0.0
 27
1.0
 37
0.0
 76
     0
330
23
  0
LAYOUT
  5
22
102
{ACAD_REACTORS
330
1A
102
}
330
1A
100
AcDbPlotSettings
  1

  2
none_device
  4
Letter_(8.50_x_11.00_Inches)
  6

 40
6.35
 41
6.35
 42
6.35000508
 43
6.35000508
 44
215.9
 45
279.4
 46
0.0
 47
0.0
 48
0.0
 49
0.0
140
0.0
141
0.0
142
1.0
143
1.0
 70
  1712
 72
     1
 73
     0
 74
     0
  7

 75
     0
147
1.0
148
0.0
149
0.0
100
AcDbLayout
  1
Model
 70
     1
 71
     0
 10
0.0
 20
0.0
 11
297.0
 21
210.0
 12
0.0
 22
0.0
 32
0.0
 14
0.0
 24
0.0
 34
0.0
 15
297.0
 25
210.0
 35
0.0
146
0.0
 13
0.0
 23
0.0
 33
0.0
 16
1.0
 26
0.0
 36
0.0
 17
0.0
 27
1.0
 37
0.0
 76
     0
330
1F
331
29
  0
MLINESTYLE
  5
18
102
{ACAD_REACTORS
330
17
102
}
330
17
100
AcDbMlineStyle
  2
Standard
 70
     0
  3

 62
   256
 51
90.0
 52
90.0
 71
     2
 49
0.5
 62
   256
  6
BYLAYER
 49
-0.5
 62
   256
  6
BYLAYER
  0
ACDBPLACEHOLDER
  5
F
102
{ACAD_REACTORS
330
E
102
}
330
E
  0
SCALE
  5
48
102
{ACAD_REACTORS
330
47
102
}
330
47
100
AcDbScale
 70
     0
300
1:1
140
1.0
141
1.0
290
     1
  0
SCALE
  5
49
102
{ACAD_REACTORS
330
47
102
}
330
47
100
AcDbScale
 70
     0
300
1:2
140
1.0
141
2.0
290
     0
  0
SCALE
  5
4A
102
{ACAD_REACTORS
330
47
102
}
330
47
100
AcDbScale
 70
     0
300
1:4
140
1.0
141
4.0
290
     0
  0
SCALE
  5
4B
102
{ACAD_REACTORS
330
47
102
}
330
47
100
AcDbScale
 70
     0
300
1:5
140
1.0
141
5.0
290
     0
  0
SCALE
  5
4C
102
{ACAD_REACTORS
330
47
102
}
330
47
100
AcDbScale
 70
     0
300
1:8
140
1.0
141
8.0
290
     0
  0
SCALE
  5
4D
102
{ACAD_REACTORS
330
47
102
}
330
47
100
AcDbScale
 70
     0
300
1:10
140
1.0
141
10.0
290
     0
  0
SCALE
  5
4E
102
{ACAD_REACTORS
330
47
102
}
330
47
100
AcDbScale
 70
     0
300
1:16
140
1.0
141
16.0
290
     0
  0
SCALE
  5
4F
102
{ACAD_REACTORS
330
47
102
}
330
47
100
AcDbScale
 70
     0
300
1:20
140
1.0
141
20.0
290
     0
  0
SCALE
  5
50
102
{ACAD_REACTORS
330
47
102
}
330
47
100
AcDbScale
 70
     0
300
1:30
140
1.0
141
30.0
290
     0
  0
SCALE
  5
51
102
{ACAD_REACTORS
330
47
102
}
330
47
100
AcDbScale
 70
     0
300
1:40
140
1.0
141
40.0
290
     0
  0
SCALE
  5
52
102
{ACAD_REACTORS
330
47
102
}
330
47
100
AcDbScale
 70
     0
300
1:50
140
1.0
141
50.0
290
     0
  0
SCALE
  5
53
102
{ACAD_REACTORS
330
47
102
}
330
47
100
AcDbScale
 70
     0
300
1:100
140
1.0
141
100.0
290
     0
  0
SCALE
  5
54
102
{ACAD_REACTORS
330
47
102
}
330
47
100
AcDbScale
 70
     0
300
2:1
140
2.0
141
1.0
290
     0
  0
SCALE
  5
55
102
{ACAD_REACTORS
330
47
102
}
330
47
100
AcDbScale
 70
     0
300
4:1
140
4.0
141
1.0
290
     0
  0
SCALE
  5
56
102
{ACAD_REACTORS
330
47
102
}
330
47
100
AcDbScale
 70
     0
300
8:1
140
8.0
141
1.0
290
     0
  0
SCALE
  5
57
102
{ACAD_REACTORS
330
47
102
}
330
47
100
AcDbScale
 70
     0
300
10:1
140
10.0
141
1.0
290
     0
  0
SCALE
  5
58
102
{ACAD_REACTORS
330
47
102
}
330
47
100
AcDbScale
 70
     0
300
100:1
140
100.0
141
1.0
290
     0
  0
SCALE
  5
59
102
{ACAD_REACTORS
330
47
102
}
330
47
100
AcDbScale
 70
     0
300
1/128" = 1'-0"
140
0.0078125
141
12.0
290
     0
  0
SCALE
  5
5A
102
{ACAD_REACTORS
330
47
102
}
330
47
100
AcDbScale
 70
     0
300
1/64" = 1'-0"
140
0.015625
141
12.0
290
     0
  0
SCALE
  5
5B
102
{ACAD_REACTORS
330
47
102
}
330
47
100
AcDbScale
 70
     0
300
1/32" = 1'-0"
140
0.03125
141
12.0
290
     0
  0
SCALE
  5
5C
102
{ACAD_REACTORS
330
47
102
}
330
47
100
AcDbScale
 70
     0
300
1/16" = 1'-0"
140
0.0625
141
12.0
290
     0
  0
SCALE
  5
5D
102
{ACAD_REACTORS
330
47
102
}
330
47
100
AcDbScale
 70
     0
300
3/32" = 1'-0"
140
0.09375
141
12.0
290
     0
  0
SCALE
  5
5E
102
{ACAD_REACTORS
330
47
102
}
330
47
100
AcDbScale
 70
     0
300
1/8" = 1'-0"
140
0.125
141
12.0
290
     0
  0
SCALE
  5
5F
102
{ACAD_REACTORS
330
47
102
}
330
47
100
AcDbScale
 70
     0
300
3/16" = 1'-0"
140
0.1875
141
12.0
290
     0
  0
SCALE
  5
60
102
{ACAD_REACTORS
330
47
102
}
330
47
100
AcDbScale
 70
     0
300
1/4" = 1'-0"
140
0.25
141
12.0
290
     0
  0
SCALE
  5
61
102
{ACAD_REACTORS
330
47
102
}
330
47
100
AcDbScale
 70
     0
300
3/8" = 1'-0"
140
0.375
141
12.0
290
     0
  0
SCALE
  5
62
102
{ACAD_REACTORS
330
47
102
}
330
47
100
AcDbScale
 70
     0
300
1/2" = 1'-0"
140
0.5
141
12.0
290
     0
  0
SCALE
  5
63
102
{ACAD_REACTORS
330
47
102
}
330
47
100
AcDbScale
 70
     0
300
3/4" = 1'-0"
140
0.75
141
12.0
290
     0
  0
SCALE
  5
64
102
{ACAD_REACTORS
330
47
102
}
330
47
100
AcDbScale
 70
     0
300
1" = 1'-0"
140
1.0
141
12.0
290
     0
  0
SCALE
  5
65
102
{ACAD_REACTORS
330
47
102
}
330
47
100
AcDbScale
 70
     0
300
1-1/2" = 1'-0"
140
1.5
141
12.0
290
     0
  0
SCALE
  5
66
102
{ACAD_REACTORS
330
47
102
}
330
47
100
AcDbScale
 70
     0
300
3" = 1'-0"
140
3.0
141
12.0
290
     0
  0
SCALE
  5
67
102
{ACAD_REACTORS
330
47
102
}
330
47
100
AcDbScale
 70
     0
300
6" = 1'-0"
140
6.0
141
12.0
290
     0
  0
SCALE
  5
68
102
{ACAD_REACTORS
330
47
102
}
330
47
100
AcDbScale
 70
     0
300
1'-0" = 1'-0"
140
12.0
141
12.0
290
     0
  0
ENDSEC
  0
EOF
