  0
SECTION
  2
HEADER
  9
$ACADVER
  1
AC1015
  9
$ACADMAINTVER
 70
     6
  9
$DWGCODEPAGE
  3
ANSI_1252
  9
$INSBASE
 10
0.0
 20
0.0
 30
0.0
  9
$EXTMIN
 10
0.0
 20
0.0
 30
0.0
  9
$EXTMAX
 10
297.0
 20
210.0
 30
0.0
  9
$LIMMIN
 10
0.0
 20
0.0
  9
$LIMMAX
 10
297.0
 20
210.0
  9
$ORTHOMODE
 70
     0
  9
$REGENMODE
 70
     1
  9
$FILLMODE
 70
     1
  9
$QTEXTMODE
 70
     0
  9
$MIRRTEXT
 70
     1
  9
$LTSCALE
 40
1.0
  9
$ATTMODE
 70
     1
  9
$TEXTSIZE
 40
2.0
  9
$TRACEWID
 40
1.0
  9
$TEXTSTYLE
  7
Standard
  9
$CLAYER
  8
0
  9
$CELTYPE
  6
ByLayer
  9
$CECOLOR
 62
   256
  9
$CELTSCALE
 40
1.0
  9
$DISPSILH
 70
     0
  9
$DIMSCALE
 40
1.0
  9
$DIMASZ
 40
3.0
  9
$DIMEXO
 40
0.0
  9
$DIMDLI
 40
3.75
  9
$DIMRND
 40
0.0
  9
$DIMDLE
 40
0.0
  9
$DIMEXE
 40
1.0
  9
$DIMTP
 40
0.0
  9
$DIMTM
 40
0.0
  9
$DIMTXT
 40
2.0
  9
$DIMCEN
 40
2.5
  9
$DIMTSZ
 40
0.0
  9
$DIMTOL
 70
     0
  9
$DIMLIM
 70
     0
  9
$DIMTIH
 70
     1
  9
$DIMTOH
 70
     1
  9
$DIMSE1
 70
     0
  9
$DIMSE2
 70
     0
  9
$DIMTAD
 70
     1
  9
$DIMZIN
 70
     0
  9
$DIMBLK
  1

  9
$DIMASO
 70
     1
  9
$DIMSHO
 70
     1
  9
$DIMPOST
  1

  9
$DIMAPOST
  1

  9
$DIMALT
 70
     0
  9
$DIMALTD
 70
     3
  9
$DIMALTF
 40
0.0393700787
  9
$DIMLFAC
 40
2.0
  9
$DIMTOFL
 70
     1
  9
$DIMTVP
 40
0.0
  9
$DIMTIX
 70
     0
  9
$DIMSOXD
 70
     0
  9
$DIMSAH
 70
     0
  9
$DIMBLK1
  1

  9
$DIMBLK2
  1

  9
$DIMSTYLE
  2
ISO-25
  9
$DIMCLRD
 70
     0
  9
$DIMCLRE
 70
     0
  9
$DIMCLRT
 70
     0
  9
$DIMTFAC
 40
1.0
  9
$DIMGAP
 40
1.524
  9
$DIMJUST
 70
     0
  9
$DIMSD1
 70
     0
  9
$DIMSD2
 70
     0
  9
$DIMTOLJ
 70
     0
  9
$DIMTZIN
 70
     0
  9
$DIMALTZ
 70
     0
  9
$DIMALTTZ
 70
     0
  9
$DIMUPT
 70
     0
  9
$DIMDEC
 70
     2
  9
$DIMTDEC
 70
     3
  9
$DIMALTU
 70
     2
  9
$DIMALTTD
 70
     3
  9
$DIMTXSTY
  7
Standard
  9
$DIMAUNIT
 70
     0
  9
$DIMADEC
 70
     2
  9
$DIMALTRND
 40
0.0
  9
$DIMAZIN
 70
     0
  9
$DIMDSEP
 70
    44
  9
$DIMATFIT
 70
     3
  9
$DIMFRAC
 70
     0
  9
$DIMLDRBLK
  1

  9
$DIMLUNIT
 70
     2
  9
$DIMLWD
 70
    -2
  9
$DIMLWE
 70
    -2
  9
$DIMTMOVE
 70
     0
  9
$LUNITS
 70
     2
  9
$LUPREC
 70
     2
  9
$SKETCHINC
 40
1.0
  9
$FILLETRAD
 40
10.0
  9
$AUNITS
 70
     0
  9
$AUPREC
 70
     2
  9
$MENU
  1
.
  9
$ELEVATION
 40
0.0
  9
$PELEVATION
 40
0.0
  9
$THICKNESS
 40
0.0
  9
$LIMCHECK
 70
     0
  9
$CHAMFERA
 40
0.0
  9
$CHAMFERB
 40
0.0
  9
$CHAMFERC
 40
0.0
  9
$CHAMFERD
 40
0.0
  9
$SKPOLY
 70
     0
  9
$TDCREATE
 40
2458166.597513391
  9
$TDUCREATE
 40
2458166.555846725
  9
$TDUPDATE
 40
2458166.597515428
  9
$TDUUPDATE
 40
2458166.555848761
  9
$TDINDWG
 40
0.0000000116
  9
$TDUSRTIMER
 40
0.0000000116
  9
$USRTIMER
 70
     1
  9
$ANGBASE
 50
0.0
  9
$ANGDIR
 70
     0
  9
$PDMODE
 70
     0
  9
$PDSIZE
 40
-1.0
  9
$PLINEWID
 40
0.0
  9
$SPLFRAME
 70
     0
  9
$SPLINETYPE
 70
     6
  9
$SPLINESEGS
 70
     8
  9
$HANDSEED
  5
292
  9
$SURFTAB1
 70
     6
  9
$SURFTAB2
 70
     6
  9
$SURFTYPE
 70
     6
  9
$SURFU
 70
     6
  9
$SURFV
 70
     6
  9
$UCSBASE
  2

  9
$UCSNAME
  2

  9
$UCSORG
 10
0.0
 20
0.0
 30
0.0
  9
$UCSXDIR
 10
1.0
 20
0.0
 30
0.0
  9
$UCSYDIR
 10
0.0
 20
1.0
 30
0.0
  9
$UCSORTHOREF
  2

  9
$UCSORTHOVIEW
 70
     0
  9
$UCSORGTOP
 10
0.0
 20
0.0
 30
0.0
  9
$UCSORGBOTTOM
 10
0.0
 20
0.0
 30
0.0
  9
$UCSORGLEFT
 10
0.0
 20
0.0
 30
0.0
  9
$UCSORGRIGHT
 10
0.0
 20
0.0
 30
0.0
  9
$UCSORGFRONT
 10
0.0
 20
0.0
 30
0.0
  9
$UCSORGBACK
 10
0.0
 20
0.0
 30
0.0
  9
$PUCSBASE
  2

  9
$PUCSNAME
  2

  9
$PUCSORG
 10
0.0
 20
0.0
 30
0.0
  9
$PUCSXDIR
 10
1.0
 20
0.0
 30
0.0
  9
$PUCSYDIR
 10
0.0
 20
1.0
 30
0.0
  9
$PUCSORTHOREF
  2

  9
$PUCSORTHOVIEW
 70
     0
  9
$PUCSORGTOP
 10
0.0
 20
0.0
 30
0.0
  9
$PUCSORGBOTTOM
 10
0.0
 20
0.0
 30
0.0
  9
$PUCSORGLEFT
 10
0.0
 20
0.0
 30
0.0
  9
$PUCSORGRIGHT
 10
0.0
 20
0.0
 30
0.0
  9
$PUCSORGFRONT
 10
0.0
 20
0.0
 30
0.0
  9
$PUCSORGBACK
 10
0.0
 20
0.0
 30
0.0
  9
$USERI1
 70
     0
  9
$USERI2
 70
     0
  9
$USERI3
 70
     0
  9
$USERI4
 70
     0
  9
$USERI5
 70
     0
  9
$USERR1
 40
0.0
  9
$USERR2
 40
0.0
  9
$USERR3
 40
0.0
  9
$USERR4
 40
0.0
  9
$USERR5
 40
0.0
  9
$WORLDVIEW
 70
     1
  9
$SHADEDGE
 70
     3
  9
$SHADEDIF
 70
    70
  9
$TILEMODE
 70
     1
  9
$MAXACTVP
 70
    64
  9
$PINSBASE
 10
0.0
 20
0.0
 30
0.0
  9
$PLIMCHECK
 70
     0
  9
$PEXTMIN
 10
1.0000000000E+20
 20
1.0000000000E+20
 30
1.0000000000E+20
  9
$PEXTMAX
 10
-1.0000000000E+20
 20
-1.0000000000E+20
 30
-1.0000000000E+20
  9
$PLIMMIN
 10
0.0
 20
0.0
  9
$PLIMMAX
 10
420.0
 20
297.0
  9
$UNITMODE
 70
     0
  9
$VISRETAIN
 70
     1
  9
$PLINEGEN
 70
     0
  9
$PSLTSCALE
 70
     1
  9
$TREEDEPTH
 70
  3020
  9
$CMLSTYLE
  2
Standard
  9
$CMLJUST
 70
     0
  9
$CMLSCALE
 40
20.0
  9
$PROXYGRAPHICS
 70
     1
  9
$MEASUREMENT
 70
     1
  9
$CELWEIGHT
370
    -1
  9
$ENDCAPS
280
     0
  9
$JOINSTYLE
280
     0
  9
$LWDISPLAY
290
     1
  9
$INSUNITS
 70
     4
  9
$HYPERLINKBASE
  1

  9
$STYLESHEET
  1

  9
$XEDIT
290
     1
  9
$CEPSNTYPE
380
     0
  9
$PSTYLEMODE
290
     1
  9
$FINGERPRINTGUID
  2
{C67044C3-B56D-4001-ACE7-A6F5430E8DA3}
  9
$VERSIONGUID
  2
{FAEB1C32-E019-11D5-929B-00C0DF256EC4}
  9
$EXTNAMES
290
     1
  9
$PSVPSCALE
 40
0.0
  9
$OLESTARTUP
290
     0
  0
ENDSEC
  0
SECTION
  2
CLASSES
  0
CLASS
  1
ACDBDICTIONARYWDFLT
  2
AcDbDictionaryWithDefault
  3
ObjectDBX Classes
 90
        0
280
     0
281
     0
  0
CLASS
  1
VISUALSTYLE
  2
AcDbVisualStyle
  3
ObjectDBX Classes
 90
     4095
280
     0
281
     0
  0
CLASS
  1
MATERIAL
  2
AcDbMaterial
  3
ObjectDBX Classes
 90
     1153
280
     0
281
     0
  0
CLASS
  1
SCALE
  2
AcDbScale
  3
ObjectDBX Classes
 90
     1153
280
     0
281
     0
  0
CLASS
  1
TABLESTYLE
  2
AcDbTableStyle
  3
ObjectDBX Classes
 90
     4095
280
     0
281
     0
  0
CLASS
  1
MLEADERSTYLE
  2
AcDbMLeaderStyle
  3
ACDB_MLEADERSTYLE_CLASS
 90
     4095
280
     0
281
     0
  0
CLASS
  1
SUN
  2
AcDbSun
  3
SCENEOE
 90
     1153
280
     0
281
     0
  0
CLASS
  1
ACDBPLACEHOLDER
  2
AcDbPlaceHolder
  3
ObjectDBX Classes
 90
        0
280
     0
281
     0
  0
CLASS
  1
LAYOUT
  2
AcDbLayout
  3
ObjectDBX Classes
 90
        0
280
     0
281
     0
  0
ENDSEC
  0
SECTION
  2
TABLES
  0
TABLE
  2
VPORT
  5
8
330
0
100
AcDbSymbolTable
 70
     1
  0
VPORT
  5
29
330
8
100
AcDbSymbolTableRecord
100
AcDbViewportTableRecord
  2
*Active
 70
     0
 10
0.0
 20
0.0
 11
1.0
 21
1.0
 12
148.5
 22
105.0
 13
0.0
 23
0.0
 14
10.0
 24
10.0
 15
10.0
 25
10.0
 16
0.0
 26
0.0
 36
1.0
 17
0.0
 27
0.0
 37
0.0
 40
210.0
 41
1.4142857143
 42
50.0
 43
0.0
 44
0.0
 50
0.0
 51
0.0
 71
     0
 72
  2000
 73
     1
 74
     3
 75
     0
 76
     0
 77
     0
 78
     0
281
     0
 65
     1
110
0.0
120
0.0
130
0.0
111
1.0
121
0.0
131
0.0
112
0.0
122
1.0
132
0.0
 79
     0
146
0.0
  0
ENDTAB
  0
TABLE
  2
LTYPE
  5
5
330
0
100
AcDbSymbolTable
 70
     6
  0
LTYPE
  5
14
330
5
100
AcDbSymbolTableRecord
100
AcDbLinetypeTableRecord
  2
ByBlock
 70
     0
  3

 72
    65
 73
     0
 40
0.0
  0
LTYPE
  5
15
330
5
100
AcDbSymbolTableRecord
100
AcDbLinetypeTableRecord
  2
ByLayer
 70
     0
  3

 72
    65
 73
     0
 40
0.0
  0
LTYPE
  5
16
330
5
100
AcDbSymbolTableRecord
100
AcDbLinetypeTableRecord
  2
Continuous
 70
     0
  3
Solid line
 72
    65
 73
     0
 40
0.0
  0
LTYPE
  5
6E
330
5
100
AcDbSymbolTableRecord
100
AcDbLinetypeTableRecord
  2
HIDDEN
 70
     0
  3
Hidden __ __ __ __ __ __ __ __ __ __ __ __ __ __
 72
    65
 73
     2
 40
1.905
 49
1.27
 74
     0
 49
-0.635
 74
     0
  0
LTYPE
  5
6F
330
5
100
AcDbSymbolTableRecord
100
AcDbLinetypeTableRecord
  2
PHANTOM
 70
     0
  3
Phantom ______  __  __  ______  __  __  ______
 72
    65
 73
     6
 40
12.7
 49
6.35
 74
     0
 49
-1.27
 74
     0
 49
1.27
 74
     0
 49
-1.27
 74
     0
 49
1.27
 74
     0
 49
-1.27
 74
     0
  0
LTYPE
  5
70
330
5
100
AcDbSymbolTableRecord
100
AcDbLinetypeTableRecord
  2
CENTER
 70
     0
  3
Center ____ _ ____ _ ____ _ ____ _ ____ _ ____
 72
    65
 73
     4
 40
10.16
 49
6.35
 74
     0
 49
-1.27
 74
     0
 49
1.27
 74
     0
 49
-1.27
 74
     0
  0
LTYPE
  5
71
330
5
100
AcDbSymbolTableRecord
100
AcDbLinetypeTableRecord
  2
CENTERX2
 70
     0
  3
Center (2x) ________  __  ________  __  _____
 72
    65
 73
     4
 40
20.32
 49
12.7
 74
     0
 49
-2.54
 74
     0
 49
2.54
 74
     0
 49
-2.54
 74
     0
  0
LTYPE
  5
72
330
5
100
AcDbSymbolTableRecord
100
AcDbLinetypeTableRecord
  2
DOT2
 70
     0
  3
Dot (.5x) ........................................
 72
    65
 73
     2
 40
0.635
 49
0.0
 74
     0
 49
-0.635
 74
     0
  0
ENDTAB
  0
TABLE
  2
LAYER
  5
2
330
0
100
AcDbSymbolTable
 70
     5
  0
LAYER
  5
10
330
2
100
AcDbSymbolTableRecord
100
AcDbLayerTableRecord
  2
0
 70
     0
 62
     7
  6
Continuous
370
    -3
390
F
  0
LAYER
  5
73
330
2
100
AcDbSymbolTableRecord
100
AcDbLayerTableRecord
  2
FORMAT
 70
     0
 62
     7
  6
Continuous
370
    -3
390
F
  0
LAYER
  5
74
330
2
100
AcDbSymbolTableRecord
100
AcDbLayerTableRecord
  2
VERMASSUNG
 70
     0
 62
     7
  6
Continuous
370
    -3
390
F
  0
LAYER
  5
75
330
2
100
AcDbSymbolTableRecord
100
AcDbLayerTableRecord
  2
KOPF_DÜNN
 70
     0
 62
     7
  6
Continuous
370
    -3
390
F
  0
LAYER
  5
76
330
2
100
AcDbSymbolTableRecord
100
AcDbLayerTableRecord
  2
KOPF_DICK
 70
     0
 62
     7
  6
Continuous
370
    25
390
F
  0
ENDTAB
  0
TABLE
  2
STYLE
  5
3
330
0
100
AcDbSymbolTable
 70
     2
  0
STYLE
  5
11
330
3
100
AcDbSymbolTableRecord
100
AcDbTextStyleTableRecord
  2
Standard
 70
     0
 40
0.0
 41
1.0
 50
0.0
 71
     0
 42
2.0
  3
txt
  4

  0
STYLE
  5
77
330
3
100
AcDbSymbolTableRecord
100
AcDbTextStyleTableRecord
  2
SLDTEXTSTYLE0
 70
     0
 40
0.0
 41
0.7
 50
0.0
 71
     0
 42
2.0
  3
TXT
  4

  0
ENDTAB
  0
TABLE
  2
VIEW
  5
6
330
0
100
AcDbSymbolTable
 70
     0
  0
ENDTAB
  0
TABLE
  2
UCS
  5
7
330
0
100
AcDbSymbolTable
 70
     0
  0
ENDTAB
  0
TABLE
  2
APPID
  5
9
330
0
100
AcDbSymbolTable
 70
     1
  0
APPID
  5
12
330
9
100
AcDbSymbolTableRecord
100
AcDbRegAppTableRecord
  2
ACAD
 70
     0
  0
ENDTAB
  0
TABLE
  2
DIMSTYLE
  5
A
330
0
100
AcDbSymbolTable
 70
     3
100
AcDbDimStyleTable
  0
DIMSTYLE
105
27
330
A
100
AcDbSymbolTableRecord
100
AcDbDimStyleTableRecord
  2
ISO-25
 70
     0
 41
2.5
 42
0.625
 43
3.75
 44
1.25
 73
     0
 74
     0
 77
     1
 78
     8
140
2.5
141
2.5
143
0.0393700787
147
0.625
171
     3
172
     1
178
     0
271
     2
272
     2
274
     3
278
    44
283
     0
284
     8
340
11
  0
DIMSTYLE
105
14F
102
{ACAD_REACTORS
330
14E
330
15A
330
164
330
16E
330
178
102
}
330
A
100
AcDbSymbolTableRecord
100
AcDbDimStyleTableRecord
  2
SLDDIMSTYLE0
 70
     0
 41
3.0
 44
0.0
 45
0.000000001
 73
     0
 74
     0
 77
     1
 78
    12
 79
     3
140
2.0
147
0.5
173
     1
178
     0
271
     2
272
     3
276
     2
284
    12
340
77
  0
DIMSTYLE
105
183
102
{ACAD_REACTORS
330
182
102
}
330
A
100
AcDbSymbolTableRecord
100
AcDbDimStyleTableRecord
  2
SLDDIMSTYLE1
 70
     0
 41
3.0
 44
0.0
 45
0.000000001
 73
     0
 74
     0
 77
     1
 78
    12
 79
     3
140
2.0
147
0.5
173
     1
178
     0
271
     1
272
     3
276
     2
284
    12
340
77
  0
ENDTAB
  0
TABLE
  2
BLOCK_RECORD
  5
1
330
0
100
AcDbSymbolTable
 70
     7
  0
BLOCK_RECORD
  5
1F
330
1
100
AcDbSymbolTableRecord
100
AcDbBlockTableRecord
  2
*Model_Space
340
22
  0
BLOCK_RECORD
  5
1B
330
1
100
AcDbSymbolTableRecord
100
AcDbBlockTableRecord
  2
*Paper_Space
340
1E
  0
BLOCK_RECORD
  5
23
330
1
100
AcDbSymbolTableRecord
100
AcDbBlockTableRecord
  2
*Paper_Space0
340
26
  0
BLOCK_RECORD
  5
150
330
1
100
AcDbSymbolTableRecord
100
AcDbBlockTableRecord
  2
_D
340
0
  0
BLOCK_RECORD
  5
15B
330
1
100
AcDbSymbolTableRecord
100
AcDbBlockTableRecord
  2
_D_1
340
0
  0
BLOCK_RECORD
  5
165
330
1
100
AcDbSymbolTableRecord
100
AcDbBlockTableRecord
  2
_D_2
340
0
  0
BLOCK_RECORD
  5
16F
330
1
100
AcDbSymbolTableRecord
100
AcDbBlockTableRecord
  2
_D_3
340
0
  0
BLOCK_RECORD
  5
179
330
1
100
AcDbSymbolTableRecord
100
AcDbBlockTableRecord
  2
_D_4
340
0
  0
BLOCK_RECORD
  5
184
330
1
100
AcDbSymbolTableRecord
100
AcDbBlockTableRecord
  2
_D_5
340
0
  0
ENDTAB
  0
ENDSEC
  0
SECTION
  2
BLOCKS
  0
BLOCK
  5
20
330
1F
100
AcDbEntity
  8
0
100
AcDbBlockBegin
  2
*Model_Space
 70
     0
 10
0.0
 20
0.0
 30
0.0
  3
*Model_Space
  1

  0
ENDBLK
  5
21
330
1F
100
AcDbEntity
  8
0
100
AcDbBlockEnd
  0
BLOCK
  5
1C
330
1B
100
AcDbEntity
 67
     1
  8
0
100
AcDbBlockBegin
  2
*Paper_Space
 70
     0
 10
0.0
 20
0.0
 30
0.0
  3
*Paper_Space
  1

  0
ENDBLK
  5
1D
330
1B
100
AcDbEntity
 67
     1
  8
0
100
AcDbBlockEnd
  0
BLOCK
  5
24
330
23
100
AcDbEntity
  8
0
100
AcDbBlockBegin
  2
*Paper_Space0
 70
     0
 10
0.0
 20
0.0
 30
0.0
  3
*Paper_Space0
  1

  0
ENDBLK
  5
25
330
23
100
AcDbEntity
  8
0
100
AcDbBlockEnd
  0
BLOCK
  5
151
330
150
100
AcDbEntity
  8
0
100
AcDbBlockBegin
  2
_D
 70
     0
 10
0.0
 20
0.0
 30
0.0
  3
_D
  1

  0
SOLID
  5
153
330
150
100
AcDbEntity
  8
VERMASSUNG
100
AcDbTrace
 10
244.4413533835
 20
146.9669138442
 30
0.0
 11
243.9913533835
 21
143.9669138442
 31
0.0
 12
244.8913533835
 22
143.9669138442
 32
0.0
 13
244.8913533835
 23
143.9669138442
 33
0.0
  0
SOLID
  5
154
330
150
100
AcDbEntity
  8
VERMASSUNG
100
AcDbTrace
 10
244.4413533835
 20
97.2669138442
 30
0.0
 11
244.8913533835
 21
100.2669138442
 31
0.0
 12
243.9913533835
 22
100.2669138442
 32
0.0
 13
243.9913533835
 23
100.2669138442
 33
0.0
  0
LINE
  5
155
330
150
100
AcDbEntity
  8
VERMASSUNG
100
AcDbLine
 10
213.3772120272
 20
146.9669138442
 30
0.0
 11
245.4413533835
 21
146.9669138442
 31
0.0
  0
LINE
  5
156
330
150
100
AcDbEntity
  8
VERMASSUNG
100
AcDbLine
 10
213.378690705
 20
97.2669138442
 30
0.0
 11
245.4413533835
 21
97.2669138442
 31
0.0
  0
LINE
  5
157
330
150
100
AcDbEntity
  8
VERMASSUNG
100
AcDbLine
 10
244.4413533835
 20
146.9669138442
 30
0.0
 11
244.4413533835
 21
97.2669138442
 31
0.0
  0
MTEXT
  5
158
330
150
100
AcDbEntity
  8
VERMASSUNG
100
AcDbMText
 10
241.8632180785
 20
117.811913893
 30
0.0
 40
2.0
 41
0.0
 71
     1
 72
     1
  1
%%c
  7
SLDTEXTSTYLE0
 11
-7.044195017643634E-15
 21
1.0
 31
0.0
 73
     1
 44
1.0
  0
MTEXT
  5
159
330
150
100
AcDbEntity
  8
VERMASSUNG
100
AcDbMText
 10
241.6632181272
 20
121.4219139073
 30
0.0
 40
2.0
 41
0.0
 71
     1
 72
     1
  1
49.7
  7
SLDTEXTSTYLE0
 11
-7.044195017643634E-15
 21
1.0
 31
0.0
 73
     1
 44
1.0
  0
ENDBLK
  5
152
330
150
100
AcDbEntity
  8
0
100
AcDbBlockEnd
  0
BLOCK
  5
15C
330
15B
100
AcDbEntity
  8
0
100
AcDbBlockBegin
  2
_D_1
 70
     0
 10
0.0
 20
0.0
 30
0.0
  3
_D_1
  1

  0
SOLID
  5
15E
330
15B
100
AcDbEntity
  8
VERMASSUNG
100
AcDbTrace
 10
170.8179968077
 20
97.1169138442
 30
0.0
 11
171.2679968077
 21
100.1169138442
 31
0.0
 12
170.3679968077
 22
100.1169138442
 32
0.0
 13
170.3679968077
 23
100.1169138442
 33
0.0
  0
SOLID
  5
15F
330
15B
100
AcDbEntity
  8
VERMASSUNG
100
AcDbTrace
 10
170.8179968077
 20
147.1169138442
 30
0.0
 11
170.3679968077
 21
144.1169138442
 31
0.0
 12
171.2679968077
 22
144.1169138442
 32
0.0
 13
171.2679968077
 23
144.1169138442
 33
0.0
  0
LINE
  5
160
330
15B
100
AcDbEntity
  8
VERMASSUNG
100
AcDbLine
 10
170.8179968077
 20
97.1169138442
 30
0.0
 11
170.8179968077
 21
147.1169138442
 31
0.0
  0
LINE
  5
161
330
15B
100
AcDbEntity
  8
VERMASSUNG
100
AcDbLine
 10
170.8179968077
 20
147.1169138442
 30
0.0
 11
170.8179968077
 21
158.8063737324
 31
0.0
  0
MTEXT
  5
162
330
15B
100
AcDbEntity
  8
VERMASSUNG
100
AcDbMText
 10
168.2398615028
 20
152.3963738179
 30
0.0
 40
2.0
 41
0.0
 71
     1
 72
     1
  1
%%c
  7
SLDTEXTSTYLE0
 11
-1.608122649676637E-16
 21
1.0
 31
0.0
 73
     1
 44
1.0
  0
MTEXT
  5
163
330
15B
100
AcDbEntity
  8
VERMASSUNG
100
AcDbMText
 10
168.0398615515
 20
156.0063738323
 30
0.0
 40
2.0
 41
0.0
 71
     1
 72
     1
  1
50
  7
SLDTEXTSTYLE0
 11
-1.608122649676637E-16
 21
1.0
 31
0.0
 73
     1
 44
1.0
  0
ENDBLK
  5
15D
330
15B
100
AcDbEntity
  8
0
100
AcDbBlockEnd
  0
BLOCK
  5
166
330
165
100
AcDbEntity
  8
0
100
AcDbBlockBegin
  2
_D_2
 70
     0
 10
0.0
 20
0.0
 30
0.0
  3
_D_2
  1

  0
SOLID
  5
168
330
165
100
AcDbEntity
  8
VERMASSUNG
100
AcDbTrace
 10
129.9596782929
 20
167.7391017475
 30
0.0
 11
132.9596782929
 21
167.2891017475
 31
0.0
 12
132.9596782929
 22
168.1891017475
 32
0.0
 13
132.9596782929
 23
168.1891017475
 33
0.0
  0
SOLID
  5
169
330
165
100
AcDbEntity
  8
VERMASSUNG
100
AcDbTrace
 10
231.9596782929
 20
167.7391017475
 30
0.0
 11
228.9596782929
 21
168.1891017475
 31
0.0
 12
228.9596782929
 22
167.2891017475
 32
0.0
 13
228.9596782929
 23
167.2891017475
 33
0.0
  0
LINE
  5
16A
330
165
100
AcDbEntity
  8
VERMASSUNG
100
AcDbLine
 10
129.9596782929
 20
153.5919138442
 30
0.0
 11
129.9596782929
 21
168.7391017475
 31
0.0
  0
LINE
  5
16B
330
165
100
AcDbEntity
  8
VERMASSUNG
100
AcDbLine
 10
231.9596782929
 20
141.1169138442
 30
0.0
 11
231.9596782929
 21
168.7391017475
 31
0.0
  0
LINE
  5
16C
330
165
100
AcDbEntity
  8
VERMASSUNG
100
AcDbLine
 10
129.9596782929
 20
167.7391017475
 30
0.0
 11
231.9596782929
 21
167.7391017475
 31
0.0
  0
MTEXT
  5
16D
330
165
100
AcDbEntity
  8
VERMASSUNG
100
AcDbMText
 10
179.0596782609
 20
170.3172373435
 30
0.0
 40
2.0
 41
0.0
 71
     1
 72
     1
  1
102
  7
SLDTEXTSTYLE0
 73
     1
 44
1.0
  0
ENDBLK
  5
167
330
165
100
AcDbEntity
  8
0
100
AcDbBlockEnd
  0
BLOCK
  5
170
330
16F
100
AcDbEntity
  8
0
100
AcDbBlockBegin
  2
_D_3
 70
     0
 10
0.0
 20
0.0
 30
0.0
  3
_D_3
  1

  0
SOLID
  5
172
330
16F
100
AcDbEntity
  8
VERMASSUNG
100
AcDbTrace
 10
111.9596782929
 20
177.0103512457
 30
0.0
 11
114.9596782929
 21
176.5603512457
 31
0.0
 12
114.9596782929
 22
177.4603512457
 32
0.0
 13
114.9596782929
 23
177.4603512457
 33
0.0
  0
SOLID
  5
173
330
16F
100
AcDbEntity
  8
VERMASSUNG
100
AcDbTrace
 10
231.9596782929
 20
177.0103512457
 30
0.0
 11
228.9596782929
 21
177.4603512457
 31
0.0
 12
228.9596782929
 22
176.5603512457
 32
0.0
 13
228.9596782929
 23
176.5603512457
 33
0.0
  0
LINE
  5
174
330
16F
100
AcDbEntity
  8
VERMASSUNG
100
AcDbLine
 10
111.9596782929
 20
153.3919138442
 30
0.0
 11
111.9596782929
 21
178.0103512457
 31
0.0
  0
LINE
  5
175
330
16F
100
AcDbEntity
  8
VERMASSUNG
100
AcDbLine
 10
231.9596782929
 20
141.1169138442
 30
0.0
 11
231.9596782929
 21
178.0103512457
 31
0.0
  0
LINE
  5
176
330
16F
100
AcDbEntity
  8
VERMASSUNG
100
AcDbLine
 10
111.9596782929
 20
177.0103512457
 30
0.0
 11
231.9596782929
 21
177.0103512457
 31
0.0
  0
MTEXT
  5
177
330
16F
100
AcDbEntity
  8
VERMASSUNG
100
AcDbMText
 10
170.0596782609
 20
179.5884868416
 30
0.0
 40
2.0
 41
0.0
 71
     1
 72
     1
  1
120
  7
SLDTEXTSTYLE0
 73
     1
 44
1.0
  0
ENDBLK
  5
171
330
16F
100
AcDbEntity
  8
0
100
AcDbBlockEnd
  0
BLOCK
  5
17A
330
179
100
AcDbEntity
  8
0
100
AcDbBlockBegin
  2
_D_4
 70
     0
 10
0.0
 20
0.0
 30
0.0
  3
_D_4
  1

  0
SOLID
  5
17C
330
179
100
AcDbEntity
  8
VERMASSUNG
100
AcDbTrace
 10
72.0096782929
 20
184.8835028455
 30
0.0
 11
75.0096782929
 21
184.4335028455
 31
0.0
 12
75.0096782929
 22
185.3335028455
 32
0.0
 13
75.0096782929
 23
185.3335028455
 33
0.0
  0
SOLID
  5
17D
330
179
100
AcDbEntity
  8
VERMASSUNG
100
AcDbTrace
 10
231.9596782929
 20
184.8835028455
 30
0.0
 11
228.9596782929
 21
185.3335028455
 31
0.0
 12
228.9596782929
 22
184.4335028455
 32
0.0
 13
228.9596782929
 23
184.4335028455
 33
0.0
  0
LINE
  5
17E
330
179
100
AcDbEntity
  8
VERMASSUNG
100
AcDbLine
 10
72.0096782929
 20
144.320008568
 30
0.0
 11
72.0096782929
 21
185.8835028455
 31
0.0
  0
LINE
  5
17F
330
179
100
AcDbEntity
  8
VERMASSUNG
100
AcDbLine
 10
231.9596782929
 20
141.1169138442
 30
0.0
 11
231.9596782929
 21
185.8835028455
 31
0.0
  0
LINE
  5
180
330
179
100
AcDbEntity
  8
VERMASSUNG
100
AcDbLine
 10
72.0096782929
 20
184.8835028455
 30
0.0
 11
231.9596782929
 21
184.8835028455
 31
0.0
  0
MTEXT
  5
181
330
179
100
AcDbEntity
  8
VERMASSUNG
100
AcDbMText
 10
148.3846783548
 20
187.4616384414
 30
0.0
 40
2.0
 41
0.0
 71
     1
 72
     1
  1
159.95
  7
SLDTEXTSTYLE0
 73
     1
 44
1.0
  0
ENDBLK
  5
17B
330
179
100
AcDbEntity
  8
0
100
AcDbBlockEnd
  0
BLOCK
  5
185
330
184
100
AcDbEntity
  8
0
100
AcDbBlockBegin
  2
_D_5
 70
     0
 10
0.0
 20
0.0
 30
0.0
  3
_D_5
  1

  0
SOLID
  5
187
330
184
100
AcDbEntity
  8
VERMASSUNG
100
AcDbTrace
 10
62.0096532929
 20
153.5919138442
 30
0.0
 11
61.5596532929
 21
150.5919138442
 31
0.0
 12
62.4596532929
 22
150.5919138442
 32
0.0
 13
62.4596532929
 23
150.5919138442
 33
0.0
  0
SOLID
  5
188
330
184
100
AcDbEntity
  8
VERMASSUNG
100
AcDbTrace
 10
62.0096532929
 20
90.6419138442
 30
0.0
 11
62.4596532929
 21
93.6419138442
 31
0.0
 12
61.5596532929
 22
93.6419138442
 32
0.0
 13
61.5596532929
 23
93.6419138442
 33
0.0
  0
LINE
  5
189
330
184
100
AcDbEntity
  8
VERMASSUNG
100
AcDbLine
 10
112.1596782929
 20
153.5919138442
 30
0.0
 11
61.0096532929
 21
153.5919138442
 31
0.0
  0
LINE
  5
18A
330
184
100
AcDbEntity
  8
VERMASSUNG
100
AcDbLine
 10
112.1596782929
 20
90.6419138442
 30
0.0
 11
61.0096532929
 21
90.6419138442
 31
0.0
  0
LINE
  5
18B
330
184
100
AcDbEntity
  8
VERMASSUNG
100
AcDbLine
 10
62.0096532929
 20
153.5919138442
 30
0.0
 11
62.0096532929
 21
90.6419138442
 31
0.0
  0
MTEXT
  5
18C
330
184
100
AcDbEntity
  8
VERMASSUNG
100
AcDbMText
 10
59.2315180367
 20
114.0119152259
 30
0.0
 40
2.0
 41
0.0
 71
     1
 72
     1
  1
KM
  7
SLDTEXTSTYLE0
 11
-7.044195017643634E-15
 21
1.0
 31
0.0
 73
     1
 44
1.0
  0
MTEXT
  5
18D
330
184
100
AcDbEntity
  8
VERMASSUNG
100
AcDbMText
 10
59.431517988
 20
117.4119150381
 30
0.0
 40
2.0
 41
0.0
 71
     1
 72
     1
  1
%%c
  7
SLDTEXTSTYLE0
 11
-7.044195017643634E-15
 21
1.0
 31
0.0
 73
     1
 44
1.0
  0
MTEXT
  5
18E
330
184
100
AcDbEntity
  8
VERMASSUNG
100
AcDbMText
 10
59.2315180367
 20
121.0219150524
 30
0.0
 40
2.0
 41
0.0
 71
     1
 72
     1
  1
63
  7
SLDTEXTSTYLE0
 11
-7.044195017643634E-15
 21
1.0
 31
0.0
 73
     1
 44
1.0
  0
MTEXT
  5
18F
330
184
100
AcDbEntity
  8
VERMASSUNG
100
AcDbMText
 10
59.2315180367
 20
125.0094149526
 30
0.0
 40
2.0
 41
0.0
 71
     1
 72
     1
  1
XMZ
  7
SLDTEXTSTYLE0
 11
-7.044195017643634E-15
 21
1.0
 31
0.0
 73
     1
 44
1.0
  0
ENDBLK
  5
186
330
184
100
AcDbEntity
  8
0
100
AcDbBlockEnd
  0
ENDSEC
  0
SECTION
  2
ENTITIES
  0
MTEXT
  5
78
330
1F
100
AcDbEntity
  8
KOPF_DÜNN
100
AcDbMText
 10
13.8892156294
 20
23.8442973028
 30
0.0
 40
3.0
 41
0.0
 71
     1
 72
     1
  1
KY6.E32.K01.120
  7
SLDTEXTSTYLE0
 73
     1
 44
1.0
  0
MTEXT
  5
79
330
1F
100
AcDbEntity
  8
VERMASSUNG
100
AcDbMText
 10
13.9329988022
 20
28.8834360957
 30
0.0
 40
3.0
 41
0.0
 71
     1
 72
     1
  1
Spannzangenfutter ER_Collet chuck ER
  7
SLDTEXTSTYLE0
 73
     1
 44
1.0
  0
MTEXT
  5
7A
330
1F
100
AcDbEntity
  8
VERMASSUNG
100
AcDbMText
 10
98.8601118557
 20
13.8365368761
 30
0.0
 40
2.0
 41
0.0
 71
     1
 72
     1
  1
Datum: 16.02.2018
  7
SLDTEXTSTYLE0
 73
     1
 44
1.0
  0
MTEXT
  5
7B
330
1F
100
AcDbEntity
  8
VERMASSUNG
100
AcDbMText
 10
13.933048693
 20
18.0482802738
 30
0.0
 40
2.0
 41
0.0
 71
     1
 72
     1
  1
KM63 XMZ / Ø50
  7
SLDTEXTSTYLE0
 73
     1
 44
1.0
  0
MTEXT
  5
7C
330
1F
100
AcDbEntity
  8
VERMASSUNG
100
AcDbMText
 10
13.9808475933
 20
13.9090974274
 30
0.0
 40
2.0
 41
0.0
 71
     1
 72
     1
  1
Gewicht: 1725g
  7
SLDTEXTSTYLE0
 73
     1
 44
1.0
  0
LINE
  5
7D
330
1F
100
AcDbEntity
  8
0
  6
Continuous
 62
     7
370
    25
100
AcDbLine
 10
209.9596757299
 20
97.2669141482
 30
0.0
 11
213.3843127496
 21
97.2669141482
 31
0.0
  0
LINE
  5
7E
330
1F
100
AcDbEntity
  8
0
  6
Continuous
 62
     7
370
    25
100
AcDbLine
 10
213.4289491779
 20
146.9669135403
 30
0.0
 11
209.9596757299
 21
146.9669135403
 31
0.0
  0
LINE
  5
7F
330
1F
100
AcDbEntity
  8
0
  6
Continuous
 62
     7
370
    25
100
AcDbLine
 10
209.9596757299
 20
146.9669135403
 30
0.0
 11
209.4596747166
 21
146.4669143896
 31
0.0
  0
LINE
  5
80
330
1F
100
AcDbEntity
  8
0
  6
Continuous
 62
     7
370
    25
100
AcDbLine
 10
209.4596747166
 20
97.7669132989
 30
0.0
 11
209.9596757299
 21
97.2669141482
 31
0.0
  0
LINE
  5
81
330
1F
100
AcDbEntity
  8
0
  6
Continuous
 62
     7
370
    25
100
AcDbLine
 10
230.2139449722
 20
100.0932192545
 30
0.0
 11
231.9596756107
 21
103.1169144552
 31
0.0
  0
LINE
  5
82
330
1F
100
AcDbEntity
  8
0
  6
Continuous
 62
     7
370
    25
100
AcDbLine
 10
231.9596756107
 20
141.1169132333
 30
0.0
 11
230.2148613936
 21
144.1390195977
 31
0.0
  0
LINE
  5
83
330
1F
100
AcDbEntity
  8
0
  6
Continuous
 62
     7
370
    25
100
AcDbLine
 10
112.1596782879
 20
90.6419137608
 30
0.0
 11
118.5254805579
 21
90.6419137608
 31
0.0
  0
LINE
  5
84
330
1F
100
AcDbEntity
  8
0
  6
Continuous
 62
     7
370
    25
100
AcDbLine
 10
118.5254805579
 20
153.5919139277
 30
0.0
 11
112.1596782879
 21
153.5919139277
 31
0.0
  0
LINE
  5
85
330
1F
100
AcDbEntity
  8
0
  6
Continuous
 62
     7
370
    25
100
AcDbLine
 10
125.1938763863
 20
90.6419137608
 30
0.0
 11
129.9596775181
 21
90.6419137608
 31
0.0
  0
LINE
  5
86
330
1F
100
AcDbEntity
  8
0
  6
Continuous
 62
     7
370
    25
100
AcDbLine
 10
129.9596775181
 20
153.5919139277
 30
0.0
 11
125.1938763863
 21
153.5919139277
 31
0.0
  0
LINE
  5
87
330
1F
100
AcDbEntity
  8
0
  6
Continuous
 62
     7
370
    25
100
AcDbLine
 10
119.9846781648
 20
151.0645093512
 30
0.0
 11
118.5254805579
 21
153.5919139277
 31
0.0
  0
ARC
  5
88
330
1F
100
AcDbEntity
  8
0
  6
Continuous
 62
     7
370
    25
100
AcDbCircle
 10
112.1596782929
 20
90.8419138442
 30
0.0
 40
0.2000000000000171
100
AcDbArc
 50
180.0
 51
270.0
  0
ARC
  5
89
330
1F
100
AcDbEntity
  8
0
  6
Continuous
 62
     7
370
    25
100
AcDbCircle
 10
112.1596782929
 20
153.3919138442
 30
0.0
 40
0.2000000000000171
100
AcDbArc
 50
90.0
 51
180.0
  0
ARC
  5
8A
330
1F
100
AcDbEntity
  8
0
  6
Continuous
 62
     7
370
    25
100
AcDbCircle
 10
133.9596782929
 20
93.1169138442
 30
0.0
 40
4.0
100
AcDbArc
 50
90.0
 51
180.0
  0
ARC
  5
8B
330
1F
100
AcDbEntity
  8
0
  6
Continuous
 62
     7
370
    25
100
AcDbCircle
 10
133.9596782929
 20
151.1169138442
 30
0.0
 40
4.0
100
AcDbArc
 50
180.0
 51
270.0
  0
ARC
  5
8C
330
1F
100
AcDbEntity
  8
0
  6
Continuous
 62
     7
370
    25
100
AcDbCircle
 10
111.5307434184
 20
96.5669138442
 30
0.0
 40
0.8000000000000139
100
AcDbArc
 50
57.576802718
 51
107.5
  0
ARC
  5
8D
330
1F
100
AcDbEntity
  8
0
  6
Continuous
 62
     7
370
    25
100
AcDbCircle
 10
111.5307434184
 20
147.6669138442
 30
0.0
 40
0.8000000000000139
100
AcDbArc
 50
252.5
 51
302.423197282
  0
LINE
  5
8E
330
1F
100
AcDbEntity
  8
0
  6
Continuous
 62
     7
370
    25
100
AcDbLine
 10
193.9596805579
 20
147.1169142168
 30
0.0
 11
133.9596781737
 21
147.1169142168
 31
0.0
  0
LINE
  5
8F
330
1F
100
AcDbEntity
  8
0
  6
Continuous
 62
     7
370
    25
100
AcDbLine
 10
133.9596781737
 20
97.1169134717
 30
0.0
 11
193.9596805579
 21
97.1169134717
 31
0.0
  0
ARC
  5
90
330
1F
100
AcDbEntity
  8
0
  6
Continuous
 62
     7
370
    25
100
AcDbCircle
 10
193.9596782929
 20
145.1169138442
 30
0.0
 40
2.0
100
AcDbArc
 50
0.0
 51
90.0
  0
ARC
  5
91
330
1F
100
AcDbEntity
  8
0
  6
Continuous
 62
     7
370
    25
100
AcDbCircle
 10
193.9596782929
 20
99.1169138442
 30
0.0
 40
2.000000000000014
100
AcDbArc
 50
270.0
 51
0.0
  0
LINE
  5
92
330
1F
100
AcDbEntity
  8
0
  6
Continuous
 62
     7
370
    25
100
AcDbLine
 10
81.5645150698
 20
145.5905305337
 30
0.0
 11
73.5096793479
 21
145.1860347878
 31
0.0
  0
LINE
  5
93
330
1F
100
AcDbEntity
  8
0
  6
Continuous
 62
     7
370
    25
100
AcDbLine
 10
110.7994962341
 20
147.0586525391
 30
0.0
 11
97.4732331789
 21
146.3894339394
 31
0.0
  0
LINE
  5
94
330
1F
100
AcDbEntity
  8
0
  6
Continuous
 62
     7
370
    25
100
AcDbLine
 10
97.4741896472
 20
97.8443453204
 30
0.0
 11
110.7994962341
 21
97.1751751493
 31
0.0
  0
LINE
  5
95
330
1F
100
AcDbEntity
  8
0
  6
Continuous
 62
     7
370
    25
100
AcDbLine
 10
73.5096793479
 20
99.0477929007
 30
0.0
 11
81.5645262456
 21
98.6432952922
 31
0.0
  0
LINE
  5
96
330
1F
100
AcDbEntity
  8
0
  6
Continuous
 62
     7
370
    25
100
AcDbLine
 10
110.7994962341
 20
97.1751751493
 30
0.0
 11
111.290178783
 21
97.3298883181
 31
0.0
  0
LINE
  5
97
330
1F
100
AcDbEntity
  8
0
  6
Continuous
 62
     7
370
    25
100
AcDbLine
 10
111.290178783
 20
146.9039393704
 30
0.0
 11
110.7994962341
 21
147.0586525391
 31
0.0
  0
ARC
  5
98
330
1F
100
AcDbEntity
  8
0
  6
Continuous
 62
     7
370
    25
100
AcDbCircle
 10
197.9596782929
 20
144.1169138442
 30
0.0
 40
2.0
100
AcDbArc
 50
180.0
 51
270.0
  0
ARC
  5
99
330
1F
100
AcDbEntity
  8
0
  6
Continuous
 62
     7
370
    25
100
AcDbCircle
 10
197.9596782929
 20
100.1169138442
 30
0.0
 40
2.0
100
AcDbArc
 50
90.0
 51
180.0
  0
LINE
  5
9A
330
1F
100
AcDbEntity
  8
0
  6
Continuous
 62
     7
370
    25
100
AcDbLine
 10
73.5096793479
 20
145.1860347878
 30
0.0
 11
72.0096800334
 21
144.3200091015
 31
0.0
  0
LINE
  5
9B
330
1F
100
AcDbEntity
  8
0
  6
Continuous
 62
     7
370
    25
100
AcDbLine
 10
72.0096800334
 20
99.913818587
 30
0.0
 11
73.5096793479
 21
99.0477929007
 31
0.0
  0
LINE
  5
9C
330
1F
100
AcDbEntity
  8
0
  6
Continuous
 62
     7
370
    25
100
AcDbLine
 10
209.4596747166
 20
142.1169133972
 30
0.0
 11
197.9596812136
 21
142.1169133972
 31
0.0
  0
LINE
  5
9D
330
1F
100
AcDbEntity
  8
0
  6
Continuous
 62
     7
370
    25
100
AcDbLine
 10
197.9596812136
 20
102.1169142913
 30
0.0
 11
209.4596747166
 21
102.1169142913
 31
0.0
  0
LINE
  5
9E
330
1F
100
AcDbEntity
  8
0
  6
Continuous
 62
     7
370
    25
100
AcDbLine
 10
125.1938763863
 20
153.5919139277
 30
0.0
 11
123.7346783138
 21
151.0645093512
 31
0.0
  0
ARC
  5
9F
330
1F
100
AcDbEntity
  8
0
  6
Continuous
 62
     7
370
    25
100
AcDbCircle
 10
120.9846782929
 20
150.9669138442
 30
0.0
 40
1.000000000000014
100
AcDbArc
 50
180.0
 51
270.0
  0
LINE
  5
A0
330
1F
100
AcDbEntity
  8
0
  6
Continuous
 62
     7
370
    25
100
AcDbLine
 10
118.5254805579
 20
90.6419137608
 30
0.0
 11
119.9846781648
 21
93.1693183373
 31
0.0
  0
ARC
  5
A1
330
1F
100
AcDbEntity
  8
0
  6
Continuous
 62
     7
370
    25
100
AcDbCircle
 10
120.9846782929
 20
93.2669138442
 30
0.0
 40
1.000000000000014
100
AcDbArc
 50
90.0
 51
180.0
  0
LINE
  5
A2
330
1F
100
AcDbEntity
  8
0
  6
Continuous
 62
     7
370
    25
100
AcDbLine
 10
122.7346781499
 20
149.966914032
 30
0.0
 11
120.9846783287
 21
149.966914032
 31
0.0
  0
LINE
  5
A3
330
1F
100
AcDbEntity
  8
0
  6
Continuous
 62
     7
370
    25
100
AcDbLine
 10
123.7346783138
 20
93.1693183373
 30
0.0
 11
125.1938763863
 21
90.6419137608
 31
0.0
  0
ARC
  5
A4
330
1F
100
AcDbEntity
  8
0
  6
Continuous
 62
     7
370
    25
100
AcDbCircle
 10
122.7346782929
 20
150.9669138442
 30
0.0
 40
1.0
100
AcDbArc
 50
270.0
 51
0.0
  0
LINE
  5
A5
330
1F
100
AcDbEntity
  8
0
  6
Continuous
 62
     7
370
    25
100
AcDbLine
 10
120.9846783287
 20
94.2669136565
 30
0.0
 11
122.7346781499
 21
94.2669136565
 31
0.0
  0
ARC
  5
A6
330
1F
100
AcDbEntity
  8
0
  6
Continuous
 62
     7
370
    25
100
AcDbCircle
 10
122.7346782929
 20
93.2669138442
 30
0.0
 40
1.0
100
AcDbArc
 50
0.0
 51
90.0
  0
LINE
  5
A7
330
1F
100
AcDbEntity
  8
0
  6
Continuous
 62
     7
370
    25
100
AcDbLine
 10
216.8564174182
 20
146.7861661803
 30
0.0
 11
228.5821784145
 21
146.7861661803
 31
0.0
  0
SPLINE
  5
A8
330
1F
100
AcDbEntity
  8
0
  6
Continuous
 62
     7
370
    25
100
AcDbSpline
210
0.0
220
0.0
230
1.0
 70
     8
 71
     3
 72
    13
 73
     9
 74
     0
 42
0.000000001
 43
0.00000001
 40
0.0
 40
0.0
 40
0.0
 40
0.0
 40
0.058672342333756
 40
0.2558251163586591
 40
0.453512144893469
 40
0.6623780213979772
 40
0.8843855747323927
 40
1.0
 40
1.0
 40
1.0
 40
1.0
 10
213.4034160382078
 20
146.9593996297279
 30
0.0
 10
213.3916872375564
 20
146.9596260514412
 30
0.0
 10
213.3405469272834
 20
146.9606133029951
 30
0.0
 10
213.6364993457593
 20
146.9151131623628
 30
0.0
 10
214.2313170667012
 20
146.8412978379913
 30
0.0
 10
215.1355474033566
 20
146.7608943217482
 30
0.0
 10
216.0601570096661
 20
146.7153516035135
 30
0.0
 10
216.6533022475769
 20
146.7110909583852
 30
0.0
 10
216.8564174181745
 20
146.7096319537321
 30
0.0
  0
LINE
  5
A9
330
1F
100
AcDbEntity
  8
0
  6
Continuous
 62
     7
370
    25
100
AcDbLine
 10
216.8564174182
 20
146.7096319537
 30
0.0
 11
228.5821784145
 21
146.7096319537
 31
0.0
  0
LINE
  5
AA
330
1F
100
AcDbEntity
  8
0
  6
Continuous
 62
     7
370
    25
100
AcDbLine
 10
228.5821784145
 20
137.0424635824
 30
0.0
 11
228.5821784145
 21
146.7096319537
 31
0.0
  0
LINE
  5
AB
330
1F
100
AcDbEntity
  8
0
  6
Continuous
 62
     7
370
    25
100
AcDbLine
 10
216.8564174182
 20
137.0424635824
 30
0.0
 11
228.5821784145
 21
137.0424635824
 31
0.0
  0
SPLINE
  5
AC
330
1F
100
AcDbEntity
  8
0
  6
Continuous
 62
     7
370
    25
100
AcDbSpline
210
0.0
220
0.0
230
1.0
 70
     8
 71
     3
 72
    17
 73
    13
 74
     0
 42
0.000000001
 43
0.00000001
 40
0.0
 40
0.0
 40
0.0
 40
0.0
 40
0.0838165863229762
 40
0.200265332518346
 40
0.3144088978066227
 40
0.4226837140448592
 40
0.532791309597857
 40
0.6306721989585198
 40
0.7288249734473918
 40
0.8325315245161469
 40
0.9427612139616702
 40
1.0
 40
1.0
 40
1.0
 40
1.0
 10
216.8564174181745
 20
131.3245006020823
 30
0.0
 10
216.5594864662508
 20
131.3442301560467
 30
0.0
 10
215.8500209722394
 20
131.3913705355163
 30
0.0
 10
214.8099894805164
 20
131.8283625919128
 30
0.0
 10
213.9226684601289
 20
132.5947898081968
 30
0.0
 10
213.3963842767486
 20
133.5666211275431
 30
0.0
 10
213.307844752391
 20
134.569097307772
 30
0.0
 10
213.618406056284
 20
135.4721320294033
 30
0.0
 10
214.2377496323151
 20
136.2072609469956
 30
0.0
 10
215.1354136949718
 20
136.751803546923
 30
0.0
 10
216.0614640699735
 20
137.0109088926498
 30
0.0
 10
216.653922116955
 20
137.0344257818821
 30
0.0
 10
216.8564174181745
 20
137.0424635823527
 30
0.0
  0
LINE
  5
AD
330
1F
100
AcDbEntity
  8
0
  6
Continuous
 62
     7
370
    25
100
AcDbLine
 10
216.8564174182
 20
131.3245006021
 30
0.0
 11
228.5821784145
 21
131.3245006021
 31
0.0
  0
LINE
  5
AE
330
1F
100
AcDbEntity
  8
0
  6
Continuous
 62
     7
370
    25
100
AcDbLine
 10
228.5821784145
 20
112.3732121777
 30
0.0
 11
228.5821784145
 21
131.3245006021
 31
0.0
  0
LINE
  5
AF
330
1F
100
AcDbEntity
  8
0
  6
Continuous
 62
     7
370
    25
100
AcDbLine
 10
216.8564174182
 20
112.3732121777
 30
0.0
 11
228.5821784145
 21
112.3732121777
 31
0.0
  0
SPLINE
  5
B0
330
1F
100
AcDbEntity
  8
0
  6
Continuous
 62
     7
370
    25
100
AcDbSpline
210
0.0
220
0.0
230
1.0
 70
     8
 71
     3
 72
    18
 73
    14
 74
     0
 42
0.000000001
 43
0.00000001
 40
0.0
 40
0.0
 40
0.0
 40
0.0
 40
0.0838022519469736
 40
0.2002310342297191
 40
0.3143550882352028
 40
0.4226112577629939
 40
0.523577952520165
 40
0.5374369289625146
 40
0.6352752828275502
 40
0.7336001766678167
 40
0.8375987152828248
 40
0.9480868961302097
 40
1.0
 40
1.0
 40
1.0
 40
1.0
 10
216.8564174181745
 20
106.7317815612713
 30
0.0
 10
216.5594864219122
 20
106.748430466937
 30
0.0
 10
215.8500209947289
 20
106.788210156895
 30
0.0
 10
214.8099906403402
 20
107.1603614471512
 30
0.0
 10
213.9226634645444
 20
107.8357433766403
 30
0.0
 10
213.410843001635
 20
108.7079870207849
 30
0.0
 10
213.336174627385
 20
109.3948690749237
 30
0.0
 10
213.4162516236993
 20
110.0428620872921
 30
0.0
 10
213.6404234687063
 20
110.6801195146308
 30
0.0
 10
214.273919457186
 20
111.4640748003976
 30
0.0
 10
215.1836515634332
 20
112.0627593817163
 30
0.0
 10
216.0982571933904
 20
112.3416225549126
 30
0.0
 10
216.6727692237688
 20
112.3655602632024
 30
0.0
 10
216.8564174181745
 20
112.3732121776501
 30
0.0
  0
LINE
  5
B1
330
1F
100
AcDbEntity
  8
0
  6
Continuous
 62
     7
370
    25
100
AcDbLine
 10
216.8564174182
 20
106.7317815613
 30
0.0
 11
228.5821784145
 21
106.7317815613
 31
0.0
  0
LINE
  5
B2
330
1F
100
AcDbEntity
  8
0
  6
Continuous
 62
     7
370
    25
100
AcDbLine
 10
228.5821784145
 20
97.4476615082
 30
0.0
 11
228.5821784145
 21
106.7317815613
 31
0.0
  0
LINE
  5
B3
330
1F
100
AcDbEntity
  8
0
  6
Continuous
 62
     7
370
    25
100
AcDbLine
 10
216.8564174182
 20
97.4476615082
 30
0.0
 11
228.5821784145
 21
97.4476615082
 31
0.0
  0
SPLINE
  5
B4
330
1F
100
AcDbEntity
  8
0
  6
Continuous
 62
     7
370
    25
100
AcDbSpline
210
0.0
220
0.0
230
1.0
 70
     8
 71
     3
 72
    13
 73
     9
 74
     0
 42
0.000000001
 43
0.00000001
 40
0.0
 40
0.0
 40
0.0
 40
0.0
 40
0.0119727413338639
 40
0.2189063278849312
 40
0.4264006967330674
 40
0.6456284735710819
 40
0.8786499093975261
 40
1.0
 40
1.0
 40
1.0
 40
1.0
 10
213.3843127495573
 20
97.26824407686387
 30
0.0
 10
213.3825934181797
 20
97.26780257787186
 30
0.0
 10
213.3511576335265
 20
97.25973033105636
 30
0.0
 10
213.6455144768686
 20
97.28777222964003
 30
0.0
 10
214.2287480492791
 20
97.33962977861289
 30
0.0
 10
215.1363131671723
 20
97.40490832958278
 30
0.0
 10
216.0600653352373
 20
97.44284953018564
 30
0.0
 10
216.653278872529
 20
97.4464340383088
 30
0.0
 10
216.8564174181745
 20
97.44766150821839
 30
0.0
  0
LINE
  5
B5
330
1F
100
AcDbEntity
  8
0
  6
Continuous
 62
     7
370
    25
100
AcDbLine
 10
209.9596757299
 20
121.8269446689
 30
0.0
 11
209.9596757299
 21
146.9669135403
 31
0.0
  0
LINE
  5
B6
330
1F
100
AcDbEntity
  8
0
  6
Continuous
 62
     7
370
    25
100
AcDbLine
 10
209.9596757299
 20
97.2669141482
 30
0.0
 11
209.9596757299
 21
121.8269446689
 31
0.0
  0
LINE
  5
B7
330
1F
100
AcDbEntity
  8
0
  6
Continuous
 62
     7
370
    25
100
AcDbLine
 10
209.4596747166
 20
121.8327790556
 30
0.0
 11
209.4596747166
 21
146.4669143896
 31
0.0
  0
LINE
  5
B8
330
1F
100
AcDbEntity
  8
0
  6
Continuous
 62
     7
370
    25
100
AcDbLine
 10
209.4596747166
 20
97.7669132989
 30
0.0
 11
209.4596747166
 21
121.8327790556
 31
0.0
  0
LINE
  5
B9
330
1F
100
AcDbEntity
  8
0
  6
Continuous
 62
     7
370
    25
100
AcDbLine
 10
230.1754999763
 20
100.1154163968
 30
0.0
 11
230.1612023122
 21
100.0921221565
 31
0.0
  0
LINE
  5
BA
330
1F
100
AcDbEntity
  8
0
  6
Continuous
 62
     7
370
    25
100
AcDbLine
 10
229.9703333384
 20
99.788643245
 30
0.0
 11
230.1612023122
 21
100.0921221565
 31
0.0
  0
LINE
  5
BB
330
1F
100
AcDbEntity
  8
0
  6
Continuous
 62
     7
370
    25
100
AcDbLine
 10
228.8290534026
 20
97.8347638737
 30
0.0
 11
229.9703333384
 21
99.788643245
 31
0.0
  0
LINE
  5
BC
330
1F
100
AcDbEntity
  8
0
  6
Continuous
 62
     7
370
    25
100
AcDbLine
 10
228.5821784145
 20
97.4476615082
 30
0.0
 11
228.8290534026
 21
97.8347638737
 31
0.0
  0
LINE
  5
BD
330
1F
100
AcDbEntity
  8
0
  6
Continuous
 62
     7
370
    25
100
AcDbLine
 10
228.5821784145
 20
106.7317815613
 30
0.0
 11
228.8290534026
 21
107.2561068576
 31
0.0
  0
LINE
  5
BE
330
1F
100
AcDbEntity
  8
0
  6
Continuous
 62
     7
370
    25
100
AcDbLine
 10
228.8290534026
 20
107.2561068576
 30
0.0
 11
229.9703333384
 21
108.5464915376
 31
0.0
  0
LINE
  5
BF
330
1F
100
AcDbEntity
  8
0
  6
Continuous
 62
     7
370
    25
100
AcDbLine
 10
229.9703333384
 20
108.5464915376
 30
0.0
 11
230.1612023122
 21
108.9575531076
 31
0.0
  0
SPLINE
  5
C0
330
1F
100
AcDbEntity
  8
0
  6
Continuous
 62
     7
370
    25
100
AcDbSpline
210
0.0
220
0.0
230
1.0
 70
     8
 71
     3
 72
     9
 73
     5
 74
     0
 42
0.000000001
 43
0.00000001
 40
0.0
 40
0.0
 40
0.0
 40
0.0
 40
0.5000512130292563
 40
1.0
 40
1.0
 40
1.0
 40
1.0
 10
230.1612023121641
 20
108.9575531076351
 30
0.0
 10
230.1944155431859
 20
109.6035491609518
 30
0.0
 10
230.2608352021256
 20
110.895408947479
 30
0.0
 10
230.1944110076284
 20
112.187268950941
 30
0.0
 10
230.1612023121641
 20
112.8331327926079
 30
0.0
  0
LINE
  5
C1
330
1F
100
AcDbEntity
  8
0
  6
Continuous
 62
     7
370
    25
100
AcDbLine
 10
229.9703333384
 20
112.9381505888
 30
0.0
 11
230.1612023122
 21
112.8331327926
 31
0.0
  0
LINE
  5
C2
330
1F
100
AcDbEntity
  8
0
  6
Continuous
 62
     7
370
    25
100
AcDbLine
 10
228.8290534026
 20
112.2392572578
 30
0.0
 11
229.9703333384
 21
112.9381505888
 31
0.0
  0
LINE
  5
C3
330
1F
100
AcDbEntity
  8
0
  6
Continuous
 62
     7
370
    25
100
AcDbLine
 10
228.5821784145
 20
112.3732121777
 30
0.0
 11
228.8290534026
 21
112.2392572578
 31
0.0
  0
LINE
  5
C4
330
1F
100
AcDbEntity
  8
0
  6
Continuous
 62
     7
370
    25
100
AcDbLine
 10
228.5821784145
 20
131.3245006021
 30
0.0
 11
228.8290534026
 21
131.470653985
 31
0.0
  0
LINE
  5
C5
330
1F
100
AcDbEntity
  8
0
  6
Continuous
 62
     7
370
    25
100
AcDbLine
 10
228.8290534026
 20
131.470653985
 30
0.0
 11
229.9703333384
 21
130.8151845004
 31
0.0
  0
LINE
  5
C6
330
1F
100
AcDbEntity
  8
0
  6
Continuous
 62
     7
370
    25
100
AcDbLine
 10
229.9703333384
 20
130.8151845004
 30
0.0
 11
230.1612023122
 21
130.9297660481
 31
0.0
  0
SPLINE
  5
C7
330
1F
100
AcDbEntity
  8
0
  6
Continuous
 62
     7
370
    25
100
AcDbSpline
210
0.0
220
0.0
230
1.0
 70
     8
 71
     3
 72
     9
 73
     5
 74
     0
 42
0.000000001
 43
0.00000001
 40
0.0
 40
0.0
 40
0.0
 40
0.0
 40
0.5000513205492261
 40
1.0
 40
1.0
 40
1.0
 40
1.0
 10
230.1612023121641
 20
130.9297660480896
 30
0.0
 10
230.194415547948
 20
131.5845261813799
 30
0.0
 10
230.2608352021294
 20
132.8939120511566
 30
0.0
 10
230.1944110028683
 20
134.2032978486592
 30
0.0
 10
230.1612023121641
 20
134.8579235490123
 30
0.0
  0
LINE
  5
C8
330
1F
100
AcDbEntity
  8
0
  6
Continuous
 62
     7
370
    25
100
AcDbLine
 10
229.9703333384
 20
135.266421188
 30
0.0
 11
230.1612023122
 21
134.857923549
 31
0.0
  0
LINE
  5
C9
330
1F
100
AcDbEntity
  8
0
  6
Continuous
 62
     7
370
    25
100
AcDbLine
 10
228.8290534026
 20
136.5214072283
 30
0.0
 11
229.9703333384
 21
135.266421188
 31
0.0
  0
LINE
  5
CA
330
1F
100
AcDbEntity
  8
0
  6
Continuous
 62
     7
370
    25
100
AcDbLine
 10
228.5821784145
 20
137.0424635824
 30
0.0
 11
228.8290534026
 21
136.5214072283
 31
0.0
  0
LINE
  5
CB
330
1F
100
AcDbEntity
  8
0
  6
Continuous
 62
     7
370
    25
100
AcDbLine
 10
228.5821784145
 20
146.7096319537
 30
0.0
 11
228.8290534026
 21
146.3314609717
 31
0.0
  0
LINE
  5
CC
330
1F
100
AcDbEntity
  8
0
  6
Continuous
 62
     7
370
    25
100
AcDbLine
 10
228.8290534026
 20
146.3314609717
 30
0.0
 11
229.9703333384
 21
144.3856058757
 31
0.0
  0
LINE
  5
CD
330
1F
100
AcDbEntity
  8
0
  6
Continuous
 62
     7
370
    25
100
AcDbLine
 10
229.9703333384
 20
144.3856058757
 30
0.0
 11
230.1612023122
 21
144.0891267847
 31
0.0
  0
LINE
  5
CE
330
1F
100
AcDbEntity
  8
0
  6
Continuous
 62
     7
370
    25
100
AcDbLine
 10
230.1791805631
 20
144.1184168797
 30
0.0
 11
230.1612023122
 21
144.0891267847
 31
0.0
  0
LINE
  5
CF
330
1F
100
AcDbEntity
  8
0
  6
Continuous
 62
     7
370
    25
100
AcDbLine
 10
229.9703333384
 20
144.4451844435
 30
0.0
 11
230.1612023122
 21
144.141705532
 31
0.0
  0
LINE
  5
D0
330
1F
100
AcDbEntity
  8
0
  6
Continuous
 62
     7
370
    25
100
AcDbLine
 10
228.8290534026
 20
146.3990638148
 30
0.0
 11
229.9703333384
 21
144.4451844435
 31
0.0
  0
LINE
  5
D1
330
1F
100
AcDbEntity
  8
0
  6
Continuous
 62
     7
370
    25
100
AcDbLine
 10
228.5821784145
 20
146.7861661803
 30
0.0
 11
228.8290534026
 21
146.3990638148
 31
0.0
  0
LINE
  5
D2
330
1F
100
AcDbEntity
  8
0
  6
Continuous
 62
     7
370
    25
100
AcDbLine
 10
231.9596756107
 20
121.8952070193
 30
0.0
 11
231.9596756107
 21
141.1169132333
 31
0.0
  0
LINE
  5
D3
330
1F
100
AcDbEntity
  8
0
  6
Continuous
 62
     7
370
    25
100
AcDbLine
 10
231.9596756107
 20
103.1169144552
 30
0.0
 11
231.9596756107
 21
121.8952070193
 31
0.0
  0
LWPOLYLINE
  5
D4
330
1F
100
AcDbEntity
  8
0
  6
Continuous
 62
     7
370
    25
100
AcDbPolyline
 90
       13
 70
   128
 43
0.0
 10
216.8564174182
 20
131.470653985
 10
216.1066803939
 20
131.5567044656
 10
215.4080469019
 20
131.8089904379
 10
214.808111251
 20
132.210319687
 10
214.3477696783
 20
132.7333429943
 10
214.0583816773
 20
133.3424149196
 10
213.9596763856
 20
133.9960310723
 10
214.0583816773
 20
134.6496462937
 10
214.3477696783
 20
135.2587191503
 10
214.808111251
 20
135.7817415263
 10
215.4080469019
 20
136.1830707755
 10
216.1066803939
 20
136.435357679
 10
216.8564174182
 20
136.5214072283
  0
LINE
  5
D5
330
1F
100
AcDbEntity
  8
0
  6
Continuous
 62
     7
370
    25
100
AcDbLine
 10
216.8564174182
 20
131.470653985
 30
0.0
 11
228.8290534026
 21
131.470653985
 31
0.0
  0
LWPOLYLINE
  5
D6
330
1F
100
AcDbEntity
  8
0
  6
Continuous
 62
     7
370
    25
100
AcDbPolyline
 90
       13
 70
   128
 43
0.0
 10
216.8564174182
 20
107.2561068576
 10
216.1066803939
 20
107.3410052921
 10
215.4080469019
 20
107.5899142887
 10
214.808111251
 20
107.9858726006
 10
214.3477696783
 20
108.5018942248
 10
214.0583816773
 20
109.1028152149
 10
213.9596763856
 20
109.747681592
 10
214.0583816773
 20
110.3925489004
 10
214.3477696783
 20
110.9934698906
 10
214.808111251
 20
111.5094915148
 10
215.4080469019
 20
111.9054498266
 10
216.1066803939
 20
112.1543588232
 10
216.8564174182
 20
112.2392572578
  0
LINE
  5
D7
330
1F
100
AcDbEntity
  8
0
  6
Continuous
 62
     7
370
    25
100
AcDbLine
 10
216.8564174182
 20
112.2392572578
 30
0.0
 11
228.8290534026
 21
112.2392572578
 31
0.0
  0
ARC
  5
D8
330
1F
100
AcDbEntity
  8
0
  6
Continuous
 62
     7
370
    25
100
AcDbCircle
 10
216.6774499175
 20
132.9136435329
 30
0.0
 40
2.359574550797329
100
AcDbArc
 50
85.6500888501
 51
183.4179685709
  0
ARC
  5
D9
330
1F
100
AcDbEntity
  8
0
  6
Continuous
 62
     7
370
    25
100
AcDbCircle
 10
216.6654768814
 20
110.8906840328
 30
0.0
 40
2.351955939888873
100
AcDbArc
 50
178.7527843174
 51
274.656609337
  0
ARC
  5
DA
330
1F
100
AcDbEntity
  8
0
  6
Continuous
 62
     7
370
    25
100
AcDbCircle
 10
216.6694683584
 20
132.834358007
 30
0.0
 40
2.032182928257162
100
AcDbArc
 50
84.7216571452
 51
195.1927302104
  0
LINE
  5
DB
330
1F
100
AcDbEntity
  8
0
  6
Continuous
 62
     7
370
    25
100
AcDbLine
 10
229.7708216912
 20
130.9297660481
 30
0.0
 11
230.1612023122
 21
130.9297660481
 31
0.0
  0
LINE
  5
DC
330
1F
100
AcDbEntity
  8
0
  6
Continuous
 62
     7
370
    25
100
AcDbLine
 10
229.7988358743
 20
112.8331327926
 30
0.0
 11
230.1612023122
 21
112.8331327926
 31
0.0
  0
ARC
  5
DD
330
1F
100
AcDbEntity
  8
0
  6
Continuous
 62
     7
370
    25
100
AcDbCircle
 10
216.6575340493
 20
110.9709804024
 30
0.0
 40
2.023226152925282
100
AcDbArc
 50
168.0422789894
 51
275.6412920842
  0
LINE
  5
DE
330
1F
100
AcDbEntity
  8
0
  6
Continuous
 62
     7
370
    25
100
AcDbLine
 10
216.8564174182
 20
134.857923549
 30
0.0
 11
230.1612023122
 21
134.857923549
 31
0.0
  0
LINE
  5
DF
330
1F
100
AcDbEntity
  8
0
  6
Continuous
 62
     7
370
    25
100
AcDbLine
 10
216.8564174182
 20
108.9575531076
 30
0.0
 11
230.1612023122
 21
108.9575531076
 31
0.0
  0
LINE
  5
E0
330
1F
100
AcDbEntity
  8
0
  6
Continuous
 62
     7
370
    25
100
AcDbLine
 10
216.8564174182
 20
136.5214072283
 30
0.0
 11
228.8290534026
 21
136.5214072283
 31
0.0
  0
LINE
  5
E1
330
1F
100
AcDbEntity
  8
0
  6
Continuous
 62
     7
370
    25
100
AcDbLine
 10
216.8564174182
 20
135.266421188
 30
0.0
 11
229.9703333384
 21
135.266421188
 31
0.0
  0
LINE
  5
E2
330
1F
100
AcDbEntity
  8
0
  6
Continuous
 62
     7
370
    25
100
AcDbLine
 10
216.8564174182
 20
107.2561068576
 30
0.0
 11
228.8290534026
 21
107.2561068576
 31
0.0
  0
LINE
  5
E3
330
1F
100
AcDbEntity
  8
0
  6
Continuous
 62
     7
370
    25
100
AcDbLine
 10
216.8564174182
 20
108.5464915376
 30
0.0
 11
229.9703333384
 21
108.5464915376
 31
0.0
  0
LINE
  5
E4
330
1F
100
AcDbEntity
  8
0
  6
Continuous
 62
     7
370
    25
100
AcDbLine
 10
230.1273543245
 20
144.141705532
 30
0.0
 11
230.1612023122
 21
144.141705532
 31
0.0
  0
LINE
  5
E5
330
1F
100
AcDbEntity
  8
0
  6
Continuous
 62
     7
370
    25
100
AcDbLine
 10
229.9353826649
 20
144.4451844435
 30
0.0
 11
229.9703333384
 21
144.4451844435
 31
0.0
  0
LINE
  5
E6
330
1F
100
AcDbEntity
  8
0
  6
Continuous
 62
     7
370
    25
100
AcDbLine
 10
228.7849236137
 20
146.3990638148
 30
0.0
 11
228.8290534026
 21
146.3990638148
 31
0.0
  0
LINE
  5
E7
330
1F
100
AcDbEntity
  8
0
  6
Continuous
 62
     7
370
    25
100
AcDbLine
 10
118.5254805579
 20
97.0591882359
 30
0.0
 11
118.5254805579
 21
153.5919139277
 31
0.0
  0
SPLINE
  5
E8
330
1F
100
AcDbEntity
  8
0
  6
Continuous
 62
     7
370
    25
100
AcDbSpline
210
0.0
220
0.0
230
1.0
 70
     8
 71
     3
 72
    27
 73
    23
 74
     0
 42
0.000000001
 43
0.00000001
 40
0.0
 40
0.0
 40
0.0
 40
0.0
 40
0.1250000000000002
 40
0.1250000000000002
 40
0.2500000000000003
 40
0.2500000000000003
 40
0.3750000000000005
 40
0.3750000000000005
 40
0.4375000000000003
 40
0.4375000000000003
 40
0.5000000000000002
 40
0.5625000000000001
 40
0.5625000000000001
 40
0.6249999999999999
 40
0.6249999999999999
 40
0.7499999999999997
 40
0.7499999999999997
 40
0.8124999999999998
 40
0.8124999999999998
 40
0.8749999999999998
 40
0.8749999999999998
 40
1.0
 40
1.0
 40
1.0
 40
1.0
 10
118.5254804883527
 20
93.0929149296954
 30
0.0
 10
118.2555235943854
 20
93.19279401755773
 30
0.0
 10
118.0118665701682
 20
93.30409927771676
 30
0.0
 10
117.579281437963
 20
93.55358508339282
 30
0.0
 10
117.3906868707667
 20
93.69252760146003
 30
0.0
 10
117.088247094406
 20
93.98922063663393
 30
0.0
 10
116.9716638471152
 20
94.1482392459982
 30
0.0
 10
116.8524051746903
 20
94.40526976989247
 30
0.0
 10
116.8221885076587
 20
94.49402257829756
 30
0.0
 10
116.7822919109461
 20
94.67329833518816
 30
0.0
 10
116.762330467498
 20
94.85546693843071
 30
0.0
 10
116.781765769086
 20
95.04342965951908
 30
0.0
 10
116.8212186467692
 20
95.23429823648361
 30
0.0
 10
116.8512473301925
 20
95.33174741692912
 30
0.0
 10
116.9697223183247
 20
95.62208426372638
 30
0.0
 10
117.0860631334335
 20
95.8141704714023
 30
0.0
 10
117.314099544931
 20
96.0989744209837
 30
0.0
 10
117.3996334643616
 20
96.19384540954704
 30
0.0
 10
117.5859470144971
 20
96.37920647740265
 30
0.0
 10
117.6865757030695
 20
96.46968472933504
 30
0.0
 10
118.0098371874054
 20
96.73436518484696
 30
0.0
 10
118.2541178731282
 20
96.90214877430135
 30
0.0
 10
118.5254804883527
 20
97.05918852260932
 30
0.0
  0
LINE
  5
E9
330
1F
100
AcDbEntity
  8
0
  6
Continuous
 62
     7
370
    25
100
AcDbLine
 10
118.5254805579
 20
90.6419137608
 30
0.0
 11
118.5254805579
 21
93.092914496
 31
0.0
  0
LINE
  5
EA
330
1F
100
AcDbEntity
  8
0
  6
Continuous
 62
     7
370
    25
100
AcDbLine
 10
129.9596775181
 20
122.1169138442
 30
0.0
 11
129.9596775181
 21
153.5919139277
 31
0.0
  0
LINE
  5
EB
330
1F
100
AcDbEntity
  8
0
  6
Continuous
 62
     7
370
    25
100
AcDbLine
 10
129.9596775181
 20
90.6419137608
 30
0.0
 11
129.9596775181
 21
122.1169138442
 31
0.0
  0
SPLINE
  5
EC
330
1F
100
AcDbEntity
  8
0
  6
Continuous
 62
     7
370
    25
100
AcDbSpline
210
0.0
220
0.0
230
1.0
 70
     8
 71
     3
 72
    24
 73
    20
 74
     0
 42
0.000000001
 43
0.00000001
 40
0.0
 40
0.0
 40
0.0
 40
0.0
 40
0.1250000000000003
 40
0.1250000000000003
 40
0.2500000000000006
 40
0.2500000000000006
 40
0.3750000000000009
 40
0.3750000000000009
 40
0.5000000000000012
 40
0.5000000000000012
 40
0.6250000000000016
 40
0.6250000000000016
 40
0.7500000000000018
 40
0.7500000000000018
 40
0.8125000000000014
 40
0.8125000000000014
 40
0.875000000000001
 40
0.875000000000001
 40
1.0
 40
1.0
 40
1.0
 40
1.0
 10
125.1938760974927
 20
150.764651211302
 30
0.0
 10
125.4332189976543
 20
150.6929174330432
 30
0.0
 10
125.6495134059711
 20
150.6092227797799
 30
0.0
 10
126.0356466042185
 20
150.4150670081204
 30
0.0
 10
126.2012657576089
 20
150.3062045092006
 30
0.0
 10
126.4692728328952
 20
150.0694954540244
 30
0.0
 10
126.5739345640451
 20
149.9388899853579
 30
0.0
 10
126.7119930960135
 20
149.6665349238436
 30
0.0
 10
126.7471656567678
 20
149.5241775112763
 30
0.0
 10
126.7471909223644
 20
149.2261077461639
 30
0.0
 10
126.712049639167
 20
149.0764211571367
 30
0.0
 10
126.5739859650234
 20
148.7763635884536
 30
0.0
 10
126.469357015367
 20
148.6251870936115
 30
0.0
 10
126.2683443775298
 20
148.410785437526
 30
0.0
 10
126.1937943526636
 20
148.3408983116781
 30
0.0
 10
126.0294481892797
 20
148.2045830782279
 30
0.0
 10
125.9389683693127
 20
148.1377342104693
 30
0.0
 10
125.6495810706854
 20
147.9469858266434
 30
0.0
 10
125.433340640834
 20
147.8324873082225
 30
0.0
 10
125.1938760974927
 20
147.731800044411
 30
0.0
  0
LINE
  5
ED
330
1F
100
AcDbEntity
  8
0
  6
Continuous
 62
     7
370
    25
100
AcDbLine
 10
125.1938763863
 20
150.7646514218
 30
0.0
 11
125.1938763863
 21
153.5919139277
 31
0.0
  0
LINE
  5
EE
330
1F
100
AcDbEntity
  8
0
  6
Continuous
 62
     7
370
    25
100
AcDbLine
 10
125.1938763863
 20
90.6419137608
 30
0.0
 11
125.1938763863
 21
92.5801674019
 31
0.0
  0
SPLINE
  5
EF
330
1F
100
AcDbEntity
  8
0
  6
Continuous
 62
     7
370
    25
100
AcDbSpline
210
0.0
220
0.0
230
1.0
 70
     8
 71
     3
 72
    34
 73
    30
 74
     0
 42
0.000000001
 43
0.00000001
 40
0.0
 40
0.0
 40
0.0
 40
0.0
 40
0.1249999999999991
 40
0.1249999999999991
 40
0.2499999999999983
 40
0.2499999999999983
 40
0.3124999999999984
 40
0.3124999999999984
 40
0.3749999999999986
 40
0.3749999999999986
 40
0.4374999999999988
 40
0.4374999999999988
 40
0.499999999999999
 40
0.499999999999999
 40
0.5624999999999992
 40
0.5624999999999992
 40
0.6249999999999994
 40
0.6249999999999994
 40
0.6874999999999997
 40
0.6874999999999997
 40
0.7499999999999999
 40
0.7499999999999999
 40
0.8125000000000002
 40
0.8125000000000002
 40
0.8750000000000001
 40
0.8750000000000001
 40
0.9375
 40
0.9375
 40
1.0
 40
1.0
 40
1.0
 40
1.0
 10
125.1938760974928
 20
97.9308899139516
 30
0.0
 10
125.7583502157971
 20
97.80475676632518
 30
0.0
 10
126.2892210496795
 20
97.63298959374575
 30
0.0
 10
127.2751023584356
 20
97.20221826224984
 30
0.0
 10
127.7069339100448
 20
96.95363935750082
 30
0.0
 10
128.2587474253558
 20
96.53712260866024
 30
0.0
 10
128.4267200261027
 20
96.39008315602673
 30
0.0
 10
128.7153789548211
 20
96.0929455991237
 30
0.0
 10
128.8379707557794
 20
95.94160932368851
 30
0.0
 10
129.038275154311
 20
95.6343068487266
 30
0.0
 10
129.1164298070197
 20
95.4766541638033
 30
0.0
 10
129.2201877125205
 20
95.1667078922752
 30
0.0
 10
129.2463884904546
 20
95.01461790045326
 30
0.0
 10
129.2479331264981
 20
94.71640793301562
 30
0.0
 10
129.2226838029917
 20
94.56892667325292
 30
0.0
 10
129.1211038558296
 20
94.28731692521858
 30
0.0
 10
129.0456086958137
 20
94.15370487950035
 30
0.0
 10
128.847291285286
 20
93.89952430105406
 30
0.0
 10
128.723045812556
 20
93.77799800045676
 30
0.0
 10
128.4339644810855
 20
93.55301688984389
 30
0.0
 10
128.2696470954969
 20
93.44937483483103
 30
0.0
 10
127.9034721462193
 20
93.2574705842612
 30
0.0
 10
127.6997979295048
 20
93.16863205050288
 30
0.0
 10
127.2651103592978
 20
93.00877139848664
 30
0.0
 10
127.0342450682732
 20
92.93749901694018
 30
0.0
 10
126.5466877565207
 20
92.80994912253492
 30
0.0
 10
126.2884992350812
 20
92.75342332718552
 30
0.0
 10
125.7529970495551
 20
92.6555411084497
 30
0.0
 10
125.4773100453245
 20
92.61435974182008
 30
0.0
 10
125.1938760974928
 20
92.58016651127821
 30
0.0
  0
LINE
  5
F0
330
1F
100
AcDbEntity
  8
0
  6
Continuous
 62
     7
370
    25
100
AcDbLine
 10
125.1938763863
 20
97.9308894019
 30
0.0
 11
125.1938763863
 21
147.7317994576
 31
0.0
  0
LINE
  5
F1
330
1F
100
AcDbEntity
  8
0
  6
Continuous
 62
     7
370
    25
100
AcDbLine
 10
119.9846781648
 20
148.211616848
 30
0.0
 11
119.9846781648
 21
151.0645093512
 31
0.0
  0
SPLINE
  5
F2
330
1F
100
AcDbEntity
  8
0
  6
Continuous
 62
     7
370
    25
100
AcDbSpline
210
0.0
220
0.0
230
1.0
 70
     8
 71
     3
 72
    26
 73
    22
 74
     0
 42
0.000000001
 43
0.00000001
 40
0.0
 40
0.0
 40
0.0
 40
0.0
 40
0.1250000000000009
 40
0.1250000000000009
 40
0.2500000000000019
 40
0.2500000000000019
 40
0.3125000000000011
 40
0.3125000000000011
 40
0.3750000000000004
 40
0.3750000000000004
 40
0.4375000000000002
 40
0.4375000000000002
 40
0.5000000000000001
 40
0.5000000000000001
 40
0.5625
 40
0.5625
 40
0.6249999999999999
 40
0.6249999999999999
 40
0.7500000000000001
 40
0.7500000000000001
 40
1.0
 40
1.0
 40
1.0
 40
1.0
 10
119.9846782929228
 20
146.0165593542771
 30
0.0
 10
119.89277338224
 20
146.2264829609715
 30
0.0
 10
119.805076606015
 20
146.4352483778509
 30
0.0
 10
119.6408703352477
 20
146.8495830065442
 30
0.0
 10
119.563599916981
 20
147.0573273921807
 30
0.0
 10
119.4638338106559
 20
147.3545260119975
 30
0.0
 10
119.4332208817536
 20
147.451275363936
 30
0.0
 10
119.3783520078505
 20
147.6391748640459
 30
0.0
 10
119.3539667869216
 20
147.7309770117759
 30
0.0
 10
119.3142874104232
 20
147.9023194400414
 30
0.0
 10
119.2988213311858
 20
147.9823119745741
 30
0.0
 10
119.2777249961034
 20
148.1295063837859
 30
0.0
 10
119.2722119299434
 20
148.196888251359
 30
0.0
 10
119.2721449723211
 20
148.312057201759
 30
0.0
 10
119.2774132796705
 20
148.3607230444682
 30
0.0
 10
119.2982558068386
 20
148.4407262379191
 30
0.0
 10
119.3139299200488
 20
148.471790481287
 30
0.0
 10
119.3732488502264
 20
148.5379451463903
 30
0.0
 10
119.4302686857404
 20
148.5475470136288
 30
0.0
 10
119.6291035743842
 20
148.5025317435218
 30
0.0
 10
119.8003737796164
 20
148.3786056682721
 30
0.0
 10
119.9846782929228
 20
148.2116177247995
 30
0.0
  0
LINE
  5
F3
330
1F
100
AcDbEntity
  8
0
  6
Continuous
 62
     7
370
    25
100
AcDbLine
 10
119.9846781648
 20
98.6633578431
 30
0.0
 11
119.9846781648
 21
146.0165584575
 31
0.0
  0
SPLINE
  5
F4
330
1F
100
AcDbEntity
  8
0
  6
Continuous
 62
     7
370
    25
100
AcDbSpline
210
0.0
220
0.0
230
1.0
 70
     8
 71
     3
 72
     8
 73
     4
 74
     0
 42
0.000000001
 43
0.00000001
 40
0.0
 40
0.0
 40
0.0
 40
0.0
 40
1.0
 40
1.0
 40
1.0
 40
1.0
 10
119.6171546267747
 20
97.86038088172819
 30
0.0
 10
119.7348891316042
 20
98.1280245613441
 30
0.0
 10
119.8583552445625
 20
98.39698986367642
 30
0.0
 10
119.9846782929228
 20
98.66335698818676
 30
0.0
  0
SPLINE
  5
F5
330
1F
100
AcDbEntity
  8
0
  6
Continuous
 62
     7
370
    25
100
AcDbSpline
210
0.0
220
0.0
230
1.0
 70
     8
 71
     3
 72
     8
 73
     4
 74
     0
 42
0.000000001
 43
0.00000001
 40
0.0
 40
0.0
 40
0.0
 40
0.0
 40
1.0
 40
1.0
 40
1.0
 40
1.0
 10
118.5254804883527
 20
97.05918852260932
 30
0.0
 10
118.8953678690823
 20
97.33358034154132
 30
0.0
 10
119.2607013618437
 20
97.6040066496378
 30
0.0
 10
119.6171546267747
 20
97.86038088172819
 30
0.0
  0
LINE
  5
F6
330
1F
100
AcDbEntity
  8
0
  6
Continuous
 62
     7
370
    25
100
AcDbLine
 10
111.9596782929
 20
122.1169138442
 30
0.0
 11
111.9596782929
 21
153.3919142674
 31
0.0
  0
LINE
  5
F7
330
1F
100
AcDbEntity
  8
0
  6
Continuous
 62
     7
370
    25
100
AcDbLine
 10
111.9596782929
 20
90.8419134211
 30
0.0
 11
111.9596782929
 21
122.1169138442
 31
0.0
  0
LINE
  5
F8
330
1F
100
AcDbEntity
  8
0
  6
Continuous
 62
     7
370
    25
100
AcDbLine
 10
123.7346783138
 20
99.3971785646
 30
0.0
 11
123.7346783138
 21
145.1511083286
 31
0.0
  0
SPLINE
  5
F9
330
1F
100
AcDbEntity
  8
0
  6
Continuous
 62
     7
370
    25
100
AcDbSpline
210
0.0
220
0.0
230
1.0
 70
     8
 71
     3
 72
    10
 73
     6
 74
     0
 42
0.000000001
 43
0.00000001
 40
0.0
 40
0.0
 40
0.0
 40
0.0
 40
0.5
 40
0.5
 40
1.0
 40
1.0
 40
1.0
 40
1.0
 10
125.1938760974927
 20
147.7318000444109
 30
0.0
 10
124.9591451535236
 20
147.2793606567088
 30
0.0
 10
124.7197618458069
 20
146.8398334833494
 30
0.0
 10
124.2331404944961
 20
145.9807413878077
 30
0.0
 10
123.9858711827943
 20
145.5612843345844
 30
0.0
 10
123.7346782929228
 20
145.151108278047
 30
0.0
  0
SPLINE
  5
FA
330
1F
100
AcDbEntity
  8
0
  6
Continuous
 62
     7
370
    25
100
AcDbSpline
210
0.0
220
0.0
230
1.0
 70
     8
 71
     3
 72
     8
 73
     4
 74
     0
 42
0.000000001
 43
0.00000001
 40
0.0
 40
0.0
 40
0.0
 40
0.0
 40
1.0
 40
1.0
 40
1.0
 40
1.0
 10
124.2003894179753
 20
98.62419976240422
 30
0.0
 10
124.5266482541876
 20
98.4003760330745
 30
0.0
 10
124.8584866632305
 20
98.16781018577112
 30
0.0
 10
125.1938760974928
 20
97.9308899139516
 30
0.0
  0
SPLINE
  5
FB
330
1F
100
AcDbEntity
  8
0
  6
Continuous
 62
     7
370
    25
100
AcDbSpline
210
0.0
220
0.0
230
1.0
 70
     8
 71
     3
 72
     8
 73
     4
 74
     0
 42
0.000000001
 43
0.00000001
 40
0.0
 40
0.0
 40
0.0
 40
0.0
 40
1.0
 40
1.0
 40
1.0
 40
1.0
 10
123.7346782929228
 20
99.39717894107858
 30
0.0
 10
123.8911606564239
 20
99.1429586834031
 30
0.0
 10
124.0463869449013
 20
98.88532489705568
 30
0.0
 10
124.2003894179753
 20
98.62419976240419
 30
0.0
  0
SPLINE
  5
FC
330
1F
100
AcDbEntity
  8
0
  6
Continuous
 62
     7
370
    25
100
AcDbSpline
210
0.0
220
0.0
230
1.0
 70
     8
 71
     3
 72
    14
 73
    10
 74
     0
 42
0.000000001
 43
0.00000001
 40
0.0
 40
0.0
 40
0.0
 40
0.0
 40
0.25
 40
0.25
 40
0.5
 40
0.5
 40
0.75
 40
0.75
 40
1.0
 40
1.0
 40
1.0
 40
1.0
 10
120.9846782929228
 20
144.5111067916518
 30
0.0
 10
120.8503275443816
 20
144.5629237717295
 30
0.0
 10
120.7271486415882
 20
144.6398710077629
 30
0.0
 10
120.4983982206988
 20
144.8323558411719
 30
0.0
 10
120.3964751287057
 20
144.9451828299519
 30
0.0
 10
120.2170500643604
 20
145.1980227745246
 30
0.0
 10
120.140608815456
 20
145.3360384990063
 30
0.0
 10
120.0233208409943
 20
145.6342742057363
 30
0.0
 10
119.9846782929227
 20
145.7923621747868
 30
0.0
 10
119.9846782929227
 20
145.9317944995117
 30
0.0
  0
SPLINE
  5
FD
330
1F
100
AcDbEntity
  8
0
  6
Continuous
 62
     7
370
    25
100
AcDbSpline
210
0.0
220
0.0
230
1.0
 70
     8
 71
     3
 72
    14
 73
    10
 74
     0
 42
0.000000001
 43
0.00000001
 40
0.0
 40
0.0
 40
0.0
 40
0.0
 40
0.25
 40
0.25
 40
0.5
 40
0.5
 40
0.75
 40
0.75
 40
1.0
 40
1.0
 40
1.0
 40
1.0
 10
119.9846782929227
 20
98.7483261149386
 30
0.0
 10
119.9846782929227
 20
98.8790659363096
 30
0.0
 10
120.0200993698551
 20
99.02776365002364
 30
0.0
 10
120.1326250410452
 20
99.30469346557018
 30
0.0
 10
120.2103052273196
 20
99.43800403265911
 30
0.0
 10
120.3903704590419
 20
99.67534402842098
 30
0.0
 10
120.4956505116972
 20
99.78302762841105
 30
0.0
 10
120.7246340460596
 20
99.95959957239158
 30
0.0
 10
120.8512472380586
 20
100.0309027248625
 30
0.0
 10
120.9846782929226
 20
100.0756750186594
 30
0.0
  0
SPLINE
  5
FE
330
1F
100
AcDbEntity
  8
0
  6
Continuous
 62
     7
370
    25
100
AcDbSpline
210
0.0
220
0.0
230
1.0
 70
     8
 71
     3
 72
    14
 73
    10
 74
     0
 42
0.000000001
 43
0.00000001
 40
0.0
 40
0.0
 40
0.0
 40
0.0
 40
0.25
 40
0.25
 40
0.5
 40
0.5
 40
0.75
 40
0.75
 40
1.0
 40
1.0
 40
1.0
 40
1.0
 10
123.7346782929229
 20
145.0658997132942
 30
0.0
 10
123.7346782929229
 20
144.9517276357413
 30
0.0
 10
123.708748854657
 20
144.8346396310664
 30
0.0
 10
123.6093065973806
 20
144.6134846190483
 30
0.0
 10
123.5370242116597
 20
144.5109102785492
 30
0.0
 10
123.3522868748951
 20
144.3348768730612
 30
0.0
 10
123.2427402385731
 20
144.2644710660809
 30
0.0
 10
122.9993789935698
 20
144.1709052052418
 30
0.0
 10
122.8678678861241
 20
144.1489848852724
 30
0.0
 10
122.7346782929226
 20
144.1550474544096
 30
0.0
  0
SPLINE
  5
FF
330
1F
100
AcDbEntity
  8
0
  6
Continuous
 62
     7
370
    25
100
AcDbSpline
210
0.0
220
0.0
230
1.0
 70
     8
 71
     3
 72
    14
 73
    10
 74
     0
 42
0.000000001
 43
0.00000001
 40
0.0
 40
0.0
 40
0.0
 40
0.0
 40
0.25
 40
0.25
 40
0.5
 40
0.5
 40
0.75
 40
0.75
 40
1.0
 40
1.0
 40
1.0
 40
1.0
 10
122.7346782929227
 20
100.3920219733643
 30
0.0
 10
122.8681066001558
 20
100.3975150365346
 30
0.0
 10
122.9998812719515
 20
100.3752630174698
 30
0.0
 10
123.2430771588129
 20
100.2818247577634
 30
0.0
 10
123.3539980205257
 20
100.2105292925827
 30
0.0
 10
123.5366443693916
 20
100.0370218956704
 30
0.0
 10
123.6099601087316
 20
99.93346353342422
 30
0.0
 10
123.7085982195669
 20
99.71422542065025
 30
0.0
 10
123.7346782929228
 20
99.59721994494191
 30
0.0
 10
123.7346782929228
 20
99.48259501037614
 30
0.0
  0
SPLINE
  5
100
330
1F
100
AcDbEntity
  8
0
  6
Continuous
 62
     7
370
    25
100
AcDbSpline
210
0.0
220
0.0
230
1.0
 70
     8
 71
     3
 72
    10
 73
     6
 74
     0
 42
0.000000001
 43
0.00000001
 40
0.0
 40
0.0
 40
0.0
 40
0.0
 40
0.5
 40
0.5
 40
1.0
 40
1.0
 40
1.0
 40
1.0
 10
122.7346782929227
 20
144.1550474544099
 30
0.0
 10
122.4242005131808
 20
144.1691798874328
 30
0.0
 10
122.1202599488288
 20
144.2067497725923
 30
0.0
 10
121.5256965832543
 20
144.3284112564718
 30
0.0
 10
121.2453630255343
 20
144.4105647720278
 30
0.0
 10
120.9846782929228
 20
144.5111067916518
 30
0.0
  0
SPLINE
  5
101
330
1F
100
AcDbEntity
  8
0
  6
Continuous
 62
     7
370
    25
100
AcDbSpline
210
0.0
220
0.0
230
1.0
 70
     8
 71
     3
 72
    13
 73
     9
 74
     0
 42
0.000000001
 43
0.00000001
 40
0.0
 40
0.0
 40
0.0
 40
0.0
 40
0.25
 40
0.25
 40
0.5
 40
0.75
 40
0.75
 40
1.0
 40
1.0
 40
1.0
 40
1.0
 10
120.9846782929228
 20
100.0756750186587
 30
0.0
 10
121.119190571886
 20
100.1208101131776
 30
0.0
 10
121.2589804707057
 20
100.162059406043
 30
0.0
 10
121.541717524517
 20
100.2343886853513
 30
0.0
 10
121.8291980613353
 20
100.2971446281163
 30
0.0
 10
122.1260479014499
 20
100.3405925278923
 30
0.0
 10
122.4276873266843
 20
100.3740255938778
 30
0.0
 10
122.5817172340999
 20
100.3857247731963
 30
0.0
 10
122.7346782929227
 20
100.3920219733643
 30
0.0
  0
LINE
  5
102
330
1F
100
AcDbEntity
  8
0
  6
Continuous
 62
     7
370
    25
100
AcDbLine
 10
195.9596771604
 20
145.1169138889
 30
0.0
 11
195.9596771604
 21
99.1169137995
 31
0.0
  0
LINE
  5
103
330
1F
100
AcDbEntity
  8
0
  6
Continuous
 62
     7
370
    25
100
AcDbLine
 10
110.7994962341
 20
122.1169138442
 30
0.0
 11
110.7994962341
 21
147.0586525391
 31
0.0
  0
LINE
  5
104
330
1F
100
AcDbEntity
  8
0
  6
Continuous
 62
     7
370
    25
100
AcDbLine
 10
110.7994962341
 20
97.1751751493
 30
0.0
 11
110.7994962341
 21
122.1169138442
 31
0.0
  0
LINE
  5
105
330
1F
100
AcDbEntity
  8
0
  6
Continuous
 62
     7
370
    25
100
AcDbLine
 10
73.5096793479
 20
111.212118354
 30
0.0
 11
73.5096793479
 21
99.0477929007
 31
0.0
  0
SPLINE
  5
106
330
1F
100
AcDbEntity
  8
0
  6
Continuous
 62
     7
370
    25
100
AcDbSpline
210
0.0
220
0.0
230
1.0
 70
     8
 71
     3
 72
     8
 73
     4
 74
     0
 42
0.000000001
 43
0.00000001
 40
0.0
 40
0.0
 40
0.0
 40
0.0
 40
1.0
 40
1.0
 40
1.0
 40
1.0
 10
77.80192638803365
 20
111.2160228103709
 30
0.0
 10
76.37117702300003
 20
111.214284935091
 30
0.0
 10
74.9404276579664
 20
111.2129228599252
 30
0.0
 10
73.50967829293276
 20
111.2119357038023
 30
0.0
  0
SPLINE
  5
107
330
1F
100
AcDbEntity
  8
0
  6
Continuous
 62
     7
370
    25
100
AcDbSpline
210
0.0
220
0.0
230
1.0
 70
     8
 71
     3
 72
    23
 73
    19
 74
     0
 42
0.000000001
 43
0.00000001
 40
0.0
 40
0.0
 40
0.0
 40
0.0
 40
0.0521036415683759
 40
0.1035646240941235
 40
0.1544751946756683
 40
0.2049306267495642
 40
0.2550287880866983
 40
0.3048696389163111
 40
0.354554670462894
 40
0.4041862979539558
 40
0.453867225213789
 40
0.5036997999428097
 40
0.590187023078111
 40
0.6742716378282376
 40
0.7565997087281883
 40
0.8378563983773627
 40
0.9187511781400207
 40
0.9999999999999999
 40
0.9999999999999999
 40
0.9999999999999999
 40
0.9999999999999999
 10
81.39566220742311
 20
113.1360924187438
 30
0.0
 10
81.35417068770698
 20
113.0777566324192
 30
0.0
 10
81.27169941481417
 20
112.9618045876083
 30
0.0
 10
81.13884065738074
 20
112.7960059855807
 30
0.0
 10
81.00030908460874
 20
112.637642023543
 30
0.0
 10
80.85540954097156
 20
112.4871323899376
 30
0.0
 10
80.70432588079865
 20
112.3442930814216
 30
0.0
 10
80.54701070263481
 20
112.2090998638589
 30
0.0
 10
80.38347754442772
 20
112.0814872209315
 30
0.0
 10
80.21372760744052
 20
111.9614001367956
 30
0.0
 10
80.03775357730302
 20
111.8487867433458
 30
0.0
 10
79.81127287935894
 20
111.7179767797016
 30
0.0
 10
79.53209236884143
 20
111.5788546240317
 30
0.0
 10
79.19699317271123
 20
111.4453356307027
 30
0.0
 10
78.85622867680378
 20
111.341887534507
 30
0.0
 10
78.50983063105133
 20
111.2689909104031
 30
0.0
 10
78.15794065253736
 20
111.2237961166364
 30
0.0
 10
77.92077043068043
 20
111.2186176815135
 30
0.0
 10
77.80192638803366
 20
111.2160228103709
 30
0.0
  0
SPLINE
  5
108
330
1F
100
AcDbEntity
  8
0
  6
Continuous
 62
     7
370
    25
100
AcDbSpline
210
0.0
220
0.0
230
1.0
 70
     8
 71
     3
 72
     8
 73
     4
 74
     0
 42
0.000000001
 43
0.00000001
 40
0.0
 40
0.0
 40
0.0
 40
0.0
 40
1.0
 40
1.0
 40
1.0
 40
1.0
 10
85.80463401557823
 20
113.1405131335635
 30
0.0
 10
84.33445935479682
 20
113.1390525131284
 30
0.0
 10
82.86428469401541
 20
113.1378914614694
 30
0.0
 10
81.394110033234
 20
113.1370295315699
 30
0.0
  0
SPLINE
  5
109
330
1F
100
AcDbEntity
  8
0
  6
Continuous
 62
     7
370
    25
100
AcDbSpline
210
0.0
220
0.0
230
1.0
 70
     8
 71
     3
 72
    18
 73
    14
 74
     0
 42
0.000000001
 43
0.00000001
 40
0.0
 40
0.0
 40
0.0
 40
0.0
 40
0.0923824559461122
 40
0.1844689291660427
 40
0.2764953616062392
 40
0.3686975365619641
 40
0.4613092840130473
 40
0.5545607518559533
 40
0.6486768051632873
 40
0.7438756050210469
 40
0.8403674044324065
 40
0.9203921078135461
 40
1.0
 40
1.0
 40
1.0
 40
1.0
 10
87.99986286043186
 20
112.6068791197998
 30
0.0
 10
87.92953255691428
 20
112.6072957442302
 30
0.0
 10
87.78909728005414
 20
112.6081276582744
 30
0.0
 10
87.57873475356176
 20
112.6217365052065
 30
0.0
 10
87.36929109057284
 20
112.6444032625107
 30
0.0
 10
87.16074142045103
 20
112.6770040525638
 30
0.0
 10
86.953097802224
 20
112.7193065302355
 30
0.0
 10
86.74635961827681
 20
112.7713779324684
 30
0.0
 10
86.5405375127279
 20
112.8332266917708
 30
0.0
 10
86.33560588555147
 20
112.9048247546602
 30
0.0
 10
86.14431621869385
 20
112.981326569724
 30
0.0
 10
85.96696362111305
 20
113.0597629965141
 30
0.0
 10
85.85898327758574
 20
113.1134729502132
 30
0.0
 10
85.80513407770762
 20
113.1402578069538
 30
0.0
  0
LINE
  5
10A
330
1F
100
AcDbEntity
  8
0
  6
Continuous
 62
     7
370
    25
100
AcDbLine
 10
89.91473651
 20
112.608374853
 30
0.0
 11
87.9998627908
 21
112.606879149
 31
0.0
  0
SPLINE
  5
10B
330
1F
100
AcDbEntity
  8
0
  6
Continuous
 62
     7
370
    25
100
AcDbSpline
210
0.0
220
0.0
230
1.0
 70
     8
 71
     3
 72
    25
 73
    21
 74
     0
 42
0.000000001
 43
0.00000001
 40
0.0
 40
0.0
 40
0.0
 40
0.0
 40
0.0280105225426455
 40
0.0559601148860774
 40
0.0839014045043129
 40
0.1118870776786379
 40
0.1399695827588941
 40
0.1682008401739877
 40
0.1966319670424218
 40
0.2253130233141493
 40
0.2542927850735863
 40
0.3799486436570518
 40
0.505785022166658
 40
0.6313085886329272
 40
0.7532068238012843
 40
0.8039473267959846
 40
0.8535894438560211
 40
0.902533972239985
 40
0.9511970353794947
 40
1.0
 40
1.0
 40
1.0
 40
1.0
 10
94.85462044612419
 20
117.7422383591749
 30
0.0
 10
94.85465766785802
 20
117.6676183321615
 30
0.0
 10
94.85473203035869
 20
117.5185405961742
 30
0.0
 10
94.84231597971218
 20
117.2959225052079
 30
0.0
 10
94.82071141935842
 20
117.0745980871789
 30
0.0
 10
94.78902594969841
 20
116.8546298212903
 30
0.0
 10
94.74749981137849
 20
116.6360395340613
 30
0.0
 10
94.69606905564859
 20
116.418857595657
 30
0.0
 10
94.63475518093735
 20
116.2031161757722
 30
0.0
 10
94.56354484543789
 20
115.9888262843222
 30
0.0
 10
94.39270823823436
 20
115.5404765113024
 30
0.0
 10
94.05497600479748
 20
114.887145683232
 30
0.0
 10
93.44342134060125
 20
114.1152524725917
 30
0.0
 10
92.70718650545295
 20
113.4710928472036
 30
0.0
 10
92.02070043380301
 20
113.0794516791431
 30
0.0
 10
91.47199628765105
 20
112.8607567781765
 30
0.0
 10
91.08996010914467
 20
112.7449007293458
 30
0.0
 10
90.70279401044024
 20
112.6639928238158
 30
0.0
 10
90.31056734165539
 20
112.6147643930177
 30
0.0
 10
90.04680607354177
 20
112.6105065380023
 30
0.0
 10
89.91473613972133
 20
112.6083745546595
 30
0.0
  0
LINE
  5
10C
330
1F
100
AcDbEntity
  8
0
  6
Continuous
 62
     7
370
    25
100
AcDbLine
 10
94.8546204573
 20
126.491589297
 30
0.0
 11
94.8546204573
 21
117.7422383915
 31
0.0
  0
SPLINE
  5
10D
330
1F
100
AcDbEntity
  8
0
  6
Continuous
 62
     7
370
    25
100
AcDbSpline
210
0.0
220
0.0
230
1.0
 70
     8
 71
     3
 72
    26
 73
    22
 74
     0
 42
0.000000001
 43
0.00000001
 40
0.0
 40
0.0
 40
0.0
 40
0.0
 40
0.0241259796963637
 40
0.048215991227299
 40
0.0723203915124064
 40
0.0964895678710793
 40
0.120773623196351
 40
0.1452220711242841
 40
0.1698835501657706
 40
0.1948055644472381
 40
0.2200342569517629
 40
0.2456142191611394
 40
0.3690971486901671
 40
0.4940698769485191
 40
0.6192566784762444
 40
0.7454656653603234
 40
0.7971495824713715
 40
0.8481710308405401
 40
0.8988013269235245
 40
0.9493179290492194
 40
1.0
 40
1.0
 40
1.0
 40
1.0
 10
89.91473613972133
 20
131.6254531338278
 30
0.0
 10
89.97998519827085
 20
131.6248793474489
 30
0.0
 10
90.11038603894997
 20
131.6237326301194
 30
0.0
 10
90.30536585724626
 20
131.6116152536265
 30
0.0
 10
90.49949499450992
 20
131.5918567321648
 30
0.0
 10
90.6927563346041
 20
131.563694549944
 30
0.0
 10
90.88515151307838
 20
131.5273034538957
 30
0.0
 10
91.07667709157937
 20
131.4826023684183
 30
0.0
 10
91.26733262396479
 20
131.4295738970342
 30
0.0
 10
91.4571126230632
 20
131.3681828756076
 30
0.0
 10
91.64603124371901
 20
131.2983806691279
 30
0.0
 10
92.0727756568897
 20
131.1208515989124
 30
0.0
 10
92.7072479840704
 20
130.7662909960148
 30
0.0
 10
93.44692383641627
 20
130.1241191823245
 30
0.0
 10
94.05367107925173
 20
129.3509538785436
 30
0.0
 10
94.41446289547005
 20
128.6435384702837
 30
0.0
 10
94.61663695123433
 20
128.0790310710581
 30
0.0
 10
94.72346040721955
 20
127.6901442095095
 30
0.0
 10
94.7990711235178
 20
127.2956614556413
 30
0.0
 10
94.84623379620912
 20
126.8958553654511
 30
0.0
 10
94.85182185049736
 20
126.6264914859865
 30
0.0
 10
94.85462044612419
 20
126.4915893293122
 30
0.0
  0
LINE
  5
10E
330
1F
100
AcDbEntity
  8
0
  6
Continuous
 62
     7
370
    25
100
AcDbLine
 10
87.9998627908
 20
131.6269485395
 30
0.0
 11
89.91473651
 21
131.6254528355
 31
0.0
  0
SPLINE
  5
10F
330
1F
100
AcDbEntity
  8
0
  6
Continuous
 62
     7
370
    25
100
AcDbSpline
210
0.0
220
0.0
230
1.0
 70
     8
 71
     3
 72
    14
 73
    10
 74
     0
 42
0.000000001
 43
0.00000001
 40
0.0
 40
0.0
 40
0.0
 40
0.0
 40
0.0789261963152472
 40
0.1582328720511064
 40
0.3308475394503796
 40
0.5000195457530386
 40
0.6670357883499396
 40
0.8332395193610692
 40
1.0
 40
1.0
 40
1.0
 40
1.0
 10
85.80365063436537
 20
131.0929016140767
 30
0.0
 10
85.85704615740678
 20
131.1195078633517
 30
0.0
 10
85.964094607224
 20
131.1728486226158
 30
0.0
 10
86.1931653217811
 20
131.274478101256
 30
0.0
 10
86.49203805997311
 20
131.388557733631
 30
0.0
 10
86.86418113476914
 20
131.4971641670874
 30
0.0
 10
87.23981093380067
 20
131.5734984525334
 30
0.0
 10
87.61900324583542
 20
131.6203159098872
 30
0.0
 10
87.87276821538812
 20
131.6247352192443
 30
0.0
 10
87.99986286043186
 20
131.6269485686875
 30
0.0
  0
SPLINE
  5
110
330
1F
100
AcDbEntity
  8
0
  6
Continuous
 62
     7
370
    25
100
AcDbSpline
210
0.0
220
0.0
230
1.0
 70
     8
 71
     3
 72
     8
 73
     4
 74
     0
 42
0.000000001
 43
0.00000001
 40
0.0
 40
0.0
 40
0.0
 40
0.0
 40
1.0
 40
1.0
 40
1.0
 40
1.0
 10
80.4113569107151
 20
131.0970237709791
 30
0.0
 10
82.20869359609132
 20
131.0960496645552
 30
0.0
 10
84.00603028146756
 20
131.0946275288055
 30
0.0
 10
85.80336696684378
 20
131.0927565423368
 30
0.0
  0
SPLINE
  5
111
330
1F
100
AcDbEntity
  8
0
  6
Continuous
 62
     7
370
    25
100
AcDbSpline
210
0.0
220
0.0
230
1.0
 70
     8
 71
     3
 72
    13
 73
     9
 74
     0
 42
0.000000001
 43
0.00000001
 40
0.0
 40
0.0
 40
0.0
 40
0.0
 40
0.1667030582307959
 40
0.3329480818053031
 40
0.4990671507274871
 40
0.6653938523718408
 40
0.8322612710550125
 40
1.0
 40
1.0
 40
1.0
 40
1.0
 10
79.32785274586972
 20
131.234450820547
 30
0.0
 10
79.38895978862104
 20
131.2336166010154
 30
0.0
 10
79.51100597592422
 20
131.2319504540606
 30
0.0
 10
79.69334092118794
 20
131.2199214964078
 30
0.0
 10
79.87464513406164
 20
131.2009320318234
 30
0.0
 10
80.05484399409826
 20
131.1741128176041
 30
0.0
 10
80.23414797223657
 20
131.1402770103569
 30
0.0
 10
80.352179997808
 20
131.1114515400781
 30
0.0
 10
80.41134968755964
 20
131.0970012743549
 30
0.0
  0
SPLINE
  5
112
330
1F
100
AcDbEntity
  8
0
  6
Continuous
 62
     7
370
    25
100
AcDbSpline
210
0.0
220
0.0
230
1.0
 70
     8
 71
     3
 72
     8
 73
     4
 74
     0
 42
0.000000001
 43
0.00000001
 40
0.0
 40
0.0
 40
0.0
 40
0.0
 40
1.0
 40
1.0
 40
1.0
 40
1.0
 10
73.5096782929355
 20
131.239240555397
 30
0.0
 10
75.44906977724692
 20
131.2381931029213
 30
0.0
 10
77.38846126155832
 20
131.2365969163966
 30
0.0
 10
79.32785274586973
 20
131.234450820547
 30
0.0
  0
LINE
  5
113
330
1F
100
AcDbEntity
  8
0
  6
Continuous
 62
     7
370
    25
100
AcDbLine
 10
73.5096793479
 20
131.2392408143
 30
0.0
 11
73.5096793479
 21
145.1860347878
 31
0.0
  0
SPLINE
  5
114
330
1F
100
AcDbEntity
  8
0
  6
Continuous
 62
     7
370
    25
100
AcDbSpline
210
0.0
220
0.0
230
1.0
 70
     8
 71
     3
 72
    24
 73
    20
 74
     0
 42
0.000000001
 43
0.00000001
 40
0.0
 40
0.0
 40
0.0
 40
0.0
 40
0.0607845451296407
 40
0.1248046360965166
 40
0.1880736642923821
 40
0.2506536944642078
 40
0.3129374270624571
 40
0.3747588850641116
 40
0.4371053349657547
 40
0.4977639019418345
 40
0.5591913128303959
 40
0.6209011577381788
 40
0.6826271159280655
 40
0.7453344255371981
 40
0.8078840402472991
 40
0.8712333803613398
 40
0.9348869687710366
 40
0.9979954054018167
 40
1.0
 40
1.0
 40
1.0
 40
1.0
 10
97.4733179292605
 20
146.3877445202032
 30
0.0
 10
97.44760611572148
 20
146.3773414301227
 30
0.0
 10
97.39481385536521
 20
146.3559814961294
 30
0.0
 10
96.92158310611158
 20
146.1735748226411
 30
0.0
 10
96.20277796439292
 20
145.9046287701124
 30
0.0
 10
95.22559722011184
 20
145.5765326150452
 30
0.0
 10
94.04163485904927
 20
145.2326621812994
 30
0.0
 10
92.67333257115027
 20
144.9150013890265
 30
0.0
 10
91.18562130528043
 20
144.6604929406269
 30
0.0
 10
89.6159617249655
 20
144.5092785596487
 30
0.0
 10
88.03971922998687
 20
144.4757369130236
 30
0.0
 10
86.52040507365756
 20
144.5613091086875
 30
0.0
 10
85.11953085835808
 20
144.7355169273579
 30
0.0
 10
83.90085106394903
 20
144.9651425920285
 30
0.0
 10
82.89527823504822
 20
145.203360094421
 30
0.0
 10
82.1420968986091
 20
145.4149808540497
 30
0.0
 10
81.6951533375576
 20
145.5474006117815
 30
0.0
 10
81.51147654961325
 20
145.6050680980245
 30
0.0
 10
81.56301409687785
 20
145.5893203429904
 30
0.0
 10
81.56460075145222
 20
145.5888355266014
 30
0.0
  0
SPLINE
  5
115
330
1F
100
AcDbEntity
  8
0
  6
Continuous
 62
     7
370
    25
100
AcDbSpline
210
0.0
220
0.0
230
1.0
 70
     8
 71
     3
 72
    24
 73
    20
 74
     0
 42
0.000000001
 43
0.00000001
 40
0.0
 40
0.0
 40
0.0
 40
0.0
 40
0.0018911184661179
 40
0.0649665885217893
 40
0.1287875560009952
 40
0.1921372900365662
 40
0.2545996475903032
 40
0.3167128323446347
 40
0.3787563804671794
 40
0.440851011115251
 40
0.501718739255822
 40
0.5623721854420992
 40
0.6248484186975057
 40
0.6868048398220544
 40
0.7491642775858319
 40
0.8116886268192671
 40
0.8748496752066125
 40
0.9387002417378669
 40
1.0
 40
1.0
 40
1.0
 40
1.0
 10
81.56460633938767
 20
98.64489716698323
 30
0.0
 10
81.56309965751937
 20
98.644439349144
 30
0.0
 10
81.51133982188551
 20
98.62871169182785
 30
0.0
 10
81.69495053649916
 20
98.68628790693302
 30
0.0
 10
82.14282426153186
 20
98.81854430995642
 30
0.0
 10
82.89584980904583
 20
99.030152719679
 30
0.0
 10
83.8957953093264
 20
99.26786972471463
 30
0.0
 10
85.11435452312611
 20
99.49591019839639
 30
0.0
 10
86.51786483033493
 20
99.66809474662504
 30
0.0
 10
88.03511271454761
 20
99.7562182039175
 30
0.0
 10
89.60936212287812
 20
99.72515681046873
 30
0.0
 10
91.17519561490093
 20
99.57413571894084
 30
0.0
 10
92.66504803232698
 20
99.31979962890135
 30
0.0
 10
94.03673571265479
 20
99.0020599697915
 30
0.0
 10
95.22263290610121
 20
98.65815369909944
 30
0.0
 10
96.20032666254203
 20
98.33027503398904
 30
0.0
 10
96.91948008232235
 20
98.06149061389638
 30
0.0
 10
97.39341934287668
 20
97.87838854886797
 30
0.0
 10
97.44767830873668
 20
97.85640174370458
 30
0.0
 10
97.47425483977057
 20
97.84563240815793
 30
0.0
  0
LINE
  5
116
330
1F
100
AcDbEntity
  8
0
  6
Continuous
 62
     7
370
    25
100
AcDbLine
 10
94.8546204573
 20
117.7422383915
 30
0.0
 11
93.9596790678
 21
117.9044137824
 31
0.0
  0
LINE
  5
117
330
1F
100
AcDbEntity
  8
0
  6
Continuous
 62
     7
370
    25
100
AcDbLine
 10
93.9596790678
 20
117.9044137824
 30
0.0
 11
93.9596790678
 21
126.3294139061
 31
0.0
  0
LINE
  5
118
330
1F
100
AcDbEntity
  8
0
  6
Continuous
 62
     7
370
    25
100
AcDbLine
 10
94.8546204573
 20
126.491589297
 30
0.0
 11
93.9596790678
 21
126.3294139061
 31
0.0
  0
SPLINE
  5
119
330
1F
100
AcDbEntity
  8
0
  6
Continuous
 62
     7
370
    25
100
AcDbSpline
210
0.0
220
0.0
230
1.0
 70
     8
 71
     3
 72
    25
 73
    21
 74
     0
 42
0.000000001
 43
0.00000001
 40
0.0
 40
0.0
 40
0.0
 40
0.0
 40
0.0288821753105771
 40
0.058363659400572
 40
0.088464720430548
 40
0.1192044006616737
 40
0.1506005800085666
 40
0.1826700399669859
 40
0.2154285269576224
 40
0.2488908143379852
 40
0.3610594471136693
 40
0.4984670131067402
 40
0.5822693905005265
 40
0.6661127642780991
 40
0.7499972937224167
 40
0.8007709755018199
 40
0.8511237700786715
 40
0.9010896024485537
 40
0.9507031914094952
 40
1.0
 40
1.0
 40
1.0
 40
1.0
 10
89.95967829292275
 20
113.9044138442436
 30
0.0
 10
90.02247874615912
 20
113.9052703281954
 30
0.0
 10
90.14938276995498
 20
113.907001068249
 30
0.0
 10
90.34073717766445
 20
113.9211509336519
 30
0.0
 10
90.53464199034013
 20
113.9442880159723
 30
0.0
 10
90.73054271106766
 20
113.9776991681968
 30
0.0
 10
90.92788037907296
 20
114.021572990229
 30
0.0
 10
91.12603372086122
 20
114.0763682611984
 30
0.0
 10
91.3243494648743
 20
114.1424372225631
 30
0.0
 10
91.67567045236547
 20
114.2804185548113
 30
0.0
 10
92.20078222269085
 20
114.5604704936497
 30
0.0
 10
92.73777405117981
 20
114.9990610960552
 30
0.0
 10
93.14983378122952
 20
115.4729212176148
 30
0.0
 10
93.43675236928195
 20
115.9046049654346
 30
0.0
 10
93.63517905648769
 20
116.3077282071919
 30
0.0
 10
93.76726493053481
 20
116.6654643679663
 30
0.0
 10
93.85289881033226
 20
116.9682167702441
 30
0.0
 10
93.91398102168634
 20
117.2767050804896
 30
0.0
 10
93.95248196505332
 20
117.5890167906505
 30
0.0
 10
93.95728464414702
 20
117.7995062045564
 30
0.0
 10
93.95967829292275
 20
117.9044138442436
 30
0.0
  0
SPLINE
  5
11A
330
1F
100
AcDbEntity
  8
0
  6
Continuous
 62
     7
370
    25
100
AcDbSpline
210
0.0
220
0.0
230
1.0
 70
     8
 71
     3
 72
    25
 73
    21
 74
     0
 42
0.000000001
 43
0.00000001
 40
0.0
 40
0.0
 40
0.0
 40
0.0
 40
0.0274788704220519
 40
0.0560416006846
 40
0.0856947086346483
 40
0.1164440166532229
 40
0.1482947438675477
 40
0.1812515840465501
 40
0.2153187716746058
 40
0.2505001382254875
 40
0.3330514552513183
 40
0.5015081958163713
 40
0.5771663066143402
 40
0.6488981303024295
 40
0.7167477700061697
 40
0.7807674423486859
 40
0.8410194131339161
 40
0.897578484992366
 40
0.9505352047787778
 40
1.0
 40
1.0
 40
1.0
 40
1.0
 10
93.95967829292275
 20
126.3294138442436
 30
0.0
 10
93.95893684131465
 20
126.387778253278
 30
0.0
 10
93.95742469273246
 20
126.5068091615746
 30
0.0
 10
93.94492855166202
 20
126.6875901556907
 30
0.0
 10
93.92400894769762
 20
126.8738533739323
 30
0.0
 10
93.89308820615285
 20
127.0650254624819
 30
0.0
 10
93.8515635615032
 20
127.2605324017087
 30
0.0
 10
93.79856337568575
 20
127.4596937538244
 30
0.0
 10
93.73333419586884
 20
127.6617120329827
 30
0.0
 10
93.62074416913332
 20
127.9552456474866
 30
0.0
 10
93.36072377815546
 20
128.4837784733157
 30
0.0
 10
92.94964438500129
 20
129.0237177329724
 30
0.0
 10
92.46530981672896
 20
129.4585370824043
 30
0.0
 10
92.10015511204966
 20
129.7179442238652
 30
0.0
 10
91.72732004293167
 20
129.9256943785149
 30
0.0
 10
91.35407248060584
 20
130.0854156461519
 30
0.0
 10
90.98678317027183
 20
130.2014528984532
 30
0.0
 10
90.63059036744878
 20
130.277660015758
 30
0.0
 10
90.28975166630279
 20
130.3216650777476
 30
0.0
 10
90.06717324620472
 20
130.3268903044502
 30
0.0
 10
89.95967829292276
 20
130.3294138442436
 30
0.0
  0
LINE
  5
11B
330
1F
100
AcDbEntity
  8
0
  6
Continuous
 62
     7
370
    25
100
AcDbLine
 10
87.9998627908
 20
131.6269485395
 30
0.0
 11
88.0448046929
 21
130.3294140961
 31
0.0
  0
SPLINE
  5
11C
330
1F
100
AcDbEntity
  8
0
  6
Continuous
 62
     7
370
    25
100
AcDbSpline
210
0.0
220
0.0
230
1.0
 70
     8
 71
     3
 72
    13
 73
     9
 74
     0
 42
0.000000001
 43
0.00000001
 40
0.0
 40
0.0
 40
0.0
 40
0.0
 40
0.1618542298650875
 40
0.3254858841233149
 40
0.4910085196246548
 40
0.6585318472470939
 40
0.8281616954004768
 40
1.0
 40
1.0
 40
1.0
 40
1.0
 10
88.0448050136333
 20
130.3294138442436
 30
0.0
 10
87.98558318283243
 20
130.3286549681402
 30
0.0
 10
87.86648916858461
 20
130.3271288822314
 30
0.0
 10
87.68687669264524
 20
130.3146349509911
 30
0.0
 10
87.50584765173541
 20
130.2944026821199
 30
0.0
 10
87.3238416579409
 20
130.2652487369115
 30
0.0
 10
87.1410574139547
 20
130.2278880262486
 30
0.0
 10
87.02040838307157
 20
130.1956443154756
 30
0.0
 10
86.95969371685338
 20
130.179418191462
 30
0.0
  0
SPLINE
  5
11D
330
1F
100
AcDbEntity
  8
0
  6
Continuous
 62
     7
370
    25
100
AcDbSpline
210
0.0
220
0.0
230
1.0
 70
    24
 71
     3
 72
     9
 73
     5
 74
     0
 42
0.000000001
 43
0.00000001
 40
0.0
 40
0.0
 40
0.0
 40
0.0
 40
0.4907282259506041
 40
1.0
 40
1.0
 40
1.0
 40
1.0
 10
86.95974971376481
 20
130.1794138442436
 30
0.0
 10
86.90584425553433
 20
130.1794138442436
 30
0.0
 10
86.79599636951546
 20
130.1794138442436
 30
0.0
 10
86.6880538934064
 20
130.1794138442436
 30
0.0
 10
86.63308183710306
 20
130.1794138442436
 30
0.0
  0
SPLINE
  5
11E
330
1F
100
AcDbEntity
  8
0
  6
Continuous
 62
     7
370
    25
100
AcDbSpline
210
0.0
220
0.0
230
1.0
 70
     8
 71
     3
 72
    14
 73
    10
 74
     0
 42
0.000000001
 43
0.00000001
 40
0.0
 40
0.0
 40
0.0
 40
0.0
 40
0.0310276388093398
 40
0.0622853718693698
 40
0.1248003166924349
 40
0.2498289731770658
 40
0.4998892603621822
 40
0.7606803621577949
 40
1.0
 40
1.0
 40
1.0
 40
1.0
 10
85.80441744158765
 20
131.0928901934749
 30
0.0
 10
85.81270746712723
 20
131.0833223489177
 30
0.0
 10
85.82934899524066
 20
131.0641157067399
 30
0.0
 10
85.86259885161978
 20
131.0255270787438
 30
0.0
 10
85.92110139722011
 20
130.9579971858362
 30
0.0
 10
86.03863769107015
 20
130.8231596681127
 30
0.0
 10
86.21156521481866
 20
130.6282263183821
 30
0.0
 10
86.41921273697045
 20
130.3999372945867
 30
0.0
 10
86.5630233204813
 20
130.2503676685739
 30
0.0
 10
86.6318414722143
 20
130.1787936232825
 30
0.0
  0
SPLINE
  5
11F
330
1F
100
AcDbEntity
  8
0
  6
Continuous
 62
     7
370
    25
100
AcDbSpline
210
0.0
220
0.0
230
1.0
 70
     8
 71
     3
 72
    13
 73
     9
 74
     0
 42
0.000000001
 43
0.00000001
 40
0.0
 40
0.0
 40
0.0
 40
0.0
 40
0.1722587823402174
 40
0.3421398270982735
 40
0.5097456257612809
 40
0.6751828993009421
 40
0.8385626189970466
 40
1.0
 40
1.0
 40
1.0
 40
1.0
 10
86.95969666183298
 20
114.0544086669934
 30
0.0
 10
87.02056005149565
 20
114.0381449392964
 30
0.0
 10
87.14144671592517
 20
114.0058419768197
 30
0.0
 10
87.32450787387931
 20
113.9684543221278
 30
0.0
 10
87.50661055681357
 20
113.9393213872163
 30
0.0
 10
87.68755200513606
 20
113.9191346716079
 30
0.0
 10
87.86689100885052
 20
113.9066878673041
 30
0.0
 10
87.98573723728018
 20
113.9051688240763
 30
0.0
 10
88.0448050136333
 20
113.9044138442436
 30
0.0
  0
LINE
  5
120
330
1F
100
AcDbEntity
  8
0
  6
Continuous
 62
     7
370
    25
100
AcDbLine
 10
87.9998627908
 20
112.606879149
 30
0.0
 11
88.0448046929
 21
113.9044135924
 31
0.0
  0
SPLINE
  5
121
330
1F
100
AcDbEntity
  8
0
  6
Continuous
 62
     7
370
    25
100
AcDbSpline
210
0.0
220
0.0
230
1.0
 70
     8
 71
     3
 72
    11
 73
     7
 74
     0
 42
0.000000001
 43
0.00000001
 40
0.0
 40
0.0
 40
0.0
 40
0.0
 40
0.239284509383631
 40
0.5001120454057238
 40
0.7515010915050501
 40
1.0
 40
1.0
 40
1.0
 40
1.0
 10
86.63311000390375
 20
114.0549854166369
 30
0.0
 10
86.56430037092142
 20
113.9833897185309
 30
0.0
 10
86.42048610403447
 20
113.8337524891327
 30
0.0
 10
86.21278437122281
 20
113.6046959606258
 30
0.0
 10
86.00484405949949
 20
113.3722339732699
 30
0.0
 10
85.87187584986289
 20
113.2173649818793
 30
0.0
 10
85.80577612760405
 20
113.1403781792037
 30
0.0
  0
SPLINE
  5
122
330
1F
100
AcDbEntity
  8
0
  6
Continuous
 62
     7
370
    25
100
AcDbSpline
210
0.0
220
0.0
230
1.0
 70
    24
 71
     3
 72
     9
 73
     5
 74
     0
 42
0.000000001
 43
0.00000001
 40
0.0
 40
0.0
 40
0.0
 40
0.0
 40
0.509066935386983
 40
0.9999999999999999
 40
0.9999999999999999
 40
0.9999999999999999
 40
0.9999999999999999
 10
86.63505812631931
 20
114.0544138442436
 30
0.0
 10
86.68968598902644
 20
114.0544138442436
 30
0.0
 10
86.79699577269099
 20
114.0544138442436
 30
0.0
 10
86.90617728093535
 20
114.0544138442436
 30
0.0
 10
86.95977809337685
 20
114.0544138442436
 30
0.0
  0
LINE
  5
123
330
1F
100
AcDbEntity
  8
0
  6
Continuous
 62
     7
370
    25
100
AcDbLine
 10
80.4112713641
 20
131.0970241319
 30
0.0
 11
80.3857754773
 21
130.1994377862
 31
0.0
  0
LINE
  5
124
330
1F
100
AcDbEntity
  8
0
  6
Continuous
 62
     7
370
    25
100
AcDbLine
 10
86.6330798573
 20
130.1794134196
 30
0.0
 11
80.4596777863
 21
130.1794134196
 31
0.0
  0
SPLINE
  5
125
330
1F
100
AcDbEntity
  8
0
  6
Continuous
 62
     7
370
    25
100
AcDbSpline
210
0.0
220
0.0
230
1.0
 70
     8
 71
     3
 72
     8
 73
     4
 74
     0
 42
0.000000001
 43
0.00000001
 40
0.0
 40
0.0
 40
0.0
 40
0.0
 40
1.0
 40
1.0
 40
1.0
 40
1.0
 10
80.45967829297693
 20
130.1794138442283
 30
0.0
 10
80.43511426354833
 20
130.1863372428525
 30
0.0
 10
80.41048397245012
 20
130.1930255466702
 30
0.0
 10
80.38579193133805
 20
130.199477530551
 30
0.0
  0
LINE
  5
126
330
1F
100
AcDbEntity
  8
0
  6
Continuous
 62
     7
370
    25
100
AcDbLine
 10
81.2240421629
 20
113.9094911631
 30
0.0
 11
81.3961990035
 21
113.1373213719
 31
0.0
  0
SPLINE
  5
127
330
1F
100
AcDbEntity
  8
0
  6
Continuous
 62
     7
370
    25
100
AcDbSpline
210
0.0
220
0.0
230
1.0
 70
     8
 71
     3
 72
     8
 73
     4
 74
     0
 42
0.000000001
 43
0.00000001
 40
0.0
 40
0.0
 40
0.0
 40
0.0
 40
1.0
 40
1.0
 40
1.0
 40
1.0
 10
81.22210613628728
 20
113.9101017760664
 30
0.0
 10
81.25230761760704
 20
113.9575826731846
 30
0.0
 10
81.28150700245943
 20
114.0057009767579
 30
0.0
 10
81.30967829292278
 20
114.0544138442437
 30
0.0
  0
LINE
  5
128
330
1F
100
AcDbEntity
  8
0
  6
Continuous
 62
     7
370
    25
100
AcDbLine
 10
81.3096791363
 20
114.0544142689
 30
0.0
 11
86.6342514611
 21
114.0544142689
 31
0.0
  0
LINE
  5
129
330
1F
100
AcDbEntity
  8
0
  6
Continuous
 62
     7
370
    25
100
AcDbLine
 10
89.9596784121
 20
130.3294140961
 30
0.0
 11
88.0448046929
 21
130.3294140961
 31
0.0
  0
LINE
  5
12A
330
1F
100
AcDbEntity
  8
0
  6
Continuous
 62
     7
370
    25
100
AcDbLine
 10
88.0448046929
 20
113.9044135924
 30
0.0
 11
89.9596784121
 21
113.9044135924
 31
0.0
  0
SPLINE
  5
12B
330
1F
100
AcDbEntity
  8
0
  6
Continuous
 62
     7
370
    25
100
AcDbSpline
210
0.0
220
0.0
230
1.0
 70
     8
 71
     3
 72
    23
 73
    19
 74
     0
 42
0.000000001
 43
0.00000001
 40
0.0
 40
0.0
 40
0.0
 40
0.0
 40
0.0449850911547964
 40
0.0909520670823883
 40
0.1379394291328525
 40
0.1859832248994781
 40
0.235117176177667
 40
0.2853728096486027
 40
0.3367795876649756
 40
0.3893650370847659
 40
0.4431548745955978
 40
0.4981731273942729
 40
0.5575107591414307
 40
0.6265492282208773
 40
0.7053073139958764
 40
0.7937970254642376
 40
0.8920262116484563
 40
1.0
 40
1.0
 40
1.0
 40
1.0
 10
77.84702125677262
 20
112.0569138442436
 30
0.0
 10
77.90986500774892
 20
112.0577716475629
 30
0.0
 10
78.03692419353197
 20
112.0595059773827
 30
0.0
 10
78.22858042628253
 20
112.0736931125864
 30
0.0
 10
78.42294768689084
 20
112.0969185957467
 30
0.0
 10
78.61946439516856
 20
112.1304973360942
 30
0.0
 10
78.81756199888649
 20
112.1746413093258
 30
0.0
 10
79.0166099708467
 20
112.2298362568538
 30
0.0
 10
79.21592897672089
 20
112.2964531192728
 30
0.0
 10
79.41479467354978
 20
112.3748537960848
 30
0.0
 10
79.61240981293075
 20
112.465337887028
 30
0.0
 10
79.81165628011085
 20
112.570129751838
 30
0.0
 10
80.02048475985687
 20
112.6956946883422
 30
0.0
 10
80.24529585608697
 20
112.8512086869532
 30
0.0
 10
80.48706258503522
 20
113.0457778021618
 30
0.0
 10
80.73827729374459
 20
113.2852674695929
 30
0.0
 10
80.99327577788424
 20
113.573107879319
 30
0.0
 10
81.14364790671937
 20
113.7945762890072
 30
0.0
 10
81.22238706385018
 20
113.9105434967939
 30
0.0
  0
SPLINE
  5
12C
330
1F
100
AcDbEntity
  8
0
  6
Continuous
 62
     7
370
    25
100
AcDbSpline
210
0.0
220
0.0
230
1.0
 70
     8
 71
     3
 72
    13
 73
     9
 74
     0
 42
0.000000001
 43
0.00000001
 40
0.0
 40
0.0
 40
0.0
 40
0.0
 40
0.1706320847381217
 40
0.3395984166493647
 40
0.5069574113007884
 40
0.672769183166934
 40
0.8370955448651839
 40
1.0
 40
1.0
 40
1.0
 40
1.0
 10
80.38578505506314
 20
130.1994793273022
 30
0.0
 10
80.32973112481554
 20
130.2133820734719
 30
0.0
 10
80.21817047672127
 20
130.2410518437472
 30
0.0
 10
80.04892474431247
 20
130.2733073606661
 30
0.0
 10
79.87977965538116
 20
130.2986448209803
 30
0.0
 10
79.71084439341297
 20
130.3163576966498
 30
0.0
 10
79.54251616119898
 20
130.3273817536006
 30
0.0
 10
79.43037734402614
 20
130.328738445761
 30
0.0
 10
79.37455157221221
 20
130.3294138442436
 30
0.0
  0
SPLINE
  5
12D
330
1F
100
AcDbEntity
  8
0
  6
Continuous
 62
     7
370
    25
100
AcDbSpline
210
0.0
220
0.0
230
1.0
 70
     8
 71
     3
 72
     8
 73
     4
 74
     0
 42
0.000000001
 43
0.00000001
 40
0.0
 40
0.0
 40
0.0
 40
0.0
 40
1.0
 40
1.0
 40
1.0
 40
1.0
 10
72.59601847134515
 20
130.8569155881692
 30
0.0
 10
72.90057174505402
 20
130.9831049348083
 30
0.0
 10
73.20512501876291
 20
131.1105496910714
 30
0.0
 10
73.50967829247179
 20
131.2392405556196
 30
0.0
  0
LINE
  5
12E
330
1F
100
AcDbEntity
  8
0
  6
Continuous
 62
     7
370
    25
100
AcDbLine
 10
79.3745528764
 20
130.3294140961
 30
0.0
 11
73.5096793479
 21
130.3294140961
 31
0.0
  0
LINE
  5
12F
330
1F
100
AcDbEntity
  8
0
  6
Continuous
 62
     7
370
    25
100
AcDbLine
 10
73.5096793479
 20
130.3294140961
 30
0.0
 11
72.5960183746
 21
130.8569152023
 31
0.0
  0
SPLINE
  5
130
330
1F
100
AcDbEntity
  8
0
  6
Continuous
 62
     7
370
    25
100
AcDbSpline
210
0.0
220
0.0
230
1.0
 70
    24
 71
     3
 72
     8
 73
     4
 74
     0
 42
0.000000001
 43
0.00000001
 40
0.0
 40
0.0
 40
0.0
 40
0.0
 40
1.0
 40
1.0
 40
1.0
 40
1.0
 10
72.00967829292276
 20
131.1954392480281
 30
0.0
 10
72.20422542545565
 20
131.0831174086901
 30
0.0
 10
72.39968644569484
 20
130.9702679360389
 30
0.0
 10
72.59601847135215
 20
130.8569155881751
 30
0.0
  0
LINE
  5
131
330
1F
100
AcDbEntity
  8
0
  6
Continuous
 62
     7
370
    25
100
AcDbLine
 10
72.0096800334
 20
131.195438851
 30
0.0
 11
72.0096800334
 21
144.3200091015
 31
0.0
  0
LINE
  5
132
330
1F
100
AcDbEntity
  8
0
  6
Continuous
 62
     7
370
    25
100
AcDbLine
 10
72.6495433456
 20
111.5603156503
 30
0.0
 11
73.5096793479
 21
112.0569136109
 31
0.0
  0
LINE
  5
133
330
1F
100
AcDbEntity
  8
0
  6
Continuous
 62
     7
370
    25
100
AcDbLine
 10
73.5096793479
 20
112.0569136109
 30
0.0
 11
77.8470199413
 21
112.0569136109
 31
0.0
  0
SPLINE
  5
134
330
1F
100
AcDbEntity
  8
0
  6
Continuous
 62
     7
370
    25
100
AcDbSpline
210
0.0
220
0.0
230
1.0
 70
     8
 71
     3
 72
     8
 73
     4
 74
     0
 42
0.000000001
 43
0.00000001
 40
0.0
 40
0.0
 40
0.0
 40
0.0
 40
1.0
 40
1.0
 40
1.0
 40
1.0
 10
73.50967829268248
 20
111.211935703726
 30
0.0
 10
73.22296701581371
 20
111.3288366419397
 30
0.0
 10
72.93625573894491
 20
111.4449646630043
 30
0.0
 10
72.64954446207614
 20
111.5603153454652
 30
0.0
  0
SPLINE
  5
135
330
1F
100
AcDbEntity
  8
0
  6
Continuous
 62
     7
370
    25
100
AcDbSpline
210
0.0
220
0.0
230
1.0
 70
     8
 71
     3
 72
     8
 73
     4
 74
     0
 42
0.000000001
 43
0.00000001
 40
0.0
 40
0.0
 40
0.0
 40
0.0
 40
1.0
 40
1.0
 40
1.0
 40
1.0
 10
125.1938760974928
 20
92.58016651127821
 30
0.0
 10
124.858465472069
 20
93.23843356358744
 30
0.0
 10
124.5266231529592
 20
93.89749000156884
 30
0.0
 10
124.2003894179753
 20
94.5574303729901
 30
0.0
  0
LWPOLYLINE
  5
136
330
1F
100
AcDbEntity
  8
0
  6
Continuous
 62
     7
370
    25
100
AcDbPolyline
 90
        9
 70
   128
 43
0.0
 10
124.2003889612
 20
94.5574304204
 10
125.0381089604
 20
94.7305819135
 10
125.7830068327
 20
94.9888581525
 10
126.4009943089
 20
95.3204425167
 10
126.8637917793
 20
95.710160036
 10
127.1502228311
 20
96.1401758831
 10
127.2471781678
 20
96.5908149372
 10
127.1502228311
 20
97.0414539914
 10
126.9719276435
 20
97.3419787477
  0
LINE
  5
137
330
1F
100
AcDbEntity
  8
0
  6
Continuous
 62
     7
370
    25
100
AcDbLine
 10
72.0096800334
 20
99.913818587
 30
0.0
 11
72.0096800334
 21
111.1908888559
 31
0.0
  0
SPLINE
  5
138
330
1F
100
AcDbEntity
  8
0
  6
Continuous
 62
     7
370
    25
100
AcDbSpline
210
0.0
220
0.0
230
1.0
 70
    24
 71
     3
 72
     8
 73
     4
 74
     0
 42
0.000000001
 43
0.00000001
 40
0.0
 40
0.0
 40
0.0
 40
0.0
 40
1.0
 40
1.0
 40
1.0
 40
1.0
 10
72.64954446207614
 20
111.5603153454652
 30
0.0
 10
72.43487890323638
 20
111.4363781272834
 30
0.0
 10
72.22156419489819
 20
111.3132208230022
 30
0.0
 10
72.00967829292274
 20
111.1908884404592
 30
0.0
  0
ARC
  5
139
330
1F
100
AcDbEntity
  8
0
  6
Continuous
 62
     7
370
    25
100
AcDbCircle
 10
120.1902622892
 20
96.5840639198
 30
0.0
 40
1.386778252398802
100
AcDbArc
 50
117.5067796727
 51
245.5898588898
  0
SPLINE
  5
13A
330
1F
100
AcDbEntity
  8
0
  6
Continuous
 62
     7
370
    25
100
AcDbSpline
210
0.0
220
0.0
230
1.0
 70
     8
 71
     3
 72
     8
 73
     4
 74
     0
 42
0.000000001
 43
0.00000001
 40
0.0
 40
0.0
 40
0.0
 40
0.0
 40
1.0
 40
1.0
 40
1.0
 40
1.0
 10
119.6171546267747
 20
95.3212492536661
 30
0.0
 10
119.2607013618437
 20
94.57708528048157
 30
0.0
 10
118.8953678690823
 20
93.83434605459199
 30
0.0
 10
118.5254804883527
 20
93.0929149296954
 30
0.0
  0
LINE
  5
13B
330
1F
100
AcDbEntity
  8
0
  6
Continuous
 62
     7
370
    25
100
AcDbLine
 10
119.9846781648
 20
148.211616848
 30
0.0
 11
119.9846781648
 21
148.1268534552
 31
0.0
  0
SPLINE
  5
13C
330
1F
100
AcDbEntity
  8
0
  6
Continuous
 62
     7
370
    25
100
AcDbSpline
210
0.0
220
0.0
230
1.0
 70
     8
 71
     3
 72
    16
 73
    12
 74
     0
 42
0.000000001
 43
0.00000001
 40
0.0
 40
0.0
 40
0.0
 40
0.0
 40
0.1250000000000001
 40
0.1250000000000001
 40
0.2500000000000003
 40
0.2500000000000003
 40
0.5000000000000002
 40
0.5000000000000002
 40
0.7500000000000001
 40
0.7500000000000001
 40
1.0
 40
1.0
 40
1.0
 40
1.0
 10
119.9846782929227
 20
148.126852870034
 30
0.0
 10
119.9846782929228
 20
148.0575205213889
 30
0.0
 10
119.9944508565624
 20
147.9955239843862
 30
0.0
 10
120.0286469019628
 20
147.8898421063958
 30
0.0
 10
120.0528320936737
 20
147.845719671477
 30
0.0
 10
120.14054875777
 20
147.7333130452362
 30
0.0
 10
120.2172589236194
 20
147.6853105390779
 30
0.0
 10
120.3963410238603
 20
147.6204847763653
 30
0.0
 10
120.4972237934802
 20
147.6045815049031
 30
0.0
 10
120.7260352917432
 20
147.6030767645324
 30
0.0
 10
120.8503329001781
 20
147.6177019413082
 30
0.0
 10
120.9846782929228
 20
147.6524888521468
 30
0.0
  0
SPLINE
  5
13D
330
1F
100
AcDbEntity
  8
0
  6
Continuous
 62
     7
370
    25
100
AcDbSpline
210
0.0
220
0.0
230
1.0
 70
     8
 71
     3
 72
    12
 73
     8
 74
     0
 42
0.000000001
 43
0.00000001
 40
0.0
 40
0.0
 40
0.0
 40
0.0
 40
0.4999999999999983
 40
0.4999999999999983
 40
0.7499999999999991
 40
0.7499999999999991
 40
1.0
 40
1.0
 40
1.0
 40
1.0
 10
120.9846782929228
 20
147.6524888521468
 30
0.0
 10
121.2444805198503
 20
147.7197611025691
 30
0.0
 10
121.5298045286237
 20
147.773508912043
 30
0.0
 10
121.9697015618358
 20
147.8307850292013
 30
0.0
 10
122.1190419791428
 20
147.8461980628218
 30
0.0
 10
122.4232007999291
 20
147.8698079364689
 30
0.0
 10
122.5791603066412
 20
147.8780216920516
 30
0.0
 10
122.7346782929227
 20
147.8824166674073
 30
0.0
  0
SPLINE
  5
13E
330
1F
100
AcDbEntity
  8
0
  6
Continuous
 62
     7
370
    25
100
AcDbSpline
210
0.0
220
0.0
230
1.0
 70
     8
 71
     3
 72
    14
 73
    10
 74
     0
 42
0.000000001
 43
0.00000001
 40
0.0
 40
0.0
 40
0.0
 40
0.0
 40
0.25
 40
0.25
 40
0.5
 40
0.5
 40
0.75
 40
0.75
 40
1.0
 40
1.0
 40
1.0
 40
1.0
 10
122.7346782929227
 20
147.8824166674073
 30
0.0
 10
122.8679077439461
 20
147.8861817634447
 30
0.0
 10
122.9996091065562
 20
147.9104437802823
 30
0.0
 10
123.2426867647733
 20
147.9966751309258
 30
0.0
 10
123.353592705322
 20
148.0588312910977
 30
0.0
 10
123.5362897783996
 20
148.2116375180852
 30
0.0
 10
123.6096773078813
 20
148.3036232261434
 30
0.0
 10
123.7085115867995
 20
148.5060925632222
 30
0.0
 10
123.7346782929228
 20
148.6178537915803
 30
0.0
 10
123.7346782929228
 20
148.7324077591063
 30
0.0
  0
LINE
  5
13F
330
1F
100
AcDbEntity
  8
0
  6
Continuous
 62
     7
370
    25
100
AcDbLine
 10
123.7346783138
 20
148.7324068438
 30
0.0
 11
123.7346783138
 21
148.8176154088
 31
0.0
  0
SPLINE
  5
140
330
1F
100
AcDbEntity
  8
0
  6
Continuous
 62
     7
370
    25
100
AcDbSpline
210
0.0
220
0.0
230
1.0
 70
     8
 71
     3
 72
    10
 73
     6
 74
     0
 42
0.000000001
 43
0.00000001
 40
0.0
 40
0.0
 40
0.0
 40
0.0
 40
0.5
 40
0.5
 40
1.0
 40
1.0
 40
1.0
 40
1.0
 10
123.7346782929228
 20
148.8176163238585
 30
0.0
 10
123.9858711827943
 20
149.1781225466245
 30
0.0
 10
124.2331404944961
 20
149.5222134265338
 30
0.0
 10
124.7197618458069
 20
150.1736748415896
 30
0.0
 10
124.9591451535236
 20
150.4812602813939
 30
0.0
 10
125.1938760974927
 20
150.7646512113018
 30
0.0
  0
SPLINE
  5
141
330
1F
100
AcDbEntity
  8
0
  6
Continuous
 62
     7
370
    25
100
AcDbSpline
210
0.0
220
0.0
230
1.0
 70
     8
 71
     3
 72
     8
 73
     4
 74
     0
 42
0.000000001
 43
0.00000001
 40
0.0
 40
0.0
 40
0.0
 40
0.0
 40
1.0
 40
1.0
 40
1.0
 40
1.0
 10
124.2003894179753
 20
94.5574303729901
 30
0.0
 10
124.0463069507513
 20
94.77357727438803
 30
0.0
 10
123.8910803289069
 20
94.9952299837073
 30
0.0
 10
123.7346782929228
 20
95.22216022854573
 30
0.0
  0
LINE
  5
142
330
1F
100
AcDbEntity
  8
0
  6
Continuous
 62
     7
370
    25
100
AcDbLine
 10
123.7346783138
 20
95.2221600454
 30
0.0
 11
123.7346783138
 21
95.3075772267
 31
0.0
  0
SPLINE
  5
143
330
1F
100
AcDbEntity
  8
0
  6
Continuous
 62
     7
370
    25
100
AcDbSpline
210
0.0
220
0.0
230
1.0
 70
     8
 71
     3
 72
    14
 73
    10
 74
     0
 42
0.000000001
 43
0.00000001
 40
0.0
 40
0.0
 40
0.0
 40
0.0
 40
0.25
 40
0.25
 40
0.5
 40
0.5
 40
0.75
 40
0.75
 40
1.0
 40
1.0
 40
1.0
 40
1.0
 10
123.7346782929227
 20
95.30757629784316
 30
0.0
 10
123.7346782929227
 20
95.42170220204052
 30
0.0
 10
123.7086381361657
 20
95.53440961562426
 30
0.0
 10
123.6098469529644
 20
95.73860537943985
 30
0.0
 10
123.5371393055474
 20
95.83100957064184
 30
0.0
 10
123.3533675276808
 20
95.98656229894684
 30
0.0
 10
123.2442974969887
 20
96.04857176557933
 30
0.0
 10
122.9986731485299
 20
96.13646187430462
 30
0.0
 10
122.8681180229425
 20
96.16027012672663
 30
0.0
 10
122.7346782929227
 20
96.1634546923577
 30
0.0
  0
SPLINE
  5
144
330
1F
100
AcDbEntity
  8
0
  6
Continuous
 62
     7
370
    25
100
AcDbSpline
210
0.0
220
0.0
230
1.0
 70
     8
 71
     3
 72
    12
 73
     8
 74
     0
 42
0.000000001
 43
0.00000001
 40
0.0
 40
0.0
 40
0.0
 40
0.0
 40
0.4999999999999987
 40
0.4999999999999987
 40
0.7499999999999993
 40
0.7499999999999993
 40
1.0
 40
1.0
 40
1.0
 40
1.0
 10
122.7346782929227
 20
96.16345469235767
 30
0.0
 10
122.4286700884701
 20
96.17075763886834
 30
0.0
 10
122.128302903103
 20
96.18999200944103
 30
0.0
 10
121.6862034530635
 20
96.23750865096804
 30
0.0
 10
121.5396300198623
 20
96.25662443034118
 30
0.0
 10
121.2560989560136
 20
96.30057651399588
 30
0.0
 10
121.1184011638295
 20
96.32546275338429
 30
0.0
 10
120.9846782929228
 20
96.3533395622551
 30
0.0
  0
SPLINE
  5
145
330
1F
100
AcDbEntity
  8
0
  6
Continuous
 62
     7
370
    25
100
AcDbSpline
210
0.0
220
0.0
230
1.0
 70
     8
 71
     3
 72
    16
 73
    12
 74
     0
 42
0.000000001
 43
0.00000001
 40
0.0
 40
0.0
 40
0.0
 40
0.0
 40
0.2499999999999992
 40
0.2499999999999992
 40
0.4999999999999984
 40
0.4999999999999984
 40
0.7499999999999977
 40
0.7499999999999977
 40
0.8749999999999988
 40
0.8749999999999988
 40
1.0
 40
1.0
 40
1.0
 40
1.0
 10
120.9846782929227
 20
96.3533395622551
 30
0.0
 10
120.8509011241774
 20
96.38122769043471
 30
0.0
 10
120.7273226343391
 20
96.38833780369018
 30
0.0
 10
120.4962626870491
 20
96.36925612326245
 30
0.0
 10
120.3919453640078
 20
96.34291472330452
 30
0.0
 10
120.2101181608383
 20
96.25470350492405
 30
0.0
 10
120.1333533944421
 20
96.19371455793579
 30
0.0
 10
120.0478477523121
 20
96.06528580587309
 30
0.0
 10
120.025097102412
 20
96.01714855223645
 30
0.0
 10
119.993366828186
 20
95.90778362732401
 30
0.0
 10
119.9846782929227
 20
95.84634977477627
 30
0.0
 10
119.9846782929227
 20
95.78087245059899
 30
0.0
  0
LINE
  5
146
330
1F
100
AcDbEntity
  8
0
  6
Continuous
 62
     7
370
    25
100
AcDbLine
 10
119.9846781648
 20
95.7808716338
 30
0.0
 11
119.9846781648
 21
95.69590335
 31
0.0
  0
SPLINE
  5
147
330
1F
100
AcDbEntity
  8
0
  6
Continuous
 62
     7
370
    25
100
AcDbSpline
210
0.0
220
0.0
230
1.0
 70
     8
 71
     3
 72
     8
 73
     4
 74
     0
 42
0.000000001
 43
0.00000001
 40
0.0
 40
0.0
 40
0.0
 40
0.0
 40
1.0
 40
1.0
 40
1.0
 40
1.0
 10
119.9846782929229
 20
95.6959033238475
 30
0.0
 10
119.8579182798936
 20
95.55783301370045
 30
0.0
 10
119.735065866162
 20
95.43175396286688
 30
0.0
 10
119.6171546267747
 20
95.3212492536661
 30
0.0
  0
LINE
  5
148
330
1F
100
AcDbEntity
  8
0
  6
Continuous
 62
     7
370
    25
100
AcDbLine
 10
72.6248744733
 20
130.8402547728
 30
0.0
 11
72.7613430328
 21
130.761464883
 31
0.0
  0
LINE
  5
149
330
1F
100
AcDbEntity
  8
0
  6
Continuous
 62
     7
370
    25
100
AcDbLine
 10
123.7346783138
 20
148.8176154088
 30
0.0
 11
123.7346783138
 21
151.0645093512
 31
0.0
  0
LINE
  5
14A
330
1F
100
AcDbEntity
  8
0
  6
Continuous
 62
     7
370
    25
100
AcDbLine
 10
119.9846781648
 20
93.1693183373
 30
0.0
 11
119.9846781648
 21
95.69590335
 31
0.0
  0
LINE
  5
14B
330
1F
100
AcDbEntity
  8
0
  6
Continuous
 62
     7
370
    25
100
AcDbLine
 10
123.7346783138
 20
93.1693183373
 30
0.0
 11
123.7346783138
 21
95.2221600454
 31
0.0
  0
LINE
  5
14C
330
1F
100
AcDbEntity
  8
0
  6
Continuous
 62
     7
370
    25
100
AcDbLine
 10
86.4500265426
 20
130.1794134196
 30
0.0
 11
86.3314077116
 21
130.1794134196
 31
0.0
  0
LINE
  5
14D
330
1F
100
AcDbEntity
  8
0
  6
Continuous
 62
     7
370
    25
100
AcDbLine
 10
86.3318994499
 20
114.0544142689
 30
0.0
 11
86.4520028091
 21
114.0544142689
 31
0.0
  0
DIMENSION
  5
14E
330
1F
100
AcDbEntity
  8
VERMASSUNG
100
AcDbDimension
  2
_D
 10
244.4413533835
 20
97.2669138442
 30
0.0
 11
244.4413533835
 21
122.1169138442
 31
0.0
 70
   160
  1
%%c<>
 71
     2
 42
-1.0
  3
SLDDIMSTYLE0
100
AcDbAlignedDimension
 13
213.3772120272
 23
146.9669138442
 33
0.0
 14
213.378690705
 24
97.2669138442
 34
0.0
 50
90.0
100
AcDbRotatedDimension
  0
DIMENSION
  5
15A
330
1F
100
AcDbEntity
  8
VERMASSUNG
100
AcDbDimension
  2
_D_1
 10
170.8179968077
 20
147.1169138442
 30
0.0
 11
170.8179968077
 21
155.6013737752
 31
0.0
 70
   160
  1
%%c<>
 71
     2
 42
-1.0
  3
SLDDIMSTYLE0
100
AcDbAlignedDimension
 13
193.9596782929
 23
97.1169138442
 33
0.0
 14
193.9596782929
 24
147.1169138442
 34
0.0
 50
90.0
100
AcDbRotatedDimension
  0
DIMENSION
  5
164
330
1F
100
AcDbEntity
  8
VERMASSUNG
100
AcDbDimension
  2
_D_2
 10
231.9596782929
 20
167.7391017475
 30
0.0
 11
180.9596782929
 21
167.7391017475
 31
0.0
 70
   160
  1
<>
 71
     2
 42
-1.0
  3
SLDDIMSTYLE0
100
AcDbAlignedDimension
 13
129.9596782929
 23
153.5919138442
 33
0.0
 14
231.9596782929
 24
141.1169138442
 34
0.0
100
AcDbRotatedDimension
  0
DIMENSION
  5
16E
330
1F
100
AcDbEntity
  8
VERMASSUNG
100
AcDbDimension
  2
_D_3
 10
231.9596782929
 20
177.0103512457
 30
0.0
 11
171.9596782929
 21
177.0103512457
 31
0.0
 70
   160
  1
<>
 71
     2
 42
-1.0
  3
SLDDIMSTYLE0
100
AcDbAlignedDimension
 13
111.9596782929
 23
153.3919138442
 33
0.0
 14
231.9596782929
 24
141.1169138442
 34
0.0
100
AcDbRotatedDimension
  0
DIMENSION
  5
178
330
1F
100
AcDbEntity
  8
VERMASSUNG
100
AcDbDimension
  2
_D_4
 10
231.9596782929
 20
184.8835028455
 30
0.0
 11
151.9846782929
 21
184.8835028455
 31
0.0
 70
   160
  1
<>
 71
     2
 42
-1.0
  3
SLDDIMSTYLE0
100
AcDbAlignedDimension
 13
72.0096782929
 23
144.320008568
 33
0.0
 14
231.9596782929
 24
141.1169138442
 34
0.0
100
AcDbRotatedDimension
  0
DIMENSION
  5
182
330
1F
100
AcDbEntity
  8
VERMASSUNG
100
AcDbDimension
  2
_D_5
 10
62.0096532929
 20
90.6419138442
 30
0.0
 11
62.0096532929
 21
122.1169138442
 31
0.0
 70
   160
  1
KM%%c<> XMZ
 71
     2
 42
-1.0
  3
SLDDIMSTYLE1
100
AcDbAlignedDimension
 13
112.1596782929
 23
153.5919138442
 33
0.0
 14
112.1596782929
 24
90.6419138442
 34
0.0
 50
90.0
100
AcDbRotatedDimension
  0
LINE
  5
190
330
1F
100
AcDbEntity
  8
VERMASSUNG
  6
CENTERX2
370
    18
100
AcDbLine
 10
70.0096782929
 20
122.1169138442
 30
0.0
 11
233.9596782929
 21
122.1169138442
 31
0.0
  0
LINE
  5
191
330
1F
100
AcDbEntity
  8
0
  6
Continuous
 62
     7
370
    25
100
AcDbLine
 10
250.6739881114
 20
29.1441201265
 30
0.0
 11
257.2580370768
 21
25.343229563
 31
0.0
  0
LINE
  5
192
330
1F
100
AcDbEntity
  8
0
  6
Continuous
 62
     7
370
    25
100
AcDbLine
 10
269.6820271289
 20
46.8645430821
 30
0.0
 11
263.0979781635
 21
50.6654336456
 31
0.0
  0
SPLINE
  5
193
330
1F
100
AcDbEntity
  8
0
  6
Continuous
 62
     7
370
    25
100
AcDbSpline
210
0.0
220
0.0
230
1.0
 70
     8
 71
     3
 72
    10
 73
     6
 74
     0
 42
0.000000001
 43
0.00000001
 40
0.0
 40
0.0
 40
0.0
 40
0.0
 40
0.2320275684091448
 40
0.9227893185950422
 40
1.0
 40
1.0
 40
1.0
 40
1.0
 10
268.1440451628489
 20
37.69336181407832
 30
0.0
 10
268.1686502641521
 20
37.79512826579202
 30
0.0
 10
268.2665064147001
 20
38.19986032102407
 30
0.0
 10
268.3505328226093
 20
38.63710651947446
 30
0.0
 10
268.3736175409446
 20
38.95533656920212
 30
0.0
 10
268.3759384404448
 20
38.98733089344123
 30
0.0
  0
LINE
  5
194
330
1F
100
AcDbEntity
  8
0
  6
Continuous
 62
     7
370
    25
100
AcDbLine
 10
256.8845551975
 20
50.0494720175
 30
0.0
 11
256.7078068752
 21
49.9474049683
 31
0.0
  0
LINE
  5
195
330
1F
100
AcDbEntity
  8
0
  6
Continuous
 62
     7
370
    25
100
AcDbLine
 10
248.1001808301
 20
35.0369436148
 30
0.0
 11
248.1001814886
 21
34.8328415534
 31
0.0
  0
LINE
  5
196
330
1F
100
AcDbEntity
  8
0
  6
Continuous
 62
     7
370
    25
100
AcDbLine
 10
258.1981172645
 20
50.6939902469
 30
0.0
 11
257.6429379025
 21
51.0144884706
 31
0.0
  0
LINE
  5
197
330
1F
100
AcDbEntity
  8
0
  6
Continuous
 62
     7
370
    25
100
AcDbLine
 10
247.6437508756
 20
33.6935117341
 30
0.0
 11
248.1989302376
 21
33.3730135104
 31
0.0
  0
SPLINE
  5
198
330
1F
100
AcDbEntity
  8
0
  6
Continuous
 62
     7
370
    25
100
AcDbSpline
210
0.0
220
0.0
230
1.0
 70
     8
 71
     3
 72
    12
 73
     8
 74
     0
 42
0.000000001
 43
0.00000001
 40
0.0
 40
0.0
 40
0.0
 40
0.0
 40
0.2083902313811807
 40
0.42384436417183
 40
0.6407884184483588
 40
0.8607058636383008
 40
1.0
 40
1.0
 40
1.0
 40
1.0
 10
245.0843499140163
 20
32.28831988872026
 30
0.0
 10
245.3061207593458
 20
32.17908341647163
 30
0.0
 10
245.757179920361
 20
31.95690763204193
 30
0.0
 10
246.501735529359
 20
31.75776801657901
 30
0.0
 10
247.2915301838987
 20
31.66339247532133
 30
0.0
 10
248.0111320302027
 20
31.6653522025675
 30
0.0
 10
248.4711752445762
 20
31.74305206103157
 30
0.0
 10
248.6495696102545
 20
31.77318231082314
 30
0.0
  0
SPLINE
  5
199
330
1F
100
AcDbEntity
  8
0
  6
Continuous
 62
     7
370
    25
100
AcDbSpline
210
0.0
220
0.0
230
1.0
 70
     8
 71
     3
 72
    13
 73
     9
 74
     0
 42
0.000000001
 43
0.00000001
 40
0.0
 40
0.0
 40
0.0
 40
0.0
 40
0.021520284266493
 40
0.2455891963326169
 40
0.4665052024779855
 40
0.6834909500949441
 40
0.896635750013953
 40
1.0
 40
1.0
 40
1.0
 40
1.0
 10
259.811721872089
 20
51.11778278111899
 30
0.0
 10
259.8028736684565
 20
51.14561489802482
 30
0.0
 10
259.7018980868987
 20
51.46323464405138
 30
0.0
 10
259.421466690364
 20
52.00003286805296
 30
0.0
 10
258.9691049598748
 20
52.70990910432423
 30
0.0
 10
258.4244189918041
 20
53.30640418280048
 30
0.0
 10
257.9251680708753
 20
53.73411978521528
 30
0.0
 10
257.5864143137554
 20
53.91945357377077
 30
0.0
 10
257.4757854769333
 20
53.97997913554178
 30
0.0
  0
LINE
  5
19A
330
1F
100
AcDbEntity
  8
0
  6
Continuous
 62
     7
370
    25
100
AcDbLine
 10
257.4786224867
 20
53.9960191885
 30
0.0
 11
236.2654182081
 21
66.2421413525
 31
0.0
  0
LINE
  5
19B
330
1F
100
AcDbEntity
  8
0
  6
Continuous
 62
     7
370
    25
100
AcDbLine
 10
223.7664344245
 20
44.5909196714
 30
0.0
 11
244.9796387031
 21
32.3447975074
 31
0.0
  0
LINE
  5
19C
330
1F
100
AcDbEntity
  8
0
  6
Continuous
 62
     7
370
    25
100
AcDbLine
 10
219.0486367159
 20
43.5762042365
 30
0.0
 11
220.7336018649
 21
42.6034945607
 31
0.0
  0
LINE
  5
19D
330
1F
100
AcDbEntity
  8
0
  6
Continuous
 62
     7
370
    25
100
AcDbLine
 10
236.4698231794
 20
69.8623829545
 30
0.0
 11
234.7848580304
 21
70.8350926303
 31
0.0
  0
LINE
  5
19E
330
1F
100
AcDbEntity
  8
0
  6
Continuous
 62
     7
370
    25
100
AcDbLine
 10
214.4403517845
 20
46.2365105011
 30
0.0
 11
216.6910027609
 21
44.9372373483
 31
0.0
  0
LINE
  5
19F
330
1F
100
AcDbEntity
  8
0
  6
Continuous
 62
     7
370
    25
100
AcDbLine
 10
232.4272240754
 20
72.1961257421
 30
0.0
 11
230.176573099
 21
73.495398895
 31
0.0
  0
LINE
  5
1A0
330
1F
100
AcDbEntity
  8
0
  6
Continuous
 62
     7
370
    25
100
AcDbLine
 10
223.3991839088
 20
73.2752808026
 30
0.0
 11
214.2019717252
 21
77.8559334124
 31
0.0
  0
LINE
  5
1A1
330
1F
100
AcDbEntity
  8
0
  6
Continuous
 62
     7
370
    25
100
AcDbLine
 10
202.6756239355
 20
57.8895499568
 30
0.0
 11
211.2417239412
 21
52.2156603604
 31
0.0
  0
LINE
  5
1A2
330
1F
100
AcDbEntity
  8
0
  6
Continuous
 62
     7
370
    25
100
AcDbLine
 10
207.6550613772
 20
58.8360398225
 30
0.0
 11
207.6550613772
 21
58.4707211174
 31
0.0
  0
LINE
  5
1A3
330
1F
100
AcDbEntity
  8
0
  6
Continuous
 62
     7
370
    25
100
AcDbLine
 10
211.5530281375
 20
78.2329017892
 30
0.0
 11
210.9134780288
 21
78.1456900337
 31
0.0
  0
LINE
  5
1A4
330
1F
100
AcDbEntity
  8
0
  6
Continuous
 62
     7
370
    25
100
AcDbLine
 10
271.6304765942
 20
37.0556254691
 30
0.0
 11
271.5335388426
 21
36.8392190239
 31
0.0
  0
LINE
  5
1A5
330
1F
100
AcDbEntity
  8
0
  6
Continuous
 62
     7
370
    25
100
AcDbLine
 10
271.5335388426
 20
36.8392190239
 30
0.0
 11
271.2764476765
 21
36.4925371466
 31
0.0
  0
LINE
  5
1A6
330
1F
100
AcDbEntity
  8
0
  6
Continuous
 62
     7
370
    25
100
AcDbLine
 10
271.2764476765
 20
36.4925371466
 30
0.0
 11
271.1995039947
 21
36.3234247604
 31
0.0
  0
SPLINE
  5
1A7
330
1F
100
AcDbEntity
  8
0
  6
Continuous
 62
     7
370
    25
100
AcDbSpline
210
0.0
220
0.0
230
1.0
 70
     8
 71
     3
 72
     9
 73
     5
 74
     0
 42
0.000000001
 43
0.00000001
 40
0.0
 40
0.0
 40
0.0
 40
0.0
 40
0.5000513205492261
 40
1.0
 40
1.0
 40
1.0
 40
1.0
 10
271.1995039947039
 20
36.3234247604117
 30
0.0
 10
271.0811720127921
 20
35.97423619833668
 30
0.0
 10
270.8445323379245
 20
35.27593074902501
 30
0.0
 10
270.5609255129218
 20
34.60473917035421
 30
0.0
 10
270.4191366552785
 20
34.26917782693926
 30
0.0
  0
LINE
  5
1A8
330
1F
100
AcDbEntity
  8
0
  6
Continuous
 62
     7
370
    25
100
AcDbLine
 10
270.3921653064
 20
34.164743591
 30
0.0
 11
270.4191366553
 21
34.2691778269
 31
0.0
  0
LINE
  5
1A9
330
1F
100
AcDbEntity
  8
0
  6
Continuous
 62
     7
370
    25
100
AcDbLine
 10
270.5301567226
 20
34.1979057785
 30
0.0
 11
270.3921653064
 21
34.164743591
 31
0.0
  0
LINE
  5
1AA
330
1F
100
AcDbEntity
  8
0
  6
Continuous
 62
     7
370
    25
100
AcDbLine
 10
270.4945465869
 20
34.065391967
 30
0.0
 11
270.5301567226
 21
34.1979057785
 31
0.0
  0
ARC
  5
1AB
330
1F
100
AcDbEntity
  8
0
  6
Continuous
 62
     7
370
    25
100
AcDbCircle
 10
252.663017015
 20
42.2737160804
 30
0.0
 40
19.63007976613061
100
AcDbArc
 50
307.9352737902
 51
335.2821356476
  0
LINE
  5
1AC
330
1F
100
AcDbEntity
  8
0
  6
Continuous
 62
     7
370
    25
100
AcDbLine
 10
264.7310183951
 20
26.7913592084
 30
0.0
 11
264.6814408597
 21
26.8163593552
 31
0.0
  0
LINE
  5
1AD
330
1F
100
AcDbEntity
  8
0
  6
Continuous
 62
     7
370
    25
100
AcDbLine
 10
264.6814408597
 20
26.8163593552
 30
0.0
 11
264.9553427737
 21
27.3030395158
 31
0.0
  0
LINE
  5
1AE
330
1F
100
AcDbEntity
  8
0
  6
Continuous
 62
     7
370
    25
100
AcDbLine
 10
264.9553427737
 20
27.3030395158
 30
0.0
 11
264.9155286545
 21
27.3231854636
 31
0.0
  0
SPLINE
  5
1AF
330
1F
100
AcDbEntity
  8
0
  6
Continuous
 62
     7
370
    25
100
AcDbSpline
210
0.0
220
0.0
230
1.0
 70
     8
 71
     3
 72
     9
 73
     5
 74
     0
 42
0.000000001
 43
0.00000001
 40
0.0
 40
0.0
 40
0.0
 40
0.0
 40
0.1217959066396428
 40
1.0
 40
1.0
 40
1.0
 40
1.0
 10
264.915528654512
 20
27.32318546358646
 30
0.0
 10
264.8545100390186
 20
27.28296481634194
 30
0.0
 10
264.3535193474841
 20
26.95273493954058
 30
0.0
 10
263.8046324087426
 20
26.64893658332698
 30
0.0
 10
263.3225976523478
 20
26.38213962334406
 30
0.0
  0
LINE
  5
1B0
330
1F
100
AcDbEntity
  8
0
  6
Continuous
 62
     7
370
    25
100
AcDbLine
 10
263.1502940916
 20
26.2366829258
 30
0.0
 11
263.3225976523
 21
26.3821396233
 31
0.0
  0
LINE
  5
1B1
330
1F
100
AcDbEntity
  8
0
  6
Continuous
 62
     7
370
    25
100
AcDbLine
 10
262.6332788656
 20
25.6063803635
 30
0.0
 11
263.1502940916
 21
26.2366829258
 31
0.0
  0
LINE
  5
1B2
330
1F
100
AcDbEntity
  8
0
  6
Continuous
 62
     7
370
    25
100
AcDbLine
 10
262.4122917436
 20
25.421540145
 30
0.0
 11
262.6332788656
 21
25.6063803635
 31
0.0
  0
LWPOLYLINE
  5
1B3
330
1F
100
AcDbEntity
  8
0
  6
Continuous
 62
     7
370
    25
100
AcDbPolyline
 90
        9
 70
   128
 43
0.0
 10
262.4122917436
 20
25.421540145
 10
261.5656073259
 20
25.1001801029
 10
260.7371282064
 20
24.8840081462
 10
259.9347742061
 20
24.7750928464
 10
259.166214899
 20
24.7744731316
 10
258.4387975015
 20
24.8821562022
 10
257.7594759143
 20
25.0971123093
 10
257.134744374
 20
25.4172874036
 10
256.5705739039
 20
25.8396196815
  0
LINE
  5
1B4
330
1F
100
AcDbEntity
  8
0
  6
Continuous
 62
     7
370
    25
100
AcDbLine
 10
256.5705739039
 20
25.8396196815
 30
0.0
 11
256.7052172798
 21
26.0306387781
 31
0.0
  0
LINE
  5
1B5
330
1F
100
AcDbEntity
  8
0
  6
Continuous
 62
     7
370
    25
100
AcDbLine
 10
256.7052172798
 20
26.0306387781
 30
0.0
 11
257.6397143271
 21
26.6310632189
 31
0.0
  0
LINE
  5
1B6
330
1F
100
AcDbEntity
  8
0
  6
Continuous
 62
     7
370
    25
100
AcDbLine
 10
257.6397143271
 20
26.6310632189
 30
0.0
 11
257.7443260979
 21
26.7813650935
 31
0.0
  0
SPLINE
  5
1B7
330
1F
100
AcDbEntity
  8
0
  6
Continuous
 62
     7
370
    25
100
AcDbSpline
210
0.0
220
0.0
230
1.0
 70
     8
 71
     3
 72
     9
 73
     5
 74
     0
 42
0.000000001
 43
0.00000001
 40
0.0
 40
0.0
 40
0.0
 40
0.0
 40
0.5000512130292563
 40
1.0
 40
1.0
 40
1.0
 40
1.0
 10
257.744326097854
 20
26.78136509353011
 30
0.0
 10
257.6206274019843
 20
26.96013865171565
 30
0.0
 10
257.3732553475896
 20
27.31764914969553
 30
0.0
 10
257.078916305793
 20
27.70227367131853
 30
0.0
 10
256.9317618588888
 20
27.89456623434315
 30
0.0
  0
LINE
  5
1B8
330
1F
100
AcDbEntity
  8
0
  6
Continuous
 62
     7
370
    25
100
AcDbLine
 10
256.7189479328
 20
27.8925005173
 30
0.0
 11
256.9317618589
 21
27.8945662343
 31
0.0
  0
LINE
  5
1B9
330
1F
100
AcDbEntity
  8
0
  6
Continuous
 62
     7
370
    25
100
AcDbLine
 10
255.660437735
 20
27.4619732218
 30
0.0
 11
256.7189479328
 21
27.8925005173
 31
0.0
  0
LINE
  5
1BA
330
1F
100
AcDbEntity
  8
0
  6
Continuous
 62
     7
370
    25
100
AcDbLine
 10
255.3877772596
 20
27.4600348808
 30
0.0
 11
255.660437735
 21
27.4619732218
 31
0.0
  0
LWPOLYLINE
  5
1BB
330
1F
100
AcDbEntity
  8
0
  6
Continuous
 62
     7
370
    25
100
AcDbPolyline
 90
        9
 70
   128
 43
0.0
 10
255.3877772596
 20
27.4600348808
 10
255.0899933113
 20
28.2185680924
 10
254.872317351
 20
29.0524801846
 10
254.7368310381
 20
29.9537997902
 10
254.6848284125
 20
30.913910351
 10
254.7168073338
 20
31.9236341145
 10
254.8324622374
 20
32.9733188034
 10
255.030687427
 20
34.0529299403
 10
255.3095876116
 20
35.1521471759
  0
LINE
  5
1BC
330
1F
100
AcDbEntity
  8
0
  6
Continuous
 62
     7
370
    25
100
AcDbLine
 10
255.3095876116
 20
35.1521471759
 30
0.0
 11
255.5810923414
 21
35.2677782498
 31
0.0
  0
LINE
  5
1BD
330
1F
100
AcDbEntity
  8
0
  6
Continuous
 62
     7
370
    25
100
AcDbLine
 10
255.5810923414
 20
35.2677782498
 30
0.0
 11
256.6451902893
 21
35.1485850283
 31
0.0
  0
LINE
  5
1BE
330
1F
100
AcDbEntity
  8
0
  6
Continuous
 62
     7
370
    25
100
AcDbLine
 10
256.6451902893
 20
35.1485850283
 30
0.0
 11
256.8570987168
 21
35.2397839253
 31
0.0
  0
SPLINE
  5
1BF
330
1F
100
AcDbEntity
  8
0
  6
Continuous
 62
     7
370
    25
100
AcDbSpline
210
0.0
220
0.0
230
1.0
 70
     8
 71
     3
 72
     9
 73
     5
 74
     0
 42
0.000000001
 43
0.00000001
 40
0.0
 40
0.0
 40
0.0
 40
0.0
 40
0.5000513205492261
 40
1.0
 40
1.0
 40
1.0
 40
1.0
 10
256.8570987167517
 20
35.23978392525658
 30
0.0
 10
256.9989160029115
 20
35.57541470977469
 30
0.0
 10
257.2825214656549
 20
36.24660738685726
 30
0.0
 10
257.5191592889251
 20
36.94491359307712
 30
0.0
 10
257.6374660561771
 20
37.29403085872902
 30
0.0
  0
LINE
  5
1C0
330
1F
100
AcDbEntity
  8
0
  6
Continuous
 62
     7
370
    25
100
AcDbLine
 10
257.5294726594
 20
37.4763785839
 30
0.0
 11
257.6374660562
 21
37.2940308587
 31
0.0
  0
LINE
  5
1C1
330
1F
100
AcDbEntity
  8
0
  6
Continuous
 62
     7
370
    25
100
AcDbLine
 10
256.5844744613
 20
37.9090914951
 30
0.0
 11
257.5294726594
 21
37.4763785839
 31
0.0
  0
LINE
  5
1C2
330
1F
100
AcDbEntity
  8
0
  6
Continuous
 62
     7
370
    25
100
AcDbLine
 10
256.4455176189
 20
38.1423806781
 30
0.0
 11
256.5844744613
 21
37.9090914951
 31
0.0
  0
ARC
  5
1C3
330
1F
100
AcDbEntity
  8
0
  6
Continuous
 62
     7
370
    25
100
AcDbCircle
 10
274.2770471908
 20
29.9340565647
 30
0.0
 40
19.6300797661305
100
AcDbArc
 50
127.9352737902
 51
155.2821356476
  0
LINE
  5
1C4
330
1F
100
AcDbEntity
  8
0
  6
Continuous
 62
     7
370
    25
100
AcDbLine
 10
262.2090458106
 20
45.4164134367
 30
0.0
 11
262.4331903243
 21
45.2906379184
 31
0.0
  0
LINE
  5
1C5
330
1F
100
AcDbEntity
  8
0
  6
Continuous
 62
     7
370
    25
100
AcDbLine
 10
262.4331903243
 20
45.2906379184
 30
0.0
 11
262.9662951921
 21
44.3380826591
 31
0.0
  0
LINE
  5
1C6
330
1F
100
AcDbEntity
  8
0
  6
Continuous
 62
     7
370
    25
100
AcDbLine
 10
262.9662951921
 20
44.3380826591
 30
0.0
 11
263.1410740569
 21
44.2400232221
 31
0.0
  0
SPLINE
  5
1C7
330
1F
100
AcDbEntity
  8
0
  6
Continuous
 62
     7
370
    25
100
AcDbSpline
210
0.0
220
0.0
230
1.0
 70
     8
 71
     3
 72
     9
 73
     5
 74
     0
 42
0.000000001
 43
0.00000001
 40
0.0
 40
0.0
 40
0.0
 40
0.0
 40
0.1217959066396428
 40
1.0
 40
1.0
 40
1.0
 40
1.0
 10
264.7340050591078
 20
45.18106906232423
 30
0.0
 10
264.6729864436144
 20
45.1408484150797
 30
0.0
 10
264.17199575208
 20
44.81061853827835
 30
0.0
 10
263.6231088133384
 20
44.50682018206475
 30
0.0
 10
263.1410740569436
 20
44.24002322208182
 30
0.0
  0
LINE
  5
1C8
330
1F
100
AcDbEntity
  8
0
  6
Continuous
 62
     7
370
    25
100
AcDbLine
 10
264.7713438742
 20
45.4044392491
 30
0.0
 11
264.7340050591
 21
45.1810690623
 31
0.0
  0
LINE
  5
1C9
330
1F
100
AcDbEntity
  8
0
  6
Continuous
 62
     7
370
    25
100
AcDbLine
 10
264.4813523184
 20
46.5006169101
 30
0.0
 11
264.7713438742
 21
45.4044392491
 31
0.0
  0
LINE
  5
1CA
330
1F
100
AcDbEntity
  8
0
  6
Continuous
 62
     7
370
    25
100
AcDbLine
 10
264.5277724622
 20
46.7862325001
 30
0.0
 11
264.4813523184
 21
46.5006169101
 31
0.0
  0
LWPOLYLINE
  5
1CB
330
1F
100
AcDbEntity
  8
0
  6
Continuous
 62
     7
370
    25
100
AcDbPolyline
 90
        9
 70
   128
 43
0.0
 10
264.5277724622
 20
46.7862325001
 10
265.3744568799
 20
47.1075925422
 10
266.2029359994
 20
47.3237644989
 10
267.0052899996
 20
47.4326797987
 10
267.7738493068
 20
47.4332995135
 10
268.5012667043
 20
47.3256164429
 10
269.1805882915
 20
47.1106603357
 10
269.8053198317
 20
46.7904852414
 10
270.3694903019
 20
46.3681529635
  0
LINE
  5
1CC
330
1F
100
AcDbEntity
  8
0
  6
Continuous
 62
     7
370
    25
100
AcDbLine
 10
270.3694903019
 20
46.3681529635
 30
0.0
 11
270.4094139042
 21
46.0763584955
 31
0.0
  0
LINE
  5
1CD
330
1F
100
AcDbEntity
  8
0
  6
Continuous
 62
     7
370
    25
100
AcDbLine
 10
270.4094139042
 20
46.0763584955
 30
0.0
 11
270.2819236387
 21
45.010058956
 31
0.0
  0
LINE
  5
1CE
330
1F
100
AcDbEntity
  8
0
  6
Continuous
 62
     7
370
    25
100
AcDbLine
 10
270.2819236387
 20
45.010058956
 30
0.0
 11
270.3122766136
 21
44.7818435921
 31
0.0
  0
SPLINE
  5
1CF
330
1F
100
AcDbEntity
  8
0
  6
Continuous
 62
     7
370
    25
100
AcDbSpline
210
0.0
220
0.0
230
1.0
 70
     8
 71
     3
 72
     9
 73
     5
 74
     0
 42
0.000000001
 43
0.00000001
 40
0.0
 40
0.0
 40
0.0
 40
0.0
 40
0.5000512130292563
 40
1.0
 40
1.0
 40
1.0
 40
1.0
 10
270.3122766136017
 20
44.78184359213817
 30
0.0
 10
270.4594606103519
 20
44.58951225833962
 30
0.0
 10
270.753798455987
 20
44.2048889861883
 30
0.0
 10
271.0011684994198
 20
43.84737909016968
 30
0.0
 10
271.1248408525669
 20
43.66864245132514
 30
0.0
  0
LINE
  5
1D0
330
1F
100
AcDbEntity
  8
0
  6
Continuous
 62
     7
370
    25
100
AcDbLine
 10
271.202690033
 20
43.7486216576
 30
0.0
 11
271.1248408526
 21
43.6686424513
 31
0.0
  0
LINE
  5
1D1
330
1F
100
AcDbEntity
  8
0
  6
Continuous
 62
     7
370
    25
100
AcDbLine
 10
271.454193449
 20
44.6450240518
 30
0.0
 11
271.202690033
 21
43.7486216576
 31
0.0
  0
LINE
  5
1D2
330
1F
100
AcDbEntity
  8
0
  6
Continuous
 62
     7
370
    25
100
AcDbLine
 10
271.5522869462
 20
44.7477377643
 30
0.0
 11
271.454193449
 21
44.6450240518
 31
0.0
  0
LWPOLYLINE
  5
1D3
330
1F
100
AcDbEntity
  8
0
  6
Continuous
 62
     7
370
    25
100
AcDbPolyline
 90
        9
 70
   128
 43
0.0
 10
271.5522869462
 20
44.7477377643
 10
271.8500708945
 20
43.9892045527
 10
272.0677468547
 20
43.1552924604
 10
272.2032331676
 20
42.2539728549
 10
272.2552357932
 20
41.2938622941
 10
272.2232568719
 20
40.2841385306
 10
272.1076019684
 20
39.2344538417
 10
271.9093767787
 20
38.1548427048
 10
271.6304765942
 20
37.0556254691
  0
LWPOLYLINE
  5
1D4
330
1F
100
AcDbEntity
  8
0
  6
Continuous
 62
     7
370
    25
100
AcDbPolyline
 90
       53
 70
   128
 43
0.0
 10
257.9471005129
 20
31.4463413912
 10
257.9866270129
 20
32.4047754486
 10
258.1235272208
 20
33.4070987015
 10
258.3558044299
 20
34.4386948185
 10
258.6800717456
 20
35.4845210209
 10
259.0916001599
 20
36.5293260988
 10
259.5843893445
 20
37.5578756916
 10
260.1512529324
 20
38.5551701532
 10
260.7839245438
 20
39.5066669767
 10
261.4731789578
 20
40.3984910515
 10
262.2089649743
 20
41.2176379794
 10
262.9805532569
 20
41.9521624656
 10
263.7766922434
 20
42.5913538755
 10
264.5857724886
 20
43.125891185
 10
265.3959957305
 20
43.5479793634
 10
266.19554713
 20
43.8514632543
 10
266.9727674498
 20
44.0319178468
 10
267.7163231391
 20
44.0867114818
 10
268.4153710978
 20
44.015045455
 10
269.059718374
 20
43.8179644582
 10
269.6399681961
 20
43.4983424018
 10
270.1476595844
 20
43.0608405766
 10
270.5753888521
 20
42.5118378698
 10
270.9169192536
 20
41.8593406396
 10
271.1672702167
 20
41.1128635045
 10
271.3227914291
 20
40.283292073
 10
271.3812148637
 20
39.3827231995
 10
271.3416883638
 20
38.4242891421
 10
271.2047881558
 20
37.4219658893
 10
270.9725109468
 20
36.3903697722
 10
270.6482436311
 20
35.3445435698
 10
270.2367152168
 20
34.299738492
 10
269.7439260322
 20
33.2711888991
 10
269.1770624442
 20
32.2738944375
 10
268.5443908329
 20
31.322397614
 10
267.8551364188
 20
30.4305735392
 10
267.1193504023
 20
29.6114266113
 10
266.3477621197
 20
28.8769021252
 10
265.5516231333
 20
28.2377107153
 10
264.742542888
 20
27.7031734057
 10
263.9323196461
 20
27.2810852273
 10
263.1327682467
 20
26.9776013365
 10
262.3555479268
 20
26.797146744
 10
261.6119922376
 20
26.7423531089
 10
260.9129442789
 20
26.8140191357
 10
260.2685970027
 20
27.0111001326
 10
259.6883471805
 20
27.330722189
 10
259.1806557922
 20
27.7682240141
 10
258.7529265245
 20
28.3172267209
 10
258.411396123
 20
28.9697239512
 10
258.16104516
 20
29.7162010862
 10
258.0055239475
 20
30.5457725177
 10
257.9471005129
 20
31.4463413912
  0
LINE
  5
1D5
330
1F
100
AcDbEntity
  8
0
  6
Continuous
 62
     7
370
    25
100
AcDbLine
 10
260.3820899046
 20
49.1794840987
 30
0.0
 11
264.5277724622
 21
46.7862325001
 31
0.0
  0
SPLINE
  5
1D6
330
1F
100
AcDbEntity
  8
0
  6
Continuous
 62
     7
370
    25
100
AcDbSpline
210
0.0
220
0.0
230
1.0
 70
     8
 71
     3
 72
    17
 73
    13
 74
     0
 42
0.000000001
 43
0.00000001
 40
0.0
 40
0.0
 40
0.0
 40
0.0
 40
0.0838164114117272
 40
0.2002649021019707
 40
0.3144082510651759
 40
0.4226827404878402
 40
0.5326536604668056
 40
0.6305352286104478
 40
0.7286820411539019
 40
0.8323788804455224
 40
0.9426002433838954
 40
1.0
 40
1.0
 40
1.0
 40
1.0
 10
260.3820899046308
 20
49.17948409874115
 30
0.0
 10
260.2696600062945
 20
49.2368458187344
 30
0.0
 10
260.001028097526
 20
49.37390178480791
 30
0.0
 10
259.4676614568493
 20
49.51254593958709
 30
0.0
 10
258.8589840197551
 20
49.55263821656032
 30
0.0
 10
258.2911291364485
 20
49.45975475697347
 30
0.0
 10
257.8556371691042
 20
49.24378727039406
 30
0.0
 10
257.5916708897807
 20
48.94422157880724
 30
0.0
 10
257.4993598609136
 20
48.60695881517155
 30
0.0
 10
257.5816926721122
 20
48.25572656889862
 30
0.0
 10
257.7957767235101
 20
47.98247528288313
 30
0.0
 10
257.9951055788201
 20
47.85374657269436
 30
0.0
 10
258.0633632531022
 20
47.80966503539178
 30
0.0
  0
LINE
  5
1D7
330
1F
100
AcDbEntity
  8
0
  6
Continuous
 62
     7
370
    25
100
AcDbLine
 10
258.0633632531
 20
47.8096650354
 30
0.0
 11
262.2090458106
 21
45.4164134367
 31
0.0
  0
LINE
  5
1D8
330
1F
100
AcDbEntity
  8
0
  6
Continuous
 62
     7
370
    25
100
AcDbLine
 10
252.2998350613
 20
40.5356322767
 30
0.0
 11
256.4455176189
 21
38.1423806781
 31
0.0
  0
SPLINE
  5
1D9
330
1F
100
AcDbEntity
  8
0
  6
Continuous
 62
     7
370
    25
100
AcDbSpline
210
0.0
220
0.0
230
1.0
 70
     8
 71
     3
 72
    17
 73
    13
 74
     0
 42
0.000000001
 43
0.00000001
 40
0.0
 40
0.0
 40
0.0
 40
0.0
 40
0.0838165863229762
 40
0.200265332518346
 40
0.3144088978066227
 40
0.4226837140448592
 40
0.532791309597857
 40
0.6306721989585198
 40
0.7288249734473918
 40
0.8325315245161469
 40
0.9427612139616702
 40
1.0
 40
1.0
 40
1.0
 40
1.0
 10
251.1639050540782
 20
37.54539877462483
 30
0.0
 10
251.0616931750599
 20
37.61565652474535
 30
0.0
 10
250.8174754511353
 20
37.78352534769716
 30
0.0
 10
250.512507086927
 20
38.21042685592059
 30
0.0
 10
250.3180345305037
 20
38.77327782889506
 30
0.0
 10
250.2998522505941
 20
39.37438272760093
 30
0.0
 10
250.4631012917529
 20
39.91404794307294
 30
0.0
 10
250.76785752081
 20
40.33188993781187
 30
0.0
 10
251.1598365843418
 20
40.60548745645075
 30
0.0
 10
251.6145012797332
 20
40.72385031532251
 30
0.0
 10
252.0103923508933
 20
40.68016089165555
 30
0.0
 10
252.2261064721483
 20
40.5724474753576
 30
0.0
 10
252.2998350613426
 20
40.53563227672917
 30
0.0
  0
LINE
  5
1DA
330
1F
100
AcDbEntity
  8
0
  6
Continuous
 62
     7
370
    25
100
AcDbLine
 10
251.1639050541
 20
37.5453987746
 30
0.0
 11
255.3095876116
 21
35.1521471759
 31
0.0
  0
LINE
  5
1DB
330
1F
100
AcDbEntity
  8
0
  6
Continuous
 62
     7
370
    25
100
AcDbLine
 10
251.2420947021
 20
29.8532864794
 30
0.0
 11
255.3877772596
 21
27.4600348808
 31
0.0
  0
SPLINE
  5
1DC
330
1F
100
AcDbEntity
  8
0
  6
Continuous
 62
     7
370
    25
100
AcDbSpline
210
0.0
220
0.0
230
1.0
 70
     8
 71
     3
 72
    18
 73
    14
 74
     0
 42
0.000000001
 43
0.00000001
 40
0.0
 40
0.0
 40
0.0
 40
0.0
 40
0.0838022519469736
 40
0.2002310342297191
 40
0.3143550882352028
 40
0.4226112577629939
 40
0.523577952520165
 40
0.5374369289625146
 40
0.6352752828275502
 40
0.7336001766678167
 40
0.8375987152828248
 40
0.9480868961302097
 40
1.0
 40
1.0
 40
1.0
 40
1.0
 10
252.4248913463196
 20
28.23287128021309
 30
0.0
 10
252.3152535169644
 20
28.29758440102136
 30
0.0
 10
252.0532928243524
 20
28.45220524719949
 30
0.0
 10
251.5831615599576
 20
28.75728721247465
 30
0.0
 10
251.0943732868386
 20
29.11306475519075
 30
0.0
 10
250.7057359425183
 20
29.45374764739115
 30
0.0
 10
250.5314243731816
 20
29.664033268634
 30
0.0
 10
250.4279221999212
 20
29.83615135136369
 30
0.0
 10
250.3848791722019
 20
29.97996863256714
 30
0.0
 10
250.4721868673889
 20
30.09184040302915
 30
0.0
 10
250.6976550415108
 20
30.09506927089992
 30
0.0
 10
250.9788071311185
 20
29.9978807706731
 30
0.0
 10
251.1783188860321
 20
29.88831137211185
 30
0.0
 10
251.2420947020555
 20
29.85328647943095
 30
0.0
  0
LINE
  5
1DD
330
1F
100
AcDbEntity
  8
0
  6
Continuous
 62
     7
370
    25
100
AcDbLine
 10
252.4248913463
 20
28.2328712802
 30
0.0
 11
256.5705739039
 21
25.8396196815
 31
0.0
  0
LINE
  5
1DE
330
1F
100
AcDbEntity
  8
0
  6
Continuous
 62
     7
370
    25
100
AcDbLine
 10
270.3346065408
 20
45.4506896996
 30
0.0
 11
271.5522869462
 21
44.7477377643
 31
0.0
  0
LWPOLYLINE
  5
1DF
330
1F
100
AcDbEntity
  8
0
  6
Continuous
 62
     7
370
    25
100
AcDbPolyline
 90
       24
 70
   128
 43
0.0
 10
248.1007794471
 20
34.7148009145
 10
248.1381893849
 20
35.7974690997
 10
248.2714425734
 20
36.9251381772
 10
248.4990777022
 20
38.0854523898
 10
248.8186015218
 20
39.2656994085
 10
249.2265138683
 20
40.4529486508
 10
249.7183445413
 20
41.6341918676
 10
250.2887053299
 20
42.7964872468
 10
250.9313473051
 20
43.9270999025
 10
251.6392299676
 20
45.0136444561
 10
252.4045966509
 20
46.0442141174
 10
253.2190627664
 20
47.0075190805
 10
254.0737040482
 20
47.893005148
 10
254.9591573104
 20
48.6909704526
 10
255.8657213693
 20
49.3926723872
 10
256.7834635523
 20
49.9904225526
 10
257.7023289859
 20
50.477672661
 10
258.612250387
 20
50.8490832411
 10
259.5032584721
 20
51.1005866152
 10
260.3655910598
 20
51.2294263084
 10
261.1898003413
 20
51.234190077
 10
261.9668561897
 20
51.1148269619
 10
262.6882449415
 20
50.8726442371
 10
263.0979781635
 20
50.6654336456
  0
LWPOLYLINE
  5
1E0
330
1F
100
AcDbEntity
  8
0
  6
Continuous
 62
     7
370
    25
100
AcDbPolyline
 90
        9
 70
   128
 43
0.0
 10
250.6739881114
 20
29.1441201265
 10
250.4259038585
 20
29.2992588233
 10
249.8388634546
 20
29.7778043827
 10
249.3290334431
 20
30.3673029783
 10
248.9019989398
 20
31.0612966155
 10
248.5624382449
 20
31.8521806065
 10
248.314072135
 20
32.7312906486
 10
248.1596217159
 20
33.6889950338
 10
248.1007794471
 20
34.7148009145
  0
LWPOLYLINE
  5
1E1
330
1F
100
AcDbEntity
  8
0
  6
Continuous
 62
     7
370
    25
100
AcDbPolyline
 90
       45
 70
   128
 43
0.0
 10
259.8738354608
 20
32.5845856974
 10
259.9146385493
 20
33.3960390487
 10
260.0521278253
 20
34.2485829486
 10
260.2835051332
 20
35.1248624944
 10
260.6040599043
 20
36.0070387618
 10
261.0072662917
 20
36.8771533665
 10
261.4849165258
 20
37.7174930464
 10
262.0272870325
 20
38.5109512454
 10
262.6233364899
 20
39.2413751518
 10
263.26093138
 20
39.8938955277
 10
263.9270917082
 20
40.4552290171
 10
264.6082566644
 20
40.9139486206
 10
265.2905595855
 20
41.2607158124
 10
265.9601108006
 20
41.4884719602
 10
266.6032801877
 20
41.5925797689
 10
267.2069745236
 20
41.5709202728
 10
267.758904627
 20
41.4239348855
 10
268.2478344115
 20
41.1546151817
 10
268.6638109647
 20
40.7684438919
 10
268.9983660627
 20
40.2732825256
 10
269.2446890383
 20
39.6792107069
 10
269.3977657335
 20
38.9983226427
 10
269.4544799158
 20
38.2444788934
 10
269.4136768274
 20
37.433025542
 10
269.2761875514
 20
36.5804816421
 10
269.0448102434
 20
35.7042020963
 10
268.7242554723
 20
34.822025829
 10
268.321049085
 20
33.9519112242
 10
267.8433988508
 20
33.1115715444
 10
267.3010283441
 20
32.3181133454
 10
266.7049788868
 20
31.587689439
 10
266.0673839967
 20
30.9351690631
 10
265.4012236684
 20
30.3738355736
 10
264.7200587122
 20
29.9151159701
 10
264.0377557911
 20
29.5683487783
 10
263.368204576
 20
29.3405926305
 10
262.725035189
 20
29.2364848218
 10
262.1213408531
 20
29.2581443179
 10
261.5694107497
 20
29.4051297052
 10
261.0804809652
 20
29.6744494091
 10
260.664504412
 20
30.0606206989
 10
260.3299493139
 20
30.5557820652
 10
260.0836263384
 20
31.1498538839
 10
259.9305496431
 20
31.8307419481
 10
259.8738354608
 20
32.5845856974
  0
ARC
  5
1E2
330
1F
100
AcDbEntity
  8
0
  6
Continuous
 62
     7
370
    25
100
AcDbCircle
 10
261.0395734906
 20
39.9698768677
 30
0.0
 40
7.39334731163982
100
AcDbArc
 50
353.6157503249
 51
7.776408805
  0
ARC
  5
1E3
330
1F
100
AcDbEntity
  8
0
  6
Continuous
 62
     7
370
    25
100
AcDbCircle
 10
257.0541665915
 20
39.3102434175
 30
0.0
 40
10.91829475937013
100
AcDbArc
 50
295.204401415
 51
332.4222944942
  0
ARC
  5
1E4
330
1F
100
AcDbEntity
  8
0
  6
Continuous
 62
     7
370
    25
100
AcDbCircle
 10
255.9087986533
 20
40.6433321255
 30
0.0
 40
12.5675771690658
100
AcDbArc
 50
329.4513172625
 51
353.1655041336
  0
LWPOLYLINE
  5
1E5
330
1F
100
AcDbEntity
  8
0
  6
Continuous
 62
     7
370
    25
100
AcDbPolyline
 90
       24
 70
   128
 43
0.0
 10
267.9258133911
 20
41.349317915
 10
268.0011857856
 20
41.2970024026
 10
268.4171623388
 20
40.9108311128
 10
268.7517174369
 20
40.4156697465
 10
268.9980404124
 20
39.8215979278
 10
269.1511171077
 20
39.1407098636
 10
269.20783129
 20
38.3868661143
 10
269.1670282015
 20
37.5754127629
 10
269.0295389255
 20
36.722868863
 10
268.7981616176
 20
35.8465893172
 10
268.4776068465
 20
34.9644130499
 10
268.0744004591
 20
34.0942984451
 10
267.596750225
 20
33.2539587653
 10
267.0543797183
 20
32.4605005663
 10
266.4583302609
 20
31.7300766599
 10
265.8207353708
 20
31.077556284
 10
265.1545750426
 20
30.5162227945
 10
264.4734100864
 20
30.057503191
 10
263.7911071653
 20
29.7107359992
 10
263.1215559502
 20
29.4829798514
 10
262.4783865631
 20
29.3788720427
 10
261.8746922272
 20
29.4005315388
 10
261.3227621238
 20
29.5475169261
 10
261.1558540183
 20
29.622133617
  0
ARC
  5
1E6
330
1F
100
AcDbEntity
  8
0
  6
Continuous
 62
     7
370
    25
100
AcDbCircle
 10
251.7028605343
 20
42.8706988278
 30
0.0
 40
15.94648991634504
100
AcDbArc
 50
308.0737299943
 51
354.6908477548
  0
LINE
  5
1E7
330
1F
100
AcDbEntity
  8
0
  6
Continuous
 62
     7
370
    25
100
AcDbLine
 10
252.3515084147
 20
40.3527307795
 30
0.0
 11
256.5844744613
 21
37.9090914951
 31
0.0
  0
LINE
  5
1E8
330
1F
100
AcDbEntity
  8
0
  6
Continuous
 62
     7
370
    25
100
AcDbLine
 10
252.1531469064
 20
37.9553175036
 30
0.0
 11
256.8570987168
 21
35.2397839253
 31
0.0
  0
LWPOLYLINE
  5
1E9
330
1F
100
AcDbEntity
  8
0
  6
Continuous
 62
     7
370
    25
100
AcDbPolyline
 90
       10
 70
   128
 43
0.0
 10
252.1531469064
 20
37.9553175036
 10
251.9042513267
 20
38.1745292834
 10
251.7324377231
 20
38.4911868523
 10
251.6584318084
 20
38.8670963981
 10
251.6911542264
 20
39.2569196485
 10
251.8266635884
 20
39.6136355127
 10
252.0486154781
 20
39.8942196747
 10
252.3302334758
 20
40.0648311454
 10
252.6375564414
 20
40.1048898209
 10
252.9335142458
 20
40.0095644371
  0
LINE
  5
1EA
330
1F
100
AcDbEntity
  8
0
  6
Continuous
 62
     7
370
    25
100
AcDbLine
 10
252.9335142458
 20
40.0095644371
 30
0.0
 11
257.6374660562
 21
37.2940308587
 31
0.0
  0
LINE
  5
1EB
330
1F
100
AcDbEntity
  8
0
  6
Continuous
 62
     7
370
    25
100
AcDbLine
 10
251.3481262947
 20
37.7114175342
 30
0.0
 11
255.5810923414
 21
35.2677782498
 31
0.0
  0
LINE
  5
1EC
330
1F
100
AcDbEntity
  8
0
  6
Continuous
 62
     7
370
    25
100
AcDbLine
 10
252.0087208518
 20
37.825161862
 30
0.0
 11
256.6451902893
 21
35.1485850283
 31
0.0
  0
SPLINE
  5
1ED
330
1F
100
AcDbEntity
  8
0
  6
Continuous
 62
     7
370
    25
100
AcDbSpline
210
0.0
220
0.0
230
1.0
 70
     8
 71
     3
 72
    33
 73
    29
 74
     0
 42
0.000000001
 43
0.00000001
 40
0.0
 40
0.0
 40
0.0
 40
0.0
 40
0.1360433755324682
 40
0.2564974758216232
 40
0.3952119469162302
 40
0.4390196432187202
 40
0.5805344421801999
 40
0.6626747236886301
 40
0.6927083050839331
 40
0.7067466244917232
 40
0.7137020517262971
 40
0.7160333414349824
 40
0.7176137648820565
 40
0.7186835447792285
 40
0.7194109081785517
 40
0.7199097311388544
 40
0.7203814521542655
 40
0.7206121378956197
 40
0.7207889492817363
 40
0.7209100018328369
 40
0.721032221988943
 40
0.7211762483685618
 40
0.7214210877167355
 40
0.7221861739683392
 40
0.7257081193774837
 40
0.7396849070866603
 40
0.7955109980393262
 40
1.0
 40
1.0
 40
1.0
 40
1.0
 10
268.0736243644322
 20
41.17379575911037
 30
0.0
 10
268.1145909295568
 20
40.98563775665878
 30
0.0
 10
268.1918296815825
 20
40.63088286693647
 30
0.0
 10
268.3076716287306
 20
40.01414913256006
 30
0.0
 10
268.0904433611471
 20
39.5137729682051
 30
0.0
 10
268.5603533755461
 20
38.98452853669335
 30
0.0
 10
268.1323164543322
 20
38.64211558149365
 30
0.0
 10
268.1451129625765
 20
38.17264593047202
 30
0.0
 10
268.1048267124236
 20
37.9486013206668
 30
0.0
 10
268.0916012662465
 20
37.85622993171948
 30
0.0
 10
268.0862179944453
 20
37.81353401865916
 30
0.0
 10
268.0843846503885
 20
37.79336982962047
 30
0.0
 10
268.0837989154967
 20
37.7840406287233
 30
0.0
 10
268.0836286132528
 20
37.77765490768203
 30
0.0
 10
268.0837046061577
 20
37.77327452880967
 30
0.0
 10
268.0839517051108
 20
37.77002021938191
 30
0.0
 10
268.0843083887215
 20
37.7677089576927
 30
0.0
 10
268.0848155094088
 20
37.76608061033311
 30
0.0
 10
268.0852831095488
 20
37.76518858945789
 30
0.0
 10
268.0857952063804
 20
37.76465266311358
 30
0.0
 10
268.0863508994367
 20
37.76440156696964
 30
0.0
 10
268.0870857800404
 20
37.76443435840295
 30
0.0
 10
268.0885591787993
 20
37.76523795403578
 30
0.0
 10
268.092996547486
 20
37.77089628257715
 30
0.0
 10
268.1055353104681
 20
37.79929255575745
 30
0.0
 10
268.1460279975368
 20
37.9199413920142
 30
0.0
 10
268.2715376775212
 20
38.3832481648281
 30
0.0
 10
268.3362425782344
 20
38.81142011802451
 30
0.0
 10
268.3870711353523
 20
39.1477680969173
 30
0.0
  0
ARC
  5
1EE
330
1F
100
AcDbEntity
  8
0
  6
Continuous
 62
     7
370
    25
100
AcDbCircle
 10
266.7294344078
 20
34.2222735617
 30
0.0
 40
18.64705810996053
100
AcDbArc
 50
122.5093653838
 51
177.4960115856
  0
ARC
  5
1EF
330
1F
100
AcDbEntity
  8
0
  6
Continuous
 62
     7
370
    25
100
AcDbCircle
 10
258.7482503175
 20
35.628062338
 30
0.0
 40
6.506403447996459
100
AcDbArc
 50
292.132043891
 51
300.7870089602
  0
LWPOLYLINE
  5
1F0
330
1F
100
AcDbEntity
  8
0
  6
Continuous
 62
     7
370
    25
100
AcDbPolyline
 90
        3
 70
   128
 43
0.0
 10
261.5658873308
 20
30.3345158494
 10
260.8191387296
 20
29.9523088521
 10
260.7789589536
 20
29.9351143738
  0
LINE
  5
1F1
330
1F
100
AcDbEntity
  8
0
  6
Continuous
 62
     7
370
    25
100
AcDbLine
 10
258.2002242777
 20
47.7342772028
 30
0.0
 11
262.4331903243
 21
45.2906379184
 31
0.0
  0
LWPOLYLINE
  5
1F2
330
1F
100
AcDbEntity
  8
0
  6
Continuous
 62
     7
370
    25
100
AcDbPolyline
 90
       11
 70
   128
 43
0.0
 10
251.3481262947
 20
37.7114175342
 10
251.0562000998
 20
37.9587557472
 10
250.8419597663
 20
38.3111565168
 10
250.7263733513
 20
38.7341273822
 10
250.7207592594
 20
39.1862627187
 10
250.825664741
 20
39.6233050662
 10
251.0308211115
 20
40.0024730469
 10
251.3161467149
 20
40.2866524724
 10
251.6537126784
 20
40.4480236577
 10
252.0104732387
 20
40.4707937684
 10
252.3515084147
 20
40.3527307795
  0
LINE
  5
1F3
330
1F
100
AcDbEntity
  8
0
  6
Continuous
 62
     7
370
    25
100
AcDbLine
 10
262.9639466577
 20
44.3422766931
 30
0.0
 11
263.1410740569
 21
44.2400232221
 31
0.0
  0
ARC
  5
1F4
330
1F
100
AcDbEntity
  8
0
  6
Continuous
 62
     7
370
    25
100
AcDbCircle
 10
259.2527991335
 20
46.5704019984
 30
0.0
 40
1.537183171650845
100
AcDbArc
 50
59.626464147
 51
131.7394258997
  0
LINE
  5
1F5
330
1F
100
AcDbEntity
  8
0
  6
Continuous
 62
     7
370
    25
100
AcDbLine
 10
260.0300532487
 20
47.8966026407
 30
0.0
 11
264.7340050591
 21
45.1810690623
 31
0.0
  0
ARC
  5
1F6
330
1F
100
AcDbEntity
  8
0
  6
Continuous
 62
     7
370
    25
100
AcDbCircle
 10
252.7515870187
 20
38.9439043897
 30
0.0
 40
1.342920319705526
100
AcDbArc
 50
100.5733115914
 51
236.4150885487
  0
LINE
  5
1F7
330
1F
100
AcDbEntity
  8
0
  6
Continuous
 62
     7
370
    25
100
AcDbLine
 10
260.1348744366
 20
48.0810160828
 30
0.0
 11
264.7713438742
 21
45.4044392491
 31
0.0
  0
LINE
  5
1F8
330
1F
100
AcDbEntity
  8
0
  6
Continuous
 62
     7
370
    25
100
AcDbLine
 10
260.2483862717
 20
48.9442561945
 30
0.0
 11
264.4813523184
 21
46.5006169101
 31
0.0
  0
LWPOLYLINE
  5
1F9
330
1F
100
AcDbEntity
  8
0
  6
Continuous
 62
     7
370
    25
100
AcDbPolyline
 90
       11
 70
   128
 43
0.0
 10
260.2483862717
 20
48.9442561945
 10
259.8817835168
 20
49.0973464595
 10
259.4508234297
 20
49.1762294429
 10
258.9976880087
 20
49.1731867342
 10
258.5667368737
 20
49.0885126687
 10
258.2001526712
 20
48.9304974238
 10
257.9338200163
 20
48.7146089528
 10
257.793808556
 20
48.4619789644
 10
257.7938255135
 20
48.1973361955
 10
257.9338656616
 20
47.9465877595
 10
258.2002242777
 20
47.7342772028
  0
ARC
  5
1FA
330
1F
100
AcDbEntity
  8
0
  6
Continuous
 62
     7
370
    25
100
AcDbCircle
 10
259.2577511543
 20
46.6127235866
 30
0.0
 40
1.710329823962727
100
AcDbArc
 50
59.1469018073
 51
134.5908096375
  0
ARC
  5
1FB
330
1F
100
AcDbEntity
  8
0
  6
Continuous
 62
     7
370
    25
100
AcDbCircle
 10
258.4354539905
 20
37.7630070123
 30
0.0
 40
8.503654856297548
100
AcDbArc
 50
300.7679181749
 51
309.4462231233
  0
SPLINE
  5
1FC
330
1F
100
AcDbEntity
  8
0
  6
Continuous
 62
     7
370
    25
100
AcDbSpline
210
0.0
220
0.0
230
1.0
 70
     8
 71
     3
 72
    31
 73
    27
 74
     0
 42
0.000000001
 43
0.00000001
 40
0.0
 40
0.0
 40
0.0
 40
0.0
 40
0.0524418718415162
 40
0.1934244487819511
 40
0.2035858666105068
 40
0.2086292700608222
 40
0.210323870926316
 40
0.211471824139745
 40
0.2122490707251242
 40
0.212778094390196
 40
0.2131413619898313
 40
0.2134971520734776
 40
0.2136519920016386
 40
0.213808832624221
 40
0.2138976892993961
 40
0.2139868556344571
 40
0.2141117368336877
 40
0.2143446366639175
 40
0.2153602041576557
 40
0.2193680548343358
 40
0.2353302385424217
 40
0.299142056807471
 40
0.4267432062458937
 40
0.5988597184475258
 40
0.7709743645108784
 40
0.9999999999999999
 40
0.9999999999999999
 40
0.9999999999999999
 40
0.9999999999999999
 10
266.7319660406908
 20
34.25560611350578
 30
0.0
 10
266.7944342719302
 20
34.37245676746507
 30
0.0
 10
267.0248395334049
 20
34.80344392597449
 30
0.0
 10
267.2421385580838
 20
35.27182278536522
 30
0.0
 10
267.3756625695253
 20
35.64174232664567
 30
0.0
 10
267.3887580586056
 20
35.68230455145684
 30
0.0
 10
267.3941276231386
 20
35.70148162307901
 30
0.0
 10
267.3963062837305
 20
35.7103685849745
 30
0.0
 10
267.39754580964
 20
35.7164488222202
 30
0.0
 10
267.3981788273904
 20
35.72062319190275
 30
0.0
 10
267.398448388375
 20
35.72375296184762
 30
0.0
 10
267.3984362377544
 20
35.72595537239035
 30
0.0
 10
267.3981292197214
 20
35.72755327856104
 30
0.0
 10
267.3977328934188
 20
35.72842113341975
 30
0.0
 10
267.3971813251887
 20
35.72888961050391
 30
0.0
 10
267.3965773769168
 20
35.72905416632353
 30
0.0
 10
267.3956457092684
 20
35.72890666890705
 30
0.0
 10
267.3929871611432
 20
35.72736004795848
 30
0.0
 10
267.3847307548866
 20
35.71770886625207
 30
0.0
 10
267.3574507311604
 20
35.67425982485436
 30
0.0
 10
267.2584495700564
 20
35.49121228023238
 30
0.0
 10
267.0149656468764
 20
35.03314100454867
 30
0.0
 10
266.546860564824
 20
34.24094691898209
 30
0.0
 10
265.8583247725803
 20
33.26536533149032
 30
0.0
 10
264.9371015541331
 20
32.16815964630639
 30
0.0
 10
264.2376341197646
 20
31.54951232565595
 30
0.0
 10
263.8382826184887
 20
31.19630397867255
 30
0.0
  0
LWPOLYLINE
  5
1FD
330
1F
100
AcDbEntity
  8
0
  6
Continuous
 62
     7
370
    25
100
AcDbPolyline
 90
       15
 70
   128
 43
0.0
 10
267.5609830264
 20
41.4929348492
 10
267.5610811495
 20
41.4924744747
 10
267.6715664787
 20
40.7020293538
 10
267.6802941691
 20
39.8434244617
 10
267.5871015601
 20
38.9326539405
 10
267.3937258922
 20
37.986684386
 10
267.1037680868
 20
37.0231366688
 10
266.7226298552
 20
36.0599600581
 10
266.2574116242
 20
35.1150970094
 10
265.7167791811
 20
34.206148764
 10
265.1108033178
 20
33.3500462733
 10
264.4507721456
 20
32.5627380465
 10
263.7489811844
 20
31.8588898827
 10
263.0185033659
 20
31.2516125513
 10
262.2729459895
 20
30.7522199644
  0
LINE
  5
1FE
330
1F
100
AcDbEntity
  8
0
  6
Continuous
 62
     7
370
    25
100
AcDbLine
 10
256.1913174632
 20
27.6778978951
 30
0.0
 11
257.7443260979
 21
26.7813650935
 31
0.0
  0
LINE
  5
1FF
330
1F
100
AcDbEntity
  8
0
  6
Continuous
 62
     7
370
    25
100
AcDbLine
 10
252.4722512332
 20
28.4742780625
 30
0.0
 11
256.7052172798
 21
26.0306387781
 31
0.0
  0
LINE
  5
200
330
1F
100
AcDbEntity
  8
0
  6
Continuous
 62
     7
370
    25
100
AcDbLine
 10
255.9772029117
 20
27.5908106303
 30
0.0
 11
257.6397143271
 21
26.6310632189
 31
0.0
  0
LWPOLYLINE
  5
201
330
1F
100
AcDbEntity
  8
0
  6
Continuous
 62
     7
370
    25
100
AcDbPolyline
 90
        9
 70
   128
 43
0.0
 10
252.4722512332
 20
28.4742780625
 10
252.1302032157
 20
28.692005892
 10
251.7705029127
 20
28.9584743156
 10
251.4283574307
 20
29.2476021569
 10
251.1372616604
 20
29.531085627
 10
250.925708847
 20
29.7811758134
 10
250.8144069226
 20
29.9733920134
 10
250.8142515061
 20
30.0889195724
 10
250.8220196971
 20
30.0971811853
  0
LINE
  5
202
330
1F
100
AcDbEntity
  8
0
  6
Continuous
 62
     7
370
    25
100
AcDbLine
 10
270.9763614565
 20
43.8792783637
 30
0.0
 11
271.202690033
 21
43.7486216576
 31
0.0
  0
LINE
  5
203
330
1F
100
AcDbEntity
  8
0
  6
Continuous
 62
     7
370
    25
100
AcDbLine
 10
270.3167843508
 20
45.3016363479
 30
0.0
 11
271.454193449
 21
44.6450240518
 31
0.0
  0
LINE
  5
204
330
1F
100
AcDbEntity
  8
0
  6
Continuous
 62
     7
370
    25
100
AcDbLine
 10
262.7855991813
 20
30.4562715761
 30
0.0
 11
262.0785405226
 21
30.0385674612
 31
0.0
  0
LINE
  5
205
330
1F
100
AcDbEntity
  8
0
  6
Continuous
 62
     7
370
    25
100
AcDbLine
 10
262.2729459895
 20
30.7522199644
 30
0.0
 11
261.5658873308
 21
30.3345158494
 31
0.0
  0
LINE
  5
206
330
1F
100
AcDbEntity
  8
0
  6
Continuous
 62
     7
370
    25
100
AcDbLine
 10
264.3734027148
 20
26.9941859911
 30
0.0
 11
264.6814408597
 21
26.8163593552
 31
0.0
  0
LINE
  5
207
330
1F
100
AcDbEntity
  8
0
  6
Continuous
 62
     7
370
    25
100
AcDbLine
 10
270.4175219041
 20
34.2629284752
 30
0.0
 11
270.5301567226
 21
34.1979057785
 31
0.0
  0
ARC
  5
208
330
1F
100
AcDbEntity
  8
0
  6
Continuous
 62
     7
370
    25
100
AcDbCircle
 10
252.0414554133
 20
42.7014630801
 30
0.0
 40
14.86484752238488
100
AcDbArc
 50
304.2595380471
 51
355.7458390596
  0
LINE
  5
209
330
1F
100
AcDbEntity
  8
0
  6
Continuous
 62
     7
370
    25
100
AcDbLine
 10
257.6429379025
 20
51.0144884706
 30
0.0
 11
257.5828371551
 21
51.0483601842
 31
0.0
  0
LINE
  5
20A
330
1F
100
AcDbEntity
  8
0
  6
Continuous
 62
     7
370
    25
100
AcDbLine
 10
244.9796387031
 20
32.3447975074
 30
0.0
 11
245.068939314
 21
32.2946978176
 31
0.0
  0
LWPOLYLINE
  5
20B
330
1F
100
AcDbEntity
  8
0
  6
Continuous
 62
     7
370
    25
100
AcDbPolyline
 90
       34
 70
   128
 43
0.0
 10
217.4736195237
 20
49.8088274106
 10
217.5225164534
 20
51.0403772655
 10
217.6687778716
 20
52.3175596363
 10
217.9111182993
 20
53.6291504015
 10
218.2474080035
 20
54.9636236149
 10
218.6746920952
 20
56.3092515051
 10
219.1892148949
 20
57.654208466
 10
219.7864548361
 20
58.9866754274
 10
220.4611639776
 20
60.2949428939
 10
221.207412126
 20
61.5675128428
 10
222.0186421538
 20
62.7932021418
 10
222.8877239996
 20
63.9612398834
 10
223.8070208518
 20
65.0613611055
 10
224.7684533574
 20
66.0838978509
 10
225.7635727194
 20
67.019863952
 10
226.7836341254
 20
67.8610339221
 10
227.819672562
 20
68.6000156197
 10
228.8625836514
 20
69.2303159264
 10
229.9032021828
 20
69.7463944466
 10
230.9323831954
 20
70.1437156397
 10
231.9410820745
 20
70.4187889742
 10
232.9204348932
 20
70.5691970573
 10
233.8618341455
 20
70.5936165407
 10
234.7570075246
 20
70.4918347006
 10
235.5980880579
 20
70.2647442983
 10
236.3776835831
 20
69.9143426226
 10
237.0889439204
 20
69.4437079097
 10
237.7256181653
 20
68.8569761433
 10
238.2821113236
 20
68.1593045472
 10
238.7535330438
 20
67.3568236718
 10
239.1357397639
 20
66.4565852979
 10
239.4253729069
 20
65.4665010263
 10
239.6198878568
 20
64.395272122
 10
239.6322546641
 20
64.2985079523
  0
LWPOLYLINE
  5
20C
330
1F
100
AcDbEntity
  8
0
  6
Continuous
 62
     7
370
    25
100
AcDbPolyline
 90
       17
 70
   128
 43
0.0
 10
227.1332707158
 20
42.6472863662
 10
226.7836341254
 20
42.5057349569
 10
225.7635727194
 20
42.1691670964
 10
224.7684533574
 20
41.956192838
 10
223.8070208518
 20
41.8686832405
 10
222.8877239996
 20
41.9074069095
 10
222.0186421538
 20
42.0720241104
 10
221.207412126
 20
42.3610871561
 10
220.4611639776
 20
42.7720573324
 10
219.7864548361
 20
43.3013222057
 10
219.1892148949
 20
43.9442306086
 10
218.6746920952
 20
44.6951321898
 10
218.2474080035
 20
45.5474283686
 10
217.9111182993
 20
46.4936297541
 10
217.6687778716
 20
47.5254202172
 10
217.5225164534
 20
48.6337327491
 10
217.4736195237
 20
49.8088274106
  0
SPLINE
  5
20D
330
1F
100
AcDbEntity
  8
0
  6
Continuous
 62
     7
370
    25
100
AcDbSpline
210
0.0
220
0.0
230
1.0
 70
     8
 71
     3
 72
    24
 73
    20
 74
     0
 42
0.000000001
 43
0.00000001
 40
0.0
 40
0.0
 40
0.0
 40
0.0
 40
0.1250000000000003
 40
0.1250000000000003
 40
0.2500000000000006
 40
0.2500000000000006
 40
0.3750000000000009
 40
0.3750000000000009
 40
0.5000000000000012
 40
0.5000000000000012
 40
0.6250000000000016
 40
0.6250000000000016
 40
0.7500000000000018
 40
0.7500000000000018
 40
0.8125000000000014
 40
0.8125000000000014
 40
0.875000000000001
 40
0.875000000000001
 40
1.0
 40
1.0
 40
1.0
 40
1.0
 10
222.3072086722554
 20
66.24064186507641
 30
0.0
 10
222.3361020473477
 20
66.13033413410872
 30
0.0
 10
222.3487460454348
 20
66.01517105402718
 30
0.0
 10
222.3417203703036
 20
65.77422602474664
 30
0.0
 10
222.321802578477
 20
65.65067598149678
 30
0.0
 10
222.251550581302
 20
65.4040774895862
 30
0.0
 10
222.200163709506
 20
65.2783667890709
 30
0.0
 10
222.0709187543657
 20
65.0362047003917
 30
0.0
 10
221.9931859919666
 20
64.91885263125764
 30
0.0
 10
221.8106630951983
 20
64.69178102825836
 30
0.0
 10
221.7095646410045
 20
64.58665034280615
 30
0.0
 10
221.4882786466592
 20
64.39275818380096
 30
0.0
 10
221.3671191806063
 20
64.30380338554306
 30
0.0
 10
221.1797972497423
 20
64.19018505954085
 30
0.0
 10
221.116073229798
 20
64.15529674314094
 30
0.0
 10
220.9859704296347
 20
64.09162329006858
 30
0.0
 10
220.9191352153598
 20
64.06268195724512
 30
0.0
 10
220.7184848023373
 20
63.98710108831368
 30
0.0
 10
220.5844904951631
 20
63.95127168521437
 30
0.0
 10
220.4499742160835
 20
63.93025985799562
 30
0.0
  0
LWPOLYLINE
  5
20E
330
1F
100
AcDbEntity
  8
0
  6
Continuous
 62
     7
370
    25
100
AcDbPolyline
 90
       14
 70
   128
 43
0.0
 10
222.307208784
 20
66.2406418976
 10
223.3091951188
 20
67.2793692752
 10
224.345057971
 20
68.2235000654
 10
225.4050703089
 20
69.0641687538
 10
226.4792778617
 20
69.7934805548
 10
227.5575934563
 20
70.4045856423
 10
228.6298913124
 20
70.8917480344
 10
229.6861018728
 20
71.2503912121
 10
230.7163068398
 20
71.4771476595
 10
231.710832524
 20
71.5698884178
 10
232.660339447
 20
71.527742873
 10
233.5559112456
 20
71.3511052111
 10
234.389137977
 20
71.0416361217
 10
234.7848580304
 20
70.8350926303
  0
LWPOLYLINE
  5
20F
330
1F
100
AcDbEntity
  8
0
  6
Continuous
 62
     7
370
    25
100
AcDbPolyline
 90
       20
 70
   128
 43
0.0
 10
219.0486367159
 20
43.5762042365
 10
219.0072616815
 20
43.6003429296
 10
218.292232494
 20
44.1062668964
 10
217.6568931188
 20
44.7332281652
 10
217.1071125047
 20
45.4754314581
 10
216.6479713225
 20
46.3260199649
 10
216.2837119159
 20
47.2771342837
 10
216.0176994473
 20
48.3199861898
 10
215.8523922635
 20
49.4449400072
 10
215.7893181876
 20
50.6416015978
 10
215.8290587145
 20
51.8989132656
 10
215.9712476934
 20
53.2052583446
 10
216.214571328
 20
54.5485664037
 10
216.5567806888
 20
55.9164252838
 10
216.9947147623
 20
57.2961965782
 10
217.5243261338
 20
58.6751311262
 10
218.1407218176
 20
60.0404878311
 10
218.8382067209
 20
61.379651148
 10
219.6103356685
 20
62.6802478097
 10
220.4499739893
 20
63.9302593696
  0
LWPOLYLINE
  5
210
330
1F
100
AcDbEntity
  8
0
  6
Continuous
 62
     7
370
    25
100
AcDbPolyline
 90
       12
 70
   128
 43
0.0
 10
220.6445873916
 20
66.3649183782
 10
221.5601664308
 20
67.3394002627
 10
222.5088791492
 20
68.2283754424
 10
223.481782183
 20
69.0234650258
 10
224.4697042709
 20
69.7171737769
 10
225.4633324412
 20
70.3029626836
 10
226.453300133
 20
70.7753081948
 10
227.4302749475
 20
71.129758961
 10
228.3850474278
 20
71.3629733981
 10
229.3086172461
 20
71.4727527117
 10
230.1922779501
 20
71.4580624436
 10
230.4451379678
 20
71.4298050112
  0
SPLINE
  5
211
330
1F
100
AcDbEntity
  8
0
  6
Continuous
 62
     7
370
    25
100
AcDbSpline
210
0.0
220
0.0
230
1.0
 70
     8
 71
     3
 72
    26
 73
    22
 74
     0
 42
0.000000001
 43
0.00000001
 40
0.0
 40
0.0
 40
0.0
 40
0.0
 40
0.1250000000000009
 40
0.1250000000000009
 40
0.2500000000000019
 40
0.2500000000000019
 40
0.3125000000000011
 40
0.3125000000000011
 40
0.3750000000000004
 40
0.3750000000000004
 40
0.4375000000000002
 40
0.4375000000000002
 40
0.5000000000000001
 40
0.5000000000000001
 40
0.5625
 40
0.5625
 40
0.6249999999999999
 40
0.6249999999999999
 40
0.7500000000000001
 40
0.7500000000000001
 40
1.0
 40
1.0
 40
1.0
 40
1.0
 10
219.3003941866279
 20
64.69275509195116
 30
0.0
 10
219.2767565903958
 20
64.80233095152416
 30
0.0
 10
219.2591888115141
 20
64.91322020988868
 30
0.0
 10
219.2403762286446
 20
65.13855016975162
 30
0.0
 10
219.2391964538773
 20
65.25422708306999
 30
0.0
 10
219.2552944571127
 20
65.42558259292954
 30
0.0
 10
219.2636131742129
 20
65.48238110502372
 30
0.0
 10
219.2873703234698
 20
65.5952073174208
 30
0.0
 10
219.3029927025188
 20
65.65166017108695
 30
0.0
 10
219.3418499149159
 20
65.76024328749556
 30
0.0
 10
219.3650758716183
 20
65.8126232477211
 30
0.0
 10
219.4200745210967
 20
65.91308002299321
 30
0.0
 10
219.4521527881193
 20
65.96135889076466
 30
0.0
 10
219.5225675366544
 20
66.0490558663484
 30
0.0
 10
219.5611459587811
 20
66.08904499432435
 30
0.0
 10
219.6448542223773
 20
66.16152367843995
 30
0.0
 10
219.6899829323192
 20
66.19386030281657
 30
0.0
 10
219.8292635745093
 20
66.27706007017021
 30
0.0
 10
219.9300526460709
 20
66.3158887928063
 30
0.0
 10
220.2331249173036
 20
66.39130508026147
 30
0.0
 10
220.4416490077886
 20
66.39117493389071
 30
0.0
 10
220.6445874274791
 20
66.3649187045645
 30
0.0
  0
LWPOLYLINE
  5
212
330
1F
100
AcDbEntity
  8
0
  6
Continuous
 62
     7
370
    25
100
AcDbPolyline
 90
       17
 70
   128
 43
0.0
 10
216.3634155577
 20
47.0369038019
 10
216.3029914649
 20
47.1166356407
 10
215.8168334942
 20
47.8865621023
 10
215.4247242404
 20
48.761955942
 10
215.1306465805
 20
49.7339252639
 10
214.9375883311
 20
50.7925959374
 10
214.8475099791
 20
51.9272134074
 10
214.8613269014
 20
53.1262519175
 10
214.9788988281
 20
54.3775312415
 10
215.1990311593
 20
55.6683400694
 10
215.5194881365
 20
56.9855661393
 10
215.9370139157
 20
58.3158286517
 10
216.4473674701
 20
59.6456136285
 10
217.0453640789
 20
60.9614130734
 10
217.7249293276
 20
62.2498601399
 10
218.4791603526
 20
63.4978671488
 10
219.30039433
 20
64.6927548609
  0
LINE
  5
213
330
1F
100
AcDbEntity
  8
0
  6
Continuous
 62
     7
370
    25
100
AcDbLine
 10
217.8250019157
 20
44.4488339168
 30
0.0
 11
217.9466372266
 21
44.5063185234
 31
0.0
  0
LWPOLYLINE
  5
214
330
1F
100
AcDbEntity
  8
0
  6
Continuous
 62
     7
370
    25
100
AcDbPolyline
 90
       38
 70
   128
 43
0.0
 10
217.8250019157
 20
44.4488339168
 10
217.0213240763
 20
44.7619238393
 10
216.2845234073
 20
45.1974933432
 10
215.6211372801
 20
45.7516782834
 10
215.0370511069
 20
46.4195613349
 10
214.5374482916
 20
47.195217625
 10
214.1267601801
 20
48.0717649291
 10
213.8086318163
 20
49.0414267918
 10
213.5858844048
 20
50.0955990713
 10
213.4604942377
 20
51.2249291243
 10
213.4335755724
 20
52.4193980803
 10
213.5053648263
 20
53.6684069182
 10
213.6752271626
 20
54.9608752303
 10
213.9416545141
 20
56.2853355203
 10
214.3022833649
 20
57.6300361968
 10
214.7539131885
 20
58.9830470379
 10
215.2925380586
 20
60.3323637524
 10
215.9133789179
 20
61.6660148213
 10
216.6109277
 20
62.9721683392
 10
217.3789947451
 20
64.2392342918
 10
218.2107654346
 20
65.4559721559
 10
219.098861436
 20
66.6115855718
 10
220.0354019469
 20
67.695822338
 10
221.0120784407
 20
68.6990631886
 10
222.0202252948
 20
69.6124059122
 10
223.0508978285
 20
70.4277476657
 10
224.0949517396
 20
71.1378544055
 10
225.1431238587
 20
71.7364265185
 10
226.1861144674
 20
72.2181516655
 10
227.2146697805
 20
72.5787577214
 10
228.2196643467
 20
72.8150436134
 10
229.1921811441
 20
72.9249141525
 10
230.1235919226
 20
72.9073944744
 10
231.0056332657
 20
72.7626389679
 10
231.8304787012
 20
72.4919333596
 10
232.590811141
 20
72.0976779767
 10
233.2798831382
 20
71.5833723422
 10
233.5172620916
 20
71.3618234257
  0
LWPOLYLINE
  5
215
330
1F
100
AcDbEntity
  8
0
  6
Continuous
 62
     7
370
    25
100
AcDbPolyline
 90
       16
 70
   128
 43
0.0
 10
211.6085550824
 20
57.2193641818
 10
211.6178682189
 20
57.262166342
 10
211.9541579231
 20
58.5966395554
 10
212.3814420148
 20
59.9422674456
 10
212.8959648145
 20
61.2872244065
 10
213.4932047557
 20
62.6196913679
 10
214.1679138972
 20
63.9279588344
 10
214.9141620456
 20
65.2005287833
 10
215.7253920734
 20
66.4262180823
 10
216.5944739192
 20
67.5942558239
 10
217.5137707714
 20
68.694377046
 10
218.475203277
 20
69.7169137914
 10
219.470322639
 20
70.6528798925
 10
220.490384045
 20
71.4940498626
 10
221.5264224816
 20
72.2330315602
 10
222.2502791599
 20
72.6825008381
  0
LWPOLYLINE
  5
216
330
1F
100
AcDbEntity
  8
0
  6
Continuous
 62
     7
370
    25
100
AcDbPolyline
 90
       24
 70
   128
 43
0.0
 10
211.180369325
 20
53.5234840919
 10
211.2289560803
 20
54.7472087177
 10
211.3742876335
 20
56.0162752306
 10
211.6150883842
 20
57.3195318472
 10
211.9492411115
 20
58.6455253395
 10
212.3738100242
 20
59.9826028397
 10
212.8850631504
 20
61.3190140254
 10
213.4785085581
 20
62.643014349
 10
214.1489299163
 20
63.9429676968
 10
214.8904365443
 20
65.2074513282
 10
215.6965114857
 20
66.4253532105
 10
216.5600714357
 20
67.5859689722
 10
217.473526669
 20
68.679099617
 10
218.4288501864
 20
69.6951385901
 10
219.4176465333
 20
70.6251578944
 10
220.4312258857
 20
71.4609827987
 10
221.4606810998
 20
72.1952690181
 10
222.4969652559
 20
72.8215642083
 10
223.5309715064
 20
73.3343631873
 10
224.5536127605
 20
73.7291600196
 10
225.5559023552
 20
74.0024854612
 10
226.529031599
 20
74.1519365154
 10
227.4644492915
 20
74.1762018059
 10
228.2297000711
 20
74.0972165757
  0
LWPOLYLINE
  5
217
330
1F
100
AcDbEntity
  8
0
  6
Continuous
 62
     7
370
    25
100
AcDbPolyline
 90
        3
 70
   128
 43
0.0
 10
211.332761134
 20
51.4988799315
 10
211.2289560803
 20
52.3558565397
 10
211.1995362629
 20
52.7830597382
  0
SPLINE
  5
218
330
1F
100
AcDbEntity
  8
0
  6
Continuous
 62
     7
370
    25
100
AcDbSpline
210
0.0
220
0.0
230
1.0
 70
     8
 71
     3
 72
    10
 73
     6
 74
     0
 42
0.000000001
 43
0.00000001
 40
0.0
 40
0.0
 40
0.0
 40
0.0
 40
0.5
 40
0.5
 40
1.0
 40
1.0
 40
1.0
 40
1.0
 10
220.0270822542592
 20
63.22970181113144
 30
0.0
 10
219.9237785957107
 20
63.30257402156611
 30
0.0
 10
219.8334804163441
 20
63.38985443558384
 30
0.0
 10
219.6797115603751
 20
63.5934595252664
 30
0.0
 10
219.6189976121678
 20
63.7063842534292
 30
0.0
 10
219.5749117660975
 20
63.82839493254829
 30
0.0
  0
SPLINE
  5
219
330
1F
100
AcDbEntity
  8
0
  6
Continuous
 62
     7
370
    25
100
AcDbSpline
210
0.0
220
0.0
230
1.0
 70
     8
 71
     3
 72
    14
 73
    10
 74
     0
 42
0.000000001
 43
0.00000001
 40
0.0
 40
0.0
 40
0.0
 40
0.0
 40
0.25
 40
0.25
 40
0.5
 40
0.5
 40
0.75
 40
0.75
 40
1.0
 40
1.0
 40
1.0
 40
1.0
 10
219.5749117660975
 20
63.82839493254829
 30
0.0
 10
219.5521909632323
 20
63.89127635220583
 30
0.0
 10
219.5302764528829
 20
63.96032278167925
 30
0.0
 10
219.4881653988201
 20
64.10797529829803
 30
0.0
 10
219.468643844907
 20
64.18437508515633
 30
0.0
 10
219.4302976027333
 20
64.33870737655192
 30
0.0
 10
219.4119380098495
 20
64.41565997288357
 30
0.0
 10
219.3699345652678
 20
64.56105014039956
 30
0.0
 10
219.3461582442548
 20
64.62764104659259
 30
0.0
 10
219.3176967401526
 20
64.66813666182394
 30
0.0
  0
LINE
  5
21A
330
1F
100
AcDbEntity
  8
0
  6
Continuous
 62
     7
370
    25
100
AcDbLine
 10
219.3176969284
 20
64.6681370536
 30
0.0
 11
219.30039433
 21
64.6927548609
 31
0.0
  0
LINE
  5
21B
330
1F
100
AcDbEntity
  8
0
  6
Continuous
 62
     7
370
    25
100
AcDbLine
 10
220.6445873916
 20
66.3649183782
 30
0.0
 11
220.66188999
 21
66.3403005708
 31
0.0
  0
SPLINE
  5
21C
330
1F
100
AcDbEntity
  8
0
  6
Continuous
 62
     7
370
    25
100
AcDbSpline
210
0.0
220
0.0
230
1.0
 70
     8
 71
     3
 72
    16
 73
    12
 74
     0
 42
0.000000001
 43
0.00000001
 40
0.0
 40
0.0
 40
0.0
 40
0.0
 40
0.1250000000000001
 40
0.1250000000000001
 40
0.2500000000000003
 40
0.2500000000000003
 40
0.5000000000000002
 40
0.5000000000000002
 40
0.7500000000000001
 40
0.7500000000000001
 40
1.0
 40
1.0
 40
1.0
 40
1.0
 10
220.6618899810038
 20
66.34030027443721
 30
0.0
 10
220.6760423874079
 20
66.32016393862442
 30
0.0
 10
220.6977007918816
 20
66.303366517947
 30
0.0
 10
220.7501187209169
 20
66.2765209966155
 30
0.0
 10
220.7807116000552
 20
66.26629551205453
 30
0.0
 10
220.8797924489128
 20
66.24179507162184
 30
0.0
 10
220.9536749865286
 20
66.23353514922034
 30
0.0
 10
221.10677457892
 20
66.22234918251542
 30
0.0
 10
221.1848585535676
 20
66.21975251076422
 30
0.0
 10
221.3442021873097
 20
66.21772350993052
 30
0.0
 10
221.4228550821413
 20
66.21836109859275
 30
0.0
 10
221.4986075499339
 20
66.2214541994078
 30
0.0
  0
SPLINE
  5
21D
330
1F
100
AcDbEntity
  8
0
  6
Continuous
 62
     7
370
    25
100
AcDbSpline
210
0.0
220
0.0
230
1.0
 70
     8
 71
     3
 72
    12
 73
     8
 74
     0
 42
0.000000001
 43
0.00000001
 40
0.0
 40
0.0
 40
0.0
 40
0.0
 40
0.4999999999999983
 40
0.4999999999999983
 40
0.7499999999999991
 40
0.7499999999999991
 40
1.0
 40
1.0
 40
1.0
 40
1.0
 10
221.4986075499339
 20
66.2214541994078
 30
0.0
 10
221.6451005514854
 20
66.22743575533197
 30
0.0
 10
221.7909722497469
 20
66.2171189166417
 30
0.0
 10
221.9949354196327
 20
66.17868073879724
 30
0.0
 10
222.0608862500738
 20
66.16208466424958
 30
0.0
 10
222.1886342087856
 20
66.12131233946984
 30
0.0
 10
222.2508494288248
 20
66.09691855163143
 30
0.0
 10
222.3096204179599
 20
66.06915758709151
 30
0.0
  0
ARC
  5
21E
330
1F
100
AcDbEntity
  8
0
  6
Continuous
 62
     7
370
    25
100
AcDbCircle
 10
204.9796603683
 20
61.3330878927
 30
0.0
 40
4.14325203190725
100
AcDbArc
 50
211.7444095219
 51
236.2139194594
  0
SPLINE
  5
21F
330
1F
100
AcDbEntity
  8
0
  6
Continuous
 62
     7
370
    25
100
AcDbSpline
210
0.0
220
0.0
230
1.0
 70
     8
 71
     3
 72
     8
 73
     4
 74
     0
 42
0.000000001
 43
0.00000001
 40
0.0
 40
0.0
 40
0.0
 40
0.0
 40
1.0
 40
1.0
 40
1.0
 40
1.0
 10
202.8866667488231
 20
58.22845316785284
 30
0.0
 10
202.409893456999
 20
58.53654597578548
 30
0.0
 10
201.9330910801541
 20
58.84477542135824
 30
0.0
 10
201.4562586356284
 20
59.15314057757815
 30
0.0
  0
SPLINE
  5
220
330
1F
100
AcDbEntity
  8
0
  6
Continuous
 62
     7
370
    25
100
AcDbSpline
210
0.0
220
0.0
230
1.0
 70
     8
 71
     3
 72
    23
 73
    19
 74
     0
 42
0.000000001
 43
0.00000001
 40
0.0
 40
0.0
 40
0.0
 40
0.0
 40
0.0521036415683759
 40
0.1035646240941235
 40
0.1544751946756683
 40
0.2049306267495642
 40
0.2550287880866983
 40
0.3048696389163111
 40
0.354554670462894
 40
0.4041862979539558
 40
0.453867225213789
 40
0.5036997999428097
 40
0.590187023078111
 40
0.6742716378282376
 40
0.7565997087281883
 40
0.8378563983773627
 40
0.9187511781400207
 40
0.9999999999999999
 40
0.9999999999999999
 40
0.9999999999999999
 40
0.9999999999999999
 10
203.7672315523647
 20
58.05372246973274
 30
0.0
 10
203.7619626134249
 20
58.04380100749736
 30
0.0
 10
203.7514897239252
 20
58.02408045676534
 30
0.0
 10
203.7322434281633
 20
57.99951262781187
 30
0.0
 10
203.7104476878311
 20
57.97882404555177
 30
0.0
 10
203.6857963966265
 20
57.96229311025429
 30
0.0
 10
203.6582998820877
 20
57.94977561067797
 30
0.0
 10
203.6278888280803
 20
57.94124098685579
 30
0.0
 10
203.5945184563074
 20
57.93663111420826
 30
0.0
 10
203.558142568035
 20
57.93589637107266
 30
0.0
 10
203.5187141964452
 20
57.93899145362513
 30
0.0
 10
203.4658658048928
 20
57.94752722910648
 30
0.0
 10
203.3973268111194
 20
57.96512366795607
 30
0.0
 10
203.3096055791623
 20
57.99676027604368
 30
0.0
 10
203.2148746596675
 20
58.03893993337692
 30
0.0
 10
203.1128404123386
 20
58.09167636910321
 30
0.0
 10
203.0039264991525
 20
58.15399292501206
 30
0.0
 10
202.9258101881691
 20
58.20359698326148
 30
0.0
 10
202.8866667488231
 20
58.22845316785283
 30
0.0
  0
SPLINE
  5
221
330
1F
100
AcDbEntity
  8
0
  6
Continuous
 62
     7
370
    25
100
AcDbSpline
210
0.0
220
0.0
230
1.0
 70
     8
 71
     3
 72
     8
 73
     4
 74
     0
 42
0.000000001
 43
0.00000001
 40
0.0
 40
0.0
 40
0.0
 40
0.0
 40
1.0
 40
1.0
 40
1.0
 40
1.0
 10
205.2407345788226
 20
57.10640233317396
 30
0.0
 10
204.7493672667798
 20
57.42227695314231
 30
0.0
 10
204.2579810668522
 20
57.73826297443264
 30
0.0
 10
203.7665753567069
 20
58.05435985527619
 30
0.0
  0
SPLINE
  5
222
330
1F
100
AcDbEntity
  8
0
  6
Continuous
 62
     7
370
    25
100
AcDbSpline
210
0.0
220
0.0
230
1.0
 70
     8
 71
     3
 72
    18
 73
    14
 74
     0
 42
0.000000001
 43
0.00000001
 40
0.0
 40
0.0
 40
0.0
 40
0.0
 40
0.0923824559461122
 40
0.1844689291660427
 40
0.2764953616062392
 40
0.3686975365619641
 40
0.4613092840130473
 40
0.5545607518559533
 40
0.6486768051632873
 40
0.7438756050210469
 40
0.8403674044324065
 40
0.9203921078135461
 40
1.0
 40
1.0
 40
1.0
 40
1.0
 10
206.0542986980182
 20
56.4620946086322
 30
0.0
 10
206.0307311838939
 20
56.47736858289851
 30
0.0
 10
205.9836716632404
 20
56.5078675953805
 30
0.0
 10
205.9112738752748
 20
56.55750016799313
 30
0.0
 10
205.8377916663775
 20
56.60982971066282
 30
0.0
 10
205.7630922186316
 20
56.66514739637125
 30
0.0
 10
205.6872314288635
 20
56.72338571148482
 30
0.0
 10
205.6102201480776
 20
56.78457862312181
 30
0.0
 10
205.5320880159984
 20
56.8487423397022
 30
0.0
 10
205.4528617813573
 20
56.91589129956755
 30
0.0
 10
205.3775652969498
 20
56.98174220931252
 30
0.0
 10
205.3067379888297
 20
57.04527379611991
 30
0.0
 10
205.2628336180233
 20
57.08593454113298
 30
0.0
 10
205.2409387512184
 20
57.10621182970122
 30
0.0
  0
LINE
  5
223
330
1F
100
AcDbEntity
  8
0
  6
Continuous
 62
     7
370
    25
100
AcDbLine
 10
206.6940052299
 20
56.0503408021
 30
0.0
 11
206.0542983875
 21
56.4620944698
 31
0.0
  0
SPLINE
  5
224
330
1F
100
AcDbEntity
  8
0
  6
Continuous
 62
     7
370
    25
100
AcDbSpline
210
0.0
220
0.0
230
1.0
 70
     8
 71
     3
 72
    25
 73
    21
 74
     0
 42
0.000000001
 43
0.00000001
 40
0.0
 40
0.0
 40
0.0
 40
0.0
 40
0.0280105225426455
 40
0.0559601148860774
 40
0.0839014045043129
 40
0.1118870776786379
 40
0.1399695827588941
 40
0.1682008401739877
 40
0.1966319670424218
 40
0.2253130233141493
 40
0.2542927850735863
 40
0.3799486436570518
 40
0.505785022166658
 40
0.6313085886329272
 40
0.7532068238012843
 40
0.8039473267959846
 40
0.8535894438560211
 40
0.902533972239985
 40
0.9511970353794947
 40
1.0
 40
1.0
 40
1.0
 40
1.0
 10
207.7963708230084
 20
56.76624679250927
 30
0.0
 10
207.801318930539
 20
56.73862293140179
 30
0.0
 10
207.8112043821745
 20
56.68343529829647
 30
0.0
 10
207.8227400317777
 20
56.60427459092655
 30
0.0
 10
207.8318131535905
 20
56.52797125182817
 30
0.0
 10
207.8381819623035
 20
56.45477549085855
 30
0.0
 10
207.8418982011136
 20
56.38462802264517
 30
0.0
 10
207.8429348220964
 20
56.31755173613239
 30
0.0
 10
207.8412863468695
 20
56.25354782690594
 30
0.0
 10
207.8369401950006
 20
56.19261897363912
 30
0.0
 10
207.8220838704331
 20
56.07073085214299
 30
0.0
 10
207.7769956133669
 20
55.91582998048895
 30
0.0
 10
207.6636360928762
 20
55.78488686214546
 30
0.0
 10
207.5018118708832
 20
55.72901046133266
 30
0.0
 10
207.3277966517497
 20
55.74888451371721
 30
0.0
 10
207.1764357310622
 20
55.79620231607366
 30
0.0
 10
207.0660354983633
 20
55.84111773980933
 30
0.0
 10
206.9488760029146
 20
55.89849347110047
 30
0.0
 10
206.8253103359812
 20
55.96717053555292
 30
0.0
 10
206.7378152858867
 20
56.02259078150576
 30
0.0
 10
206.6940049662054
 20
56.05034067923582
 30
0.0
  0
ARC
  5
225
330
1F
100
AcDbEntity
  8
0
  6
Continuous
 62
     7
370
    25
100
AcDbCircle
 10
218.9893919874
 20
58.5522971611
 30
0.0
 40
11.33462419218399
100
AcDbArc
 50
170.9338462887
 51
189.0661537113
  0
SPLINE
  5
226
330
1F
100
AcDbEntity
  8
0
  6
Continuous
 62
     7
370
    25
100
AcDbSpline
210
0.0
220
0.0
230
1.0
 70
     8
 71
     3
 72
    26
 73
    22
 74
     0
 42
0.000000001
 43
0.00000001
 40
0.0
 40
0.0
 40
0.0
 40
0.0
 40
0.0241259796963637
 40
0.048215991227299
 40
0.0723203915124064
 40
0.0964895678710793
 40
0.120773623196351
 40
0.1452220711242841
 40
0.1698835501657706
 40
0.1948055644472381
 40
0.2200342569517629
 40
0.2456142191611394
 40
0.3690971486901671
 40
0.4940698769485191
 40
0.6192566784762444
 40
0.7454656653603234
 40
0.7971495824713715
 40
0.8481710308405401
 40
0.8988013269235245
 40
0.9493179290492194
 40
1.0
 40
1.0
 40
1.0
 40
1.0
 10
206.6940049662054
 20
63.81445107060038
 30
0.0
 10
206.7157231955815
 20
63.8001195472053
 30
0.0
 10
206.7591272757576
 20
63.77147786653625
 30
0.0
 10
206.822434393119
 20
63.72348556860745
 30
0.0
 10
206.8842959608369
 20
63.67188637072177
 30
0.0
 10
206.9446004759735
 20
63.61631157784853
 30
0.0
 10
207.0033903279133
 20
63.55685633722138
 30
0.0
 10
207.0606708463431
 20
63.49349202838398
 30
0.0
 10
207.1164619856693
 20
63.42622325042005
 30
0.0
 10
207.1707832330911
 20
63.35504913645993
 30
0.0
 10
207.2236622083001
 20
63.27995999671165
 30
0.0
 10
207.3404570330364
 20
63.1007055480098
 30
0.0
 10
207.5023265909629
 20
62.79040007616641
 30
0.0
 10
207.6655114984947
 20
62.32048628803473
 30
0.0
 10
207.7770229036682
 20
61.82152325412468
 30
0.0
 10
207.8241567417766
 20
61.41263958106769
 30
0.0
 10
207.8392756813092
 20
61.10836762447698
 30
0.0
 10
207.8412288202917
 20
60.90711838278165
 30
0.0
 10
207.8347507946526
 20
60.71145846305907
 30
0.0
 10
207.8206238719655
 20
60.5208221751616
 30
0.0
 10
207.8044639802805
 20
60.39923890142279
 30
0.0
 10
207.7963708230084
 20
60.3383478648239
 30
0.0
  0
LINE
  5
227
330
1F
100
AcDbEntity
  8
0
  6
Continuous
 62
     7
370
    25
100
AcDbLine
 10
206.0542983875
 20
64.2274259209
 30
0.0
 11
206.6940052299
 21
63.8144509499
 31
0.0
  0
SPLINE
  5
228
330
1F
100
AcDbEntity
  8
0
  6
Continuous
 62
     7
370
    25
100
AcDbSpline
210
0.0
220
0.0
230
1.0
 70
     8
 71
     3
 72
    14
 73
    10
 74
     0
 42
0.000000001
 43
0.00000001
 40
0.0
 40
0.0
 40
0.0
 40
0.0
 40
0.0789261963152472
 40
0.1582328720511064
 40
0.3308475394503796
 40
0.5000195457530386
 40
0.6670357883499396
 40
0.8332395193610692
 40
1.0
 40
1.0
 40
1.0
 40
1.0
 10
205.2403459821682
 20
64.43600835388335
 30
0.0
 10
205.2620628635034
 20
64.4376115177421
 30
0.0
 10
205.3056013167179
 20
64.44082557382968
 30
0.0
 10
205.3971264353648
 20
64.44164661389918
 30
0.0
 10
205.5140347687961
 20
64.43371063211771
 30
0.0
 10
205.6548551071768
 20
64.40743496324086
 30
0.0
 10
205.7920674149894
 20
64.36447736470852
 30
0.0
 10
205.9259980894078
 20
64.30612023989765
 30
0.0
 10
206.0114841813688
 20
64.25368669374647
 30
0.0
 10
206.0542986980182
 20
64.22742608359128
 30
0.0
  0
SPLINE
  5
229
330
1F
100
AcDbEntity
  8
0
  6
Continuous
 62
     7
370
    25
100
AcDbSpline
210
0.0
220
0.0
230
1.0
 70
     8
 71
     3
 72
     8
 73
     4
 74
     0
 42
0.000000001
 43
0.00000001
 40
0.0
 40
0.0
 40
0.0
 40
0.0
 40
1.0
 40
1.0
 40
1.0
 40
1.0
 10
203.4380423991625
 20
65.59839976529769
 30
0.0
 10
204.0388006228594
 20
65.21113228213828
 30
0.0
 10
204.6395294857206
 20
64.82366493221446
 30
0.0
 10
205.2402301300682
 20
64.43599803962432
 30
0.0
  0
SPLINE
  5
22A
330
1F
100
AcDbEntity
  8
0
  6
Continuous
 62
     7
370
    25
100
AcDbSpline
210
0.0
220
0.0
230
1.0
 70
     8
 71
     3
 72
    13
 73
     9
 74
     0
 42
0.000000001
 43
0.00000001
 40
0.0
 40
0.0
 40
0.0
 40
0.0
 40
0.1667030582307959
 40
0.3329480818053031
 40
0.4990671507274871
 40
0.6653938523718408
 40
0.8322612710550125
 40
1.0
 40
1.0
 40
1.0
 40
1.0
 10
203.0962138641281
 20
65.89946454438348
 30
0.0
 10
203.1165150465681
 20
65.88589943770423
 30
0.0
 10
203.1570616317567
 20
65.8588064959414
 30
0.0
 10
203.2162112687443
 20
65.81361192293369
 30
0.0
 10
203.2739828136468
 20
65.76520077445072
 30
0.0
 10
203.3302325511065
 20
65.71316565968027
 30
0.0
 10
203.3851597598526
 20
65.65786769247126
 30
0.0
 10
203.4203804694431
 20
65.61825043731088
 30
0.0
 10
203.4380366813841
 20
65.59839022830997
 30
0.0
  0
SPLINE
  5
22B
330
1F
100
AcDbEntity
  8
0
  6
Continuous
 62
     7
370
    25
100
AcDbSpline
210
0.0
220
0.0
230
1.0
 70
     8
 71
     3
 72
     8
 73
     4
 74
     0
 42
0.000000001
 43
0.00000001
 40
0.0
 40
0.0
 40
0.0
 40
0.0
 40
1.0
 40
1.0
 40
1.0
 40
1.0
 10
201.1522333483374
 20
67.15418639676294
 30
0.0
 10
201.8002634207376
 20
66.73619108087819
 30
0.0
 10
202.4482563978395
 20
66.31795031846055
 30
0.0
 10
203.0962138641281
 20
65.89946454438348
 30
0.0
  0
LWPOLYLINE
  5
22C
330
1F
100
AcDbEntity
  8
0
  6
Continuous
 62
     7
370
    25
100
AcDbPolyline
 90
       19
 70
   128
 43
0.0
 10
201.1522339986
 20
67.1541864472
 10
201.5551262603
 20
68.3211504327
 10
202.0450813986
 20
69.4811548574
 10
202.6160816338
 20
70.6199522535
 10
203.2611128085
 20
71.7235549443
 10
203.9722532907
 20
72.7784095628
 10
204.7407684754
 20
73.7715592114
 10
205.557219444
 20
74.6908058102
 10
206.4115783748
 20
75.5248599928
 10
207.2933516903
 20
76.2634760768
 10
208.1917093379
 20
76.8975837303
 10
209.0956174868
 20
77.4193934743
 10
209.9939741466
 20
77.8224970265
 10
210.8757455688
 20
78.1019437633
 10
211.7301015361
 20
78.2543005693
 10
212.5465488828
 20
78.2776969774
 10
213.3150594576
 20
78.1718450479
 10
214.0261946715
 20
77.9380451072
 10
214.2019717252
 20
77.8559334124
  0
SPLINE
  5
22D
330
1F
100
AcDbEntity
  8
0
  6
Continuous
 62
     7
370
    25
100
AcDbSpline
210
0.0
220
0.0
230
1.0
 70
    11
 71
     3
 72
    39
 73
    35
 74
     0
 42
0.000000001
 43
0.00000001
 40
0.0
 40
0.0
 40
0.0
 40
0.0
 40
0.0310664058350965
 40
0.0621048158425859
 40
0.093136155179263
 40
0.1235538293503448
 40
0.1538561545806855
 40
0.1850588072748946
 40
0.2160250992945718
 40
0.2471867223797388
 40
0.2784462884305076
 40
0.3100516090231096
 40
0.3419834369141944
 40
0.3734259894013148
 40
0.4048604886786042
 40
0.4368740651833136
 40
0.4685120685925458
 40
0.4998055358633138
 40
0.5309508213230685
 40
0.5618649784438015
 40
0.5930416446594986
 40
0.6233742450133227
 40
0.6540913579075065
 40
0.6849496782718291
 40
0.71581606451649
 40
0.7471731804043279
 40
0.7784514311862922
 40
0.8101295911560753
 40
0.8419598919688862
 40
0.8735175891922173
 40
0.9050808037887091
 40
0.9370235169792366
 40
0.968744159003463
 40
1.0
 40
1.0
 40
1.0
 40
1.0
 10
214.3608188295428
 20
76.15937677210438
 30
0.0
 10
214.6237044497431
 20
76.13084228481335
 30
0.0
 10
215.1505930602258
 20
76.0448997964902
 30
0.0
 10
215.9146051292996
 20
75.8445246764208
 30
0.0
 10
216.6217553173482
 20
75.59752257020176
 30
0.0
 10
217.2346663819425
 20
75.3195406920497
 30
0.0
 10
217.731797707617
 20
75.0254069947198
 30
0.0
 10
218.0909894286893
 20
74.72390046652775
 30
0.0
 10
218.3127086974501
 20
74.4169029616244
 30
0.0
 10
218.3779605748313
 20
74.10639770022254
 30
0.0
 10
218.2911133637183
 20
73.7872532154733
 30
0.0
 10
218.0487677759578
 20
73.45793324990024
 30
0.0
 10
217.6688299132324
 20
73.11899252834245
 30
0.0
 10
217.1550239600721
 20
72.78115406393212
 30
0.0
 10
216.5291331491613
 20
72.45525616262454
 30
0.0
 10
215.8156621626727
 20
72.15860926938348
 30
0.0
 10
215.0517596864085
 20
71.90250596094346
 30
0.0
 10
214.2659666035021
 20
71.71347839295503
 30
0.0
 10
213.4844291484615
 20
71.60530247090149
 30
0.0
 10
212.728316163706
 20
71.59763858753264
 30
0.0
 10
212.0259515773163
 20
71.69556062291912
 30
0.0
 10
211.4069312302723
 20
71.91720905642272
 30
0.0
 10
210.897873965263
 20
72.25307714333468
 30
0.0
 10
210.5249303718282
 20
72.69288770951357
 30
0.0
 10
210.2963284205833
 20
73.20396235003585
 30
0.0
 10
210.2274821138611
 20
73.75514743779648
 30
0.0
 10
210.3120985270849
 20
74.31281936610935
 30
0.0
 10
210.5552073170209
 20
74.84289950702883
 30
0.0
 10
210.9373371598377
 20
75.31542385614371
 30
0.0
 10
211.4534727342503
 20
75.70154536703654
 30
0.0
 10
212.0804505947528
 20
75.98516955436871
 30
0.0
 10
212.796358027119
 20
76.15490677309614
 30
0.0
 10
213.5648014193032
 20
76.21644560780896
 30
0.0
 10
214.0963301986765
 20
76.1880852555517
 30
0.0
 10
214.3608188295427
 20
76.15937677210438
 30
0.0
  0
LINE
  5
22E
330
1F
100
AcDbEntity
  8
0
  6
Continuous
 62
     7
370
    25
100
AcDbLine
 10
205.1361641956
 20
59.7203680375
 30
0.0
 11
205.4474894654
 21
59.5536820745
 31
0.0
  0
LINE
  5
22F
330
1F
100
AcDbEntity
  8
0
  6
Continuous
 62
     7
370
    25
100
AcDbLine
 10
204.1493220795
 20
60.2900598649
 30
0.0
 11
205.1361641956
 21
59.7203680375
 31
0.0
  0
ARC
  5
230
330
1F
100
AcDbEntity
  8
0
  6
Continuous
 62
     7
370
    25
100
AcDbCircle
 10
206.3702933074
 20
63.883489656
 30
0.0
 40
4.484274790565622
100
AcDbArc
 50
267.6840627222
 51
286.9866336569
  0
SPLINE
  5
231
330
1F
100
AcDbEntity
  8
0
  6
Continuous
 62
     7
370
    25
100
AcDbSpline
210
0.0
220
0.0
230
1.0
 70
     8
 71
     3
 72
    13
 73
     9
 74
     0
 42
0.000000001
 43
0.00000001
 40
0.0
 40
0.0
 40
0.0
 40
0.0
 40
0.2512101538376236
 40
0.3783067624295602
 40
0.5053129060033886
 40
0.7241877491152423
 40
0.932071107513572
 40
1.0
 40
1.0
 40
1.0
 40
1.0
 10
215.6993247878421
 20
73.15688105676863
 30
0.0
 10
215.3488775918283
 20
73.34398577179358
 30
0.0
 10
214.8211260575006
 20
73.62575375726342
 30
0.0
 10
213.9678874836649
 20
73.94089821343061
 30
0.0
 10
213.1337289408669
 20
74.17486837511508
 30
0.0
 10
212.132965325327
 20
74.29093649942995
 30
0.0
 10
211.2880902730602
 20
74.19827839192382
 30
0.0
 10
210.9073841239439
 20
74.02034327952954
 30
0.0
 10
210.8136212581203
 20
73.97652022569267
 30
0.0
  0
SPLINE
  5
232
330
1F
100
AcDbEntity
  8
0
  6
Continuous
 62
     7
370
    25
100
AcDbSpline
210
0.0
220
0.0
230
1.0
 70
     8
 71
     3
 72
    10
 73
     6
 74
     0
 42
0.000000001
 43
0.00000001
 40
0.0
 40
0.0
 40
0.0
 40
0.0
 40
0.3798174073072795
 40
0.9603711649033085
 40
1.0
 40
1.0
 40
1.0
 40
1.0
 10
216.8392049097016
 20
72.62865412925015
 30
0.0
 10
216.7095522924532
 20
72.69898269108752
 30
0.0
 10
216.3817246766987
 20
72.87680898750862
 30
0.0
 10
215.9737961316885
 20
73.04986183791104
 30
0.0
 10
215.7171633502567
 20
73.14906727015935
 30
0.0
 10
215.7007648600449
 20
73.15540636409973
 30
0.0
  0
SPLINE
  5
233
330
1F
100
AcDbEntity
  8
0
  6
Continuous
 62
     7
370
    25
100
AcDbSpline
210
0.0
220
0.0
230
1.0
 70
     8
 71
     3
 72
    24
 73
    20
 74
     0
 42
0.000000001
 43
0.00000001
 40
0.0
 40
0.0
 40
0.0
 40
0.0
 40
0.0618858212107145
 40
0.1150115607194259
 40
0.1593831488268445
 40
0.2428114970815824
 40
0.318331853291959
 40
0.3935543804326023
 40
0.4204843226990471
 40
0.4483397435477174
 40
0.4771286702554668
 40
0.5451537905345539
 40
0.6363475754294583
 40
0.6968782859867285
 40
0.7498596693403015
 40
0.7959701295389731
 40
0.8771179302751783
 40
0.9543004207779655
 40
1.0
 40
1.0
 40
1.0
 40
1.0
 10
214.3059402625405
 20
75.58551887214759
 30
0.0
 10
214.1219834732042
 20
75.60441343711355
 30
0.0
 10
213.780109405242
 20
75.63952799749804
 30
0.0
 10
213.3158914322652
 20
75.63303744911077
 30
0.0
 10
212.8064298199922
 20
75.58531325631347
 30
0.0
 10
212.2673347206177
 20
75.46069665814656
 30
0.0
 10
211.7244967358941
 20
75.21820637420356
 30
0.0
 10
211.3841037203989
 20
74.96083362357767
 30
0.0
 10
211.177477011848
 20
74.74602652307883
 30
0.0
 10
211.0594929556369
 20
74.59952317177985
 30
0.0
 10
210.9073225514459
 20
74.3697723475594
 30
0.0
 10
210.7406419128662
 20
73.99682965213238
 30
0.0
 10
210.672280332029
 20
73.5342705994395
 30
0.0
 10
210.7226357956484
 20
73.10593790123768
 30
0.0
 10
210.8280649391637
 20
72.78601100759329
 30
0.0
 10
211.0102642658497
 20
72.44554549240009
 30
0.0
 10
211.3111426909201
 20
72.10959723554501
 30
0.0
 10
211.7008275855186
 20
71.83653793482999
 30
0.0
 10
211.9937465417131
 20
71.7425828639027
 30
0.0
 10
212.1026824757693
 20
71.70764117373774
 30
0.0
  0
SPLINE
  5
234
330
1F
100
AcDbEntity
  8
0
  6
Continuous
 62
     7
370
    25
100
AcDbSpline
210
0.0
220
0.0
230
1.0
 70
     8
 71
     3
 72
    22
 73
    18
 74
     0
 42
0.000000001
 43
0.00000001
 40
0.0
 40
0.0
 40
0.0
 40
0.0
 40
0.0230829230551597
 40
0.0814197416897967
 40
0.1466435060153073
 40
0.2187937863059883
 40
0.2807407147919538
 40
0.334043885361729
 40
0.3787027517769348
 40
0.4147200067027929
 40
0.517881604567259
 40
0.6098460221494381
 40
0.7031822330296847
 40
0.7529336067168404
 40
0.8047834091159894
 40
0.8938685125132421
 40
1.0
 40
1.0
 40
1.0
 40
1.0
 10
217.6072570552374
 20
73.10477073156186
 30
0.0
 10
217.6316604583239
 20
73.12776988498922
 30
0.0
 10
217.7177378918842
 20
73.20889414843998
 30
0.0
 10
217.8254323090824
 20
73.35218983042502
 30
0.0
 10
217.9226029104629
 20
73.54096433326654
 30
0.0
 10
217.9536538106518
 20
73.72692978482213
 30
0.0
 10
217.9243008890099
 20
73.89874447141001
 30
0.0
 10
217.8557947544052
 20
74.04555039924443
 30
0.0
 10
217.7679843685762
 20
74.16676145611387
 30
0.0
 10
217.6136925796948
 20
74.33234456531142
 30
0.0
 10
217.3458666331642
 20
74.54250882981853
 30
0.0
 10
216.8942963779919
 20
74.79795263337996
 30
0.0
 10
216.4467337686772
 20
75.00458933168558
 30
0.0
 10
216.0378399959139
 20
75.16309354809792
 30
0.0
 10
215.615760397078
 20
75.30561029609065
 30
0.0
 10
215.0374477792594
 20
75.46886686491989
 30
0.0
 10
214.5635691854686
 20
75.54443531484625
 30
0.0
 10
214.3059402625405
 20
75.58551887214759
 30
0.0
  0
LINE
  5
235
330
1F
100
AcDbEntity
  8
0
  6
Continuous
 62
     7
370
    25
100
AcDbLine
 10
207.7963705407
 20
60.338347684
 30
0.0
 11
207.7911324776
 21
60.634431107
 31
0.0
  0
LINE
  5
236
330
1F
100
AcDbEntity
  8
0
  6
Continuous
 62
     7
370
    25
100
AcDbLine
 10
207.7911324776
 20
60.634431107
 30
0.0
 11
207.8342322401
 21
61.2860928037
 31
0.0
  0
LINE
  5
237
330
1F
100
AcDbEntity
  8
0
  6
Continuous
 62
     7
370
    25
100
AcDbLine
 10
207.4040479184
 20
63.0175538105
 30
0.0
 11
207.0001691571
 21
63.4437158939
 31
0.0
  0
SPLINE
  5
238
330
1F
100
AcDbEntity
  8
0
  6
Continuous
 62
     7
370
    25
100
AcDbSpline
210
0.0
220
0.0
230
1.0
 70
     8
 71
     3
 72
    18
 73
    14
 74
     0
 42
0.000000001
 43
0.00000001
 40
0.0
 40
0.0
 40
0.0
 40
0.0
 40
0.0707943140208255
 40
0.1980684859852275
 40
0.3219456980797736
 40
0.4427972789066824
 40
0.5640588087926915
 40
0.6887793780430184
 40
0.7629730969043459
 40
0.811666558538083
 40
0.8526846007253863
 40
0.9053445042636868
 40
1.0
 40
1.0
 40
1.0
 40
1.0
 10
210.7260544508372
 20
73.32687008445218
 30
0.0
 10
210.724177740269
 20
73.50456024240289
 30
0.0
 10
210.718927075353
 20
74.00170215339615
 30
0.0
 10
211.0962579483855
 20
74.68469496695732
 30
0.0
 10
211.8302564402896
 20
75.27086858480946
 30
0.0
 10
212.8182585988509
 20
75.56788444960993
 30
0.0
 10
213.9373843742143
 20
75.56034655319644
 30
0.0
 10
214.9208404253247
 20
75.27829646777627
 30
0.0
 10
215.5978606235927
 20
74.87354830983764
 30
0.0
 10
215.9625601883485
 20
74.49816315503824
 30
0.0
 10
216.1564414064528
 20
74.1062702462801
 30
0.0
 10
216.2183759976977
 20
73.59221964551149
 30
0.0
 10
216.1516080208907
 20
73.2387259048212
 30
0.0
 10
216.1087071702322
 20
73.01159333463855
 30
0.0
  0
SPLINE
  5
239
330
1F
100
AcDbEntity
  8
0
  6
Continuous
 62
     7
370
    25
100
AcDbSpline
210
0.0
220
0.0
230
1.0
 70
     8
 71
     3
 72
    10
 73
     6
 74
     0
 42
0.000000001
 43
0.00000001
 40
0.0
 40
0.0
 40
0.0
 40
0.0
 40
0.2952118939789638
 40
0.9806889752106586
 40
1.0
 40
1.0
 40
1.0
 40
1.0
 10
216.1114350262204
 20
73.01035478121617
 30
0.0
 10
216.1942586510972
 20
72.9715896034227
 30
0.0
 10
216.469397347946
 20
72.84281233103124
 30
0.0
 10
216.7443286620486
 20
72.70162733117186
 30
0.0
 10
216.892793726723
 20
72.60763973677466
 30
0.0
 10
216.8968616338283
 20
72.6050644992674
 30
0.0
  0
ARC
  5
23A
330
1F
100
AcDbEntity
  8
0
  6
Continuous
 62
     7
370
    25
100
AcDbCircle
 10
220.1215435916
 20
58.7971357889
 30
0.0
 40
12.46654291791702
100
AcDbArc
 50
171.5249863735
 51
179.8211981812
  0
SPLINE
  5
23B
330
1F
100
AcDbEntity
  8
0
  6
Continuous
 62
     7
370
    25
100
AcDbSpline
210
0.0
220
0.0
230
1.0
 70
     8
 71
     3
 72
    14
 73
    10
 74
     0
 42
0.000000001
 43
0.00000001
 40
0.0
 40
0.0
 40
0.0
 40
0.0
 40
0.0003951393068452
 40
0.0003951393068452
 40
0.0003951393068452
 40
0.0008163352168664
 40
0.0008163352168664
 40
0.0008163352168664
 40
0.0012378579337219
 40
0.0012378579337219
 40
0.0012378579337219
 40
0.0012378579337219
 10
215.7033573633818
 20
73.1556021033843
 30
0.0
 10
215.7488191776131
 20
73.14116524075926
 30
0.0
 10
215.7937067822341
 20
73.12629938019366
 30
0.0
 10
215.8379904749092
 20
73.11101559258817
 30
0.0
 10
215.8851937671485
 20
73.0947241532505
 30
0.0
 10
215.9317195802077
 20
73.0779546751666
 30
0.0
 10
215.9775304894494
 20
73.06072586437129
 30
0.0
 10
216.0233768774385
 20
73.04348371053965
 30
0.0
 10
216.0685161130109
 20
73.02577800433515
 30
0.0
 10
216.1129096710532
 20
73.00763514764436
 30
0.0
  0
LINE
  5
23C
330
1F
100
AcDbEntity
  8
0
  6
Continuous
 62
     7
370
    25
100
AcDbLine
 10
207.0001691571
 20
63.4437158939
 30
0.0
 11
206.3602324827
 21
63.855947534
 31
0.0
  0
LINE
  5
23D
330
1F
100
AcDbEntity
  8
0
  6
Continuous
 62
     7
370
    25
100
AcDbLine
 10
206.0542983875
 20
64.2274259209
 30
0.0
 11
206.3602324827
 21
63.855947534
 31
0.0
  0
SPLINE
  5
23E
330
1F
100
AcDbEntity
  8
0
  6
Continuous
 62
     7
370
    25
100
AcDbSpline
210
0.0
220
0.0
230
1.0
 70
     8
 71
     3
 72
    13
 73
     9
 74
     0
 42
0.000000001
 43
0.00000001
 40
0.0
 40
0.0
 40
0.0
 40
0.0
 40
0.1618542298650875
 40
0.3254858841233149
 40
0.4910085196246548
 40
0.6585318472470939
 40
0.8281616954004768
 40
1.0
 40
1.0
 40
1.0
 40
1.0
 10
206.3602328943602
 20
63.8559475379544
 30
0.0
 10
206.3406555023452
 20
63.86851051498601
 30
0.0
 10
206.3012857265032
 20
63.89377443110217
 30
0.0
 10
206.2397497867372
 20
63.92646812801505
 30
0.0
 10
206.1761931274891
 20
63.95541420172187
 30
0.0
 10
206.1105750248308
 20
63.97992656918887
 30
0.0
 10
206.0431477557716
 20
64.00036163254471
 30
0.0
 10
205.9972631555696
 20
64.00995828753595
 30
0.0
 10
205.9741724753922
 20
64.01478764837158
 30
0.0
  0
SPLINE
  5
23F
330
1F
100
AcDbEntity
  8
0
  6
Continuous
 62
     7
370
    25
100
AcDbSpline
210
0.0
220
0.0
230
1.0
 70
     8
 71
     3
 72
     9
 73
     5
 74
     0
 42
0.000000001
 43
0.00000001
 40
0.0
 40
0.0
 40
0.0
 40
0.0
 40
0.4907282259506041
 40
1.0
 40
1.0
 40
1.0
 40
1.0
 10
205.9741666481003
 20
64.01475965134057
 30
0.0
 10
205.9500731256225
 20
64.02285518355869
 30
0.0
 10
205.9009756390633
 20
64.03935216047996
 30
0.0
 10
205.8502749452431
 20
64.0541458294962
 30
0.0
 10
205.8244545129558
 20
64.0616798275608
 30
0.0
  0
SPLINE
  5
240
330
1F
100
AcDbEntity
  8
0
  6
Continuous
 62
     7
370
    25
100
AcDbSpline
210
0.0
220
0.0
230
1.0
 70
     8
 71
     3
 72
    14
 73
    10
 74
     0
 42
0.000000001
 43
0.00000001
 40
0.0
 40
0.0
 40
0.0
 40
0.0
 40
0.0310276388093398
 40
0.0622853718693698
 40
0.1248003166924349
 40
0.2498289731770658
 40
0.4998892603621822
 40
0.7606803621577949
 40
1.0
 40
1.0
 40
1.0
 40
1.0
 10
205.2405138236678
 20
64.43578757020668
 30
0.0
 10
205.2465060630726
 20
64.43195652655272
 30
0.0
 10
205.2585349790321
 20
64.42426602905465
 30
0.0
 10
205.2825947870818
 20
64.40882813954771
 30
0.0
 10
205.3248284597281
 20
64.38175768661682
 30
0.0
 10
205.4093910342404
 20
64.32754566182138
 30
0.0
 10
205.5326780037088
 20
64.24854247995663
 30
0.0
 10
205.6788097101626
 20
64.15493630527887
 30
0.0
 10
205.7771763267036
 20
64.09195322888641
 30
0.0
 10
205.8242480273902
 20
64.0618137300959
 30
0.0
  0
LINE
  5
241
330
1F
100
AcDbEntity
  8
0
  6
Continuous
 62
     7
370
    25
100
AcDbLine
 10
203.4380136684
 20
65.5984182472
 30
0.0
 11
203.7289810226
 21
65.4103397081
 31
0.0
  0
SPLINE
  5
242
330
1F
100
AcDbEntity
  8
0
  6
Continuous
 62
     7
370
    25
100
AcDbSpline
210
0.0
220
0.0
230
1.0
 70
     8
 71
     3
 72
     8
 73
     4
 74
     0
 42
0.000000001
 43
0.00000001
 40
0.0
 40
0.0
 40
0.0
 40
0.0
 40
1.0
 40
1.0
 40
1.0
 40
1.0
 10
203.7603693259627
 20
65.39011717789549
 30
0.0
 10
203.7499268201109
 20
65.3969426027929
 30
0.0
 10
203.7394608872211
 20
65.40368556957942
 30
0.0
 10
203.7289731224045
 20
65.4103446572324
 30
0.0
  0
SPLINE
  5
243
330
1F
100
AcDbEntity
  8
0
  6
Continuous
 62
     7
370
    25
100
AcDbSpline
210
0.0
220
0.0
230
1.0
 70
     8
 71
     3
 72
     8
 73
     4
 74
     0
 42
0.000000001
 43
0.00000001
 40
0.0
 40
0.0
 40
0.0
 40
0.0
 40
1.0
 40
1.0
 40
1.0
 40
1.0
 10
200.9743649471369
 20
67.26837282970583
 30
0.0
 10
201.0333647113075
 20
67.22963216278643
 30
0.0
 10
201.0926522748187
 20
67.19157018548673
 30
0.0
 10
201.1522333483078
 20
67.15418639702602
 30
0.0
  0
SPLINE
  5
244
330
1F
100
AcDbEntity
  8
0
  6
Continuous
 62
     7
370
    25
100
AcDbSpline
210
0.0
220
0.0
230
1.0
 70
     8
 71
     3
 72
     8
 73
     4
 74
     0
 42
0.000000001
 43
0.00000001
 40
0.0
 40
0.0
 40
0.0
 40
0.0
 40
1.0
 40
1.0
 40
1.0
 40
1.0
 10
200.9495152010393
 20
67.6315830076429
 30
0.0
 10
200.9569894131298
 20
67.51062516693167
 30
0.0
 10
200.9652855170199
 20
67.38955332452166
 30
0.0
 10
200.9743649471387
 20
67.26837282970645
 30
0.0
  0
LWPOLYLINE
  5
245
330
1F
100
AcDbEntity
  8
0
  6
Continuous
 62
     7
370
    25
100
AcDbPolyline
 90
       15
 70
   128
 43
0.0
 10
200.9495155598
 20
67.6315823422
 10
201.3649669238
 20
68.7958337188
 10
201.8694982862
 20
69.9503793138
 10
202.4564504451
 20
71.079980076
 10
203.1180756243
 20
72.1697244352
 10
203.845639548
 20
73.2052271542
 10
204.6295383323
 20
74.1728192433
 10
205.4594242675
 20
75.0597285586
 10
206.3243424656
 20
75.8542469007
 10
207.2128754935
 20
76.5458865139
 10
208.1132944266
 20
77.1255174781
 10
209.0137133597
 20
77.5854880855
 10
209.9022463876
 20
77.9197268699
 10
210.7671645857
 20
78.1238218233
 10
210.9134780288
 20
78.1456900337
  0
SPLINE
  5
246
330
1F
100
AcDbEntity
  8
0
  6
Continuous
 62
     7
370
    25
100
AcDbSpline
210
0.0
220
0.0
230
1.0
 70
     8
 71
     3
 72
    10
 73
     6
 74
     0
 42
0.000000001
 43
0.00000001
 40
0.0
 40
0.0
 40
0.0
 40
0.0
 40
0.2409818396634726
 40
0.5031433556203718
 40
1.0
 40
1.0
 40
1.0
 40
1.0
 10
207.000169157078
 20
56.73787427068907
 30
0.0
 10
207.082415028081
 20
56.68619774876851
 30
0.0
 10
207.2541352854255
 20
56.57830290207713
 30
0.0
 10
207.5318566444523
 20
56.44858019161289
 30
0.0
 10
207.6528338914964
 20
56.47135813271787
 30
0.0
 10
207.7320261324119
 20
56.48626867369661
 30
0.0
  0
LINE
  5
247
330
1F
100
AcDbEntity
  8
0
  6
Continuous
 62
     7
370
    25
100
AcDbLine
 10
202.2169951009
 20
66.4669470036
 30
0.0
 11
201.4551163986
 21
66.9575814113
 31
0.0
  0
LINE
  5
248
330
1F
100
AcDbEntity
  8
0
  6
Continuous
 62
     7
370
    25
100
AcDbLine
 10
201.4551163986
 20
66.9575814113
 30
0.0
 11
200.9743650783
 21
67.2683727874
 31
0.0
  0
LINE
  5
249
330
1F
100
AcDbEntity
  8
0
  6
Continuous
 62
     7
370
    25
100
AcDbLine
 10
206.0542983875
 20
56.4620944698
 30
0.0
 11
206.3602324827
 21
57.1501059108
 31
0.0
  0
LINE
  5
24A
330
1F
100
AcDbEntity
  8
0
  6
Continuous
 62
     7
370
    25
100
AcDbLine
 10
206.3602324827
 20
57.1501059108
 30
0.0
 11
207.0001691571
 21
56.7378742707
 31
0.0
  0
SPLINE
  5
24B
330
1F
100
AcDbEntity
  8
0
  6
Continuous
 62
     7
370
    25
100
AcDbSpline
210
0.0
220
0.0
230
1.0
 70
     8
 71
     3
 72
    13
 73
     9
 74
     0
 42
0.000000001
 43
0.00000001
 40
0.0
 40
0.0
 40
0.0
 40
0.0
 40
0.1722587823402174
 40
0.3421398270982735
 40
0.5097456257612809
 40
0.6751828993009421
 40
0.8385626189970466
 40
1.0
 40
1.0
 40
1.0
 40
1.0
 10
205.9741609635869
 20
57.43141561620768
 30
0.0
 10
205.9973124875377
 20
57.41329602527468
 30
0.0
 10
206.0432959682865
 20
57.37730695334063
 30
0.0
 10
206.1108369809974
 20
57.32630696992545
 30
0.0
 10
206.1764965956827
 20
57.27798228973478
 30
0.0
 10
206.240020666933
 20
57.23255128382545
 30
0.0
 10
206.3014510456549
 20
57.18972571606523
 30
0.0
 10
206.3407172126285
 20
57.16325989888978
 30
0.0
 10
206.3602328943602
 20
57.15010612034267
 30
0.0
  0
SPLINE
  5
24C
330
1F
100
AcDbEntity
  8
0
  6
Continuous
 62
     7
370
    25
100
AcDbSpline
210
0.0
220
0.0
230
1.0
 70
     8
 71
     3
 72
    11
 73
     7
 74
     0
 42
0.000000001
 43
0.00000001
 40
0.0
 40
0.0
 40
0.0
 40
0.0
 40
0.239284509383631
 40
0.5001120454057238
 40
0.7515010915050501
 40
1.0
 40
1.0
 40
1.0
 40
1.0
 10
205.8247805521108
 20
57.47872960842056
 30
0.0
 10
205.7777113201196
 20
57.45041508571434
 30
0.0
 10
205.6793351655266
 20
57.39123685515622
 30
0.0
 10
205.5330379439412
 20
57.29804895469884
 30
0.0
 10
205.3851972002799
 20
57.20267703872646
 30
0.0
 10
205.2889107375638
 20
57.13814178345821
 30
0.0
 10
205.2410458497066
 20
57.10606071339798
 30
0.0
  0
SPLINE
  5
24D
330
1F
100
AcDbEntity
  8
0
  6
Continuous
 62
     7
370
    25
100
AcDbSpline
210
0.0
220
0.0
230
1.0
 70
     8
 71
     3
 72
     9
 73
     5
 74
     0
 42
0.000000001
 43
0.00000001
 40
0.0
 40
0.0
 40
0.0
 40
0.0
 40
0.509066935386983
 40
0.9999999999999999
 40
0.9999999999999999
 40
0.9999999999999999
 40
0.9999999999999999
 10
205.825351555695
 20
57.47803065420879
 30
0.0
 10
205.851000130319
 20
57.47053794604891
 30
0.0
 10
205.9013836316644
 20
57.45581943333665
 30
0.0
 10
205.9501911431597
 20
57.43942707548448
 30
0.0
 10
205.9741523643543
 20
57.43137952500789
 30
0.0
  0
LINE
  5
24E
330
1F
100
AcDbEntity
  8
0
  6
Continuous
 62
     7
370
    25
100
AcDbLine
 10
207.6552701358
 20
58.4019092215
 30
0.0
 11
205.9741541795
 21
57.4314216373
 31
0.0
  0
LINE
  5
24F
330
1F
100
AcDbEntity
  8
0
  6
Continuous
 62
     7
370
    25
100
AcDbLine
 10
203.9676665282
 20
58.5552429359
 30
0.0
 11
203.7673708747
 21
58.0540855217
 31
0.0
  0
SPLINE
  5
250
330
1F
100
AcDbEntity
  8
0
  6
Continuous
 62
     7
370
    25
100
AcDbSpline
210
0.0
220
0.0
230
1.0
 70
     8
 71
     3
 72
     8
 73
     4
 74
     0
 42
0.000000001
 43
0.00000001
 40
0.0
 40
0.0
 40
0.0
 40
0.0
 40
1.0
 40
1.0
 40
1.0
 40
1.0
 10
203.9672233575548
 20
58.55602668807014
 30
0.0
 10
203.993398692124
 20
58.57819406504841
 30
0.0
 10
204.0192197320895
 20
58.60082620614002
 30
0.0
 10
204.0446772857979
 20
58.6239109262313
 30
0.0
  0
LINE
  5
251
330
1F
100
AcDbEntity
  8
0
  6
Continuous
 62
     7
370
    25
100
AcDbLine
 10
204.0446773815
 20
58.6239108106
 30
0.0
 11
205.8249701408
 21
57.4781399255
 31
0.0
  0
LINE
  5
252
330
1F
100
AcDbEntity
  8
0
  6
Continuous
 62
     7
370
    25
100
AcDbLine
 10
207.6550613772
 20
58.4999591567
 30
0.0
 11
207.5670620503
 21
58.607450225
 31
0.0
  0
LINE
  5
253
330
1F
100
AcDbEntity
  8
0
  6
Continuous
 62
     7
370
    25
100
AcDbLine
 10
205.7387903723
 20
59.6019014231
 30
0.0
 11
204.0446773815
 21
58.6239108106
 31
0.0
  0
LINE
  5
254
330
1F
100
AcDbEntity
  8
0
  6
Continuous
 62
     7
370
    25
100
AcDbLine
 10
205.8811011819
 20
59.5806731298
 30
0.0
 11
205.7392105237
 21
59.6014140456
 31
0.0
  0
LINE
  5
255
330
1F
100
AcDbEntity
  8
0
  6
Continuous
 62
     7
370
    25
100
AcDbLine
 10
207.5671358072
 20
58.6073460585
 30
0.0
 11
205.8811011819
 21
59.5806731298
 31
0.0
  0
LINE
  5
256
330
1F
100
AcDbEntity
  8
0
  6
Continuous
 62
     7
370
    25
100
AcDbLine
 10
207.6550613772
 20
58.5565819757
 30
0.0
 11
207.5670890506
 21
58.6073730319
 31
0.0
  0
SPLINE
  5
257
330
1F
100
AcDbEntity
  8
0
  6
Continuous
 62
     7
370
    25
100
AcDbSpline
210
0.0
220
0.0
230
1.0
 70
     8
 71
     3
 72
    19
 73
    15
 74
     0
 42
0.000000001
 43
0.00000001
 40
0.0
 40
0.0
 40
0.0
 40
0.0
 40
0.0637853009172641
 40
0.1289628367748405
 40
0.1955871994416645
 40
0.2637095015536399
 40
0.333377557949238
 40
0.4046360709686026
 40
0.4775268158973639
 40
0.5520888236427515
 40
0.6283585584336152
 40
0.7063700889344581
 40
0.8377041806176546
 40
0.9999999999999999
 40
0.9999999999999999
 40
0.9999999999999999
 40
0.9999999999999999
 10
203.1831542515935
 20
58.72451477542201
 30
0.0
 10
203.2038436206001
 20
58.71115563541079
 30
0.0
 10
203.2456739432575
 20
58.68414576686827
 30
0.0
 10
203.3061649168557
 20
58.64662380134022
 30
0.0
 10
203.3656491150373
 20
58.6111040602489
 30
0.0
 10
203.4237302745104
 20
58.57812393133248
 30
0.0
 10
203.480262391598
 20
58.54791749506279
 30
0.0
 10
203.5350074463511
 20
58.52080405510225
 30
0.0
 10
203.5877298239419
 20
58.4970724373534
 30
0.0
 10
203.6381714568704
 20
58.47703218390976
 30
0.0
 10
203.6860543753327
 20
58.46091232237231
 30
0.0
 10
203.7410185297078
 20
58.44663435268756
 30
0.0
 10
203.803849843669
 20
58.43649579543706
 30
0.0
 10
203.842357359329
 20
58.44297004675285
 30
0.0
 10
203.863641324521
 20
58.44654851026283
 30
0.0
  0
LINE
  5
258
330
1F
100
AcDbEntity
  8
0
  6
Continuous
 62
     7
370
    25
100
AcDbLine
 10
203.8882770122
 20
58.4726189645
 30
0.0
 11
203.9670810822
 21
58.5560105683
 31
0.0
  0
SPLINE
  5
259
330
1F
100
AcDbEntity
  8
0
  6
Continuous
 62
     7
370
    25
100
AcDbSpline
210
0.0
220
0.0
230
1.0
 70
     8
 71
     3
 72
     9
 73
     5
 74
     0
 42
0.000000001
 43
0.00000001
 40
0.0
 40
0.0
 40
0.0
 40
0.0
 40
0.5231976711515671
 40
0.9999999999999999
 40
0.9999999999999999
 40
0.9999999999999999
 40
0.9999999999999999
 10
205.5725408112696
 20
59.50592776378082
 30
0.0
 10
205.5035060197448
 20
59.53096445869751
 30
0.0
 10
205.3715582009158
 20
59.57881768186188
 30
0.0
 10
205.1301192305459
 20
59.71641219924884
 30
0.0
 10
205.0150005671988
 20
59.78201758557571
 30
0.0
  0
LINE
  5
25A
330
1F
100
AcDbEntity
  8
0
  6
Continuous
 62
     7
370
    25
100
AcDbLine
 10
201.285470065
 20
59.5478902307
 30
0.0
 11
201.7369411793
 21
59.6601542035
 31
0.0
  0
LINE
  5
25B
330
1F
100
AcDbEntity
  8
0
  6
Continuous
 62
     7
370
    25
100
AcDbLine
 10
201.7369411793
 20
59.6601542035
 30
0.0
 11
203.1831536511
 21
58.7245148705
 31
0.0
  0
SPLINE
  5
25C
330
1F
100
AcDbEntity
  8
0
  6
Continuous
 62
     7
370
    25
100
AcDbSpline
210
0.0
220
0.0
230
1.0
 70
     8
 71
     3
 72
     8
 73
     4
 74
     0
 42
0.000000001
 43
0.00000001
 40
0.0
 40
0.0
 40
0.0
 40
0.0
 40
1.0
 40
1.0
 40
1.0
 40
1.0
 10
201.4562586356102
 20
59.15314057763869
 30
0.0
 10
201.3991333666869
 20
59.28492676143262
 30
0.0
 10
201.3422048749701
 20
59.41651098309171
 30
0.0
 10
201.2854707570214
 20
59.54789004999137
 30
0.0
  0
LINE
  5
25D
330
1F
100
AcDbEntity
  8
0
  6
Continuous
 62
     7
370
    25
100
AcDbLine
 10
203.0746426384
 20
60.4323928183
 30
0.0
 11
201.7369411793
 21
59.6601542035
 31
0.0
  0
LINE
  5
25E
330
1F
100
AcDbEntity
  8
0
  6
Continuous
 62
     7
370
    25
100
AcDbLine
 10
204.0577409289
 20
60.3346325724
 30
0.0
 11
203.0746426384
 21
60.4323928183
 31
0.0
  0
LINE
  5
25F
330
1F
100
AcDbEntity
  8
0
  6
Continuous
 62
     7
370
    25
100
AcDbLine
 10
205.0150005672
 20
59.7820175856
 30
0.0
 11
204.0577402704
 21
60.3346321922
 31
0.0
  0
SPLINE
  5
260
330
1F
100
AcDbEntity
  8
0
  6
Continuous
 62
     7
370
    25
100
AcDbSpline
210
0.0
220
0.0
230
1.0
 70
     8
 71
     3
 72
     8
 73
     4
 74
     0
 42
0.000000001
 43
0.00000001
 40
0.0
 40
0.0
 40
0.0
 40
0.0
 40
1.0
 40
1.0
 40
1.0
 40
1.0
 10
201.2854707570214
 20
59.54789004999137
 30
0.0
 10
201.2823334192713
 20
59.58310635686388
 30
0.0
 10
201.2803410153733
 20
59.61875061309158
 30
0.0
 10
201.2795596180013
 20
59.65484751508646
 30
0.0
  0
LINE
  5
261
330
1F
100
AcDbEntity
  8
0
  6
Continuous
 62
     7
370
    25
100
AcDbLine
 10
202.0906460931
 20
60.1230772298
 30
0.0
 11
201.2795602865
 21
59.6548473602
 31
0.0
  0
SPLINE
  5
262
330
1F
100
AcDbEntity
  8
0
  6
Continuous
 62
     7
370
    25
100
AcDbSpline
210
0.0
220
0.0
230
1.0
 70
     8
 71
     3
 72
     8
 73
     4
 74
     0
 42
0.000000001
 43
0.00000001
 40
0.0000004089325119
 40
0.0000004089325119
 40
0.0000004089325119
 40
0.0000004089325119
 40
0.0015399868451459
 40
0.0015399868451459
 40
0.0015399868451459
 40
0.0015399868451459
 10
202.09064515049
 20
60.12307722644257
 30
0.0
 10
202.3291217185132
 20
60.21745361225893
 30
0.0
 10
202.5675686761819
 20
60.31188222418913
 30
0.0
 10
202.8059774150323
 20
60.40637560715159
 30
0.0
  0
LINE
  5
263
330
1F
100
AcDbEntity
  8
0
  6
Continuous
 62
     7
370
    25
100
AcDbLine
 10
202.805976894
 20
60.4063757543
 30
0.0
 11
202.8303733338
 21
60.4113697807
 31
0.0
  0
LINE
  5
264
330
1F
100
AcDbEntity
  8
0
  6
Continuous
 62
     7
370
    25
100
AcDbLine
 10
203.0746426384
 20
60.4323928183
 30
0.0
 11
202.8303739924
 21
60.4113697806
 31
0.0
  0
SPLINE
  5
265
330
1F
100
AcDbEntity
  8
0
  6
Continuous
 62
     7
370
    25
100
AcDbSpline
210
0.0
220
0.0
230
1.0
 70
     8
 71
     3
 72
     8
 73
     4
 74
     0
 42
0.000000001
 43
0.00000001
 40
0.0
 40
0.0
 40
0.0
 40
0.0
 40
1.0
 40
1.0
 40
1.0
 40
1.0
 10
204.057738872668
 20
60.33463293712331
 30
0.0
 10
204.0883235391663
 20
60.31971213591554
 30
0.0
 10
204.1188517801653
 20
60.30485427047757
 30
0.0
 10
204.1493225683763
 20
60.29005968334933
 30
0.0
  0
ARC
  5
266
330
1F
100
AcDbEntity
  8
0
  6
Continuous
 62
     7
370
    25
100
AcDbCircle
 10
204.9383528098
 20
65.763359545
 30
0.0
 40
6.549762100195339
100
AcDbArc
 50
283.6682343678
 51
294.9135532271
  0
LINE
  5
267
330
1F
100
AcDbEntity
  8
0
  6
Continuous
 62
     7
370
    18
100
AcDbLine
 10
252.3515084147
 20
40.3527307795
 30
0.0
 11
252.2998350613
 21
40.5356322767
 31
0.0
  0
LINE
  5
268
330
1F
100
AcDbEntity
  8
0
  6
Continuous
 62
     7
370
    18
100
AcDbLine
 10
252.0087208518
 20
37.825161862
 30
0.0
 11
251.3481262947
 21
37.7114175342
 31
0.0
  0
LINE
  5
269
330
1F
100
AcDbEntity
  8
0
  6
Continuous
 62
     7
370
    18
100
AcDbLine
 10
252.9335142458
 20
40.0095644371
 30
0.0
 11
252.9310894849
 21
40.0181453477
 31
0.0
  0
LINE
  5
26A
330
1F
100
AcDbEntity
  8
0
  6
Continuous
 62
     7
370
    18
100
AcDbLine
 10
251.3481262947
 20
37.7114175342
 30
0.0
 11
251.1639050541
 21
37.5453987746
 31
0.0
  0
LINE
  5
26B
330
1F
100
AcDbEntity
  8
0
  6
Continuous
 62
     7
370
    18
100
AcDbLine
 10
252.1531469064
 20
37.9553175036
 30
0.0
 11
252.0087208518
 21
37.825161862
 31
0.0
  0
LINE
  5
26C
330
1F
100
AcDbEntity
  8
0
  6
Continuous
 62
     7
370
    18
100
AcDbLine
 10
262.0785405226
 20
30.0385674612
 30
0.0
 11
261.5658873308
 21
30.3345158494
 31
0.0
  0
LINE
  5
26D
330
1F
100
AcDbEntity
  8
0
  6
Continuous
 62
     7
370
    18
100
AcDbLine
 10
258.2002242777
 20
47.7342772028
 30
0.0
 11
258.0633632531
 21
47.8096650354
 31
0.0
  0
LINE
  5
26E
330
1F
100
AcDbEntity
  8
0
  6
Continuous
 62
     7
370
    18
100
AcDbLine
 10
260.1348744366
 20
48.0810160828
 30
0.0
 11
260.2483862717
 21
48.9442561945
 31
0.0
  0
LINE
  5
26F
330
1F
100
AcDbEntity
  8
0
  6
Continuous
 62
     7
370
    18
100
AcDbLine
 10
260.2483862717
 20
48.9442561945
 30
0.0
 11
260.3820899046
 21
49.1794840987
 31
0.0
  0
LINE
  5
270
330
1F
100
AcDbEntity
  8
0
  6
Continuous
 62
     7
370
    18
100
AcDbLine
 10
260.0300532487
 20
47.8966026407
 30
0.0
 11
260.1348744366
 21
48.0810160828
 31
0.0
  0
LINE
  5
271
330
1F
100
AcDbEntity
  8
0
  6
Continuous
 62
     7
370
    18
100
AcDbLine
 10
262.7855991813
 20
30.4562715761
 30
0.0
 11
262.2729459895
 21
30.7522199644
 31
0.0
  0
LINE
  5
272
330
1F
100
AcDbEntity
  8
0
  6
Continuous
 62
     7
370
    18
100
AcDbLine
 10
252.7838204937
 20
28.9632667706
 30
0.0
 11
252.4722512332
 21
28.4742780625
 31
0.0
  0
LINE
  5
273
330
1F
100
AcDbEntity
  8
0
  6
Continuous
 62
     7
370
    18
100
AcDbLine
 10
252.4722512332
 20
28.4742780625
 30
0.0
 11
252.4248913463
 21
28.2328712802
 31
0.0
  0
ARC
  5
274
330
1F
100
AcDbEntity
  8
0
  6
Continuous
 62
     7
370
    18
100
AcDbCircle
 10
258.5155381733
 20
36.9653082832
 30
0.0
 40
7.849396097446595
100
AcDbArc
 50
290.1071016752
 51
312.6960329609
  0
LWPOLYLINE
  5
275
330
1F
100
AcDbEntity
  8
0
  6
Continuous
 62
     7
370
    18
100
AcDbPolyline
 90
       22
 70
   128
 43
0.0
 10
252.6433443891
 20
50.5194080387
 10
251.8224435528
 20
49.9903009463
 10
251.012643966
 20
49.3579254687
 10
250.2248968122
 20
48.6308340274
 10
249.4698549543
 20
47.8188585504
 10
248.7577292895
 20
46.9329811601
 10
248.0981495496
 20
45.9851804298
 10
247.5000360491
 20
44.9882744551
 10
246.9714770317
 20
43.9557443437
 10
246.5196200103
 20
42.9015532344
 10
246.1505762778
 20
41.8399577123
 10
245.8693356261
 20
40.7853135175
 10
245.6797018081
 20
39.75188306
 10
245.5842398548
 20
38.7536420761
 10
245.5842398548
 20
37.8040895166
 10
245.6797018081
 20
36.916066558
 10
245.8693356261
 20
36.1015826463
 10
246.1505762778
 20
35.3716519963
 10
246.5196200103
 20
34.7361452981
 10
246.9714770317
 20
34.203657201
 10
247.5000360491
 20
33.7813883412
 10
247.6437508756
 20
33.6935117341
  0
LWPOLYLINE
  5
276
330
1F
100
AcDbEntity
  8
0
  6
Continuous
 62
     7
370
    18
100
AcDbPolyline
 90
        8
 70
   128
 43
0.0
 10
257.5828371551
 20
51.0483601842
 10
257.1885392285
 20
51.2329506895
 10
256.5289594886
 20
51.4192168618
 10
255.8168338238
 20
51.4828914606
 10
255.0617919659
 20
51.4231141642
 10
254.2740448121
 20
51.2406921013
 10
253.4642452253
 20
50.9380928774
 10
252.6433443891
 20
50.5194080387
  0
ARC
  5
277
330
1F
100
AcDbEntity
  8
0
  6
Continuous
 62
     7
370
    18
100
AcDbCircle
 10
253.1471105192
 20
42.0631819663
 30
0.0
 40
12.89708849294055
100
AcDbArc
 50
302.4815368208
 51
357.5238403474
  0
ARC
  5
278
330
1F
100
AcDbEntity
  8
0
  6
Continuous
 62
     7
370
    18
100
AcDbCircle
 10
253.1086762777
 20
42.0853696065
 30
0.0
 40
12.29205955120966
100
AcDbArc
 50
303.6879777393
 51
356.3173993517
  0
LWPOLYLINE
  5
279
330
1F
100
AcDbEntity
  8
0
  6
Continuous
 62
     7
370
    18
100
AcDbPolyline
 90
       26
 70
   128
 43
0.0
 10
251.9362361749
 20
52.1524243404
 10
251.0570417197
 20
51.5898300785
 10
250.1881549678
 20
50.9237405078
 10
249.3397629441
 20
50.1619642459
 10
248.521812305
 20
49.3134319963
 10
247.7438924462
 20
48.388093326
 10
247.0151240446
 20
47.3967960477
 10
246.3440513859
 20
46.3511624645
 10
245.7385414428
 20
45.2634512607
 10
245.2056946421
 20
44.1464158732
 10
244.7517566201
 20
43.0131512674
 10
244.3820503918
 20
41.876944892
 10
244.1009098388
 20
40.7511171786
 10
243.9116316349
 20
39.6488678379
 10
243.8164337579
 20
38.583119065
 10
243.8164337579
 20
37.5663665862
 10
243.9116316349
 20
36.6105309425
 10
244.1009098388
 20
35.7268175644
 10
244.3820503918
 20
34.9255878243
 10
244.7517566201
 20
34.2162351741
 10
245.2056946421
 20
33.6070762527
 10
245.7385414428
 20
33.1052526861
 10
246.3440513859
 20
32.7166483817
 10
247.0151240446
 20
32.4458187981
 10
247.7438924462
 20
32.2959396062
 10
248.4310991161
 20
32.2656495752
  0
LWPOLYLINE
  5
27A
330
1F
100
AcDbEntity
  8
0
  6
Continuous
 62
     7
370
    18
100
AcDbPolyline
 90
       12
 70
   128
 43
0.0
 10
259.2731740516
 20
51.0467091666
 10
259.1207157297
 20
51.3081747968
 10
258.6667777076
 20
51.9173337183
 10
258.1339309069
 20
52.4191572849
 10
257.5284209638
 20
52.8077615893
 10
256.8573483051
 20
53.0785911728
 10
256.1285799035
 20
53.2284703648
 10
255.3506600448
 20
53.2556418842
 10
254.5327094056
 20
53.1597884277
 10
253.684317382
 20
52.9420321089
 10
252.8154306301
 20
52.6049263896
 10
251.9362361749
 20
52.1524243404
  0
LWPOLYLINE
  5
27B
330
1F
100
AcDbEntity
  8
0
  6
Continuous
 62
     7
370
    18
100
AcDbPolyline
 90
       24
 70
   128
 43
0.0
 10
251.2291305949
 20
53.3771686486
 10
250.3052208029
 20
52.7878930841
 10
249.3914334987
 20
52.0932464514
 10
248.4977803695
 20
51.3008388087
 10
247.6340524906
 20
50.4193536286
 10
246.8097131466
 20
49.4584463808
 10
246.0337939461
 20
48.4286465377
 10
245.3147957108
 20
47.3412364797
 10
244.6605962795
 20
46.2081298297
 10
244.0783632505
 20
45.0417412323
 10
243.5744752861
 20
43.8548500483
 10
243.1544529647
 20
42.6604596749
 10
242.8228995125
 20
41.4716568664
 10
242.5834454854
 20
40.3014653498
 10
242.4387158418
 20
39.1627068535
 10
242.3902956983
 20
38.067857573
 10
242.4387158418
 20
37.0289130003
 10
242.5834454854
 20
36.0572557937
 10
242.8228995125
 20
35.163532012
 10
243.1544529647
 20
34.3575326711
 10
243.5744752861
 20
33.6480897476
 10
244.0783632505
 20
33.0429752238
 10
244.6605962795
 20
32.5488185729
 10
244.9796387031
 20
32.3447975074
  0
LWPOLYLINE
  5
27C
330
1F
100
AcDbEntity
  8
0
  6
Continuous
 62
     7
370
    18
100
AcDbPolyline
 90
        9
 70
   128
 43
0.0
 10
257.4827897563
 20
53.9936096511
 10
257.143465479
 20
54.1697821872
 10
256.4244672437
 20
54.4270545528
 10
255.6485480431
 20
54.5609971558
 10
254.8242086991
 20
54.5701424557
 10
253.9604808202
 20
54.4543886537
 10
253.0668276911
 20
54.2150063557
 10
252.1530403868
 20
53.854616624
 10
251.2291305949
 20
53.3771686486
  0
LWPOLYLINE
  5
27D
330
1F
100
AcDbEntity
  8
0
  6
Continuous
 62
     7
370
    18
100
AcDbPolyline
 90
        9
 70
   128
 43
0.0
 10
221.1770914198
 20
50.313979737
 10
221.2255115633
 20
49.2750351643
 10
221.3702412069
 20
48.3033779576
 10
221.609695234
 20
47.4096541759
 10
221.9412486862
 20
46.6036548351
 10
222.3612710075
 20
45.8942119116
 10
222.865158972
 20
45.2890973878
 10
223.4473920009
 20
44.7949407368
 10
223.7664344245
 20
44.5909196714
  0
LWPOLYLINE
  5
27E
330
1F
100
AcDbEntity
  8
0
  6
Continuous
 62
     7
370
    18
100
AcDbPolyline
 90
       24
 70
   128
 43
0.0
 10
236.2654182081
 20
66.2421413525
 10
235.9302612004
 20
66.4159043511
 10
235.2112629652
 20
66.6731767167
 10
234.4353437646
 20
66.8071193197
 10
233.6110044206
 20
66.8162646197
 10
232.7472765417
 20
66.7005108177
 10
231.8536234125
 20
66.4611285197
 10
230.9398361083
 20
66.100738788
 10
230.0159263163
 20
65.6232908126
 10
229.0920165244
 20
65.0340152481
 10
228.1782292201
 20
64.3393686153
 10
227.284576091
 20
63.5469609727
 10
226.4208482121
 20
62.6654757926
 10
225.5965088681
 20
61.7045685448
 10
224.8205896675
 20
60.6747687017
 10
224.1015914323
 20
59.5873586436
 10
223.4473920009
 20
58.4542519936
 10
222.865158972
 20
57.2878633963
 10
222.3612710075
 20
56.1009722122
 10
221.9412486862
 20
54.9065818388
 10
221.609695234
 20
53.7177790303
 10
221.3702412069
 20
52.5475875137
 10
221.2255115633
 20
51.4088290174
 10
221.1770914198
 20
50.313979737
  0
LWPOLYLINE
  5
27F
330
1F
100
AcDbEntity
  8
0
  6
Continuous
 62
     7
370
    18
100
AcDbPolyline
 90
       25
 70
   128
 43
0.0
 10
251.9362361749
 20
51.7441538676
 10
251.0653569142
 20
51.1849294346
 10
250.205429578
 20
50.5197846112
 10
249.3672680433
 20
49.7570830468
 10
248.5614125619
 20
48.9064175144
 10
247.7979978044
 20
47.9784843046
 10
247.0866235389
 20
46.9849538158
 10
246.4362360925
 20
45.9383196138
 10
245.8550142587
 20
44.8517439735
 10
245.3502675522
 20
43.7388911569
 10
244.9283426957
 20
42.6137559373
 10
244.5945468995
 20
41.4904875596
 10
244.3530764091
 20
40.3832116086
 10
244.2069690904
 20
39.3058533006
 10
244.158061624
 20
38.2719603948
 10
244.2069690904
 20
37.2945348478
 10
244.3530764091
 20
36.3858684593
 10
244.5945468995
 20
35.5573884021
 10
244.9283426957
 20
34.8195124475
 10
245.3502675522
 20
34.181521298
 10
245.8550142587
 20
33.6514366241
 10
246.4362360925
 20
33.2359254292
 10
247.0866235389
 20
32.940212589
 10
247.7979978044
 20
32.7680173445
 10
248.3160000241
 20
32.7225259479
  0
LWPOLYLINE
  5
280
330
1F
100
AcDbEntity
  8
0
  6
Continuous
 62
     7
370
    18
100
AcDbPolyline
 90
       11
 70
   128
 43
0.0
 10
258.8199696481
 20
50.9179068448
 10
258.5222047976
 20
51.342888673
 10
258.0174580911
 20
51.8729733469
 10
257.4362362572
 20
52.2884845418
 10
256.7858488108
 20
52.5841973819
 10
256.0744745453
 20
52.7563926264
 10
255.3110597879
 20
52.8029059189
 10
254.5052043064
 20
52.723150517
 10
253.6670427717
 20
52.5181313719
 10
252.8071154355
 20
52.1904252264
 10
251.9362361749
 20
51.7441538676
  0
LWPOLYLINE
  5
281
330
1F
100
AcDbEntity
  8
0
  6
Continuous
 62
     7
370
    18
100
AcDbPolyline
 90
       31
 70
   128
 43
0.0
 10
218.34866449
 20
50.3139801172
 10
218.3965294805
 20
51.4843215515
 10
218.5396773002
 20
52.698999488
 10
218.7767717623
 20
53.9466726987
 10
219.1055988402
 20
55.2156924307
 10
219.5230890579
 20
56.4942096292
 10
220.025343832
 20
57.7702876742
 10
220.607673667
 20
59.032012073
 10
221.2646416194
 20
60.2676022448
 10
221.9901140057
 20
61.465521022
 10
222.7773170372
 20
62.6145856731
 10
223.6189010277
 20
63.7040658056
 10
224.5070082242
 20
64.7237909657
 10
225.4333462344
 20
65.6642386548
 10
226.3892667224
 20
66.5166291897
 10
227.3658441053
 20
67.2730030724
 10
228.3539604844
 20
67.9262989179
 10
229.3443900423
 20
68.4704173843
 10
230.3278854352
 20
68.9002778907
 10
231.2952639391
 20
69.2118668269
 10
232.2374936161
 20
69.4022751293
 10
233.14577697
 20
69.4697245204
 10
234.011633594
 20
69.4135855622
 10
234.8269791957
 20
69.2343829723
 10
235.5842013298
 20
68.9337891526
 10
236.2762295333
 20
68.5146106845
 10
236.896602826
 20
67.9807611359
 10
237.4395293089
 20
67.3372262649
 10
237.8999388478
 20
66.5900130634
 10
238.2735344399
 20
65.7460991816
 10
238.5257378887
 20
64.9372867295
  0
LWPOLYLINE
  5
282
330
1F
100
AcDbEntity
  8
0
  6
Continuous
 62
     7
370
    18
100
AcDbPolyline
 90
       15
 70
   128
 43
0.0
 10
226.0267536112
 20
43.2860647633
 10
225.4333462344
 20
43.1435210097
 10
224.5070082242
 20
43.0144415978
 10
223.6189010277
 20
43.0087800147
 10
222.7773170372
 20
43.1265879544
 10
221.9901140057
 20
43.3667673315
 10
221.2646416194
 20
43.7270735206
 10
220.607673667
 20
44.20414464
 10
220.025343832
 20
44.7935253226
 10
219.5230890579
 20
45.4897123488
 10
219.1055988402
 20
46.2862056021
 10
218.7767717623
 20
47.1755696711
 10
218.5396773002
 20
48.1494994426
 10
218.3965294805
 20
49.1989024245
 10
218.34866449
 20
50.3139801172
  0
ARC
  5
283
330
1F
100
AcDbEntity
  8
0
  6
Continuous
 62
     7
370
    18
100
AcDbCircle
 10
229.1356802342
 20
53.3196195533
 30
0.0
 40
17.95572678150225
100
AcDbArc
 50
167.4561534803
 51
179.6099872796
  0
LWPOLYLINE
  5
284
330
1F
100
AcDbEntity
  8
0
  6
Continuous
 62
     7
370
    18
100
AcDbPolyline
 90
       11
 70
   128
 43
0.0
 10
222.2502791599
 20
72.6825008381
 10
222.569333571
 20
72.8633318669
 10
223.6099521024
 20
73.3794103871
 10
224.639133115
 20
73.7767315802
 10
225.6478319941
 20
74.0518049147
 10
226.6271848128
 20
74.2022129978
 10
227.5685840651
 20
74.2266324812
 10
228.4637574442
 20
74.1248506411
 10
229.3048379775
 20
73.8977602388
 10
230.0844335027
 20
73.5473585631
 10
230.176573099
 20
73.495398895
  0
LWPOLYLINE
  5
285
330
1F
100
AcDbEntity
  8
0
  6
Continuous
 62
     7
370
    18
100
AcDbPolyline
 90
       10
 70
   128
 43
0.0
 10
214.4403517845
 20
46.2365105011
 10
214.1679138972
 20
46.4050732729
 10
213.4932047557
 20
46.9343381461
 10
212.8959648145
 20
47.5772465491
 10
212.3814420148
 20
48.3281481303
 10
211.9541579231
 20
49.1804443091
 10
211.6178682189
 20
50.1266456946
 10
211.3755277912
 20
51.1584361577
 10
211.2292663731
 20
52.2667486896
 10
211.1803694433
 20
53.4418433511
  0
LWPOLYLINE
  5
286
330
1F
100
AcDbEntity
  8
0
  6
Continuous
 62
     7
370
    18
100
AcDbPolyline
 90
       13
 70
   128
 43
0.0
 10
215.8044508818
 20
50.1062067234
 10
215.7682368608
 20
50.2876143616
 10
215.6238562458
 20
51.3586877048
 10
215.5826530915
 20
52.5003307235
 10
215.6450607204
 20
53.7005293824
 10
215.8104219049
 20
54.946653417
 10
216.076997429
 20
56.2255902932
 10
216.4419818931
 20
57.5238810317
 10
216.9015340071
 20
58.8278637066
 10
217.4508180787
 20
60.1238158386
 10
218.0840534041
 20
61.3980998287
 10
218.7945768301
 20
62.6373062995
 10
219.5749119009
 20
63.8283951546
  0
LWPOLYLINE
  5
287
330
1F
100
AcDbEntity
  8
0
  6
Continuous
 62
     7
370
    18
100
AcDbPolyline
 90
       16
 70
   128
 43
0.0
 10
216.3162466487
 20
47.1762790224
 10
215.8472246647
 20
47.9231063367
 10
215.4567255522
 20
48.7954467668
 10
215.163871468
 20
49.763961191
 10
214.9716350822
 20
50.8188171154
 10
214.8819683205
 20
51.9493058987
 10
214.8957812915
 20
53.1439507397
 10
215.0129337253
 20
54.3906235992
 10
215.2322362905
 20
55.6766680148
 10
215.5514631066
 20
56.9890285684
 10
215.9673728175
 20
58.3143820643
 10
216.4757434944
 20
59.6392732681
 10
217.0714134655
 20
60.9502515967
 10
217.7483366336
 20
62.2340091364
 10
218.4996397697
 20
63.4775114379
 10
219.3176969284
 20
64.6681370536
  0
ARC
  5
288
330
1F
100
AcDbEntity
  8
0
  6
Continuous
 62
     7
370
    18
100
AcDbCircle
 10
232.4008255336
 20
56.8852649532
 30
0.0
 40
14.35349360837134
100
AcDbArc
 50
109.931969941
 51
139.4246766989
  0
LWPOLYLINE
  5
289
330
1F
100
AcDbEntity
  8
0
  6
Continuous
 62
     7
370
    18
100
AcDbPolyline
 90
       12
 70
   128
 43
0.0
 10
220.66188999
 20
66.3403005708
 10
221.5742345879
 20
67.3110361483
 10
222.519563046
 20
68.1965785358
 10
223.4889682206
 20
68.9885842001
 10
224.4733167168
 20
69.6795911717
 10
225.4633343345
 20
70.2630896654
 10
226.4496933671
 20
70.7335808412
 10
227.4231004343
 20
71.0866320726
 10
228.3743846044
 20
71.3189179316
 10
229.2945826748
 20
71.4282488885
 10
230.1750254011
 20
71.4135959949
 10
230.3008535003
 20
71.4009536599
  0
LINE
  5
28A
330
1F
100
AcDbEntity
  8
0
  6
Continuous
 62
     7
370
    18
100
AcDbLine
 10
206.6940052299
 20
63.8144509499
 30
0.0
 11
207.0001691571
 21
63.4437158939
 31
0.0
  0
LINE
  5
28B
330
1F
100
AcDbEntity
  8
0
  6
Continuous
 62
     7
370
    18
100
AcDbLine
 10
206.6940052299
 20
56.0503408021
 30
0.0
 11
207.0001691571
 21
56.7378742707
 31
0.0
  0
LINE
  5
28C
330
1F
100
AcDbEntity
  8
0
  6
Continuous
 62
     7
370
    18
100
AcDbLine
 10
207.7360794739
 20
57.1627062538
 30
0.0
 11
207.0001764011
 21
56.7378784526
 31
0.0
  0
LINE
  5
28D
330
1F
100
AcDbEntity
  8
0
  6
Continuous
 62
     7
370
    18
100
AcDbLine
 10
207.6695039168
 20
57.9059322215
 30
0.0
 11
206.3602324827
 21
57.1501059108
 31
0.0
  0
LINE
  5
28E
330
1F
100
AcDbEntity
  8
0
  6
Continuous
 62
     7
370
    18
100
AcDbLine
 10
203.1831536511
 20
58.7245148705
 30
0.0
 11
202.8866663769
 21
58.2284532526
 31
0.0
  0
LINE
  5
28F
330
1F
100
AcDbEntity
  8
0
  6
Continuous
 62
     7
370
    18
100
AcDbLine
 10
205.0150005672
 20
59.7820175856
 30
0.0
 11
203.1832142372
 21
58.7245498461
 31
0.0
  0
LINE
  5
290
330
1F
100
AcDbEntity
  8
0
  6
Continuous
 62
     7
370
    18
100
AcDbLine
 10
205.0150005672
 20
59.7820175856
 30
0.0
 11
205.1361641956
 21
59.7203680375
 31
0.0
  0
OLE2FRAME
  5
291
330
1F
100
AcDbEntity
  8
0
100
AcDbOle2Frame
 70
     2
  3
Paintbrush-Bild
 10
13.8511154363
 20
38.264191557
 30
0.0
 11
51.6290888628
 21
31.9806341108
 31
0.0
 71
     2
 72
     0
 73
     1
 90
    12928
310
80552BED0767C5B32B40DDAF6807D121434000000000000000006FFBDDFB85D0
310
4940DDAF6807D121434000000000000000006FFBDDFB85D04940416F4BD60AFB
310
3F4000000000000000002BED0767C5B32B40416F4BD60AFB3F40000000000000
310
0000000000000100000000010000010000000100000000000100000000320000
310
D0CF11E0A1B11AE1000000000000000000000000000000003E000300FEFF0900
310
0600000000000000000000000100000001000000000000000010000002000000
310
01000000FEFFFFFF0000000000000000FFFFFFFFFFFFFFFFFFFFFFFFFFFFFFFF
310
FFFFFFFFFFFFFFFFFFFFFFFFFFFFFFFFFFFFFFFFFFFFFFFFFFFFFFFFFFFFFFFF
310
FFFFFFFFFFFFFFFFFFFFFFFFFFFFFFFFFFFFFFFFFFFFFFFFFFFFFFFFFFFFFFFF
310
FFFFFFFFFFFFFFFFFFFFFFFFFFFFFFFFFFFFFFFFFFFFFFFFFFFFFFFFFFFFFFFF
310
FFFFFFFFFFFFFFFFFFFFFFFFFFFFFFFFFFFFFFFFFFFFFFFFFFFFFFFFFFFFFFFF
310
FFFFFFFFFFFFFFFFFFFFFFFFFFFFFFFFFFFFFFFFFFFFFFFFFFFFFFFFFFFFFFFF
310
FFFFFFFFFFFFFFFFFFFFFFFFFFFFFFFFFFFFFFFFFFFFFFFFFFFFFFFFFFFFFFFF
310
FFFFFFFFFFFFFFFFFFFFFFFFFFFFFFFFFFFFFFFFFFFFFFFFFFFFFFFFFFFFFFFF
310
FFFFFFFFFFFFFFFFFFFFFFFFFFFFFFFFFFFFFFFFFFFFFFFFFFFFFFFFFFFFFFFF
310
FFFFFFFFFFFFFFFFFFFFFFFFFFFFFFFFFFFFFFFFFFFFFFFFFFFFFFFFFFFFFFFF
310
FFFFFFFFFFFFFFFFFFFFFFFFFFFFFFFFFFFFFFFFFFFFFFFFFFFFFFFFFFFFFFFF
310
FFFFFFFFFFFFFFFFFFFFFFFFFFFFFFFFFFFFFFFFFFFFFFFFFFFFFFFFFFFFFFFF
310
FFFFFFFFFFFFFFFFFFFFFFFFFFFFFFFFFFFFFFFFFFFFFFFFFFFFFFFFFFFFFFFF
310
FFFFFFFFFFFFFFFFFFFFFFFFFFFFFFFFFFFFFFFFFFFFFFFFFFFFFFFFFFFFFFFF
310
FDFFFFFFFEFFFFFFFEFFFFFFFEFFFFFF05000000060000000700000008000000
310
090000000A0000000B0000000C0000000D0000000E0000000F00000010000000
310
11000000120000001300000014000000150000001600000017000000FEFFFFFF
310
FFFFFFFFFFFFFFFFFFFFFFFFFFFFFFFFFFFFFFFFFFFFFFFFFFFFFFFFFFFFFFFF
310
FFFFFFFFFFFFFFFFFFFFFFFFFFFFFFFFFFFFFFFFFFFFFFFFFFFFFFFFFFFFFFFF
310
FFFFFFFFFFFFFFFFFFFFFFFFFFFFFFFFFFFFFFFFFFFFFFFFFFFFFFFFFFFFFFFF
310
FFFFFFFFFFFFFFFFFFFFFFFFFFFFFFFFFFFFFFFFFFFFFFFFFFFFFFFFFFFFFFFF
310
FFFFFFFFFFFFFFFFFFFFFFFFFFFFFFFFFFFFFFFFFFFFFFFFFFFFFFFFFFFFFFFF
310
FFFFFFFFFFFFFFFFFFFFFFFFFFFFFFFFFFFFFFFFFFFFFFFFFFFFFFFFFFFFFFFF
310
FFFFFFFFFFFFFFFFFFFFFFFFFFFFFFFFFFFFFFFFFFFFFFFFFFFFFFFFFFFFFFFF
310
FFFFFFFFFFFFFFFFFFFFFFFFFFFFFFFFFFFFFFFFFFFFFFFFFFFFFFFFFFFFFFFF
310
FFFFFFFFFFFFFFFFFFFFFFFFFFFFFFFFFFFFFFFFFFFFFFFFFFFFFFFFFFFFFFFF
310
FFFFFFFFFFFFFFFFFFFFFFFFFFFFFFFFFFFFFFFFFFFFFFFFFFFFFFFFFFFFFFFF
310
FFFFFFFFFFFFFFFFFFFFFFFFFFFFFFFFFFFFFFFFFFFFFFFFFFFFFFFFFFFFFFFF
310
FFFFFFFFFFFFFFFFFFFFFFFFFFFFFFFFFFFFFFFFFFFFFFFFFFFFFFFFFFFFFFFF
310
FFFFFFFFFFFFFFFFFFFFFFFFFFFFFFFFFFFFFFFFFFFFFFFFFFFFFFFFFFFFFFFF
310
52006F006F007400200045006E00740072007900000000000000000000000000
310
0000000000000000000000000000000000000000000000000000000000000000
310
16000500FFFFFFFFFFFFFFFF020000000A00030000000000C000000000000046
310
00000000000000000000000030F4CBE728A7D30103000000C000000000000000
310
01004F006C006500000000000000000000000000000000000000000000000000
310
0000000000000000000000000000000000000000000000000000000000000000
310
0A000200FFFFFFFFFFFFFFFFFFFFFFFF00000000000000000000000000000000
310
0000000000000000000000000000000000000000000000001400000000000000
310
010043006F006D0070004F0062006A0000000000000000000000000000000000
310
0000000000000000000000000000000000000000000000000000000000000000
310
120002010100000003000000FFFFFFFF00000000000000000000000000000000
310
0000000000000000000000000000000000000000010000004D00000000000000
310
01004F006C006500310030004E00610074006900760065000000000000000000
310
0000000000000000000000000000000000000000000000000000000000000000
310
1A000200FFFFFFFFFFFFFFFFFFFFFFFF00000000000000000000000000000000
310
0000000000000000000000000000000000000000040000002426000000000000
310
FEFFFFFF02000000FEFFFFFFFFFFFFFFFFFFFFFFFFFFFFFFFFFFFFFFFFFFFFFF
310
FFFFFFFFFFFFFFFFFFFFFFFFFFFFFFFFFFFFFFFFFFFFFFFFFFFFFFFFFFFFFFFF
310
FFFFFFFFFFFFFFFFFFFFFFFFFFFFFFFFFFFFFFFFFFFFFFFFFFFFFFFFFFFFFFFF
310
FFFFFFFFFFFFFFFFFFFFFFFFFFFFFFFFFFFFFFFFFFFFFFFFFFFFFFFFFFFFFFFF
310
FFFFFFFFFFFFFFFFFFFFFFFFFFFFFFFFFFFFFFFFFFFFFFFFFFFFFFFFFFFFFFFF
310
FFFFFFFFFFFFFFFFFFFFFFFFFFFFFFFFFFFFFFFFFFFFFFFFFFFFFFFFFFFFFFFF
310
FFFFFFFFFFFFFFFFFFFFFFFFFFFFFFFFFFFFFFFFFFFFFFFFFFFFFFFFFFFFFFFF
310
FFFFFFFFFFFFFFFFFFFFFFFFFFFFFFFFFFFFFFFFFFFFFFFFFFFFFFFFFFFFFFFF
310
FFFFFFFFFFFFFFFFFFFFFFFFFFFFFFFFFFFFFFFFFFFFFFFFFFFFFFFFFFFFFFFF
310
FFFFFFFFFFFFFFFFFFFFFFFFFFFFFFFFFFFFFFFFFFFFFFFFFFFFFFFFFFFFFFFF
310
FFFFFFFFFFFFFFFFFFFFFFFFFFFFFFFFFFFFFFFFFFFFFFFFFFFFFFFFFFFFFFFF
310
FFFFFFFFFFFFFFFFFFFFFFFFFFFFFFFFFFFFFFFFFFFFFFFFFFFFFFFFFFFFFFFF
310
FFFFFFFFFFFFFFFFFFFFFFFFFFFFFFFFFFFFFFFFFFFFFFFFFFFFFFFFFFFFFFFF
310
FFFFFFFFFFFFFFFFFFFFFFFFFFFFFFFFFFFFFFFFFFFFFFFFFFFFFFFFFFFFFFFF
310
FFFFFFFFFFFFFFFFFFFFFFFFFFFFFFFFFFFFFFFFFFFFFFFFFFFFFFFFFFFFFFFF
310
FFFFFFFFFFFFFFFFFFFFFFFFFFFFFFFFFFFFFFFFFFFFFFFFFFFFFFFFFFFFFFFF
310
0100000200000000000000000000000000000000000000000000000000000000
310
0000000000000000000000000000000000000000000000000000000000000000
310
0100FEFF030A0000FFFFFFFF0A00030000000000C00000000000004607000000
310
5042727573680007000000504272757368000700000050427275736800F439B2
310
7100000000000000000000000000000000000000000000000000000000000000
310
0000000000000000000000000000000000000000000000000000000000000000
310
0000000000000000000000000000000000000000000000000000000000000000
310
0000000000000000000000000000000000000000000000000000000000000000
310
0000000000000000000000000000000000000000000000000000000000000000
310
0000000000000000000000000000000000000000000000000000000000000000
310
0000000000000000000000000000000000000000000000000000000000000000
310
0000000000000000000000000000000000000000000000000000000000000000
310
0000000000000000000000000000000000000000000000000000000000000000
310
0000000000000000000000000000000000000000000000000000000000000000
310
0000000000000000000000000000000000000000000000000000000000000000
310
0000000000000000000000000000000000000000000000000000000000000000
310
20260000424D0E260000000000003E00000028000000B40200006E0000000100
310
01000000000000000000130B0000130B00000200000002000000000000FFFFFF
310
FFFFFFFFFFFFFFFFFFFFFFFFFFFFFFFFFFFFFFFFFFFFFFFFFFFFFFFFFFFFFFFF
310
FFFFFFFFFFFFFFFFFFFFFFFFFFFFFFFFFFFFFFFFFFFFFFFFFFFFFFFFFFFFFFFF
310
FFFFFFFFFFFFFFFFFFFFFFFFFFFFFFFFFFFFFFFFFFFFFFFFF000FFFFFFFFFFFF
310
FFFFFFFFFFFFFFFFFFFFFFFFFFFFFFFFFFFFFFFFFFFFFFFFFFFFFFFFFFFFFFFF
310
FFFFFFFFFFFFFFFFFFFFFFFFFFFFFFFFFFFFFFFFFFFFFFFFFFFFFFFFFFFFFFFF
310
FFFFFFFFFFFFFFFFFFFFFFFFFFFFFFFFF000FFFFFFFFFFFFFFFFFFFFFFFFFFFF
310
FFFFFFFFFFFFFFFFFFFFFFFFFFFFFFFFFFFFFFFFFFFFFFFFFFFFFFFFFFFFFFFF
310
FFFFFFFFFFFFFFFFFFFFFFFFFFFFFFFFFFFFFFFFFFFFFFFFFFFFFFFFFFFFFFFF
310
FFFFFFFFFFFFFFFFF000FFFFFFFFFFFFFFFFFFFFFFFFFFFFFFFFFFFFFFFFFFFF
310
FFFFFFFFFFFFFFFFFFFFFFFFFFFFFFFFFFFFFFFFFFFFFFFFFFFFFFFFFFFFFFFF
310
FFFFFFFFFFFFFFFFFFFFFFFFFFFFFFFFFFFFFFFFFFFFFFFFFFFFFFFFFFFFFFFF
310
F000FFFFFFFFFFFFFFFFFFFFFFFFFFFFFFFFFFFFFFFFFFFFFFFFFFFFFFFFFFFF
310
FFFFFFFFFFFFFFFFFFFFFFFFFFFFFFFFFFFFFFFFFFFFFFFFFFFFFFFFFFFFFFFF
310
FFFFFFFFFFFFFFFFFFFFFFFFFFFFFFFFFFFFFFFFFFFFFFFFF000FFFFFFFFFFFF
310
FFFFFFFFFFFFFFFFFFFFFFFFFFFFFFFFFFFFFFFFFFFFFFFFFFFFFFFFFFFFFFFF
310
FFFFFFFFFFFFFFFFFFFFFFFFFFFFFFFFFFFFFFFFFFFFFFFFFFFFFFFFFFFFFFFF
310
FFFFFFFFFFFFFFFFFFFFFFFFFFFFFFFFF000FFFFFFFFFFFFFFFFFFFFFFFFFFFF
310
FFFFFFFFFFFFFFFFFFFFFFFFFFFFFFFFFFFFFFFFFFFFFFFFFFFFFFFFFFFFFFFF
310
FFFFFFFFFFFFFFFFFFFFFFFFFFFFFFFFFFFFFFFFFFFFFFFFFFFFFFFFFFFFFFFF
310
FFFFFFFFFFFFFFFFF000FFFFFFFFFFFFFFFFFFFFFFFFFFFFFFFFFFFFFFFFFFFF
310
FFFFFFFFFFFFFFFFFFFFFFFFFFFFFFFFFFFFFFFFFFFFFFFFFFFFFFFFFFFFFFFF
310
FFFFFFFFFFFFFFFFFFFFFFFFFFFFFFFFFFFFFFFFFFFFFFFFFFFFFFFFFFFFFFFF
310
F000FFFFFFFFFFFFFFFFFFFFFFFFFFFFFFFFFFFFFFFFFFFFFFFFFFFFFFFFFFFF
310
FFFFFFFFFFFFFFFFFFFFFFFFFFFFFFFFFFFFFFFFFFFFFFFFFFFFFFFFFFFFFFFF
310
FFFFFFFFFFFFFFFFFFFFFFFFFFFFFFFFFFFFFFFFFFFFFFFFF000FFFFFFFFFFFF
310
FFFFFFFFFFFFFFFFFFFFFFFFFFFFFFFFFFFFFFFFFFFFFFFFFFFFFFFFFFFFFFFF
310
FFFFFFFFFFFFFFFFFFFFFFFFFFFFFFFFFFFFFFFFFFFFFFFFFFFFFFFFFFFFFFFF
310
FFFFFFFFFFFFFFFFFFFFFFFFFFFFFFFFF000FFFFFFFFFFFFFFFFFFFFFFFFFFFF
310
FFFFFFFFFFFFFFFFFFFFFFFFFFFFFFFFFFFFFFFFFFFFFFFFFFFFFFFFFFFFFFFF
310
FFFFFFFFFFFFFFFFFFFFFFFFFFFFFFFFFFFFFFFFFFFFFFFFFFFFFFFFFFFFFFFF
310
FFFFFFFFFFFFFFFFF000FFFFFFFFFFFFFFFFFFFFFFFFFFFFFFFFFFFFFFFFFFFF
310
FFFFFFFFFFFFFFFFFFFFFFFFFFFFFFFFFFFFFFFFFFFFFFFFFFFFFFFFFFFFFFFF
310
FFFFFFFFFFFFFFFFFFFFFFFFFFFFFFFFFFFFFFFFFFFFFFFFFFFFFFFFFFFFFFFF
310
F000FFFFFFFFFFFFFFFFFFFFFFFFFFFFFFFFFFFFFFFFFFFFFFFFFFFFFFFFFFFF
310
FFFFFFFFFFFFFFFFFFFFFFFFFFFFFFFFFFFFFFFFFFFFFFFFFFFFFFFFFFFFFFFF
310
FFFFFFFFFFFFFFFFFFFFFFFFFFFFFFFFFFFFFFFFFFFFFFFFF000FFFFFFFFFFFF
310
FFFFFFFFFFFFFFFFFFFFFFFFFFFFFFFFFFFFFFFFFFFFFFFFFFFFFFFFFFFFFFFF
310
FFFFFFFFFFFFFFFFFFFFFFFFFFFFFFFFFFFFFFFFFFFFFFFFFFFFFFFFFFFFFFFF
310
FFFFFFFFFFFFFFFFFFFFFFFFFFFFFFFFF000FFFFFFFFFFFFFFFFFFFFFFFFFFFF
310
FFFFFFFFFFFFFFFFFFFFFFFFFFFFFFFFFFFFFFFFFFFFFFFFFFFFFFFFFFFFFFFF
310
FFFFFFFFFFFFFFFFFFFFFFFFFFFFFFFFFFFFFFFFFFFFFFFFFFFFFFFFFFFFFFFF
310
FFFFFFFFFFFFFFFFF000FFFFFFFFFFFFFFFFFFFFFFFFFFFFFFFFFFFFFFFFFFFF
310
FFFFFFFFFFFFFFFFFFFFFFFFFFFFFFFFFFFFFFFFFFFFFFFFFFFFFFFFFFFFFFFF
310
FFFFFFFFFFFFFFFFFFFFFFFFFFFFFFFFFFFFFFFFFFFFFFFFFFFFFFFFFFFFFFFF
310
F000FFFFFFFFFFFFFFFFFFFFFFFFFFFFFFFFFFFFFFFFFFFFFFFFFFFFFFFFFFFF
310
FFFFFFFFFFFFFFFFFFFFFFFFFFFFFFFFFFFFFFFFFFFFFFFFFFFFFFFFFFFFFFFF
310
FFFFFFFFFFFFFFFFFFFFFFFFFFFFFFFFFFFFFFFFFFFFFFFFF000FFFFFFFFFFFF
310
FFFFFFFFFFFFFFFFFFFFFFFFFFFFFFFFFFFFFFFFFFFFFFFFFFFFFFFFFFFFFFFF
310
FFFFFFFFFFFFFFFFFFFFFFFFFFFFFFFFFFFFFFFFFFFFFFFFFFFFFFFFFFFFFFFF
310
FFFFFFFFFFFFFFFFFFFFFFFFFFFFFFFFF000FFFFFFFFFFFFFFFFFFFFFFFFFFFF
310
FFFFFFFFFFFFFFFFFFFFFFFFFFFFFFFFFFFFFFFFFFFFFFFFFFFFFFFFFFFFFFFF
310
FFFFFFFFFFFFFFFFFFFFFFFFFFFFFFFFFFFFFFFFFFFFFFFFFFFFFFFFFFFFFFFF
310
FFFFFFFFFFFFFFFFF000FFFFF80003FFFFFFFFFFFFFFFFFFFFFFFFFFFFFFFFFF
310
FFFFF00007FFFFFFFFFF00007FFFFFF800000000000000007FFFFFFFFFFFFFFF
310
FFFFFFFC001FFFFFFFFFFFFFFC001FFFFFFFFFFFFFFFFFFFFFFFFFFE0007FFFF
310
F000FFFF8000007FFFFFFFF8000FFFFFC0007FFFFF80007FFFFF0000007FFFFF
310
FFF8000007FFFFF800000000000000007FFFFFF0001FFFFFFFFFFFC00001FFFF
310
FFFFFFFFC00001FFFFFFFF000000000003FFFFE000007FFFF000FFFE0000000F
310
FFFFFFF0000FFFFF80007FFFFF80007FFFFC0000001FFFFFFFC0000001FFFFF8
310
00000000000000007FFFFFF0001FFFFFFFFFFE0000003FFFFFFFFFFE0000003F
310
FFFFFF000000000003FFFF0000000FFFF000FFF800000003FFFFFFF00007FFFF
310
80007FFFFF80007FFFF000000007FFFFFF000000003FFFF80000000000000000
310
7FFFFFF0001FFFFFFFFFF80000000FFFFFFFFFF80000000FFFFFFF0000000000
310
03FFFC00000003FFF000FFE000000000FFFFFFF00007FFFF80003FFFFF80007F
310
FFC000000001FFFFFC000000001FFFF800000000000000007FFFFFF0001FFFFF
310
FFFFE000000003FFFFFFFFE000000003FFFFFF000000000003FFF000000000FF
310
F000FF80000000007FFFFFF00007FFFF80003FFFFF80007FFF8000000000FFFF
310
F80000000007FFF800000000000000007FFFFFF0001FFFFFFFFFC000000001FF
310
FFFFFFC000000001FFFFFF000000000003FFC0000000007FF000FF0000000000
310
3FFFFFE00007FFFF00003FFFFF80007FFE00000000003FFFF00000000003FFF8
310
00000000000000007FFFFFF0001FFFFFFFFF8000000000FFFFFFFF8000000000
310
FFFFFF000000000003FF80000000003FF000FE00000000001FFFFFE00003FFFF
310
00003FFFFF80007FFC00000000001FFFE00000000001FFF8000001FFFE000000
310
7FFFFFF0001FFFFFFFFE00000000003FFFFFFE00000000003FFFFF0000000000
310
03FF00000000001FF000FC00000000000FFFFFE00003FFFF00001FFFFF80007F
310
F800000000001FFFC00000000000FFF8000001FFFE0000007FFFFFF0001FFFFF
310
FFFC00000000001FFFFFFC00000000001FFFFF000000000003FE00000000000F
310
F000F8000000000007FFFFE00003FFFF00001FFFFF80007FF800000000000FFF
310
800000000000FFF8000001FFFE0000007FFFFFF0001FFFFFFFF800000000000F
310
FFFFF800000000000FFFFF000000000003FC000000000007F000F80000000000
310
03FFFFC00003FFFE00001FFFFF80007FF0000000000007FF0000000000007FF8
310
000001FFFE0000007FFFFFF0001FFFFFFFF0000000000007FFFFF00000000000
310
07FFFF000000000003F8000000000003F000F0000000000003FFFFC00001FFFE
310
00001FFFFF80007FE0000000000007FE0000000000003FF8000001FFFE000000
310
7FFFFFF0001FFFFFFFF0000000000007FFFFF0000000000007FFFF0000000000
310
03F800001F800003F000E00001FFF00001FFFFC00001FFFE00000FFFFF80007F
310
E00001FFE00003FE00001FFF00003FF8000001FFFE0000007FFFFFF0001FFFFF
310
FFE000003E000003FFFFE000003E000003FFFF000000000003F00001FFF80001
310
F000E00007FFFC0001FFFFC00001FFFE00000FFFFF80007FC0000FFFFC0003FC
310
0000FFFFC0001FF8000001FFFE0000007FFFFFF0001FFFFFFFC00003FFE00001
310
FFFFC00003FFE00001FFFF0001FFFFFFFFF00007FFFE0001F000E0000FFFFF00
310
00FFFF800001FFFC00000FFFFF80007FC0001FFFFE0001FC0001FFFFE0001FF8
310
000001FFFE0000007FFFFFF0001FFFFFFF80000FFFF80000FFFF80000FFFF800
310
00FFFF0003FFFFFFFFE0000FFFFF8000F000C0003FFFFF8000FFFF800000FFFC
310
000007FFFF80007F80003FFFFF0001FC0003FFFFF0001FF8000001FFFE000000
310
7FFFFFF0001FFFFFFF80003FFFFE0000FFFF80003FFFFE0000FFFF0003FFFFFF
310
FFE0003FFFFF8000F000C0003FFFFF8000FFFF800000FFFC000007FFFF80007F
310
80007FFFFF8001F80007FFFFF8000FF8000001FFFE0000007FFFFFF0001FFFFF
310
FF00007FFFFF00007FFF00007FFFFF00007FFF0003FFFFFFFFE0003FFFFFC000
310
F000C0007FFFFFC000FFFF000000FFFC000007FFFF80007F8000FFFFFF8000F8
310
000FFFFFF8000FF8000001FFFE0000007FFFFFF0001FFFFFFF0000FFFFFF8000
310
7FFF0000FFFFFF80007FFF0003FFFFFFFFC0007FFFFFC00070008000FFFFFFC0
310
00FFFF000000FFF8000007FFFF80007F8000FFFFFF8000F8000FFFFFF8000FF8
310
000001FFFE0000007FFFFFF0001FFFFFFE0001FFFFFFC0003FFE0001FFFFFFC0
310
003FFF0003FFFFFFFFC0007FFFFFE00070008000FFFFFFC0007FFF0000007FF8
310
000003FFFF80007F0001FFFFFF8000F8000FFFFFF8000FF8000001FFFE000000
310
7FFFFFF0001FFFFFFE0001FFFFFFC0003FFE0001FFFFFFC0003FFF0003FFFFFF
310
FFC000FFFFFFE00070008000FFFFFFC0007FFF0000007FF8000003FFFF80007F
310
0001FFFFFF8000F8001FFFFFF8000FF8000001FFFE0000007FFFFFF0001FFFFF
310
FE0003FFFFFFE0003FFE0003FFFFFFE0003FFF0003FFFFFFFFC000FFFFFFE000
310
70008000FFFFFFC0007FFE0000007FF8000003FFFF80007F0001FFFFFF8000F0
310
001FFFFFF8000FF8000001FFFE0000007FFFFFF0001FFFFFFC0003FFFFFFE000
310
1FFC0003FFFFFFE0001FFF0003FFFFFFFFC000FFFFFFC00070008000FFFFFF80
310
007FFE0000007FF0000003FFFF80007F0001FFFFFF0000F0001FFFFFF8000FF8
310
000001FFFE0000007FFFFFF0001FFFFFFC0007FFFFFFF0001FFC0007FFFFFFF0
310
001FFF0003FFFFFFFFC000FFFFFFC00070008001FFFFFF0000FFFE0000003FF0
310
000001FFFF80007F0001FFFFFF0000F8001FFFFFF0000FF8000001FFFE000000
310
7FFFFFF0001FFFFFFC0007FFFFFFF0001FFC0007FFFFFFF0001FFF0003FFFFFF
310
FFC001FFFFFF80007000FFFFFFFFFE0000FFFE0008003FF0008001FFFF80007F
310
FFFFFFFFFC0000FFFFFFFFFFE0000FF8000001FFFE0000007FFFFFF0001FFFFF
310
F8000FFFFFFFF8000FF8000FFFFFFFF8000FFF0003FFFFFFFFFFFFFFFFFF0000
310
7000FFFFFFFFFC0000FFFC0008003FF0008001FFFF80007FFFFFFFFFF80001FF
310
FFFFFFFF80000FF8000001FFFE0000007FFFFFF0001FFFFFF8000FFFFFFFF800
310
0FF8000FFFFFFFF8000FFF0003FFFFFFFFFFFFFFFFFE0000F000FFFFFFFFE000
310
00FFFC000C003FE000C001FFFF80007FFFFFFFFFC00001FFFFFFFFFE00001FF8
310
000001FFFE0000007FFFFFF0001FFFFFF8000FFFFFFFF8000FF8000FFFFFFFF8
310
000FFF0003FFFFFFFFFFFFFFFFF00000F000FFFFFFFE000001FFFC000C001FE0
310
00C000FFFF80007FFFFFFFFE000001FFFFFFFFE000001FF80FFFFFFFFFFFFFC0
310
7FFFFFF0001FFFFFF8000FFFFFFFF8000FF8000FFFFFFFF8000FFF0003FFFFFF
310
FFFFFFFFFF800000F000FFFFFFC0000001FFFC001C001FE001C000FFFF80007F
310
FFFFFF80000003FFFFFFF80000001FF80FFFFFFFFFFFFFC07FFFFFF0001FFFFF
310
F8001FFFFFFFFC000FF8001FFFFFFFFC000FFF0003FFFFFFFFFFFFFFF0000001
310
F000FFFFF800000001FFF8001C001FE001C000FFFF80007FFFFFF800000003FF
310
FFFF800000003FF80FFFFFFFFFFFFFC07FFFFFF0001FFFFFF8001FFFFFFFFC00
310
0FF8001FFFFFFFFC000FFF0003FFFFFFFFFFFFFE00000001F000FFFFC0000000
310
03FFF8001E001FC001E000FFFF80007FFFFF8000000007FFFFFC000000003FF8
310
0FFFFFFFFFFFFFC07FFFFFF0001FFFFFF8001FFFFFFFFC000FF8001FFFFFFFFC
310
000FFF0003FFFFFFFFFFFFE000000003F000FFFE0000000007FFF8001E000FC0
310
01E0007FFF80007FFFFE0000000007FFFFE0000000007FF80FFFFFFFFFFFFFC0
310
7FFFFFF0001FFFFFF0001FFFFFFFFC0007F0001FFFFFFFFC0007FF0003FFFFFF
310
FFFFFF0000000003F000FFF80000000007FFF8001E000FC003E0007FFF80007F
310
FFF0000000000FFFFF8000000000FFF80FFFFFFFFFFFFFC07FFFFFF0001FFFFF
310
F0001FFFFFFFFC0007F0001FFFFFFFFC0007FF0003FFFFFFFFFFFC0000000007
310
F000FFE0000000000FFFF0003E000FC003E0007FFF80007FFFC0000000001FFF
310
FE0000000001FFF80FFFFFFFFFFFFFC07FFFFFF0001FFFFFF0001FFFFFFFFC00
310
07F0001FFFFFFFFC0007FF0003FFFFFFFFFFF0000000000FF000FFC000000000
310
1FFFF0003F000F8003F0003FFF80007FFF80000000003FFFF80000000003FFF8
310
0FFFFFFFFFFFFFC07FFFFFF0001FFFFFF0001FFFFFFFFC0007F0001FFFFFFFFC
310
0007FF0003FFFFFFFFFFE0000000001FF000FF00000000007FFFF0003F000780
310
03F0003FFF80007FFF00000000007FFFF00000000007FFF80FFFFFFFFFFFFFC0
310
7FFFFFF0001FFFFFF0001FFFFFFFFC0007F0001FFFFFFFFC0007FF0003FFFFFF
310
FFFF80000000007FF000FE0000000000FFFFE0003F00078007F0003FFF80007F
310
FE0000000001FFFFE0000000001FFFF80FFFFFFFFFFFFFC07FFFFFF0001FFFFF
310
F0001FFFFFFFFC0007F0001FFFFFFFFC0007FF0003FFFFFFFFFF0000000000FF
310
F000FC0000000003FFFFE0007F00078007F0003FFF80007FFC0000000007FFFF
310
C0000000007FFFF80FFFFFFFFFFFFFC07FFFFFF0001FFFFFF8001FFFFFFFFC00
310
0FF8001FFFFFFFFC000FFF0003FFFFFFFFFE0000000003FFF000FC000000000F
310
FFFFE0007F80070007F8001FFF80007FF8000000001FFFFF8000000001FFFFF8
310
0FFFFFFFFFFFFFC07FFFFFF0001FFFFFF8001FFFFFFFFC000FF8001FFFFFFFFC
310
000FFF0003FFFFFFFFFC000000000FFFF000F8000000007FFFFFE0007F800700
310
07F8001FFF80007FF000000000FFFFFF800000000FFFFFF80FFFFFFFFFFFFFC0
310
7FFFFFF0001FFFFFF8000FFFFFFFF8000FF8000FFFFFFFF8000FFF0003FFFFFF
310
FFFC000000007FFFF000F800000007FFFFFFC0007F8003000FF8001FFF80007F
310
F000000007FFFFFF000000007FFFFFF80FFFFFFFFFFFFFC07FFFFFF0001FFFFF
310
F8000FFFFFFFF8000FF8000FFFFFFFF8000FFF0003FFFFFFFFF80000000FFFFF
310
F000F0000000FFFFFFFFC000FF8003000FF8001FFF80007FE0000000FFFFFFFF
310
0000000FFFFFFFF8000001FFFE0000007FFFFFF0001FFFFFF8000FFFFFFFF800
310
0FF8000FFFFFFFF8000FFF0003FFFFFFFFF8000000FFFFFFF000F000000FFFFF
310
FFFFC000FFC002000FF8000FFF80007FE000001FFFFFFFFE000001FFFFFFFFF8
310
000001FFFE0000007FFFFFF0001FFFFFF8000FFFFFFFF8000FF8000FFFFFFFF8
310
000FFF0003FFFFFFFFF000001FFFFFFFF000E00000FFFFFFFFFFC000FFC00200
310
0FFC000FFF80007FE00001FFFFFFFFFE00001FFFFFFFFFF8000001FFFE000000
310
7FFFFFF0001FFFFFFC000FFFFFFFF8001FFC000FFFFFFFF8001FFF0003FFFFFF
310
FFF00001FFFFFFFFF000E00007FFFFFFFFFF8000FFC000001FFC000FFF80007F
310
C0000FFFFFFFFFFE0000FFFFFFFFFFF8000001FFFE0000007FFFFFF0001FFFFF
310
FC0007FFFFFFF0001FFC0007FFFFFFF0001FFF0003FFFFFFFFF00007FFFFFFFF
310
F000E0001FFFFFFFFFFF8000FFC000001FFC000FFF80007FC0003FFFFFFFFFFE
310
0001FFFFFFFFFFF8000001FFFE0000007FFFFFF0001FFFFFFC0007FFFFFFF000
310
1FFC0007FFFFFFF0001FFF0003FFFFFFFFF0001FFFFFFFFFF000E0003FFFFF00
310
03FF8001FFE000001FFC0007FF80007FC0007FFFFF0007FC0003FFFFF0003FF8
310
000001FFFE0000007FFFFFF0001FFFFFFC0003FFFFFFE0001FFC0003FFFFFFE0
310
001FFF0003FFFFFFFFF0003FFFFFFFFFF000E0003FFFFF0001FF8001FFE00000
310
1FFE0007FF80007FC0007FFFFE0003FC0007FFFFE0003FF8000001FFFE000000
310
7FFFFFF0001FFFFFFE0003FFFFFFE0003FFE0003FFFFFFE0003FFF0003FFFFFF
310
FFF0003FFFFF8001F000E0003FFFFF0001FF0001FFE000001FFE0007FF80007F
310
C0007FFFFE0003FC0007FFFFE0003FF8000001FFFE0000007FFFFFF0001FFFFF
310
FE0001FFFFFFC0003FFE0001FFFFFFC0003FFF0003FFFFFFFFF0003FFFFF0001
310
F000E0003FFFFF0003FF0001FFE000003FFE0007FF80007FC0007FFFFE0003FC
310
0007FFFFE0003FF8000001FFFE0000007FFFFFF0001FFFFFFF0001FFFFFFC000
310
7FFF0001FFFFFFC0007FFF0003FFFFFFFFF0003FFFFF0001F000E0003FFFFE00
310
03FF0003FFF000003FFE0003FF80007FC0007FFFFC0003FE0007FFFFE0003FF8
310
000001FFFE0000007FFFFFF0001FFFFFFF0000FFFFFF80007FFF0000FFFFFF80
310
007FFF0003FFFFFFFFF0003FFFFF0001F000E0003FFFFE0003FF0003FFF00000
310
3FFF0003FF80007FC0007FFFFC0007FE0007FFFFC0003FF8000001FFFE000000
310
7FFFFFF0001FFFFFFF80007FFFFF0000FFFF80007FFFFF0000FFFF0003FFFFFF
310
FFF0003FFFFF0003F000E0003FFFFC0003FE0003FFF000003FFF0003FF80007F
310
E0003FFFF80007FE0003FFFFC0007FF8000001FFFE0000007FFFFFF0001FFFFF
310
FF80003FFFFE0000FFFF80003FFFFE0000FFFF0003FFFFFFFFF0001FFFFE0003
310
F000F0001FFFF80003FE0003FFF000007FFF0001FF80007FE0003FFFF00007FE
310
0001FFFF80007FF8000001FFFE0000007FFFFFF0001FFFFFFFC0000FFFF80001
310
FFFFC0000FFFF80001FFFF0003FFFFFFFFF0001FFFFC0003F000F0000FFFF000
310
07FE0007FFF800007FFF0001FF80007FE0001FFFE00007FF0000FFFE00007FF8
310
000001FFFE0000007FFFFFF0001FFFFFFFC00003FFE00001FFFFC00003FFE000
310
01FFFF0003FFFFFFFFF8000FFFF80003F000F00003FFC00007FC0007FFF80000
310
7FFF8001FF80007FF00007FF80000FFF00007FF80000FFF8000001FFFE000000
310
7F80000000000001FFE000003E000003FFFFE000003E000003FFFF0003FFFFFF
310
FFF80003FFE00007F000F800000000000FFC0007FFF800007FFF8001FF80007F
310
F000000000000FFF000000000000FFF8000001FFFE0000007F80000000000001
310
FFF0000000000007FFFFF0000000000007FFFF0003FFFFFFFFFC00007E000007
310
F000F800000000000FFC0007FFF80000FFFF8000FF80007FF800000000001FFF
310
800000000001FFF8000001FFFE0000007F80000000000001FFF800000000000F
310
FFFFF800000000000FFFFF0003FFFFFFFFFC00000000000FF000FC0000000000
310
1FFC0007FFFC0000FFFF8000FF80007FF800000000003FFFC00000000001FFF8
310
000001FFFE0000007F80000000000001FFF800000000000FFFFFF80000000000
310
0FFFFF0003FFFFFFFFFE00000000001FF000FE00000000003FF8000FFFFC0000
310
FFFF8000FF80007FFC00000000003FFFC00000000003FFF8000001FFFE000000
310
7F80000000000001FFFC00000000001FFFFFFC00000000001FFFFF0003FFFFFF
310
FFFF00000000001FF000FF00000000003FF8000FFFFC0000FFFFC000FF80007F
310
FE00000000007FFFE00000000007FFF8000001FFFE0000007F80000000000001
310
FFFE00000000003FFFFFFE00000000003FFFFF0003FFFFFFFFFF80000000003F
310
F000FF80000000007FF8000FFFFC0001FFFFC0007F80007FFF0000000000FFFF
310
F0000000000FFFF800000000000000007F80000000000001FFFF8000000000FF
310
FFFFFF8000000000FFFFFF0003FFFFFFFFFFC0000000007FF000FFC000000000
310
FFF8000FFFFE0001FFFFC0007F80007FFF8000000001FFFFF8000000001FFFF8
310
00000000000000007F80000000000001FFFFC000000001FFFFFFFFC000000001
310
FFFFFF0003FFFFFFFFFFE000000000FFF000FFE000000003FFF0001FFFFE0001
310
FFFFC0007F80007FFFC000000007FFFFFE000000003FFFF80000000000000000
310
7F80000000000001FFFFE000000003FFFFFFFFE000000003FFFFFF0003FFFFFF
310
FFFFF000000003FFF000FFF80000000FFFF0001FFFFE0001FFFFE0007F80007F
310
FFF00000000FFFFFFF00000000FFFFF800000000000000007F80000000000001
310
FFFFF80000000FFFFFFFFFF80000000FFFFFFF0003FFFFFFFFFFFC0000000FFF
310
F000FFFE0000003FFFF0001FFFFE0003FFFFE0003F80007FFFFC0000003FFFFF
310
FFC0000003FFFFF800000000000000007F80000000000001FFFFFE0000003FFF
310
FFFFFFFE0000003FFFFFFF0003FFFFFFFFFFFF0000003FFFF000FFFF800000FF
310
FFF0001FFFFF0003FFFFE0003F80007FFFFF000001FFFFFFFFF800001FFFFFF8
310
00000000000000007F80000000000001FFFFFFC00001FFFFFFFFFFFFC00001FF
310
FFFFFF0003FFFFFFFFFFFFC00000FFFFF000FFFFF8000FFFFFFFFFFFFFFFFFFF
310
FFFFFFFFFFFFFFFFFFFFF0001FFFFFFFFFFF0000FFFFFFF80000000000000000
310
7FFFFFFFFFFFFFFFFFFFFFFC001FFFFFFFFFFFFFFC001FFFFFFFFFFFFFFFFFFF
310
FFFFFFFC001FFFFFF000FFFFFFFFFFFFFFFFFFFFFFFFFFFFFFFFFFFFFFFFFFFF
310
FFFFFFFFFFFFFFFFFFFFFFFFFFFFFFFFFFFFFFFFFFFFFFFFFFFFFFFFFFFFFFFF
310
FFFFFFFFFFFFFFFFFFFFFFFFFFFFFFFFFFFFFFFFFFFFFFFFFFFFFFFFFFFFFFFF
310
F000FFFFFFFFFFFFFFFFFFFFFFFFFFFFFFFFFFFFFFFFFFFFFFFFFFFFFFFFFFFF
310
FFFFFFFFFFFFFFFFFFFFFFFFFFFFFFFFFFFFFFFFFFFFFFFFFFFFFFFFFFFFFFFF
310
FFFFFFFFFFFFFFFFFFFFFFFFFFFFFFFFFFFFFFFFFFFFFFFFF000FFFFFFFFFFFF
310
FFFFFFFFFFFFFFFFFFFFFFFFFFFFFFFFFFFFFFFFFFFFFFFFFFFFFFFFFFFFFFFF
310
FFFFFFFFFFFFFFFFFFFFFFFFFFFFFFFFFFFFFFFFFFFFFFFFFFFFFFFFFFFFFFFF
310
FFFFFFFFFFFFFFFFFFFFFFFFFFFFFFFFF000FFFFFFFFFFFFFFFFFFFFFFFFFFFF
310
FFFFFFFFFFFFFFFFFFFFFFFFFFFFFFFFFFFFFFFFFFFFFFFFFFFFFFFFFFFFFFFF
310
FFFFFFFFFFFFFFFFFFFFFFFFFFFFFFFFFFFFFFFFFFFFFFFFFFFFFFFFFFFFFFFF
310
FFFFFFFFFFFFFFFFF000FFFFFFFFFFFFFFFFFFFFFFFFFFFFFFFFFFFFFFFFFFFF
310
FFFFFFFFFFFFFFFFFFFFFFFFFFFFFFFFFFFFFFFFFFFFFFFFFFFFFFFFFFFFFFFF
310
FFFFFFFFFFFFFFFFFFFFFFFFFFFFFFFFFFFFFFFFFFFFFFFFFFFFFFFFFFFFFFFF
310
F000FFFFFFFFFFFFFFFFFFFFFFFFFFFFFFFFFFFFFFFFFFFFFFFFFFFFFFFFFFFF
310
FFFFFFFFFFFFFFFFFFFFFFFFFFFFFFFFFFFFFFFFFFFFFFFFFFFFFFFFFFFFFFFF
310
FFFFFFFFFFFFFFFFFFFFFFFFFFFFFFFFFFFFFFFFFFFFFFFFF000FFFFFFFFFFFF
310
FFFFFFFFFFFFFFFFFFFFFFFFFFFFFFFFFFFFFFFFFFFFFFFFFFFFFFFFFFFFFFFF
310
FFFFFFFFFFFFFFFFFFFFFFFFFFFFFFFFFFFFFFFFFFFFFFFFFFFFFFFFFFFFFFFF
310
FFFFFFFFFFFFFFFFFFFFFFFFFFFFFFFFF000FFFFFFFFFFFFFFFFFFFFFFFFFFFF
310
FFFFFFFFFFFFFFFFFFFFFFFFFFFFFFFFFFFFFFFFFFFFFFFFFFFFFFFFFFFFFFFF
310
FFFFFFFFFFFFFFFFFFFFFFFFFFFFFFFFFFFFFFFFFFFFFFFFFFFFFFFFFFFFFFFF
310
FFFFFFFFFFFFFFFFF000FFFFFFFFFFFFFFFFFFFFFFFFFFFFFFFFFFFFFFFFFFFF
310
FFFFFFFFFFFFFFFFFFFFFFFFFFFFFFFFFFFFFFFFFFFFFFFFFFFFFFFFFFFFFFFF
310
FFFFFFFFFFFFFFFFFFFFFFFFFFFFFFFFFFFFFFFFFFFFFFFFFFFFFFFFFFFFFFFF
310
F000FFFFFFFFFFFFFFFFFFFFFFFFFFFFFFFFFFFFFFFFFFFFFFFFFFFFFFFFFFFF
310
FFFFFFFFFFFFFFFFFFFFFFFFFFFFFFFFFFFFFFFFFFFFFFFFFFFFFFFFFFFFFFFF
310
FFFFFFFFFFFFFFFFFFFFFFFFFFFFFFFFFFFFFFFFFFFFFFFFF000FFFFFFFFFFFF
310
FFFFFFFFFFFFFFFFFFFFFFFFFFFFFFFFFFFFFFFFFFFFFFFFFFFFFFFFFFFFFFFF
310
FFFFFFFFFFFFFFFFFFFFFFFFFFFFFFFFFFFFFFFFFFFFFFFFFFFFFFFFFFFFFFFF
310
FFFFFFFFFFFFFFFFFFFFFFFFFFFFFFFFF000FFFFFFFFFFFFFFFFFFFFFFFFFFFF
310
FFFFFFFFFFFFFFFFFFFFFFFFFFFFFFFFFFFFFFFFFFFFFFFFFFFFFFFFFFFFFFFF
310
FFFFFFFFFFFFFFFFFFFFFFFFFFFFFFFFFFFFFFFFFFFFFFFFFFFFFFFFFFFFFFFF
310
FFFFFFFFFFFFFFFFF000FFFFFFFFFFFFFFFFFFFFFFFFFFFFFFFFFFFFFFFFFFFF
310
FFFFFFFFFFFFFFFFFFFFFFFFFFFFFFFFFFFFFFFFFFFFFFFFFFFFFFFFFFFFFFFF
310
FFFFFFFFFFFFFFFFFFFFFFFFFFFFFFFFFFFFFFFFFFFFFFFFFFFFFFFFFFFFFFFF
310
F000FFFFFFFFFFFFFFFFFFFFFFFFFFFFFFFFFFFFFFFFFFFFFFFFFFFFFFFFFFFF
310
FFFFFFFFFFFFFFFFFFFFFFFFFFFFFFFFFFFFFFFFFFFFFFFFFFFFFFFFFFFFFFFF
310
FFFFFFFFFFFFFFFFFFFFFFFFFFFFFFFFFFFFFFFFFFFFFFFFF000FFFFFFFFFFFF
310
FFFFFFFFFFFFFFFFFFFFFFFFFFFFFFFFFFFFFFFFFFFFFFFFFFFFFFFFFFFFFFFF
310
FFFFFFFFFFFFFFFFFFFFFFFFFFFFFFFFFFFFFFFFFFFFFFFFFFFFFFFFFFFFFFFF
310
FFFFFFFFFFFFFFFFFFFFFFFFFFFFFFFFF000FFFFFFFFFFFFFFFFFFFFFFFFFFFF
310
FFFFFFFFFFFFFFFFFFFFFFFFFFFFFFFFFFFFFFFFFFFFFFFFFFFFFFFFFFFFFFFF
310
FFFFFFFFFFFFFFFFFFFFFFFFFFFFFFFFFFFFFFFFFFFFFFFFFFFFFFFFFFFFFFFF
310
FFFFFFFFFFFFFFFFF000FFFFFFFFFFFFFFFFFFFFFFFFFFFFFFFFFFFFFFFFFFFF
310
FFFFFFFFFFFFFFFFFFFFFFFFFFFFFFFFFFFFFFFFFFFFFFFFFFFFFFFFFFFFFFFF
310
FFFFFFFFFFFFFFFFFFFFFFFFFFFFFFFFFFFFFFFFFFFFFFFFFFFFFFFFFFFFFFFF
310
F000FFFFFFFFFFFFFFFFFFFFFFFFFFFFFFFFFFFFFFFFFFFFFFFFFFFFFFFFFFFF
310
FFFFFFFFFFFFFFFFFFFFFFFFFFFFFFFFFFFFFFFFFFFFFFFFFFFFFFFFFFFFFFFF
310
FFFFFFFFFFFFFFFFFFFFFFFFFFFFFFFFFFFFFFFFFFFFFFFFF000FFFFFFFFFFFF
310
FFFFFFFFFFFFFFFFFFFFFFFFFFFFFFFFFFFFFFFFFFFFFFFFFFFFFFFFFFFFFFFF
310
FFFFFFFFFFFFFFFFFFFFFFFFFFFFFFFFFFFFFFFFFFFFFFFFFFFFFFFFFFFFFFFF
310
FFFFFFFFFFFFFFFFFFFFFFFFFFFFFFFFF000FFFFFFFFFFFFFFFFFFFFFFFFFFFF
310
FFFFFFFFFFFFFFFFFFFFFFFFFFFFFFFFFFFFFFFFFFFFFFFFFFFFFFFFFFFFFFFF
310
FFFFFFFFFFFFFFFFFFFFFFFFFFFFFFFFFFFFFFFFFFFFFFFFFFFFFFFFFFFFFFFF
310
FFFFFFFFFFFFFFFFF000FFFFFFFFFFFFFFFFFFFFFFFFFFFFFFFFFFFFFFFFFFFF
310
FFFFFFFFFFFFFFFFFFFFFFFFFFFFFFFFFFFFFFFFFFFFFFFFFFFFFFFFFFFFFFFF
310
FFFFFFFFFFFFFFFFFFFFFFFFFFFFFFFFFFFFFFFFFFFFFFFFFFFFFFFFFFFFFFFF
310
F000FFFFFFFFFFFFFFFFFFFFFFFFFFFFFFFFFFFFFFFFFFFFFFFFFFFFFFFFFFFF
310
FFFFFFFFFFFFFFFFFFFFFFFFFFFFFFFFFFFFFFFFFFFFFFFFFFFFFFFFFFFFFFFF
310
FFFFFFFFFFFFFFFFFFFFFFFFFFFFFFFFFFFFFFFFFFFFFFFFF000FFFFFFFFFFFF
310
FFFFFFFFFFFFFFFFFFFFFFFFFFFFFFFFFFFFFFFFFFFFFFFFFFFFFFFFFFFFFFFF
310
FFFFFFFFFFFFFFFFFFFFFFFFFFFFFFFFFFFFFFFFFFFFFFFFFFFFFFFFFFFFFFFF
310
FFFFFFFFFFFFFFFFFFFFFFFFFFFFFFFFF0000000000000000000000000000000
310
0000000000000000000000000000000000000000000000000000000000000000
310
0000000000000000000000000000000000000000000000000000000000000000
310
0000000000000000000000000000000000000000000000000000000000000000
310
0000000000000000000000000000000000000000000000000000000000000000
310
0000000000000000000000000000000000000000000000000000000000000000
310
0000000000000000000000000000000000000000000000000000000000000000
310
0000000000000000000000000000000000000000000000000000000000000000
310
0000000000000000000000000000000000000000000000000000000000000000
310
0000000000000000000000000000000000000000000000000000000000000000
310
0000000000000000000000000000000000000000000000000000000000000000
310
0000000000000000000000000000000000000000000000000000000000000000
310
0000000000000000000000000000000000000000000000000000000000000000
310
0000000000000000000000000000000000000000000000000000000000000000
310
0000000000000000000000000000000000000000000000000000000000000000
310
0000000000000000000000000000000000000000000000000000000000000000
  1
OLE
  0
ENDSEC
  0
SECTION
  2
OBJECTS
  0
DICTIONARY
  5
C
330
0
100
AcDbDictionary
281
     1
  3
ACAD_GROUP
350
D
  3
ACAD_LAYOUT
350
1A
  3
ACAD_MLINESTYLE
350
17
  3
ACAD_PLOTSETTINGS
350
19
  3
ACAD_PLOTSTYLENAME
350
E
  3
ACAD_SCALELIST
350
47
  0
DICTIONARY
  5
D
102
{ACAD_REACTORS
330
C
102
}
330
C
100
AcDbDictionary
281
     1
  0
DICTIONARY
  5
1A
102
{ACAD_REACTORS
330
C
102
}
330
C
100
AcDbDictionary
281
     1
  3
Layout1
350
1E
  3
Layout2
350
26
  3
Model
350
22
  0
DICTIONARY
  5
17
102
{ACAD_REACTORS
330
C
102
}
330
C
100
AcDbDictionary
281
     1
  3
Standard
350
18
  0
DICTIONARY
  5
19
102
{ACAD_REACTORS
330
C
102
}
330
C
100
AcDbDictionary
281
     1
  0
ACDBDICTIONARYWDFLT
  5
E
102
{ACAD_REACTORS
330
C
102
}
330
C
100
AcDbDictionary
281
     1
  3
Normal
350
F
100
AcDbDictionaryWithDefault
340
F
  0
DICTIONARY
  5
47
102
{ACAD_REACTORS
330
C
102
}
330
C
100
AcDbDictionary
281
     1
  3
A0
350
48
  3
A1
350
49
  3
A2
350
4A
  3
A3
350
4B
  3
A4
350
4C
  3
A5
350
4D
  3
A6
350
4E
  3
A7
350
4F
  3
A8
350
50
  3
A9
350
51
  3
B0
350
52
  3
B1
350
53
  3
B2
350
54
  3
B3
350
55
  3
B4
350
56
  3
B5
350
57
  3
B6
350
58
  3
B7
350
59
  3
B8
350
5A
  3
B9
350
5B
  3
C0
350
5C
  3
C1
350
5D
  3
C2
350
5E
  3
C3
350
5F
  3
C4
350
60
  3
C5
350
61
  3
C6
350
62
  3
C7
350
63
  3
C8
350
64
  3
C9
350
65
  3
D0
350
66
  3
D1
350
67
  3
D2
350
68
  0
LAYOUT
  5
1E
102
{ACAD_REACTORS
330
1A
102
}
330
1A
100
AcDbPlotSettings
  1

  2
none_device
  4

  6

 40
0.0
 41
0.0
 42
0.0
 43
0.0
 44
0.0
 45
0.0
 46
0.0
 47
0.0
 48
0.0
 49
0.0
140
0.0
141
0.0
142
1.0
143
1.0
 70
   688
 72
     1
 73
     0
 74
     5
  7

 75
    16
147
1.0
148
0.0
149
0.0
100
AcDbLayout
  1
Layout1
 70
     1
 71
     1
 10
0.0
 20
0.0
 11
420.0
 21
297.0
 12
0.0
 22
0.0
 32
0.0
 14
1.0000000000E+20
 24
1.0000000000E+20
 34
1.0000000000E+20
 15
-1.0000000000E+20
 25
-1.0000000000E+20
 35
-1.0000000000E+20
146
0.0
 13
0.0
 23
0.0
 33
0.0
 16
1.0
 26
0.0
 36
0.0
 17
0.0
 27
1.0
 37
0.0
 76
     0
330
1B
  0
LAYOUT
  5
26
102
{ACAD_REACTORS
330
1A
102
}
330
1A
100
AcDbPlotSettings
  1

  2
none_device
  4

  6

 40
0.0
 41
0.0
 42
0.0
 43
0.0
 44
0.0
 45
0.0
 46
0.0
 47
0.0
 48
0.0
 49
0.0
140
0.0
141
0.0
142
1.0
143
1.0
 70
   688
 72
     1
 73
     0
 74
     5
  7

 75
    16
147
1.0
148
0.0
149
0.0
100
AcDbLayout
  1
Layout2
 70
     1
 71
     2
 10
0.0
 20
0.0
 11
0.0
 21
0.0
 12
0.0
 22
0.0
 32
0.0
 14
0.0
 24
0.0
 34
0.0
 15
0.0
 25
0.0
 35
0.0
146
0.0
 13
0.0
 23
0.0
 33
0.0
 16
1.0
 26
0.0
 36
0.0
 17
0.0
 27
1.0
 37
0.0
 76
     0
330
23
  0
LAYOUT
  5
22
102
{ACAD_REACTORS
330
1A
102
}
330
1A
100
AcDbPlotSettings
  1

  2
none_device
  4
Letter_(8.50_x_11.00_Inches)
  6

 40
6.35
 41
6.35
 42
6.35000508
 43
6.35000508
 44
215.9
 45
279.4
 46
0.0
 47
0.0
 48
0.0
 49
0.0
140
0.0
141
0.0
142
1.0
143
1.0
 70
  1712
 72
     1
 73
     0
 74
     0
  7

 75
     0
147
1.0
148
0.0
149
0.0
100
AcDbLayout
  1
Model
 70
     1
 71
     0
 10
0.0
 20
0.0
 11
297.0
 21
210.0
 12
0.0
 22
0.0
 32
0.0
 14
0.0
 24
0.0
 34
0.0
 15
297.0
 25
210.0
 35
0.0
146
0.0
 13
0.0
 23
0.0
 33
0.0
 16
1.0
 26
0.0
 36
0.0
 17
0.0
 27
1.0
 37
0.0
 76
     0
330
1F
331
29
  0
MLINESTYLE
  5
18
102
{ACAD_REACTORS
330
17
102
}
330
17
100
AcDbMlineStyle
  2
Standard
 70
     0
  3

 62
   256
 51
90.0
 52
90.0
 71
     2
 49
0.5
 62
   256
  6
BYLAYER
 49
-0.5
 62
   256
  6
BYLAYER
  0
ACDBPLACEHOLDER
  5
F
102
{ACAD_REACTORS
330
E
102
}
330
E
  0
SCALE
  5
48
102
{ACAD_REACTORS
330
47
102
}
330
47
100
AcDbScale
 70
     0
300
1:1
140
1.0
141
1.0
290
     1
  0
SCALE
  5
49
102
{ACAD_REACTORS
330
47
102
}
330
47
100
AcDbScale
 70
     0
300
1:2
140
1.0
141
2.0
290
     0
  0
SCALE
  5
4A
102
{ACAD_REACTORS
330
47
102
}
330
47
100
AcDbScale
 70
     0
300
1:4
140
1.0
141
4.0
290
     0
  0
SCALE
  5
4B
102
{ACAD_REACTORS
330
47
102
}
330
47
100
AcDbScale
 70
     0
300
1:5
140
1.0
141
5.0
290
     0
  0
SCALE
  5
4C
102
{ACAD_REACTORS
330
47
102
}
330
47
100
AcDbScale
 70
     0
300
1:8
140
1.0
141
8.0
290
     0
  0
SCALE
  5
4D
102
{ACAD_REACTORS
330
47
102
}
330
47
100
AcDbScale
 70
     0
300
1:10
140
1.0
141
10.0
290
     0
  0
SCALE
  5
4E
102
{ACAD_REACTORS
330
47
102
}
330
47
100
AcDbScale
 70
     0
300
1:16
140
1.0
141
16.0
290
     0
  0
SCALE
  5
4F
102
{ACAD_REACTORS
330
47
102
}
330
47
100
AcDbScale
 70
     0
300
1:20
140
1.0
141
20.0
290
     0
  0
SCALE
  5
50
102
{ACAD_REACTORS
330
47
102
}
330
47
100
AcDbScale
 70
     0
300
1:30
140
1.0
141
30.0
290
     0
  0
SCALE
  5
51
102
{ACAD_REACTORS
330
47
102
}
330
47
100
AcDbScale
 70
     0
300
1:40
140
1.0
141
40.0
290
     0
  0
SCALE
  5
52
102
{ACAD_REACTORS
330
47
102
}
330
47
100
AcDbScale
 70
     0
300
1:50
140
1.0
141
50.0
290
     0
  0
SCALE
  5
53
102
{ACAD_REACTORS
330
47
102
}
330
47
100
AcDbScale
 70
     0
300
1:100
140
1.0
141
100.0
290
     0
  0
SCALE
  5
54
102
{ACAD_REACTORS
330
47
102
}
330
47
100
AcDbScale
 70
     0
300
2:1
140
2.0
141
1.0
290
     0
  0
SCALE
  5
55
102
{ACAD_REACTORS
330
47
102
}
330
47
100
AcDbScale
 70
     0
300
4:1
140
4.0
141
1.0
290
     0
  0
SCALE
  5
56
102
{ACAD_REACTORS
330
47
102
}
330
47
100
AcDbScale
 70
     0
300
8:1
140
8.0
141
1.0
290
     0
  0
SCALE
  5
57
102
{ACAD_REACTORS
330
47
102
}
330
47
100
AcDbScale
 70
     0
300
10:1
140
10.0
141
1.0
290
     0
  0
SCALE
  5
58
102
{ACAD_REACTORS
330
47
102
}
330
47
100
AcDbScale
 70
     0
300
100:1
140
100.0
141
1.0
290
     0
  0
SCALE
  5
59
102
{ACAD_REACTORS
330
47
102
}
330
47
100
AcDbScale
 70
     0
300
1/128" = 1'-0"
140
0.0078125
141
12.0
290
     0
  0
SCALE
  5
5A
102
{ACAD_REACTORS
330
47
102
}
330
47
100
AcDbScale
 70
     0
300
1/64" = 1'-0"
140
0.015625
141
12.0
290
     0
  0
SCALE
  5
5B
102
{ACAD_REACTORS
330
47
102
}
330
47
100
AcDbScale
 70
     0
300
1/32" = 1'-0"
140
0.03125
141
12.0
290
     0
  0
SCALE
  5
5C
102
{ACAD_REACTORS
330
47
102
}
330
47
100
AcDbScale
 70
     0
300
1/16" = 1'-0"
140
0.0625
141
12.0
290
     0
  0
SCALE
  5
5D
102
{ACAD_REACTORS
330
47
102
}
330
47
100
AcDbScale
 70
     0
300
3/32" = 1'-0"
140
0.09375
141
12.0
290
     0
  0
SCALE
  5
5E
102
{ACAD_REACTORS
330
47
102
}
330
47
100
AcDbScale
 70
     0
300
1/8" = 1'-0"
140
0.125
141
12.0
290
     0
  0
SCALE
  5
5F
102
{ACAD_REACTORS
330
47
102
}
330
47
100
AcDbScale
 70
     0
300
3/16" = 1'-0"
140
0.1875
141
12.0
290
     0
  0
SCALE
  5
60
102
{ACAD_REACTORS
330
47
102
}
330
47
100
AcDbScale
 70
     0
300
1/4" = 1'-0"
140
0.25
141
12.0
290
     0
  0
SCALE
  5
61
102
{ACAD_REACTORS
330
47
102
}
330
47
100
AcDbScale
 70
     0
300
3/8" = 1'-0"
140
0.375
141
12.0
290
     0
  0
SCALE
  5
62
102
{ACAD_REACTORS
330
47
102
}
330
47
100
AcDbScale
 70
     0
300
1/2" = 1'-0"
140
0.5
141
12.0
290
     0
  0
SCALE
  5
63
102
{ACAD_REACTORS
330
47
102
}
330
47
100
AcDbScale
 70
     0
300
3/4" = 1'-0"
140
0.75
141
12.0
290
     0
  0
SCALE
  5
64
102
{ACAD_REACTORS
330
47
102
}
330
47
100
AcDbScale
 70
     0
300
1" = 1'-0"
140
1.0
141
12.0
290
     0
  0
SCALE
  5
65
102
{ACAD_REACTORS
330
47
102
}
330
47
100
AcDbScale
 70
     0
300
1-1/2" = 1'-0"
140
1.5
141
12.0
290
     0
  0
SCALE
  5
66
102
{ACAD_REACTORS
330
47
102
}
330
47
100
AcDbScale
 70
     0
300
3" = 1'-0"
140
3.0
141
12.0
290
     0
  0
SCALE
  5
67
102
{ACAD_REACTORS
330
47
102
}
330
47
100
AcDbScale
 70
     0
300
6" = 1'-0"
140
6.0
141
12.0
290
     0
  0
SCALE
  5
68
102
{ACAD_REACTORS
330
47
102
}
330
47
100
AcDbScale
 70
     0
300
1'-0" = 1'-0"
140
12.0
141
12.0
290
     0
  0
ENDSEC
  0
EOF
