  0
SECTION
  2
HEADER
  9
$ACADVER
  1
AC1015
  9
$ACADMAINTVER
 70
     6
  9
$DWGCODEPAGE
  3
ANSI_1252
  9
$INSBASE
 10
0.0
 20
0.0
 30
0.0
  9
$EXTMIN
 10
0.0
 20
0.0
 30
0.0
  9
$EXTMAX
 10
297.0
 20
210.0
 30
0.0
  9
$LIMMIN
 10
0.0
 20
0.0
  9
$LIMMAX
 10
297.0
 20
210.0
  9
$ORTHOMODE
 70
     0
  9
$REGENMODE
 70
     1
  9
$FILLMODE
 70
     1
  9
$QTEXTMODE
 70
     0
  9
$MIRRTEXT
 70
     1
  9
$LTSCALE
 40
1.0
  9
$ATTMODE
 70
     1
  9
$TEXTSIZE
 40
2.0
  9
$TRACEWID
 40
1.0
  9
$TEXTSTYLE
  7
Standard
  9
$CLAYER
  8
0
  9
$CELTYPE
  6
ByLayer
  9
$CECOLOR
 62
   256
  9
$CELTSCALE
 40
1.0
  9
$DISPSILH
 70
     0
  9
$DIMSCALE
 40
1.0
  9
$DIMASZ
 40
3.0
  9
$DIMEXO
 40
0.0
  9
$DIMDLI
 40
3.75
  9
$DIMRND
 40
0.0
  9
$DIMDLE
 40
0.0
  9
$DIMEXE
 40
1.0
  9
$DIMTP
 40
0.0
  9
$DIMTM
 40
0.0
  9
$DIMTXT
 40
2.0
  9
$DIMCEN
 40
2.5
  9
$DIMTSZ
 40
0.0
  9
$DIMTOL
 70
     0
  9
$DIMLIM
 70
     0
  9
$DIMTIH
 70
     1
  9
$DIMTOH
 70
     1
  9
$DIMSE1
 70
     0
  9
$DIMSE2
 70
     0
  9
$DIMTAD
 70
     1
  9
$DIMZIN
 70
     0
  9
$DIMBLK
  1

  9
$DIMASO
 70
     1
  9
$DIMSHO
 70
     1
  9
$DIMPOST
  1

  9
$DIMAPOST
  1

  9
$DIMALT
 70
     0
  9
$DIMALTD
 70
     3
  9
$DIMALTF
 40
0.0393700787
  9
$DIMLFAC
 40
2.0
  9
$DIMTOFL
 70
     1
  9
$DIMTVP
 40
0.0
  9
$DIMTIX
 70
     0
  9
$DIMSOXD
 70
     0
  9
$DIMSAH
 70
     0
  9
$DIMBLK1
  1

  9
$DIMBLK2
  1

  9
$DIMSTYLE
  2
ISO-25
  9
$DIMCLRD
 70
     0
  9
$DIMCLRE
 70
     0
  9
$DIMCLRT
 70
     0
  9
$DIMTFAC
 40
1.0
  9
$DIMGAP
 40
1.524
  9
$DIMJUST
 70
     0
  9
$DIMSD1
 70
     0
  9
$DIMSD2
 70
     0
  9
$DIMTOLJ
 70
     0
  9
$DIMTZIN
 70
     0
  9
$DIMALTZ
 70
     0
  9
$DIMALTTZ
 70
     0
  9
$DIMUPT
 70
     0
  9
$DIMDEC
 70
     2
  9
$DIMTDEC
 70
     3
  9
$DIMALTU
 70
     2
  9
$DIMALTTD
 70
     3
  9
$DIMTXSTY
  7
Standard
  9
$DIMAUNIT
 70
     0
  9
$DIMADEC
 70
     2
  9
$DIMALTRND
 40
0.0
  9
$DIMAZIN
 70
     0
  9
$DIMDSEP
 70
    44
  9
$DIMATFIT
 70
     3
  9
$DIMFRAC
 70
     0
  9
$DIMLDRBLK
  1

  9
$DIMLUNIT
 70
     2
  9
$DIMLWD
 70
    -2
  9
$DIMLWE
 70
    -2
  9
$DIMTMOVE
 70
     0
  9
$LUNITS
 70
     2
  9
$LUPREC
 70
     2
  9
$SKETCHINC
 40
1.0
  9
$FILLETRAD
 40
10.0
  9
$AUNITS
 70
     0
  9
$AUPREC
 70
     2
  9
$MENU
  1
.
  9
$ELEVATION
 40
0.0
  9
$PELEVATION
 40
0.0
  9
$THICKNESS
 40
0.0
  9
$LIMCHECK
 70
     0
  9
$CHAMFERA
 40
0.0
  9
$CHAMFERB
 40
0.0
  9
$CHAMFERC
 40
0.0
  9
$CHAMFERD
 40
0.0
  9
$SKPOLY
 70
     0
  9
$TDCREATE
 40
2458166.594312176
  9
$TDUCREATE
 40
2458166.552645509
  9
$TDUPDATE
 40
2458166.594314618
  9
$TDUUPDATE
 40
2458166.552647952
  9
$TDINDWG
 40
0.0000000116
  9
$TDUSRTIMER
 40
0.0000000116
  9
$USRTIMER
 70
     1
  9
$ANGBASE
 50
0.0
  9
$ANGDIR
 70
     0
  9
$PDMODE
 70
     0
  9
$PDSIZE
 40
-1.0
  9
$PLINEWID
 40
0.0
  9
$SPLFRAME
 70
     0
  9
$SPLINETYPE
 70
     6
  9
$SPLINESEGS
 70
     8
  9
$HANDSEED
  5
28E
  9
$SURFTAB1
 70
     6
  9
$SURFTAB2
 70
     6
  9
$SURFTYPE
 70
     6
  9
$SURFU
 70
     6
  9
$SURFV
 70
     6
  9
$UCSBASE
  2

  9
$UCSNAME
  2

  9
$UCSORG
 10
0.0
 20
0.0
 30
0.0
  9
$UCSXDIR
 10
1.0
 20
0.0
 30
0.0
  9
$UCSYDIR
 10
0.0
 20
1.0
 30
0.0
  9
$UCSORTHOREF
  2

  9
$UCSORTHOVIEW
 70
     0
  9
$UCSORGTOP
 10
0.0
 20
0.0
 30
0.0
  9
$UCSORGBOTTOM
 10
0.0
 20
0.0
 30
0.0
  9
$UCSORGLEFT
 10
0.0
 20
0.0
 30
0.0
  9
$UCSORGRIGHT
 10
0.0
 20
0.0
 30
0.0
  9
$UCSORGFRONT
 10
0.0
 20
0.0
 30
0.0
  9
$UCSORGBACK
 10
0.0
 20
0.0
 30
0.0
  9
$PUCSBASE
  2

  9
$PUCSNAME
  2

  9
$PUCSORG
 10
0.0
 20
0.0
 30
0.0
  9
$PUCSXDIR
 10
1.0
 20
0.0
 30
0.0
  9
$PUCSYDIR
 10
0.0
 20
1.0
 30
0.0
  9
$PUCSORTHOREF
  2

  9
$PUCSORTHOVIEW
 70
     0
  9
$PUCSORGTOP
 10
0.0
 20
0.0
 30
0.0
  9
$PUCSORGBOTTOM
 10
0.0
 20
0.0
 30
0.0
  9
$PUCSORGLEFT
 10
0.0
 20
0.0
 30
0.0
  9
$PUCSORGRIGHT
 10
0.0
 20
0.0
 30
0.0
  9
$PUCSORGFRONT
 10
0.0
 20
0.0
 30
0.0
  9
$PUCSORGBACK
 10
0.0
 20
0.0
 30
0.0
  9
$USERI1
 70
     0
  9
$USERI2
 70
     0
  9
$USERI3
 70
     0
  9
$USERI4
 70
     0
  9
$USERI5
 70
     0
  9
$USERR1
 40
0.0
  9
$USERR2
 40
0.0
  9
$USERR3
 40
0.0
  9
$USERR4
 40
0.0
  9
$USERR5
 40
0.0
  9
$WORLDVIEW
 70
     1
  9
$SHADEDGE
 70
     3
  9
$SHADEDIF
 70
    70
  9
$TILEMODE
 70
     1
  9
$MAXACTVP
 70
    64
  9
$PINSBASE
 10
0.0
 20
0.0
 30
0.0
  9
$PLIMCHECK
 70
     0
  9
$PEXTMIN
 10
1.0000000000E+20
 20
1.0000000000E+20
 30
1.0000000000E+20
  9
$PEXTMAX
 10
-1.0000000000E+20
 20
-1.0000000000E+20
 30
-1.0000000000E+20
  9
$PLIMMIN
 10
0.0
 20
0.0
  9
$PLIMMAX
 10
420.0
 20
297.0
  9
$UNITMODE
 70
     0
  9
$VISRETAIN
 70
     1
  9
$PLINEGEN
 70
     0
  9
$PSLTSCALE
 70
     1
  9
$TREEDEPTH
 70
  3020
  9
$CMLSTYLE
  2
Standard
  9
$CMLJUST
 70
     0
  9
$CMLSCALE
 40
20.0
  9
$PROXYGRAPHICS
 70
     1
  9
$MEASUREMENT
 70
     1
  9
$CELWEIGHT
370
    -1
  9
$ENDCAPS
280
     0
  9
$JOINSTYLE
280
     0
  9
$LWDISPLAY
290
     1
  9
$INSUNITS
 70
     4
  9
$HYPERLINKBASE
  1

  9
$STYLESHEET
  1

  9
$XEDIT
290
     1
  9
$CEPSNTYPE
380
     0
  9
$PSTYLEMODE
290
     1
  9
$FINGERPRINTGUID
  2
{446CA6D7-6249-494D-B9FC-1AD690D7DA0C}
  9
$VERSIONGUID
  2
{FAEB1C32-E019-11D5-929B-00C0DF256EC4}
  9
$EXTNAMES
290
     1
  9
$PSVPSCALE
 40
0.0
  9
$OLESTARTUP
290
     0
  0
ENDSEC
  0
SECTION
  2
CLASSES
  0
CLASS
  1
ACDBDICTIONARYWDFLT
  2
AcDbDictionaryWithDefault
  3
ObjectDBX Classes
 90
        0
280
     0
281
     0
  0
CLASS
  1
VISUALSTYLE
  2
AcDbVisualStyle
  3
ObjectDBX Classes
 90
     4095
280
     0
281
     0
  0
CLASS
  1
MATERIAL
  2
AcDbMaterial
  3
ObjectDBX Classes
 90
     1153
280
     0
281
     0
  0
CLASS
  1
SCALE
  2
AcDbScale
  3
ObjectDBX Classes
 90
     1153
280
     0
281
     0
  0
CLASS
  1
TABLESTYLE
  2
AcDbTableStyle
  3
ObjectDBX Classes
 90
     4095
280
     0
281
     0
  0
CLASS
  1
MLEADERSTYLE
  2
AcDbMLeaderStyle
  3
ACDB_MLEADERSTYLE_CLASS
 90
     4095
280
     0
281
     0
  0
CLASS
  1
SUN
  2
AcDbSun
  3
SCENEOE
 90
     1153
280
     0
281
     0
  0
CLASS
  1
ACDBPLACEHOLDER
  2
AcDbPlaceHolder
  3
ObjectDBX Classes
 90
        0
280
     0
281
     0
  0
CLASS
  1
LAYOUT
  2
AcDbLayout
  3
ObjectDBX Classes
 90
        0
280
     0
281
     0
  0
ENDSEC
  0
SECTION
  2
TABLES
  0
TABLE
  2
VPORT
  5
8
330
0
100
AcDbSymbolTable
 70
     1
  0
VPORT
  5
29
330
8
100
AcDbSymbolTableRecord
100
AcDbViewportTableRecord
  2
*Active
 70
     0
 10
0.0
 20
0.0
 11
1.0
 21
1.0
 12
148.5
 22
105.0
 13
0.0
 23
0.0
 14
10.0
 24
10.0
 15
10.0
 25
10.0
 16
0.0
 26
0.0
 36
1.0
 17
0.0
 27
0.0
 37
0.0
 40
210.0
 41
1.4142857143
 42
50.0
 43
0.0
 44
0.0
 50
0.0
 51
0.0
 71
     0
 72
  2000
 73
     1
 74
     3
 75
     0
 76
     0
 77
     0
 78
     0
281
     0
 65
     1
110
0.0
120
0.0
130
0.0
111
1.0
121
0.0
131
0.0
112
0.0
122
1.0
132
0.0
 79
     0
146
0.0
  0
ENDTAB
  0
TABLE
  2
LTYPE
  5
5
330
0
100
AcDbSymbolTable
 70
     6
  0
LTYPE
  5
14
330
5
100
AcDbSymbolTableRecord
100
AcDbLinetypeTableRecord
  2
ByBlock
 70
     0
  3

 72
    65
 73
     0
 40
0.0
  0
LTYPE
  5
15
330
5
100
AcDbSymbolTableRecord
100
AcDbLinetypeTableRecord
  2
ByLayer
 70
     0
  3

 72
    65
 73
     0
 40
0.0
  0
LTYPE
  5
16
330
5
100
AcDbSymbolTableRecord
100
AcDbLinetypeTableRecord
  2
Continuous
 70
     0
  3
Solid line
 72
    65
 73
     0
 40
0.0
  0
LTYPE
  5
6E
330
5
100
AcDbSymbolTableRecord
100
AcDbLinetypeTableRecord
  2
HIDDEN
 70
     0
  3
Hidden __ __ __ __ __ __ __ __ __ __ __ __ __ __
 72
    65
 73
     2
 40
1.905
 49
1.27
 74
     0
 49
-0.635
 74
     0
  0
LTYPE
  5
6F
330
5
100
AcDbSymbolTableRecord
100
AcDbLinetypeTableRecord
  2
PHANTOM
 70
     0
  3
Phantom ______  __  __  ______  __  __  ______
 72
    65
 73
     6
 40
12.7
 49
6.35
 74
     0
 49
-1.27
 74
     0
 49
1.27
 74
     0
 49
-1.27
 74
     0
 49
1.27
 74
     0
 49
-1.27
 74
     0
  0
LTYPE
  5
70
330
5
100
AcDbSymbolTableRecord
100
AcDbLinetypeTableRecord
  2
CENTER
 70
     0
  3
Center ____ _ ____ _ ____ _ ____ _ ____ _ ____
 72
    65
 73
     4
 40
10.16
 49
6.35
 74
     0
 49
-1.27
 74
     0
 49
1.27
 74
     0
 49
-1.27
 74
     0
  0
LTYPE
  5
71
330
5
100
AcDbSymbolTableRecord
100
AcDbLinetypeTableRecord
  2
CENTERX2
 70
     0
  3
Center (2x) ________  __  ________  __  _____
 72
    65
 73
     4
 40
20.32
 49
12.7
 74
     0
 49
-2.54
 74
     0
 49
2.54
 74
     0
 49
-2.54
 74
     0
  0
LTYPE
  5
72
330
5
100
AcDbSymbolTableRecord
100
AcDbLinetypeTableRecord
  2
DOT2
 70
     0
  3
Dot (.5x) ........................................
 72
    65
 73
     2
 40
0.635
 49
0.0
 74
     0
 49
-0.635
 74
     0
  0
ENDTAB
  0
TABLE
  2
LAYER
  5
2
330
0
100
AcDbSymbolTable
 70
     5
  0
LAYER
  5
10
330
2
100
AcDbSymbolTableRecord
100
AcDbLayerTableRecord
  2
0
 70
     0
 62
     7
  6
Continuous
370
    -3
390
F
  0
LAYER
  5
73
330
2
100
AcDbSymbolTableRecord
100
AcDbLayerTableRecord
  2
FORMAT
 70
     0
 62
     7
  6
Continuous
370
    -3
390
F
  0
LAYER
  5
74
330
2
100
AcDbSymbolTableRecord
100
AcDbLayerTableRecord
  2
VERMASSUNG
 70
     0
 62
     7
  6
Continuous
370
    -3
390
F
  0
LAYER
  5
75
330
2
100
AcDbSymbolTableRecord
100
AcDbLayerTableRecord
  2
KOPF_DÜNN
 70
     0
 62
     7
  6
Continuous
370
    -3
390
F
  0
LAYER
  5
76
330
2
100
AcDbSymbolTableRecord
100
AcDbLayerTableRecord
  2
KOPF_DICK
 70
     0
 62
     7
  6
Continuous
370
    25
390
F
  0
ENDTAB
  0
TABLE
  2
STYLE
  5
3
330
0
100
AcDbSymbolTable
 70
     2
  0
STYLE
  5
11
330
3
100
AcDbSymbolTableRecord
100
AcDbTextStyleTableRecord
  2
Standard
 70
     0
 40
0.0
 41
1.0
 50
0.0
 71
     0
 42
2.0
  3
txt
  4

  0
STYLE
  5
77
330
3
100
AcDbSymbolTableRecord
100
AcDbTextStyleTableRecord
  2
SLDTEXTSTYLE0
 70
     0
 40
0.0
 41
0.7
 50
0.0
 71
     0
 42
2.0
  3
TXT
  4

  0
ENDTAB
  0
TABLE
  2
VIEW
  5
6
330
0
100
AcDbSymbolTable
 70
     0
  0
ENDTAB
  0
TABLE
  2
UCS
  5
7
330
0
100
AcDbSymbolTable
 70
     0
  0
ENDTAB
  0
TABLE
  2
APPID
  5
9
330
0
100
AcDbSymbolTable
 70
     1
  0
APPID
  5
12
330
9
100
AcDbSymbolTableRecord
100
AcDbRegAppTableRecord
  2
ACAD
 70
     0
  0
ENDTAB
  0
TABLE
  2
DIMSTYLE
  5
A
330
0
100
AcDbSymbolTable
 70
     2
100
AcDbDimStyleTable
  0
DIMSTYLE
105
27
330
A
100
AcDbSymbolTableRecord
100
AcDbDimStyleTableRecord
  2
ISO-25
 70
     0
 41
2.5
 42
0.625
 43
3.75
 44
1.25
 73
     0
 74
     0
 77
     1
 78
     8
140
2.5
141
2.5
143
0.0393700787
147
0.625
171
     3
172
     1
178
     0
271
     2
272
     2
274
     3
278
    44
283
     0
284
     8
340
11
  0
DIMSTYLE
105
150
102
{ACAD_REACTORS
330
14F
330
15A
330
165
330
170
330
17A
330
184
102
}
330
A
100
AcDbSymbolTableRecord
100
AcDbDimStyleTableRecord
  2
SLDDIMSTYLE0
 70
     0
 41
3.0
 44
0.0
 45
0.000000001
 73
     0
 74
     0
 77
     1
 78
    12
 79
     3
140
2.0
147
0.5
173
     1
178
     0
271
     2
272
     3
276
     2
284
    12
340
77
  0
ENDTAB
  0
TABLE
  2
BLOCK_RECORD
  5
1
330
0
100
AcDbSymbolTable
 70
     7
  0
BLOCK_RECORD
  5
1F
330
1
100
AcDbSymbolTableRecord
100
AcDbBlockTableRecord
  2
*Model_Space
340
22
  0
BLOCK_RECORD
  5
1B
330
1
100
AcDbSymbolTableRecord
100
AcDbBlockTableRecord
  2
*Paper_Space
340
1E
  0
BLOCK_RECORD
  5
23
330
1
100
AcDbSymbolTableRecord
100
AcDbBlockTableRecord
  2
*Paper_Space0
340
26
  0
BLOCK_RECORD
  5
151
330
1
100
AcDbSymbolTableRecord
100
AcDbBlockTableRecord
  2
_D
340
0
  0
BLOCK_RECORD
  5
15B
330
1
100
AcDbSymbolTableRecord
100
AcDbBlockTableRecord
  2
_D_1
340
0
  0
BLOCK_RECORD
  5
166
330
1
100
AcDbSymbolTableRecord
100
AcDbBlockTableRecord
  2
_D_2
340
0
  0
BLOCK_RECORD
  5
171
330
1
100
AcDbSymbolTableRecord
100
AcDbBlockTableRecord
  2
_D_3
340
0
  0
BLOCK_RECORD
  5
17B
330
1
100
AcDbSymbolTableRecord
100
AcDbBlockTableRecord
  2
_D_4
340
0
  0
BLOCK_RECORD
  5
185
330
1
100
AcDbSymbolTableRecord
100
AcDbBlockTableRecord
  2
_D_5
340
0
  0
ENDTAB
  0
ENDSEC
  0
SECTION
  2
BLOCKS
  0
BLOCK
  5
20
330
1F
100
AcDbEntity
  8
0
100
AcDbBlockBegin
  2
*Model_Space
 70
     0
 10
0.0
 20
0.0
 30
0.0
  3
*Model_Space
  1

  0
ENDBLK
  5
21
330
1F
100
AcDbEntity
  8
0
100
AcDbBlockEnd
  0
BLOCK
  5
1C
330
1B
100
AcDbEntity
 67
     1
  8
0
100
AcDbBlockBegin
  2
*Paper_Space
 70
     0
 10
0.0
 20
0.0
 30
0.0
  3
*Paper_Space
  1

  0
ENDBLK
  5
1D
330
1B
100
AcDbEntity
 67
     1
  8
0
100
AcDbBlockEnd
  0
BLOCK
  5
24
330
23
100
AcDbEntity
  8
0
100
AcDbBlockBegin
  2
*Paper_Space0
 70
     0
 10
0.0
 20
0.0
 30
0.0
  3
*Paper_Space0
  1

  0
ENDBLK
  5
25
330
23
100
AcDbEntity
  8
0
100
AcDbBlockEnd
  0
BLOCK
  5
152
330
151
100
AcDbEntity
  8
0
100
AcDbBlockBegin
  2
_D
 70
     0
 10
0.0
 20
0.0
 30
0.0
  3
_D
  1

  0
SOLID
  5
154
330
151
100
AcDbEntity
  8
VERMASSUNG
100
AcDbTrace
 10
170.7510877962
 20
87.23986342
 30
0.0
 11
171.2010877962
 21
90.23986342
 31
0.0
 12
170.3010877962
 22
90.23986342
 32
0.0
 13
170.3010877962
 23
90.23986342
 33
0.0
  0
SOLID
  5
155
330
151
100
AcDbEntity
  8
VERMASSUNG
100
AcDbTrace
 10
170.7510877962
 20
137.23986342
 30
0.0
 11
170.3010877962
 21
134.23986342
 31
0.0
 12
171.2010877962
 22
134.23986342
 32
0.0
 13
171.2010877962
 23
134.23986342
 33
0.0
  0
LINE
  5
156
330
151
100
AcDbEntity
  8
VERMASSUNG
100
AcDbLine
 10
170.7510877962
 20
87.23986342
 30
0.0
 11
170.7510877962
 21
137.23986342
 31
0.0
  0
LINE
  5
157
330
151
100
AcDbEntity
  8
VERMASSUNG
100
AcDbLine
 10
170.7510877962
 20
137.23986342
 30
0.0
 11
170.7510877962
 21
148.6226237733
 31
0.0
  0
MTEXT
  5
158
330
151
100
AcDbEntity
  8
VERMASSUNG
100
AcDbMText
 10
168.1729524913
 20
142.2126238588
 30
0.0
 40
2.0
 41
0.0
 71
     1
 72
     1
  1
%%c
  7
SLDTEXTSTYLE0
 11
6.123233995736766E-17
 21
1.0
 31
0.0
 73
     1
 44
1.0
  0
MTEXT
  5
159
330
151
100
AcDbEntity
  8
VERMASSUNG
100
AcDbMText
 10
167.97295254
 20
145.8226238731
 30
0.0
 40
2.0
 41
0.0
 71
     1
 72
     1
  1
50
  7
SLDTEXTSTYLE0
 11
6.123233995736766E-17
 21
1.0
 31
0.0
 73
     1
 44
1.0
  0
ENDBLK
  5
153
330
151
100
AcDbEntity
  8
0
100
AcDbBlockEnd
  0
BLOCK
  5
15C
330
15B
100
AcDbEntity
  8
0
100
AcDbBlockBegin
  2
_D_1
 70
     0
 10
0.0
 20
0.0
 30
0.0
  3
_D_1
  1

  0
SOLID
  5
15E
330
15B
100
AcDbEntity
  8
VERMASSUNG
100
AcDbTrace
 10
233.9997475787
 20
137.08986342
 30
0.0
 11
233.5497475787
 21
134.08986342
 31
0.0
 12
234.4497475787
 22
134.08986342
 32
0.0
 13
234.4497475787
 23
134.08986342
 33
0.0
  0
SOLID
  5
15F
330
15B
100
AcDbEntity
  8
VERMASSUNG
100
AcDbTrace
 10
233.9997475787
 20
87.38986342
 30
0.0
 11
234.4497475787
 21
90.38986342
 31
0.0
 12
233.5497475787
 22
90.38986342
 32
0.0
 13
233.5497475787
 23
90.38986342
 33
0.0
  0
LINE
  5
160
330
15B
100
AcDbEntity
  8
VERMASSUNG
100
AcDbLine
 10
201.3095566502
 20
137.08986342
 30
0.0
 11
234.9997475787
 21
137.08986342
 31
0.0
  0
LINE
  5
161
330
15B
100
AcDbEntity
  8
VERMASSUNG
100
AcDbLine
 10
201.311035328
 20
87.38986342
 30
0.0
 11
234.9997475787
 21
87.38986342
 31
0.0
  0
LINE
  5
162
330
15B
100
AcDbEntity
  8
VERMASSUNG
100
AcDbLine
 10
233.9997475787
 20
137.08986342
 30
0.0
 11
233.9997475787
 21
87.38986342
 31
0.0
  0
MTEXT
  5
163
330
15B
100
AcDbEntity
  8
VERMASSUNG
100
AcDbMText
 10
231.4216122738
 20
107.9348634687
 30
0.0
 40
2.0
 41
0.0
 71
     1
 72
     1
  1
%%c
  7
SLDTEXTSTYLE0
 11
-7.044195017643634E-15
 21
1.0
 31
0.0
 73
     1
 44
1.0
  0
MTEXT
  5
164
330
15B
100
AcDbEntity
  8
VERMASSUNG
100
AcDbMText
 10
231.2216123225
 20
111.544863483
 30
0.0
 40
2.0
 41
0.0
 71
     1
 72
     1
  1
49.7
  7
SLDTEXTSTYLE0
 11
-7.044195017643634E-15
 21
1.0
 31
0.0
 73
     1
 44
1.0
  0
ENDBLK
  5
15D
330
15B
100
AcDbEntity
  8
0
100
AcDbBlockEnd
  0
BLOCK
  5
167
330
166
100
AcDbEntity
  8
0
100
AcDbBlockBegin
  2
_D_2
 70
     0
 10
0.0
 20
0.0
 30
0.0
  3
_D_2
  1

  0
SOLID
  5
169
330
166
100
AcDbEntity
  8
VERMASSUNG
100
AcDbTrace
 10
79.9419979159
 20
143.71486342
 30
0.0
 11
79.4919979159
 21
140.71486342
 31
0.0
 12
80.3919979159
 22
140.71486342
 32
0.0
 13
80.3919979159
 23
140.71486342
 33
0.0
  0
SOLID
  5
16A
330
166
100
AcDbEntity
  8
VERMASSUNG
100
AcDbTrace
 10
79.9419979159
 20
80.76486342
 30
0.0
 11
80.3919979159
 21
83.76486342
 31
0.0
 12
79.4919979159
 22
83.76486342
 32
0.0
 13
79.4919979159
 23
83.76486342
 33
0.0
  0
LINE
  5
16B
330
166
100
AcDbEntity
  8
VERMASSUNG
100
AcDbLine
 10
130.0920229159
 20
143.71486342
 30
0.0
 11
78.9419979159
 21
143.71486342
 31
0.0
  0
LINE
  5
16C
330
166
100
AcDbEntity
  8
VERMASSUNG
100
AcDbLine
 10
130.0920229159
 20
80.76486342
 30
0.0
 11
78.9419979159
 21
80.76486342
 31
0.0
  0
LINE
  5
16D
330
166
100
AcDbEntity
  8
VERMASSUNG
100
AcDbLine
 10
79.9419979159
 20
143.71486342
 30
0.0
 11
79.9419979159
 21
80.76486342
 31
0.0
  0
MTEXT
  5
16E
330
166
100
AcDbEntity
  8
VERMASSUNG
100
AcDbMText
 10
77.363862611
 20
107.3348640223
 30
0.0
 40
2.0
 41
0.0
 71
     1
 72
     1
  1
%%c
  7
SLDTEXTSTYLE0
 11
-7.044195017643634E-15
 21
1.0
 31
0.0
 73
     1
 44
1.0
  0
MTEXT
  5
16F
330
166
100
AcDbEntity
  8
VERMASSUNG
100
AcDbMText
 10
77.1638626597
 20
110.9448640366
 30
0.0
 40
2.0
 41
0.0
 71
     1
 72
     1
  1
62.95
  7
SLDTEXTSTYLE0
 11
-7.044195017643634E-15
 21
1.0
 31
0.0
 73
     1
 44
1.0
  0
ENDBLK
  5
168
330
166
100
AcDbEntity
  8
0
100
AcDbBlockEnd
  0
BLOCK
  5
172
330
171
100
AcDbEntity
  8
0
100
AcDbBlockBegin
  2
_D_3
 70
     0
 10
0.0
 20
0.0
 30
0.0
  3
_D_3
  1

  0
SOLID
  5
174
330
171
100
AcDbEntity
  8
VERMASSUNG
100
AcDbTrace
 10
147.8920229159
 20
155.8035852245
 30
0.0
 11
150.8920229159
 21
155.3535852245
 31
0.0
 12
150.8920229159
 22
156.2535852245
 32
0.0
 13
150.8920229159
 23
156.2535852245
 33
0.0
  0
SOLID
  5
175
330
171
100
AcDbEntity
  8
VERMASSUNG
100
AcDbTrace
 10
219.8920229159
 20
155.8035852245
 30
0.0
 11
216.8920229159
 21
156.2535852245
 31
0.0
 12
216.8920229159
 22
155.3535852245
 32
0.0
 13
216.8920229159
 23
155.3535852245
 33
0.0
  0
LINE
  5
176
330
171
100
AcDbEntity
  8
VERMASSUNG
100
AcDbLine
 10
147.8920229159
 20
143.71486342
 30
0.0
 11
147.8920229159
 21
156.8035852245
 31
0.0
  0
LINE
  5
177
330
171
100
AcDbEntity
  8
VERMASSUNG
100
AcDbLine
 10
219.8920229159
 20
131.23986342
 30
0.0
 11
219.8920229159
 21
156.8035852245
 31
0.0
  0
LINE
  5
178
330
171
100
AcDbEntity
  8
VERMASSUNG
100
AcDbLine
 10
147.8920229159
 20
155.8035852245
 30
0.0
 11
219.8920229159
 21
155.8035852245
 31
0.0
  0
MTEXT
  5
179
330
171
100
AcDbEntity
  8
VERMASSUNG
100
AcDbMText
 10
182.4920229659
 20
158.3817208205
 30
0.0
 40
2.0
 41
0.0
 71
     1
 72
     1
  1
72
  7
SLDTEXTSTYLE0
 73
     1
 44
1.0
  0
ENDBLK
  5
173
330
171
100
AcDbEntity
  8
0
100
AcDbBlockEnd
  0
BLOCK
  5
17C
330
17B
100
AcDbEntity
  8
0
100
AcDbBlockBegin
  2
_D_4
 70
     0
 10
0.0
 20
0.0
 30
0.0
  3
_D_4
  1

  0
SOLID
  5
17E
330
17B
100
AcDbEntity
  8
VERMASSUNG
100
AcDbTrace
 10
129.8920229159
 20
163.7201765364
 30
0.0
 11
132.8920229159
 21
163.2701765364
 31
0.0
 12
132.8920229159
 22
164.1701765364
 32
0.0
 13
132.8920229159
 23
164.1701765364
 33
0.0
  0
SOLID
  5
17F
330
17B
100
AcDbEntity
  8
VERMASSUNG
100
AcDbTrace
 10
219.8920229159
 20
163.7201765364
 30
0.0
 11
216.8920229159
 21
164.1701765364
 31
0.0
 12
216.8920229159
 22
163.2701765364
 32
0.0
 13
216.8920229159
 23
163.2701765364
 33
0.0
  0
LINE
  5
180
330
17B
100
AcDbEntity
  8
VERMASSUNG
100
AcDbLine
 10
129.8920229159
 20
143.51486342
 30
0.0
 11
129.8920229159
 21
164.7201765364
 31
0.0
  0
LINE
  5
181
330
17B
100
AcDbEntity
  8
VERMASSUNG
100
AcDbLine
 10
219.8920229159
 20
131.23986342
 30
0.0
 11
219.8920229159
 21
164.7201765364
 31
0.0
  0
LINE
  5
182
330
17B
100
AcDbEntity
  8
VERMASSUNG
100
AcDbLine
 10
129.8920229159
 20
163.7201765364
 30
0.0
 11
219.8920229159
 21
163.7201765364
 31
0.0
  0
MTEXT
  5
183
330
17B
100
AcDbEntity
  8
VERMASSUNG
100
AcDbMText
 10
173.4920229659
 20
166.2983121323
 30
0.0
 40
2.0
 41
0.0
 71
     1
 72
     1
  1
90
  7
SLDTEXTSTYLE0
 73
     1
 44
1.0
  0
ENDBLK
  5
17D
330
17B
100
AcDbEntity
  8
0
100
AcDbBlockEnd
  0
BLOCK
  5
186
330
185
100
AcDbEntity
  8
0
100
AcDbBlockBegin
  2
_D_5
 70
     0
 10
0.0
 20
0.0
 30
0.0
  3
_D_5
  1

  0
SOLID
  5
188
330
185
100
AcDbEntity
  8
VERMASSUNG
100
AcDbTrace
 10
89.9420229159
 20
171.71486342
 30
0.0
 11
92.9420229159
 21
171.26486342
 31
0.0
 12
92.9420229159
 22
172.16486342
 32
0.0
 13
92.9420229159
 23
172.16486342
 33
0.0
  0
SOLID
  5
189
330
185
100
AcDbEntity
  8
VERMASSUNG
100
AcDbTrace
 10
219.8920229159
 20
171.71486342
 30
0.0
 11
216.8920229159
 21
172.16486342
 31
0.0
 12
216.8920229159
 22
171.26486342
 32
0.0
 13
216.8920229159
 23
171.26486342
 33
0.0
  0
LINE
  5
18A
330
185
100
AcDbEntity
  8
VERMASSUNG
100
AcDbLine
 10
89.9420229159
 20
134.4429581438
 30
0.0
 11
89.9420229159
 21
172.71486342
 31
0.0
  0
LINE
  5
18B
330
185
100
AcDbEntity
  8
VERMASSUNG
100
AcDbLine
 10
219.8920229159
 20
131.23986342
 30
0.0
 11
219.8920229159
 21
172.71486342
 31
0.0
  0
LINE
  5
18C
330
185
100
AcDbEntity
  8
VERMASSUNG
100
AcDbLine
 10
89.9420229159
 20
171.71486342
 30
0.0
 11
219.8920229159
 21
171.71486342
 31
0.0
  0
MTEXT
  5
18D
330
185
100
AcDbEntity
  8
VERMASSUNG
100
AcDbMText
 10
151.3170229778
 20
174.292999016
 30
0.0
 40
2.0
 41
0.0
 71
     1
 72
     1
  1
129.95
  7
SLDTEXTSTYLE0
 73
     1
 44
1.0
  0
ENDBLK
  5
187
330
185
100
AcDbEntity
  8
0
100
AcDbBlockEnd
  0
ENDSEC
  0
SECTION
  2
ENTITIES
  0
MTEXT
  5
78
330
1F
100
AcDbEntity
  8
KOPF_DÜNN
100
AcDbMText
 10
13.8892156294
 20
23.8442973028
 30
0.0
 40
3.0
 41
0.0
 71
     1
 72
     1
  1
KY6.E32.K01.090
  7
SLDTEXTSTYLE0
 73
     1
 44
1.0
  0
MTEXT
  5
79
330
1F
100
AcDbEntity
  8
VERMASSUNG
100
AcDbMText
 10
13.9329988022
 20
28.8834360957
 30
0.0
 40
3.0
 41
0.0
 71
     1
 72
     1
  1
Spannzangenfutter ER_Collet chuck ER
  7
SLDTEXTSTYLE0
 73
     1
 44
1.0
  0
MTEXT
  5
7A
330
1F
100
AcDbEntity
  8
VERMASSUNG
100
AcDbMText
 10
98.8601118557
 20
13.8365368761
 30
0.0
 40
2.0
 41
0.0
 71
     1
 72
     1
  1
Datum: 16.02.2018
  7
SLDTEXTSTYLE0
 73
     1
 44
1.0
  0
MTEXT
  5
7B
330
1F
100
AcDbEntity
  8
VERMASSUNG
100
AcDbMText
 10
13.933048693
 20
18.0482802738
 30
0.0
 40
2.0
 41
0.0
 71
     1
 72
     1
  1
KM63 XMZ / Ø50
  7
SLDTEXTSTYLE0
 73
     1
 44
1.0
  0
MTEXT
  5
7C
330
1F
100
AcDbEntity
  8
VERMASSUNG
100
AcDbMText
 10
13.9808475933
 20
13.9090974274
 30
0.0
 40
2.0
 41
0.0
 71
     1
 72
     1
  1
Gewicht: 1303g
  7
SLDTEXTSTYLE0
 73
     1
 44
1.0
  0
LINE
  5
7D
330
1F
100
AcDbEntity
  8
0
  6
Continuous
 62
     7
370
    25
100
AcDbLine
 10
197.8920266114
 20
87.389863724
 30
0.0
 11
201.3166561805
 21
87.389863724
 31
0.0
  0
LINE
  5
7E
330
1F
100
AcDbEntity
  8
0
  6
Continuous
 62
     7
370
    25
100
AcDbLine
 10
201.3612926088
 20
137.089863116
 30
0.0
 11
197.8920266114
 21
137.089863116
 31
0.0
  0
LINE
  5
7F
330
1F
100
AcDbEntity
  8
0
  6
Continuous
 62
     7
370
    25
100
AcDbLine
 10
197.8920266114
 20
137.089863116
 30
0.0
 11
197.3920255982
 21
136.5898639654
 31
0.0
  0
LINE
  5
80
330
1F
100
AcDbEntity
  8
0
  6
Continuous
 62
     7
370
    25
100
AcDbLine
 10
197.3920255982
 20
87.8898628746
 30
0.0
 11
197.8920266114
 21
87.389863724
 31
0.0
  0
LINE
  5
81
330
1F
100
AcDbEntity
  8
0
  6
Continuous
 62
     7
370
    25
100
AcDbLine
 10
218.1462884031
 20
90.2161688303
 30
0.0
 11
219.8920264922
 21
93.239864031
 31
0.0
  0
LINE
  5
82
330
1F
100
AcDbEntity
  8
0
  6
Continuous
 62
     7
370
    25
100
AcDbLine
 10
219.8920264922
 20
131.2398628091
 30
0.0
 11
218.1472122751
 21
134.2619691734
 31
0.0
  0
LINE
  5
83
330
1F
100
AcDbEntity
  8
0
  6
Continuous
 62
     7
370
    25
100
AcDbLine
 10
130.0920229109
 20
80.7648633366
 30
0.0
 11
136.4578251809
 21
80.7648633366
 31
0.0
  0
LINE
  5
84
330
1F
100
AcDbEntity
  8
0
  6
Continuous
 62
     7
370
    25
100
AcDbLine
 10
136.4578251809
 20
143.7148635035
 30
0.0
 11
130.0920229109
 21
143.7148635035
 31
0.0
  0
LINE
  5
85
330
1F
100
AcDbEntity
  8
0
  6
Continuous
 62
     7
370
    25
100
AcDbLine
 10
143.1262210094
 20
80.7648633366
 30
0.0
 11
147.8920221411
 21
80.7648633366
 31
0.0
  0
LINE
  5
86
330
1F
100
AcDbEntity
  8
0
  6
Continuous
 62
     7
370
    25
100
AcDbLine
 10
147.8920221411
 20
143.7148635035
 30
0.0
 11
143.1262210094
 21
143.7148635035
 31
0.0
  0
LINE
  5
87
330
1F
100
AcDbEntity
  8
0
  6
Continuous
 62
     7
370
    25
100
AcDbLine
 10
137.9170227878
 20
141.1874589269
 30
0.0
 11
136.4578251809
 21
143.7148635035
 31
0.0
  0
ARC
  5
88
330
1F
100
AcDbEntity
  8
0
  6
Continuous
 62
     7
370
    25
100
AcDbCircle
 10
130.0920229159
 20
80.96486342
 30
0.0
 40
0.2000000000000171
100
AcDbArc
 50
180.0
 51
270.0
  0
ARC
  5
89
330
1F
100
AcDbEntity
  8
0
  6
Continuous
 62
     7
370
    25
100
AcDbCircle
 10
130.0920229159
 20
143.51486342
 30
0.0
 40
0.2000000000000171
100
AcDbArc
 50
90.0
 51
180.0
  0
ARC
  5
8A
330
1F
100
AcDbEntity
  8
0
  6
Continuous
 62
     7
370
    25
100
AcDbCircle
 10
151.8920229159
 20
83.23986342
 30
0.0
 40
4.0
100
AcDbArc
 50
90.0
 51
180.0
  0
ARC
  5
8B
330
1F
100
AcDbEntity
  8
0
  6
Continuous
 62
     7
370
    25
100
AcDbCircle
 10
151.8920229159
 20
141.23986342
 30
0.0
 40
4.0
100
AcDbArc
 50
180.0
 51
270.0
  0
ARC
  5
8C
330
1F
100
AcDbEntity
  8
0
  6
Continuous
 62
     7
370
    25
100
AcDbCircle
 10
129.4630880414
 20
86.68986342
 30
0.0
 40
0.8000000000000081
100
AcDbArc
 50
57.576802718
 51
107.5
  0
ARC
  5
8D
330
1F
100
AcDbEntity
  8
0
  6
Continuous
 62
     7
370
    25
100
AcDbCircle
 10
129.4630880414
 20
137.78986342
 30
0.0
 40
0.7999999999999825
100
AcDbArc
 50
252.5
 51
302.423197282
  0
LINE
  5
8E
330
1F
100
AcDbEntity
  8
0
  6
Continuous
 62
     7
370
    25
100
AcDbLine
 10
181.8920239888
 20
137.2398637925
 30
0.0
 11
151.8920227967
 21
137.2398637925
 31
0.0
  0
LINE
  5
8F
330
1F
100
AcDbEntity
  8
0
  6
Continuous
 62
     7
370
    25
100
AcDbLine
 10
151.8920227967
 20
87.2398630475
 30
0.0
 11
181.8920239888
 21
87.2398630475
 31
0.0
  0
ARC
  5
90
330
1F
100
AcDbEntity
  8
0
  6
Continuous
 62
     7
370
    25
100
AcDbCircle
 10
181.8920229159
 20
135.23986342
 30
0.0
 40
2.0
100
AcDbArc
 50
0.0
 51
90.0
  0
ARC
  5
91
330
1F
100
AcDbEntity
  8
0
  6
Continuous
 62
     7
370
    25
100
AcDbCircle
 10
181.8920229159
 20
89.23986342
 30
0.0
 40
2.0
100
AcDbArc
 50
270.0
 51
0.0
  0
LINE
  5
92
330
1F
100
AcDbEntity
  8
0
  6
Continuous
 62
     7
370
    25
100
AcDbLine
 10
99.4968596928
 20
135.7134801095
 30
0.0
 11
91.442023971
 21
135.3089843636
 31
0.0
  0
LINE
  5
93
330
1F
100
AcDbEntity
  8
0
  6
Continuous
 62
     7
370
    25
100
AcDbLine
 10
128.7318408571
 20
137.1816021149
 30
0.0
 11
115.4055778019
 21
136.5123835151
 31
0.0
  0
LINE
  5
94
330
1F
100
AcDbEntity
  8
0
  6
Continuous
 62
     7
370
    25
100
AcDbLine
 10
115.4065342702
 20
87.9672948961
 30
0.0
 11
128.7318408571
 21
87.2981247251
 31
0.0
  0
LINE
  5
95
330
1F
100
AcDbEntity
  8
0
  6
Continuous
 62
     7
370
    25
100
AcDbLine
 10
91.442023971
 20
89.1707424765
 30
0.0
 11
99.4968708687
 21
88.7662448679
 31
0.0
  0
LINE
  5
96
330
1F
100
AcDbEntity
  8
0
  6
Continuous
 62
     7
370
    25
100
AcDbLine
 10
128.7318408571
 20
87.2981247251
 30
0.0
 11
129.222523406
 21
87.4528378939
 31
0.0
  0
LINE
  5
97
330
1F
100
AcDbEntity
  8
0
  6
Continuous
 62
     7
370
    25
100
AcDbLine
 10
129.222523406
 20
137.0268889462
 30
0.0
 11
128.7318408571
 21
137.1816021149
 31
0.0
  0
ARC
  5
98
330
1F
100
AcDbEntity
  8
0
  6
Continuous
 62
     7
370
    25
100
AcDbCircle
 10
185.8920229159
 20
134.23986342
 30
0.0
 40
2.0
100
AcDbArc
 50
180.0
 51
270.0
  0
ARC
  5
99
330
1F
100
AcDbEntity
  8
0
  6
Continuous
 62
     7
370
    25
100
AcDbCircle
 10
185.8920229159
 20
90.23986342
 30
0.0
 40
2.0
100
AcDbArc
 50
90.0
 51
180.0
  0
LINE
  5
9A
330
1F
100
AcDbEntity
  8
0
  6
Continuous
 62
     7
370
    25
100
AcDbLine
 10
91.442023971
 20
135.3089843636
 30
0.0
 11
89.9420246564
 21
134.4429586773
 31
0.0
  0
LINE
  5
9B
330
1F
100
AcDbEntity
  8
0
  6
Continuous
 62
     7
370
    25
100
AcDbLine
 10
89.9420246564
 20
90.0367681627
 30
0.0
 11
91.442023971
 21
89.1707424765
 31
0.0
  0
LINE
  5
9C
330
1F
100
AcDbEntity
  8
0
  6
Continuous
 62
     7
370
    25
100
AcDbLine
 10
197.3920255982
 20
132.239862973
 30
0.0
 11
185.8920246445
 21
132.239862973
 31
0.0
  0
LINE
  5
9D
330
1F
100
AcDbEntity
  8
0
  6
Continuous
 62
     7
370
    25
100
AcDbLine
 10
185.8920246445
 20
92.2398638671
 30
0.0
 11
197.3920255982
 21
92.2398638671
 31
0.0
  0
LINE
  5
9E
330
1F
100
AcDbEntity
  8
0
  6
Continuous
 62
     7
370
    25
100
AcDbLine
 10
143.1262210094
 20
143.7148635035
 30
0.0
 11
141.6670229368
 21
141.1874589269
 31
0.0
  0
ARC
  5
9F
330
1F
100
AcDbEntity
  8
0
  6
Continuous
 62
     7
370
    25
100
AcDbCircle
 10
138.9170229159
 20
141.08986342
 30
0.0
 40
1.000000000000028
100
AcDbArc
 50
180.0
 51
270.0
  0
LINE
  5
A0
330
1F
100
AcDbEntity
  8
0
  6
Continuous
 62
     7
370
    25
100
AcDbLine
 10
136.4578251809
 20
80.7648633366
 30
0.0
 11
137.9170227878
 21
83.2922679131
 31
0.0
  0
ARC
  5
A1
330
1F
100
AcDbEntity
  8
0
  6
Continuous
 62
     7
370
    25
100
AcDbCircle
 10
138.9170229159
 20
83.38986342
 30
0.0
 40
1.0
100
AcDbArc
 50
90.0
 51
180.0
  0
LINE
  5
A2
330
1F
100
AcDbEntity
  8
0
  6
Continuous
 62
     7
370
    25
100
AcDbLine
 10
140.6670227729
 20
140.0898636078
 30
0.0
 11
138.9170229517
 21
140.0898636078
 31
0.0
  0
LINE
  5
A3
330
1F
100
AcDbEntity
  8
0
  6
Continuous
 62
     7
370
    25
100
AcDbLine
 10
141.6670229368
 20
83.2922679131
 30
0.0
 11
143.1262210094
 21
80.7648633366
 31
0.0
  0
ARC
  5
A4
330
1F
100
AcDbEntity
  8
0
  6
Continuous
 62
     7
370
    25
100
AcDbCircle
 10
140.6670229159
 20
141.08986342
 30
0.0
 40
1.000000000000028
100
AcDbArc
 50
270.0
 51
0.0
  0
LINE
  5
A5
330
1F
100
AcDbEntity
  8
0
  6
Continuous
 62
     7
370
    25
100
AcDbLine
 10
138.9170229517
 20
84.3898632323
 30
0.0
 11
140.6670227729
 21
84.3898632323
 31
0.0
  0
ARC
  5
A6
330
1F
100
AcDbEntity
  8
0
  6
Continuous
 62
     7
370
    25
100
AcDbCircle
 10
140.6670229159
 20
83.38986342
 30
0.0
 40
1.000000000000028
100
AcDbArc
 50
0.0
 51
90.0
  0
LINE
  5
A7
330
1F
100
AcDbEntity
  8
0
  6
Continuous
 62
     7
370
    25
100
AcDbLine
 10
204.7887608491
 20
136.909115756
 30
0.0
 11
216.5145218454
 21
136.909115756
 31
0.0
  0
SPLINE
  5
A8
330
1F
100
AcDbEntity
  8
0
  6
Continuous
 62
     7
370
    25
100
AcDbSpline
210
0.0
220
0.0
230
1.0
 70
     8
 71
     3
 72
    13
 73
     9
 74
     0
 42
0.000000001
 43
0.00000001
 40
0.0
 40
0.0
 40
0.0
 40
0.0
 40
0.0586723546634239
 40
0.255825170118891
 40
0.4535122401965356
 40
0.6623792904201816
 40
0.8843855504366613
 40
1.0
 40
1.0
 40
1.0
 40
1.0
 10
201.3357594691403
 20
137.0823492055022
 30
0.0
 10
201.3240306659302
 20
137.0825756267234
 30
0.0
 10
201.2728903445004
 20
137.0835628761322
 30
0.0
 10
201.5688430019116
 20
137.0380627814409
 30
0.0
 10
202.1636607746676
 20
136.9642471148495
 30
0.0
 10
203.0678958348429
 20
136.8838444297143
 30
0.0
 10
203.9925025037403
 20
136.8383010762276
 30
0.0
 10
204.5856456042884
 20
136.8340405121836
 30
0.0
 10
204.7887608491071
 20
136.8325815295063
 30
0.0
  0
LINE
  5
A9
330
1F
100
AcDbEntity
  8
0
  6
Continuous
 62
     7
370
    25
100
AcDbLine
 10
204.7887608491
 20
136.8325815295
 30
0.0
 11
216.5145218454
 21
136.8325815295
 31
0.0
  0
LINE
  5
AA
330
1F
100
AcDbEntity
  8
0
  6
Continuous
 62
     7
370
    25
100
AcDbLine
 10
216.5145218454
 20
127.1654131581
 30
0.0
 11
216.5145218454
 21
136.8325815295
 31
0.0
  0
LINE
  5
AB
330
1F
100
AcDbEntity
  8
0
  6
Continuous
 62
     7
370
    25
100
AcDbLine
 10
204.7887608491
 20
127.1654131581
 30
0.0
 11
216.5145218454
 21
127.1654131581
 31
0.0
  0
SPLINE
  5
AC
330
1F
100
AcDbEntity
  8
0
  6
Continuous
 62
     7
370
    25
100
AcDbSpline
210
0.0
220
0.0
230
1.0
 70
     8
 71
     3
 72
    17
 73
    13
 74
     0
 42
0.000000001
 43
0.00000001
 40
0.0
 40
0.0
 40
0.0
 40
0.0
 40
0.0838166035652901
 40
0.2002653737158925
 40
0.3144089624851921
 40
0.4226838009971627
 40
0.5327914192009245
 40
0.6306725246618142
 40
0.7288249176626703
 40
0.8325314900653997
 40
0.9427612021868037
 40
1.0
 40
1.0
 40
1.0
 40
1.0
 10
204.7887608491071
 20
121.4474501778566
 30
0.0
 10
204.4918298935436
 20
121.4671797329181
 30
0.0
 10
203.7823643908353
 20
121.5143201150092
 30
0.0
 10
202.7423329833282
 20
121.9513121460205
 30
0.0
 10
201.8550116359518
 20
122.7177394608688
 30
0.0
 10
201.3287286120214
 20
123.6895704307221
 30
0.0
 10
201.2401848454492
 20
124.6920484943038
 30
0.0
 10
201.550760353346
 20
125.5950783137946
 30
0.0
 10
202.1700914346509
 20
126.330212625429
 30
0.0
 10
203.067757955747
 20
126.8747527048484
 30
0.0
 10
203.9938074019463
 20
127.1338585182529
 30
0.0
 10
204.58626552268
 20
127.1573753703491
 30
0.0
 10
204.7887608491071
 20
127.165413158127
 30
0.0
  0
LINE
  5
AD
330
1F
100
AcDbEntity
  8
0
  6
Continuous
 62
     7
370
    25
100
AcDbLine
 10
204.7887608491
 20
121.4474501779
 30
0.0
 11
216.5145218454
 21
121.4474501779
 31
0.0
  0
LINE
  5
AE
330
1F
100
AcDbEntity
  8
0
  6
Continuous
 62
     7
370
    25
100
AcDbLine
 10
216.5145218454
 20
102.4961617534
 30
0.0
 11
216.5145218454
 21
121.4474501779
 31
0.0
  0
LINE
  5
AF
330
1F
100
AcDbEntity
  8
0
  6
Continuous
 62
     7
370
    25
100
AcDbLine
 10
204.7887608491
 20
102.4961617534
 30
0.0
 11
216.5145218454
 21
102.4961617534
 31
0.0
  0
SPLINE
  5
B0
330
1F
100
AcDbEntity
  8
0
  6
Continuous
 62
     7
370
    25
100
AcDbSpline
210
0.0
220
0.0
230
1.0
 70
     8
 71
     3
 72
    18
 73
    14
 74
     0
 42
0.000000001
 43
0.00000001
 40
0.0
 40
0.0
 40
0.0
 40
0.0
 40
0.0838022519469736
 40
0.2002310342297191
 40
0.3143550882352028
 40
0.4226112577629939
 40
0.523577952520165
 40
0.5374369289625146
 40
0.6352752828275502
 40
0.7336001766678167
 40
0.8375987152828248
 40
0.9480868961302097
 40
1.0
 40
1.0
 40
1.0
 40
1.0
 10
204.7887608491071
 20
96.85473113704552
 30
0.0
 10
204.4918298528447
 20
96.87138004271121
 30
0.0
 10
203.7823644256615
 20
96.9111597326692
 30
0.0
 10
202.7423340712728
 20
97.28331102292542
 30
0.0
 10
201.8550068954769
 20
97.95869295241447
 30
0.0
 10
201.3431864325675
 20
98.83093659655916
 30
0.0
 10
201.2685180583175
 20
99.51781865069789
 30
0.0
 10
201.3485950546319
 20
100.1658116630664
 30
0.0
 10
201.5727668996389
 20
100.803069090405
 30
0.0
 10
202.2062628881185
 20
101.5870243761718
 30
0.0
 10
203.1159949943657
 20
102.1857089574905
 30
0.0
 10
204.030600624323
 20
102.4645721306868
 30
0.0
 10
204.6051126547014
 20
102.4885098389766
 30
0.0
 10
204.7887608491071
 20
102.4961617534243
 30
0.0
  0
LINE
  5
B1
330
1F
100
AcDbEntity
  8
0
  6
Continuous
 62
     7
370
    25
100
AcDbLine
 10
204.7887608491
 20
96.854731137
 30
0.0
 11
216.5145218454
 21
96.854731137
 31
0.0
  0
LINE
  5
B2
330
1F
100
AcDbEntity
  8
0
  6
Continuous
 62
     7
370
    25
100
AcDbLine
 10
216.5145218454
 20
87.570611084
 30
0.0
 11
216.5145218454
 21
96.854731137
 31
0.0
  0
LINE
  5
B3
330
1F
100
AcDbEntity
  8
0
  6
Continuous
 62
     7
370
    25
100
AcDbLine
 10
204.7887608491
 20
87.570611084
 30
0.0
 11
216.5145218454
 21
87.570611084
 31
0.0
  0
SPLINE
  5
B4
330
1F
100
AcDbEntity
  8
0
  6
Continuous
 62
     7
370
    25
100
AcDbSpline
210
0.0
220
0.0
230
1.0
 70
     8
 71
     3
 72
    13
 73
     9
 74
     0
 42
0.000000001
 43
0.00000001
 40
0.0
 40
0.0
 40
0.0
 40
0.0
 40
0.0119727439746878
 40
0.2189063761690333
 40
0.4264007907841392
 40
0.6456298018554554
 40
0.8786498826313734
 40
1.0
 40
1.0
 40
1.0
 40
1.0
 10
201.3166561804898
 20
87.3911936526381
 30
0.0
 10
201.3149368489913
 20
87.39075215366539
 30
0.0
 10
201.2835010621263
 20
87.38267990720281
 30
0.0
 10
201.5778581374644
 20
87.41072176876673
 30
0.0
 10
202.161091739598
 20
87.46257958422088
 30
0.0
 10
203.0686615958386
 20
87.52785747339001
 30
0.0
 10
203.9924108294531
 20
87.56579919058323
 30
0.0
 10
204.5856222292076
 20
87.56938363204038
 30
0.0
 10
204.7887608491071
 20
87.57061108399262
 30
0.0
  0
LINE
  5
B5
330
1F
100
AcDbEntity
  8
0
  6
Continuous
 62
     7
370
    25
100
AcDbLine
 10
197.8920266114
 20
111.9498942447
 30
0.0
 11
197.8920266114
 21
137.089863116
 31
0.0
  0
LINE
  5
B6
330
1F
100
AcDbEntity
  8
0
  6
Continuous
 62
     7
370
    25
100
AcDbLine
 10
197.8920266114
 20
87.389863724
 30
0.0
 11
197.8920266114
 21
111.9498942447
 31
0.0
  0
LINE
  5
B7
330
1F
100
AcDbEntity
  8
0
  6
Continuous
 62
     7
370
    25
100
AcDbLine
 10
197.3920255982
 20
111.9557286313
 30
0.0
 11
197.3920255982
 21
136.5898639654
 31
0.0
  0
LINE
  5
B8
330
1F
100
AcDbEntity
  8
0
  6
Continuous
 62
     7
370
    25
100
AcDbLine
 10
197.3920255982
 20
87.8898628746
 30
0.0
 11
197.3920255982
 21
111.9557286313
 31
0.0
  0
LINE
  5
B9
330
1F
100
AcDbEntity
  8
0
  6
Continuous
 62
     7
370
    25
100
AcDbLine
 10
218.1078434073
 20
90.2383659725
 30
0.0
 11
218.0935457431
 21
90.2150717323
 31
0.0
  0
LINE
  5
BA
330
1F
100
AcDbEntity
  8
0
  6
Continuous
 62
     7
370
    25
100
AcDbLine
 10
217.9026767694
 20
89.9115928208
 30
0.0
 11
218.0935457431
 21
90.2150717323
 31
0.0
  0
LINE
  5
BB
330
1F
100
AcDbEntity
  8
0
  6
Continuous
 62
     7
370
    25
100
AcDbLine
 10
216.7613968335
 20
87.9577134495
 30
0.0
 11
217.9026767694
 21
89.9115928208
 31
0.0
  0
LINE
  5
BC
330
1F
100
AcDbEntity
  8
0
  6
Continuous
 62
     7
370
    25
100
AcDbLine
 10
216.5145218454
 20
87.570611084
 30
0.0
 11
216.7613968335
 21
87.9577134495
 31
0.0
  0
LINE
  5
BD
330
1F
100
AcDbEntity
  8
0
  6
Continuous
 62
     7
370
    25
100
AcDbLine
 10
216.5145218454
 20
96.854731137
 30
0.0
 11
216.7613968335
 21
97.3790564333
 31
0.0
  0
LINE
  5
BE
330
1F
100
AcDbEntity
  8
0
  6
Continuous
 62
     7
370
    25
100
AcDbLine
 10
216.7613968335
 20
97.3790564333
 30
0.0
 11
217.9026767694
 21
98.6694411134
 31
0.0
  0
LINE
  5
BF
330
1F
100
AcDbEntity
  8
0
  6
Continuous
 62
     7
370
    25
100
AcDbLine
 10
217.9026767694
 20
98.6694411134
 30
0.0
 11
218.0935457431
 21
99.0805026834
 31
0.0
  0
SPLINE
  5
C0
330
1F
100
AcDbEntity
  8
0
  6
Continuous
 62
     7
370
    25
100
AcDbSpline
210
0.0
220
0.0
230
1.0
 70
     8
 71
     3
 72
     9
 73
     5
 74
     0
 42
0.000000001
 43
0.00000001
 40
0.0
 40
0.0
 40
0.0
 40
0.0
 40
0.5000512130192775
 40
1.0
 40
1.0
 40
1.0
 40
1.0
 10
218.0935457430966
 20
99.08050268340935
 30
0.0
 10
218.1267626996627
 20
99.72649873673245
 30
0.0
 10
218.1931898089292
 20
101.0183585232983
 30
0.0
 10
218.1267581635974
 20
102.3102185267217
 30
0.0
 10
218.0935457430966
 20
102.9560823683821
 30
0.0
  0
LINE
  5
C1
330
1F
100
AcDbEntity
  8
0
  6
Continuous
 62
     7
370
    25
100
AcDbLine
 10
217.9026767694
 20
103.0611001645
 30
0.0
 11
218.0935457431
 21
102.9560823684
 31
0.0
  0
LINE
  5
C2
330
1F
100
AcDbEntity
  8
0
  6
Continuous
 62
     7
370
    25
100
AcDbLine
 10
216.7613968335
 20
102.3622068335
 30
0.0
 11
217.9026767694
 21
103.0611001645
 31
0.0
  0
LINE
  5
C3
330
1F
100
AcDbEntity
  8
0
  6
Continuous
 62
     7
370
    25
100
AcDbLine
 10
216.5145218454
 20
102.4961617534
 30
0.0
 11
216.7613968335
 21
102.3622068335
 31
0.0
  0
LINE
  5
C4
330
1F
100
AcDbEntity
  8
0
  6
Continuous
 62
     7
370
    25
100
AcDbLine
 10
216.5145218454
 20
121.4474501779
 30
0.0
 11
216.7613968335
 21
121.5936035608
 31
0.0
  0
LINE
  5
C5
330
1F
100
AcDbEntity
  8
0
  6
Continuous
 62
     7
370
    25
100
AcDbLine
 10
216.7613968335
 20
121.5936035608
 30
0.0
 11
217.9026767694
 21
120.9381340762
 31
0.0
  0
LINE
  5
C6
330
1F
100
AcDbEntity
  8
0
  6
Continuous
 62
     7
370
    25
100
AcDbLine
 10
217.9026767694
 20
120.9381340762
 30
0.0
 11
218.0935457431
 21
121.0527156239
 31
0.0
  0
SPLINE
  5
C7
330
1F
100
AcDbEntity
  8
0
  6
Continuous
 62
     7
370
    25
100
AcDbSpline
210
0.0
220
0.0
230
1.0
 70
     8
 71
     3
 72
     9
 73
     5
 74
     0
 42
0.000000001
 43
0.00000001
 40
0.0
 40
0.0
 40
0.0
 40
0.0
 40
0.5000513205392264
 40
1.0
 40
1.0
 40
1.0
 40
1.0
 10
218.0935457430966
 20
121.0527156238638
 30
0.0
 10
218.1267627044253
 20
121.7074757571607
 30
0.0
 10
218.193189808933
 20
123.0168616269766
 30
0.0
 10
218.1267581588367
 20
124.32624742444
 30
0.0
 10
218.0935457430966
 20
124.9808731247865
 30
0.0
  0
LINE
  5
C8
330
1F
100
AcDbEntity
  8
0
  6
Continuous
 62
     7
370
    25
100
AcDbLine
 10
217.9026767694
 20
125.3893707638
 30
0.0
 11
218.0935457431
 21
124.9808731248
 31
0.0
  0
LINE
  5
C9
330
1F
100
AcDbEntity
  8
0
  6
Continuous
 62
     7
370
    25
100
AcDbLine
 10
216.7613968335
 20
126.6443568041
 30
0.0
 11
217.9026767694
 21
125.3893707638
 31
0.0
  0
LINE
  5
CA
330
1F
100
AcDbEntity
  8
0
  6
Continuous
 62
     7
370
    25
100
AcDbLine
 10
216.5145218454
 20
127.1654131581
 30
0.0
 11
216.7613968335
 21
126.6443568041
 31
0.0
  0
LINE
  5
CB
330
1F
100
AcDbEntity
  8
0
  6
Continuous
 62
     7
370
    25
100
AcDbLine
 10
216.5145218454
 20
136.8325815295
 30
0.0
 11
216.7613968335
 21
136.4544105475
 31
0.0
  0
LINE
  5
CC
330
1F
100
AcDbEntity
  8
0
  6
Continuous
 62
     7
370
    25
100
AcDbLine
 10
216.7613968335
 20
136.4544105475
 30
0.0
 11
217.9026767694
 21
134.5085554515
 31
0.0
  0
LINE
  5
CD
330
1F
100
AcDbEntity
  8
0
  6
Continuous
 62
     7
370
    25
100
AcDbLine
 10
217.9026767694
 20
134.5085554515
 30
0.0
 11
218.0935457431
 21
134.2120763605
 31
0.0
  0
LINE
  5
CE
330
1F
100
AcDbEntity
  8
0
  6
Continuous
 62
     7
370
    25
100
AcDbLine
 10
218.1115239941
 20
134.2413664554
 30
0.0
 11
218.0935457431
 21
134.2120763605
 31
0.0
  0
LINE
  5
CF
330
1F
100
AcDbEntity
  8
0
  6
Continuous
 62
     7
370
    25
100
AcDbLine
 10
217.9026767694
 20
134.5681340193
 30
0.0
 11
218.0935457431
 21
134.2646551077
 31
0.0
  0
LINE
  5
D0
330
1F
100
AcDbEntity
  8
0
  6
Continuous
 62
     7
370
    25
100
AcDbLine
 10
216.7613968335
 20
136.5220133905
 30
0.0
 11
217.9026767694
 21
134.5681340193
 31
0.0
  0
LINE
  5
D1
330
1F
100
AcDbEntity
  8
0
  6
Continuous
 62
     7
370
    25
100
AcDbLine
 10
216.5145218454
 20
136.909115756
 30
0.0
 11
216.7613968335
 21
136.5220133905
 31
0.0
  0
LINE
  5
D2
330
1F
100
AcDbEntity
  8
0
  6
Continuous
 62
     7
370
    25
100
AcDbLine
 10
219.8920264922
 20
112.0181565951
 30
0.0
 11
219.8920264922
 21
131.2398628091
 31
0.0
  0
LINE
  5
D3
330
1F
100
AcDbEntity
  8
0
  6
Continuous
 62
     7
370
    25
100
AcDbLine
 10
219.8920264922
 20
93.239864031
 30
0.0
 11
219.8920264922
 21
112.0181565951
 31
0.0
  0
LWPOLYLINE
  5
D4
330
1F
100
AcDbEntity
  8
0
  6
Continuous
 62
     7
370
    25
100
AcDbPolyline
 90
       14
 70
   128
 43
0.0
 10
204.7887608491
 20
121.5936035608
 10
204.0955215775
 20
121.6669871231
 10
203.4425750457
 20
121.8828704898
 10
202.8678670608
 20
122.228708746
 10
202.4047911249
 20
122.6844030191
 10
202.0802661859
 20
123.2234692891
 10
201.9131422125
 20
123.8145797272
 10
201.9131422125
 20
124.4233806377
 10
202.0802661859
 20
125.0144910758
 10
202.4047911249
 20
125.5535582771
 10
202.8678670608
 20
126.0092516189
 10
203.4425750457
 20
126.3550908064
 10
204.0955215775
 20
126.5709741731
 10
204.7887608491
 20
126.6443568041
  0
LINE
  5
D5
330
1F
100
AcDbEntity
  8
0
  6
Continuous
 62
     7
370
    25
100
AcDbLine
 10
204.7887608491
 20
121.5936035608
 30
0.0
 11
216.7613968335
 21
121.5936035608
 31
0.0
  0
LWPOLYLINE
  5
D6
330
1F
100
AcDbEntity
  8
0
  6
Continuous
 62
     7
370
    25
100
AcDbPolyline
 90
       14
 70
   128
 43
0.0
 10
204.7887608491
 20
97.3790564333
 10
204.0955215775
 20
97.451456519
 10
203.4425750457
 20
97.6644509231
 10
202.8678670608
 20
98.0056605061
 10
202.4047911249
 20
98.4552555477
 10
202.0802661859
 20
98.9871068617
 10
201.9131422125
 20
99.5703057145
 10
201.9131422125
 20
100.1709575524
 10
202.0802661859
 20
100.7541564052
 10
202.4047911249
 20
101.2860077192
 10
202.8678670608
 20
101.7356027608
 10
203.4425750457
 20
102.0768114125
 10
204.0955215775
 20
102.2898058166
 10
204.7887608491
 20
102.3622068335
  0
LINE
  5
D7
330
1F
100
AcDbEntity
  8
0
  6
Continuous
 62
     7
370
    25
100
AcDbLine
 10
204.7887608491
 20
102.3622068335
 30
0.0
 11
216.7613968335
 21
102.3622068335
 31
0.0
  0
ARC
  5
D8
330
1F
100
AcDbEntity
  8
0
  6
Continuous
 62
     7
370
    25
100
AcDbCircle
 10
204.6241360782
 20
123.0220151697
 30
0.0
 40
2.373072654601736
100
AcDbArc
 50
86.0220828286
 51
183.0459745924
  0
ARC
  5
D9
330
1F
100
AcDbEntity
  8
0
  6
Continuous
 62
     7
370
    25
100
AcDbCircle
 10
204.5558566213
 20
100.9690955069
 30
0.0
 40
2.311418332813756
100
AcDbArc
 50
177.6263149005
 51
275.7830787539
  0
ARC
  5
DA
330
1F
100
AcDbEntity
  8
0
  6
Continuous
 62
     7
370
    25
100
AcDbCircle
 10
204.6164911551
 20
122.9449714317
 30
0.0
 40
2.043177072973859
100
AcDbArc
 50
85.1633861194
 51
194.7510012362
  0
LINE
  5
DB
330
1F
100
AcDbEntity
  8
0
  6
Continuous
 62
     7
370
    25
100
AcDbLine
 10
217.7031725727
 20
121.0527156239
 30
0.0
 11
218.0935457431
 21
121.0527156239
 31
0.0
  0
LINE
  5
DC
330
1F
100
AcDbEntity
  8
0
  6
Continuous
 62
     7
370
    25
100
AcDbLine
 10
217.7311793052
 20
102.9560823684
 30
0.0
 11
218.0935457431
 21
102.9560823684
 31
0.0
  0
ARC
  5
DD
330
1F
100
AcDbEntity
  8
0
  6
Continuous
 62
     7
370
    25
100
AcDbCircle
 10
204.5500844642
 20
101.0582986608
 30
0.0
 40
1.992145412580981
100
AcDbArc
 50
166.8025078778
 51
276.8810631957
  0
LINE
  5
DE
330
1F
100
AcDbEntity
  8
0
  6
Continuous
 62
     7
370
    25
100
AcDbLine
 10
204.7887608491
 20
124.9808731248
 30
0.0
 11
218.0935457431
 21
124.9808731248
 31
0.0
  0
LINE
  5
DF
330
1F
100
AcDbEntity
  8
0
  6
Continuous
 62
     7
370
    25
100
AcDbLine
 10
204.7887608491
 20
99.0805026834
 30
0.0
 11
218.0935457431
 21
99.0805026834
 31
0.0
  0
LINE
  5
E0
330
1F
100
AcDbEntity
  8
0
  6
Continuous
 62
     7
370
    25
100
AcDbLine
 10
204.7887608491
 20
126.6443568041
 30
0.0
 11
216.7613968335
 21
126.6443568041
 31
0.0
  0
LINE
  5
E1
330
1F
100
AcDbEntity
  8
0
  6
Continuous
 62
     7
370
    25
100
AcDbLine
 10
204.7887608491
 20
125.3893707638
 30
0.0
 11
217.9026767694
 21
125.3893707638
 31
0.0
  0
LINE
  5
E2
330
1F
100
AcDbEntity
  8
0
  6
Continuous
 62
     7
370
    25
100
AcDbLine
 10
204.7887608491
 20
97.3790564333
 30
0.0
 11
216.7613968335
 21
97.3790564333
 31
0.0
  0
LINE
  5
E3
330
1F
100
AcDbEntity
  8
0
  6
Continuous
 62
     7
370
    25
100
AcDbLine
 10
204.7887608491
 20
98.6694411134
 30
0.0
 11
217.9026767694
 21
98.6694411134
 31
0.0
  0
LINE
  5
E4
330
1F
100
AcDbEntity
  8
0
  6
Continuous
 62
     7
370
    25
100
AcDbLine
 10
218.0596977554
 20
134.2646551077
 30
0.0
 11
218.0935457431
 21
134.2646551077
 31
0.0
  0
LINE
  5
E5
330
1F
100
AcDbEntity
  8
0
  6
Continuous
 62
     7
370
    25
100
AcDbLine
 10
217.8677335464
 20
134.5681340193
 30
0.0
 11
217.9026767694
 21
134.5681340193
 31
0.0
  0
LINE
  5
E6
330
1F
100
AcDbEntity
  8
0
  6
Continuous
 62
     7
370
    25
100
AcDbLine
 10
216.7172670447
 20
136.5220133905
 30
0.0
 11
216.7613968335
 21
136.5220133905
 31
0.0
  0
LINE
  5
E7
330
1F
100
AcDbEntity
  8
0
  6
Continuous
 62
     7
370
    25
100
AcDbLine
 10
136.4578251809
 20
87.1821378117
 30
0.0
 11
136.4578251809
 21
143.7148635035
 31
0.0
  0
SPLINE
  5
E8
330
1F
100
AcDbEntity
  8
0
  6
Continuous
 62
     7
370
    25
100
AcDbSpline
210
0.0
220
0.0
230
1.0
 70
     8
 71
     3
 72
    27
 73
    23
 74
     0
 42
0.000000001
 43
0.00000001
 40
0.0
 40
0.0
 40
0.0
 40
0.0
 40
0.1250000000000002
 40
0.1250000000000002
 40
0.2500000000000003
 40
0.2500000000000003
 40
0.3750000000000005
 40
0.3750000000000005
 40
0.4375000000000003
 40
0.4375000000000003
 40
0.5000000000000002
 40
0.5625000000000001
 40
0.5625000000000001
 40
0.6249999999999999
 40
0.6249999999999999
 40
0.7499999999999997
 40
0.7499999999999997
 40
0.8124999999999998
 40
0.8124999999999998
 40
0.8749999999999998
 40
0.8749999999999998
 40
1.0
 40
1.0
 40
1.0
 40
1.0
 10
136.4578251113781
 20
83.21586450546964
 30
0.0
 10
136.1878682174108
 20
83.31574359333194
 30
0.0
 10
135.9442111931937
 20
83.42704885349097
 30
0.0
 10
135.5116260609884
 20
83.67653465916703
 30
0.0
 10
135.3230314937922
 20
83.81547717723426
 30
0.0
 10
135.0205917174314
 20
84.11217021240813
 30
0.0
 10
134.9040084701407
 20
84.27118882177243
 30
0.0
 10
134.7847497977158
 20
84.52821934566668
 30
0.0
 10
134.7545331306842
 20
84.61697215407179
 30
0.0
 10
134.7146365339716
 20
84.79624791096238
 30
0.0
 10
134.6946750905235
 20
84.97841651420492
 30
0.0
 10
134.7141103921114
 20
85.1663792352933
 30
0.0
 10
134.7535632697947
 20
85.35724781225782
 30
0.0
 10
134.7835919532179
 20
85.45469699270336
 30
0.0
 10
134.9020669413501
 20
85.7450338395006
 30
0.0
 10
135.0184077564589
 20
85.93712004717653
 30
0.0
 10
135.2464441679564
 20
86.22192399675792
 30
0.0
 10
135.3319780873871
 20
86.31679498532125
 30
0.0
 10
135.5182916375226
 20
86.50215605317686
 30
0.0
 10
135.618920326095
 20
86.59263430510926
 30
0.0
 10
135.9421818104309
 20
86.85731476062118
 30
0.0
 10
136.1864624961537
 20
87.02509835007558
 30
0.0
 10
136.4578251113781
 20
87.18213809838355
 30
0.0
  0
LINE
  5
E9
330
1F
100
AcDbEntity
  8
0
  6
Continuous
 62
     7
370
    25
100
AcDbLine
 10
136.4578251809
 20
80.7648633366
 30
0.0
 11
136.4578251809
 21
83.2158640717
 31
0.0
  0
LINE
  5
EA
330
1F
100
AcDbEntity
  8
0
  6
Continuous
 62
     7
370
    25
100
AcDbLine
 10
147.8920221411
 20
112.23986342
 30
0.0
 11
147.8920221411
 21
143.7148635035
 31
0.0
  0
LINE
  5
EB
330
1F
100
AcDbEntity
  8
0
  6
Continuous
 62
     7
370
    25
100
AcDbLine
 10
147.8920221411
 20
80.7648633366
 30
0.0
 11
147.8920221411
 21
112.23986342
 31
0.0
  0
SPLINE
  5
EC
330
1F
100
AcDbEntity
  8
0
  6
Continuous
 62
     7
370
    25
100
AcDbSpline
210
0.0
220
0.0
230
1.0
 70
     8
 71
     3
 72
    24
 73
    20
 74
     0
 42
0.000000001
 43
0.00000001
 40
0.0
 40
0.0
 40
0.0
 40
0.0
 40
0.1250000000000003
 40
0.1250000000000003
 40
0.2500000000000006
 40
0.2500000000000006
 40
0.3750000000000009
 40
0.3750000000000009
 40
0.5000000000000012
 40
0.5000000000000012
 40
0.6250000000000016
 40
0.6250000000000016
 40
0.7500000000000018
 40
0.7500000000000018
 40
0.8125000000000014
 40
0.8125000000000014
 40
0.875000000000001
 40
0.875000000000001
 40
1.0
 40
1.0
 40
1.0
 40
1.0
 10
143.1262207205181
 20
140.8876007870763
 30
0.0
 10
143.3655636206798
 20
140.8158670088174
 30
0.0
 10
143.5818580289965
 20
140.7321723555542
 30
0.0
 10
143.967991227244
 20
140.5380165838946
 30
0.0
 10
144.1336103806344
 20
140.4291540849748
 30
0.0
 10
144.4016174559207
 20
140.1924450297986
 30
0.0
 10
144.5062791870705
 20
140.0618395611321
 30
0.0
 10
144.644337719039
 20
139.7894844996178
 30
0.0
 10
144.6795102797932
 20
139.6471270870505
 30
0.0
 10
144.6795355453899
 20
139.3490573219381
 30
0.0
 10
144.6443942621924
 20
139.1993707329109
 30
0.0
 10
144.5063305880489
 20
138.8993131642278
 30
0.0
 10
144.4017016383925
 20
138.7481366693857
 30
0.0
 10
144.2006890005552
 20
138.5337350133002
 30
0.0
 10
144.126138975689
 20
138.4638478874523
 30
0.0
 10
143.9617928123052
 20
138.3275326540021
 30
0.0
 10
143.8713129923382
 20
138.2606837862436
 30
0.0
 10
143.5819256937109
 20
138.0699354024176
 30
0.0
 10
143.3656852638595
 20
137.9554368839967
 30
0.0
 10
143.1262207205181
 20
137.8547496201853
 30
0.0
  0
LINE
  5
ED
330
1F
100
AcDbEntity
  8
0
  6
Continuous
 62
     7
370
    25
100
AcDbLine
 10
143.1262210094
 20
140.8876009976
 30
0.0
 11
143.1262210094
 21
143.7148635035
 31
0.0
  0
LINE
  5
EE
330
1F
100
AcDbEntity
  8
0
  6
Continuous
 62
     7
370
    25
100
AcDbLine
 10
143.1262210094
 20
80.7648633366
 30
0.0
 11
143.1262210094
 21
82.7031169777
 31
0.0
  0
SPLINE
  5
EF
330
1F
100
AcDbEntity
  8
0
  6
Continuous
 62
     7
370
    25
100
AcDbSpline
210
0.0
220
0.0
230
1.0
 70
     8
 71
     3
 72
    34
 73
    30
 74
     0
 42
0.000000001
 43
0.00000001
 40
0.0
 40
0.0
 40
0.0
 40
0.0
 40
0.1249999999999991
 40
0.1249999999999991
 40
0.2499999999999983
 40
0.2499999999999983
 40
0.3124999999999984
 40
0.3124999999999984
 40
0.3749999999999986
 40
0.3749999999999986
 40
0.4374999999999988
 40
0.4374999999999988
 40
0.499999999999999
 40
0.499999999999999
 40
0.5624999999999992
 40
0.5624999999999992
 40
0.6249999999999994
 40
0.6249999999999994
 40
0.6874999999999997
 40
0.6874999999999997
 40
0.7499999999999999
 40
0.7499999999999999
 40
0.8125000000000002
 40
0.8125000000000002
 40
0.8750000000000001
 40
0.8750000000000001
 40
0.9375
 40
0.9375
 40
1.0
 40
1.0
 40
1.0
 40
1.0
 10
143.1262207205183
 20
88.05383948972583
 30
0.0
 10
143.6906948388226
 20
87.9277063420994
 30
0.0
 10
144.2215656727049
 20
87.75593916951998
 30
0.0
 10
145.2074469814611
 20
87.32516783802406
 30
0.0
 10
145.6392785330703
 20
87.07658893327503
 30
0.0
 10
146.1910920483813
 20
86.66007218443445
 30
0.0
 10
146.3590646491282
 20
86.51303273180095
 30
0.0
 10
146.6477235778466
 20
86.21589517489792
 30
0.0
 10
146.7703153788049
 20
86.06455889946272
 30
0.0
 10
146.9706197773365
 20
85.7572564245008
 30
0.0
 10
147.0487744300452
 20
85.59960373957752
 30
0.0
 10
147.1525323355459
 20
85.28965746804943
 30
0.0
 10
147.1787331134801
 20
85.13756747622749
 30
0.0
 10
147.1802777495236
 20
84.83935750878983
 30
0.0
 10
147.1550284260172
 20
84.69187624902715
 30
0.0
 10
147.0534484788551
 20
84.4102665009928
 30
0.0
 10
146.9779533188392
 20
84.27665445527458
 30
0.0
 10
146.7796359083115
 20
84.02247387682827
 30
0.0
 10
146.6553904355814
 20
83.90094757623098
 30
0.0
 10
146.3663091041109
 20
83.6759664656181
 30
0.0
 10
146.2019917185224
 20
83.57232441060526
 30
0.0
 10
145.8358167692448
 20
83.38042016003541
 30
0.0
 10
145.6321425525302
 20
83.29158162627711
 30
0.0
 10
145.1974549823232
 20
83.13172097426089
 30
0.0
 10
144.9665896912987
 20
83.0604485927144
 30
0.0
 10
144.4790323795462
 20
82.93289869830913
 30
0.0
 10
144.2208438581066
 20
82.87637290295974
 30
0.0
 10
143.6853416725805
 20
82.77849068422393
 30
0.0
 10
143.4096546683499
 20
82.73730931759431
 30
0.0
 10
143.1262207205183
 20
82.70311608705242
 30
0.0
  0
LINE
  5
F0
330
1F
100
AcDbEntity
  8
0
  6
Continuous
 62
     7
370
    25
100
AcDbLine
 10
143.1262210094
 20
88.0538389777
 30
0.0
 11
143.1262210094
 21
137.8547490333
 31
0.0
  0
LINE
  5
F1
330
1F
100
AcDbEntity
  8
0
  6
Continuous
 62
     7
370
    25
100
AcDbLine
 10
137.9170227878
 20
138.3345664238
 30
0.0
 11
137.9170227878
 21
141.1874589269
 31
0.0
  0
SPLINE
  5
F2
330
1F
100
AcDbEntity
  8
0
  6
Continuous
 62
     7
370
    25
100
AcDbSpline
210
0.0
220
0.0
230
1.0
 70
     8
 71
     3
 72
    26
 73
    22
 74
     0
 42
0.000000001
 43
0.00000001
 40
0.0
 40
0.0
 40
0.0
 40
0.0
 40
0.1250000000000009
 40
0.1250000000000009
 40
0.2500000000000019
 40
0.2500000000000019
 40
0.3125000000000011
 40
0.3125000000000011
 40
0.3750000000000004
 40
0.3750000000000004
 40
0.4375000000000002
 40
0.4375000000000002
 40
0.5000000000000001
 40
0.5000000000000001
 40
0.5625
 40
0.5625
 40
0.6249999999999999
 40
0.6249999999999999
 40
0.7500000000000001
 40
0.7500000000000001
 40
1.0
 40
1.0
 40
1.0
 40
1.0
 10
137.9170229159483
 20
136.1395089300513
 30
0.0
 10
137.8251180052654
 20
136.3494325367457
 30
0.0
 10
137.7374212290405
 20
136.5581979536251
 30
0.0
 10
137.5732149582732
 20
136.9725325823184
 30
0.0
 10
137.4959445400064
 20
137.1802769679549
 30
0.0
 10
137.3961784336813
 20
137.4774755877717
 30
0.0
 10
137.365565504779
 20
137.5742249397102
 30
0.0
 10
137.310696630876
 20
137.7621244398201
 30
0.0
 10
137.2863114099471
 20
137.8539265875501
 30
0.0
 10
137.2466320334486
 20
138.0252690158156
 30
0.0
 10
137.2311659542113
 20
138.1052615503483
 30
0.0
 10
137.2100696191289
 20
138.2524559595601
 30
0.0
 10
137.2045565529688
 20
138.3198378271332
 30
0.0
 10
137.2044895953465
 20
138.4350067775332
 30
0.0
 10
137.209757902696
 20
138.4836726202424
 30
0.0
 10
137.230600429864
 20
138.5636758136933
 30
0.0
 10
137.2462745430743
 20
138.5947400570612
 30
0.0
 10
137.3055934732519
 20
138.6608947221645
 30
0.0
 10
137.3626133087659
 20
138.670496589403
 30
0.0
 10
137.5614481974097
 20
138.625481319296
 30
0.0
 10
137.7327184026418
 20
138.5015552440464
 30
0.0
 10
137.9170229159482
 20
138.3345673005738
 30
0.0
  0
LINE
  5
F3
330
1F
100
AcDbEntity
  8
0
  6
Continuous
 62
     7
370
    25
100
AcDbLine
 10
137.9170227878
 20
88.7863074188
 30
0.0
 11
137.9170227878
 21
136.1395080333
 31
0.0
  0
SPLINE
  5
F4
330
1F
100
AcDbEntity
  8
0
  6
Continuous
 62
     7
370
    25
100
AcDbSpline
210
0.0
220
0.0
230
1.0
 70
     8
 71
     3
 72
     8
 73
     4
 74
     0
 42
0.000000001
 43
0.00000001
 40
0.0
 40
0.0
 40
0.0
 40
0.0
 40
1.0
 40
1.0
 40
1.0
 40
1.0
 10
137.5494992498002
 20
87.9833304575024
 30
0.0
 10
137.6672337546297
 20
88.25097413711832
 30
0.0
 10
137.790699867588
 20
88.51993943945065
 30
0.0
 10
137.9170229159482
 20
88.78630656396099
 30
0.0
  0
SPLINE
  5
F5
330
1F
100
AcDbEntity
  8
0
  6
Continuous
 62
     7
370
    25
100
AcDbSpline
210
0.0
220
0.0
230
1.0
 70
     8
 71
     3
 72
     8
 73
     4
 74
     0
 42
0.000000001
 43
0.00000001
 40
0.0
 40
0.0
 40
0.0
 40
0.0
 40
1.0
 40
1.0
 40
1.0
 40
1.0
 10
136.4578251113781
 20
87.18213809838355
 30
0.0
 10
136.8277124921077
 20
87.45652991731555
 30
0.0
 10
137.1930459848692
 20
87.72695622541201
 30
0.0
 10
137.5494992498002
 20
87.9833304575024
 30
0.0
  0
LINE
  5
F6
330
1F
100
AcDbEntity
  8
0
  6
Continuous
 62
     7
370
    25
100
AcDbLine
 10
129.8920229159
 20
112.23986342
 30
0.0
 11
129.8920229159
 21
143.5148638432
 31
0.0
  0
LINE
  5
F7
330
1F
100
AcDbEntity
  8
0
  6
Continuous
 62
     7
370
    25
100
AcDbLine
 10
129.8920229159
 20
80.9648629968
 30
0.0
 11
129.8920229159
 21
112.23986342
 31
0.0
  0
LINE
  5
F8
330
1F
100
AcDbEntity
  8
0
  6
Continuous
 62
     7
370
    25
100
AcDbLine
 10
141.6670229368
 20
89.5201281403
 30
0.0
 11
141.6670229368
 21
135.2740579044
 31
0.0
  0
SPLINE
  5
F9
330
1F
100
AcDbEntity
  8
0
  6
Continuous
 62
     7
370
    25
100
AcDbSpline
210
0.0
220
0.0
230
1.0
 70
     8
 71
     3
 72
    10
 73
     6
 74
     0
 42
0.000000001
 43
0.00000001
 40
0.0
 40
0.0
 40
0.0
 40
0.0
 40
0.5
 40
0.5
 40
1.0
 40
1.0
 40
1.0
 40
1.0
 10
143.1262207205182
 20
137.8547496201851
 30
0.0
 10
142.8914897765491
 20
137.402310232483
 30
0.0
 10
142.6521064688324
 20
136.9627830591236
 30
0.0
 10
142.1654851175215
 20
136.1036909635819
 30
0.0
 10
141.9182158058197
 20
135.6842339103587
 30
0.0
 10
141.6670229159482
 20
135.2740578538212
 30
0.0
  0
SPLINE
  5
FA
330
1F
100
AcDbEntity
  8
0
  6
Continuous
 62
     7
370
    25
100
AcDbSpline
210
0.0
220
0.0
230
1.0
 70
     8
 71
     3
 72
     8
 73
     4
 74
     0
 42
0.000000001
 43
0.00000001
 40
0.0
 40
0.0
 40
0.0
 40
0.0
 40
1.0
 40
1.0
 40
1.0
 40
1.0
 10
142.1327340410007
 20
88.74714933817845
 30
0.0
 10
142.458992877213
 20
88.52332560884872
 30
0.0
 10
142.790831286256
 20
88.29075976154535
 30
0.0
 10
143.1262207205183
 20
88.05383948972583
 30
0.0
  0
SPLINE
  5
FB
330
1F
100
AcDbEntity
  8
0
  6
Continuous
 62
     7
370
    25
100
AcDbSpline
210
0.0
220
0.0
230
1.0
 70
     8
 71
     3
 72
     8
 73
     4
 74
     0
 42
0.000000001
 43
0.00000001
 40
0.0
 40
0.0
 40
0.0
 40
0.0
 40
1.0
 40
1.0
 40
1.0
 40
1.0
 10
141.6670229159482
 20
89.52012851685282
 30
0.0
 10
141.8235052794494
 20
89.2659082591773
 30
0.0
 10
141.9787315679268
 20
89.0082744728299
 30
0.0
 10
142.1327340410008
 20
88.74714933817843
 30
0.0
  0
SPLINE
  5
FC
330
1F
100
AcDbEntity
  8
0
  6
Continuous
 62
     7
370
    25
100
AcDbSpline
210
0.0
220
0.0
230
1.0
 70
     8
 71
     3
 72
    14
 73
    10
 74
     0
 42
0.000000001
 43
0.00000001
 40
0.0
 40
0.0
 40
0.0
 40
0.0
 40
0.25
 40
0.25
 40
0.5
 40
0.5
 40
0.75
 40
0.75
 40
1.0
 40
1.0
 40
1.0
 40
1.0
 10
138.9170229159482
 20
134.634056367426
 30
0.0
 10
138.7826721674071
 20
134.6858733475038
 30
0.0
 10
138.6594932646137
 20
134.7628205835371
 30
0.0
 10
138.4307428437243
 20
134.9553054169461
 30
0.0
 10
138.3288197517311
 20
135.0681324057261
 30
0.0
 10
138.1493946873859
 20
135.3209723502988
 30
0.0
 10
138.0729534384814
 20
135.4589880747805
 30
0.0
 10
137.9556654640197
 20
135.7572237815106
 30
0.0
 10
137.9170229159482
 20
135.915311750561
 30
0.0
 10
137.9170229159482
 20
136.0547440752859
 30
0.0
  0
SPLINE
  5
FD
330
1F
100
AcDbEntity
  8
0
  6
Continuous
 62
     7
370
    25
100
AcDbSpline
210
0.0
220
0.0
230
1.0
 70
     8
 71
     3
 72
    14
 73
    10
 74
     0
 42
0.000000001
 43
0.00000001
 40
0.0
 40
0.0
 40
0.0
 40
0.0
 40
0.25
 40
0.25
 40
0.5
 40
0.5
 40
0.75
 40
0.75
 40
1.0
 40
1.0
 40
1.0
 40
1.0
 10
137.9170229159482
 20
88.87127569071284
 30
0.0
 10
137.9170229159482
 20
89.00201551208383
 30
0.0
 10
137.9524439928805
 20
89.15071322579786
 30
0.0
 10
138.0649696640706
 20
89.4276430413444
 30
0.0
 10
138.142649850345
 20
89.56095360843334
 30
0.0
 10
138.3227150820673
 20
89.79829360419521
 30
0.0
 10
138.4279951347226
 20
89.90597720418526
 30
0.0
 10
138.6569786690851
 20
90.08254914816581
 30
0.0
 10
138.7835918610841
 20
90.15385230063669
 30
0.0
 10
138.917022915948
 20
90.19862459443364
 30
0.0
  0
SPLINE
  5
FE
330
1F
100
AcDbEntity
  8
0
  6
Continuous
 62
     7
370
    25
100
AcDbSpline
210
0.0
220
0.0
230
1.0
 70
     8
 71
     3
 72
    14
 73
    10
 74
     0
 42
0.000000001
 43
0.00000001
 40
0.0
 40
0.0
 40
0.0
 40
0.0
 40
0.25
 40
0.25
 40
0.5
 40
0.5
 40
0.75
 40
0.75
 40
1.0
 40
1.0
 40
1.0
 40
1.0
 10
141.6670229159484
 20
135.1888492890684
 30
0.0
 10
141.6670229159484
 20
135.0746772115155
 30
0.0
 10
141.6410934776824
 20
134.9575892068406
 30
0.0
 10
141.541651220406
 20
134.7364341948226
 30
0.0
 10
141.4693688346852
 20
134.6338598543234
 30
0.0
 10
141.2846314979206
 20
134.4578264488355
 30
0.0
 10
141.1750848615986
 20
134.3874206418551
 30
0.0
 10
140.9317236165953
 20
134.293854781016
 30
0.0
 10
140.8002125091495
 20
134.2719344610466
 30
0.0
 10
140.6670229159481
 20
134.2779970301838
 30
0.0
  0
SPLINE
  5
FF
330
1F
100
AcDbEntity
  8
0
  6
Continuous
 62
     7
370
    25
100
AcDbSpline
210
0.0
220
0.0
230
1.0
 70
     8
 71
     3
 72
    14
 73
    10
 74
     0
 42
0.000000001
 43
0.00000001
 40
0.0
 40
0.0
 40
0.0
 40
0.0
 40
0.25
 40
0.25
 40
0.5
 40
0.5
 40
0.75
 40
0.75
 40
1.0
 40
1.0
 40
1.0
 40
1.0
 10
140.6670229159482
 20
90.5149715491385
 30
0.0
 10
140.8004512231813
 20
90.52046461230884
 30
0.0
 10
140.9322258949769
 20
90.498212593244
 30
0.0
 10
141.1754217818383
 20
90.40477433353763
 30
0.0
 10
141.2863426435512
 20
90.3334788683569
 30
0.0
 10
141.468988992417
 20
90.15997147144466
 30
0.0
 10
141.542304731757
 20
90.05641310919844
 30
0.0
 10
141.6409428425924
 20
89.83717499642448
 30
0.0
 10
141.6670229159482
 20
89.72016952071613
 30
0.0
 10
141.6670229159482
 20
89.60554458615036
 30
0.0
  0
SPLINE
  5
100
330
1F
100
AcDbEntity
  8
0
  6
Continuous
 62
     7
370
    25
100
AcDbSpline
210
0.0
220
0.0
230
1.0
 70
     8
 71
     3
 72
    10
 73
     6
 74
     0
 42
0.000000001
 43
0.00000001
 40
0.0
 40
0.0
 40
0.0
 40
0.0
 40
0.5
 40
0.5
 40
1.0
 40
1.0
 40
1.0
 40
1.0
 10
140.6670229159482
 20
134.2779970301842
 30
0.0
 10
140.3565451362063
 20
134.292129463207
 30
0.0
 10
140.0526045718543
 20
134.3296993483665
 30
0.0
 10
139.4580412062797
 20
134.451360832246
 30
0.0
 10
139.1777076485598
 20
134.533514347802
 30
0.0
 10
138.9170229159482
 20
134.634056367426
 30
0.0
  0
SPLINE
  5
101
330
1F
100
AcDbEntity
  8
0
  6
Continuous
 62
     7
370
    25
100
AcDbSpline
210
0.0
220
0.0
230
1.0
 70
     8
 71
     3
 72
    13
 73
     9
 74
     0
 42
0.000000001
 43
0.00000001
 40
0.0
 40
0.0
 40
0.0
 40
0.0
 40
0.25
 40
0.25
 40
0.5
 40
0.75
 40
0.75
 40
1.0
 40
1.0
 40
1.0
 40
1.0
 10
138.9170229159482
 20
90.19862459443294
 30
0.0
 10
139.0515351949115
 20
90.2437596889518
 30
0.0
 10
139.1913250937312
 20
90.28500898181724
 30
0.0
 10
139.4740621475424
 20
90.35733826112558
 30
0.0
 10
139.7615426843608
 20
90.42009420389053
 30
0.0
 10
140.0583925244754
 20
90.46354210366657
 30
0.0
 10
140.3600319497098
 20
90.49697516965199
 30
0.0
 10
140.5140618571254
 20
90.50867434897056
 30
0.0
 10
140.6670229159482
 20
90.51497154913848
 30
0.0
  0
LINE
  5
102
330
1F
100
AcDbEntity
  8
0
  6
Continuous
 62
     7
370
    25
100
AcDbLine
 10
183.8920243167
 20
135.2398634647
 30
0.0
 11
183.8920243167
 21
89.2398633753
 31
0.0
  0
LINE
  5
103
330
1F
100
AcDbEntity
  8
0
  6
Continuous
 62
     7
370
    25
100
AcDbLine
 10
128.7318408571
 20
112.23986342
 30
0.0
 11
128.7318408571
 21
137.1816021149
 31
0.0
  0
LINE
  5
104
330
1F
100
AcDbEntity
  8
0
  6
Continuous
 62
     7
370
    25
100
AcDbLine
 10
128.7318408571
 20
87.2981247251
 30
0.0
 11
128.7318408571
 21
112.23986342
 31
0.0
  0
LINE
  5
105
330
1F
100
AcDbEntity
  8
0
  6
Continuous
 62
     7
370
    25
100
AcDbLine
 10
91.442023971
 20
101.3350679298
 30
0.0
 11
91.442023971
 21
89.1707424765
 31
0.0
  0
SPLINE
  5
106
330
1F
100
AcDbEntity
  8
0
  6
Continuous
 62
     7
370
    25
100
AcDbSpline
210
0.0
220
0.0
230
1.0
 70
     8
 71
     3
 72
     8
 73
     4
 74
     0
 42
0.000000001
 43
0.00000001
 40
0.0
 40
0.0
 40
0.0
 40
0.0
 40
1.0
 40
1.0
 40
1.0
 40
1.0
 10
95.73427101105914
 20
101.3389723861451
 30
0.0
 10
94.3035216460255
 20
101.3372345108652
 30
0.0
 10
92.87277228099187
 20
101.3358724356994
 30
0.0
 10
91.44202291595823
 20
101.3348852795765
 30
0.0
  0
SPLINE
  5
107
330
1F
100
AcDbEntity
  8
0
  6
Continuous
 62
     7
370
    25
100
AcDbSpline
210
0.0
220
0.0
230
1.0
 70
     8
 71
     3
 72
    23
 73
    19
 74
     0
 42
0.000000001
 43
0.00000001
 40
0.0
 40
0.0
 40
0.0
 40
0.0
 40
0.0521036415683759
 40
0.1035646240941235
 40
0.1544751946756683
 40
0.2049306267495642
 40
0.2550287880866983
 40
0.3048696389163111
 40
0.354554670462894
 40
0.4041862979539558
 40
0.453867225213789
 40
0.5036997999428097
 40
0.590187023078111
 40
0.6742716378282376
 40
0.7565997087281883
 40
0.8378563983773627
 40
0.9187511781400207
 40
0.9999999999999999
 40
0.9999999999999999
 40
0.9999999999999999
 40
0.9999999999999999
 10
99.32800683044857
 20
103.259041994518
 30
0.0
 10
99.28651531073245
 20
103.2007062081934
 30
0.0
 10
99.20404403783964
 20
103.0847541633825
 30
0.0
 10
99.0711852804062
 20
102.9189555613549
 30
0.0
 10
98.93265370763422
 20
102.7605915993173
 30
0.0
 10
98.78775416399704
 20
102.6100819657118
 30
0.0
 10
98.63667050382412
 20
102.4672426571958
 30
0.0
 10
98.47935532566028
 20
102.3320494396332
 30
0.0
 10
98.31582216745319
 20
102.2044367967057
 30
0.0
 10
98.14607223046598
 20
102.0843497125698
 30
0.0
 10
97.97009820032848
 20
101.97173631912
 30
0.0
 10
97.7436175023844
 20
101.8409263554758
 30
0.0
 10
97.4644369918669
 20
101.701804199806
 30
0.0
 10
97.12933779573669
 20
101.5682852064769
 30
0.0
 10
96.78857329982927
 20
101.4648371102812
 30
0.0
 10
96.4421752540768
 20
101.3919404861773
 30
0.0
 10
96.09028527556283
 20
101.3467456924106
 30
0.0
 10
95.85311505370592
 20
101.3415672572877
 30
0.0
 10
95.73427101105914
 20
101.3389723861451
 30
0.0
  0
SPLINE
  5
108
330
1F
100
AcDbEntity
  8
0
  6
Continuous
 62
     7
370
    25
100
AcDbSpline
210
0.0
220
0.0
230
1.0
 70
     8
 71
     3
 72
     8
 73
     4
 74
     0
 42
0.000000001
 43
0.00000001
 40
0.0
 40
0.0
 40
0.0
 40
0.0
 40
1.0
 40
1.0
 40
1.0
 40
1.0
 10
103.7369786386037
 20
103.2634627093377
 30
0.0
 10
102.2668039778223
 20
103.2620020889026
 30
0.0
 10
100.7966293170409
 20
103.2608410372437
 30
0.0
 10
99.32645465625947
 20
103.2599791073442
 30
0.0
  0
SPLINE
  5
109
330
1F
100
AcDbEntity
  8
0
  6
Continuous
 62
     7
370
    25
100
AcDbSpline
210
0.0
220
0.0
230
1.0
 70
     8
 71
     3
 72
    18
 73
    14
 74
     0
 42
0.000000001
 43
0.00000001
 40
0.0
 40
0.0
 40
0.0
 40
0.0
 40
0.0923824559461122
 40
0.1844689291660427
 40
0.2764953616062392
 40
0.3686975365619641
 40
0.4613092840130473
 40
0.5545607518559533
 40
0.6486768051632873
 40
0.7438756050210469
 40
0.8403674044324065
 40
0.9203921078135461
 40
1.0
 40
1.0
 40
1.0
 40
1.0
 10
105.9322074834573
 20
102.729828695574
 30
0.0
 10
105.8618771799398
 20
102.7302453200044
 30
0.0
 10
105.7214419030796
 20
102.7310772340486
 30
0.0
 10
105.5110793765872
 20
102.7446860809807
 30
0.0
 10
105.3016357135983
 20
102.767352838285
 30
0.0
 10
105.0930860434765
 20
102.799953628338
 30
0.0
 10
104.8854424252495
 20
102.8422561060097
 30
0.0
 10
104.6787042413023
 20
102.8943275082426
 30
0.0
 10
104.4728821357534
 20
102.9561762675451
 30
0.0
 10
104.2679505085769
 20
103.0277743304344
 30
0.0
 10
104.0766608417193
 20
103.1042761454982
 30
0.0
 10
103.8993082441385
 20
103.1827125722883
 30
0.0
 10
103.7913279006112
 20
103.2364225259874
 30
0.0
 10
103.7374787007331
 20
103.263207382728
 30
0.0
  0
LINE
  5
10A
330
1F
100
AcDbEntity
  8
0
  6
Continuous
 62
     7
370
    25
100
AcDbLine
 10
107.847081133
 20
102.7313244288
 30
0.0
 11
105.9322074138
 21
102.7298287248
 31
0.0
  0
SPLINE
  5
10B
330
1F
100
AcDbEntity
  8
0
  6
Continuous
 62
     7
370
    25
100
AcDbSpline
210
0.0
220
0.0
230
1.0
 70
     8
 71
     3
 72
    25
 73
    21
 74
     0
 42
0.000000001
 43
0.00000001
 40
0.0
 40
0.0
 40
0.0
 40
0.0
 40
0.0280105225426455
 40
0.0559601148860774
 40
0.0839014045043129
 40
0.1118870776786379
 40
0.1399695827588941
 40
0.1682008401739877
 40
0.1966319670424218
 40
0.2253130233141493
 40
0.2542927850735863
 40
0.3799486436570518
 40
0.505785022166658
 40
0.6313085886329272
 40
0.7532068238012843
 40
0.8039473267959846
 40
0.8535894438560211
 40
0.902533972239985
 40
0.9511970353794947
 40
1.0
 40
1.0
 40
1.0
 40
1.0
 10
112.7869650691497
 20
107.8651879349491
 30
0.0
 10
112.7870022908835
 20
107.7905679079357
 30
0.0
 10
112.7870766533841
 20
107.6414901719485
 30
0.0
 10
112.7746606027376
 20
107.4188720809821
 30
0.0
 10
112.7530560423839
 20
107.1975476629532
 30
0.0
 10
112.7213705727239
 20
106.9775793970646
 30
0.0
 10
112.679844434404
 20
106.7589891098355
 30
0.0
 10
112.6284136786741
 20
106.5418071714312
 30
0.0
 10
112.5670998039628
 20
106.3260657515465
 30
0.0
 10
112.4958894684633
 20
106.1117758600964
 30
0.0
 10
112.3250528612598
 20
105.6634260870766
 30
0.0
 10
111.987320627823
 20
105.0100952590062
 30
0.0
 10
111.3757659636267
 20
104.2382020483659
 30
0.0
 10
110.6395311284784
 20
103.5940424229778
 30
0.0
 10
109.9530450568285
 20
103.2024012549173
 30
0.0
 10
109.4043409106765
 20
102.9837063539508
 30
0.0
 10
109.0223047321701
 20
102.86785030512
 30
0.0
 10
108.6351386334657
 20
102.78694239959
 30
0.0
 10
108.2429119646809
 20
102.737713968792
 30
0.0
 10
107.9791506965672
 20
102.7334561137765
 30
0.0
 10
107.8470807627468
 20
102.7313241304337
 30
0.0
  0
LINE
  5
10C
330
1F
100
AcDbEntity
  8
0
  6
Continuous
 62
     7
370
    25
100
AcDbLine
 10
112.7869650804
 20
116.6145388727
 30
0.0
 11
112.7869650804
 21
107.8651879673
 31
0.0
  0
SPLINE
  5
10D
330
1F
100
AcDbEntity
  8
0
  6
Continuous
 62
     7
370
    25
100
AcDbSpline
210
0.0
220
0.0
230
1.0
 70
     8
 71
     3
 72
    26
 73
    22
 74
     0
 42
0.000000001
 43
0.00000001
 40
0.0
 40
0.0
 40
0.0
 40
0.0
 40
0.0241259796963637
 40
0.048215991227299
 40
0.0723203915124064
 40
0.0964895678710793
 40
0.120773623196351
 40
0.1452220711242841
 40
0.1698835501657706
 40
0.1948055644472381
 40
0.2200342569517629
 40
0.2456142191611394
 40
0.3690971486901671
 40
0.4940698769485191
 40
0.6192566784762444
 40
0.7454656653603234
 40
0.7971495824713715
 40
0.8481710308405401
 40
0.8988013269235245
 40
0.9493179290492194
 40
1.0
 40
1.0
 40
1.0
 40
1.0
 10
107.8470807627468
 20
121.748402709602
 30
0.0
 10
107.9123298212963
 20
121.7478289232231
 30
0.0
 10
108.0427306619754
 20
121.7466822058936
 30
0.0
 10
108.2377104802717
 20
121.7345648294007
 30
0.0
 10
108.4318396175354
 20
121.7148063079391
 30
0.0
 10
108.6251009576296
 20
121.6866441257183
 30
0.0
 10
108.8174961361039
 20
121.6502530296699
 30
0.0
 10
109.0090217146048
 20
121.6055519441925
 30
0.0
 10
109.1996772469903
 20
121.5525234728085
 30
0.0
 10
109.3894572460887
 20
121.4911324513818
 30
0.0
 10
109.5783758667445
 20
121.4213302449021
 30
0.0
 10
110.0051202799152
 20
121.2438011746866
 30
0.0
 10
110.6395926070959
 20
120.889240571789
 30
0.0
 10
111.3792684594417
 20
120.2470687580987
 30
0.0
 10
111.9860157022772
 20
119.4739034543178
 30
0.0
 10
112.3468075184955
 20
118.7664880460579
 30
0.0
 10
112.5489815742598
 20
118.2019806468324
 30
0.0
 10
112.655805030245
 20
117.8130937852837
 30
0.0
 10
112.7314157465433
 20
117.4186110314155
 30
0.0
 10
112.7785784192346
 20
117.0188049412253
 30
0.0
 10
112.7841664735228
 20
116.7494410617608
 30
0.0
 10
112.7869650691497
 20
116.6145389050864
 30
0.0
  0
LINE
  5
10E
330
1F
100
AcDbEntity
  8
0
  6
Continuous
 62
     7
370
    25
100
AcDbLine
 10
105.9322074138
 20
121.7498981153
 30
0.0
 11
107.847081133
 21
121.7484024112
 31
0.0
  0
SPLINE
  5
10F
330
1F
100
AcDbEntity
  8
0
  6
Continuous
 62
     7
370
    25
100
AcDbSpline
210
0.0
220
0.0
230
1.0
 70
     8
 71
     3
 72
    14
 73
    10
 74
     0
 42
0.000000001
 43
0.00000001
 40
0.0
 40
0.0
 40
0.0
 40
0.0
 40
0.0789261963152472
 40
0.1582328720511064
 40
0.3308475394503796
 40
0.5000195457530386
 40
0.6670357883499396
 40
0.8332395193610692
 40
1.0
 40
1.0
 40
1.0
 40
1.0
 10
103.7359952573908
 20
121.215851189851
 30
0.0
 10
103.7893907804323
 20
121.2424574391259
 30
0.0
 10
103.8964392302495
 20
121.2957981983901
 30
0.0
 10
104.1255099448066
 20
121.3974276770302
 30
0.0
 10
104.4243826829986
 20
121.5115073094052
 30
0.0
 10
104.7965257577946
 20
121.6201137428617
 30
0.0
 10
105.1721555568261
 20
121.6964480283077
 30
0.0
 10
105.5513478688609
 20
121.7432654856614
 30
0.0
 10
105.8051128384136
 20
121.7476847950185
 30
0.0
 10
105.9322074834573
 20
121.7498981444617
 30
0.0
  0
SPLINE
  5
110
330
1F
100
AcDbEntity
  8
0
  6
Continuous
 62
     7
370
    25
100
AcDbSpline
210
0.0
220
0.0
230
1.0
 70
     8
 71
     3
 72
     8
 73
     4
 74
     0
 42
0.000000001
 43
0.00000001
 40
0.0
 40
0.0
 40
0.0
 40
0.0
 40
1.0
 40
1.0
 40
1.0
 40
1.0
 10
98.34370153374059
 20
121.2199733467533
 30
0.0
 10
100.1410382191168
 20
121.2189992403294
 30
0.0
 10
101.938374904493
 20
121.2175771045797
 30
0.0
 10
103.7357115898692
 20
121.215706118111
 30
0.0
  0
SPLINE
  5
111
330
1F
100
AcDbEntity
  8
0
  6
Continuous
 62
     7
370
    25
100
AcDbSpline
210
0.0
220
0.0
230
1.0
 70
     8
 71
     3
 72
    13
 73
     9
 74
     0
 42
0.000000001
 43
0.00000001
 40
0.0
 40
0.0
 40
0.0
 40
0.0
 40
0.1667030582307959
 40
0.3329480818053031
 40
0.4990671507274871
 40
0.6653938523718408
 40
0.8322612710550125
 40
1.0
 40
1.0
 40
1.0
 40
1.0
 10
97.26019736889519
 20
121.3574003963212
 30
0.0
 10
97.32130441164652
 20
121.3565661767897
 30
0.0
 10
97.44335059894969
 20
121.3549000298348
 30
0.0
 10
97.6256855442134
 20
121.342871072182
 30
0.0
 10
97.8069897570871
 20
121.3238816075976
 30
0.0
 10
97.98718861712375
 20
121.2970623933783
 30
0.0
 10
98.16649259526206
 20
121.2632265861312
 30
0.0
 10
98.28452462083345
 20
121.2344011158523
 30
0.0
 10
98.3436943105851
 20
121.2199508501292
 30
0.0
  0
SPLINE
  5
112
330
1F
100
AcDbEntity
  8
0
  6
Continuous
 62
     7
370
    25
100
AcDbSpline
210
0.0
220
0.0
230
1.0
 70
     8
 71
     3
 72
     8
 73
     4
 74
     0
 42
0.000000001
 43
0.00000001
 40
0.0
 40
0.0
 40
0.0
 40
0.0
 40
1.0
 40
1.0
 40
1.0
 40
1.0
 10
91.44202291596099
 20
121.3621901311712
 30
0.0
 10
93.38141440027239
 20
121.3611426786955
 30
0.0
 10
95.32080588458379
 20
121.3595464921708
 30
0.0
 10
97.2601973688952
 20
121.3574003963212
 30
0.0
  0
LINE
  5
113
330
1F
100
AcDbEntity
  8
0
  6
Continuous
 62
     7
370
    25
100
AcDbLine
 10
91.442023971
 20
121.3621903901
 30
0.0
 11
91.442023971
 21
135.3089843636
 31
0.0
  0
SPLINE
  5
114
330
1F
100
AcDbEntity
  8
0
  6
Continuous
 62
     7
370
    25
100
AcDbSpline
210
0.0
220
0.0
230
1.0
 70
     8
 71
     3
 72
    24
 73
    20
 74
     0
 42
0.000000001
 43
0.00000001
 40
0.0
 40
0.0
 40
0.0
 40
0.0
 40
0.0607845451296407
 40
0.1248046360965166
 40
0.1880736642923821
 40
0.2506536944642078
 40
0.3129374270624571
 40
0.3747588850641116
 40
0.4371053349657547
 40
0.4977639019418345
 40
0.5591913128303959
 40
0.6209011577381788
 40
0.6826271159280655
 40
0.7453344255371981
 40
0.8078840402472991
 40
0.8712333803613398
 40
0.9348869687710366
 40
0.9979954054018167
 40
1.0
 40
1.0
 40
1.0
 40
1.0
 10
115.405662552286
 20
136.5106940959774
 30
0.0
 10
115.3799507387469
 20
136.5002910058969
 30
0.0
 10
115.3271584783907
 20
136.4789310719037
 30
0.0
 10
114.8539277291371
 20
136.2965243984153
 30
0.0
 10
114.1351225874184
 20
136.0275783458866
 30
0.0
 10
113.1579418431373
 20
135.6994821908194
 30
0.0
 10
111.9739794820747
 20
135.3556117570737
 30
0.0
 10
110.6056771941757
 20
135.0379509648008
 30
0.0
 10
109.1179659283059
 20
134.7834425164011
 30
0.0
 10
107.548306347991
 20
134.6322281354229
 30
0.0
 10
105.9720638530123
 20
134.5986864887979
 30
0.0
 10
104.452749696683
 20
134.6842586844617
 30
0.0
 10
103.0518754813835
 20
134.8584665031321
 30
0.0
 10
101.8331956869745
 20
135.0880921678026
 30
0.0
 10
100.8276228580737
 20
135.3263096701952
 30
0.0
 10
100.0744415216346
 20
135.5379304298239
 30
0.0
 10
99.62749796058307
 20
135.6703501875558
 30
0.0
 10
99.4438211726387
 20
135.7280176737988
 30
0.0
 10
99.49535871990332
 20
135.7122699187646
 30
0.0
 10
99.49694537447769
 20
135.7117851023756
 30
0.0
  0
SPLINE
  5
115
330
1F
100
AcDbEntity
  8
0
  6
Continuous
 62
     7
370
    25
100
AcDbSpline
210
0.0
220
0.0
230
1.0
 70
     8
 71
     3
 72
    24
 73
    20
 74
     0
 42
0.000000001
 43
0.00000001
 40
0.0
 40
0.0
 40
0.0
 40
0.0
 40
0.0018911184661179
 40
0.0649665885217893
 40
0.1287875560009952
 40
0.1921372900365662
 40
0.2545996475903032
 40
0.3167128323446347
 40
0.3787563804671794
 40
0.440851011115251
 40
0.501718739255822
 40
0.5623721854420992
 40
0.6248484186975057
 40
0.6868048398220544
 40
0.7491642775858319
 40
0.8116886268192671
 40
0.8748496752066125
 40
0.9387002417378669
 40
1.0
 40
1.0
 40
1.0
 40
1.0
 10
99.49695096241314
 20
88.76784674275746
 30
0.0
 10
99.49544428054485
 20
88.76738892491821
 30
0.0
 10
99.443684444911
 20
88.75166126760206
 30
0.0
 10
99.62729515952464
 20
88.80923748270723
 30
0.0
 10
100.0751688845573
 20
88.94149388573064
 30
0.0
 10
100.8281944320713
 20
89.1531022954532
 30
0.0
 10
101.8281399323519
 20
89.39081930048886
 30
0.0
 10
103.0466991461516
 20
89.61885977417062
 30
0.0
 10
104.4502094533604
 20
89.79104432239926
 30
0.0
 10
105.9674573375731
 20
89.87916777969173
 30
0.0
 10
107.5417067459036
 20
89.84810638624296
 30
0.0
 10
109.1075402379264
 20
89.69708529471507
 30
0.0
 10
110.5973926553524
 20
89.44274920467556
 30
0.0
 10
111.9690803356803
 20
89.1250095455657
 30
0.0
 10
113.1549775291267
 20
88.78110327487369
 30
0.0
 10
114.1326712855675
 20
88.45322460976327
 30
0.0
 10
114.8518247053478
 20
88.1844401896706
 30
0.0
 10
115.3257639659021
 20
88.0013381246422
 30
0.0
 10
115.3800229317622
 20
87.9793513194788
 30
0.0
 10
115.406599462796
 20
87.96858198393215
 30
0.0
  0
LINE
  5
116
330
1F
100
AcDbEntity
  8
0
  6
Continuous
 62
     7
370
    25
100
AcDbLine
 10
112.7869650804
 20
107.8651879673
 30
0.0
 11
111.8920236908
 21
108.0273633582
 31
0.0
  0
LINE
  5
117
330
1F
100
AcDbEntity
  8
0
  6
Continuous
 62
     7
370
    25
100
AcDbLine
 10
111.8920236908
 20
108.0273633582
 30
0.0
 11
111.8920236908
 21
116.4523634819
 31
0.0
  0
LINE
  5
118
330
1F
100
AcDbEntity
  8
0
  6
Continuous
 62
     7
370
    25
100
AcDbLine
 10
112.7869650804
 20
116.6145388727
 30
0.0
 11
111.8920236908
 21
116.4523634819
 31
0.0
  0
SPLINE
  5
119
330
1F
100
AcDbEntity
  8
0
  6
Continuous
 62
     7
370
    25
100
AcDbSpline
210
0.0
220
0.0
230
1.0
 70
     8
 71
     3
 72
    25
 73
    21
 74
     0
 42
0.000000001
 43
0.00000001
 40
0.0
 40
0.0
 40
0.0
 40
0.0
 40
0.0288821753105771
 40
0.058363659400572
 40
0.088464720430548
 40
0.1192044006616737
 40
0.1506005800085666
 40
0.1826700399669859
 40
0.2154285269576224
 40
0.2488908143379852
 40
0.3610594471136693
 40
0.4984670131067402
 40
0.5822693905005265
 40
0.6661127642780991
 40
0.7499972937224167
 40
0.8007709755018199
 40
0.8511237700786715
 40
0.9010896024485537
 40
0.9507031914094952
 40
1.0
 40
1.0
 40
1.0
 40
1.0
 10
107.8920229159482
 20
104.0273634200178
 30
0.0
 10
107.9548233691846
 20
104.0282199039696
 30
0.0
 10
108.0817273929805
 20
104.0299506440232
 30
0.0
 10
108.2730818006899
 20
104.0441005094261
 30
0.0
 10
108.4669866133656
 20
104.0672375917465
 30
0.0
 10
108.6628873340931
 20
104.100648743971
 30
0.0
 10
108.8602250020984
 20
104.1445225660032
 30
0.0
 10
109.0583783438867
 20
104.1993178369727
 30
0.0
 10
109.2566940878998
 20
104.2653867983373
 30
0.0
 10
109.608015075391
 20
104.4033681305855
 30
0.0
 10
110.1331268457163
 20
104.6834200694239
 30
0.0
 10
110.6701186742053
 20
105.1220106718294
 30
0.0
 10
111.082178404255
 20
105.595870793389
 30
0.0
 10
111.3690969923074
 20
106.0275545412089
 30
0.0
 10
111.5675236795132
 20
106.4306777829661
 30
0.0
 10
111.6996095535603
 20
106.7884139437405
 30
0.0
 10
111.7852434333577
 20
107.0911663460184
 30
0.0
 10
111.8463256447118
 20
107.3996546562639
 30
0.0
 10
111.8848265880788
 20
107.7119663664247
 30
0.0
 10
111.8896292671725
 20
107.9224557803306
 30
0.0
 10
111.8920229159482
 20
108.0273634200178
 30
0.0
  0
SPLINE
  5
11A
330
1F
100
AcDbEntity
  8
0
  6
Continuous
 62
     7
370
    25
100
AcDbSpline
210
0.0
220
0.0
230
1.0
 70
     8
 71
     3
 72
    25
 73
    21
 74
     0
 42
0.000000001
 43
0.00000001
 40
0.0
 40
0.0
 40
0.0
 40
0.0
 40
0.0274788704220519
 40
0.0560416006846
 40
0.0856947086346483
 40
0.1164440166532229
 40
0.1482947438675477
 40
0.1812515840465501
 40
0.2153187716746058
 40
0.2505001382254875
 40
0.3330514552513183
 40
0.5015081958163713
 40
0.5771663066143402
 40
0.6488981303024295
 40
0.7167477700061697
 40
0.7807674423486859
 40
0.8410194131339161
 40
0.897578484992366
 40
0.9505352047787778
 40
1.0
 40
1.0
 40
1.0
 40
1.0
 10
111.8920229159482
 20
116.4523634200179
 30
0.0
 10
111.8912814643401
 20
116.5107278290523
 30
0.0
 10
111.8897693157579
 20
116.6297587373488
 30
0.0
 10
111.8772731746875
 20
116.8105397314649
 30
0.0
 10
111.8563535707231
 20
116.9968029497065
 30
0.0
 10
111.8254328291783
 20
117.1879750382562
 30
0.0
 10
111.7839081845287
 20
117.3834819774829
 30
0.0
 10
111.7309079987112
 20
117.5826433295986
 30
0.0
 10
111.6656788188943
 20
117.7846616087569
 30
0.0
 10
111.5530887921588
 20
118.0781952232608
 30
0.0
 10
111.2930684011809
 20
118.6067280490899
 30
0.0
 10
110.8819890080268
 20
119.1466673087466
 30
0.0
 10
110.3976544397544
 20
119.5814866581785
 30
0.0
 10
110.0324997350751
 20
119.8408937996394
 30
0.0
 10
109.6596646659571
 20
120.0486439542891
 30
0.0
 10
109.2864171036313
 20
120.2083652219262
 30
0.0
 10
108.9191277932973
 20
120.3244024742274
 30
0.0
 10
108.5629349904742
 20
120.4006095915323
 30
0.0
 10
108.2220962893283
 20
120.4446146535218
 30
0.0
 10
107.9995178692302
 20
120.4498398802244
 30
0.0
 10
107.8920229159482
 20
120.4523634200178
 30
0.0
  0
LINE
  5
11B
330
1F
100
AcDbEntity
  8
0
  6
Continuous
 62
     7
370
    25
100
AcDbLine
 10
105.9322074138
 20
121.7498981153
 30
0.0
 11
105.9771493159
 21
120.4523636718
 31
0.0
  0
SPLINE
  5
11C
330
1F
100
AcDbEntity
  8
0
  6
Continuous
 62
     7
370
    25
100
AcDbSpline
210
0.0
220
0.0
230
1.0
 70
     8
 71
     3
 72
    13
 73
     9
 74
     0
 42
0.000000001
 43
0.00000001
 40
0.0
 40
0.0
 40
0.0
 40
0.0
 40
0.1618542298650875
 40
0.3254858841233149
 40
0.4910085196246548
 40
0.6585318472470939
 40
0.8281616954004768
 40
1.0
 40
1.0
 40
1.0
 40
1.0
 10
105.9771496366588
 20
120.4523634200178
 30
0.0
 10
105.9179278058579
 20
120.4516045439144
 30
0.0
 10
105.7988337916101
 20
120.4500784580056
 30
0.0
 10
105.6192213156707
 20
120.4375845267654
 30
0.0
 10
105.4381922747609
 20
120.4173522578941
 30
0.0
 10
105.2561862809664
 20
120.3881983126857
 30
0.0
 10
105.0734020369802
 20
120.3508376020228
 30
0.0
 10
104.952753006097
 20
120.3185938912498
 30
0.0
 10
104.8920383398788
 20
120.3023677672362
 30
0.0
  0
SPLINE
  5
11D
330
1F
100
AcDbEntity
  8
0
  6
Continuous
 62
     7
370
    25
100
AcDbSpline
210
0.0
220
0.0
230
1.0
 70
    24
 71
     3
 72
     9
 73
     5
 74
     0
 42
0.000000001
 43
0.00000001
 40
0.0
 40
0.0
 40
0.0
 40
0.0
 40
0.4907282259506041
 40
1.0
 40
1.0
 40
1.0
 40
1.0
 10
104.8920943367903
 20
120.3023634200179
 30
0.0
 10
104.8381888785598
 20
120.3023634200179
 30
0.0
 10
104.7283409925409
 20
120.3023634200179
 30
0.0
 10
104.6203985164319
 20
120.3023634200179
 30
0.0
 10
104.5654264601285
 20
120.3023634200179
 30
0.0
  0
SPLINE
  5
11E
330
1F
100
AcDbEntity
  8
0
  6
Continuous
 62
     7
370
    25
100
AcDbSpline
210
0.0
220
0.0
230
1.0
 70
     8
 71
     3
 72
    14
 73
    10
 74
     0
 42
0.000000001
 43
0.00000001
 40
0.0
 40
0.0
 40
0.0
 40
0.0
 40
0.0310276388093398
 40
0.0622853718693698
 40
0.1248003166924349
 40
0.2498289731770658
 40
0.4998892603621822
 40
0.7606803621577949
 40
1.0
 40
1.0
 40
1.0
 40
1.0
 10
103.7367620646131
 20
121.2158397692491
 30
0.0
 10
103.7450520901527
 20
121.2062719246919
 30
0.0
 10
103.7616936182662
 20
121.1870652825141
 30
0.0
 10
103.7949434746452
 20
121.148476654518
 30
0.0
 10
103.8534460202456
 20
121.0809467616105
 30
0.0
 10
103.9709823140956
 20
120.9461092438869
 30
0.0
 10
104.1439098378441
 20
120.7511758941563
 30
0.0
 10
104.3515573599959
 20
120.5228868703609
 30
0.0
 10
104.4953679435068
 20
120.3733172443482
 30
0.0
 10
104.5641860952398
 20
120.3017431990567
 30
0.0
  0
SPLINE
  5
11F
330
1F
100
AcDbEntity
  8
0
  6
Continuous
 62
     7
370
    25
100
AcDbSpline
210
0.0
220
0.0
230
1.0
 70
     8
 71
     3
 72
    13
 73
     9
 74
     0
 42
0.000000001
 43
0.00000001
 40
0.0
 40
0.0
 40
0.0
 40
0.0
 40
0.1722587823402174
 40
0.3421398270982735
 40
0.5097456257612809
 40
0.6751828993009421
 40
0.8385626189970466
 40
1.0
 40
1.0
 40
1.0
 40
1.0
 10
104.8920412848585
 20
104.1773582427677
 30
0.0
 10
104.9529046745211
 20
104.1610945150706
 30
0.0
 10
105.0737913389506
 20
104.1287915525939
 30
0.0
 10
105.2568524969048
 20
104.091403897902
 30
0.0
 10
105.438955179839
 20
104.0622709629905
 30
0.0
 10
105.6198966281615
 20
104.0420842473821
 30
0.0
 10
105.799235631876
 20
104.0296374430784
 30
0.0
 10
105.9180818603056
 20
104.0281183998505
 30
0.0
 10
105.9771496366588
 20
104.0273634200178
 30
0.0
  0
LINE
  5
120
330
1F
100
AcDbEntity
  8
0
  6
Continuous
 62
     7
370
    25
100
AcDbLine
 10
105.9322074138
 20
102.7298287248
 30
0.0
 11
105.9771493159
 21
104.0273631682
 31
0.0
  0
SPLINE
  5
121
330
1F
100
AcDbEntity
  8
0
  6
Continuous
 62
     7
370
    25
100
AcDbSpline
210
0.0
220
0.0
230
1.0
 70
     8
 71
     3
 72
    11
 73
     7
 74
     0
 42
0.000000001
 43
0.00000001
 40
0.0
 40
0.0
 40
0.0
 40
0.0
 40
0.239284509383631
 40
0.5001120454057238
 40
0.7515010915050501
 40
1.0
 40
1.0
 40
1.0
 40
1.0
 10
104.5654546269292
 20
104.1779349924111
 30
0.0
 10
104.4966449939469
 20
104.1063392943051
 30
0.0
 10
104.3528307270599
 20
103.9567020649069
 30
0.0
 10
104.1451289942483
 20
103.7276455364
 30
0.0
 10
103.9371886825249
 20
103.4951835490441
 30
0.0
 10
103.8042204728884
 20
103.3403145576536
 30
0.0
 10
103.7381207506295
 20
103.263327754978
 30
0.0
  0
SPLINE
  5
122
330
1F
100
AcDbEntity
  8
0
  6
Continuous
 62
     7
370
    25
100
AcDbSpline
210
0.0
220
0.0
230
1.0
 70
    24
 71
     3
 72
     9
 73
     5
 74
     0
 42
0.000000001
 43
0.00000001
 40
0.0
 40
0.0
 40
0.0
 40
0.0
 40
0.509066935386983
 40
0.9999999999999999
 40
0.9999999999999999
 40
0.9999999999999999
 40
0.9999999999999999
 10
104.5674027493448
 20
104.1773634200179
 30
0.0
 10
104.6220306120519
 20
104.1773634200179
 30
0.0
 10
104.7293403957165
 20
104.1773634200179
 30
0.0
 10
104.8385219039608
 20
104.1773634200179
 30
0.0
 10
104.8921227164023
 20
104.1773634200179
 30
0.0
  0
LINE
  5
123
330
1F
100
AcDbEntity
  8
0
  6
Continuous
 62
     7
370
    25
100
AcDbLine
 10
98.3436159872
 20
121.2199737077
 30
0.0
 11
98.3181201004
 21
120.322387362
 31
0.0
  0
LINE
  5
124
330
1F
100
AcDbEntity
  8
0
  6
Continuous
 62
     7
370
    25
100
AcDbLine
 10
104.5654244803
 20
120.3023629953
 30
0.0
 11
98.3920224093
 21
120.3023629953
 31
0.0
  0
SPLINE
  5
125
330
1F
100
AcDbEntity
  8
0
  6
Continuous
 62
     7
370
    25
100
AcDbSpline
210
0.0
220
0.0
230
1.0
 70
     8
 71
     3
 72
     8
 73
     4
 74
     0
 42
0.000000001
 43
0.00000001
 40
0.0
 40
0.0
 40
0.0
 40
0.0
 40
1.0
 40
1.0
 40
1.0
 40
1.0
 10
98.3920229160024
 20
120.3023634200026
 30
0.0
 10
98.36745888657377
 20
120.3092868186267
 30
0.0
 10
98.34282859547558
 20
120.3159751224444
 30
0.0
 10
98.31813655436353
 20
120.3224271063252
 30
0.0
  0
LINE
  5
126
330
1F
100
AcDbEntity
  8
0
  6
Continuous
 62
     7
370
    25
100
AcDbLine
 10
99.156386786
 20
104.0324407389
 30
0.0
 11
99.3285436265
 21
103.2602709477
 31
0.0
  0
SPLINE
  5
127
330
1F
100
AcDbEntity
  8
0
  6
Continuous
 62
     7
370
    25
100
AcDbSpline
210
0.0
220
0.0
230
1.0
 70
     8
 71
     3
 72
     8
 73
     4
 74
     0
 42
0.000000001
 43
0.00000001
 40
0.0
 40
0.0
 40
0.0
 40
0.0
 40
1.0
 40
1.0
 40
1.0
 40
1.0
 10
99.15445075931275
 20
104.0330513518406
 30
0.0
 10
99.18465224063252
 20
104.0805322489588
 30
0.0
 10
99.2138516254849
 20
104.1286505525321
 30
0.0
 10
99.24202291594824
 20
104.1773634200179
 30
0.0
  0
LINE
  5
128
330
1F
100
AcDbEntity
  8
0
  6
Continuous
 62
     7
370
    25
100
AcDbLine
 10
99.2420237594
 20
104.1773638447
 30
0.0
 11
104.5665960841
 21
104.1773638447
 31
0.0
  0
LINE
  5
129
330
1F
100
AcDbEntity
  8
0
  6
Continuous
 62
     7
370
    25
100
AcDbLine
 10
107.8920230352
 20
120.4523636718
 30
0.0
 11
105.9771493159
 21
120.4523636718
 31
0.0
  0
LINE
  5
12A
330
1F
100
AcDbEntity
  8
0
  6
Continuous
 62
     7
370
    25
100
AcDbLine
 10
105.9771493159
 20
104.0273631682
 30
0.0
 11
107.8920230352
 21
104.0273631682
 31
0.0
  0
SPLINE
  5
12B
330
1F
100
AcDbEntity
  8
0
  6
Continuous
 62
     7
370
    25
100
AcDbSpline
210
0.0
220
0.0
230
1.0
 70
     8
 71
     3
 72
    23
 73
    19
 74
     0
 42
0.000000001
 43
0.00000001
 40
0.0
 40
0.0
 40
0.0
 40
0.0
 40
0.0449850911547964
 40
0.0909520670823883
 40
0.1379394291328525
 40
0.1859832248994781
 40
0.235117176177667
 40
0.2853728096486027
 40
0.3367795876649756
 40
0.3893650370847659
 40
0.4431548745955978
 40
0.4981731273942729
 40
0.5575107591414307
 40
0.6265492282208773
 40
0.7053073139958764
 40
0.7937970254642376
 40
0.8920262116484563
 40
1.0
 40
1.0
 40
1.0
 40
1.0
 10
95.7793658797981
 20
102.1798634200179
 30
0.0
 10
95.84220963077439
 20
102.1807212233371
 30
0.0
 10
95.96926881655745
 20
102.1824555531569
 30
0.0
 10
96.16092504930799
 20
102.1966426883606
 30
0.0
 10
96.35529230991632
 20
102.2198681715209
 30
0.0
 10
96.55180901819405
 20
102.2534469118685
 30
0.0
 10
96.74990662191196
 20
102.2975908851
 30
0.0
 10
96.94895459387214
 20
102.3527858326281
 30
0.0
 10
97.14827359974637
 20
102.419402695047
 30
0.0
 10
97.34713929657524
 20
102.497803371859
 30
0.0
 10
97.54475443595621
 20
102.5882874628022
 30
0.0
 10
97.74400090313631
 20
102.6930793276122
 30
0.0
 10
97.95282938288233
 20
102.8186442641164
 30
0.0
 10
98.17764047911243
 20
102.9741582627274
 30
0.0
 10
98.41940720806068
 20
103.168727377936
 30
0.0
 10
98.67062191677005
 20
103.4082170453672
 30
0.0
 10
98.9256204009097
 20
103.6960574550932
 30
0.0
 10
99.07599252974484
 20
103.9175258647814
 30
0.0
 10
99.15473168687566
 20
104.0334930725681
 30
0.0
  0
SPLINE
  5
12C
330
1F
100
AcDbEntity
  8
0
  6
Continuous
 62
     7
370
    25
100
AcDbSpline
210
0.0
220
0.0
230
1.0
 70
     8
 71
     3
 72
    13
 73
     9
 74
     0
 42
0.000000001
 43
0.00000001
 40
0.0
 40
0.0
 40
0.0
 40
0.0
 40
0.1706320847381217
 40
0.3395984166493647
 40
0.5069574113007884
 40
0.672769183166934
 40
0.8370955448651839
 40
1.0
 40
1.0
 40
1.0
 40
1.0
 10
98.31812967808861
 20
120.3224289030764
 30
0.0
 10
98.26207574784098
 20
120.3363316492461
 30
0.0
 10
98.15051509974673
 20
120.3640014195214
 30
0.0
 10
97.98126936733792
 20
120.3962569364403
 30
0.0
 10
97.81212427840663
 20
120.4215943967545
 30
0.0
 10
97.64318901643843
 20
120.439307272424
 30
0.0
 10
97.47486078422445
 20
120.4503313293748
 30
0.0
 10
97.36272196705158
 20
120.4516880215352
 30
0.0
 10
97.30689619523767
 20
120.4523634200178
 30
0.0
  0
SPLINE
  5
12D
330
1F
100
AcDbEntity
  8
0
  6
Continuous
 62
     7
370
    25
100
AcDbSpline
210
0.0
220
0.0
230
1.0
 70
     8
 71
     3
 72
     8
 73
     4
 74
     0
 42
0.000000001
 43
0.00000001
 40
0.0
 40
0.0
 40
0.0
 40
0.0
 40
1.0
 40
1.0
 40
1.0
 40
1.0
 10
90.52836309437062
 20
120.9798651639434
 30
0.0
 10
90.8329163680795
 20
121.1060545105825
 30
0.0
 10
91.13746964178837
 20
121.2334992668456
 30
0.0
 10
91.44202291549726
 20
121.3621901313938
 30
0.0
  0
LINE
  5
12E
330
1F
100
AcDbEntity
  8
0
  6
Continuous
 62
     7
370
    25
100
AcDbLine
 10
97.3068974994
 20
120.4523636718
 30
0.0
 11
91.442023971
 21
120.4523636718
 31
0.0
  0
LINE
  5
12F
330
1F
100
AcDbEntity
  8
0
  6
Continuous
 62
     7
370
    25
100
AcDbLine
 10
91.442023971
 20
120.4523636718
 30
0.0
 11
90.5283629976
 21
120.9798647781
 31
0.0
  0
SPLINE
  5
130
330
1F
100
AcDbEntity
  8
0
  6
Continuous
 62
     7
370
    25
100
AcDbSpline
210
0.0
220
0.0
230
1.0
 70
    24
 71
     3
 72
     8
 73
     4
 74
     0
 42
0.000000001
 43
0.00000001
 40
0.0
 40
0.0
 40
0.0
 40
0.0
 40
1.0
 40
1.0
 40
1.0
 40
1.0
 10
89.94202291594821
 20
121.3183888238023
 30
0.0
 10
90.1365700484811
 20
121.2060669844643
 30
0.0
 10
90.3320310687203
 20
121.0932175118132
 30
0.0
 10
90.52836309437762
 20
120.9798651639494
 30
0.0
  0
LINE
  5
131
330
1F
100
AcDbEntity
  8
0
  6
Continuous
 62
     7
370
    25
100
AcDbLine
 10
89.9420246564
 20
121.3183884268
 30
0.0
 11
89.9420246564
 21
134.4429586773
 31
0.0
  0
LINE
  5
132
330
1F
100
AcDbEntity
  8
0
  6
Continuous
 62
     7
370
    25
100
AcDbLine
 10
90.5818879686
 20
101.6832652261
 30
0.0
 11
91.442023971
 21
102.1798631867
 31
0.0
  0
LINE
  5
133
330
1F
100
AcDbEntity
  8
0
  6
Continuous
 62
     7
370
    25
100
AcDbLine
 10
91.442023971
 20
102.1798631867
 30
0.0
 11
95.7793645643
 21
102.1798631867
 31
0.0
  0
SPLINE
  5
134
330
1F
100
AcDbEntity
  8
0
  6
Continuous
 62
     7
370
    25
100
AcDbSpline
210
0.0
220
0.0
230
1.0
 70
     8
 71
     3
 72
     8
 73
     4
 74
     0
 42
0.000000001
 43
0.00000001
 40
0.0
 40
0.0
 40
0.0
 40
0.0
 40
1.0
 40
1.0
 40
1.0
 40
1.0
 10
91.44202291570797
 20
101.3348852795003
 30
0.0
 10
91.15531163883917
 20
101.4517862177139
 30
0.0
 10
90.8686003619704
 20
101.5679142387786
 30
0.0
 10
90.5818890851016
 20
101.6832649212395
 30
0.0
  0
SPLINE
  5
135
330
1F
100
AcDbEntity
  8
0
  6
Continuous
 62
     7
370
    25
100
AcDbSpline
210
0.0
220
0.0
230
1.0
 70
     8
 71
     3
 72
     8
 73
     4
 74
     0
 42
0.000000001
 43
0.00000001
 40
0.0
 40
0.0
 40
0.0
 40
0.0
 40
1.0
 40
1.0
 40
1.0
 40
1.0
 10
143.1262207205183
 20
82.70311608705244
 30
0.0
 10
142.7908100950945
 20
83.36138313936168
 30
0.0
 10
142.4589677759847
 20
84.02043957734307
 30
0.0
 10
142.1327340410008
 20
84.68037994876431
 30
0.0
  0
LWPOLYLINE
  5
136
330
1F
100
AcDbEntity
  8
0
  6
Continuous
 62
     7
370
    25
100
AcDbPolyline
 90
       10
 70
   128
 43
0.0
 10
142.1327335842
 20
84.6803799962
 10
142.9088428699
 20
84.8370638435
 10
143.608218626
 20
85.0669645463
 10
144.2035768263
 20
85.3611116057
 10
144.671690286
 20
85.70803299
 10
144.9942957692
 20
86.0941891317
 10
145.1588073828
 20
86.5045186822
 10
145.1588073828
 20
86.9230103438
 10
144.9942957692
 20
87.3333398943
 10
144.8747307144
 20
87.5027847235
  0
LINE
  5
137
330
1F
100
AcDbEntity
  8
0
  6
Continuous
 62
     7
370
    25
100
AcDbLine
 10
89.9420246564
 20
90.0367681627
 30
0.0
 11
89.9420246564
 21
101.3138384317
 31
0.0
  0
SPLINE
  5
138
330
1F
100
AcDbEntity
  8
0
  6
Continuous
 62
     7
370
    25
100
AcDbSpline
210
0.0
220
0.0
230
1.0
 70
    24
 71
     3
 72
     8
 73
     4
 74
     0
 42
0.000000001
 43
0.00000001
 40
0.0
 40
0.0
 40
0.0
 40
0.0
 40
1.0
 40
1.0
 40
1.0
 40
1.0
 10
90.5818890851016
 20
101.6832649212395
 30
0.0
 10
90.36722352626185
 20
101.5593277030576
 30
0.0
 10
90.15390881792366
 20
101.4361703987764
 30
0.0
 10
89.94202291594821
 20
101.3138380162334
 30
0.0
  0
ARC
  5
139
330
1F
100
AcDbEntity
  8
0
  6
Continuous
 62
     7
370
    25
100
AcDbCircle
 10
138.1226069122
 20
86.7070134956
 30
0.0
 40
1.386778252398802
100
AcDbArc
 50
117.5067796727
 51
245.5898588898
  0
SPLINE
  5
13A
330
1F
100
AcDbEntity
  8
0
  6
Continuous
 62
     7
370
    25
100
AcDbSpline
210
0.0
220
0.0
230
1.0
 70
     8
 71
     3
 72
     8
 73
     4
 74
     0
 42
0.000000001
 43
0.00000001
 40
0.0
 40
0.0
 40
0.0
 40
0.0
 40
1.0
 40
1.0
 40
1.0
 40
1.0
 10
137.5494992498002
 20
85.44419882944032
 30
0.0
 10
137.1930459848692
 20
84.7000348562558
 30
0.0
 10
136.8277124921077
 20
83.95729563036622
 30
0.0
 10
136.4578251113781
 20
83.21586450546964
 30
0.0
  0
LINE
  5
13B
330
1F
100
AcDbEntity
  8
0
  6
Continuous
 62
     7
370
    25
100
AcDbLine
 10
137.9170227878
 20
138.3345664238
 30
0.0
 11
137.9170227878
 21
138.249803031
 31
0.0
  0
SPLINE
  5
13C
330
1F
100
AcDbEntity
  8
0
  6
Continuous
 62
     7
370
    25
100
AcDbSpline
210
0.0
220
0.0
230
1.0
 70
     8
 71
     3
 72
    16
 73
    12
 74
     0
 42
0.000000001
 43
0.00000001
 40
0.0
 40
0.0
 40
0.0
 40
0.0
 40
0.1250000000000001
 40
0.1250000000000001
 40
0.2500000000000003
 40
0.2500000000000003
 40
0.5000000000000002
 40
0.5000000000000002
 40
0.7500000000000001
 40
0.7500000000000001
 40
1.0
 40
1.0
 40
1.0
 40
1.0
 10
137.9170229159482
 20
138.2498024458082
 30
0.0
 10
137.9170229159482
 20
138.1804700971631
 30
0.0
 10
137.9267954795878
 20
138.1184735601604
 30
0.0
 10
137.9609915249883
 20
138.01279168217
 30
0.0
 10
137.9851767166991
 20
137.9686692472512
 30
0.0
 10
138.0728933807954
 20
137.8562626210104
 30
0.0
 10
138.1496035466448
 20
137.8082601148522
 30
0.0
 10
138.3286856468858
 20
137.7434343521395
 30
0.0
 10
138.4295684165056
 20
137.7275310806774
 30
0.0
 10
138.6583799147687
 20
137.7260263403067
 30
0.0
 10
138.7826775232035
 20
137.7406515170824
 30
0.0
 10
138.9170229159482
 20
137.775438427921
 30
0.0
  0
SPLINE
  5
13D
330
1F
100
AcDbEntity
  8
0
  6
Continuous
 62
     7
370
    25
100
AcDbSpline
210
0.0
220
0.0
230
1.0
 70
     8
 71
     3
 72
    12
 73
     8
 74
     0
 42
0.000000001
 43
0.00000001
 40
0.0
 40
0.0
 40
0.0
 40
0.0
 40
0.4999999999999983
 40
0.4999999999999983
 40
0.7499999999999991
 40
0.7499999999999991
 40
1.0
 40
1.0
 40
1.0
 40
1.0
 10
138.9170229159482
 20
137.775438427921
 30
0.0
 10
139.1768251428758
 20
137.8427106783433
 30
0.0
 10
139.4621491516492
 20
137.8964584878173
 30
0.0
 10
139.9020461848613
 20
137.9537346049755
 30
0.0
 10
140.0513866021682
 20
137.969147638596
 30
0.0
 10
140.3555454229546
 20
137.9927575122431
 30
0.0
 10
140.5115049296667
 20
138.0009712678258
 30
0.0
 10
140.6670229159482
 20
138.0053662431815
 30
0.0
  0
SPLINE
  5
13E
330
1F
100
AcDbEntity
  8
0
  6
Continuous
 62
     7
370
    25
100
AcDbSpline
210
0.0
220
0.0
230
1.0
 70
     8
 71
     3
 72
    14
 73
    10
 74
     0
 42
0.000000001
 43
0.00000001
 40
0.0
 40
0.0
 40
0.0
 40
0.0
 40
0.25
 40
0.25
 40
0.5
 40
0.5
 40
0.75
 40
0.75
 40
1.0
 40
1.0
 40
1.0
 40
1.0
 10
140.6670229159482
 20
138.0053662431815
 30
0.0
 10
140.8002523669716
 20
138.0091313392189
 30
0.0
 10
140.9319537295817
 20
138.0333933560565
 30
0.0
 10
141.1750313877988
 20
138.1196247067001
 30
0.0
 10
141.2859373283475
 20
138.1817808668719
 30
0.0
 10
141.4686344014251
 20
138.3345870938595
 30
0.0
 10
141.5420219309067
 20
138.4265728019176
 30
0.0
 10
141.640856209825
 20
138.6290421389964
 30
0.0
 10
141.6670229159482
 20
138.7408033673545
 30
0.0
 10
141.6670229159482
 20
138.8553573348805
 30
0.0
  0
LINE
  5
13F
330
1F
100
AcDbEntity
  8
0
  6
Continuous
 62
     7
370
    25
100
AcDbLine
 10
141.6670229368
 20
138.8553564196
 30
0.0
 11
141.6670229368
 21
138.9405649846
 31
0.0
  0
SPLINE
  5
140
330
1F
100
AcDbEntity
  8
0
  6
Continuous
 62
     7
370
    25
100
AcDbSpline
210
0.0
220
0.0
230
1.0
 70
     8
 71
     3
 72
    10
 73
     6
 74
     0
 42
0.000000001
 43
0.00000001
 40
0.0
 40
0.0
 40
0.0
 40
0.0
 40
0.5
 40
0.5
 40
1.0
 40
1.0
 40
1.0
 40
1.0
 10
141.6670229159482
 20
138.9405658996327
 30
0.0
 10
141.9182158058197
 20
139.3010721223988
 30
0.0
 10
142.1654851175215
 20
139.645163002308
 30
0.0
 10
142.6521064688324
 20
140.2966244173638
 30
0.0
 10
142.8914897765491
 20
140.6042098571681
 30
0.0
 10
143.1262207205182
 20
140.8876007870761
 30
0.0
  0
SPLINE
  5
141
330
1F
100
AcDbEntity
  8
0
  6
Continuous
 62
     7
370
    25
100
AcDbSpline
210
0.0
220
0.0
230
1.0
 70
     8
 71
     3
 72
     8
 73
     4
 74
     0
 42
0.000000001
 43
0.00000001
 40
0.0
 40
0.0
 40
0.0
 40
0.0
 40
1.0
 40
1.0
 40
1.0
 40
1.0
 10
142.1327340410008
 20
84.68037994876431
 30
0.0
 10
141.9786515737768
 20
84.89652685016226
 30
0.0
 10
141.8234249519323
 20
85.11817955948153
 30
0.0
 10
141.6670229159482
 20
85.34510980431997
 30
0.0
  0
LINE
  5
142
330
1F
100
AcDbEntity
  8
0
  6
Continuous
 62
     7
370
    25
100
AcDbLine
 10
141.6670229368
 20
85.3451096212
 30
0.0
 11
141.6670229368
 21
85.4305268024
 31
0.0
  0
SPLINE
  5
143
330
1F
100
AcDbEntity
  8
0
  6
Continuous
 62
     7
370
    25
100
AcDbSpline
210
0.0
220
0.0
230
1.0
 70
     8
 71
     3
 72
    14
 73
    10
 74
     0
 42
0.000000001
 43
0.00000001
 40
0.0
 40
0.0
 40
0.0
 40
0.0
 40
0.25
 40
0.25
 40
0.5
 40
0.5
 40
0.75
 40
0.75
 40
1.0
 40
1.0
 40
1.0
 40
1.0
 10
141.6670229159482
 20
85.43052587361738
 30
0.0
 10
141.6670229159482
 20
85.54465177781475
 30
0.0
 10
141.6409827591912
 20
85.65735919139848
 30
0.0
 10
141.5421915759899
 20
85.86155495521406
 30
0.0
 10
141.4694839285729
 20
85.95395914641605
 30
0.0
 10
141.2857121507063
 20
86.10951187472106
 30
0.0
 10
141.1766421200141
 20
86.17152134135354
 30
0.0
 10
140.9310177715554
 20
86.25941145007884
 30
0.0
 10
140.800462645968
 20
86.28321970250086
 30
0.0
 10
140.6670229159482
 20
86.28640426813195
 30
0.0
  0
SPLINE
  5
144
330
1F
100
AcDbEntity
  8
0
  6
Continuous
 62
     7
370
    25
100
AcDbSpline
210
0.0
220
0.0
230
1.0
 70
     8
 71
     3
 72
    12
 73
     8
 74
     0
 42
0.000000001
 43
0.00000001
 40
0.0
 40
0.0
 40
0.0
 40
0.0
 40
0.4999999999999987
 40
0.4999999999999987
 40
0.7499999999999993
 40
0.7499999999999993
 40
1.0
 40
1.0
 40
1.0
 40
1.0
 10
140.6670229159482
 20
86.28640426813192
 30
0.0
 10
140.3610147114956
 20
86.29370721464258
 30
0.0
 10
140.0606475261284
 20
86.31294158521526
 30
0.0
 10
139.6185480760889
 20
86.36045822674227
 30
0.0
 10
139.4719746428877
 20
86.3795740061154
 30
0.0
 10
139.1884435790391
 20
86.4235260897701
 30
0.0
 10
139.0507457868549
 20
86.44841232915851
 30
0.0
 10
138.9170229159482
 20
86.47628913802932
 30
0.0
  0
SPLINE
  5
145
330
1F
100
AcDbEntity
  8
0
  6
Continuous
 62
     7
370
    25
100
AcDbSpline
210
0.0
220
0.0
230
1.0
 70
     8
 71
     3
 72
    16
 73
    12
 74
     0
 42
0.000000001
 43
0.00000001
 40
0.0
 40
0.0
 40
0.0
 40
0.0
 40
0.2499999999999992
 40
0.2499999999999992
 40
0.4999999999999984
 40
0.4999999999999984
 40
0.7499999999999977
 40
0.7499999999999977
 40
0.8749999999999988
 40
0.8749999999999988
 40
1.0
 40
1.0
 40
1.0
 40
1.0
 10
138.9170229159482
 20
86.47628913802932
 30
0.0
 10
138.7832457472028
 20
86.50417726620893
 30
0.0
 10
138.6596672573646
 20
86.51128737946439
 30
0.0
 10
138.4286073100746
 20
86.49220569903667
 30
0.0
 10
138.3242899870333
 20
86.46586429907873
 30
0.0
 10
138.1424627838638
 20
86.37765308069828
 30
0.0
 10
138.0656980174675
 20
86.31666413371
 30
0.0
 10
137.9801923753376
 20
86.18823538164732
 30
0.0
 10
137.9574417254374
 20
86.14009812801066
 30
0.0
 10
137.9257114512115
 20
86.03073320309824
 30
0.0
 10
137.9170229159482
 20
85.96929935055049
 30
0.0
 10
137.9170229159482
 20
85.9038220263732
 30
0.0
  0
LINE
  5
146
330
1F
100
AcDbEntity
  8
0
  6
Continuous
 62
     7
370
    25
100
AcDbLine
 10
137.9170227878
 20
85.9038212096
 30
0.0
 11
137.9170227878
 21
85.8188529258
 31
0.0
  0
SPLINE
  5
147
330
1F
100
AcDbEntity
  8
0
  6
Continuous
 62
     7
370
    25
100
AcDbSpline
210
0.0
220
0.0
230
1.0
 70
     8
 71
     3
 72
     8
 73
     4
 74
     0
 42
0.000000001
 43
0.00000001
 40
0.0
 40
0.0
 40
0.0
 40
0.0
 40
1.0
 40
1.0
 40
1.0
 40
1.0
 10
137.9170229159483
 20
85.81885289962175
 30
0.0
 10
137.7902629029191
 20
85.68078258947467
 30
0.0
 10
137.6674104891874
 20
85.5547035386411
 30
0.0
 10
137.5494992498002
 20
85.44419882944032
 30
0.0
  0
LINE
  5
148
330
1F
100
AcDbEntity
  8
0
  6
Continuous
 62
     7
370
    25
100
AcDbLine
 10
90.5572190963
 20
120.9632043486
 30
0.0
 11
90.6936876558
 21
120.8844144588
 31
0.0
  0
LINE
  5
149
330
1F
100
AcDbEntity
  8
0
  6
Continuous
 62
     7
370
    25
100
AcDbLine
 10
141.6670229368
 20
138.9405649846
 30
0.0
 11
141.6670229368
 21
141.1874589269
 31
0.0
  0
LINE
  5
14A
330
1F
100
AcDbEntity
  8
0
  6
Continuous
 62
     7
370
    25
100
AcDbLine
 10
137.9170227878
 20
83.2922679131
 30
0.0
 11
137.9170227878
 21
85.8188529258
 31
0.0
  0
LINE
  5
14B
330
1F
100
AcDbEntity
  8
0
  6
Continuous
 62
     7
370
    25
100
AcDbLine
 10
141.6670229368
 20
83.2922679131
 30
0.0
 11
141.6670229368
 21
85.3451096212
 31
0.0
  0
LINE
  5
14C
330
1F
100
AcDbEntity
  8
0
  6
Continuous
 62
     7
370
    25
100
AcDbLine
 10
98.7706068985
 20
103.5868680795
 30
0.0
 11
99.2420237594
 21
104.1773638447
 31
0.0
  0
LINE
  5
14D
330
1F
100
AcDbEntity
  8
0
  6
Continuous
 62
     7
370
    25
100
AcDbLine
 10
104.407906168
 20
120.3023629953
 30
0.0
 11
104.2637523346
 21
120.3023629953
 31
0.0
  0
LINE
  5
14E
330
1F
100
AcDbEntity
  8
0
  6
Continuous
 62
     7
370
    25
100
AcDbLine
 10
104.2642440729
 20
104.1773638447
 30
0.0
 11
104.4098824345
 21
104.1773638447
 31
0.0
  0
DIMENSION
  5
14F
330
1F
100
AcDbEntity
  8
VERMASSUNG
100
AcDbDimension
  2
_D
 10
170.7510877962
 20
137.23986342
 30
0.0
 11
170.7510877962
 21
145.4176238161
 31
0.0
 70
   160
  1
%%c<>
 71
     2
 42
-1.0
  3
SLDDIMSTYLE0
100
AcDbAlignedDimension
 13
181.8920229159
 23
87.23986342
 33
0.0
 14
181.8920229159
 24
137.23986342
 34
0.0
 50
90.0
100
AcDbRotatedDimension
  0
DIMENSION
  5
15A
330
1F
100
AcDbEntity
  8
VERMASSUNG
100
AcDbDimension
  2
_D_1
 10
233.9997475787
 20
87.38986342
 30
0.0
 11
233.9997475787
 21
112.23986342
 31
0.0
 70
   160
  1
%%c<>
 71
     2
 42
-1.0
  3
SLDDIMSTYLE0
100
AcDbAlignedDimension
 13
201.3095566502
 23
137.08986342
 33
0.0
 14
201.311035328
 24
87.38986342
 34
0.0
 50
90.0
100
AcDbRotatedDimension
  0
DIMENSION
  5
165
330
1F
100
AcDbEntity
  8
VERMASSUNG
100
AcDbDimension
  2
_D_2
 10
79.9419979159
 20
80.76486342
 30
0.0
 11
79.9419979159
 21
112.23986342
 31
0.0
 70
   160
  1
%%c<>
 71
     2
 42
-1.0
  3
SLDDIMSTYLE0
100
AcDbAlignedDimension
 13
130.0920229159
 23
143.71486342
 33
0.0
 14
130.0920229159
 24
80.76486342
 34
0.0
 50
90.0
100
AcDbRotatedDimension
  0
DIMENSION
  5
170
330
1F
100
AcDbEntity
  8
VERMASSUNG
100
AcDbDimension
  2
_D_3
 10
219.8920229159
 20
155.8035852245
 30
0.0
 11
183.8920229159
 21
155.8035852245
 31
0.0
 70
   160
  1
<>
 71
     2
 42
-1.0
  3
SLDDIMSTYLE0
100
AcDbAlignedDimension
 13
147.8920229159
 23
143.71486342
 33
0.0
 14
219.8920229159
 24
131.23986342
 34
0.0
100
AcDbRotatedDimension
  0
DIMENSION
  5
17A
330
1F
100
AcDbEntity
  8
VERMASSUNG
100
AcDbDimension
  2
_D_4
 10
219.8920229159
 20
163.7201765364
 30
0.0
 11
174.8920229159
 21
163.7201765364
 31
0.0
 70
   160
  1
<>
 71
     2
 42
-1.0
  3
SLDDIMSTYLE0
100
AcDbAlignedDimension
 13
129.8920229159
 23
143.51486342
 33
0.0
 14
219.8920229159
 24
131.23986342
 34
0.0
100
AcDbRotatedDimension
  0
DIMENSION
  5
184
330
1F
100
AcDbEntity
  8
VERMASSUNG
100
AcDbDimension
  2
_D_5
 10
219.8920229159
 20
171.71486342
 30
0.0
 11
154.9170229159
 21
171.71486342
 31
0.0
 70
   160
  1
<>
 71
     2
 42
-1.0
  3
SLDDIMSTYLE0
100
AcDbAlignedDimension
 13
89.9420229159
 23
134.4429581438
 33
0.0
 14
219.8920229159
 24
131.23986342
 34
0.0
100
AcDbRotatedDimension
  0
LINE
  5
18E
330
1F
100
AcDbEntity
  8
VERMASSUNG
  6
CENTERX2
370
    18
100
AcDbLine
 10
221.8920229159
 20
112.23986342
 30
0.0
 11
87.9420229159
 21
112.23986342
 31
0.0
  0
LINE
  5
18F
330
1F
100
AcDbEntity
  8
0
  6
Continuous
 62
     7
370
    25
100
AcDbLine
 10
259.6353511193
 20
24.8432432535
 30
0.0
 11
266.2193974506
 21
21.0423542106
 31
0.0
  0
LINE
  5
190
330
1F
100
AcDbEntity
  8
0
  6
Continuous
 62
     7
370
    25
100
AcDbLine
 10
278.6433875027
 20
42.5636677297
 30
0.0
 11
272.0593411714
 21
46.3645567725
 31
0.0
  0
LINE
  5
191
330
1F
100
AcDbEntity
  8
0
  6
Continuous
 62
     7
370
    25
100
AcDbLine
 10
265.8459182054
 20
45.7485951444
 30
0.0
 11
265.6691698831
 21
45.6465280952
 31
0.0
  0
LINE
  5
192
330
1F
100
AcDbEntity
  8
0
  6
Continuous
 62
     7
370
    25
100
AcDbLine
 10
257.061543838
 20
30.7360667418
 30
0.0
 11
257.0615444966
 21
30.5319646803
 31
0.0
  0
LINE
  5
193
330
1F
100
AcDbEntity
  8
0
  6
Continuous
 62
     7
370
    25
100
AcDbLine
 10
267.1594776383
 20
46.3931148945
 30
0.0
 11
266.6042982763
 21
46.7136131182
 31
0.0
  0
LINE
  5
194
330
1F
100
AcDbEntity
  8
0
  6
Continuous
 62
     7
370
    25
100
AcDbLine
 10
256.6051112494
 20
29.3926363817
 30
0.0
 11
257.1602906114
 21
29.072138158
 31
0.0
  0
SPLINE
  5
195
330
1F
100
AcDbEntity
  8
0
  6
Continuous
 62
     7
370
    25
100
AcDbSpline
210
0.0
220
0.0
230
1.0
 70
     8
 71
     3
 72
    13
 73
     9
 74
     0
 42
0.000000001
 43
0.00000001
 40
0.0
 40
0.0
 40
0.0
 40
0.0
 40
0.1390802366501651
 40
0.336787834498239
 40
0.5350882975705487
 40
0.7354195024306296
 40
0.9386978512793307
 40
1.0
 40
1.0
 40
1.0
 40
1.0
 10
253.955250638534
 20
28.04883856358968
 30
0.0
 10
254.1025130484358
 20
27.96495140177566
 30
0.0
 10
254.4591143120543
 20
27.76181559865928
 30
0.0
 10
255.082642227377
 20
27.55081283610509
 30
0.0
 10
255.8069813541233
 20
27.40035226093298
 30
0.0
 10
256.568889207141
 20
27.35931007328858
 30
0.0
 10
257.1700865740202
 20
27.38275196529825
 30
0.0
 10
257.5196140789555
 20
27.45199494721543
 30
0.0
 10
257.6005980792365
 20
27.46803824448921
 30
0.0
  0
SPLINE
  5
196
330
1F
100
AcDbEntity
  8
0
  6
Continuous
 62
     7
370
    25
100
AcDbSpline
210
0.0
220
0.0
230
1.0
 70
     8
 71
     3
 72
    13
 73
     9
 74
     0
 42
0.000000001
 43
0.00000001
 40
0.0
 40
0.0
 40
0.0
 40
0.0
 40
0.0152731466570361
 40
0.2280092635671376
 40
0.4379528351564251
 40
0.6444161926009726
 40
0.8473818413431401
 40
1.0
 40
1.0
 40
1.0
 40
1.0
 10
268.7718145476788
 20
46.82462999247622
 30
0.0
 10
268.7655342857263
 20
46.84422605395292
 30
0.0
 10
268.6717777118549
 20
47.13677111008641
 30
0.0
 10
268.4135306504177
 20
47.64014733123543
 30
0.0
 10
267.9950521073292
 20
48.31820647005449
 30
0.0
 10
267.494366449024
 20
48.89810718778156
 30
0.0
 10
266.9827692379504
 20
49.35867181779733
 30
0.0
 10
266.6129573576242
 20
49.58028270509224
 30
0.0
 10
266.4542324465052
 20
49.67539908793504
 30
0.0
  0
LINE
  5
197
330
1F
100
AcDbEntity
  8
0
  6
Continuous
 62
     7
370
    25
100
AcDbLine
 10
266.4399828604
 20
49.6951438361
 30
0.0
 11
255.8333807212
 21
55.8182049181
 31
0.0
  0
LINE
  5
198
330
1F
100
AcDbEntity
  8
0
  6
Continuous
 62
     7
370
    25
100
AcDbLine
 10
243.3343969376
 20
34.166983237
 30
0.0
 11
253.9409990768
 21
28.043922155
 31
0.0
  0
LINE
  5
199
330
1F
100
AcDbEntity
  8
0
  6
Continuous
 62
     7
370
    25
100
AcDbLine
 10
238.6165992289
 20
33.1522678021
 30
0.0
 11
240.3015643779
 21
32.1795581263
 31
0.0
  0
LINE
  5
19A
330
1F
100
AcDbEntity
  8
0
  6
Continuous
 62
     7
370
    25
100
AcDbLine
 10
256.0377856925
 20
59.4384465201
 30
0.0
 11
254.3528205434
 21
60.4111561959
 31
0.0
  0
LINE
  5
19B
330
1F
100
AcDbEntity
  8
0
  6
Continuous
 62
     7
370
    25
100
AcDbLine
 10
234.0083142975
 20
35.8125740668
 30
0.0
 11
236.2589652739
 21
34.5133009139
 31
0.0
  0
LINE
  5
19C
330
1F
100
AcDbEntity
  8
0
  6
Continuous
 62
     7
370
    25
100
AcDbLine
 10
251.9951865885
 20
61.7721893077
 30
0.0
 11
249.7445356121
 21
63.0714624606
 31
0.0
  0
LINE
  5
19D
330
1F
100
AcDbEntity
  8
0
  6
Continuous
 62
     7
370
    25
100
AcDbLine
 10
242.9671464218
 20
62.8513443682
 30
0.0
 11
233.7699342382
 21
67.4319969781
 31
0.0
  0
LINE
  5
19E
330
1F
100
AcDbEntity
  8
0
  6
Continuous
 62
     7
370
    25
100
AcDbLine
 10
222.2435864486
 20
47.4656135224
 30
0.0
 11
230.8096864542
 21
41.791723926
 31
0.0
  0
LINE
  5
19F
330
1F
100
AcDbEntity
  8
0
  6
Continuous
 62
     7
370
    25
100
AcDbLine
 10
227.2230238903
 20
48.4121033881
 30
0.0
 11
227.2230238903
 21
48.0467846831
 31
0.0
  0
LINE
  5
1A0
330
1F
100
AcDbEntity
  8
0
  6
Continuous
 62
     7
370
    25
100
AcDbLine
 10
231.1209906506
 20
67.8089653548
 30
0.0
 11
230.4814405418
 21
67.7217535993
 31
0.0
  0
LINE
  5
1A1
330
1F
100
AcDbEntity
  8
0
  6
Continuous
 62
     7
370
    25
100
AcDbLine
 10
280.5918369679
 20
32.7547501167
 30
0.0
 11
280.4948992163
 21
32.5383436715
 31
0.0
  0
LINE
  5
1A2
330
1F
100
AcDbEntity
  8
0
  6
Continuous
 62
     7
370
    25
100
AcDbLine
 10
280.4948992163
 20
32.5383436715
 30
0.0
 11
280.2378080502
 21
32.1916617942
 31
0.0
  0
LINE
  5
1A3
330
1F
100
AcDbEntity
  8
0
  6
Continuous
 62
     7
370
    25
100
AcDbLine
 10
280.2378080502
 20
32.1916617942
 30
0.0
 11
280.1608643685
 21
32.022549408
 31
0.0
  0
SPLINE
  5
1A4
330
1F
100
AcDbEntity
  8
0
  6
Continuous
 62
     7
370
    25
100
AcDbSpline
210
0.0
220
0.0
230
1.0
 70
     8
 71
     3
 72
     9
 73
     5
 74
     0
 42
0.000000001
 43
0.00000001
 40
0.0
 40
0.0
 40
0.0
 40
0.0
 40
0.5000513205392264
 40
1.0
 40
1.0
 40
1.0
 40
1.0
 10
280.1608643684717
 20
32.02254940801782
 30
0.0
 10
280.0425337037375
 20
31.67336008554812
 30
0.0
 10
279.8058966629502
 20
30.97505311558922
 30
0.0
 10
279.5222872036873
 20
30.30386305766952
 30
0.0
 10
279.3804970290462
 20
29.96830247454538
 30
0.0
  0
LINE
  5
1A5
330
1F
100
AcDbEntity
  8
0
  6
Continuous
 62
     7
370
    25
100
AcDbLine
 10
279.3535256802
 20
29.8638682386
 30
0.0
 11
279.380497029
 21
29.9683024745
 31
0.0
  0
LINE
  5
1A6
330
1F
100
AcDbEntity
  8
0
  6
Continuous
 62
     7
370
    25
100
AcDbLine
 10
279.4915170964
 20
29.8970304262
 30
0.0
 11
279.3535256802
 21
29.8638682386
 31
0.0
  0
LINE
  5
1A7
330
1F
100
AcDbEntity
  8
0
  6
Continuous
 62
     7
370
    25
100
AcDbLine
 10
279.4559069607
 20
29.7645166146
 30
0.0
 11
279.4915170964
 21
29.8970304262
 31
0.0
  0
ARC
  5
1A8
330
1F
100
AcDbEntity
  8
0
  6
Continuous
 62
     7
370
    25
100
AcDbCircle
 10
261.6243773887
 20
37.972840728
 30
0.0
 40
19.63007976613142
100
AcDbArc
 50
307.9352737902
 51
335.2821356476
  0
LINE
  5
1A9
330
1F
100
AcDbEntity
  8
0
  6
Continuous
 62
     7
370
    25
100
AcDbLine
 10
273.6923787689
 20
22.490483856
 30
0.0
 11
273.6428012334
 21
22.5154840028
 31
0.0
  0
LINE
  5
1AA
330
1F
100
AcDbEntity
  8
0
  6
Continuous
 62
     7
370
    25
100
AcDbLine
 10
273.6428012334
 20
22.5154840028
 30
0.0
 11
273.9167031475
 21
23.0021641634
 31
0.0
  0
LINE
  5
1AB
330
1F
100
AcDbEntity
  8
0
  6
Continuous
 62
     7
370
    25
100
AcDbLine
 10
273.9167031475
 20
23.0021641634
 30
0.0
 11
273.8768890283
 21
23.0223101112
 31
0.0
  0
SPLINE
  5
1AC
330
1F
100
AcDbEntity
  8
0
  6
Continuous
 62
     7
370
    25
100
AcDbSpline
210
0.0
220
0.0
230
1.0
 70
     8
 71
     3
 72
     9
 73
     5
 74
     0
 42
0.000000001
 43
0.00000001
 40
0.0
 40
0.0
 40
0.0
 40
0.0
 40
0.1217959066396428
 40
1.0
 40
1.0
 40
1.0
 40
1.0
 10
273.8768890282797
 20
23.02231011119258
 30
0.0
 10
273.8158704127862
 20
22.98208946394806
 30
0.0
 10
273.3148797212519
 20
22.65185958714669
 30
0.0
 10
272.7659927825104
 20
22.34806123093309
 30
0.0
 10
272.2839580261156
 20
22.08126427095018
 30
0.0
  0
LINE
  5
1AD
330
1F
100
AcDbEntity
  8
0
  6
Continuous
 62
     7
370
    25
100
AcDbLine
 10
272.1116544654
 20
21.9358075734
 30
0.0
 11
272.2839580261
 21
22.081264271
 31
0.0
  0
LINE
  5
1AE
330
1F
100
AcDbEntity
  8
0
  6
Continuous
 62
     7
370
    25
100
AcDbLine
 10
271.5946392394
 20
21.3055050111
 30
0.0
 11
272.1116544654
 21
21.9358075734
 31
0.0
  0
LINE
  5
1AF
330
1F
100
AcDbEntity
  8
0
  6
Continuous
 62
     7
370
    25
100
AcDbLine
 10
271.3736521174
 20
21.1206647926
 30
0.0
 11
271.5946392394
 21
21.3055050111
 31
0.0
  0
LWPOLYLINE
  5
1B0
330
1F
100
AcDbEntity
  8
0
  6
Continuous
 62
     7
370
    25
100
AcDbPolyline
 90
        9
 70
   128
 43
0.0
 10
271.3736521174
 20
21.1206647926
 10
270.5269676996
 20
20.7993047505
 10
269.6984885802
 20
20.5831327938
 10
268.8961345799
 20
20.474217494
 10
268.1275752728
 20
20.4735977792
 10
267.4001578752
 20
20.5812808498
 10
266.720836288
 20
20.7962369569
 10
266.0961047478
 20
21.1164120513
 10
265.5319342776
 20
21.5387443291
  0
LINE
  5
1B1
330
1F
100
AcDbEntity
  8
0
  6
Continuous
 62
     7
370
    25
100
AcDbLine
 10
265.5319342776
 20
21.5387443291
 30
0.0
 11
265.6665776536
 21
21.7297634257
 31
0.0
  0
LINE
  5
1B2
330
1F
100
AcDbEntity
  8
0
  6
Continuous
 62
     7
370
    25
100
AcDbLine
 10
265.6665776536
 20
21.7297634257
 30
0.0
 11
266.6010747009
 21
22.3301878665
 31
0.0
  0
LINE
  5
1B3
330
1F
100
AcDbEntity
  8
0
  6
Continuous
 62
     7
370
    25
100
AcDbLine
 10
266.6010747009
 20
22.3301878665
 30
0.0
 11
266.7056864716
 21
22.4804897411
 31
0.0
  0
SPLINE
  5
1B4
330
1F
100
AcDbEntity
  8
0
  6
Continuous
 62
     7
370
    25
100
AcDbSpline
210
0.0
220
0.0
230
1.0
 70
     8
 71
     3
 72
     9
 73
     5
 74
     0
 42
0.000000001
 43
0.00000001
 40
0.0
 40
0.0
 40
0.0
 40
0.0
 40
0.5000512130192775
 40
1.0
 40
1.0
 40
1.0
 40
1.0
 10
266.7056864716217
 20
22.48048974113623
 30
0.0
 10
266.5819890929295
 20
22.65926253893247
 30
0.0
 10
266.334619672615
 20
23.01677151629667
 30
0.0
 10
266.0402779965587
 20
23.40139755863902
 30
0.0
 10
265.8931222326565
 20
23.59369088194926
 30
0.0
  0
LINE
  5
1B5
330
1F
100
AcDbEntity
  8
0
  6
Continuous
 62
     7
370
    25
100
AcDbLine
 10
265.6803083065
 20
23.5916251649
 30
0.0
 11
265.8931222327
 21
23.5936908819
 31
0.0
  0
LINE
  5
1B6
330
1F
100
AcDbEntity
  8
0
  6
Continuous
 62
     7
370
    25
100
AcDbLine
 10
264.6217981087
 20
23.1610978694
 30
0.0
 11
265.6803083065
 21
23.5916251649
 31
0.0
  0
LINE
  5
1B7
330
1F
100
AcDbEntity
  8
0
  6
Continuous
 62
     7
370
    25
100
AcDbLine
 10
264.3491376334
 20
23.1591595284
 30
0.0
 11
264.6217981087
 21
23.1610978694
 31
0.0
  0
LWPOLYLINE
  5
1B8
330
1F
100
AcDbEntity
  8
0
  6
Continuous
 62
     7
370
    25
100
AcDbPolyline
 90
        9
 70
   128
 43
0.0
 10
264.3491376334
 20
23.1591595284
 10
264.051353685
 20
23.91769274
 10
263.8336777248
 20
24.7516048322
 10
263.6981914119
 20
25.6529244378
 10
263.6461887863
 20
26.6130349986
 10
263.6781677076
 20
27.6227587621
 10
263.7938226112
 20
28.672443451
 10
263.9920478008
 20
29.7520545879
 10
264.2709479854
 20
30.8512718236
  0
LINE
  5
1B9
330
1F
100
AcDbEntity
  8
0
  6
Continuous
 62
     7
370
    25
100
AcDbLine
 10
264.2709479854
 20
30.8512718236
 30
0.0
 11
264.5424527151
 21
30.9669028974
 31
0.0
  0
LINE
  5
1BA
330
1F
100
AcDbEntity
  8
0
  6
Continuous
 62
     7
370
    25
100
AcDbLine
 10
264.5424527151
 20
30.9669028974
 30
0.0
 11
265.6065506631
 21
30.8477096759
 31
0.0
  0
LINE
  5
1BB
330
1F
100
AcDbEntity
  8
0
  6
Continuous
 62
     7
370
    25
100
AcDbLine
 10
265.6065506631
 20
30.8477096759
 30
0.0
 11
265.8184590905
 21
30.9389085729
 31
0.0
  0
SPLINE
  5
1BC
330
1F
100
AcDbEntity
  8
0
  6
Continuous
 62
     7
370
    25
100
AcDbSpline
210
0.0
220
0.0
230
1.0
 70
     8
 71
     3
 72
     9
 73
     5
 74
     0
 42
0.000000001
 43
0.00000001
 40
0.0
 40
0.0
 40
0.0
 40
0.0
 40
0.5000513205392264
 40
1.0
 40
1.0
 40
1.0
 40
1.0
 10
265.8184590905194
 20
30.9389085728627
 30
0.0
 10
265.9602776938596
 20
31.27453859699299
 30
0.0
 10
266.2438857906988
 20
31.9457297534694
 30
0.0
 10
266.4805209796932
 20
32.64403748039928
 30
0.0
 10
266.5988264299449
 20
32.99315550633514
 30
0.0
  0
LINE
  5
1BD
330
1F
100
AcDbEntity
  8
0
  6
Continuous
 62
     7
370
    25
100
AcDbLine
 10
266.4908330332
 20
33.1755032315
 30
0.0
 11
266.5988264299
 21
32.9931555063
 31
0.0
  0
LINE
  5
1BE
330
1F
100
AcDbEntity
  8
0
  6
Continuous
 62
     7
370
    25
100
AcDbLine
 10
265.5458348351
 20
33.6082161427
 30
0.0
 11
266.4908330332
 21
33.1755032315
 31
0.0
  0
LINE
  5
1BF
330
1F
100
AcDbEntity
  8
0
  6
Continuous
 62
     7
370
    25
100
AcDbLine
 10
265.4068779927
 20
33.8415053257
 30
0.0
 11
265.5458348351
 21
33.6082161427
 31
0.0
  0
ARC
  5
1C0
330
1F
100
AcDbEntity
  8
0
  6
Continuous
 62
     7
370
    25
100
AcDbCircle
 10
283.2384075646
 20
25.6331812123
 30
0.0
 40
19.63007976613174
100
AcDbArc
 50
127.9352737902
 51
155.2821356476
  0
LINE
  5
1C1
330
1F
100
AcDbEntity
  8
0
  6
Continuous
 62
     7
370
    25
100
AcDbLine
 10
271.1704061844
 20
41.1155380843
 30
0.0
 11
271.3945506981
 21
40.989762566
 31
0.0
  0
LINE
  5
1C2
330
1F
100
AcDbEntity
  8
0
  6
Continuous
 62
     7
370
    25
100
AcDbLine
 10
271.3945506981
 20
40.989762566
 30
0.0
 11
271.9276555658
 21
40.0372073067
 31
0.0
  0
LINE
  5
1C3
330
1F
100
AcDbEntity
  8
0
  6
Continuous
 62
     7
370
    25
100
AcDbLine
 10
271.9276555658
 20
40.0372073067
 30
0.0
 11
272.1024344307
 21
39.9391478697
 31
0.0
  0
SPLINE
  5
1C4
330
1F
100
AcDbEntity
  8
0
  6
Continuous
 62
     7
370
    25
100
AcDbSpline
210
0.0
220
0.0
230
1.0
 70
     8
 71
     3
 72
     9
 73
     5
 74
     0
 42
0.000000001
 43
0.00000001
 40
0.0
 40
0.0
 40
0.0
 40
0.0
 40
0.1217959066396428
 40
1.0
 40
1.0
 40
1.0
 40
1.0
 10
273.6953654328755
 20
40.88019370993034
 30
0.0
 10
273.6343468173821
 20
40.83997306268582
 30
0.0
 10
273.1333561258477
 20
40.50974318588445
 30
0.0
 10
272.5844691871062
 20
40.20594482967087
 30
0.0
 10
272.1024344307114
 20
39.93914786968794
 30
0.0
  0
LINE
  5
1C5
330
1F
100
AcDbEntity
  8
0
  6
Continuous
 62
     7
370
    25
100
AcDbLine
 10
273.7327042479
 20
41.1035638967
 30
0.0
 11
273.6953654329
 21
40.8801937099
 31
0.0
  0
LINE
  5
1C6
330
1F
100
AcDbEntity
  8
0
  6
Continuous
 62
     7
370
    25
100
AcDbLine
 10
273.4427126921
 20
42.1997415577
 30
0.0
 11
273.7327042479
 21
41.1035638967
 31
0.0
  0
LINE
  5
1C7
330
1F
100
AcDbEntity
  8
0
  6
Continuous
 62
     7
370
    25
100
AcDbLine
 10
273.4891328359
 20
42.4853571477
 30
0.0
 11
273.4427126921
 21
42.1997415577
 31
0.0
  0
LWPOLYLINE
  5
1C8
330
1F
100
AcDbEntity
  8
0
  6
Continuous
 62
     7
370
    25
100
AcDbPolyline
 90
        9
 70
   128
 43
0.0
 10
273.4891328359
 20
42.4853571477
 10
274.3358172537
 20
42.8067171898
 10
275.1642963731
 20
43.0228891465
 10
275.9666503734
 20
43.1318044463
 10
276.7352096805
 20
43.1324241611
 10
277.4626270781
 20
43.0247410905
 10
278.1419486653
 20
42.8097849834
 10
278.7666802055
 20
42.489609889
 10
279.3308506757
 20
42.0672776111
  0
LINE
  5
1C9
330
1F
100
AcDbEntity
  8
0
  6
Continuous
 62
     7
370
    25
100
AcDbLine
 10
279.3308506757
 20
42.0672776111
 30
0.0
 11
279.3707742779
 21
41.7754831431
 31
0.0
  0
LINE
  5
1CA
330
1F
100
AcDbEntity
  8
0
  6
Continuous
 62
     7
370
    25
100
AcDbLine
 10
279.3707742779
 20
41.7754831431
 30
0.0
 11
279.2432840125
 21
40.7091836036
 31
0.0
  0
LINE
  5
1CB
330
1F
100
AcDbEntity
  8
0
  6
Continuous
 62
     7
370
    25
100
AcDbLine
 10
279.2432840125
 20
40.7091836036
 30
0.0
 11
279.2736369874
 21
40.4809682397
 31
0.0
  0
SPLINE
  5
1CC
330
1F
100
AcDbEntity
  8
0
  6
Continuous
 62
     7
370
    25
100
AcDbSpline
210
0.0
220
0.0
230
1.0
 70
     8
 71
     3
 72
     9
 73
     5
 74
     0
 42
0.000000001
 43
0.00000001
 40
0.0
 40
0.0
 40
0.0
 40
0.0
 40
0.5000512130192775
 40
1.0
 40
1.0
 40
1.0
 40
1.0
 10
279.2736369873694
 20
40.48096823974429
 30
0.0
 10
279.4208223012998
 20
40.28863614555274
 30
0.0
 10
279.7151627810313
 20
39.90401135276353
 30
0.0
 10
279.9625301901881
 20
39.54650297748647
 30
0.0
 10
280.0862012263346
 20
39.36776709893125
 30
0.0
  0
LINE
  5
1CD
330
1F
100
AcDbEntity
  8
0
  6
Continuous
 62
     7
370
    25
100
AcDbLine
 10
280.1640504068
 20
39.4477463052
 30
0.0
 11
280.0862012263
 21
39.3677670989
 31
0.0
  0
LINE
  5
1CE
330
1F
100
AcDbEntity
  8
0
  6
Continuous
 62
     7
370
    25
100
AcDbLine
 10
280.4155538228
 20
40.3441486994
 30
0.0
 11
280.1640504068
 21
39.4477463052
 31
0.0
  0
LINE
  5
1CF
330
1F
100
AcDbEntity
  8
0
  6
Continuous
 62
     7
370
    25
100
AcDbLine
 10
280.5136473199
 20
40.4468624119
 30
0.0
 11
280.4155538228
 21
40.3441486994
 31
0.0
  0
LWPOLYLINE
  5
1D0
330
1F
100
AcDbEntity
  8
0
  6
Continuous
 62
     7
370
    25
100
AcDbPolyline
 90
        9
 70
   128
 43
0.0
 10
280.5136473199
 20
40.4468624119
 10
280.8114312683
 20
39.6883292003
 10
281.0291072285
 20
38.8544171081
 10
281.1645935414
 20
37.9530975025
 10
281.216596167
 20
36.9929869417
 10
281.1846172457
 20
35.9832631782
 10
281.0689623421
 20
34.9335784893
 10
280.8707371525
 20
33.8539673524
 10
280.5918369679
 20
32.7547501167
  0
LWPOLYLINE
  5
1D1
330
1F
100
AcDbEntity
  8
0
  6
Continuous
 62
     7
370
    25
100
AcDbPolyline
 90
       56
 70
   128
 43
0.0
 10
266.9084635209
 20
27.1454645182
 10
266.9433117206
 20
28.0503588148
 10
267.0652728464
 20
28.995187912
 10
267.2727571718
 20
29.9676347001
 10
267.5630587375
 20
30.9550213757
 10
267.9323942051
 20
31.9444759386
 10
268.3759486267
 20
32.923100059
 10
268.8879386642
 20
33.8781348531
 10
269.4616906277
 20
34.7971302684
 10
270.0897244394
 20
35.6681061039
 10
270.7638527446
 20
36.4797084665
 10
271.4752871023
 20
37.2213551039
 10
272.2147532301
 20
37.8833787412
 10
272.9726108186
 20
38.4571487205
 10
273.7389800845
 20
38.9351851229
 10
274.5038702389
 20
39.3112557459
 10
275.2573096934
 20
39.5804588744
 10
275.9894763492
 20
39.7392832857
 10
276.6908254271
 20
39.7856599903
 10
277.352213201
 20
39.7189834722
 10
277.9650181709
 20
39.5401238446
 10
278.5212508748
 20
39.2514122956
 10
279.0136604085
 20
38.8566120858
 10
279.4358272801
 20
38.3608710108
 10
279.782248033
 20
37.7706514301
 10
280.0484060399
 20
37.0936473708
 10
280.2308320883
 20
36.3386851857
 10
280.3271481738
 20
35.5156069611
 10
280.3360977937
 20
34.6351422096
 10
280.257565044
 20
33.708769678
 10
280.092573303
 20
32.7485656824
 10
279.8432740355
 20
31.7670485945
 10
279.5129165002
 20
30.7770129928
 10
279.1058075781
 20
29.7913661899
 10
278.6272551379
 20
28.8229577997
 10
278.0834972426
 20
27.8844118714
 10
277.4816227944
 20
26.9879637779
 10
276.8294783512
 20
26.1453010974
 10
276.1355650641
 20
25.3674075386
 10
275.4089296881
 20
24.6644254968
 10
274.6590449746
 20
24.0455193244
 10
273.8956865433
 20
23.5187574828
 10
273.1288061337
 20
23.0910059112
 10
272.3684011304
 20
22.7678420589
 10
271.624384707
 20
22.5534791603
 10
270.906455948
 20
22.4507110302
 10
270.2239746642
 20
22.4608770586
 10
269.5858374627
 20
22.5838458012
 10
269.0003637363
 20
22.8180134216
 10
268.4751860157
 20
23.1603274661
 10
268.0171508589
 20
23.6063254663
 10
267.6322296184
 20
24.150192933
 10
267.3254394154
 20
24.7848395998
 10
267.1007809077
 20
25.5019923959
 10
266.9611826429
 20
26.2923017255
 10
266.9084635209
 20
27.1454645182
  0
LINE
  5
1D2
330
1F
100
AcDbEntity
  8
0
  6
Continuous
 62
     7
370
    25
100
AcDbLine
 10
269.3434502784
 20
44.8786087463
 30
0.0
 11
273.4891328359
 21
42.4853571477
 31
0.0
  0
SPLINE
  5
1D3
330
1F
100
AcDbEntity
  8
0
  6
Continuous
 62
     7
370
    25
100
AcDbSpline
210
0.0
220
0.0
230
1.0
 70
     8
 71
     3
 72
    17
 73
    13
 74
     0
 42
0.000000001
 43
0.00000001
 40
0.0
 40
0.0
 40
0.0
 40
0.0
 40
0.0838164201564288
 40
0.2002649229959316
 40
0.3144082838678968
 40
0.4226827845870135
 40
0.5326537160394227
 40
0.630535294395207
 40
0.7286821171784766
 40
0.8323795282206502
 40
0.942600237395286
 40
1.0
 40
1.0
 40
1.0
 40
1.0
 10
269.3434502783986
 20
44.87860874634727
 30
0.0
 10
269.2310203799975
 20
44.93597046632782
 30
0.0
 10
268.9623884710745
 20
45.07302643237098
 30
0.0
 10
268.4290218318949
 20
45.21167058744399
 30
0.0
 10
267.8203443889877
 20
45.25176286327638
 30
0.0
 10
267.2524895262845
 20
45.1588794077331
 30
0.0
 10
266.8169974845909
 20
44.9429119065621
 30
0.0
 10
266.5530314547649
 20
44.64334626394097
 30
0.0
 10
266.4607193262025
 20
44.30608268720467
 30
0.0
 10
266.5430563392809
 20
43.95485129085056
 30
0.0
 10
266.7571375472729
 20
43.6815993061704
 30
0.0
 10
266.9564658655747
 20
43.55287119137008
 30
0.0
 10
267.02472362687
 20
43.5087896829979
 30
0.0
  0
LINE
  5
1D4
330
1F
100
AcDbEntity
  8
0
  6
Continuous
 62
     7
370
    25
100
AcDbLine
 10
267.0247236269
 20
43.508789683
 30
0.0
 11
271.1704061844
 21
41.1155380843
 31
0.0
  0
LINE
  5
1D5
330
1F
100
AcDbEntity
  8
0
  6
Continuous
 62
     7
370
    25
100
AcDbLine
 10
261.2611954351
 20
36.2347569243
 30
0.0
 11
265.4068779927
 21
33.8415053257
 31
0.0
  0
SPLINE
  5
1D6
330
1F
100
AcDbEntity
  8
0
  6
Continuous
 62
     7
370
    25
100
AcDbSpline
210
0.0
220
0.0
230
1.0
 70
     8
 71
     3
 72
    17
 73
    13
 74
     0
 42
0.000000001
 43
0.00000001
 40
0.0
 40
0.0
 40
0.0
 40
0.0
 40
0.0838166035652901
 40
0.2002653737158925
 40
0.3144089624851921
 40
0.4226838009971627
 40
0.5327914192009245
 40
0.6306725246618142
 40
0.7288249176626703
 40
0.8325314900653997
 40
0.9427612021868037
 40
1.0
 40
1.0
 40
1.0
 40
1.0
 10
260.1252654278459
 20
33.24452342223095
 30
0.0
 10
260.0230535477895
 20
33.31478117368598
 30
0.0
 10
259.7788358213848
 20
33.48264999982636
 30
0.0
 10
259.4738674811935
 20
33.90955147717319
 30
0.0
 10
259.2793948315183
 20
34.47240257003357
 30
0.0
 10
259.2612128822649
 20
35.0735070436434
 30
0.0
 10
259.4244608304123
 20
35.61317412873976
 30
0.0
 10
259.7292209967217
 20
36.03101059687516
 30
0.0
 10
260.1211968773246
 20
36.30461358067407
 30
0.0
 10
260.5758618520135
 20
36.42297456818712
 30
0.0
 10
260.9717527009881
 20
36.37928558633507
 30
0.0
 10
261.1874668398859
 20
36.27157213495454
 30
0.0
 10
261.2611954351104
 20
36.23475692433529
 30
0.0
  0
LINE
  5
1D7
330
1F
100
AcDbEntity
  8
0
  6
Continuous
 62
     7
370
    25
100
AcDbLine
 10
260.1252654278
 20
33.2445234222
 30
0.0
 11
264.2709479854
 21
30.8512718236
 31
0.0
  0
LINE
  5
1D8
330
1F
100
AcDbEntity
  8
0
  6
Continuous
 62
     7
370
    25
100
AcDbLine
 10
260.2034550758
 20
25.552411127
 30
0.0
 11
264.3491376334
 21
23.1591595284
 31
0.0
  0
SPLINE
  5
1D9
330
1F
100
AcDbEntity
  8
0
  6
Continuous
 62
     7
370
    25
100
AcDbSpline
210
0.0
220
0.0
230
1.0
 70
     8
 71
     3
 72
    18
 73
    14
 74
     0
 42
0.000000001
 43
0.00000001
 40
0.0
 40
0.0
 40
0.0
 40
0.0
 40
0.0838022519469736
 40
0.2002310342297191
 40
0.3143550882352028
 40
0.4226112577629939
 40
0.523577952520165
 40
0.5374369289625146
 40
0.6352752828275502
 40
0.7336001766678167
 40
0.8375987152828248
 40
0.9480868961302097
 40
1.0
 40
1.0
 40
1.0
 40
1.0
 10
261.3862517200873
 20
23.9319959278192
 30
0.0
 10
261.2766138907322
 20
23.99670904862748
 30
0.0
 10
261.0146531981201
 20
24.15132989480561
 30
0.0
 10
260.5445219337253
 20
24.45641186008077
 30
0.0
 10
260.0557336606063
 20
24.81218940279686
 30
0.0
 10
259.667096316286
 20
25.15287229499727
 30
0.0
 10
259.4927847469493
 20
25.36315791624011
 30
0.0
 10
259.3892825736889
 20
25.53527599896981
 30
0.0
 10
259.3462395459697
 20
25.67909328017326
 30
0.0
 10
259.4335472411566
 20
25.79096505063527
 30
0.0
 10
259.6590154152785
 20
25.79419391850604
 30
0.0
 10
259.9401675048862
 20
25.69700541827921
 30
0.0
 10
260.1396792597998
 20
25.58743601971797
 30
0.0
 10
260.2034550758232
 20
25.55241112703706
 30
0.0
  0
LINE
  5
1DA
330
1F
100
AcDbEntity
  8
0
  6
Continuous
 62
     7
370
    25
100
AcDbLine
 10
261.3862517201
 20
23.9319959278
 30
0.0
 11
265.5319342776
 21
21.5387443291
 31
0.0
  0
LINE
  5
1DB
330
1F
100
AcDbEntity
  8
0
  6
Continuous
 62
     7
370
    25
100
AcDbLine
 10
279.2959669145
 20
41.1498143472
 30
0.0
 11
280.5136473199
 21
40.4468624119
 31
0.0
  0
LWPOLYLINE
  5
1DC
330
1F
100
AcDbEntity
  8
0
  6
Continuous
 62
     7
370
    25
100
AcDbPolyline
 90
       25
 70
   128
 43
0.0
 10
257.062142455
 20
30.4139240415
 10
257.0955905891
 20
31.4439202769
 10
257.2160173062
 20
32.5152600297
 10
257.4222260309
 20
33.617296278
 10
257.7121680312
 20
34.7390763622
 10
258.0829601994
 20
35.8694510261
 10
258.5309186373
 20
36.9971868673
 10
259.0515915842
 20
38.1110762214
 10
259.6398028802
 20
39.2000468541
 10
260.2897079428
 20
40.253278307
 10
260.9948477674
 20
41.2603018937
 10
261.7482134649
 20
42.2111094394
 10
262.5423180428
 20
43.0962517546
 10
263.3692696682
 20
43.9069311192
 10
264.2208495412
 20
44.6350918654
 10
265.08859413
 20
45.2734967492
 10
265.9638796296
 20
45.8158008021
 10
266.8380069141
 20
46.2566140615
 10
267.7022887112
 20
46.591555698
 10
268.5481351311
 20
46.817297306
 10
269.3671397707
 20
46.9315951207
 10
270.1511633492
 20
46.9333132039
 10
270.8924134742
 20
46.822434511
 10
271.5835236666
 20
46.6000608834
 10
272.0593411714
 20
46.3645567725
  0
LWPOLYLINE
  5
1DD
330
1F
100
AcDbEntity
  8
0
  6
Continuous
 62
     7
370
    25
100
AcDbPolyline
 90
        9
 70
   128
 43
0.0
 10
259.6353511193
 20
24.8432432535
 10
259.1833880722
 20
25.1452198489
 10
258.6464214171
 20
25.6342942614
 10
258.1810214279
 20
26.2224510338
 10
257.791812404
 20
26.9038451946
 10
257.482662636
 20
27.6717038884
 10
257.2566448925
 20
28.5183965324
 10
257.1160061274
 20
29.4355083939
 10
257.062142455
 20
30.4139240415
  0
LWPOLYLINE
  5
1DE
330
1F
100
AcDbEntity
  8
0
  6
Continuous
 62
     7
370
    25
100
AcDbPolyline
 90
       48
 70
   128
 43
0.0
 10
268.8351984688
 20
28.2837088243
 10
268.8704892104
 20
29.0419594733
 10
268.9906337412
 20
29.837179692
 10
269.1934878401
 20
30.6551785173
 10
269.4754318174
 20
31.481359061
 10
269.8314340637
 20
32.3009778457
 10
270.2551419294
 20
33.0994087243
 10
270.7389943358
 20
33.8624038031
 10
271.2743567765
 20
34.5763476141
 10
271.8516759109
 20
35.2284992129
 10
272.4606492219
 20
35.8072216798
 10
273.0904097784
 20
36.302187261
 10
273.729719395
 20
36.7045634028
 10
274.3671695699
 20
37.0071694356
 10
274.9913849759
 20
37.204605833
 10
275.5912264971
 20
37.29334899
 10
276.1559899866
 20
37.2718153913
 10
276.6755972439
 20
37.140389351
 10
277.1407756329
 20
36.901415676
 10
277.5432243648
 20
36.5591597259
 10
277.8757616824
 20
36.1197285016
 10
278.132453112
 20
35.5909636927
 10
278.3087184765
 20
34.9823014576
 10
278.4014119087
 20
34.3046029749
 10
278.4088794742
 20
33.5699619936
 10
278.3309878176
 20
32.7914880985
 10
278.1691271264
 20
31.9830733428
 10
277.9261854476
 20
31.1591435316
 10
277.6064986382
 20
30.3344024735
 10
277.2157710107
 20
29.5235666813
 10
276.7609752344
 20
28.7411065394
 10
276.2502270472
 20
28.0009840502
 10
275.6926411989
 20
27.3164078842
 10
275.0981674739
 20
26.6995930885
 10
274.4774142834
 20
26.1615478414
 10
273.8414590045
 20
25.711872708
 10
273.2016503347
 20
25.3585925488
 10
272.5694057071
 20
25.108011813
 10
271.9560073063
 20
24.9646017243
 10
271.3724015413
 20
24.9309217816
 10
270.829002882
 20
25.0075730568
 10
270.3355077377
 20
25.1931869473
 10
269.9007234827
 20
25.4844523319
 10
269.5324077712
 20
25.8761707187
 10
269.2371341945
 20
26.3613522667
 10
269.020171438
 20
26.9313387064
 10
268.8853910848
 20
27.5759585785
 10
268.8351984688
 20
28.2837088243
  0
ARC
  5
1DF
330
1F
100
AcDbEntity
  8
0
  6
Continuous
 62
     7
370
    25
100
AcDbCircle
 10
269.947004767
 20
35.6683463049
 30
0.0
 40
7.44687207962792
100
AcDbArc
 50
353.6668983558
 51
7.7252607741
  0
ARC
  5
1E0
330
1F
100
AcDbEntity
  8
0
  6
Continuous
 62
     7
370
    25
100
AcDbCircle
 10
266.0155269653
 20
35.0093680651
 30
0.0
 40
10.91829475937015
100
AcDbArc
 50
295.204401415
 51
332.4222944942
  0
ARC
  5
1E1
330
1F
100
AcDbEntity
  8
0
  6
Continuous
 62
     7
370
    25
100
AcDbCircle
 10
264.8701590271
 20
36.3424567731
 30
0.0
 40
12.56757716906597
100
AcDbArc
 50
329.4513172625
 51
353.1655041336
  0
LWPOLYLINE
  5
1E2
330
1F
100
AcDbEntity
  8
0
  6
Continuous
 62
     7
370
    25
100
AcDbPolyline
 90
       25
 70
   128
 43
0.0
 10
276.8871737648
 20
37.0484425626
 10
276.8941243728
 20
37.0438044175
 10
277.2965731047
 20
36.7015484675
 10
277.6291104224
 20
36.2621172431
 10
277.885801852
 20
35.7333524343
 10
278.0620672165
 20
35.1246901992
 10
278.1547606487
 20
34.4469917165
 10
278.1622282141
 20
33.7123507352
 10
278.0843365575
 20
32.9338768401
 10
277.9224758664
 20
32.1254620844
 10
277.6795341876
 20
31.3015322732
 10
277.3598473782
 20
30.4767912151
 10
276.9691197507
 20
29.6659554229
 10
276.5143239744
 20
28.883495281
 10
276.0035757872
 20
28.1433727918
 10
275.4459899389
 20
27.4587966258
 10
274.8515162139
 20
26.8419818301
 10
274.2307630234
 20
26.303936583
 10
273.5948077445
 20
25.8542614496
 10
272.9549990747
 20
25.5009812903
 10
272.3227544471
 20
25.2504005546
 10
271.7093560463
 20
25.1069904659
 10
271.1257502813
 20
25.0733105232
 10
270.582351622
 20
25.1499617983
 10
270.117214392
 20
25.3212582646
  0
ARC
  5
1E3
330
1F
100
AcDbEntity
  8
0
  6
Continuous
 62
     7
370
    25
100
AcDbCircle
 10
260.6320219906
 20
38.5873918093
 30
0.0
 40
15.98018288067295
100
AcDbArc
 50
308.1257674918
 51
354.6388102573
  0
LINE
  5
1E4
330
1F
100
AcDbEntity
  8
0
  6
Continuous
 62
     7
370
    25
100
AcDbLine
 10
261.3128687885
 20
36.0518554271
 30
0.0
 11
265.5458348351
 21
33.6082161427
 31
0.0
  0
LINE
  5
1E5
330
1F
100
AcDbEntity
  8
0
  6
Continuous
 62
     7
370
    25
100
AcDbLine
 10
261.1145072801
 20
33.6544421512
 30
0.0
 11
265.8184590905
 21
30.9389085729
 31
0.0
  0
LWPOLYLINE
  5
1E6
330
1F
100
AcDbEntity
  8
0
  6
Continuous
 62
     7
370
    25
100
AcDbPolyline
 90
       10
 70
   128
 43
0.0
 10
261.1145072801
 20
33.6544421512
 10
260.8656117004
 20
33.873653931
 10
260.6937980968
 20
34.1903114999
 10
260.6197921821
 20
34.5662210457
 10
260.6525172344
 20
34.9560427754
 10
260.7880265963
 20
35.3127586397
 10
261.0099758518
 20
35.5933443223
 10
261.2915938496
 20
35.763955793
 10
261.5989168151
 20
35.8040144685
 10
261.8948746196
 20
35.7086890847
  0
LINE
  5
1E7
330
1F
100
AcDbEntity
  8
0
  6
Continuous
 62
     7
370
    25
100
AcDbLine
 10
261.8948746196
 20
35.7086890847
 30
0.0
 11
266.5988264299
 21
32.9931555063
 31
0.0
  0
LINE
  5
1E8
330
1F
100
AcDbEntity
  8
0
  6
Continuous
 62
     7
370
    25
100
AcDbLine
 10
260.3094866685
 20
33.4105421818
 30
0.0
 11
264.5424527151
 21
30.9669028974
 31
0.0
  0
LINE
  5
1E9
330
1F
100
AcDbEntity
  8
0
  6
Continuous
 62
     7
370
    25
100
AcDbLine
 10
260.9700812255
 20
33.5242865096
 30
0.0
 11
265.6065506631
 21
30.8477096759
 31
0.0
  0
SPLINE
  5
1EA
330
1F
100
AcDbEntity
  8
0
  6
Continuous
 62
     7
370
    25
100
AcDbSpline
210
0.0
220
0.0
230
1.0
 70
     8
 71
     3
 72
    33
 73
    29
 74
     0
 42
0.000000001
 43
0.00000001
 40
0.0
 40
0.0
 40
0.0
 40
0.0
 40
0.1394506320104551
 40
0.2594296870055577
 40
0.3975970977962622
 40
0.4412320258831264
 40
0.5821887206445494
 40
0.6640050583927503
 40
0.6939201937453603
 40
0.7079031490139882
 40
0.7148311455262539
 40
0.7171532411252948
 40
0.7187274317191963
 40
0.7197929926325013
 40
0.7205176908944477
 40
0.7210142966455267
 40
0.7214844804469019
 40
0.7217138310069184
 40
0.7218899450866195
 40
0.7220105202322636
 40
0.7221322583781281
 40
0.7222757167484081
 40
0.7225200590473093
 40
0.7232818124759718
 40
0.7267898680832042
 40
0.740711534321121
 40
0.7963174590716506
 40
1.0
 40
1.0
 40
1.0
 40
1.0
 10
277.0314239880454
 20
36.88972157630228
 30
0.0
 10
277.0735856217252
 20
36.69614211615305
 30
0.0
 10
277.1520218343943
 20
36.33601281424028
 30
0.0
 10
277.2690343172428
 20
35.71332618400299
 30
0.0
 10
277.051803571189
 20
35.21289370213578
 30
0.0
 10
277.5217138244591
 20
34.68365529282898
 30
0.0
 10
277.0936770198727
 20
34.34123974985308
 30
0.0
 10
277.1064730220568
 20
33.87177062969136
 30
0.0
 10
277.0661873977337
 20
33.64772594689158
 30
0.0
 10
277.052961230112
 20
33.55535460480363
 30
0.0
 10
277.0475788958596
 20
33.512658633695
 30
0.0
 10
277.0457445001644
 20
33.49249450956207
 30
0.0
 10
277.0451604224309
 20
33.4831652064038
 30
0.0
 10
277.0449865635174
 20
33.47677931807138
 30
0.0
 10
277.0450701631841
 20
33.47239855567629
 30
0.0
 10
277.0453097446226
 20
33.4691434347807
 30
0.0
 10
277.0456730673002
 20
33.4668342114301
 30
0.0
 10
277.046175682246
 20
33.46520430806045
 30
0.0
 10
277.0466435758034
 20
33.46431326472209
 30
0.0
 10
277.0471555527296
 20
33.4637773234025
 30
0.0
 10
277.0477113093888
 20
33.46352613163748
 30
0.0
 10
277.0484466531091
 20
33.46355953408168
 30
0.0
 10
277.0499224632251
 20
33.4643571357739
 30
0.0
 10
277.0543520047581
 20
33.47003201315461
 30
0.0
 10
277.0669043300081
 20
33.49839936850341
 30
0.0
 10
277.1073739684529
 20
33.61909575042413
 30
0.0
 10
277.2329197565941
 20
34.08232803782435
 30
0.0
 10
277.2976125011783
 20
34.51052506719126
 30
0.0
 10
277.34843150912
 20
34.84689274452341
 30
0.0
  0
ARC
  5
1EB
330
1F
100
AcDbEntity
  8
0
  6
Continuous
 62
     7
370
    25
100
AcDbCircle
 10
275.743436267
 20
29.8910089268
 30
0.0
 40
18.70099535950368
100
AcDbArc
 50
122.5953321212
 51
177.4100448483
  0
ARC
  5
1EC
330
1F
100
AcDbEntity
  8
0
  6
Continuous
 62
     7
370
    25
100
AcDbCircle
 10
267.7096106913
 20
31.3271869856
 30
0.0
 40
6.506403447988522
100
AcDbArc
 50
292.132043891
 51
300.7870089602
  0
LWPOLYLINE
  5
1ED
330
1F
100
AcDbEntity
  8
0
  6
Continuous
 62
     7
370
    25
100
AcDbPolyline
 90
        3
 70
   128
 43
0.0
 10
270.5272503387
 20
26.0336389763
 10
269.8399570291
 20
25.6775144124
 10
269.7403219615
 20
25.6342375007
  0
LINE
  5
1EE
330
1F
100
AcDbEntity
  8
0
  6
Continuous
 62
     7
370
    25
100
AcDbLine
 10
267.1615846514
 20
43.4334018504
 30
0.0
 11
271.3945506981
 21
40.989762566
 31
0.0
  0
LWPOLYLINE
  5
1EF
330
1F
100
AcDbEntity
  8
0
  6
Continuous
 62
     7
370
    25
100
AcDbPolyline
 90
       11
 70
   128
 43
0.0
 10
260.3094866685
 20
33.4105421818
 10
260.0175604736
 20
33.6578803948
 10
259.8033201401
 20
34.0102811644
 10
259.6877337251
 20
34.4332520298
 10
259.6821196332
 20
34.8853873664
 10
259.7870251147
 20
35.3224297138
 10
259.9921814853
 20
35.7015976945
 10
260.2775070887
 20
35.98577712
 10
260.6150730522
 20
36.1471483053
 10
260.9718336125
 20
36.169918416
 10
261.3128687885
 20
36.0518554271
  0
LINE
  5
1F0
330
1F
100
AcDbEntity
  8
0
  6
Continuous
 62
     7
370
    25
100
AcDbLine
 10
271.9253070315
 20
40.0414013407
 30
0.0
 11
272.1024344307
 21
39.9391478697
 31
0.0
  0
ARC
  5
1F1
330
1F
100
AcDbEntity
  8
0
  6
Continuous
 62
     7
370
    25
100
AcDbCircle
 10
268.2141613496
 20
42.2695081326
 30
0.0
 40
1.537198212543012
100
AcDbArc
 50
59.6268723031
 51
131.7390177436
  0
LINE
  5
1F2
330
1F
100
AcDbEntity
  8
0
  6
Continuous
 62
     7
370
    25
100
AcDbLine
 10
268.9914136225
 20
43.5957272883
 30
0.0
 11
273.6953654329
 21
40.8801937099
 31
0.0
  0
LWPOLYLINE
  5
1F3
330
1F
100
AcDbEntity
  8
0
  6
Continuous
 62
     7
370
    25
100
AcDbPolyline
 90
       10
 70
   128
 43
0.0
 10
260.9700812255
 20
33.5242865096
 10
260.7128063255
 20
33.7422655279
 10
260.5239963467
 20
34.0528368273
 10
260.4221313651
 20
34.42560189
 10
260.4171830617
 20
34.8240688348
 10
260.5096367837
 20
35.2092346889
 10
260.6904414955
 20
35.5433969824
 10
260.9418988133
 20
35.7938441127
 10
261.2393962948
 20
35.9360621328
 10
261.4665302712
 20
35.9631478151
  0
LINE
  5
1F4
330
1F
100
AcDbEntity
  8
0
  6
Continuous
 62
     7
370
    25
100
AcDbLine
 10
269.0962348104
 20
43.7801407304
 30
0.0
 11
273.7327042479
 21
41.1035638967
 31
0.0
  0
LINE
  5
1F5
330
1F
100
AcDbEntity
  8
0
  6
Continuous
 62
     7
370
    25
100
AcDbLine
 10
269.2097466455
 20
44.6433808421
 30
0.0
 11
273.4427126921
 21
42.1997415577
 31
0.0
  0
LWPOLYLINE
  5
1F6
330
1F
100
AcDbEntity
  8
0
  6
Continuous
 62
     7
370
    25
100
AcDbPolyline
 90
       11
 70
   128
 43
0.0
 10
269.2097466455
 20
44.6433808421
 10
268.8431438906
 20
44.7964711071
 10
268.4121838035
 20
44.8753540905
 10
267.9590483825
 20
44.8723113818
 10
267.5280972475
 20
44.7876373163
 10
267.161513045
 20
44.6296220714
 10
266.89518039
 20
44.4137336004
 10
266.7551689297
 20
44.161103612
 10
266.7551858872
 20
43.8964608431
 10
266.8952260354
 20
43.6457124071
 10
267.1615846514
 20
43.4334018504
  0
ARC
  5
1F7
330
1F
100
AcDbEntity
  8
0
  6
Continuous
 62
     7
370
    25
100
AcDbCircle
 10
268.2132367691
 20
42.3606168801
 30
0.0
 40
1.67174564527027
100
AcDbArc
 50
58.1168103116
 51
135.6209011332
  0
ARC
  5
1F8
330
1F
100
AcDbEntity
  8
0
  6
Continuous
 62
     7
370
    25
100
AcDbCircle
 10
267.3968143642
 20
33.4621316599
 30
0.0
 40
8.503654856299518
100
AcDbArc
 50
300.7679181749
 51
309.4462231233
  0
SPLINE
  5
1F9
330
1F
100
AcDbEntity
  8
0
  6
Continuous
 62
     7
370
    25
100
AcDbSpline
210
0.0
220
0.0
230
1.0
 70
     8
 71
     3
 72
    31
 73
    27
 74
     0
 42
0.000000001
 43
0.00000001
 40
0.0
 40
0.0
 40
0.0
 40
0.0
 40
0.0524418776126124
 40
0.1934244700678255
 40
0.2035858890146197
 40
0.208629293019949
 40
0.2103238940719294
 40
0.2114718474116877
 40
0.212249094082601
 40
0.2127781178058905
 40
0.2131413854455025
 40
0.2134971755683026
 40
0.2136520155135033
 40
0.2138088561533456
 40
0.2138977128382992
 40
0.2139868791831727
 40
0.2141113354536642
 40
0.2143445661712042
 40
0.215360133776703
 40
0.2193679848944371
 40
0.2353301703591211
 40
0.2991419648569593
 40
0.4267431505386495
 40
0.5988596816812712
 40
0.770974333863643
 40
0.9999999999999999
 40
0.9999999999999999
 40
0.9999999999999999
 40
0.9999999999999999
 10
275.6933264144585
 20
29.95473076111189
 30
0.0
 10
275.7557946456985
 20
30.07158141504716
 30
0.0
 10
275.9861999071758
 20
30.50256857346793
 30
0.0
 10
276.2034989318291
 20
30.97094743379762
 30
0.0
 10
276.3370229432972
 20
31.34086697410042
 30
0.0
 10
276.3501184323679
 20
31.38142919926217
 30
0.0
 10
276.3554879969117
 20
31.40060627048663
 30
0.0
 10
276.3576666574866
 20
31.40949323300957
 30
0.0
 10
276.3589061834326
 20
31.41557346891232
 30
0.0
 10
276.3595392011047
 20
31.4197478414712
 30
0.0
 10
276.3598087622742
 20
31.42287760462137
 30
0.0
 10
276.3597966111516
 20
31.4250800336111
 30
0.0
 10
276.3594895940436
 20
31.42667790579338
 30
0.0
 10
276.3590932654232
 20
31.42754584581181
 30
0.0
 10
276.3585417024688
 20
31.42801412906129
 30
0.0
 10
276.3579385823163
 20
31.42817915784214
 30
0.0
 10
276.3570073238918
 20
31.42802759096191
 30
0.0
 10
276.354346824009
 20
31.42649164240364
 30
0.0
 10
276.3460931755606
 20
31.41682296876332
 30
0.0
 10
276.3188077131389
 20
31.37340197084838
 30
0.0
 10
276.2198154638486
 20
31.19030775592933
 30
0.0
 10
275.9763265932499
 20
30.73228614694485
 30
0.0
 10
275.5082209007733
 20
29.94006188241415
 30
0.0
 10
274.8196842261661
 20
28.96449348127551
 30
0.0
 10
273.8984662215233
 20
27.86728069880042
 30
0.0
 10
273.1989960647117
 20
27.24863567614468
 30
0.0
 10
272.7996429922565
 20
26.89542862627867
 30
0.0
  0
LWPOLYLINE
  5
1FA
330
1F
100
AcDbEntity
  8
0
  6
Continuous
 62
     7
370
    25
100
AcDbPolyline
 90
       16
 70
   128
 43
0.0
 10
276.5223460343
 20
37.1920579761
 10
276.5410249907
 20
37.1008437377
 10
276.6352396608
 20
36.3680142618
 10
276.6432699525
 20
35.5780033067
 10
276.5649894254
 20
34.7432700232
 10
276.4016321918
 20
33.8769781932
 10
276.1557748072
 20
32.9927903366
 10
275.8312944523
 20
32.1046501271
 10
275.4333086766
 20
31.2265644308
 10
274.9680934091
 20
30.3723810683
 10
274.4429858235
 20
29.5555707611
 10
273.866267117
 20
28.789015734
 10
273.2470322831
 20
28.0848041171
 10
272.5950470431
 20
27.4540424102
 10
271.9205938284
 20
26.9066779763
 10
271.2343089974
 20
26.4513430913
  0
LINE
  5
1FB
330
1F
100
AcDbEntity
  8
0
  6
Continuous
 62
     7
370
    25
100
AcDbLine
 10
265.1526778369
 20
23.3770225427
 30
0.0
 11
266.7056864716
 21
22.4804897411
 31
0.0
  0
LINE
  5
1FC
330
1F
100
AcDbEntity
  8
0
  6
Continuous
 62
     7
370
    25
100
AcDbLine
 10
261.4336116069
 20
24.1734027101
 30
0.0
 11
265.6665776536
 21
21.7297634257
 31
0.0
  0
LINE
  5
1FD
330
1F
100
AcDbEntity
  8
0
  6
Continuous
 62
     7
370
    25
100
AcDbLine
 10
264.9385632854
 20
23.2899352779
 30
0.0
 11
266.6010747009
 21
22.3301878665
 31
0.0
  0
LWPOLYLINE
  5
1FE
330
1F
100
AcDbEntity
  8
0
  6
Continuous
 62
     7
370
    25
100
AcDbPolyline
 90
        9
 70
   128
 43
0.0
 10
261.4336116069
 20
24.1734027101
 10
261.0915635895
 20
24.3911305396
 10
260.7318632865
 20
24.6575989632
 10
260.3897178045
 20
24.9467268045
 10
260.0986220341
 20
25.2302102746
 10
259.8870692208
 20
25.480300461
 10
259.7757672964
 20
25.672516661
 10
259.7756118799
 20
25.78804422
 10
259.7833800709
 20
25.796305833
  0
LINE
  5
1FF
330
1F
100
AcDbEntity
  8
0
  6
Continuous
 62
     7
370
    25
100
AcDbLine
 10
279.9377218303
 20
39.5784030113
 30
0.0
 11
280.1640504068
 21
39.4477463052
 31
0.0
  0
LINE
  5
200
330
1F
100
AcDbEntity
  8
0
  6
Continuous
 62
     7
370
    25
100
AcDbLine
 10
279.2781447245
 20
41.0007609955
 30
0.0
 11
280.4155538228
 21
40.3441486994
 31
0.0
  0
LINE
  5
201
330
1F
100
AcDbEntity
  8
0
  6
Continuous
 62
     7
370
    25
100
AcDbLine
 10
271.7469595551
 20
26.1553962237
 30
0.0
 11
271.0399008964
 21
25.7376921088
 31
0.0
  0
LINE
  5
202
330
1F
100
AcDbEntity
  8
0
  6
Continuous
 62
     7
370
    25
100
AcDbLine
 10
271.2343089974
 20
26.4513430913
 30
0.0
 11
270.5272503387
 21
26.0336389763
 31
0.0
  0
LINE
  5
203
330
1F
100
AcDbEntity
  8
0
  6
Continuous
 62
     7
370
    25
100
AcDbLine
 10
273.3347630886
 20
22.6933106387
 30
0.0
 11
273.6428012334
 21
22.5154840028
 31
0.0
  0
LINE
  5
204
330
1F
100
AcDbEntity
  8
0
  6
Continuous
 62
     7
370
    25
100
AcDbLine
 10
279.3788822779
 20
29.9620531228
 30
0.0
 11
279.4915170964
 21
29.8970304262
 31
0.0
  0
ARC
  5
205
330
1F
100
AcDbEntity
  8
0
  6
Continuous
 62
     7
370
    25
100
AcDbCircle
 10
260.9660319284
 20
38.4218225971
 30
0.0
 40
14.90311667387997
100
AcDbArc
 50
304.3304611842
 51
355.6749159225
  0
LINE
  5
206
330
1F
100
AcDbEntity
  8
0
  6
Continuous
 62
     7
370
    25
100
AcDbLine
 10
266.6362742341
 20
46.6949166091
 30
0.0
 11
266.6042982763
 21
46.7136131182
 31
0.0
  0
LWPOLYLINE
  5
207
330
1F
100
AcDbEntity
  8
0
  6
Continuous
 62
     7
370
    25
100
AcDbPolyline
 90
       36
 70
   128
 43
0.0
 10
237.0415820368
 20
39.3848909763
 10
237.0839277657
 20
40.5293150223
 10
237.2106429243
 20
41.7139208551
 10
237.4207627448
 20
42.9296927071
 10
237.7126882812
 20
44.1673776061
 10
238.0841976043
 20
45.417556287
 10
238.5324635826
 20
46.6707141034
 10
239.0540749554
 20
47.9173136497
 10
239.6450613579
 20
49.147868524
 10
240.3009249312
 20
50.3530117664
 10
241.0166745664
 20
51.5235722825
 10
241.7868634419
 20
52.6506421409
 10
242.605628536
 20
53.7256427296
 10
243.4667396883
 20
54.7403926229
 10
244.3636430638
 20
55.6871691746
 10
245.2895125196
 20
56.5587670689
 10
246.2373019585
 20
57.348552879
 10
247.1997978488
 20
58.0505159175
 10
248.1696750352
 20
58.6593133843
 10
249.1395522216
 20
59.1703122814
 10
250.1020481119
 20
59.5796233437
 10
251.0498375508
 20
59.8841319271
 10
251.9757070066
 20
60.0815201523
 10
252.8726103821
 20
60.1702861959
 10
253.7337215344
 20
60.1497540765
 10
254.5524866285
 20
60.0200795436
 10
255.322675504
 20
59.7822508328
 10
256.0384251392
 20
59.4380772554
 10
256.6942887125
 20
58.9901779763
 10
257.285275115
 20
58.4419614784
 10
257.8068864878
 20
57.7976016041
 10
258.255152466
 20
57.0620006697
 10
258.6266617891
 20
56.2407575231
 10
258.9185873255
 20
55.3401226741
 10
259.1287071461
 20
54.366950003
 10
259.2002171771
 20
53.8745715179
  0
LWPOLYLINE
  5
208
330
1F
100
AcDbEntity
  8
0
  6
Continuous
 62
     7
370
    25
100
AcDbPolyline
 90
       18
 70
   128
 43
0.0
 10
246.7012332289
 20
32.2233499319
 10
246.2373019585
 20
32.0383813027
 10
245.2895125196
 20
31.7338727193
 10
244.3636430638
 20
31.536484494
 10
243.4667396883
 20
31.4477184505
 10
242.605628536
 20
31.4682505698
 10
241.7868634419
 20
31.5979251028
 10
241.0166745664
 20
31.8357538136
 10
240.3009249312
 20
32.179927391
 10
239.6450613579
 20
32.6278266701
 10
239.0540749554
 20
33.1760431679
 10
238.5324635826
 20
33.8204030423
 10
238.0841976043
 20
34.5560039767
 10
237.7126882812
 20
35.3772471233
 10
237.4207627448
 20
36.2778819723
 10
237.2106429243
 20
37.2510546434
 10
237.0839277657
 20
38.2893582682
 10
237.0415820368
 20
39.3848909763
  0
SPLINE
  5
209
330
1F
100
AcDbEntity
  8
0
  6
Continuous
 62
     7
370
    25
100
AcDbSpline
210
0.0
220
0.0
230
1.0
 70
     8
 71
     3
 72
    24
 73
    20
 74
     0
 42
0.000000001
 43
0.00000001
 40
0.0
 40
0.0
 40
0.0
 40
0.0
 40
0.1250000000000003
 40
0.1250000000000003
 40
0.2500000000000006
 40
0.2500000000000006
 40
0.3750000000000009
 40
0.3750000000000009
 40
0.5000000000000012
 40
0.5000000000000012
 40
0.6250000000000016
 40
0.6250000000000016
 40
0.7500000000000018
 40
0.7500000000000018
 40
0.8125000000000014
 40
0.8125000000000014
 40
0.875000000000001
 40
0.875000000000001
 40
1.0
 40
1.0
 40
1.0
 40
1.0
 10
241.8751711852898
 20
55.81670543070362
 30
0.0
 10
241.9040645603821
 20
55.70639769973592
 30
0.0
 10
241.9167085584692
 20
55.59123461965439
 30
0.0
 10
241.909682883338
 20
55.35028959037385
 30
0.0
 10
241.8897650915115
 20
55.226739547124
 30
0.0
 10
241.8195130943364
 20
54.98014105521341
 30
0.0
 10
241.7681262225404
 20
54.85443035469812
 30
0.0
 10
241.6388812674001
 20
54.61226826601891
 30
0.0
 10
241.5611485050009
 20
54.49491619688484
 30
0.0
 10
241.3786256082327
 20
54.26784459388558
 30
0.0
 10
241.2775271540389
 20
54.16271390843337
 30
0.0
 10
241.0562411596936
 20
53.96882174942817
 30
0.0
 10
240.9350816936407
 20
53.87986695117026
 30
0.0
 10
240.7477597627767
 20
53.76624862516807
 30
0.0
 10
240.6840357428324
 20
53.73136030876814
 30
0.0
 10
240.5539329426691
 20
53.66768685569579
 30
0.0
 10
240.4870977283942
 20
53.63874552287233
 30
0.0
 10
240.2864473153717
 20
53.56316465394089
 30
0.0
 10
240.1524530081975
 20
53.5273352508416
 30
0.0
 10
240.017936729118
 20
53.50632342362283
 30
0.0
  0
LWPOLYLINE
  5
20A
330
1F
100
AcDbEntity
  8
0
  6
Continuous
 62
     7
370
    25
100
AcDbPolyline
 90
       15
 70
   128
 43
0.0
 10
241.875171297
 20
55.8167054632
 10
242.7801201108
 20
56.7604352259
 10
243.713550316
 20
57.6274479603
 10
244.6682850947
 20
58.4110781221
 10
245.6369847212
 20
59.1053014903
 10
246.6122016951
 20
59.704778401
 10
247.5864385491
 20
60.20490385
 10
248.5522052653
 20
60.6018307524
 10
249.5020768573
 20
60.8925069859
 10
250.4287507252
 20
61.0746986155
 10
251.3251025697
 20
61.1470054422
 10
252.1842413812
 20
61.1088706931
 10
252.9995616289
 20
60.9605875762
 10
253.7647956156
 20
60.7032968035
 10
254.3528205434
 20
60.4111561959
  0
LWPOLYLINE
  5
20B
330
1F
100
AcDbEntity
  8
0
  6
Continuous
 62
     7
370
    25
100
AcDbPolyline
 90
       21
 70
   128
 43
0.0
 10
238.6165992289
 20
33.1522678021
 10
238.6129515509
 20
33.1543757673
 10
237.9282154107
 20
33.6262053402
 10
237.3148365193
 20
34.2077462824
 10
236.7779304503
 20
34.8941490223
 10
236.3219753064
 20
35.6796887554
 10
235.9507722065
 20
36.5578141173
 10
235.6674176268
 20
37.5212025104
 10
235.4742744252
 20
38.5618192325
 10
235.3729527428
 20
39.6709859676
 10
235.364299468
 20
40.839453744
 10
235.4483850649
 20
42.0574769854
 10
235.6245088423
 20
43.3148983974
 10
235.8912015874
 20
44.6012311445
 10
236.2462400538
 20
45.9057487258
 10
236.6866621084
 20
47.2175709066
 10
237.2087963655
 20
48.5257583922
 10
237.8082872118
 20
49.8194019909
 10
238.480135636
 20
51.0877112032
 10
239.2187387412
 20
52.3201115579
 10
240.0179365023
 20
53.5063229352
  0
LWPOLYLINE
  5
20C
330
1F
100
AcDbEntity
  8
0
  6
Continuous
 62
     7
370
    25
100
AcDbPolyline
 90
       12
 70
   128
 43
0.0
 10
240.2125499046
 20
55.9409819438
 10
241.083709129
 20
56.8709286354
 10
241.9853033171
 20
57.7236944232
 10
242.9096232176
 20
58.4919870013
 10
243.8487649793
 20
59.1692367119
 10
244.7946981357
 20
59.7496525223
 10
245.7393338976
 20
60.2282720957
 10
246.6745947742
 20
60.6010012221
 10
247.5924834937
 20
60.864654366
 10
248.485151111
 20
61.0169757327
 10
249.3449642721
 20
61.0566636508
 10
250.0131004808
 20
61.0058685768
  0
SPLINE
  5
20D
330
1F
100
AcDbEntity
  8
0
  6
Continuous
 62
     7
370
    25
100
AcDbSpline
210
0.0
220
0.0
230
1.0
 70
     8
 71
     3
 72
    26
 73
    22
 74
     0
 42
0.000000001
 43
0.00000001
 40
0.0
 40
0.0
 40
0.0
 40
0.0
 40
0.1250000000000009
 40
0.1250000000000009
 40
0.2500000000000019
 40
0.2500000000000019
 40
0.3125000000000011
 40
0.3125000000000011
 40
0.3750000000000004
 40
0.3750000000000004
 40
0.4375000000000002
 40
0.4375000000000002
 40
0.5000000000000001
 40
0.5000000000000001
 40
0.5625
 40
0.5625
 40
0.6249999999999999
 40
0.6249999999999999
 40
0.7500000000000001
 40
0.7500000000000001
 40
1.0
 40
1.0
 40
1.0
 40
1.0
 10
238.8683566996623
 20
54.26881865757837
 30
0.0
 10
238.8447191034303
 20
54.37839451715136
 30
0.0
 10
238.8271513245485
 20
54.48928377551589
 30
0.0
 10
238.8083387416791
 20
54.71461373537883
 30
0.0
 10
238.8071589669117
 20
54.83029064869721
 30
0.0
 10
238.8232569701471
 20
55.00164615855677
 30
0.0
 10
238.8315756872473
 20
55.05844467065093
 30
0.0
 10
238.8553328365043
 20
55.17127088304802
 30
0.0
 10
238.8709552155533
 20
55.22772373671417
 30
0.0
 10
238.9098124279503
 20
55.33630685312277
 30
0.0
 10
238.9330383846527
 20
55.38868681334831
 30
0.0
 10
238.9880370341311
 20
55.48914358862043
 30
0.0
 10
239.0201153011537
 20
55.53742245639187
 30
0.0
 10
239.0905300496888
 20
55.62511943197561
 30
0.0
 10
239.1291084718155
 20
55.66510855995156
 30
0.0
 10
239.2128167354117
 20
55.73758724406716
 30
0.0
 10
239.2579454453536
 20
55.76992386844378
 30
0.0
 10
239.3972260875437
 20
55.85312363579742
 30
0.0
 10
239.4980151591053
 20
55.89195235843351
 30
0.0
 10
239.801087430338
 20
55.96736864588869
 30
0.0
 10
240.0096115208231
 20
55.96723849951793
 30
0.0
 10
240.2125499405135
 20
55.94098227019171
 30
0.0
  0
LWPOLYLINE
  5
20E
330
1F
100
AcDbEntity
  8
0
  6
Continuous
 62
     7
370
    25
100
AcDbPolyline
 90
       18
 70
   128
 43
0.0
 10
235.9313780707
 20
36.6129673675
 10
235.6048519473
 20
37.08233441
 10
235.2049784537
 20
37.8253749748
 10
234.8836001727
 20
38.6517473024
 10
234.643389478
 20
39.5545778883
 10
234.4863443936
 20
40.52635859
 10
234.4137714717
 20
41.5590072992
 10
234.4262732806
 20
42.6439349824
 10
234.5237464289
 20
43.7721187809
 10
234.7053809067
 20
44.9341759183
 10
234.9696646959
 20
46.1204411004
 10
235.3144002335
 20
47.3210484782
 10
235.7367215338
 20
48.5260132526
 10
236.2331146032
 20
49.7253136129
 10
236.7994516848
 20
50.9089738141
 10
237.4310228683
 20
52.0671516268
 10
238.1225749441
 20
53.1902136199
 10
238.868356843
 20
54.2688184265
  0
LINE
  5
20F
330
1F
100
AcDbEntity
  8
0
  6
Continuous
 62
     7
370
    25
100
AcDbLine
 10
237.3929644287
 20
34.0248974825
 30
0.0
 11
237.5126074778
 21
34.0814404102
 31
0.0
  0
LWPOLYLINE
  5
210
330
1F
100
AcDbEntity
  8
0
  6
Continuous
 62
     7
370
    25
100
AcDbPolyline
 90
       40
 70
   128
 43
0.0
 10
237.3929644287
 20
34.0248974825
 10
236.6408605025
 20
34.3132679019
 10
235.946620248
 20
34.7085319208
 10
235.3156114615
 20
35.2076361574
 10
234.7527106651
 20
35.8067227059
 10
234.2622688624
 20
36.5011603194
 10
233.8480766356
 20
37.2855809149
 10
233.5133364866
 20
38.1539225421
 10
233.2606351781
 20
39.0994725425
 10
233.0919259534
 20
40.1149226845
 10
233.0085133889
 20
41.192424013
 10
233.0110408827
 20
42.3236474029
 10
233.0994899956
 20
43.4998495288
 10
233.2731771583
 20
44.711939216
 10
233.5307595986
 20
45.9505473075
 10
233.8702458779
 20
47.2060997624
 10
234.2890123549
 20
48.4688923698
 10
234.7838222833
 20
49.7291637514
 10
235.3508501781
 20
50.9771723565
 10
235.9857147427
 20
52.2032732649
 10
236.6835078448
 20
53.3979881476
 10
237.4388353464
 20
54.5520820691
 10
238.2458605675
 20
55.6566357276
 10
239.0983437989
 20
56.7031100906
 10
239.9896969614
 20
57.6834174928
 10
240.9130300329
 20
58.5899803781
 10
241.8612058729
 20
59.4157910852
 10
242.8268958687
 20
60.1544667861
 10
243.8026355829
 20
60.8002975801
 10
244.7808830758
 20
61.3482930908
 10
245.7540769804
 20
61.7942152311
 10
246.7146948664
 20
62.1346187407
 10
247.6553117679
 20
62.3668720452
 10
248.5686573534
 20
62.489180374
 10
249.4476716967
 20
62.500597423
 10
250.2855602647
 20
62.4010358064
 10
251.0758472601
 20
62.1912643893
 10
251.8124233654
 20
61.8729054321
 10
252.4895961218
 20
61.4484188059
 10
253.0852246046
 20
60.9378869913
  0
LWPOLYLINE
  5
211
330
1F
100
AcDbEntity
  8
0
  6
Continuous
 62
     7
370
    25
100
AcDbPolyline
 90
       27
 70
   128
 43
0.0
 10
230.748331838
 20
43.0995476576
 10
230.7916015049
 20
44.2530219808
 10
230.9210713552
 20
45.4474265947
 10
231.1357285474
 20
46.6734138894
 10
231.4338924759
 20
47.9213884067
 10
231.8132299176
 20
49.1815835505
 10
232.2707721538
 20
50.4441363957
 10
232.8029386779
 20
51.6991662036
 10
233.4055635376
 20
52.9368497057
 10
234.073931554
 20
54.1475013284
 10
234.802810591
 20
55.3216450543
 10
235.5864976533
 20
56.4500927456
 10
236.4188577402
 20
57.5240122014
 10
237.2933778465
 20
58.534997876
 10
238.2032127313
 20
59.4751391261
 10
239.1412422114
 20
60.3370760996
 10
240.1001248326
 20
61.1140649399
 10
241.0723559863
 20
61.8000227432
 10
242.0503266435
 20
62.389581997
 10
243.0263829119
 20
62.8781295248
 10
243.9928857985
 20
63.2618402259
 10
244.9422708908
 20
63.5377107679
 10
245.8671084073
 20
63.7035836066
 10
246.7601599561
 20
63.7581599802
 10
247.6144364042
 20
63.7010120238
 10
248.4232515493
 20
63.5325878972
 10
248.9729452355
 20
63.3435057754
  0
LWPOLYLINE
  5
212
330
1F
100
AcDbEntity
  8
0
  6
Continuous
 62
     7
370
    25
100
AcDbPolyline
 90
        3
 70
   128
 43
0.0
 10
230.8924984261
 20
41.1276105067
 10
230.7916015049
 20
41.9960314283
 10
230.7685346665
 20
42.3396972771
  0
SPLINE
  5
213
330
1F
100
AcDbEntity
  8
0
  6
Continuous
 62
     7
370
    25
100
AcDbSpline
210
0.0
220
0.0
230
1.0
 70
     8
 71
     3
 72
    10
 73
     6
 74
     0
 42
0.000000001
 43
0.00000001
 40
0.0
 40
0.0
 40
0.0
 40
0.0
 40
0.5
 40
0.5
 40
1.0
 40
1.0
 40
1.0
 40
1.0
 10
239.5950447672936
 20
52.80576537675866
 30
0.0
 10
239.4917411087451
 20
52.87863758719332
 30
0.0
 10
239.4014429293785
 20
52.96591800121105
 30
0.0
 10
239.2476740734095
 20
53.16952309089362
 30
0.0
 10
239.1869601252022
 20
53.2824478190564
 30
0.0
 10
239.1428742791319
 20
53.40445849817549
 30
0.0
  0
SPLINE
  5
214
330
1F
100
AcDbEntity
  8
0
  6
Continuous
 62
     7
370
    25
100
AcDbSpline
210
0.0
220
0.0
230
1.0
 70
     8
 71
     3
 72
    14
 73
    10
 74
     0
 42
0.000000001
 43
0.00000001
 40
0.0
 40
0.0
 40
0.0
 40
0.0
 40
0.25
 40
0.25
 40
0.5
 40
0.5
 40
0.75
 40
0.75
 40
1.0
 40
1.0
 40
1.0
 40
1.0
 10
239.1428742791319
 20
53.40445849817549
 30
0.0
 10
239.1201534762668
 20
53.46733991783304
 30
0.0
 10
239.0982389659173
 20
53.53638634730645
 30
0.0
 10
239.0561279118545
 20
53.68403886392522
 30
0.0
 10
239.0366063579415
 20
53.76043865078354
 30
0.0
 10
238.9982601157677
 20
53.91477094217913
 30
0.0
 10
238.9799005228839
 20
53.99172353851078
 30
0.0
 10
238.9378970783022
 20
54.13711370602677
 30
0.0
 10
238.9141207572892
 20
54.20370461221979
 30
0.0
 10
238.885659253187
 20
54.24420022745114
 30
0.0
  0
LINE
  5
215
330
1F
100
AcDbEntity
  8
0
  6
Continuous
 62
     7
370
    25
100
AcDbLine
 10
238.8856594414
 20
54.2442006192
 30
0.0
 11
238.868356843
 21
54.2688184265
 31
0.0
  0
LINE
  5
216
330
1F
100
AcDbEntity
  8
0
  6
Continuous
 62
     7
370
    25
100
AcDbLine
 10
240.2125499046
 20
55.9409819438
 30
0.0
 11
240.229852503
 21
55.9163641365
 31
0.0
  0
SPLINE
  5
217
330
1F
100
AcDbEntity
  8
0
  6
Continuous
 62
     7
370
    25
100
AcDbSpline
210
0.0
220
0.0
230
1.0
 70
     8
 71
     3
 72
    16
 73
    12
 74
     0
 42
0.000000001
 43
0.00000001
 40
0.0
 40
0.0
 40
0.0
 40
0.0
 40
0.1250000000000001
 40
0.1250000000000001
 40
0.2500000000000003
 40
0.2500000000000003
 40
0.5000000000000002
 40
0.5000000000000002
 40
0.7500000000000001
 40
0.7500000000000001
 40
1.0
 40
1.0
 40
1.0
 40
1.0
 10
240.2298524940382
 20
55.91636384006442
 30
0.0
 10
240.2440049004423
 20
55.89622750425163
 30
0.0
 10
240.265663304916
 20
55.87943008357421
 30
0.0
 10
240.3180812339513
 20
55.85258456224272
 30
0.0
 10
240.3486741130897
 20
55.84235907768173
 30
0.0
 10
240.4477549619471
 20
55.81785863724905
 30
0.0
 10
240.521637499563
 20
55.80959871484755
 30
0.0
 10
240.6747370919544
 20
55.79841274814263
 30
0.0
 10
240.752821066602
 20
55.79581607639145
 30
0.0
 10
240.9121647003441
 20
55.79378707555774
 30
0.0
 10
240.9908175951757
 20
55.79442466421997
 30
0.0
 10
241.0665700629683
 20
55.797517765035
 30
0.0
  0
SPLINE
  5
218
330
1F
100
AcDbEntity
  8
0
  6
Continuous
 62
     7
370
    25
100
AcDbSpline
210
0.0
220
0.0
230
1.0
 70
     8
 71
     3
 72
    12
 73
     8
 74
     0
 42
0.000000001
 43
0.00000001
 40
0.0
 40
0.0
 40
0.0
 40
0.0
 40
0.4999999999999983
 40
0.4999999999999983
 40
0.7499999999999991
 40
0.7499999999999991
 40
1.0
 40
1.0
 40
1.0
 40
1.0
 10
241.0665700629683
 20
55.797517765035
 30
0.0
 10
241.2130630645198
 20
55.80349932095918
 30
0.0
 10
241.3589347627814
 20
55.79318248226891
 30
0.0
 10
241.5628979326671
 20
55.75474430442444
 30
0.0
 10
241.6288487631082
 20
55.73814822987679
 30
0.0
 10
241.75659672182
 20
55.69737590509705
 30
0.0
 10
241.8188119418592
 20
55.67298211725863
 30
0.0
 10
241.8775829309943
 20
55.64522115271872
 30
0.0
  0
LINE
  5
219
330
1F
100
AcDbEntity
  8
0
  6
Continuous
 62
     7
370
    25
100
AcDbLine
 10
242.0327860224
 20
55.6736397602
 30
0.0
 11
242.0153928742
 21
55.6983870449
 31
0.0
  0
ARC
  5
21A
330
1F
100
AcDbEntity
  8
0
  6
Continuous
 62
     7
370
    25
100
AcDbCircle
 10
224.5602039197
 20
50.9212919873
 30
0.0
 40
4.160340149630213
100
AcDbArc
 50
211.7954354499
 51
236.1628935314
  0
SPLINE
  5
21B
330
1F
100
AcDbEntity
  8
0
  6
Continuous
 62
     7
370
    25
100
AcDbSpline
210
0.0
220
0.0
230
1.0
 70
     8
 71
     3
 72
     8
 73
     4
 74
     0
 42
0.000000001
 43
0.00000001
 40
0.0
 40
0.0
 40
0.0
 40
0.0
 40
1.0
 40
1.0
 40
1.0
 40
1.0
 10
222.4546292618575
 20
47.80451673348005
 30
0.0
 10
221.9778559700333
 20
48.1126095414127
 30
0.0
 10
221.5010535931885
 20
48.42083898698545
 30
0.0
 10
221.0242211486628
 20
48.72920414320537
 30
0.0
  0
SPLINE
  5
21C
330
1F
100
AcDbEntity
  8
0
  6
Continuous
 62
     7
370
    25
100
AcDbSpline
210
0.0
220
0.0
230
1.0
 70
     8
 71
     3
 72
    23
 73
    19
 74
     0
 42
0.000000001
 43
0.00000001
 40
0.0
 40
0.0
 40
0.0
 40
0.0
 40
0.0521036415683759
 40
0.1035646240941235
 40
0.1544751946756683
 40
0.2049306267495642
 40
0.2550287880866983
 40
0.3048696389163111
 40
0.354554670462894
 40
0.4041862979539558
 40
0.453867225213789
 40
0.5036997999428097
 40
0.590187023078111
 40
0.6742716378282376
 40
0.7565997087281883
 40
0.8378563983773627
 40
0.9187511781400207
 40
0.9999999999999999
 40
0.9999999999999999
 40
0.9999999999999999
 40
0.9999999999999999
 10
223.3351940653991
 20
47.62978603535996
 30
0.0
 10
223.3299251264593
 20
47.61986457312457
 30
0.0
 10
223.3194522369596
 20
47.60014402239256
 30
0.0
 10
223.3002059411976
 20
47.57557619343909
 30
0.0
 10
223.2784102008655
 20
47.55488761117898
 30
0.0
 10
223.2537589096609
 20
47.53835667588151
 30
0.0
 10
223.2262623951221
 20
47.52583917630518
 30
0.0
 10
223.1958513411147
 20
47.517304552483
 30
0.0
 10
223.1624809693418
 20
47.51269467983548
 30
0.0
 10
223.1261050810694
 20
47.51195993669987
 30
0.0
 10
223.0866767094796
 20
47.51505501925234
 30
0.0
 10
223.0338283179272
 20
47.52359079473369
 30
0.0
 10
222.9652893241538
 20
47.54118723358329
 30
0.0
 10
222.8775680921967
 20
47.5728238416709
 30
0.0
 10
222.7828371727019
 20
47.61500349900413
 30
0.0
 10
222.680802925373
 20
47.66773993473042
 30
0.0
 10
222.5718890121869
 20
47.73005649063926
 30
0.0
 10
222.4937727012035
 20
47.77966054888869
 30
0.0
 10
222.4546292618575
 20
47.80451673348004
 30
0.0
  0
SPLINE
  5
21D
330
1F
100
AcDbEntity
  8
0
  6
Continuous
 62
     7
370
    25
100
AcDbSpline
210
0.0
220
0.0
230
1.0
 70
     8
 71
     3
 72
     8
 73
     4
 74
     0
 42
0.000000001
 43
0.00000001
 40
0.0
 40
0.0
 40
0.0
 40
0.0
 40
1.0
 40
1.0
 40
1.0
 40
1.0
 10
224.808697091857
 20
46.68246589880117
 30
0.0
 10
224.3173297798143
 20
46.99834051876952
 30
0.0
 10
223.8259435798867
 20
47.31432654005985
 30
0.0
 10
223.3345378697414
 20
47.6304234209034
 30
0.0
  0
SPLINE
  5
21E
330
1F
100
AcDbEntity
  8
0
  6
Continuous
 62
     7
370
    25
100
AcDbSpline
210
0.0
220
0.0
230
1.0
 70
     8
 71
     3
 72
    18
 73
    14
 74
     0
 42
0.000000001
 43
0.00000001
 40
0.0
 40
0.0
 40
0.0
 40
0.0
 40
0.0923824559461122
 40
0.1844689291660427
 40
0.2764953616062392
 40
0.3686975365619641
 40
0.4613092840130473
 40
0.5545607518559533
 40
0.6486768051632873
 40
0.7438756050210469
 40
0.8403674044324065
 40
0.9203921078135461
 40
1.0
 40
1.0
 40
1.0
 40
1.0
 10
225.6222612110526
 20
46.03815817425941
 30
0.0
 10
225.5986936969283
 20
46.05343214852572
 30
0.0
 10
225.5516341762748
 20
46.0839311610077
 30
0.0
 10
225.4792363883092
 20
46.13356373362034
 30
0.0
 10
225.4057541794119
 20
46.18589327629002
 30
0.0
 10
225.331054731666
 20
46.24121096199845
 30
0.0
 10
225.2551939418979
 20
46.29944927711202
 30
0.0
 10
225.178182661112
 20
46.36064218874903
 30
0.0
 10
225.1000505290328
 20
46.42480590532941
 30
0.0
 10
225.0208242943917
 20
46.49195486519476
 30
0.0
 10
224.9455278099842
 20
46.55780577493973
 30
0.0
 10
224.8747005018641
 20
46.62133736174712
 30
0.0
 10
224.8307961310577
 20
46.66199810676019
 30
0.0
 10
224.8089012642529
 20
46.68227539532843
 30
0.0
  0
LINE
  5
21F
330
1F
100
AcDbEntity
  8
0
  6
Continuous
 62
     7
370
    25
100
AcDbLine
 10
226.2619677429
 20
45.6264043678
 30
0.0
 11
225.6222609006
 21
46.0381580354
 31
0.0
  0
SPLINE
  5
220
330
1F
100
AcDbEntity
  8
0
  6
Continuous
 62
     7
370
    25
100
AcDbSpline
210
0.0
220
0.0
230
1.0
 70
     8
 71
     3
 72
    25
 73
    21
 74
     0
 42
0.000000001
 43
0.00000001
 40
0.0
 40
0.0
 40
0.0
 40
0.0
 40
0.0280105225426455
 40
0.0559601148860774
 40
0.0839014045043129
 40
0.1118870776786379
 40
0.1399695827588941
 40
0.1682008401739877
 40
0.1966319670424218
 40
0.2253130233141493
 40
0.2542927850735863
 40
0.3799486436570518
 40
0.505785022166658
 40
0.6313085886329272
 40
0.7532068238012843
 40
0.8039473267959846
 40
0.8535894438560211
 40
0.902533972239985
 40
0.9511970353794947
 40
1.0
 40
1.0
 40
1.0
 40
1.0
 10
227.3643333360428
 20
46.34231035813648
 30
0.0
 10
227.3692814435734
 20
46.31468649702899
 30
0.0
 10
227.3791668952089
 20
46.25949886392368
 30
0.0
 10
227.3907025448121
 20
46.18033815655377
 30
0.0
 10
227.3997756666249
 20
46.10403481745539
 30
0.0
 10
227.4061444753379
 20
46.03083905648577
 30
0.0
 10
227.409860714148
 20
45.96069158827238
 30
0.0
 10
227.4108973351308
 20
45.8936153017596
 30
0.0
 10
227.4092488599039
 20
45.82961139253317
 30
0.0
 10
227.404902708035
 20
45.76868253926633
 30
0.0
 10
227.3900463834676
 20
45.6467944177702
 30
0.0
 10
227.3449581264013
 20
45.49189354611616
 30
0.0
 10
227.2315986059106
 20
45.36095042777267
 30
0.0
 10
227.0697743839176
 20
45.30507402695986
 30
0.0
 10
226.8957591647842
 20
45.32494807934442
 30
0.0
 10
226.7443982440966
 20
45.37226588170088
 30
0.0
 10
226.6339980113977
 20
45.41718130543654
 30
0.0
 10
226.516838515949
 20
45.47455703672768
 30
0.0
 10
226.3932728490157
 20
45.54323410118013
 30
0.0
 10
226.3057777989211
 20
45.59865434713296
 30
0.0
 10
226.2619674792398
 20
45.62640424486302
 30
0.0
  0
ARC
  5
221
330
1F
100
AcDbEntity
  8
0
  6
Continuous
 62
     7
370
    25
100
AcDbCircle
 10
238.5573545004
 20
48.1283607267
 30
0.0
 40
11.33462419218402
100
AcDbArc
 50
170.9338462887
 51
189.0661537113
  0
SPLINE
  5
222
330
1F
100
AcDbEntity
  8
0
  6
Continuous
 62
     7
370
    25
100
AcDbSpline
210
0.0
220
0.0
230
1.0
 70
     8
 71
     3
 72
    26
 73
    22
 74
     0
 42
0.000000001
 43
0.00000001
 40
0.0
 40
0.0
 40
0.0
 40
0.0
 40
0.0241259796963637
 40
0.048215991227299
 40
0.0723203915124064
 40
0.0964895678710793
 40
0.120773623196351
 40
0.1452220711242841
 40
0.1698835501657706
 40
0.1948055644472381
 40
0.2200342569517629
 40
0.2456142191611394
 40
0.3690971486901671
 40
0.4940698769485191
 40
0.6192566784762444
 40
0.7454656653603234
 40
0.7971495824713715
 40
0.8481710308405401
 40
0.8988013269235245
 40
0.9493179290492194
 40
1.0
 40
1.0
 40
1.0
 40
1.0
 10
226.2619674792398
 20
53.3905146362276
 30
0.0
 10
226.2836857086159
 20
53.37618311283251
 30
0.0
 10
226.327089788792
 20
53.34754143216347
 30
0.0
 10
226.3903969061534
 20
53.29954913423465
 30
0.0
 10
226.4522584738714
 20
53.24794993634897
 30
0.0
 10
226.5125629890079
 20
53.19237514347574
 30
0.0
 10
226.5713528409477
 20
53.13291990284859
 30
0.0
 10
226.6286333593775
 20
53.06955559401118
 30
0.0
 10
226.6844244987037
 20
53.00228681604727
 30
0.0
 10
226.7387457461255
 20
52.93111270208714
 30
0.0
 10
226.7916247213345
 20
52.85602356233886
 30
0.0
 10
226.9084195460708
 20
52.676769113637
 30
0.0
 10
227.0702891039973
 20
52.36646364179362
 30
0.0
 10
227.2334740115291
 20
51.89654985366194
 30
0.0
 10
227.3449854167026
 20
51.39758681975189
 30
0.0
 10
227.3921192548111
 20
50.9887031466949
 30
0.0
 10
227.4072381943436
 20
50.68443119010418
 30
0.0
 10
227.4091913333262
 20
50.48318194840887
 30
0.0
 10
227.402713307687
 20
50.28752202868628
 30
0.0
 10
227.3885863849999
 20
50.09688574078881
 30
0.0
 10
227.3724264933149
 20
49.97530246705
 30
0.0
 10
227.3643333360428
 20
49.91441143045111
 30
0.0
  0
LINE
  5
223
330
1F
100
AcDbEntity
  8
0
  6
Continuous
 62
     7
370
    25
100
AcDbLine
 10
225.6222609006
 20
53.8034894865
 30
0.0
 11
226.2619677429
 21
53.3905145155
 31
0.0
  0
SPLINE
  5
224
330
1F
100
AcDbEntity
  8
0
  6
Continuous
 62
     7
370
    25
100
AcDbSpline
210
0.0
220
0.0
230
1.0
 70
     8
 71
     3
 72
    14
 73
    10
 74
     0
 42
0.000000001
 43
0.00000001
 40
0.0
 40
0.0
 40
0.0
 40
0.0
 40
0.0789261963152472
 40
0.1582328720511064
 40
0.3308475394503796
 40
0.5000195457530386
 40
0.6670357883499396
 40
0.8332395193610692
 40
1.0
 40
1.0
 40
1.0
 40
1.0
 10
224.8083084952026
 20
54.01207191951057
 30
0.0
 10
224.8300253765378
 20
54.01367508336931
 30
0.0
 10
224.8735638297523
 20
54.0168891394569
 30
0.0
 10
224.9650889483992
 20
54.0177101795264
 30
0.0
 10
225.0819972818305
 20
54.00977419774492
 30
0.0
 10
225.2228176202112
 20
53.98349852886808
 30
0.0
 10
225.3600299280238
 20
53.94054093033572
 30
0.0
 10
225.4939606024422
 20
53.88218380552487
 30
0.0
 10
225.5794466944032
 20
53.82975025937368
 30
0.0
 10
225.6222612110526
 20
53.80348964921848
 30
0.0
  0
SPLINE
  5
225
330
1F
100
AcDbEntity
  8
0
  6
Continuous
 62
     7
370
    25
100
AcDbSpline
210
0.0
220
0.0
230
1.0
 70
     8
 71
     3
 72
     8
 73
     4
 74
     0
 42
0.000000001
 43
0.00000001
 40
0.0
 40
0.0
 40
0.0
 40
0.0
 40
1.0
 40
1.0
 40
1.0
 40
1.0
 10
223.0060049121969
 20
55.17446333092489
 30
0.0
 10
223.6067631358938
 20
54.7871958477655
 30
0.0
 10
224.207491998755
 20
54.39972849784167
 30
0.0
 10
224.8081926431026
 20
54.01206160525155
 30
0.0
  0
SPLINE
  5
226
330
1F
100
AcDbEntity
  8
0
  6
Continuous
 62
     7
370
    25
100
AcDbSpline
210
0.0
220
0.0
230
1.0
 70
     8
 71
     3
 72
    13
 73
     9
 74
     0
 42
0.000000001
 43
0.00000001
 40
0.0
 40
0.0
 40
0.0
 40
0.0
 40
0.1667030582307959
 40
0.3329480818053031
 40
0.4990671507274871
 40
0.6653938523718408
 40
0.8322612710550125
 40
1.0
 40
1.0
 40
1.0
 40
1.0
 10
222.6641763771625
 20
55.47552811001068
 30
0.0
 10
222.6844775596025
 20
55.46196300333145
 30
0.0
 10
222.7250241447911
 20
55.43487006156861
 30
0.0
 10
222.7841737817787
 20
55.38967548856088
 30
0.0
 10
222.8419453266812
 20
55.34126434007793
 30
0.0
 10
222.8981950641409
 20
55.28922922530747
 30
0.0
 10
222.953122272887
 20
55.23393125809846
 30
0.0
 10
222.9883429824775
 20
55.19431400293809
 30
0.0
 10
223.0059991944185
 20
55.17445379393716
 30
0.0
  0
SPLINE
  5
227
330
1F
100
AcDbEntity
  8
0
  6
Continuous
 62
     7
370
    25
100
AcDbSpline
210
0.0
220
0.0
230
1.0
 70
     8
 71
     3
 72
     8
 73
     4
 74
     0
 42
0.000000001
 43
0.00000001
 40
0.0
 40
0.0
 40
0.0
 40
0.0
 40
1.0
 40
1.0
 40
1.0
 40
1.0
 10
220.7201958613718
 20
56.73024996239015
 30
0.0
 10
221.368225933772
 20
56.31225464650539
 30
0.0
 10
222.0162189108739
 20
55.89401388408777
 30
0.0
 10
222.6641763771625
 20
55.47552811001068
 30
0.0
  0
LWPOLYLINE
  5
228
330
1F
100
AcDbEntity
  8
0
  6
Continuous
 62
     7
370
    25
100
AcDbPolyline
 90
       20
 70
   128
 43
0.0
 10
220.7201965117
 20
56.7302500129
 10
221.1028451151
 20
57.844212775
 10
221.5650557733
 20
58.952426957
 10
222.1016549606
 20
60.0424895143
 10
222.7066360925
 20
61.1021993834
 10
223.3732290021
 20
62.1196975907
 10
224.0939733682
 20
63.0835951934
 10
224.8608020203
 20
63.9831050219
 10
225.665132642
 20
64.8081584973
 10
226.4979634235
 20
65.5495232089
 10
227.3499730791
 20
66.198900197
 10
228.2116259835
 20
66.74902343
 10
229.0732784424
 20
67.1937340818
 10
229.9252868632
 20
67.5280559045
 10
230.7581155045
 20
67.7482467846
 10
231.5624433273
 20
67.8518429366
 10
232.3292680282
 20
67.8376839783
 10
233.0500074552
 20
67.7059288914
 10
233.7165954258
 20
67.45805278
 10
233.7699342382
 20
67.4319969781
  0
SPLINE
  5
229
330
1F
100
AcDbEntity
  8
0
  6
Continuous
 62
     7
370
    25
100
AcDbSpline
210
0.0
220
0.0
230
1.0
 70
    11
 71
     3
 72
    39
 73
    35
 74
     0
 42
0.000000001
 43
0.00000001
 40
0.0
 40
0.0
 40
0.0
 40
0.0
 40
0.0310664058350965
 40
0.0621048158425859
 40
0.093136155179263
 40
0.1235538293503448
 40
0.1538561545806855
 40
0.1850588072748946
 40
0.2160250992945718
 40
0.2471867223797388
 40
0.2784462884305076
 40
0.3100516090231096
 40
0.3419834369141944
 40
0.3734259894013148
 40
0.4048604886786042
 40
0.4368740651833136
 40
0.4685120685925458
 40
0.4998055358633138
 40
0.5309508213230685
 40
0.5618649784438015
 40
0.5930416446594986
 40
0.6233742450133227
 40
0.6540913579075065
 40
0.6849496782718291
 40
0.71581606451649
 40
0.7471731804043279
 40
0.7784514311862922
 40
0.8101295911560753
 40
0.8419598919688862
 40
0.8735175891922173
 40
0.9050808037887091
 40
0.9370235169792366
 40
0.968744159003463
 40
1.0
 40
1.0
 40
1.0
 40
1.0
 10
233.9287813425772
 20
65.73544033773159
 30
0.0
 10
234.1916669627775
 20
65.70690585044058
 30
0.0
 10
234.7185555732602
 20
65.62096336211741
 30
0.0
 10
235.482567642334
 20
65.42058824204803
 30
0.0
 10
236.1897178303826
 20
65.17358613582897
 30
0.0
 10
236.8026288949769
 20
64.89560425767691
 30
0.0
 10
237.2997602206514
 20
64.60147056034701
 30
0.0
 10
237.6589519417237
 20
64.29996403215496
 30
0.0
 10
237.8806712104845
 20
63.9929665272516
 30
0.0
 10
237.9459230878658
 20
63.68246126584975
 30
0.0
 10
237.8590758767527
 20
63.36331678110051
 30
0.0
 10
237.6167302889922
 20
63.03399681552746
 30
0.0
 10
237.2367924262668
 20
62.69505609396966
 30
0.0
 10
236.7229864731065
 20
62.35721762955934
 30
0.0
 10
236.0970956621957
 20
62.03131972825175
 30
0.0
 10
235.3836246757071
 20
61.73467283501068
 30
0.0
 10
234.6197221994429
 20
61.47856952657066
 30
0.0
 10
233.8339291165365
 20
61.28954195858223
 30
0.0
 10
233.0523916614959
 20
61.1813660365287
 30
0.0
 10
232.2962786767404
 20
61.17370215315985
 30
0.0
 10
231.5939140903508
 20
61.27162418854633
 30
0.0
 10
230.9748937433067
 20
61.49327262204993
 30
0.0
 10
230.4658364782974
 20
61.82914070896189
 30
0.0
 10
230.0928928848626
 20
62.26895127514077
 30
0.0
 10
229.8642909336177
 20
62.78002591566306
 30
0.0
 10
229.7954446268955
 20
63.3312110034237
 30
0.0
 10
229.8800610401193
 20
63.88888293173656
 30
0.0
 10
230.1231698300553
 20
64.41896307265604
 30
0.0
 10
230.5052996728721
 20
64.89148742177092
 30
0.0
 10
231.0214352472847
 20
65.27760893266377
 30
0.0
 10
231.6484131077872
 20
65.56123311999593
 30
0.0
 10
232.3643205401534
 20
65.73097033872335
 30
0.0
 10
233.1327639323376
 20
65.79250917343619
 30
0.0
 10
233.6642927117109
 20
65.7641488211789
 30
0.0
 10
233.9287813425772
 20
65.73544033773157
 30
0.0
  0
LINE
  5
22A
330
1F
100
AcDbEntity
  8
0
  6
Continuous
 62
     7
370
    25
100
AcDbLine
 10
224.7041267086
 20
49.2964316031
 30
0.0
 11
225.0187430546
 21
49.1279834439
 31
0.0
  0
LINE
  5
22B
330
1F
100
AcDbEntity
  8
0
  6
Continuous
 62
     7
370
    25
100
AcDbLine
 10
223.7172845925
 20
49.8661234305
 30
0.0
 11
224.7041267086
 21
49.2964316031
 31
0.0
  0
ARC
  5
22C
330
1F
100
AcDbEntity
  8
0
  6
Continuous
 62
     7
370
    25
100
AcDbCircle
 10
225.9492709072
 20
53.3739859049
 30
0.0
 40
4.399246259573039
100
AcDbArc
 50
267.4956853267
 51
287.1750110524
  0
SPLINE
  5
22D
330
1F
100
AcDbEntity
  8
0
  6
Continuous
 62
     7
370
    25
100
AcDbSpline
210
0.0
220
0.0
230
1.0
 70
     8
 71
     3
 72
    14
 73
    10
 74
     0
 42
0.000000001
 43
0.00000001
 40
0.0
 40
0.0
 40
0.0
 40
0.0
 40
0.1259749647163301
 40
0.2518224605244968
 40
0.3788151386161487
 40
0.5057174256655027
 40
0.7244132886126112
 40
0.9321266548948761
 40
1.0
 40
1.0
 40
1.0
 40
1.0
 10
235.2672873008765
 20
62.73294462239584
 30
0.0
 10
235.0980254870373
 20
62.82649069312342
 30
0.0
 10
234.7596731284571
 20
63.01348817914027
 30
0.0
 10
234.1731641960367
 20
63.27974232922833
 30
0.0
 10
233.5370168923279
 20
63.51701318816434
 30
0.0
 10
232.7011182822935
 20
63.75090668892069
 30
0.0
 10
231.7011100677189
 20
63.86700809340881
 30
0.0
 10
230.8560407105432
 20
63.77434142554689
 30
0.0
 10
230.4753442506512
 20
63.59640674002399
 30
0.0
 10
230.3815837711547
 20
63.55258379131988
 30
0.0
  0
SPLINE
  5
22E
330
1F
100
AcDbEntity
  8
0
  6
Continuous
 62
     7
370
    25
100
AcDbSpline
210
0.0
220
0.0
230
1.0
 70
     8
 71
     3
 72
    10
 73
     6
 74
     0
 42
0.000000001
 43
0.00000001
 40
0.0
 40
0.0
 40
0.0
 40
0.0
 40
0.3798174073072795
 40
0.9603711649033085
 40
1.0
 40
1.0
 40
1.0
 40
1.0
 10
236.407167422736
 20
62.20471769487736
 30
0.0
 10
236.2775148054876
 20
62.27504625671472
 30
0.0
 10
235.9496871897331
 20
62.45287255313584
 30
0.0
 10
235.541758644723
 20
62.62592540353825
 30
0.0
 10
235.2851258632911
 20
62.72513083578657
 30
0.0
 10
235.2687273730793
 20
62.73146992972695
 30
0.0
  0
SPLINE
  5
22F
330
1F
100
AcDbEntity
  8
0
  6
Continuous
 62
     7
370
    25
100
AcDbSpline
210
0.0
220
0.0
230
1.0
 70
     8
 71
     3
 72
    24
 73
    20
 74
     0
 42
0.000000001
 43
0.00000001
 40
0.0
 40
0.0
 40
0.0
 40
0.0
 40
0.0618858212107145
 40
0.1150115607194259
 40
0.1593831488268445
 40
0.2428114970815824
 40
0.318331853291959
 40
0.3935543804326023
 40
0.4204843226990471
 40
0.4483397435477174
 40
0.4771286702554668
 40
0.5451537905345539
 40
0.6363475754294583
 40
0.6968782859867285
 40
0.7498596693403015
 40
0.7959701295389731
 40
0.8771179302751783
 40
0.9543004207779655
 40
1.0
 40
1.0
 40
1.0
 40
1.0
 10
233.8739027755749
 20
65.16158243777481
 30
0.0
 10
233.6899459862387
 20
65.18047700274076
 30
0.0
 10
233.3480719182764
 20
65.21559156312526
 30
0.0
 10
232.8838539452996
 20
65.20910101473798
 30
0.0
 10
232.3743923330267
 20
65.16137682194068
 30
0.0
 10
231.8352972336521
 20
65.03676022377377
 30
0.0
 10
231.2924592489285
 20
64.79426993983077
 30
0.0
 10
230.9520662334334
 20
64.53689718920486
 30
0.0
 10
230.7454395248824
 20
64.32209008870603
 30
0.0
 10
230.6274554686713
 20
64.17558673740706
 30
0.0
 10
230.4752850644803
 20
63.94583591318661
 30
0.0
 10
230.3086044259007
 20
63.57289321775959
 30
0.0
 10
230.2402428450634
 20
63.1103341650667
 30
0.0
 10
230.2905983086828
 20
62.68200146686488
 30
0.0
 10
230.3960274521981
 20
62.3620745732205
 30
0.0
 10
230.5782267788841
 20
62.0216090580273
 30
0.0
 10
230.8791052039545
 20
61.68566080117222
 30
0.0
 10
231.268790098553
 20
61.4126015004572
 30
0.0
 10
231.5617090547475
 20
61.3186464295299
 30
0.0
 10
231.6706449888037
 20
61.28370473936494
 30
0.0
  0
SPLINE
  5
230
330
1F
100
AcDbEntity
  8
0
  6
Continuous
 62
     7
370
    25
100
AcDbSpline
210
0.0
220
0.0
230
1.0
 70
     8
 71
     3
 72
    22
 73
    18
 74
     0
 42
0.000000001
 43
0.00000001
 40
0.0
 40
0.0
 40
0.0
 40
0.0
 40
0.0214008946722519
 40
0.0798381560026179
 40
0.1451742207735038
 40
0.2174487273901931
 40
0.2795023143576268
 40
0.3328972608292807
 40
0.3776330196262778
 40
0.413712288049995
 40
0.5170515066560054
 40
0.6091742659892311
 40
0.7026711805356932
 40
0.75250821474062
 40
0.8044472906731547
 40
0.893685778299166
 40
1.0
 40
1.0
 40
1.0
 40
1.0
 10
237.1805136075715
 20
62.6859629352324
 30
0.0
 10
237.2030657077495
 20
62.70724737682645
 30
0.0
 10
237.2871985498469
 20
62.78665109309345
 30
0.0
 10
237.3932977687834
 20
62.9282477147728
 30
0.0
 10
237.4905960214486
 20
63.11702969002761
 30
0.0
 10
237.5216090640469
 20
63.30299292548672
 30
0.0
 10
237.4922649494637
 20
63.4748081276196
 30
0.0
 10
237.4237569474164
 20
63.62161394613822
 30
0.0
 10
237.3359469416147
 20
63.74282502525359
 30
0.0
 10
237.1816550456878
 20
63.90840812818494
 30
0.0
 10
236.913829161581
 20
64.1185723963462
 30
0.0
 10
236.4622588869624
 20
64.37401619876928
 30
0.0
 10
236.0146962822543
 20
64.58065289734455
 30
0.0
 10
235.6058025088389
 20
64.73915711371872
 30
0.0
 10
235.1837229101664
 20
64.881673861721
 30
0.0
 10
234.6054102922739
 20
65.04493043054593
 30
0.0
 10
234.131531698496
 20
65.12049888047305
 30
0.0
 10
233.8739027755749
 20
65.16158243777481
 30
0.0
  0
LINE
  5
231
330
1F
100
AcDbEntity
  8
0
  6
Continuous
 62
     7
370
    25
100
AcDbLine
 10
227.3643330537
 20
49.9144112497
 30
0.0
 11
227.3590949907
 21
50.2104946726
 31
0.0
  0
LINE
  5
232
330
1F
100
AcDbEntity
  8
0
  6
Continuous
 62
     7
370
    25
100
AcDbLine
 10
227.3590949907
 20
50.2104946726
 30
0.0
 11
227.402193436
 21
50.8621291836
 31
0.0
  0
LINE
  5
233
330
1F
100
AcDbEntity
  8
0
  6
Continuous
 62
     7
370
    25
100
AcDbLine
 10
226.8795461727
 20
52.6911828901
 30
0.0
 11
226.5681316701
 21
53.0197794596
 31
0.0
  0
SPLINE
  5
234
330
1F
100
AcDbEntity
  8
0
  6
Continuous
 62
     7
370
    25
100
AcDbSpline
210
0.0
220
0.0
230
1.0
 70
     8
 71
     3
 72
    18
 73
    14
 74
     0
 42
0.000000001
 43
0.00000001
 40
0.0
 40
0.0
 40
0.0
 40
0.0
 40
0.0707943140208255
 40
0.1980684859852275
 40
0.3219456980797736
 40
0.4427972789066824
 40
0.5640588087926915
 40
0.6887793780430184
 40
0.7629730969043459
 40
0.811666558538083
 40
0.8526846007253863
 40
0.9053445042636868
 40
1.0
 40
1.0
 40
1.0
 40
1.0
 10
230.2940169638716
 20
62.9029336500794
 30
0.0
 10
230.2921402533034
 20
63.08062380803009
 30
0.0
 10
230.2868895883874
 20
63.57776571902338
 30
0.0
 10
230.6642204614199
 20
64.26075853258455
 30
0.0
 10
231.398218953324
 20
64.84693215043669
 30
0.0
 10
232.3862211118853
 20
65.14394801523714
 30
0.0
 10
233.5053468872487
 20
65.13641011882365
 30
0.0
 10
234.4888029383591
 20
64.85436003340348
 30
0.0
 10
235.1658231366272
 20
64.44961187546485
 30
0.0
 10
235.5305227013829
 20
64.07422672066545
 30
0.0
 10
235.7244039194872
 20
63.68233381190733
 30
0.0
 10
235.7863385107321
 20
63.16828321113871
 30
0.0
 10
235.7195705339251
 20
62.8147894704484
 30
0.0
 10
235.6766696832666
 20
62.58765690026576
 30
0.0
  0
SPLINE
  5
235
330
1F
100
AcDbEntity
  8
0
  6
Continuous
 62
     7
370
    25
100
AcDbSpline
210
0.0
220
0.0
230
1.0
 70
     8
 71
     3
 72
    10
 73
     6
 74
     0
 42
0.000000001
 43
0.00000001
 40
0.0
 40
0.0
 40
0.0
 40
0.0
 40
0.2950793120415163
 40
0.9802485402315175
 40
1.0
 40
1.0
 40
1.0
 40
1.0
 10
235.6793975392548
 20
62.58641834684337
 30
0.0
 10
235.7622218399258
 20
62.54765330569759
 30
0.0
 10
236.0373627817516
 20
62.41887648724745
 30
0.0
 10
236.3123970911785
 20
62.27762389960315
 30
0.0
 10
236.4609465353668
 20
62.18358367443247
 30
0.0
 10
236.4651088027263
 20
62.18094872307438
 30
0.0
  0
ARC
  5
236
330
1F
100
AcDbEntity
  8
0
  6
Continuous
 62
     7
370
    25
100
AcDbCircle
 10
239.6895061046
 20
48.3731993545
 30
0.0
 40
12.46654291792345
100
AcDbArc
 50
171.5249863735
 51
179.8211981812
  0
SPLINE
  5
237
330
1F
100
AcDbEntity
  8
0
  6
Continuous
 62
     7
370
    25
100
AcDbSpline
210
0.0
220
0.0
230
1.0
 70
     8
 71
     3
 72
    14
 73
    10
 74
     0
 42
0.000000001
 43
0.00000001
 40
0.0
 40
0.0
 40
0.0
 40
0.0
 40
0.0003951393068452
 40
0.0003951393068452
 40
0.0003951393068452
 40
0.0008163352168664
 40
0.0008163352168664
 40
0.0008163352168664
 40
0.0012378579337219
 40
0.0012378579337219
 40
0.0012378579337219
 40
0.0012378579337219
 10
235.2713198764162
 20
62.73166566901151
 30
0.0
 10
235.3167816906474
 20
62.71722880638647
 30
0.0
 10
235.3616692952685
 20
62.70236294582088
 30
0.0
 10
235.4059529879436
 20
62.68707915821539
 30
0.0
 10
235.453156280183
 20
62.67078771887771
 30
0.0
 10
235.4996820932421
 20
62.6540182407938
 30
0.0
 10
235.5454930024838
 20
62.63678942999851
 30
0.0
 10
235.5913393904729
 20
62.61954727616686
 30
0.0
 10
235.6364786260453
 20
62.60184156996237
 30
0.0
 10
235.6808721840877
 20
62.58369871327157
 30
0.0
  0
LINE
  5
238
330
1F
100
AcDbEntity
  8
0
  6
Continuous
 62
     7
370
    25
100
AcDbLine
 10
226.5681316701
 20
53.0197794596
 30
0.0
 11
225.9281949957
 21
53.4320110997
 31
0.0
  0
LINE
  5
239
330
1F
100
AcDbEntity
  8
0
  6
Continuous
 62
     7
370
    25
100
AcDbLine
 10
225.6222609006
 20
53.8034894865
 30
0.0
 11
225.9281949957
 21
53.4320110997
 31
0.0
  0
SPLINE
  5
23A
330
1F
100
AcDbEntity
  8
0
  6
Continuous
 62
     7
370
    25
100
AcDbSpline
210
0.0
220
0.0
230
1.0
 70
     8
 71
     3
 72
    13
 73
     9
 74
     0
 42
0.000000001
 43
0.00000001
 40
0.0
 40
0.0
 40
0.0
 40
0.0
 40
0.1618542298650875
 40
0.3254858841233149
 40
0.4910085196246548
 40
0.6585318472470939
 40
0.8281616954004768
 40
1.0
 40
1.0
 40
1.0
 40
1.0
 10
225.9281954073946
 20
53.4320111035816
 30
0.0
 10
225.9086180153795
 20
53.44457408061322
 30
0.0
 10
225.8692482395377
 20
53.46983799672938
 30
0.0
 10
225.8077122997716
 20
53.50253169364225
 30
0.0
 10
225.7441556405236
 20
53.53147776734907
 30
0.0
 10
225.6785375378652
 20
53.55599013481608
 30
0.0
 10
225.611110268806
 20
53.57642519817192
 30
0.0
 10
225.565225668604
 20
53.58602185316315
 30
0.0
 10
225.5421349884267
 20
53.59085121399879
 30
0.0
  0
SPLINE
  5
23B
330
1F
100
AcDbEntity
  8
0
  6
Continuous
 62
     7
370
    25
100
AcDbSpline
210
0.0
220
0.0
230
1.0
 70
     8
 71
     3
 72
     9
 73
     5
 74
     0
 42
0.000000001
 43
0.00000001
 40
0.0
 40
0.0
 40
0.0
 40
0.0
 40
0.4907282259506041
 40
1.0
 40
1.0
 40
1.0
 40
1.0
 10
225.5421291611347
 20
53.59082321696777
 30
0.0
 10
225.5180356386569
 20
53.59891874918591
 30
0.0
 10
225.4689381520977
 20
53.61541572610717
 30
0.0
 10
225.4182374582775
 20
53.63020939512341
 30
0.0
 10
225.3924170259902
 20
53.63774339318801
 30
0.0
  0
SPLINE
  5
23C
330
1F
100
AcDbEntity
  8
0
  6
Continuous
 62
     7
370
    25
100
AcDbSpline
210
0.0
220
0.0
230
1.0
 70
     8
 71
     3
 72
    14
 73
    10
 74
     0
 42
0.000000001
 43
0.00000001
 40
0.0
 40
0.0
 40
0.0
 40
0.0
 40
0.0310276388093398
 40
0.0622853718693698
 40
0.1248003166924349
 40
0.2498289731770658
 40
0.4998892603621822
 40
0.7606803621577949
 40
1.0
 40
1.0
 40
1.0
 40
1.0
 10
224.8084763367022
 20
54.0118511358339
 30
0.0
 10
224.814468576107
 20
54.00802009217994
 30
0.0
 10
224.8264974920665
 20
54.00032959468187
 30
0.0
 10
224.8505573001162
 20
53.98489170517491
 30
0.0
 10
224.8927909727625
 20
53.95782125224402
 30
0.0
 10
224.9773535472748
 20
53.90360922744858
 30
0.0
 10
225.1006405167432
 20
53.82460604558383
 30
0.0
 10
225.246772223197
 20
53.73099987090608
 30
0.0
 10
225.345138839738
 20
53.66801679451362
 30
0.0
 10
225.3922105404246
 20
53.63787729572312
 30
0.0
  0
LINE
  5
23D
330
1F
100
AcDbEntity
  8
0
  6
Continuous
 62
     7
370
    25
100
AcDbLine
 10
223.0059761815
 20
55.1744818128
 30
0.0
 11
223.2969435356
 21
54.9864032737
 31
0.0
  0
SPLINE
  5
23E
330
1F
100
AcDbEntity
  8
0
  6
Continuous
 62
     7
370
    25
100
AcDbSpline
210
0.0
220
0.0
230
1.0
 70
     8
 71
     3
 72
     8
 73
     4
 74
     0
 42
0.000000001
 43
0.00000001
 40
0.0
 40
0.0
 40
0.0
 40
0.0
 40
1.0
 40
1.0
 40
1.0
 40
1.0
 10
223.3283318389971
 20
54.96618074352271
 30
0.0
 10
223.3178893331453
 20
54.9730061684201
 30
0.0
 10
223.3074234002555
 20
54.97974913520663
 30
0.0
 10
223.2969356354389
 20
54.98640822285962
 30
0.0
  0
SPLINE
  5
23F
330
1F
100
AcDbEntity
  8
0
  6
Continuous
 62
     7
370
    25
100
AcDbSpline
210
0.0
220
0.0
230
1.0
 70
     8
 71
     3
 72
     8
 73
     4
 74
     0
 42
0.000000001
 43
0.00000001
 40
0.0
 40
0.0
 40
0.0
 40
0.0
 40
1.0
 40
1.0
 40
1.0
 40
1.0
 10
220.5423274601713
 20
56.84443639533304
 30
0.0
 10
220.601327224342
 20
56.80569572841365
 30
0.0
 10
220.6606147878531
 20
56.76763375111393
 30
0.0
 10
220.7201958613422
 20
56.73024996265324
 30
0.0
  0
SPLINE
  5
240
330
1F
100
AcDbEntity
  8
0
  6
Continuous
 62
     7
370
    25
100
AcDbSpline
210
0.0
220
0.0
230
1.0
 70
     8
 71
     3
 72
     8
 73
     4
 74
     0
 42
0.000000001
 43
0.00000001
 40
0.0
 40
0.0
 40
0.0
 40
0.0
 40
1.0
 40
1.0
 40
1.0
 40
1.0
 10
220.5174777140737
 20
57.2076465732701
 30
0.0
 10
220.5249519261642
 20
57.08668873255888
 30
0.0
 10
220.5332480300543
 20
56.96561689014886
 30
0.0
 10
220.5423274601731
 20
56.84443639533367
 30
0.0
  0
LWPOLYLINE
  5
241
330
1F
100
AcDbEntity
  8
0
  6
Continuous
 62
     7
370
    25
100
AcDbPolyline
 90
       16
 70
   128
 43
0.0
 10
220.5174780729
 20
57.2076459079
 10
220.8913884492
 20
58.2662261182
 10
221.3393870584
 20
59.31793772
 10
221.8565848659
 20
60.351304266
 10
222.4373384746
 20
61.3550503321
 10
223.0753113693
 20
62.3182239461
 10
223.7635420759
 20
63.2303142629
 10
224.4945212114
 20
64.08137095
 10
225.2602724847
 20
64.862106462
 10
226.0524402832
 20
65.5640013567
 10
226.8623810454
 20
66.1793981086
 10
227.6812569396
 20
66.7015810437
 10
228.5001328338
 20
67.1248520915
 10
229.3100735961
 20
67.4445930387
 10
230.1022413945
 20
67.6573156159
 10
230.4814405418
 20
67.7217535993
  0
SPLINE
  5
242
330
1F
100
AcDbEntity
  8
0
  6
Continuous
 62
     7
370
    25
100
AcDbSpline
210
0.0
220
0.0
230
1.0
 70
     8
 71
     3
 72
    10
 73
     6
 74
     0
 42
0.000000001
 43
0.00000001
 40
0.0
 40
0.0
 40
0.0
 40
0.0
 40
0.2409818396634726
 40
0.5031433556203718
 40
1.0
 40
1.0
 40
1.0
 40
1.0
 10
226.5681316701124
 20
46.31393783631628
 30
0.0
 10
226.6503775411154
 20
46.26226131439572
 30
0.0
 10
226.8220977984599
 20
46.15436646770434
 30
0.0
 10
227.0998191574868
 20
46.0246437572401
 30
0.0
 10
227.2207964045308
 20
46.04742169834509
 30
0.0
 10
227.2999886454463
 20
46.06233223932382
 30
0.0
  0
LINE
  5
243
330
1F
100
AcDbEntity
  8
0
  6
Continuous
 62
     7
370
    25
100
AcDbLine
 10
221.784957614
 20
56.0430105693
 30
0.0
 11
221.0230789116
 21
56.5336449769
 31
0.0
  0
LINE
  5
244
330
1F
100
AcDbEntity
  8
0
  6
Continuous
 62
     7
370
    25
100
AcDbLine
 10
221.0230789116
 20
56.5336449769
 30
0.0
 11
220.5423275913
 21
56.844436353
 31
0.0
  0
LINE
  5
245
330
1F
100
AcDbEntity
  8
0
  6
Continuous
 62
     7
370
    25
100
AcDbLine
 10
225.6222609006
 20
46.0381580354
 30
0.0
 11
225.9281949957
 21
46.7261694764
 31
0.0
  0
LINE
  5
246
330
1F
100
AcDbEntity
  8
0
  6
Continuous
 62
     7
370
    25
100
AcDbLine
 10
225.9281949957
 20
46.7261694764
 30
0.0
 11
226.5681316701
 21
46.3139378363
 31
0.0
  0
SPLINE
  5
247
330
1F
100
AcDbEntity
  8
0
  6
Continuous
 62
     7
370
    25
100
AcDbSpline
210
0.0
220
0.0
230
1.0
 70
     8
 71
     3
 72
    13
 73
     9
 74
     0
 42
0.000000001
 43
0.00000001
 40
0.0
 40
0.0
 40
0.0
 40
0.0
 40
0.1722587823402174
 40
0.3421398270982735
 40
0.5097456257612809
 40
0.6751828993009421
 40
0.8385626189970466
 40
1.0
 40
1.0
 40
1.0
 40
1.0
 10
225.5421234766213
 20
47.0074791818349
 30
0.0
 10
225.5652750005721
 20
46.98935959090188
 30
0.0
 10
225.6112584813209
 20
46.95337051896784
 30
0.0
 10
225.6787994940318
 20
46.90237053555266
 30
0.0
 10
225.7444591087171
 20
46.854045855362
 30
0.0
 10
225.8079831799674
 20
46.80861484945266
 30
0.0
 10
225.8694135586893
 20
46.76578928169243
 30
0.0
 10
225.9086797256629
 20
46.73932346451699
 30
0.0
 10
225.9281954073946
 20
46.72616968596989
 30
0.0
  0
SPLINE
  5
248
330
1F
100
AcDbEntity
  8
0
  6
Continuous
 62
     7
370
    25
100
AcDbSpline
210
0.0
220
0.0
230
1.0
 70
     8
 71
     3
 72
    11
 73
     7
 74
     0
 42
0.000000001
 43
0.00000001
 40
0.0
 40
0.0
 40
0.0
 40
0.0
 40
0.239284509383631
 40
0.5001120454057238
 40
0.7515010915050501
 40
1.0
 40
1.0
 40
1.0
 40
1.0
 10
225.3927430651452
 20
47.05479317404777
 30
0.0
 10
225.345673833154
 20
47.02647865134156
 30
0.0
 10
225.247297678561
 20
46.96730042078342
 30
0.0
 10
225.1010004569756
 20
46.87411252032605
 30
0.0
 10
224.9531597133143
 20
46.77874060435368
 30
0.0
 10
224.8568732505982
 20
46.71420534908543
 30
0.0
 10
224.8090083627411
 20
46.68212427902519
 30
0.0
  0
SPLINE
  5
249
330
1F
100
AcDbEntity
  8
0
  6
Continuous
 62
     7
370
    25
100
AcDbSpline
210
0.0
220
0.0
230
1.0
 70
     8
 71
     3
 72
     9
 73
     5
 74
     0
 42
0.000000001
 43
0.00000001
 40
0.0
 40
0.0
 40
0.0
 40
0.0
 40
0.509066935386983
 40
0.9999999999999999
 40
0.9999999999999999
 40
0.9999999999999999
 40
0.9999999999999999
 10
225.3933140687294
 20
47.054094219836
 30
0.0
 10
225.4189626433534
 20
47.04660151167612
 30
0.0
 10
225.4693461446988
 20
47.03188299896386
 30
0.0
 10
225.5181536561942
 20
47.01549064111169
 30
0.0
 10
225.5421148773887
 20
47.0074430906351
 30
0.0
  0
LINE
  5
24A
330
1F
100
AcDbEntity
  8
0
  6
Continuous
 62
     7
370
    25
100
AcDbLine
 10
227.2232326489
 20
47.9779727871
 30
0.0
 11
225.5421166925
 21
47.0074852029
 31
0.0
  0
LINE
  5
24B
330
1F
100
AcDbEntity
  8
0
  6
Continuous
 62
     7
370
    25
100
AcDbLine
 10
223.5356290413
 20
48.1313065015
 30
0.0
 11
223.3353333877
 21
47.6301490873
 31
0.0
  0
SPLINE
  5
24C
330
1F
100
AcDbEntity
  8
0
  6
Continuous
 62
     7
370
    25
100
AcDbSpline
210
0.0
220
0.0
230
1.0
 70
     8
 71
     3
 72
     8
 73
     4
 74
     0
 42
0.000000001
 43
0.00000001
 40
0.0
 40
0.0
 40
0.0
 40
0.0
 40
1.0
 40
1.0
 40
1.0
 40
1.0
 10
223.5351858705892
 20
48.13209025369735
 30
0.0
 10
223.5613612051584
 20
48.15425763067562
 30
0.0
 10
223.5871822451239
 20
48.17688977176724
 30
0.0
 10
223.6126397988323
 20
48.19997449185852
 30
0.0
  0
LINE
  5
24D
330
1F
100
AcDbEntity
  8
0
  6
Continuous
 62
     7
370
    25
100
AcDbLine
 10
223.6126398946
 20
48.1999743762
 30
0.0
 11
225.3929326538
 21
47.0542034911
 31
0.0
  0
LINE
  5
24E
330
1F
100
AcDbEntity
  8
0
  6
Continuous
 62
     7
370
    25
100
AcDbLine
 10
227.2230238903
 20
48.0760227223
 30
0.0
 11
227.1350245633
 21
48.1835137906
 31
0.0
  0
LINE
  5
24F
330
1F
100
AcDbEntity
  8
0
  6
Continuous
 62
     7
370
    25
100
AcDbLine
 10
225.3067528853
 20
49.1779649887
 30
0.0
 11
223.6126398946
 21
48.1999743762
 31
0.0
  0
LINE
  5
250
330
1F
100
AcDbEntity
  8
0
  6
Continuous
 62
     7
370
    25
100
AcDbLine
 10
225.449063695
 20
49.1567366955
 30
0.0
 11
225.3071730367
 21
49.1774776112
 31
0.0
  0
LINE
  5
251
330
1F
100
AcDbEntity
  8
0
  6
Continuous
 62
     7
370
    25
100
AcDbLine
 10
227.1350983203
 20
48.1834096241
 30
0.0
 11
225.449063695
 21
49.1567366955
 31
0.0
  0
LINE
  5
252
330
1F
100
AcDbEntity
  8
0
  6
Continuous
 62
     7
370
    25
100
AcDbLine
 10
227.2230238903
 20
48.1326455413
 30
0.0
 11
227.1350515636
 21
48.1834365975
 31
0.0
  0
SPLINE
  5
253
330
1F
100
AcDbEntity
  8
0
  6
Continuous
 62
     7
370
    25
100
AcDbSpline
210
0.0
220
0.0
230
1.0
 70
     8
 71
     3
 72
    19
 73
    15
 74
     0
 42
0.000000001
 43
0.00000001
 40
0.0
 40
0.0
 40
0.0
 40
0.0
 40
0.0637853009172641
 40
0.1289628367748405
 40
0.1955871994416645
 40
0.2637095015536399
 40
0.333377557949238
 40
0.4046360709686026
 40
0.4775268158973639
 40
0.5520888236427515
 40
0.6283585584336152
 40
0.7063700889344581
 40
0.8377041806176546
 40
0.9999999999999999
 40
0.9999999999999999
 40
0.9999999999999999
 40
0.9999999999999999
 10
222.7511167646279
 20
48.30057834104922
 30
0.0
 10
222.7718061336344
 20
48.287219201038
 30
0.0
 10
222.8136364562919
 20
48.26020933249548
 30
0.0
 10
222.8741274298901
 20
48.22268736696743
 30
0.0
 10
222.9336116280718
 20
48.18716762587611
 30
0.0
 10
222.9916927875448
 20
48.15418749695969
 30
0.0
 10
223.0482249046324
 20
48.12398106069
 30
0.0
 10
223.1029699593855
 20
48.09686762072946
 30
0.0
 10
223.1556923369763
 20
48.07313600298061
 30
0.0
 10
223.2061339699048
 20
48.05309574953696
 30
0.0
 10
223.2540168883671
 20
48.03697588799952
 30
0.0
 10
223.3089810427422
 20
48.02269791831478
 30
0.0
 10
223.3718123567034
 20
48.01255936106427
 30
0.0
 10
223.4103198723635
 20
48.01903361238006
 30
0.0
 10
223.4316038375554
 20
48.02261207589004
 30
0.0
  0
LINE
  5
254
330
1F
100
AcDbEntity
  8
0
  6
Continuous
 62
     7
370
    25
100
AcDbLine
 10
223.4562395252
 20
48.0486825302
 30
0.0
 11
223.5350435952
 21
48.1320741339
 31
0.0
  0
SPLINE
  5
255
330
1F
100
AcDbEntity
  8
0
  6
Continuous
 62
     7
370
    25
100
AcDbSpline
210
0.0
220
0.0
230
1.0
 70
     8
 71
     3
 72
     9
 73
     5
 74
     0
 42
0.000000001
 43
0.00000001
 40
0.0
 40
0.0
 40
0.0
 40
0.0
 40
0.5231976711515671
 40
0.9999999999999999
 40
0.9999999999999999
 40
0.9999999999999999
 40
0.9999999999999999
 10
225.140503324304
 20
49.08199132940803
 30
0.0
 10
225.0714685327792
 20
49.10702802432472
 30
0.0
 10
224.9395207139502
 20
49.15488124748909
 30
0.0
 10
224.6980817435803
 20
49.29247576487604
 30
0.0
 10
224.5829630802332
 20
49.35808115120292
 30
0.0
  0
LINE
  5
256
330
1F
100
AcDbEntity
  8
0
  6
Continuous
 62
     7
370
    25
100
AcDbLine
 10
220.853432578
 20
49.1239537963
 30
0.0
 11
221.3049036923
 21
49.2362177692
 31
0.0
  0
LINE
  5
257
330
1F
100
AcDbEntity
  8
0
  6
Continuous
 62
     7
370
    25
100
AcDbLine
 10
221.3049036923
 20
49.2362177692
 30
0.0
 11
222.7511161642
 21
48.3005784361
 31
0.0
  0
SPLINE
  5
258
330
1F
100
AcDbEntity
  8
0
  6
Continuous
 62
     7
370
    25
100
AcDbSpline
210
0.0
220
0.0
230
1.0
 70
     8
 71
     3
 72
     8
 73
     4
 74
     0
 42
0.000000001
 43
0.00000001
 40
0.0
 40
0.0
 40
0.0
 40
0.0
 40
1.0
 40
1.0
 40
1.0
 40
1.0
 10
221.0242211486446
 20
48.7292041432659
 30
0.0
 10
220.9670958797213
 20
48.86099032705983
 30
0.0
 10
220.9101673880045
 20
48.99257454871891
 30
0.0
 10
220.8534332700558
 20
49.12395361561858
 30
0.0
  0
LINE
  5
259
330
1F
100
AcDbEntity
  8
0
  6
Continuous
 62
     7
370
    25
100
AcDbLine
 10
222.6426051514
 20
50.0084563839
 30
0.0
 11
221.3049036923
 21
49.2362177692
 31
0.0
  0
LINE
  5
25A
330
1F
100
AcDbEntity
  8
0
  6
Continuous
 62
     7
370
    25
100
AcDbLine
 10
223.625703442
 20
49.910696138
 30
0.0
 11
222.6426051514
 21
50.0084563839
 31
0.0
  0
LINE
  5
25B
330
1F
100
AcDbEntity
  8
0
  6
Continuous
 62
     7
370
    25
100
AcDbLine
 10
224.5829630802
 20
49.3580811512
 30
0.0
 11
223.6257027834
 21
49.9106957578
 31
0.0
  0
SPLINE
  5
25C
330
1F
100
AcDbEntity
  8
0
  6
Continuous
 62
     7
370
    25
100
AcDbSpline
210
0.0
220
0.0
230
1.0
 70
     8
 71
     3
 72
     8
 73
     4
 74
     0
 42
0.000000001
 43
0.00000001
 40
0.0
 40
0.0
 40
0.0
 40
0.0
 40
1.0
 40
1.0
 40
1.0
 40
1.0
 10
220.8534332700558
 20
49.12395361561858
 30
0.0
 10
220.8502959323056
 20
49.1591699224911
 30
0.0
 10
220.8483035284077
 20
49.19481417871879
 30
0.0
 10
220.8475221310356
 20
49.23091108071367
 30
0.0
  0
LINE
  5
25D
330
1F
100
AcDbEntity
  8
0
  6
Continuous
 62
     7
370
    25
100
AcDbLine
 10
221.6586086061
 20
49.6991407954
 30
0.0
 11
220.8475227996
 21
49.2309109258
 31
0.0
  0
SPLINE
  5
25E
330
1F
100
AcDbEntity
  8
0
  6
Continuous
 62
     7
370
    25
100
AcDbSpline
210
0.0
220
0.0
230
1.0
 70
     8
 71
     3
 72
     8
 73
     4
 74
     0
 42
0.000000001
 43
0.00000001
 40
0.0000004089325119
 40
0.0000004089325119
 40
0.0000004089325119
 40
0.0000004089325119
 40
0.0015399868451459
 40
0.0015399868451459
 40
0.0015399868451459
 40
0.0015399868451459
 10
221.6586076635244
 20
49.69914079206978
 30
0.0
 10
221.8970842315477
 20
49.79351717788614
 30
0.0
 10
222.1355311892163
 20
49.88794578981635
 30
0.0
 10
222.3739399280667
 20
49.9824391727788
 30
0.0
  0
LINE
  5
25F
330
1F
100
AcDbEntity
  8
0
  6
Continuous
 62
     7
370
    25
100
AcDbLine
 10
222.373939407
 20
49.9824393199
 30
0.0
 11
222.3983358469
 21
49.9874333463
 31
0.0
  0
LINE
  5
260
330
1F
100
AcDbEntity
  8
0
  6
Continuous
 62
     7
370
    25
100
AcDbLine
 10
222.6426051514
 20
50.0084563839
 30
0.0
 11
222.3983365054
 21
49.9874333463
 31
0.0
  0
SPLINE
  5
261
330
1F
100
AcDbEntity
  8
0
  6
Continuous
 62
     7
370
    25
100
AcDbSpline
210
0.0
220
0.0
230
1.0
 70
     8
 71
     3
 72
     8
 73
     4
 74
     0
 42
0.000000001
 43
0.00000001
 40
0.0
 40
0.0
 40
0.0
 40
0.0
 40
1.0
 40
1.0
 40
1.0
 40
1.0
 10
223.6257013857024
 20
49.91069650275052
 30
0.0
 10
223.6562860522007
 20
49.89577570154275
 30
0.0
 10
223.6868142931997
 20
49.88091783610478
 30
0.0
 10
223.7172850814107
 20
49.86612324897654
 30
0.0
  0
LWPOLYLINE
  5
262
330
1F
100
AcDbEntity
  8
0
  6
Continuous
 62
     7
370
    25
100
AcDbPolyline
 90
        3
 70
   128
 43
0.0
 10
227.2654049748
 20
49.3991530947
 10
226.790875295
 20
49.201190789
 10
226.0540206253
 20
48.975148457
  0
LINE
  5
263
330
1F
100
AcDbEntity
  8
0
  6
Continuous
 62
     7
370
    18
100
AcDbLine
 10
261.3128687885
 20
36.0518554271
 30
0.0
 11
261.2611954351
 21
36.2347569243
 31
0.0
  0
LINE
  5
264
330
1F
100
AcDbEntity
  8
0
  6
Continuous
 62
     7
370
    18
100
AcDbLine
 10
260.9700812255
 20
33.5242865096
 30
0.0
 11
260.3094866685
 21
33.4105421818
 31
0.0
  0
LINE
  5
265
330
1F
100
AcDbEntity
  8
0
  6
Continuous
 62
     7
370
    18
100
AcDbLine
 10
261.8948746196
 20
35.7086890847
 30
0.0
 11
261.8924498587
 21
35.7172699953
 31
0.0
  0
LINE
  5
266
330
1F
100
AcDbEntity
  8
0
  6
Continuous
 62
     7
370
    18
100
AcDbLine
 10
260.3094866685
 20
33.4105421818
 30
0.0
 11
260.1252654278
 21
33.2445234222
 31
0.0
  0
LINE
  5
267
330
1F
100
AcDbEntity
  8
0
  6
Continuous
 62
     7
370
    18
100
AcDbLine
 10
261.1145072801
 20
33.6544421512
 30
0.0
 11
260.9700812255
 21
33.5242865096
 31
0.0
  0
LINE
  5
268
330
1F
100
AcDbEntity
  8
0
  6
Continuous
 62
     7
370
    18
100
AcDbLine
 10
271.0399008964
 20
25.7376921088
 30
0.0
 11
270.5272503387
 21
26.0336389763
 31
0.0
  0
LINE
  5
269
330
1F
100
AcDbEntity
  8
0
  6
Continuous
 62
     7
370
    18
100
AcDbLine
 10
267.1615846514
 20
43.4334018504
 30
0.0
 11
267.0247236269
 21
43.508789683
 31
0.0
  0
LINE
  5
26A
330
1F
100
AcDbEntity
  8
0
  6
Continuous
 62
     7
370
    18
100
AcDbLine
 10
269.0962348104
 20
43.7801407304
 30
0.0
 11
269.2097466455
 21
44.6433808421
 31
0.0
  0
LINE
  5
26B
330
1F
100
AcDbEntity
  8
0
  6
Continuous
 62
     7
370
    18
100
AcDbLine
 10
269.2097466455
 20
44.6433808421
 30
0.0
 11
269.3434502784
 21
44.8786087463
 31
0.0
  0
LINE
  5
26C
330
1F
100
AcDbEntity
  8
0
  6
Continuous
 62
     7
370
    18
100
AcDbLine
 10
268.9914136225
 20
43.5957272883
 30
0.0
 11
269.0962348104
 21
43.7801407304
 31
0.0
  0
LINE
  5
26D
330
1F
100
AcDbEntity
  8
0
  6
Continuous
 62
     7
370
    18
100
AcDbLine
 10
271.7469595551
 20
26.1553962237
 30
0.0
 11
271.2343089974
 21
26.4513430913
 31
0.0
  0
LINE
  5
26E
330
1F
100
AcDbEntity
  8
0
  6
Continuous
 62
     7
370
    18
100
AcDbLine
 10
261.7451808675
 20
24.6623914182
 30
0.0
 11
261.4336116069
 21
24.1734027101
 31
0.0
  0
LINE
  5
26F
330
1F
100
AcDbEntity
  8
0
  6
Continuous
 62
     7
370
    18
100
AcDbLine
 10
261.4336116069
 20
24.1734027101
 30
0.0
 11
261.3862517201
 21
23.9319959278
 31
0.0
  0
ARC
  5
270
330
1F
100
AcDbEntity
  8
0
  6
Continuous
 62
     7
370
    18
100
AcDbCircle
 10
267.4768985471
 20
32.6644329308
 30
0.0
 40
7.849396097446595
100
AcDbArc
 50
290.1071016752
 51
312.6960329609
  0
LWPOLYLINE
  5
271
330
1F
100
AcDbEntity
  8
0
  6
Continuous
 62
     7
370
    18
100
AcDbPolyline
 90
       23
 70
   128
 43
0.0
 10
261.6047047628
 20
46.2185326863
 10
260.8268291912
 20
45.7199160711
 10
260.0583959953
 20
45.1282354977
 10
259.3087327997
 20
44.4506719024
 10
258.5869397015
 20
43.6954513091
 10
257.9017781416
 20
42.8717403707
 10
257.2615648785
 20
41.9895380137
 10
256.6740717253
 20
41.0595525374
 10
256.1464297312
 20
40.0930736752
 10
255.6850435708
 20
39.1018319166
 10
255.2955144943
 20
38.0978608713
 10
254.9825701928
 20
37.0933465134
 10
254.7500098096
 20
36.1004826991
 10
254.6006558665
 20
35.1313212646
 10
254.536321995
 20
34.1976266859
 10
254.5577879117
 20
33.3107321632
 10
254.6647948088
 20
32.4814044495
 10
254.8560420609
 20
31.7197093439
 10
255.1292096155
 20
31.0348937223
 10
255.4809803841
 20
30.4352699457
 10
255.9070850225
 20
29.9281164247
 10
256.402350993
 20
29.5195894016
 10
256.6051112494
 20
29.3926363817
  0
LWPOLYLINE
  5
272
330
1F
100
AcDbEntity
  8
0
  6
Continuous
 62
     7
370
    18
100
AcDbPolyline
 90
        9
 70
   128
 43
0.0
 10
266.6042982763
 20
46.7136131182
 10
266.5353378003
 20
46.7523402681
 10
265.9478446471
 20
47.0040205878
 10
265.307631384
 20
47.147048445
 10
264.6224698241
 20
47.1796886848
 10
263.900676726
 20
47.1015447057
 10
263.1510135303
 20
46.9135655988
 10
262.3825803345
 20
46.6180320892
 10
261.6047047628
 20
46.2185326863
  0
ARC
  5
273
330
1F
100
AcDbEntity
  8
0
  6
Continuous
 62
     7
370
    18
100
AcDbCircle
 10
262.0783515014
 20
37.7796941684
 30
0.0
 40
12.92794095596777
100
AcDbArc
 50
302.552758241
 51
357.4526189272
  0
ARC
  5
274
330
1F
100
AcDbEntity
  8
0
  6
Continuous
 62
     7
370
    18
100
AcDbCircle
 10
262.1839047975
 20
37.7187595733
 30
0.0
 40
12.17434395620414
100
AcDbArc
 50
303.4136702711
 51
356.5917068199
  0
LWPOLYLINE
  5
275
330
1F
100
AcDbEntity
  8
0
  6
Continuous
 62
     7
370
    18
100
AcDbPolyline
 90
       28
 70
   128
 43
0.0
 10
260.8975978657
 20
47.8515482277
 10
260.0614854746
 20
47.319101564
 10
259.2342361047
 20
46.6927599055
 10
258.4246188524
 20
45.9791635045
 10
257.6412157874
 20
45.1858765928
 10
256.8923308267
 20
44.3213066394
 10
256.1859032183
 20
43.3946201844
 10
255.5294202839
 20
42.4156392344
 10
254.9298418512
 20
41.3947421238
 10
254.3935225453
 20
40.3427498335
 10
253.9261482396
 20
39.2708140183
 10
253.5326731645
 20
38.19029743
 10
253.2172685407
 20
37.1126541495
 10
252.9832764818
 20
36.0493065863
 10
252.8331790419
 20
35.0115277043
 10
252.7685659475
 20
34.0103171887
 10
252.7901227434
 20
33.0562885895
 10
252.8976202562
 20
32.1595545398
 10
253.0899205209
 20
31.3296212891
 10
253.3649833666
 20
30.5752856832
 10
253.7198940754
 20
29.9045438828
 10
254.1508903824
 20
29.3245063789
 10
254.6534026474
 20
28.8413211821
 10
255.2221058794
 20
28.4601112702
 10
255.850970445
 20
28.1849156471
 10
256.5333305566
 20
28.0186532147
 10
257.2619527613
 20
27.9630858838
 10
257.3924608069
 20
27.9647734625
  0
LWPOLYLINE
  5
276
330
1F
100
AcDbEntity
  8
0
  6
Continuous
 62
     7
370
    18
100
AcDbPolyline
 90
       12
 70
   128
 43
0.0
 10
268.2345357425
 20
46.7458330539
 10
267.8690474918
 20
47.3198784274
 10
267.4016731862
 20
47.8521953554
 10
266.8653538803
 20
48.2849665557
 10
266.2657754476
 20
48.613605143
 10
265.6092925132
 20
48.8346270306
 10
264.9028649047
 20
48.9456895299
 10
264.1539799441
 20
48.9456153122
 10
263.3705768791
 20
48.8344042978
 10
262.5609596268
 20
48.6132365164
 10
261.7337102569
 20
48.2844563826
 10
260.8975978657
 20
47.8515482277
  0
LWPOLYLINE
  5
277
330
1F
100
AcDbEntity
  8
0
  6
Continuous
 62
     7
370
    18
100
AcDbPolyline
 90
       26
 70
   128
 43
0.0
 10
260.1904909686
 20
49.0762932962
 10
259.3241336862
 20
48.5270071661
 10
258.4661198334
 20
47.884714691
 10
257.624712662
 20
47.1556013659
 10
256.8080153977
 20
46.3466880697
 10
256.0238930375
 20
45.4657661474
 10
255.2798974405
 20
44.5213184242
 10
254.5831932418
 20
43.5224414552
 10
253.9404906805
 20
42.4787542764
 10
253.3579790872
 20
41.4003082956
 10
252.8412686026
 20
40.2974893885
 10
252.3953345305
 20
39.1809184734
 10
252.0244725567
 20
38.0613488531
 10
251.7322533094
 20
36.9495624156
 10
251.5214920665
 20
35.8562665945
 10
251.3942178036
 20
34.7919899982
 10
251.3516560721
 20
33.7669822206
 10
251.3942178036
 20
32.7911151724
 10
251.5214920665
 20
31.8737863121
 10
251.7322533094
 20
31.0238302424
 10
252.0244725567
 20
30.2494329662
 10
252.3953345305
 20
29.5580514667
 10
252.8412686026
 20
28.9563450721
 10
253.3579790872
 20
28.4501073919
 10
253.9404906805
 20
28.0442149809
 10
253.9488212685
 20
28.0394179598
  0
LWPOLYLINE
  5
278
330
1F
100
AcDbEntity
  8
0
  6
Continuous
 62
     7
370
    18
100
AcDbPolyline
 90
       10
 70
   128
 43
0.0
 10
266.45638457
 20
49.6856258645
 10
266.4404912568
 20
49.6948510102
 10
265.7977886955
 20
49.9964896067
 10
265.1010844967
 20
50.1909690298
 10
264.3570888998
 20
50.2764177211
 10
263.5729665395
 20
50.2520112368
 10
262.7562692752
 20
50.1179859426
 10
261.9148621039
 20
49.8756312259
 10
261.0568482511
 20
49.527281993
 10
260.1904909686
 20
49.0762932962
  0
LWPOLYLINE
  5
279
330
1F
100
AcDbEntity
  8
0
  6
Continuous
 62
     7
370
    18
100
AcDbPolyline
 90
       10
 70
   128
 43
0.0
 10
240.7450539328
 20
39.8900433026
 10
240.7876156644
 20
38.9141762544
 10
240.9148899273
 20
37.9968473941
 10
241.1256511701
 20
37.1468913244
 10
241.4178704174
 20
36.3724940482
 10
241.7887323912
 20
35.6811125486
 10
242.2346664634
 20
35.0794061541
 10
242.7513769479
 20
34.5731684739
 10
243.3338885412
 20
34.1672760629
 10
243.3343969376
 20
34.166983237
  0
LWPOLYLINE
  5
27A
330
1F
100
AcDbEntity
  8
0
  6
Continuous
 62
     7
370
    18
100
AcDbPolyline
 90
       25
 70
   128
 43
0.0
 10
255.8333807212
 20
55.8182049181
 10
255.1911865562
 20
56.1195506887
 10
254.4944823575
 20
56.3140301118
 10
253.7504867605
 20
56.399478803
 10
252.9663644003
 20
56.3750723187
 10
252.149667136
 20
56.2410470246
 10
251.3082599647
 20
55.9986923079
 10
250.4502461118
 20
55.650343075
 10
249.5838888294
 20
55.1993543782
 10
248.7175315469
 20
54.6500682481
 10
247.8595176941
 20
54.0077757729
 10
247.0181105228
 20
53.2786624479
 10
246.2014132585
 20
52.4697491517
 10
245.4172908983
 20
51.5888272294
 10
244.6732953013
 20
50.6443795061
 10
243.9765911025
 20
49.6455025372
 10
243.3338885412
 20
48.6018153584
 10
242.7513769479
 20
47.5233693776
 10
242.2346664634
 20
46.4205504705
 10
241.7887323912
 20
45.3039795554
 10
241.4178704174
 20
44.1844099351
 10
241.1256511701
 20
43.0726234976
 10
240.9148899273
 20
41.9793276765
 10
240.7876156644
 20
40.9150510801
 10
240.7450539328
 20
39.8900433026
  0
LWPOLYLINE
  5
27B
330
1F
100
AcDbEntity
  8
0
  6
Continuous
 62
     7
370
    18
100
AcDbPolyline
 90
       27
 70
   128
 43
0.0
 10
260.8975978657
 20
47.4432777548
 10
260.0845572521
 20
46.9247151687
 10
259.2804244408
 20
46.3134264152
 10
258.4940096872
 20
45.6161082067
 10
257.7339293052
 20
44.8404008186
 10
257.0085105903
 20
43.9948027827
 10
256.3257016806
 20
43.0885785482
 10
255.6929833126
 20
42.1316573473
 10
255.1172879843
 20
41.1345237918
 10
254.6049225764
 20
40.1081017197
 10
254.1615008515
 20
39.0636372801
 10
253.7918815512
 20
38.0125738427
 10
253.5001140655
 20
36.9664272876
 10
253.2893949694
 20
35.9366590115
 10
253.1620331201
 20
34.9345516906
 10
253.1194233148
 20
33.9710842821
 10
253.1620331201
 20
33.0568131075
 10
253.2893949694
 20
32.2017546478
 10
253.5001140655
 20
31.4152774614
 10
253.7918815512
 20
30.7059984749
 10
254.1615008515
 20
30.081688398
 10
254.6049225764
 20
29.5491877844
 10
255.1172879843
 20
29.1143302204
 10
255.6929833126
 20
28.7818803429
 10
256.3257016806
 20
28.5554802201
 10
257.0085105903
 20
28.4376103721
 10
257.2773617149
 20
28.4216498351
  0
LWPOLYLINE
  5
27C
330
1F
100
AcDbEntity
  8
0
  6
Continuous
 62
     7
370
    18
100
AcDbPolyline
 90
       12
 70
   128
 43
0.0
 10
267.781331339
 20
46.6170307321
 10
267.6336948799
 20
46.8409693475
 10
267.1902731551
 20
47.3734699611
 10
266.6779077472
 20
47.8083275251
 10
266.1022124188
 20
48.1407774026
 10
265.4694940508
 20
48.3671775254
 10
264.7866851412
 20
48.4850473734
 10
264.0612664262
 20
48.4930947887
 10
263.3011860443
 20
48.3912320475
 10
262.5147712906
 20
48.1805751082
 10
261.7106384793
 20
47.86343188
 10
260.8975978657
 20
47.4432777548
  0
LWPOLYLINE
  5
27D
330
1F
100
AcDbEntity
  8
0
  6
Continuous
 62
     7
370
    18
100
AcDbPolyline
 90
       33
 70
   128
 43
0.0
 10
237.916627003
 20
39.8900436828
 10
237.9591064165
 20
40.9912209521
 10
238.0861949698
 20
42.1323204777
 10
238.2968376747
 20
43.3038856223
 10
238.5892900467
 20
44.4962092406
 10
238.9611279835
 20
45.6994106758
 10
239.4092714725
 20
46.9035209286
 10
239.9300063225
 20
48.0985607929
 10
240.5190177501
 20
49.274629827
 10
241.1714246233
 20
50.4219808756
 10
241.8818216087
 20
51.5311071389
 10
242.6443213185
 20
52.5928182147
 10
243.452606006
 20
53.5983170907
 10
244.2999779442
 20
54.5392702926
 10
245.1794150731
 20
55.4078825939
 10
246.0836307622
 20
56.196955091
 10
247.0051319276
 20
56.8999499319
 10
247.9362828691
 20
57.511041618
 10
248.8693677913
 20
58.0251667845
 10
249.7966548464
 20
58.4380649745
 10
250.7104602606
 20
58.7463141367
 10
251.6032118423
 20
58.9473612047
 10
252.4675119964
 20
59.0395394627
 10
253.2961990513
 20
59.0220856977
 10
254.0824063634
 20
58.8951439013
 10
254.8196186227
 20
58.6597658346
 10
255.5017271702
 20
58.3179026582
 10
256.1230803771
 20
57.8723868663
 10
256.6785290839
 20
57.3269098485
 10
257.1634707228
 20
56.6859922282
 10
257.5738868554
 20
55.9549439344
 10
257.9063767579
 20
55.1398235137
 10
258.0937004017
 20
54.5133502951
  0
LWPOLYLINE
  5
27E
330
1F
100
AcDbEntity
  8
0
  6
Continuous
 62
     7
370
    18
100
AcDbPolyline
 90
       16
 70
   128
 43
0.0
 10
245.5947161242
 20
32.8621283289
 10
245.1794150731
 20
32.7576413883
 10
244.2999779442
 20
32.6108771935
 10
243.452606006
 20
32.5734755804
 10
242.6443213185
 20
32.6457488206
 10
241.8818216087
 20
32.8270964705
 10
241.1714246233
 20
33.1160158329
 10
240.5190177501
 20
33.5101139392
 10
239.9300063225
 20
34.0061248545
 10
239.4092714725
 20
34.5999370585
 10
238.9611279835
 20
35.2866318524
 10
238.5892900467
 20
36.0605183439
 10
238.2968376747
 20
36.9151836409
 10
238.0861949698
 20
37.8435458951
 10
237.9591064165
 20
38.8379121003
 10
237.916627003
 20
39.8900436828
  0
LWPOLYLINE
  5
27F
330
1F
100
AcDbEntity
  8
0
  6
Continuous
 62
     7
370
    18
100
AcDbPolyline
 90
       28
 70
   128
 43
0.0
 10
230.7483319564
 20
43.0179069167
 10
230.7906776853
 20
44.1623309628
 10
230.9173928439
 20
45.3469367955
 10
231.1275126644
 20
46.5627086476
 10
231.4194382008
 20
47.8003935466
 10
231.7909475239
 20
49.0505722275
 10
232.2392135022
 20
50.3037300439
 10
232.760824875
 20
51.5503295902
 10
233.3518112775
 20
52.7808844645
 10
234.0076748508
 20
53.9860277068
 10
234.723424486
 20
55.156588223
 10
235.4936133615
 20
56.2836580814
 10
236.3123784556
 20
57.3586586701
 10
237.1734896079
 20
58.3734085634
 10
238.0703929834
 20
59.3201851151
 10
238.9962624392
 20
60.1917830094
 10
239.9440518781
 20
60.9815688195
 10
240.9065477684
 20
61.683531858
 10
241.8764249548
 20
62.2923293248
 10
242.8463021412
 20
62.8033282219
 10
243.8087980315
 20
63.2126392842
 10
244.7565874704
 20
63.5171478676
 10
245.6824569262
 20
63.7145360928
 10
246.5793603017
 20
63.8033021364
 10
247.440471454
 20
63.782770017
 10
248.2592365481
 20
63.6530954841
 10
249.0294254236
 20
63.4152667733
 10
249.7445356121
 20
63.0714624606
  0
LWPOLYLINE
  5
280
330
1F
100
AcDbEntity
  8
0
  6
Continuous
 62
     7
370
    18
100
AcDbPolyline
 90
       11
 70
   128
 43
0.0
 10
234.0083142975
 20
35.8125740668
 10
234.0076748508
 20
35.8129433315
 10
233.3518112775
 20
36.2608426106
 10
232.760824875
 20
36.8090591084
 10
232.2392135022
 20
37.4534189827
 10
231.7909475239
 20
38.1890199172
 10
231.4194382008
 20
39.0102630638
 10
231.1275126644
 20
39.9108979128
 10
230.9173928439
 20
40.8840705839
 10
230.7906776853
 20
41.9223742087
 10
230.7483319564
 20
43.0179069167
  0
LWPOLYLINE
  5
281
330
1F
100
AcDbEntity
  8
0
  6
Continuous
 62
     7
370
    18
100
AcDbPolyline
 90
       13
 70
   128
 43
0.0
 10
235.3724133949
 20
39.682270289
 10
235.2400979738
 20
40.4745026212
 10
235.1572188304
 20
41.5275655216
 10
235.1672761221
 20
42.6383705842
 10
235.2701763356
 20
43.7964267095
 10
235.4649468008
 20
44.9907948726
 10
235.7497482027
 20
46.2101939692
 10
236.1218903871
 20
47.4431062808
 10
236.5778580433
 20
48.6778860283
 10
237.1133442903
 20
49.9028696359
 10
237.7232915064
 20
51.1064878959
 10
238.4019380854
 20
52.2773701472
 10
239.1428744139
 20
53.4044587202
  0
LWPOLYLINE
  5
282
330
1F
100
AcDbEntity
  8
0
  6
Continuous
 62
     7
370
    18
100
AcDbPolyline
 90
       18
 70
   128
 43
0.0
 10
235.8842091618
 20
36.752342588
 10
235.6343455216
 20
37.1201814015
 10
235.236105877
 20
37.8606620949
 10
234.9160532461
 20
38.6841289497
 10
234.6768468317
 20
39.5837365997
 10
234.5204754383
 20
40.5520081772
 10
234.4482390327
 20
41.5808961756
 10
234.4607375489
 20
42.6618483968
 10
234.5578669369
 20
43.7858803379
 10
234.7388204797
 20
44.9436496691
 10
235.0020934031
 20
46.1255331589
 10
235.3454980223
 20
47.3217075431
 10
235.7661802052
 20
48.5222306076
 10
236.2606437393
 20
49.717125027
 10
236.8247773309
 20
50.8964568801
 10
237.4538934605
 20
52.0504265216
 10
238.142762626
 20
53.1694408224
 10
238.8856594414
 20
54.2442006192
  0
LINE
  5
283
330
1F
100
AcDbEntity
  8
0
  6
Continuous
 62
     7
370
    18
100
AcDbLine
 10
241.877582887
 20
55.6452211866
 30
0.0
 11
241.9199388234
 21
55.6896082829
 31
0.0
  0
ARC
  5
284
330
1F
100
AcDbEntity
  8
0
  6
Continuous
 62
     7
370
    18
100
AcDbCircle
 10
252.0448226785
 20
46.351431754
 30
0.0
 40
14.48276781207024
100
AcDbArc
 50
110.0665409331
 51
139.2901057068
  0
LWPOLYLINE
  5
285
330
1F
100
AcDbEntity
  8
0
  6
Continuous
 62
     7
370
    18
100
AcDbPolyline
 90
       12
 70
   128
 43
0.0
 10
240.229852503
 20
55.9163641365
 10
241.0979350074
 20
56.8427361807
 10
241.9963148398
 20
57.692209846
 10
242.9173143589
 20
58.457523242
 10
243.8530622292
 20
59.1321376494
 10
244.7955609833
 20
59.7102864084
 10
245.7367557782
 20
60.1870283
 10
246.6686026778
 20
60.5582892454
 10
247.5831377593
 20
60.8208961169
 10
248.4725449228
 20
60.9726052367
 10
249.3292227534
 20
61.0121189227
 10
249.8688160133
 20
60.9770172255
  0
LINE
  5
286
330
1F
100
AcDbEntity
  8
0
  6
Continuous
 62
     7
370
    18
100
AcDbLine
 10
226.2619677429
 20
53.3905145155
 30
0.0
 11
226.5681316701
 21
53.0197794596
 31
0.0
  0
LINE
  5
287
330
1F
100
AcDbEntity
  8
0
  6
Continuous
 62
     7
370
    18
100
AcDbLine
 10
226.2619677429
 20
45.6264043678
 30
0.0
 11
226.5681316701
 21
46.3139378363
 31
0.0
  0
LINE
  5
288
330
1F
100
AcDbEntity
  8
0
  6
Continuous
 62
     7
370
    18
100
AcDbLine
 10
227.3040419869
 20
46.7387698194
 30
0.0
 11
226.5681389141
 21
46.3139420182
 31
0.0
  0
LINE
  5
289
330
1F
100
AcDbEntity
  8
0
  6
Continuous
 62
     7
370
    18
100
AcDbLine
 10
227.2374664299
 20
47.4819957871
 30
0.0
 11
225.9281949957
 21
46.7261694764
 31
0.0
  0
LINE
  5
28A
330
1F
100
AcDbEntity
  8
0
  6
Continuous
 62
     7
370
    18
100
AcDbLine
 10
222.7511161642
 20
48.3005784361
 30
0.0
 11
222.45462889
 21
47.8045168183
 31
0.0
  0
LINE
  5
28B
330
1F
100
AcDbEntity
  8
0
  6
Continuous
 62
     7
370
    18
100
AcDbLine
 10
224.5829630802
 20
49.3580811512
 30
0.0
 11
222.7511767503
 21
48.3006134117
 31
0.0
  0
LINE
  5
28C
330
1F
100
AcDbEntity
  8
0
  6
Continuous
 62
     7
370
    18
100
AcDbLine
 10
224.5829630802
 20
49.3580811512
 30
0.0
 11
224.7041267086
 21
49.2964316031
 31
0.0
  0
OLE2FRAME
  5
28D
330
1F
100
AcDbEntity
  8
0
100
AcDbOle2Frame
 70
     2
  3
Paintbrush-Bild
 10
13.8511154363
 20
38.264191557
 30
0.0
 11
51.6290888628
 21
31.9806341108
 31
0.0
 71
     2
 72
     0
 73
     1
 90
    12928
310
80552BED0767C5B32B40DDAF6807D121434000000000000000006FFBDDFB85D0
310
4940DDAF6807D121434000000000000000006FFBDDFB85D04940416F4BD60AFB
310
3F4000000000000000002BED0767C5B32B40416F4BD60AFB3F40000000000000
310
0000000000000100000000010000010000000100000000000100000000320000
310
D0CF11E0A1B11AE1000000000000000000000000000000003E000300FEFF0900
310
0600000000000000000000000100000001000000000000000010000002000000
310
01000000FEFFFFFF0000000000000000FFFFFFFFFFFFFFFFFFFFFFFFFFFFFFFF
310
FFFFFFFFFFFFFFFFFFFFFFFFFFFFFFFFFFFFFFFFFFFFFFFFFFFFFFFFFFFFFFFF
310
FFFFFFFFFFFFFFFFFFFFFFFFFFFFFFFFFFFFFFFFFFFFFFFFFFFFFFFFFFFFFFFF
310
FFFFFFFFFFFFFFFFFFFFFFFFFFFFFFFFFFFFFFFFFFFFFFFFFFFFFFFFFFFFFFFF
310
FFFFFFFFFFFFFFFFFFFFFFFFFFFFFFFFFFFFFFFFFFFFFFFFFFFFFFFFFFFFFFFF
310
FFFFFFFFFFFFFFFFFFFFFFFFFFFFFFFFFFFFFFFFFFFFFFFFFFFFFFFFFFFFFFFF
310
FFFFFFFFFFFFFFFFFFFFFFFFFFFFFFFFFFFFFFFFFFFFFFFFFFFFFFFFFFFFFFFF
310
FFFFFFFFFFFFFFFFFFFFFFFFFFFFFFFFFFFFFFFFFFFFFFFFFFFFFFFFFFFFFFFF
310
FFFFFFFFFFFFFFFFFFFFFFFFFFFFFFFFFFFFFFFFFFFFFFFFFFFFFFFFFFFFFFFF
310
FFFFFFFFFFFFFFFFFFFFFFFFFFFFFFFFFFFFFFFFFFFFFFFFFFFFFFFFFFFFFFFF
310
FFFFFFFFFFFFFFFFFFFFFFFFFFFFFFFFFFFFFFFFFFFFFFFFFFFFFFFFFFFFFFFF
310
FFFFFFFFFFFFFFFFFFFFFFFFFFFFFFFFFFFFFFFFFFFFFFFFFFFFFFFFFFFFFFFF
310
FFFFFFFFFFFFFFFFFFFFFFFFFFFFFFFFFFFFFFFFFFFFFFFFFFFFFFFFFFFFFFFF
310
FFFFFFFFFFFFFFFFFFFFFFFFFFFFFFFFFFFFFFFFFFFFFFFFFFFFFFFFFFFFFFFF
310
FDFFFFFFFEFFFFFFFEFFFFFFFEFFFFFF05000000060000000700000008000000
310
090000000A0000000B0000000C0000000D0000000E0000000F00000010000000
310
11000000120000001300000014000000150000001600000017000000FEFFFFFF
310
FFFFFFFFFFFFFFFFFFFFFFFFFFFFFFFFFFFFFFFFFFFFFFFFFFFFFFFFFFFFFFFF
310
FFFFFFFFFFFFFFFFFFFFFFFFFFFFFFFFFFFFFFFFFFFFFFFFFFFFFFFFFFFFFFFF
310
FFFFFFFFFFFFFFFFFFFFFFFFFFFFFFFFFFFFFFFFFFFFFFFFFFFFFFFFFFFFFFFF
310
FFFFFFFFFFFFFFFFFFFFFFFFFFFFFFFFFFFFFFFFFFFFFFFFFFFFFFFFFFFFFFFF
310
FFFFFFFFFFFFFFFFFFFFFFFFFFFFFFFFFFFFFFFFFFFFFFFFFFFFFFFFFFFFFFFF
310
FFFFFFFFFFFFFFFFFFFFFFFFFFFFFFFFFFFFFFFFFFFFFFFFFFFFFFFFFFFFFFFF
310
FFFFFFFFFFFFFFFFFFFFFFFFFFFFFFFFFFFFFFFFFFFFFFFFFFFFFFFFFFFFFFFF
310
FFFFFFFFFFFFFFFFFFFFFFFFFFFFFFFFFFFFFFFFFFFFFFFFFFFFFFFFFFFFFFFF
310
FFFFFFFFFFFFFFFFFFFFFFFFFFFFFFFFFFFFFFFFFFFFFFFFFFFFFFFFFFFFFFFF
310
FFFFFFFFFFFFFFFFFFFFFFFFFFFFFFFFFFFFFFFFFFFFFFFFFFFFFFFFFFFFFFFF
310
FFFFFFFFFFFFFFFFFFFFFFFFFFFFFFFFFFFFFFFFFFFFFFFFFFFFFFFFFFFFFFFF
310
FFFFFFFFFFFFFFFFFFFFFFFFFFFFFFFFFFFFFFFFFFFFFFFFFFFFFFFFFFFFFFFF
310
FFFFFFFFFFFFFFFFFFFFFFFFFFFFFFFFFFFFFFFFFFFFFFFFFFFFFFFFFFFFFFFF
310
52006F006F007400200045006E00740072007900000000000000000000000000
310
0000000000000000000000000000000000000000000000000000000000000000
310
16000500FFFFFFFFFFFFFFFF020000000A00030000000000C000000000000046
310
000000000000000000000000E0ECF54228A7D30103000000C000000000000000
310
01004F006C006500000000000000000000000000000000000000000000000000
310
0000000000000000000000000000000000000000000000000000000000000000
310
0A000200FFFFFFFFFFFFFFFFFFFFFFFF00000000000000000000000000000000
310
0000000000000000000000000000000000000000000000001400000000000000
310
010043006F006D0070004F0062006A0000000000000000000000000000000000
310
0000000000000000000000000000000000000000000000000000000000000000
310
120002010100000003000000FFFFFFFF00000000000000000000000000000000
310
0000000000000000000000000000000000000000010000004D00000000000000
310
01004F006C006500310030004E00610074006900760065000000000000000000
310
0000000000000000000000000000000000000000000000000000000000000000
310
1A000200FFFFFFFFFFFFFFFFFFFFFFFF00000000000000000000000000000000
310
0000000000000000000000000000000000000000040000002426000000000000
310
FEFFFFFF02000000FEFFFFFFFFFFFFFFFFFFFFFFFFFFFFFFFFFFFFFFFFFFFFFF
310
FFFFFFFFFFFFFFFFFFFFFFFFFFFFFFFFFFFFFFFFFFFFFFFFFFFFFFFFFFFFFFFF
310
FFFFFFFFFFFFFFFFFFFFFFFFFFFFFFFFFFFFFFFFFFFFFFFFFFFFFFFFFFFFFFFF
310
FFFFFFFFFFFFFFFFFFFFFFFFFFFFFFFFFFFFFFFFFFFFFFFFFFFFFFFFFFFFFFFF
310
FFFFFFFFFFFFFFFFFFFFFFFFFFFFFFFFFFFFFFFFFFFFFFFFFFFFFFFFFFFFFFFF
310
FFFFFFFFFFFFFFFFFFFFFFFFFFFFFFFFFFFFFFFFFFFFFFFFFFFFFFFFFFFFFFFF
310
FFFFFFFFFFFFFFFFFFFFFFFFFFFFFFFFFFFFFFFFFFFFFFFFFFFFFFFFFFFFFFFF
310
FFFFFFFFFFFFFFFFFFFFFFFFFFFFFFFFFFFFFFFFFFFFFFFFFFFFFFFFFFFFFFFF
310
FFFFFFFFFFFFFFFFFFFFFFFFFFFFFFFFFFFFFFFFFFFFFFFFFFFFFFFFFFFFFFFF
310
FFFFFFFFFFFFFFFFFFFFFFFFFFFFFFFFFFFFFFFFFFFFFFFFFFFFFFFFFFFFFFFF
310
FFFFFFFFFFFFFFFFFFFFFFFFFFFFFFFFFFFFFFFFFFFFFFFFFFFFFFFFFFFFFFFF
310
FFFFFFFFFFFFFFFFFFFFFFFFFFFFFFFFFFFFFFFFFFFFFFFFFFFFFFFFFFFFFFFF
310
FFFFFFFFFFFFFFFFFFFFFFFFFFFFFFFFFFFFFFFFFFFFFFFFFFFFFFFFFFFFFFFF
310
FFFFFFFFFFFFFFFFFFFFFFFFFFFFFFFFFFFFFFFFFFFFFFFFFFFFFFFFFFFFFFFF
310
FFFFFFFFFFFFFFFFFFFFFFFFFFFFFFFFFFFFFFFFFFFFFFFFFFFFFFFFFFFFFFFF
310
FFFFFFFFFFFFFFFFFFFFFFFFFFFFFFFFFFFFFFFFFFFFFFFFFFFFFFFFFFFFFFFF
310
0100000200000000000000000000000000000000000000000000000000000000
310
0000000000000000000000000000000000000000000000000000000000000000
310
0100FEFF030A0000FFFFFFFF0A00030000000000C00000000000004607000000
310
5042727573680007000000504272757368000700000050427275736800F439B2
310
7100000000000000000000000000000000000000000000000000000000000000
310
0000000000000000000000000000000000000000000000000000000000000000
310
0000000000000000000000000000000000000000000000000000000000000000
310
0000000000000000000000000000000000000000000000000000000000000000
310
0000000000000000000000000000000000000000000000000000000000000000
310
0000000000000000000000000000000000000000000000000000000000000000
310
0000000000000000000000000000000000000000000000000000000000000000
310
0000000000000000000000000000000000000000000000000000000000000000
310
0000000000000000000000000000000000000000000000000000000000000000
310
0000000000000000000000000000000000000000000000000000000000000000
310
0000000000000000000000000000000000000000000000000000000000000000
310
0000000000000000000000000000000000000000000000000000000000000000
310
20260000424D0E260000000000003E00000028000000B40200006E0000000100
310
01000000000000000000130B0000130B00000200000002000000000000FFFFFF
310
FFFFFFFFFFFFFFFFFFFFFFFFFFFFFFFFFFFFFFFFFFFFFFFFFFFFFFFFFFFFFFFF
310
FFFFFFFFFFFFFFFFFFFFFFFFFFFFFFFFFFFFFFFFFFFFFFFFFFFFFFFFFFFFFFFF
310
FFFFFFFFFFFFFFFFFFFFFFFFFFFFFFFFFFFFFFFFFFFFFFFFF000FFFFFFFFFFFF
310
FFFFFFFFFFFFFFFFFFFFFFFFFFFFFFFFFFFFFFFFFFFFFFFFFFFFFFFFFFFFFFFF
310
FFFFFFFFFFFFFFFFFFFFFFFFFFFFFFFFFFFFFFFFFFFFFFFFFFFFFFFFFFFFFFFF
310
FFFFFFFFFFFFFFFFFFFFFFFFFFFFFFFFF000FFFFFFFFFFFFFFFFFFFFFFFFFFFF
310
FFFFFFFFFFFFFFFFFFFFFFFFFFFFFFFFFFFFFFFFFFFFFFFFFFFFFFFFFFFFFFFF
310
FFFFFFFFFFFFFFFFFFFFFFFFFFFFFFFFFFFFFFFFFFFFFFFFFFFFFFFFFFFFFFFF
310
FFFFFFFFFFFFFFFFF000FFFFFFFFFFFFFFFFFFFFFFFFFFFFFFFFFFFFFFFFFFFF
310
FFFFFFFFFFFFFFFFFFFFFFFFFFFFFFFFFFFFFFFFFFFFFFFFFFFFFFFFFFFFFFFF
310
FFFFFFFFFFFFFFFFFFFFFFFFFFFFFFFFFFFFFFFFFFFFFFFFFFFFFFFFFFFFFFFF
310
F000FFFFFFFFFFFFFFFFFFFFFFFFFFFFFFFFFFFFFFFFFFFFFFFFFFFFFFFFFFFF
310
FFFFFFFFFFFFFFFFFFFFFFFFFFFFFFFFFFFFFFFFFFFFFFFFFFFFFFFFFFFFFFFF
310
FFFFFFFFFFFFFFFFFFFFFFFFFFFFFFFFFFFFFFFFFFFFFFFFF000FFFFFFFFFFFF
310
FFFFFFFFFFFFFFFFFFFFFFFFFFFFFFFFFFFFFFFFFFFFFFFFFFFFFFFFFFFFFFFF
310
FFFFFFFFFFFFFFFFFFFFFFFFFFFFFFFFFFFFFFFFFFFFFFFFFFFFFFFFFFFFFFFF
310
FFFFFFFFFFFFFFFFFFFFFFFFFFFFFFFFF000FFFFFFFFFFFFFFFFFFFFFFFFFFFF
310
FFFFFFFFFFFFFFFFFFFFFFFFFFFFFFFFFFFFFFFFFFFFFFFFFFFFFFFFFFFFFFFF
310
FFFFFFFFFFFFFFFFFFFFFFFFFFFFFFFFFFFFFFFFFFFFFFFFFFFFFFFFFFFFFFFF
310
FFFFFFFFFFFFFFFFF000FFFFFFFFFFFFFFFFFFFFFFFFFFFFFFFFFFFFFFFFFFFF
310
FFFFFFFFFFFFFFFFFFFFFFFFFFFFFFFFFFFFFFFFFFFFFFFFFFFFFFFFFFFFFFFF
310
FFFFFFFFFFFFFFFFFFFFFFFFFFFFFFFFFFFFFFFFFFFFFFFFFFFFFFFFFFFFFFFF
310
F000FFFFFFFFFFFFFFFFFFFFFFFFFFFFFFFFFFFFFFFFFFFFFFFFFFFFFFFFFFFF
310
FFFFFFFFFFFFFFFFFFFFFFFFFFFFFFFFFFFFFFFFFFFFFFFFFFFFFFFFFFFFFFFF
310
FFFFFFFFFFFFFFFFFFFFFFFFFFFFFFFFFFFFFFFFFFFFFFFFF000FFFFFFFFFFFF
310
FFFFFFFFFFFFFFFFFFFFFFFFFFFFFFFFFFFFFFFFFFFFFFFFFFFFFFFFFFFFFFFF
310
FFFFFFFFFFFFFFFFFFFFFFFFFFFFFFFFFFFFFFFFFFFFFFFFFFFFFFFFFFFFFFFF
310
FFFFFFFFFFFFFFFFFFFFFFFFFFFFFFFFF000FFFFFFFFFFFFFFFFFFFFFFFFFFFF
310
FFFFFFFFFFFFFFFFFFFFFFFFFFFFFFFFFFFFFFFFFFFFFFFFFFFFFFFFFFFFFFFF
310
FFFFFFFFFFFFFFFFFFFFFFFFFFFFFFFFFFFFFFFFFFFFFFFFFFFFFFFFFFFFFFFF
310
FFFFFFFFFFFFFFFFF000FFFFFFFFFFFFFFFFFFFFFFFFFFFFFFFFFFFFFFFFFFFF
310
FFFFFFFFFFFFFFFFFFFFFFFFFFFFFFFFFFFFFFFFFFFFFFFFFFFFFFFFFFFFFFFF
310
FFFFFFFFFFFFFFFFFFFFFFFFFFFFFFFFFFFFFFFFFFFFFFFFFFFFFFFFFFFFFFFF
310
F000FFFFFFFFFFFFFFFFFFFFFFFFFFFFFFFFFFFFFFFFFFFFFFFFFFFFFFFFFFFF
310
FFFFFFFFFFFFFFFFFFFFFFFFFFFFFFFFFFFFFFFFFFFFFFFFFFFFFFFFFFFFFFFF
310
FFFFFFFFFFFFFFFFFFFFFFFFFFFFFFFFFFFFFFFFFFFFFFFFF000FFFFFFFFFFFF
310
FFFFFFFFFFFFFFFFFFFFFFFFFFFFFFFFFFFFFFFFFFFFFFFFFFFFFFFFFFFFFFFF
310
FFFFFFFFFFFFFFFFFFFFFFFFFFFFFFFFFFFFFFFFFFFFFFFFFFFFFFFFFFFFFFFF
310
FFFFFFFFFFFFFFFFFFFFFFFFFFFFFFFFF000FFFFFFFFFFFFFFFFFFFFFFFFFFFF
310
FFFFFFFFFFFFFFFFFFFFFFFFFFFFFFFFFFFFFFFFFFFFFFFFFFFFFFFFFFFFFFFF
310
FFFFFFFFFFFFFFFFFFFFFFFFFFFFFFFFFFFFFFFFFFFFFFFFFFFFFFFFFFFFFFFF
310
FFFFFFFFFFFFFFFFF000FFFFFFFFFFFFFFFFFFFFFFFFFFFFFFFFFFFFFFFFFFFF
310
FFFFFFFFFFFFFFFFFFFFFFFFFFFFFFFFFFFFFFFFFFFFFFFFFFFFFFFFFFFFFFFF
310
FFFFFFFFFFFFFFFFFFFFFFFFFFFFFFFFFFFFFFFFFFFFFFFFFFFFFFFFFFFFFFFF
310
F000FFFFFFFFFFFFFFFFFFFFFFFFFFFFFFFFFFFFFFFFFFFFFFFFFFFFFFFFFFFF
310
FFFFFFFFFFFFFFFFFFFFFFFFFFFFFFFFFFFFFFFFFFFFFFFFFFFFFFFFFFFFFFFF
310
FFFFFFFFFFFFFFFFFFFFFFFFFFFFFFFFFFFFFFFFFFFFFFFFF000FFFFFFFFFFFF
310
FFFFFFFFFFFFFFFFFFFFFFFFFFFFFFFFFFFFFFFFFFFFFFFFFFFFFFFFFFFFFFFF
310
FFFFFFFFFFFFFFFFFFFFFFFFFFFFFFFFFFFFFFFFFFFFFFFFFFFFFFFFFFFFFFFF
310
FFFFFFFFFFFFFFFFFFFFFFFFFFFFFFFFF000FFFFFFFFFFFFFFFFFFFFFFFFFFFF
310
FFFFFFFFFFFFFFFFFFFFFFFFFFFFFFFFFFFFFFFFFFFFFFFFFFFFFFFFFFFFFFFF
310
FFFFFFFFFFFFFFFFFFFFFFFFFFFFFFFFFFFFFFFFFFFFFFFFFFFFFFFFFFFFFFFF
310
FFFFFFFFFFFFFFFFF000FFFFF80003FFFFFFFFFFFFFFFFFFFFFFFFFFFFFFFFFF
310
FFFFF00007FFFFFFFFFF00007FFFFFF800000000000000007FFFFFFFFFFFFFFF
310
FFFFFFFC001FFFFFFFFFFFFFFC001FFFFFFFFFFFFFFFFFFFFFFFFFFE0007FFFF
310
F000FFFF8000007FFFFFFFF8000FFFFFC0007FFFFF80007FFFFF0000007FFFFF
310
FFF8000007FFFFF800000000000000007FFFFFF0001FFFFFFFFFFFC00001FFFF
310
FFFFFFFFC00001FFFFFFFF000000000003FFFFE000007FFFF000FFFE0000000F
310
FFFFFFF0000FFFFF80007FFFFF80007FFFFC0000001FFFFFFFC0000001FFFFF8
310
00000000000000007FFFFFF0001FFFFFFFFFFE0000003FFFFFFFFFFE0000003F
310
FFFFFF000000000003FFFF0000000FFFF000FFF800000003FFFFFFF00007FFFF
310
80007FFFFF80007FFFF000000007FFFFFF000000003FFFF80000000000000000
310
7FFFFFF0001FFFFFFFFFF80000000FFFFFFFFFF80000000FFFFFFF0000000000
310
03FFFC00000003FFF000FFE000000000FFFFFFF00007FFFF80003FFFFF80007F
310
FFC000000001FFFFFC000000001FFFF800000000000000007FFFFFF0001FFFFF
310
FFFFE000000003FFFFFFFFE000000003FFFFFF000000000003FFF000000000FF
310
F000FF80000000007FFFFFF00007FFFF80003FFFFF80007FFF8000000000FFFF
310
F80000000007FFF800000000000000007FFFFFF0001FFFFFFFFFC000000001FF
310
FFFFFFC000000001FFFFFF000000000003FFC0000000007FF000FF0000000000
310
3FFFFFE00007FFFF00003FFFFF80007FFE00000000003FFFF00000000003FFF8
310
00000000000000007FFFFFF0001FFFFFFFFF8000000000FFFFFFFF8000000000
310
FFFFFF000000000003FF80000000003FF000FE00000000001FFFFFE00003FFFF
310
00003FFFFF80007FFC00000000001FFFE00000000001FFF8000001FFFE000000
310
7FFFFFF0001FFFFFFFFE00000000003FFFFFFE00000000003FFFFF0000000000
310
03FF00000000001FF000FC00000000000FFFFFE00003FFFF00001FFFFF80007F
310
F800000000001FFFC00000000000FFF8000001FFFE0000007FFFFFF0001FFFFF
310
FFFC00000000001FFFFFFC00000000001FFFFF000000000003FE00000000000F
310
F000F8000000000007FFFFE00003FFFF00001FFFFF80007FF800000000000FFF
310
800000000000FFF8000001FFFE0000007FFFFFF0001FFFFFFFF800000000000F
310
FFFFF800000000000FFFFF000000000003FC000000000007F000F80000000000
310
03FFFFC00003FFFE00001FFFFF80007FF0000000000007FF0000000000007FF8
310
000001FFFE0000007FFFFFF0001FFFFFFFF0000000000007FFFFF00000000000
310
07FFFF000000000003F8000000000003F000F0000000000003FFFFC00001FFFE
310
00001FFFFF80007FE0000000000007FE0000000000003FF8000001FFFE000000
310
7FFFFFF0001FFFFFFFF0000000000007FFFFF0000000000007FFFF0000000000
310
03F800001F800003F000E00001FFF00001FFFFC00001FFFE00000FFFFF80007F
310
E00001FFE00003FE00001FFF00003FF8000001FFFE0000007FFFFFF0001FFFFF
310
FFE000003E000003FFFFE000003E000003FFFF000000000003F00001FFF80001
310
F000E00007FFFC0001FFFFC00001FFFE00000FFFFF80007FC0000FFFFC0003FC
310
0000FFFFC0001FF8000001FFFE0000007FFFFFF0001FFFFFFFC00003FFE00001
310
FFFFC00003FFE00001FFFF0001FFFFFFFFF00007FFFE0001F000E0000FFFFF00
310
00FFFF800001FFFC00000FFFFF80007FC0001FFFFE0001FC0001FFFFE0001FF8
310
000001FFFE0000007FFFFFF0001FFFFFFF80000FFFF80000FFFF80000FFFF800
310
00FFFF0003FFFFFFFFE0000FFFFF8000F000C0003FFFFF8000FFFF800000FFFC
310
000007FFFF80007F80003FFFFF0001FC0003FFFFF0001FF8000001FFFE000000
310
7FFFFFF0001FFFFFFF80003FFFFE0000FFFF80003FFFFE0000FFFF0003FFFFFF
310
FFE0003FFFFF8000F000C0003FFFFF8000FFFF800000FFFC000007FFFF80007F
310
80007FFFFF8001F80007FFFFF8000FF8000001FFFE0000007FFFFFF0001FFFFF
310
FF00007FFFFF00007FFF00007FFFFF00007FFF0003FFFFFFFFE0003FFFFFC000
310
F000C0007FFFFFC000FFFF000000FFFC000007FFFF80007F8000FFFFFF8000F8
310
000FFFFFF8000FF8000001FFFE0000007FFFFFF0001FFFFFFF0000FFFFFF8000
310
7FFF0000FFFFFF80007FFF0003FFFFFFFFC0007FFFFFC00070008000FFFFFFC0
310
00FFFF000000FFF8000007FFFF80007F8000FFFFFF8000F8000FFFFFF8000FF8
310
000001FFFE0000007FFFFFF0001FFFFFFE0001FFFFFFC0003FFE0001FFFFFFC0
310
003FFF0003FFFFFFFFC0007FFFFFE00070008000FFFFFFC0007FFF0000007FF8
310
000003FFFF80007F0001FFFFFF8000F8000FFFFFF8000FF8000001FFFE000000
310
7FFFFFF0001FFFFFFE0001FFFFFFC0003FFE0001FFFFFFC0003FFF0003FFFFFF
310
FFC000FFFFFFE00070008000FFFFFFC0007FFF0000007FF8000003FFFF80007F
310
0001FFFFFF8000F8001FFFFFF8000FF8000001FFFE0000007FFFFFF0001FFFFF
310
FE0003FFFFFFE0003FFE0003FFFFFFE0003FFF0003FFFFFFFFC000FFFFFFE000
310
70008000FFFFFFC0007FFE0000007FF8000003FFFF80007F0001FFFFFF8000F0
310
001FFFFFF8000FF8000001FFFE0000007FFFFFF0001FFFFFFC0003FFFFFFE000
310
1FFC0003FFFFFFE0001FFF0003FFFFFFFFC000FFFFFFC00070008000FFFFFF80
310
007FFE0000007FF0000003FFFF80007F0001FFFFFF0000F0001FFFFFF8000FF8
310
000001FFFE0000007FFFFFF0001FFFFFFC0007FFFFFFF0001FFC0007FFFFFFF0
310
001FFF0003FFFFFFFFC000FFFFFFC00070008001FFFFFF0000FFFE0000003FF0
310
000001FFFF80007F0001FFFFFF0000F8001FFFFFF0000FF8000001FFFE000000
310
7FFFFFF0001FFFFFFC0007FFFFFFF0001FFC0007FFFFFFF0001FFF0003FFFFFF
310
FFC001FFFFFF80007000FFFFFFFFFE0000FFFE0008003FF0008001FFFF80007F
310
FFFFFFFFFC0000FFFFFFFFFFE0000FF8000001FFFE0000007FFFFFF0001FFFFF
310
F8000FFFFFFFF8000FF8000FFFFFFFF8000FFF0003FFFFFFFFFFFFFFFFFF0000
310
7000FFFFFFFFFC0000FFFC0008003FF0008001FFFF80007FFFFFFFFFF80001FF
310
FFFFFFFF80000FF8000001FFFE0000007FFFFFF0001FFFFFF8000FFFFFFFF800
310
0FF8000FFFFFFFF8000FFF0003FFFFFFFFFFFFFFFFFE0000F000FFFFFFFFE000
310
00FFFC000C003FE000C001FFFF80007FFFFFFFFFC00001FFFFFFFFFE00001FF8
310
000001FFFE0000007FFFFFF0001FFFFFF8000FFFFFFFF8000FF8000FFFFFFFF8
310
000FFF0003FFFFFFFFFFFFFFFFF00000F000FFFFFFFE000001FFFC000C001FE0
310
00C000FFFF80007FFFFFFFFE000001FFFFFFFFE000001FF80FFFFFFFFFFFFFC0
310
7FFFFFF0001FFFFFF8000FFFFFFFF8000FF8000FFFFFFFF8000FFF0003FFFFFF
310
FFFFFFFFFF800000F000FFFFFFC0000001FFFC001C001FE001C000FFFF80007F
310
FFFFFF80000003FFFFFFF80000001FF80FFFFFFFFFFFFFC07FFFFFF0001FFFFF
310
F8001FFFFFFFFC000FF8001FFFFFFFFC000FFF0003FFFFFFFFFFFFFFF0000001
310
F000FFFFF800000001FFF8001C001FE001C000FFFF80007FFFFFF800000003FF
310
FFFF800000003FF80FFFFFFFFFFFFFC07FFFFFF0001FFFFFF8001FFFFFFFFC00
310
0FF8001FFFFFFFFC000FFF0003FFFFFFFFFFFFFE00000001F000FFFFC0000000
310
03FFF8001E001FC001E000FFFF80007FFFFF8000000007FFFFFC000000003FF8
310
0FFFFFFFFFFFFFC07FFFFFF0001FFFFFF8001FFFFFFFFC000FF8001FFFFFFFFC
310
000FFF0003FFFFFFFFFFFFE000000003F000FFFE0000000007FFF8001E000FC0
310
01E0007FFF80007FFFFE0000000007FFFFE0000000007FF80FFFFFFFFFFFFFC0
310
7FFFFFF0001FFFFFF0001FFFFFFFFC0007F0001FFFFFFFFC0007FF0003FFFFFF
310
FFFFFF0000000003F000FFF80000000007FFF8001E000FC003E0007FFF80007F
310
FFF0000000000FFFFF8000000000FFF80FFFFFFFFFFFFFC07FFFFFF0001FFFFF
310
F0001FFFFFFFFC0007F0001FFFFFFFFC0007FF0003FFFFFFFFFFFC0000000007
310
F000FFE0000000000FFFF0003E000FC003E0007FFF80007FFFC0000000001FFF
310
FE0000000001FFF80FFFFFFFFFFFFFC07FFFFFF0001FFFFFF0001FFFFFFFFC00
310
07F0001FFFFFFFFC0007FF0003FFFFFFFFFFF0000000000FF000FFC000000000
310
1FFFF0003F000F8003F0003FFF80007FFF80000000003FFFF80000000003FFF8
310
0FFFFFFFFFFFFFC07FFFFFF0001FFFFFF0001FFFFFFFFC0007F0001FFFFFFFFC
310
0007FF0003FFFFFFFFFFE0000000001FF000FF00000000007FFFF0003F000780
310
03F0003FFF80007FFF00000000007FFFF00000000007FFF80FFFFFFFFFFFFFC0
310
7FFFFFF0001FFFFFF0001FFFFFFFFC0007F0001FFFFFFFFC0007FF0003FFFFFF
310
FFFF80000000007FF000FE0000000000FFFFE0003F00078007F0003FFF80007F
310
FE0000000001FFFFE0000000001FFFF80FFFFFFFFFFFFFC07FFFFFF0001FFFFF
310
F0001FFFFFFFFC0007F0001FFFFFFFFC0007FF0003FFFFFFFFFF0000000000FF
310
F000FC0000000003FFFFE0007F00078007F0003FFF80007FFC0000000007FFFF
310
C0000000007FFFF80FFFFFFFFFFFFFC07FFFFFF0001FFFFFF8001FFFFFFFFC00
310
0FF8001FFFFFFFFC000FFF0003FFFFFFFFFE0000000003FFF000FC000000000F
310
FFFFE0007F80070007F8001FFF80007FF8000000001FFFFF8000000001FFFFF8
310
0FFFFFFFFFFFFFC07FFFFFF0001FFFFFF8001FFFFFFFFC000FF8001FFFFFFFFC
310
000FFF0003FFFFFFFFFC000000000FFFF000F8000000007FFFFFE0007F800700
310
07F8001FFF80007FF000000000FFFFFF800000000FFFFFF80FFFFFFFFFFFFFC0
310
7FFFFFF0001FFFFFF8000FFFFFFFF8000FF8000FFFFFFFF8000FFF0003FFFFFF
310
FFFC000000007FFFF000F800000007FFFFFFC0007F8003000FF8001FFF80007F
310
F000000007FFFFFF000000007FFFFFF80FFFFFFFFFFFFFC07FFFFFF0001FFFFF
310
F8000FFFFFFFF8000FF8000FFFFFFFF8000FFF0003FFFFFFFFF80000000FFFFF
310
F000F0000000FFFFFFFFC000FF8003000FF8001FFF80007FE0000000FFFFFFFF
310
0000000FFFFFFFF8000001FFFE0000007FFFFFF0001FFFFFF8000FFFFFFFF800
310
0FF8000FFFFFFFF8000FFF0003FFFFFFFFF8000000FFFFFFF000F000000FFFFF
310
FFFFC000FFC002000FF8000FFF80007FE000001FFFFFFFFE000001FFFFFFFFF8
310
000001FFFE0000007FFFFFF0001FFFFFF8000FFFFFFFF8000FF8000FFFFFFFF8
310
000FFF0003FFFFFFFFF000001FFFFFFFF000E00000FFFFFFFFFFC000FFC00200
310
0FFC000FFF80007FE00001FFFFFFFFFE00001FFFFFFFFFF8000001FFFE000000
310
7FFFFFF0001FFFFFFC000FFFFFFFF8001FFC000FFFFFFFF8001FFF0003FFFFFF
310
FFF00001FFFFFFFFF000E00007FFFFFFFFFF8000FFC000001FFC000FFF80007F
310
C0000FFFFFFFFFFE0000FFFFFFFFFFF8000001FFFE0000007FFFFFF0001FFFFF
310
FC0007FFFFFFF0001FFC0007FFFFFFF0001FFF0003FFFFFFFFF00007FFFFFFFF
310
F000E0001FFFFFFFFFFF8000FFC000001FFC000FFF80007FC0003FFFFFFFFFFE
310
0001FFFFFFFFFFF8000001FFFE0000007FFFFFF0001FFFFFFC0007FFFFFFF000
310
1FFC0007FFFFFFF0001FFF0003FFFFFFFFF0001FFFFFFFFFF000E0003FFFFF00
310
03FF8001FFE000001FFC0007FF80007FC0007FFFFF0007FC0003FFFFF0003FF8
310
000001FFFE0000007FFFFFF0001FFFFFFC0003FFFFFFE0001FFC0003FFFFFFE0
310
001FFF0003FFFFFFFFF0003FFFFFFFFFF000E0003FFFFF0001FF8001FFE00000
310
1FFE0007FF80007FC0007FFFFE0003FC0007FFFFE0003FF8000001FFFE000000
310
7FFFFFF0001FFFFFFE0003FFFFFFE0003FFE0003FFFFFFE0003FFF0003FFFFFF
310
FFF0003FFFFF8001F000E0003FFFFF0001FF0001FFE000001FFE0007FF80007F
310
C0007FFFFE0003FC0007FFFFE0003FF8000001FFFE0000007FFFFFF0001FFFFF
310
FE0001FFFFFFC0003FFE0001FFFFFFC0003FFF0003FFFFFFFFF0003FFFFF0001
310
F000E0003FFFFF0003FF0001FFE000003FFE0007FF80007FC0007FFFFE0003FC
310
0007FFFFE0003FF8000001FFFE0000007FFFFFF0001FFFFFFF0001FFFFFFC000
310
7FFF0001FFFFFFC0007FFF0003FFFFFFFFF0003FFFFF0001F000E0003FFFFE00
310
03FF0003FFF000003FFE0003FF80007FC0007FFFFC0003FE0007FFFFE0003FF8
310
000001FFFE0000007FFFFFF0001FFFFFFF0000FFFFFF80007FFF0000FFFFFF80
310
007FFF0003FFFFFFFFF0003FFFFF0001F000E0003FFFFE0003FF0003FFF00000
310
3FFF0003FF80007FC0007FFFFC0007FE0007FFFFC0003FF8000001FFFE000000
310
7FFFFFF0001FFFFFFF80007FFFFF0000FFFF80007FFFFF0000FFFF0003FFFFFF
310
FFF0003FFFFF0003F000E0003FFFFC0003FE0003FFF000003FFF0003FF80007F
310
E0003FFFF80007FE0003FFFFC0007FF8000001FFFE0000007FFFFFF0001FFFFF
310
FF80003FFFFE0000FFFF80003FFFFE0000FFFF0003FFFFFFFFF0001FFFFE0003
310
F000F0001FFFF80003FE0003FFF000007FFF0001FF80007FE0003FFFF00007FE
310
0001FFFF80007FF8000001FFFE0000007FFFFFF0001FFFFFFFC0000FFFF80001
310
FFFFC0000FFFF80001FFFF0003FFFFFFFFF0001FFFFC0003F000F0000FFFF000
310
07FE0007FFF800007FFF0001FF80007FE0001FFFE00007FF0000FFFE00007FF8
310
000001FFFE0000007FFFFFF0001FFFFFFFC00003FFE00001FFFFC00003FFE000
310
01FFFF0003FFFFFFFFF8000FFFF80003F000F00003FFC00007FC0007FFF80000
310
7FFF8001FF80007FF00007FF80000FFF00007FF80000FFF8000001FFFE000000
310
7F80000000000001FFE000003E000003FFFFE000003E000003FFFF0003FFFFFF
310
FFF80003FFE00007F000F800000000000FFC0007FFF800007FFF8001FF80007F
310
F000000000000FFF000000000000FFF8000001FFFE0000007F80000000000001
310
FFF0000000000007FFFFF0000000000007FFFF0003FFFFFFFFFC00007E000007
310
F000F800000000000FFC0007FFF80000FFFF8000FF80007FF800000000001FFF
310
800000000001FFF8000001FFFE0000007F80000000000001FFF800000000000F
310
FFFFF800000000000FFFFF0003FFFFFFFFFC00000000000FF000FC0000000000
310
1FFC0007FFFC0000FFFF8000FF80007FF800000000003FFFC00000000001FFF8
310
000001FFFE0000007F80000000000001FFF800000000000FFFFFF80000000000
310
0FFFFF0003FFFFFFFFFE00000000001FF000FE00000000003FF8000FFFFC0000
310
FFFF8000FF80007FFC00000000003FFFC00000000003FFF8000001FFFE000000
310
7F80000000000001FFFC00000000001FFFFFFC00000000001FFFFF0003FFFFFF
310
FFFF00000000001FF000FF00000000003FF8000FFFFC0000FFFFC000FF80007F
310
FE00000000007FFFE00000000007FFF8000001FFFE0000007F80000000000001
310
FFFE00000000003FFFFFFE00000000003FFFFF0003FFFFFFFFFF80000000003F
310
F000FF80000000007FF8000FFFFC0001FFFFC0007F80007FFF0000000000FFFF
310
F0000000000FFFF800000000000000007F80000000000001FFFF8000000000FF
310
FFFFFF8000000000FFFFFF0003FFFFFFFFFFC0000000007FF000FFC000000000
310
FFF8000FFFFE0001FFFFC0007F80007FFF8000000001FFFFF8000000001FFFF8
310
00000000000000007F80000000000001FFFFC000000001FFFFFFFFC000000001
310
FFFFFF0003FFFFFFFFFFE000000000FFF000FFE000000003FFF0001FFFFE0001
310
FFFFC0007F80007FFFC000000007FFFFFE000000003FFFF80000000000000000
310
7F80000000000001FFFFE000000003FFFFFFFFE000000003FFFFFF0003FFFFFF
310
FFFFF000000003FFF000FFF80000000FFFF0001FFFFE0001FFFFE0007F80007F
310
FFF00000000FFFFFFF00000000FFFFF800000000000000007F80000000000001
310
FFFFF80000000FFFFFFFFFF80000000FFFFFFF0003FFFFFFFFFFFC0000000FFF
310
F000FFFE0000003FFFF0001FFFFE0003FFFFE0003F80007FFFFC0000003FFFFF
310
FFC0000003FFFFF800000000000000007F80000000000001FFFFFE0000003FFF
310
FFFFFFFE0000003FFFFFFF0003FFFFFFFFFFFF0000003FFFF000FFFF800000FF
310
FFF0001FFFFF0003FFFFE0003F80007FFFFF000001FFFFFFFFF800001FFFFFF8
310
00000000000000007F80000000000001FFFFFFC00001FFFFFFFFFFFFC00001FF
310
FFFFFF0003FFFFFFFFFFFFC00000FFFFF000FFFFF8000FFFFFFFFFFFFFFFFFFF
310
FFFFFFFFFFFFFFFFFFFFF0001FFFFFFFFFFF0000FFFFFFF80000000000000000
310
7FFFFFFFFFFFFFFFFFFFFFFC001FFFFFFFFFFFFFFC001FFFFFFFFFFFFFFFFFFF
310
FFFFFFFC001FFFFFF000FFFFFFFFFFFFFFFFFFFFFFFFFFFFFFFFFFFFFFFFFFFF
310
FFFFFFFFFFFFFFFFFFFFFFFFFFFFFFFFFFFFFFFFFFFFFFFFFFFFFFFFFFFFFFFF
310
FFFFFFFFFFFFFFFFFFFFFFFFFFFFFFFFFFFFFFFFFFFFFFFFFFFFFFFFFFFFFFFF
310
F000FFFFFFFFFFFFFFFFFFFFFFFFFFFFFFFFFFFFFFFFFFFFFFFFFFFFFFFFFFFF
310
FFFFFFFFFFFFFFFFFFFFFFFFFFFFFFFFFFFFFFFFFFFFFFFFFFFFFFFFFFFFFFFF
310
FFFFFFFFFFFFFFFFFFFFFFFFFFFFFFFFFFFFFFFFFFFFFFFFF000FFFFFFFFFFFF
310
FFFFFFFFFFFFFFFFFFFFFFFFFFFFFFFFFFFFFFFFFFFFFFFFFFFFFFFFFFFFFFFF
310
FFFFFFFFFFFFFFFFFFFFFFFFFFFFFFFFFFFFFFFFFFFFFFFFFFFFFFFFFFFFFFFF
310
FFFFFFFFFFFFFFFFFFFFFFFFFFFFFFFFF000FFFFFFFFFFFFFFFFFFFFFFFFFFFF
310
FFFFFFFFFFFFFFFFFFFFFFFFFFFFFFFFFFFFFFFFFFFFFFFFFFFFFFFFFFFFFFFF
310
FFFFFFFFFFFFFFFFFFFFFFFFFFFFFFFFFFFFFFFFFFFFFFFFFFFFFFFFFFFFFFFF
310
FFFFFFFFFFFFFFFFF000FFFFFFFFFFFFFFFFFFFFFFFFFFFFFFFFFFFFFFFFFFFF
310
FFFFFFFFFFFFFFFFFFFFFFFFFFFFFFFFFFFFFFFFFFFFFFFFFFFFFFFFFFFFFFFF
310
FFFFFFFFFFFFFFFFFFFFFFFFFFFFFFFFFFFFFFFFFFFFFFFFFFFFFFFFFFFFFFFF
310
F000FFFFFFFFFFFFFFFFFFFFFFFFFFFFFFFFFFFFFFFFFFFFFFFFFFFFFFFFFFFF
310
FFFFFFFFFFFFFFFFFFFFFFFFFFFFFFFFFFFFFFFFFFFFFFFFFFFFFFFFFFFFFFFF
310
FFFFFFFFFFFFFFFFFFFFFFFFFFFFFFFFFFFFFFFFFFFFFFFFF000FFFFFFFFFFFF
310
FFFFFFFFFFFFFFFFFFFFFFFFFFFFFFFFFFFFFFFFFFFFFFFFFFFFFFFFFFFFFFFF
310
FFFFFFFFFFFFFFFFFFFFFFFFFFFFFFFFFFFFFFFFFFFFFFFFFFFFFFFFFFFFFFFF
310
FFFFFFFFFFFFFFFFFFFFFFFFFFFFFFFFF000FFFFFFFFFFFFFFFFFFFFFFFFFFFF
310
FFFFFFFFFFFFFFFFFFFFFFFFFFFFFFFFFFFFFFFFFFFFFFFFFFFFFFFFFFFFFFFF
310
FFFFFFFFFFFFFFFFFFFFFFFFFFFFFFFFFFFFFFFFFFFFFFFFFFFFFFFFFFFFFFFF
310
FFFFFFFFFFFFFFFFF000FFFFFFFFFFFFFFFFFFFFFFFFFFFFFFFFFFFFFFFFFFFF
310
FFFFFFFFFFFFFFFFFFFFFFFFFFFFFFFFFFFFFFFFFFFFFFFFFFFFFFFFFFFFFFFF
310
FFFFFFFFFFFFFFFFFFFFFFFFFFFFFFFFFFFFFFFFFFFFFFFFFFFFFFFFFFFFFFFF
310
F000FFFFFFFFFFFFFFFFFFFFFFFFFFFFFFFFFFFFFFFFFFFFFFFFFFFFFFFFFFFF
310
FFFFFFFFFFFFFFFFFFFFFFFFFFFFFFFFFFFFFFFFFFFFFFFFFFFFFFFFFFFFFFFF
310
FFFFFFFFFFFFFFFFFFFFFFFFFFFFFFFFFFFFFFFFFFFFFFFFF000FFFFFFFFFFFF
310
FFFFFFFFFFFFFFFFFFFFFFFFFFFFFFFFFFFFFFFFFFFFFFFFFFFFFFFFFFFFFFFF
310
FFFFFFFFFFFFFFFFFFFFFFFFFFFFFFFFFFFFFFFFFFFFFFFFFFFFFFFFFFFFFFFF
310
FFFFFFFFFFFFFFFFFFFFFFFFFFFFFFFFF000FFFFFFFFFFFFFFFFFFFFFFFFFFFF
310
FFFFFFFFFFFFFFFFFFFFFFFFFFFFFFFFFFFFFFFFFFFFFFFFFFFFFFFFFFFFFFFF
310
FFFFFFFFFFFFFFFFFFFFFFFFFFFFFFFFFFFFFFFFFFFFFFFFFFFFFFFFFFFFFFFF
310
FFFFFFFFFFFFFFFFF000FFFFFFFFFFFFFFFFFFFFFFFFFFFFFFFFFFFFFFFFFFFF
310
FFFFFFFFFFFFFFFFFFFFFFFFFFFFFFFFFFFFFFFFFFFFFFFFFFFFFFFFFFFFFFFF
310
FFFFFFFFFFFFFFFFFFFFFFFFFFFFFFFFFFFFFFFFFFFFFFFFFFFFFFFFFFFFFFFF
310
F000FFFFFFFFFFFFFFFFFFFFFFFFFFFFFFFFFFFFFFFFFFFFFFFFFFFFFFFFFFFF
310
FFFFFFFFFFFFFFFFFFFFFFFFFFFFFFFFFFFFFFFFFFFFFFFFFFFFFFFFFFFFFFFF
310
FFFFFFFFFFFFFFFFFFFFFFFFFFFFFFFFFFFFFFFFFFFFFFFFF000FFFFFFFFFFFF
310
FFFFFFFFFFFFFFFFFFFFFFFFFFFFFFFFFFFFFFFFFFFFFFFFFFFFFFFFFFFFFFFF
310
FFFFFFFFFFFFFFFFFFFFFFFFFFFFFFFFFFFFFFFFFFFFFFFFFFFFFFFFFFFFFFFF
310
FFFFFFFFFFFFFFFFFFFFFFFFFFFFFFFFF000FFFFFFFFFFFFFFFFFFFFFFFFFFFF
310
FFFFFFFFFFFFFFFFFFFFFFFFFFFFFFFFFFFFFFFFFFFFFFFFFFFFFFFFFFFFFFFF
310
FFFFFFFFFFFFFFFFFFFFFFFFFFFFFFFFFFFFFFFFFFFFFFFFFFFFFFFFFFFFFFFF
310
FFFFFFFFFFFFFFFFF000FFFFFFFFFFFFFFFFFFFFFFFFFFFFFFFFFFFFFFFFFFFF
310
FFFFFFFFFFFFFFFFFFFFFFFFFFFFFFFFFFFFFFFFFFFFFFFFFFFFFFFFFFFFFFFF
310
FFFFFFFFFFFFFFFFFFFFFFFFFFFFFFFFFFFFFFFFFFFFFFFFFFFFFFFFFFFFFFFF
310
F000FFFFFFFFFFFFFFFFFFFFFFFFFFFFFFFFFFFFFFFFFFFFFFFFFFFFFFFFFFFF
310
FFFFFFFFFFFFFFFFFFFFFFFFFFFFFFFFFFFFFFFFFFFFFFFFFFFFFFFFFFFFFFFF
310
FFFFFFFFFFFFFFFFFFFFFFFFFFFFFFFFFFFFFFFFFFFFFFFFF000FFFFFFFFFFFF
310
FFFFFFFFFFFFFFFFFFFFFFFFFFFFFFFFFFFFFFFFFFFFFFFFFFFFFFFFFFFFFFFF
310
FFFFFFFFFFFFFFFFFFFFFFFFFFFFFFFFFFFFFFFFFFFFFFFFFFFFFFFFFFFFFFFF
310
FFFFFFFFFFFFFFFFFFFFFFFFFFFFFFFFF000FFFFFFFFFFFFFFFFFFFFFFFFFFFF
310
FFFFFFFFFFFFFFFFFFFFFFFFFFFFFFFFFFFFFFFFFFFFFFFFFFFFFFFFFFFFFFFF
310
FFFFFFFFFFFFFFFFFFFFFFFFFFFFFFFFFFFFFFFFFFFFFFFFFFFFFFFFFFFFFFFF
310
FFFFFFFFFFFFFFFFF000FFFFFFFFFFFFFFFFFFFFFFFFFFFFFFFFFFFFFFFFFFFF
310
FFFFFFFFFFFFFFFFFFFFFFFFFFFFFFFFFFFFFFFFFFFFFFFFFFFFFFFFFFFFFFFF
310
FFFFFFFFFFFFFFFFFFFFFFFFFFFFFFFFFFFFFFFFFFFFFFFFFFFFFFFFFFFFFFFF
310
F000FFFFFFFFFFFFFFFFFFFFFFFFFFFFFFFFFFFFFFFFFFFFFFFFFFFFFFFFFFFF
310
FFFFFFFFFFFFFFFFFFFFFFFFFFFFFFFFFFFFFFFFFFFFFFFFFFFFFFFFFFFFFFFF
310
FFFFFFFFFFFFFFFFFFFFFFFFFFFFFFFFFFFFFFFFFFFFFFFFF000FFFFFFFFFFFF
310
FFFFFFFFFFFFFFFFFFFFFFFFFFFFFFFFFFFFFFFFFFFFFFFFFFFFFFFFFFFFFFFF
310
FFFFFFFFFFFFFFFFFFFFFFFFFFFFFFFFFFFFFFFFFFFFFFFFFFFFFFFFFFFFFFFF
310
FFFFFFFFFFFFFFFFFFFFFFFFFFFFFFFFF0000000000000000000000000000000
310
0000000000000000000000000000000000000000000000000000000000000000
310
0000000000000000000000000000000000000000000000000000000000000000
310
0000000000000000000000000000000000000000000000000000000000000000
310
0000000000000000000000000000000000000000000000000000000000000000
310
0000000000000000000000000000000000000000000000000000000000000000
310
0000000000000000000000000000000000000000000000000000000000000000
310
0000000000000000000000000000000000000000000000000000000000000000
310
0000000000000000000000000000000000000000000000000000000000000000
310
0000000000000000000000000000000000000000000000000000000000000000
310
0000000000000000000000000000000000000000000000000000000000000000
310
0000000000000000000000000000000000000000000000000000000000000000
310
0000000000000000000000000000000000000000000000000000000000000000
310
0000000000000000000000000000000000000000000000000000000000000000
310
0000000000000000000000000000000000000000000000000000000000000000
310
0000000000000000000000000000000000000000000000000000000000000000
  1
OLE
  0
ENDSEC
  0
SECTION
  2
OBJECTS
  0
DICTIONARY
  5
C
330
0
100
AcDbDictionary
281
     1
  3
ACAD_GROUP
350
D
  3
ACAD_LAYOUT
350
1A
  3
ACAD_MLINESTYLE
350
17
  3
ACAD_PLOTSETTINGS
350
19
  3
ACAD_PLOTSTYLENAME
350
E
  3
ACAD_SCALELIST
350
47
  0
DICTIONARY
  5
D
102
{ACAD_REACTORS
330
C
102
}
330
C
100
AcDbDictionary
281
     1
  0
DICTIONARY
  5
1A
102
{ACAD_REACTORS
330
C
102
}
330
C
100
AcDbDictionary
281
     1
  3
Layout1
350
1E
  3
Layout2
350
26
  3
Model
350
22
  0
DICTIONARY
  5
17
102
{ACAD_REACTORS
330
C
102
}
330
C
100
AcDbDictionary
281
     1
  3
Standard
350
18
  0
DICTIONARY
  5
19
102
{ACAD_REACTORS
330
C
102
}
330
C
100
AcDbDictionary
281
     1
  0
ACDBDICTIONARYWDFLT
  5
E
102
{ACAD_REACTORS
330
C
102
}
330
C
100
AcDbDictionary
281
     1
  3
Normal
350
F
100
AcDbDictionaryWithDefault
340
F
  0
DICTIONARY
  5
47
102
{ACAD_REACTORS
330
C
102
}
330
C
100
AcDbDictionary
281
     1
  3
A0
350
48
  3
A1
350
49
  3
A2
350
4A
  3
A3
350
4B
  3
A4
350
4C
  3
A5
350
4D
  3
A6
350
4E
  3
A7
350
4F
  3
A8
350
50
  3
A9
350
51
  3
B0
350
52
  3
B1
350
53
  3
B2
350
54
  3
B3
350
55
  3
B4
350
56
  3
B5
350
57
  3
B6
350
58
  3
B7
350
59
  3
B8
350
5A
  3
B9
350
5B
  3
C0
350
5C
  3
C1
350
5D
  3
C2
350
5E
  3
C3
350
5F
  3
C4
350
60
  3
C5
350
61
  3
C6
350
62
  3
C7
350
63
  3
C8
350
64
  3
C9
350
65
  3
D0
350
66
  3
D1
350
67
  3
D2
350
68
  0
LAYOUT
  5
1E
102
{ACAD_REACTORS
330
1A
102
}
330
1A
100
AcDbPlotSettings
  1

  2
none_device
  4

  6

 40
0.0
 41
0.0
 42
0.0
 43
0.0
 44
0.0
 45
0.0
 46
0.0
 47
0.0
 48
0.0
 49
0.0
140
0.0
141
0.0
142
1.0
143
1.0
 70
   688
 72
     1
 73
     0
 74
     5
  7

 75
    16
147
1.0
148
0.0
149
0.0
100
AcDbLayout
  1
Layout1
 70
     1
 71
     1
 10
0.0
 20
0.0
 11
420.0
 21
297.0
 12
0.0
 22
0.0
 32
0.0
 14
1.0000000000E+20
 24
1.0000000000E+20
 34
1.0000000000E+20
 15
-1.0000000000E+20
 25
-1.0000000000E+20
 35
-1.0000000000E+20
146
0.0
 13
0.0
 23
0.0
 33
0.0
 16
1.0
 26
0.0
 36
0.0
 17
0.0
 27
1.0
 37
0.0
 76
     0
330
1B
  0
LAYOUT
  5
26
102
{ACAD_REACTORS
330
1A
102
}
330
1A
100
AcDbPlotSettings
  1

  2
none_device
  4

  6

 40
0.0
 41
0.0
 42
0.0
 43
0.0
 44
0.0
 45
0.0
 46
0.0
 47
0.0
 48
0.0
 49
0.0
140
0.0
141
0.0
142
1.0
143
1.0
 70
   688
 72
     1
 73
     0
 74
     5
  7

 75
    16
147
1.0
148
0.0
149
0.0
100
AcDbLayout
  1
Layout2
 70
     1
 71
     2
 10
0.0
 20
0.0
 11
0.0
 21
0.0
 12
0.0
 22
0.0
 32
0.0
 14
0.0
 24
0.0
 34
0.0
 15
0.0
 25
0.0
 35
0.0
146
0.0
 13
0.0
 23
0.0
 33
0.0
 16
1.0
 26
0.0
 36
0.0
 17
0.0
 27
1.0
 37
0.0
 76
     0
330
23
  0
LAYOUT
  5
22
102
{ACAD_REACTORS
330
1A
102
}
330
1A
100
AcDbPlotSettings
  1

  2
none_device
  4
Letter_(8.50_x_11.00_Inches)
  6

 40
6.35
 41
6.35
 42
6.35000508
 43
6.35000508
 44
215.9
 45
279.4
 46
0.0
 47
0.0
 48
0.0
 49
0.0
140
0.0
141
0.0
142
1.0
143
1.0
 70
  1712
 72
     1
 73
     0
 74
     0
  7

 75
     0
147
1.0
148
0.0
149
0.0
100
AcDbLayout
  1
Model
 70
     1
 71
     0
 10
0.0
 20
0.0
 11
297.0
 21
210.0
 12
0.0
 22
0.0
 32
0.0
 14
0.0
 24
0.0
 34
0.0
 15
297.0
 25
210.0
 35
0.0
146
0.0
 13
0.0
 23
0.0
 33
0.0
 16
1.0
 26
0.0
 36
0.0
 17
0.0
 27
1.0
 37
0.0
 76
     0
330
1F
331
29
  0
MLINESTYLE
  5
18
102
{ACAD_REACTORS
330
17
102
}
330
17
100
AcDbMlineStyle
  2
Standard
 70
     0
  3

 62
   256
 51
90.0
 52
90.0
 71
     2
 49
0.5
 62
   256
  6
BYLAYER
 49
-0.5
 62
   256
  6
BYLAYER
  0
ACDBPLACEHOLDER
  5
F
102
{ACAD_REACTORS
330
E
102
}
330
E
  0
SCALE
  5
48
102
{ACAD_REACTORS
330
47
102
}
330
47
100
AcDbScale
 70
     0
300
1:1
140
1.0
141
1.0
290
     1
  0
SCALE
  5
49
102
{ACAD_REACTORS
330
47
102
}
330
47
100
AcDbScale
 70
     0
300
1:2
140
1.0
141
2.0
290
     0
  0
SCALE
  5
4A
102
{ACAD_REACTORS
330
47
102
}
330
47
100
AcDbScale
 70
     0
300
1:4
140
1.0
141
4.0
290
     0
  0
SCALE
  5
4B
102
{ACAD_REACTORS
330
47
102
}
330
47
100
AcDbScale
 70
     0
300
1:5
140
1.0
141
5.0
290
     0
  0
SCALE
  5
4C
102
{ACAD_REACTORS
330
47
102
}
330
47
100
AcDbScale
 70
     0
300
1:8
140
1.0
141
8.0
290
     0
  0
SCALE
  5
4D
102
{ACAD_REACTORS
330
47
102
}
330
47
100
AcDbScale
 70
     0
300
1:10
140
1.0
141
10.0
290
     0
  0
SCALE
  5
4E
102
{ACAD_REACTORS
330
47
102
}
330
47
100
AcDbScale
 70
     0
300
1:16
140
1.0
141
16.0
290
     0
  0
SCALE
  5
4F
102
{ACAD_REACTORS
330
47
102
}
330
47
100
AcDbScale
 70
     0
300
1:20
140
1.0
141
20.0
290
     0
  0
SCALE
  5
50
102
{ACAD_REACTORS
330
47
102
}
330
47
100
AcDbScale
 70
     0
300
1:30
140
1.0
141
30.0
290
     0
  0
SCALE
  5
51
102
{ACAD_REACTORS
330
47
102
}
330
47
100
AcDbScale
 70
     0
300
1:40
140
1.0
141
40.0
290
     0
  0
SCALE
  5
52
102
{ACAD_REACTORS
330
47
102
}
330
47
100
AcDbScale
 70
     0
300
1:50
140
1.0
141
50.0
290
     0
  0
SCALE
  5
53
102
{ACAD_REACTORS
330
47
102
}
330
47
100
AcDbScale
 70
     0
300
1:100
140
1.0
141
100.0
290
     0
  0
SCALE
  5
54
102
{ACAD_REACTORS
330
47
102
}
330
47
100
AcDbScale
 70
     0
300
2:1
140
2.0
141
1.0
290
     0
  0
SCALE
  5
55
102
{ACAD_REACTORS
330
47
102
}
330
47
100
AcDbScale
 70
     0
300
4:1
140
4.0
141
1.0
290
     0
  0
SCALE
  5
56
102
{ACAD_REACTORS
330
47
102
}
330
47
100
AcDbScale
 70
     0
300
8:1
140
8.0
141
1.0
290
     0
  0
SCALE
  5
57
102
{ACAD_REACTORS
330
47
102
}
330
47
100
AcDbScale
 70
     0
300
10:1
140
10.0
141
1.0
290
     0
  0
SCALE
  5
58
102
{ACAD_REACTORS
330
47
102
}
330
47
100
AcDbScale
 70
     0
300
100:1
140
100.0
141
1.0
290
     0
  0
SCALE
  5
59
102
{ACAD_REACTORS
330
47
102
}
330
47
100
AcDbScale
 70
     0
300
1/128" = 1'-0"
140
0.0078125
141
12.0
290
     0
  0
SCALE
  5
5A
102
{ACAD_REACTORS
330
47
102
}
330
47
100
AcDbScale
 70
     0
300
1/64" = 1'-0"
140
0.015625
141
12.0
290
     0
  0
SCALE
  5
5B
102
{ACAD_REACTORS
330
47
102
}
330
47
100
AcDbScale
 70
     0
300
1/32" = 1'-0"
140
0.03125
141
12.0
290
     0
  0
SCALE
  5
5C
102
{ACAD_REACTORS
330
47
102
}
330
47
100
AcDbScale
 70
     0
300
1/16" = 1'-0"
140
0.0625
141
12.0
290
     0
  0
SCALE
  5
5D
102
{ACAD_REACTORS
330
47
102
}
330
47
100
AcDbScale
 70
     0
300
3/32" = 1'-0"
140
0.09375
141
12.0
290
     0
  0
SCALE
  5
5E
102
{ACAD_REACTORS
330
47
102
}
330
47
100
AcDbScale
 70
     0
300
1/8" = 1'-0"
140
0.125
141
12.0
290
     0
  0
SCALE
  5
5F
102
{ACAD_REACTORS
330
47
102
}
330
47
100
AcDbScale
 70
     0
300
3/16" = 1'-0"
140
0.1875
141
12.0
290
     0
  0
SCALE
  5
60
102
{ACAD_REACTORS
330
47
102
}
330
47
100
AcDbScale
 70
     0
300
1/4" = 1'-0"
140
0.25
141
12.0
290
     0
  0
SCALE
  5
61
102
{ACAD_REACTORS
330
47
102
}
330
47
100
AcDbScale
 70
     0
300
3/8" = 1'-0"
140
0.375
141
12.0
290
     0
  0
SCALE
  5
62
102
{ACAD_REACTORS
330
47
102
}
330
47
100
AcDbScale
 70
     0
300
1/2" = 1'-0"
140
0.5
141
12.0
290
     0
  0
SCALE
  5
63
102
{ACAD_REACTORS
330
47
102
}
330
47
100
AcDbScale
 70
     0
300
3/4" = 1'-0"
140
0.75
141
12.0
290
     0
  0
SCALE
  5
64
102
{ACAD_REACTORS
330
47
102
}
330
47
100
AcDbScale
 70
     0
300
1" = 1'-0"
140
1.0
141
12.0
290
     0
  0
SCALE
  5
65
102
{ACAD_REACTORS
330
47
102
}
330
47
100
AcDbScale
 70
     0
300
1-1/2" = 1'-0"
140
1.5
141
12.0
290
     0
  0
SCALE
  5
66
102
{ACAD_REACTORS
330
47
102
}
330
47
100
AcDbScale
 70
     0
300
3" = 1'-0"
140
3.0
141
12.0
290
     0
  0
SCALE
  5
67
102
{ACAD_REACTORS
330
47
102
}
330
47
100
AcDbScale
 70
     0
300
6" = 1'-0"
140
6.0
141
12.0
290
     0
  0
SCALE
  5
68
102
{ACAD_REACTORS
330
47
102
}
330
47
100
AcDbScale
 70
     0
300
1'-0" = 1'-0"
140
12.0
141
12.0
290
     0
  0
ENDSEC
  0
EOF
