  0
SECTION
  2
HEADER
  9
$ACADVER
  1
AC1015
  9
$ACADMAINTVER
 70
     6
  9
$DWGCODEPAGE
  3
ANSI_1252
  9
$INSBASE
 10
0.0
 20
0.0
 30
0.0
  9
$EXTMIN
 10
0.0
 20
0.0
 30
0.0
  9
$EXTMAX
 10
297.0
 20
210.0
 30
0.0
  9
$LIMMIN
 10
0.0
 20
0.0
  9
$LIMMAX
 10
297.0
 20
210.0
  9
$ORTHOMODE
 70
     0
  9
$REGENMODE
 70
     1
  9
$FILLMODE
 70
     1
  9
$QTEXTMODE
 70
     0
  9
$MIRRTEXT
 70
     1
  9
$LTSCALE
 40
1.0
  9
$ATTMODE
 70
     1
  9
$TEXTSIZE
 40
2.0
  9
$TRACEWID
 40
1.0
  9
$TEXTSTYLE
  7
Standard
  9
$CLAYER
  8
0
  9
$CELTYPE
  6
ByLayer
  9
$CECOLOR
 62
   256
  9
$CELTSCALE
 40
1.0
  9
$DISPSILH
 70
     0
  9
$DIMSCALE
 40
1.0
  9
$DIMASZ
 40
3.0
  9
$DIMEXO
 40
0.0
  9
$DIMDLI
 40
3.75
  9
$DIMRND
 40
0.0
  9
$DIMDLE
 40
0.0
  9
$DIMEXE
 40
1.0
  9
$DIMTP
 40
0.0
  9
$DIMTM
 40
0.0
  9
$DIMTXT
 40
2.0
  9
$DIMCEN
 40
2.5
  9
$DIMTSZ
 40
0.0
  9
$DIMTOL
 70
     0
  9
$DIMLIM
 70
     0
  9
$DIMTIH
 70
     1
  9
$DIMTOH
 70
     1
  9
$DIMSE1
 70
     0
  9
$DIMSE2
 70
     0
  9
$DIMTAD
 70
     1
  9
$DIMZIN
 70
     0
  9
$DIMBLK
  1

  9
$DIMASO
 70
     1
  9
$DIMSHO
 70
     1
  9
$DIMPOST
  1

  9
$DIMAPOST
  1

  9
$DIMALT
 70
     0
  9
$DIMALTD
 70
     3
  9
$DIMALTF
 40
0.0393700787
  9
$DIMLFAC
 40
2.0
  9
$DIMTOFL
 70
     1
  9
$DIMTVP
 40
0.0
  9
$DIMTIX
 70
     0
  9
$DIMSOXD
 70
     0
  9
$DIMSAH
 70
     0
  9
$DIMBLK1
  1

  9
$DIMBLK2
  1

  9
$DIMSTYLE
  2
ISO-25
  9
$DIMCLRD
 70
     0
  9
$DIMCLRE
 70
     0
  9
$DIMCLRT
 70
     0
  9
$DIMTFAC
 40
1.0
  9
$DIMGAP
 40
1.524
  9
$DIMJUST
 70
     0
  9
$DIMSD1
 70
     0
  9
$DIMSD2
 70
     0
  9
$DIMTOLJ
 70
     0
  9
$DIMTZIN
 70
     0
  9
$DIMALTZ
 70
     0
  9
$DIMALTTZ
 70
     0
  9
$DIMUPT
 70
     0
  9
$DIMDEC
 70
     2
  9
$DIMTDEC
 70
     3
  9
$DIMALTU
 70
     2
  9
$DIMALTTD
 70
     3
  9
$DIMTXSTY
  7
Standard
  9
$DIMAUNIT
 70
     0
  9
$DIMADEC
 70
     2
  9
$DIMALTRND
 40
0.0
  9
$DIMAZIN
 70
     0
  9
$DIMDSEP
 70
    44
  9
$DIMATFIT
 70
     3
  9
$DIMFRAC
 70
     0
  9
$DIMLDRBLK
  1

  9
$DIMLUNIT
 70
     2
  9
$DIMLWD
 70
    -2
  9
$DIMLWE
 70
    -2
  9
$DIMTMOVE
 70
     0
  9
$LUNITS
 70
     2
  9
$LUPREC
 70
     2
  9
$SKETCHINC
 40
1.0
  9
$FILLETRAD
 40
10.0
  9
$AUNITS
 70
     0
  9
$AUPREC
 70
     2
  9
$MENU
  1
.
  9
$ELEVATION
 40
0.0
  9
$PELEVATION
 40
0.0
  9
$THICKNESS
 40
0.0
  9
$LIMCHECK
 70
     0
  9
$CHAMFERA
 40
0.0
  9
$CHAMFERB
 40
0.0
  9
$CHAMFERC
 40
0.0
  9
$CHAMFERD
 40
0.0
  9
$SKPOLY
 70
     0
  9
$TDCREATE
 40
2458166.589186458
  9
$TDUCREATE
 40
2458166.547519792
  9
$TDUPDATE
 40
2458166.589188762
  9
$TDUUPDATE
 40
2458166.547522095
  9
$TDINDWG
 40
0.0000000116
  9
$TDUSRTIMER
 40
0.0000000116
  9
$USRTIMER
 70
     1
  9
$ANGBASE
 50
0.0
  9
$ANGDIR
 70
     0
  9
$PDMODE
 70
     0
  9
$PDSIZE
 40
-1.0
  9
$PLINEWID
 40
0.0
  9
$SPLFRAME
 70
     0
  9
$SPLINETYPE
 70
     6
  9
$SPLINESEGS
 70
     8
  9
$HANDSEED
  5
278
  9
$SURFTAB1
 70
     6
  9
$SURFTAB2
 70
     6
  9
$SURFTYPE
 70
     6
  9
$SURFU
 70
     6
  9
$SURFV
 70
     6
  9
$UCSBASE
  2

  9
$UCSNAME
  2

  9
$UCSORG
 10
0.0
 20
0.0
 30
0.0
  9
$UCSXDIR
 10
1.0
 20
0.0
 30
0.0
  9
$UCSYDIR
 10
0.0
 20
1.0
 30
0.0
  9
$UCSORTHOREF
  2

  9
$UCSORTHOVIEW
 70
     0
  9
$UCSORGTOP
 10
0.0
 20
0.0
 30
0.0
  9
$UCSORGBOTTOM
 10
0.0
 20
0.0
 30
0.0
  9
$UCSORGLEFT
 10
0.0
 20
0.0
 30
0.0
  9
$UCSORGRIGHT
 10
0.0
 20
0.0
 30
0.0
  9
$UCSORGFRONT
 10
0.0
 20
0.0
 30
0.0
  9
$UCSORGBACK
 10
0.0
 20
0.0
 30
0.0
  9
$PUCSBASE
  2

  9
$PUCSNAME
  2

  9
$PUCSORG
 10
0.0
 20
0.0
 30
0.0
  9
$PUCSXDIR
 10
1.0
 20
0.0
 30
0.0
  9
$PUCSYDIR
 10
0.0
 20
1.0
 30
0.0
  9
$PUCSORTHOREF
  2

  9
$PUCSORTHOVIEW
 70
     0
  9
$PUCSORGTOP
 10
0.0
 20
0.0
 30
0.0
  9
$PUCSORGBOTTOM
 10
0.0
 20
0.0
 30
0.0
  9
$PUCSORGLEFT
 10
0.0
 20
0.0
 30
0.0
  9
$PUCSORGRIGHT
 10
0.0
 20
0.0
 30
0.0
  9
$PUCSORGFRONT
 10
0.0
 20
0.0
 30
0.0
  9
$PUCSORGBACK
 10
0.0
 20
0.0
 30
0.0
  9
$USERI1
 70
     0
  9
$USERI2
 70
     0
  9
$USERI3
 70
     0
  9
$USERI4
 70
     0
  9
$USERI5
 70
     0
  9
$USERR1
 40
0.0
  9
$USERR2
 40
0.0
  9
$USERR3
 40
0.0
  9
$USERR4
 40
0.0
  9
$USERR5
 40
0.0
  9
$WORLDVIEW
 70
     1
  9
$SHADEDGE
 70
     3
  9
$SHADEDIF
 70
    70
  9
$TILEMODE
 70
     1
  9
$MAXACTVP
 70
    64
  9
$PINSBASE
 10
0.0
 20
0.0
 30
0.0
  9
$PLIMCHECK
 70
     0
  9
$PEXTMIN
 10
1.0000000000E+20
 20
1.0000000000E+20
 30
1.0000000000E+20
  9
$PEXTMAX
 10
-1.0000000000E+20
 20
-1.0000000000E+20
 30
-1.0000000000E+20
  9
$PLIMMIN
 10
0.0
 20
0.0
  9
$PLIMMAX
 10
420.0
 20
297.0
  9
$UNITMODE
 70
     0
  9
$VISRETAIN
 70
     1
  9
$PLINEGEN
 70
     0
  9
$PSLTSCALE
 70
     1
  9
$TREEDEPTH
 70
  3020
  9
$CMLSTYLE
  2
Standard
  9
$CMLJUST
 70
     0
  9
$CMLSCALE
 40
20.0
  9
$PROXYGRAPHICS
 70
     1
  9
$MEASUREMENT
 70
     1
  9
$CELWEIGHT
370
    -1
  9
$ENDCAPS
280
     0
  9
$JOINSTYLE
280
     0
  9
$LWDISPLAY
290
     1
  9
$INSUNITS
 70
     4
  9
$HYPERLINKBASE
  1

  9
$STYLESHEET
  1

  9
$XEDIT
290
     1
  9
$CEPSNTYPE
380
     0
  9
$PSTYLEMODE
290
     1
  9
$FINGERPRINTGUID
  2
{21479CDF-E9D4-4EDC-B5A8-C1D48113D4B0}
  9
$VERSIONGUID
  2
{FAEB1C32-E019-11D5-929B-00C0DF256EC4}
  9
$EXTNAMES
290
     1
  9
$PSVPSCALE
 40
0.0
  9
$OLESTARTUP
290
     0
  0
ENDSEC
  0
SECTION
  2
CLASSES
  0
CLASS
  1
ACDBDICTIONARYWDFLT
  2
AcDbDictionaryWithDefault
  3
ObjectDBX Classes
 90
        0
280
     0
281
     0
  0
CLASS
  1
VISUALSTYLE
  2
AcDbVisualStyle
  3
ObjectDBX Classes
 90
     4095
280
     0
281
     0
  0
CLASS
  1
MATERIAL
  2
AcDbMaterial
  3
ObjectDBX Classes
 90
     1153
280
     0
281
     0
  0
CLASS
  1
SCALE
  2
AcDbScale
  3
ObjectDBX Classes
 90
     1153
280
     0
281
     0
  0
CLASS
  1
TABLESTYLE
  2
AcDbTableStyle
  3
ObjectDBX Classes
 90
     4095
280
     0
281
     0
  0
CLASS
  1
MLEADERSTYLE
  2
AcDbMLeaderStyle
  3
ACDB_MLEADERSTYLE_CLASS
 90
     4095
280
     0
281
     0
  0
CLASS
  1
SUN
  2
AcDbSun
  3
SCENEOE
 90
     1153
280
     0
281
     0
  0
CLASS
  1
ACDBPLACEHOLDER
  2
AcDbPlaceHolder
  3
ObjectDBX Classes
 90
        0
280
     0
281
     0
  0
CLASS
  1
LAYOUT
  2
AcDbLayout
  3
ObjectDBX Classes
 90
        0
280
     0
281
     0
  0
ENDSEC
  0
SECTION
  2
TABLES
  0
TABLE
  2
VPORT
  5
8
330
0
100
AcDbSymbolTable
 70
     1
  0
VPORT
  5
29
330
8
100
AcDbSymbolTableRecord
100
AcDbViewportTableRecord
  2
*Active
 70
     0
 10
0.0
 20
0.0
 11
1.0
 21
1.0
 12
148.5
 22
105.0
 13
0.0
 23
0.0
 14
10.0
 24
10.0
 15
10.0
 25
10.0
 16
0.0
 26
0.0
 36
1.0
 17
0.0
 27
0.0
 37
0.0
 40
210.0
 41
1.4142857143
 42
50.0
 43
0.0
 44
0.0
 50
0.0
 51
0.0
 71
     0
 72
  2000
 73
     1
 74
     3
 75
     0
 76
     0
 77
     0
 78
     0
281
     0
 65
     1
110
0.0
120
0.0
130
0.0
111
1.0
121
0.0
131
0.0
112
0.0
122
1.0
132
0.0
 79
     0
146
0.0
  0
ENDTAB
  0
TABLE
  2
LTYPE
  5
5
330
0
100
AcDbSymbolTable
 70
     6
  0
LTYPE
  5
14
330
5
100
AcDbSymbolTableRecord
100
AcDbLinetypeTableRecord
  2
ByBlock
 70
     0
  3

 72
    65
 73
     0
 40
0.0
  0
LTYPE
  5
15
330
5
100
AcDbSymbolTableRecord
100
AcDbLinetypeTableRecord
  2
ByLayer
 70
     0
  3

 72
    65
 73
     0
 40
0.0
  0
LTYPE
  5
16
330
5
100
AcDbSymbolTableRecord
100
AcDbLinetypeTableRecord
  2
Continuous
 70
     0
  3
Solid line
 72
    65
 73
     0
 40
0.0
  0
LTYPE
  5
6E
330
5
100
AcDbSymbolTableRecord
100
AcDbLinetypeTableRecord
  2
HIDDEN
 70
     0
  3
Hidden __ __ __ __ __ __ __ __ __ __ __ __ __ __
 72
    65
 73
     2
 40
1.905
 49
1.27
 74
     0
 49
-0.635
 74
     0
  0
LTYPE
  5
6F
330
5
100
AcDbSymbolTableRecord
100
AcDbLinetypeTableRecord
  2
PHANTOM
 70
     0
  3
Phantom ______  __  __  ______  __  __  ______
 72
    65
 73
     6
 40
12.7
 49
6.35
 74
     0
 49
-1.27
 74
     0
 49
1.27
 74
     0
 49
-1.27
 74
     0
 49
1.27
 74
     0
 49
-1.27
 74
     0
  0
LTYPE
  5
70
330
5
100
AcDbSymbolTableRecord
100
AcDbLinetypeTableRecord
  2
CENTER
 70
     0
  3
Center ____ _ ____ _ ____ _ ____ _ ____ _ ____
 72
    65
 73
     4
 40
10.16
 49
6.35
 74
     0
 49
-1.27
 74
     0
 49
1.27
 74
     0
 49
-1.27
 74
     0
  0
LTYPE
  5
71
330
5
100
AcDbSymbolTableRecord
100
AcDbLinetypeTableRecord
  2
CENTERX2
 70
     0
  3
Center (2x) ________  __  ________  __  _____
 72
    65
 73
     4
 40
20.32
 49
12.7
 74
     0
 49
-2.54
 74
     0
 49
2.54
 74
     0
 49
-2.54
 74
     0
  0
LTYPE
  5
72
330
5
100
AcDbSymbolTableRecord
100
AcDbLinetypeTableRecord
  2
DOT2
 70
     0
  3
Dot (.5x) ........................................
 72
    65
 73
     2
 40
0.635
 49
0.0
 74
     0
 49
-0.635
 74
     0
  0
ENDTAB
  0
TABLE
  2
LAYER
  5
2
330
0
100
AcDbSymbolTable
 70
     5
  0
LAYER
  5
10
330
2
100
AcDbSymbolTableRecord
100
AcDbLayerTableRecord
  2
0
 70
     0
 62
     7
  6
Continuous
370
    -3
390
F
  0
LAYER
  5
73
330
2
100
AcDbSymbolTableRecord
100
AcDbLayerTableRecord
  2
FORMAT
 70
     0
 62
     7
  6
Continuous
370
    -3
390
F
  0
LAYER
  5
74
330
2
100
AcDbSymbolTableRecord
100
AcDbLayerTableRecord
  2
VERMASSUNG
 70
     0
 62
     7
  6
Continuous
370
    -3
390
F
  0
LAYER
  5
75
330
2
100
AcDbSymbolTableRecord
100
AcDbLayerTableRecord
  2
KOPF_DÜNN
 70
     0
 62
     7
  6
Continuous
370
    -3
390
F
  0
LAYER
  5
76
330
2
100
AcDbSymbolTableRecord
100
AcDbLayerTableRecord
  2
KOPF_DICK
 70
     0
 62
     7
  6
Continuous
370
    25
390
F
  0
ENDTAB
  0
TABLE
  2
STYLE
  5
3
330
0
100
AcDbSymbolTable
 70
     2
  0
STYLE
  5
11
330
3
100
AcDbSymbolTableRecord
100
AcDbTextStyleTableRecord
  2
Standard
 70
     0
 40
0.0
 41
1.0
 50
0.0
 71
     0
 42
2.0
  3
txt
  4

  0
STYLE
  5
77
330
3
100
AcDbSymbolTableRecord
100
AcDbTextStyleTableRecord
  2
SLDTEXTSTYLE0
 70
     0
 40
0.0
 41
0.7
 50
0.0
 71
     0
 42
2.0
  3
TXT
  4

  0
ENDTAB
  0
TABLE
  2
VIEW
  5
6
330
0
100
AcDbSymbolTable
 70
     0
  0
ENDTAB
  0
TABLE
  2
UCS
  5
7
330
0
100
AcDbSymbolTable
 70
     0
  0
ENDTAB
  0
TABLE
  2
APPID
  5
9
330
0
100
AcDbSymbolTable
 70
     1
  0
APPID
  5
12
330
9
100
AcDbSymbolTableRecord
100
AcDbRegAppTableRecord
  2
ACAD
 70
     0
  0
ENDTAB
  0
TABLE
  2
DIMSTYLE
  5
A
330
0
100
AcDbSymbolTable
 70
     3
100
AcDbDimStyleTable
  0
DIMSTYLE
105
27
330
A
100
AcDbSymbolTableRecord
100
AcDbDimStyleTableRecord
  2
ISO-25
 70
     0
 41
2.5
 42
0.625
 43
3.75
 44
1.25
 73
     0
 74
     0
 77
     1
 78
     8
140
2.5
141
2.5
143
0.0393700787
147
0.625
171
     3
172
     1
178
     0
271
     2
272
     2
274
     3
278
    44
283
     0
284
     8
340
11
  0
DIMSTYLE
105
14A
102
{ACAD_REACTORS
330
149
330
155
330
15F
330
169
330
173
102
}
330
A
100
AcDbSymbolTableRecord
100
AcDbDimStyleTableRecord
  2
SLDDIMSTYLE0
 70
     0
 41
3.0
 44
0.0
 45
0.000000001
 73
     0
 74
     0
 77
     1
 78
    12
 79
     3
140
2.0
147
0.5
173
     1
178
     0
271
     2
272
     3
276
     2
284
    12
340
77
  0
DIMSTYLE
105
17E
102
{ACAD_REACTORS
330
17D
102
}
330
A
100
AcDbSymbolTableRecord
100
AcDbDimStyleTableRecord
  2
SLDDIMSTYLE1
 70
     0
 41
3.0
 44
0.0
 45
0.000000001
 73
     0
 74
     0
 77
     1
 78
    12
 79
     3
140
2.0
147
0.5
173
     1
178
     0
271
     1
272
     3
276
     2
284
    12
340
77
  0
ENDTAB
  0
TABLE
  2
BLOCK_RECORD
  5
1
330
0
100
AcDbSymbolTable
 70
     7
  0
BLOCK_RECORD
  5
1F
330
1
100
AcDbSymbolTableRecord
100
AcDbBlockTableRecord
  2
*Model_Space
340
22
  0
BLOCK_RECORD
  5
1B
330
1
100
AcDbSymbolTableRecord
100
AcDbBlockTableRecord
  2
*Paper_Space
340
1E
  0
BLOCK_RECORD
  5
23
330
1
100
AcDbSymbolTableRecord
100
AcDbBlockTableRecord
  2
*Paper_Space0
340
26
  0
BLOCK_RECORD
  5
14B
330
1
100
AcDbSymbolTableRecord
100
AcDbBlockTableRecord
  2
_D
340
0
  0
BLOCK_RECORD
  5
156
330
1
100
AcDbSymbolTableRecord
100
AcDbBlockTableRecord
  2
_D_1
340
0
  0
BLOCK_RECORD
  5
160
330
1
100
AcDbSymbolTableRecord
100
AcDbBlockTableRecord
  2
_D_2
340
0
  0
BLOCK_RECORD
  5
16A
330
1
100
AcDbSymbolTableRecord
100
AcDbBlockTableRecord
  2
_D_3
340
0
  0
BLOCK_RECORD
  5
174
330
1
100
AcDbSymbolTableRecord
100
AcDbBlockTableRecord
  2
_D_4
340
0
  0
BLOCK_RECORD
  5
17F
330
1
100
AcDbSymbolTableRecord
100
AcDbBlockTableRecord
  2
_D_5
340
0
  0
ENDTAB
  0
ENDSEC
  0
SECTION
  2
BLOCKS
  0
BLOCK
  5
20
330
1F
100
AcDbEntity
  8
0
100
AcDbBlockBegin
  2
*Model_Space
 70
     0
 10
0.0
 20
0.0
 30
0.0
  3
*Model_Space
  1

  0
ENDBLK
  5
21
330
1F
100
AcDbEntity
  8
0
100
AcDbBlockEnd
  0
BLOCK
  5
1C
330
1B
100
AcDbEntity
 67
     1
  8
0
100
AcDbBlockBegin
  2
*Paper_Space
 70
     0
 10
0.0
 20
0.0
 30
0.0
  3
*Paper_Space
  1

  0
ENDBLK
  5
1D
330
1B
100
AcDbEntity
 67
     1
  8
0
100
AcDbBlockEnd
  0
BLOCK
  5
24
330
23
100
AcDbEntity
  8
0
100
AcDbBlockBegin
  2
*Paper_Space0
 70
     0
 10
0.0
 20
0.0
 30
0.0
  3
*Paper_Space0
  1

  0
ENDBLK
  5
25
330
23
100
AcDbEntity
  8
0
100
AcDbBlockEnd
  0
BLOCK
  5
14C
330
14B
100
AcDbEntity
  8
0
100
AcDbBlockBegin
  2
_D
 70
     0
 10
0.0
 20
0.0
 30
0.0
  3
_D
  1

  0
SOLID
  5
14E
330
14B
100
AcDbEntity
  8
VERMASSUNG
100
AcDbTrace
 10
213.9489923977
 20
135.1045690497
 30
0.0
 11
213.4989923977
 21
132.1045690497
 31
0.0
 12
214.3989923977
 22
132.1045690497
 32
0.0
 13
214.3989923977
 23
132.1045690497
 33
0.0
  0
SOLID
  5
14F
330
14B
100
AcDbEntity
  8
VERMASSUNG
100
AcDbTrace
 10
213.9489923977
 20
85.4045690497
 30
0.0
 11
214.3989923977
 21
88.4045690497
 31
0.0
 12
213.4989923977
 22
88.4045690497
 32
0.0
 13
213.4989923977
 23
88.4045690497
 33
0.0
  0
LINE
  5
150
330
14B
100
AcDbEntity
  8
VERMASSUNG
100
AcDbLine
 10
185.3665261319
 20
135.1045690497
 30
0.0
 11
214.9489923977
 21
135.1045690497
 31
0.0
  0
LINE
  5
151
330
14B
100
AcDbEntity
  8
VERMASSUNG
100
AcDbLine
 10
185.3680048097
 20
85.4045690497
 30
0.0
 11
214.9489923977
 21
85.4045690497
 31
0.0
  0
LINE
  5
152
330
14B
100
AcDbEntity
  8
VERMASSUNG
100
AcDbLine
 10
213.9489923977
 20
135.1045690497
 30
0.0
 11
213.9489923977
 21
85.4045690497
 31
0.0
  0
MTEXT
  5
153
330
14B
100
AcDbEntity
  8
VERMASSUNG
100
AcDbMText
 10
211.3708570927
 20
105.9495690984
 30
0.0
 40
2.0
 41
0.0
 71
     1
 72
     1
  1
%%c
  7
SLDTEXTSTYLE0
 11
-7.044195017643634E-15
 21
1.0
 31
0.0
 73
     1
 44
1.0
  0
MTEXT
  5
154
330
14B
100
AcDbEntity
  8
VERMASSUNG
100
AcDbMText
 10
211.1708571415
 20
109.5595691127
 30
0.0
 40
2.0
 41
0.0
 71
     1
 72
     1
  1
49.7
  7
SLDTEXTSTYLE0
 11
-7.044195017643634E-15
 21
1.0
 31
0.0
 73
     1
 44
1.0
  0
ENDBLK
  5
14D
330
14B
100
AcDbEntity
  8
0
100
AcDbBlockEnd
  0
BLOCK
  5
157
330
156
100
AcDbEntity
  8
0
100
AcDbBlockBegin
  2
_D_1
 70
     0
 10
0.0
 20
0.0
 30
0.0
  3
_D_1
  1

  0
SOLID
  5
159
330
156
100
AcDbEntity
  8
VERMASSUNG
100
AcDbTrace
 10
171.432202637
 20
90.2545690497
 30
0.0
 11
171.882202637
 21
93.2545690497
 31
0.0
 12
170.982202637
 22
93.2545690497
 32
0.0
 13
170.982202637
 23
93.2545690497
 33
0.0
  0
SOLID
  5
15A
330
156
100
AcDbEntity
  8
VERMASSUNG
100
AcDbTrace
 10
171.432202637
 20
130.2545690497
 30
0.0
 11
170.982202637
 21
127.2545690497
 31
0.0
 12
171.882202637
 22
127.2545690497
 32
0.0
 13
171.882202637
 23
127.2545690497
 33
0.0
  0
LINE
  5
15B
330
156
100
AcDbEntity
  8
VERMASSUNG
100
AcDbLine
 10
171.432202637
 20
90.2545690497
 30
0.0
 11
171.432202637
 21
130.2545690497
 31
0.0
  0
LINE
  5
15C
330
156
100
AcDbEntity
  8
VERMASSUNG
100
AcDbLine
 10
171.432202637
 20
130.2545690497
 30
0.0
 11
171.432202637
 21
145.0010462173
 31
0.0
  0
MTEXT
  5
15D
330
156
100
AcDbEntity
  8
VERMASSUNG
100
AcDbMText
 10
168.8540673321
 20
138.3910461769
 30
0.0
 40
2.0
 41
0.0
 71
     1
 72
     1
  1
%%c
  7
SLDTEXTSTYLE0
 11
6.123233995736766E-17
 21
1.0
 31
0.0
 73
     1
 44
1.0
  0
MTEXT
  5
15E
330
156
100
AcDbEntity
  8
VERMASSUNG
100
AcDbMText
 10
168.6540673808
 20
142.0010461912
 30
0.0
 40
2.0
 41
0.0
 71
     1
 72
     1
  1
40
  7
SLDTEXTSTYLE0
 11
6.123233995736766E-17
 21
1.0
 31
0.0
 73
     1
 44
1.0
  0
ENDBLK
  5
158
330
156
100
AcDbEntity
  8
0
100
AcDbBlockEnd
  0
BLOCK
  5
161
330
160
100
AcDbEntity
  8
0
100
AcDbBlockBegin
  2
_D_2
 70
     0
 10
0.0
 20
0.0
 30
0.0
  3
_D_2
  1

  0
SOLID
  5
163
330
160
100
AcDbEntity
  8
VERMASSUNG
100
AcDbTrace
 10
161.9489923977
 20
151.7295690497
 30
0.0
 11
164.9489923977
 21
151.2795690497
 31
0.0
 12
164.9489923977
 22
152.1795690497
 32
0.0
 13
164.9489923977
 23
152.1795690497
 33
0.0
  0
SOLID
  5
164
330
160
100
AcDbEntity
  8
VERMASSUNG
100
AcDbTrace
 10
203.9489923977
 20
151.7295690497
 30
0.0
 11
200.9489923977
 21
152.1795690497
 31
0.0
 12
200.9489923977
 22
151.2795690497
 32
0.0
 13
200.9489923977
 23
151.2795690497
 33
0.0
  0
LINE
  5
165
330
160
100
AcDbEntity
  8
VERMASSUNG
100
AcDbLine
 10
161.9489923977
 20
141.7295690497
 30
0.0
 11
161.9489923977
 21
152.7295690497
 31
0.0
  0
LINE
  5
166
330
160
100
AcDbEntity
  8
VERMASSUNG
100
AcDbLine
 10
203.9489923977
 20
129.2545690497
 30
0.0
 11
203.9489923977
 21
152.7295690497
 31
0.0
  0
LINE
  5
167
330
160
100
AcDbEntity
  8
VERMASSUNG
100
AcDbLine
 10
161.9489923977
 20
151.7295690497
 30
0.0
 11
203.9489923977
 21
151.7295690497
 31
0.0
  0
MTEXT
  5
168
330
160
100
AcDbEntity
  8
VERMASSUNG
100
AcDbMText
 10
181.4489923846
 20
154.3077046456
 30
0.0
 40
2.0
 41
0.0
 71
     1
 72
     1
  1
42
  7
SLDTEXTSTYLE0
 73
     1
 44
1.0
  0
ENDBLK
  5
162
330
160
100
AcDbEntity
  8
0
100
AcDbBlockEnd
  0
BLOCK
  5
16B
330
16A
100
AcDbEntity
  8
0
100
AcDbBlockBegin
  2
_D_3
 70
     0
 10
0.0
 20
0.0
 30
0.0
  3
_D_3
  1

  0
SOLID
  5
16D
330
16A
100
AcDbEntity
  8
VERMASSUNG
100
AcDbTrace
 10
143.9489923977
 20
160.1335692671
 30
0.0
 11
146.9489923977
 21
159.6835692671
 31
0.0
 12
146.9489923977
 22
160.5835692671
 32
0.0
 13
146.9489923977
 23
160.5835692671
 33
0.0
  0
SOLID
  5
16E
330
16A
100
AcDbEntity
  8
VERMASSUNG
100
AcDbTrace
 10
203.9489923977
 20
160.1335692671
 30
0.0
 11
200.9489923977
 21
160.5835692671
 31
0.0
 12
200.9489923977
 22
159.6835692671
 32
0.0
 13
200.9489923977
 23
159.6835692671
 33
0.0
  0
LINE
  5
16F
330
16A
100
AcDbEntity
  8
VERMASSUNG
100
AcDbLine
 10
143.9489923977
 20
141.5295690497
 30
0.0
 11
143.9489923977
 21
161.1335692671
 31
0.0
  0
LINE
  5
170
330
16A
100
AcDbEntity
  8
VERMASSUNG
100
AcDbLine
 10
203.9489923977
 20
129.2545690497
 30
0.0
 11
203.9489923977
 21
161.1335692671
 31
0.0
  0
LINE
  5
171
330
16A
100
AcDbEntity
  8
VERMASSUNG
100
AcDbLine
 10
143.9489923977
 20
160.1335692671
 30
0.0
 11
203.9489923977
 21
160.1335692671
 31
0.0
  0
MTEXT
  5
172
330
16A
100
AcDbEntity
  8
VERMASSUNG
100
AcDbMText
 10
172.5489924476
 20
162.711704863
 30
0.0
 40
2.0
 41
0.0
 71
     1
 72
     1
  1
60
  7
SLDTEXTSTYLE0
 73
     1
 44
1.0
  0
ENDBLK
  5
16C
330
16A
100
AcDbEntity
  8
0
100
AcDbBlockEnd
  0
BLOCK
  5
175
330
174
100
AcDbEntity
  8
0
100
AcDbBlockBegin
  2
_D_4
 70
     0
 10
0.0
 20
0.0
 30
0.0
  3
_D_4
  1

  0
SOLID
  5
177
330
174
100
AcDbEntity
  8
VERMASSUNG
100
AcDbTrace
 10
203.9489923977
 20
168.5506407168
 30
0.0
 11
200.9489923977
 21
169.0006407168
 31
0.0
 12
200.9489923977
 22
168.1006407168
 32
0.0
 13
200.9489923977
 23
168.1006407168
 33
0.0
  0
SOLID
  5
178
330
174
100
AcDbEntity
  8
VERMASSUNG
100
AcDbTrace
 10
103.9989923977
 20
168.5506407168
 30
0.0
 11
106.9989923977
 21
168.1006407168
 31
0.0
 12
106.9989923977
 22
169.0006407168
 32
0.0
 13
106.9989923977
 23
169.0006407168
 33
0.0
  0
LINE
  5
179
330
174
100
AcDbEntity
  8
VERMASSUNG
100
AcDbLine
 10
203.9489923977
 20
129.2545690497
 30
0.0
 11
203.9489923977
 21
169.5506407168
 31
0.0
  0
LINE
  5
17A
330
174
100
AcDbEntity
  8
VERMASSUNG
100
AcDbLine
 10
103.9989923977
 20
132.4576637735
 30
0.0
 11
103.9989923977
 21
169.5506407168
 31
0.0
  0
LINE
  5
17B
330
174
100
AcDbEntity
  8
VERMASSUNG
100
AcDbLine
 10
203.9489923977
 20
168.5506407168
 30
0.0
 11
103.9989923977
 21
168.5506407168
 31
0.0
  0
MTEXT
  5
17C
330
174
100
AcDbEntity
  8
VERMASSUNG
100
AcDbMText
 10
150.8739925415
 20
171.1287763128
 30
0.0
 40
2.0
 41
0.0
 71
     1
 72
     1
  1
99.95
  7
SLDTEXTSTYLE0
 73
     1
 44
1.0
  0
ENDBLK
  5
176
330
174
100
AcDbEntity
  8
0
100
AcDbBlockEnd
  0
BLOCK
  5
180
330
17F
100
AcDbEntity
  8
0
100
AcDbBlockBegin
  2
_D_5
 70
     0
 10
0.0
 20
0.0
 30
0.0
  3
_D_5
  1

  0
SOLID
  5
182
330
17F
100
AcDbEntity
  8
VERMASSUNG
100
AcDbTrace
 10
93.9989673977
 20
78.7795690497
 30
0.0
 11
94.4489673977
 21
81.7795690497
 31
0.0
 12
93.5489673977
 22
81.7795690497
 32
0.0
 13
93.5489673977
 23
81.7795690497
 33
0.0
  0
SOLID
  5
183
330
17F
100
AcDbEntity
  8
VERMASSUNG
100
AcDbTrace
 10
93.9989673977
 20
141.7295690497
 30
0.0
 11
93.5489673977
 21
138.7295690497
 31
0.0
 12
94.4489673977
 22
138.7295690497
 32
0.0
 13
94.4489673977
 23
138.7295690497
 33
0.0
  0
LINE
  5
184
330
17F
100
AcDbEntity
  8
VERMASSUNG
100
AcDbLine
 10
144.1489923977
 20
78.7795690497
 30
0.0
 11
92.9989673977
 21
78.7795690497
 31
0.0
  0
LINE
  5
185
330
17F
100
AcDbEntity
  8
VERMASSUNG
100
AcDbLine
 10
144.1489923977
 20
141.7295690497
 30
0.0
 11
92.9989673977
 21
141.7295690497
 31
0.0
  0
LINE
  5
186
330
17F
100
AcDbEntity
  8
VERMASSUNG
100
AcDbLine
 10
93.9989673977
 20
78.7795690497
 30
0.0
 11
93.9989673977
 21
141.7295690497
 31
0.0
  0
MTEXT
  5
187
330
17F
100
AcDbEntity
  8
VERMASSUNG
100
AcDbMText
 10
91.2208321415
 20
102.1495704313
 30
0.0
 40
2.0
 41
0.0
 71
     1
 72
     1
  1
KM
  7
SLDTEXTSTYLE0
 11
6.123233995736766E-17
 21
1.0
 31
0.0
 73
     1
 44
1.0
  0
MTEXT
  5
188
330
17F
100
AcDbEntity
  8
VERMASSUNG
100
AcDbMText
 10
91.4208320927
 20
105.5495702435
 30
0.0
 40
2.0
 41
0.0
 71
     1
 72
     1
  1
%%c
  7
SLDTEXTSTYLE0
 11
6.123233995736766E-17
 21
1.0
 31
0.0
 73
     1
 44
1.0
  0
MTEXT
  5
189
330
17F
100
AcDbEntity
  8
VERMASSUNG
100
AcDbMText
 10
91.2208321415
 20
109.1595702579
 30
0.0
 40
2.0
 41
0.0
 71
     1
 72
     1
  1
63
  7
SLDTEXTSTYLE0
 11
6.123233995736766E-17
 21
1.0
 31
0.0
 73
     1
 44
1.0
  0
MTEXT
  5
18A
330
17F
100
AcDbEntity
  8
VERMASSUNG
100
AcDbMText
 10
91.2208321415
 20
113.147070158
 30
0.0
 40
2.0
 41
0.0
 71
     1
 72
     1
  1
XMZ
  7
SLDTEXTSTYLE0
 11
6.123233995736766E-17
 21
1.0
 31
0.0
 73
     1
 44
1.0
  0
ENDBLK
  5
181
330
17F
100
AcDbEntity
  8
0
100
AcDbBlockEnd
  0
ENDSEC
  0
SECTION
  2
ENTITIES
  0
MTEXT
  5
78
330
1F
100
AcDbEntity
  8
KOPF_DÜNN
100
AcDbMText
 10
13.8892156294
 20
23.8442973028
 30
0.0
 40
3.0
 41
0.0
 71
     1
 72
     1
  1
KY6.E32.K01.060
  7
SLDTEXTSTYLE0
 73
     1
 44
1.0
  0
MTEXT
  5
79
330
1F
100
AcDbEntity
  8
VERMASSUNG
100
AcDbMText
 10
13.9329988022
 20
28.8834360957
 30
0.0
 40
3.0
 41
0.0
 71
     1
 72
     1
  1
Spannzangenfutter ER_Collet chuck ER
  7
SLDTEXTSTYLE0
 73
     1
 44
1.0
  0
MTEXT
  5
7A
330
1F
100
AcDbEntity
  8
VERMASSUNG
100
AcDbMText
 10
98.8601118557
 20
13.8365368761
 30
0.0
 40
2.0
 41
0.0
 71
     1
 72
     1
  1
Datum: 16.02.2018
  7
SLDTEXTSTYLE0
 73
     1
 44
1.0
  0
MTEXT
  5
7B
330
1F
100
AcDbEntity
  8
VERMASSUNG
100
AcDbMText
 10
13.933048693
 20
18.0482802738
 30
0.0
 40
2.0
 41
0.0
 71
     1
 72
     1
  1
KM63 XMZ / Ø50
  7
SLDTEXTSTYLE0
 73
     1
 44
1.0
  0
MTEXT
  5
7C
330
1F
100
AcDbEntity
  8
VERMASSUNG
100
AcDbMText
 10
13.9808475933
 20
13.9090974274
 30
0.0
 40
2.0
 41
0.0
 71
     1
 72
     1
  1
Gewicht: 936g
  7
SLDTEXTSTYLE0
 73
     1
 44
1.0
  0
LINE
  5
7D
330
1F
100
AcDbEntity
  8
0
  6
Continuous
 62
     7
370
    25
100
AcDbLine
 10
176.9489922189
 20
85.4045693536
 30
0.0
 11
185.3736244701
 21
85.4045693536
 31
0.0
  0
LINE
  5
7E
330
1F
100
AcDbEntity
  8
0
  6
Continuous
 62
     7
370
    25
100
AcDbLine
 10
185.4182608985
 20
135.1045687457
 30
0.0
 11
176.9489922189
 21
135.1045687457
 31
0.0
  0
LINE
  5
7F
330
1F
100
AcDbEntity
  8
0
  6
Continuous
 62
     7
370
    25
100
AcDbLine
 10
176.9489922189
 20
135.1045687457
 30
0.0
 11
176.4489912056
 21
134.604569595
 31
0.0
  0
LINE
  5
80
330
1F
100
AcDbEntity
  8
0
  6
Continuous
 62
     7
370
    25
100
AcDbLine
 10
176.4489912056
 20
85.9045685043
 30
0.0
 11
176.9489922189
 21
85.4045693536
 31
0.0
  0
LINE
  5
81
330
1F
100
AcDbEntity
  8
0
  6
Continuous
 62
     7
370
    25
100
AcDbLine
 10
202.2032604181
 20
88.2308744599
 30
0.0
 11
203.9489910566
 21
91.2545696606
 31
0.0
  0
LINE
  5
82
330
1F
100
AcDbEntity
  8
0
  6
Continuous
 62
     7
370
    25
100
AcDbLine
 10
203.9489910566
 20
129.2545684387
 30
0.0
 11
202.2041805648
 21
132.2766748031
 31
0.0
  0
LINE
  5
83
330
1F
100
AcDbEntity
  8
0
  6
Continuous
 62
     7
370
    25
100
AcDbLine
 10
144.1489923926
 20
78.7795689662
 30
0.0
 11
150.5147946626
 21
78.7795689662
 31
0.0
  0
LINE
  5
84
330
1F
100
AcDbEntity
  8
0
  6
Continuous
 62
     7
370
    25
100
AcDbLine
 10
150.5147946626
 20
141.7295691331
 30
0.0
 11
144.1489923926
 21
141.7295691331
 31
0.0
  0
LINE
  5
85
330
1F
100
AcDbEntity
  8
0
  6
Continuous
 62
     7
370
    25
100
AcDbLine
 10
157.1831904911
 20
78.7795689662
 30
0.0
 11
161.9489916228
 21
78.7795689662
 31
0.0
  0
LINE
  5
86
330
1F
100
AcDbEntity
  8
0
  6
Continuous
 62
     7
370
    25
100
AcDbLine
 10
161.9489916228
 20
141.7295691331
 30
0.0
 11
157.1831904911
 21
141.7295691331
 31
0.0
  0
LINE
  5
87
330
1F
100
AcDbEntity
  8
0
  6
Continuous
 62
     7
370
    25
100
AcDbLine
 10
151.9739922695
 20
139.2021645566
 30
0.0
 11
150.5147946626
 21
141.7295691331
 31
0.0
  0
ARC
  5
88
330
1F
100
AcDbEntity
  8
0
  6
Continuous
 62
     7
370
    25
100
AcDbCircle
 10
144.1489923977
 20
78.9795690497
 30
0.0
 40
0.2000000000000028
100
AcDbArc
 50
180.0
 51
270.0
  0
ARC
  5
89
330
1F
100
AcDbEntity
  8
0
  6
Continuous
 62
     7
370
    25
100
AcDbCircle
 10
144.1489923977
 20
141.5295690497
 30
0.0
 40
0.2000000000000171
100
AcDbArc
 50
90.0
 51
180.0
  0
ARC
  5
8A
330
1F
100
AcDbEntity
  8
0
  6
Continuous
 62
     7
370
    25
100
AcDbCircle
 10
143.5200575231
 20
84.7045690497
 30
0.0
 40
0.8000000000000235
100
AcDbArc
 50
57.576802718
 51
107.5
  0
ARC
  5
8B
330
1F
100
AcDbEntity
  8
0
  6
Continuous
 62
     7
370
    25
100
AcDbCircle
 10
143.5200575231
 20
135.8045690497
 30
0.0
 40
0.8000000000000115
100
AcDbArc
 50
252.5
 51
302.423197282
  0
LINE
  5
8C
330
1F
100
AcDbEntity
  8
0
  6
Continuous
 62
     7
370
    25
100
AcDbLine
 10
142.7888103389
 20
85.3128303548
 30
0.0
 11
143.2794928877
 21
85.4675435235
 31
0.0
  0
LINE
  5
8D
330
1F
100
AcDbEntity
  8
0
  6
Continuous
 62
     7
370
    25
100
AcDbLine
 10
143.2794928877
 20
135.0415945758
 30
0.0
 11
142.7888103389
 21
135.1963077446
 31
0.0
  0
LINE
  5
8E
330
1F
100
AcDbEntity
  8
0
  6
Continuous
 62
     7
370
    25
100
AcDbLine
 10
113.5538291745
 20
133.7281857391
 30
0.0
 11
105.4989934527
 21
133.3236899932
 31
0.0
  0
LINE
  5
8F
330
1F
100
AcDbEntity
  8
0
  6
Continuous
 62
     7
370
    25
100
AcDbLine
 10
142.7888103389
 20
135.1963077446
 30
0.0
 11
129.4625472837
 21
134.5270891448
 31
0.0
  0
LINE
  5
90
330
1F
100
AcDbEntity
  8
0
  6
Continuous
 62
     7
370
    25
100
AcDbLine
 10
129.4635037519
 20
85.9820005258
 30
0.0
 11
142.7888103389
 21
85.3128303548
 31
0.0
  0
LINE
  5
91
330
1F
100
AcDbEntity
  8
0
  6
Continuous
 62
     7
370
    25
100
AcDbLine
 10
105.4989934527
 20
87.1854481061
 30
0.0
 11
113.5538403504
 21
86.7809504976
 31
0.0
  0
ARC
  5
92
330
1F
100
AcDbEntity
  8
0
  6
Continuous
 62
     7
370
    25
100
AcDbCircle
 10
165.9489923977
 20
86.2545690497
 30
0.0
 40
4.0
100
AcDbArc
 50
90.0
 51
180.0
  0
ARC
  5
93
330
1F
100
AcDbEntity
  8
0
  6
Continuous
 62
     7
370
    25
100
AcDbCircle
 10
165.9489923977
 20
134.2545690497
 30
0.0
 40
4.0
100
AcDbArc
 50
180.0
 51
270.0
  0
LINE
  5
94
330
1F
100
AcDbEntity
  8
0
  6
Continuous
 62
     7
370
    25
100
AcDbLine
 10
105.4989934527
 20
133.3236899932
 30
0.0
 11
103.9989941381
 21
132.4576643069
 31
0.0
  0
LINE
  5
95
330
1F
100
AcDbEntity
  8
0
  6
Continuous
 62
     7
370
    25
100
AcDbLine
 10
103.9989941381
 20
88.0514737924
 30
0.0
 11
105.4989934527
 21
87.1854481061
 31
0.0
  0
LINE
  5
96
330
1F
100
AcDbEntity
  8
0
  6
Continuous
 62
     7
370
    25
100
AcDbLine
 10
176.4489912056
 20
130.2545686026
 30
0.0
 11
165.9489922785
 21
130.2545686026
 31
0.0
  0
LINE
  5
97
330
1F
100
AcDbEntity
  8
0
  6
Continuous
 62
     7
370
    25
100
AcDbLine
 10
165.9489922785
 20
90.2545694967
 30
0.0
 11
176.4489912056
 21
90.2545694967
 31
0.0
  0
LINE
  5
98
330
1F
100
AcDbEntity
  8
0
  6
Continuous
 62
     7
370
    25
100
AcDbLine
 10
157.1831904911
 20
141.7295691331
 30
0.0
 11
155.7239924185
 21
139.2021645566
 31
0.0
  0
ARC
  5
99
330
1F
100
AcDbEntity
  8
0
  6
Continuous
 62
     7
370
    25
100
AcDbCircle
 10
152.9739923977
 20
139.1045690497
 30
0.0
 40
1.000000000000028
100
AcDbArc
 50
180.0
 51
270.0
  0
LINE
  5
9A
330
1F
100
AcDbEntity
  8
0
  6
Continuous
 62
     7
370
    25
100
AcDbLine
 10
150.5147946626
 20
78.7795689662
 30
0.0
 11
151.9739922695
 21
81.3069735428
 31
0.0
  0
ARC
  5
9B
330
1F
100
AcDbEntity
  8
0
  6
Continuous
 62
     7
370
    25
100
AcDbCircle
 10
152.9739923977
 20
81.4045690497
 30
0.0
 40
1.000000000000028
100
AcDbArc
 50
90.0
 51
180.0
  0
LINE
  5
9C
330
1F
100
AcDbEntity
  8
0
  6
Continuous
 62
     7
370
    25
100
AcDbLine
 10
154.7239922546
 20
138.1045692374
 30
0.0
 11
152.9739924334
 21
138.1045692374
 31
0.0
  0
LINE
  5
9D
330
1F
100
AcDbEntity
  8
0
  6
Continuous
 62
     7
370
    25
100
AcDbLine
 10
155.7239924185
 20
81.3069735428
 30
0.0
 11
157.1831904911
 21
78.7795689662
 31
0.0
  0
ARC
  5
9E
330
1F
100
AcDbEntity
  8
0
  6
Continuous
 62
     7
370
    25
100
AcDbCircle
 10
154.7239923977
 20
139.1045690497
 30
0.0
 40
1.0
100
AcDbArc
 50
270.0
 51
0.0
  0
LINE
  5
9F
330
1F
100
AcDbEntity
  8
0
  6
Continuous
 62
     7
370
    25
100
AcDbLine
 10
152.9739924334
 20
82.4045688619
 30
0.0
 11
154.7239922546
 21
82.4045688619
 31
0.0
  0
ARC
  5
A0
330
1F
100
AcDbEntity
  8
0
  6
Continuous
 62
     7
370
    25
100
AcDbCircle
 10
154.7239923977
 20
81.4045690497
 30
0.0
 40
1.0
100
AcDbArc
 50
0.0
 51
90.0
  0
LINE
  5
A1
330
1F
100
AcDbEntity
  8
0
  6
Continuous
 62
     7
370
    25
100
AcDbLine
 10
188.8457291387
 20
134.9238213857
 30
0.0
 11
200.5714938604
 21
134.9238213857
 31
0.0
  0
SPLINE
  5
A2
330
1F
100
AcDbEntity
  8
0
  6
Continuous
 62
     7
370
    25
100
AcDbSpline
210
0.0
220
0.0
230
1.0
 70
     8
 71
     3
 72
    13
 73
     9
 74
     0
 42
0.000000001
 43
0.00000001
 40
0.0
 40
0.0
 40
0.0
 40
0.0
 40
0.0586723211145592
 40
0.2558252062601793
 40
0.4535119419507271
 40
0.6623785010911093
 40
0.884385509568928
 40
1.0
 40
1.0
 40
1.0
 40
1.0
 10
185.3927277587666
 20
135.0970548351503
 30
0.0
 10
185.3810003524247
 20
135.0972812551895
 30
0.0
 10
185.3298660852045
 20
135.0982685001483
 30
0.0
 10
185.625814107701
 20
135.0527684860468
 30
0.0
 10
186.2206288744384
 20
134.9789527868575
 30
0.0
 10
187.1248618128365
 20
134.8985498097747
 30
0.0
 10
188.0494697392242
 20
134.8530067554306
 30
0.0
 10
188.6426139252675
 20
134.8487461523158
 30
0.0
 10
188.8457291387334
 20
134.8472871591545
 30
0.0
  0
LINE
  5
A3
330
1F
100
AcDbEntity
  8
0
  6
Continuous
 62
     7
370
    25
100
AcDbLine
 10
188.8457291387
 20
134.8472871592
 30
0.0
 11
200.5714938604
 21
134.8472871592
 31
0.0
  0
LINE
  5
A4
330
1F
100
AcDbEntity
  8
0
  6
Continuous
 62
     7
370
    25
100
AcDbLine
 10
200.5714938604
 20
125.1801187878
 30
0.0
 11
200.5714938604
 21
134.8472871592
 31
0.0
  0
LINE
  5
A5
330
1F
100
AcDbEntity
  8
0
  6
Continuous
 62
     7
370
    25
100
AcDbLine
 10
188.8457291387
 20
125.1801187878
 30
0.0
 11
200.5714938604
 21
125.1801187878
 31
0.0
  0
SPLINE
  5
A6
330
1F
100
AcDbEntity
  8
0
  6
Continuous
 62
     7
370
    25
100
AcDbSpline
210
0.0
220
0.0
230
1.0
 70
     8
 71
     3
 72
    17
 73
    13
 74
     0
 42
0.000000001
 43
0.00000001
 40
0.0
 40
0.0
 40
0.0
 40
0.0
 40
0.0838166184652085
 40
0.2002654093166878
 40
0.3144090183770765
 40
0.4226837236239412
 40
0.53279138826838
 40
0.6306725111294079
 40
0.7288249215786287
 40
0.832531792979051
 40
0.9427611920115713
 40
1.0
 40
1.0
 40
1.0
 40
1.0
 10
188.8457291387334
 20
119.4621558075047
 30
0.0
 10
188.5487981601889
 20
119.4818853546175
 30
0.0
 10
187.8393326025718
 20
119.5290257177165
 30
0.0
 10
186.7993017267745
 20
119.966017932638
 30
0.0
 10
185.9119787142609
 20
120.732444188467
 30
0.0
 10
185.3857029733535
 20
121.7042771724261
 30
0.0
 10
185.2971516373037
 20
122.7067538922315
 30
0.0
 10
185.6077291188777
 20
123.6097838616013
 30
0.0
 10
186.2270597774308
 20
124.344919432809
 30
0.0
 10
187.1247287779942
 20
124.8894565767405
 30
0.0
 10
188.0507767201915
 20
125.148564468104
 30
0.0
 10
188.6432337745234
 20
125.1720810696612
 30
0.0
 10
188.8457291387334
 20
125.1801187877751
 30
0.0
  0
LINE
  5
A7
330
1F
100
AcDbEntity
  8
0
  6
Continuous
 62
     7
370
    25
100
AcDbLine
 10
188.8457291387
 20
119.4621558075
 30
0.0
 11
200.5714938604
 21
119.4621558075
 31
0.0
  0
LINE
  5
A8
330
1F
100
AcDbEntity
  8
0
  6
Continuous
 62
     7
370
    25
100
AcDbLine
 10
200.5714938604
 20
100.5108673831
 30
0.0
 11
200.5714938604
 21
119.4621558075
 31
0.0
  0
LINE
  5
A9
330
1F
100
AcDbEntity
  8
0
  6
Continuous
 62
     7
370
    25
100
AcDbLine
 10
188.8457291387
 20
100.5108673831
 30
0.0
 11
200.5714938604
 21
100.5108673831
 31
0.0
  0
SPLINE
  5
AA
330
1F
100
AcDbEntity
  8
0
  6
Continuous
 62
     7
370
    25
100
AcDbSpline
210
0.0
220
0.0
230
1.0
 70
     8
 71
     3
 72
    18
 73
    14
 74
     0
 42
0.000000001
 43
0.00000001
 40
0.0
 40
0.0
 40
0.0
 40
0.0
 40
0.083802282979969
 40
0.2002311083777117
 40
0.3143552046447236
 40
0.422611261774148
 40
0.523577993920517
 40
0.5374369381156634
 40
0.6352754313868043
 40
0.7336003616379775
 40
0.8375986551436496
 40
0.9480868769061547
 40
1.0
 40
1.0
 40
1.0
 40
1.0
 10
188.8457291387334
 20
94.86943676669362
 30
0.0
 10
188.5487981420198
 20
94.88608566341291
 30
0.0
 10
187.8393327137587
 20
94.92586533199504
 30
0.0
 10
186.7993023698083
 20
95.29801682924462
 30
0.0
 10
185.9119755528399
 20
95.97339765106469
 30
0.0
 10
185.4001552413488
 20
96.84564349934543
 30
0.0
 10
185.3254992656796
 20
97.53252328403264
 30
0.0
 10
185.4055544695329
 20
98.18051857970757
 30
0.0
 10
185.6297438355851
 20
98.8177738229066
 30
0.0
 10
186.2632331894538
 20
99.60172899009919
 30
0.0
 10
187.172964129099
 20
100.200415545877
 30
0.0
 10
188.0875689275994
 20
100.4792776900959
 30
0.0
 10
188.6620809476341
 20
100.5032154516108
 30
0.0
 10
188.8457291387334
 20
100.5108673830724
 30
0.0
  0
LINE
  5
AB
330
1F
100
AcDbEntity
  8
0
  6
Continuous
 62
     7
370
    25
100
AcDbLine
 10
188.8457291387
 20
94.8694367667
 30
0.0
 11
200.5714938604
 21
94.8694367667
 31
0.0
  0
LINE
  5
AC
330
1F
100
AcDbEntity
  8
0
  6
Continuous
 62
     7
370
    25
100
AcDbLine
 10
200.5714938604
 20
85.5853167136
 30
0.0
 11
200.5714938604
 21
94.8694367667
 31
0.0
  0
LINE
  5
AD
330
1F
100
AcDbEntity
  8
0
  6
Continuous
 62
     7
370
    25
100
AcDbLine
 10
188.8457291387
 20
85.5853167136
 30
0.0
 11
200.5714938604
 21
85.5853167136
 31
0.0
  0
SPLINE
  5
AE
330
1F
100
AcDbEntity
  8
0
  6
Continuous
 62
     7
370
    25
100
AcDbSpline
210
0.0
220
0.0
230
1.0
 70
     8
 71
     3
 72
    13
 73
     9
 74
     0
 42
0.000000001
 43
0.00000001
 40
0.0
 40
0.0
 40
0.0
 40
0.0
 40
0.0119726914373979
 40
0.2189064004076228
 40
0.426400467684814
 40
0.6456289671539792
 40
0.8786498376084264
 40
1.0
 40
1.0
 40
1.0
 40
1.0
 10
185.3736244701161
 20
85.4058992822862
 30
0.0
 10
185.3719064202677
 20
85.40545778347037
 30
0.0
 10
185.3404939254258
 20
85.39738550356029
 30
0.0
 10
185.6348213955038
 20
85.42542736297241
 30
0.0
 10
186.2180620802273
 20
85.47728517504602
 30
0.0
 10
187.125626910611
 20
85.54256330885504
 30
0.0
 10
188.0493781443919
 20
85.58050477913609
 30
0.0
 10
188.642590570489
 20
85.5840892530201
 30
0.0
 10
188.8457291387334
 20
85.58531671364072
 30
0.0
  0
LINE
  5
AF
330
1F
100
AcDbEntity
  8
0
  6
Continuous
 62
     7
370
    25
100
AcDbLine
 10
176.9489922189
 20
109.9645998743
 30
0.0
 11
176.9489922189
 21
135.1045687457
 31
0.0
  0
LINE
  5
B0
330
1F
100
AcDbEntity
  8
0
  6
Continuous
 62
     7
370
    25
100
AcDbLine
 10
176.9489922189
 20
85.4045693536
 30
0.0
 11
176.9489922189
 21
109.9645998743
 31
0.0
  0
LINE
  5
B1
330
1F
100
AcDbEntity
  8
0
  6
Continuous
 62
     7
370
    25
100
AcDbLine
 10
176.4489912056
 20
109.970434261
 30
0.0
 11
176.4489912056
 21
134.604569595
 31
0.0
  0
LINE
  5
B2
330
1F
100
AcDbEntity
  8
0
  6
Continuous
 62
     7
370
    25
100
AcDbLine
 10
176.4489912056
 20
85.9045685043
 30
0.0
 11
176.4489912056
 21
109.970434261
 31
0.0
  0
LINE
  5
B3
330
1F
100
AcDbEntity
  8
0
  6
Continuous
 62
     7
370
    25
100
AcDbLine
 10
202.1648154222
 20
88.2530716022
 30
0.0
 11
202.1505140327
 21
88.2297773619
 31
0.0
  0
LINE
  5
B4
330
1F
100
AcDbEntity
  8
0
  6
Continuous
 62
     7
370
    25
100
AcDbLine
 10
201.959645059
 20
87.9262984504
 30
0.0
 11
202.1505140327
 21
88.2297773619
 31
0.0
  0
LINE
  5
B5
330
1F
100
AcDbEntity
  8
0
  6
Continuous
 62
     7
370
    25
100
AcDbLine
 10
200.8183688484
 20
85.9724190791
 30
0.0
 11
201.959645059
 21
87.9262984504
 31
0.0
  0
LINE
  5
B6
330
1F
100
AcDbEntity
  8
0
  6
Continuous
 62
     7
370
    25
100
AcDbLine
 10
200.5714938604
 20
85.5853167136
 30
0.0
 11
200.8183688484
 21
85.9724190791
 31
0.0
  0
LINE
  5
B7
330
1F
100
AcDbEntity
  8
0
  6
Continuous
 62
     7
370
    25
100
AcDbLine
 10
200.5714938604
 20
94.8694367667
 30
0.0
 11
200.8183688484
 21
95.393762063
 31
0.0
  0
LINE
  5
B8
330
1F
100
AcDbEntity
  8
0
  6
Continuous
 62
     7
370
    25
100
AcDbLine
 10
200.8183688484
 20
95.393762063
 30
0.0
 11
201.959645059
 21
96.684146743
 31
0.0
  0
LINE
  5
B9
330
1F
100
AcDbEntity
  8
0
  6
Continuous
 62
     7
370
    25
100
AcDbLine
 10
201.959645059
 20
96.684146743
 30
0.0
 11
202.1505140327
 21
97.0952083131
 31
0.0
  0
SPLINE
  5
BA
330
1F
100
AcDbEntity
  8
0
  6
Continuous
 62
     7
370
    25
100
AcDbSpline
210
0.0
220
0.0
230
1.0
 70
     8
 71
     3
 72
     9
 73
     5
 74
     0
 42
0.000000001
 43
0.00000001
 40
0.0
 40
0.0
 40
0.0
 40
0.0
 40
0.5000512130242669
 40
1.0
 40
1.0
 40
1.0
 40
1.0
 10
202.1505140327229
 20
97.09520831305746
 30
0.0
 10
202.1837291265168
 20
97.74120436637733
 30
0.0
 10
202.2501525106199
 20
99.0330641529239
 30
0.0
 10
202.1837245907054
 20
100.3249241563666
 30
0.0
 10
202.1505140327229
 20
100.9707879980302
 30
0.0
  0
LINE
  5
BB
330
1F
100
AcDbEntity
  8
0
  6
Continuous
 62
     7
370
    25
100
AcDbLine
 10
201.959645059
 20
101.0758057942
 30
0.0
 11
202.1505140327
 21
100.970787998
 31
0.0
  0
LINE
  5
BC
330
1F
100
AcDbEntity
  8
0
  6
Continuous
 62
     7
370
    25
100
AcDbLine
 10
200.8183688484
 20
100.3769124632
 30
0.0
 11
201.959645059
 21
101.0758057942
 31
0.0
  0
LINE
  5
BD
330
1F
100
AcDbEntity
  8
0
  6
Continuous
 62
     7
370
    25
100
AcDbLine
 10
200.5714938604
 20
100.5108673831
 30
0.0
 11
200.8183688484
 21
100.3769124632
 31
0.0
  0
LINE
  5
BE
330
1F
100
AcDbEntity
  8
0
  6
Continuous
 62
     7
370
    25
100
AcDbLine
 10
200.5714938604
 20
119.4621558075
 30
0.0
 11
200.8183688484
 21
119.6083091905
 31
0.0
  0
LINE
  5
BF
330
1F
100
AcDbEntity
  8
0
  6
Continuous
 62
     7
370
    25
100
AcDbLine
 10
200.8183688484
 20
119.6083091905
 30
0.0
 11
201.959645059
 21
118.9528397058
 31
0.0
  0
LINE
  5
C0
330
1F
100
AcDbEntity
  8
0
  6
Continuous
 62
     7
370
    25
100
AcDbLine
 10
201.959645059
 20
118.9528397058
 30
0.0
 11
202.1505140327
 21
119.0674212535
 31
0.0
  0
SPLINE
  5
C1
330
1F
100
AcDbEntity
  8
0
  6
Continuous
 62
     7
370
    25
100
AcDbSpline
210
0.0
220
0.0
230
1.0
 70
     8
 71
     3
 72
     9
 73
     5
 74
     0
 42
0.000000001
 43
0.00000001
 40
0.0
 40
0.0
 40
0.0
 40
0.0
 40
0.5000513205442263
 40
1.0
 40
1.0
 40
1.0
 40
1.0
 10
202.1505140327229
 20
119.0674212535119
 30
0.0
 10
202.1837291312792
 20
119.7221813868055
 30
0.0
 10
202.2501525106238
 20
121.0315672566018
 30
0.0
 10
202.183724585945
 20
122.3409530540848
 30
0.0
 10
202.1505140327229
 20
122.9955787544346
 30
0.0
  0
LINE
  5
C2
330
1F
100
AcDbEntity
  8
0
  6
Continuous
 62
     7
370
    25
100
AcDbLine
 10
201.959645059
 20
123.4040763934
 30
0.0
 11
202.1505140327
 21
122.9955787544
 31
0.0
  0
LINE
  5
C3
330
1F
100
AcDbEntity
  8
0
  6
Continuous
 62
     7
370
    25
100
AcDbLine
 10
200.8183688484
 20
124.6590624337
 30
0.0
 11
201.959645059
 21
123.4040763934
 31
0.0
  0
LINE
  5
C4
330
1F
100
AcDbEntity
  8
0
  6
Continuous
 62
     7
370
    25
100
AcDbLine
 10
200.5714938604
 20
125.1801187878
 30
0.0
 11
200.8183688484
 21
124.6590624337
 31
0.0
  0
LINE
  5
C5
330
1F
100
AcDbEntity
  8
0
  6
Continuous
 62
     7
370
    25
100
AcDbLine
 10
200.5714938604
 20
134.8472871592
 30
0.0
 11
200.8183688484
 21
134.4691161772
 31
0.0
  0
LINE
  5
C6
330
1F
100
AcDbEntity
  8
0
  6
Continuous
 62
     7
370
    25
100
AcDbLine
 10
200.8183688484
 20
134.4691161772
 30
0.0
 11
201.959645059
 21
132.5232610812
 31
0.0
  0
LINE
  5
C7
330
1F
100
AcDbEntity
  8
0
  6
Continuous
 62
     7
370
    25
100
AcDbLine
 10
201.959645059
 20
132.5232610812
 30
0.0
 11
202.1505140327
 21
132.2267819901
 31
0.0
  0
LINE
  5
C8
330
1F
100
AcDbEntity
  8
0
  6
Continuous
 62
     7
370
    25
100
AcDbLine
 10
202.168496009
 20
132.2560720851
 30
0.0
 11
202.1505140327
 21
132.2267819901
 31
0.0
  0
LINE
  5
C9
330
1F
100
AcDbEntity
  8
0
  6
Continuous
 62
     7
370
    25
100
AcDbLine
 10
201.959645059
 20
132.5828396489
 30
0.0
 11
202.1505140327
 21
132.2793607374
 31
0.0
  0
LINE
  5
CA
330
1F
100
AcDbEntity
  8
0
  6
Continuous
 62
     7
370
    25
100
AcDbLine
 10
200.8183688484
 20
134.5367190202
 30
0.0
 11
201.959645059
 21
132.5828396489
 31
0.0
  0
LINE
  5
CB
330
1F
100
AcDbEntity
  8
0
  6
Continuous
 62
     7
370
    25
100
AcDbLine
 10
200.5714938604
 20
134.9238213857
 30
0.0
 11
200.8183688484
 21
134.5367190202
 31
0.0
  0
LINE
  5
CC
330
1F
100
AcDbEntity
  8
0
  6
Continuous
 62
     7
370
    25
100
AcDbLine
 10
203.9489910566
 20
110.0328622247
 30
0.0
 11
203.9489910566
 21
129.2545684387
 31
0.0
  0
LINE
  5
CD
330
1F
100
AcDbEntity
  8
0
  6
Continuous
 62
     7
370
    25
100
AcDbLine
 10
203.9489910566
 20
91.2545696606
 30
0.0
 11
203.9489910566
 21
110.0328622247
 31
0.0
  0
LWPOLYLINE
  5
CE
330
1F
100
AcDbEntity
  8
0
  6
Continuous
 62
     7
370
    25
100
AcDbPolyline
 90
       15
 70
   128
 43
0.0
 10
188.8457291387
 20
119.6083091905
 10
188.2011421584
 20
119.671626087
 10
187.5888832473
 20
119.8584000354
 10
187.0396413468
 20
120.1592675184
 10
186.5809687041
 20
120.5591392477
 10
186.2358578109
 20
121.0379666423
 10
186.0216200911
 20
121.5717374121
 10
185.9489918314
 20
122.1336862778
 10
186.0216200911
 20
122.6956351434
 10
186.2358578109
 20
123.2294059132
 10
186.5809687041
 20
123.7082323765
 10
187.0396413468
 20
124.1081050371
 10
187.5888832473
 20
124.4089715888
 10
188.2011421584
 20
124.5957464685
 10
188.8457291387
 20
124.6590624337
  0
LINE
  5
CF
330
1F
100
AcDbEntity
  8
0
  6
Continuous
 62
     7
370
    25
100
AcDbLine
 10
188.8457291387
 20
119.6083091905
 30
0.0
 11
200.8183688484
 21
119.6083091905
 31
0.0
  0
LWPOLYLINE
  5
D0
330
1F
100
AcDbEntity
  8
0
  6
Continuous
 62
     7
370
    25
100
AcDbPolyline
 90
       15
 70
   128
 43
0.0
 10
188.8457291387
 20
95.393762063
 10
188.2011421584
 20
95.4562305247
 10
187.5888832473
 20
95.6405057346
 10
187.0396413468
 20
95.9373452475
 10
186.5809687041
 20
96.3318655973
 10
186.2358578109
 20
96.8042836298
 10
186.0216200911
 20
97.3309092929
 10
185.9489918314
 20
97.8853367974
 10
186.0216200911
 20
98.4397652333
 10
186.2358578109
 20
98.9663908963
 10
186.5809687041
 20
99.4388089289
 10
187.0396413468
 20
99.8333292787
 10
187.5888832473
 20
100.1301687916
 10
188.2011421584
 20
100.3144430702
 10
188.8457291387
 20
100.3769124632
  0
LINE
  5
D1
330
1F
100
AcDbEntity
  8
0
  6
Continuous
 62
     7
370
    25
100
AcDbLine
 10
188.8457291387
 20
100.3769124632
 30
0.0
 11
200.8183688484
 21
100.3769124632
 31
0.0
  0
ARC
  5
D2
330
1F
100
AcDbEntity
  8
0
  6
Continuous
 62
     7
370
    25
100
AcDbCircle
 10
188.6937081593
 20
121.0239103158
 30
0.0
 40
2.385015919308954
100
AcDbArc
 50
86.3454880169
 51
182.7225694041
  0
ARC
  5
D3
330
1F
100
AcDbEntity
  8
0
  6
Continuous
 62
     7
370
    25
100
AcDbCircle
 10
188.6294391794
 20
99.0014310485
 30
0.0
 40
2.327356418510172
100
AcDbArc
 50
178.0769036197
 51
275.3324062276
  0
ARC
  5
D4
330
1F
100
AcDbEntity
  8
0
  6
Continuous
 62
     7
370
    25
100
AcDbCircle
 10
188.6368189041
 20
120.9904688034
 30
0.0
 40
2.015963640994827
100
AcDbArc
 50
84.0518757717
 51
195.8625115839
  0
LINE
  5
D5
330
1F
100
AcDbEntity
  8
0
  6
Continuous
 62
     7
370
    25
100
AcDbLine
 10
201.7601371371
 20
119.0674212535
 30
0.0
 11
202.1505140327
 21
119.0674212535
 31
0.0
  0
ARC
  5
D6
330
1F
100
AcDbEntity
  8
0
  6
Continuous
 62
     7
370
    25
100
AcDbCircle
 10
188.6234803742
 20
99.0877138504
 30
0.0
 40
2.004862296930662
100
AcDbArc
 50
167.3189732225
 51
276.364597851
  0
LINE
  5
D7
330
1F
100
AcDbEntity
  8
0
  6
Continuous
 62
     7
370
    25
100
AcDbLine
 10
201.7881513201
 20
100.970787998
 30
0.0
 11
202.1505140327
 21
100.970787998
 31
0.0
  0
LINE
  5
D8
330
1F
100
AcDbEntity
  8
0
  6
Continuous
 62
     7
370
    25
100
AcDbLine
 10
188.8457291387
 20
122.9955787544
 30
0.0
 11
202.1505140327
 21
122.9955787544
 31
0.0
  0
LINE
  5
D9
330
1F
100
AcDbEntity
  8
0
  6
Continuous
 62
     7
370
    25
100
AcDbLine
 10
188.8457291387
 20
97.0952083131
 30
0.0
 11
202.1505140327
 21
97.0952083131
 31
0.0
  0
LINE
  5
DA
330
1F
100
AcDbEntity
  8
0
  6
Continuous
 62
     7
370
    25
100
AcDbLine
 10
188.8457291387
 20
124.6590624337
 30
0.0
 11
200.8183688484
 21
124.6590624337
 31
0.0
  0
LINE
  5
DB
330
1F
100
AcDbEntity
  8
0
  6
Continuous
 62
     7
370
    25
100
AcDbLine
 10
188.8457291387
 20
123.4040763934
 30
0.0
 11
201.959645059
 21
123.4040763934
 31
0.0
  0
LINE
  5
DC
330
1F
100
AcDbEntity
  8
0
  6
Continuous
 62
     7
370
    25
100
AcDbLine
 10
188.8457291387
 20
95.393762063
 30
0.0
 11
200.8183688484
 21
95.393762063
 31
0.0
  0
LINE
  5
DD
330
1F
100
AcDbEntity
  8
0
  6
Continuous
 62
     7
370
    25
100
AcDbLine
 10
188.8457291387
 20
96.684146743
 30
0.0
 11
201.959645059
 21
96.684146743
 31
0.0
  0
LINE
  5
DE
330
1F
100
AcDbEntity
  8
0
  6
Continuous
 62
     7
370
    25
100
AcDbLine
 10
202.1166660451
 20
132.2793607374
 30
0.0
 11
202.1505140327
 21
132.2793607374
 31
0.0
  0
LINE
  5
DF
330
1F
100
AcDbEntity
  8
0
  6
Continuous
 62
     7
370
    25
100
AcDbLine
 10
201.924701836
 20
132.5828396489
 30
0.0
 11
201.959645059
 21
132.5828396489
 31
0.0
  0
LINE
  5
E0
330
1F
100
AcDbEntity
  8
0
  6
Continuous
 62
     7
370
    25
100
AcDbLine
 10
200.7742353343
 20
134.5367190202
 30
0.0
 11
200.8183688484
 21
134.5367190202
 31
0.0
  0
LINE
  5
E1
330
1F
100
AcDbEntity
  8
0
  6
Continuous
 62
     7
370
    25
100
AcDbLine
 10
150.5147946626
 20
85.1968434413
 30
0.0
 11
150.5147946626
 21
141.7295691331
 31
0.0
  0
SPLINE
  5
E2
330
1F
100
AcDbEntity
  8
0
  6
Continuous
 62
     7
370
    25
100
AcDbSpline
210
0.0
220
0.0
230
1.0
 70
     8
 71
     3
 72
    27
 73
    23
 74
     0
 42
0.000000001
 43
0.00000001
 40
0.0
 40
0.0
 40
0.0
 40
0.0
 40
0.1250000000000002
 40
0.1250000000000002
 40
0.2500000000000003
 40
0.2500000000000003
 40
0.3750000000000005
 40
0.3750000000000005
 40
0.4375000000000003
 40
0.4375000000000003
 40
0.5000000000000002
 40
0.5625000000000001
 40
0.5625000000000001
 40
0.6249999999999999
 40
0.6249999999999999
 40
0.7499999999999997
 40
0.7499999999999997
 40
0.8124999999999998
 40
0.8124999999999998
 40
0.8749999999999998
 40
0.8749999999999998
 40
1.0
 40
1.0
 40
1.0
 40
1.0
 10
150.5147945930973
 20
81.23057013511776
 30
0.0
 10
150.24483769913
 20
81.33044922298006
 30
0.0
 10
150.0011806749128
 20
81.44175448313909
 30
0.0
 10
149.5685955427076
 20
81.69124028881515
 30
0.0
 10
149.3800009755114
 20
81.83018280688236
 30
0.0
 10
149.0775611991506
 20
82.12687584205625
 30
0.0
 10
148.9609779518598
 20
82.28589445142053
 30
0.0
 10
148.8417192794349
 20
82.5429249753148
 30
0.0
 10
148.8115026124033
 20
82.6316777837199
 30
0.0
 10
148.7716060156907
 20
82.8109535406105
 30
0.0
 10
148.7516445722426
 20
82.99312214385304
 30
0.0
 10
148.7710798738306
 20
83.18108486494141
 30
0.0
 10
148.8105327515138
 20
83.37195344190594
 30
0.0
 10
148.8405614349371
 20
83.46940262235148
 30
0.0
 10
148.9590364230693
 20
83.75973946914871
 30
0.0
 10
149.0753772381781
 20
83.95182567682464
 30
0.0
 10
149.3034136496756
 20
84.23662962640603
 30
0.0
 10
149.3889475691062
 20
84.33150061496937
 30
0.0
 10
149.5752611192417
 20
84.51686168282498
 30
0.0
 10
149.6758898078141
 20
84.60733993475738
 30
0.0
 10
149.99915129215
 20
84.8720203902693
 30
0.0
 10
150.2434319778729
 20
85.03980397972369
 30
0.0
 10
150.5147945930973
 20
85.19684372803165
 30
0.0
  0
LINE
  5
E3
330
1F
100
AcDbEntity
  8
0
  6
Continuous
 62
     7
370
    25
100
AcDbLine
 10
150.5147946626
 20
78.7795689662
 30
0.0
 11
150.5147946626
 21
81.2305697014
 31
0.0
  0
SPLINE
  5
E4
330
1F
100
AcDbEntity
  8
0
  6
Continuous
 62
     7
370
    25
100
AcDbSpline
210
0.0
220
0.0
230
1.0
 70
     8
 71
     3
 72
    25
 73
    21
 74
     0
 42
0.000000001
 43
0.00000001
 40
0.0
 40
0.0
 40
0.0
 40
0.0
 40
0.1249999999999998
 40
0.1249999999999998
 40
0.2499999999999997
 40
0.2499999999999997
 40
0.3749999999999995
 40
0.3749999999999995
 40
0.4999999999999993
 40
0.4999999999999993
 40
0.5624999999999996
 40
0.5624999999999996
 40
0.6249999999999998
 40
0.6875000000000001
 40
0.6875000000000001
 40
0.7500000000000003
 40
0.7500000000000003
 40
0.8750000000000001
 40
0.8750000000000001
 40
1.0
 40
1.0
 40
1.0
 40
1.0
 10
157.1831902022375
 20
138.9023064167243
 30
0.0
 10
157.4244377077929
 20
138.8300018066551
 30
0.0
 10
157.6403667420373
 20
138.7461085206995
 30
0.0
 10
158.0235246538799
 20
138.5534397976854
 30
0.0
 10
158.1909764393651
 20
138.4435529096695
 30
0.0
 10
158.458661095769
 20
138.2070416254971
 30
0.0
 10
158.5623330634898
 20
138.0780784962065
 30
0.0
 10
158.701464434744
 20
137.8041514162592
 30
0.0
 10
158.7362036747347
 20
137.6620382651257
 30
0.0
 10
158.7366341079539
 20
137.4407846391242
 30
0.0
 10
158.7278993243644
 20
137.3652060587693
 30
0.0
 10
158.6931059211898
 20
137.2149063138932
 30
0.0
 10
158.6412130594607
 20
137.0649410108858
 30
0.0
 10
158.555834847167
 20
136.9158397786659
 30
0.0
 10
158.4533590941025
 20
136.7673526529051
 30
0.0
 10
158.3932977224513
 20
136.6932640954682
 30
0.0
 10
158.1919879000002
 20
136.4781017939899
 30
0.0
 10
158.0287643799204
 20
136.3420450801198
 30
0.0
 10
157.643386179669
 20
136.0871870469676
 30
0.0
 10
157.4244366938432
 20
135.9708917665092
 30
0.0
 10
157.1831902022375
 20
135.8694552498334
 30
0.0
  0
LINE
  5
E5
330
1F
100
AcDbEntity
  8
0
  6
Continuous
 62
     7
370
    25
100
AcDbLine
 10
157.1831904911
 20
138.9023066272
 30
0.0
 11
157.1831904911
 21
141.7295691331
 31
0.0
  0
LINE
  5
E6
330
1F
100
AcDbEntity
  8
0
  6
Continuous
 62
     7
370
    25
100
AcDbLine
 10
157.1831904911
 20
78.7795689662
 30
0.0
 11
157.1831904911
 21
80.7178226073
 31
0.0
  0
SPLINE
  5
E7
330
1F
100
AcDbEntity
  8
0
  6
Continuous
 62
     7
370
    25
100
AcDbSpline
210
0.0
220
0.0
230
1.0
 70
     8
 71
     3
 72
    34
 73
    30
 74
     0
 42
0.000000001
 43
0.00000001
 40
0.0
 40
0.0
 40
0.0
 40
0.0
 40
0.1249999999999991
 40
0.1249999999999991
 40
0.2499999999999983
 40
0.2499999999999983
 40
0.3124999999999984
 40
0.3124999999999984
 40
0.3749999999999986
 40
0.3749999999999986
 40
0.4374999999999988
 40
0.4374999999999988
 40
0.499999999999999
 40
0.499999999999999
 40
0.5624999999999992
 40
0.5624999999999992
 40
0.6249999999999994
 40
0.6249999999999994
 40
0.6874999999999997
 40
0.6874999999999997
 40
0.7499999999999999
 40
0.7499999999999999
 40
0.8125000000000002
 40
0.8125000000000002
 40
0.8750000000000001
 40
0.8750000000000001
 40
0.9375
 40
0.9375
 40
1.0
 40
1.0
 40
1.0
 40
1.0
 10
157.1831902022375
 20
86.06854511937395
 30
0.0
 10
157.7476643205417
 20
85.94241197174752
 30
0.0
 10
158.2785351544241
 20
85.77064479916808
 30
0.0
 10
159.2644164631803
 20
85.33987346767218
 30
0.0
 10
159.6962480147895
 20
85.09129456292315
 30
0.0
 10
160.2480615301005
 20
84.67477781408257
 30
0.0
 10
160.4160341308474
 20
84.52773836144905
 30
0.0
 10
160.7046930595657
 20
84.23060080454603
 30
0.0
 10
160.8272848605241
 20
84.07926452911084
 30
0.0
 10
161.0275892590556
 20
83.77196205414891
 30
0.0
 10
161.1057439117643
 20
83.61430936922564
 30
0.0
 10
161.2095018172651
 20
83.30436309769753
 30
0.0
 10
161.2357025951993
 20
83.1522731058756
 30
0.0
 10
161.2372472312427
 20
82.85406313843795
 30
0.0
 10
161.2119979077363
 20
82.70658187867527
 30
0.0
 10
161.1104179605742
 20
82.42497213064091
 30
0.0
 10
161.0349228005583
 20
82.29136008492269
 30
0.0
 10
160.8366053900306
 20
82.03717950647639
 30
0.0
 10
160.7123599173006
 20
81.9156532058791
 30
0.0
 10
160.4232785858301
 20
81.69067209526622
 30
0.0
 10
160.2589612002415
 20
81.58703004025338
 30
0.0
 10
159.8927862509639
 20
81.39512578968352
 30
0.0
 10
159.6891120342494
 20
81.30628725592521
 30
0.0
 10
159.2544244640424
 20
81.146426603909
 30
0.0
 10
159.0235591730178
 20
81.07515422236251
 30
0.0
 10
158.5360018612653
 20
80.94760432795725
 30
0.0
 10
158.2778133398258
 20
80.89107853260785
 30
0.0
 10
157.7423111542996
 20
80.79319631387203
 30
0.0
 10
157.4666241500691
 20
80.75201494724242
 30
0.0
 10
157.1831902022375
 20
80.71782171670054
 30
0.0
  0
LINE
  5
E8
330
1F
100
AcDbEntity
  8
0
  6
Continuous
 62
     7
370
    25
100
AcDbLine
 10
157.1831904911
 20
86.0685446074
 30
0.0
 11
157.1831904911
 21
135.869454663
 31
0.0
  0
LINE
  5
E9
330
1F
100
AcDbEntity
  8
0
  6
Continuous
 62
     7
370
    25
100
AcDbLine
 10
161.9489916228
 20
110.2545690497
 30
0.0
 11
161.9489916228
 21
141.7295691331
 31
0.0
  0
LINE
  5
EA
330
1F
100
AcDbEntity
  8
0
  6
Continuous
 62
     7
370
    25
100
AcDbLine
 10
161.9489916228
 20
78.7795689662
 30
0.0
 11
161.9489916228
 21
110.2545690497
 31
0.0
  0
LINE
  5
EB
330
1F
100
AcDbEntity
  8
0
  6
Continuous
 62
     7
370
    25
100
AcDbLine
 10
151.9739922695
 20
136.3492720534
 30
0.0
 11
151.9739922695
 21
139.2021645566
 31
0.0
  0
SPLINE
  5
EC
330
1F
100
AcDbEntity
  8
0
  6
Continuous
 62
     7
370
    25
100
AcDbSpline
210
0.0
220
0.0
230
1.0
 70
     8
 71
     3
 72
    26
 73
    22
 74
     0
 42
0.000000001
 43
0.00000001
 40
0.0
 40
0.0
 40
0.0
 40
0.0
 40
0.1250000000000009
 40
0.1250000000000009
 40
0.2500000000000019
 40
0.2500000000000019
 40
0.3125000000000011
 40
0.3125000000000011
 40
0.3750000000000004
 40
0.3750000000000004
 40
0.4375000000000002
 40
0.4375000000000002
 40
0.5000000000000001
 40
0.5000000000000001
 40
0.5625
 40
0.5625
 40
0.6249999999999999
 40
0.6249999999999999
 40
0.7500000000000001
 40
0.7500000000000001
 40
1.0
 40
1.0
 40
1.0
 40
1.0
 10
151.9739923976674
 20
134.1542145596995
 30
0.0
 10
151.8820874869846
 20
134.3641381663938
 30
0.0
 10
151.7943907107596
 20
134.5729035832732
 30
0.0
 10
151.6301844399923
 20
134.9872382119665
 30
0.0
 10
151.5529140217256
 20
135.194982597603
 30
0.0
 10
151.4531479154005
 20
135.4921812174198
 30
0.0
 10
151.4225349864982
 20
135.5889305693583
 30
0.0
 10
151.3676661125951
 20
135.7768300694682
 30
0.0
 10
151.3432808916663
 20
135.8686322171982
 30
0.0
 10
151.3036015151678
 20
136.0399746454638
 30
0.0
 10
151.2881354359305
 20
136.1199671799965
 30
0.0
 10
151.2670391008481
 20
136.2671615892083
 30
0.0
 10
151.261526034688
 20
136.3345434567813
 30
0.0
 10
151.2614590770657
 20
136.4497124071814
 30
0.0
 10
151.2667273844152
 20
136.4983782498905
 30
0.0
 10
151.2875699115832
 20
136.5783814433414
 30
0.0
 10
151.3032440247934
 20
136.6094456867094
 30
0.0
 10
151.362562954971
 20
136.6756003518126
 30
0.0
 10
151.419582790485
 20
136.6852022190511
 30
0.0
 10
151.6184176791289
 20
136.6401869489441
 30
0.0
 10
151.789687884361
 20
136.5162608736945
 30
0.0
 10
151.9739923976674
 20
136.3492729302219
 30
0.0
  0
LINE
  5
ED
330
1F
100
AcDbEntity
  8
0
  6
Continuous
 62
     7
370
    25
100
AcDbLine
 10
151.9739922695
 20
86.8010130485
 30
0.0
 11
151.9739922695
 21
134.1542136629
 31
0.0
  0
SPLINE
  5
EE
330
1F
100
AcDbEntity
  8
0
  6
Continuous
 62
     7
370
    25
100
AcDbSpline
210
0.0
220
0.0
230
1.0
 70
     8
 71
     3
 72
     8
 73
     4
 74
     0
 42
0.000000001
 43
0.00000001
 40
0.0
 40
0.0
 40
0.0
 40
0.0
 40
1.0
 40
1.0
 40
1.0
 40
1.0
 10
151.6064687315193
 20
85.99803608715052
 30
0.0
 10
151.7242032363488
 20
86.26567976676644
 30
0.0
 10
151.8476693493072
 20
86.53464506909876
 30
0.0
 10
151.9739923976674
 20
86.80101219360911
 30
0.0
  0
SPLINE
  5
EF
330
1F
100
AcDbEntity
  8
0
  6
Continuous
 62
     7
370
    25
100
AcDbSpline
210
0.0
220
0.0
230
1.0
 70
     8
 71
     3
 72
     8
 73
     4
 74
     0
 42
0.000000001
 43
0.00000001
 40
0.0
 40
0.0
 40
0.0
 40
0.0
 40
1.0
 40
1.0
 40
1.0
 40
1.0
 10
150.5147945930973
 20
85.19684372803165
 30
0.0
 10
150.8846819738269
 20
85.47123554696365
 30
0.0
 10
151.2500154665883
 20
85.74166185506013
 30
0.0
 10
151.6064687315193
 20
85.99803608715052
 30
0.0
  0
LINE
  5
F0
330
1F
100
AcDbEntity
  8
0
  6
Continuous
 62
     7
370
    25
100
AcDbLine
 10
143.9489923977
 20
110.2545690497
 30
0.0
 11
143.9489923977
 21
141.5295694729
 31
0.0
  0
LINE
  5
F1
330
1F
100
AcDbEntity
  8
0
  6
Continuous
 62
     7
370
    25
100
AcDbLine
 10
143.9489923977
 20
78.9795686265
 30
0.0
 11
143.9489923977
 21
110.2545690497
 31
0.0
  0
LINE
  5
F2
330
1F
100
AcDbEntity
  8
0
  6
Continuous
 62
     7
370
    25
100
AcDbLine
 10
155.7239924185
 20
87.53483377
 30
0.0
 11
155.7239924185
 21
133.288763534
 31
0.0
  0
SPLINE
  5
F3
330
1F
100
AcDbEntity
  8
0
  6
Continuous
 62
     7
370
    25
100
AcDbSpline
210
0.0
220
0.0
230
1.0
 70
     8
 71
     3
 72
    10
 73
     6
 74
     0
 42
0.000000001
 43
0.00000001
 40
0.0
 40
0.0
 40
0.0
 40
0.0
 40
0.5
 40
0.5
 40
1.0
 40
1.0
 40
1.0
 40
1.0
 10
157.1831902022373
 20
135.8694552498332
 30
0.0
 10
156.9484592582682
 20
135.4170158621311
 30
0.0
 10
156.7090759505515
 20
134.9774886887717
 30
0.0
 10
156.2224545992407
 20
134.11839659323
 30
0.0
 10
155.9751852875389
 20
133.6989395400068
 30
0.0
 10
155.7239923976674
 20
133.2887634834694
 30
0.0
  0
SPLINE
  5
F4
330
1F
100
AcDbEntity
  8
0
  6
Continuous
 62
     7
370
    25
100
AcDbSpline
210
0.0
220
0.0
230
1.0
 70
     8
 71
     3
 72
     8
 73
     4
 74
     0
 42
0.000000001
 43
0.00000001
 40
0.0
 40
0.0
 40
0.0
 40
0.0
 40
1.0
 40
1.0
 40
1.0
 40
1.0
 10
156.1897035227199
 20
86.76185496782655
 30
0.0
 10
156.5159623589322
 20
86.53803123849683
 30
0.0
 10
156.8478007679751
 20
86.30546539119347
 30
0.0
 10
157.1831902022375
 20
86.06854511937395
 30
0.0
  0
SPLINE
  5
F5
330
1F
100
AcDbEntity
  8
0
  6
Continuous
 62
     7
370
    25
100
AcDbSpline
210
0.0
220
0.0
230
1.0
 70
     8
 71
     3
 72
     8
 73
     4
 74
     0
 42
0.000000001
 43
0.00000001
 40
0.0
 40
0.0
 40
0.0
 40
0.0
 40
1.0
 40
1.0
 40
1.0
 40
1.0
 10
155.7239923976674
 20
87.53483414650093
 30
0.0
 10
155.8804747611685
 20
87.28061388882541
 30
0.0
 10
156.035701049646
 20
87.02298010247802
 30
0.0
 10
156.1897035227199
 20
86.76185496782654
 30
0.0
  0
SPLINE
  5
F6
330
1F
100
AcDbEntity
  8
0
  6
Continuous
 62
     7
370
    25
100
AcDbSpline
210
0.0
220
0.0
230
1.0
 70
     8
 71
     3
 72
    14
 73
    10
 74
     0
 42
0.000000001
 43
0.00000001
 40
0.0
 40
0.0
 40
0.0
 40
0.0
 40
0.25
 40
0.25
 40
0.5
 40
0.5
 40
0.75
 40
0.75
 40
1.0
 40
1.0
 40
1.0
 40
1.0
 10
152.9739923976674
 20
132.6487619970741
 30
0.0
 10
152.8396416491263
 20
132.7005789771519
 30
0.0
 10
152.7164627463328
 20
132.7775262131852
 30
0.0
 10
152.4877123254435
 20
132.9700110465942
 30
0.0
 10
152.3857892334503
 20
133.0828380353742
 30
0.0
 10
152.2063641691051
 20
133.3356779799469
 30
0.0
 10
152.1299229202006
 20
133.4736937044286
 30
0.0
 10
152.0126349457389
 20
133.7719294111587
 30
0.0
 10
151.9739923976674
 20
133.9300173802091
 30
0.0
 10
151.9739923976674
 20
134.069449704934
 30
0.0
  0
SPLINE
  5
F7
330
1F
100
AcDbEntity
  8
0
  6
Continuous
 62
     7
370
    25
100
AcDbSpline
210
0.0
220
0.0
230
1.0
 70
     8
 71
     3
 72
    14
 73
    10
 74
     0
 42
0.000000001
 43
0.00000001
 40
0.0
 40
0.0
 40
0.0
 40
0.0
 40
0.25
 40
0.25
 40
0.5
 40
0.5
 40
0.75
 40
0.75
 40
1.0
 40
1.0
 40
1.0
 40
1.0
 10
151.9739923976674
 20
86.88598132036094
 30
0.0
 10
151.9739923976674
 20
87.01672114173194
 30
0.0
 10
152.0094134745997
 20
87.16541885544598
 30
0.0
 10
152.1219391457898
 20
87.44234867099252
 30
0.0
 10
152.1996193320642
 20
87.57565923808144
 30
0.0
 10
152.3796845637865
 20
87.81299923384333
 30
0.0
 10
152.4849646164418
 20
87.92068283383338
 30
0.0
 10
152.7139481508042
 20
88.09725477781393
 30
0.0
 10
152.8405613428032
 20
88.1685579302848
 30
0.0
 10
152.9739923976672
 20
88.21333022408174
 30
0.0
  0
SPLINE
  5
F8
330
1F
100
AcDbEntity
  8
0
  6
Continuous
 62
     7
370
    25
100
AcDbSpline
210
0.0
220
0.0
230
1.0
 70
     8
 71
     3
 72
    14
 73
    10
 74
     0
 42
0.000000001
 43
0.00000001
 40
0.0
 40
0.0
 40
0.0
 40
0.0
 40
0.25
 40
0.25
 40
0.5
 40
0.5
 40
0.75
 40
0.75
 40
1.0
 40
1.0
 40
1.0
 40
1.0
 10
155.7239923976675
 20
133.2035549187165
 30
0.0
 10
155.7239923976675
 20
133.0893828411637
 30
0.0
 10
155.6980629594016
 20
132.9722948364887
 30
0.0
 10
155.5986207021252
 20
132.7511398244707
 30
0.0
 10
155.5263383164044
 20
132.6485654839716
 30
0.0
 10
155.3416009796398
 20
132.4725320784837
 30
0.0
 10
155.2320543433178
 20
132.4021262715032
 30
0.0
 10
154.9886930983145
 20
132.3085604106641
 30
0.0
 10
154.8571819908688
 20
132.2866400906947
 30
0.0
 10
154.7239923976674
 20
132.2927026598319
 30
0.0
  0
SPLINE
  5
F9
330
1F
100
AcDbEntity
  8
0
  6
Continuous
 62
     7
370
    25
100
AcDbSpline
210
0.0
220
0.0
230
1.0
 70
     8
 71
     3
 72
    14
 73
    10
 74
     0
 42
0.000000001
 43
0.00000001
 40
0.0
 40
0.0
 40
0.0
 40
0.0
 40
0.25
 40
0.25
 40
0.5
 40
0.5
 40
0.75
 40
0.75
 40
1.0
 40
1.0
 40
1.0
 40
1.0
 10
154.7239923976674
 20
88.52967717878661
 30
0.0
 10
154.8574207049005
 20
88.53517024195695
 30
0.0
 10
154.9891953766961
 20
88.5129182228921
 30
0.0
 10
155.2323912635575
 20
88.41947996318575
 30
0.0
 10
155.3433121252703
 20
88.34818449800504
 30
0.0
 10
155.5259584741362
 20
88.1746771010928
 30
0.0
 10
155.5992742134762
 20
88.07111873884655
 30
0.0
 10
155.6979123243116
 20
87.85188062607259
 30
0.0
 10
155.7239923976674
 20
87.73487515036423
 30
0.0
 10
155.7239923976674
 20
87.62025021579848
 30
0.0
  0
SPLINE
  5
FA
330
1F
100
AcDbEntity
  8
0
  6
Continuous
 62
     7
370
    25
100
AcDbSpline
210
0.0
220
0.0
230
1.0
 70
     8
 71
     3
 72
    10
 73
     6
 74
     0
 42
0.000000001
 43
0.00000001
 40
0.0
 40
0.0
 40
0.0
 40
0.0
 40
0.5
 40
0.5
 40
1.0
 40
1.0
 40
1.0
 40
1.0
 10
154.7239923976674
 20
132.2927026598323
 30
0.0
 10
154.4115284953793
 20
132.3069254978557
 30
0.0
 10
154.1086395133815
 20
132.3447447006473
 30
0.0
 10
153.5212963285774
 20
132.4646331266362
 30
0.0
 10
153.2368286680054
 20
132.5473901630373
 30
0.0
 10
152.9739923976674
 20
132.6487619970741
 30
0.0
  0
SPLINE
  5
FB
330
1F
100
AcDbEntity
  8
0
  6
Continuous
 62
     7
370
    25
100
AcDbSpline
210
0.0
220
0.0
230
1.0
 70
     8
 71
     3
 72
    10
 73
     6
 74
     0
 42
0.000000001
 43
0.00000001
 40
0.0
 40
0.0
 40
0.0
 40
0.0
 40
0.5
 40
0.5
 40
1.0
 40
1.0
 40
1.0
 40
1.0
 10
152.9739923976674
 20
88.21333022408105
 30
0.0
 10
153.2445111177827
 20
88.30410177367956
 30
0.0
 10
153.5260862824319
 20
88.37627879917171
 30
0.0
 10
154.1106798534512
 20
88.48276771122514
 30
0.0
 10
154.4160283878717
 20
88.51699871650916
 30
0.0
 10
154.7239923976674
 20
88.52967717878661
 30
0.0
  0
LINE
  5
FC
330
1F
100
AcDbEntity
  8
0
  6
Continuous
 62
     7
370
    25
100
AcDbLine
 10
142.7888103389
 20
110.2545690497
 30
0.0
 11
142.7888103389
 21
135.1963077446
 31
0.0
  0
LINE
  5
FD
330
1F
100
AcDbEntity
  8
0
  6
Continuous
 62
     7
370
    25
100
AcDbLine
 10
142.7888103389
 20
85.3128303548
 30
0.0
 11
142.7888103389
 21
110.2545690497
 31
0.0
  0
LINE
  5
FE
330
1F
100
AcDbEntity
  8
0
  6
Continuous
 62
     7
370
    25
100
AcDbLine
 10
105.4989934527
 20
99.3497735595
 30
0.0
 11
105.4989934527
 21
87.1854481061
 31
0.0
  0
SPLINE
  5
FF
330
1F
100
AcDbEntity
  8
0
  6
Continuous
 62
     7
370
    25
100
AcDbSpline
210
0.0
220
0.0
230
1.0
 70
     8
 71
     3
 72
     8
 73
     4
 74
     0
 42
0.000000001
 43
0.00000001
 40
0.0
 40
0.0
 40
0.0
 40
0.0
 40
1.0
 40
1.0
 40
1.0
 40
1.0
 10
109.7912404927783
 20
99.35367801579325
 30
0.0
 10
108.3604911277447
 20
99.35194014051329
 30
0.0
 10
106.929741762711
 20
99.35057806534756
 30
0.0
 10
105.4989923976774
 20
99.34959090922463
 30
0.0
  0
SPLINE
  5
100
330
1F
100
AcDbEntity
  8
0
  6
Continuous
 62
     7
370
    25
100
AcDbSpline
210
0.0
220
0.0
230
1.0
 70
     8
 71
     3
 72
    23
 73
    19
 74
     0
 42
0.000000001
 43
0.00000001
 40
0.0
 40
0.0
 40
0.0
 40
0.0
 40
0.0521036415683759
 40
0.1035646240941235
 40
0.1544751946756683
 40
0.2049306267495642
 40
0.2550287880866983
 40
0.3048696389163111
 40
0.354554670462894
 40
0.4041862979539558
 40
0.453867225213789
 40
0.5036997999428097
 40
0.590187023078111
 40
0.6742716378282376
 40
0.7565997087281883
 40
0.8378563983773627
 40
0.9187511781400207
 40
0.9999999999999999
 40
0.9999999999999999
 40
0.9999999999999999
 40
0.9999999999999999
 10
113.3849763121677
 20
101.2737476241662
 30
0.0
 10
113.3434847924516
 20
101.2154118378415
 30
0.0
 10
113.2610135195588
 20
101.0994597930306
 30
0.0
 10
113.1281547621254
 20
100.933661191003
 30
0.0
 10
112.9896231893534
 20
100.7752972289654
 30
0.0
 10
112.8447236457162
 20
100.6247875953599
 30
0.0
 10
112.6936399855433
 20
100.4819482868439
 30
0.0
 10
112.5363248073794
 20
100.3467550692813
 30
0.0
 10
112.3727916491723
 20
100.2191424263538
 30
0.0
 10
112.2030417121851
 20
100.0990553422179
 30
0.0
 10
112.0270676820476
 20
99.98644194876809
 30
0.0
 10
111.8005869841036
 20
99.85563198512394
 30
0.0
 10
111.5214064735861
 20
99.71650982945408
 30
0.0
 10
111.1863072774559
 20
99.58299083612502
 30
0.0
 10
110.8455427815484
 20
99.4795427399293
 30
0.0
 10
110.499144735796
 20
99.4066461158254
 30
0.0
 10
110.147254757282
 20
99.3614513220587
 30
0.0
 10
109.9100845354251
 20
99.35627288693584
 30
0.0
 10
109.7912404927783
 20
99.35367801579324
 30
0.0
  0
SPLINE
  5
101
330
1F
100
AcDbEntity
  8
0
  6
Continuous
 62
     7
370
    25
100
AcDbSpline
210
0.0
220
0.0
230
1.0
 70
     8
 71
     3
 72
     8
 73
     4
 74
     0
 42
0.000000001
 43
0.00000001
 40
0.0
 40
0.0
 40
0.0
 40
0.0
 40
1.0
 40
1.0
 40
1.0
 40
1.0
 10
117.7939481203228
 20
101.2781683389858
 30
0.0
 10
116.3237734595414
 20
101.2767077185507
 30
0.0
 10
114.85359879876
 20
101.2755466668918
 30
0.0
 10
113.3834241379786
 20
101.2746847369923
 30
0.0
  0
SPLINE
  5
102
330
1F
100
AcDbEntity
  8
0
  6
Continuous
 62
     7
370
    25
100
AcDbSpline
210
0.0
220
0.0
230
1.0
 70
     8
 71
     3
 72
    18
 73
    14
 74
     0
 42
0.000000001
 43
0.00000001
 40
0.0
 40
0.0
 40
0.0
 40
0.0
 40
0.0923824559461122
 40
0.1844689291660427
 40
0.2764953616062392
 40
0.3686975365619641
 40
0.4613092840130473
 40
0.5545607518559533
 40
0.6486768051632873
 40
0.7438756050210469
 40
0.8403674044324065
 40
0.9203921078135461
 40
1.0
 40
1.0
 40
1.0
 40
1.0
 10
119.9891769651765
 20
100.7445343252221
 30
0.0
 10
119.9188466616589
 20
100.7449509496525
 30
0.0
 10
119.7784113847987
 20
100.7457828636967
 30
0.0
 10
119.5680488583064
 20
100.7593917106288
 30
0.0
 10
119.3586051953175
 20
100.7820584679331
 30
0.0
 10
119.1500555251957
 20
100.8146592579861
 30
0.0
 10
118.9424119069686
 20
100.8569617356578
 30
0.0
 10
118.7356737230214
 20
100.9090331378907
 30
0.0
 10
118.5298516174725
 20
100.9708818971932
 30
0.0
 10
118.3249199902961
 20
101.0424799600826
 30
0.0
 10
118.1336303234385
 20
101.1189817751463
 30
0.0
 10
117.9562777258577
 20
101.1974182019364
 30
0.0
 10
117.8482973823304
 20
101.2511281556355
 30
0.0
 10
117.7944481824522
 20
101.2779130123761
 30
0.0
  0
LINE
  5
103
330
1F
100
AcDbEntity
  8
0
  6
Continuous
 62
     7
370
    25
100
AcDbLine
 10
121.9040506147
 20
100.7460300585
 30
0.0
 11
119.9891768955
 21
100.7445343544
 31
0.0
  0
SPLINE
  5
104
330
1F
100
AcDbEntity
  8
0
  6
Continuous
 62
     7
370
    25
100
AcDbSpline
210
0.0
220
0.0
230
1.0
 70
     8
 71
     3
 72
    25
 73
    21
 74
     0
 42
0.000000001
 43
0.00000001
 40
0.0
 40
0.0
 40
0.0
 40
0.0
 40
0.0280105225426455
 40
0.0559601148860774
 40
0.0839014045043129
 40
0.1118870776786379
 40
0.1399695827588941
 40
0.1682008401739877
 40
0.1966319670424218
 40
0.2253130233141493
 40
0.2542927850735863
 40
0.3799486436570518
 40
0.505785022166658
 40
0.6313085886329272
 40
0.7532068238012843
 40
0.8039473267959846
 40
0.8535894438560211
 40
0.902533972239985
 40
0.9511970353794947
 40
1.0
 40
1.0
 40
1.0
 40
1.0
 10
126.8439345508688
 20
105.8798935645973
 30
0.0
 10
126.8439717726026
 20
105.8052735375838
 30
0.0
 10
126.8440461351033
 20
105.6561958015966
 30
0.0
 10
126.8316300844568
 20
105.4335777106302
 30
0.0
 10
126.810025524103
 20
105.2122532926013
 30
0.0
 10
126.778340054443
 20
104.9922850267127
 30
0.0
 10
126.7368139161231
 20
104.7736947394836
 30
0.0
 10
126.6853831603932
 20
104.5565128010793
 30
0.0
 10
126.624069285682
 20
104.3407713811946
 30
0.0
 10
126.5528589501825
 20
104.1264814897446
 30
0.0
 10
126.382022342979
 20
103.6781317167247
 30
0.0
 10
126.0442901095421
 20
103.0248008886543
 30
0.0
 10
125.4327354453459
 20
102.252907678014
 30
0.0
 10
124.6965006101976
 20
101.6087480526259
 30
0.0
 10
124.0100145385476
 20
101.2171068845655
 30
0.0
 10
123.4613103923957
 20
100.9984119835989
 30
0.0
 10
123.0792742138893
 20
100.8825559347681
 30
0.0
 10
122.6921081151849
 20
100.8016480292382
 30
0.0
 10
122.2998814464
 20
100.7524195984401
 30
0.0
 10
122.0361201782864
 20
100.7481617434247
 30
0.0
 10
121.9040502444659
 20
100.7460297600818
 30
0.0
  0
LINE
  5
105
330
1F
100
AcDbEntity
  8
0
  6
Continuous
 62
     7
370
    25
100
AcDbLine
 10
126.8439345621
 20
114.6292445024
 30
0.0
 11
126.8439345621
 21
105.879893597
 31
0.0
  0
SPLINE
  5
106
330
1F
100
AcDbEntity
  8
0
  6
Continuous
 62
     7
370
    25
100
AcDbSpline
210
0.0
220
0.0
230
1.0
 70
     8
 71
     3
 72
    26
 73
    22
 74
     0
 42
0.000000001
 43
0.00000001
 40
0.0
 40
0.0
 40
0.0
 40
0.0
 40
0.0241259796963637
 40
0.048215991227299
 40
0.0723203915124064
 40
0.0964895678710793
 40
0.120773623196351
 40
0.1452220711242841
 40
0.1698835501657706
 40
0.1948055644472381
 40
0.2200342569517629
 40
0.2456142191611394
 40
0.3690971486901671
 40
0.4940698769485191
 40
0.6192566784762444
 40
0.7454656653603234
 40
0.7971495824713715
 40
0.8481710308405401
 40
0.8988013269235245
 40
0.9493179290492194
 40
1.0
 40
1.0
 40
1.0
 40
1.0
 10
121.9040502444659
 20
119.7631083392501
 30
0.0
 10
121.9692993030155
 20
119.7625345528712
 30
0.0
 10
122.0997001436946
 20
119.7613878355417
 30
0.0
 10
122.2946799619909
 20
119.7492704590489
 30
0.0
 10
122.4888090992545
 20
119.7295119375872
 30
0.0
 10
122.6820704393487
 20
119.7013497553664
 30
0.0
 10
122.874465617823
 20
119.6649586593181
 30
0.0
 10
123.065991196324
 20
119.6202575738406
 30
0.0
 10
123.2566467287094
 20
119.5672291024566
 30
0.0
 10
123.4464267278078
 20
119.50583808103
 30
0.0
 10
123.6353453484636
 20
119.4360358745502
 30
0.0
 10
124.0620897616343
 20
119.2585068043347
 30
0.0
 10
124.696562088815
 20
118.9039462014371
 30
0.0
 10
125.4362379411609
 20
118.2617743877469
 30
0.0
 10
126.0429851839963
 20
117.4886090839659
 30
0.0
 10
126.4037770002147
 20
116.781193675706
 30
0.0
 10
126.6059510559789
 20
116.2166862764805
 30
0.0
 10
126.7127745119642
 20
115.8277994149318
 30
0.0
 10
126.7883852282624
 20
115.4333166610636
 30
0.0
 10
126.8355479009537
 20
115.0335105708734
 30
0.0
 10
126.841135955242
 20
114.7641466914089
 30
0.0
 10
126.8439345508688
 20
114.6292445347345
 30
0.0
  0
LINE
  5
107
330
1F
100
AcDbEntity
  8
0
  6
Continuous
 62
     7
370
    25
100
AcDbLine
 10
119.9891768955
 20
119.7646037449
 30
0.0
 11
121.9040506147
 21
119.7631080409
 31
0.0
  0
SPLINE
  5
108
330
1F
100
AcDbEntity
  8
0
  6
Continuous
 62
     7
370
    25
100
AcDbSpline
210
0.0
220
0.0
230
1.0
 70
     8
 71
     3
 72
    14
 73
    10
 74
     0
 42
0.000000001
 43
0.00000001
 40
0.0
 40
0.0
 40
0.0
 40
0.0
 40
0.0789261963152472
 40
0.1582328720511064
 40
0.3308475394503796
 40
0.5000195457530386
 40
0.6670357883499396
 40
0.8332395193610692
 40
1.0
 40
1.0
 40
1.0
 40
1.0
 10
117.79296473911
 20
119.2305568194991
 30
0.0
 10
117.8463602621514
 20
119.2571630687741
 30
0.0
 10
117.9534087119686
 20
119.3105038280382
 30
0.0
 10
118.1824794265257
 20
119.4121333066783
 30
0.0
 10
118.4813521647177
 20
119.5262129390533
 30
0.0
 10
118.8534952395138
 20
119.6348193725098
 30
0.0
 10
119.2291250385453
 20
119.7111536579558
 30
0.0
 10
119.60831735058
 20
119.7579711153096
 30
0.0
 10
119.8620823201327
 20
119.7623904246666
 30
0.0
 10
119.9891769651765
 20
119.7646037741098
 30
0.0
  0
SPLINE
  5
109
330
1F
100
AcDbEntity
  8
0
  6
Continuous
 62
     7
370
    25
100
AcDbSpline
210
0.0
220
0.0
230
1.0
 70
     8
 71
     3
 72
     8
 73
     4
 74
     0
 42
0.000000001
 43
0.00000001
 40
0.0
 40
0.0
 40
0.0
 40
0.0
 40
1.0
 40
1.0
 40
1.0
 40
1.0
 10
112.4006710154597
 20
119.2346789764014
 30
0.0
 10
114.1980077008359
 20
119.2337048699775
 30
0.0
 10
115.9953443862122
 20
119.2322827342278
 30
0.0
 10
117.7926810715884
 20
119.2304117477591
 30
0.0
  0
SPLINE
  5
10A
330
1F
100
AcDbEntity
  8
0
  6
Continuous
 62
     7
370
    25
100
AcDbSpline
210
0.0
220
0.0
230
1.0
 70
     8
 71
     3
 72
    13
 73
     9
 74
     0
 42
0.000000001
 43
0.00000001
 40
0.0
 40
0.0
 40
0.0
 40
0.0
 40
0.1667030582307959
 40
0.3329480818053031
 40
0.4990671507274871
 40
0.6653938523718408
 40
0.8322612710550125
 40
1.0
 40
1.0
 40
1.0
 40
1.0
 10
111.3171668506143
 20
119.3721060259693
 30
0.0
 10
111.3782738933657
 20
119.3712718064378
 30
0.0
 10
111.5003200806688
 20
119.3696056594829
 30
0.0
 10
111.6826550259325
 20
119.3575767018301
 30
0.0
 10
111.8639592388062
 20
119.3385872372457
 30
0.0
 10
112.0441580988429
 20
119.3117680230264
 30
0.0
 10
112.2234620769812
 20
119.2779322157793
 30
0.0
 10
112.3414941025526
 20
119.2491067455004
 30
0.0
 10
112.4006637923043
 20
119.2346564797773
 30
0.0
  0
SPLINE
  5
10B
330
1F
100
AcDbEntity
  8
0
  6
Continuous
 62
     7
370
    25
100
AcDbSpline
210
0.0
220
0.0
230
1.0
 70
     8
 71
     3
 72
     8
 73
     4
 74
     0
 42
0.000000001
 43
0.00000001
 40
0.0
 40
0.0
 40
0.0
 40
0.0
 40
1.0
 40
1.0
 40
1.0
 40
1.0
 10
105.4989923976801
 20
119.3768957608194
 30
0.0
 10
107.4383838819915
 20
119.3758483083437
 30
0.0
 10
109.3777753663029
 20
119.3742521218189
 30
0.0
 10
111.3171668506144
 20
119.3721060259693
 30
0.0
  0
LINE
  5
10C
330
1F
100
AcDbEntity
  8
0
  6
Continuous
 62
     7
370
    25
100
AcDbLine
 10
105.4989934527
 20
119.3768960198
 30
0.0
 11
105.4989934527
 21
133.3236899932
 31
0.0
  0
SPLINE
  5
10D
330
1F
100
AcDbEntity
  8
0
  6
Continuous
 62
     7
370
    25
100
AcDbSpline
210
0.0
220
0.0
230
1.0
 70
     8
 71
     3
 72
    24
 73
    20
 74
     0
 42
0.000000001
 43
0.00000001
 40
0.0
 40
0.0
 40
0.0
 40
0.0
 40
0.0607845451296407
 40
0.1248046360965166
 40
0.1880736642923821
 40
0.2506536944642078
 40
0.3129374270624571
 40
0.3747588850641116
 40
0.4371053349657547
 40
0.4977639019418345
 40
0.5591913128303959
 40
0.6209011577381788
 40
0.6826271159280655
 40
0.7453344255371981
 40
0.8078840402472991
 40
0.8712333803613398
 40
0.9348869687710366
 40
0.9979954054018167
 40
1.0
 40
1.0
 40
1.0
 40
1.0
 10
129.4626320340051
 20
134.5253997256256
 30
0.0
 10
129.4369202204661
 20
134.514996635545
 30
0.0
 10
129.3841279601099
 20
134.4936367015518
 30
0.0
 10
128.9108972108562
 20
134.3112300280634
 30
0.0
 10
128.1920920691375
 20
134.0422839755347
 30
0.0
 10
127.2149113248565
 20
133.7141878204675
 30
0.0
 10
126.0309489637939
 20
133.3703173867218
 30
0.0
 10
124.6626466758949
 20
133.0526565944489
 30
0.0
 10
123.1749354100251
 20
132.7981481460492
 30
0.0
 10
121.6052758297101
 20
132.646933765071
 30
0.0
 10
120.0290333347315
 20
132.613392118446
 30
0.0
 10
118.5097191784022
 20
132.6989643141098
 30
0.0
 10
117.1088449631027
 20
132.8731721327803
 30
0.0
 10
115.8901651686937
 20
133.1027977974508
 30
0.0
 10
114.8845923397928
 20
133.3410152998433
 30
0.0
 10
114.1314110033537
 20
133.5526360594721
 30
0.0
 10
113.6844674423022
 20
133.6850558172038
 30
0.0
 10
113.5007906543579
 20
133.7427233034469
 30
0.0
 10
113.5523282016225
 20
133.7269755484127
 30
0.0
 10
113.5539148561968
 20
133.7264907320238
 30
0.0
  0
SPLINE
  5
10E
330
1F
100
AcDbEntity
  8
0
  6
Continuous
 62
     7
370
    25
100
AcDbSpline
210
0.0
220
0.0
230
1.0
 70
     8
 71
     3
 72
    24
 73
    20
 74
     0
 42
0.000000001
 43
0.00000001
 40
0.0
 40
0.0
 40
0.0
 40
0.0
 40
0.0018911184661179
 40
0.0649665885217893
 40
0.1287875560009952
 40
0.1921372900365662
 40
0.2545996475903032
 40
0.3167128323446347
 40
0.3787563804671794
 40
0.440851011115251
 40
0.501718739255822
 40
0.5623721854420992
 40
0.6248484186975057
 40
0.6868048398220544
 40
0.7491642775858319
 40
0.8116886268192671
 40
0.8748496752066125
 40
0.9387002417378669
 40
1.0
 40
1.0
 40
1.0
 40
1.0
 10
113.5539204441323
 20
86.78255237240556
 30
0.0
 10
113.552413762264
 20
86.78209455456633
 30
0.0
 10
113.5006539266301
 20
86.76636689725018
 30
0.0
 10
113.6842646412438
 20
86.82394311235535
 30
0.0
 10
114.1321383662765
 20
86.95619951537876
 30
0.0
 10
114.8851639137904
 20
87.16780792510131
 30
0.0
 10
115.885109414071
 20
87.40552493013696
 30
0.0
 10
117.1036686278707
 20
87.63356540381872
 30
0.0
 10
118.5071789350796
 20
87.80574995204738
 30
0.0
 10
120.0244268192922
 20
87.89387340933983
 30
0.0
 10
121.5986762276227
 20
87.86281201589108
 30
0.0
 10
123.1645097196455
 20
87.71179092436319
 30
0.0
 10
124.6543621370716
 20
87.45745483432368
 30
0.0
 10
126.0260498173994
 20
87.13971517521382
 30
0.0
 10
127.2119470108458
 20
86.79580890452179
 30
0.0
 10
128.1896407672866
 20
86.46793023941137
 30
0.0
 10
128.908794187067
 20
86.19914581931872
 30
0.0
 10
129.3827334476213
 20
86.01604375429031
 30
0.0
 10
129.4369924134813
 20
85.99405694912691
 30
0.0
 10
129.4635689445152
 20
85.98328761358026
 30
0.0
  0
LINE
  5
10F
330
1F
100
AcDbEntity
  8
0
  6
Continuous
 62
     7
370
    25
100
AcDbLine
 10
126.8439345621
 20
105.879893597
 30
0.0
 11
125.9489931725
 21
106.0420689878
 31
0.0
  0
LINE
  5
110
330
1F
100
AcDbEntity
  8
0
  6
Continuous
 62
     7
370
    25
100
AcDbLine
 10
125.9489931725
 20
106.0420689878
 30
0.0
 11
125.9489931725
 21
114.4670691115
 31
0.0
  0
LINE
  5
111
330
1F
100
AcDbEntity
  8
0
  6
Continuous
 62
     7
370
    25
100
AcDbLine
 10
126.8439345621
 20
114.6292445024
 30
0.0
 11
125.9489931725
 21
114.4670691115
 31
0.0
  0
SPLINE
  5
112
330
1F
100
AcDbEntity
  8
0
  6
Continuous
 62
     7
370
    25
100
AcDbSpline
210
0.0
220
0.0
230
1.0
 70
     8
 71
     3
 72
    25
 73
    21
 74
     0
 42
0.000000001
 43
0.00000001
 40
0.0
 40
0.0
 40
0.0
 40
0.0
 40
0.0288821753105771
 40
0.058363659400572
 40
0.088464720430548
 40
0.1192044006616737
 40
0.1506005800085666
 40
0.1826700399669859
 40
0.2154285269576224
 40
0.2488908143379852
 40
0.3610594471136693
 40
0.4984670131067402
 40
0.5822693905005265
 40
0.6661127642780991
 40
0.7499972937224167
 40
0.8007709755018199
 40
0.8511237700786715
 40
0.9010896024485537
 40
0.9507031914094952
 40
1.0
 40
1.0
 40
1.0
 40
1.0
 10
121.9489923976674
 20
102.042069049666
 30
0.0
 10
122.0117928509037
 20
102.0429255336177
 30
0.0
 10
122.1386968746996
 20
102.0446562736713
 30
0.0
 10
122.3300512824091
 20
102.0588061390742
 30
0.0
 10
122.5239560950847
 20
102.0819432213947
 30
0.0
 10
122.7198568158123
 20
102.1153543736191
 30
0.0
 10
122.9171944838176
 20
102.1592281956513
 30
0.0
 10
123.1153478256058
 20
102.2140234666208
 30
0.0
 10
123.3136635696189
 20
102.2800924279854
 30
0.0
 10
123.6649845571101
 20
102.4180737602336
 30
0.0
 10
124.1900963274355
 20
102.6981256990721
 30
0.0
 10
124.7270881559244
 20
103.1367163014775
 30
0.0
 10
125.1391478859741
 20
103.6105764230372
 30
0.0
 10
125.4260664740266
 20
104.042260170857
 30
0.0
 10
125.6244931612323
 20
104.4453834126142
 30
0.0
 10
125.7565790352794
 20
104.8031195733887
 30
0.0
 10
125.8422129150769
 20
105.1058719756665
 30
0.0
 10
125.9032951264309
 20
105.414360285912
 30
0.0
 10
125.9417960697979
 20
105.7266719960728
 30
0.0
 10
125.9465987488917
 20
105.9371614099787
 30
0.0
 10
125.9489923976674
 20
106.042069049666
 30
0.0
  0
SPLINE
  5
113
330
1F
100
AcDbEntity
  8
0
  6
Continuous
 62
     7
370
    25
100
AcDbSpline
210
0.0
220
0.0
230
1.0
 70
     8
 71
     3
 72
    25
 73
    21
 74
     0
 42
0.000000001
 43
0.00000001
 40
0.0
 40
0.0
 40
0.0
 40
0.0
 40
0.0274788704220519
 40
0.0560416006846
 40
0.0856947086346483
 40
0.1164440166532229
 40
0.1482947438675477
 40
0.1812515840465501
 40
0.2153187716746058
 40
0.2505001382254875
 40
0.3330514552513183
 40
0.5015081958163713
 40
0.5771663066143402
 40
0.6488981303024295
 40
0.7167477700061697
 40
0.7807674423486859
 40
0.8410194131339161
 40
0.897578484992366
 40
0.9505352047787778
 40
1.0
 40
1.0
 40
1.0
 40
1.0
 10
125.9489923976674
 20
114.467069049666
 30
0.0
 10
125.9482509460593
 20
114.5254334587004
 30
0.0
 10
125.9467387974771
 20
114.6444643669969
 30
0.0
 10
125.9342426564066
 20
114.825245361113
 30
0.0
 10
125.9133230524422
 20
115.0115085793547
 30
0.0
 10
125.8824023108975
 20
115.2026806679043
 30
0.0
 10
125.8408776662478
 20
115.398187607131
 30
0.0
 10
125.7878774804304
 20
115.5973489592467
 30
0.0
 10
125.7226483006134
 20
115.799367238405
 30
0.0
 10
125.6100582738779
 20
116.0929008529089
 30
0.0
 10
125.3500378829001
 20
116.621433678738
 30
0.0
 10
124.9389584897459
 20
117.1613729383947
 30
0.0
 10
124.4546239214736
 20
117.5961922878266
 30
0.0
 10
124.0894692167943
 20
117.8555994292875
 30
0.0
 10
123.7166341476763
 20
118.0633495839372
 30
0.0
 10
123.3433865853505
 20
118.2230708515743
 30
0.0
 10
122.9760972750165
 20
118.3391081038755
 30
0.0
 10
122.6199044721934
 20
118.4153152211804
 30
0.0
 10
122.2790657710474
 20
118.4593202831699
 30
0.0
 10
122.0564873509493
 20
118.4645455098725
 30
0.0
 10
121.9489923976674
 20
118.467069049666
 30
0.0
  0
LINE
  5
114
330
1F
100
AcDbEntity
  8
0
  6
Continuous
 62
     7
370
    25
100
AcDbLine
 10
119.9891768955
 20
119.7646037449
 30
0.0
 11
120.0341187977
 21
118.4670693015
 31
0.0
  0
SPLINE
  5
115
330
1F
100
AcDbEntity
  8
0
  6
Continuous
 62
     7
370
    25
100
AcDbSpline
210
0.0
220
0.0
230
1.0
 70
     8
 71
     3
 72
    13
 73
     9
 74
     0
 42
0.000000001
 43
0.00000001
 40
0.0
 40
0.0
 40
0.0
 40
0.0
 40
0.1618542298650875
 40
0.3254858841233149
 40
0.4910085196246548
 40
0.6585318472470939
 40
0.8281616954004768
 40
1.0
 40
1.0
 40
1.0
 40
1.0
 10
120.0341191183779
 20
118.467069049666
 30
0.0
 10
119.974897287577
 20
118.4663101735625
 30
0.0
 10
119.8558032733292
 20
118.4647840876537
 30
0.0
 10
119.6761907973899
 20
118.4522901564135
 30
0.0
 10
119.49516175648
 20
118.4320578875422
 30
0.0
 10
119.3131557626855
 20
118.4029039423339
 30
0.0
 10
119.1303715186993
 20
118.365543231671
 30
0.0
 10
119.0097224878162
 20
118.3332995208979
 30
0.0
 10
118.949007821598
 20
118.3170733968844
 30
0.0
  0
SPLINE
  5
116
330
1F
100
AcDbEntity
  8
0
  6
Continuous
 62
     7
370
    25
100
AcDbSpline
210
0.0
220
0.0
230
1.0
 70
    24
 71
     3
 72
     9
 73
     5
 74
     0
 42
0.000000001
 43
0.00000001
 40
0.0
 40
0.0
 40
0.0
 40
0.0
 40
0.4907282259506041
 40
1.0
 40
1.0
 40
1.0
 40
1.0
 10
118.9490638185094
 20
118.317069049666
 30
0.0
 10
118.895158360279
 20
118.317069049666
 30
0.0
 10
118.7853104742601
 20
118.317069049666
 30
0.0
 10
118.677367998151
 20
118.317069049666
 30
0.0
 10
118.6223959418477
 20
118.317069049666
 30
0.0
  0
SPLINE
  5
117
330
1F
100
AcDbEntity
  8
0
  6
Continuous
 62
     7
370
    25
100
AcDbSpline
210
0.0
220
0.0
230
1.0
 70
     8
 71
     3
 72
    14
 73
    10
 74
     0
 42
0.000000001
 43
0.00000001
 40
0.0
 40
0.0
 40
0.0
 40
0.0
 40
0.0310276388093398
 40
0.0622853718693698
 40
0.1248003166924349
 40
0.2498289731770658
 40
0.4998892603621822
 40
0.7606803621577949
 40
1.0
 40
1.0
 40
1.0
 40
1.0
 10
117.7937315463323
 20
119.2305453988972
 30
0.0
 10
117.8020215718718
 20
119.22097755434
 30
0.0
 10
117.8186630999853
 20
119.2017709121622
 30
0.0
 10
117.8519129563644
 20
119.1631822841661
 30
0.0
 10
117.9104155019647
 20
119.0956523912586
 30
0.0
 10
118.0279517958148
 20
118.960814873535
 30
0.0
 10
118.2008793195633
 20
118.7658815238045
 30
0.0
 10
118.4085268417151
 20
118.537592500009
 30
0.0
 10
118.5523374252259
 20
118.3880228739963
 30
0.0
 10
118.6211555769589
 20
118.3164488287048
 30
0.0
  0
SPLINE
  5
118
330
1F
100
AcDbEntity
  8
0
  6
Continuous
 62
     7
370
    25
100
AcDbSpline
210
0.0
220
0.0
230
1.0
 70
     8
 71
     3
 72
    13
 73
     9
 74
     0
 42
0.000000001
 43
0.00000001
 40
0.0
 40
0.0
 40
0.0
 40
0.0
 40
0.1722587823402174
 40
0.3421398270982735
 40
0.5097456257612809
 40
0.6751828993009421
 40
0.8385626189970466
 40
1.0
 40
1.0
 40
1.0
 40
1.0
 10
118.9490107665776
 20
102.1920638724158
 30
0.0
 10
119.0098741562403
 20
102.1758001447188
 30
0.0
 10
119.1307608206698
 20
102.143497182242
 30
0.0
 10
119.3138219786239
 20
102.1061095275501
 30
0.0
 10
119.4959246615582
 20
102.0769765926386
 30
0.0
 10
119.6768661098807
 20
102.0567898770302
 30
0.0
 10
119.8562051135951
 20
102.0443430727265
 30
0.0
 10
119.9750513420248
 20
102.0428240294986
 30
0.0
 10
120.0341191183779
 20
102.042069049666
 30
0.0
  0
LINE
  5
119
330
1F
100
AcDbEntity
  8
0
  6
Continuous
 62
     7
370
    25
100
AcDbLine
 10
119.9891768955
 20
100.7445343544
 30
0.0
 11
120.0341187977
 21
102.0420687978
 31
0.0
  0
SPLINE
  5
11A
330
1F
100
AcDbEntity
  8
0
  6
Continuous
 62
     7
370
    25
100
AcDbSpline
210
0.0
220
0.0
230
1.0
 70
     8
 71
     3
 72
    11
 73
     7
 74
     0
 42
0.000000001
 43
0.00000001
 40
0.0
 40
0.0
 40
0.0
 40
0.0
 40
0.239284509383631
 40
0.5001120454057238
 40
0.7515010915050501
 40
1.0
 40
1.0
 40
1.0
 40
1.0
 10
118.6224241086484
 20
102.1926406220592
 30
0.0
 10
118.553614475666
 20
102.1210449239532
 30
0.0
 10
118.4098002087791
 20
101.9714076945551
 30
0.0
 10
118.2020984759674
 20
101.7423511660481
 30
0.0
 10
117.9941581642441
 20
101.5098891786922
 30
0.0
 10
117.8611899546075
 20
101.3550201873017
 30
0.0
 10
117.7950902323487
 20
101.2780333846261
 30
0.0
  0
SPLINE
  5
11B
330
1F
100
AcDbEntity
  8
0
  6
Continuous
 62
     7
370
    25
100
AcDbSpline
210
0.0
220
0.0
230
1.0
 70
    24
 71
     3
 72
     9
 73
     5
 74
     0
 42
0.000000001
 43
0.00000001
 40
0.0
 40
0.0
 40
0.0
 40
0.0
 40
0.509066935386983
 40
0.9999999999999999
 40
0.9999999999999999
 40
0.9999999999999999
 40
0.9999999999999999
 10
118.6243722310639
 20
102.192069049666
 30
0.0
 10
118.6790000937711
 20
102.192069049666
 30
0.0
 10
118.7863098774356
 20
102.192069049666
 30
0.0
 10
118.89549138568
 20
102.192069049666
 30
0.0
 10
118.9490921981215
 20
102.192069049666
 30
0.0
  0
LINE
  5
11C
330
1F
100
AcDbEntity
  8
0
  6
Continuous
 62
     7
370
    25
100
AcDbLine
 10
112.4005854689
 20
119.2346793373
 30
0.0
 11
112.3750895821
 21
118.3370929917
 31
0.0
  0
LINE
  5
11D
330
1F
100
AcDbEntity
  8
0
  6
Continuous
 62
     7
370
    25
100
AcDbLine
 10
118.622393962
 20
118.317068625
 30
0.0
 11
112.448991891
 21
118.317068625
 31
0.0
  0
SPLINE
  5
11E
330
1F
100
AcDbEntity
  8
0
  6
Continuous
 62
     7
370
    25
100
AcDbSpline
210
0.0
220
0.0
230
1.0
 70
     8
 71
     3
 72
     8
 73
     4
 74
     0
 42
0.000000001
 43
0.00000001
 40
0.0
 40
0.0
 40
0.0
 40
0.0
 40
1.0
 40
1.0
 40
1.0
 40
1.0
 10
112.4489923977216
 20
118.3170690496507
 30
0.0
 10
112.424428368293
 20
118.3239924482748
 30
0.0
 10
112.3997980771947
 20
118.3306807520925
 30
0.0
 10
112.3751060360827
 20
118.3371327359733
 30
0.0
  0
LINE
  5
11F
330
1F
100
AcDbEntity
  8
0
  6
Continuous
 62
     7
370
    25
100
AcDbLine
 10
113.2133562677
 20
102.0471463685
 30
0.0
 11
113.3855131083
 21
101.2749765774
 31
0.0
  0
SPLINE
  5
120
330
1F
100
AcDbEntity
  8
0
  6
Continuous
 62
     7
370
    25
100
AcDbSpline
210
0.0
220
0.0
230
1.0
 70
     8
 71
     3
 72
     8
 73
     4
 74
     0
 42
0.000000001
 43
0.00000001
 40
0.0
 40
0.0
 40
0.0
 40
0.0
 40
1.0
 40
1.0
 40
1.0
 40
1.0
 10
113.2114202410319
 20
102.0477569814887
 30
0.0
 10
113.2416217223517
 20
102.0952378786069
 30
0.0
 10
113.2708211072041
 20
102.1433561821802
 30
0.0
 10
113.2989923976674
 20
102.192069049666
 30
0.0
  0
LINE
  5
121
330
1F
100
AcDbEntity
  8
0
  6
Continuous
 62
     7
370
    25
100
AcDbLine
 10
113.2989932411
 20
102.1920694743
 30
0.0
 11
118.6235655658
 21
102.1920694743
 31
0.0
  0
LINE
  5
122
330
1F
100
AcDbEntity
  8
0
  6
Continuous
 62
     7
370
    25
100
AcDbLine
 10
121.9489925169
 20
118.4670693015
 30
0.0
 11
120.0341187977
 21
118.4670693015
 31
0.0
  0
LINE
  5
123
330
1F
100
AcDbEntity
  8
0
  6
Continuous
 62
     7
370
    25
100
AcDbLine
 10
120.0341187977
 20
102.0420687978
 30
0.0
 11
121.9489925169
 21
102.0420687978
 31
0.0
  0
SPLINE
  5
124
330
1F
100
AcDbEntity
  8
0
  6
Continuous
 62
     7
370
    25
100
AcDbSpline
210
0.0
220
0.0
230
1.0
 70
     8
 71
     3
 72
    23
 73
    19
 74
     0
 42
0.000000001
 43
0.00000001
 40
0.0
 40
0.0
 40
0.0
 40
0.0
 40
0.0449850911547964
 40
0.0909520670823883
 40
0.1379394291328525
 40
0.1859832248994781
 40
0.235117176177667
 40
0.2853728096486027
 40
0.3367795876649756
 40
0.3893650370847659
 40
0.4431548745955978
 40
0.4981731273942729
 40
0.5575107591414307
 40
0.6265492282208773
 40
0.7053073139958764
 40
0.7937970254642376
 40
0.8920262116484563
 40
1.0
 40
1.0
 40
1.0
 40
1.0
 10
109.8363353615172
 20
100.194569049666
 30
0.0
 10
109.8991791124935
 20
100.1954268529852
 30
0.0
 10
110.0262382982766
 20
100.1971611828051
 30
0.0
 10
110.2178945310272
 20
100.2113483180087
 30
0.0
 10
110.4122617916355
 20
100.234573801169
 30
0.0
 10
110.6087784999132
 20
100.2681525415166
 30
0.0
 10
110.8068761036311
 20
100.3122965147482
 30
0.0
 10
111.0059240755913
 20
100.3674914622762
 30
0.0
 10
111.2052430814655
 20
100.4341083246951
 30
0.0
 10
111.4041087782944
 20
100.5125090015072
 30
0.0
 10
111.6017239176754
 20
100.6029930924504
 30
0.0
 10
111.8009703848555
 20
100.7077849572603
 30
0.0
 10
112.0097988646015
 20
100.8333498937645
 30
0.0
 10
112.2346099608316
 20
100.9888638923755
 30
0.0
 10
112.4763766897798
 20
101.1834330075841
 30
0.0
 10
112.7275913984892
 20
101.4229226750153
 30
0.0
 10
112.9825898826289
 20
101.7107630847413
 30
0.0
 10
113.132962011464
 20
101.9322314944295
 30
0.0
 10
113.2117011685948
 20
102.0481987022162
 30
0.0
  0
SPLINE
  5
125
330
1F
100
AcDbEntity
  8
0
  6
Continuous
 62
     7
370
    25
100
AcDbSpline
210
0.0
220
0.0
230
1.0
 70
     8
 71
     3
 72
    13
 73
     9
 74
     0
 42
0.000000001
 43
0.00000001
 40
0.0
 40
0.0
 40
0.0
 40
0.0
 40
0.1706320847381217
 40
0.3395984166493647
 40
0.5069574113007884
 40
0.672769183166934
 40
0.8370955448651839
 40
1.0
 40
1.0
 40
1.0
 40
1.0
 10
112.3750991598078
 20
118.3371345327245
 30
0.0
 10
112.3190452295602
 20
118.3510372788942
 30
0.0
 10
112.2074845814659
 20
118.3787070491695
 30
0.0
 10
112.0382388490571
 20
118.4109625660884
 30
0.0
 10
111.8690937601258
 20
118.4363000264026
 30
0.0
 10
111.7001584981576
 20
118.4540129020721
 30
0.0
 10
111.5318302659436
 20
118.4650369590229
 30
0.0
 10
111.4196914487708
 20
118.4663936511833
 30
0.0
 10
111.3638656769568
 20
118.467069049666
 30
0.0
  0
SPLINE
  5
126
330
1F
100
AcDbEntity
  8
0
  6
Continuous
 62
     7
370
    25
100
AcDbSpline
210
0.0
220
0.0
230
1.0
 70
     8
 71
     3
 72
     8
 73
     4
 74
     0
 42
0.000000001
 43
0.00000001
 40
0.0
 40
0.0
 40
0.0
 40
0.0
 40
1.0
 40
1.0
 40
1.0
 40
1.0
 10
104.5853325760898
 20
118.9945707935915
 30
0.0
 10
104.8898858497986
 20
119.1207601402306
 30
0.0
 10
105.1944391235075
 20
119.2482048964937
 30
0.0
 10
105.4989923972164
 20
119.376895761042
 30
0.0
  0
LINE
  5
127
330
1F
100
AcDbEntity
  8
0
  6
Continuous
 62
     7
370
    25
100
AcDbLine
 10
111.3638669812
 20
118.4670693015
 30
0.0
 11
105.4989934527
 21
118.4670693015
 31
0.0
  0
LINE
  5
128
330
1F
100
AcDbEntity
  8
0
  6
Continuous
 62
     7
370
    25
100
AcDbLine
 10
105.4989934527
 20
118.4670693015
 30
0.0
 11
104.5853324794
 21
118.9945704078
 31
0.0
  0
SPLINE
  5
129
330
1F
100
AcDbEntity
  8
0
  6
Continuous
 62
     7
370
    25
100
AcDbSpline
210
0.0
220
0.0
230
1.0
 70
    24
 71
     3
 72
     8
 73
     4
 74
     0
 42
0.000000001
 43
0.00000001
 40
0.0
 40
0.0
 40
0.0
 40
0.0
 40
1.0
 40
1.0
 40
1.0
 40
1.0
 10
103.9989923976674
 20
119.3330944534504
 30
0.0
 10
104.1935395302003
 20
119.2207726141125
 30
0.0
 10
104.3890005504394
 20
119.1079231414613
 30
0.0
 10
104.5853325760968
 20
118.9945707935975
 30
0.0
  0
LINE
  5
12A
330
1F
100
AcDbEntity
  8
0
  6
Continuous
 62
     7
370
    25
100
AcDbLine
 10
103.9989941381
 20
119.3330940564
 30
0.0
 11
103.9989941381
 21
132.4576643069
 31
0.0
  0
LINE
  5
12B
330
1F
100
AcDbEntity
  8
0
  6
Continuous
 62
     7
370
    25
100
AcDbLine
 10
104.6388574504
 20
99.6979708557
 30
0.0
 11
105.4989934527
 21
100.1945688163
 31
0.0
  0
LINE
  5
12C
330
1F
100
AcDbEntity
  8
0
  6
Continuous
 62
     7
370
    25
100
AcDbLine
 10
105.4989934527
 20
100.1945688163
 30
0.0
 11
109.836334046
 21
100.1945688163
 31
0.0
  0
SPLINE
  5
12D
330
1F
100
AcDbEntity
  8
0
  6
Continuous
 62
     7
370
    25
100
AcDbSpline
210
0.0
220
0.0
230
1.0
 70
     8
 71
     3
 72
     8
 73
     4
 74
     0
 42
0.000000001
 43
0.00000001
 40
0.0
 40
0.0
 40
0.0
 40
0.0
 40
1.0
 40
1.0
 40
1.0
 40
1.0
 10
105.4989923974271
 20
99.34959090914838
 30
0.0
 10
105.2122811205583
 20
99.46649184736201
 30
0.0
 10
104.9255698436895
 20
99.58261986842668
 30
0.0
 10
104.6388585668208
 20
99.69797055088758
 30
0.0
  0
SPLINE
  5
12E
330
1F
100
AcDbEntity
  8
0
  6
Continuous
 62
     7
370
    25
100
AcDbSpline
210
0.0
220
0.0
230
1.0
 70
     8
 71
     3
 72
     8
 73
     4
 74
     0
 42
0.000000001
 43
0.00000001
 40
0.0
 40
0.0
 40
0.0
 40
0.0
 40
1.0
 40
1.0
 40
1.0
 40
1.0
 10
157.1831902022375
 20
80.71782171670056
 30
0.0
 10
156.8477795768137
 20
81.37608876900978
 30
0.0
 10
156.5159372577038
 20
82.03514520699117
 30
0.0
 10
156.1897035227199
 20
82.69508557841243
 30
0.0
  0
LWPOLYLINE
  5
12F
330
1F
100
AcDbEntity
  8
0
  6
Continuous
 62
     7
370
    25
100
AcDbPolyline
 90
       11
 70
   128
 43
0.0
 10
156.1897030659
 20
82.6950856258
 10
156.9125760906
 20
82.8380604048
 10
157.5710481592
 20
83.0446556916
 10
158.1429603137
 20
83.3079182317
 10
158.6090630479
 20
83.6189892848
 10
158.953671027
 20
83.9673989226
 10
159.1651874222
 20
84.3414217939
 10
159.2364922725
 20
84.7284701427
 10
159.1651874222
 20
85.1155184915
 10
158.953671027
 20
85.4895413627
 10
158.9416495152
 20
85.5049789657
  0
LINE
  5
130
330
1F
100
AcDbEntity
  8
0
  6
Continuous
 62
     7
370
    25
100
AcDbLine
 10
103.9989941381
 20
88.0514737924
 30
0.0
 11
103.9989941381
 21
99.3285440614
 31
0.0
  0
SPLINE
  5
131
330
1F
100
AcDbEntity
  8
0
  6
Continuous
 62
     7
370
    25
100
AcDbSpline
210
0.0
220
0.0
230
1.0
 70
    24
 71
     3
 72
     8
 73
     4
 74
     0
 42
0.000000001
 43
0.00000001
 40
0.0
 40
0.0
 40
0.0
 40
0.0
 40
1.0
 40
1.0
 40
1.0
 40
1.0
 10
104.6388585668208
 20
99.69797055088758
 30
0.0
 10
104.424193007981
 20
99.5740333327057
 30
0.0
 10
104.2108782996428
 20
99.45087602842455
 30
0.0
 10
103.9989923976674
 20
99.32854364588154
 30
0.0
  0
ARC
  5
132
330
1F
100
AcDbEntity
  8
0
  6
Continuous
 62
     7
370
    25
100
AcDbCircle
 10
152.179576394
 20
84.7217191252
 30
0.0
 40
1.386778252398789
100
AcDbArc
 50
117.5067796727
 51
245.5898588898
  0
SPLINE
  5
133
330
1F
100
AcDbEntity
  8
0
  6
Continuous
 62
     7
370
    25
100
AcDbSpline
210
0.0
220
0.0
230
1.0
 70
     8
 71
     3
 72
     8
 73
     4
 74
     0
 42
0.000000001
 43
0.00000001
 40
0.0
 40
0.0
 40
0.0
 40
0.0
 40
1.0
 40
1.0
 40
1.0
 40
1.0
 10
151.6064687315193
 20
83.45890445908843
 30
0.0
 10
151.2500154665883
 20
82.7147404859039
 30
0.0
 10
150.8846819738269
 20
81.97200126001434
 30
0.0
 10
150.5147945930973
 20
81.23057013511776
 30
0.0
  0
LINE
  5
134
330
1F
100
AcDbEntity
  8
0
  6
Continuous
 62
     7
370
    25
100
AcDbLine
 10
151.9739922695
 20
136.3492720534
 30
0.0
 11
151.9739922695
 21
136.2645086606
 31
0.0
  0
SPLINE
  5
135
330
1F
100
AcDbEntity
  8
0
  6
Continuous
 62
     7
370
    25
100
AcDbSpline
210
0.0
220
0.0
230
1.0
 70
     8
 71
     3
 72
    16
 73
    12
 74
     0
 42
0.000000001
 43
0.00000001
 40
0.0
 40
0.0
 40
0.0
 40
0.0
 40
0.1250000000000001
 40
0.1250000000000001
 40
0.2500000000000003
 40
0.2500000000000003
 40
0.5000000000000002
 40
0.5000000000000002
 40
0.7500000000000001
 40
0.7500000000000001
 40
1.0
 40
1.0
 40
1.0
 40
1.0
 10
151.9739923976674
 20
136.2645080754563
 30
0.0
 10
151.9739923976674
 20
136.1951757268112
 30
0.0
 10
151.983764961307
 20
136.1331791898085
 30
0.0
 10
152.0179610067074
 20
136.0274973118181
 30
0.0
 10
152.0421461984183
 20
135.9833748768993
 30
0.0
 10
152.1298628625146
 20
135.8709682506585
 30
0.0
 10
152.206573028364
 20
135.8229657445003
 30
0.0
 10
152.385655128605
 20
135.7581399817876
 30
0.0
 10
152.4865378982248
 20
135.7422367103254
 30
0.0
 10
152.7153493964878
 20
135.7407319699548
 30
0.0
 10
152.8396470049227
 20
135.7553571467305
 30
0.0
 10
152.9739923976674
 20
135.7901440575691
 30
0.0
  0
SPLINE
  5
136
330
1F
100
AcDbEntity
  8
0
  6
Continuous
 62
     7
370
    25
100
AcDbSpline
210
0.0
220
0.0
230
1.0
 70
     8
 71
     3
 72
    10
 73
     6
 74
     0
 42
0.000000001
 43
0.00000001
 40
0.0
 40
0.0
 40
0.0
 40
0.0
 40
0.5
 40
0.5
 40
1.0
 40
1.0
 40
1.0
 40
1.0
 10
152.9739923976674
 20
135.7901440575691
 30
0.0
 10
153.2368119120231
 20
135.8581975935018
 30
0.0
 10
153.5151647766308
 20
135.9105112105536
 30
0.0
 10
154.1021613640162
 20
135.987214662137
 30
0.0
 10
154.4115450538945
 20
136.0112420364315
 30
0.0
 10
154.7239923976674
 20
136.0200718728296
 30
0.0
  0
SPLINE
  5
137
330
1F
100
AcDbEntity
  8
0
  6
Continuous
 62
     7
370
    25
100
AcDbSpline
210
0.0
220
0.0
230
1.0
 70
     8
 71
     3
 72
    14
 73
    10
 74
     0
 42
0.000000001
 43
0.00000001
 40
0.0
 40
0.0
 40
0.0
 40
0.0
 40
0.25
 40
0.25
 40
0.5
 40
0.5
 40
0.75
 40
0.75
 40
1.0
 40
1.0
 40
1.0
 40
1.0
 10
154.7239923976674
 20
136.0200718728296
 30
0.0
 10
154.8572218486907
 20
136.023836968867
 30
0.0
 10
154.9889232113009
 20
136.0480989857047
 30
0.0
 10
155.232000869518
 20
136.1343303363482
 30
0.0
 10
155.3429068100666
 20
136.19648649652
 30
0.0
 10
155.5256038831443
 20
136.3492927235076
 30
0.0
 10
155.5989914126259
 20
136.4412784315657
 30
0.0
 10
155.6978256915442
 20
136.6437477686445
 30
0.0
 10
155.7239923976674
 20
136.7555089970026
 30
0.0
 10
155.7239923976674
 20
136.8700629645286
 30
0.0
  0
LINE
  5
138
330
1F
100
AcDbEntity
  8
0
  6
Continuous
 62
     7
370
    25
100
AcDbLine
 10
155.7239924185
 20
136.8700620492
 30
0.0
 11
155.7239924185
 21
136.9552706142
 31
0.0
  0
SPLINE
  5
139
330
1F
100
AcDbEntity
  8
0
  6
Continuous
 62
     7
370
    25
100
AcDbSpline
210
0.0
220
0.0
230
1.0
 70
     8
 71
     3
 72
    10
 73
     6
 74
     0
 42
0.000000001
 43
0.00000001
 40
0.0
 40
0.0
 40
0.0
 40
0.0
 40
0.5
 40
0.5
 40
1.0
 40
1.0
 40
1.0
 40
1.0
 10
155.7239923976674
 20
136.9552715292808
 30
0.0
 10
155.9751852875389
 20
137.3157777520469
 30
0.0
 10
156.2224545992407
 20
137.6598686319562
 30
0.0
 10
156.7090759505515
 20
138.3113300470119
 30
0.0
 10
156.9484592582682
 20
138.6189154868162
 30
0.0
 10
157.1831902022373
 20
138.9023064167242
 30
0.0
  0
SPLINE
  5
13A
330
1F
100
AcDbEntity
  8
0
  6
Continuous
 62
     7
370
    25
100
AcDbSpline
210
0.0
220
0.0
230
1.0
 70
     8
 71
     3
 72
     8
 73
     4
 74
     0
 42
0.000000001
 43
0.00000001
 40
0.0
 40
0.0
 40
0.0
 40
0.0
 40
1.0
 40
1.0
 40
1.0
 40
1.0
 10
156.1897035227199
 20
82.69508557841243
 30
0.0
 10
156.0356210554959
 20
82.91123247981038
 30
0.0
 10
155.8803944336515
 20
83.13288518912965
 30
0.0
 10
155.7239923976674
 20
83.3598154339681
 30
0.0
  0
LINE
  5
13B
330
1F
100
AcDbEntity
  8
0
  6
Continuous
 62
     7
370
    25
100
AcDbLine
 10
155.7239924185
 20
83.3598152508
 30
0.0
 11
155.7239924185
 21
83.4452324321
 31
0.0
  0
SPLINE
  5
13C
330
1F
100
AcDbEntity
  8
0
  6
Continuous
 62
     7
370
    25
100
AcDbSpline
210
0.0
220
0.0
230
1.0
 70
     8
 71
     3
 72
    14
 73
    10
 74
     0
 42
0.000000001
 43
0.00000001
 40
0.0
 40
0.0
 40
0.0
 40
0.0
 40
0.25
 40
0.25
 40
0.5
 40
0.5
 40
0.75
 40
0.75
 40
1.0
 40
1.0
 40
1.0
 40
1.0
 10
155.7239923976674
 20
83.44523150326549
 30
0.0
 10
155.7239923976674
 20
83.55935740746285
 30
0.0
 10
155.6979522409103
 20
83.67206482104658
 30
0.0
 10
155.599161057709
 20
83.87626058486215
 30
0.0
 10
155.526453410292
 20
83.96866477606416
 30
0.0
 10
155.3426816324255
 20
84.12421750436916
 30
0.0
 10
155.2336116017333
 20
84.18622697100164
 30
0.0
 10
154.9879872532746
 20
84.27411707972695
 30
0.0
 10
154.8574321276872
 20
84.29792533214896
 30
0.0
 10
154.7239923976674
 20
84.30110989778004
 30
0.0
  0
SPLINE
  5
13D
330
1F
100
AcDbEntity
  8
0
  6
Continuous
 62
     7
370
    25
100
AcDbSpline
210
0.0
220
0.0
230
1.0
 70
     8
 71
     3
 72
    10
 73
     6
 74
     0
 42
0.000000001
 43
0.00000001
 40
0.0
 40
0.0
 40
0.0
 40
0.0
 40
0.5
 40
0.5
 40
1.0
 40
1.0
 40
1.0
 40
1.0
 10
154.7239923976674
 20
84.30110989778002
 30
0.0
 10
154.4160125390395
 20
84.30845989820874
 30
0.0
 10
154.115992528916
 20
84.32784273497138
 30
0.0
 10
153.5311811849216
 20
84.39065619040232
 30
0.0
 10
153.2445293785738
 20
84.43459672852319
 30
0.0
 10
152.9739923976674
 20
84.49099476767744
 30
0.0
  0
SPLINE
  5
13E
330
1F
100
AcDbEntity
  8
0
  6
Continuous
 62
     7
370
    25
100
AcDbSpline
210
0.0
220
0.0
230
1.0
 70
     8
 71
     3
 72
    16
 73
    12
 74
     0
 42
0.000000001
 43
0.00000001
 40
0.0
 40
0.0
 40
0.0
 40
0.0
 40
0.2499999999999992
 40
0.2499999999999992
 40
0.4999999999999984
 40
0.4999999999999984
 40
0.7499999999999977
 40
0.7499999999999977
 40
0.8749999999999988
 40
0.8749999999999988
 40
1.0
 40
1.0
 40
1.0
 40
1.0
 10
152.9739923976674
 20
84.49099476767744
 30
0.0
 10
152.840215228922
 20
84.51888289585705
 30
0.0
 10
152.7166367390838
 20
84.52599300911251
 30
0.0
 10
152.4855767917937
 20
84.5069113286848
 30
0.0
 10
152.3812594687524
 20
84.48056992872685
 30
0.0
 10
152.1994322655829
 20
84.3923587103464
 30
0.0
 10
152.1226674991867
 20
84.33136976335811
 30
0.0
 10
152.0371618570568
 20
84.20294101129542
 30
0.0
 10
152.0144112071566
 20
84.15480375765878
 30
0.0
 10
151.9826809329307
 20
84.04543883274634
 30
0.0
 10
151.9739923976674
 20
83.9840049801986
 30
0.0
 10
151.9739923976674
 20
83.91852765602131
 30
0.0
  0
LINE
  5
13F
330
1F
100
AcDbEntity
  8
0
  6
Continuous
 62
     7
370
    25
100
AcDbLine
 10
151.9739922695
 20
83.9185268392
 30
0.0
 11
151.9739922695
 21
83.8335585554
 31
0.0
  0
SPLINE
  5
140
330
1F
100
AcDbEntity
  8
0
  6
Continuous
 62
     7
370
    25
100
AcDbSpline
210
0.0
220
0.0
230
1.0
 70
     8
 71
     3
 72
     8
 73
     4
 74
     0
 42
0.000000001
 43
0.00000001
 40
0.0
 40
0.0
 40
0.0
 40
0.0
 40
1.0
 40
1.0
 40
1.0
 40
1.0
 10
151.9739923976674
 20
83.83355852926985
 30
0.0
 10
151.8472323846382
 20
83.6954882191228
 30
0.0
 10
151.7243799709066
 20
83.56940916828921
 30
0.0
 10
151.6064687315193
 20
83.45890445908843
 30
0.0
  0
LINE
  5
141
330
1F
100
AcDbEntity
  8
0
  6
Continuous
 62
     7
370
    25
100
AcDbLine
 10
104.614188578
 20
118.9779099782
 30
0.0
 11
104.7506571375
 21
118.8991200884
 31
0.0
  0
LINE
  5
142
330
1F
100
AcDbEntity
  8
0
  6
Continuous
 62
     7
370
    25
100
AcDbLine
 10
104.7506571375
 20
99.7625180294
 30
0.0
 11
104.6754360758
 21
99.7190876638
 31
0.0
  0
LINE
  5
143
330
1F
100
AcDbEntity
  8
0
  6
Continuous
 62
     7
370
    25
100
AcDbLine
 10
155.7239924185
 20
136.9552706142
 30
0.0
 11
155.7239924185
 21
139.2021645566
 31
0.0
  0
LINE
  5
144
330
1F
100
AcDbEntity
  8
0
  6
Continuous
 62
     7
370
    25
100
AcDbLine
 10
151.9739922695
 20
81.3069735428
 30
0.0
 11
151.9739922695
 21
83.8335585554
 31
0.0
  0
LINE
  5
145
330
1F
100
AcDbEntity
  8
0
  6
Continuous
 62
     7
370
    25
100
AcDbLine
 10
155.7239924185
 20
81.3069735428
 30
0.0
 11
155.7239924185
 21
83.3598152508
 31
0.0
  0
LINE
  5
146
330
1F
100
AcDbEntity
  8
0
  6
Continuous
 62
     7
370
    25
100
AcDbLine
 10
112.8275652044
 20
101.6015616019
 30
0.0
 11
113.2989932411
 21
102.1920694743
 31
0.0
  0
LINE
  5
147
330
1F
100
AcDbEntity
  8
0
  6
Continuous
 62
     7
370
    25
100
AcDbLine
 10
118.4885480069
 20
118.317068625
 30
0.0
 11
118.3207218163
 21
118.317068625
 31
0.0
  0
LINE
  5
148
330
1F
100
AcDbEntity
  8
0
  6
Continuous
 62
     7
370
    25
100
AcDbLine
 10
118.3212135546
 20
102.1920694743
 30
0.0
 11
118.4905242734
 21
102.1920694743
 31
0.0
  0
DIMENSION
  5
149
330
1F
100
AcDbEntity
  8
VERMASSUNG
100
AcDbDimension
  2
_D
 10
213.9489923977
 20
85.4045690497
 30
0.0
 11
213.9489923977
 21
110.2545690497
 31
0.0
 70
   160
  1
%%c<>
 71
     2
 42
-1.0
  3
SLDDIMSTYLE0
100
AcDbAlignedDimension
 13
185.3665261319
 23
135.1045690497
 33
0.0
 14
185.3680048097
 24
85.4045690497
 34
0.0
 50
90.0
100
AcDbRotatedDimension
  0
DIMENSION
  5
155
330
1F
100
AcDbEntity
  8
VERMASSUNG
100
AcDbDimension
  2
_D_1
 10
171.432202637
 20
130.2545690497
 30
0.0
 11
171.432202637
 21
141.6960461971
 31
0.0
 70
   160
  1
%%c<>
 71
     2
 42
-1.0
  3
SLDDIMSTYLE0
100
AcDbAlignedDimension
 13
165.9489923977
 23
90.2545690497
 33
0.0
 14
165.9489923977
 24
130.2545690497
 34
0.0
 50
90.0
100
AcDbRotatedDimension
  0
DIMENSION
  5
15F
330
1F
100
AcDbEntity
  8
VERMASSUNG
100
AcDbDimension
  2
_D_2
 10
203.9489923977
 20
151.7295690497
 30
0.0
 11
182.9489923977
 21
151.7295690497
 31
0.0
 70
   160
  1
<>
 71
     2
 42
-1.0
  3
SLDDIMSTYLE0
100
AcDbAlignedDimension
 13
161.9489923977
 23
141.7295690497
 33
0.0
 14
203.9489923977
 24
129.2545690497
 34
0.0
100
AcDbRotatedDimension
  0
DIMENSION
  5
169
330
1F
100
AcDbEntity
  8
VERMASSUNG
100
AcDbDimension
  2
_D_3
 10
203.9489923977
 20
160.1335692671
 30
0.0
 11
173.9489923977
 21
160.1335692671
 31
0.0
 70
   160
  1
<>
 71
     2
 42
-1.0
  3
SLDDIMSTYLE0
100
AcDbAlignedDimension
 13
143.9489923977
 23
141.5295690497
 33
0.0
 14
203.9489923977
 24
129.2545690497
 34
0.0
100
AcDbRotatedDimension
  0
DIMENSION
  5
173
330
1F
100
AcDbEntity
  8
VERMASSUNG
100
AcDbDimension
  2
_D_4
 10
103.9989923977
 20
168.5506407168
 30
0.0
 11
153.9739923977
 21
168.5506407168
 31
0.0
 70
   160
  1
<>
 71
     2
 42
-1.0
  3
SLDDIMSTYLE0
100
AcDbAlignedDimension
 13
203.9489923977
 23
129.2545690497
 33
0.0
 14
103.9989923977
 24
132.4576637735
 34
0.0
100
AcDbRotatedDimension
  0
DIMENSION
  5
17D
330
1F
100
AcDbEntity
  8
VERMASSUNG
100
AcDbDimension
  2
_D_5
 10
93.9989673977
 20
141.7295690497
 30
0.0
 11
93.9989673977
 21
110.2545690497
 31
0.0
 70
   160
  1
KM%%c<> XMZ
 71
     2
 42
-1.0
  3
SLDDIMSTYLE1
100
AcDbAlignedDimension
 13
144.1489923977
 23
78.7795690497
 33
0.0
 14
144.1489923977
 24
141.7295690497
 34
0.0
 50
90.0
100
AcDbRotatedDimension
  0
LINE
  5
18B
330
1F
100
AcDbEntity
  8
VERMASSUNG
  6
CENTERX2
370
    18
100
AcDbLine
 10
205.9489923977
 20
110.2545690497
 30
0.0
 11
101.9989923977
 21
110.2545690497
 31
0.0
  0
LINE
  5
18C
330
1F
100
AcDbEntity
  8
0
  6
Continuous
 62
     7
370
    25
100
AcDbLine
 10
252.100253986
 20
28.9433170937
 30
0.0
 11
260.4520695356
 21
24.1219166033
 31
0.0
  0
LINE
  5
18D
330
1F
100
AcDbEntity
  8
0
  6
Continuous
 62
     7
370
    25
100
AcDbLine
 10
272.8760595878
 20
45.6432301224
 30
0.0
 11
264.5242440381
 21
50.4646306128
 31
0.0
  0
LINE
  5
18E
330
1F
100
AcDbEntity
  8
0
  6
Continuous
 62
     7
370
    25
100
AcDbLine
 10
258.3108210721
 20
49.8486689847
 30
0.0
 11
258.1340727498
 21
49.7466019355
 31
0.0
  0
LINE
  5
18F
330
1F
100
AcDbEntity
  8
0
  6
Continuous
 62
     7
370
    25
100
AcDbLine
 10
249.5264467047
 20
34.836140582
 30
0.0
 11
249.5264473633
 21
34.6320385206
 31
0.0
  0
LINE
  5
190
330
1F
100
AcDbEntity
  8
0
  6
Continuous
 62
     7
370
    25
100
AcDbLine
 10
259.624381822
 20
50.4931879744
 30
0.0
 11
259.42275525
 21
50.6095845169
 31
0.0
  0
LINE
  5
191
330
1F
100
AcDbEntity
  8
0
  6
Continuous
 62
     7
370
    25
100
AcDbLine
 10
249.4235682232
 20
33.2886077804
 30
0.0
 11
249.6251947952
 21
33.1722112379
 31
0.0
  0
LINE
  5
192
330
1F
100
AcDbEntity
  8
0
  6
Continuous
 62
     7
370
    25
100
AcDbLine
 10
243.4558721361
 20
30.1087698732
 30
0.0
 11
245.1408372851
 21
29.1360601974
 31
0.0
  0
LINE
  5
193
330
1F
100
AcDbEntity
  8
0
  6
Continuous
 62
     7
370
    25
100
AcDbLine
 10
260.8770585997
 20
56.3949485912
 30
0.0
 11
259.1920934507
 21
57.367658267
 31
0.0
  0
LINE
  5
194
330
1F
100
AcDbEntity
  8
0
  6
Continuous
 62
     7
370
    25
100
AcDbLine
 10
238.8475872048
 20
32.7690761379
 30
0.0
 11
241.0982381812
 21
31.469802985
 31
0.0
  0
LINE
  5
195
330
1F
100
AcDbEntity
  8
0
  6
Continuous
 62
     7
370
    25
100
AcDbLine
 10
256.8344594957
 20
58.7286913788
 30
0.0
 11
254.5838085193
 21
60.0279645317
 31
0.0
  0
LINE
  5
196
330
1F
100
AcDbEntity
  8
0
  6
Continuous
 62
     7
370
    25
100
AcDbLine
 10
247.806419329
 20
59.8078464393
 30
0.0
 11
238.6092071454
 21
64.3884990491
 31
0.0
  0
LINE
  5
197
330
1F
100
AcDbEntity
  8
0
  6
Continuous
 62
     7
370
    25
100
AcDbLine
 10
227.0828593558
 20
44.4221155935
 30
0.0
 11
235.6489593614
 21
38.7482259971
 31
0.0
  0
LINE
  5
198
330
1F
100
AcDbEntity
  8
0
  6
Continuous
 62
     7
370
    25
100
AcDbLine
 10
232.0622967975
 20
45.3686054592
 30
0.0
 11
232.0622967975
 21
45.0032867541
 31
0.0
  0
LINE
  5
199
330
1F
100
AcDbEntity
  8
0
  6
Continuous
 62
     7
370
    25
100
AcDbLine
 10
235.9602635578
 20
64.7654674259
 30
0.0
 11
235.3207134491
 21
64.6782556704
 31
0.0
  0
LINE
  5
19A
330
1F
100
AcDbEntity
  8
0
  6
Continuous
 62
     7
370
    25
100
AcDbLine
 10
274.824509053
 20
35.8343125094
 30
0.0
 11
274.7275713014
 21
35.6179060642
 31
0.0
  0
LINE
  5
19B
330
1F
100
AcDbEntity
  8
0
  6
Continuous
 62
     7
370
    25
100
AcDbLine
 10
274.7275713014
 20
35.6179060642
 30
0.0
 11
274.4704788182
 21
35.2712249473
 31
0.0
  0
LINE
  5
19C
330
1F
100
AcDbEntity
  8
0
  6
Continuous
 62
     7
370
    25
100
AcDbLine
 10
274.4704788182
 20
35.2712249473
 30
0.0
 11
274.3935351364
 21
35.1021125611
 31
0.0
  0
SPLINE
  5
19D
330
1F
100
AcDbEntity
  8
0
  6
Continuous
 62
     7
370
    25
100
AcDbSpline
210
0.0
220
0.0
230
1.0
 70
     8
 71
     3
 72
     9
 73
     5
 74
     0
 42
0.000000001
 43
0.00000001
 40
0.0
 40
0.0
 40
0.0
 40
0.0
 40
0.5000513205442263
 40
1.0
 40
1.0
 40
1.0
 40
1.0
 10
274.3935351364313
 20
35.10211256107535
 30
0.0
 10
274.2752038131082
 20
34.752923618803
 30
0.0
 10
274.0385654552808
 20
34.0546174091677
 30
0.0
 10
273.7549573131481
 20
33.38342659087245
 30
0.0
 10
273.6131677970059
 20
33.04786562760291
 30
0.0
  0
LINE
  5
19E
330
1F
100
AcDbEntity
  8
0
  6
Continuous
 62
     7
370
    25
100
AcDbLine
 10
273.5861964481
 20
32.9434313916
 30
0.0
 11
273.613167797
 21
33.0478656276
 31
0.0
  0
LINE
  5
19F
330
1F
100
AcDbEntity
  8
0
  6
Continuous
 62
     7
370
    25
100
AcDbLine
 10
273.7241891814
 20
32.9765928189
 30
0.0
 11
273.5861964481
 21
32.9434313916
 31
0.0
  0
LINE
  5
1A0
330
1F
100
AcDbEntity
  8
0
  6
Continuous
 62
     7
370
    25
100
AcDbLine
 10
273.6885790457
 20
32.8440790073
 30
0.0
 11
273.7241891814
 21
32.9765928189
 31
0.0
  0
ARC
  5
1A1
330
1F
100
AcDbEntity
  8
0
  6
Continuous
 62
     7
370
    25
100
AcDbCircle
 10
255.8570494738
 20
41.0524031207
 30
0.0
 40
19.63007976613065
100
AcDbArc
 50
307.9352737902
 51
335.2821356476
  0
LINE
  5
1A2
330
1F
100
AcDbEntity
  8
0
  6
Continuous
 62
     7
370
    25
100
AcDbLine
 10
267.9250508539
 20
25.5700462487
 30
0.0
 11
267.8754733185
 21
25.5950463956
 31
0.0
  0
LINE
  5
1A3
330
1F
100
AcDbEntity
  8
0
  6
Continuous
 62
     7
370
    25
100
AcDbLine
 10
267.8754733185
 20
25.5950463956
 30
0.0
 11
268.1493739155
 21
26.0817273164
 31
0.0
  0
LINE
  5
1A4
330
1F
100
AcDbEntity
  8
0
  6
Continuous
 62
     7
370
    25
100
AcDbLine
 10
268.1493739155
 20
26.0817273164
 30
0.0
 11
268.1095597962
 21
26.1018732643
 31
0.0
  0
SPLINE
  5
1A5
330
1F
100
AcDbEntity
  8
0
  6
Continuous
 62
     7
370
    25
100
AcDbSpline
210
0.0
220
0.0
230
1.0
 70
     8
 71
     3
 72
     9
 73
     5
 74
     0
 42
0.000000001
 43
0.00000001
 40
0.0
 40
0.0
 40
0.0
 40
0.0
 40
0.1217959066396428
 40
1.0
 40
1.0
 40
1.0
 40
1.0
 10
268.1095597962394
 20
26.10187326425011
 30
0.0
 10
268.0485411807459
 20
26.0616526170056
 30
0.0
 10
267.5475504892115
 20
25.73142274020423
 30
0.0
 10
266.99866355047
 20
25.42762438399063
 30
0.0
 10
266.5166287940752
 20
25.16082742400771
 30
0.0
  0
LINE
  5
1A6
330
1F
100
AcDbEntity
  8
0
  6
Continuous
 62
     7
370
    25
100
AcDbLine
 10
266.3443252334
 20
25.0153707265
 30
0.0
 11
266.5166287941
 21
25.160827424
 31
0.0
  0
LINE
  5
1A7
330
1F
100
AcDbEntity
  8
0
  6
Continuous
 62
     7
370
    25
100
AcDbLine
 10
265.8273113244
 20
24.3850674039
 30
0.0
 11
266.3443252334
 21
25.0153707265
 31
0.0
  0
LINE
  5
1A8
330
1F
100
AcDbEntity
  8
0
  6
Continuous
 62
     7
370
    25
100
AcDbLine
 10
265.6063242024
 20
24.2002271853
 30
0.0
 11
265.8273113244
 21
24.3850674039
 31
0.0
  0
LWPOLYLINE
  5
1A9
330
1F
100
AcDbEntity
  8
0
  6
Continuous
 62
     7
370
    25
100
AcDbPolyline
 90
        9
 70
   128
 43
0.0
 10
265.6063242024
 20
24.2002271853
 10
264.7596397847
 20
23.8788671432
 10
263.9311606652
 20
23.6626951865
 10
263.1288066649
 20
23.5537798867
 10
262.3602473578
 20
23.5531601719
 10
261.6328299603
 20
23.6608432425
 10
260.9535083731
 20
23.8757993496
 10
260.3287768329
 20
24.195974444
 10
259.7646063627
 20
24.6183067219
  0
LINE
  5
1AA
330
1F
100
AcDbEntity
  8
0
  6
Continuous
 62
     7
370
    25
100
AcDbLine
 10
259.7646063627
 20
24.6183067219
 30
0.0
 11
259.8992497386
 21
24.8093258184
 31
0.0
  0
LINE
  5
1AB
330
1F
100
AcDbEntity
  8
0
  6
Continuous
 62
     7
370
    25
100
AcDbLine
 10
259.8992497386
 20
24.8093258184
 30
0.0
 11
260.8337454689
 21
25.4097510196
 31
0.0
  0
LINE
  5
1AC
330
1F
100
AcDbEntity
  8
0
  6
Continuous
 62
     7
370
    25
100
AcDbLine
 10
260.8337454689
 20
25.4097510196
 30
0.0
 11
260.9383572396
 21
25.5600528942
 31
0.0
  0
SPLINE
  5
1AD
330
1F
100
AcDbEntity
  8
0
  6
Continuous
 62
     7
370
    25
100
AcDbSpline
210
0.0
220
0.0
230
1.0
 70
     8
 71
     3
 72
     9
 73
     5
 74
     0
 42
0.000000001
 43
0.00000001
 40
0.0
 40
0.0
 40
0.0
 40
0.0
 40
0.5000512130242669
 40
1.0
 40
1.0
 40
1.0
 40
1.0
 10
260.9383572395813
 20
25.56005289419377
 30
0.0
 10
260.8146592023004
 20
25.73882607218465
 30
0.0
 10
260.5672884649458
 20
26.0963358098567
 30
0.0
 10
260.2729481060194
 20
26.48096109183937
 30
0.0
 10
260.1257930006161
 20
26.6732540350068
 30
0.0
  0
LINE
  5
1AE
330
1F
100
AcDbEntity
  8
0
  6
Continuous
 62
     7
370
    25
100
AcDbLine
 10
259.9129790745
 20
26.671188318
 30
0.0
 11
260.1257930006
 21
26.673254035
 31
0.0
  0
LINE
  5
1AF
330
1F
100
AcDbEntity
  8
0
  6
Continuous
 62
     7
370
    25
100
AcDbLine
 10
258.8544701938
 20
26.2406602621
 30
0.0
 11
259.9129790745
 21
26.671188318
 31
0.0
  0
LINE
  5
1B0
330
1F
100
AcDbEntity
  8
0
  6
Continuous
 62
     7
370
    25
100
AcDbLine
 10
258.5818097184
 20
26.2387219211
 30
0.0
 11
258.8544701938
 21
26.2406602621
 31
0.0
  0
LWPOLYLINE
  5
1B1
330
1F
100
AcDbEntity
  8
0
  6
Continuous
 62
     7
370
    25
100
AcDbPolyline
 90
        9
 70
   128
 43
0.0
 10
258.5818097184
 20
26.2387219211
 10
258.2840257701
 20
26.9972551327
 10
258.0663498099
 20
27.8311672249
 10
257.930863497
 20
28.7324868305
 10
257.8788608713
 20
29.6925973913
 10
257.9108397927
 20
30.7023211548
 10
258.0264946962
 20
31.7520058437
 10
258.2247198859
 20
32.8316169806
 10
258.5036200704
 20
33.9308342163
  0
LINE
  5
1B2
330
1F
100
AcDbEntity
  8
0
  6
Continuous
 62
     7
370
    25
100
AcDbLine
 10
258.5036200704
 20
33.9308342163
 30
0.0
 11
258.7751248002
 21
34.0464652901
 31
0.0
  0
LINE
  5
1B3
330
1F
100
AcDbEntity
  8
0
  6
Continuous
 62
     7
370
    25
100
AcDbLine
 10
258.7751248002
 20
34.0464652901
 30
0.0
 11
259.8392214311
 21
33.9272728289
 31
0.0
  0
LINE
  5
1B4
330
1F
100
AcDbEntity
  8
0
  6
Continuous
 62
     7
370
    25
100
AcDbLine
 10
259.8392214311
 20
33.9272728289
 30
0.0
 11
260.0511298585
 21
34.0184717259
 31
0.0
  0
SPLINE
  5
1B5
330
1F
100
AcDbEntity
  8
0
  6
Continuous
 62
     7
370
    25
100
AcDbSpline
210
0.0
220
0.0
230
1.0
 70
     8
 71
     3
 72
     9
 73
     5
 74
     0
 42
0.000000001
 43
0.00000001
 40
0.0
 40
0.0
 40
0.0
 40
0.0
 40
0.5000513205442263
 40
1.0
 40
1.0
 40
1.0
 40
1.0
 10
260.051129858479
 20
34.01847172592024
 30
0.0
 10
260.1929478032291
 20
34.35410213024442
 30
0.0
 10
260.4765545830204
 20
35.02529404702391
 30
0.0
 10
260.7131910891526
 20
35.7236010135988
 30
0.0
 10
260.8314971979045
 20
36.07271865939268
 30
0.0
  0
LINE
  5
1B6
330
1F
100
AcDbEntity
  8
0
  6
Continuous
 62
     7
370
    25
100
AcDbLine
 10
260.7235038011
 20
36.2550663846
 30
0.0
 11
260.8314971979
 21
36.0727186594
 31
0.0
  0
LINE
  5
1B7
330
1F
100
AcDbEntity
  8
0
  6
Continuous
 62
     7
370
    25
100
AcDbLine
 10
259.7785069202
 20
36.6877785354
 30
0.0
 11
260.7235038011
 21
36.2550663846
 31
0.0
  0
LINE
  5
1B8
330
1F
100
AcDbEntity
  8
0
  6
Continuous
 62
     7
370
    25
100
AcDbLine
 10
259.6395500777
 20
36.9210677184
 30
0.0
 11
259.7785069202
 21
36.6877785354
 31
0.0
  0
ARC
  5
1B9
330
1F
100
AcDbEntity
  8
0
  6
Continuous
 62
     7
370
    25
100
AcDbCircle
 10
277.4710796496
 20
28.712743605
 30
0.0
 40
19.63007976613057
100
AcDbArc
 50
127.9352737902
 51
155.2821356476
  0
LINE
  5
1BA
330
1F
100
AcDbEntity
  8
0
  6
Continuous
 62
     7
370
    25
100
AcDbLine
 10
265.4030782695
 20
44.195100477
 30
0.0
 11
265.6272227831
 21
44.0693249587
 31
0.0
  0
LINE
  5
1BB
330
1F
100
AcDbEntity
  8
0
  6
Continuous
 62
     7
370
    25
100
AcDbLine
 10
265.6272227831
 20
44.0693249587
 30
0.0
 11
266.1603263338
 21
43.1167704598
 31
0.0
  0
LINE
  5
1BC
330
1F
100
AcDbEntity
  8
0
  6
Continuous
 62
     7
370
    25
100
AcDbLine
 10
266.1603263338
 20
43.1167704598
 30
0.0
 11
266.3351051987
 21
43.0187110227
 31
0.0
  0
SPLINE
  5
1BD
330
1F
100
AcDbEntity
  8
0
  6
Continuous
 62
     7
370
    25
100
AcDbSpline
210
0.0
220
0.0
230
1.0
 70
     8
 71
     3
 72
     9
 73
     5
 74
     0
 42
0.000000001
 43
0.00000001
 40
0.0
 40
0.0
 40
0.0
 40
0.0
 40
0.1217959066396428
 40
1.0
 40
1.0
 40
1.0
 40
1.0
 10
267.9280362008352
 20
43.95975686298788
 30
0.0
 10
267.8670175853418
 20
43.91953621574336
 30
0.0
 10
267.3660268938073
 20
43.589306338942
 30
0.0
 10
266.8171399550658
 20
43.2855079827284
 30
0.0
 10
266.335105198671
 20
43.01871102274547
 30
0.0
  0
LINE
  5
1BE
330
1F
100
AcDbEntity
  8
0
  6
Continuous
 62
     7
370
    25
100
AcDbLine
 10
267.9653750159
 20
44.1831270497
 30
0.0
 11
267.9280362008
 21
43.959756863
 31
0.0
  0
LINE
  5
1BF
330
1F
100
AcDbEntity
  8
0
  6
Continuous
 62
     7
370
    25
100
AcDbLine
 10
267.6753847772
 20
45.2793039504
 30
0.0
 11
267.9653750159
 21
44.1831270497
 31
0.0
  0
LINE
  5
1C0
330
1F
100
AcDbEntity
  8
0
  6
Continuous
 62
     7
370
    25
100
AcDbLine
 10
267.721804921
 20
45.5649195404
 30
0.0
 11
267.6753847772
 21
45.2793039504
 31
0.0
  0
LWPOLYLINE
  5
1C1
330
1F
100
AcDbEntity
  8
0
  6
Continuous
 62
     7
370
    25
100
AcDbPolyline
 90
        9
 70
   128
 43
0.0
 10
267.721804921
 20
45.5649195404
 10
268.5684893387
 20
45.8862795825
 10
269.3969684582
 20
46.1024515392
 10
270.1993224585
 20
46.211366839
 10
270.9678817656
 20
46.2119865538
 10
271.6952991631
 20
46.1043034832
 10
272.3746207503
 20
45.8893473761
 10
272.9993522905
 20
45.5691722817
 10
273.5635227607
 20
45.1468400039
  0
LINE
  5
1C2
330
1F
100
AcDbEntity
  8
0
  6
Continuous
 62
     7
370
    25
100
AcDbLine
 10
273.5635227607
 20
45.1468400039
 30
0.0
 11
273.603446363
 21
44.8550455359
 31
0.0
  0
LINE
  5
1C3
330
1F
100
AcDbEntity
  8
0
  6
Continuous
 62
     7
370
    25
100
AcDbLine
 10
273.603446363
 20
44.8550455359
 30
0.0
 11
273.4759547804
 21
43.7887467567
 31
0.0
  0
LINE
  5
1C4
330
1F
100
AcDbEntity
  8
0
  6
Continuous
 62
     7
370
    25
100
AcDbLine
 10
273.4759547804
 20
43.7887467567
 30
0.0
 11
273.5063077553
 21
43.5605313928
 31
0.0
  0
SPLINE
  5
1C5
330
1F
100
AcDbEntity
  8
0
  6
Continuous
 62
     7
370
    25
100
AcDbSpline
210
0.0
220
0.0
230
1.0
 70
     8
 71
     3
 72
     9
 73
     5
 74
     0
 42
0.000000001
 43
0.00000001
 40
0.0
 40
0.0
 40
0.0
 40
0.0
 40
0.5000512130242669
 40
1.0
 40
1.0
 40
1.0
 40
1.0
 10
273.506307755329
 20
43.56053139280183
 30
0.0
 10
273.6534924106694
 20
43.36819967880677
 30
0.0
 10
273.9478315733526
 20
42.98357564633651
 30
0.0
 10
274.1952002996475
 20
42.62606651068867
 30
0.0
 10
274.3188719942943
 20
42.44733025198879
 30
0.0
  0
LINE
  5
1C6
330
1F
100
AcDbEntity
  8
0
  6
Continuous
 62
     7
370
    25
100
AcDbLine
 10
274.3967211748
 20
42.5273094582
 30
0.0
 11
274.3188719943
 21
42.447330252
 31
0.0
  0
LINE
  5
1C7
330
1F
100
AcDbEntity
  8
0
  6
Continuous
 62
     7
370
    25
100
AcDbLine
 10
274.6482259078
 20
43.4237110922
 30
0.0
 11
274.3967211748
 21
42.5273094582
 31
0.0
  0
LINE
  5
1C8
330
1F
100
AcDbEntity
  8
0
  6
Continuous
 62
     7
370
    25
100
AcDbLine
 10
274.746319405
 20
43.5264248046
 30
0.0
 11
274.6482259078
 21
43.4237110922
 31
0.0
  0
LWPOLYLINE
  5
1C9
330
1F
100
AcDbEntity
  8
0
  6
Continuous
 62
     7
370
    25
100
AcDbPolyline
 90
        9
 70
   128
 43
0.0
 10
274.746319405
 20
43.5264248046
 10
275.0441033533
 20
42.767891593
 10
275.2617793135
 20
41.9339795008
 10
275.3972656264
 20
41.0326598952
 10
275.4492682521
 20
40.0725493344
 10
275.4172893308
 20
39.0628255709
 10
275.3016344272
 20
38.013140882
 10
275.1034092375
 20
36.9335297451
 10
274.824509053
 20
35.8343125094
  0
LWPOLYLINE
  5
1CA
330
1F
100
AcDbEntity
  8
0
  6
Continuous
 62
     7
370
    25
100
AcDbPolyline
 90
       60
 70
   128
 43
0.0
 10
261.1411329718
 20
30.2250284316
 10
261.1708544025
 20
31.0671761328
 10
261.2763466472
 20
31.9447435
 10
261.4564131306
 20
32.8477866484
 10
261.7090149988
 20
33.766074359
 10
262.0312889003
 20
34.6892015819
 10
262.4195838643
 20
35.6067088728
 10
262.8695004844
 20
36.5082013068
 10
263.3759412966
 20
37.3834638742
 10
263.933167415
 20
38.2225793465
 10
264.5348657025
 20
39.0160411992
 10
265.1742187418
 20
39.7548582637
 10
265.843982214
 20
40.4306590937
 10
266.5365672992
 20
41.0357882034
 10
267.2441270279
 20
41.5633878569
 10
267.9586442897
 20
42.0074808136
 10
268.6720234014
 20
42.3630345967
 10
269.3761813362
 20
42.6260210026
 10
270.063140064
 20
42.7934610425
 10
270.7251155889
 20
42.8634565711
 10
271.3546077474
 20
42.8352147492
 10
271.9444841731
 20
42.7090562107
 10
272.488061298
 20
42.4864093518
 10
272.9791800845
 20
42.169797396
 10
273.4122761607
 20
41.7628077788
 10
273.782442053
 20
41.2700516471
 10
274.0854838207
 20
40.6971119526
 10
274.3179678127
 20
40.0504807089
 10
274.477259851
 20
39.3374842726
 10
274.5615555237
 20
38.5662014955
 10
274.569898624
 20
37.7453705898
 10
274.5021962973
 20
36.8842929048
 10
274.3592144309
 20
35.9927242282
 10
274.1425730441
 20
35.0807660881
 10
273.8547271909
 20
34.1587518042
 10
273.4989386423
 20
33.2371284996
 10
273.0792376906
 20
32.3263375221
 10
272.6003803444
 20
31.4366994277
 10
272.0677923517
 20
30.5782936429
 10
271.4875076267
 20
29.7608461122
 10
270.8661010777
 20
28.9936194169
 10
270.2106140272
 20
28.2853069834
 10
269.5284728817
 20
27.6439328996
 10
268.8274068134
 20
27.0767644693
 10
268.1153591244
 20
26.5902283438
 10
267.4003976229
 20
26.1898374903
 10
266.6906230855
 20
25.8801284625
 10
265.9940775136
 20
25.6646099589
 10
265.3186531928
 20
25.5457232515
 10
264.6720026572
 20
25.5248168262
 10
264.0614532022
 20
25.6021266893
 10
263.4939221794
 20
25.7767772793
 10
262.9758399466
 20
26.0467894585
 10
262.5130767696
 20
26.409103714
 10
262.1108759797
 20
26.8596153357
 10
261.7737940464
 20
27.3932192889
 10
261.5056511864
 20
28.0038702954
 10
261.3094852654
 20
28.6846489988
 10
261.1875182127
 20
29.4278418154
 10
261.1411329718
 20
30.2250284316
  0
LINE
  5
1CB
330
1F
100
AcDbEntity
  8
0
  6
Continuous
 62
     7
370
    25
100
AcDbLine
 10
263.5761210464
 20
47.9581718994
 30
0.0
 11
267.721804921
 21
45.5649195404
 31
0.0
  0
SPLINE
  5
1CC
330
1F
100
AcDbEntity
  8
0
  6
Continuous
 62
     7
370
    25
100
AcDbSpline
210
0.0
220
0.0
230
1.0
 70
     8
 71
     3
 72
    17
 73
    13
 74
     0
 42
0.000000001
 43
0.00000001
 40
0.0
 40
0.0
 40
0.0
 40
0.0
 40
0.0838164453898186
 40
0.2002649832867774
 40
0.3144083785222231
 40
0.4226827593252475
 40
0.5326537238850046
 40
0.6305353317085712
 40
0.7286819833311997
 40
0.8323791451258967
 40
0.9426002201147748
 40
1.0
 40
1.0
 40
1.0
 40
1.0
 10
263.5761210463582
 20
47.9581718994048
 30
0.0
 10
263.4636911446595
 20
48.0155336245958
 30
0.0
 10
263.1950592278574
 20
48.15258960308842
 30
0.0
 10
262.6616926649749
 20
48.29123363760708
 30
0.0
 10
262.0530151997719
 20
48.33132636347649
 30
0.0
 10
261.4851616276002
 20
48.23844138215151
 30
0.0
 10
261.0496693989496
 20
48.02247438696006
 30
0.0
 10
260.7857041354755
 20
47.72290878780922
 30
0.0
 10
260.693389977959
 20
47.38564604739143
 30
0.0
 10
260.7757256463486
 20
47.03441439325041
 30
0.0
 10
260.9898080680026
 20
46.76116277300083
 30
0.0
 10
261.1891366713698
 20
46.63243435930443
 30
0.0
 10
261.2573943948296
 20
46.58835283605544
 30
0.0
  0
LINE
  5
1CD
330
1F
100
AcDbEntity
  8
0
  6
Continuous
 62
     7
370
    25
100
AcDbLine
 10
261.2573943948
 20
46.5883528361
 30
0.0
 11
265.4030782695
 21
44.195100477
 31
0.0
  0
LINE
  5
1CE
330
1F
100
AcDbEntity
  8
0
  6
Continuous
 62
     7
370
    25
100
AcDbLine
 10
255.4938662031
 20
39.3143200774
 30
0.0
 11
259.6395500777
 21
36.9210677184
 31
0.0
  0
SPLINE
  5
1CF
330
1F
100
AcDbEntity
  8
0
  6
Continuous
 62
     7
370
    25
100
AcDbSpline
210
0.0
220
0.0
230
1.0
 70
     8
 71
     3
 72
    17
 73
    13
 74
     0
 42
0.000000001
 43
0.00000001
 40
0.0
 40
0.0
 40
0.0
 40
0.0
 40
0.0838166184652085
 40
0.2002654093166878
 40
0.3144090183770765
 40
0.4226837236239412
 40
0.53279138826838
 40
0.6306725111294079
 40
0.7288249215786287
 40
0.832531792979051
 40
0.9427611920115713
 40
1.0
 40
1.0
 40
1.0
 40
1.0
 10
254.3579361958055
 20
36.32408657528849
 30
0.0
 10
254.2557243062002
 20
36.39434432736666
 30
0.0
 10
254.0115065569798
 20
36.56221315499596
 30
0.0
 10
253.7065384377236
 20
36.98911461792492
 30
0.0
 10
253.5120650177406
 20
37.55196551344553
 30
0.0
 10
253.4938859987061
 20
38.153069527975
 30
0.0
 10
253.657131028001
 20
38.69273746932112
 30
0.0
 10
253.9618919079891
 20
39.11057360498259
 30
0.0
 10
254.3538679528757
 20
39.38417737043592
 30
0.0
 10
254.8085330686114
 20
39.50253622877204
 30
0.0
 10
255.204423915188
 20
39.45884870784457
 30
0.0
 10
255.4201376123577
 20
39.35113533448176
 30
0.0
 10
255.49386620307
 20
39.31432007739283
 30
0.0
  0
LINE
  5
1D0
330
1F
100
AcDbEntity
  8
0
  6
Continuous
 62
     7
370
    25
100
AcDbLine
 10
254.3579361958
 20
36.3240865753
 30
0.0
 11
258.5036200704
 21
33.9308342163
 31
0.0
  0
LINE
  5
1D1
330
1F
100
AcDbEntity
  8
0
  6
Continuous
 62
     7
370
    25
100
AcDbLine
 10
254.4361258438
 20
28.6319742801
 30
0.0
 11
258.5818097184
 21
26.2387219211
 31
0.0
  0
SPLINE
  5
1D2
330
1F
100
AcDbEntity
  8
0
  6
Continuous
 62
     7
370
    25
100
AcDbSpline
210
0.0
220
0.0
230
1.0
 70
     8
 71
     3
 72
    18
 73
    14
 74
     0
 42
0.000000001
 43
0.00000001
 40
0.0
 40
0.0
 40
0.0
 40
0.0
 40
0.083802282979969
 40
0.2002311083777117
 40
0.3143552046447236
 40
0.422611261774148
 40
0.523577993920517
 40
0.5374369381156634
 40
0.6352754313868043
 40
0.7336003616379775
 40
0.8375986551436496
 40
0.9480868769061547
 40
1.0
 40
1.0
 40
1.0
 40
1.0
 10
255.6189224880469
 20
27.01155908087674
 30
0.0
 10
255.5092846605555
 20
27.07627219929255
 30
0.0
 10
255.2473239723965
 20
27.23089303975428
 30
0.0
 10
254.7771926648803
 20
27.53597506038418
 30
0.0
 10
254.2884047791786
 20
27.89175222804825
 30
0.0
 10
253.8997669873689
 20
28.23243569999256
 30
0.0
 10
253.7254602851243
 20
28.44271814324695
 30
0.0
 10
253.6219499425639
 20
28.61484133791761
 30
0.0
 10
253.5789135490202
 20
28.75865440506776
 30
0.0
 10
253.6662188838025
 20
28.87052747276191
 30
0.0
 10
253.8916863303128
 20
28.87375720291637
 30
0.0
 10
254.1728382890037
 20
28.77656854641593
 30
0.0
 10
254.3723500316734
 20
28.66699916673897
 30
0.0
 10
254.4361258437828
 20
28.6319742800946
 30
0.0
  0
LINE
  5
1D3
330
1F
100
AcDbEntity
  8
0
  6
Continuous
 62
     7
370
    25
100
AcDbLine
 10
255.618922488
 20
27.0115590809
 30
0.0
 11
259.7646063627
 21
24.6183067219
 31
0.0
  0
LINE
  5
1D4
330
1F
100
AcDbEntity
  8
0
  6
Continuous
 62
     7
370
    25
100
AcDbLine
 10
273.5286376825
 20
44.2293775003
 30
0.0
 11
274.746319405
 21
43.5264248046
 31
0.0
  0
LWPOLYLINE
  5
1D5
330
1F
100
AcDbEntity
  8
0
  6
Continuous
 62
     7
370
    25
100
AcDbPolyline
 90
       27
 70
   128
 43
0.0
 10
249.5270453217
 20
34.5139978817
 10
249.5550624392
 20
35.4667235172
 10
249.6577920898
 20
36.4555994791
 10
249.8343590676
 20
37.4721898565
 10
250.0832559644
 20
38.507820761
 10
250.4023602912
 20
39.5536569536
 10
250.7889489664
 20
40.6007757986
 10
251.2397233407
 20
41.6402429269
 10
251.7508381726
 20
42.6631909416
 10
252.3179325804
 20
43.6608912786
 10
252.9361685668
 20
44.6248331011
 10
253.6002715197
 20
45.5467926878
 10
254.3045749929
 20
46.418901871
 10
255.0430707554
 20
47.2337225564
 10
255.8094580181
 20
47.9843017577
 10
256.5971980926
 20
48.6642366107
 10
257.3995704498
 20
49.2677249863
 10
258.2097294269
 20
49.7896195198
 10
259.0207630541
 20
50.2254661336
 10
259.825751891
 20
50.5715478888
 10
260.6178281518
 20
50.8249107522
 10
261.3902340173
 20
50.9833942174
 10
262.1363794329
 20
51.0456448986
 10
262.8498989071
 20
51.0111325901
 10
263.5247045254
 20
50.8801519721
 10
264.1550396208
 20
50.6538201344
 10
264.5242440381
 20
50.4646306128
  0
LWPOLYLINE
  5
1D6
330
1F
100
AcDbEntity
  8
0
  6
Continuous
 62
     7
370
    25
100
AcDbPolyline
 90
       10
 70
   128
 43
0.0
 10
252.100253986
 20
28.9433170937
 10
251.8889724929
 20
29.07387988
 10
251.3632873638
 20
29.4843244129
 10
250.896887704
 20
29.9819591986
 10
250.4937544151
 20
30.5625389597
 10
250.1573250994
 20
31.2211100988
 10
249.890471011
 20
31.9520542365
 10
249.6954680796
 20
32.7491346033
 10
249.5739811059
 20
33.605551649
 10
249.5270453217
 20
34.5139978817
  0
LWPOLYLINE
  5
1D7
330
1F
100
AcDbEntity
  8
0
  6
Continuous
 62
     7
370
    25
100
AcDbPolyline
 90
       48
 70
   128
 43
0.0
 10
263.6158381949
 20
31.6869934756
 10
263.6470920587
 20
32.3585070149
 10
263.7534930949
 20
33.0627610016
 10
263.9331427196
 20
33.7871882812
 10
264.1828344796
 20
34.5188607627
 10
264.4981133213
 20
35.2447224767
 10
264.8733529698
 20
35.9518200361
 10
265.3018568505
 20
36.6275352333
 10
265.7759786032
 20
37.2598103158
 10
266.2872574127
 20
37.8373616637
 10
266.826569721
 20
38.3498831517
 10
267.3842911883
 20
38.7882290017
 10
267.9504694372
 20
39.1445770044
 10
268.5150009544
 20
39.4125675248
 10
269.0678116964
 20
39.5874187908
 10
269.5990367489
 20
39.6660108359
 10
270.099196199
 20
39.6469402597
 10
270.5593648753
 20
39.5305482545
 10
270.9713312217
 20
39.3189111792
 10
271.327743412
 20
39.0158062773
 10
271.6222412232
 20
38.6266419875
 10
271.8495694703
 20
38.1583633499
 10
272.005671519
 20
37.6193265214
 10
272.0877617261
 20
37.0191507634
 10
272.0943748301
 20
36.3685460498
 10
272.0253936099
 20
35.6791229015
 10
271.8820482269
 20
34.963183544
 10
271.6668971263
 20
34.2335041316
 10
271.3837792934
 20
33.5031059003
 10
271.037747411
 20
32.7850226149
 10
270.6349763215
 20
32.0920688266
 10
270.1826533799
 20
31.436609938
 10
269.688850366
 20
30.8303430122
 10
269.1623790994
 20
30.2840866131
 10
268.6126346229
 20
29.8075887558
 10
268.0494270271
 20
29.4093526337
 10
267.4828068125
 20
29.0964848513
 10
266.9228853126
 20
28.8745681823
 10
266.3796543352
 20
28.7475631543
 10
265.8628078612
 20
28.7177359163
 10
265.3815690534
 20
28.7856184498
 10
264.944525826
 20
28.9500003377
 10
264.5594764986
 20
29.2079470774
 10
264.2332931476
 20
29.5548565582
 10
263.9717963187
 20
29.9845374957
 10
263.7796517998
 20
30.4893224651
 10
263.6602892907
 20
31.0602036519
 10
263.6158381949
 20
31.6869934756
  0
LINE
  5
1D8
330
1F
100
AcDbEntity
  8
0
  6
Continuous
 62
     7
370
    25
100
AcDbLine
 10
255.5455395564
 20
39.1314185801
 30
0.0
 11
259.7785069202
 21
36.6877785354
 31
0.0
  0
LINE
  5
1D9
330
1F
100
AcDbEntity
  8
0
  6
Continuous
 62
     7
370
    25
100
AcDbLine
 10
255.3471780481
 20
36.7340053043
 30
0.0
 11
260.0511298585
 21
34.0184717259
 31
0.0
  0
LWPOLYLINE
  5
1DA
330
1F
100
AcDbEntity
  8
0
  6
Continuous
 62
     7
370
    25
100
AcDbPolyline
 90
       11
 70
   128
 43
0.0
 10
255.3471780481
 20
36.7340053043
 10
255.1201362679
 20
36.926369543
 10
254.9535133121
 20
37.2004447521
 10
254.8636186941
 20
37.529404349
 10
254.859252544
 20
37.8810462827
 10
254.9408415987
 20
38.2209502383
 10
255.1003990304
 20
38.5158432477
 10
255.3223067977
 20
38.7368604095
 10
255.5848434683
 20
38.8623649937
 10
255.8623093429
 20
38.8800739383
 10
256.1275453875
 20
38.7882522378
  0
LINE
  5
1DB
330
1F
100
AcDbEntity
  8
0
  6
Continuous
 62
     7
370
    25
100
AcDbLine
 10
256.1275453875
 20
38.7882522378
 30
0.0
 11
260.8314971979
 21
36.0727186594
 31
0.0
  0
LINE
  5
1DC
330
1F
100
AcDbEntity
  8
0
  6
Continuous
 62
     7
370
    25
100
AcDbLine
 10
254.5421574365
 20
36.4901053348
 30
0.0
 11
258.7751248002
 21
34.0464652901
 31
0.0
  0
LINE
  5
1DD
330
1F
100
AcDbEntity
  8
0
  6
Continuous
 62
     7
370
    25
100
AcDbLine
 10
255.2027519935
 20
36.6038496627
 30
0.0
 11
259.8392214311
 21
33.9272728289
 31
0.0
  0
ARC
  5
1DE
330
1F
100
AcDbEntity
  8
0
  6
Continuous
 62
     7
370
    25
100
AcDbCircle
 10
259.5476976618
 20
38.9907648719
 30
0.0
 40
12.62971385788717
100
AcDbArc
 50
322.9397465358
 51
337.0656262775
  0
LINE
  5
1DF
330
1F
100
AcDbEntity
  8
0
  6
Continuous
 62
     7
370
    25
100
AcDbLine
 10
269.8559975232
 20
39.6686088805
 30
0.0
 11
269.8133356929
 21
38.9469658245
 31
0.0
  0
ARC
  5
1E0
330
1F
100
AcDbEntity
  8
0
  6
Continuous
 62
     7
370
    25
100
AcDbCircle
 10
257.830165704
 20
39.6456309356
 30
0.0
 40
11.74420163575405
100
AcDbArc
 50
302.3576159815
 51
331.5722630618
  0
ARC
  5
1E1
330
1F
100
AcDbEntity
  8
0
  6
Continuous
 62
     7
370
    25
100
AcDbCircle
 10
257.3350632108
 20
40.4425298531
 30
0.0
 40
12.56757716906358
100
AcDbArc
 50
329.4513172625
 51
353.1655041336
  0
LWPOLYLINE
  5
1E2
330
1F
100
AcDbEntity
  8
0
  6
Continuous
 62
     7
370
    25
100
AcDbPolyline
 90
       19
 70
   128
 43
0.0
 10
270.439386627
 20
39.5715256558
 10
270.4696984429
 20
39.4648043924
 10
270.5893177844
 20
38.8530077589
 10
270.6340971646
 20
38.1860630815
 10
270.6033302945
 20
37.4744884598
 10
270.4975025213
 20
36.7295059281
 10
270.3182825969
 20
35.9628642674
 10
270.0684969943
 20
35.1866535745
 10
269.7520847975
 20
34.4131155063
 10
269.3740364567
 20
33.6544491305
 10
268.9403137754
 20
32.9226192009
 10
268.4577567261
 20
32.229166811
 10
267.9339757784
 20
31.5850284142
 10
267.3772308914
 20
31.0003621641
 10
266.7963026861
 20
30.4843891327
 10
266.2003524632
 20
30.0452455796
 10
265.5987788258
 20
29.6898579764
 10
265.0010689514
 20
29.4238309118
 10
264.491500629
 20
29.2683687703
  0
ARC
  5
1E3
330
1F
100
AcDbEntity
  8
0
  6
Continuous
 62
     7
370
    25
100
AcDbCircle
 10
261.5965385461
 20
37.8079938728
 30
0.0
 40
9.967097303496221
100
AcDbArc
 50
297.8113572488
 51
2.19401932
  0
LINE
  5
1E4
330
1F
100
AcDbEntity
  8
0
  6
Continuous
 62
     7
370
    25
100
AcDbLine
 10
261.3942554194
 20
46.5129650035
 30
0.0
 11
265.6272227831
 21
44.0693249587
 31
0.0
  0
LWPOLYLINE
  5
1E5
330
1F
100
AcDbEntity
  8
0
  6
Continuous
 62
     7
370
    25
100
AcDbPolyline
 90
       24
 70
   128
 43
0.0
 10
270.6759585341
 20
39.482535376
 10
270.974190622
 20
39.2199079586
 10
271.2686884332
 20
38.8307436687
 10
271.4960166803
 20
38.3624650312
 10
271.652118729
 20
37.8234282027
 10
271.7342089361
 20
37.2232524446
 10
271.7408220401
 20
36.572647731
 10
271.6718408199
 20
35.8832245828
 10
271.5284954369
 20
35.1672852253
 10
271.3133443363
 20
34.4376058129
 10
271.0302265034
 20
33.7072075816
 10
270.684194621
 20
32.9891242962
 10
270.2814235315
 20
32.2961705078
 10
269.8291005899
 20
31.6407116192
 10
269.335297576
 20
31.0344446934
 10
268.8088263094
 20
30.4881882944
 10
268.2590818329
 20
30.0116904371
 10
267.6958742371
 20
29.6134543149
 10
267.1292540225
 20
29.3005865325
 10
266.5693325226
 20
29.0786698635
 10
266.0261015452
 20
28.9516648355
 10
265.5092550712
 20
28.9218375976
 10
265.0280162634
 20
28.9897201311
 10
264.6868692995
 20
29.1080045968
  0
LWPOLYLINE
  5
1E6
330
1F
100
AcDbEntity
  8
0
  6
Continuous
 62
     7
370
    25
100
AcDbPolyline
 90
       12
 70
   128
 43
0.0
 10
254.5421574365
 20
36.4901053348
 10
254.2739421365
 20
36.710170284
 10
254.0681015382
 20
37.0193980415
 10
253.9413086714
 20
37.3927376237
 10
253.9038374889
 20
37.799942864
 10
253.9587238809
 20
38.2080250924
 10
254.1015200378
 20
38.5839229493
 10
254.3206573083
 20
38.8971840233
 10
254.5983839666
 20
39.1224298036
 10
254.9122001809
 20
39.2414119377
 10
255.2366802066
 20
39.2444917352
 10
255.5455395564
 20
39.1314185801
  0
LINE
  5
1E7
330
1F
100
AcDbEntity
  8
0
  6
Continuous
 62
     7
370
    25
100
AcDbLine
 10
266.1579791165
 20
43.1209637335
 30
0.0
 11
266.3351051987
 21
43.0187110227
 31
0.0
  0
SPLINE
  5
1E8
330
1F
100
AcDbEntity
  8
0
  6
Continuous
 62
     7
370
    25
100
AcDbSpline
210
0.0
220
0.0
230
1.0
 70
     8
 71
     3
 72
    31
 73
    27
 74
     0
 42
0.000000001
 43
0.00000001
 40
0.0
 40
0.0
 40
0.0
 40
0.0
 40
0.1366662710947415
 40
0.1992016722121892
 40
0.401213680488517
 40
0.5184687473063304
 40
0.561341659393232
 40
0.5813813329957698
 40
0.5913101918212583
 40
0.5946380234670017
 40
0.5968941719775314
 40
0.5984212806963988
 40
0.5994595905317471
 40
0.600171480097632
 40
0.6008450923758668
 40
0.6011740908099209
 40
0.6014264887191052
 40
0.6015997320805211
 40
0.6017737450939017
 40
0.6019797580549106
 40
0.6023292657473867
 40
0.6034214248808665
 40
0.6084488748381615
 40
0.628400712060816
 40
0.7080923481249027
 40
1.0
 40
1.0
 40
1.0
 40
1.0
 10
269.6736123046396
 20
39.62650636392346
 30
0.0
 10
269.6331388395558
 20
39.47053180779847
 30
0.0
 10
269.5741456303294
 20
39.24318681511102
 30
0.0
 10
269.9899229669527
 20
38.78345022465766
 30
0.0
 10
269.5578545468359
 20
38.44137203048496
 30
0.0
 10
269.5714246847868
 20
37.97184065820407
 30
0.0
 10
269.5310909024396
 20
37.74779806686837
 30
0.0
 10
269.5178654671873
 20
37.65542747070325
 30
0.0
 10
269.5124863688964
 20
37.61273033302423
 30
0.0
 10
269.5106480486544
 20
37.59256762927444
 30
0.0
 10
269.5100653589888
 20
37.58323763559226
 30
0.0
 10
269.5098939761318
 20
37.57685186479296
 30
0.0
 10
269.5099714714101
 20
37.57247178665769
 30
0.0
 10
269.5102151655727
 20
37.56921722890637
 30
0.0
 10
269.5105750738618
 20
37.56690697119272
 30
0.0
 10
269.5110799929748
 20
37.56527789063293
 30
0.0
 10
269.5115479246958
 20
37.56438574002257
 30
0.0
 10
269.5120603101597
 20
37.56385024058754
 30
0.0
 10
269.5126162880937
 20
37.56359932604663
 30
0.0
 10
269.5133513298823
 20
37.56363074652195
 30
0.0
 10
269.5148250002929
 20
37.56443533380428
 30
0.0
 10
269.5192625072721
 20
37.5700923044555
 30
0.0
 10
269.5317977487785
 20
37.59849373481925
 30
0.0
 10
269.5722961629913
 20
37.71913360062737
 30
0.0
 10
269.6977967978969
 20
38.18245420948806
 30
0.0
 10
269.7625047437156
 20
38.61062150465747
 30
0.0
 10
269.8133356928982
 20
38.94696582446432
 30
0.0
  0
ARC
  5
1E9
330
1F
100
AcDbEntity
  8
0
  6
Continuous
 62
     7
370
    25
100
AcDbCircle
 10
262.4428098793
 20
45.3895028415
 30
0.0
 40
1.504539668372994
100
AcDbArc
 50
58.7161591956
 51
132.6497870239
  0
LINE
  5
1EA
330
1F
100
AcDbEntity
  8
0
  6
Continuous
 62
     7
370
    25
100
AcDbLine
 10
263.2240843905
 20
46.6752904414
 30
0.0
 11
267.9280362008
 21
43.959756863
 31
0.0
  0
ARC
  5
1EB
330
1F
100
AcDbEntity
  8
0
  6
Continuous
 62
     7
370
    25
100
AcDbCircle
 10
268.1687383485
 20
34.0139438136
 30
0.0
 40
18.66041385543071
100
AcDbArc
 50
122.5307047009
 51
177.4746722685
  0
LWPOLYLINE
  5
1EC
330
1F
100
AcDbEntity
  8
0
  6
Continuous
 62
     7
370
    25
100
AcDbPolyline
 90
       10
 70
   128
 43
0.0
 10
255.2027519935
 20
36.6038496627
 10
254.9454770935
 20
36.821828681
 10
254.7566657976
 20
37.1324007407
 10
254.6548021331
 20
37.505165043
 10
254.6498538297
 20
37.9036319879
 10
254.7423062346
 20
38.2887986023
 10
254.9231122634
 20
38.6229601354
 10
255.1745695813
 20
38.8734072658
 10
255.4720657457
 20
39.0156260462
 10
255.6992023563
 20
39.0427102078
  0
LINE
  5
1ED
330
1F
100
AcDbEntity
  8
0
  6
Continuous
 62
     7
370
    25
100
AcDbLine
 10
263.3289055783
 20
46.8597038835
 30
0.0
 11
267.9653750159
 21
44.1831270497
 31
0.0
  0
LINE
  5
1EE
330
1F
100
AcDbEntity
  8
0
  6
Continuous
 62
     7
370
    25
100
AcDbLine
 10
263.4424174134
 20
47.7229439952
 30
0.0
 11
267.6753847772
 21
45.2793039504
 31
0.0
  0
LWPOLYLINE
  5
1EF
330
1F
100
AcDbEntity
  8
0
  6
Continuous
 62
     7
370
    25
100
AcDbPolyline
 90
       12
 70
   128
 43
0.0
 10
263.4424174134
 20
47.7229439952
 10
263.1123976291
 20
47.865006793
 10
262.7261505738
 20
47.9465467404
 10
262.3149650143
 20
47.9609603123
 10
261.9121542681
 20
47.9070782473
 10
261.5503518087
 20
47.7892656732
 10
261.2588679705
 20
47.6170678443
 10
261.0613170481
 20
47.4044348762
 10
260.9737041221
 20
47.168592959
 10
261.0031269853
 20
46.9286479421
 10
261.1472005539
 20
46.7040403099
 10
261.3942554194
 20
46.5129650035
  0
ARC
  5
1F0
330
1F
100
AcDbEntity
  8
0
  6
Continuous
 62
     7
370
    25
100
AcDbCircle
 10
262.4459073709
 20
45.4401814125
 30
0.0
 40
1.671744561854987
100
AcDbArc
 50
58.1167805079
 51
135.6209309369
  0
LINE
  5
1F1
330
1F
100
AcDbEntity
  8
0
  6
Continuous
 62
     7
370
    25
100
AcDbLine
 10
259.3853486049
 20
26.4565856958
 30
0.0
 11
260.9383572396
 21
25.5600528942
 31
0.0
  0
ARC
  5
1F2
330
1F
100
AcDbEntity
  8
0
  6
Continuous
 62
     7
370
    25
100
AcDbCircle
 10
259.8617198651
 20
37.5622039795
 30
0.0
 40
8.503654856285062
100
AcDbArc
 50
300.7679181749
 51
309.4462231233
  0
SPLINE
  5
1F3
330
1F
100
AcDbEntity
  8
0
  6
Continuous
 62
     7
370
    25
100
AcDbSpline
210
0.0
220
0.0
230
1.0
 70
     8
 71
     3
 72
    31
 73
    27
 74
     0
 42
0.000000001
 43
0.00000001
 40
0.0
 40
0.0
 40
0.0
 40
0.0
 40
0.0524418746902637
 40
0.1934244726869841
 40
0.2035858665584809
 40
0.208629270282764
 40
0.210323871240312
 40
0.2114718245161001
 40
0.2122490711437009
 40
0.2127780143649
 40
0.2131412819842686
 40
0.2134973294312354
 40
0.2136520003484774
 40
0.2138086286677737
 40
0.2138977284553787
 40
0.2139868947952834
 40
0.2141115634691299
 40
0.2143446286721088
 40
0.2153600951240964
 40
0.2193680501076122
 40
0.235330207710022
 40
0.2991420140462164
 40
0.4267431815164935
 40
0.5988597030678394
 40
0.7709743520697472
 40
1.0
 40
1.0
 40
1.0
 40
1.0
 10
268.1582305982367
 20
34.0548038410528
 30
0.0
 10
268.2206991041453
 20
34.17165437299545
 30
0.0
 10
268.451105394658
 20
34.60264111131652
 30
0.0
 10
268.6683936733398
 20
35.0710247138306
 30
0.0
 10
268.8019272434755
 20
35.44094005506273
 30
0.0
 10
268.8150227267191
 20
35.4815022538144
 30
0.0
 10
268.8203920609695
 20
35.50067937978364
 30
0.0
 10
268.8225711020048
 20
35.50956624865238
 30
0.0
 10
268.8238097707203
 20
35.5156464866086
 30
0.0
 10
268.8244445199738
 20
35.51982022410247
 30
0.0
 10
268.8247155430962
 20
35.52295082977624
 30
0.0
 10
268.824698443572
 20
35.52515251396935
 30
0.0
 10
268.8243939459925
 20
35.52675082446234
 30
0.0
 10
268.8239982931281
 20
35.5276191302376
 30
0.0
 10
268.8234462757463
 20
35.52808698000272
 30
0.0
 10
268.8228423857785
 20
35.52825212775947
 30
0.0
 10
268.8219108694196
 20
35.52810249356103
 30
0.0
 10
268.8192515320256
 20
35.5265615101201
 30
0.0
 10
268.8109989003798
 20
35.5168976864575
 30
0.0
 10
268.783706137617
 20
35.47347507269387
 30
0.0
 10
268.6847294741858
 20
35.2903808178249
 30
0.0
 10
268.44122021863
 20
34.83236082035716
 30
0.0
 10
267.9731299171042
 20
34.0401342493128
 30
0.0
 10
267.2845874998003
 20
33.06456642335855
 30
0.0
 10
266.3633685070846
 20
31.96735515770989
 30
0.0
 10
265.6639003903625
 20
31.3487087673639
 30
0.0
 10
265.2645484931236
 20
30.99550094588028
 30
0.0
  0
ARC
  5
1F4
330
1F
100
AcDbEntity
  8
0
  6
Continuous
 62
     7
370
    25
100
AcDbCircle
 10
257.1441404741
 20
40.6023902864
 30
0.0
 40
12.00233249507701
100
AcDbArc
 50
303.414054761
 51
355.1887710479
  0
LINE
  5
1F5
330
1F
100
AcDbEntity
  8
0
  6
Continuous
 62
     7
370
    25
100
AcDbLine
 10
255.6662823749
 20
27.2529658632
 30
0.0
 11
259.8992497386
 21
24.8093258184
 31
0.0
  0
LINE
  5
1F6
330
1F
100
AcDbEntity
  8
0
  6
Continuous
 62
     7
370
    25
100
AcDbLine
 10
259.1712340534
 20
26.3694984309
 30
0.0
 11
260.8337454689
 21
25.4097510196
 31
0.0
  0
LWPOLYLINE
  5
1F7
330
1F
100
AcDbEntity
  8
0
  6
Continuous
 62
     7
370
    25
100
AcDbPolyline
 90
        9
 70
   128
 43
0.0
 10
255.6662823749
 20
27.2529658632
 10
255.3565846978
 20
27.4485246056
 10
255.0296575208
 20
27.6862186157
 10
254.7119835527
 20
27.9467926179
 10
254.4293006885
 20
28.2091359563
 10
254.2045098134
 20
28.4519947007
 10
254.0558223173
 20
28.6556948356
 10
253.9952829792
 20
28.8037335663
 10
254.0160508389
 20
28.875868986
  0
LINE
  5
1F8
330
1F
100
AcDbEntity
  8
0
  6
Continuous
 62
     7
370
    25
100
AcDbLine
 10
274.1703925983
 20
42.6579661643
 30
0.0
 11
274.3967211748
 21
42.5273094582
 31
0.0
  0
LINE
  5
1F9
330
1F
100
AcDbEntity
  8
0
  6
Continuous
 62
     7
370
    25
100
AcDbLine
 10
273.5108168096
 20
44.0803233882
 30
0.0
 11
274.6482259078
 21
43.4237110922
 31
0.0
  0
LINE
  5
1FA
330
1F
100
AcDbEntity
  8
0
  6
Continuous
 62
     7
370
    25
100
AcDbLine
 10
264.211865056
 20
30.2554685433
 30
0.0
 11
263.9249550048
 21
30.085972703
 31
0.0
  0
LINE
  5
1FB
330
1F
100
AcDbEntity
  8
0
  6
Continuous
 62
     7
370
    25
100
AcDbLine
 10
267.5674338565
 20
25.7728737918
 30
0.0
 11
267.8754733185
 21
25.5950463956
 31
0.0
  0
LINE
  5
1FC
330
1F
100
AcDbEntity
  8
0
  6
Continuous
 62
     7
370
    25
100
AcDbLine
 10
273.611554363
 20
33.0416155155
 30
0.0
 11
273.7241891814
 21
32.9765928189
 31
0.0
  0
LWPOLYLINE
  5
1FD
330
1F
100
AcDbEntity
  8
0
  6
Continuous
 62
     7
370
    25
100
AcDbPolyline
 90
       38
 70
   128
 43
0.0
 10
241.880854944
 20
36.3413930473
 10
241.9188634988
 20
37.4245051798
 10
242.0326277211
 20
38.5441012057
 10
242.2213718455
 20
39.6925341734
 10
242.4838057832
 20
40.8619583179
 10
242.8181369761
 20
42.0443855251
 10
243.2220822504
 20
43.2317389428
 10
243.692881646
 20
44.4159081129
 10
244.2273188317
 20
45.5888023923
 10
244.8217441536
 20
46.7424110272
 10
245.4720957094
 20
47.8688529612
 10
246.1739316162
 20
48.9604346279
 10
246.9224576701
 20
50.0096978572
 10
247.7125612608
 20
51.0094767164
 10
248.5388439697
 20
51.9529406643
 10
249.3956620704
 20
52.8336445468
 10
250.2771625838
 20
53.6455729863
 10
251.1773241083
 20
54.3831799216
 10
252.0899973199
 20
55.0414256768
 10
253.0089479424
 20
55.6158154554
 10
253.9278985649
 20
56.1024234815
 10
254.8405717765
 20
56.4979277868
 10
255.7407333011
 20
56.7996252255
 10
256.6222338145
 20
57.0054556152
 10
257.4790519151
 20
57.1140128546
 10
258.305334624
 20
57.1245546159
 10
259.0954382147
 20
57.037009945
 10
259.8439642686
 20
56.851976502
 10
260.5458001755
 20
56.5707173251
 10
261.1961517312
 20
56.1951553144
 10
261.7905770532
 20
55.7278555478
 10
262.3250142388
 20
55.1720093087
 10
262.7958136345
 20
54.5314135505
 10
263.1997589088
 20
53.8104454192
 10
263.5340901017
 20
53.0140287909
 10
263.7965240394
 20
52.1476044213
 10
263.9852681637
 20
51.2170907811
 10
264.0552819816
 20
50.6972618173
  0
LWPOLYLINE
  5
1FE
330
1F
100
AcDbEntity
  8
0
  6
Continuous
 62
     7
370
    25
100
AcDbPolyline
 90
       19
 70
   128
 43
0.0
 10
251.6642813874
 20
29.2330936088
 10
251.1773241083
 20
29.0330810017
 10
250.2771625838
 20
28.731383563
 10
249.3956620704
 20
28.5255531733
 10
248.5388439697
 20
28.4169959339
 10
247.7125612608
 20
28.4064541726
 10
246.9224576701
 20
28.4939988435
 10
246.1739316162
 20
28.6790322866
 10
245.4720957094
 20
28.9602914634
 10
244.8217441536
 20
29.3358534741
 10
244.2273188317
 20
29.8031532408
 10
243.692881646
 20
30.3589994799
 10
243.2220822504
 20
30.999595238
 10
242.8181369761
 20
31.7205633693
 10
242.4838057832
 20
32.5169799977
 10
242.2213718455
 20
33.3834043673
 10
242.0326277211
 20
34.3139180074
 10
241.9188634988
 20
35.3021646582
 10
241.880854944
 20
36.3413930473
  0
SPLINE
  5
1FF
330
1F
100
AcDbEntity
  8
0
  6
Continuous
 62
     7
370
    25
100
AcDbSpline
210
0.0
220
0.0
230
1.0
 70
     8
 71
     3
 72
    25
 73
    21
 74
     0
 42
0.000000001
 43
0.00000001
 40
0.0
 40
0.0
 40
0.0
 40
0.0
 40
0.1249999999999998
 40
0.1249999999999998
 40
0.2499999999999997
 40
0.2499999999999997
 40
0.3749999999999995
 40
0.3749999999999995
 40
0.4999999999999993
 40
0.4999999999999993
 40
0.5624999999999996
 40
0.5624999999999996
 40
0.6249999999999998
 40
0.6875000000000001
 40
0.6875000000000001
 40
0.7500000000000003
 40
0.7500000000000003
 40
0.8750000000000001
 40
0.8750000000000001
 40
1.0
 40
1.0
 40
1.0
 40
1.0
 10
246.7144440925162
 20
52.77320750178218
 30
0.0
 10
246.7435673907772
 20
52.662021981253
 30
0.0
 10
246.7559564316365
 20
52.54677976882496
 30
0.0
 10
246.7489789465362
 20
52.30768420098916
 30
0.0
 10
246.7289613586842
 20
52.18291023111391
 30
0.0
 10
246.6587392009709
 20
51.93654132190148
 30
0.0
 10
246.6080885463772
 20
51.81233017454036
 30
0.0
 10
246.4781738027221
 20
51.56870167923019
 30
0.0
 10
246.4004728547328
 20
51.45164458417204
 30
0.0
 10
246.2650992725066
 20
51.282988066322
 30
0.0
 10
246.2164647751996
 20
51.22762104504983
 30
0.0
 10
246.1150254398175
 20
51.12190123365281
 30
0.0
 10
246.0091554570768
 20
51.02074027503237
 30
0.0
 10
245.8945636647493
 20
50.92856595335557
 30
0.0
 10
245.7754809955311
 20
50.84102911061546
 30
0.0
 10
245.7135229824737
 20
50.79953064110327
 30
0.0
 10
245.5256592789531
 20
50.68541031936517
 30
0.0
 10
245.3962818425991
 20
50.62180288825057
 30
0.0
 10
245.1285985895371
 20
50.52053458727634
 30
0.0
 10
244.992726903072
 20
50.48399367905154
 30
0.0
 10
244.8572096363444
 20
50.46282549470148
 30
0.0
  0
LWPOLYLINE
  5
200
330
1F
100
AcDbEntity
  8
0
  6
Continuous
 62
     7
370
    25
100
AcDbPolyline
 90
       16
 70
   128
 43
0.0
 10
246.7144442042
 20
52.7732075343
 10
247.5775876249
 20
53.6756520771
 10
248.466976349
 20
54.5084804336
 10
249.3763793933
 20
55.2658590122
 10
250.2994264096
 20
55.9424813778
 10
251.2296508201
 20
56.5336060807
 10
252.1605360801
 20
57.0350947705
 10
253.0855608702
 20
57.4434337224
 10
253.9982451124
 20
57.7557604018
 10
254.8921949159
 20
57.9698886499
 10
255.7611480162
 20
58.0843181858
 10
256.5990168278
 20
58.098246532
 10
257.3999317437
 20
58.0115772801
 10
258.1582819646
 20
57.8249162851
 10
258.8687546827
 20
57.5395722319
 10
259.1920934507
 20
57.367658267
  0
LWPOLYLINE
  5
201
330
1F
100
AcDbEntity
  8
0
  6
Continuous
 62
     7
370
    25
100
AcDbPolyline
 90
       22
 70
   128
 43
0.0
 10
243.4558721361
 20
30.1087698732
 10
242.8868376562
 20
30.4886322759
 10
242.3140145698
 20
30.9950265535
 10
241.8032974987
 20
31.5892606348
 10
241.3582063636
 20
32.2672371957
 10
240.9818099817
 20
33.0242840445
 10
240.6767023599
 20
33.855181881
 10
240.4449868893
 20
34.7542040321
 10
240.2882605404
 20
35.7151531458
 10
240.2076039847
 20
36.7314055839
 10
240.2035723752
 20
37.7959558151
 10
240.2761946879
 20
38.9014665105
 10
240.4249691119
 20
40.0403167383
 10
240.6488716104
 20
41.2046571917
 10
240.9463572381
 20
42.3864612349
 10
241.3153766044
 20
43.5775829815
 10
241.7533857519
 20
44.7698123328
 10
242.2573645955
 20
45.9549297286
 10
242.82384063
 20
47.1247681235
 10
243.448908028
 20
48.2712627946
 10
244.1282585911
 20
49.3865106554
 10
244.8572094095
 20
50.4628250063
  0
LWPOLYLINE
  5
202
330
1F
100
AcDbEntity
  8
0
  6
Continuous
 62
     7
370
    25
100
AcDbPolyline
 90
       13
 70
   128
 43
0.0
 10
245.0518228118
 20
52.8974840149
 10
245.8826659414
 20
53.7867771014
 10
246.7415564816
 20
54.606058582
 10
247.6218018092
 20
55.3489439529
 10
248.5165432655
 20
56.0096456421
 10
249.4188092873
 20
56.583015848
 10
250.3215696394
 20
57.0645869732
 10
251.2177903512
 20
57.4506056199
 10
252.1004880986
 20
57.7380655049
 10
252.9627849602
 20
57.9247261419
 10
253.7979626298
 20
58.0091327303
 10
254.5995133704
 20
57.9906280803
 10
254.852373388
 20
57.9623706479
  0
SPLINE
  5
203
330
1F
100
AcDbEntity
  8
0
  6
Continuous
 62
     7
370
    25
100
AcDbSpline
210
0.0
220
0.0
230
1.0
 70
     8
 71
     3
 72
    26
 73
    22
 74
     0
 42
0.000000001
 43
0.00000001
 40
0.0
 40
0.0
 40
0.0
 40
0.0
 40
0.1250000000000009
 40
0.1250000000000009
 40
0.2500000000000019
 40
0.2500000000000019
 40
0.3125000000000011
 40
0.3125000000000011
 40
0.3750000000000004
 40
0.3750000000000004
 40
0.4375000000000002
 40
0.4375000000000002
 40
0.5000000000000001
 40
0.5000000000000001
 40
0.5625
 40
0.5625
 40
0.6249999999999999
 40
0.6249999999999999
 40
0.7500000000000001
 40
0.7500000000000001
 40
1.0
 40
1.0
 40
1.0
 40
1.0
 10
243.7076296068886
 20
51.225320728657
 30
0.0
 10
243.6839920106566
 20
51.33489658822999
 30
0.0
 10
243.6664242317749
 20
51.44578584659453
 30
0.0
 10
243.6476116489054
 20
51.67111580645746
 30
0.0
 10
243.646431874138
 20
51.78679271977583
 30
0.0
 10
243.6625298773734
 20
51.9581482296354
 30
0.0
 10
243.6708485944736
 20
52.01494674172956
 30
0.0
 10
243.6946057437306
 20
52.12777295412664
 30
0.0
 10
243.7102281227796
 20
52.1842258077928
 30
0.0
 10
243.7490853351766
 20
52.2928089242014
 30
0.0
 10
243.7723112918791
 20
52.34518888442694
 30
0.0
 10
243.8273099413575
 20
52.44564565969906
 30
0.0
 10
243.8593882083801
 20
52.4939245274705
 30
0.0
 10
243.9298029569152
 20
52.58162150305423
 30
0.0
 10
243.9683813790418
 20
52.6216106310302
 30
0.0
 10
244.052089642638
 20
52.69408931514579
 30
0.0
 10
244.0972183525799
 20
52.72642593952241
 30
0.0
 10
244.23649899477
 20
52.80962570687605
 30
0.0
 10
244.3372880663316
 20
52.84845442951215
 30
0.0
 10
244.6403603375643
 20
52.92387071696731
 30
0.0
 10
244.8488844280494
 20
52.92374057059656
 30
0.0
 10
245.0518228477398
 20
52.89748434127034
 30
0.0
  0
LWPOLYLINE
  5
204
330
1F
100
AcDbEntity
  8
0
  6
Continuous
 62
     7
370
    25
100
AcDbPolyline
 90
       19
 70
   128
 43
0.0
 10
240.7706509779
 20
33.5694694386
 10
240.5456203927
 20
33.8822396632
 10
240.1456514101
 20
34.5706923095
 10
239.8164397422
 20
35.3366781547
 10
239.5604799556
 20
36.1743925415
 10
239.3797114638
 20
37.0774859932
 10
239.2755053564
 20
38.0391155459
 10
239.24865057
 20
39.0519928017
 10
239.2993512531
 20
40.1084422469
 10
239.4272221573
 20
41.2004569564
 10
239.6312952221
 20
42.3197616162
 10
239.9100228681
 20
43.4578731229
 10
240.2612938013
 20
44.6061668847
 10
240.6824455265
 20
45.7559407943
 10
241.1702860784
 20
46.8984802464
 10
241.7211183881
 20
48.0251277181
 10
242.3307686006
 20
49.1273439829
 10
242.9946157089
 20
50.1967761697
 10
243.7076297503
 20
51.2253204976
  0
LINE
  5
205
330
1F
100
AcDbEntity
  8
0
  6
Continuous
 62
     7
370
    25
100
AcDbLine
 10
242.2322373359
 20
30.9813995535
 30
0.0
 11
242.3462249695
 21
31.0352702885
 31
0.0
  0
LWPOLYLINE
  5
206
330
1F
100
AcDbEntity
  8
0
  6
Continuous
 62
     7
370
    25
100
AcDbPolyline
 90
       43
 70
   128
 43
0.0
 10
242.2322373359
 20
30.9813995535
 10
241.5255025165
 20
31.2485872045
 10
240.8693208662
 20
31.6098770145
 10
240.2681507314
 20
32.0628137909
 10
239.7260764051
 20
32.6043203177
 10
239.2467804682
 20
33.2307178903
 10
238.8335200818
 20
33.9377506526
 10
238.4891019627
 20
34.7206148776
 10
238.2158672365
 20
35.5739924285
 10
238.0156710232
 20
36.4920842215
 10
237.8898738756
 20
37.4686533826
 10
237.8393319017
 20
38.4970657077
 10
237.8643868861
 20
39.5703332832
 10
237.9648682657
 20
40.6811640344
 10
238.1400944469
 20
41.8220117025
 10
238.3888747813
 20
42.9851250961
 10
238.7095187851
 20
44.1626018335
 10
239.0998479932
 20
45.3464424298
 10
239.5572104467
 20
46.5286029573
 10
240.0784991327
 20
47.7010528392
 10
240.6601717403
 20
48.8558257987
 10
241.2982770024
 20
49.9850765109
 10
241.9884797205
 20
51.0811326921
 10
242.7260897406
 20
52.1365475695
 10
243.5060968562
 20
53.1441512085
 10
244.3232007717
 20
54.0970974689
 10
245.1718506156
 20
54.9889119104
 10
246.046280172
 20
55.8135349452
 10
246.9405490402
 20
56.5653653709
 10
247.8485811594
 20
57.2392955383
 10
248.7642074081
 20
57.8307443086
 10
249.6812070513
 20
58.3356954294
 10
250.5933498877
 20
58.7507173022
 10
251.4944388075
 20
59.0729913538
 10
252.3783518987
 20
59.3003264571
 10
253.2390834001
 20
59.431179531
 10
254.0707862595
 20
59.4646603368
 10
254.8678091774
 20
59.4005429772
 10
255.6247376007
 20
59.2392614239
 10
256.3364279676
 20
58.9819117966
 10
256.9980465613
 20
58.6302436134
 10
257.60509684
 20
58.1866451498
 10
257.9244975118
 20
57.8943890624
  0
LWPOLYLINE
  5
207
330
1F
100
AcDbEntity
  8
0
  6
Continuous
 62
     7
370
    25
100
AcDbPolyline
 90
       25
 70
   128
 43
0.0
 10
235.5876047453
 20
40.0560497286
 10
235.6253716143
 20
41.1322794094
 10
235.7384134132
 20
42.244761658
 10
235.9259576695
 20
43.3858967659
 10
236.1867241725
 20
44.5478900137
 10
236.5189315593
 20
45.7228044271
 10
236.9203098272
 20
46.902613153
 10
237.3881174551
 20
48.0792566828
 10
237.9191591853
 20
49.2446987445
 10
238.5098064374
 20
50.3909772519
 10
239.1560256264
 20
51.5102617167
 10
239.8534025283
 20
52.5949064791
 10
240.5971725738
 20
53.6375031764
 10
241.3822547627
 20
54.6309284592
 10
242.2032872255
 20
55.5683972201
 10
243.0546611386
 20
56.4435057473
 10
243.9305602371
 20
57.2502750668
 10
244.8250018087
 20
57.9831943801
 10
245.731875795
 20
58.637258086
 10
246.6449871857
 20
59.207997858
 10
247.5580985764
 20
59.6915140572
 10
248.4649725627
 20
60.0845047688
 10
249.3594141343
 20
60.3842857123
 10
250.2353132328
 20
60.588807966
 10
250.9440358688
 20
60.6852052315
  0
ARC
  5
208
330
1F
100
AcDbEntity
  8
0
  6
Continuous
 62
     7
370
    25
100
AcDbCircle
 10
247.7454840898
 20
39.9470219176
 30
0.0
 40
12.15633683018199
100
AcDbArc
 50
180.8571673626
 51
191.8646115793
  0
SPLINE
  5
209
330
1F
100
AcDbEntity
  8
0
  6
Continuous
 62
     7
370
    25
100
AcDbSpline
210
0.0
220
0.0
230
1.0
 70
     8
 71
     3
 72
    10
 73
     6
 74
     0
 42
0.000000001
 43
0.00000001
 40
0.0
 40
0.0
 40
0.0
 40
0.0
 40
0.5
 40
0.5
 40
1.0
 40
1.0
 40
1.0
 40
1.0
 10
244.4343176745199
 20
49.76226744783727
 30
0.0
 10
244.3303531837357
 20
49.83560582090766
 30
0.0
 10
244.2405449073083
 20
49.92284157870106
 30
0.0
 10
244.0885024793096
 20
50.12377211989706
 30
0.0
 10
244.0265968909487
 20
50.23794288609403
 30
0.0
 10
243.9821471863582
 20
50.36096056925413
 30
0.0
  0
SPLINE
  5
20A
330
1F
100
AcDbEntity
  8
0
  6
Continuous
 62
     7
370
    25
100
AcDbSpline
210
0.0
220
0.0
230
1.0
 70
     8
 71
     3
 72
    14
 73
    10
 74
     0
 42
0.000000001
 43
0.00000001
 40
0.0
 40
0.0
 40
0.0
 40
0.0
 40
0.25
 40
0.25
 40
0.5
 40
0.5
 40
0.75
 40
0.75
 40
1.0
 40
1.0
 40
1.0
 40
1.0
 10
243.9821471863582
 20
50.36096056925413
 30
0.0
 10
243.9594263834931
 20
50.42384198891167
 30
0.0
 10
243.9375118731436
 20
50.49288841838509
 30
0.0
 10
243.8954008190808
 20
50.64054093500386
 30
0.0
 10
243.8758792651678
 20
50.71694072186217
 30
0.0
 10
243.837533022994
 20
50.87127301325776
 30
0.0
 10
243.8191734301102
 20
50.94822560958942
 30
0.0
 10
243.7771699855286
 20
51.09361577710541
 30
0.0
 10
243.7533936645155
 20
51.16020668329843
 30
0.0
 10
243.7249321604133
 20
51.20070229852977
 30
0.0
  0
LINE
  5
20B
330
1F
100
AcDbEntity
  8
0
  6
Continuous
 62
     7
370
    25
100
AcDbLine
 10
243.7249323487
 20
51.2007026903
 30
0.0
 11
243.7076297503
 21
51.2253204976
 31
0.0
  0
LINE
  5
20C
330
1F
100
AcDbEntity
  8
0
  6
Continuous
 62
     7
370
    25
100
AcDbLine
 10
245.0518228118
 20
52.8974840149
 30
0.0
 11
245.0691254102
 21
52.8728662075
 31
0.0
  0
SPLINE
  5
20D
330
1F
100
AcDbEntity
  8
0
  6
Continuous
 62
     7
370
    25
100
AcDbSpline
210
0.0
220
0.0
230
1.0
 70
     8
 71
     3
 72
    16
 73
    12
 74
     0
 42
0.000000001
 43
0.00000001
 40
0.0
 40
0.0
 40
0.0
 40
0.0
 40
0.1250000000000001
 40
0.1250000000000001
 40
0.2500000000000003
 40
0.2500000000000003
 40
0.5000000000000002
 40
0.5000000000000002
 40
0.7500000000000001
 40
0.7500000000000001
 40
1.0
 40
1.0
 40
1.0
 40
1.0
 10
245.0691254012645
 20
52.87286591114305
 30
0.0
 10
245.0832778076687
 20
52.85272957533026
 30
0.0
 10
245.1049362121423
 20
52.83593215465284
 30
0.0
 10
245.1573541411776
 20
52.80908663332134
 30
0.0
 10
245.187947020316
 20
52.79886114876037
 30
0.0
 10
245.2870278691735
 20
52.77436070832768
 30
0.0
 10
245.3609104067894
 20
52.76610078592618
 30
0.0
 10
245.5140099991807
 20
52.75491481922126
 30
0.0
 10
245.5920939738283
 20
52.75231814747007
 30
0.0
 10
245.7514376075705
 20
52.75028914663637
 30
0.0
 10
245.830090502402
 20
52.75092673529859
 30
0.0
 10
245.9058429701946
 20
52.75401983611363
 30
0.0
  0
SPLINE
  5
20E
330
1F
100
AcDbEntity
  8
0
  6
Continuous
 62
     7
370
    25
100
AcDbSpline
210
0.0
220
0.0
230
1.0
 70
     8
 71
     3
 72
    10
 73
     6
 74
     0
 42
0.000000001
 43
0.00000001
 40
0.0
 40
0.0
 40
0.0
 40
0.0
 40
0.5
 40
0.5
 40
1.0
 40
1.0
 40
1.0
 40
1.0
 10
245.9058429701946
 20
52.75401983611363
 30
0.0
 10
246.0540373100954
 20
52.76007086054739
 30
0.0
 10
246.196261775826
 20
52.74990863033426
 30
0.0
 10
246.4686531661667
 20
52.69885819439418
 30
0.0
 10
246.5987804960353
 20
52.65749709174963
 30
0.0
 10
246.7168558382206
 20
52.60172322379734
 30
0.0
  0
ARC
  5
20F
330
1F
100
AcDbEntity
  8
0
  6
Continuous
 62
     7
370
    25
100
AcDbCircle
 10
229.4051615712
 20
47.8832797585
 30
0.0
 40
4.168062494307557
100
AcDbArc
 50
211.8183542798
 51
236.1399747015
  0
SPLINE
  5
210
330
1F
100
AcDbEntity
  8
0
  6
Continuous
 62
     7
370
    25
100
AcDbSpline
210
0.0
220
0.0
230
1.0
 70
     8
 71
     3
 72
     8
 73
     4
 74
     0
 42
0.000000001
 43
0.00000001
 40
0.0
 40
0.0
 40
0.0
 40
0.0
 40
1.0
 40
1.0
 40
1.0
 40
1.0
 10
227.2939021690838
 20
44.76101880455868
 30
0.0
 10
226.8171288772596
 20
45.06911161249133
 30
0.0
 10
226.3403265004148
 20
45.37734105806408
 30
0.0
 10
225.8634940558891
 20
45.68570621428399
 30
0.0
  0
SPLINE
  5
211
330
1F
100
AcDbEntity
  8
0
  6
Continuous
 62
     7
370
    25
100
AcDbSpline
210
0.0
220
0.0
230
1.0
 70
     8
 71
     3
 72
    23
 73
    19
 74
     0
 42
0.000000001
 43
0.00000001
 40
0.0
 40
0.0
 40
0.0
 40
0.0
 40
0.0521036415683759
 40
0.1035646240941235
 40
0.1544751946756683
 40
0.2049306267495642
 40
0.2550287880866983
 40
0.3048696389163111
 40
0.354554670462894
 40
0.4041862979539558
 40
0.453867225213789
 40
0.5036997999428097
 40
0.590187023078111
 40
0.6742716378282376
 40
0.7565997087281883
 40
0.8378563983773627
 40
0.9187511781400207
 40
0.9999999999999999
 40
0.9999999999999999
 40
0.9999999999999999
 40
0.9999999999999999
 10
228.1744669726255
 20
44.58628810643858
 30
0.0
 10
228.1691980336856
 20
44.5763666442032
 30
0.0
 10
228.158725144186
 20
44.55664609347119
 30
0.0
 10
228.139478848424
 20
44.53207826451772
 30
0.0
 10
228.1176831080918
 20
44.51138968225761
 30
0.0
 10
228.0930318168872
 20
44.49485874696014
 30
0.0
 10
228.0655353023484
 20
44.48234124738381
 30
0.0
 10
228.035124248341
 20
44.47380662356163
 30
0.0
 10
228.0017538765681
 20
44.4691967509141
 30
0.0
 10
227.9653779882958
 20
44.4684620077785
 30
0.0
 10
227.9259496167059
 20
44.47155709033097
 30
0.0
 10
227.8731012251535
 20
44.48009286581232
 30
0.0
 10
227.8045622313801
 20
44.49768930466191
 30
0.0
 10
227.7168409994231
 20
44.52932591274952
 30
0.0
 10
227.6221100799282
 20
44.57150557008276
 30
0.0
 10
227.5200758325994
 20
44.62424200580905
 30
0.0
 10
227.4111619194133
 20
44.6865585617179
 30
0.0
 10
227.3330456084298
 20
44.73616261996732
 30
0.0
 10
227.2939021690838
 20
44.76101880455867
 30
0.0
  0
SPLINE
  5
212
330
1F
100
AcDbEntity
  8
0
  6
Continuous
 62
     7
370
    25
100
AcDbSpline
210
0.0
220
0.0
230
1.0
 70
     8
 71
     3
 72
     8
 73
     4
 74
     0
 42
0.000000001
 43
0.00000001
 40
0.0
 40
0.0
 40
0.0
 40
0.0
 40
1.0
 40
1.0
 40
1.0
 40
1.0
 10
229.6479699990833
 20
43.6389679698798
 30
0.0
 10
229.1566026870406
 20
43.95484258984815
 30
0.0
 10
228.665216487113
 20
44.27082861113848
 30
0.0
 10
228.1738107769677
 20
44.58692549198203
 30
0.0
  0
SPLINE
  5
213
330
1F
100
AcDbEntity
  8
0
  6
Continuous
 62
     7
370
    25
100
AcDbSpline
210
0.0
220
0.0
230
1.0
 70
     8
 71
     3
 72
    18
 73
    14
 74
     0
 42
0.000000001
 43
0.00000001
 40
0.0
 40
0.0
 40
0.0
 40
0.0
 40
0.0923824559461122
 40
0.1844689291660427
 40
0.2764953616062392
 40
0.3686975365619641
 40
0.4613092840130473
 40
0.5545607518559533
 40
0.6486768051632873
 40
0.7438756050210469
 40
0.8403674044324065
 40
0.9203921078135461
 40
1.0
 40
1.0
 40
1.0
 40
1.0
 10
230.4615341182789
 20
42.99466024533804
 30
0.0
 10
230.4379666041546
 20
43.00993421960435
 30
0.0
 10
230.3909070835011
 20
43.04043323208634
 30
0.0
 10
230.3185092955355
 20
43.09006580469897
 30
0.0
 10
230.2450270866382
 20
43.14239534736866
 30
0.0
 10
230.1703276388923
 20
43.19771303307709
 30
0.0
 10
230.0944668491242
 20
43.25595134819066
 30
0.0
 10
230.0174555683384
 20
43.31714425982766
 30
0.0
 10
229.9393234362591
 20
43.38130797640804
 30
0.0
 10
229.860097201618
 20
43.4484569362734
 30
0.0
 10
229.7848007172105
 20
43.51430784601836
 30
0.0
 10
229.7139734090904
 20
43.57783943282575
 30
0.0
 10
229.670069038284
 20
43.61850017783882
 30
0.0
 10
229.6481741714792
 20
43.63877746640706
 30
0.0
  0
LINE
  5
214
330
1F
100
AcDbEntity
  8
0
  6
Continuous
 62
     7
370
    25
100
AcDbLine
 10
231.1012406501
 20
42.5829064388
 30
0.0
 11
230.4615338078
 21
42.9946601065
 31
0.0
  0
SPLINE
  5
215
330
1F
100
AcDbEntity
  8
0
  6
Continuous
 62
     7
370
    25
100
AcDbSpline
210
0.0
220
0.0
230
1.0
 70
     8
 71
     3
 72
    25
 73
    21
 74
     0
 42
0.000000001
 43
0.00000001
 40
0.0
 40
0.0
 40
0.0
 40
0.0
 40
0.0280105225426455
 40
0.0559601148860774
 40
0.0839014045043129
 40
0.1118870776786379
 40
0.1399695827588941
 40
0.1682008401739877
 40
0.1966319670424218
 40
0.2253130233141493
 40
0.2542927850735863
 40
0.3799486436570518
 40
0.505785022166658
 40
0.6313085886329272
 40
0.7532068238012843
 40
0.8039473267959846
 40
0.8535894438560211
 40
0.902533972239985
 40
0.9511970353794947
 40
1.0
 40
1.0
 40
1.0
 40
1.0
 10
232.2036062432691
 20
43.29881242921511
 30
0.0
 10
232.2085543507997
 20
43.27118856810763
 30
0.0
 10
232.2184398024353
 20
43.21600093500231
 30
0.0
 10
232.2299754520385
 20
43.1368402276324
 30
0.0
 10
232.2390485738512
 20
43.06053688853402
 30
0.0
 10
232.2454173825642
 20
42.98734112756439
 30
0.0
 10
232.2491336213743
 20
42.91719365935101
 30
0.0
 10
232.2501702423571
 20
42.85011737283823
 30
0.0
 10
232.2485217671302
 20
42.78611346361179
 30
0.0
 10
232.2441756152613
 20
42.72518461034496
 30
0.0
 10
232.2293192906939
 20
42.60329648884883
 30
0.0
 10
232.1842310336277
 20
42.4483956171948
 30
0.0
 10
232.0708715131369
 20
42.3174524988513
 30
0.0
 10
231.9090472911439
 20
42.2615760980385
 30
0.0
 10
231.7350320720105
 20
42.28145015042305
 30
0.0
 10
231.5836711513229
 20
42.32876795277951
 30
0.0
 10
231.4732709186241
 20
42.37368337651517
 30
0.0
 10
231.3561114231753
 20
42.43105910780631
 30
0.0
 10
231.232545756242
 20
42.49973617225876
 30
0.0
 10
231.1450507061475
 20
42.5551564182116
 30
0.0
 10
231.1012403864662
 20
42.58290631594166
 30
0.0
  0
ARC
  5
216
330
1F
100
AcDbEntity
  8
0
  6
Continuous
 62
     7
370
    25
100
AcDbCircle
 10
243.3966274077
 20
45.0848627978
 30
0.0
 40
11.33462419218399
100
AcDbArc
 50
170.9338462887
 51
189.0661537113
  0
SPLINE
  5
217
330
1F
100
AcDbEntity
  8
0
  6
Continuous
 62
     7
370
    25
100
AcDbSpline
210
0.0
220
0.0
230
1.0
 70
     8
 71
     3
 72
    26
 73
    22
 74
     0
 42
0.000000001
 43
0.00000001
 40
0.0
 40
0.0
 40
0.0
 40
0.0
 40
0.0241259796963637
 40
0.048215991227299
 40
0.0723203915124064
 40
0.0964895678710793
 40
0.120773623196351
 40
0.1452220711242841
 40
0.1698835501657706
 40
0.1948055644472381
 40
0.2200342569517629
 40
0.2456142191611394
 40
0.3690971486901671
 40
0.4940698769485191
 40
0.6192566784762444
 40
0.7454656653603234
 40
0.7971495824713715
 40
0.8481710308405401
 40
0.8988013269235245
 40
0.9493179290492194
 40
1.0
 40
1.0
 40
1.0
 40
1.0
 10
231.1012403864662
 20
50.34701670730623
 30
0.0
 10
231.1229586158422
 20
50.33268518391115
 30
0.0
 10
231.1663626960183
 20
50.30404350324209
 30
0.0
 10
231.2296698133797
 20
50.25605120531329
 30
0.0
 10
231.2915313810977
 20
50.20445200742761
 30
0.0
 10
231.3518358962342
 20
50.14887721455437
 30
0.0
 10
231.410625748174
 20
50.08942197392722
 30
0.0
 10
231.4679062666038
 20
50.02605766508982
 30
0.0
 10
231.52369740593
 20
49.9587888871259
 30
0.0
 10
231.5780186533518
 20
49.88761477316577
 30
0.0
 10
231.6308976285608
 20
49.81252563341749
 30
0.0
 10
231.7476924532971
 20
49.63327118471563
 30
0.0
 10
231.9095620112236
 20
49.32296571287226
 30
0.0
 10
232.0727469187555
 20
48.85305192474057
 30
0.0
 10
232.1842583239289
 20
48.35408889083052
 30
0.0
 10
232.2313921620374
 20
47.94520521777353
 30
0.0
 10
232.2465111015699
 20
47.64093326118282
 30
0.0
 10
232.2484642405525
 20
47.4396840194875
 30
0.0
 10
232.2419862149133
 20
47.24402409976491
 30
0.0
 10
232.2278592922262
 20
47.05338781186744
 30
0.0
 10
232.2116994005412
 20
46.93180453812863
 30
0.0
 10
232.2036062432691
 20
46.87091350152974
 30
0.0
  0
LINE
  5
218
330
1F
100
AcDbEntity
  8
0
  6
Continuous
 62
     7
370
    25
100
AcDbLine
 10
230.4615338078
 20
50.7599915576
 30
0.0
 11
231.1012406501
 21
50.3470165866
 31
0.0
  0
SPLINE
  5
219
330
1F
100
AcDbEntity
  8
0
  6
Continuous
 62
     7
370
    25
100
AcDbSpline
210
0.0
220
0.0
230
1.0
 70
     8
 71
     3
 72
    14
 73
    10
 74
     0
 42
0.000000001
 43
0.00000001
 40
0.0
 40
0.0
 40
0.0
 40
0.0
 40
0.0789261963152472
 40
0.1582328720511064
 40
0.3308475394503796
 40
0.5000195457530386
 40
0.6670357883499396
 40
0.8332395193610692
 40
1.0
 40
1.0
 40
1.0
 40
1.0
 10
229.6475814024289
 20
50.9685739905892
 30
0.0
 10
229.6692982837641
 20
50.97017715444795
 30
0.0
 10
229.7128367369786
 20
50.97339121053553
 30
0.0
 10
229.8043618556256
 20
50.97421225060504
 30
0.0
 10
229.9212701890568
 20
50.96627626882355
 30
0.0
 10
230.0620905274376
 20
50.9400005999467
 30
0.0
 10
230.1993028352501
 20
50.89704300141435
 30
0.0
 10
230.3332335096686
 20
50.83868587660349
 30
0.0
 10
230.4187196016295
 20
50.78625233045231
 30
0.0
 10
230.4615341182789
 20
50.75999172029712
 30
0.0
  0
SPLINE
  5
21A
330
1F
100
AcDbEntity
  8
0
  6
Continuous
 62
     7
370
    25
100
AcDbSpline
210
0.0
220
0.0
230
1.0
 70
     8
 71
     3
 72
     8
 73
     4
 74
     0
 42
0.000000001
 43
0.00000001
 40
0.0
 40
0.0
 40
0.0
 40
0.0
 40
1.0
 40
1.0
 40
1.0
 40
1.0
 10
227.8452778194232
 20
52.13096540200353
 30
0.0
 10
228.4460360431201
 20
51.74369791884412
 30
0.0
 10
229.0467649059813
 20
51.3562305689203
 30
0.0
 10
229.6474655503289
 20
50.96856367633018
 30
0.0
  0
SPLINE
  5
21B
330
1F
100
AcDbEntity
  8
0
  6
Continuous
 62
     7
370
    25
100
AcDbSpline
210
0.0
220
0.0
230
1.0
 70
     8
 71
     3
 72
    13
 73
     9
 74
     0
 42
0.000000001
 43
0.00000001
 40
0.0
 40
0.0
 40
0.0
 40
0.0
 40
0.1667030582307959
 40
0.3329480818053031
 40
0.4990671507274871
 40
0.6653938523718408
 40
0.8322612710550125
 40
1.0
 40
1.0
 40
1.0
 40
1.0
 10
227.5034492843888
 20
52.43203018108932
 30
0.0
 10
227.5237504668288
 20
52.41846507441008
 30
0.0
 10
227.5642970520174
 20
52.39137213264724
 30
0.0
 10
227.623446689005
 20
52.34617755963952
 30
0.0
 10
227.6812182339075
 20
52.29776641115657
 30
0.0
 10
227.7374679713672
 20
52.2457312963861
 30
0.0
 10
227.7923951801133
 20
52.19043332917709
 30
0.0
 10
227.8276158897038
 20
52.15081607401672
 30
0.0
 10
227.8452721016448
 20
52.13095586501579
 30
0.0
  0
SPLINE
  5
21C
330
1F
100
AcDbEntity
  8
0
  6
Continuous
 62
     7
370
    25
100
AcDbSpline
210
0.0
220
0.0
230
1.0
 70
     8
 71
     3
 72
     8
 73
     4
 74
     0
 42
0.000000001
 43
0.00000001
 40
0.0
 40
0.0
 40
0.0
 40
0.0
 40
1.0
 40
1.0
 40
1.0
 40
1.0
 10
225.5594687685981
 20
53.68675203346878
 30
0.0
 10
226.2074988409984
 20
53.26875671758402
 30
0.0
 10
226.8554918181002
 20
52.85051595516639
 30
0.0
 10
227.5034492843888
 20
52.43203018108931
 30
0.0
  0
LWPOLYLINE
  5
21D
330
1F
100
AcDbEntity
  8
0
  6
Continuous
 62
     7
370
    25
100
AcDbPolyline
 90
       21
 70
   128
 43
0.0
 10
225.5594694189
 20
53.686752084
 10
225.9071269185
 20
54.7079321509
 10
226.3219776898
 20
55.7251541675
 10
226.8001185396
 20
56.7288492151
 10
227.3370535846
 20
57.7095777096
 10
227.9277311298
 20
58.6581145695
 10
228.5665963522
 20
59.5655381849
 10
229.2476393748
 20
60.4233129241
 10
229.9644548643
 20
61.2233714469
 10
230.7103008067
 20
61.9581889404
 10
231.4781613981
 20
62.6208521243
 10
232.2608146278
 20
63.2051294454
 10
233.0508988907
 20
63.7055255011
 10
233.8409827905
 20
64.1173327436
 10
234.6236348677
 20
64.4366778164
 10
235.3914936481
 20
64.6605574295
 10
236.1373369564
 20
64.786866206
 10
236.8541494824
 20
64.8144159156
 10
237.5351885537
 20
64.7429468275
 10
238.1740491664
 20
64.5731310314
 10
238.6092071454
 20
64.3884990491
  0
SPLINE
  5
21E
330
1F
100
AcDbEntity
  8
0
  6
Continuous
 62
     7
370
    25
100
AcDbSpline
210
0.0
220
0.0
230
1.0
 70
    11
 71
     3
 72
    39
 73
    35
 74
     0
 42
0.000000001
 43
0.00000001
 40
0.0
 40
0.0
 40
0.0
 40
0.0
 40
0.0310664058350965
 40
0.0621048158425859
 40
0.093136155179263
 40
0.1235538293503448
 40
0.1538561545806855
 40
0.1850588072748946
 40
0.2160250992945718
 40
0.2471867223797388
 40
0.2784462884305076
 40
0.3100516090231096
 40
0.3419834369141944
 40
0.3734259894013148
 40
0.4048604886786042
 40
0.4368740651833136
 40
0.4685120685925458
 40
0.4998055358633138
 40
0.5309508213230685
 40
0.5618649784438015
 40
0.5930416446594986
 40
0.6233742450133227
 40
0.6540913579075065
 40
0.6849496782718291
 40
0.71581606451649
 40
0.7471731804043279
 40
0.7784514311862922
 40
0.8101295911560753
 40
0.8419598919688862
 40
0.8735175891922173
 40
0.9050808037887091
 40
0.9370235169792366
 40
0.968744159003463
 40
1.0
 40
1.0
 40
1.0
 40
1.0
 10
238.7680542498035
 20
62.69194240881021
 30
0.0
 10
239.0309398700038
 20
62.66340792151919
 30
0.0
 10
239.5578284804865
 20
62.57746543319603
 30
0.0
 10
240.3218405495603
 20
62.37709031312664
 30
0.0
 10
241.028990737609
 20
62.1300882069076
 30
0.0
 10
241.6419018022033
 20
61.85210632875554
 30
0.0
 10
242.1390331278777
 20
61.55797263142563
 30
0.0
 10
242.49822484895
 20
61.2564661032336
 30
0.0
 10
242.7199441177108
 20
60.94946859833023
 30
0.0
 10
242.7851959950921
 20
60.63896333692838
 30
0.0
 10
242.698348783979
 20
60.31981885217914
 30
0.0
 10
242.4560031962186
 20
59.99049888660608
 30
0.0
 10
242.0760653334931
 20
59.65155816504829
 30
0.0
 10
241.5622593803328
 20
59.31371970063797
 30
0.0
 10
240.936368569422
 20
58.98782179933038
 30
0.0
 10
240.2228975829334
 20
58.69117490608932
 30
0.0
 10
239.4589951066692
 20
58.4350715976493
 30
0.0
 10
238.6732020237628
 20
58.24604402966087
 30
0.0
 10
237.8916645687222
 20
58.13786810760732
 30
0.0
 10
237.1355515839667
 20
58.13020422423848
 30
0.0
 10
236.4331869975771
 20
58.22812625962496
 30
0.0
 10
235.814166650533
 20
58.44977469312857
 30
0.0
 10
235.3051093855237
 20
58.78564278004053
 30
0.0
 10
234.9321657920889
 20
59.2254533462194
 30
0.0
 10
234.703563840844
 20
59.73652798674169
 30
0.0
 10
234.6347175341218
 20
60.28771307450233
 30
0.0
 10
234.7193339473456
 20
60.84538500281519
 30
0.0
 10
234.9624427372816
 20
61.37546514373467
 30
0.0
 10
235.3445725800984
 20
61.84798949284954
 30
0.0
 10
235.860708154511
 20
62.2341110037424
 30
0.0
 10
236.4876860150135
 20
62.51773519107455
 30
0.0
 10
237.2035934473797
 20
62.68747240980199
 30
0.0
 10
237.9720368395639
 20
62.74901124451482
 30
0.0
 10
238.5035656189373
 20
62.72065089225753
 30
0.0
 10
238.7680542498035
 20
62.6919424088102
 30
0.0
  0
LINE
  5
21F
330
1F
100
AcDbEntity
  8
0
  6
Continuous
 62
     7
370
    25
100
AcDbLine
 10
229.5435168368
 20
46.2528157914
 30
0.0
 11
229.8575618954
 21
46.0846715642
 31
0.0
  0
LINE
  5
220
330
1F
100
AcDbEntity
  8
0
  6
Continuous
 62
     7
370
    25
100
AcDbLine
 10
228.5565588168
 20
46.8225745287
 30
0.0
 11
229.5435168368
 21
46.2528157914
 31
0.0
  0
ARC
  5
221
330
1F
100
AcDbEntity
  8
0
  6
Continuous
 62
     7
370
    25
100
AcDbCircle
 10
230.7803846172
 20
50.3938701923
 30
0.0
 40
4.462224792522862
100
AcDbArc
 50
267.6359113829
 51
287.0347849962
  0
SPLINE
  5
222
330
1F
100
AcDbEntity
  8
0
  6
Continuous
 62
     7
370
    25
100
AcDbSpline
210
0.0
220
0.0
230
1.0
 70
     8
 71
     3
 72
    14
 73
    10
 74
     0
 42
0.000000001
 43
0.00000001
 40
0.0
 40
0.0
 40
0.0
 40
0.0
 40
0.1520927654964334
 40
0.2674857265629534
 40
0.3827932169674477
 40
0.4986859355030901
 40
0.6145509981003119
 40
0.825743267810779
 40
1.0
 40
1.0
 40
1.0
 40
1.0
 10
240.1065602081028
 20
59.68944669347447
 30
0.0
 10
239.9017652668105
 20
59.80182759370489
 30
0.0
 10
239.5415921613429
 20
59.99947201585616
 30
0.0
 10
238.941968993141
 20
60.26359488265827
 30
0.0
 10
238.3627963587584
 20
60.47671127719117
 30
0.0
 10
237.7519045432644
 20
60.64749942827707
 30
0.0
 10
236.9627688534882
 20
60.78687818349626
 30
0.0
 10
236.0634955285652
 20
60.81401209817321
 30
0.0
 10
235.4989001788973
 20
60.60601754185551
 30
0.0
 10
235.2436535959319
 20
60.51198577236479
 30
0.0
  0
SPLINE
  5
223
330
1F
100
AcDbEntity
  8
0
  6
Continuous
 62
     7
370
    25
100
AcDbSpline
210
0.0
220
0.0
230
1.0
 70
     8
 71
     3
 72
    10
 73
     6
 74
     0
 42
0.000000001
 43
0.00000001
 40
0.0
 40
0.0
 40
0.0
 40
0.0
 40
0.3798174073072795
 40
0.9603711649033085
 40
1.0
 40
1.0
 40
1.0
 40
1.0
 10
241.2464403299623
 20
59.16121976595598
 30
0.0
 10
241.1167877127139
 20
59.23154832779336
 30
0.0
 10
240.7889600969595
 20
59.40937462421447
 30
0.0
 10
240.3810315519493
 20
59.58242747461688
 30
0.0
 10
240.1243987705174
 20
59.68163290686519
 30
0.0
 10
240.1080002803056
 20
59.68797200080557
 30
0.0
  0
SPLINE
  5
224
330
1F
100
AcDbEntity
  8
0
  6
Continuous
 62
     7
370
    25
100
AcDbSpline
210
0.0
220
0.0
230
1.0
 70
     8
 71
     3
 72
    25
 73
    21
 74
     0
 42
0.000000001
 43
0.00000001
 40
0.0
 40
0.0
 40
0.0
 40
0.0
 40
0.0472534056539054
 40
0.089573634806592
 40
0.1269632476291658
 40
0.1594267920077607
 40
0.2428508088260168
 40
0.318367244167374
 40
0.3935858659017
 40
0.4205144100182734
 40
0.4483683846680365
 40
0.4771558167110822
 40
0.5451774052591232
 40
0.6363664555512807
 40
0.6968940234725829
 40
0.7498726561364739
 40
0.7959807223703401
 40
0.8771243100716252
 40
0.9543027934106351
 40
0.9999999999999999
 40
0.9999999999999999
 40
0.9999999999999999
 40
0.9999999999999999
 10
238.7131756828012
 20
62.11808450885343
 30
0.0
 10
238.5727715253452
 20
62.13340044909724
 30
0.0
 10
238.3066211695929
 20
62.16243337104508
 30
0.0
 10
237.9338426222056
 20
62.16970126062562
 30
0.0
 10
237.6112817307943
 20
62.15631379756766
 30
0.0
 10
237.1821651577558
 20
62.11035620514675
 30
0.0
 10
236.6745476576998
 20
61.99333554405051
 30
0.0
 10
236.1317380786803
 20
61.75075271558412
 30
0.0
 10
235.7913386335124
 20
61.4934009125468
 30
0.0
 10
235.5847125122691
 20
61.27859189862566
 30
0.0
 10
235.4667283539102
 20
61.13208888011994
 30
0.0
 10
235.3145579870707
 20
60.90233793420967
 30
0.0
 10
235.1478773255654
 20
60.52939531347351
 30
0.0
 10
235.0795157537441
 20
60.06683623140692
 30
0.0
 10
235.1298712156321
 20
59.63850353884623
 30
0.0
 10
235.2353003594832
 20
59.3185766441077
 30
0.0
 10
235.4174996860826
 20
58.97811112919671
 30
0.0
 10
235.7183781111896
 20
58.64216287222231
 30
0.0
 10
236.1080630057782
 20
58.3691035715396
 30
0.0
 10
236.4009819619735
 20
58.27514850060956
 30
0.0
 10
236.5099178960301
 20
58.24020681044357
 30
0.0
  0
SPLINE
  5
225
330
1F
100
AcDbEntity
  8
0
  6
Continuous
 62
     7
370
    25
100
AcDbSpline
210
0.0
220
0.0
230
1.0
 70
     8
 71
     3
 72
    22
 73
    18
 74
     0
 42
0.000000001
 43
0.00000001
 40
0.0
 40
0.0
 40
0.0
 40
0.0
 40
0.0348562931077237
 40
0.0924900623539491
 40
0.1569277788850789
 40
0.2282085360920659
 40
0.2894089077515647
 40
0.3420696922203051
 40
0.3861903498429299
 40
0.4217735408338573
 40
0.5236918810098915
 40
0.6145479843395962
 40
0.7067593487247504
 40
0.7559111409869668
 40
0.8071360726317764
 40
0.8951475619903156
 40
1.0
 40
1.0
 40
1.0
 40
1.0
 10
241.9769196301855
 20
59.60094042108371
 30
0.0
 10
242.0145555200611
 20
59.63611364349531
 30
0.0
 10
242.11442115381
 20
59.72944466765162
 30
0.0
 10
242.2332452025451
 20
59.88478990725194
 30
0.0
 10
242.3296562710634
 20
60.07351911205427
 30
0.0
 10
242.3609324262053
 20
60.25949799766676
 30
0.0
 10
242.3315271020318
 20
60.43130955900219
 30
0.0
 10
242.2630320788236
 20
60.57811614951299
 30
0.0
 10
242.1752194318092
 20
60.69932707152682
 30
0.0
 10
242.020928279855
 20
60.86491021871027
 30
0.0
 10
241.7531019618989
 20
61.07507446106582
 30
0.0
 10
241.3015318224325
 20
61.33051827152786
 30
0.0
 10
240.8539691857092
 20
61.53715496819885
 30
0.0
 10
240.4450754168253
 20
61.69565918484255
 30
0.0
 10
240.0229958170179
 20
61.83817593277735
 30
0.0
 10
239.4446831996388
 20
62.00143250163281
 30
0.0
 10
238.9708046057711
 20
62.0770009515546
 30
0.0
 10
238.7131756828012
 20
62.11808450885343
 30
0.0
  0
LINE
  5
226
330
1F
100
AcDbEntity
  8
0
  6
Continuous
 62
     7
370
    25
100
AcDbLine
 10
232.2036059609
 20
46.8709133207
 30
0.0
 11
232.1983678979
 21
47.1669967437
 31
0.0
  0
LINE
  5
227
330
1F
100
AcDbEntity
  8
0
  6
Continuous
 62
     7
370
    25
100
AcDbLine
 10
232.1983678979
 20
47.1669967437
 30
0.0
 11
232.2414643676
 21
47.8186034987
 31
0.0
  0
LINE
  5
228
330
1F
100
AcDbEntity
  8
0
  6
Continuous
 62
     7
370
    25
100
AcDbLine
 10
231.7188190799
 20
49.6476849611
 30
0.0
 11
231.4074045773
 21
49.9762815306
 31
0.0
  0
SPLINE
  5
229
330
1F
100
AcDbEntity
  8
0
  6
Continuous
 62
     7
370
    25
100
AcDbSpline
210
0.0
220
0.0
230
1.0
 70
     8
 71
     3
 72
    20
 73
    16
 74
     0
 42
0.000000001
 43
0.00000001
 40
0.0
 40
0.0
 40
0.0
 40
0.0
 40
0.0208840356930524
 40
0.1453814907232769
 40
0.207457877578707
 40
0.2714500362909257
 40
0.3931455631841341
 40
0.5137637705452784
 40
0.636753113055787
 40
0.699518587041102
 40
0.7644693177495692
 40
0.812314500977215
 40
0.8607030377512609
 40
0.9189076843114311
 40
1.0
 40
1.0
 40
1.0
 40
1.0
 10
235.1101871419411
 20
59.86893623226529
 30
0.0
 10
235.1076684773132
 20
59.92170517505233
 30
0.0
 10
235.0901351219974
 20
60.28904928799237
 30
0.0
 10
235.2517062619681
 20
60.76495767234282
 30
0.0
 10
235.592206312366
 20
61.25479230856061
 30
0.0
 10
236.0474901729847
 20
61.66428179660895
 30
0.0
 10
236.7967485844226
 20
62.01431644960108
 30
0.0
 10
237.8727383867041
 20
62.13391234833961
 30
0.0
 10
238.8262682986644
 20
61.97341680400767
 30
0.0
 10
239.5609858342528
 20
61.67602293356838
 30
0.0
 10
240.0337781341871
 20
61.37837038065481
 30
0.0
 10
240.3907504911792
 20
61.00745747150188
 30
0.0
 10
240.5855980825546
 20
60.57513645401262
 30
0.0
 10
240.6146273014143
 20
60.07219502753622
 30
0.0
 10
240.5522536660886
 20
59.73845003198226
 30
0.0
 10
240.5159425904929
 20
59.54415897134439
 30
0.0
  0
SPLINE
  5
22A
330
1F
100
AcDbEntity
  8
0
  6
Continuous
 62
     7
370
    25
100
AcDbSpline
210
0.0
220
0.0
230
1.0
 70
     8
 71
     3
 72
    10
 73
     6
 74
     0
 42
0.000000001
 43
0.00000001
 40
0.0
 40
0.0
 40
0.0
 40
0.0
 40
0.2949476912858702
 40
0.9798112982822474
 40
1.0
 40
1.0
 40
1.0
 40
1.0
 10
240.5186704464811
 20
59.54292041792201
 30
0.0
 10
240.6014954189584
 20
59.50415521712955
 30
0.0
 10
240.8766385925135
 20
59.37537786833583
 30
0.0
 10
241.1517752144624
 20
59.23406709956724
 30
0.0
 10
241.300408538896
 20
59.13996643701195
 30
0.0
 10
241.3046645548188
 20
59.13727192742125
 30
0.0
  0
ARC
  5
22B
330
1F
100
AcDbEntity
  8
0
  6
Continuous
 62
     7
370
    25
100
AcDbCircle
 10
244.5287790118
 20
45.3297014256
 30
0.0
 40
12.4665429179152
100
AcDbArc
 50
171.5249863735
 51
179.8211981812
  0
SPLINE
  5
22C
330
1F
100
AcDbEntity
  8
0
  6
Continuous
 62
     7
370
    25
100
AcDbSpline
210
0.0
220
0.0
230
1.0
 70
     8
 71
     3
 72
    14
 73
    10
 74
     0
 42
0.000000001
 43
0.00000001
 40
0.0
 40
0.0
 40
0.0
 40
0.0
 40
0.0003951393068452
 40
0.0003951393068452
 40
0.0003951393068452
 40
0.0008163352168664
 40
0.0008163352168664
 40
0.0008163352168664
 40
0.0012378579337219
 40
0.0012378579337219
 40
0.0012378579337219
 40
0.0012378579337219
 10
240.1105927836425
 20
59.68816774009014
 30
0.0
 10
240.1560545978737
 20
59.67373087746511
 30
0.0
 10
240.2009422024948
 20
59.6588650168995
 30
0.0
 10
240.2452258951699
 20
59.64358122929402
 30
0.0
 10
240.2924291874093
 20
59.62728978995634
 30
0.0
 10
240.3389550004684
 20
59.61052031187242
 30
0.0
 10
240.3847659097101
 20
59.59329150107714
 30
0.0
 10
240.4306122976992
 20
59.57604934724549
 30
0.0
 10
240.4757515332716
 20
59.558343641041
 30
0.0
 10
240.520145091314
 20
59.54020078435021
 30
0.0
  0
LINE
  5
22D
330
1F
100
AcDbEntity
  8
0
  6
Continuous
 62
     7
370
    25
100
AcDbLine
 10
231.4074045773
 20
49.9762815306
 30
0.0
 11
230.767467903
 21
50.3885131708
 31
0.0
  0
LINE
  5
22E
330
1F
100
AcDbEntity
  8
0
  6
Continuous
 62
     7
370
    25
100
AcDbLine
 10
230.4615338078
 20
50.7599915576
 30
0.0
 11
230.767467903
 21
50.3885131708
 31
0.0
  0
SPLINE
  5
22F
330
1F
100
AcDbEntity
  8
0
  6
Continuous
 62
     7
370
    25
100
AcDbSpline
210
0.0
220
0.0
230
1.0
 70
     8
 71
     3
 72
    13
 73
     9
 74
     0
 42
0.000000001
 43
0.00000001
 40
0.0
 40
0.0
 40
0.0
 40
0.0
 40
0.1618542298650875
 40
0.3254858841233149
 40
0.4910085196246548
 40
0.6585318472470939
 40
0.8281616954004768
 40
1.0
 40
1.0
 40
1.0
 40
1.0
 10
230.7674683146209
 20
50.38851317466023
 30
0.0
 10
230.7478909226059
 20
50.40107615169185
 30
0.0
 10
230.708521146764
 20
50.42634006780801
 30
0.0
 10
230.6469852069979
 20
50.45903376472088
 30
0.0
 10
230.5834285477499
 20
50.48797983842771
 30
0.0
 10
230.5178104450916
 20
50.51249220589471
 30
0.0
 10
230.4503831760323
 20
50.53292726925055
 30
0.0
 10
230.4044985758303
 20
50.54252392424178
 30
0.0
 10
230.381407895653
 20
50.54735328507742
 30
0.0
  0
SPLINE
  5
230
330
1F
100
AcDbEntity
  8
0
  6
Continuous
 62
     7
370
    25
100
AcDbSpline
210
0.0
220
0.0
230
1.0
 70
     8
 71
     3
 72
     9
 73
     5
 74
     0
 42
0.000000001
 43
0.00000001
 40
0.0
 40
0.0
 40
0.0
 40
0.0
 40
0.4907282259506041
 40
1.0
 40
1.0
 40
1.0
 40
1.0
 10
230.381402068361
 20
50.54732528804641
 30
0.0
 10
230.3573085458832
 20
50.55542082026454
 30
0.0
 10
230.308211059324
 20
50.5719177971858
 30
0.0
 10
230.2575103655038
 20
50.58671146620204
 30
0.0
 10
230.2316899332165
 20
50.59424546426664
 30
0.0
  0
SPLINE
  5
231
330
1F
100
AcDbEntity
  8
0
  6
Continuous
 62
     7
370
    25
100
AcDbSpline
210
0.0
220
0.0
230
1.0
 70
     8
 71
     3
 72
    14
 73
    10
 74
     0
 42
0.000000001
 43
0.00000001
 40
0.0
 40
0.0
 40
0.0
 40
0.0
 40
0.0310276388093398
 40
0.0622853718693698
 40
0.1248003166924349
 40
0.2498289731770658
 40
0.4998892603621822
 40
0.7606803621577949
 40
1.0
 40
1.0
 40
1.0
 40
1.0
 10
229.6477492439285
 20
50.96835320691253
 30
0.0
 10
229.6537414833333
 20
50.96452216325857
 30
0.0
 10
229.6657703992929
 20
50.9568316657605
 30
0.0
 10
229.6898302073425
 20
50.94139377625355
 30
0.0
 10
229.7320638799888
 20
50.91432332332266
 30
0.0
 10
229.8166264545011
 20
50.86011129852721
 30
0.0
 10
229.9399134239696
 20
50.78110811666246
 30
0.0
 10
230.0860451304233
 20
50.68750194198471
 30
0.0
 10
230.1844117469643
 20
50.62451886559225
 30
0.0
 10
230.2314834476509
 20
50.59437936680175
 30
0.0
  0
LINE
  5
232
330
1F
100
AcDbEntity
  8
0
  6
Continuous
 62
     7
370
    25
100
AcDbLine
 10
227.8452490887
 20
52.1309838839
 30
0.0
 11
228.1362164428
 21
51.9429053448
 31
0.0
  0
SPLINE
  5
233
330
1F
100
AcDbEntity
  8
0
  6
Continuous
 62
     7
370
    25
100
AcDbSpline
210
0.0
220
0.0
230
1.0
 70
     8
 71
     3
 72
     8
 73
     4
 74
     0
 42
0.000000001
 43
0.00000001
 40
0.0
 40
0.0
 40
0.0
 40
0.0
 40
1.0
 40
1.0
 40
1.0
 40
1.0
 10
228.1676047462234
 20
51.92268281460134
 30
0.0
 10
228.1571622403716
 20
51.92950823949874
 30
0.0
 10
228.1466963074818
 20
51.93625120628526
 30
0.0
 10
228.1362085426653
 20
51.94291029393824
 30
0.0
  0
SPLINE
  5
234
330
1F
100
AcDbEntity
  8
0
  6
Continuous
 62
     7
370
    25
100
AcDbSpline
210
0.0
220
0.0
230
1.0
 70
     8
 71
     3
 72
     8
 73
     4
 74
     0
 42
0.000000001
 43
0.00000001
 40
0.0
 40
0.0
 40
0.0
 40
0.0
 40
1.0
 40
1.0
 40
1.0
 40
1.0
 10
225.3816003673976
 20
53.80093846641167
 30
0.0
 10
225.4406001315683
 20
53.76219779949228
 30
0.0
 10
225.4998876950795
 20
53.72413582219257
 30
0.0
 10
225.5594687685685
 20
53.68675203373187
 30
0.0
  0
SPLINE
  5
235
330
1F
100
AcDbEntity
  8
0
  6
Continuous
 62
     7
370
    25
100
AcDbSpline
210
0.0
220
0.0
230
1.0
 70
     8
 71
     3
 72
     8
 73
     4
 74
     0
 42
0.000000001
 43
0.00000001
 40
0.0
 40
0.0
 40
0.0
 40
0.0
 40
1.0
 40
1.0
 40
1.0
 40
1.0
 10
225.3567506213
 20
54.16414864434874
 30
0.0
 10
225.3642248333906
 20
54.04319080363752
 30
0.0
 10
225.3725209372806
 20
53.92211896122749
 30
0.0
 10
225.3816003673995
 20
53.80093846641229
 30
0.0
  0
LWPOLYLINE
  5
236
330
1F
100
AcDbEntity
  8
0
  6
Continuous
 62
     7
370
    25
100
AcDbPolyline
 90
       17
 70
   128
 43
0.0
 10
225.3567509801
 20
54.1641479789
 10
225.7128319225
 20
55.1767625422
 10
226.136880585
 20
56.183550525
 10
226.6246651606
 20
57.1744609064
 10
227.1713140663
 20
58.1395995705
 10
227.7713699438
 20
59.0693304437
 10
228.418842343
 20
59.9543720682
 10
229.1072660031
 20
60.785887141
 10
229.8297681891
 20
61.5555734781
 10
230.5791352043
 20
62.2557472789
 10
231.3478852424
 20
62.8794178823
 10
232.1283430905
 20
63.4203582689
 10
232.9127166031
 20
63.8731674595
 10
233.6931744513
 20
64.2333245239
 10
234.4619244894
 20
64.4972338218
 10
235.2112915046
 20
64.6622607605
 10
235.3207134491
 20
64.6782556704
  0
SPLINE
  5
237
330
1F
100
AcDbEntity
  8
0
  6
Continuous
 62
     7
370
    25
100
AcDbSpline
210
0.0
220
0.0
230
1.0
 70
     8
 71
     3
 72
    10
 73
     6
 74
     0
 42
0.000000001
 43
0.00000001
 40
0.0
 40
0.0
 40
0.0
 40
0.0
 40
0.2409818396634726
 40
0.5031433556203718
 40
1.0
 40
1.0
 40
1.0
 40
1.0
 10
231.4074045773387
 20
43.27043990739491
 30
0.0
 10
231.4896504483417
 20
43.21876338547435
 30
0.0
 10
231.6613707056862
 20
43.11086853878297
 30
0.0
 10
231.9390920647131
 20
42.98114582831873
 30
0.0
 10
232.0600693117572
 20
43.00392376942372
 30
0.0
 10
232.1392615526726
 20
43.01883431040245
 30
0.0
  0
LINE
  5
238
330
1F
100
AcDbEntity
  8
0
  6
Continuous
 62
     7
370
    25
100
AcDbLine
 10
226.6242305212
 20
52.9995126403
 30
0.0
 11
225.8623518188
 21
53.490147048
 31
0.0
  0
LINE
  5
239
330
1F
100
AcDbEntity
  8
0
  6
Continuous
 62
     7
370
    25
100
AcDbLine
 10
225.8623518188
 20
53.490147048
 30
0.0
 11
225.3816004986
 21
53.8009384241
 31
0.0
  0
LINE
  5
23A
330
1F
100
AcDbEntity
  8
0
  6
Continuous
 62
     7
370
    25
100
AcDbLine
 10
230.4615338078
 20
42.9946601065
 30
0.0
 11
230.767467903
 21
43.6826715475
 31
0.0
  0
LINE
  5
23B
330
1F
100
AcDbEntity
  8
0
  6
Continuous
 62
     7
370
    25
100
AcDbLine
 10
230.767467903
 20
43.6826715475
 30
0.0
 11
231.4074045773
 21
43.2704399074
 31
0.0
  0
SPLINE
  5
23C
330
1F
100
AcDbEntity
  8
0
  6
Continuous
 62
     7
370
    25
100
AcDbSpline
210
0.0
220
0.0
230
1.0
 70
     8
 71
     3
 72
    13
 73
     9
 74
     0
 42
0.000000001
 43
0.00000001
 40
0.0
 40
0.0
 40
0.0
 40
0.0
 40
0.1722587823402174
 40
0.3421398270982735
 40
0.5097456257612809
 40
0.6751828993009421
 40
0.8385626189970466
 40
1.0
 40
1.0
 40
1.0
 40
1.0
 10
230.3813963838477
 20
43.96398125291353
 30
0.0
 10
230.4045479077984
 20
43.94586166198052
 30
0.0
 10
230.4505313885472
 20
43.90987259004648
 30
0.0
 10
230.5180724012581
 20
43.85887260663129
 30
0.0
 10
230.5837320159434
 20
43.81054792644063
 30
0.0
 10
230.6472560871937
 20
43.76511692053129
 30
0.0
 10
230.7086864659156
 20
43.72229135277107
 30
0.0
 10
230.7479526328893
 20
43.69582553559562
 30
0.0
 10
230.7674683146209
 20
43.68267175704851
 30
0.0
  0
SPLINE
  5
23D
330
1F
100
AcDbEntity
  8
0
  6
Continuous
 62
     7
370
    25
100
AcDbSpline
210
0.0
220
0.0
230
1.0
 70
     8
 71
     3
 72
    11
 73
     7
 74
     0
 42
0.000000001
 43
0.00000001
 40
0.0
 40
0.0
 40
0.0
 40
0.0
 40
0.239284509383631
 40
0.5001120454057238
 40
0.7515010915050501
 40
1.0
 40
1.0
 40
1.0
 40
1.0
 10
230.2320159723716
 20
44.0112952451264
 30
0.0
 10
230.1849467403803
 20
43.98298072242019
 30
0.0
 10
230.0865705857873
 20
43.92380249186206
 30
0.0
 10
229.9402733642019
 20
43.83061459140468
 30
0.0
 10
229.7924326205407
 20
43.73524267543231
 30
0.0
 10
229.6961461578245
 20
43.67070742016405
 30
0.0
 10
229.6482812699674
 20
43.63862635010382
 30
0.0
  0
SPLINE
  5
23E
330
1F
100
AcDbEntity
  8
0
  6
Continuous
 62
     7
370
    25
100
AcDbSpline
210
0.0
220
0.0
230
1.0
 70
     8
 71
     3
 72
     9
 73
     5
 74
     0
 42
0.000000001
 43
0.00000001
 40
0.0
 40
0.0
 40
0.0
 40
0.0
 40
0.509066935386983
 40
0.9999999999999999
 40
0.9999999999999999
 40
0.9999999999999999
 40
0.9999999999999999
 10
230.2325869759557
 20
44.01059629091463
 30
0.0
 10
230.2582355505797
 20
44.00310358275475
 30
0.0
 10
230.3086190519252
 20
43.98838507004249
 30
0.0
 10
230.3574265634205
 20
43.97199271219032
 30
0.0
 10
230.381387784615
 20
43.96394516171373
 30
0.0
  0
LINE
  5
23F
330
1F
100
AcDbEntity
  8
0
  6
Continuous
 62
     7
370
    25
100
AcDbLine
 10
232.0625055561
 20
44.9344748582
 30
0.0
 11
230.3813895997
 21
43.963987274
 31
0.0
  0
LINE
  5
240
330
1F
100
AcDbEntity
  8
0
  6
Continuous
 62
     7
370
    25
100
AcDbLine
 10
228.3749019485
 20
45.0878085726
 30
0.0
 11
228.1746062949
 21
44.5866511584
 31
0.0
  0
SPLINE
  5
241
330
1F
100
AcDbEntity
  8
0
  6
Continuous
 62
     7
370
    25
100
AcDbSpline
210
0.0
220
0.0
230
1.0
 70
     8
 71
     3
 72
     8
 73
     4
 74
     0
 42
0.000000001
 43
0.00000001
 40
0.0
 40
0.0
 40
0.0
 40
0.0
 40
1.0
 40
1.0
 40
1.0
 40
1.0
 10
228.3744587778155
 20
45.08859232477598
 30
0.0
 10
228.4006341123848
 20
45.11075970175425
 30
0.0
 10
228.4264551523503
 20
45.13339184284587
 30
0.0
 10
228.4519127060586
 20
45.15647656293715
 30
0.0
  0
LINE
  5
242
330
1F
100
AcDbEntity
  8
0
  6
Continuous
 62
     7
370
    25
100
AcDbLine
 10
228.4519128018
 20
45.1564764473
 30
0.0
 11
230.2322055611
 21
44.0107055622
 31
0.0
  0
LINE
  5
243
330
1F
100
AcDbEntity
  8
0
  6
Continuous
 62
     7
370
    25
100
AcDbLine
 10
232.0622967975
 20
45.0325247934
 30
0.0
 11
231.9742974705
 21
45.1400158617
 31
0.0
  0
LINE
  5
244
330
1F
100
AcDbEntity
  8
0
  6
Continuous
 62
     7
370
    25
100
AcDbLine
 10
230.1458894739
 20
46.1343883646
 30
0.0
 11
228.4519128018
 21
45.1564764473
 31
0.0
  0
LINE
  5
245
330
1F
100
AcDbEntity
  8
0
  6
Continuous
 62
     7
370
    25
100
AcDbLine
 10
230.2885835564
 20
46.1130962029
 30
0.0
 11
230.1463096253
 21
46.1339009872
 31
0.0
  0
LINE
  5
246
330
1F
100
AcDbEntity
  8
0
  6
Continuous
 62
     7
370
    25
100
AcDbLine
 10
231.9743712275
 20
45.1399116952
 30
0.0
 11
230.2885835564
 21
46.1130962029
 31
0.0
  0
LINE
  5
247
330
1F
100
AcDbEntity
  8
0
  6
Continuous
 62
     7
370
    25
100
AcDbLine
 10
232.0622967975
 20
45.0891476124
 30
0.0
 11
231.9743244708
 21
45.1399386686
 31
0.0
  0
SPLINE
  5
248
330
1F
100
AcDbEntity
  8
0
  6
Continuous
 62
     7
370
    25
100
AcDbSpline
210
0.0
220
0.0
230
1.0
 70
     8
 71
     3
 72
    19
 73
    15
 74
     0
 42
0.000000001
 43
0.00000001
 40
0.0
 40
0.0
 40
0.0
 40
0.0
 40
0.0637853009172641
 40
0.1289628367748405
 40
0.1955871994416645
 40
0.2637095015536399
 40
0.333377557949238
 40
0.4046360709686026
 40
0.4775268158973639
 40
0.5520888236427515
 40
0.6283585584336152
 40
0.7063700889344581
 40
0.8377041806176546
 40
0.9999999999999999
 40
0.9999999999999999
 40
0.9999999999999999
 40
0.9999999999999999
 10
227.5903896718542
 20
45.25708041212785
 30
0.0
 10
227.6110790408608
 20
45.24372127211663
 30
0.0
 10
227.6529093635182
 20
45.21671140357411
 30
0.0
 10
227.7134003371164
 20
45.17918943804606
 30
0.0
 10
227.7728845352981
 20
45.14366969695474
 30
0.0
 10
227.8309656947711
 20
45.11068956803832
 30
0.0
 10
227.8874978118587
 20
45.08048313176863
 30
0.0
 10
227.9422428666119
 20
45.05336969180809
 30
0.0
 10
227.9949652442026
 20
45.02963807405924
 30
0.0
 10
228.0454068771311
 20
45.0095978206156
 30
0.0
 10
228.0932897955935
 20
44.99347795907815
 30
0.0
 10
228.1482539499686
 20
44.97919998939341
 30
0.0
 10
228.2110852639298
 20
44.9690614321429
 30
0.0
 10
228.2495927795898
 20
44.97553568345869
 30
0.0
 10
228.2708767447817
 20
44.97911414696867
 30
0.0
  0
LINE
  5
249
330
1F
100
AcDbEntity
  8
0
  6
Continuous
 62
     7
370
    25
100
AcDbLine
 10
228.2955124324
 20
45.0051846012
 30
0.0
 11
228.3631871002
 21
45.076798422
 31
0.0
  0
SPLINE
  5
24A
330
1F
100
AcDbEntity
  8
0
  6
Continuous
 62
     7
370
    25
100
AcDbSpline
210
0.0
220
0.0
230
1.0
 70
     8
 71
     3
 72
     9
 73
     5
 74
     0
 42
0.000000001
 43
0.00000001
 40
0.0
 40
0.0
 40
0.0
 40
0.0
 40
0.5232016984460688
 40
1.0
 40
1.0
 40
1.0
 40
1.0
 10
229.9797116941686
 20
46.03845614386073
 30
0.0
 10
229.91068753152
 20
46.06349830897723
 30
0.0
 10
229.778761043411
 20
46.11136161903696
 30
0.0
 10
229.5373236305924
 20
46.24895974972362
 30
0.0
 10
229.4222066822289
 20
46.31456630473202
 30
0.0
  0
LINE
  5
24B
330
1F
100
AcDbEntity
  8
0
  6
Continuous
 62
     7
370
    25
100
AcDbLine
 10
225.6927054852
 20
46.0804558674
 30
0.0
 11
226.1441765996
 21
46.1927198402
 31
0.0
  0
LINE
  5
24C
330
1F
100
AcDbEntity
  8
0
  6
Continuous
 62
     7
370
    25
100
AcDbLine
 10
226.1441765996
 20
46.1927198402
 30
0.0
 11
227.5903890714
 21
45.2570805072
 31
0.0
  0
SPLINE
  5
24D
330
1F
100
AcDbEntity
  8
0
  6
Continuous
 62
     7
370
    25
100
AcDbSpline
210
0.0
220
0.0
230
1.0
 70
     8
 71
     3
 72
     8
 73
     4
 74
     0
 42
0.000000001
 43
0.00000001
 40
0.0
 40
0.0
 40
0.0
 40
0.0
 40
1.0
 40
1.0
 40
1.0
 40
1.0
 10
225.863494055871
 20
45.68570621434453
 30
0.0
 10
225.8063687869476
 20
45.81749239813846
 30
0.0
 10
225.7494402952308
 20
45.94907661979755
 30
0.0
 10
225.6927061772821
 20
46.08045568669721
 30
0.0
  0
LINE
  5
24E
330
1F
100
AcDbEntity
  8
0
  6
Continuous
 62
     7
370
    25
100
AcDbLine
 10
227.4818780586
 20
46.964958455
 30
0.0
 11
226.1441765996
 21
46.1927198402
 31
0.0
  0
LINE
  5
24F
330
1F
100
AcDbEntity
  8
0
  6
Continuous
 62
     7
370
    25
100
AcDbLine
 10
228.4649065435
 20
46.8672050521
 30
0.0
 11
227.4818780586
 21
46.964958455
 31
0.0
  0
LINE
  5
250
330
1F
100
AcDbEntity
  8
0
  6
Continuous
 62
     7
370
    25
100
AcDbLine
 10
229.4222066822
 20
46.3145663047
 30
0.0
 11
228.4649055557
 21
46.8672044819
 31
0.0
  0
SPLINE
  5
251
330
1F
100
AcDbEntity
  8
0
  6
Continuous
 62
     7
370
    25
100
AcDbSpline
210
0.0
220
0.0
230
1.0
 70
     8
 71
     3
 72
     8
 73
     4
 74
     0
 42
0.000000001
 43
0.00000001
 40
0.0
 40
0.0
 40
0.0
 40
0.0
 40
1.0
 40
1.0
 40
1.0
 40
1.0
 10
225.6927061772821
 20
46.08045568669721
 30
0.0
 10
225.689568839532
 20
46.11567199356973
 30
0.0
 10
225.687576435634
 20
46.15131624979742
 30
0.0
 10
225.686795038262
 20
46.1874131517923
 30
0.0
  0
LINE
  5
252
330
1F
100
AcDbEntity
  8
0
  6
Continuous
 62
     7
370
    25
100
AcDbLine
 10
226.4978815133
 20
46.6556428665
 30
0.0
 11
225.6867957068
 21
46.1874129969
 31
0.0
  0
SPLINE
  5
253
330
1F
100
AcDbEntity
  8
0
  6
Continuous
 62
     7
370
    25
100
AcDbSpline
210
0.0
220
0.0
230
1.0
 70
     8
 71
     3
 72
     8
 73
     4
 74
     0
 42
0.000000001
 43
0.00000001
 40
0.0000004089325119
 40
0.0000004089325119
 40
0.0000004089325119
 40
0.0000004089325119
 40
0.0015399868451459
 40
0.0015399868451459
 40
0.0015399868451459
 40
0.0015399868451459
 10
226.4978805707507
 20
46.65564286314841
 30
0.0
 10
226.736357138774
 20
46.75001924896477
 30
0.0
 10
226.9748040964427
 20
46.84444786089498
 30
0.0
 10
227.213212835293
 20
46.93894124385744
 30
0.0
  0
LINE
  5
254
330
1F
100
AcDbEntity
  8
0
  6
Continuous
 62
     7
370
    25
100
AcDbLine
 10
227.2132123142
 20
46.938941391
 30
0.0
 11
227.2376087541
 21
46.9439354174
 31
0.0
  0
LINE
  5
255
330
1F
100
AcDbEntity
  8
0
  6
Continuous
 62
     7
370
    25
100
AcDbLine
 10
227.4818780586
 20
46.964958455
 30
0.0
 11
227.2376094126
 21
46.9439354173
 31
0.0
  0
SPLINE
  5
256
330
1F
100
AcDbEntity
  8
0
  6
Continuous
 62
     7
370
    25
100
AcDbSpline
210
0.0
220
0.0
230
1.0
 70
     8
 71
     3
 72
     8
 73
     4
 74
     0
 42
0.000000001
 43
0.00000001
 40
0.0
 40
0.0
 40
0.0
 40
0.0
 40
1.0
 40
1.0
 40
1.0
 40
1.0
 10
228.464904749801
 20
46.8672052364444
 30
0.0
 10
228.4955127839243
 20
46.85226522863829
 30
0.0
 10
228.5260642848962
 20
46.83738827124491
 30
0.0
 10
228.5565582230107
 20
46.82257470756399
 30
0.0
  0
ARC
  5
257
330
1F
100
AcDbEntity
  8
0
  6
Continuous
 62
     7
370
    25
100
AcDbCircle
 10
229.3204008859
 20
52.367885608
 30
0.0
 40
6.6256405940158
100
AcDbArc
 50
283.7328304029
 51
294.8489571919
  0
LINE
  5
258
330
1F
100
AcDbEntity
  8
0
  6
Continuous
 62
     7
370
    18
100
AcDbLine
 10
255.5455395564
 20
39.1314185801
 30
0.0
 11
255.4938662031
 21
39.3143200774
 31
0.0
  0
LINE
  5
259
330
1F
100
AcDbEntity
  8
0
  6
Continuous
 62
     7
370
    18
100
AcDbLine
 10
255.2027519935
 20
36.6038496627
 30
0.0
 11
254.5421574365
 21
36.4901053348
 31
0.0
  0
LINE
  5
25A
330
1F
100
AcDbEntity
  8
0
  6
Continuous
 62
     7
370
    18
100
AcDbLine
 10
256.1275453875
 20
38.7882522378
 30
0.0
 11
256.1251206266
 21
38.7968331483
 31
0.0
  0
LINE
  5
25B
330
1F
100
AcDbEntity
  8
0
  6
Continuous
 62
     7
370
    18
100
AcDbLine
 10
254.5421574365
 20
36.4901053348
 30
0.0
 11
254.3579361958
 21
36.3240865753
 31
0.0
  0
LINE
  5
25C
330
1F
100
AcDbEntity
  8
0
  6
Continuous
 62
     7
370
    18
100
AcDbLine
 10
255.3471780481
 20
36.7340053043
 30
0.0
 11
255.2027519935
 21
36.6038496627
 31
0.0
  0
LINE
  5
25D
330
1F
100
AcDbEntity
  8
0
  6
Continuous
 62
     7
370
    18
100
AcDbLine
 10
261.3942554194
 20
46.5129650035
 30
0.0
 11
261.2573943948
 21
46.5883528361
 31
0.0
  0
LINE
  5
25E
330
1F
100
AcDbEntity
  8
0
  6
Continuous
 62
     7
370
    18
100
AcDbLine
 10
263.3289055783
 20
46.8597038835
 30
0.0
 11
263.4424174134
 21
47.7229439952
 31
0.0
  0
LINE
  5
25F
330
1F
100
AcDbEntity
  8
0
  6
Continuous
 62
     7
370
    18
100
AcDbLine
 10
263.4424174134
 20
47.7229439952
 30
0.0
 11
263.5761210464
 21
47.9581718994
 31
0.0
  0
LINE
  5
260
330
1F
100
AcDbEntity
  8
0
  6
Continuous
 62
     7
370
    18
100
AcDbLine
 10
263.2240843905
 20
46.6752904414
 30
0.0
 11
263.3289055783
 21
46.8597038835
 31
0.0
  0
LINE
  5
261
330
1F
100
AcDbEntity
  8
0
  6
Continuous
 62
     7
370
    18
100
AcDbLine
 10
264.211865056
 20
30.2554685433
 30
0.0
 11
263.7742740842
 21
30.5080844342
 31
0.0
  0
LINE
  5
262
330
1F
100
AcDbEntity
  8
0
  6
Continuous
 62
     7
370
    18
100
AcDbLine
 10
255.9778516354
 20
27.7419545712
 30
0.0
 11
255.6662823749
 21
27.2529658632
 31
0.0
  0
LINE
  5
263
330
1F
100
AcDbEntity
  8
0
  6
Continuous
 62
     7
370
    18
100
AcDbLine
 10
255.6662823749
 20
27.2529658632
 30
0.0
 11
255.618922488
 21
27.0115590809
 31
0.0
  0
ARC
  5
264
330
1F
100
AcDbEntity
  8
0
  6
Continuous
 62
     7
370
    18
100
AcDbCircle
 10
259.0928479683
 20
37.9143378318
 30
0.0
 40
9.271471901623244
100
AcDbArc
 50
301.6284359839
 51
311.7334138106
  0
LWPOLYLINE
  5
265
330
1F
100
AcDbEntity
  8
0
  6
Continuous
 62
     7
370
    18
100
AcDbPolyline
 90
        9
 70
   128
 43
0.0
 10
247.3520940828
 20
37.8670556808
 10
247.3895711922
 20
37.0491153888
 10
247.5016067352
 20
36.2831164616
 10
247.6870120388
 20
35.5771779026
 10
247.943822665
 20
34.9387838016
 10
248.269315532
 20
34.3747004425
 10
248.6600411839
 20
33.8909078589
 10
249.1118570463
 20
33.4925336704
 10
249.4235682232
 20
33.2886077804
  0
LWPOLYLINE
  5
266
330
1F
100
AcDbEntity
  8
0
  6
Continuous
 62
     7
370
    18
100
AcDbPolyline
 90
       24
 70
   128
 43
0.0
 10
259.42275525
 20
50.6095845169
 10
258.9528396211
 20
50.8340807538
 10
258.370541067
 20
51.0025210785
 10
257.7463992534
 20
51.0749926312
 10
257.0870302477
 20
51.0507280544
 10
256.3994236766
 20
50.9299836337
 10
255.6908681463
 20
50.7140392096
 10
254.9688746448
 20
50.4051843776
 10
254.2410964883
 20
50.0066928065
 10
253.5152482377
 20
49.5227891181
 10
252.7990242035
 20
48.9586026017
 10
252.1000162514
 20
48.3201129204
 10
251.4256344066
 20
47.6140890669
 10
250.7830270049
 20
46.8480151314
 10
250.1790057017
 20
46.0300105074
 10
249.6199738543
 20
45.1687482438
 10
249.1118570463
 20
44.2733567611
 10
248.6600411839
 20
43.3533270817
 10
248.269315532
 20
42.4184122628
 10
247.943822665
 20
41.4785228387
 10
247.6870120388
 20
40.5436215001
 10
247.5016067352
 20
39.623618534
 10
247.3895711922
 20
38.7282661222
 10
247.3520940828
 20
37.8670556808
  0
LWPOLYLINE
  5
267
330
1F
100
AcDbEntity
  8
0
  6
Continuous
 62
     7
370
    18
100
AcDbPolyline
 90
       31
 70
   128
 43
0.0
 10
244.5236664944
 20
37.8670556808
 10
244.5609513088
 20
38.8061248976
 10
244.6724771383
 20
39.7799891621
 10
244.8572640687
 20
40.7800902216
 10
245.1136881293
 20
41.7976390838
 10
245.4394964391
 20
42.8236934866
 10
245.8318249883
 20
43.8492367003
 10
246.2872262963
 20
44.8652560422
 10
246.8016990466
 20
45.8628229126
 10
247.3707203556
 20
46.833169979
 10
247.989291212
 20
47.76777026
 10
248.6519750015
 20
48.658410696
 10
249.3529478858
 20
49.4972638186
 10
250.0860498395
 20
50.2769582787
 10
250.8448383217
 20
50.9906417693
 10
251.6226450755
 20
51.6320427133
 10
252.4126346968
 20
52.1955238465
 10
253.2078647684
 20
52.6761336623
 10
254.0013467748
 20
53.0696484214
 10
254.7861075116
 20
53.3726098838
 10
255.5552504537
 20
53.5823561735
 10
256.3020165475
 20
53.6970431844
 10
257.0198429028
 20
53.7156640139
 10
257.7024213219
 20
53.6380538534
 10
258.343753452
 20
53.4648952108
 10
258.9382034694
 20
53.1977110615
 10
259.4805464819
 20
52.8388471635
 10
259.9660169321
 20
52.3914585541
 10
260.3903481102
 20
51.8594768465
 10
260.7498119957
 20
51.247576956
 10
260.911582137
 20
50.8958674615
  0
LWPOLYLINE
  5
268
330
1F
100
AcDbEntity
  8
0
  6
Continuous
 62
     7
370
    18
100
AcDbPolyline
 90
       14
 70
   128
 43
0.0
 10
249.9201878319
 20
31.8561513793
 10
249.3529478858
 20
31.8126171537
 10
248.6519750015
 20
31.8421442112
 10
247.989291212
 20
31.9676662298
 10
247.3707203556
 20
32.1880798019
 10
246.8016990466
 20
32.5014488491
 10
246.2872262963
 20
32.9050181256
 10
245.8318249883
 20
33.3952423091
 10
245.4394964391
 20
33.9678126217
 10
245.1136881293
 20
34.617696757
 10
244.8572640687
 20
35.3391847007
 10
244.6724771383
 20
36.1259353118
 10
244.5609513088
 20
36.9710345943
 10
244.5236664944
 20
37.8670556808
  0
ARC
  5
269
330
1F
100
AcDbEntity
  8
0
  6
Continuous
 62
     7
370
    18
100
AcDbCircle
 10
256.0099265272
 20
41.0330760092
 30
0.0
 40
12.62059006463776
100
AcDbArc
 50
307.3616088156
 51
352.6437691973
  0
LWPOLYLINE
  5
26A
330
1F
100
AcDbEntity
  8
0
  6
Continuous
 62
     7
370
    18
100
AcDbPolyline
 90
       30
 70
   128
 43
0.0
 10
235.5876048636
 20
39.9744089878
 10
235.6256134184
 20
41.0575211202
 10
235.7393776407
 20
42.1771171462
 10
235.9281217651
 20
43.3255501138
 10
236.1905557028
 20
44.4949742584
 10
236.5248868957
 20
45.6774014656
 10
236.92883217
 20
46.8647548833
 10
237.3996315656
 20
48.0489240534
 10
237.9340687513
 20
49.2218183328
 10
238.5284940732
 20
50.3754269677
 10
239.178845629
 20
51.5018689017
 10
239.8806815358
 20
52.5934505684
 10
240.6292075898
 20
53.6427137977
 10
241.4193111805
 20
54.6424926569
 10
242.2455938893
 20
55.5859566048
 10
243.10241199
 20
56.4666604873
 10
243.9839125034
 20
57.2785889268
 10
244.8840740279
 20
58.0161958621
 10
245.7967472395
 20
58.6744416173
 10
246.715697862
 20
59.2488313959
 10
247.6346484845
 20
59.735439422
 10
248.5473216961
 20
60.1309437273
 10
249.4474832207
 20
60.432641166
 10
250.3289837341
 20
60.6384715557
 10
251.1858018347
 20
60.7470287951
 10
252.0120845436
 20
60.7575705564
 10
252.8021881343
 20
60.6700258855
 10
253.5507141882
 20
60.4849924425
 10
254.2525500951
 20
60.2037332656
 10
254.5838085193
 20
60.0279645317
  0
LWPOLYLINE
  5
26B
330
1F
100
AcDbEntity
  8
0
  6
Continuous
 62
     7
370
    18
100
AcDbPolyline
 90
       11
 70
   128
 43
0.0
 10
238.8475872048
 20
32.7690761379
 10
238.5284940732
 20
32.9688694146
 10
237.9340687513
 20
33.4361691812
 10
237.3996315656
 20
33.9920154204
 10
236.92883217
 20
34.6326111785
 10
236.5248868957
 20
35.3535793098
 10
236.1905557028
 20
36.1499959381
 10
235.9281217651
 20
37.0164203077
 10
235.7393776407
 20
37.9469339479
 10
235.6256134184
 20
38.9351805987
 10
235.5876048636
 20
39.9744089878
  0
LWPOLYLINE
  5
26C
330
1F
100
AcDbEntity
  8
0
  6
Continuous
 62
     7
370
    18
100
AcDbPolyline
 90
       15
 70
   128
 43
0.0
 10
240.2116863021
 20
36.6387723601
 10
240.2044456052
 20
36.6735976771
 10
240.0618614996
 20
37.5775236748
 10
239.9948605228
 20
38.5357347828
 10
240.0039609494
 20
39.5408209069
 10
240.089092315
 20
40.5850096478
 10
240.2495967338
 20
41.660226187
 10
240.4842328493
 20
42.7581559299
 10
240.7911863713
 20
43.8703082885
 10
241.1680825885
 20
44.9880822699
 10
241.6120080999
 20
46.1028351067
 10
242.1195292544
 20
47.2059453729
 10
242.6867217853
 20
48.288882564
 10
243.3091984691
 20
49.3432717338
 10
243.9821473211
 20
50.3609607913
  0
LWPOLYLINE
  5
26D
330
1F
100
AcDbEntity
  8
0
  6
Continuous
 62
     7
370
    18
100
AcDbPolyline
 90
       19
 70
   128
 43
0.0
 10
240.723482069
 20
33.7088446591
 10
240.5747017181
 20
33.9206174966
 10
240.1763632918
 20
34.6067129351
 10
239.8485049328
 20
35.370020303
 10
239.5936093541
 20
36.2047575679
 10
239.4136074081
 20
37.104603581
 10
239.309862282
 20
38.0627428509
 10
239.2831589607
 20
39.071918373
 10
239.3337009346
 20
40.1244876425
 10
239.4611042722
 20
41.2124782164
 10
239.6644048644
 20
42.3276505933
 10
239.9420623755
 20
43.4615579813
 10
240.2919747314
 20
44.6056138109
 10
240.7114906321
 20
45.7511520957
 10
241.1974339172
 20
46.8894973928
 10
241.7461233231
 20
48.0120286799
 10
242.3534040924
 20
49.1102436113
 10
243.0146762917
 20
50.1758250557
 10
243.7249323487
 20
51.2007026903
  0
ARC
  5
26E
330
1F
100
AcDbEntity
  8
0
  6
Continuous
 62
     7
370
    18
100
AcDbCircle
 10
256.9528448536
 20
43.2085669716
 30
0.0
 40
14.59972304561279
100
AcDbArc
 50
110.1861656722
 51
139.1704809678
  0
LWPOLYLINE
  5
26F
330
1F
100
AcDbEntity
  8
0
  6
Continuous
 62
     7
370
    18
100
AcDbPolyline
 90
       13
 70
   128
 43
0.0
 10
245.0691254102
 20
52.8728662075
 10
245.8970350533
 20
53.7587410985
 10
246.7528651725
 20
54.5748603863
 10
247.6299508036
 20
55.3148677017
 10
248.5214615228
 20
55.9729993769
 10
249.4204544601
 20
56.5441317793
 10
250.3199287111
 20
57.0238157647
 10
251.2128794202
 20
57.4083155036
 10
252.0923526043
 20
57.694638609
 10
252.951499483
 20
57.8805530522
 10
253.78362875
 20
57.9646127753
 10
254.5822608214
 20
57.9461616316
 10
254.7080889205
 20
57.9335192966
  0
LINE
  5
270
330
1F
100
AcDbEntity
  8
0
  6
Continuous
 62
     7
370
    18
100
AcDbLine
 10
231.1012406501
 20
50.3470165866
 30
0.0
 11
231.4074045773
 21
49.9762815306
 31
0.0
  0
LINE
  5
271
330
1F
100
AcDbEntity
  8
0
  6
Continuous
 62
     7
370
    18
100
AcDbLine
 10
231.1012406501
 20
42.5829064388
 30
0.0
 11
231.4074045773
 21
43.2704399074
 31
0.0
  0
LINE
  5
272
330
1F
100
AcDbEntity
  8
0
  6
Continuous
 62
     7
370
    18
100
AcDbLine
 10
232.1433148941
 20
43.6952718905
 30
0.0
 11
231.4074118213
 21
43.2704440893
 31
0.0
  0
LINE
  5
273
330
1F
100
AcDbEntity
  8
0
  6
Continuous
 62
     7
370
    18
100
AcDbLine
 10
232.0767393371
 20
44.4384978582
 30
0.0
 11
230.767467903
 21
43.6826715475
 31
0.0
  0
LINE
  5
274
330
1F
100
AcDbEntity
  8
0
  6
Continuous
 62
     7
370
    18
100
AcDbLine
 10
227.5903890714
 20
45.2570805072
 30
0.0
 11
227.2939017972
 21
44.7610188894
 31
0.0
  0
LINE
  5
275
330
1F
100
AcDbEntity
  8
0
  6
Continuous
 62
     7
370
    18
100
AcDbLine
 10
229.4222066822
 20
46.3145663047
 30
0.0
 11
227.5904496575
 21
45.2571154828
 31
0.0
  0
LINE
  5
276
330
1F
100
AcDbEntity
  8
0
  6
Continuous
 62
     7
370
    18
100
AcDbLine
 10
229.4222066822
 20
46.3145663047
 30
0.0
 11
229.5435168368
 21
46.2528157914
 31
0.0
  0
OLE2FRAME
  5
277
330
1F
100
AcDbEntity
  8
0
100
AcDbOle2Frame
 70
     2
  3
Paintbrush-Bild
 10
13.8511154363
 20
38.264191557
 30
0.0
 11
51.6290888628
 21
31.9806341108
 31
0.0
 71
     2
 72
     0
 73
     1
 90
    12928
310
80552BED0767C5B32B40DDAF6807D121434000000000000000006FFBDDFB85D0
310
4940DDAF6807D121434000000000000000006FFBDDFB85D04940416F4BD60AFB
310
3F4000000000000000002BED0767C5B32B40416F4BD60AFB3F40000000000000
310
0000000000000100000000010000010000000100000000000100000000320000
310
D0CF11E0A1B11AE1000000000000000000000000000000003E000300FEFF0900
310
0600000000000000000000000100000001000000000000000010000002000000
310
01000000FEFFFFFF0000000000000000FFFFFFFFFFFFFFFFFFFFFFFFFFFFFFFF
310
FFFFFFFFFFFFFFFFFFFFFFFFFFFFFFFFFFFFFFFFFFFFFFFFFFFFFFFFFFFFFFFF
310
FFFFFFFFFFFFFFFFFFFFFFFFFFFFFFFFFFFFFFFFFFFFFFFFFFFFFFFFFFFFFFFF
310
FFFFFFFFFFFFFFFFFFFFFFFFFFFFFFFFFFFFFFFFFFFFFFFFFFFFFFFFFFFFFFFF
310
FFFFFFFFFFFFFFFFFFFFFFFFFFFFFFFFFFFFFFFFFFFFFFFFFFFFFFFFFFFFFFFF
310
FFFFFFFFFFFFFFFFFFFFFFFFFFFFFFFFFFFFFFFFFFFFFFFFFFFFFFFFFFFFFFFF
310
FFFFFFFFFFFFFFFFFFFFFFFFFFFFFFFFFFFFFFFFFFFFFFFFFFFFFFFFFFFFFFFF
310
FFFFFFFFFFFFFFFFFFFFFFFFFFFFFFFFFFFFFFFFFFFFFFFFFFFFFFFFFFFFFFFF
310
FFFFFFFFFFFFFFFFFFFFFFFFFFFFFFFFFFFFFFFFFFFFFFFFFFFFFFFFFFFFFFFF
310
FFFFFFFFFFFFFFFFFFFFFFFFFFFFFFFFFFFFFFFFFFFFFFFFFFFFFFFFFFFFFFFF
310
FFFFFFFFFFFFFFFFFFFFFFFFFFFFFFFFFFFFFFFFFFFFFFFFFFFFFFFFFFFFFFFF
310
FFFFFFFFFFFFFFFFFFFFFFFFFFFFFFFFFFFFFFFFFFFFFFFFFFFFFFFFFFFFFFFF
310
FFFFFFFFFFFFFFFFFFFFFFFFFFFFFFFFFFFFFFFFFFFFFFFFFFFFFFFFFFFFFFFF
310
FFFFFFFFFFFFFFFFFFFFFFFFFFFFFFFFFFFFFFFFFFFFFFFFFFFFFFFFFFFFFFFF
310
FDFFFFFFFEFFFFFFFEFFFFFFFEFFFFFF05000000060000000700000008000000
310
090000000A0000000B0000000C0000000D0000000E0000000F00000010000000
310
11000000120000001300000014000000150000001600000017000000FEFFFFFF
310
FFFFFFFFFFFFFFFFFFFFFFFFFFFFFFFFFFFFFFFFFFFFFFFFFFFFFFFFFFFFFFFF
310
FFFFFFFFFFFFFFFFFFFFFFFFFFFFFFFFFFFFFFFFFFFFFFFFFFFFFFFFFFFFFFFF
310
FFFFFFFFFFFFFFFFFFFFFFFFFFFFFFFFFFFFFFFFFFFFFFFFFFFFFFFFFFFFFFFF
310
FFFFFFFFFFFFFFFFFFFFFFFFFFFFFFFFFFFFFFFFFFFFFFFFFFFFFFFFFFFFFFFF
310
FFFFFFFFFFFFFFFFFFFFFFFFFFFFFFFFFFFFFFFFFFFFFFFFFFFFFFFFFFFFFFFF
310
FFFFFFFFFFFFFFFFFFFFFFFFFFFFFFFFFFFFFFFFFFFFFFFFFFFFFFFFFFFFFFFF
310
FFFFFFFFFFFFFFFFFFFFFFFFFFFFFFFFFFFFFFFFFFFFFFFFFFFFFFFFFFFFFFFF
310
FFFFFFFFFFFFFFFFFFFFFFFFFFFFFFFFFFFFFFFFFFFFFFFFFFFFFFFFFFFFFFFF
310
FFFFFFFFFFFFFFFFFFFFFFFFFFFFFFFFFFFFFFFFFFFFFFFFFFFFFFFFFFFFFFFF
310
FFFFFFFFFFFFFFFFFFFFFFFFFFFFFFFFFFFFFFFFFFFFFFFFFFFFFFFFFFFFFFFF
310
FFFFFFFFFFFFFFFFFFFFFFFFFFFFFFFFFFFFFFFFFFFFFFFFFFFFFFFFFFFFFFFF
310
FFFFFFFFFFFFFFFFFFFFFFFFFFFFFFFFFFFFFFFFFFFFFFFFFFFFFFFFFFFFFFFF
310
FFFFFFFFFFFFFFFFFFFFFFFFFFFFFFFFFFFFFFFFFFFFFFFFFFFFFFFFFFFFFFFF
310
52006F006F007400200045006E00740072007900000000000000000000000000
310
0000000000000000000000000000000000000000000000000000000000000000
310
16000500FFFFFFFFFFFFFFFF020000000A00030000000000C000000000000046
310
0000000000000000000000003090FC3A27A7D30103000000C000000000000000
310
01004F006C006500000000000000000000000000000000000000000000000000
310
0000000000000000000000000000000000000000000000000000000000000000
310
0A000200FFFFFFFFFFFFFFFFFFFFFFFF00000000000000000000000000000000
310
0000000000000000000000000000000000000000000000001400000000000000
310
010043006F006D0070004F0062006A0000000000000000000000000000000000
310
0000000000000000000000000000000000000000000000000000000000000000
310
120002010100000003000000FFFFFFFF00000000000000000000000000000000
310
0000000000000000000000000000000000000000010000004D00000000000000
310
01004F006C006500310030004E00610074006900760065000000000000000000
310
0000000000000000000000000000000000000000000000000000000000000000
310
1A000200FFFFFFFFFFFFFFFFFFFFFFFF00000000000000000000000000000000
310
0000000000000000000000000000000000000000040000002426000000000000
310
FEFFFFFF02000000FEFFFFFFFFFFFFFFFFFFFFFFFFFFFFFFFFFFFFFFFFFFFFFF
310
FFFFFFFFFFFFFFFFFFFFFFFFFFFFFFFFFFFFFFFFFFFFFFFFFFFFFFFFFFFFFFFF
310
FFFFFFFFFFFFFFFFFFFFFFFFFFFFFFFFFFFFFFFFFFFFFFFFFFFFFFFFFFFFFFFF
310
FFFFFFFFFFFFFFFFFFFFFFFFFFFFFFFFFFFFFFFFFFFFFFFFFFFFFFFFFFFFFFFF
310
FFFFFFFFFFFFFFFFFFFFFFFFFFFFFFFFFFFFFFFFFFFFFFFFFFFFFFFFFFFFFFFF
310
FFFFFFFFFFFFFFFFFFFFFFFFFFFFFFFFFFFFFFFFFFFFFFFFFFFFFFFFFFFFFFFF
310
FFFFFFFFFFFFFFFFFFFFFFFFFFFFFFFFFFFFFFFFFFFFFFFFFFFFFFFFFFFFFFFF
310
FFFFFFFFFFFFFFFFFFFFFFFFFFFFFFFFFFFFFFFFFFFFFFFFFFFFFFFFFFFFFFFF
310
FFFFFFFFFFFFFFFFFFFFFFFFFFFFFFFFFFFFFFFFFFFFFFFFFFFFFFFFFFFFFFFF
310
FFFFFFFFFFFFFFFFFFFFFFFFFFFFFFFFFFFFFFFFFFFFFFFFFFFFFFFFFFFFFFFF
310
FFFFFFFFFFFFFFFFFFFFFFFFFFFFFFFFFFFFFFFFFFFFFFFFFFFFFFFFFFFFFFFF
310
FFFFFFFFFFFFFFFFFFFFFFFFFFFFFFFFFFFFFFFFFFFFFFFFFFFFFFFFFFFFFFFF
310
FFFFFFFFFFFFFFFFFFFFFFFFFFFFFFFFFFFFFFFFFFFFFFFFFFFFFFFFFFFFFFFF
310
FFFFFFFFFFFFFFFFFFFFFFFFFFFFFFFFFFFFFFFFFFFFFFFFFFFFFFFFFFFFFFFF
310
FFFFFFFFFFFFFFFFFFFFFFFFFFFFFFFFFFFFFFFFFFFFFFFFFFFFFFFFFFFFFFFF
310
FFFFFFFFFFFFFFFFFFFFFFFFFFFFFFFFFFFFFFFFFFFFFFFFFFFFFFFFFFFFFFFF
310
0100000200000000000000000000000000000000000000000000000000000000
310
0000000000000000000000000000000000000000000000000000000000000000
310
0100FEFF030A0000FFFFFFFF0A00030000000000C00000000000004607000000
310
5042727573680007000000504272757368000700000050427275736800F439B2
310
7100000000000000000000000000000000000000000000000000000000000000
310
0000000000000000000000000000000000000000000000000000000000000000
310
0000000000000000000000000000000000000000000000000000000000000000
310
0000000000000000000000000000000000000000000000000000000000000000
310
0000000000000000000000000000000000000000000000000000000000000000
310
0000000000000000000000000000000000000000000000000000000000000000
310
0000000000000000000000000000000000000000000000000000000000000000
310
0000000000000000000000000000000000000000000000000000000000000000
310
0000000000000000000000000000000000000000000000000000000000000000
310
0000000000000000000000000000000000000000000000000000000000000000
310
0000000000000000000000000000000000000000000000000000000000000000
310
0000000000000000000000000000000000000000000000000000000000000000
310
20260000424D0E260000000000003E00000028000000B40200006E0000000100
310
01000000000000000000130B0000130B00000200000002000000000000FFFFFF
310
FFFFFFFFFFFFFFFFFFFFFFFFFFFFFFFFFFFFFFFFFFFFFFFFFFFFFFFFFFFFFFFF
310
FFFFFFFFFFFFFFFFFFFFFFFFFFFFFFFFFFFFFFFFFFFFFFFFFFFFFFFFFFFFFFFF
310
FFFFFFFFFFFFFFFFFFFFFFFFFFFFFFFFFFFFFFFFFFFFFFFFF000FFFFFFFFFFFF
310
FFFFFFFFFFFFFFFFFFFFFFFFFFFFFFFFFFFFFFFFFFFFFFFFFFFFFFFFFFFFFFFF
310
FFFFFFFFFFFFFFFFFFFFFFFFFFFFFFFFFFFFFFFFFFFFFFFFFFFFFFFFFFFFFFFF
310
FFFFFFFFFFFFFFFFFFFFFFFFFFFFFFFFF000FFFFFFFFFFFFFFFFFFFFFFFFFFFF
310
FFFFFFFFFFFFFFFFFFFFFFFFFFFFFFFFFFFFFFFFFFFFFFFFFFFFFFFFFFFFFFFF
310
FFFFFFFFFFFFFFFFFFFFFFFFFFFFFFFFFFFFFFFFFFFFFFFFFFFFFFFFFFFFFFFF
310
FFFFFFFFFFFFFFFFF000FFFFFFFFFFFFFFFFFFFFFFFFFFFFFFFFFFFFFFFFFFFF
310
FFFFFFFFFFFFFFFFFFFFFFFFFFFFFFFFFFFFFFFFFFFFFFFFFFFFFFFFFFFFFFFF
310
FFFFFFFFFFFFFFFFFFFFFFFFFFFFFFFFFFFFFFFFFFFFFFFFFFFFFFFFFFFFFFFF
310
F000FFFFFFFFFFFFFFFFFFFFFFFFFFFFFFFFFFFFFFFFFFFFFFFFFFFFFFFFFFFF
310
FFFFFFFFFFFFFFFFFFFFFFFFFFFFFFFFFFFFFFFFFFFFFFFFFFFFFFFFFFFFFFFF
310
FFFFFFFFFFFFFFFFFFFFFFFFFFFFFFFFFFFFFFFFFFFFFFFFF000FFFFFFFFFFFF
310
FFFFFFFFFFFFFFFFFFFFFFFFFFFFFFFFFFFFFFFFFFFFFFFFFFFFFFFFFFFFFFFF
310
FFFFFFFFFFFFFFFFFFFFFFFFFFFFFFFFFFFFFFFFFFFFFFFFFFFFFFFFFFFFFFFF
310
FFFFFFFFFFFFFFFFFFFFFFFFFFFFFFFFF000FFFFFFFFFFFFFFFFFFFFFFFFFFFF
310
FFFFFFFFFFFFFFFFFFFFFFFFFFFFFFFFFFFFFFFFFFFFFFFFFFFFFFFFFFFFFFFF
310
FFFFFFFFFFFFFFFFFFFFFFFFFFFFFFFFFFFFFFFFFFFFFFFFFFFFFFFFFFFFFFFF
310
FFFFFFFFFFFFFFFFF000FFFFFFFFFFFFFFFFFFFFFFFFFFFFFFFFFFFFFFFFFFFF
310
FFFFFFFFFFFFFFFFFFFFFFFFFFFFFFFFFFFFFFFFFFFFFFFFFFFFFFFFFFFFFFFF
310
FFFFFFFFFFFFFFFFFFFFFFFFFFFFFFFFFFFFFFFFFFFFFFFFFFFFFFFFFFFFFFFF
310
F000FFFFFFFFFFFFFFFFFFFFFFFFFFFFFFFFFFFFFFFFFFFFFFFFFFFFFFFFFFFF
310
FFFFFFFFFFFFFFFFFFFFFFFFFFFFFFFFFFFFFFFFFFFFFFFFFFFFFFFFFFFFFFFF
310
FFFFFFFFFFFFFFFFFFFFFFFFFFFFFFFFFFFFFFFFFFFFFFFFF000FFFFFFFFFFFF
310
FFFFFFFFFFFFFFFFFFFFFFFFFFFFFFFFFFFFFFFFFFFFFFFFFFFFFFFFFFFFFFFF
310
FFFFFFFFFFFFFFFFFFFFFFFFFFFFFFFFFFFFFFFFFFFFFFFFFFFFFFFFFFFFFFFF
310
FFFFFFFFFFFFFFFFFFFFFFFFFFFFFFFFF000FFFFFFFFFFFFFFFFFFFFFFFFFFFF
310
FFFFFFFFFFFFFFFFFFFFFFFFFFFFFFFFFFFFFFFFFFFFFFFFFFFFFFFFFFFFFFFF
310
FFFFFFFFFFFFFFFFFFFFFFFFFFFFFFFFFFFFFFFFFFFFFFFFFFFFFFFFFFFFFFFF
310
FFFFFFFFFFFFFFFFF000FFFFFFFFFFFFFFFFFFFFFFFFFFFFFFFFFFFFFFFFFFFF
310
FFFFFFFFFFFFFFFFFFFFFFFFFFFFFFFFFFFFFFFFFFFFFFFFFFFFFFFFFFFFFFFF
310
FFFFFFFFFFFFFFFFFFFFFFFFFFFFFFFFFFFFFFFFFFFFFFFFFFFFFFFFFFFFFFFF
310
F000FFFFFFFFFFFFFFFFFFFFFFFFFFFFFFFFFFFFFFFFFFFFFFFFFFFFFFFFFFFF
310
FFFFFFFFFFFFFFFFFFFFFFFFFFFFFFFFFFFFFFFFFFFFFFFFFFFFFFFFFFFFFFFF
310
FFFFFFFFFFFFFFFFFFFFFFFFFFFFFFFFFFFFFFFFFFFFFFFFF000FFFFFFFFFFFF
310
FFFFFFFFFFFFFFFFFFFFFFFFFFFFFFFFFFFFFFFFFFFFFFFFFFFFFFFFFFFFFFFF
310
FFFFFFFFFFFFFFFFFFFFFFFFFFFFFFFFFFFFFFFFFFFFFFFFFFFFFFFFFFFFFFFF
310
FFFFFFFFFFFFFFFFFFFFFFFFFFFFFFFFF000FFFFFFFFFFFFFFFFFFFFFFFFFFFF
310
FFFFFFFFFFFFFFFFFFFFFFFFFFFFFFFFFFFFFFFFFFFFFFFFFFFFFFFFFFFFFFFF
310
FFFFFFFFFFFFFFFFFFFFFFFFFFFFFFFFFFFFFFFFFFFFFFFFFFFFFFFFFFFFFFFF
310
FFFFFFFFFFFFFFFFF000FFFFFFFFFFFFFFFFFFFFFFFFFFFFFFFFFFFFFFFFFFFF
310
FFFFFFFFFFFFFFFFFFFFFFFFFFFFFFFFFFFFFFFFFFFFFFFFFFFFFFFFFFFFFFFF
310
FFFFFFFFFFFFFFFFFFFFFFFFFFFFFFFFFFFFFFFFFFFFFFFFFFFFFFFFFFFFFFFF
310
F000FFFFFFFFFFFFFFFFFFFFFFFFFFFFFFFFFFFFFFFFFFFFFFFFFFFFFFFFFFFF
310
FFFFFFFFFFFFFFFFFFFFFFFFFFFFFFFFFFFFFFFFFFFFFFFFFFFFFFFFFFFFFFFF
310
FFFFFFFFFFFFFFFFFFFFFFFFFFFFFFFFFFFFFFFFFFFFFFFFF000FFFFFFFFFFFF
310
FFFFFFFFFFFFFFFFFFFFFFFFFFFFFFFFFFFFFFFFFFFFFFFFFFFFFFFFFFFFFFFF
310
FFFFFFFFFFFFFFFFFFFFFFFFFFFFFFFFFFFFFFFFFFFFFFFFFFFFFFFFFFFFFFFF
310
FFFFFFFFFFFFFFFFFFFFFFFFFFFFFFFFF000FFFFFFFFFFFFFFFFFFFFFFFFFFFF
310
FFFFFFFFFFFFFFFFFFFFFFFFFFFFFFFFFFFFFFFFFFFFFFFFFFFFFFFFFFFFFFFF
310
FFFFFFFFFFFFFFFFFFFFFFFFFFFFFFFFFFFFFFFFFFFFFFFFFFFFFFFFFFFFFFFF
310
FFFFFFFFFFFFFFFFF000FFFFF80003FFFFFFFFFFFFFFFFFFFFFFFFFFFFFFFFFF
310
FFFFF00007FFFFFFFFFF00007FFFFFF800000000000000007FFFFFFFFFFFFFFF
310
FFFFFFFC001FFFFFFFFFFFFFFC001FFFFFFFFFFFFFFFFFFFFFFFFFFE0007FFFF
310
F000FFFF8000007FFFFFFFF8000FFFFFC0007FFFFF80007FFFFF0000007FFFFF
310
FFF8000007FFFFF800000000000000007FFFFFF0001FFFFFFFFFFFC00001FFFF
310
FFFFFFFFC00001FFFFFFFF000000000003FFFFE000007FFFF000FFFE0000000F
310
FFFFFFF0000FFFFF80007FFFFF80007FFFFC0000001FFFFFFFC0000001FFFFF8
310
00000000000000007FFFFFF0001FFFFFFFFFFE0000003FFFFFFFFFFE0000003F
310
FFFFFF000000000003FFFF0000000FFFF000FFF800000003FFFFFFF00007FFFF
310
80007FFFFF80007FFFF000000007FFFFFF000000003FFFF80000000000000000
310
7FFFFFF0001FFFFFFFFFF80000000FFFFFFFFFF80000000FFFFFFF0000000000
310
03FFFC00000003FFF000FFE000000000FFFFFFF00007FFFF80003FFFFF80007F
310
FFC000000001FFFFFC000000001FFFF800000000000000007FFFFFF0001FFFFF
310
FFFFE000000003FFFFFFFFE000000003FFFFFF000000000003FFF000000000FF
310
F000FF80000000007FFFFFF00007FFFF80003FFFFF80007FFF8000000000FFFF
310
F80000000007FFF800000000000000007FFFFFF0001FFFFFFFFFC000000001FF
310
FFFFFFC000000001FFFFFF000000000003FFC0000000007FF000FF0000000000
310
3FFFFFE00007FFFF00003FFFFF80007FFE00000000003FFFF00000000003FFF8
310
00000000000000007FFFFFF0001FFFFFFFFF8000000000FFFFFFFF8000000000
310
FFFFFF000000000003FF80000000003FF000FE00000000001FFFFFE00003FFFF
310
00003FFFFF80007FFC00000000001FFFE00000000001FFF8000001FFFE000000
310
7FFFFFF0001FFFFFFFFE00000000003FFFFFFE00000000003FFFFF0000000000
310
03FF00000000001FF000FC00000000000FFFFFE00003FFFF00001FFFFF80007F
310
F800000000001FFFC00000000000FFF8000001FFFE0000007FFFFFF0001FFFFF
310
FFFC00000000001FFFFFFC00000000001FFFFF000000000003FE00000000000F
310
F000F8000000000007FFFFE00003FFFF00001FFFFF80007FF800000000000FFF
310
800000000000FFF8000001FFFE0000007FFFFFF0001FFFFFFFF800000000000F
310
FFFFF800000000000FFFFF000000000003FC000000000007F000F80000000000
310
03FFFFC00003FFFE00001FFFFF80007FF0000000000007FF0000000000007FF8
310
000001FFFE0000007FFFFFF0001FFFFFFFF0000000000007FFFFF00000000000
310
07FFFF000000000003F8000000000003F000F0000000000003FFFFC00001FFFE
310
00001FFFFF80007FE0000000000007FE0000000000003FF8000001FFFE000000
310
7FFFFFF0001FFFFFFFF0000000000007FFFFF0000000000007FFFF0000000000
310
03F800001F800003F000E00001FFF00001FFFFC00001FFFE00000FFFFF80007F
310
E00001FFE00003FE00001FFF00003FF8000001FFFE0000007FFFFFF0001FFFFF
310
FFE000003E000003FFFFE000003E000003FFFF000000000003F00001FFF80001
310
F000E00007FFFC0001FFFFC00001FFFE00000FFFFF80007FC0000FFFFC0003FC
310
0000FFFFC0001FF8000001FFFE0000007FFFFFF0001FFFFFFFC00003FFE00001
310
FFFFC00003FFE00001FFFF0001FFFFFFFFF00007FFFE0001F000E0000FFFFF00
310
00FFFF800001FFFC00000FFFFF80007FC0001FFFFE0001FC0001FFFFE0001FF8
310
000001FFFE0000007FFFFFF0001FFFFFFF80000FFFF80000FFFF80000FFFF800
310
00FFFF0003FFFFFFFFE0000FFFFF8000F000C0003FFFFF8000FFFF800000FFFC
310
000007FFFF80007F80003FFFFF0001FC0003FFFFF0001FF8000001FFFE000000
310
7FFFFFF0001FFFFFFF80003FFFFE0000FFFF80003FFFFE0000FFFF0003FFFFFF
310
FFE0003FFFFF8000F000C0003FFFFF8000FFFF800000FFFC000007FFFF80007F
310
80007FFFFF8001F80007FFFFF8000FF8000001FFFE0000007FFFFFF0001FFFFF
310
FF00007FFFFF00007FFF00007FFFFF00007FFF0003FFFFFFFFE0003FFFFFC000
310
F000C0007FFFFFC000FFFF000000FFFC000007FFFF80007F8000FFFFFF8000F8
310
000FFFFFF8000FF8000001FFFE0000007FFFFFF0001FFFFFFF0000FFFFFF8000
310
7FFF0000FFFFFF80007FFF0003FFFFFFFFC0007FFFFFC00070008000FFFFFFC0
310
00FFFF000000FFF8000007FFFF80007F8000FFFFFF8000F8000FFFFFF8000FF8
310
000001FFFE0000007FFFFFF0001FFFFFFE0001FFFFFFC0003FFE0001FFFFFFC0
310
003FFF0003FFFFFFFFC0007FFFFFE00070008000FFFFFFC0007FFF0000007FF8
310
000003FFFF80007F0001FFFFFF8000F8000FFFFFF8000FF8000001FFFE000000
310
7FFFFFF0001FFFFFFE0001FFFFFFC0003FFE0001FFFFFFC0003FFF0003FFFFFF
310
FFC000FFFFFFE00070008000FFFFFFC0007FFF0000007FF8000003FFFF80007F
310
0001FFFFFF8000F8001FFFFFF8000FF8000001FFFE0000007FFFFFF0001FFFFF
310
FE0003FFFFFFE0003FFE0003FFFFFFE0003FFF0003FFFFFFFFC000FFFFFFE000
310
70008000FFFFFFC0007FFE0000007FF8000003FFFF80007F0001FFFFFF8000F0
310
001FFFFFF8000FF8000001FFFE0000007FFFFFF0001FFFFFFC0003FFFFFFE000
310
1FFC0003FFFFFFE0001FFF0003FFFFFFFFC000FFFFFFC00070008000FFFFFF80
310
007FFE0000007FF0000003FFFF80007F0001FFFFFF0000F0001FFFFFF8000FF8
310
000001FFFE0000007FFFFFF0001FFFFFFC0007FFFFFFF0001FFC0007FFFFFFF0
310
001FFF0003FFFFFFFFC000FFFFFFC00070008001FFFFFF0000FFFE0000003FF0
310
000001FFFF80007F0001FFFFFF0000F8001FFFFFF0000FF8000001FFFE000000
310
7FFFFFF0001FFFFFFC0007FFFFFFF0001FFC0007FFFFFFF0001FFF0003FFFFFF
310
FFC001FFFFFF80007000FFFFFFFFFE0000FFFE0008003FF0008001FFFF80007F
310
FFFFFFFFFC0000FFFFFFFFFFE0000FF8000001FFFE0000007FFFFFF0001FFFFF
310
F8000FFFFFFFF8000FF8000FFFFFFFF8000FFF0003FFFFFFFFFFFFFFFFFF0000
310
7000FFFFFFFFFC0000FFFC0008003FF0008001FFFF80007FFFFFFFFFF80001FF
310
FFFFFFFF80000FF8000001FFFE0000007FFFFFF0001FFFFFF8000FFFFFFFF800
310
0FF8000FFFFFFFF8000FFF0003FFFFFFFFFFFFFFFFFE0000F000FFFFFFFFE000
310
00FFFC000C003FE000C001FFFF80007FFFFFFFFFC00001FFFFFFFFFE00001FF8
310
000001FFFE0000007FFFFFF0001FFFFFF8000FFFFFFFF8000FF8000FFFFFFFF8
310
000FFF0003FFFFFFFFFFFFFFFFF00000F000FFFFFFFE000001FFFC000C001FE0
310
00C000FFFF80007FFFFFFFFE000001FFFFFFFFE000001FF80FFFFFFFFFFFFFC0
310
7FFFFFF0001FFFFFF8000FFFFFFFF8000FF8000FFFFFFFF8000FFF0003FFFFFF
310
FFFFFFFFFF800000F000FFFFFFC0000001FFFC001C001FE001C000FFFF80007F
310
FFFFFF80000003FFFFFFF80000001FF80FFFFFFFFFFFFFC07FFFFFF0001FFFFF
310
F8001FFFFFFFFC000FF8001FFFFFFFFC000FFF0003FFFFFFFFFFFFFFF0000001
310
F000FFFFF800000001FFF8001C001FE001C000FFFF80007FFFFFF800000003FF
310
FFFF800000003FF80FFFFFFFFFFFFFC07FFFFFF0001FFFFFF8001FFFFFFFFC00
310
0FF8001FFFFFFFFC000FFF0003FFFFFFFFFFFFFE00000001F000FFFFC0000000
310
03FFF8001E001FC001E000FFFF80007FFFFF8000000007FFFFFC000000003FF8
310
0FFFFFFFFFFFFFC07FFFFFF0001FFFFFF8001FFFFFFFFC000FF8001FFFFFFFFC
310
000FFF0003FFFFFFFFFFFFE000000003F000FFFE0000000007FFF8001E000FC0
310
01E0007FFF80007FFFFE0000000007FFFFE0000000007FF80FFFFFFFFFFFFFC0
310
7FFFFFF0001FFFFFF0001FFFFFFFFC0007F0001FFFFFFFFC0007FF0003FFFFFF
310
FFFFFF0000000003F000FFF80000000007FFF8001E000FC003E0007FFF80007F
310
FFF0000000000FFFFF8000000000FFF80FFFFFFFFFFFFFC07FFFFFF0001FFFFF
310
F0001FFFFFFFFC0007F0001FFFFFFFFC0007FF0003FFFFFFFFFFFC0000000007
310
F000FFE0000000000FFFF0003E000FC003E0007FFF80007FFFC0000000001FFF
310
FE0000000001FFF80FFFFFFFFFFFFFC07FFFFFF0001FFFFFF0001FFFFFFFFC00
310
07F0001FFFFFFFFC0007FF0003FFFFFFFFFFF0000000000FF000FFC000000000
310
1FFFF0003F000F8003F0003FFF80007FFF80000000003FFFF80000000003FFF8
310
0FFFFFFFFFFFFFC07FFFFFF0001FFFFFF0001FFFFFFFFC0007F0001FFFFFFFFC
310
0007FF0003FFFFFFFFFFE0000000001FF000FF00000000007FFFF0003F000780
310
03F0003FFF80007FFF00000000007FFFF00000000007FFF80FFFFFFFFFFFFFC0
310
7FFFFFF0001FFFFFF0001FFFFFFFFC0007F0001FFFFFFFFC0007FF0003FFFFFF
310
FFFF80000000007FF000FE0000000000FFFFE0003F00078007F0003FFF80007F
310
FE0000000001FFFFE0000000001FFFF80FFFFFFFFFFFFFC07FFFFFF0001FFFFF
310
F0001FFFFFFFFC0007F0001FFFFFFFFC0007FF0003FFFFFFFFFF0000000000FF
310
F000FC0000000003FFFFE0007F00078007F0003FFF80007FFC0000000007FFFF
310
C0000000007FFFF80FFFFFFFFFFFFFC07FFFFFF0001FFFFFF8001FFFFFFFFC00
310
0FF8001FFFFFFFFC000FFF0003FFFFFFFFFE0000000003FFF000FC000000000F
310
FFFFE0007F80070007F8001FFF80007FF8000000001FFFFF8000000001FFFFF8
310
0FFFFFFFFFFFFFC07FFFFFF0001FFFFFF8001FFFFFFFFC000FF8001FFFFFFFFC
310
000FFF0003FFFFFFFFFC000000000FFFF000F8000000007FFFFFE0007F800700
310
07F8001FFF80007FF000000000FFFFFF800000000FFFFFF80FFFFFFFFFFFFFC0
310
7FFFFFF0001FFFFFF8000FFFFFFFF8000FF8000FFFFFFFF8000FFF0003FFFFFF
310
FFFC000000007FFFF000F800000007FFFFFFC0007F8003000FF8001FFF80007F
310
F000000007FFFFFF000000007FFFFFF80FFFFFFFFFFFFFC07FFFFFF0001FFFFF
310
F8000FFFFFFFF8000FF8000FFFFFFFF8000FFF0003FFFFFFFFF80000000FFFFF
310
F000F0000000FFFFFFFFC000FF8003000FF8001FFF80007FE0000000FFFFFFFF
310
0000000FFFFFFFF8000001FFFE0000007FFFFFF0001FFFFFF8000FFFFFFFF800
310
0FF8000FFFFFFFF8000FFF0003FFFFFFFFF8000000FFFFFFF000F000000FFFFF
310
FFFFC000FFC002000FF8000FFF80007FE000001FFFFFFFFE000001FFFFFFFFF8
310
000001FFFE0000007FFFFFF0001FFFFFF8000FFFFFFFF8000FF8000FFFFFFFF8
310
000FFF0003FFFFFFFFF000001FFFFFFFF000E00000FFFFFFFFFFC000FFC00200
310
0FFC000FFF80007FE00001FFFFFFFFFE00001FFFFFFFFFF8000001FFFE000000
310
7FFFFFF0001FFFFFFC000FFFFFFFF8001FFC000FFFFFFFF8001FFF0003FFFFFF
310
FFF00001FFFFFFFFF000E00007FFFFFFFFFF8000FFC000001FFC000FFF80007F
310
C0000FFFFFFFFFFE0000FFFFFFFFFFF8000001FFFE0000007FFFFFF0001FFFFF
310
FC0007FFFFFFF0001FFC0007FFFFFFF0001FFF0003FFFFFFFFF00007FFFFFFFF
310
F000E0001FFFFFFFFFFF8000FFC000001FFC000FFF80007FC0003FFFFFFFFFFE
310
0001FFFFFFFFFFF8000001FFFE0000007FFFFFF0001FFFFFFC0007FFFFFFF000
310
1FFC0007FFFFFFF0001FFF0003FFFFFFFFF0001FFFFFFFFFF000E0003FFFFF00
310
03FF8001FFE000001FFC0007FF80007FC0007FFFFF0007FC0003FFFFF0003FF8
310
000001FFFE0000007FFFFFF0001FFFFFFC0003FFFFFFE0001FFC0003FFFFFFE0
310
001FFF0003FFFFFFFFF0003FFFFFFFFFF000E0003FFFFF0001FF8001FFE00000
310
1FFE0007FF80007FC0007FFFFE0003FC0007FFFFE0003FF8000001FFFE000000
310
7FFFFFF0001FFFFFFE0003FFFFFFE0003FFE0003FFFFFFE0003FFF0003FFFFFF
310
FFF0003FFFFF8001F000E0003FFFFF0001FF0001FFE000001FFE0007FF80007F
310
C0007FFFFE0003FC0007FFFFE0003FF8000001FFFE0000007FFFFFF0001FFFFF
310
FE0001FFFFFFC0003FFE0001FFFFFFC0003FFF0003FFFFFFFFF0003FFFFF0001
310
F000E0003FFFFF0003FF0001FFE000003FFE0007FF80007FC0007FFFFE0003FC
310
0007FFFFE0003FF8000001FFFE0000007FFFFFF0001FFFFFFF0001FFFFFFC000
310
7FFF0001FFFFFFC0007FFF0003FFFFFFFFF0003FFFFF0001F000E0003FFFFE00
310
03FF0003FFF000003FFE0003FF80007FC0007FFFFC0003FE0007FFFFE0003FF8
310
000001FFFE0000007FFFFFF0001FFFFFFF0000FFFFFF80007FFF0000FFFFFF80
310
007FFF0003FFFFFFFFF0003FFFFF0001F000E0003FFFFE0003FF0003FFF00000
310
3FFF0003FF80007FC0007FFFFC0007FE0007FFFFC0003FF8000001FFFE000000
310
7FFFFFF0001FFFFFFF80007FFFFF0000FFFF80007FFFFF0000FFFF0003FFFFFF
310
FFF0003FFFFF0003F000E0003FFFFC0003FE0003FFF000003FFF0003FF80007F
310
E0003FFFF80007FE0003FFFFC0007FF8000001FFFE0000007FFFFFF0001FFFFF
310
FF80003FFFFE0000FFFF80003FFFFE0000FFFF0003FFFFFFFFF0001FFFFE0003
310
F000F0001FFFF80003FE0003FFF000007FFF0001FF80007FE0003FFFF00007FE
310
0001FFFF80007FF8000001FFFE0000007FFFFFF0001FFFFFFFC0000FFFF80001
310
FFFFC0000FFFF80001FFFF0003FFFFFFFFF0001FFFFC0003F000F0000FFFF000
310
07FE0007FFF800007FFF0001FF80007FE0001FFFE00007FF0000FFFE00007FF8
310
000001FFFE0000007FFFFFF0001FFFFFFFC00003FFE00001FFFFC00003FFE000
310
01FFFF0003FFFFFFFFF8000FFFF80003F000F00003FFC00007FC0007FFF80000
310
7FFF8001FF80007FF00007FF80000FFF00007FF80000FFF8000001FFFE000000
310
7F80000000000001FFE000003E000003FFFFE000003E000003FFFF0003FFFFFF
310
FFF80003FFE00007F000F800000000000FFC0007FFF800007FFF8001FF80007F
310
F000000000000FFF000000000000FFF8000001FFFE0000007F80000000000001
310
FFF0000000000007FFFFF0000000000007FFFF0003FFFFFFFFFC00007E000007
310
F000F800000000000FFC0007FFF80000FFFF8000FF80007FF800000000001FFF
310
800000000001FFF8000001FFFE0000007F80000000000001FFF800000000000F
310
FFFFF800000000000FFFFF0003FFFFFFFFFC00000000000FF000FC0000000000
310
1FFC0007FFFC0000FFFF8000FF80007FF800000000003FFFC00000000001FFF8
310
000001FFFE0000007F80000000000001FFF800000000000FFFFFF80000000000
310
0FFFFF0003FFFFFFFFFE00000000001FF000FE00000000003FF8000FFFFC0000
310
FFFF8000FF80007FFC00000000003FFFC00000000003FFF8000001FFFE000000
310
7F80000000000001FFFC00000000001FFFFFFC00000000001FFFFF0003FFFFFF
310
FFFF00000000001FF000FF00000000003FF8000FFFFC0000FFFFC000FF80007F
310
FE00000000007FFFE00000000007FFF8000001FFFE0000007F80000000000001
310
FFFE00000000003FFFFFFE00000000003FFFFF0003FFFFFFFFFF80000000003F
310
F000FF80000000007FF8000FFFFC0001FFFFC0007F80007FFF0000000000FFFF
310
F0000000000FFFF800000000000000007F80000000000001FFFF8000000000FF
310
FFFFFF8000000000FFFFFF0003FFFFFFFFFFC0000000007FF000FFC000000000
310
FFF8000FFFFE0001FFFFC0007F80007FFF8000000001FFFFF8000000001FFFF8
310
00000000000000007F80000000000001FFFFC000000001FFFFFFFFC000000001
310
FFFFFF0003FFFFFFFFFFE000000000FFF000FFE000000003FFF0001FFFFE0001
310
FFFFC0007F80007FFFC000000007FFFFFE000000003FFFF80000000000000000
310
7F80000000000001FFFFE000000003FFFFFFFFE000000003FFFFFF0003FFFFFF
310
FFFFF000000003FFF000FFF80000000FFFF0001FFFFE0001FFFFE0007F80007F
310
FFF00000000FFFFFFF00000000FFFFF800000000000000007F80000000000001
310
FFFFF80000000FFFFFFFFFF80000000FFFFFFF0003FFFFFFFFFFFC0000000FFF
310
F000FFFE0000003FFFF0001FFFFE0003FFFFE0003F80007FFFFC0000003FFFFF
310
FFC0000003FFFFF800000000000000007F80000000000001FFFFFE0000003FFF
310
FFFFFFFE0000003FFFFFFF0003FFFFFFFFFFFF0000003FFFF000FFFF800000FF
310
FFF0001FFFFF0003FFFFE0003F80007FFFFF000001FFFFFFFFF800001FFFFFF8
310
00000000000000007F80000000000001FFFFFFC00001FFFFFFFFFFFFC00001FF
310
FFFFFF0003FFFFFFFFFFFFC00000FFFFF000FFFFF8000FFFFFFFFFFFFFFFFFFF
310
FFFFFFFFFFFFFFFFFFFFF0001FFFFFFFFFFF0000FFFFFFF80000000000000000
310
7FFFFFFFFFFFFFFFFFFFFFFC001FFFFFFFFFFFFFFC001FFFFFFFFFFFFFFFFFFF
310
FFFFFFFC001FFFFFF000FFFFFFFFFFFFFFFFFFFFFFFFFFFFFFFFFFFFFFFFFFFF
310
FFFFFFFFFFFFFFFFFFFFFFFFFFFFFFFFFFFFFFFFFFFFFFFFFFFFFFFFFFFFFFFF
310
FFFFFFFFFFFFFFFFFFFFFFFFFFFFFFFFFFFFFFFFFFFFFFFFFFFFFFFFFFFFFFFF
310
F000FFFFFFFFFFFFFFFFFFFFFFFFFFFFFFFFFFFFFFFFFFFFFFFFFFFFFFFFFFFF
310
FFFFFFFFFFFFFFFFFFFFFFFFFFFFFFFFFFFFFFFFFFFFFFFFFFFFFFFFFFFFFFFF
310
FFFFFFFFFFFFFFFFFFFFFFFFFFFFFFFFFFFFFFFFFFFFFFFFF000FFFFFFFFFFFF
310
FFFFFFFFFFFFFFFFFFFFFFFFFFFFFFFFFFFFFFFFFFFFFFFFFFFFFFFFFFFFFFFF
310
FFFFFFFFFFFFFFFFFFFFFFFFFFFFFFFFFFFFFFFFFFFFFFFFFFFFFFFFFFFFFFFF
310
FFFFFFFFFFFFFFFFFFFFFFFFFFFFFFFFF000FFFFFFFFFFFFFFFFFFFFFFFFFFFF
310
FFFFFFFFFFFFFFFFFFFFFFFFFFFFFFFFFFFFFFFFFFFFFFFFFFFFFFFFFFFFFFFF
310
FFFFFFFFFFFFFFFFFFFFFFFFFFFFFFFFFFFFFFFFFFFFFFFFFFFFFFFFFFFFFFFF
310
FFFFFFFFFFFFFFFFF000FFFFFFFFFFFFFFFFFFFFFFFFFFFFFFFFFFFFFFFFFFFF
310
FFFFFFFFFFFFFFFFFFFFFFFFFFFFFFFFFFFFFFFFFFFFFFFFFFFFFFFFFFFFFFFF
310
FFFFFFFFFFFFFFFFFFFFFFFFFFFFFFFFFFFFFFFFFFFFFFFFFFFFFFFFFFFFFFFF
310
F000FFFFFFFFFFFFFFFFFFFFFFFFFFFFFFFFFFFFFFFFFFFFFFFFFFFFFFFFFFFF
310
FFFFFFFFFFFFFFFFFFFFFFFFFFFFFFFFFFFFFFFFFFFFFFFFFFFFFFFFFFFFFFFF
310
FFFFFFFFFFFFFFFFFFFFFFFFFFFFFFFFFFFFFFFFFFFFFFFFF000FFFFFFFFFFFF
310
FFFFFFFFFFFFFFFFFFFFFFFFFFFFFFFFFFFFFFFFFFFFFFFFFFFFFFFFFFFFFFFF
310
FFFFFFFFFFFFFFFFFFFFFFFFFFFFFFFFFFFFFFFFFFFFFFFFFFFFFFFFFFFFFFFF
310
FFFFFFFFFFFFFFFFFFFFFFFFFFFFFFFFF000FFFFFFFFFFFFFFFFFFFFFFFFFFFF
310
FFFFFFFFFFFFFFFFFFFFFFFFFFFFFFFFFFFFFFFFFFFFFFFFFFFFFFFFFFFFFFFF
310
FFFFFFFFFFFFFFFFFFFFFFFFFFFFFFFFFFFFFFFFFFFFFFFFFFFFFFFFFFFFFFFF
310
FFFFFFFFFFFFFFFFF000FFFFFFFFFFFFFFFFFFFFFFFFFFFFFFFFFFFFFFFFFFFF
310
FFFFFFFFFFFFFFFFFFFFFFFFFFFFFFFFFFFFFFFFFFFFFFFFFFFFFFFFFFFFFFFF
310
FFFFFFFFFFFFFFFFFFFFFFFFFFFFFFFFFFFFFFFFFFFFFFFFFFFFFFFFFFFFFFFF
310
F000FFFFFFFFFFFFFFFFFFFFFFFFFFFFFFFFFFFFFFFFFFFFFFFFFFFFFFFFFFFF
310
FFFFFFFFFFFFFFFFFFFFFFFFFFFFFFFFFFFFFFFFFFFFFFFFFFFFFFFFFFFFFFFF
310
FFFFFFFFFFFFFFFFFFFFFFFFFFFFFFFFFFFFFFFFFFFFFFFFF000FFFFFFFFFFFF
310
FFFFFFFFFFFFFFFFFFFFFFFFFFFFFFFFFFFFFFFFFFFFFFFFFFFFFFFFFFFFFFFF
310
FFFFFFFFFFFFFFFFFFFFFFFFFFFFFFFFFFFFFFFFFFFFFFFFFFFFFFFFFFFFFFFF
310
FFFFFFFFFFFFFFFFFFFFFFFFFFFFFFFFF000FFFFFFFFFFFFFFFFFFFFFFFFFFFF
310
FFFFFFFFFFFFFFFFFFFFFFFFFFFFFFFFFFFFFFFFFFFFFFFFFFFFFFFFFFFFFFFF
310
FFFFFFFFFFFFFFFFFFFFFFFFFFFFFFFFFFFFFFFFFFFFFFFFFFFFFFFFFFFFFFFF
310
FFFFFFFFFFFFFFFFF000FFFFFFFFFFFFFFFFFFFFFFFFFFFFFFFFFFFFFFFFFFFF
310
FFFFFFFFFFFFFFFFFFFFFFFFFFFFFFFFFFFFFFFFFFFFFFFFFFFFFFFFFFFFFFFF
310
FFFFFFFFFFFFFFFFFFFFFFFFFFFFFFFFFFFFFFFFFFFFFFFFFFFFFFFFFFFFFFFF
310
F000FFFFFFFFFFFFFFFFFFFFFFFFFFFFFFFFFFFFFFFFFFFFFFFFFFFFFFFFFFFF
310
FFFFFFFFFFFFFFFFFFFFFFFFFFFFFFFFFFFFFFFFFFFFFFFFFFFFFFFFFFFFFFFF
310
FFFFFFFFFFFFFFFFFFFFFFFFFFFFFFFFFFFFFFFFFFFFFFFFF000FFFFFFFFFFFF
310
FFFFFFFFFFFFFFFFFFFFFFFFFFFFFFFFFFFFFFFFFFFFFFFFFFFFFFFFFFFFFFFF
310
FFFFFFFFFFFFFFFFFFFFFFFFFFFFFFFFFFFFFFFFFFFFFFFFFFFFFFFFFFFFFFFF
310
FFFFFFFFFFFFFFFFFFFFFFFFFFFFFFFFF000FFFFFFFFFFFFFFFFFFFFFFFFFFFF
310
FFFFFFFFFFFFFFFFFFFFFFFFFFFFFFFFFFFFFFFFFFFFFFFFFFFFFFFFFFFFFFFF
310
FFFFFFFFFFFFFFFFFFFFFFFFFFFFFFFFFFFFFFFFFFFFFFFFFFFFFFFFFFFFFFFF
310
FFFFFFFFFFFFFFFFF000FFFFFFFFFFFFFFFFFFFFFFFFFFFFFFFFFFFFFFFFFFFF
310
FFFFFFFFFFFFFFFFFFFFFFFFFFFFFFFFFFFFFFFFFFFFFFFFFFFFFFFFFFFFFFFF
310
FFFFFFFFFFFFFFFFFFFFFFFFFFFFFFFFFFFFFFFFFFFFFFFFFFFFFFFFFFFFFFFF
310
F000FFFFFFFFFFFFFFFFFFFFFFFFFFFFFFFFFFFFFFFFFFFFFFFFFFFFFFFFFFFF
310
FFFFFFFFFFFFFFFFFFFFFFFFFFFFFFFFFFFFFFFFFFFFFFFFFFFFFFFFFFFFFFFF
310
FFFFFFFFFFFFFFFFFFFFFFFFFFFFFFFFFFFFFFFFFFFFFFFFF000FFFFFFFFFFFF
310
FFFFFFFFFFFFFFFFFFFFFFFFFFFFFFFFFFFFFFFFFFFFFFFFFFFFFFFFFFFFFFFF
310
FFFFFFFFFFFFFFFFFFFFFFFFFFFFFFFFFFFFFFFFFFFFFFFFFFFFFFFFFFFFFFFF
310
FFFFFFFFFFFFFFFFFFFFFFFFFFFFFFFFF000FFFFFFFFFFFFFFFFFFFFFFFFFFFF
310
FFFFFFFFFFFFFFFFFFFFFFFFFFFFFFFFFFFFFFFFFFFFFFFFFFFFFFFFFFFFFFFF
310
FFFFFFFFFFFFFFFFFFFFFFFFFFFFFFFFFFFFFFFFFFFFFFFFFFFFFFFFFFFFFFFF
310
FFFFFFFFFFFFFFFFF000FFFFFFFFFFFFFFFFFFFFFFFFFFFFFFFFFFFFFFFFFFFF
310
FFFFFFFFFFFFFFFFFFFFFFFFFFFFFFFFFFFFFFFFFFFFFFFFFFFFFFFFFFFFFFFF
310
FFFFFFFFFFFFFFFFFFFFFFFFFFFFFFFFFFFFFFFFFFFFFFFFFFFFFFFFFFFFFFFF
310
F000FFFFFFFFFFFFFFFFFFFFFFFFFFFFFFFFFFFFFFFFFFFFFFFFFFFFFFFFFFFF
310
FFFFFFFFFFFFFFFFFFFFFFFFFFFFFFFFFFFFFFFFFFFFFFFFFFFFFFFFFFFFFFFF
310
FFFFFFFFFFFFFFFFFFFFFFFFFFFFFFFFFFFFFFFFFFFFFFFFF000FFFFFFFFFFFF
310
FFFFFFFFFFFFFFFFFFFFFFFFFFFFFFFFFFFFFFFFFFFFFFFFFFFFFFFFFFFFFFFF
310
FFFFFFFFFFFFFFFFFFFFFFFFFFFFFFFFFFFFFFFFFFFFFFFFFFFFFFFFFFFFFFFF
310
FFFFFFFFFFFFFFFFFFFFFFFFFFFFFFFFF0000000000000000000000000000000
310
0000000000000000000000000000000000000000000000000000000000000000
310
0000000000000000000000000000000000000000000000000000000000000000
310
0000000000000000000000000000000000000000000000000000000000000000
310
0000000000000000000000000000000000000000000000000000000000000000
310
0000000000000000000000000000000000000000000000000000000000000000
310
0000000000000000000000000000000000000000000000000000000000000000
310
0000000000000000000000000000000000000000000000000000000000000000
310
0000000000000000000000000000000000000000000000000000000000000000
310
0000000000000000000000000000000000000000000000000000000000000000
310
0000000000000000000000000000000000000000000000000000000000000000
310
0000000000000000000000000000000000000000000000000000000000000000
310
0000000000000000000000000000000000000000000000000000000000000000
310
0000000000000000000000000000000000000000000000000000000000000000
310
0000000000000000000000000000000000000000000000000000000000000000
310
0000000000000000000000000000000000000000000000000000000000000000
  1
OLE
  0
ENDSEC
  0
SECTION
  2
OBJECTS
  0
DICTIONARY
  5
C
330
0
100
AcDbDictionary
281
     1
  3
ACAD_GROUP
350
D
  3
ACAD_LAYOUT
350
1A
  3
ACAD_MLINESTYLE
350
17
  3
ACAD_PLOTSETTINGS
350
19
  3
ACAD_PLOTSTYLENAME
350
E
  3
ACAD_SCALELIST
350
47
  0
DICTIONARY
  5
D
102
{ACAD_REACTORS
330
C
102
}
330
C
100
AcDbDictionary
281
     1
  0
DICTIONARY
  5
1A
102
{ACAD_REACTORS
330
C
102
}
330
C
100
AcDbDictionary
281
     1
  3
Layout1
350
1E
  3
Layout2
350
26
  3
Model
350
22
  0
DICTIONARY
  5
17
102
{ACAD_REACTORS
330
C
102
}
330
C
100
AcDbDictionary
281
     1
  3
Standard
350
18
  0
DICTIONARY
  5
19
102
{ACAD_REACTORS
330
C
102
}
330
C
100
AcDbDictionary
281
     1
  0
ACDBDICTIONARYWDFLT
  5
E
102
{ACAD_REACTORS
330
C
102
}
330
C
100
AcDbDictionary
281
     1
  3
Normal
350
F
100
AcDbDictionaryWithDefault
340
F
  0
DICTIONARY
  5
47
102
{ACAD_REACTORS
330
C
102
}
330
C
100
AcDbDictionary
281
     1
  3
A0
350
48
  3
A1
350
49
  3
A2
350
4A
  3
A3
350
4B
  3
A4
350
4C
  3
A5
350
4D
  3
A6
350
4E
  3
A7
350
4F
  3
A8
350
50
  3
A9
350
51
  3
B0
350
52
  3
B1
350
53
  3
B2
350
54
  3
B3
350
55
  3
B4
350
56
  3
B5
350
57
  3
B6
350
58
  3
B7
350
59
  3
B8
350
5A
  3
B9
350
5B
  3
C0
350
5C
  3
C1
350
5D
  3
C2
350
5E
  3
C3
350
5F
  3
C4
350
60
  3
C5
350
61
  3
C6
350
62
  3
C7
350
63
  3
C8
350
64
  3
C9
350
65
  3
D0
350
66
  3
D1
350
67
  3
D2
350
68
  0
LAYOUT
  5
1E
102
{ACAD_REACTORS
330
1A
102
}
330
1A
100
AcDbPlotSettings
  1

  2
none_device
  4

  6

 40
0.0
 41
0.0
 42
0.0
 43
0.0
 44
0.0
 45
0.0
 46
0.0
 47
0.0
 48
0.0
 49
0.0
140
0.0
141
0.0
142
1.0
143
1.0
 70
   688
 72
     1
 73
     0
 74
     5
  7

 75
    16
147
1.0
148
0.0
149
0.0
100
AcDbLayout
  1
Layout1
 70
     1
 71
     1
 10
0.0
 20
0.0
 11
420.0
 21
297.0
 12
0.0
 22
0.0
 32
0.0
 14
1.0000000000E+20
 24
1.0000000000E+20
 34
1.0000000000E+20
 15
-1.0000000000E+20
 25
-1.0000000000E+20
 35
-1.0000000000E+20
146
0.0
 13
0.0
 23
0.0
 33
0.0
 16
1.0
 26
0.0
 36
0.0
 17
0.0
 27
1.0
 37
0.0
 76
     0
330
1B
  0
LAYOUT
  5
26
102
{ACAD_REACTORS
330
1A
102
}
330
1A
100
AcDbPlotSettings
  1

  2
none_device
  4

  6

 40
0.0
 41
0.0
 42
0.0
 43
0.0
 44
0.0
 45
0.0
 46
0.0
 47
0.0
 48
0.0
 49
0.0
140
0.0
141
0.0
142
1.0
143
1.0
 70
   688
 72
     1
 73
     0
 74
     5
  7

 75
    16
147
1.0
148
0.0
149
0.0
100
AcDbLayout
  1
Layout2
 70
     1
 71
     2
 10
0.0
 20
0.0
 11
0.0
 21
0.0
 12
0.0
 22
0.0
 32
0.0
 14
0.0
 24
0.0
 34
0.0
 15
0.0
 25
0.0
 35
0.0
146
0.0
 13
0.0
 23
0.0
 33
0.0
 16
1.0
 26
0.0
 36
0.0
 17
0.0
 27
1.0
 37
0.0
 76
     0
330
23
  0
LAYOUT
  5
22
102
{ACAD_REACTORS
330
1A
102
}
330
1A
100
AcDbPlotSettings
  1

  2
none_device
  4
Letter_(8.50_x_11.00_Inches)
  6

 40
6.35
 41
6.35
 42
6.35000508
 43
6.35000508
 44
215.9
 45
279.4
 46
0.0
 47
0.0
 48
0.0
 49
0.0
140
0.0
141
0.0
142
1.0
143
1.0
 70
  1712
 72
     1
 73
     0
 74
     0
  7

 75
     0
147
1.0
148
0.0
149
0.0
100
AcDbLayout
  1
Model
 70
     1
 71
     0
 10
0.0
 20
0.0
 11
297.0
 21
210.0
 12
0.0
 22
0.0
 32
0.0
 14
0.0
 24
0.0
 34
0.0
 15
297.0
 25
210.0
 35
0.0
146
0.0
 13
0.0
 23
0.0
 33
0.0
 16
1.0
 26
0.0
 36
0.0
 17
0.0
 27
1.0
 37
0.0
 76
     0
330
1F
331
29
  0
MLINESTYLE
  5
18
102
{ACAD_REACTORS
330
17
102
}
330
17
100
AcDbMlineStyle
  2
Standard
 70
     0
  3

 62
   256
 51
90.0
 52
90.0
 71
     2
 49
0.5
 62
   256
  6
BYLAYER
 49
-0.5
 62
   256
  6
BYLAYER
  0
ACDBPLACEHOLDER
  5
F
102
{ACAD_REACTORS
330
E
102
}
330
E
  0
SCALE
  5
48
102
{ACAD_REACTORS
330
47
102
}
330
47
100
AcDbScale
 70
     0
300
1:1
140
1.0
141
1.0
290
     1
  0
SCALE
  5
49
102
{ACAD_REACTORS
330
47
102
}
330
47
100
AcDbScale
 70
     0
300
1:2
140
1.0
141
2.0
290
     0
  0
SCALE
  5
4A
102
{ACAD_REACTORS
330
47
102
}
330
47
100
AcDbScale
 70
     0
300
1:4
140
1.0
141
4.0
290
     0
  0
SCALE
  5
4B
102
{ACAD_REACTORS
330
47
102
}
330
47
100
AcDbScale
 70
     0
300
1:5
140
1.0
141
5.0
290
     0
  0
SCALE
  5
4C
102
{ACAD_REACTORS
330
47
102
}
330
47
100
AcDbScale
 70
     0
300
1:8
140
1.0
141
8.0
290
     0
  0
SCALE
  5
4D
102
{ACAD_REACTORS
330
47
102
}
330
47
100
AcDbScale
 70
     0
300
1:10
140
1.0
141
10.0
290
     0
  0
SCALE
  5
4E
102
{ACAD_REACTORS
330
47
102
}
330
47
100
AcDbScale
 70
     0
300
1:16
140
1.0
141
16.0
290
     0
  0
SCALE
  5
4F
102
{ACAD_REACTORS
330
47
102
}
330
47
100
AcDbScale
 70
     0
300
1:20
140
1.0
141
20.0
290
     0
  0
SCALE
  5
50
102
{ACAD_REACTORS
330
47
102
}
330
47
100
AcDbScale
 70
     0
300
1:30
140
1.0
141
30.0
290
     0
  0
SCALE
  5
51
102
{ACAD_REACTORS
330
47
102
}
330
47
100
AcDbScale
 70
     0
300
1:40
140
1.0
141
40.0
290
     0
  0
SCALE
  5
52
102
{ACAD_REACTORS
330
47
102
}
330
47
100
AcDbScale
 70
     0
300
1:50
140
1.0
141
50.0
290
     0
  0
SCALE
  5
53
102
{ACAD_REACTORS
330
47
102
}
330
47
100
AcDbScale
 70
     0
300
1:100
140
1.0
141
100.0
290
     0
  0
SCALE
  5
54
102
{ACAD_REACTORS
330
47
102
}
330
47
100
AcDbScale
 70
     0
300
2:1
140
2.0
141
1.0
290
     0
  0
SCALE
  5
55
102
{ACAD_REACTORS
330
47
102
}
330
47
100
AcDbScale
 70
     0
300
4:1
140
4.0
141
1.0
290
     0
  0
SCALE
  5
56
102
{ACAD_REACTORS
330
47
102
}
330
47
100
AcDbScale
 70
     0
300
8:1
140
8.0
141
1.0
290
     0
  0
SCALE
  5
57
102
{ACAD_REACTORS
330
47
102
}
330
47
100
AcDbScale
 70
     0
300
10:1
140
10.0
141
1.0
290
     0
  0
SCALE
  5
58
102
{ACAD_REACTORS
330
47
102
}
330
47
100
AcDbScale
 70
     0
300
100:1
140
100.0
141
1.0
290
     0
  0
SCALE
  5
59
102
{ACAD_REACTORS
330
47
102
}
330
47
100
AcDbScale
 70
     0
300
1/128" = 1'-0"
140
0.0078125
141
12.0
290
     0
  0
SCALE
  5
5A
102
{ACAD_REACTORS
330
47
102
}
330
47
100
AcDbScale
 70
     0
300
1/64" = 1'-0"
140
0.015625
141
12.0
290
     0
  0
SCALE
  5
5B
102
{ACAD_REACTORS
330
47
102
}
330
47
100
AcDbScale
 70
     0
300
1/32" = 1'-0"
140
0.03125
141
12.0
290
     0
  0
SCALE
  5
5C
102
{ACAD_REACTORS
330
47
102
}
330
47
100
AcDbScale
 70
     0
300
1/16" = 1'-0"
140
0.0625
141
12.0
290
     0
  0
SCALE
  5
5D
102
{ACAD_REACTORS
330
47
102
}
330
47
100
AcDbScale
 70
     0
300
3/32" = 1'-0"
140
0.09375
141
12.0
290
     0
  0
SCALE
  5
5E
102
{ACAD_REACTORS
330
47
102
}
330
47
100
AcDbScale
 70
     0
300
1/8" = 1'-0"
140
0.125
141
12.0
290
     0
  0
SCALE
  5
5F
102
{ACAD_REACTORS
330
47
102
}
330
47
100
AcDbScale
 70
     0
300
3/16" = 1'-0"
140
0.1875
141
12.0
290
     0
  0
SCALE
  5
60
102
{ACAD_REACTORS
330
47
102
}
330
47
100
AcDbScale
 70
     0
300
1/4" = 1'-0"
140
0.25
141
12.0
290
     0
  0
SCALE
  5
61
102
{ACAD_REACTORS
330
47
102
}
330
47
100
AcDbScale
 70
     0
300
3/8" = 1'-0"
140
0.375
141
12.0
290
     0
  0
SCALE
  5
62
102
{ACAD_REACTORS
330
47
102
}
330
47
100
AcDbScale
 70
     0
300
1/2" = 1'-0"
140
0.5
141
12.0
290
     0
  0
SCALE
  5
63
102
{ACAD_REACTORS
330
47
102
}
330
47
100
AcDbScale
 70
     0
300
3/4" = 1'-0"
140
0.75
141
12.0
290
     0
  0
SCALE
  5
64
102
{ACAD_REACTORS
330
47
102
}
330
47
100
AcDbScale
 70
     0
300
1" = 1'-0"
140
1.0
141
12.0
290
     0
  0
SCALE
  5
65
102
{ACAD_REACTORS
330
47
102
}
330
47
100
AcDbScale
 70
     0
300
1-1/2" = 1'-0"
140
1.5
141
12.0
290
     0
  0
SCALE
  5
66
102
{ACAD_REACTORS
330
47
102
}
330
47
100
AcDbScale
 70
     0
300
3" = 1'-0"
140
3.0
141
12.0
290
     0
  0
SCALE
  5
67
102
{ACAD_REACTORS
330
47
102
}
330
47
100
AcDbScale
 70
     0
300
6" = 1'-0"
140
6.0
141
12.0
290
     0
  0
SCALE
  5
68
102
{ACAD_REACTORS
330
47
102
}
330
47
100
AcDbScale
 70
     0
300
1'-0" = 1'-0"
140
12.0
141
12.0
290
     0
  0
ENDSEC
  0
EOF
