  0
SECTION
  2
HEADER
  9
$ACADVER
  1
AC1015
  9
$ACADMAINTVER
 70
     6
  9
$DWGCODEPAGE
  3
ANSI_1252
  9
$INSBASE
 10
0.0
 20
0.0
 30
0.0
  9
$EXTMIN
 10
0.0
 20
0.0
 30
0.0
  9
$EXTMAX
 10
297.0
 20
210.0
 30
0.0
  9
$LIMMIN
 10
0.0
 20
0.0
  9
$LIMMAX
 10
297.0
 20
210.0
  9
$ORTHOMODE
 70
     0
  9
$REGENMODE
 70
     1
  9
$FILLMODE
 70
     1
  9
$QTEXTMODE
 70
     0
  9
$MIRRTEXT
 70
     1
  9
$LTSCALE
 40
1.0
  9
$ATTMODE
 70
     1
  9
$TEXTSIZE
 40
2.0
  9
$TRACEWID
 40
1.0
  9
$TEXTSTYLE
  7
Standard
  9
$CLAYER
  8
0
  9
$CELTYPE
  6
ByLayer
  9
$CECOLOR
 62
   256
  9
$CELTSCALE
 40
1.0
  9
$DISPSILH
 70
     0
  9
$DIMSCALE
 40
1.0
  9
$DIMASZ
 40
3.0
  9
$DIMEXO
 40
0.0
  9
$DIMDLI
 40
3.75
  9
$DIMRND
 40
0.0
  9
$DIMDLE
 40
0.0
  9
$DIMEXE
 40
1.0
  9
$DIMTP
 40
0.0
  9
$DIMTM
 40
0.0
  9
$DIMTXT
 40
2.0
  9
$DIMCEN
 40
2.5
  9
$DIMTSZ
 40
0.0
  9
$DIMTOL
 70
     0
  9
$DIMLIM
 70
     0
  9
$DIMTIH
 70
     1
  9
$DIMTOH
 70
     1
  9
$DIMSE1
 70
     0
  9
$DIMSE2
 70
     0
  9
$DIMTAD
 70
     1
  9
$DIMZIN
 70
     0
  9
$DIMBLK
  1

  9
$DIMASO
 70
     1
  9
$DIMSHO
 70
     1
  9
$DIMPOST
  1

  9
$DIMAPOST
  1

  9
$DIMALT
 70
     0
  9
$DIMALTD
 70
     3
  9
$DIMALTF
 40
0.0393700787
  9
$DIMLFAC
 40
2.0
  9
$DIMTOFL
 70
     1
  9
$DIMTVP
 40
0.0
  9
$DIMTIX
 70
     0
  9
$DIMSOXD
 70
     0
  9
$DIMSAH
 70
     0
  9
$DIMBLK1
  1

  9
$DIMBLK2
  1

  9
$DIMSTYLE
  2
ISO-25
  9
$DIMCLRD
 70
     0
  9
$DIMCLRE
 70
     0
  9
$DIMCLRT
 70
     0
  9
$DIMTFAC
 40
1.0
  9
$DIMGAP
 40
1.524
  9
$DIMJUST
 70
     0
  9
$DIMSD1
 70
     0
  9
$DIMSD2
 70
     0
  9
$DIMTOLJ
 70
     0
  9
$DIMTZIN
 70
     0
  9
$DIMALTZ
 70
     0
  9
$DIMALTTZ
 70
     0
  9
$DIMUPT
 70
     0
  9
$DIMDEC
 70
     2
  9
$DIMTDEC
 70
     3
  9
$DIMALTU
 70
     2
  9
$DIMALTTD
 70
     3
  9
$DIMTXSTY
  7
Standard
  9
$DIMAUNIT
 70
     0
  9
$DIMADEC
 70
     2
  9
$DIMALTRND
 40
0.0
  9
$DIMAZIN
 70
     0
  9
$DIMDSEP
 70
    44
  9
$DIMATFIT
 70
     3
  9
$DIMFRAC
 70
     0
  9
$DIMLDRBLK
  1

  9
$DIMLUNIT
 70
     2
  9
$DIMLWD
 70
    -2
  9
$DIMLWE
 70
    -2
  9
$DIMTMOVE
 70
     0
  9
$LUNITS
 70
     2
  9
$LUPREC
 70
     2
  9
$SKETCHINC
 40
1.0
  9
$FILLETRAD
 40
10.0
  9
$AUNITS
 70
     0
  9
$AUPREC
 70
     2
  9
$MENU
  1
.
  9
$ELEVATION
 40
0.0
  9
$PELEVATION
 40
0.0
  9
$THICKNESS
 40
0.0
  9
$LIMCHECK
 70
     0
  9
$CHAMFERA
 40
0.0
  9
$CHAMFERB
 40
0.0
  9
$CHAMFERC
 40
0.0
  9
$CHAMFERD
 40
0.0
  9
$SKPOLY
 70
     0
  9
$TDCREATE
 40
2458166.579850266
  9
$TDUCREATE
 40
2458166.5381836
  9
$TDUPDATE
 40
2458166.57985235
  9
$TDUUPDATE
 40
2458166.538185683
  9
$TDINDWG
 40
0.0000000116
  9
$TDUSRTIMER
 40
0.0000000116
  9
$USRTIMER
 70
     1
  9
$ANGBASE
 50
0.0
  9
$ANGDIR
 70
     0
  9
$PDMODE
 70
     0
  9
$PDSIZE
 40
-1.0
  9
$PLINEWID
 40
0.0
  9
$SPLFRAME
 70
     0
  9
$SPLINETYPE
 70
     6
  9
$SPLINESEGS
 70
     8
  9
$HANDSEED
  5
28B
  9
$SURFTAB1
 70
     6
  9
$SURFTAB2
 70
     6
  9
$SURFTYPE
 70
     6
  9
$SURFU
 70
     6
  9
$SURFV
 70
     6
  9
$UCSBASE
  2

  9
$UCSNAME
  2

  9
$UCSORG
 10
0.0
 20
0.0
 30
0.0
  9
$UCSXDIR
 10
1.0
 20
0.0
 30
0.0
  9
$UCSYDIR
 10
0.0
 20
1.0
 30
0.0
  9
$UCSORTHOREF
  2

  9
$UCSORTHOVIEW
 70
     0
  9
$UCSORGTOP
 10
0.0
 20
0.0
 30
0.0
  9
$UCSORGBOTTOM
 10
0.0
 20
0.0
 30
0.0
  9
$UCSORGLEFT
 10
0.0
 20
0.0
 30
0.0
  9
$UCSORGRIGHT
 10
0.0
 20
0.0
 30
0.0
  9
$UCSORGFRONT
 10
0.0
 20
0.0
 30
0.0
  9
$UCSORGBACK
 10
0.0
 20
0.0
 30
0.0
  9
$PUCSBASE
  2

  9
$PUCSNAME
  2

  9
$PUCSORG
 10
0.0
 20
0.0
 30
0.0
  9
$PUCSXDIR
 10
1.0
 20
0.0
 30
0.0
  9
$PUCSYDIR
 10
0.0
 20
1.0
 30
0.0
  9
$PUCSORTHOREF
  2

  9
$PUCSORTHOVIEW
 70
     0
  9
$PUCSORGTOP
 10
0.0
 20
0.0
 30
0.0
  9
$PUCSORGBOTTOM
 10
0.0
 20
0.0
 30
0.0
  9
$PUCSORGLEFT
 10
0.0
 20
0.0
 30
0.0
  9
$PUCSORGRIGHT
 10
0.0
 20
0.0
 30
0.0
  9
$PUCSORGFRONT
 10
0.0
 20
0.0
 30
0.0
  9
$PUCSORGBACK
 10
0.0
 20
0.0
 30
0.0
  9
$USERI1
 70
     0
  9
$USERI2
 70
     0
  9
$USERI3
 70
     0
  9
$USERI4
 70
     0
  9
$USERI5
 70
     0
  9
$USERR1
 40
0.0
  9
$USERR2
 40
0.0
  9
$USERR3
 40
0.0
  9
$USERR4
 40
0.0
  9
$USERR5
 40
0.0
  9
$WORLDVIEW
 70
     1
  9
$SHADEDGE
 70
     3
  9
$SHADEDIF
 70
    70
  9
$TILEMODE
 70
     1
  9
$MAXACTVP
 70
    64
  9
$PINSBASE
 10
0.0
 20
0.0
 30
0.0
  9
$PLIMCHECK
 70
     0
  9
$PEXTMIN
 10
1.0000000000E+20
 20
1.0000000000E+20
 30
1.0000000000E+20
  9
$PEXTMAX
 10
-1.0000000000E+20
 20
-1.0000000000E+20
 30
-1.0000000000E+20
  9
$PLIMMIN
 10
0.0
 20
0.0
  9
$PLIMMAX
 10
420.0
 20
297.0
  9
$UNITMODE
 70
     0
  9
$VISRETAIN
 70
     1
  9
$PLINEGEN
 70
     0
  9
$PSLTSCALE
 70
     1
  9
$TREEDEPTH
 70
  3020
  9
$CMLSTYLE
  2
Standard
  9
$CMLJUST
 70
     0
  9
$CMLSCALE
 40
20.0
  9
$PROXYGRAPHICS
 70
     1
  9
$MEASUREMENT
 70
     1
  9
$CELWEIGHT
370
    -1
  9
$ENDCAPS
280
     0
  9
$JOINSTYLE
280
     0
  9
$LWDISPLAY
290
     1
  9
$INSUNITS
 70
     4
  9
$HYPERLINKBASE
  1

  9
$STYLESHEET
  1

  9
$XEDIT
290
     1
  9
$CEPSNTYPE
380
     0
  9
$PSTYLEMODE
290
     1
  9
$FINGERPRINTGUID
  2
{F31FACFA-3E31-4223-A718-618965D83D15}
  9
$VERSIONGUID
  2
{FAEB1C32-E019-11D5-929B-00C0DF256EC4}
  9
$EXTNAMES
290
     1
  9
$PSVPSCALE
 40
0.0
  9
$OLESTARTUP
290
     0
  0
ENDSEC
  0
SECTION
  2
CLASSES
  0
CLASS
  1
ACDBDICTIONARYWDFLT
  2
AcDbDictionaryWithDefault
  3
ObjectDBX Classes
 90
        0
280
     0
281
     0
  0
CLASS
  1
VISUALSTYLE
  2
AcDbVisualStyle
  3
ObjectDBX Classes
 90
     4095
280
     0
281
     0
  0
CLASS
  1
MATERIAL
  2
AcDbMaterial
  3
ObjectDBX Classes
 90
     1153
280
     0
281
     0
  0
CLASS
  1
SCALE
  2
AcDbScale
  3
ObjectDBX Classes
 90
     1153
280
     0
281
     0
  0
CLASS
  1
TABLESTYLE
  2
AcDbTableStyle
  3
ObjectDBX Classes
 90
     4095
280
     0
281
     0
  0
CLASS
  1
MLEADERSTYLE
  2
AcDbMLeaderStyle
  3
ACDB_MLEADERSTYLE_CLASS
 90
     4095
280
     0
281
     0
  0
CLASS
  1
SUN
  2
AcDbSun
  3
SCENEOE
 90
     1153
280
     0
281
     0
  0
CLASS
  1
ACDBPLACEHOLDER
  2
AcDbPlaceHolder
  3
ObjectDBX Classes
 90
        0
280
     0
281
     0
  0
CLASS
  1
LAYOUT
  2
AcDbLayout
  3
ObjectDBX Classes
 90
        0
280
     0
281
     0
  0
ENDSEC
  0
SECTION
  2
TABLES
  0
TABLE
  2
VPORT
  5
8
330
0
100
AcDbSymbolTable
 70
     1
  0
VPORT
  5
29
330
8
100
AcDbSymbolTableRecord
100
AcDbViewportTableRecord
  2
*Active
 70
     0
 10
0.0
 20
0.0
 11
1.0
 21
1.0
 12
148.5
 22
105.0
 13
0.0
 23
0.0
 14
10.0
 24
10.0
 15
10.0
 25
10.0
 16
0.0
 26
0.0
 36
1.0
 17
0.0
 27
0.0
 37
0.0
 40
210.0
 41
1.4142857143
 42
50.0
 43
0.0
 44
0.0
 50
0.0
 51
0.0
 71
     0
 72
  2000
 73
     1
 74
     3
 75
     0
 76
     0
 77
     0
 78
     0
281
     0
 65
     1
110
0.0
120
0.0
130
0.0
111
1.0
121
0.0
131
0.0
112
0.0
122
1.0
132
0.0
 79
     0
146
0.0
  0
ENDTAB
  0
TABLE
  2
LTYPE
  5
5
330
0
100
AcDbSymbolTable
 70
     6
  0
LTYPE
  5
14
330
5
100
AcDbSymbolTableRecord
100
AcDbLinetypeTableRecord
  2
ByBlock
 70
     0
  3

 72
    65
 73
     0
 40
0.0
  0
LTYPE
  5
15
330
5
100
AcDbSymbolTableRecord
100
AcDbLinetypeTableRecord
  2
ByLayer
 70
     0
  3

 72
    65
 73
     0
 40
0.0
  0
LTYPE
  5
16
330
5
100
AcDbSymbolTableRecord
100
AcDbLinetypeTableRecord
  2
Continuous
 70
     0
  3
Solid line
 72
    65
 73
     0
 40
0.0
  0
LTYPE
  5
6E
330
5
100
AcDbSymbolTableRecord
100
AcDbLinetypeTableRecord
  2
HIDDEN
 70
     0
  3
Hidden __ __ __ __ __ __ __ __ __ __ __ __ __ __
 72
    65
 73
     2
 40
1.905
 49
1.27
 74
     0
 49
-0.635
 74
     0
  0
LTYPE
  5
6F
330
5
100
AcDbSymbolTableRecord
100
AcDbLinetypeTableRecord
  2
PHANTOM
 70
     0
  3
Phantom ______  __  __  ______  __  __  ______
 72
    65
 73
     6
 40
12.7
 49
6.35
 74
     0
 49
-1.27
 74
     0
 49
1.27
 74
     0
 49
-1.27
 74
     0
 49
1.27
 74
     0
 49
-1.27
 74
     0
  0
LTYPE
  5
70
330
5
100
AcDbSymbolTableRecord
100
AcDbLinetypeTableRecord
  2
CENTER
 70
     0
  3
Center ____ _ ____ _ ____ _ ____ _ ____ _ ____
 72
    65
 73
     4
 40
10.16
 49
6.35
 74
     0
 49
-1.27
 74
     0
 49
1.27
 74
     0
 49
-1.27
 74
     0
  0
LTYPE
  5
71
330
5
100
AcDbSymbolTableRecord
100
AcDbLinetypeTableRecord
  2
CENTERX2
 70
     0
  3
Center (2x) ________  __  ________  __  _____
 72
    65
 73
     4
 40
20.32
 49
12.7
 74
     0
 49
-2.54
 74
     0
 49
2.54
 74
     0
 49
-2.54
 74
     0
  0
LTYPE
  5
72
330
5
100
AcDbSymbolTableRecord
100
AcDbLinetypeTableRecord
  2
DOT2
 70
     0
  3
Dot (.5x) ........................................
 72
    65
 73
     2
 40
0.635
 49
0.0
 74
     0
 49
-0.635
 74
     0
  0
ENDTAB
  0
TABLE
  2
LAYER
  5
2
330
0
100
AcDbSymbolTable
 70
     5
  0
LAYER
  5
10
330
2
100
AcDbSymbolTableRecord
100
AcDbLayerTableRecord
  2
0
 70
     0
 62
     7
  6
Continuous
370
    -3
390
F
  0
LAYER
  5
73
330
2
100
AcDbSymbolTableRecord
100
AcDbLayerTableRecord
  2
FORMAT
 70
     0
 62
     7
  6
Continuous
370
    -3
390
F
  0
LAYER
  5
74
330
2
100
AcDbSymbolTableRecord
100
AcDbLayerTableRecord
  2
VERMASSUNG
 70
     0
 62
     7
  6
Continuous
370
    -3
390
F
  0
LAYER
  5
75
330
2
100
AcDbSymbolTableRecord
100
AcDbLayerTableRecord
  2
KOPF_DÜNN
 70
     0
 62
     7
  6
Continuous
370
    -3
390
F
  0
LAYER
  5
76
330
2
100
AcDbSymbolTableRecord
100
AcDbLayerTableRecord
  2
KOPF_DICK
 70
     0
 62
     7
  6
Continuous
370
    25
390
F
  0
ENDTAB
  0
TABLE
  2
STYLE
  5
3
330
0
100
AcDbSymbolTable
 70
     2
  0
STYLE
  5
11
330
3
100
AcDbSymbolTableRecord
100
AcDbTextStyleTableRecord
  2
Standard
 70
     0
 40
0.0
 41
1.0
 50
0.0
 71
     0
 42
2.0
  3
txt
  4

  0
STYLE
  5
77
330
3
100
AcDbSymbolTableRecord
100
AcDbTextStyleTableRecord
  2
SLDTEXTSTYLE0
 70
     0
 40
0.0
 41
0.7
 50
0.0
 71
     0
 42
2.0
  3
TXT
  4

  0
ENDTAB
  0
TABLE
  2
VIEW
  5
6
330
0
100
AcDbSymbolTable
 70
     0
  0
ENDTAB
  0
TABLE
  2
UCS
  5
7
330
0
100
AcDbSymbolTable
 70
     0
  0
ENDTAB
  0
TABLE
  2
APPID
  5
9
330
0
100
AcDbSymbolTable
 70
     1
  0
APPID
  5
12
330
9
100
AcDbSymbolTableRecord
100
AcDbRegAppTableRecord
  2
ACAD
 70
     0
  0
ENDTAB
  0
TABLE
  2
DIMSTYLE
  5
A
330
0
100
AcDbSymbolTable
 70
     3
100
AcDbDimStyleTable
  0
DIMSTYLE
105
27
330
A
100
AcDbSymbolTableRecord
100
AcDbDimStyleTableRecord
  2
ISO-25
 70
     0
 41
2.5
 42
0.625
 43
3.75
 44
1.25
 73
     0
 74
     0
 77
     1
 78
     8
140
2.5
141
2.5
143
0.0393700787
147
0.625
171
     3
172
     1
178
     0
271
     2
272
     2
274
     3
278
    44
283
     0
284
     8
340
11
  0
DIMSTYLE
105
155
102
{ACAD_REACTORS
330
154
330
15F
330
16A
330
174
102
}
330
A
100
AcDbSymbolTableRecord
100
AcDbDimStyleTableRecord
  2
SLDDIMSTYLE0
 70
     0
 41
3.0
 44
0.0
 45
0.000000001
 73
     0
 74
     0
 77
     1
 78
    12
 79
     3
140
2.0
147
0.5
173
     1
178
     0
271
     2
272
     3
276
     2
284
    12
340
77
  0
DIMSTYLE
105
17F
102
{ACAD_REACTORS
330
17E
102
}
330
A
100
AcDbSymbolTableRecord
100
AcDbDimStyleTableRecord
  2
SLDDIMSTYLE1
 70
     0
 41
3.0
 44
0.0
 45
0.000000001
 73
     0
 74
     0
 77
     1
 78
    12
 79
     3
140
2.0
147
0.5
173
     1
178
     0
271
     1
272
     3
276
     2
284
    12
340
77
  0
ENDTAB
  0
TABLE
  2
BLOCK_RECORD
  5
1
330
0
100
AcDbSymbolTable
 70
     6
  0
BLOCK_RECORD
  5
1F
330
1
100
AcDbSymbolTableRecord
100
AcDbBlockTableRecord
  2
*Model_Space
340
22
  0
BLOCK_RECORD
  5
1B
330
1
100
AcDbSymbolTableRecord
100
AcDbBlockTableRecord
  2
*Paper_Space
340
1E
  0
BLOCK_RECORD
  5
23
330
1
100
AcDbSymbolTableRecord
100
AcDbBlockTableRecord
  2
*Paper_Space0
340
26
  0
BLOCK_RECORD
  5
156
330
1
100
AcDbSymbolTableRecord
100
AcDbBlockTableRecord
  2
_D
340
0
  0
BLOCK_RECORD
  5
160
330
1
100
AcDbSymbolTableRecord
100
AcDbBlockTableRecord
  2
_D_1
340
0
  0
BLOCK_RECORD
  5
16B
330
1
100
AcDbSymbolTableRecord
100
AcDbBlockTableRecord
  2
_D_2
340
0
  0
BLOCK_RECORD
  5
175
330
1
100
AcDbSymbolTableRecord
100
AcDbBlockTableRecord
  2
_D_3
340
0
  0
BLOCK_RECORD
  5
180
330
1
100
AcDbSymbolTableRecord
100
AcDbBlockTableRecord
  2
_D_4
340
0
  0
ENDTAB
  0
ENDSEC
  0
SECTION
  2
BLOCKS
  0
BLOCK
  5
20
330
1F
100
AcDbEntity
  8
0
100
AcDbBlockBegin
  2
*Model_Space
 70
     0
 10
0.0
 20
0.0
 30
0.0
  3
*Model_Space
  1

  0
ENDBLK
  5
21
330
1F
100
AcDbEntity
  8
0
100
AcDbBlockEnd
  0
BLOCK
  5
1C
330
1B
100
AcDbEntity
 67
     1
  8
0
100
AcDbBlockBegin
  2
*Paper_Space
 70
     0
 10
0.0
 20
0.0
 30
0.0
  3
*Paper_Space
  1

  0
ENDBLK
  5
1D
330
1B
100
AcDbEntity
 67
     1
  8
0
100
AcDbBlockEnd
  0
BLOCK
  5
24
330
23
100
AcDbEntity
  8
0
100
AcDbBlockBegin
  2
*Paper_Space0
 70
     0
 10
0.0
 20
0.0
 30
0.0
  3
*Paper_Space0
  1

  0
ENDBLK
  5
25
330
23
100
AcDbEntity
  8
0
100
AcDbBlockEnd
  0
BLOCK
  5
157
330
156
100
AcDbEntity
  8
0
100
AcDbBlockBegin
  2
_D
 70
     0
 10
0.0
 20
0.0
 30
0.0
  3
_D
  1

  0
SOLID
  5
159
330
156
100
AcDbEntity
  8
VERMASSUNG
100
AcDbTrace
 10
165.5172363286
 20
90.5820031731
 30
0.0
 11
165.9672363286
 21
93.5820031731
 31
0.0
 12
165.0672363286
 22
93.5820031731
 32
0.0
 13
165.0672363286
 23
93.5820031731
 33
0.0
  0
SOLID
  5
15A
330
156
100
AcDbEntity
  8
VERMASSUNG
100
AcDbTrace
 10
165.5172363286
 20
132.5820031731
 30
0.0
 11
165.0672363286
 21
129.5820031731
 31
0.0
 12
165.9672363286
 22
129.5820031731
 32
0.0
 13
165.9672363286
 23
129.5820031731
 33
0.0
  0
LINE
  5
15B
330
156
100
AcDbEntity
  8
VERMASSUNG
100
AcDbLine
 10
165.5172363286
 20
90.5820031731
 30
0.0
 11
165.5172363286
 21
132.5820031731
 31
0.0
  0
LINE
  5
15C
330
156
100
AcDbEntity
  8
VERMASSUNG
100
AcDbLine
 10
165.5172363286
 20
132.5820031731
 30
0.0
 11
165.5172363286
 21
142.9989159199
 31
0.0
  0
MTEXT
  5
15D
330
156
100
AcDbEntity
  8
VERMASSUNG
100
AcDbMText
 10
162.9391010237
 20
136.3889158795
 30
0.0
 40
2.0
 41
0.0
 71
     1
 72
     1
  1
%%c
  7
SLDTEXTSTYLE0
 11
6.123233995736766E-17
 21
1.0
 31
0.0
 73
     1
 44
1.0
  0
MTEXT
  5
15E
330
156
100
AcDbEntity
  8
VERMASSUNG
100
AcDbMText
 10
162.7391010724
 20
139.9989158938
 30
0.0
 40
2.0
 41
0.0
 71
     1
 72
     1
  1
42
  7
SLDTEXTSTYLE0
 11
6.123233995736766E-17
 21
1.0
 31
0.0
 73
     1
 44
1.0
  0
ENDBLK
  5
158
330
156
100
AcDbEntity
  8
0
100
AcDbBlockEnd
  0
BLOCK
  5
161
330
160
100
AcDbEntity
  8
0
100
AcDbBlockBegin
  2
_D_1
 70
     0
 10
0.0
 20
0.0
 30
0.0
  3
_D_1
  1

  0
SOLID
  5
163
330
160
100
AcDbEntity
  8
VERMASSUNG
100
AcDbTrace
 10
211.0385796306
 20
132.4320031731
 30
0.0
 11
210.5885796306
 21
129.4320031731
 31
0.0
 12
211.4885796306
 22
129.4320031731
 32
0.0
 13
211.4885796306
 23
129.4320031731
 33
0.0
  0
SOLID
  5
164
330
160
100
AcDbEntity
  8
VERMASSUNG
100
AcDbTrace
 10
211.0385796306
 20
90.7320031731
 30
0.0
 11
211.4885796306
 21
93.7320031731
 31
0.0
 12
210.5885796306
 22
93.7320031731
 32
0.0
 13
210.5885796306
 23
93.7320031731
 33
0.0
  0
LINE
  5
165
330
160
100
AcDbEntity
  8
VERMASSUNG
100
AcDbLine
 10
185.0981019647
 20
132.4320031731
 30
0.0
 11
212.0385796306
 21
132.4320031731
 31
0.0
  0
LINE
  5
166
330
160
100
AcDbEntity
  8
VERMASSUNG
100
AcDbLine
 10
185.1016633578
 20
90.7320031731
 30
0.0
 11
212.0385796306
 21
90.7320031731
 31
0.0
  0
LINE
  5
167
330
160
100
AcDbEntity
  8
VERMASSUNG
100
AcDbLine
 10
211.0385796306
 20
132.4320031731
 30
0.0
 11
211.0385796306
 21
90.7320031731
 31
0.0
  0
MTEXT
  5
168
330
160
100
AcDbEntity
  8
VERMASSUNG
100
AcDbMText
 10
208.4604443257
 20
107.4770033477
 30
0.0
 40
2.0
 41
0.0
 71
     1
 72
     1
  1
%%c
  7
SLDTEXTSTYLE0
 11
-7.044195017643634E-15
 21
1.0
 31
0.0
 73
     1
 44
1.0
  0
MTEXT
  5
169
330
160
100
AcDbEntity
  8
VERMASSUNG
100
AcDbMText
 10
208.2604443744
 20
111.087003362
 30
0.0
 40
2.0
 41
0.0
 71
     1
 72
     1
  1
41.7
  7
SLDTEXTSTYLE0
 11
-7.044195017643634E-15
 21
1.0
 31
0.0
 73
     1
 44
1.0
  0
ENDBLK
  5
162
330
160
100
AcDbEntity
  8
0
100
AcDbBlockEnd
  0
BLOCK
  5
16C
330
16B
100
AcDbEntity
  8
0
100
AcDbBlockBegin
  2
_D_2
 70
     0
 10
0.0
 20
0.0
 30
0.0
  3
_D_2
  1

  0
SOLID
  5
16E
330
16B
100
AcDbEntity
  8
VERMASSUNG
100
AcDbTrace
 10
199.6868356358
 20
150.5623233709
 30
0.0
 11
196.6868356358
 21
151.0123233709
 31
0.0
 12
196.6868356358
 22
150.1123233709
 32
0.0
 13
196.6868356358
 23
150.1123233709
 33
0.0
  0
SOLID
  5
16F
330
16B
100
AcDbEntity
  8
VERMASSUNG
100
AcDbTrace
 10
139.6868356358
 20
150.5623233709
 30
0.0
 11
142.6868356358
 21
150.1123233709
 31
0.0
 12
142.6868356358
 22
151.0123233709
 32
0.0
 13
142.6868356358
 23
151.0123233709
 33
0.0
  0
LINE
  5
170
330
16B
100
AcDbEntity
  8
VERMASSUNG
100
AcDbLine
 10
199.6868356358
 20
126.5820031731
 30
0.0
 11
199.6868356358
 21
151.5623233709
 31
0.0
  0
LINE
  5
171
330
16B
100
AcDbEntity
  8
VERMASSUNG
100
AcDbLine
 10
139.6868356358
 20
142.8570031731
 30
0.0
 11
139.6868356358
 21
151.5623233709
 31
0.0
  0
LINE
  5
172
330
16B
100
AcDbEntity
  8
VERMASSUNG
100
AcDbLine
 10
199.6868356358
 20
150.5623233709
 30
0.0
 11
139.6868356358
 21
150.5623233709
 31
0.0
  0
MTEXT
  5
173
330
16B
100
AcDbEntity
  8
VERMASSUNG
100
AcDbMText
 10
168.2868356857
 20
153.1404589669
 30
0.0
 40
2.0
 41
0.0
 71
     1
 72
     1
  1
60
  7
SLDTEXTSTYLE0
 73
     1
 44
1.0
  0
ENDBLK
  5
16D
330
16B
100
AcDbEntity
  8
0
100
AcDbBlockEnd
  0
BLOCK
  5
176
330
175
100
AcDbEntity
  8
0
100
AcDbBlockBegin
  2
_D_3
 70
     0
 10
0.0
 20
0.0
 30
0.0
  3
_D_3
  1

  0
SOLID
  5
178
330
175
100
AcDbEntity
  8
VERMASSUNG
100
AcDbTrace
 10
99.7368356358
 20
157.1110068376
 30
0.0
 11
102.7368356358
 21
156.6610068376
 31
0.0
 12
102.7368356358
 22
157.5610068376
 32
0.0
 13
102.7368356358
 23
157.5610068376
 33
0.0
  0
SOLID
  5
179
330
175
100
AcDbEntity
  8
VERMASSUNG
100
AcDbTrace
 10
199.6868356358
 20
157.1110068376
 30
0.0
 11
196.6868356358
 21
157.5610068376
 31
0.0
 12
196.6868356358
 22
156.6610068376
 32
0.0
 13
196.6868356358
 23
156.6610068376
 33
0.0
  0
LINE
  5
17A
330
175
100
AcDbEntity
  8
VERMASSUNG
100
AcDbLine
 10
99.7368356358
 20
133.7850978969
 30
0.0
 11
99.7368356358
 21
158.1110068376
 31
0.0
  0
LINE
  5
17B
330
175
100
AcDbEntity
  8
VERMASSUNG
100
AcDbLine
 10
199.6868356358
 20
126.5820031731
 30
0.0
 11
199.6868356358
 21
158.1110068376
 31
0.0
  0
LINE
  5
17C
330
175
100
AcDbEntity
  8
VERMASSUNG
100
AcDbLine
 10
99.7368356358
 20
157.1110068376
 30
0.0
 11
199.6868356358
 21
157.1110068376
 31
0.0
  0
MTEXT
  5
17D
330
175
100
AcDbEntity
  8
VERMASSUNG
100
AcDbMText
 10
146.6118357796
 20
159.6891424336
 30
0.0
 40
2.0
 41
0.0
 71
     1
 72
     1
  1
99.95
  7
SLDTEXTSTYLE0
 73
     1
 44
1.0
  0
ENDBLK
  5
177
330
175
100
AcDbEntity
  8
0
100
AcDbBlockEnd
  0
BLOCK
  5
181
330
180
100
AcDbEntity
  8
0
100
AcDbBlockBegin
  2
_D_4
 70
     0
 10
0.0
 20
0.0
 30
0.0
  3
_D_4
  1

  0
SOLID
  5
183
330
180
100
AcDbEntity
  8
VERMASSUNG
100
AcDbTrace
 10
88.4296100689
 20
80.1070031731
 30
0.0
 11
88.8796100689
 21
83.1070031731
 31
0.0
 12
87.9796100689
 22
83.1070031731
 32
0.0
 13
87.9796100689
 23
83.1070031731
 33
0.0
  0
SOLID
  5
184
330
180
100
AcDbEntity
  8
VERMASSUNG
100
AcDbTrace
 10
88.4296100689
 20
143.0570031731
 30
0.0
 11
87.9796100689
 21
140.0570031731
 31
0.0
 12
88.8796100689
 22
140.0570031731
 32
0.0
 13
88.8796100689
 23
140.0570031731
 33
0.0
  0
LINE
  5
185
330
180
100
AcDbEntity
  8
VERMASSUNG
100
AcDbLine
 10
139.8868356358
 20
80.1070031731
 30
0.0
 11
87.4296100689
 21
80.1070031731
 31
0.0
  0
LINE
  5
186
330
180
100
AcDbEntity
  8
VERMASSUNG
100
AcDbLine
 10
139.8868356358
 20
143.0570031731
 30
0.0
 11
87.4296100689
 21
143.0570031731
 31
0.0
  0
LINE
  5
187
330
180
100
AcDbEntity
  8
VERMASSUNG
100
AcDbLine
 10
88.4296100689
 20
80.1070031731
 30
0.0
 11
88.4296100689
 21
143.0570031731
 31
0.0
  0
MTEXT
  5
188
330
180
100
AcDbEntity
  8
VERMASSUNG
100
AcDbMText
 10
85.6514748127
 20
103.4770045547
 30
0.0
 40
2.0
 41
0.0
 71
     1
 72
     1
  1
KM
  7
SLDTEXTSTYLE0
 11
6.123233995736766E-17
 21
1.0
 31
0.0
 73
     1
 44
1.0
  0
MTEXT
  5
189
330
180
100
AcDbEntity
  8
VERMASSUNG
100
AcDbMText
 10
85.851474764
 20
106.877004367
 30
0.0
 40
2.0
 41
0.0
 71
     1
 72
     1
  1
%%c
  7
SLDTEXTSTYLE0
 11
6.123233995736766E-17
 21
1.0
 31
0.0
 73
     1
 44
1.0
  0
MTEXT
  5
18A
330
180
100
AcDbEntity
  8
VERMASSUNG
100
AcDbMText
 10
85.6514748127
 20
110.4870043813
 30
0.0
 40
2.0
 41
0.0
 71
     1
 72
     1
  1
63
  7
SLDTEXTSTYLE0
 11
6.123233995736766E-17
 21
1.0
 31
0.0
 73
     1
 44
1.0
  0
MTEXT
  5
18B
330
180
100
AcDbEntity
  8
VERMASSUNG
100
AcDbMText
 10
85.6514748127
 20
114.4745042814
 30
0.0
 40
2.0
 41
0.0
 71
     1
 72
     1
  1
XMZ
  7
SLDTEXTSTYLE0
 11
6.123233995736766E-17
 21
1.0
 31
0.0
 73
     1
 44
1.0
  0
ENDBLK
  5
182
330
180
100
AcDbEntity
  8
0
100
AcDbBlockEnd
  0
ENDSEC
  0
SECTION
  2
ENTITIES
  0
MTEXT
  5
78
330
1F
100
AcDbEntity
  8
KOPF_DÜNN
100
AcDbMText
 10
13.8892156294
 20
23.8442973028
 30
0.0
 40
3.0
 41
0.0
 71
     1
 72
     1
  1
KY6.E25.K01.060
  7
SLDTEXTSTYLE0
 73
     1
 44
1.0
  0
MTEXT
  5
79
330
1F
100
AcDbEntity
  8
VERMASSUNG
100
AcDbMText
 10
13.9329988022
 20
28.8834360957
 30
0.0
 40
3.0
 41
0.0
 71
     1
 72
     1
  1
Spannzangenfutter ER_Collet chuck ER
  7
SLDTEXTSTYLE0
 73
     1
 44
1.0
  0
MTEXT
  5
7A
330
1F
100
AcDbEntity
  8
VERMASSUNG
100
AcDbMText
 10
98.8601118557
 20
13.8365368761
 30
0.0
 40
2.0
 41
0.0
 71
     1
 72
     1
  1
Datum: 16.02.2018
  7
SLDTEXTSTYLE0
 73
     1
 44
1.0
  0
MTEXT
  5
7B
330
1F
100
AcDbEntity
  8
VERMASSUNG
100
AcDbMText
 10
13.933048693
 20
18.0482802738
 30
0.0
 40
2.0
 41
0.0
 71
     1
 72
     1
  1
KM63 XMZ / Ø42
  7
SLDTEXTSTYLE0
 73
     1
 44
1.0
  0
MTEXT
  5
7C
330
1F
100
AcDbEntity
  8
VERMASSUNG
100
AcDbMText
 10
13.9808475933
 20
13.9090974274
 30
0.0
 40
2.0
 41
0.0
 71
     1
 72
     1
  1
Gewicht: 864g
  7
SLDTEXTSTYLE0
 73
     1
 44
1.0
  0
LINE
  5
7D
330
1F
100
AcDbEntity
  8
0
  6
Continuous
 62
     7
370
    25
100
AcDbLine
 10
180.4868371081
 20
90.7320022701
 30
0.0
 11
185.1259038638
 21
90.7320022701
 31
0.0
  0
LINE
  5
7E
330
1F
100
AcDbEntity
  8
0
  6
Continuous
 62
     7
370
    25
100
AcDbLine
 10
185.1380594861
 20
132.4320040761
 30
0.0
 11
180.4868371081
 21
132.4320040761
 31
0.0
  0
LINE
  5
7F
330
1F
100
AcDbEntity
  8
0
  6
Continuous
 62
     7
370
    25
100
AcDbLine
 10
180.4868371081
 20
132.4320040761
 30
0.0
 11
179.6868347418
 21
131.6320035724
 31
0.0
  0
LINE
  5
80
330
1F
100
AcDbEntity
  8
0
  6
Continuous
 62
     7
370
    25
100
AcDbLine
 10
179.6868347418
 20
91.5320027737
 30
0.0
 11
180.4868371081
 21
90.7320022701
 31
0.0
  0
LINE
  5
81
330
1F
100
AcDbEntity
  8
0
  6
Continuous
 62
     7
370
    25
100
AcDbLine
 10
197.8527509462
 20
93.4052743135
 30
0.0
 11
199.6868342947
 21
96.5820035083
 31
0.0
  0
LINE
  5
82
330
1F
100
AcDbEntity
  8
0
  6
Continuous
 62
     7
370
    25
100
AcDbLine
 10
199.6868342947
 20
126.5820028378
 30
0.0
 11
197.8530713212
 21
129.7581769644
 31
0.0
  0
ARC
  5
83
330
1F
100
AcDbEntity
  8
0
  6
Continuous
 62
     7
370
    25
100
AcDbCircle
 10
156.6868356358
 20
81.1070031731
 30
0.0
 40
1.0
100
AcDbArc
 50
270.0
 51
0.0
  0
ARC
  5
84
330
1F
100
AcDbEntity
  8
0
  6
Continuous
 62
     7
370
    25
100
AcDbCircle
 10
156.6868356358
 20
142.0570031731
 30
0.0
 40
1.0
100
AcDbArc
 50
0.0
 51
90.0
  0
LINE
  5
85
330
1F
100
AcDbEntity
  8
0
  6
Continuous
 62
     7
370
    25
100
AcDbLine
 10
152.9210337292
 20
80.1070030896
 30
0.0
 11
156.6868365597
 21
80.1070030896
 31
0.0
  0
LINE
  5
86
330
1F
100
AcDbEntity
  8
0
  6
Continuous
 62
     7
370
    25
100
AcDbLine
 10
156.6868365597
 20
143.0570032565
 30
0.0
 11
152.9210337292
 21
143.0570032565
 31
0.0
  0
ARC
  5
87
330
1F
100
AcDbEntity
  8
0
  6
Continuous
 62
     7
370
    25
100
AcDbCircle
 10
139.8868356358
 20
80.3070031731
 30
0.0
 40
0.2000000000000028
100
AcDbArc
 50
180.0
 51
270.0
  0
ARC
  5
88
330
1F
100
AcDbEntity
  8
0
  6
Continuous
 62
     7
370
    25
100
AcDbCircle
 10
139.8868356358
 20
142.8570031731
 30
0.0
 40
0.1999999999999886
100
AcDbArc
 50
90.0
 51
180.0
  0
LINE
  5
89
330
1F
100
AcDbEntity
  8
0
  6
Continuous
 62
     7
370
    25
100
AcDbLine
 10
147.7118355077
 20
140.52959868
 30
0.0
 11
146.2526379008
 21
143.0570032565
 31
0.0
  0
LINE
  5
8A
330
1F
100
AcDbEntity
  8
0
  6
Continuous
 62
     7
370
    25
100
AcDbLine
 10
139.8868356308
 20
80.1070030896
 30
0.0
 11
146.2526379008
 21
80.1070030896
 31
0.0
  0
LINE
  5
8B
330
1F
100
AcDbEntity
  8
0
  6
Continuous
 62
     7
370
    25
100
AcDbLine
 10
146.2526379008
 20
143.0570032565
 30
0.0
 11
139.8868356308
 21
143.0570032565
 31
0.0
  0
ARC
  5
8C
330
1F
100
AcDbEntity
  8
0
  6
Continuous
 62
     7
370
    25
100
AcDbCircle
 10
139.2579007613
 20
86.0320031731
 30
0.0
 40
0.8000000000000081
100
AcDbArc
 50
57.576802718
 51
107.5
  0
ARC
  5
8D
330
1F
100
AcDbEntity
  8
0
  6
Continuous
 62
     7
370
    25
100
AcDbCircle
 10
139.2579007613
 20
137.1320031731
 30
0.0
 40
0.799999999999991
100
AcDbArc
 50
252.5
 51
302.423197282
  0
ARC
  5
8E
330
1F
100
AcDbEntity
  8
0
  6
Continuous
 62
     7
370
    25
100
AcDbCircle
 10
161.6868356358
 20
86.5820031731
 30
0.0
 40
4.0
100
AcDbArc
 50
90.0
 51
180.0
  0
ARC
  5
8F
330
1F
100
AcDbEntity
  8
0
  6
Continuous
 62
     7
370
    25
100
AcDbCircle
 10
161.6868356358
 20
136.5820031731
 30
0.0
 40
4.0
100
AcDbArc
 50
180.0
 51
270.0
  0
LINE
  5
90
330
1F
100
AcDbEntity
  8
0
  6
Continuous
 62
     7
370
    25
100
AcDbLine
 10
109.2916724127
 20
135.0556198625
 30
0.0
 11
101.2368366908
 21
134.6511241166
 31
0.0
  0
LINE
  5
91
330
1F
100
AcDbEntity
  8
0
  6
Continuous
 62
     7
370
    25
100
AcDbLine
 10
138.526653577
 20
136.523741868
 30
0.0
 11
125.2003905218
 21
135.8545232682
 31
0.0
  0
LINE
  5
92
330
1F
100
AcDbEntity
  8
0
  6
Continuous
 62
     7
370
    25
100
AcDbLine
 10
125.2013469901
 20
87.3094346492
 30
0.0
 11
138.526653577
 21
86.6402644782
 31
0.0
  0
LINE
  5
93
330
1F
100
AcDbEntity
  8
0
  6
Continuous
 62
     7
370
    25
100
AcDbLine
 10
101.2368366908
 20
88.5128822295
 30
0.0
 11
109.2916835885
 21
88.108384621
 31
0.0
  0
LINE
  5
94
330
1F
100
AcDbEntity
  8
0
  6
Continuous
 62
     7
370
    25
100
AcDbLine
 10
138.526653577
 20
86.6402644782
 30
0.0
 11
139.0173361259
 21
86.7949776469
 31
0.0
  0
LINE
  5
95
330
1F
100
AcDbEntity
  8
0
  6
Continuous
 62
     7
370
    25
100
AcDbLine
 10
139.0173361259
 20
136.3690286992
 30
0.0
 11
138.526653577
 21
136.523741868
 31
0.0
  0
LINE
  5
96
330
1F
100
AcDbEntity
  8
0
  6
Continuous
 62
     7
370
    25
100
AcDbLine
 10
101.2368366908
 20
134.6511241166
 30
0.0
 11
99.7368373763
 21
133.7850984304
 31
0.0
  0
LINE
  5
97
330
1F
100
AcDbEntity
  8
0
  6
Continuous
 62
     7
370
    25
100
AcDbLine
 10
169.1868358146
 20
132.5820028899
 30
0.0
 11
161.6868355166
 21
132.5820028899
 31
0.0
  0
LINE
  5
98
330
1F
100
AcDbEntity
  8
0
  6
Continuous
 62
     7
370
    25
100
AcDbLine
 10
161.6868355166
 20
90.5820034562
 30
0.0
 11
169.1868358146
 21
90.5820034562
 31
0.0
  0
ARC
  5
99
330
1F
100
AcDbEntity
  8
0
  6
Continuous
 62
     7
370
    25
100
AcDbCircle
 10
169.1868356358
 20
130.5820031731
 30
0.0
 40
2.0
100
AcDbArc
 50
0.0
 51
90.0
  0
ARC
  5
9A
330
1F
100
AcDbEntity
  8
0
  6
Continuous
 62
     7
370
    25
100
AcDbCircle
 10
169.1868356358
 20
92.5820031731
 30
0.0
 40
2.0
100
AcDbArc
 50
270.0
 51
0.0
  0
LINE
  5
9B
330
1F
100
AcDbEntity
  8
0
  6
Continuous
 62
     7
370
    25
100
AcDbLine
 10
99.7368373763
 20
89.3789079158
 30
0.0
 11
101.2368366908
 21
88.5128822295
 31
0.0
  0
ARC
  5
9C
330
1F
100
AcDbEntity
  8
0
  6
Continuous
 62
     7
370
    25
100
AcDbCircle
 10
172.1868356358
 20
128.5820031731
 30
0.0
 40
1.000000000000014
100
AcDbArc
 50
180.0
 51
270.0
  0
ARC
  5
9D
330
1F
100
AcDbEntity
  8
0
  6
Continuous
 62
     7
370
    25
100
AcDbCircle
 10
172.1868356358
 20
94.5820031731
 30
0.0
 40
1.0
100
AcDbArc
 50
90.0
 51
180.0
  0
LINE
  5
9E
330
1F
100
AcDbEntity
  8
0
  6
Continuous
 62
     7
370
    25
100
AcDbLine
 10
179.6868347418
 20
127.582003933
 30
0.0
 11
172.1868344437
 21
127.582003933
 31
0.0
  0
LINE
  5
9F
330
1F
100
AcDbEntity
  8
0
  6
Continuous
 62
     7
370
    25
100
AcDbLine
 10
172.1868344437
 20
95.5820024131
 30
0.0
 11
179.6868347418
 21
95.5820024131
 31
0.0
  0
LINE
  5
A0
330
1F
100
AcDbEntity
  8
0
  6
Continuous
 62
     7
370
    25
100
AcDbLine
 10
152.9210337292
 20
143.0570032565
 30
0.0
 11
151.4618356567
 21
140.52959868
 31
0.0
  0
ARC
  5
A1
330
1F
100
AcDbEntity
  8
0
  6
Continuous
 62
     7
370
    25
100
AcDbCircle
 10
148.7118356358
 20
140.4320031731
 30
0.0
 40
1.0
100
AcDbArc
 50
180.0
 51
270.0
  0
LINE
  5
A2
330
1F
100
AcDbEntity
  8
0
  6
Continuous
 62
     7
370
    25
100
AcDbLine
 10
146.2526379008
 20
80.1070030896
 30
0.0
 11
147.7118355077
 21
82.6344076662
 31
0.0
  0
ARC
  5
A3
330
1F
100
AcDbEntity
  8
0
  6
Continuous
 62
     7
370
    25
100
AcDbCircle
 10
148.7118356358
 20
82.7320031731
 30
0.0
 40
1.0
100
AcDbArc
 50
90.0
 51
180.0
  0
LINE
  5
A4
330
1F
100
AcDbEntity
  8
0
  6
Continuous
 62
     7
370
    25
100
AcDbLine
 10
150.4618354928
 20
139.4320033608
 30
0.0
 11
148.7118356716
 21
139.4320033608
 31
0.0
  0
LINE
  5
A5
330
1F
100
AcDbEntity
  8
0
  6
Continuous
 62
     7
370
    25
100
AcDbLine
 10
151.4618356567
 20
82.6344076662
 30
0.0
 11
152.9210337292
 21
80.1070030896
 31
0.0
  0
ARC
  5
A6
330
1F
100
AcDbEntity
  8
0
  6
Continuous
 62
     7
370
    25
100
AcDbCircle
 10
150.4618356358
 20
140.4320031731
 30
0.0
 40
1.0
100
AcDbArc
 50
270.0
 51
0.0
  0
LINE
  5
A7
330
1F
100
AcDbEntity
  8
0
  6
Continuous
 62
     7
370
    25
100
AcDbLine
 10
148.7118356716
 20
83.7320029853
 30
0.0
 11
150.4618354928
 21
83.7320029853
 31
0.0
  0
ARC
  5
A8
330
1F
100
AcDbEntity
  8
0
  6
Continuous
 62
     7
370
    25
100
AcDbCircle
 10
150.4618356358
 20
82.7320031731
 30
0.0
 40
1.0
100
AcDbArc
 50
0.0
 51
90.0
  0
LINE
  5
A9
330
1F
100
AcDbEntity
  8
0
  6
Continuous
 62
     7
370
    25
100
AcDbLine
 10
188.5571234714
 20
132.194798079
 30
0.0
 11
196.3093370985
 21
132.194798079
 31
0.0
  0
SPLINE
  5
AA
330
1F
100
AcDbEntity
  8
0
  6
Continuous
 62
     7
370
    25
100
AcDbSpline
210
0.0
220
0.0
230
1.0
 70
     8
 71
     3
 72
    13
 73
     9
 74
     0
 42
0.000000001
 43
0.00000001
 40
0.0
 40
0.0
 40
0.0
 40
0.0
 40
0.0636760246886022
 40
0.2608833481187792
 40
0.4545551781555499
 40
0.6614902415371892
 40
0.8835833232659135
 40
1.0
 40
1.0
 40
1.0
 40
1.0
 10
185.1308994781179
 20
132.4255444227031
 30
0.0
 10
185.1186158738972
 20
132.4268234350085
 30
0.0
 10
185.0682894313821
 20
132.4320636021538
 30
0.0
 10
185.3640166080349
 20
132.3868264640455
 30
0.0
 10
185.9566705950362
 20
132.3101468969999
 30
0.0
 10
186.8474773038939
 20
132.224480729028
 30
0.0
 10
187.7637455744251
 20
132.1748358901261
 30
0.0
 10
188.3540963201781
 20
132.1701527936813
 30
0.0
 10
188.5571234714193
 20
132.1685422329477
 30
0.0
  0
LINE
  5
AB
330
1F
100
AcDbEntity
  8
0
  6
Continuous
 62
     7
370
    25
100
AcDbLine
 10
188.5571234714
 20
132.1685422329
 30
0.0
 11
196.3093370985
 21
132.1685422329
 31
0.0
  0
LINE
  5
AC
330
1F
100
AcDbEntity
  8
0
  6
Continuous
 62
     7
370
    25
100
AcDbLine
 10
196.3093370985
 20
124.6043551831
 30
0.0
 11
196.3093370985
 21
132.1685422329
 31
0.0
  0
LINE
  5
AD
330
1F
100
AcDbEntity
  8
0
  6
Continuous
 62
     7
370
    25
100
AcDbLine
 10
188.5571234714
 20
124.6043551831
 30
0.0
 11
196.3093370985
 21
124.6043551831
 31
0.0
  0
SPLINE
  5
AE
330
1F
100
AcDbEntity
  8
0
  6
Continuous
 62
     7
370
    25
100
AcDbSpline
210
0.0
220
0.0
230
1.0
 70
     8
 71
     3
 72
    17
 73
    13
 74
     0
 42
0.000000001
 43
0.00000001
 40
0.0
 40
0.0
 40
0.0
 40
0.0
 40
0.0849599292894423
 40
0.2026993283925893
 40
0.3179172050634262
 40
0.4263320354846706
 40
0.5329713939576436
 40
0.6313698867148472
 40
0.7280135865453763
 40
0.8312799987736986
 40
0.942108651435152
 40
1.0
 40
1.0
 40
1.0
 40
1.0
 10
188.5571234714193
 20
119.0138558043412
 30
0.0
 10
188.2598295716582
 20
119.033775754523
 30
0.0
 10
187.550539035275
 20
119.0813012239678
 30
0.0
 10
186.5120636817917
 20
119.5208189258607
 30
0.0
 10
185.6301399086065
 20
120.2877196680831
 30
0.0
 10
185.1189235312959
 20
121.2446644509205
 30
0.0
 10
185.0383402962744
 20
122.2219691625059
 30
0.0
 10
185.3477264830441
 20
123.0923754679755
 30
0.0
 10
185.9628467689083
 20
123.8006661562692
 30
0.0
 10
186.8477394287463
 20
124.3234692908123
 30
0.0
 10
187.765262484375
 20
124.5736565521112
 30
0.0
 10
188.3548304244994
 20
124.5965127464713
 30
0.0
 10
188.5571234714193
 20
124.604355183082
 30
0.0
  0
LINE
  5
AF
330
1F
100
AcDbEntity
  8
0
  6
Continuous
 62
     7
370
    25
100
AcDbLine
 10
188.5571234714
 20
119.0138558043
 30
0.0
 11
196.3093370985
 21
119.0138558043
 31
0.0
  0
LINE
  5
B0
330
1F
100
AcDbEntity
  8
0
  6
Continuous
 62
     7
370
    25
100
AcDbLine
 10
196.3093370985
 20
103.9915616742
 30
0.0
 11
196.3093370985
 21
119.0138558043
 31
0.0
  0
LINE
  5
B1
330
1F
100
AcDbEntity
  8
0
  6
Continuous
 62
     7
370
    25
100
AcDbLine
 10
188.5571234714
 20
103.9915616742
 30
0.0
 11
196.3093370985
 21
103.9915616742
 31
0.0
  0
SPLINE
  5
B2
330
1F
100
AcDbEntity
  8
0
  6
Continuous
 62
     7
370
    25
100
AcDbSpline
210
0.0
220
0.0
230
1.0
 70
     8
 71
     3
 72
    17
 73
    13
 74
     0
 42
0.000000001
 43
0.00000001
 40
0.0
 40
0.0
 40
0.0
 40
0.0
 40
0.0849661877174606
 40
0.2027142587514617
 40
0.3179405992773962
 40
0.4263634297717009
 40
0.5376352404837628
 40
0.6360089754848816
 40
0.7328949412204995
 40
0.8365480928625895
 40
0.9477171032025284
 40
1.0
 40
1.0
 40
1.0
 40
1.0
 10
188.5571234714193
 20
98.42731767578636
 30
0.0
 10
188.2598299621519
 20
98.44382014874355
 30
0.0
 10
187.550540361409
 20
98.48319212320723
 30
0.0
 10
186.5120560905247
 20
98.85136627357524
 30
0.0
 10
185.6301670398466
 20
99.52050469813506
 30
0.0
 10
185.1116696087929
 20
100.4151074130607
 30
0.0
 10
185.0391817464177
 20
101.393735067888
 30
0.0
 10
185.3705564107478
 20
102.3149186705477
 30
0.0
 10
186.0000837649029
 20
103.089513548574
 30
0.0
 10
186.897661304078
 20
103.6816362320855
 30
0.0
 10
187.8034854684313
 20
103.9599103588614
 30
0.0
 10
188.3744808137943
 20
103.9838910414189
 30
0.0
 10
188.5571234714193
 20
103.9915616741649
 30
0.0
  0
LINE
  5
B3
330
1F
100
AcDbEntity
  8
0
  6
Continuous
 62
     7
370
    25
100
AcDbLine
 10
188.5571234714
 20
98.4273176758
 30
0.0
 11
196.3093370985
 21
98.4273176758
 31
0.0
  0
LINE
  5
B4
330
1F
100
AcDbEntity
  8
0
  6
Continuous
 62
     7
370
    25
100
AcDbLine
 10
196.3093370985
 20
90.9692082672
 30
0.0
 11
196.3093370985
 21
98.4273176758
 31
0.0
  0
LINE
  5
B5
330
1F
100
AcDbEntity
  8
0
  6
Continuous
 62
     7
370
    25
100
AcDbLine
 10
188.5571234714
 20
90.9692082672
 30
0.0
 11
196.3093370985
 21
90.9692082672
 31
0.0
  0
SPLINE
  5
B6
330
1F
100
AcDbEntity
  8
0
  6
Continuous
 62
     7
370
    25
100
AcDbSpline
210
0.0
220
0.0
230
1.0
 70
     8
 71
     3
 72
    13
 73
     9
 74
     0
 42
0.000000001
 43
0.00000001
 40
0.0
 40
0.0
 40
0.0
 40
0.0
 40
0.0509630594756676
 40
0.2508479782364152
 40
0.4471493565858435
 40
0.656894121542
 40
0.882002674319017
 40
1.0
 40
1.0
 40
1.0
 40
1.0
 10
185.1259038638277
 20
90.73735178692851
 30
0.0
 10
185.1167654778116
 20
90.73570795562551
 30
0.0
 10
185.071784943282
 20
90.72761676637657
 30
0.0
 10
185.3660137226628
 20
90.76641221290072
 30
0.0
 10
185.9560997004215
 20
90.83571957007932
 30
0.0
 10
186.8476499538877
 20
90.91619617363945
 30
0.0
 10
187.7637246661327
 20
90.963230053192
 30
0.0
 10
188.3540909694069
 20
90.96767842904342
 30
0.0
 10
188.5571234714193
 20
90.96920826716934
 30
0.0
  0
LINE
  5
B7
330
1F
100
AcDbEntity
  8
0
  6
Continuous
 62
     7
370
    25
100
AcDbLine
 10
180.4868371081
 20
111.4970011725
 30
0.0
 11
180.4868371081
 21
132.4320040761
 31
0.0
  0
LINE
  5
B8
330
1F
100
AcDbEntity
  8
0
  6
Continuous
 62
     7
370
    25
100
AcDbLine
 10
180.4868371081
 20
90.7320022701
 30
0.0
 11
180.4868371081
 21
111.4970011725
 31
0.0
  0
LINE
  5
B9
330
1F
100
AcDbEntity
  8
0
  6
Continuous
 62
     7
370
    25
100
AcDbLine
 10
179.6868347418
 20
111.5002626423
 30
0.0
 11
179.6868347418
 21
131.6320035724
 31
0.0
  0
LINE
  5
BA
330
1F
100
AcDbEntity
  8
0
  6
Continuous
 62
     7
370
    25
100
AcDbLine
 10
179.6868347418
 20
91.5320027737
 30
0.0
 11
179.6868347418
 21
111.5002626423
 31
0.0
  0
LINE
  5
BB
330
1F
100
AcDbEntity
  8
0
  6
Continuous
 62
     7
370
    25
100
AcDbLine
 10
197.8067138087
 20
93.4318542598
 30
0.0
 11
197.7877632569
 21
93.4229694424
 31
0.0
  0
LINE
  5
BC
330
1F
100
AcDbEntity
  8
0
  6
Continuous
 62
     7
370
    25
100
AcDbLine
 10
197.5934893679
 20
93.1217480568
 30
0.0
 11
197.7877632569
 21
93.4229694424
 31
0.0
  0
LINE
  5
BD
330
1F
100
AcDbEntity
  8
0
  6
Continuous
 62
     7
370
    25
100
AcDbLine
 10
196.5388857614
 20
91.3204696147
 30
0.0
 11
197.5934893679
 21
93.1217480568
 31
0.0
  0
LINE
  5
BE
330
1F
100
AcDbEntity
  8
0
  6
Continuous
 62
     7
370
    25
100
AcDbLine
 10
196.3093370985
 20
90.9692082672
 30
0.0
 11
196.5388857614
 21
91.3204696147
 31
0.0
  0
LINE
  5
BF
330
1F
100
AcDbEntity
  8
0
  6
Continuous
 62
     7
370
    25
100
AcDbLine
 10
196.3093370985
 20
98.4273176758
 30
0.0
 11
196.5388857614
 21
98.9057222499
 31
0.0
  0
LINE
  5
C0
330
1F
100
AcDbEntity
  8
0
  6
Continuous
 62
     7
370
    25
100
AcDbLine
 10
196.5388857614
 20
98.9057222499
 30
0.0
 11
197.5934893679
 21
100.0862872346
 31
0.0
  0
LINE
  5
C1
330
1F
100
AcDbEntity
  8
0
  6
Continuous
 62
     7
370
    25
100
AcDbLine
 10
197.5934893679
 20
100.0862872346
 30
0.0
 11
197.7877632569
 21
100.496538554
 31
0.0
  0
SPLINE
  5
C2
330
1F
100
AcDbEntity
  8
0
  6
Continuous
 62
     7
370
    25
100
AcDbSpline
210
0.0
220
0.0
230
1.0
 70
     8
 71
     3
 72
     9
 73
     5
 74
     0
 42
0.000000001
 43
0.00000001
 40
0.0
 40
0.0
 40
0.0
 40
0.0
 40
0.500051234793152
 40
1.0
 40
1.0
 40
1.0
 40
1.0
 10
197.7877632569475
 20
100.4965385539702
 30
0.0
 10
197.8279749248598
 20
101.1454249600428
 30
0.0
 10
197.9083900205827
 20
102.4430648035702
 30
0.0
 10
197.8279694312711
 20
103.740703084004
 30
0.0
 10
197.7877632569475
 20
104.389455739992
 30
0.0
  0
LINE
  5
C3
330
1F
100
AcDbEntity
  8
0
  6
Continuous
 62
     7
370
    25
100
AcDbLine
 10
197.5934893679
 20
104.4975920698
 30
0.0
 11
197.7877632569
 21
104.38945574
 31
0.0
  0
LINE
  5
C4
330
1F
100
AcDbEntity
  8
0
  6
Continuous
 62
     7
370
    25
100
AcDbLine
 10
196.5388857614
 20
103.8654615289
 30
0.0
 11
197.5934893679
 21
104.4975920698
 31
0.0
  0
LINE
  5
C5
330
1F
100
AcDbEntity
  8
0
  6
Continuous
 62
     7
370
    25
100
AcDbLine
 10
196.3093370985
 20
103.9915616742
 30
0.0
 11
196.5388857614
 21
103.8654615289
 31
0.0
  0
LINE
  5
C6
330
1F
100
AcDbEntity
  8
0
  6
Continuous
 62
     7
370
    25
100
AcDbLine
 10
196.3093370985
 20
119.0138558043
 30
0.0
 11
196.5388857614
 21
119.1438521376
 31
0.0
  0
LINE
  5
C7
330
1F
100
AcDbEntity
  8
0
  6
Continuous
 62
     7
370
    25
100
AcDbLine
 10
196.5388857614
 20
119.1438521376
 30
0.0
 11
197.5934893679
 21
118.5257258943
 31
0.0
  0
LINE
  5
C8
330
1F
100
AcDbEntity
  8
0
  6
Continuous
 62
     7
370
    25
100
AcDbLine
 10
197.5934893679
 20
118.5257258943
 30
0.0
 11
197.7877632569
 21
118.6372033438
 31
0.0
  0
SPLINE
  5
C9
330
1F
100
AcDbEntity
  8
0
  6
Continuous
 62
     7
370
    25
100
AcDbSpline
210
0.0
220
0.0
230
1.0
 70
     8
 71
     3
 72
     9
 73
     5
 74
     0
 42
0.000000001
 43
0.00000001
 40
0.0
 40
0.0
 40
0.0
 40
0.0
 40
0.5000512668921145
 40
1.0
 40
1.0
 40
1.0
 40
1.0
 10
197.7877632569475
 20
118.6372033437959
 30
0.0
 10
197.827974926581
 20
119.2891514114558
 30
0.0
 10
197.9083900205841
 20
120.5929138670773
 30
0.0
 10
197.8279694295505
 20
121.8966754959757
 30
0.0
 10
197.7877632569475
 20
122.5484894706181
 30
0.0
  0
LINE
  5
CA
330
1F
100
AcDbEntity
  8
0
  6
Continuous
 62
     7
370
    25
100
AcDbLine
 10
197.5934893679
 20
122.9578467204
 30
0.0
 11
197.7877632569
 21
122.5484894706
 31
0.0
  0
LINE
  5
CB
330
1F
100
AcDbEntity
  8
0
  6
Continuous
 62
     7
370
    25
100
AcDbLine
 10
196.5388857614
 20
124.1269946216
 30
0.0
 11
197.5934893679
 21
122.9578467204
 31
0.0
  0
LINE
  5
CC
330
1F
100
AcDbEntity
  8
0
  6
Continuous
 62
     7
370
    25
100
AcDbLine
 10
196.3093370985
 20
124.6043551831
 30
0.0
 11
196.5388857614
 21
124.1269946216
 31
0.0
  0
LINE
  5
CD
330
1F
100
AcDbEntity
  8
0
  6
Continuous
 62
     7
370
    25
100
AcDbLine
 10
196.3093370985
 20
132.1685422329
 30
0.0
 11
196.5388857614
 21
131.8201325951
 31
0.0
  0
LINE
  5
CE
330
1F
100
AcDbEntity
  8
0
  6
Continuous
 62
     7
370
    25
100
AcDbLine
 10
196.5388857614
 20
131.8201325951
 30
0.0
 11
197.5934893679
 21
130.0214413671
 31
0.0
  0
LINE
  5
CF
330
1F
100
AcDbEntity
  8
0
  6
Continuous
 62
     7
370
    25
100
AcDbLine
 10
197.5934893679
 20
130.0214413671
 30
0.0
 11
197.7877632569
 21
129.7226674972
 31
0.0
  0
LINE
  5
D0
330
1F
100
AcDbEntity
  8
0
  6
Continuous
 62
     7
370
    25
100
AcDbLine
 10
197.8080027591
 20
129.7321558116
 30
0.0
 11
197.7877632569
 21
129.7226674972
 31
0.0
  0
LINE
  5
D1
330
1F
100
AcDbEntity
  8
0
  6
Continuous
 62
     7
370
    25
100
AcDbLine
 10
197.5934893679
 20
130.0422582893
 30
0.0
 11
197.7877632569
 21
129.7410369037
 31
0.0
  0
LINE
  5
D2
330
1F
100
AcDbEntity
  8
0
  6
Continuous
 62
     7
370
    25
100
AcDbLine
 10
196.5388857614
 20
131.8435367314
 30
0.0
 11
197.5934893679
 21
130.0422582893
 31
0.0
  0
LINE
  5
D3
330
1F
100
AcDbEntity
  8
0
  6
Continuous
 62
     7
370
    25
100
AcDbLine
 10
196.3093370985
 20
132.194798079
 30
0.0
 11
196.5388857614
 21
131.8435367314
 31
0.0
  0
LINE
  5
D4
330
1F
100
AcDbEntity
  8
0
  6
Continuous
 62
     7
370
    25
100
AcDbLine
 10
199.6868342947
 20
111.5208506556
 30
0.0
 11
199.6868342947
 21
126.5820028378
 31
0.0
  0
LINE
  5
D5
330
1F
100
AcDbEntity
  8
0
  6
Continuous
 62
     7
370
    25
100
AcDbLine
 10
199.6868342947
 20
96.5820035083
 30
0.0
 11
199.6868342947
 21
111.5208506556
 31
0.0
  0
LWPOLYLINE
  5
D6
330
1F
100
AcDbEntity
  8
0
  6
Continuous
 62
     7
370
    25
100
AcDbPolyline
 90
       15
 70
   128
 43
0.0
 10
188.5571234714
 20
119.1438521376
 10
187.9184224497
 20
119.206321065
 10
187.3117514741
 20
119.3905953435
 10
186.7675275397
 20
119.6874348564
 10
186.3130421232
 20
120.0819542749
 10
185.9710828256
 20
120.5543713762
 10
185.7588008832
 20
121.0809970392
 10
185.6868357252
 20
121.6354236124
 10
185.7588008832
 20
122.1898501856
 10
185.9710828256
 20
122.7164758487
 10
186.3130421232
 20
123.18889295
 10
186.7675275397
 20
123.5834123684
 10
187.3117514741
 20
123.8802518813
 10
187.9184224497
 20
124.0645261599
 10
188.5571234714
 20
124.1269946216
  0
LWPOLYLINE
  5
D7
330
1F
100
AcDbEntity
  8
0
  6
Continuous
 62
     7
370
    25
100
AcDbPolyline
 90
       15
 70
   128
 43
0.0
 10
188.5571234714
 20
98.9057222499
 10
187.9184224497
 20
98.967897345
 10
187.3117514741
 20
99.1513064249
 10
186.7675275397
 20
99.4467517479
 10
186.3130421232
 20
99.8394187657
 10
185.9710828256
 20
100.3096165253
 10
185.7588008832
 20
100.8337685956
 10
185.6868357252
 20
101.3855921222
 10
185.7588008832
 20
101.9374147175
 10
185.9710828256
 20
102.4615667878
 10
186.3130421232
 20
102.9317654787
 10
186.7675275397
 20
103.3244315652
 10
187.3117514741
 20
103.6198768882
 10
187.9184224497
 20
103.8032859681
 10
188.5571234714
 20
103.8654615289
  0
LINE
  5
D8
330
1F
100
AcDbEntity
  8
0
  6
Continuous
 62
     7
370
    25
100
AcDbLine
 10
188.5571234714
 20
119.1438521376
 30
0.0
 11
196.5388857614
 21
119.1438521376
 31
0.0
  0
LINE
  5
D9
330
1F
100
AcDbEntity
  8
0
  6
Continuous
 62
     7
370
    25
100
AcDbLine
 10
188.5571234714
 20
103.8654615289
 30
0.0
 11
196.5388857614
 21
103.8654615289
 31
0.0
  0
ARC
  5
DA
330
1F
100
AcDbEntity
  8
0
  6
Continuous
 62
     7
370
    25
100
AcDbCircle
 10
188.3483227819
 20
120.6369108112
 30
0.0
 40
2.330309254614469
100
AcDbArc
 50
84.8592812446
 51
184.2820425809
  0
ARC
  5
DB
330
1F
100
AcDbEntity
  8
0
  6
Continuous
 62
     7
370
    25
100
AcDbCircle
 10
188.3434728884
 20
102.4029992926
 30
0.0
 40
2.326542785195845
100
AcDbArc
 50
176.437297981
 51
275.2689972741
  0
ARC
  5
DC
330
1F
100
AcDbEntity
  8
0
  6
Continuous
 62
     7
370
    25
100
AcDbCircle
 10
188.3411425962
 20
120.5536786234
 30
0.0
 40
2.006469051478744
100
AcDbArc
 50
83.8205797089
 51
196.8787023894
  0
LINE
  5
DD
330
1F
100
AcDbEntity
  8
0
  6
Continuous
 62
     7
370
    25
100
AcDbLine
 10
197.4032946717
 20
118.6372033438
 30
0.0
 11
197.7877632569
 21
118.6372033438
 31
0.0
  0
ARC
  5
DE
330
1F
100
AcDbEntity
  8
0
  6
Continuous
 62
     7
370
    25
100
AcDbCircle
 10
188.3363477122
 20
102.4866374974
 30
0.0
 40
2.002307603846552
100
AcDbArc
 50
164.2325540209
 51
276.3303417257
  0
LINE
  5
DF
330
1F
100
AcDbEntity
  8
0
  6
Continuous
 62
     7
370
    25
100
AcDbLine
 10
197.4130810093
 20
104.38945574
 30
0.0
 11
197.7877632569
 21
104.38945574
 31
0.0
  0
LINE
  5
E0
330
1F
100
AcDbEntity
  8
0
  6
Continuous
 62
     7
370
    25
100
AcDbLine
 10
188.5571234714
 20
122.5484894706
 30
0.0
 11
197.7877632569
 21
122.5484894706
 31
0.0
  0
LINE
  5
E1
330
1F
100
AcDbEntity
  8
0
  6
Continuous
 62
     7
370
    25
100
AcDbLine
 10
188.5571234714
 20
100.496538554
 30
0.0
 11
197.7877632569
 21
100.496538554
 31
0.0
  0
LINE
  5
E2
330
1F
100
AcDbEntity
  8
0
  6
Continuous
 62
     7
370
    25
100
AcDbLine
 10
188.5571234714
 20
124.1269946216
 30
0.0
 11
196.5388857614
 21
124.1269946216
 31
0.0
  0
LINE
  5
E3
330
1F
100
AcDbEntity
  8
0
  6
Continuous
 62
     7
370
    25
100
AcDbLine
 10
188.5571234714
 20
98.9057222499
 30
0.0
 11
196.5388857614
 21
98.9057222499
 31
0.0
  0
LINE
  5
E4
330
1F
100
AcDbEntity
  8
0
  6
Continuous
 62
     7
370
    25
100
AcDbLine
 10
188.5571234714
 20
122.9578467204
 30
0.0
 11
197.5934893679
 21
122.9578467204
 31
0.0
  0
LINE
  5
E5
330
1F
100
AcDbEntity
  8
0
  6
Continuous
 62
     7
370
    25
100
AcDbLine
 10
188.5571234714
 20
100.0862872346
 30
0.0
 11
197.5934893679
 21
100.0862872346
 31
0.0
  0
LINE
  5
E6
330
1F
100
AcDbEntity
  8
0
  6
Continuous
 62
     7
370
    25
100
AcDbLine
 10
197.7758199763
 20
129.7410369037
 30
0.0
 11
197.7877632569
 21
129.7410369037
 31
0.0
  0
LINE
  5
E7
330
1F
100
AcDbEntity
  8
0
  6
Continuous
 62
     7
370
    25
100
AcDbLine
 10
197.5812853169
 20
130.0422582893
 30
0.0
 11
197.5934893679
 21
130.0422582893
 31
0.0
  0
LINE
  5
E8
330
1F
100
AcDbEntity
  8
0
  6
Continuous
 62
     7
370
    25
100
AcDbLine
 10
196.5234667849
 20
131.8435367314
 30
0.0
 11
196.5388857614
 21
131.8435367314
 31
0.0
  0
SPLINE
  5
E9
330
1F
100
AcDbEntity
  8
0
  6
Continuous
 62
     7
370
    25
100
AcDbSpline
210
0.0
220
0.0
230
1.0
 70
     8
 71
     3
 72
    14
 73
    10
 74
     0
 42
0.000000001
 43
0.00000001
 40
0.0
 40
0.0
 40
0.0
 40
0.0
 40
0.25
 40
0.25
 40
0.5
 40
0.5
 40
0.75
 40
0.75
 40
1.0
 40
1.0
 40
1.0
 40
1.0
 10
156.6868356358213
 20
83.50888324801393
 30
0.0
 10
156.7819061234869
 20
83.63400118281756
 30
0.0
 10
156.8422104367066
 20
83.77479671518874
 30
0.0
 10
156.922474020689
 20
84.06066701388565
 30
0.0
 10
156.9413901876001
 20
84.20745255105287
 30
0.0
 10
156.9413963050586
 20
84.49724342541002
 30
0.0
 10
156.9227492960926
 20
84.63982861145533
 30
0.0
 10
156.842790992361
 20
84.92525654717453
 30
0.0
 10
156.7817005849579
 20
85.0685512794551
 30
0.0
 10
156.6868356358213
 20
85.21938658220145
 30
0.0
  0
LINE
  5
EA
330
1F
100
AcDbEntity
  8
0
  6
Continuous
 62
     7
370
    25
100
AcDbLine
 10
157.686834861
 20
111.5820031731
 30
0.0
 11
157.686834861
 21
81.1070032535
 31
0.0
  0
LINE
  5
EB
330
1F
100
AcDbEntity
  8
0
  6
Continuous
 62
     7
370
    25
100
AcDbLine
 10
157.686834861
 20
142.0570030926
 30
0.0
 11
157.686834861
 21
111.5820031731
 31
0.0
  0
LINE
  5
EC
330
1F
100
AcDbEntity
  8
0
  6
Continuous
 62
     7
370
    25
100
AcDbLine
 10
152.9210337292
 20
87.3959787308
 30
0.0
 11
152.9210337292
 21
137.1968887864
 31
0.0
  0
SPLINE
  5
ED
330
1F
100
AcDbEntity
  8
0
  6
Continuous
 62
     7
370
    25
100
AcDbSpline
210
0.0
220
0.0
230
1.0
 70
     8
 71
     3
 72
    25
 73
    21
 74
     0
 42
0.000000001
 43
0.00000001
 40
0.0
 40
0.0
 40
0.0
 40
0.0
 40
0.1249999999999998
 40
0.1249999999999998
 40
0.2499999999999997
 40
0.2499999999999997
 40
0.3749999999999995
 40
0.3749999999999995
 40
0.4999999999999993
 40
0.4999999999999993
 40
0.5624999999999996
 40
0.5624999999999996
 40
0.6249999999999998
 40
0.6875000000000001
 40
0.6875000000000001
 40
0.7500000000000003
 40
0.7500000000000003
 40
0.8750000000000001
 40
0.8750000000000001
 40
1.0
 40
1.0
 40
1.0
 40
1.0
 10
152.9210334403914
 20
140.2297405401287
 30
0.0
 10
153.1622809459468
 20
140.1574359300595
 30
0.0
 10
153.3782099801913
 20
140.0735426441038
 30
0.0
 10
153.7613678920338
 20
139.8808739210897
 30
0.0
 10
153.9288196775191
 20
139.7709870330739
 30
0.0
 10
154.1965043339229
 20
139.5344757489015
 30
0.0
 10
154.3001763016438
 20
139.4055126196108
 30
0.0
 10
154.439307672898
 20
139.1315855396636
 30
0.0
 10
154.4740469128886
 20
138.98947238853
 30
0.0
 10
154.4744773461079
 20
138.7682187625285
 30
0.0
 10
154.4657425625184
 20
138.6926401821737
 30
0.0
 10
154.4309491593438
 20
138.5423404372975
 30
0.0
 10
154.3790562976147
 20
138.3923751342901
 30
0.0
 10
154.293678085321
 20
138.2432739020702
 30
0.0
 10
154.1912023322564
 20
138.0947867763094
 30
0.0
 10
154.1311409606053
 20
138.0206982188725
 30
0.0
 10
153.9298311381542
 20
137.8055359173943
 30
0.0
 10
153.7666076180743
 20
137.6694792035241
 30
0.0
 10
153.381229417823
 20
137.4146211703719
 30
0.0
 10
153.1622799319971
 20
137.2983258899136
 30
0.0
 10
152.9210334403914
 20
137.1968893732378
 30
0.0
  0
LINE
  5
EE
330
1F
100
AcDbEntity
  8
0
  6
Continuous
 62
     7
370
    25
100
AcDbLine
 10
152.9210337292
 20
140.2297407506
 30
0.0
 11
152.9210337292
 21
143.0570032565
 31
0.0
  0
LINE
  5
EF
330
1F
100
AcDbEntity
  8
0
  6
Continuous
 62
     7
370
    25
100
AcDbLine
 10
152.9210337292
 20
80.1070030896
 30
0.0
 11
152.9210337292
 21
82.0452567308
 31
0.0
  0
SPLINE
  5
F0
330
1F
100
AcDbEntity
  8
0
  6
Continuous
 62
     7
370
    25
100
AcDbSpline
210
0.0
220
0.0
230
1.0
 70
     8
 71
     3
 72
    18
 73
    14
 74
     0
 42
0.000000001
 43
0.00000001
 40
0.0
 40
0.0
 40
0.0
 40
0.0
 40
0.2499999999999992
 40
0.2499999999999992
 40
0.3749999999999994
 40
0.3749999999999994
 40
0.4999999999999996
 40
0.4999999999999996
 40
0.75
 40
0.75
 40
0.875
 40
0.875
 40
1.0
 40
1.0
 40
1.0
 40
1.0
 10
156.6868356358213
 20
83.50888324801393
 30
0.0
 10
156.5402194092809
 20
83.31592831611157
 30
0.0
 10
156.3366329366285
 20
83.13681027351797
 30
0.0
 10
155.9676593324143
 20
82.89994809828032
 30
0.0
 10
155.8337177446976
 20
82.82570941896769
 30
0.0
 10
155.5443725259063
 20
82.68582893312016
 30
0.0
 10
155.3880131182568
 20
82.61988762961961
 30
0.0
 10
154.8967132961752
 20
82.43780687588841
 30
0.0
 10
154.538468473292
 20
82.3361152705065
 30
0.0
 10
153.957067958879
 20
82.207878440083
 30
0.0
 10
153.7554286627405
 20
82.16921744978853
 30
0.0
 10
153.3449360033649
 20
82.10093346708668
 30
0.0
 10
153.1352015816671
 20
82.07109290262116
 30
0.0
 10
152.9210334403914
 20
82.04525584010487
 30
0.0
  0
SPLINE
  5
F1
330
1F
100
AcDbEntity
  8
0
  6
Continuous
 62
     7
370
    25
100
AcDbSpline
210
0.0
220
0.0
230
1.0
 70
     8
 71
     3
 72
    18
 73
    14
 74
     0
 42
0.000000001
 43
0.00000001
 40
0.0
 40
0.0
 40
0.0
 40
0.0
 40
0.2499999999999998
 40
0.2499999999999998
 40
0.3749999999999998
 40
0.3749999999999998
 40
0.4999999999999998
 40
0.4999999999999998
 40
0.6249999999999998
 40
0.6249999999999998
 40
0.7499999999999998
 40
0.7499999999999998
 40
1.0
 40
1.0
 40
1.0
 40
1.0
 10
152.9210334403914
 20
87.39597924277828
 30
0.0
 10
153.3495358665542
 20
87.30022930841487
 30
0.0
 10
153.758125647781
 20
87.17813331867963
 30
0.0
 10
154.3402740486991
 20
86.95705081473085
 30
0.0
 10
154.5302515689663
 20
86.87641430650375
 30
0.0
 10
154.8913513944651
 20
86.70588807789821
 30
0.0
 10
155.0630097326755
 20
86.61591121009506
 30
0.0
 10
155.3885655540037
 20
86.42713645748167
 30
0.0
 10
155.5424655009453
 20
86.328338408281
 30
0.0
 10
155.8317962022654
 20
86.12217524457144
 30
0.0
 10
155.9679650697612
 20
86.01414290961517
 30
0.0
 10
156.3411658912819
 20
85.6817718363605
 30
0.0
 10
156.5397946423952
 20
85.45318181385886
 30
0.0
 10
156.6868356358213
 20
85.21938658220145
 30
0.0
  0
LINE
  5
F2
330
1F
100
AcDbEntity
  8
0
  6
Continuous
 62
     7
370
    25
100
AcDbLine
 10
139.6868356358
 20
111.5820031731
 30
0.0
 11
139.6868356358
 21
142.8570035963
 31
0.0
  0
LINE
  5
F3
330
1F
100
AcDbEntity
  8
0
  6
Continuous
 62
     7
370
    25
100
AcDbLine
 10
139.6868356358
 20
80.3070027499
 30
0.0
 11
139.6868356358
 21
111.5820031731
 31
0.0
  0
LINE
  5
F4
330
1F
100
AcDbEntity
  8
0
  6
Continuous
 62
     7
370
    25
100
AcDbLine
 10
147.7118355077
 20
137.6767061768
 30
0.0
 11
147.7118355077
 21
140.52959868
 31
0.0
  0
SPLINE
  5
F5
330
1F
100
AcDbEntity
  8
0
  6
Continuous
 62
     7
370
    25
100
AcDbSpline
210
0.0
220
0.0
230
1.0
 70
     8
 71
     3
 72
    26
 73
    22
 74
     0
 42
0.000000001
 43
0.00000001
 40
0.0
 40
0.0
 40
0.0
 40
0.0
 40
0.1250000000000009
 40
0.1250000000000009
 40
0.2500000000000019
 40
0.2500000000000019
 40
0.3125000000000011
 40
0.3125000000000011
 40
0.3750000000000004
 40
0.3750000000000004
 40
0.4375000000000002
 40
0.4375000000000002
 40
0.5000000000000001
 40
0.5000000000000001
 40
0.5625
 40
0.5625
 40
0.6249999999999999
 40
0.6249999999999999
 40
0.7500000000000001
 40
0.7500000000000001
 40
1.0
 40
1.0
 40
1.0
 40
1.0
 10
147.7118356358214
 20
135.4816486831038
 30
0.0
 10
147.6199307251386
 20
135.6915722897981
 30
0.0
 10
147.5322339489136
 20
135.9003377066776
 30
0.0
 10
147.3680276781463
 20
136.3146723353708
 30
0.0
 10
147.2907572598795
 20
136.5224167210073
 30
0.0
 10
147.1909911535544
 20
136.8196153408241
 30
0.0
 10
147.1603782246521
 20
136.9163646927626
 30
0.0
 10
147.1055093507491
 20
137.1042641928726
 30
0.0
 10
147.0811241298202
 20
137.1960663406026
 30
0.0
 10
147.0414447533217
 20
137.3674087688681
 30
0.0
 10
147.0259786740844
 20
137.4474013034008
 30
0.0
 10
147.004882339002
 20
137.5945957126126
 30
0.0
 10
146.9993692728419
 20
137.6619775801856
 30
0.0
 10
146.9993023152196
 20
137.7771465305857
 30
0.0
 10
147.0045706225691
 20
137.8258123732949
 30
0.0
 10
147.0254131497371
 20
137.9058155667457
 30
0.0
 10
147.0410872629474
 20
137.9368798101137
 30
0.0
 10
147.100406193125
 20
138.0030344752169
 30
0.0
 10
147.157426028639
 20
138.0126363424554
 30
0.0
 10
147.3562609172828
 20
137.9676210723484
 30
0.0
 10
147.527531122515
 20
137.8436949970988
 30
0.0
 10
147.7118356358213
 20
137.6767070536262
 30
0.0
  0
LINE
  5
F6
330
1F
100
AcDbEntity
  8
0
  6
Continuous
 62
     7
370
    25
100
AcDbLine
 10
147.7118355077
 20
88.1284471719
 30
0.0
 11
147.7118355077
 21
135.4816477863
 31
0.0
  0
SPLINE
  5
F7
330
1F
100
AcDbEntity
  8
0
  6
Continuous
 62
     7
370
    25
100
AcDbSpline
210
0.0
220
0.0
230
1.0
 70
     8
 71
     3
 72
     8
 73
     4
 74
     0
 42
0.000000001
 43
0.00000001
 40
0.0
 40
0.0
 40
0.0
 40
0.0
 40
1.0
 40
1.0
 40
1.0
 40
1.0
 10
147.3443119696733
 20
87.32547021055485
 30
0.0
 10
147.4620464745028
 20
87.59311389017077
 30
0.0
 10
147.5855125874611
 20
87.86207919250309
 30
0.0
 10
147.7118356358214
 20
88.12844631701344
 30
0.0
  0
SPLINE
  5
F8
330
1F
100
AcDbEntity
  8
0
  6
Continuous
 62
     7
370
    25
100
AcDbSpline
210
0.0
220
0.0
230
1.0
 70
     8
 71
     3
 72
     8
 73
     4
 74
     0
 42
0.000000001
 43
0.00000001
 40
0.0
 40
0.0
 40
0.0
 40
0.0
 40
1.0
 40
1.0
 40
1.0
 40
1.0
 10
146.2526378312512
 20
86.52427785143598
 30
0.0
 10
146.6225252119808
 20
86.79866967036799
 30
0.0
 10
146.9878587047423
 20
87.06909597846446
 30
0.0
 10
147.3443119696733
 20
87.32547021055485
 30
0.0
  0
LINE
  5
F9
330
1F
100
AcDbEntity
  8
0
  6
Continuous
 62
     7
370
    25
100
AcDbLine
 10
146.2526379008
 20
86.5242775647
 30
0.0
 11
146.2526379008
 21
143.0570032565
 31
0.0
  0
SPLINE
  5
FA
330
1F
100
AcDbEntity
  8
0
  6
Continuous
 62
     7
370
    25
100
AcDbSpline
210
0.0
220
0.0
230
1.0
 70
     8
 71
     3
 72
    27
 73
    23
 74
     0
 42
0.000000001
 43
0.00000001
 40
0.0
 40
0.0
 40
0.0
 40
0.0
 40
0.1250000000000002
 40
0.1250000000000002
 40
0.2500000000000003
 40
0.2500000000000003
 40
0.3750000000000005
 40
0.3750000000000005
 40
0.4375000000000003
 40
0.4375000000000003
 40
0.5000000000000002
 40
0.5625000000000001
 40
0.5625000000000001
 40
0.6249999999999999
 40
0.6249999999999999
 40
0.7499999999999997
 40
0.7499999999999997
 40
0.8124999999999998
 40
0.8124999999999998
 40
0.8749999999999998
 40
0.8749999999999998
 40
1.0
 40
1.0
 40
1.0
 40
1.0
 10
146.2526378312512
 20
82.55800425852209
 30
0.0
 10
145.9826809372839
 20
82.6578833463844
 30
0.0
 10
145.7390239130667
 20
82.76918860654342
 30
0.0
 10
145.3064387808615
 20
83.01867441221948
 30
0.0
 10
145.1178442136653
 20
83.1576169302867
 30
0.0
 10
144.8154044373045
 20
83.45430996546058
 30
0.0
 10
144.6988211900137
 20
83.61332857482486
 30
0.0
 10
144.5795625175889
 20
83.87035909871913
 30
0.0
 10
144.5493458505573
 20
83.95911190712422
 30
0.0
 10
144.5094492538447
 20
84.13838766401483
 30
0.0
 10
144.4894878103966
 20
84.32055626725737
 30
0.0
 10
144.5089231119845
 20
84.50851898834574
 30
0.0
 10
144.5483759896678
 20
84.69938756531027
 30
0.0
 10
144.578404673091
 20
84.79683674575581
 30
0.0
 10
144.6968796612232
 20
85.08717359255306
 30
0.0
 10
144.813220476332
 20
85.27925980022897
 30
0.0
 10
145.0412568878295
 20
85.56406374981036
 30
0.0
 10
145.1267908072602
 20
85.6589347383737
 30
0.0
 10
145.3131043573957
 20
85.84429580622931
 30
0.0
 10
145.4137330459681
 20
85.93477405816171
 30
0.0
 10
145.736994530304
 20
86.19945451367363
 30
0.0
 10
145.9812752160268
 20
86.36723810312802
 30
0.0
 10
146.2526378312512
 20
86.52427785143598
 30
0.0
  0
LINE
  5
FB
330
1F
100
AcDbEntity
  8
0
  6
Continuous
 62
     7
370
    25
100
AcDbLine
 10
146.2526379008
 20
80.1070030896
 30
0.0
 11
146.2526379008
 21
82.5580038248
 31
0.0
  0
LINE
  5
FC
330
1F
100
AcDbEntity
  8
0
  6
Continuous
 62
     7
370
    25
100
AcDbLine
 10
151.4618356567
 20
88.8622678934
 30
0.0
 11
151.4618356567
 21
134.6161976574
 31
0.0
  0
SPLINE
  5
FD
330
1F
100
AcDbEntity
  8
0
  6
Continuous
 62
     7
370
    25
100
AcDbSpline
210
0.0
220
0.0
230
1.0
 70
     8
 71
     3
 72
    10
 73
     6
 74
     0
 42
0.000000001
 43
0.00000001
 40
0.0
 40
0.0
 40
0.0
 40
0.0
 40
0.5
 40
0.5
 40
1.0
 40
1.0
 40
1.0
 40
1.0
 10
152.9210334403913
 20
137.1968893732376
 30
0.0
 10
152.6863024964222
 20
136.7444499855354
 30
0.0
 10
152.4469191887055
 20
136.304922812176
 30
0.0
 10
151.9602978373946
 20
135.4458307166343
 30
0.0
 10
151.7130285256928
 20
135.0263736634111
 30
0.0
 10
151.4618356358213
 20
134.6161976068737
 30
0.0
  0
SPLINE
  5
FE
330
1F
100
AcDbEntity
  8
0
  6
Continuous
 62
     7
370
    25
100
AcDbSpline
210
0.0
220
0.0
230
1.0
 70
     8
 71
     3
 72
     8
 73
     4
 74
     0
 42
0.000000001
 43
0.00000001
 40
0.0
 40
0.0
 40
0.0
 40
0.0
 40
1.0
 40
1.0
 40
1.0
 40
1.0
 10
151.9275467608739
 20
88.08928909123088
 30
0.0
 10
152.2538055970861
 20
87.86546536190117
 30
0.0
 10
152.585644006129
 20
87.6328995145978
 30
0.0
 10
152.9210334403914
 20
87.39597924277828
 30
0.0
  0
SPLINE
  5
FF
330
1F
100
AcDbEntity
  8
0
  6
Continuous
 62
     7
370
    25
100
AcDbSpline
210
0.0
220
0.0
230
1.0
 70
     8
 71
     3
 72
     8
 73
     4
 74
     0
 42
0.000000001
 43
0.00000001
 40
0.0
 40
0.0
 40
0.0
 40
0.0
 40
1.0
 40
1.0
 40
1.0
 40
1.0
 10
151.4618356358213
 20
88.86226826990526
 30
0.0
 10
151.6183179993225
 20
88.60804801222974
 30
0.0
 10
151.7735442877999
 20
88.35041422588235
 30
0.0
 10
151.9275467608739
 20
88.08928909123087
 30
0.0
  0
SPLINE
  5
100
330
1F
100
AcDbEntity
  8
0
  6
Continuous
 62
     7
370
    25
100
AcDbSpline
210
0.0
220
0.0
230
1.0
 70
     8
 71
     3
 72
    14
 73
    10
 74
     0
 42
0.000000001
 43
0.00000001
 40
0.0
 40
0.0
 40
0.0
 40
0.0
 40
0.25
 40
0.25
 40
0.5
 40
0.5
 40
0.75
 40
0.75
 40
1.0
 40
1.0
 40
1.0
 40
1.0
 10
151.4618356358215
 20
134.5309890421209
 30
0.0
 10
151.4618356358215
 20
134.416816964568
 30
0.0
 10
151.4359061975555
 20
134.2997289598931
 30
0.0
 10
151.3364639402792
 20
134.078573947875
 30
0.0
 10
151.2641815545583
 20
133.9759996073759
 30
0.0
 10
151.0794442177938
 20
133.799966201888
 30
0.0
 10
150.9698975814717
 20
133.7295603949076
 30
0.0
 10
150.7265363364685
 20
133.6359945340685
 30
0.0
 10
150.5950252290227
 20
133.614074214099
 30
0.0
 10
150.4618356358213
 20
133.6201367832363
 30
0.0
  0
SPLINE
  5
101
330
1F
100
AcDbEntity
  8
0
  6
Continuous
 62
     7
370
    25
100
AcDbSpline
210
0.0
220
0.0
230
1.0
 70
     8
 71
     3
 72
    14
 73
    10
 74
     0
 42
0.000000001
 43
0.00000001
 40
0.0
 40
0.0
 40
0.0
 40
0.0
 40
0.25
 40
0.25
 40
0.5
 40
0.5
 40
0.75
 40
0.75
 40
1.0
 40
1.0
 40
1.0
 40
1.0
 10
150.4618356358213
 20
89.85711130219094
 30
0.0
 10
150.5952639430544
 20
89.86260436536128
 30
0.0
 10
150.72703861485
 20
89.84035234629643
 30
0.0
 10
150.9702345017114
 20
89.74691408659008
 30
0.0
 10
151.0811553634242
 20
89.67561862140937
 30
0.0
 10
151.2638017122901
 20
89.50211122449713
 30
0.0
 10
151.3371174516302
 20
89.39855286225088
 30
0.0
 10
151.4357555624655
 20
89.17931474947692
 30
0.0
 10
151.4618356358213
 20
89.06230927376856
 30
0.0
 10
151.4618356358213
 20
88.94768433920281
 30
0.0
  0
SPLINE
  5
102
330
1F
100
AcDbEntity
  8
0
  6
Continuous
 62
     7
370
    25
100
AcDbSpline
210
0.0
220
0.0
230
1.0
 70
     8
 71
     3
 72
    14
 73
    10
 74
     0
 42
0.000000001
 43
0.00000001
 40
0.0
 40
0.0
 40
0.0
 40
0.0
 40
0.25
 40
0.25
 40
0.5
 40
0.5
 40
0.75
 40
0.75
 40
1.0
 40
1.0
 40
1.0
 40
1.0
 10
148.7118356358213
 20
133.9761961204784
 30
0.0
 10
148.5774848872802
 20
134.0280131005562
 30
0.0
 10
148.4543059844868
 20
134.1049603365896
 30
0.0
 10
148.2255555635974
 20
134.2974451699986
 30
0.0
 10
148.1236324716043
 20
134.4102721587786
 30
0.0
 10
147.944207407259
 20
134.6631121033512
 30
0.0
 10
147.8677661583546
 20
134.8011278278329
 30
0.0
 10
147.7504781838928
 20
135.099363534563
 30
0.0
 10
147.7118356358213
 20
135.2574515036134
 30
0.0
 10
147.7118356358213
 20
135.3968838283384
 30
0.0
  0
SPLINE
  5
103
330
1F
100
AcDbEntity
  8
0
  6
Continuous
 62
     7
370
    25
100
AcDbSpline
210
0.0
220
0.0
230
1.0
 70
     8
 71
     3
 72
    14
 73
    10
 74
     0
 42
0.000000001
 43
0.00000001
 40
0.0
 40
0.0
 40
0.0
 40
0.0
 40
0.25
 40
0.25
 40
0.5
 40
0.5
 40
0.75
 40
0.75
 40
1.0
 40
1.0
 40
1.0
 40
1.0
 10
147.7118356358213
 20
88.21341544376527
 30
0.0
 10
147.7118356358213
 20
88.34415526513627
 30
0.0
 10
147.7472567127537
 20
88.49285297885031
 30
0.0
 10
147.8597823839437
 20
88.76978279439685
 30
0.0
 10
147.9374625702181
 20
88.90309336148577
 30
0.0
 10
148.1175278019405
 20
89.14043335724766
 30
0.0
 10
148.2228078545958
 20
89.24811695723771
 30
0.0
 10
148.4517913889582
 20
89.42468890121826
 30
0.0
 10
148.5784045809571
 20
89.49599205368914
 30
0.0
 10
148.7118356358211
 20
89.54076434748607
 30
0.0
  0
SPLINE
  5
104
330
1F
100
AcDbEntity
  8
0
  6
Continuous
 62
     7
370
    25
100
AcDbSpline
210
0.0
220
0.0
230
1.0
 70
     8
 71
     3
 72
    10
 73
     6
 74
     0
 42
0.000000001
 43
0.00000001
 40
0.0
 40
0.0
 40
0.0
 40
0.0
 40
0.5
 40
0.5
 40
1.0
 40
1.0
 40
1.0
 40
1.0
 10
150.4618356358213
 20
133.6201367832366
 30
0.0
 10
150.1493717335332
 20
133.63435962126
 30
0.0
 10
149.8464827515354
 20
133.6721788240516
 30
0.0
 10
149.2591395667314
 20
133.7920672500406
 30
0.0
 10
148.9746719061594
 20
133.8748242864416
 30
0.0
 10
148.7118356358213
 20
133.9761961204784
 30
0.0
  0
SPLINE
  5
105
330
1F
100
AcDbEntity
  8
0
  6
Continuous
 62
     7
370
    25
100
AcDbSpline
210
0.0
220
0.0
230
1.0
 70
     8
 71
     3
 72
    10
 73
     6
 74
     0
 42
0.000000001
 43
0.00000001
 40
0.0
 40
0.0
 40
0.0
 40
0.0
 40
0.5
 40
0.5
 40
1.0
 40
1.0
 40
1.0
 40
1.0
 10
148.7118356358213
 20
89.54076434748538
 30
0.0
 10
148.9823543559366
 20
89.6315358970839
 30
0.0
 10
149.2639295205858
 20
89.70371292257605
 30
0.0
 10
149.8485230916052
 20
89.81020183462947
 30
0.0
 10
150.1538716260256
 20
89.8444328399135
 30
0.0
 10
150.4618356358213
 20
89.85711130219094
 30
0.0
  0
LINE
  5
106
330
1F
100
AcDbEntity
  8
0
  6
Continuous
 62
     7
370
    25
100
AcDbLine
 10
138.526653577
 20
111.5820031731
 30
0.0
 11
138.526653577
 21
136.523741868
 31
0.0
  0
LINE
  5
107
330
1F
100
AcDbEntity
  8
0
  6
Continuous
 62
     7
370
    25
100
AcDbLine
 10
138.526653577
 20
86.6402644782
 30
0.0
 11
138.526653577
 21
111.5820031731
 31
0.0
  0
LINE
  5
108
330
1F
100
AcDbEntity
  8
0
  6
Continuous
 62
     7
370
    25
100
AcDbLine
 10
101.2368366908
 20
100.6772076829
 30
0.0
 11
101.2368366908
 21
88.5128822295
 31
0.0
  0
SPLINE
  5
109
330
1F
100
AcDbEntity
  8
0
  6
Continuous
 62
     7
370
    25
100
AcDbSpline
210
0.0
220
0.0
230
1.0
 70
     8
 71
     3
 72
     8
 73
     4
 74
     0
 42
0.000000001
 43
0.00000001
 40
0.0
 40
0.0
 40
0.0
 40
0.0
 40
1.0
 40
1.0
 40
1.0
 40
1.0
 10
105.5290837309322
 20
100.6811121391976
 30
0.0
 10
104.0983343658986
 20
100.6793742639176
 30
0.0
 10
102.667585000865
 20
100.6780121887519
 30
0.0
 10
101.2368356358313
 20
100.677025032629
 30
0.0
  0
SPLINE
  5
10A
330
1F
100
AcDbEntity
  8
0
  6
Continuous
 62
     7
370
    25
100
AcDbSpline
210
0.0
220
0.0
230
1.0
 70
     8
 71
     3
 72
    23
 73
    19
 74
     0
 42
0.000000001
 43
0.00000001
 40
0.0
 40
0.0
 40
0.0
 40
0.0
 40
0.0521036415683759
 40
0.1035646240941235
 40
0.1544751946756683
 40
0.2049306267495642
 40
0.2550287880866983
 40
0.3048696389163111
 40
0.354554670462894
 40
0.4041862979539558
 40
0.453867225213789
 40
0.5036997999428097
 40
0.590187023078111
 40
0.6742716378282376
 40
0.7565997087281883
 40
0.8378563983773627
 40
0.9187511781400207
 40
0.9999999999999999
 40
0.9999999999999999
 40
0.9999999999999999
 40
0.9999999999999999
 10
109.1228195503217
 20
102.6011817475705
 30
0.0
 10
109.0813280306055
 20
102.5428459612459
 30
0.0
 10
108.9988567577127
 20
102.426893916435
 30
0.0
 10
108.8659980002793
 20
102.2610953144074
 30
0.0
 10
108.7274664275073
 20
102.1027313523697
 30
0.0
 10
108.5825668838701
 20
101.9522217187642
 30
0.0
 10
108.4314832236972
 20
101.8093824102483
 30
0.0
 10
108.2741680455334
 20
101.6741891926856
 30
0.0
 10
108.1106348873263
 20
101.5465765497581
 30
0.0
 10
107.9408849503391
 20
101.4264894656223
 30
0.0
 10
107.7649109202016
 20
101.3138760721724
 30
0.0
 10
107.5384302222575
 20
101.1830661085283
 30
0.0
 10
107.25924971174
 20
101.0439439528584
 30
0.0
 10
106.9241505156098
 20
100.9104249595294
 30
0.0
 10
106.5833860197024
 20
100.8069768633336
 30
0.0
 10
106.2369879739499
 20
100.7340802392297
 30
0.0
 10
105.8850979954359
 20
100.688885445463
 30
0.0
 10
105.647927773579
 20
100.6837070103402
 30
0.0
 10
105.5290837309322
 20
100.6811121391976
 30
0.0
  0
SPLINE
  5
10B
330
1F
100
AcDbEntity
  8
0
  6
Continuous
 62
     7
370
    25
100
AcDbSpline
210
0.0
220
0.0
230
1.0
 70
     8
 71
     3
 72
     8
 73
     4
 74
     0
 42
0.000000001
 43
0.00000001
 40
0.0
 40
0.0
 40
0.0
 40
0.0
 40
1.0
 40
1.0
 40
1.0
 40
1.0
 10
113.5317913584768
 20
102.6056024623902
 30
0.0
 10
112.0616166976954
 20
102.6041418419551
 30
0.0
 10
110.591442036914
 20
102.6029807902961
 30
0.0
 10
109.1212673761326
 20
102.6021188603966
 30
0.0
  0
SPLINE
  5
10C
330
1F
100
AcDbEntity
  8
0
  6
Continuous
 62
     7
370
    25
100
AcDbSpline
210
0.0
220
0.0
230
1.0
 70
     8
 71
     3
 72
    18
 73
    14
 74
     0
 42
0.000000001
 43
0.00000001
 40
0.0
 40
0.0
 40
0.0
 40
0.0
 40
0.0923824559461122
 40
0.1844689291660427
 40
0.2764953616062392
 40
0.3686975365619641
 40
0.4613092840130473
 40
0.5545607518559533
 40
0.6486768051632873
 40
0.7438756050210469
 40
0.8403674044324065
 40
0.9203921078135461
 40
1.0
 40
1.0
 40
1.0
 40
1.0
 10
115.7270202033304
 20
102.0719684486264
 30
0.0
 10
115.6566898998129
 20
102.0723850730568
 30
0.0
 10
115.5162546229527
 20
102.073216987101
 30
0.0
 10
115.3058920964603
 20
102.0868258340332
 30
0.0
 10
115.0964484334714
 20
102.1094925913374
 30
0.0
 10
114.8878987633496
 20
102.1420933813904
 30
0.0
 10
114.6802551451226
 20
102.1843958590621
 30
0.0
 10
114.4735169611754
 20
102.2364672612951
 30
0.0
 10
114.2676948556265
 20
102.2983160205975
 30
0.0
 10
114.0627632284501
 20
102.3699140834869
 30
0.0
 10
113.8714735615924
 20
102.4464158985506
 30
0.0
 10
113.6941209640116
 20
102.5248523253408
 30
0.0
 10
113.5861406204843
 20
102.5785622790398
 30
0.0
 10
113.5322914206062
 20
102.6053471357805
 30
0.0
  0
LINE
  5
10D
330
1F
100
AcDbEntity
  8
0
  6
Continuous
 62
     7
370
    25
100
AcDbLine
 10
117.6418938529
 20
102.0734641819
 30
0.0
 11
115.7270201337
 21
102.0719684778
 31
0.0
  0
SPLINE
  5
10E
330
1F
100
AcDbEntity
  8
0
  6
Continuous
 62
     7
370
    25
100
AcDbSpline
210
0.0
220
0.0
230
1.0
 70
     8
 71
     3
 72
    25
 73
    21
 74
     0
 42
0.000000001
 43
0.00000001
 40
0.0
 40
0.0
 40
0.0
 40
0.0
 40
0.0280105225426455
 40
0.0559601148860774
 40
0.0839014045043129
 40
0.1118870776786379
 40
0.1399695827588941
 40
0.1682008401739877
 40
0.1966319670424218
 40
0.2253130233141493
 40
0.2542927850735863
 40
0.3799486436570518
 40
0.505785022166658
 40
0.6313085886329272
 40
0.7532068238012843
 40
0.8039473267959846
 40
0.8535894438560211
 40
0.902533972239985
 40
0.9511970353794947
 40
1.0
 40
1.0
 40
1.0
 40
1.0
 10
122.5817777890228
 20
107.2073276880016
 30
0.0
 10
122.5818150107566
 20
107.1327076609881
 30
0.0
 10
122.5818893732573
 20
106.9836299250009
 30
0.0
 10
122.5694733226108
 20
106.7610118340345
 30
0.0
 10
122.547868762257
 20
106.5396874160056
 30
0.0
 10
122.516183292597
 20
106.319719150117
 30
0.0
 10
122.4746571542771
 20
106.101128862888
 30
0.0
 10
122.4232263985472
 20
105.8839469244837
 30
0.0
 10
122.3619125238359
 20
105.6682055045989
 30
0.0
 10
122.2907021883365
 20
105.4539156131489
 30
0.0
 10
122.1198655811329
 20
105.0055658401291
 30
0.0
 10
121.7821333476961
 20
104.3522350120587
 30
0.0
 10
121.1705786834998
 20
103.5803418014184
 30
0.0
 10
120.4343438483515
 20
102.9361821760303
 30
0.0
 10
119.7478577767016
 20
102.5445410079698
 30
0.0
 10
119.1991536305496
 20
102.3258461070032
 30
0.0
 10
118.8171174520432
 20
102.2099900581724
 30
0.0
 10
118.4299513533388
 20
102.1290821526425
 30
0.0
 10
118.037724684554
 20
102.0798537218444
 30
0.0
 10
117.7739634164404
 20
102.075595866829
 30
0.0
 10
117.6418934826199
 20
102.0734638834862
 30
0.0
  0
LINE
  5
10F
330
1F
100
AcDbEntity
  8
0
  6
Continuous
 62
     7
370
    25
100
AcDbLine
 10
122.5817778002
 20
115.9566786258
 30
0.0
 11
122.5817778002
 21
107.2073277204
 31
0.0
  0
SPLINE
  5
110
330
1F
100
AcDbEntity
  8
0
  6
Continuous
 62
     7
370
    25
100
AcDbSpline
210
0.0
220
0.0
230
1.0
 70
     8
 71
     3
 72
    26
 73
    22
 74
     0
 42
0.000000001
 43
0.00000001
 40
0.0
 40
0.0
 40
0.0
 40
0.0
 40
0.0241259796963637
 40
0.048215991227299
 40
0.0723203915124064
 40
0.0964895678710793
 40
0.120773623196351
 40
0.1452220711242841
 40
0.1698835501657706
 40
0.1948055644472381
 40
0.2200342569517629
 40
0.2456142191611394
 40
0.3690971486901671
 40
0.4940698769485191
 40
0.6192566784762444
 40
0.7454656653603234
 40
0.7971495824713715
 40
0.8481710308405401
 40
0.8988013269235245
 40
0.9493179290492194
 40
1.0
 40
1.0
 40
1.0
 40
1.0
 10
117.6418934826199
 20
121.0905424626544
 30
0.0
 10
117.7071425411694
 20
121.0899686762756
 30
0.0
 10
117.8375433818485
 20
121.0888219589461
 30
0.0
 10
118.0325232001448
 20
121.0767045824532
 30
0.0
 10
118.2266523374085
 20
121.0569460609915
 30
0.0
 10
118.4199136775027
 20
121.0287838787707
 30
0.0
 10
118.6123088559769
 20
120.9923927827224
 30
0.0
 10
118.8038344344779
 20
120.947691697245
 30
0.0
 10
118.9944899668634
 20
120.8946632258609
 30
0.0
 10
119.1842699659618
 20
120.8332722044343
 30
0.0
 10
119.3731885866176
 20
120.7634699979545
 30
0.0
 10
119.7999329997883
 20
120.5859409277391
 30
0.0
 10
120.434405326969
 20
120.2313803248414
 30
0.0
 10
121.1740811793148
 20
119.5892085111512
 30
0.0
 10
121.7808284221503
 20
118.8160432073702
 30
0.0
 10
122.1416202383686
 20
118.1086277991103
 30
0.0
 10
122.3437942941329
 20
117.5441203998848
 30
0.0
 10
122.4506177501181
 20
117.1552335383362
 30
0.0
 10
122.5262284664164
 20
116.7607507844679
 30
0.0
 10
122.5733911391077
 20
116.3609446942777
 30
0.0
 10
122.5789791933959
 20
116.0915808148132
 30
0.0
 10
122.5817777890228
 20
115.9566786581389
 30
0.0
  0
LINE
  5
111
330
1F
100
AcDbEntity
  8
0
  6
Continuous
 62
     7
370
    25
100
AcDbLine
 10
115.7270201337
 20
121.0920378683
 30
0.0
 11
117.6418938529
 21
121.0905421643
 31
0.0
  0
SPLINE
  5
112
330
1F
100
AcDbEntity
  8
0
  6
Continuous
 62
     7
370
    25
100
AcDbSpline
210
0.0
220
0.0
230
1.0
 70
     8
 71
     3
 72
    14
 73
    10
 74
     0
 42
0.000000001
 43
0.00000001
 40
0.0
 40
0.0
 40
0.0
 40
0.0
 40
0.0789261963152472
 40
0.1582328720511064
 40
0.3308475394503796
 40
0.5000195457530386
 40
0.6670357883499396
 40
0.8332395193610692
 40
1.0
 40
1.0
 40
1.0
 40
1.0
 10
113.5308079772639
 20
120.5579909429034
 30
0.0
 10
113.5842035003054
 20
120.5845971921784
 30
0.0
 10
113.6912519501226
 20
120.6379379514425
 30
0.0
 10
113.9203226646797
 20
120.7395674300826
 30
0.0
 10
114.2191954028717
 20
120.8536470624577
 30
0.0
 10
114.5913384776677
 20
120.9622534959141
 30
0.0
 10
114.9669682766992
 20
121.0385877813601
 30
0.0
 10
115.346160588734
 20
121.0854052387139
 30
0.0
 10
115.5999255582867
 20
121.0898245480709
 30
0.0
 10
115.7270202033304
 20
121.0920378975142
 30
0.0
  0
SPLINE
  5
113
330
1F
100
AcDbEntity
  8
0
  6
Continuous
 62
     7
370
    25
100
AcDbSpline
210
0.0
220
0.0
230
1.0
 70
     8
 71
     3
 72
     8
 73
     4
 74
     0
 42
0.000000001
 43
0.00000001
 40
0.0
 40
0.0
 40
0.0
 40
0.0
 40
1.0
 40
1.0
 40
1.0
 40
1.0
 10
108.1385142536137
 20
120.5621130998057
 30
0.0
 10
109.9358509389899
 20
120.5611389933818
 30
0.0
 10
111.7331876243661
 20
120.5597168576321
 30
0.0
 10
113.5305243097423
 20
120.5578458711635
 30
0.0
  0
SPLINE
  5
114
330
1F
100
AcDbEntity
  8
0
  6
Continuous
 62
     7
370
    25
100
AcDbSpline
210
0.0
220
0.0
230
1.0
 70
     8
 71
     3
 72
    13
 73
     9
 74
     0
 42
0.000000001
 43
0.00000001
 40
0.0
 40
0.0
 40
0.0
 40
0.0
 40
0.1667030582307959
 40
0.3329480818053031
 40
0.4990671507274871
 40
0.6653938523718408
 40
0.8322612710550125
 40
1.0
 40
1.0
 40
1.0
 40
1.0
 10
107.0550100887683
 20
120.6995401493736
 30
0.0
 10
107.1161171315196
 20
120.6987059298421
 30
0.0
 10
107.2381633188228
 20
120.6970397828873
 30
0.0
 10
107.4204982640865
 20
120.6850108252345
 30
0.0
 10
107.6018024769602
 20
120.6660213606501
 30
0.0
 10
107.7820013369968
 20
120.6392021464308
 30
0.0
 10
107.9613053151351
 20
120.6053663391836
 30
0.0
 10
108.0793373407066
 20
120.5765408689047
 30
0.0
 10
108.1385070304582
 20
120.5620906031816
 30
0.0
  0
SPLINE
  5
115
330
1F
100
AcDbEntity
  8
0
  6
Continuous
 62
     7
370
    25
100
AcDbSpline
210
0.0
220
0.0
230
1.0
 70
     8
 71
     3
 72
     8
 73
     4
 74
     0
 42
0.000000001
 43
0.00000001
 40
0.0
 40
0.0
 40
0.0
 40
0.0
 40
1.0
 40
1.0
 40
1.0
 40
1.0
 10
101.2368356358341
 20
120.7043298842237
 30
0.0
 10
103.1762271201455
 20
120.703282431748
 30
0.0
 10
105.1156186044569
 20
120.7016862452232
 30
0.0
 10
107.0550100887683
 20
120.6995401493736
 30
0.0
  0
LINE
  5
116
330
1F
100
AcDbEntity
  8
0
  6
Continuous
 62
     7
370
    25
100
AcDbLine
 10
101.2368366908
 20
120.7043301432
 30
0.0
 11
101.2368366908
 21
134.6511241166
 31
0.0
  0
SPLINE
  5
117
330
1F
100
AcDbEntity
  8
0
  6
Continuous
 62
     7
370
    25
100
AcDbSpline
210
0.0
220
0.0
230
1.0
 70
     8
 71
     3
 72
    24
 73
    20
 74
     0
 42
0.000000001
 43
0.00000001
 40
0.0
 40
0.0
 40
0.0
 40
0.0
 40
0.0607845451296407
 40
0.1248046360965166
 40
0.1880736642923821
 40
0.2506536944642078
 40
0.3129374270624571
 40
0.3747588850641116
 40
0.4371053349657547
 40
0.4977639019418345
 40
0.5591913128303959
 40
0.6209011577381788
 40
0.6826271159280655
 40
0.7453344255371981
 40
0.8078840402472991
 40
0.8712333803613398
 40
0.9348869687710366
 40
0.9979954054018167
 40
1.0
 40
1.0
 40
1.0
 40
1.0
 10
125.2004752721591
 20
135.8528338490299
 30
0.0
 10
125.17476345862
 20
135.8424307589493
 30
0.0
 10
125.1219711982638
 20
135.8210708249561
 30
0.0
 10
124.6487404490102
 20
135.6386641514677
 30
0.0
 10
123.9299353072915
 20
135.369718098939
 30
0.0
 10
122.9527545630104
 20
135.0416219438718
 30
0.0
 10
121.7687922019478
 20
134.6977515101262
 30
0.0
 10
120.4004899140488
 20
134.3800907178532
 30
0.0
 10
118.912778648179
 20
134.1255822694535
 30
0.0
 10
117.3431190678641
 20
133.9743678884753
 30
0.0
 10
115.7668765728855
 20
133.9408262418503
 30
0.0
 10
114.2475624165561
 20
134.0263984375141
 30
0.0
 10
112.8466882012567
 20
134.2006062561846
 30
0.0
 10
111.6280084068476
 20
134.4302319208551
 30
0.0
 10
110.6224355779468
 20
134.6684494232476
 30
0.0
 10
109.8692542415077
 20
134.8800701828764
 30
0.0
 10
109.4223106804562
 20
135.0124899406082
 30
0.0
 10
109.2386338925118
 20
135.0701574268512
 30
0.0
 10
109.2901714397764
 20
135.0544096718171
 30
0.0
 10
109.2917580943508
 20
135.0539248554281
 30
0.0
  0
SPLINE
  5
118
330
1F
100
AcDbEntity
  8
0
  6
Continuous
 62
     7
370
    25
100
AcDbSpline
210
0.0
220
0.0
230
1.0
 70
     8
 71
     3
 72
    24
 73
    20
 74
     0
 42
0.000000001
 43
0.00000001
 40
0.0
 40
0.0
 40
0.0
 40
0.0
 40
0.0018911184661179
 40
0.0649665885217893
 40
0.1287875560009952
 40
0.1921372900365662
 40
0.2545996475903032
 40
0.3167128323446347
 40
0.3787563804671794
 40
0.440851011115251
 40
0.501718739255822
 40
0.5623721854420992
 40
0.6248484186975057
 40
0.6868048398220544
 40
0.7491642775858319
 40
0.8116886268192671
 40
0.8748496752066125
 40
0.9387002417378669
 40
1.0
 40
1.0
 40
1.0
 40
1.0
 10
109.2917636822862
 20
88.10998649580989
 30
0.0
 10
109.2902570004179
 20
88.10952867797066
 30
0.0
 10
109.2384971647841
 20
88.09380102065451
 30
0.0
 10
109.4221078793977
 20
88.15137723575968
 30
0.0
 10
109.8699816044304
 20
88.28363363878309
 30
0.0
 10
110.6230071519444
 20
88.49524204850565
 30
0.0
 10
111.622952652225
 20
88.7329590535413
 30
0.0
 10
112.8415118660247
 20
88.96099952722305
 30
0.0
 10
114.2450221732335
 20
89.13318407545171
 30
0.0
 10
115.7622700574462
 20
89.22130753274416
 30
0.0
 10
117.3365194657767
 20
89.19024613929541
 30
0.0
 10
118.9023529577995
 20
89.03922504776752
 30
0.0
 10
120.3922053752255
 20
88.78488895772801
 30
0.0
 10
121.7638930555534
 20
88.46714929861815
 30
0.0
 10
122.9497902489998
 20
88.12324302792612
 30
0.0
 10
123.9274840054406
 20
87.7953643628157
 30
0.0
 10
124.6466374252209
 20
87.52657994272305
 30
0.0
 10
125.1205766857752
 20
87.34347787769464
 30
0.0
 10
125.1748356516353
 20
87.32149107253124
 30
0.0
 10
125.2014121826691
 20
87.31072173698459
 30
0.0
  0
LINE
  5
119
330
1F
100
AcDbEntity
  8
0
  6
Continuous
 62
     7
370
    25
100
AcDbLine
 10
122.5817778002
 20
107.2073277204
 30
0.0
 11
121.6868364107
 21
107.3695031112
 31
0.0
  0
LINE
  5
11A
330
1F
100
AcDbEntity
  8
0
  6
Continuous
 62
     7
370
    25
100
AcDbLine
 10
121.6868364107
 20
107.3695031112
 30
0.0
 11
121.6868364107
 21
115.7945032349
 31
0.0
  0
LINE
  5
11B
330
1F
100
AcDbEntity
  8
0
  6
Continuous
 62
     7
370
    25
100
AcDbLine
 10
122.5817778002
 20
115.9566786258
 30
0.0
 11
121.6868364107
 21
115.7945032349
 31
0.0
  0
SPLINE
  5
11C
330
1F
100
AcDbEntity
  8
0
  6
Continuous
 62
     7
370
    25
100
AcDbSpline
210
0.0
220
0.0
230
1.0
 70
     8
 71
     3
 72
    25
 73
    21
 74
     0
 42
0.000000001
 43
0.00000001
 40
0.0
 40
0.0
 40
0.0
 40
0.0
 40
0.0288821753105771
 40
0.058363659400572
 40
0.088464720430548
 40
0.1192044006616737
 40
0.1506005800085666
 40
0.1826700399669859
 40
0.2154285269576224
 40
0.2488908143379852
 40
0.3610594471136693
 40
0.4984670131067402
 40
0.5822693905005265
 40
0.6661127642780991
 40
0.7499972937224167
 40
0.8007709755018199
 40
0.8511237700786715
 40
0.9010896024485537
 40
0.9507031914094952
 40
1.0
 40
1.0
 40
1.0
 40
1.0
 10
117.6868356358213
 20
103.3695031730703
 30
0.0
 10
117.7496360890577
 20
103.3703596570221
 30
0.0
 10
117.8765401128536
 20
103.3720903970756
 30
0.0
 10
118.067894520563
 20
103.3862402624786
 30
0.0
 10
118.2617993332387
 20
103.409377344799
 30
0.0
 10
118.4577000539662
 20
103.4427884970235
 30
0.0
 10
118.6550377219715
 20
103.4866623190557
 30
0.0
 10
118.8531910637598
 20
103.5414575900251
 30
0.0
 10
119.0515068077729
 20
103.6075265513898
 30
0.0
 10
119.402827795264
 20
103.7455078836379
 30
0.0
 10
119.9279395655894
 20
104.0255598224764
 30
0.0
 10
120.4649313940784
 20
104.4641504248818
 30
0.0
 10
120.8769911241281
 20
104.9380105464415
 30
0.0
 10
121.1639097121805
 20
105.3696942942613
 30
0.0
 10
121.3623363993863
 20
105.7728175360185
 30
0.0
 10
121.4944222734334
 20
106.130553696793
 30
0.0
 10
121.5800561532308
 20
106.4333060990708
 30
0.0
 10
121.6411383645849
 20
106.7417944093163
 30
0.0
 10
121.6796393079519
 20
107.0541061194771
 30
0.0
 10
121.6844419870456
 20
107.2645955333831
 30
0.0
 10
121.6868356358213
 20
107.3695031730703
 30
0.0
  0
SPLINE
  5
11D
330
1F
100
AcDbEntity
  8
0
  6
Continuous
 62
     7
370
    25
100
AcDbSpline
210
0.0
220
0.0
230
1.0
 70
     8
 71
     3
 72
    25
 73
    21
 74
     0
 42
0.000000001
 43
0.00000001
 40
0.0
 40
0.0
 40
0.0
 40
0.0
 40
0.0274788704220519
 40
0.0560416006846
 40
0.0856947086346483
 40
0.1164440166532229
 40
0.1482947438675477
 40
0.1812515840465501
 40
0.2153187716746058
 40
0.2505001382254875
 40
0.3330514552513183
 40
0.5015081958163713
 40
0.5771663066143402
 40
0.6488981303024295
 40
0.7167477700061697
 40
0.7807674423486859
 40
0.8410194131339161
 40
0.897578484992366
 40
0.9505352047787778
 40
1.0
 40
1.0
 40
1.0
 40
1.0
 10
121.6868356358213
 20
115.7945031730703
 30
0.0
 10
121.6860941842132
 20
115.8528675821047
 30
0.0
 10
121.684582035631
 20
115.9718984904012
 30
0.0
 10
121.6720858945606
 20
116.1526794845174
 30
0.0
 10
121.6511662905962
 20
116.338942702759
 30
0.0
 10
121.6202455490514
 20
116.5301147913086
 30
0.0
 10
121.5787209044018
 20
116.7256217305354
 30
0.0
 10
121.5257207185843
 20
116.9247830826511
 30
0.0
 10
121.4604915387674
 20
117.1268013618093
 30
0.0
 10
121.3479015120319
 20
117.4203349763133
 30
0.0
 10
121.087881121054
 20
117.9488678021423
 30
0.0
 10
120.6768017278999
 20
118.488807061799
 30
0.0
 10
120.1924671596275
 20
118.9236264112309
 30
0.0
 10
119.8273124549482
 20
119.1830335526919
 30
0.0
 10
119.4544773858302
 20
119.3907837073415
 30
0.0
 10
119.0812298235044
 20
119.5505049749786
 30
0.0
 10
118.7139405131704
 20
119.6665422272798
 30
0.0
 10
118.3577477103474
 20
119.7427493445847
 30
0.0
 10
118.0169090092014
 20
119.7867544065742
 30
0.0
 10
117.7943305891033
 20
119.7919796332768
 30
0.0
 10
117.6868356358213
 20
119.7945031730703
 30
0.0
  0
LINE
  5
11E
330
1F
100
AcDbEntity
  8
0
  6
Continuous
 62
     7
370
    25
100
AcDbLine
 10
115.7270201337
 20
121.0920378683
 30
0.0
 11
115.7719620358
 21
119.7945034249
 31
0.0
  0
SPLINE
  5
11F
330
1F
100
AcDbEntity
  8
0
  6
Continuous
 62
     7
370
    25
100
AcDbSpline
210
0.0
220
0.0
230
1.0
 70
     8
 71
     3
 72
    13
 73
     9
 74
     0
 42
0.000000001
 43
0.00000001
 40
0.0
 40
0.0
 40
0.0
 40
0.0
 40
0.1618542298650875
 40
0.3254858841233149
 40
0.4910085196246548
 40
0.6585318472470939
 40
0.8281616954004768
 40
1.0
 40
1.0
 40
1.0
 40
1.0
 10
115.7719623565319
 20
119.7945031730703
 30
0.0
 10
115.712740525731
 20
119.7937442969668
 30
0.0
 10
115.5936465114832
 20
119.7922182110581
 30
0.0
 10
115.4140340355438
 20
119.7797242798178
 30
0.0
 10
115.233004994634
 20
119.7594920109466
 30
0.0
 10
115.0509990008395
 20
119.7303380657382
 30
0.0
 10
114.8682147568533
 20
119.6929773550753
 30
0.0
 10
114.7475657259701
 20
119.6607336443022
 30
0.0
 10
114.686851059752
 20
119.6445075202887
 30
0.0
  0
SPLINE
  5
120
330
1F
100
AcDbEntity
  8
0
  6
Continuous
 62
     7
370
    25
100
AcDbSpline
210
0.0
220
0.0
230
1.0
 70
    24
 71
     3
 72
     9
 73
     5
 74
     0
 42
0.000000001
 43
0.00000001
 40
0.0
 40
0.0
 40
0.0
 40
0.0
 40
0.4907282259506041
 40
1.0
 40
1.0
 40
1.0
 40
1.0
 10
114.6869070566634
 20
119.6445031730703
 30
0.0
 10
114.6330015984329
 20
119.6445031730703
 30
0.0
 10
114.523153712414
 20
119.6445031730703
 30
0.0
 10
114.415211236305
 20
119.6445031730703
 30
0.0
 10
114.3602391800016
 20
119.6445031730703
 30
0.0
  0
SPLINE
  5
121
330
1F
100
AcDbEntity
  8
0
  6
Continuous
 62
     7
370
    25
100
AcDbSpline
210
0.0
220
0.0
230
1.0
 70
     8
 71
     3
 72
    14
 73
    10
 74
     0
 42
0.000000001
 43
0.00000001
 40
0.0
 40
0.0
 40
0.0
 40
0.0
 40
0.0310276388093398
 40
0.0622853718693698
 40
0.1248003166924349
 40
0.2498289731770658
 40
0.4998892603621822
 40
0.7606803621577949
 40
1.0
 40
1.0
 40
1.0
 40
1.0
 10
113.5315747844862
 20
120.5579795223016
 30
0.0
 10
113.5398648100258
 20
120.5484116777444
 30
0.0
 10
113.5565063381392
 20
120.5292050355666
 30
0.0
 10
113.5897561945183
 20
120.4906164075704
 30
0.0
 10
113.6482587401187
 20
120.4230865146629
 30
0.0
 10
113.7657950339687
 20
120.2882489969393
 30
0.0
 10
113.9387225577172
 20
120.0933156472088
 30
0.0
 10
114.146370079869
 20
119.8650266234133
 30
0.0
 10
114.2901806633799
 20
119.7154569974006
 30
0.0
 10
114.3589988151129
 20
119.6438829521092
 30
0.0
  0
SPLINE
  5
122
330
1F
100
AcDbEntity
  8
0
  6
Continuous
 62
     7
370
    25
100
AcDbSpline
210
0.0
220
0.0
230
1.0
 70
     8
 71
     3
 72
    13
 73
     9
 74
     0
 42
0.000000001
 43
0.00000001
 40
0.0
 40
0.0
 40
0.0
 40
0.0
 40
0.1722587823402174
 40
0.3421398270982735
 40
0.5097456257612809
 40
0.6751828993009421
 40
0.8385626189970466
 40
1.0
 40
1.0
 40
1.0
 40
1.0
 10
114.6868540047316
 20
103.5194979958201
 30
0.0
 10
114.7477173943942
 20
103.5032342681231
 30
0.0
 10
114.8686040588237
 20
103.4709313056463
 30
0.0
 10
115.0516652167779
 20
103.4335436509545
 30
0.0
 10
115.2337678997121
 20
103.404410716043
 30
0.0
 10
115.4147093480346
 20
103.3842240004346
 30
0.0
 10
115.5940483517491
 20
103.3717771961308
 30
0.0
 10
115.7128945801788
 20
103.370258152903
 30
0.0
 10
115.7719623565319
 20
103.3695031730703
 30
0.0
  0
LINE
  5
123
330
1F
100
AcDbEntity
  8
0
  6
Continuous
 62
     7
370
    25
100
AcDbLine
 10
115.7270201337
 20
102.0719684778
 30
0.0
 11
115.7719620358
 21
103.3695029212
 31
0.0
  0
SPLINE
  5
124
330
1F
100
AcDbEntity
  8
0
  6
Continuous
 62
     7
370
    25
100
AcDbSpline
210
0.0
220
0.0
230
1.0
 70
     8
 71
     3
 72
    11
 73
     7
 74
     0
 42
0.000000001
 43
0.00000001
 40
0.0
 40
0.0
 40
0.0
 40
0.0
 40
0.239284509383631
 40
0.5001120454057238
 40
0.7515010915050501
 40
1.0
 40
1.0
 40
1.0
 40
1.0
 10
114.3602673468023
 20
103.5200747454636
 30
0.0
 10
114.29145771382
 20
103.4484790473575
 30
0.0
 10
114.147643446933
 20
103.2988418179594
 30
0.0
 10
113.9399417141214
 20
103.0697852894524
 30
0.0
 10
113.7320014023981
 20
102.8373233020966
 30
0.0
 10
113.5990331927615
 20
102.682454310706
 30
0.0
 10
113.5329334705026
 20
102.6054675080304
 30
0.0
  0
SPLINE
  5
125
330
1F
100
AcDbEntity
  8
0
  6
Continuous
 62
     7
370
    25
100
AcDbSpline
210
0.0
220
0.0
230
1.0
 70
    24
 71
     3
 72
     9
 73
     5
 74
     0
 42
0.000000001
 43
0.00000001
 40
0.0
 40
0.0
 40
0.0
 40
0.0
 40
0.509066935386983
 40
0.9999999999999999
 40
0.9999999999999999
 40
0.9999999999999999
 40
0.9999999999999999
 10
114.3622154692179
 20
103.5195031730703
 30
0.0
 10
114.416843331925
 20
103.5195031730703
 30
0.0
 10
114.5241531155896
 20
103.5195031730703
 30
0.0
 10
114.6333346238339
 20
103.5195031730703
 30
0.0
 10
114.6869354362754
 20
103.5195031730703
 30
0.0
  0
LINE
  5
126
330
1F
100
AcDbEntity
  8
0
  6
Continuous
 62
     7
370
    25
100
AcDbLine
 10
108.138428707
 20
120.5621134607
 30
0.0
 11
108.1129328202
 21
119.6645271151
 31
0.0
  0
LINE
  5
127
330
1F
100
AcDbEntity
  8
0
  6
Continuous
 62
     7
370
    25
100
AcDbLine
 10
114.3602372002
 20
119.6445027484
 30
0.0
 11
108.1868351292
 21
119.6445027484
 31
0.0
  0
SPLINE
  5
128
330
1F
100
AcDbEntity
  8
0
  6
Continuous
 62
     7
370
    25
100
AcDbSpline
210
0.0
220
0.0
230
1.0
 70
     8
 71
     3
 72
     8
 73
     4
 74
     0
 42
0.000000001
 43
0.00000001
 40
0.0
 40
0.0
 40
0.0
 40
0.0
 40
1.0
 40
1.0
 40
1.0
 40
1.0
 10
108.1868356358755
 20
119.644503173055
 30
0.0
 10
108.1622716064469
 20
119.6514265716791
 30
0.0
 10
108.1376413153487
 20
119.6581148754969
 30
0.0
 10
108.1129492742366
 20
119.6645668593777
 30
0.0
  0
LINE
  5
129
330
1F
100
AcDbEntity
  8
0
  6
Continuous
 62
     7
370
    25
100
AcDbLine
 10
108.9511995058
 20
103.3745804919
 30
0.0
 11
109.1233563464
 21
102.6024107008
 31
0.0
  0
SPLINE
  5
12A
330
1F
100
AcDbEntity
  8
0
  6
Continuous
 62
     7
370
    25
100
AcDbSpline
210
0.0
220
0.0
230
1.0
 70
     8
 71
     3
 72
     8
 73
     4
 74
     0
 42
0.000000001
 43
0.00000001
 40
0.0
 40
0.0
 40
0.0
 40
0.0
 40
1.0
 40
1.0
 40
1.0
 40
1.0
 10
108.9492634791858
 20
103.375191104893
 30
0.0
 10
108.9794649605056
 20
103.4226720020113
 30
0.0
 10
109.008664345358
 20
103.4707903055845
 30
0.0
 10
109.0368356358213
 20
103.5195031730703
 30
0.0
  0
LINE
  5
12B
330
1F
100
AcDbEntity
  8
0
  6
Continuous
 62
     7
370
    25
100
AcDbLine
 10
109.0368364792
 20
103.5195035978
 30
0.0
 11
114.361408804
 21
103.5195035978
 31
0.0
  0
LINE
  5
12C
330
1F
100
AcDbEntity
  8
0
  6
Continuous
 62
     7
370
    25
100
AcDbLine
 10
117.686835755
 20
119.7945034249
 30
0.0
 11
115.7719620358
 21
119.7945034249
 31
0.0
  0
LINE
  5
12D
330
1F
100
AcDbEntity
  8
0
  6
Continuous
 62
     7
370
    25
100
AcDbLine
 10
115.7719620358
 20
103.3695029212
 30
0.0
 11
117.686835755
 21
103.3695029212
 31
0.0
  0
SPLINE
  5
12E
330
1F
100
AcDbEntity
  8
0
  6
Continuous
 62
     7
370
    25
100
AcDbSpline
210
0.0
220
0.0
230
1.0
 70
     8
 71
     3
 72
    23
 73
    19
 74
     0
 42
0.000000001
 43
0.00000001
 40
0.0
 40
0.0
 40
0.0
 40
0.0
 40
0.0449850911547964
 40
0.0909520670823883
 40
0.1379394291328525
 40
0.1859832248994781
 40
0.235117176177667
 40
0.2853728096486027
 40
0.3367795876649756
 40
0.3893650370847659
 40
0.4431548745955978
 40
0.4981731273942729
 40
0.5575107591414307
 40
0.6265492282208773
 40
0.7053073139958764
 40
0.7937970254642376
 40
0.8920262116484563
 40
1.0
 40
1.0
 40
1.0
 40
1.0
 10
105.5741785996712
 20
101.5220031730703
 30
0.0
 10
105.6370223506475
 20
101.5228609763896
 30
0.0
 10
105.7640815364306
 20
101.5245953062094
 30
0.0
 10
105.9557377691811
 20
101.5387824414131
 30
0.0
 10
106.1501050297894
 20
101.5620079245734
 30
0.0
 10
106.3466217380671
 20
101.5955866649209
 30
0.0
 10
106.5447193417851
 20
101.6397306381525
 30
0.0
 10
106.7437673137453
 20
101.6949255856805
 30
0.0
 10
106.9430863196195
 20
101.7615424480994
 30
0.0
 10
107.1419520164484
 20
101.8399431249115
 30
0.0
 10
107.3395671558293
 20
101.9304272158547
 30
0.0
 10
107.5388136230094
 20
102.0352190806646
 30
0.0
 10
107.7476421027554
 20
102.1607840171688
 30
0.0
 10
107.9724531989855
 20
102.3162980157799
 30
0.0
 10
108.2142199279338
 20
102.5108671309884
 30
0.0
 10
108.4654346366432
 20
102.7503567984196
 30
0.0
 10
108.7204331207828
 20
103.0381972081457
 30
0.0
 10
108.8708052496179
 20
103.2596656178338
 30
0.0
 10
108.9495444067488
 20
103.3756328256205
 30
0.0
  0
SPLINE
  5
12F
330
1F
100
AcDbEntity
  8
0
  6
Continuous
 62
     7
370
    25
100
AcDbSpline
210
0.0
220
0.0
230
1.0
 70
     8
 71
     3
 72
    13
 73
     9
 74
     0
 42
0.000000001
 43
0.00000001
 40
0.0
 40
0.0
 40
0.0
 40
0.0
 40
0.1706320847381217
 40
0.3395984166493647
 40
0.5069574113007884
 40
0.672769183166934
 40
0.8370955448651839
 40
1.0
 40
1.0
 40
1.0
 40
1.0
 10
108.1129423979617
 20
119.6645686561288
 30
0.0
 10
108.0568884677141
 20
119.6784714022985
 30
0.0
 10
107.9453278196198
 20
119.7061411725739
 30
0.0
 10
107.776082087211
 20
119.7383966894928
 30
0.0
 10
107.6069369982797
 20
119.7637341498069
 30
0.0
 10
107.4380017363115
 20
119.7814470254764
 30
0.0
 10
107.2696735040976
 20
119.7924710824272
 30
0.0
 10
107.1575346869247
 20
119.7938277745876
 30
0.0
 10
107.1017089151108
 20
119.7945031730703
 30
0.0
  0
SPLINE
  5
130
330
1F
100
AcDbEntity
  8
0
  6
Continuous
 62
     7
370
    25
100
AcDbSpline
210
0.0
220
0.0
230
1.0
 70
     8
 71
     3
 72
     8
 73
     4
 74
     0
 42
0.000000001
 43
0.00000001
 40
0.0
 40
0.0
 40
0.0
 40
0.0
 40
1.0
 40
1.0
 40
1.0
 40
1.0
 10
100.3231758142437
 20
120.3220049169959
 30
0.0
 10
100.6277290879526
 20
120.4481942636349
 30
0.0
 10
100.9322823616615
 20
120.5756390198981
 30
0.0
 10
101.2368356353704
 20
120.7043298844463
 30
0.0
  0
LINE
  5
131
330
1F
100
AcDbEntity
  8
0
  6
Continuous
 62
     7
370
    25
100
AcDbLine
 10
107.1017102193
 20
119.7945034249
 30
0.0
 11
101.2368366908
 21
119.7945034249
 31
0.0
  0
LINE
  5
132
330
1F
100
AcDbEntity
  8
0
  6
Continuous
 62
     7
370
    25
100
AcDbLine
 10
101.2368366908
 20
119.7945034249
 30
0.0
 11
100.3231757175
 21
120.3220045312
 31
0.0
  0
SPLINE
  5
133
330
1F
100
AcDbEntity
  8
0
  6
Continuous
 62
     7
370
    25
100
AcDbSpline
210
0.0
220
0.0
230
1.0
 70
    24
 71
     3
 72
     8
 73
     4
 74
     0
 42
0.000000001
 43
0.00000001
 40
0.0
 40
0.0
 40
0.0
 40
0.0
 40
1.0
 40
1.0
 40
1.0
 40
1.0
 10
99.73683563582134
 20
120.6605285768547
 30
0.0
 10
99.93138276835423
 20
120.5482067375168
 30
0.0
 10
100.1268437885934
 20
120.4353572648656
 30
0.0
 10
100.3231758142507
 20
120.3220049170018
 30
0.0
  0
LINE
  5
134
330
1F
100
AcDbEntity
  8
0
  6
Continuous
 62
     7
370
    25
100
AcDbLine
 10
99.7368373763
 20
120.6605281798
 30
0.0
 11
99.7368373763
 21
133.7850984304
 31
0.0
  0
LINE
  5
135
330
1F
100
AcDbEntity
  8
0
  6
Continuous
 62
     7
370
    25
100
AcDbLine
 10
171.1868361425
 20
130.5820025621
 30
0.0
 11
171.1868361425
 21
92.582003784
 31
0.0
  0
LINE
  5
136
330
1F
100
AcDbEntity
  8
0
  6
Continuous
 62
     7
370
    25
100
AcDbLine
 10
100.3767006885
 20
101.0254049791
 30
0.0
 11
101.2368366908
 21
101.5220029397
 31
0.0
  0
LINE
  5
137
330
1F
100
AcDbEntity
  8
0
  6
Continuous
 62
     7
370
    25
100
AcDbLine
 10
101.2368366908
 20
101.5220029397
 30
0.0
 11
105.5741772842
 21
101.5220029397
 31
0.0
  0
SPLINE
  5
138
330
1F
100
AcDbEntity
  8
0
  6
Continuous
 62
     7
370
    25
100
AcDbSpline
210
0.0
220
0.0
230
1.0
 70
     8
 71
     3
 72
     8
 73
     4
 74
     0
 42
0.000000001
 43
0.00000001
 40
0.0
 40
0.0
 40
0.0
 40
0.0
 40
1.0
 40
1.0
 40
1.0
 40
1.0
 10
101.2368356355811
 20
100.6770250325527
 30
0.0
 10
100.9501243587123
 20
100.7939259707663
 30
0.0
 10
100.6634130818435
 20
100.910053991831
 30
0.0
 10
100.3767018049747
 20
101.0254046742919
 30
0.0
  0
SPLINE
  5
139
330
1F
100
AcDbEntity
  8
0
  6
Continuous
 62
     7
370
    25
100
AcDbSpline
210
0.0
220
0.0
230
1.0
 70
     8
 71
     3
 72
     8
 73
     4
 74
     0
 42
0.000000001
 43
0.00000001
 40
0.0
 40
0.0
 40
0.0
 40
0.0
 40
1.0
 40
1.0
 40
1.0
 40
1.0
 10
152.9210334403914
 20
82.04525584010489
 30
0.0
 10
152.5856228149676
 20
82.70352289241411
 30
0.0
 10
152.2537804958577
 20
83.3625793303955
 30
0.0
 10
151.9275467608739
 20
84.02251970181676
 30
0.0
  0
LWPOLYLINE
  5
13A
330
1F
100
AcDbEntity
  8
0
  6
Continuous
 62
     7
370
    25
100
AcDbPolyline
 90
       11
 70
   128
 43
0.0
 10
151.9275463041
 20
84.0225197492
 10
152.6504193287
 20
84.1654945283
 10
153.3088913973
 20
84.372089815
 10
153.8808035519
 20
84.6353523551
 10
154.3469062861
 20
84.9464234082
 10
154.6915142652
 20
85.294833046
 10
154.9030306604
 20
85.6688559173
 10
154.9743355107
 20
86.0559042661
 10
154.9030306604
 20
86.4429526149
 10
154.6915142652
 20
86.8169754861
 10
154.6791751724
 20
86.8328154205
  0
LINE
  5
13B
330
1F
100
AcDbEntity
  8
0
  6
Continuous
 62
     7
370
    25
100
AcDbLine
 10
99.7368373763
 20
89.3789079158
 30
0.0
 11
99.7368373763
 21
100.6559781848
 31
0.0
  0
SPLINE
  5
13C
330
1F
100
AcDbEntity
  8
0
  6
Continuous
 62
     7
370
    25
100
AcDbSpline
210
0.0
220
0.0
230
1.0
 70
    24
 71
     3
 72
     8
 73
     4
 74
     0
 42
0.000000001
 43
0.00000001
 40
0.0
 40
0.0
 40
0.0
 40
0.0
 40
1.0
 40
1.0
 40
1.0
 40
1.0
 10
100.3767018049747
 20
101.0254046742919
 30
0.0
 10
100.162036246135
 20
100.90146745611
 30
0.0
 10
99.94872153779677
 20
100.7783101518289
 30
0.0
 10
99.73683563582132
 20
100.6559777692859
 30
0.0
  0
ARC
  5
13D
330
1F
100
AcDbEntity
  8
0
  6
Continuous
 62
     7
370
    25
100
AcDbCircle
 10
147.9174196321
 20
86.0491532486
 30
0.0
 40
1.386778252398805
100
AcDbArc
 50
117.5067796727
 51
245.5898588898
  0
SPLINE
  5
13E
330
1F
100
AcDbEntity
  8
0
  6
Continuous
 62
     7
370
    25
100
AcDbSpline
210
0.0
220
0.0
230
1.0
 70
     8
 71
     3
 72
     8
 73
     4
 74
     0
 42
0.000000001
 43
0.00000001
 40
0.0
 40
0.0
 40
0.0
 40
0.0
 40
1.0
 40
1.0
 40
1.0
 40
1.0
 10
147.3443119696733
 20
84.78633858249276
 30
0.0
 10
146.9878587047423
 20
84.04217460930823
 30
0.0
 10
146.6225252119808
 20
83.29943538341867
 30
0.0
 10
146.2526378312512
 20
82.55800425852209
 30
0.0
  0
LINE
  5
13F
330
1F
100
AcDbEntity
  8
0
  6
Continuous
 62
     7
370
    25
100
AcDbLine
 10
147.7118355077
 20
137.6767061768
 30
0.0
 11
147.7118355077
 21
137.591942784
 31
0.0
  0
SPLINE
  5
140
330
1F
100
AcDbEntity
  8
0
  6
Continuous
 62
     7
370
    25
100
AcDbSpline
210
0.0
220
0.0
230
1.0
 70
     8
 71
     3
 72
    16
 73
    12
 74
     0
 42
0.000000001
 43
0.00000001
 40
0.0
 40
0.0
 40
0.0
 40
0.0
 40
0.1250000000000001
 40
0.1250000000000001
 40
0.2500000000000003
 40
0.2500000000000003
 40
0.5000000000000002
 40
0.5000000000000002
 40
0.7500000000000001
 40
0.7500000000000001
 40
1.0
 40
1.0
 40
1.0
 40
1.0
 10
147.7118356358213
 20
137.5919421988607
 30
0.0
 10
147.7118356358213
 20
137.5226098502155
 30
0.0
 10
147.7216081994609
 20
137.4606133132129
 30
0.0
 10
147.7558042448613
 20
137.3549314352225
 30
0.0
 10
147.7799894365723
 20
137.3108090003036
 30
0.0
 10
147.8677061006686
 20
137.1984023740629
 30
0.0
 10
147.9444162665179
 20
137.1503998679046
 30
0.0
 10
148.1234983667589
 20
137.085574105192
 30
0.0
 10
148.2243811363787
 20
137.0696708337298
 30
0.0
 10
148.4531926346417
 20
137.0681660933591
 30
0.0
 10
148.5774902430767
 20
137.0827912701349
 30
0.0
 10
148.7118356358213
 20
137.1175781809735
 30
0.0
  0
SPLINE
  5
141
330
1F
100
AcDbEntity
  8
0
  6
Continuous
 62
     7
370
    25
100
AcDbSpline
210
0.0
220
0.0
230
1.0
 70
     8
 71
     3
 72
    10
 73
     6
 74
     0
 42
0.000000001
 43
0.00000001
 40
0.0
 40
0.0
 40
0.0
 40
0.0
 40
0.5
 40
0.5
 40
1.0
 40
1.0
 40
1.0
 40
1.0
 10
148.7118356358213
 20
137.1175781809735
 30
0.0
 10
148.9746551501771
 20
137.1856317169062
 30
0.0
 10
149.2530080147847
 20
137.237945333958
 30
0.0
 10
149.8400046021702
 20
137.3146487855413
 30
0.0
 10
150.1493882920485
 20
137.3386761598359
 30
0.0
 10
150.4618356358213
 20
137.3475059962339
 30
0.0
  0
SPLINE
  5
142
330
1F
100
AcDbEntity
  8
0
  6
Continuous
 62
     7
370
    25
100
AcDbSpline
210
0.0
220
0.0
230
1.0
 70
     8
 71
     3
 72
    14
 73
    10
 74
     0
 42
0.000000001
 43
0.00000001
 40
0.0
 40
0.0
 40
0.0
 40
0.0
 40
0.25
 40
0.25
 40
0.5
 40
0.5
 40
0.75
 40
0.75
 40
1.0
 40
1.0
 40
1.0
 40
1.0
 10
150.4618356358213
 20
137.3475059962339
 30
0.0
 10
150.5950650868447
 20
137.3512710922713
 30
0.0
 10
150.7267664494548
 20
137.375533109109
 30
0.0
 10
150.9698441076719
 20
137.4617644597525
 30
0.0
 10
151.0807500482206
 20
137.5239206199244
 30
0.0
 10
151.2634471212982
 20
137.6767268469119
 30
0.0
 10
151.3368346507798
 20
137.76871255497
 30
0.0
 10
151.4356689296981
 20
137.9711818920489
 30
0.0
 10
151.4618356358213
 20
138.0829431204069
 30
0.0
 10
151.4618356358213
 20
138.197497087933
 30
0.0
  0
LINE
  5
143
330
1F
100
AcDbEntity
  8
0
  6
Continuous
 62
     7
370
    25
100
AcDbLine
 10
151.4618356567
 20
138.1974961726
 30
0.0
 11
151.4618356567
 21
138.2827047376
 31
0.0
  0
SPLINE
  5
144
330
1F
100
AcDbEntity
  8
0
  6
Continuous
 62
     7
370
    25
100
AcDbSpline
210
0.0
220
0.0
230
1.0
 70
     8
 71
     3
 72
    10
 73
     6
 74
     0
 42
0.000000001
 43
0.00000001
 40
0.0
 40
0.0
 40
0.0
 40
0.0
 40
0.5
 40
0.5
 40
1.0
 40
1.0
 40
1.0
 40
1.0
 10
151.4618356358213
 20
138.2827056526852
 30
0.0
 10
151.7130285256928
 20
138.6432118754512
 30
0.0
 10
151.9602978373946
 20
138.9873027553605
 30
0.0
 10
152.4469191887055
 20
139.6387641704162
 30
0.0
 10
152.6863024964222
 20
139.9463496102205
 30
0.0
 10
152.9210334403913
 20
140.2297405401285
 30
0.0
  0
SPLINE
  5
145
330
1F
100
AcDbEntity
  8
0
  6
Continuous
 62
     7
370
    25
100
AcDbSpline
210
0.0
220
0.0
230
1.0
 70
     8
 71
     3
 72
     8
 73
     4
 74
     0
 42
0.000000001
 43
0.00000001
 40
0.0
 40
0.0
 40
0.0
 40
0.0
 40
1.0
 40
1.0
 40
1.0
 40
1.0
 10
151.9275467608739
 20
84.02251970181676
 30
0.0
 10
151.7734642936499
 20
84.23866660321471
 30
0.0
 10
151.6182376718054
 20
84.46031931253398
 30
0.0
 10
151.4618356358213
 20
84.68724955737243
 30
0.0
  0
LINE
  5
146
330
1F
100
AcDbEntity
  8
0
  6
Continuous
 62
     7
370
    25
100
AcDbLine
 10
151.4618356567
 20
84.6872493742
 30
0.0
 11
151.4618356567
 21
84.7726665555
 31
0.0
  0
SPLINE
  5
147
330
1F
100
AcDbEntity
  8
0
  6
Continuous
 62
     7
370
    25
100
AcDbSpline
210
0.0
220
0.0
230
1.0
 70
     8
 71
     3
 72
    14
 73
    10
 74
     0
 42
0.000000001
 43
0.00000001
 40
0.0
 40
0.0
 40
0.0
 40
0.0
 40
0.25
 40
0.25
 40
0.5
 40
0.5
 40
0.75
 40
0.75
 40
1.0
 40
1.0
 40
1.0
 40
1.0
 10
151.4618356358213
 20
84.77266562666982
 30
0.0
 10
151.4618356358213
 20
84.88679153086719
 30
0.0
 10
151.4357954790643
 20
84.99949894445092
 30
0.0
 10
151.337004295863
 20
85.20369470826648
 30
0.0
 10
151.264296648446
 20
85.29609889946849
 30
0.0
 10
151.0805248705794
 20
85.45165162777349
 30
0.0
 10
150.9714548398873
 20
85.51366109440598
 30
0.0
 10
150.7258304914286
 20
85.60155120313128
 30
0.0
 10
150.5952753658411
 20
85.6253594555533
 30
0.0
 10
150.4618356358213
 20
85.62854402118437
 30
0.0
  0
SPLINE
  5
148
330
1F
100
AcDbEntity
  8
0
  6
Continuous
 62
     7
370
    25
100
AcDbSpline
210
0.0
220
0.0
230
1.0
 70
     8
 71
     3
 72
    10
 73
     6
 74
     0
 42
0.000000001
 43
0.00000001
 40
0.0
 40
0.0
 40
0.0
 40
0.0
 40
0.5
 40
0.5
 40
1.0
 40
1.0
 40
1.0
 40
1.0
 10
150.4618356358213
 20
85.62854402118435
 30
0.0
 10
150.1538557771935
 20
85.63589402161307
 30
0.0
 10
149.85383576707
 20
85.65527685837571
 30
0.0
 10
149.2690244230756
 20
85.71809031380666
 30
0.0
 10
148.9823726167278
 20
85.76203085192752
 30
0.0
 10
148.7118356358213
 20
85.81842889108177
 30
0.0
  0
SPLINE
  5
149
330
1F
100
AcDbEntity
  8
0
  6
Continuous
 62
     7
370
    25
100
AcDbSpline
210
0.0
220
0.0
230
1.0
 70
     8
 71
     3
 72
    16
 73
    12
 74
     0
 42
0.000000001
 43
0.00000001
 40
0.0
 40
0.0
 40
0.0
 40
0.0
 40
0.2499999999999992
 40
0.2499999999999992
 40
0.4999999999999984
 40
0.4999999999999984
 40
0.7499999999999977
 40
0.7499999999999977
 40
0.8749999999999988
 40
0.8749999999999988
 40
1.0
 40
1.0
 40
1.0
 40
1.0
 10
148.7118356358213
 20
85.81842889108177
 30
0.0
 10
148.5780584670759
 20
85.84631701926138
 30
0.0
 10
148.4544799772377
 20
85.85342713251684
 30
0.0
 10
148.2234200299476
 20
85.83434545208912
 30
0.0
 10
148.1191027069064
 20
85.80800405213118
 30
0.0
 10
147.9372755037369
 20
85.71979283375073
 30
0.0
 10
147.8605107373406
 20
85.65880388676244
 30
0.0
 10
147.7750050952107
 20
85.53037513469975
 30
0.0
 10
147.7522544453105
 20
85.48223788106311
 30
0.0
 10
147.7205241710846
 20
85.37287295615067
 30
0.0
 10
147.7118356358213
 20
85.31143910360294
 30
0.0
 10
147.7118356358213
 20
85.24596177942564
 30
0.0
  0
LINE
  5
14A
330
1F
100
AcDbEntity
  8
0
  6
Continuous
 62
     7
370
    25
100
AcDbLine
 10
147.7118355077
 20
85.2459609626
 30
0.0
 11
147.7118355077
 21
85.1609926788
 31
0.0
  0
SPLINE
  5
14B
330
1F
100
AcDbEntity
  8
0
  6
Continuous
 62
     7
370
    25
100
AcDbSpline
210
0.0
220
0.0
230
1.0
 70
     8
 71
     3
 72
     8
 73
     4
 74
     0
 42
0.000000001
 43
0.00000001
 40
0.0
 40
0.0
 40
0.0
 40
0.0
 40
1.0
 40
1.0
 40
1.0
 40
1.0
 10
147.7118356358214
 20
85.16099265267418
 30
0.0
 10
147.5850756227922
 20
85.02292234252712
 30
0.0
 10
147.4622232090605
 20
84.89684329169354
 30
0.0
 10
147.3443119696733
 20
84.78633858249276
 30
0.0
  0
LINE
  5
14C
330
1F
100
AcDbEntity
  8
0
  6
Continuous
 62
     7
370
    25
100
AcDbLine
 10
100.3520318162
 20
120.3053441016
 30
0.0
 11
100.4885003757
 21
120.2265542118
 31
0.0
  0
LINE
  5
14D
330
1F
100
AcDbEntity
  8
0
  6
Continuous
 62
     7
370
    25
100
AcDbLine
 10
100.4885003757
 20
101.0899521528
 30
0.0
 11
100.413279314
 21
101.0465217872
 31
0.0
  0
LINE
  5
14E
330
1F
100
AcDbEntity
  8
0
  6
Continuous
 62
     7
370
    25
100
AcDbLine
 10
151.4618356567
 20
138.2827047376
 30
0.0
 11
151.4618356567
 21
140.52959868
 31
0.0
  0
LINE
  5
14F
330
1F
100
AcDbEntity
  8
0
  6
Continuous
 62
     7
370
    25
100
AcDbLine
 10
147.7118355077
 20
82.6344076662
 30
0.0
 11
147.7118355077
 21
85.1609926788
 31
0.0
  0
LINE
  5
150
330
1F
100
AcDbEntity
  8
0
  6
Continuous
 62
     7
370
    25
100
AcDbLine
 10
151.4618356567
 20
82.6344076662
 30
0.0
 11
151.4618356567
 21
84.6872493742
 31
0.0
  0
LINE
  5
151
330
1F
100
AcDbEntity
  8
0
  6
Continuous
 62
     7
370
    25
100
AcDbLine
 10
108.5654084425
 20
102.9289957254
 30
0.0
 11
109.0368364792
 21
103.5195035978
 31
0.0
  0
LINE
  5
152
330
1F
100
AcDbEntity
  8
0
  6
Continuous
 62
     7
370
    25
100
AcDbLine
 10
114.226391245
 20
119.6445027484
 30
0.0
 11
114.0585650545
 21
119.6445027484
 31
0.0
  0
LINE
  5
153
330
1F
100
AcDbEntity
  8
0
  6
Continuous
 62
     7
370
    25
100
AcDbLine
 10
114.0590567928
 20
103.5195035978
 30
0.0
 11
114.2283675116
 21
103.5195035978
 31
0.0
  0
DIMENSION
  5
154
330
1F
100
AcDbEntity
  8
VERMASSUNG
100
AcDbDimension
  2
_D
 10
165.5172363286
 20
132.5820031731
 30
0.0
 11
165.5172363286
 21
139.6939158997
 31
0.0
 70
   160
  1
%%c<>
 71
     2
 42
-1.0
  3
SLDDIMSTYLE0
100
AcDbAlignedDimension
 13
169.1868356358
 23
90.5820031731
 33
0.0
 14
169.1868356358
 24
132.5820031731
 34
0.0
 50
90.0
100
AcDbRotatedDimension
  0
DIMENSION
  5
15F
330
1F
100
AcDbEntity
  8
VERMASSUNG
100
AcDbDimension
  2
_D_1
 10
211.0385796306
 20
90.7320031731
 30
0.0
 11
211.0385796306
 21
111.5820031731
 31
0.0
 70
   160
  1
%%c<>
 71
     2
 42
-1.0
  3
SLDDIMSTYLE0
100
AcDbAlignedDimension
 13
185.0981019647
 23
132.4320031731
 33
0.0
 14
185.1016633578
 24
90.7320031731
 34
0.0
 50
90.0
100
AcDbRotatedDimension
  0
DIMENSION
  5
16A
330
1F
100
AcDbEntity
  8
VERMASSUNG
100
AcDbDimension
  2
_D_2
 10
139.6868356358
 20
150.5623233709
 30
0.0
 11
169.6868356358
 21
150.5623233709
 31
0.0
 70
   160
  1
<>
 71
     2
 42
-1.0
  3
SLDDIMSTYLE0
100
AcDbAlignedDimension
 13
199.6868356358
 23
126.5820031731
 33
0.0
 14
139.6868356358
 24
142.8570031731
 34
0.0
100
AcDbRotatedDimension
  0
DIMENSION
  5
174
330
1F
100
AcDbEntity
  8
VERMASSUNG
100
AcDbDimension
  2
_D_3
 10
199.6868356358
 20
157.1110068376
 30
0.0
 11
149.7118356358
 21
157.1110068376
 31
0.0
 70
   160
  1
<>
 71
     2
 42
-1.0
  3
SLDDIMSTYLE0
100
AcDbAlignedDimension
 13
99.7368356358
 23
133.7850978969
 33
0.0
 14
199.6868356358
 24
126.5820031731
 34
0.0
100
AcDbRotatedDimension
  0
DIMENSION
  5
17E
330
1F
100
AcDbEntity
  8
VERMASSUNG
100
AcDbDimension
  2
_D_4
 10
88.4296100689
 20
143.0570031731
 30
0.0
 11
88.4296100689
 21
111.5820031731
 31
0.0
 70
   160
  1
KM%%c<> XMZ
 71
     2
 42
-1.0
  3
SLDDIMSTYLE1
100
AcDbAlignedDimension
 13
139.8868356358
 23
80.1070031731
 33
0.0
 14
139.8868356358
 24
143.0570031731
 34
0.0
 50
90.0
100
AcDbRotatedDimension
  0
LINE
  5
18C
330
1F
100
AcDbEntity
  8
VERMASSUNG
  6
CENTERX2
370
    18
100
AcDbLine
 10
201.6868356358
 20
111.5820031731
 30
0.0
 11
97.7368356358
 21
111.5820031731
 31
0.0
  0
LINE
  5
18D
330
1F
100
AcDbEntity
  8
0
  6
Continuous
 62
     7
370
    25
100
AcDbLine
 10
252.4106392777
 20
29.9856866837
 30
0.0
 11
258.0047377969
 21
26.7562823483
 31
0.0
  0
LINE
  5
18E
330
1F
100
AcDbEntity
  8
0
  6
Continuous
 62
     7
370
    25
100
AcDbLine
 10
268.4288908388
 20
44.8134009003
 30
0.0
 11
262.8347923195
 21
48.0428052357
 31
0.0
  0
LINE
  5
18F
330
1F
100
AcDbEntity
  8
0
  6
Continuous
 62
     7
370
    25
100
AcDbLine
 10
257.6215177082
 20
47.525991889
 30
0.0
 11
257.338720129
 21
47.3626847622
 31
0.0
  0
LINE
  5
190
330
1F
100
AcDbEntity
  8
0
  6
Continuous
 62
     7
370
    25
100
AcDbLine
 10
250.2511266269
 20
35.085282323
 30
0.0
 11
250.2511272855
 21
34.7587184925
 31
0.0
  0
SPLINE
  5
191
330
1F
100
AcDbEntity
  8
0
  6
Continuous
 62
     7
370
    25
100
AcDbSpline
210
0.0
220
0.0
230
1.0
 70
     8
 71
     3
 72
    17
 73
    13
 74
     0
 42
0.000000001
 43
0.00000001
 40
0.0
 40
0.0
 40
0.0
 40
0.0
 40
0.0092296614566227
 40
0.1308907832906251
 40
0.253303399162965
 40
0.3764335974223575
 40
0.5001532649980287
 40
0.6242959934214076
 40
0.7487017096524914
 40
0.8732408833346392
 40
0.9978155953972853
 40
1.0
 40
1.0
 40
1.0
 40
1.0
 10
243.6612949821252
 20
29.50320840805173
 30
0.0
 10
243.6802558790596
 20
29.50013091933128
 30
0.0
 10
243.9491505360615
 20
29.45648739989333
 30
0.0
 10
244.4978756175221
 20
29.45391411731387
 30
0.0
 10
245.3050148675493
 20
29.50218758412833
 30
0.0
 10
246.1397625472036
 20
29.64753911476611
 30
0.0
 10
246.9927053355344
 20
29.87709013141333
 30
0.0
 10
247.8593945886792
 20
30.19361829036987
 30
0.0
 10
248.7342888180829
 20
30.59122386686505
 30
0.0
 10
249.6103278883939
 20
31.07851267580387
 30
0.0
 10
250.200387015469
 20
31.43645627626037
 30
0.0
 10
250.4936795358612
 20
31.65081455352142
 30
0.0
 10
250.4987337642933
 20
31.65450853009524
 30
0.0
  0
SPLINE
  5
192
330
1F
100
AcDbEntity
  8
0
  6
Continuous
 62
     7
370
    25
100
AcDbSpline
210
0.0
220
0.0
230
1.0
 70
     8
 71
     3
 72
    18
 73
    14
 74
     0
 42
0.000000001
 43
0.00000001
 40
0.0
 40
0.0
 40
0.0
 40
0.0
 40
0.0405064810345249
 40
0.1471147367055435
 40
0.253789522087536
 40
0.3605001510249569
 40
0.4671716625652689
 40
0.5737084360926001
 40
0.6799794347199931
 40
0.7858279085428903
 40
0.8911005254438098
 40
0.9956951381338899
 40
1.0
 40
1.0
 40
1.0
 40
1.0
 10
260.4274785900639
 20
48.87903480127909
 30
0.0
 10
260.4397435453766
 20
49.01314542622215
 30
0.0
 10
260.48428840895
 20
49.5002193159806
 30
0.0
 10
260.4899528675023
 20
50.30844732349404
 30
0.0
 10
260.4443765603837
 20
51.29655625025759
 30
0.0
 10
260.3250354744394
 20
52.23927522055373
 30
0.0
 10
260.1376918755701
 20
53.13295108893232
 30
0.0
 10
259.881740053394
 20
53.97122855596725
 30
0.0
 10
259.5583421123338
 20
54.74766198982017
 30
0.0
 10
259.1717339231441
 20
55.45978671526268
 30
0.0
 10
258.7165793826444
 20
56.09099105434247
 30
0.0
 10
258.3825602391233
 20
56.49275029544893
 30
0.0
 10
258.1860308933884
 20
56.66050252275797
 30
0.0
 10
258.1782619698975
 20
56.66713386941267
 30
0.0
  0
SPLINE
  5
193
330
1F
100
AcDbEntity
  8
0
  6
Continuous
 62
     7
370
    25
100
AcDbSpline
210
0.0
220
0.0
230
1.0
 70
     8
 71
     3
 72
     9
 73
     5
 74
     0
 42
0.000000001
 43
0.00000001
 40
0.0
 40
0.0
 40
0.0
 40
0.0
 40
0.3154020944462407
 40
1.0
 40
1.0
 40
1.0
 40
1.0
 10
242.6682658403705
 20
29.6996481187073
 30
0.0
 10
242.7685680947365
 20
29.66865748085728
 30
0.0
 10
243.0865820081891
 20
29.57039992836881
 30
0.0
 10
243.4277393680798
 20
29.53051413716869
 30
0.0
 10
243.6612949821252
 20
29.50320840805173
 30
0.0
  0
LINE
  5
194
330
1F
100
AcDbEntity
  8
0
  6
Continuous
 62
     7
370
    25
100
AcDbLine
 10
240.0086218923
 20
31.0110381346
 30
0.0
 11
241.3400342513
 21
30.2424301401
 31
0.0
  0
LINE
  5
195
330
1F
100
AcDbEntity
  8
0
  6
Continuous
 62
     7
370
    25
100
AcDbLine
 10
257.0762555659
 20
57.5013185339
 30
0.0
 11
255.7448432069
 21
58.2699265285
 31
0.0
  0
SPLINE
  5
196
330
1F
100
AcDbEntity
  8
0
  6
Continuous
 62
     7
370
    25
100
AcDbSpline
210
0.0
220
0.0
230
1.0
 70
     8
 71
     3
 72
    12
 73
     8
 74
     0
 42
0.000000001
 43
0.00000001
 40
0.0
 40
0.0
 40
0.0
 40
0.0
 40
0.0716969972933646
 40
0.3173277903378015
 40
0.563008257507177
 40
0.8108164446404564
 40
0.9999999999999999
 40
0.9999999999999999
 40
0.9999999999999999
 40
0.9999999999999999
 10
248.4133175781419
 20
32.21827418046702
 30
0.0
 10
248.465078912422
 20
32.18567690704427
 30
0.0
 10
248.6941723257047
 20
32.04140279324902
 30
0.0
 10
249.1473067644292
 20
31.86875163759036
 30
0.0
 10
249.7637551652815
 20
31.70889939305705
 30
0.0
 10
250.3584845311426
 20
31.63800511744182
 30
0.0
 10
250.751142593927
 20
31.65654993605969
 30
0.0
 10
250.9211331020643
 20
31.66457840520104
 30
0.0
  0
SPLINE
  5
197
330
1F
100
AcDbEntity
  8
0
  6
Continuous
 62
     7
370
    25
100
AcDbSpline
210
0.0
220
0.0
230
1.0
 70
     8
 71
     3
 72
    12
 73
     8
 74
     0
 42
0.000000001
 43
0.00000001
 40
0.0
 40
0.0
 40
0.0
 40
0.0
 40
0.1423518146462662
 40
0.399916602249696
 40
0.6523319997922393
 40
0.9000780389928345
 40
1.0
 40
1.0
 40
1.0
 40
1.0
 10
260.623574705295
 20
48.5094738436342
 30
0.0
 10
260.5663272673107
 20
48.62579377071662
 30
0.0
 10
260.4054989635546
 20
48.9525775923934
 30
0.0
 10
260.0639393681255
 20
49.41910506699678
 30
0.0
 10
259.6090940855713
 20
49.89630661268913
 30
0.0
 10
259.205854036734
 20
50.22624111376241
 30
0.0
 10
258.9418271033837
 20
50.36683208001727
 30
0.0
 10
258.8659441089081
 20
50.40723880436258
 30
0.0
  0
LINE
  5
198
330
1F
100
AcDbEntity
  8
0
  6
Continuous
 62
     7
370
    25
100
AcDbLine
 10
258.8771354143
 20
50.4141121164
 30
0.0
 11
256.2254848795
 21
51.9448773869
 31
0.0
  0
LINE
  5
199
330
1F
100
AcDbEntity
  8
0
  6
Continuous
 62
     7
370
    25
100
AcDbLine
 10
245.7263381061
 20
33.7578514333
 30
0.0
 11
248.3779886409
 21
32.2270861628
 31
0.0
  0
LINE
  5
19A
330
1F
100
AcDbEntity
  8
0
  6
Continuous
 62
     7
370
    25
100
AcDbLine
 10
235.4003369609
 20
33.6713443993
 30
0.0
 11
237.6509879373
 21
32.3720712464
 31
0.0
  0
LINE
  5
19B
330
1F
100
AcDbEntity
  8
0
  6
Continuous
 62
     7
370
    25
100
AcDbLine
 10
253.3872092519
 20
59.6309596403
 30
0.0
 11
251.1365582755
 21
60.9302327931
 31
0.0
  0
LINE
  5
19C
330
1F
100
AcDbEntity
  8
0
  6
Continuous
 62
     7
370
    25
100
AcDbLine
 10
244.3591690852
 20
60.7101147008
 30
0.0
 11
235.1619569016
 21
65.2907673106
 31
0.0
  0
LINE
  5
19D
330
1F
100
AcDbEntity
  8
0
  6
Continuous
 62
     7
370
    25
100
AcDbLine
 10
223.635609112
 20
45.3243838549
 30
0.0
 11
232.2017091176
 21
39.6504942586
 31
0.0
  0
LINE
  5
19E
330
1F
100
AcDbEntity
  8
0
  6
Continuous
 62
     7
370
    25
100
AcDbLine
 10
228.6150465537
 20
46.2708737206
 30
0.0
 11
228.6150465537
 21
45.9055550156
 31
0.0
  0
LINE
  5
19F
330
1F
100
AcDbEntity
  8
0
  6
Continuous
 62
     7
370
    25
100
AcDbLine
 10
232.513013314
 20
65.6677356873
 30
0.0
 11
231.8734632053
 21
65.5805239319
 31
0.0
  0
LINE
  5
1A0
330
1F
100
AcDbEntity
  8
0
  6
Continuous
 62
     7
370
    25
100
AcDbLine
 10
270.1042125913
 20
36.7266465251
 30
0.0
 11
270.0165978544
 21
36.5292912631
 31
0.0
  0
LINE
  5
1A1
330
1F
100
AcDbEntity
  8
0
  6
Continuous
 62
     7
370
    25
100
AcDbLine
 10
270.0165978544
 20
36.5292912631
 30
0.0
 11
269.7813183409
 21
36.2153364739
 31
0.0
  0
LINE
  5
1A2
330
1F
100
AcDbEntity
  8
0
  6
Continuous
 62
     7
370
    25
100
AcDbLine
 10
269.7813183409
 20
36.2153364739
 30
0.0
 11
269.705275548
 21
36.0466215709
 31
0.0
  0
SPLINE
  5
1A3
330
1F
100
AcDbEntity
  8
0
  6
Continuous
 62
     7
370
    25
100
AcDbSpline
210
0.0
220
0.0
230
1.0
 70
     8
 71
     3
 72
     9
 73
     5
 74
     0
 42
0.000000001
 43
0.00000001
 40
0.0
 40
0.0
 40
0.0
 40
0.0
 40
0.5000512668921145
 40
1.0
 40
1.0
 40
1.0
 40
1.0
 10
269.7052755480236
 20
36.04662157087991
 30
0.0
 10
269.5876642101531
 20
35.69614032184873
 30
0.0
 10
269.3524656502103
 20
34.9952496887553
 30
0.0
 10
269.0604029966365
 20
34.32718622964369
 30
0.0
 10
268.9143866429942
 20
33.99318874962517
 30
0.0
  0
LINE
  5
1A4
330
1F
100
AcDbEntity
  8
0
  6
Continuous
 62
     7
370
    25
100
AcDbLine
 10
268.8851136811
 20
33.8884647674
 30
0.0
 11
268.914386643
 21
33.9931887496
 31
0.0
  0
LINE
  5
1A5
330
1F
100
AcDbEntity
  8
0
  6
Continuous
 62
     7
370
    25
100
AcDbLine
 10
269.0089727321
 20
33.9131320569
 30
0.0
 11
268.8851136811
 21
33.8884647674
 31
0.0
  0
LINE
  5
1A6
330
1F
100
AcDbEntity
  8
0
  6
Continuous
 62
     7
370
    25
100
AcDbLine
 10
268.9737755038
 20
33.7916236345
 30
0.0
 11
269.0089727321
 21
33.9131320569
 31
0.0
  0
ARC
  5
1A7
330
1F
100
AcDbEntity
  8
0
  6
Continuous
 62
     7
370
    25
100
AcDbCircle
 10
254.1480551
 20
40.9457737942
 30
0.0
 40
16.46158710451822
100
AcDbArc
 50
308.452645287
 51
334.2403708666
  0
LINE
  5
1A8
330
1F
100
AcDbEntity
  8
0
  6
Continuous
 62
     7
370
    25
100
AcDbLine
 10
264.3849827953
 20
28.0543362731
 30
0.0
 11
264.3419511099
 21
28.0780372589
 31
0.0
  0
LINE
  5
1A9
330
1F
100
AcDbEntity
  8
0
  6
Continuous
 62
     7
370
    25
100
AcDbLine
 10
264.3419511099
 20
28.0780372589
 30
0.0
 11
264.6000024339
 21
28.5308660456
 31
0.0
  0
LINE
  5
1AA
330
1F
100
AcDbEntity
  8
0
  6
Continuous
 62
     7
370
    25
100
AcDbLine
 10
264.6000024339
 20
28.5308660456
 30
0.0
 11
264.5621910309
 21
28.5517151269
 31
0.0
  0
SPLINE
  5
1AB
330
1F
100
AcDbEntity
  8
0
  6
Continuous
 62
     7
370
    25
100
AcDbSpline
210
0.0
220
0.0
230
1.0
 70
     8
 71
     3
 72
     9
 73
     5
 74
     0
 42
0.000000001
 43
0.00000001
 40
0.0
 40
0.0
 40
0.0
 40
0.0
 40
0.122280276676713
 40
1.0
 40
1.0
 40
1.0
 40
1.0
 10
264.5621910308749
 20
28.55171512692286
 30
0.0
 10
264.5017121211838
 20
28.51148953739673
 30
0.0
 10
264.0071196052464
 20
28.18252733172168
 30
0.0
 10
263.4543455114119
 20
27.88538694453448
 30
0.0
 10
262.9691647867112
 20
27.62458096610435
 30
0.0
  0
LINE
  5
1AC
330
1F
100
AcDbEntity
  8
0
  6
Continuous
 62
     7
370
    25
100
AcDbLine
 10
262.7948458329
 20
27.4802723882
 30
0.0
 11
262.9691647867
 21
27.6245809661
 31
0.0
  0
LINE
  5
1AD
330
1F
100
AcDbEntity
  8
0
  6
Continuous
 62
     7
370
    25
100
AcDbLine
 10
262.3123687967
 20
26.8968291126
 30
0.0
 11
262.7948458329
 21
27.4802723882
 31
0.0
  0
LINE
  5
1AE
330
1F
100
AcDbEntity
  8
0
  6
Continuous
 62
     7
370
    25
100
AcDbLine
 10
262.1080301738
 20
26.7291600187
 30
0.0
 11
262.3123687967
 21
26.8968291126
 31
0.0
  0
ARC
  5
1AF
330
1F
100
AcDbEntity
  8
0
  6
Continuous
 62
     7
370
    25
100
AcDbCircle
 10
260.1141515214
 20
30.6650858732
 30
0.0
 40
4.412149636205593
100
AcDbArc
 50
233.6271941149
 51
296.8660624471
  0
LINE
  5
1B0
330
1F
100
AcDbEntity
  8
0
  6
Continuous
 62
     7
370
    25
100
AcDbLine
 10
257.4975844395
 20
27.1125317049
 30
0.0
 11
257.6233249523
 21
27.2867358923
 31
0.0
  0
LINE
  5
1B1
330
1F
100
AcDbEntity
  8
0
  6
Continuous
 62
     7
370
    25
100
AcDbLine
 10
257.6233249523
 20
27.2867358923
 30
0.0
 11
258.4895144705
 21
27.8382727335
 31
0.0
  0
LINE
  5
1B2
330
1F
100
AcDbEntity
  8
0
  6
Continuous
 62
     7
370
    25
100
AcDbLine
 10
258.4895144705
 20
27.8382727335
 30
0.0
 11
258.5964324641
 21
27.9881852607
 31
0.0
  0
SPLINE
  5
1B3
330
1F
100
AcDbEntity
  8
0
  6
Continuous
 62
     7
370
    25
100
AcDbSpline
210
0.0
220
0.0
230
1.0
 70
     8
 71
     3
 72
     9
 73
     5
 74
     0
 42
0.000000001
 43
0.00000001
 40
0.0
 40
0.0
 40
0.0
 40
0.0
 40
0.500051234793152
 40
1.0
 40
1.0
 40
1.0
 40
1.0
 10
258.5964324641104
 20
27.98818526065535
 30
0.0
 10
258.476946286368
 20
28.16771390896196
 30
0.0
 10
258.2379984157728
 20
28.52673441689227
 30
0.0
 10
257.942186008226
 20
28.91858086718857
 30
0.0
 10
257.79429496034
 20
29.11448401616489
 30
0.0
  0
LINE
  5
1B4
330
1F
100
AcDbEntity
  8
0
  6
Continuous
 62
     7
370
    25
100
AcDbLine
 10
257.5805630232
 20
29.1145514479
 30
0.0
 11
257.7942949603
 21
29.1144840162
 31
0.0
  0
LINE
  5
1B5
330
1F
100
AcDbEntity
  8
0
  6
Continuous
 62
     7
370
    25
100
AcDbLine
 10
256.6013679259
 20
28.7216874275
 30
0.0
 11
257.5805630232
 21
29.1145514479
 31
0.0
  0
LINE
  5
1B6
330
1F
100
AcDbEntity
  8
0
  6
Continuous
 62
     7
370
    25
100
AcDbLine
 10
256.3510689879
 20
28.7223785789
 30
0.0
 11
256.6013679259
 21
28.7216874275
 31
0.0
  0
ARC
  5
1B7
330
1F
100
AcDbEntity
  8
0
  6
Continuous
 62
     7
370
    25
100
AcDbCircle
 10
265.4518120522
 20
31.8149414887
 30
0.0
 40
9.61184007743928
100
AcDbArc
 50
161.6368899019
 51
198.7684969266
  0
LINE
  5
1B8
330
1F
100
AcDbEntity
  8
0
  6
Continuous
 62
     7
370
    25
100
AcDbLine
 10
256.3294160444
 20
34.8430367235
 30
0.0
 11
256.5793461976
 21
34.9466892903
 31
0.0
  0
LINE
  5
1B9
330
1F
100
AcDbEntity
  8
0
  6
Continuous
 62
     7
370
    25
100
AcDbLine
 10
256.5793461976
 20
34.9466892903
 30
0.0
 11
257.5603430726
 21
34.83015061
 31
0.0
  0
LINE
  5
1BA
330
1F
100
AcDbEntity
  8
0
  6
Continuous
 62
     7
370
    25
100
AcDbLine
 10
257.5603430726
 20
34.83015061
 30
0.0
 11
257.7737582499
 21
34.9195621235
 31
0.0
  0
SPLINE
  5
1BB
330
1F
100
AcDbEntity
  8
0
  6
Continuous
 62
     7
370
    25
100
AcDbSpline
210
0.0
220
0.0
230
1.0
 70
     8
 71
     3
 72
     9
 73
     5
 74
     0
 42
0.000000001
 43
0.00000001
 40
0.0
 40
0.0
 40
0.0
 40
0.0
 40
0.5000512668921145
 40
1.0
 40
1.0
 40
1.0
 40
1.0
 10
257.7737582498586
 20
34.91956212353394
 30
0.0
 10
257.91980353201
 20
35.25362880592575
 30
0.0
 10
258.2118641502321
 20
35.92169367149062
 30
0.0
 10
258.4470608585389
 20
36.62258514204093
 30
0.0
 10
258.5646471548881
 20
36.97299494478868
 30
0.0
  0
LINE
  5
1BC
330
1F
100
AcDbEntity
  8
0
  6
Continuous
 62
     7
370
    25
100
AcDbLine
 10
258.4565477324
 20
37.1570223165
 30
0.0
 11
258.5646471549
 21
36.9729949448
 31
0.0
  0
LINE
  5
1BD
330
1F
100
AcDbEntity
  8
0
  6
Continuous
 62
     7
370
    25
100
AcDbLine
 10
257.5869713198
 20
37.5628484966
 30
0.0
 11
258.4565477324
 21
37.1570223165
 31
0.0
  0
LINE
  5
1BE
330
1F
100
AcDbEntity
  8
0
  6
Continuous
 62
     7
370
    25
100
AcDbLine
 10
257.459853132
 20
37.7780596142
 30
0.0
 11
257.5869713198
 21
37.5628484966
 31
0.0
  0
ARC
  5
1BF
330
1F
100
AcDbEntity
  8
0
  6
Continuous
 62
     7
370
    25
100
AcDbCircle
 10
272.2855735358
 20
30.6239094545
 30
0.0
 40
16.46158710451813
100
AcDbArc
 50
128.452645287
 51
154.2403708666
  0
LINE
  5
1C0
330
1F
100
AcDbEntity
  8
0
  6
Continuous
 62
     7
370
    25
100
AcDbLine
 10
262.0486458405
 20
43.5153469756
 30
0.0
 11
262.253992942
 21
43.3979432945
 31
0.0
  0
LINE
  5
1C1
330
1F
100
AcDbEntity
  8
0
  6
Continuous
 62
     7
370
    25
100
AcDbLine
 10
262.253992942
 20
43.3979432945
 30
0.0
 11
262.7416589796
 21
42.5146210383
 31
0.0
  0
LINE
  5
1C2
330
1F
100
AcDbEntity
  8
0
  6
Continuous
 62
     7
370
    25
100
AcDbLine
 10
262.7416589796
 20
42.5146210383
 30
0.0
 11
262.916842767
 21
42.4144685675
 31
0.0
  0
SPLINE
  5
1C3
330
1F
100
AcDbEntity
  8
0
  6
Continuous
 62
     7
370
    25
100
AcDbSpline
210
0.0
220
0.0
230
1.0
 70
     8
 71
     3
 72
     9
 73
     5
 74
     0
 42
0.000000001
 43
0.00000001
 40
0.0
 40
0.0
 40
0.0
 40
0.0
 40
0.1222803024619492
 40
1.0
 40
1.0
 40
1.0
 40
1.0
 10
264.5098690111711
 20
43.3416027283095
 30
0.0
 10
264.4493900878281
 20
43.30137713082846
 30
0.0
 10
263.9547975645409
 20
42.97241492946684
 30
0.0
 10
263.4020234743003
 20
42.67527454013855
 30
0.0
 10
262.9168427670074
 20
42.41446856749099
 30
0.0
  0
LINE
  5
1C4
330
1F
100
AcDbEntity
  8
0
  6
Continuous
 62
     7
370
    25
100
AcDbLine
 10
264.5468155807
 20
43.5652146957
 30
0.0
 11
264.5098690112
 21
43.3416027283
 31
0.0
  0
LINE
  5
1C5
330
1F
100
AcDbEntity
  8
0
  6
Continuous
 62
     7
370
    25
100
AcDbLine
 10
264.2835752552
 20
44.5791514408
 30
0.0
 11
264.5468155807
 21
43.5652146957
 31
0.0
  0
LINE
  5
1C6
330
1F
100
AcDbEntity
  8
0
  6
Continuous
 62
     7
370
    25
100
AcDbLine
 10
264.325598462
 20
44.8405232299
 30
0.0
 11
264.2835752552
 21
44.5791514408
 31
0.0
  0
ARC
  5
1C7
330
1F
100
AcDbEntity
  8
0
  6
Continuous
 62
     7
370
    25
100
AcDbCircle
 10
266.3194771144
 20
40.9045973755
 30
0.0
 40
4.412149636205549
100
AcDbArc
 50
53.6271941149
 51
116.8660624471
  0
LINE
  5
1C8
330
1F
100
AcDbEntity
  8
0
  6
Continuous
 62
     7
370
    25
100
AcDbLine
 10
268.9360441962
 20
44.4571515437
 30
0.0
 11
268.9726190997
 21
44.1892446611
 31
0.0
  0
LINE
  5
1C9
330
1F
100
AcDbEntity
  8
0
  6
Continuous
 62
     7
370
    25
100
AcDbLine
 10
268.9726190997
 20
44.1892446611
 30
0.0
 11
268.852146943
 21
43.2072143504
 31
0.0
  0
LINE
  5
1CA
330
1F
100
AcDbEntity
  8
0
  6
Continuous
 62
     7
370
    25
100
AcDbLine
 10
268.852146943
 20
43.2072143504
 30
0.0
 11
268.8826013338
 21
42.9779984338
 31
0.0
  0
SPLINE
  5
1CB
330
1F
100
AcDbEntity
  8
0
  6
Continuous
 62
     7
370
    25
100
AcDbSpline
210
0.0
220
0.0
230
1.0
 70
     8
 71
     3
 72
     9
 73
     5
 74
     0
 42
0.000000001
 43
0.00000001
 40
0.0
 40
0.0
 40
0.0
 40
0.0
 40
0.500051234793152
 40
1.0
 40
1.0
 40
1.0
 40
1.0
 10
268.8826013337719
 20
42.9779984337585
 30
0.0
 10
269.0305214545779
 20
42.78205521951514
 30
0.0
 10
269.3263313846685
 20
42.39020894335422
 30
0.0
 10
269.5652778481661
 20
42.03119050379372
 30
0.0
 10
269.6847388375422
 20
41.85169967824896
 30
0.0
  0
LINE
  5
1CC
330
1F
100
AcDbEntity
  8
0
  6
Continuous
 62
     7
370
    25
100
AcDbLine
 10
269.7610983903
 20
41.930935636
 30
0.0
 11
269.6847388375
 21
41.8516996782
 31
0.0
  0
LINE
  5
1CD
330
1F
100
AcDbEntity
  8
0
  6
Continuous
 62
     7
370
    25
100
AcDbLine
 10
269.994576126
 20
42.7542931259
 30
0.0
 11
269.7610983903
 21
41.930935636
 31
0.0
  0
LINE
  5
1CE
330
1F
100
AcDbEntity
  8
0
  6
Continuous
 62
     7
370
    25
100
AcDbLine
 10
270.0825596479
 20
42.8473046697
 30
0.0
 11
269.994576126
 21
42.7542931259
 31
0.0
  0
ARC
  5
1CF
330
1F
100
AcDbEntity
  8
0
  6
Continuous
 62
     7
370
    25
100
AcDbCircle
 10
260.9818165835
 20
39.75474176
 30
0.0
 40
9.611840077439172
100
AcDbArc
 50
341.6368899019
 51
18.7684969266
  0
LWPOLYLINE
  5
1D0
330
1F
100
AcDbEntity
  8
0
  6
Continuous
 62
     7
370
    25
100
AcDbPolyline
 90
       54
 70
   128
 43
0.0
 10
259.1076829562
 20
32.0090157644
 10
259.1423490683
 20
32.7535088249
 10
259.2509743386
 20
33.5308780205
 10
259.4320342363
 20
34.3302108576
 10
259.6829871091
 20
35.1402865646
 10
260.0003104022
 20
35.949733605
 10
260.379548733
 20
36.7471884196
 10
260.8153794152
 20
37.521457304
 10
261.3016835828
 20
38.2616709659
 10
261.8316349279
 20
38.9574380353
 10
262.3977940378
 20
39.5989919199
 10
262.9922134329
 20
40.177326728
 10
263.606548531
 20
40.6843233053
 10
264.2321755682
 20
41.1128652172
 10
264.8603120717
 20
41.4569360541
 10
265.4821403361
 20
41.7117059216
 10
266.0889313953
 20
41.8735992056
 10
266.6721670582
 20
41.9403422083
 10
267.2236598881
 20
41.9109985701
 10
267.7356686941
 20
41.7859800477
 10
268.2010051338
 20
41.5670415131
 10
268.6131377627
 20
41.2572569902
 10
268.9662806088
 20
40.8609745881
 10
269.2554761489
 20
40.3837569877
 10
269.4766654441
 20
39.8323040579
 10
269.6267427984
 20
39.2143565567
 10
269.7036018572
 20
38.5385891393
 10
269.7061635953
 20
37.8144881588
 10
269.6343917928
 20
37.0522182981
 10
269.4892943521
 20
36.262480364
 10
269.272907822
 20
35.4563601932
 10
268.9882700684
 20
34.6451743293
 10
268.6393764808
 20
33.8403099489
 10
268.231124984
 20
33.0530653599
 10
267.7692465615
 20
32.294492022
 10
267.2602245841
 20
31.5752380886
 10
266.7112052474
 20
30.905401266
 10
266.1298950039
 20
30.2943836696
 10
265.5244544549
 20
29.750763268
 10
264.9033826112
 20
29.2821711742
 10
264.2753979434
 20
28.8951853346
 10
263.6493159754
 20
28.5952378115
 10
263.0339255597
 20
28.3865399367
 10
262.4378653187
 20
28.272020868
 10
261.8695028835
 20
28.2532882943
 10
261.336816603
 20
28.3306050149
 10
260.8472842503
 20
28.5028859081
 10
260.4077775726
 20
28.7677123422
 10
260.0244668026
 20
29.121367166
 10
259.7027325783
 20
29.5588857631
 10
259.447091198
 20
30.074125831
 10
259.2611310705
 20
30.6598546508
 10
259.147463325
 20
31.3078502328
 10
259.1076829562
 20
32.0090157644
  0
LINE
  5
1D1
330
1F
100
AcDbEntity
  8
0
  6
Continuous
 62
     7
370
    25
100
AcDbLine
 10
261.5847770495
 20
46.4227657524
 30
0.0
 11
264.325598462
 21
44.8405232299
 31
0.0
  0
SPLINE
  5
1D2
330
1F
100
AcDbEntity
  8
0
  6
Continuous
 62
     7
370
    25
100
AcDbSpline
210
0.0
220
0.0
230
1.0
 70
     8
 71
     3
 72
    17
 73
    13
 74
     0
 42
0.000000001
 43
0.00000001
 40
0.0
 40
0.0
 40
0.0
 40
0.0
 40
0.0849597356599654
 40
0.2026988729252604
 40
0.3179164451713883
 40
0.4263310524861926
 40
0.5328080922789848
 40
0.6312074370349048
 40
0.7278426980476402
 40
0.8310958343389377
 40
0.9419122753149087
 40
1.0
 40
1.0
 40
1.0
 40
1.0
 10
261.5847770495234
 20
46.42276575235574
 30
0.0
 10
261.4722236827453
 20
46.48047228215143
 30
0.0
 10
261.2036912960489
 20
46.61814983563194
 30
0.0
 10
260.6714607612305
 20
46.76237402842058
 30
0.0
 10
260.0662681444586
 20
46.81019453188404
 30
0.0
 10
259.5101132865697
 20
46.72454198618481
 30
0.0
 10
259.0861154701383
 20
46.51579669691199
 30
0.0
 10
258.8319885137003
 20
46.22340188527038
 30
0.0
 10
258.745389503703
 20
45.88995838688503
 30
0.0
 10
258.8285304236373
 20
45.54230914169926
 30
0.0
 10
259.0411776428008
 20
45.27000392366205
 30
0.0
 10
259.23958892838
 20
45.14171072929088
 30
0.0
 10
259.3078244279961
 20
45.09758949803269
 30
0.0
  0
LINE
  5
1D3
330
1F
100
AcDbEntity
  8
0
  6
Continuous
 62
     7
370
    25
100
AcDbLine
 10
259.307824428
 20
45.097589498
 30
0.0
 11
262.0486458405
 21
43.5153469756
 31
0.0
  0
LINE
  5
1D4
330
1F
100
AcDbEntity
  8
0
  6
Continuous
 62
     7
370
    25
100
AcDbLine
 10
254.7190317195
 20
39.3603021366
 30
0.0
 11
257.459853132
 21
37.7780596142
 31
0.0
  0
SPLINE
  5
1D5
330
1F
100
AcDbEntity
  8
0
  6
Continuous
 62
     7
370
    25
100
AcDbSpline
210
0.0
220
0.0
230
1.0
 70
     8
 71
     3
 72
    17
 73
    13
 74
     0
 42
0.000000001
 43
0.00000001
 40
0.0
 40
0.0
 40
0.0
 40
0.0
 40
0.0849599292894423
 40
0.2026993283925893
 40
0.3179172050634262
 40
0.4263320354846706
 40
0.5329713939576436
 40
0.6313698867148472
 40
0.7280135865453763
 40
0.8312799987736986
 40
0.942108651435152
 40
1.0
 40
1.0
 40
1.0
 40
1.0
 10
253.5885946319731
 20
36.42527924593666
 30
0.0
 10
253.4861558710722
 20
36.49563190985459
 30
0.0
 10
253.2417551493479
 20
36.66348089285233
 30
0.0
 10
252.9351974635057
 20
37.08986082959701
 30
0.0
 10
252.7399891868673
 20
37.65027722876017
 30
0.0
 10
252.7242030401567
 20
38.24053691386342
 30
0.0
 10
252.8884794965234
 20
38.76727068821189
 30
0.0
 10
253.1918634397375
 20
39.17147895006049
 30
0.0
 10
253.5836367357662
 20
39.43572439105318
 30
0.0
 10
254.0356526028478
 20
39.54889587196311
 30
0.0
 10
254.4303821374788
 20
39.50437580393525
 30
0.0
 10
254.6452917520099
 20
39.39710796696875
 30
0.0
 10
254.7190317194965
 20
39.36030213663157
 30
0.0
  0
LINE
  5
1D6
330
1F
100
AcDbEntity
  8
0
  6
Continuous
 62
     7
370
    25
100
AcDbLine
 10
253.588594632
 20
36.4252792459
 30
0.0
 11
256.3294160444
 21
34.8430367235
 31
0.0
  0
LINE
  5
1D7
330
1F
100
AcDbEntity
  8
0
  6
Continuous
 62
     7
370
    25
100
AcDbLine
 10
253.6102475754
 20
30.3046211014
 30
0.0
 11
256.3510689879
 21
28.7223785789
 31
0.0
  0
SPLINE
  5
1D8
330
1F
100
AcDbEntity
  8
0
  6
Continuous
 62
     7
370
    25
100
AcDbSpline
210
0.0
220
0.0
230
1.0
 70
     8
 71
     3
 72
    17
 73
    13
 74
     0
 42
0.000000001
 43
0.00000001
 40
0.0
 40
0.0
 40
0.0
 40
0.0
 40
0.0849661877174606
 40
0.2027142587514617
 40
0.3179405992773962
 40
0.4263634297717009
 40
0.5376352404837628
 40
0.6360089754848816
 40
0.7328949412204995
 40
0.8365480928625895
 40
0.9477171032025284
 40
1.0
 40
1.0
 40
1.0
 40
1.0
 10
254.7567630270813
 20
28.6947742273758
 30
0.0
 10
254.6468898466155
 20
28.75943967801747
 30
0.0
 10
254.3847519193629
 20
28.91371997757906
 30
0.0
 10
253.9133204102953
 20
29.21579646150795
 30
0.0
 10
253.4249990107443
 20
29.56707462157635
 30
0.0
 10
253.0282501592785
 20
29.91492895275715
 30
0.0
 10
252.796579553634
 20
30.21032290819633
 30
0.0
 10
252.7432211607579
 20
30.42034328505223
 30
0.0
 10
252.8378190804725
 20
30.53422204771217
 30
0.0
 10
253.06659007837
 20
30.54164011005894
 30
0.0
 10
253.3481722459892
 20
30.4480440282386
 30
0.0
 10
253.5467341452461
 20
30.33937935988683
 30
0.0
 10
253.6102475753956
 20
30.30462110138459
 30
0.0
  0
LINE
  5
1D9
330
1F
100
AcDbEntity
  8
0
  6
Continuous
 62
     7
370
    25
100
AcDbLine
 10
254.7567630271
 20
28.6947742274
 30
0.0
 11
257.4975844395
 21
27.1125317049
 31
0.0
  0
LINE
  5
1DA
330
1F
100
AcDbEntity
  8
0
  6
Continuous
 62
     7
370
    25
100
AcDbLine
 10
268.892289182
 20
43.5344331837
 30
0.0
 11
270.0825596479
 21
42.8473046697
 31
0.0
  0
LWPOLYLINE
  5
1DB
330
1F
100
AcDbEntity
  8
0
  6
Continuous
 62
     7
370
    25
100
AcDbPolyline
 90
       25
 70
   128
 43
0.0
 10
250.2511891886
 20
34.7240504272
 10
250.2859695583
 20
35.6054886563
 10
250.3960347361
 20
36.5219052195
 10
250.5802559768
 20
37.4638970813
 10
250.8367419405
 20
38.4217973197
 10
251.1628617419
 20
39.3857770087
 10
251.5552679993
 20
40.3459439808
 10
252.0099343716
 20
41.2924460566
 10
252.5221957295
 20
42.2155710419
 10
253.0867952414
 20
43.1058461535
 10
253.6979393621
 20
43.9541355437
 10
254.3493571014
 20
44.7517345922
 10
255.0343637387
 20
45.4904595394
 10
255.7459304638
 20
46.1627302755
 10
256.4767556646
 20
46.7616472354
 10
257.2193399183
 20
47.2810658697
 10
257.9660633302
 20
47.7156557396
 10
258.7092635288
 20
48.0609569502
 10
259.4413142809
 20
48.3134270541
 10
260.1547038572
 20
48.4704748847
 10
260.8421117125
 20
48.5304888527
 10
261.4964840117
 20
48.4928531696
 10
262.1111065645
 20
48.3579549706
 10
262.6796718314
 20
48.1271766088
 10
262.8347923195
 20
48.0428052357
  0
LWPOLYLINE
  5
1DC
330
1F
100
AcDbEntity
  8
0
  6
Continuous
 62
     7
370
    25
100
AcDbPolyline
 90
        9
 70
   128
 43
0.0
 10
252.4106392777
 20
29.9856866837
 10
252.0490855012
 20
30.2256042558
 10
251.5896038514
 20
30.6400760718
 10
251.1920306538
 20
31.1404789481
 10
250.8604449329
 20
31.721676716
 10
250.5982493883
 20
32.3777066469
 10
250.4081341743
 20
33.1018363004
 10
250.2920498997
 20
33.8866349156
 10
250.2511891886
 20
34.7240504272
  0
LWPOLYLINE
  5
1DD
330
1F
100
AcDbEntity
  8
0
  6
Continuous
 62
     7
370
    25
100
AcDbPolyline
 90
       45
 70
   128
 43
0.0
 10
260.716337614
 20
32.9452455837
 10
260.7517999064
 20
33.5730652233
 10
260.8617514853
 20
34.2318767989
 10
261.0439542871
 20
34.9082690103
 10
261.294699389
 20
35.5884726941
 10
261.6088820834
 20
36.2586403001
 10
261.980106586
 20
36.9051295339
 10
262.4008157693
 20
37.5147797736
 10
262.8624454266
 20
38.0751804028
 10
263.3555978808
 20
38.574922936
 10
263.8702340737
 20
39.0038339634
 10
264.3958774971
 20
39.3531826126
 10
264.9218275374
 20
39.6158565616
 10
265.4373773372
 20
39.786509101
 10
265.9320318492
 20
39.861666002
 10
266.3957214337
 20
39.8397971125
 10
266.8190063492
 20
39.7213477138
 10
267.1932700347
 20
39.5087291867
 10
267.5108936241
 20
39.2062699453
 10
267.7654111983
 20
38.8201269237
 10
267.951641329
 20
38.3581610377
 10
268.0657927755
 20
37.8297763846
 10
268.1055421927
 20
37.2457296106
 10
268.0700799002
 20
36.617909971
 10
267.9601283213
 20
35.9590983955
 10
267.7779255196
 20
35.2827061841
 10
267.5271804176
 20
34.6025025002
 10
267.2129977232
 20
33.9323348943
 10
266.8417732206
 20
33.2858456604
 10
266.4210640373
 20
32.6761954208
 10
265.95943438
 20
32.1157947916
 10
265.4662819258
 20
31.6160522583
 10
264.951645733
 20
31.1871412309
 10
264.4260023095
 20
30.8377925817
 10
263.9000522693
 20
30.5751186328
 10
263.3845024694
 20
30.4044660934
 10
262.8898479575
 20
30.3293091923
 10
262.426158373
 20
30.3511780818
 10
262.0028734575
 20
30.4696274805
 10
261.628609772
 20
30.6822460076
 10
261.3109861825
 20
30.984705249
 10
261.0564686083
 20
31.3708482706
 10
260.8702384777
 20
31.8328141566
 10
260.7560870312
 20
32.3611988098
 10
260.716337614
 20
32.9452455837
  0
LINE
  5
1DE
330
1F
100
AcDbEntity
  8
0
  6
Continuous
 62
     7
370
    25
100
AcDbLine
 10
254.7649921993
 20
39.1919423666
 30
0.0
 11
257.5869713198
 21
37.5628484966
 31
0.0
  0
LINE
  5
1DF
330
1F
100
AcDbEntity
  8
0
  6
Continuous
 62
     7
370
    25
100
AcDbLine
 10
254.5102342563
 20
36.8035544231
 30
0.0
 11
257.7737582499
 21
34.9195621235
 31
0.0
  0
LWPOLYLINE
  5
1E0
330
1F
100
AcDbEntity
  8
0
  6
Continuous
 62
     7
370
    25
100
AcDbPolyline
 90
       11
 70
   128
 43
0.0
 10
254.5102342563
 20
36.8035544231
 10
254.283449967
 20
36.9958986755
 10
254.1175744593
 20
37.2699162093
 10
254.0288434894
 20
37.5987857723
 10
254.0259439179
 20
37.9503138792
 10
254.109158919
 20
38.2900922059
 10
254.2703422972
 20
38.5848599666
 10
254.4937159844
 20
38.8057633016
 10
254.7574169618
 20
38.931178042
 10
255.0356296259
 20
38.9488291213
 10
255.3011231614
 20
38.8569872443
  0
LINE
  5
1E1
330
1F
100
AcDbEntity
  8
0
  6
Continuous
 62
     7
370
    25
100
AcDbLine
 10
255.3011231614
 20
38.8569872443
 30
0.0
 11
258.5646471549
 21
36.9729949448
 31
0.0
  0
ARC
  5
1E2
330
1F
100
AcDbEntity
  8
0
  6
Continuous
 62
     7
370
    25
100
AcDbCircle
 10
259.9075812924
 20
38.7753026757
 30
0.0
 40
7.303217935194191
100
AcDbArc
 50
342.3330588082
 51
5.3570382157
  0
ARC
  5
1E3
330
1F
100
AcDbEntity
  8
0
  6
Continuous
 62
     7
370
    25
100
AcDbCircle
 10
258.8786416739
 20
37.3279007338
 30
0.0
 40
7.499332501318772
100
AcDbArc
 50
294.7477640413
 51
321.2079336517
  0
ARC
  5
1E4
330
1F
100
AcDbEntity
  8
0
  6
Continuous
 62
     7
370
    25
100
AcDbCircle
 10
256.336615062
 20
39.7517160864
 30
0.0
 40
11.00315986705566
100
AcDbArc
 50
319.6632231663
 51
343.131694783
  0
LWPOLYLINE
  5
1E5
330
1F
100
AcDbEntity
  8
0
  6
Continuous
 62
     7
370
    25
100
AcDbPolyline
 90
       24
 70
   128
 43
0.0
 10
266.9112888496
 20
39.6798994449
 10
266.9739944698
 20
39.6353142758
 10
267.2916180593
 20
39.3328550344
 10
267.5461356335
 20
38.9467120128
 10
267.7323657642
 20
38.4847461268
 10
267.8465172106
 20
37.9563614737
 10
267.8862666279
 20
37.3723146997
 10
267.8508043354
 20
36.7444950602
 10
267.7408527565
 20
36.0856834846
 10
267.5586499548
 20
35.4092912732
 10
267.3079048528
 20
34.7290875894
 10
266.9937221584
 20
34.0589199834
 10
266.6224976558
 20
33.4124307495
 10
266.2017884725
 20
32.8027805099
 10
265.7401588152
 20
32.2423798807
 10
265.247006361
 20
31.7426373475
 10
264.7323701682
 20
31.31372632
 10
264.2067267447
 20
30.9643776709
 10
263.6807767045
 20
30.7017037219
 10
263.1652269046
 20
30.5310511825
 10
262.6705723927
 20
30.4558942815
 10
262.2068828082
 20
30.4777631709
 10
261.7835978927
 20
30.5962125696
 10
261.7118048521
 20
30.6279029469
  0
ARC
  5
1E6
330
1F
100
AcDbEntity
  8
0
  6
Continuous
 62
     7
370
    25
100
AcDbCircle
 10
253.5502634441
 20
41.3652230134
 30
0.0
 40
12.82226464534206
100
AcDbArc
 50
306.7722721596
 51
353.2331025134
  0
LINE
  5
1E7
330
1F
100
AcDbEntity
  8
0
  6
Continuous
 62
     7
370
    25
100
AcDbLine
 10
253.757367077
 20
36.5757831604
 30
0.0
 11
256.5793461976
 21
34.9466892903
 31
0.0
  0
LINE
  5
1E8
330
1F
100
AcDbEntity
  8
0
  6
Continuous
 62
     7
370
    25
100
AcDbLine
 10
254.3655052713
 20
36.6744912149
 30
0.0
 11
257.5603430726
 21
34.83015061
 31
0.0
  0
ARC
  5
1E9
330
1F
100
AcDbEntity
  8
0
  6
Continuous
 62
     7
370
    25
100
AcDbCircle
 10
265.6077685969
 20
34.4064453957
 30
0.0
 40
15.3701431706721
100
AcDbArc
 50
122.5472020639
 51
177.5930449796
  0
LWPOLYLINE
  5
1EA
330
1F
100
AcDbEntity
  8
0
  6
Continuous
 62
     7
370
    25
100
AcDbPolyline
 90
       12
 70
   128
 43
0.0
 10
253.757367077
 20
36.5757831604
 10
253.4918715659
 20
36.7938177227
 10
253.2887026827
 20
37.1001608678
 10
253.1643181131
 20
37.4699944875
 10
253.1287929296
 20
37.8733579566
 10
253.1850082644
 20
38.2775724867
 10
253.3284083067
 20
38.6498907881
 10
253.5473756727
 20
38.9601501904
 10
253.8241724661
 20
39.1832147804
 10
254.1363712952
 20
39.3010141688
 10
254.4586814166
 20
39.3040047415
 10
254.7649921993
 20
39.1919423666
  0
SPLINE
  5
1EB
330
1F
100
AcDbEntity
  8
0
  6
Continuous
 62
     7
370
    25
100
AcDbSpline
210
0.0
220
0.0
230
1.0
 70
     8
 71
     3
 72
    34
 73
    30
 74
     0
 42
0.000000001
 43
0.00000001
 40
0.0
 40
0.0
 40
0.0
 40
0.0
 40
0.1149589424377384
 40
0.2620515861346032
 40
0.4133585640583627
 40
0.519077909233233
 40
0.551221929109119
 40
0.6652580278505734
 40
0.7269087103547184
 40
0.7531025580122858
 40
0.764971144961532
 40
0.7708248821869134
 40
0.7727765468945791
 40
0.7741038721290927
 40
0.7750025499580775
 40
0.7756130344949929
 40
0.7760309368077365
 40
0.776406817858193
 40
0.7766279423412304
 40
0.7767614606616147
 40
0.776861436923576
 40
0.7769620485242507
 40
0.7770725662998714
 40
0.7772555302380091
 40
0.7778071673892586
 40
0.7803108879668407
 40
0.7902421620321136
 40
0.8299035369308365
 40
1.0
 40
1.0
 40
1.0
 40
1.0
 10
266.8193250847066
 20
39.68104846487527
 30
0.0
 10
266.8612900668342
 20
39.49441449265424
 30
0.0
 10
266.9569502207593
 20
39.06897800715757
 30
0.0
 10
266.9356824540342
 20
38.27841400052449
 30
0.0
 10
267.0093088674068
 20
37.50136046679284
 30
0.0
 10
266.5788609415026
 20
36.82304032194418
 30
0.0
 10
267.0527718078083
 20
36.43476341264572
 30
0.0
 10
266.4926173747984
 20
36.05284740916363
 30
0.0
 10
266.4291780853134
 20
35.61362834957104
 30
0.0
 10
266.347141817562
 20
35.40282989759234
 30
0.0
 10
266.3146457477192
 20
35.30905098849371
 30
0.0
 10
266.3006496129941
 20
35.26667751660621
 30
0.0
 10
266.2948089325982
 20
35.2467735371375
 30
0.0
 10
266.2923911206881
 20
35.23758935994439
 30
0.0
 10
266.2909762344869
 20
35.23129656449414
 30
0.0
 10
266.2902109907747
 20
35.22698379030981
 30
0.0
 10
266.2898422114339
 20
35.22382292674638
 30
0.0
 10
266.2897689885241
 20
35.22153303741968
 30
0.0
 10
266.2899704229952
 20
35.21992557909353
 30
0.0
 10
266.2903020772448
 20
35.21901523204073
 30
0.0
 10
266.2907155875155
 20
35.21848817975709
 30
0.0
 10
266.2912418525511
 20
35.21822249601464
 30
0.0
 10
266.291984096526
 20
35.2182267957963
 30
0.0
 10
266.2935305681302
 20
35.21886661779646
 30
0.0
 10
266.2986388130712
 20
35.2234940028841
 30
0.0
 10
266.3149709927695
 20
35.24701724901118
 30
0.0
 10
266.3722279781897
 20
35.34752885843238
 30
0.0
 10
266.5900932774587
 20
35.78639895345247
 30
0.0
 10
266.7426470544111
 20
36.21297743096012
 30
0.0
 10
266.8663556992887
 20
36.55889771192997
 30
0.0
  0
LINE
  5
1EC
330
1F
100
AcDbEntity
  8
0
  6
Continuous
 62
     7
370
    25
100
AcDbLine
 10
259.4320138214
 20
45.0270371646
 30
0.0
 11
259.307824428
 21
45.097589498
 31
0.0
  0
LINE
  5
1ED
330
1F
100
AcDbEntity
  8
0
  6
Continuous
 62
     7
370
    25
100
AcDbLine
 10
259.4320138214
 20
45.0270371646
 30
0.0
 11
262.253992942
 21
43.3979432945
 31
0.0
  0
LWPOLYLINE
  5
1EE
330
1F
100
AcDbEntity
  8
0
  6
Continuous
 62
     7
370
    25
100
AcDbPolyline
 90
       10
 70
   128
 43
0.0
 10
254.3655052713
 20
36.6744912149
 10
254.1085221065
 20
36.8924477721
 10
253.9205576988
 20
37.2029545426
 10
253.8200117819
 20
37.5756160589
 10
253.8167263033
 20
37.9739550899
 10
253.9110206573
 20
38.3589789447
 10
254.0936686351
 20
38.6929980984
 10
254.3467881193
 20
38.9433169348
 10
254.6456023605
 20
39.0854331192
 10
254.9051314584
 20
39.1110416172
  0
SPLINE
  5
1EF
330
1F
100
AcDbEntity
  8
0
  6
Continuous
 62
     7
370
    25
100
AcDbSpline
210
0.0
220
0.0
230
1.0
 70
     8
 71
     3
 72
     9
 73
     5
 74
     0
 42
0.000000001
 43
0.00000001
 40
0.0
 40
0.0
 40
0.0
 40
0.0
 40
0.6102249047864835
 40
1.0
 40
1.0
 40
1.0
 40
1.0
 10
262.181163908042
 20
30.89948526072902
 30
0.0
 10
262.0885436492828
 20
30.84459042515008
 30
0.0
 10
261.9367631204439
 20
30.75463205873737
 30
0.0
 10
261.7874823710904
 20
30.68482462633493
 30
0.0
 10
261.7292964527977
 20
30.65761542772366
 30
0.0
  0
LINE
  5
1F0
330
1F
100
AcDbEntity
  8
0
  6
Continuous
 62
     7
370
    25
100
AcDbLine
 10
261.7671343417
 20
31.1384994418
 30
0.0
 11
261.3626063172
 21
30.9250659962
 31
0.0
  0
LINE
  5
1F1
330
1F
100
AcDbEntity
  8
0
  6
Continuous
 62
     7
370
    25
100
AcDbLine
 10
262.7408651865
 20
42.5160582623
 30
0.0
 11
262.916842767
 21
42.4144685675
 31
0.0
  0
ARC
  5
1F2
330
1F
100
AcDbEntity
  8
0
  6
Continuous
 62
     7
370
    25
100
AcDbCircle
 10
260.4609924031
 20
43.9569473191
 30
0.0
 40
1.492060902928635
100
AcDbArc
 50
58.2405437169
 51
133.9604174877
  0
LINE
  5
1F3
330
1F
100
AcDbEntity
  8
0
  6
Continuous
 62
     7
370
    25
100
AcDbLine
 10
261.2463450177
 20
45.2255950279
 30
0.0
 11
264.5098690112
 21
43.3416027283
 31
0.0
  0
LINE
  5
1F4
330
1F
100
AcDbEntity
  8
0
  6
Continuous
 62
     7
370
    25
100
AcDbLine
 10
261.3519777793
 20
45.4095553005
 30
0.0
 11
264.5468155807
 21
43.5652146957
 31
0.0
  0
LINE
  5
1F5
330
1F
100
AcDbEntity
  8
0
  6
Continuous
 62
     7
370
    25
100
AcDbLine
 10
261.4615961347
 20
46.2082453109
 30
0.0
 11
264.2835752552
 21
44.5791514408
 31
0.0
  0
LWPOLYLINE
  5
1F6
330
1F
100
AcDbEntity
  8
0
  6
Continuous
 62
     7
370
    25
100
AcDbPolyline
 90
       12
 70
   128
 43
0.0
 10
261.4615961347
 20
46.2082453109
 10
261.1345868042
 20
46.3493696717
 10
260.7518590108
 20
46.4312139284
 10
260.3444175237
 20
46.4471466938
 10
259.9452694581
 20
46.3958781829
 10
259.5867534753
 20
46.2815622455
 10
259.2979138065
 20
46.1134589462
 10
259.1021504826
 20
45.9051871027
 10
259.0153237353
 20
45.6736200929
 10
259.0444657292
 20
45.4375186745
 10
259.1872168581
 20
45.2160095508
 10
259.4320138214
 20
45.0270371646
  0
ARC
  5
1F7
330
1F
100
AcDbEntity
  8
0
  6
Continuous
 62
     7
370
    25
100
AcDbCircle
 10
260.4642631916
 20
44.0064603381
 30
0.0
 40
1.660335105558935
100
AcDbArc
 50
57.6791509545
 51
136.5563540352
  0
LINE
  5
1F8
330
1F
100
AcDbEntity
  8
0
  6
Continuous
 62
     7
370
    25
100
AcDbLine
 10
257.0287817508
 20
28.8931707543
 30
0.0
 11
258.5964324641
 21
27.9881852607
 31
0.0
  0
SPLINE
  5
1F9
330
1F
100
AcDbEntity
  8
0
  6
Continuous
 62
     7
370
    25
100
AcDbSpline
210
0.0
220
0.0
230
1.0
 70
     8
 71
     3
 72
    31
 73
    27
 74
     0
 42
0.000000001
 43
0.00000001
 40
0.0
 40
0.0
 40
0.0
 40
0.0
 40
0.0690880590182099
 40
0.2282964972409547
 40
0.2463917000663697
 40
0.2551962448224926
 40
0.2595962272958922
 40
0.2610930569736052
 40
0.2621066136968107
 40
0.2627956557773845
 40
0.2632678271250995
 40
0.2637107380270718
 40
0.2639335863856599
 40
0.264098576804282
 40
0.2642131927484605
 40
0.264327969022483
 40
0.2644621867123109
 40
0.2646889053890276
 40
0.2653925705049916
 40
0.268622860769166
 40
0.281441197313028
 40
0.3326425890500667
 40
0.5265181300412287
 40
0.7045380368370652
 40
0.8825558628677155
 40
1.0
 40
1.0
 40
1.0
 40
1.0
 10
264.7238068258027
 20
32.62959973112533
 30
0.0
 10
264.8029209045461
 20
32.72944283150502
 30
0.0
 10
265.0643476592734
 20
33.05936713990615
 30
0.0
 10
265.3267755197117
 20
33.44733416535652
 30
0.0
 10
265.5024802223878
 20
33.75463286993601
 30
0.0
 10
265.5303268115973
 20
33.80720218816176
 30
0.0
 10
265.5424510082098
 20
33.83230199630194
 30
0.0
 10
265.5475393535327
 20
33.84429798849455
 30
0.0
 10
265.5496593429547
 20
33.84991320953311
 30
0.0
 10
265.5508920339641
 20
33.85377251765539
 30
0.0
 10
265.5516016632866
 20
33.85663942809716
 30
0.0
 10
265.5518979837016
 20
33.85868607802032
 30
0.0
 10
265.5518336784172
 20
33.8601375866015
 30
0.0
 10
265.5515850004216
 20
33.86094398172761
 30
0.0
 10
265.5511830484811
 20
33.86143261841301
 30
0.0
 10
265.5506483483118
 20
33.86167602772684
 30
0.0
 10
265.5498364628481
 20
33.86167704914966
 30
0.0
 10
265.5480064140517
 20
33.8610481747289
 30
0.0
 10
265.5415607366724
 20
33.85638739335696
 30
0.0
 10
265.519704319719
 20
33.83264748236193
 30
0.0
 10
265.4393888087644
 20
33.73156211764879
 30
0.0
 10
265.1407005999566
 20
33.33743961757713
 30
0.0
 10
264.6186009535116
 20
32.72257981945364
 30
0.0
 10
263.8881618476284
 20
32.02798183278932
 30
0.0
 10
263.234298251881
 20
31.52022870411581
 30
0.0
 10
262.8247751823915
 20
31.2762897138941
 30
0.0
 10
262.6619925249656
 20
31.17932561092525
 30
0.0
  0
LWPOLYLINE
  5
1FA
330
1F
100
AcDbEntity
  8
0
  6
Continuous
 62
     7
370
    25
100
AcDbPolyline
 90
       14
 70
   128
 43
0.0
 10
266.4406468461
 20
39.8321595346
 10
266.5219026773
 20
39.2135210991
 10
266.5242968159
 20
38.5367634169
 10
266.4467041385
 20
37.8197700668
 10
266.2905701504
 20
37.0758973506
 10
266.0588033133
 20
36.3190022453
 10
265.7557210451
 20
35.5631843733
 10
265.3869690479
 20
34.8225229853
 10
264.9594162701
 20
34.1108147051
 10
264.4810278075
 20
33.4413184063
 10
263.9607147552
 20
32.8265050343
 10
263.4081694066
 20
32.2778272965
 10
262.8336850593
 20
31.8055057513
 10
262.2479629586
 20
31.418339792
  0
LINE
  5
1FB
330
1F
100
AcDbEntity
  8
0
  6
Continuous
 62
     7
370
    25
100
AcDbLine
 10
254.8013458317
 20
28.9158297623
 30
0.0
 11
257.6233249523
 21
27.2867358923
 31
0.0
  0
LINE
  5
1FC
330
1F
100
AcDbEntity
  8
0
  6
Continuous
 62
     7
370
    25
100
AcDbLine
 10
256.8124966366
 20
28.806394522
 30
0.0
 11
258.4895144705
 21
27.8382727335
 31
0.0
  0
LWPOLYLINE
  5
1FD
330
1F
100
AcDbEntity
  8
0
  6
Continuous
 62
     7
370
    25
100
AcDbPolyline
 90
        9
 70
   128
 43
0.0
 10
254.8013458317
 20
28.9158297623
 10
254.494744631
 20
29.1099411674
 10
254.1715869627
 20
29.3464508572
 10
253.8580526054
 20
29.6062005069
 10
253.5795403035
 20
29.8681467622
 10
253.3586157433
 20
30.111066882
 10
253.2131761887
 20
30.3152819258
 10
253.1550043181
 20
30.4642472979
 10
253.1774014168
 20
30.5378335544
  0
SPLINE
  5
1FE
330
1F
100
AcDbEntity
  8
0
  6
Continuous
 62
     7
370
    25
100
AcDbSpline
210
0.0
220
0.0
230
1.0
 70
     8
 71
     3
 72
     9
 73
     5
 74
     0
 42
0.000000001
 43
0.00000001
 40
0.0
 40
0.0
 40
0.0
 40
0.0
 40
0.4999999839513267
 40
1.0
 40
1.0
 40
1.0
 40
1.0
 10
262.6619925249656
 20
31.17932561092525
 30
0.0
 10
262.5808593639873
 20
31.13325999037062
 30
0.0
 10
262.4185930368224
 20
31.04112874630419
 30
0.0
 10
262.2603069526623
 20
30.94669975693105
 30
0.0
 10
262.181163908042
 20
30.89948526072902
 30
0.0
  0
LINE
  5
1FF
330
1F
100
AcDbEntity
  8
0
  6
Continuous
 62
     7
370
    25
100
AcDbLine
 10
269.5461679022
 20
42.0550123658
 30
0.0
 11
269.7610983903
 21
41.930935636
 31
0.0
  0
LINE
  5
200
330
1F
100
AcDbEntity
  8
0
  6
Continuous
 62
     7
370
    25
100
AcDbLine
 10
268.8758143741
 20
43.4001405381
 30
0.0
 11
269.994576126
 21
42.7542931259
 31
0.0
  0
LINE
  5
201
330
1F
100
AcDbEntity
  8
0
  6
Continuous
 62
     7
370
    25
100
AcDbLine
 10
262.2479629586
 20
31.418339792
 30
0.0
 11
261.7671343417
 21
31.1384994418
 31
0.0
  0
LINE
  5
202
330
1F
100
AcDbEntity
  8
0
  6
Continuous
 62
     7
370
    25
100
AcDbLine
 10
264.0532689052
 20
28.2446899484
 30
0.0
 11
264.3419511099
 21
28.0780372589
 31
0.0
  0
LINE
  5
203
330
1F
100
AcDbEntity
  8
0
  6
Continuous
 62
     7
370
    25
100
AcDbLine
 10
268.9082602034
 20
33.9712721621
 30
0.0
 11
269.0089727321
 21
33.9131320569
 31
0.0
  0
ARC
  5
204
330
1F
100
AcDbEntity
  8
0
  6
Continuous
 62
     7
370
    25
100
AcDbCircle
 10
244.0065552075
 20
34.8617148121
 30
0.0
 40
5.332742867567211
100
AcDbArc
 50
225.0056263982
 51
254.5623033759
  0
ARC
  5
205
330
1F
100
AcDbEntity
  8
0
  6
Continuous
 62
     7
370
    25
100
AcDbCircle
 10
254.4125074825
 20
52.8871465642
 30
0.0
 40
5.327027598505801
100
AcDbArc
 50
45.9667173456
 51
74.2037544709
  0
LWPOLYLINE
  5
206
330
1F
100
AcDbEntity
  8
0
  6
Continuous
 62
     7
370
    25
100
AcDbPolyline
 90
       22
 70
   128
 43
0.0
 10
240.0086218923
 20
31.0110381346
 10
239.4395874124
 20
31.3909005374
 10
238.8667643259
 20
31.8972948149
 10
238.3560472549
 20
32.4915288962
 10
237.9109561198
 20
33.1695054571
 10
237.5345597379
 20
33.926552306
 10
237.2294521161
 20
34.7574501425
 10
236.9977366455
 20
35.6564722936
 10
236.8410102966
 20
36.6174214072
 10
236.7603537409
 20
37.6336738453
 10
236.7563221314
 20
38.6982240765
 10
236.8289444441
 20
39.8037347719
 10
236.9777188681
 20
40.9425849998
 10
237.2016213666
 20
42.1069254532
 10
237.4991069943
 20
43.2887294963
 10
237.8681263606
 20
44.479851243
 10
238.3061355081
 20
45.6720805942
 10
238.8101143517
 20
46.8571979901
 10
239.3765903862
 20
48.0270363849
 10
240.0016577841
 20
49.1735310561
 10
240.6810083473
 20
50.2887789169
 10
241.4099591657
 20
51.3650932677
  0
SPLINE
  5
207
330
1F
100
AcDbEntity
  8
0
  6
Continuous
 62
     7
370
    25
100
AcDbSpline
210
0.0
220
0.0
230
1.0
 70
     8
 71
     3
 72
    25
 73
    21
 74
     0
 42
0.000000001
 43
0.00000001
 40
0.0
 40
0.0
 40
0.0
 40
0.0
 40
0.1249999999999998
 40
0.1249999999999998
 40
0.2499999999999997
 40
0.2499999999999997
 40
0.3749999999999995
 40
0.3749999999999995
 40
0.4999999999999993
 40
0.4999999999999993
 40
0.5624999999999996
 40
0.5624999999999996
 40
0.6249999999999998
 40
0.6875000000000001
 40
0.6875000000000001
 40
0.7500000000000003
 40
0.7500000000000003
 40
0.8750000000000001
 40
0.8750000000000001
 40
1.0
 40
1.0
 40
1.0
 40
1.0
 10
243.2671938487002
 20
53.67547576324812
 30
0.0
 10
243.2963171469613
 20
53.56429024271894
 30
0.0
 10
243.3087061878206
 20
53.44904803029091
 30
0.0
 10
243.3017287027203
 20
53.20995246245511
 30
0.0
 10
243.2817111148682
 20
53.08517849257985
 30
0.0
 10
243.211488957155
 20
52.83880958336742
 30
0.0
 10
243.1608383025613
 20
52.71459843600631
 30
0.0
 10
243.0309235589062
 20
52.47096994069614
 30
0.0
 10
242.9532226109169
 20
52.35391284563798
 30
0.0
 10
242.8178490286907
 20
52.18525632778794
 30
0.0
 10
242.7692145313837
 20
52.12988930651578
 30
0.0
 10
242.6677751960016
 20
52.02416949511876
 30
0.0
 10
242.5619052132609
 20
51.92300853649832
 30
0.0
 10
242.4473134209334
 20
51.83083421482151
 30
0.0
 10
242.3282307517152
 20
51.7432973720814
 30
0.0
 10
242.2662727386578
 20
51.70179890256922
 30
0.0
 10
242.0784090351372
 20
51.58767858083111
 30
0.0
 10
241.9490315987832
 20
51.52407114971651
 30
0.0
 10
241.6813483457212
 20
51.42280284874229
 30
0.0
 10
241.5454766592561
 20
51.38626194051749
 30
0.0
 10
241.4099593925285
 20
51.36509375616742
 30
0.0
  0
LWPOLYLINE
  5
208
330
1F
100
AcDbEntity
  8
0
  6
Continuous
 62
     7
370
    25
100
AcDbPolyline
 90
       16
 70
   128
 43
0.0
 10
243.2671939604
 20
53.6754757958
 10
244.130337381
 20
54.5779203386
 10
245.0197261052
 20
55.4107486951
 10
245.9291291494
 20
56.1681272737
 10
246.8521761657
 20
56.8447496393
 10
247.7824005763
 20
57.4358743422
 10
248.7132858363
 20
57.937363032
 10
249.6383106264
 20
58.3457019839
 10
250.5509948686
 20
58.6580286632
 10
251.4449446721
 20
58.8721569113
 10
252.3138977723
 20
58.9865864473
 10
253.151766584
 20
59.0005147934
 10
253.9526814999
 20
58.9138455415
 10
254.7110317208
 20
58.7271845466
 10
255.4215044389
 20
58.4418404933
 10
255.7448432069
 20
58.2699265285
  0
ARC
  5
209
330
1F
100
AcDbEntity
  8
0
  6
Continuous
 62
     7
370
    25
100
AcDbCircle
 10
253.4859542347
 20
41.4023474497
 30
0.0
 40
12.13215637280375
100
AcDbArc
 50
307.5769931341
 51
352.428384016
  0
LWPOLYLINE
  5
20A
330
1F
100
AcDbEntity
  8
0
  6
Continuous
 62
     7
370
    25
100
AcDbPolyline
 90
       13
 70
   128
 43
0.0
 10
241.604572568
 20
53.7997522763
 10
242.4354156976
 20
54.6890453629
 10
243.2943062378
 20
55.5083268435
 10
244.1745515654
 20
56.2512122144
 10
245.0692930216
 20
56.9119139035
 10
245.9715590435
 20
57.4852841094
 10
246.8743193955
 20
57.9668552346
 10
247.7705401074
 20
58.3528738814
 10
248.6532378547
 20
58.6403337664
 10
249.5155347164
 20
58.8269944033
 10
250.350712386
 20
58.9114009917
 10
251.1522631266
 20
58.8928963418
 10
251.4051231442
 20
58.8646389094
  0
SPLINE
  5
20B
330
1F
100
AcDbEntity
  8
0
  6
Continuous
 62
     7
370
    25
100
AcDbSpline
210
0.0
220
0.0
230
1.0
 70
     8
 71
     3
 72
    26
 73
    22
 74
     0
 42
0.000000001
 43
0.00000001
 40
0.0
 40
0.0
 40
0.0
 40
0.0
 40
0.1250000000000009
 40
0.1250000000000009
 40
0.2500000000000019
 40
0.2500000000000019
 40
0.3125000000000011
 40
0.3125000000000011
 40
0.3750000000000004
 40
0.3750000000000004
 40
0.4375000000000002
 40
0.4375000000000002
 40
0.5000000000000001
 40
0.5000000000000001
 40
0.5625
 40
0.5625
 40
0.6249999999999999
 40
0.6249999999999999
 40
0.7500000000000001
 40
0.7500000000000001
 40
1.0
 40
1.0
 40
1.0
 40
1.0
 10
240.2603793630727
 20
52.12758899012294
 30
0.0
 10
240.2367417668407
 20
52.23716484969594
 30
0.0
 10
240.219173987959
 20
52.34805410806047
 30
0.0
 10
240.2003614050895
 20
52.57338406792341
 30
0.0
 10
240.199181630322
 20
52.68906098124178
 30
0.0
 10
240.2152796335575
 20
52.86041649110134
 30
0.0
 10
240.2235983506577
 20
52.9172150031955
 30
0.0
 10
240.2473554999146
 20
53.03004121559258
 30
0.0
 10
240.2629778789637
 20
53.08649406925874
 30
0.0
 10
240.3018350913607
 20
53.19507718566734
 30
0.0
 10
240.3250610480631
 20
53.24745714589289
 30
0.0
 10
240.3800596975415
 20
53.347913921165
 30
0.0
 10
240.4121379645642
 20
53.39619278893644
 30
0.0
 10
240.4825527130992
 20
53.48388976452018
 30
0.0
 10
240.5211311352259
 20
53.52387889249614
 30
0.0
 10
240.6048393988221
 20
53.59635757661174
 30
0.0
 10
240.649968108764
 20
53.62869420098835
 30
0.0
 10
240.7892487509541
 20
53.711893968342
 30
0.0
 10
240.8900378225157
 20
53.75072269097809
 30
0.0
 10
241.1931100937484
 20
53.82613897843326
 30
0.0
 10
241.4016341842335
 20
53.82600883206251
 30
0.0
 10
241.6045726039239
 20
53.79975260273628
 30
0.0
  0
LWPOLYLINE
  5
20C
330
1F
100
AcDbEntity
  8
0
  6
Continuous
 62
     7
370
    25
100
AcDbPolyline
 90
       19
 70
   128
 43
0.0
 10
237.3234007341
 20
34.4717377
 10
237.0983701488
 20
34.7845079247
 10
236.6984011663
 20
35.472960571
 10
236.3691894984
 20
36.2389464162
 10
236.1132297117
 20
37.076660803
 10
235.9324612199
 20
37.9797542547
 10
235.8282551126
 20
38.9413838074
 10
235.8014003261
 20
39.9542610632
 10
235.8521010093
 20
41.0107105084
 10
235.9799719135
 20
42.1027252179
 10
236.1840449783
 20
43.2220298777
 10
236.4627726242
 20
44.3601413844
 10
236.8140435575
 20
45.5084351461
 10
237.2351952827
 20
46.6582090557
 10
237.7230358346
 20
47.8007485079
 10
238.2738681443
 20
48.9273959796
 10
238.8835183568
 20
50.0296122444
 10
239.5473654651
 20
51.0990444312
 10
240.2603795065
 20
52.1275887591
  0
LINE
  5
20D
330
1F
100
AcDbEntity
  8
0
  6
Continuous
 62
     7
370
    25
100
AcDbLine
 10
238.7849870921
 20
31.883667815
 30
0.0
 11
238.8989747256
 21
31.93753855
 31
0.0
  0
LWPOLYLINE
  5
20E
330
1F
100
AcDbEntity
  8
0
  6
Continuous
 62
     7
370
    25
100
AcDbPolyline
 90
       43
 70
   128
 43
0.0
 10
238.7849870921
 20
31.883667815
 10
238.0782522727
 20
32.150855466
 10
237.4220706224
 20
32.512145276
 10
236.8209004876
 20
32.9650820524
 10
236.2788261613
 20
33.5065885792
 10
235.7995302244
 20
34.1329861517
 10
235.386269838
 20
34.8400189141
 10
235.0418517189
 20
35.6228831391
 10
234.7686169927
 20
36.47626069
 10
234.5684207794
 20
37.394352483
 10
234.4426236318
 20
38.3709216441
 10
234.3920816579
 20
39.3993339692
 10
234.4171366423
 20
40.4726015446
 10
234.5176180218
 20
41.5834322958
 10
234.6928442031
 20
42.724279964
 10
234.9416245375
 20
43.8873933575
 10
235.2622685413
 20
45.064870095
 10
235.6525977494
 20
46.2487106912
 10
236.1099602029
 20
47.4308712188
 10
236.6312488889
 20
48.6033211007
 10
237.2129214965
 20
49.7580940602
 10
237.8510267585
 20
50.8873447723
 10
238.5412294767
 20
51.9834009536
 10
239.2788394968
 20
53.038815831
 10
240.0588466124
 20
54.04641947
 10
240.8759505279
 20
54.9993657304
 10
241.7246003718
 20
55.8911801719
 10
242.5990299282
 20
56.7158032066
 10
243.4932987964
 20
57.4676336323
 10
244.4013309156
 20
58.1415637997
 10
245.3169571643
 20
58.7330125701
 10
246.2339568075
 20
59.2379636908
 10
247.1460996439
 20
59.6529855636
 10
248.0471885637
 20
59.9752596153
 10
248.9311016549
 20
60.2025947185
 10
249.7918331563
 20
60.3334477924
 10
250.6235360157
 20
60.3669285983
 10
251.4205589336
 20
60.3028112387
 10
252.1774873569
 20
60.1415296854
 10
252.8891777237
 20
59.8841800581
 10
253.5507963175
 20
59.5325118749
 10
254.1578465962
 20
59.0889134113
 10
254.477247268
 20
58.7966573238
  0
LWPOLYLINE
  5
20F
330
1F
100
AcDbEntity
  8
0
  6
Continuous
 62
     7
370
    25
100
AcDbPolyline
 90
       25
 70
   128
 43
0.0
 10
232.1403545015
 20
40.9583179901
 10
232.1781213704
 20
42.0345476709
 10
232.2911631694
 20
43.1470299195
 10
232.4787074257
 20
44.2881650274
 10
232.7394739287
 20
45.4501582751
 10
233.0716813155
 20
46.6250726885
 10
233.4730595833
 20
47.8048814145
 10
233.9408672113
 20
48.9815249443
 10
234.4719089415
 20
50.146967006
 10
235.0625561936
 20
51.2932455133
 10
235.7087753825
 20
52.4125299782
 10
236.4061522845
 20
53.4971747406
 10
237.14992233
 20
54.5397714379
 10
237.9350045188
 20
55.5331967207
 10
238.7560369816
 20
56.4706654816
 10
239.6074108948
 20
57.3457740088
 10
240.4833099933
 20
58.1525433282
 10
241.3777515648
 20
58.8854626416
 10
242.2846255512
 20
59.5395263475
 10
243.1977369419
 20
60.1102661194
 10
244.1108483325
 20
60.5937823187
 10
245.0177223189
 20
60.9867730303
 10
245.9121638905
 20
61.2865539738
 10
246.7880629889
 20
61.4910762275
 10
247.496785625
 20
61.587473493
  0
ARC
  5
210
330
1F
100
AcDbEntity
  8
0
  6
Continuous
 62
     7
370
    25
100
AcDbCircle
 10
244.298233846
 20
40.8492901791
 30
0.0
 40
12.15633683018202
100
AcDbArc
 50
180.8571673626
 51
191.8646115793
  0
SPLINE
  5
211
330
1F
100
AcDbEntity
  8
0
  6
Continuous
 62
     7
370
    25
100
AcDbSpline
210
0.0
220
0.0
230
1.0
 70
     8
 71
     3
 72
    10
 73
     6
 74
     0
 42
0.000000001
 43
0.00000001
 40
0.0
 40
0.0
 40
0.0
 40
0.0
 40
0.5
 40
0.5
 40
1.0
 40
1.0
 40
1.0
 40
1.0
 10
240.987067430704
 20
50.66453570930322
 30
0.0
 10
240.8831029399198
 20
50.7378740823736
 30
0.0
 10
240.7932946634924
 20
50.82510984016701
 30
0.0
 10
240.6412522354937
 20
51.026040381363
 30
0.0
 10
240.5793466471328
 20
51.14021114755997
 30
0.0
 10
240.5348969425423
 20
51.26322883072007
 30
0.0
  0
SPLINE
  5
212
330
1F
100
AcDbEntity
  8
0
  6
Continuous
 62
     7
370
    25
100
AcDbSpline
210
0.0
220
0.0
230
1.0
 70
     8
 71
     3
 72
    14
 73
    10
 74
     0
 42
0.000000001
 43
0.00000001
 40
0.0
 40
0.0
 40
0.0
 40
0.0
 40
0.25
 40
0.25
 40
0.5
 40
0.5
 40
0.75
 40
0.75
 40
1.0
 40
1.0
 40
1.0
 40
1.0
 10
240.5348969425423
 20
51.26322883072007
 30
0.0
 10
240.5121761396772
 20
51.32611025037762
 30
0.0
 10
240.4902616293277
 20
51.39515667985103
 30
0.0
 10
240.4481505752649
 20
51.5428091964698
 30
0.0
 10
240.4286290213518
 20
51.61920898332811
 30
0.0
 10
240.3902827791781
 20
51.7735412747237
 30
0.0
 10
240.3719231862943
 20
51.85049387105536
 30
0.0
 10
240.3299197417126
 20
51.99588403857135
 30
0.0
 10
240.3061434206996
 20
52.06247494476437
 30
0.0
 10
240.2776819165974
 20
52.10297055999572
 30
0.0
  0
LINE
  5
213
330
1F
100
AcDbEntity
  8
0
  6
Continuous
 62
     7
370
    25
100
AcDbLine
 10
240.2776821049
 20
52.1029709517
 30
0.0
 11
240.2603795065
 21
52.1275887591
 31
0.0
  0
LINE
  5
214
330
1F
100
AcDbEntity
  8
0
  6
Continuous
 62
     7
370
    25
100
AcDbLine
 10
241.604572568
 20
53.7997522763
 30
0.0
 11
241.6218751664
 21
53.775134469
 31
0.0
  0
SPLINE
  5
215
330
1F
100
AcDbEntity
  8
0
  6
Continuous
 62
     7
370
    25
100
AcDbSpline
210
0.0
220
0.0
230
1.0
 70
     8
 71
     3
 72
    16
 73
    12
 74
     0
 42
0.000000001
 43
0.00000001
 40
0.0
 40
0.0
 40
0.0
 40
0.0
 40
0.1250000000000001
 40
0.1250000000000001
 40
0.2500000000000003
 40
0.2500000000000003
 40
0.5000000000000002
 40
0.5000000000000002
 40
0.7500000000000001
 40
0.7500000000000001
 40
1.0
 40
1.0
 40
1.0
 40
1.0
 10
241.6218751574486
 20
53.775134172609
 30
0.0
 10
241.6360275638527
 20
53.7549978367962
 30
0.0
 10
241.6576859683264
 20
53.73820041611878
 30
0.0
 10
241.7101038973617
 20
53.71135489478729
 30
0.0
 10
241.7406967765001
 20
53.70112941022632
 30
0.0
 10
241.8397776253576
 20
53.67662896979363
 30
0.0
 10
241.9136601629734
 20
53.66836904739213
 30
0.0
 10
242.0667597553648
 20
53.6571830806872
 30
0.0
 10
242.1448437300124
 20
53.65458640893601
 30
0.0
 10
242.3041873637545
 20
53.65255740810231
 30
0.0
 10
242.3828402585861
 20
53.65319499676453
 30
0.0
 10
242.4585927263787
 20
53.65628809757957
 30
0.0
  0
SPLINE
  5
216
330
1F
100
AcDbEntity
  8
0
  6
Continuous
 62
     7
370
    25
100
AcDbSpline
210
0.0
220
0.0
230
1.0
 70
     8
 71
     3
 72
    10
 73
     6
 74
     0
 42
0.000000001
 43
0.00000001
 40
0.0
 40
0.0
 40
0.0
 40
0.0
 40
0.5
 40
0.5
 40
1.0
 40
1.0
 40
1.0
 40
1.0
 10
242.4585927263787
 20
53.65628809757957
 30
0.0
 10
242.6067870662795
 20
53.66233912201334
 30
0.0
 10
242.7490115320101
 20
53.6521768918002
 30
0.0
 10
243.0214029223508
 20
53.60112645586013
 30
0.0
 10
243.1515302522194
 20
53.55976535321557
 30
0.0
 10
243.2696055944047
 20
53.50399148526329
 30
0.0
  0
ARC
  5
217
330
1F
100
AcDbEntity
  8
0
  6
Continuous
 62
     7
370
    25
100
AcDbCircle
 10
225.9579113273
 20
48.7855480199
 30
0.0
 40
4.168062494307046
100
AcDbArc
 50
211.8183542798
 51
236.1399747015
  0
SPLINE
  5
218
330
1F
100
AcDbEntity
  8
0
  6
Continuous
 62
     7
370
    25
100
AcDbSpline
210
0.0
220
0.0
230
1.0
 70
     8
 71
     3
 72
     8
 73
     4
 74
     0
 42
0.000000001
 43
0.00000001
 40
0.0
 40
0.0
 40
0.0
 40
0.0
 40
1.0
 40
1.0
 40
1.0
 40
1.0
 10
223.8466519252679
 20
45.66328706602463
 30
0.0
 10
223.3698786334437
 20
45.97137987395727
 30
0.0
 10
222.8930762565989
 20
46.27960931953002
 30
0.0
 10
222.4162438120732
 20
46.58797447574994
 30
0.0
  0
SPLINE
  5
219
330
1F
100
AcDbEntity
  8
0
  6
Continuous
 62
     7
370
    25
100
AcDbSpline
210
0.0
220
0.0
230
1.0
 70
     8
 71
     3
 72
    23
 73
    19
 74
     0
 42
0.000000001
 43
0.00000001
 40
0.0
 40
0.0
 40
0.0
 40
0.0
 40
0.0521036415683759
 40
0.1035646240941235
 40
0.1544751946756683
 40
0.2049306267495642
 40
0.2550287880866983
 40
0.3048696389163111
 40
0.354554670462894
 40
0.4041862979539558
 40
0.453867225213789
 40
0.5036997999428097
 40
0.590187023078111
 40
0.6742716378282376
 40
0.7565997087281883
 40
0.8378563983773627
 40
0.9187511781400207
 40
0.9999999999999999
 40
0.9999999999999999
 40
0.9999999999999999
 40
0.9999999999999999
 10
224.7272167288095
 20
45.48855636790453
 30
0.0
 10
224.7219477898697
 20
45.47863490566914
 30
0.0
 10
224.7114749003701
 20
45.45891435493713
 30
0.0
 10
224.6922286046081
 20
45.43434652598366
 30
0.0
 10
224.6704328642759
 20
45.41365794372356
 30
0.0
 10
224.6457815730713
 20
45.39712700842608
 30
0.0
 10
224.6182850585325
 20
45.38460950884976
 30
0.0
 10
224.5878740045251
 20
45.37607488502758
 30
0.0
 10
224.5545036327522
 20
45.37146501238005
 30
0.0
 10
224.5181277444798
 20
45.37073026924445
 30
0.0
 10
224.47869937289
 20
45.37382535179691
 30
0.0
 10
224.4258509813376
 20
45.38236112727827
 30
0.0
 10
224.3573119875642
 20
45.39995756612786
 30
0.0
 10
224.2695907556071
 20
45.43159417421547
 30
0.0
 10
224.1748598361123
 20
45.47377383154871
 30
0.0
 10
224.0728255887834
 20
45.52651026727499
 30
0.0
 10
223.9639116755973
 20
45.58882682318384
 30
0.0
 10
223.8857953646139
 20
45.63843088143327
 30
0.0
 10
223.8466519252679
 20
45.66328706602462
 30
0.0
  0
SPLINE
  5
21A
330
1F
100
AcDbEntity
  8
0
  6
Continuous
 62
     7
370
    25
100
AcDbSpline
210
0.0
220
0.0
230
1.0
 70
     8
 71
     3
 72
     8
 73
     4
 74
     0
 42
0.000000001
 43
0.00000001
 40
0.0
 40
0.0
 40
0.0
 40
0.0
 40
1.0
 40
1.0
 40
1.0
 40
1.0
 10
226.2007197552674
 20
44.54123623134575
 30
0.0
 10
225.7093524432246
 20
44.8571108513141
 30
0.0
 10
225.2179662432971
 20
45.17309687260443
 30
0.0
 10
224.7265605331518
 20
45.48919375344798
 30
0.0
  0
SPLINE
  5
21B
330
1F
100
AcDbEntity
  8
0
  6
Continuous
 62
     7
370
    25
100
AcDbSpline
210
0.0
220
0.0
230
1.0
 70
     8
 71
     3
 72
    18
 73
    14
 74
     0
 42
0.000000001
 43
0.00000001
 40
0.0
 40
0.0
 40
0.0
 40
0.0
 40
0.0923824559461122
 40
0.1844689291660427
 40
0.2764953616062392
 40
0.3686975365619641
 40
0.4613092840130473
 40
0.5545607518559533
 40
0.6486768051632873
 40
0.7438756050210469
 40
0.8403674044324065
 40
0.9203921078135461
 40
1.0
 40
1.0
 40
1.0
 40
1.0
 10
227.014283874463
 20
43.89692850680398
 30
0.0
 10
226.9907163603387
 20
43.9122024810703
 30
0.0
 10
226.9436568396852
 20
43.94270149355228
 30
0.0
 10
226.8712590517196
 20
43.99233406616491
 30
0.0
 10
226.7977768428223
 20
44.0446636088346
 30
0.0
 10
226.7230773950764
 20
44.09998129454303
 30
0.0
 10
226.6472166053083
 20
44.1582196096566
 30
0.0
 10
226.5702053245224
 20
44.2194125212936
 30
0.0
 10
226.4920731924432
 20
44.28357623787398
 30
0.0
 10
226.4128469578021
 20
44.35072519773934
 30
0.0
 10
226.3375504733946
 20
44.4165761074843
 30
0.0
 10
226.2667231652745
 20
44.48010769429169
 30
0.0
 10
226.2228187944681
 20
44.52076843930476
 30
0.0
 10
226.2009239276632
 20
44.541045727873
 30
0.0
  0
LINE
  5
21C
330
1F
100
AcDbEntity
  8
0
  6
Continuous
 62
     7
370
    25
100
AcDbLine
 10
227.6539904063
 20
43.4851747003
 30
0.0
 11
227.014283564
 21
43.8969283679
 31
0.0
  0
SPLINE
  5
21D
330
1F
100
AcDbEntity
  8
0
  6
Continuous
 62
     7
370
    25
100
AcDbSpline
210
0.0
220
0.0
230
1.0
 70
     8
 71
     3
 72
    25
 73
    21
 74
     0
 42
0.000000001
 43
0.00000001
 40
0.0
 40
0.0
 40
0.0
 40
0.0
 40
0.0280105225426455
 40
0.0559601148860774
 40
0.0839014045043129
 40
0.1118870776786379
 40
0.1399695827588941
 40
0.1682008401739877
 40
0.1966319670424218
 40
0.2253130233141493
 40
0.2542927850735863
 40
0.3799486436570518
 40
0.505785022166658
 40
0.6313085886329272
 40
0.7532068238012843
 40
0.8039473267959846
 40
0.8535894438560211
 40
0.902533972239985
 40
0.9511970353794947
 40
1.0
 40
1.0
 40
1.0
 40
1.0
 10
228.7563559994532
 20
44.20108069068106
 30
0.0
 10
228.7613041069838
 20
44.17345682957357
 30
0.0
 10
228.7711895586193
 20
44.11826919646825
 30
0.0
 10
228.7827252082225
 20
44.03910848909834
 30
0.0
 10
228.7917983300353
 20
43.96280514999996
 30
0.0
 10
228.7981671387483
 20
43.88960938903034
 30
0.0
 10
228.8018833775584
 20
43.81946192081696
 30
0.0
 10
228.8029199985412
 20
43.75238563430417
 30
0.0
 10
228.8012715233143
 20
43.68838172507773
 30
0.0
 10
228.7969253714454
 20
43.6274528718109
 30
0.0
 10
228.782069046878
 20
43.50556475031478
 30
0.0
 10
228.7369807898118
 20
43.35066387866074
 30
0.0
 10
228.623621269321
 20
43.21972076031724
 30
0.0
 10
228.461797047328
 20
43.16384435950444
 30
0.0
 10
228.2877818281945
 20
43.18371841188899
 30
0.0
 10
228.136420907507
 20
43.23103621424545
 30
0.0
 10
228.0260206748081
 20
43.27595163798112
 30
0.0
 10
227.9088611793594
 20
43.33332736927225
 30
0.0
 10
227.7852955124261
 20
43.40200443372471
 30
0.0
 10
227.6978004623315
 20
43.45742467967754
 30
0.0
 10
227.6539901426503
 20
43.48517457740761
 30
0.0
  0
ARC
  5
21E
330
1F
100
AcDbEntity
  8
0
  6
Continuous
 62
     7
370
    25
100
AcDbCircle
 10
239.9493771639
 20
45.9871310593
 30
0.0
 40
11.33462419218118
100
AcDbArc
 50
170.9338462887
 51
189.0661537113
  0
SPLINE
  5
21F
330
1F
100
AcDbEntity
  8
0
  6
Continuous
 62
     7
370
    25
100
AcDbSpline
210
0.0
220
0.0
230
1.0
 70
     8
 71
     3
 72
    26
 73
    22
 74
     0
 42
0.000000001
 43
0.00000001
 40
0.0
 40
0.0
 40
0.0
 40
0.0
 40
0.0241259796963637
 40
0.048215991227299
 40
0.0723203915124064
 40
0.0964895678710793
 40
0.120773623196351
 40
0.1452220711242841
 40
0.1698835501657706
 40
0.1948055644472381
 40
0.2200342569517629
 40
0.2456142191611394
 40
0.3690971486901671
 40
0.4940698769485191
 40
0.6192566784762444
 40
0.7454656653603234
 40
0.7971495824713715
 40
0.8481710308405401
 40
0.8988013269235245
 40
0.9493179290492194
 40
1.0
 40
1.0
 40
1.0
 40
1.0
 10
227.6539901426503
 20
51.24928496877217
 30
0.0
 10
227.6757083720263
 20
51.23495344537709
 30
0.0
 10
227.7191124522024
 20
51.20631176470804
 30
0.0
 10
227.7824195695638
 20
51.15831946677923
 30
0.0
 10
227.8442811372817
 20
51.10672026889355
 30
0.0
 10
227.9045856524183
 20
51.05114547602032
 30
0.0
 10
227.9633755043581
 20
50.99169023539317
 30
0.0
 10
228.0206560227879
 20
50.92832592655576
 30
0.0
 10
228.0764471621141
 20
50.86105714859184
 30
0.0
 10
228.1307684095359
 20
50.78988303463171
 30
0.0
 10
228.1836473847449
 20
50.71479389488344
 30
0.0
 10
228.3004422094812
 20
50.53553944618157
 30
0.0
 10
228.4623117674077
 20
50.2252339743382
 30
0.0
 10
228.6254966749395
 20
49.75532018620651
 30
0.0
 10
228.737008080113
 20
49.25635715229647
 30
0.0
 10
228.7841419182215
 20
48.84747347923947
 30
0.0
 10
228.799260857754
 20
48.54320152264876
 30
0.0
 10
228.8012139967365
 20
48.34195228095344
 30
0.0
 10
228.7947359710974
 20
48.14629236123085
 30
0.0
 10
228.7806090484103
 20
47.95565607333338
 30
0.0
 10
228.7644491567253
 20
47.83407279959458
 30
0.0
 10
228.7563559994532
 20
47.77318176299568
 30
0.0
  0
LINE
  5
220
330
1F
100
AcDbEntity
  8
0
  6
Continuous
 62
     7
370
    25
100
AcDbLine
 10
227.014283564
 20
51.6622598191
 30
0.0
 11
227.6539904063
 21
51.249284848
 31
0.0
  0
SPLINE
  5
221
330
1F
100
AcDbEntity
  8
0
  6
Continuous
 62
     7
370
    25
100
AcDbSpline
210
0.0
220
0.0
230
1.0
 70
     8
 71
     3
 72
    14
 73
    10
 74
     0
 42
0.000000001
 43
0.00000001
 40
0.0
 40
0.0
 40
0.0
 40
0.0
 40
0.0789261963152472
 40
0.1582328720511064
 40
0.3308475394503796
 40
0.5000195457530386
 40
0.6670357883499396
 40
0.8332395193610692
 40
1.0
 40
1.0
 40
1.0
 40
1.0
 10
226.200331158613
 20
51.87084225205514
 30
0.0
 10
226.2220480399482
 20
51.87244541591389
 30
0.0
 10
226.2655864931627
 20
51.87565947200148
 30
0.0
 10
226.3571116118096
 20
51.87648051207098
 30
0.0
 10
226.4740199452409
 20
51.8685445302895
 30
0.0
 10
226.6148402836216
 20
51.84226886141265
 30
0.0
 10
226.7520525914342
 20
51.79931126288029
 30
0.0
 10
226.8859832658526
 20
51.74095413806943
 30
0.0
 10
226.9714693578136
 20
51.68852059191826
 30
0.0
 10
227.014283874463
 20
51.66225998176306
 30
0.0
  0
SPLINE
  5
222
330
1F
100
AcDbEntity
  8
0
  6
Continuous
 62
     7
370
    25
100
AcDbSpline
210
0.0
220
0.0
230
1.0
 70
     8
 71
     3
 72
     8
 73
     4
 74
     0
 42
0.000000001
 43
0.00000001
 40
0.0
 40
0.0
 40
0.0
 40
0.0
 40
1.0
 40
1.0
 40
1.0
 40
1.0
 10
224.3980275756073
 20
53.03323366346947
 30
0.0
 10
224.9987857993042
 20
52.64596618031006
 30
0.0
 10
225.5995146621653
 20
52.25849883038624
 30
0.0
 10
226.200215306513
 20
51.87083193779612
 30
0.0
  0
SPLINE
  5
223
330
1F
100
AcDbEntity
  8
0
  6
Continuous
 62
     7
370
    25
100
AcDbSpline
210
0.0
220
0.0
230
1.0
 70
     8
 71
     3
 72
    13
 73
     9
 74
     0
 42
0.000000001
 43
0.00000001
 40
0.0
 40
0.0
 40
0.0
 40
0.0
 40
0.1667030582307959
 40
0.3329480818053031
 40
0.4990671507274871
 40
0.6653938523718408
 40
0.8322612710550125
 40
1.0
 40
1.0
 40
1.0
 40
1.0
 10
224.0561990405729
 20
53.33429844255526
 30
0.0
 10
224.0765002230128
 20
53.32073333587602
 30
0.0
 10
224.1170468082015
 20
53.29364039411318
 30
0.0
 10
224.1761964451891
 20
53.24844582110547
 30
0.0
 10
224.2339679900916
 20
53.20003467262251
 30
0.0
 10
224.2902177275513
 20
53.14799955785205
 30
0.0
 10
224.3451449362974
 20
53.09270159064303
 30
0.0
 10
224.3803656458879
 20
53.05308433548267
 30
0.0
 10
224.3980218578289
 20
53.03322412648174
 30
0.0
  0
SPLINE
  5
224
330
1F
100
AcDbEntity
  8
0
  6
Continuous
 62
     7
370
    25
100
AcDbSpline
210
0.0
220
0.0
230
1.0
 70
     8
 71
     3
 72
     8
 73
     4
 74
     0
 42
0.000000001
 43
0.00000001
 40
0.0
 40
0.0
 40
0.0
 40
0.0
 40
1.0
 40
1.0
 40
1.0
 40
1.0
 10
222.1122185247822
 20
54.58902029493473
 30
0.0
 10
222.7602485971824
 20
54.17102497904997
 30
0.0
 10
223.4082415742843
 20
53.75278421663234
 30
0.0
 10
224.0561990405729
 20
53.33429844255525
 30
0.0
  0
LWPOLYLINE
  5
225
330
1F
100
AcDbEntity
  8
0
  6
Continuous
 62
     7
370
    25
100
AcDbPolyline
 90
       21
 70
   128
 43
0.0
 10
222.1122191751
 20
54.5890203454
 10
222.4598766747
 20
55.6102004124
 10
222.874727446
 20
56.6274224289
 10
223.3528682958
 20
57.6311174766
 10
223.8898033408
 20
58.6118459711
 10
224.480480886
 20
59.5603828309
 10
225.1193461084
 20
60.4678064464
 10
225.800389131
 20
61.3255811855
 10
226.5172046205
 20
62.1256397084
 10
227.2630505629
 20
62.8604572019
 10
228.0309111543
 20
63.5231203858
 10
228.813564384
 20
64.1073977069
 10
229.6036486469
 20
64.6077937626
 10
230.3937325467
 20
65.0196010051
 10
231.1763846239
 20
65.3389460779
 10
231.9442434043
 20
65.5628256909
 10
232.6900867126
 20
65.6891344675
 10
233.4068992386
 20
65.7166841771
 10
234.0879383099
 20
65.6452150889
 10
234.7267989225
 20
65.4753992929
 10
235.1619569016
 20
65.2907673106
  0
SPLINE
  5
226
330
1F
100
AcDbEntity
  8
0
  6
Continuous
 62
     7
370
    25
100
AcDbSpline
210
0.0
220
0.0
230
1.0
 70
    11
 71
     3
 72
    39
 73
    35
 74
     0
 42
0.000000001
 43
0.00000001
 40
0.0
 40
0.0
 40
0.0
 40
0.0
 40
0.0310664058350965
 40
0.0621048158425859
 40
0.093136155179263
 40
0.1235538293503448
 40
0.1538561545806855
 40
0.1850588072748946
 40
0.2160250992945718
 40
0.2471867223797388
 40
0.2784462884305076
 40
0.3100516090231096
 40
0.3419834369141944
 40
0.3734259894013148
 40
0.4048604886786042
 40
0.4368740651833136
 40
0.4685120685925458
 40
0.4998055358633138
 40
0.5309508213230685
 40
0.5618649784438015
 40
0.5930416446594986
 40
0.6233742450133227
 40
0.6540913579075065
 40
0.6849496782718291
 40
0.71581606451649
 40
0.7471731804043279
 40
0.7784514311862922
 40
0.8101295911560753
 40
0.8419598919688862
 40
0.8735175891922173
 40
0.9050808037887091
 40
0.9370235169792366
 40
0.968744159003463
 40
1.0
 40
1.0
 40
1.0
 40
1.0
 10
235.3208040059876
 20
63.59421067027615
 30
0.0
 10
235.5836896261879
 20
63.56567618298513
 30
0.0
 10
236.1105782366706
 20
63.47973369466197
 30
0.0
 10
236.8745903057444
 20
63.27935857459259
 30
0.0
 10
237.581740493793
 20
63.03235646837354
 30
0.0
 10
238.1946515583873
 20
62.75437459022149
 30
0.0
 10
238.6917828840618
 20
62.46024089289158
 30
0.0
 10
239.0509746051341
 20
62.15873436469954
 30
0.0
 10
239.2726938738949
 20
61.85173685979618
 30
0.0
 10
239.3379457512762
 20
61.54123159839432
 30
0.0
 10
239.251098540163
 20
61.22208711364508
 30
0.0
 10
239.0087529524027
 20
60.89276714807202
 30
0.0
 10
238.6288150896772
 20
60.55382642651423
 30
0.0
 10
238.1150091365169
 20
60.21598796210391
 30
0.0
 10
237.4891183256061
 20
59.89009006079632
 30
0.0
 10
236.7756473391174
 20
59.59344316755526
 30
0.0
 10
236.0117448628533
 20
59.33733985911524
 30
0.0
 10
235.2259517799469
 20
59.14831229112681
 30
0.0
 10
234.4444143249063
 20
59.04013636907327
 30
0.0
 10
233.6883013401508
 20
59.03247248570442
 30
0.0
 10
232.9859367537611
 20
59.13039452109091
 30
0.0
 10
232.3669164067171
 20
59.35204295459451
 30
0.0
 10
231.8578591417078
 20
59.68791104150647
 30
0.0
 10
231.484915548273
 20
60.12772160768535
 30
0.0
 10
231.2563135970281
 20
60.63879624820763
 30
0.0
 10
231.1874672903059
 20
61.18998133596827
 30
0.0
 10
231.2720837035297
 20
61.74765326428114
 30
0.0
 10
231.5151924934657
 20
62.27773340520061
 30
0.0
 10
231.8973223362825
 20
62.75025775431549
 30
0.0
 10
232.4134579106951
 20
63.13637926520835
 30
0.0
 10
233.0404357711976
 20
63.42000345254049
 30
0.0
 10
233.7563432035638
 20
63.58974067126793
 30
0.0
 10
234.524786595748
 20
63.65127950598076
 30
0.0
 10
235.0563153751214
 20
63.62291915372347
 30
0.0
 10
235.3208040059876
 20
63.59421067027615
 30
0.0
  0
LINE
  5
227
330
1F
100
AcDbEntity
  8
0
  6
Continuous
 62
     7
370
    25
100
AcDbLine
 10
226.096266593
 20
47.1550840529
 30
0.0
 11
226.4103116516
 21
46.9869398257
 31
0.0
  0
LINE
  5
228
330
1F
100
AcDbEntity
  8
0
  6
Continuous
 62
     7
370
    25
100
AcDbLine
 10
225.109308573
 20
47.7248427901
 30
0.0
 11
226.096266593
 21
47.1550840529
 31
0.0
  0
ARC
  5
229
330
1F
100
AcDbEntity
  8
0
  6
Continuous
 62
     7
370
    25
100
AcDbCircle
 10
227.3331343734
 20
51.2961384537
 30
0.0
 40
4.462224792523577
100
AcDbArc
 50
267.6359113829
 51
287.0347849962
  0
SPLINE
  5
22A
330
1F
100
AcDbEntity
  8
0
  6
Continuous
 62
     7
370
    25
100
AcDbSpline
210
0.0
220
0.0
230
1.0
 70
     8
 71
     3
 72
    14
 73
    10
 74
     0
 42
0.000000001
 43
0.00000001
 40
0.0
 40
0.0
 40
0.0
 40
0.0
 40
0.1520927654964334
 40
0.2674857265629534
 40
0.3827932169674477
 40
0.4986859355030901
 40
0.6145509981003119
 40
0.825743267810779
 40
1.0
 40
1.0
 40
1.0
 40
1.0
 10
236.6593099642869
 20
60.59171495494041
 30
0.0
 10
236.4545150229945
 20
60.70409585517083
 30
0.0
 10
236.0943419175269
 20
60.90174027732211
 30
0.0
 10
235.4947187493251
 20
61.16586314412422
 30
0.0
 10
234.9155461149425
 20
61.37897953865711
 30
0.0
 10
234.3046542994485
 20
61.54976768974302
 30
0.0
 10
233.5155186096723
 20
61.6891464449622
 30
0.0
 10
232.6162452847493
 20
61.71628035963915
 30
0.0
 10
232.0516499350814
 20
61.50828580332146
 30
0.0
 10
231.796403352116
 20
61.41425403383073
 30
0.0
  0
SPLINE
  5
22B
330
1F
100
AcDbEntity
  8
0
  6
Continuous
 62
     7
370
    25
100
AcDbSpline
210
0.0
220
0.0
230
1.0
 70
     8
 71
     3
 72
    10
 73
     6
 74
     0
 42
0.000000001
 43
0.00000001
 40
0.0
 40
0.0
 40
0.0
 40
0.0
 40
0.3798174073072795
 40
0.9603711649033085
 40
1.0
 40
1.0
 40
1.0
 40
1.0
 10
237.7991900861464
 20
60.06348802742193
 30
0.0
 10
237.669537468898
 20
60.1338165892593
 30
0.0
 10
237.3417098531435
 20
60.31164288568041
 30
0.0
 10
236.9337813081333
 20
60.48469573608283
 30
0.0
 10
236.6771485267015
 20
60.58390116833114
 30
0.0
 10
236.6607500364897
 20
60.59024026227151
 30
0.0
  0
SPLINE
  5
22C
330
1F
100
AcDbEntity
  8
0
  6
Continuous
 62
     7
370
    25
100
AcDbSpline
210
0.0
220
0.0
230
1.0
 70
     8
 71
     3
 72
    25
 73
    21
 74
     0
 42
0.000000001
 43
0.00000001
 40
0.0
 40
0.0
 40
0.0
 40
0.0
 40
0.0472534056539054
 40
0.089573634806592
 40
0.1269632476291658
 40
0.1594267920077607
 40
0.2428508088260168
 40
0.318367244167374
 40
0.3935858659017
 40
0.4205144100182734
 40
0.4483683846680365
 40
0.4771558167110822
 40
0.5451774052591232
 40
0.6363664555512807
 40
0.6968940234725829
 40
0.7498726561364739
 40
0.7959807223703401
 40
0.8771243100716252
 40
0.9543027934106351
 40
0.9999999999999999
 40
0.9999999999999999
 40
0.9999999999999999
 40
0.9999999999999999
 10
235.2659254389852
 20
63.02035277031936
 30
0.0
 10
235.1255212815292
 20
63.03566871056318
 30
0.0
 10
234.859370925777
 20
63.06470163251102
 30
0.0
 10
234.4865923783897
 20
63.07196952209157
 30
0.0
 10
234.1640314869783
 20
63.0585820590336
 30
0.0
 10
233.7349149139399
 20
63.0126244666127
 30
0.0
 10
233.2272974138839
 20
62.89560380551645
 30
0.0
 10
232.6844878348644
 20
62.65302097705005
 30
0.0
 10
232.3440883896965
 20
62.39566917401275
 30
0.0
 10
232.1374622684532
 20
62.1808601600916
 30
0.0
 10
232.0194781100942
 20
62.03435714158588
 30
0.0
 10
231.8673077432548
 20
61.80460619567561
 30
0.0
 10
231.7006270817495
 20
61.43166357493946
 30
0.0
 10
231.6322655099282
 20
60.96910449287287
 30
0.0
 10
231.6826209718162
 20
60.54077180031217
 30
0.0
 10
231.7880501156673
 20
60.22084490557365
 30
0.0
 10
231.9702494422666
 20
59.88037939066265
 30
0.0
 10
232.2711278673737
 20
59.54443113368825
 30
0.0
 10
232.6608127619623
 20
59.27137183300555
 30
0.0
 10
232.9537317181575
 20
59.1774167620755
 30
0.0
 10
233.0626676522141
 20
59.14247507190952
 30
0.0
  0
SPLINE
  5
22D
330
1F
100
AcDbEntity
  8
0
  6
Continuous
 62
     7
370
    25
100
AcDbSpline
210
0.0
220
0.0
230
1.0
 70
     8
 71
     3
 72
    22
 73
    18
 74
     0
 42
0.000000001
 43
0.00000001
 40
0.0
 40
0.0
 40
0.0
 40
0.0
 40
0.0348562931077237
 40
0.0924900623539491
 40
0.1569277788850789
 40
0.2282085360920659
 40
0.2894089077515647
 40
0.3420696922203051
 40
0.3861903498429299
 40
0.4217735408338573
 40
0.5236918810098915
 40
0.6145479843395962
 40
0.7067593487247504
 40
0.7559111409869668
 40
0.8071360726317764
 40
0.8951475619903156
 40
1.0
 40
1.0
 40
1.0
 40
1.0
 10
238.5296693863696
 20
60.50320868254965
 30
0.0
 10
238.5673052762452
 20
60.53838190496125
 30
0.0
 10
238.6671709099941
 20
60.63171292911756
 30
0.0
 10
238.7859949587292
 20
60.78705816871788
 30
0.0
 10
238.8824060272474
 20
60.97578737352021
 30
0.0
 10
238.9136821823894
 20
61.1617662591327
 30
0.0
 10
238.8842768582158
 20
61.33357782046814
 30
0.0
 10
238.8157818350077
 20
61.48038441097893
 30
0.0
 10
238.7279691879933
 20
61.60159533299277
 30
0.0
 10
238.573678036039
 20
61.76717848017622
 30
0.0
 10
238.305851718083
 20
61.97734272253176
 30
0.0
 10
237.8542815786165
 20
62.23278653299381
 30
0.0
 10
237.4067189418932
 20
62.4394232296648
 30
0.0
 10
236.9978251730094
 20
62.5979274463085
 30
0.0
 10
236.575745573202
 20
62.7404441942433
 30
0.0
 10
235.9974329558228
 20
62.90370076309875
 30
0.0
 10
235.5235543619552
 20
62.97926921302055
 30
0.0
 10
235.2659254389852
 20
63.02035277031936
 30
0.0
  0
LINE
  5
22E
330
1F
100
AcDbEntity
  8
0
  6
Continuous
 62
     7
370
    25
100
AcDbLine
 10
228.7563557171
 20
47.7731815822
 30
0.0
 11
228.7511176541
 21
48.0692650051
 31
0.0
  0
LINE
  5
22F
330
1F
100
AcDbEntity
  8
0
  6
Continuous
 62
     7
370
    25
100
AcDbLine
 10
228.7511176541
 20
48.0692650051
 30
0.0
 11
228.7942141238
 21
48.7208717602
 31
0.0
  0
LINE
  5
230
330
1F
100
AcDbEntity
  8
0
  6
Continuous
 62
     7
370
    25
100
AcDbLine
 10
228.2715688361
 20
50.5499532226
 30
0.0
 11
227.9601543335
 21
50.8785497921
 31
0.0
  0
SPLINE
  5
231
330
1F
100
AcDbEntity
  8
0
  6
Continuous
 62
     7
370
    25
100
AcDbSpline
210
0.0
220
0.0
230
1.0
 70
     8
 71
     3
 72
    20
 73
    16
 74
     0
 42
0.000000001
 43
0.00000001
 40
0.0
 40
0.0
 40
0.0
 40
0.0
 40
0.0208840356930524
 40
0.1453814907232769
 40
0.207457877578707
 40
0.2714500362909257
 40
0.3931455631841341
 40
0.5137637705452784
 40
0.636753113055787
 40
0.699518587041102
 40
0.7644693177495692
 40
0.812314500977215
 40
0.8607030377512609
 40
0.9189076843114311
 40
1.0
 40
1.0
 40
1.0
 40
1.0
 10
231.6629368981252
 20
60.77120449373123
 30
0.0
 10
231.6604182334973
 20
60.82397343651828
 30
0.0
 10
231.6428848781815
 20
61.19131754945831
 30
0.0
 10
231.8044560181522
 20
61.66722593380877
 30
0.0
 10
232.1449560685501
 20
62.15706057002655
 30
0.0
 10
232.6002399291688
 20
62.56655005807489
 30
0.0
 10
233.3494983406066
 20
62.91658471106702
 30
0.0
 10
234.4254881428881
 20
63.03618060980555
 30
0.0
 10
235.3790180548485
 20
62.87568506547361
 30
0.0
 10
236.1137355904368
 20
62.57829119503433
 30
0.0
 10
236.5865278903711
 20
62.28063864212075
 30
0.0
 10
236.9435002473633
 20
61.90972573296782
 30
0.0
 10
237.1383478387386
 20
61.47740471547856
 30
0.0
 10
237.1673770575983
 20
60.97446328900216
 30
0.0
 10
237.1050034222727
 20
60.64071829344821
 30
0.0
 10
237.068692346677
 20
60.44642723281033
 30
0.0
  0
SPLINE
  5
232
330
1F
100
AcDbEntity
  8
0
  6
Continuous
 62
     7
370
    25
100
AcDbSpline
210
0.0
220
0.0
230
1.0
 70
     8
 71
     3
 72
    10
 73
     6
 74
     0
 42
0.000000001
 43
0.00000001
 40
0.0
 40
0.0
 40
0.0
 40
0.0
 40
0.2949476912858702
 40
0.9798112982822474
 40
1.0
 40
1.0
 40
1.0
 40
1.0
 10
237.0714202026652
 20
60.44518867938795
 30
0.0
 10
237.1542451751424
 20
60.4064234785955
 30
0.0
 10
237.4293883486975
 20
60.27764612980178
 30
0.0
 10
237.7045249706465
 20
60.13633536103319
 30
0.0
 10
237.8531582950801
 20
60.04223469847789
 30
0.0
 10
237.8574143110029
 20
60.0395401888872
 30
0.0
  0
ARC
  5
233
330
1F
100
AcDbEntity
  8
0
  6
Continuous
 62
     7
370
    25
100
AcDbCircle
 10
241.081528768
 20
46.231969687
 30
0.0
 40
12.46654291792365
100
AcDbArc
 50
171.5249863735
 51
179.8211981812
  0
SPLINE
  5
234
330
1F
100
AcDbEntity
  8
0
  6
Continuous
 62
     7
370
    25
100
AcDbSpline
210
0.0
220
0.0
230
1.0
 70
     8
 71
     3
 72
    14
 73
    10
 74
     0
 42
0.000000001
 43
0.00000001
 40
0.0
 40
0.0
 40
0.0
 40
0.0
 40
0.0003951393068452
 40
0.0003951393068452
 40
0.0003951393068452
 40
0.0008163352168664
 40
0.0008163352168664
 40
0.0008163352168664
 40
0.0012378579337219
 40
0.0012378579337219
 40
0.0012378579337219
 40
0.0012378579337219
 10
236.6633425398266
 20
60.59043600155609
 30
0.0
 10
236.7088043540578
 20
60.57599913893105
 30
0.0
 10
236.7536919586789
 20
60.56113327836545
 30
0.0
 10
236.797975651354
 20
60.54584949075996
 30
0.0
 10
236.8451789435934
 20
60.52955805142228
 30
0.0
 10
236.8917047566525
 20
60.51278857333837
 30
0.0
 10
236.9375156658942
 20
60.49555976254308
 30
0.0
 10
236.9833620538833
 20
60.47831760871144
 30
0.0
 10
237.0285012894557
 20
60.46061190250694
 30
0.0
 10
237.072894847498
 20
60.44246904581615
 30
0.0
  0
LINE
  5
235
330
1F
100
AcDbEntity
  8
0
  6
Continuous
 62
     7
370
    25
100
AcDbLine
 10
227.9601543335
 20
50.8785497921
 30
0.0
 11
227.3202176592
 21
51.2907814322
 31
0.0
  0
LINE
  5
236
330
1F
100
AcDbEntity
  8
0
  6
Continuous
 62
     7
370
    25
100
AcDbLine
 10
227.014283564
 20
51.6622598191
 30
0.0
 11
227.3202176592
 21
51.2907814322
 31
0.0
  0
SPLINE
  5
237
330
1F
100
AcDbEntity
  8
0
  6
Continuous
 62
     7
370
    25
100
AcDbSpline
210
0.0
220
0.0
230
1.0
 70
     8
 71
     3
 72
    13
 73
     9
 74
     0
 42
0.000000001
 43
0.00000001
 40
0.0
 40
0.0
 40
0.0
 40
0.0
 40
0.1618542298650875
 40
0.3254858841233149
 40
0.4910085196246548
 40
0.6585318472470939
 40
0.8281616954004768
 40
1.0
 40
1.0
 40
1.0
 40
1.0
 10
227.320218070805
 20
51.29078143612617
 30
0.0
 10
227.3006406787899
 20
51.3033444131578
 30
0.0
 10
227.2612709029481
 20
51.32860832927395
 30
0.0
 10
227.199734963182
 20
51.36130202618682
 30
0.0
 10
227.1361783039339
 20
51.39024809989365
 30
0.0
 10
227.0705602012756
 20
51.41476046736065
 30
0.0
 10
227.0031329322164
 20
51.43519553071649
 30
0.0
 10
226.9572483320144
 20
51.44479218570773
 30
0.0
 10
226.934157651837
 20
51.44962154654337
 30
0.0
  0
SPLINE
  5
238
330
1F
100
AcDbEntity
  8
0
  6
Continuous
 62
     7
370
    25
100
AcDbSpline
210
0.0
220
0.0
230
1.0
 70
     8
 71
     3
 72
     9
 73
     5
 74
     0
 42
0.000000001
 43
0.00000001
 40
0.0
 40
0.0
 40
0.0
 40
0.0
 40
0.4907282259506041
 40
1.0
 40
1.0
 40
1.0
 40
1.0
 10
226.9341518245451
 20
51.44959354951236
 30
0.0
 10
226.9100583020673
 20
51.45768908173048
 30
0.0
 10
226.8609608155081
 20
51.47418605865175
 30
0.0
 10
226.8102601216879
 20
51.48897972766799
 30
0.0
 10
226.7844396894006
 20
51.49651372573258
 30
0.0
  0
SPLINE
  5
239
330
1F
100
AcDbEntity
  8
0
  6
Continuous
 62
     7
370
    25
100
AcDbSpline
210
0.0
220
0.0
230
1.0
 70
     8
 71
     3
 72
    14
 73
    10
 74
     0
 42
0.000000001
 43
0.00000001
 40
0.0
 40
0.0
 40
0.0
 40
0.0
 40
0.0310276388093398
 40
0.0622853718693698
 40
0.1248003166924349
 40
0.2498289731770658
 40
0.4998892603621822
 40
0.7606803621577949
 40
1.0
 40
1.0
 40
1.0
 40
1.0
 10
226.2004990001126
 20
51.87062146837847
 30
0.0
 10
226.2064912395174
 20
51.86679042472451
 30
0.0
 10
226.2185201554769
 20
51.85909992722644
 30
0.0
 10
226.2425799635266
 20
51.84366203771949
 30
0.0
 10
226.2848136361729
 20
51.8165915847886
 30
0.0
 10
226.3693762106852
 20
51.76237955999315
 30
0.0
 10
226.4926631801536
 20
51.6833763781284
 30
0.0
 10
226.6387948866074
 20
51.58977020345066
 30
0.0
 10
226.7371615031484
 20
51.52678712705819
 30
0.0
 10
226.784233203835
 20
51.4966476282677
 30
0.0
  0
LINE
  5
23A
330
1F
100
AcDbEntity
  8
0
  6
Continuous
 62
     7
370
    25
100
AcDbLine
 10
224.3979988449
 20
53.0332521454
 30
0.0
 11
224.688966199
 21
52.8451736062
 31
0.0
  0
SPLINE
  5
23B
330
1F
100
AcDbEntity
  8
0
  6
Continuous
 62
     7
370
    25
100
AcDbSpline
210
0.0
220
0.0
230
1.0
 70
     8
 71
     3
 72
     8
 73
     4
 74
     0
 42
0.000000001
 43
0.00000001
 40
0.0
 40
0.0
 40
0.0
 40
0.0
 40
1.0
 40
1.0
 40
1.0
 40
1.0
 10
224.7203545024075
 20
52.82495107606728
 30
0.0
 10
224.7099119965557
 20
52.83177650096469
 30
0.0
 10
224.6994460636659
 20
52.8385194677512
 30
0.0
 10
224.6889582988493
 20
52.84517855540419
 30
0.0
  0
SPLINE
  5
23C
330
1F
100
AcDbEntity
  8
0
  6
Continuous
 62
     7
370
    25
100
AcDbSpline
210
0.0
220
0.0
230
1.0
 70
     8
 71
     3
 72
     8
 73
     4
 74
     0
 42
0.000000001
 43
0.00000001
 40
0.0
 40
0.0
 40
0.0
 40
0.0
 40
1.0
 40
1.0
 40
1.0
 40
1.0
 10
221.9343501235817
 20
54.70320672787761
 30
0.0
 10
221.9933498877523
 20
54.66446606095822
 30
0.0
 10
222.0526374512635
 20
54.62640408365851
 30
0.0
 10
222.1122185247526
 20
54.58902029519781
 30
0.0
  0
SPLINE
  5
23D
330
1F
100
AcDbEntity
  8
0
  6
Continuous
 62
     7
370
    25
100
AcDbSpline
210
0.0
220
0.0
230
1.0
 70
     8
 71
     3
 72
     8
 73
     4
 74
     0
 42
0.000000001
 43
0.00000001
 40
0.0
 40
0.0
 40
0.0
 40
0.0
 40
1.0
 40
1.0
 40
1.0
 40
1.0
 10
221.9095003774841
 20
55.06641690581468
 30
0.0
 10
221.9169745895746
 20
54.94545906510346
 30
0.0
 10
221.9252706934647
 20
54.82438722269344
 30
0.0
 10
221.9343501235835
 20
54.70320672787823
 30
0.0
  0
LWPOLYLINE
  5
23E
330
1F
100
AcDbEntity
  8
0
  6
Continuous
 62
     7
370
    25
100
AcDbPolyline
 90
       17
 70
   128
 43
0.0
 10
221.9095007363
 20
55.0664162404
 10
222.2655816786
 20
56.0790308036
 10
222.6896303411
 20
57.0858187865
 10
223.1774149167
 20
58.0767291678
 10
223.7240638225
 20
59.0418678319
 10
224.3241197
 20
59.9715987052
 10
224.9715920991
 20
60.8566403296
 10
225.6600157593
 20
61.6881554025
 10
226.3825179452
 20
62.4578417396
 10
227.1318849605
 20
63.1580155404
 10
227.9006349986
 20
63.7816861438
 10
228.6810928467
 20
64.3226265304
 10
229.4654663593
 20
64.7754357209
 10
230.2459242075
 20
65.1355927854
 10
231.0146742455
 20
65.3995020833
 10
231.7640412608
 20
65.564529022
 10
231.8734632053
 20
65.5805239319
  0
SPLINE
  5
23F
330
1F
100
AcDbEntity
  8
0
  6
Continuous
 62
     7
370
    25
100
AcDbSpline
210
0.0
220
0.0
230
1.0
 70
     8
 71
     3
 72
    10
 73
     6
 74
     0
 42
0.000000001
 43
0.00000001
 40
0.0
 40
0.0
 40
0.0
 40
0.0
 40
0.2409818396634726
 40
0.5031433556203718
 40
1.0
 40
1.0
 40
1.0
 40
1.0
 10
227.9601543335228
 20
44.17270816886085
 30
0.0
 10
228.0424002045258
 20
44.1210316469403
 30
0.0
 10
228.2141204618703
 20
44.01313680024892
 30
0.0
 10
228.4918418208972
 20
43.88341408978467
 30
0.0
 10
228.6128190679412
 20
43.90619203088966
 30
0.0
 10
228.6920113088567
 20
43.9211025718684
 30
0.0
  0
LINE
  5
240
330
1F
100
AcDbEntity
  8
0
  6
Continuous
 62
     7
370
    25
100
AcDbLine
 10
223.1769802774
 20
53.9017809018
 30
0.0
 11
222.415101575
 21
54.3924153095
 31
0.0
  0
LINE
  5
241
330
1F
100
AcDbEntity
  8
0
  6
Continuous
 62
     7
370
    25
100
AcDbLine
 10
222.415101575
 20
54.3924153095
 30
0.0
 11
221.9343502547
 21
54.7032066856
 31
0.0
  0
LINE
  5
242
330
1F
100
AcDbEntity
  8
0
  6
Continuous
 62
     7
370
    25
100
AcDbLine
 10
227.014283564
 20
43.8969283679
 30
0.0
 11
227.3202176592
 21
44.584939809
 31
0.0
  0
LINE
  5
243
330
1F
100
AcDbEntity
  8
0
  6
Continuous
 62
     7
370
    25
100
AcDbLine
 10
227.3202176592
 20
44.584939809
 30
0.0
 11
227.9601543335
 21
44.1727081689
 31
0.0
  0
SPLINE
  5
244
330
1F
100
AcDbEntity
  8
0
  6
Continuous
 62
     7
370
    25
100
AcDbSpline
210
0.0
220
0.0
230
1.0
 70
     8
 71
     3
 72
    13
 73
     9
 74
     0
 42
0.000000001
 43
0.00000001
 40
0.0
 40
0.0
 40
0.0
 40
0.0
 40
0.1722587823402174
 40
0.3421398270982735
 40
0.5097456257612809
 40
0.6751828993009421
 40
0.8385626189970466
 40
1.0
 40
1.0
 40
1.0
 40
1.0
 10
226.9341461400317
 20
44.86624951437948
 30
0.0
 10
226.9572976639824
 20
44.84812992344646
 30
0.0
 10
227.0032811447313
 20
44.81214085151242
 30
0.0
 10
227.0708221574422
 20
44.76114086809723
 30
0.0
 10
227.1364817721274
 20
44.71281618790657
 30
0.0
 10
227.2000058433778
 20
44.66738518199723
 30
0.0
 10
227.2614362220997
 20
44.62455961423701
 30
0.0
 10
227.3007023890733
 20
44.59809379706156
 30
0.0
 10
227.320218070805
 20
44.58494001851446
 30
0.0
  0
SPLINE
  5
245
330
1F
100
AcDbEntity
  8
0
  6
Continuous
 62
     7
370
    25
100
AcDbSpline
210
0.0
220
0.0
230
1.0
 70
     8
 71
     3
 72
    11
 73
     7
 74
     0
 42
0.000000001
 43
0.00000001
 40
0.0
 40
0.0
 40
0.0
 40
0.0
 40
0.239284509383631
 40
0.5001120454057238
 40
0.7515010915050501
 40
1.0
 40
1.0
 40
1.0
 40
1.0
 10
226.7847657285556
 20
44.91356350659234
 30
0.0
 10
226.7376964965644
 20
44.88524898388613
 30
0.0
 10
226.6393203419714
 20
44.826070753328
 30
0.0
 10
226.493023120386
 20
44.73288285287062
 30
0.0
 10
226.3451823767248
 20
44.63751093689825
 30
0.0
 10
226.2488959140086
 20
44.57297568163
 30
0.0
 10
226.2010310261515
 20
44.54089461156976
 30
0.0
  0
SPLINE
  5
246
330
1F
100
AcDbEntity
  8
0
  6
Continuous
 62
     7
370
    25
100
AcDbSpline
210
0.0
220
0.0
230
1.0
 70
     8
 71
     3
 72
     9
 73
     5
 74
     0
 42
0.000000001
 43
0.00000001
 40
0.0
 40
0.0
 40
0.0
 40
0.0
 40
0.509066935386983
 40
0.9999999999999999
 40
0.9999999999999999
 40
0.9999999999999999
 40
0.9999999999999999
 10
226.7853367321398
 20
44.91286455238058
 30
0.0
 10
226.8109853067638
 20
44.9053718442207
 30
0.0
 10
226.8613688081093
 20
44.89065333150843
 30
0.0
 10
226.9101763196045
 20
44.87426097365626
 30
0.0
 10
226.934137540799
 20
44.86621342317967
 30
0.0
  0
LINE
  5
247
330
1F
100
AcDbEntity
  8
0
  6
Continuous
 62
     7
370
    25
100
AcDbLine
 10
228.6152553123
 20
45.8367431196
 30
0.0
 11
226.9341393559
 21
44.8662555354
 31
0.0
  0
LINE
  5
248
330
1F
100
AcDbEntity
  8
0
  6
Continuous
 62
     7
370
    25
100
AcDbLine
 10
224.9276517047
 20
45.9900768341
 30
0.0
 11
224.7273560511
 21
45.4889194198
 31
0.0
  0
SPLINE
  5
249
330
1F
100
AcDbEntity
  8
0
  6
Continuous
 62
     7
370
    25
100
AcDbSpline
210
0.0
220
0.0
230
1.0
 70
     8
 71
     3
 72
     8
 73
     4
 74
     0
 42
0.000000001
 43
0.00000001
 40
0.0
 40
0.0
 40
0.0
 40
0.0
 40
1.0
 40
1.0
 40
1.0
 40
1.0
 10
224.9272085339996
 20
45.99086058624192
 30
0.0
 10
224.9533838685688
 20
46.01302796322019
 30
0.0
 10
224.9792049085343
 20
46.03566010431181
 30
0.0
 10
225.0046624622427
 20
46.05874482440309
 30
0.0
  0
LINE
  5
24A
330
1F
100
AcDbEntity
  8
0
  6
Continuous
 62
     7
370
    25
100
AcDbLine
 10
225.004662558
 20
46.0587447088
 30
0.0
 11
226.7849553172
 21
44.9129738237
 31
0.0
  0
LINE
  5
24B
330
1F
100
AcDbEntity
  8
0
  6
Continuous
 62
     7
370
    25
100
AcDbLine
 10
228.6150465537
 20
45.9347930548
 30
0.0
 11
228.5270472267
 21
46.0422841232
 31
0.0
  0
LINE
  5
24C
330
1F
100
AcDbEntity
  8
0
  6
Continuous
 62
     7
370
    25
100
AcDbLine
 10
226.69863923
 20
47.0366566261
 30
0.0
 11
225.004662558
 21
46.0587447088
 31
0.0
  0
LINE
  5
24D
330
1F
100
AcDbEntity
  8
0
  6
Continuous
 62
     7
370
    25
100
AcDbLine
 10
226.8413333126
 20
47.0153644644
 30
0.0
 11
226.6990593814
 21
47.0361692486
 31
0.0
  0
LINE
  5
24E
330
1F
100
AcDbEntity
  8
0
  6
Continuous
 62
     7
370
    25
100
AcDbLine
 10
228.5271209837
 20
46.0421799567
 30
0.0
 11
226.8413333126
 21
47.0153644644
 31
0.0
  0
LINE
  5
24F
330
1F
100
AcDbEntity
  8
0
  6
Continuous
 62
     7
370
    25
100
AcDbLine
 10
228.6150465537
 20
45.9914158739
 30
0.0
 11
228.527074227
 21
46.0422069301
 31
0.0
  0
SPLINE
  5
250
330
1F
100
AcDbEntity
  8
0
  6
Continuous
 62
     7
370
    25
100
AcDbSpline
210
0.0
220
0.0
230
1.0
 70
     8
 71
     3
 72
    19
 73
    15
 74
     0
 42
0.000000001
 43
0.00000001
 40
0.0
 40
0.0
 40
0.0
 40
0.0
 40
0.0637853009172641
 40
0.1289628367748405
 40
0.1955871994416645
 40
0.2637095015536399
 40
0.333377557949238
 40
0.4046360709686026
 40
0.4775268158973639
 40
0.5520888236427515
 40
0.6283585584336152
 40
0.7063700889344581
 40
0.8377041806176546
 40
0.9999999999999999
 40
0.9999999999999999
 40
0.9999999999999999
 40
0.9999999999999999
 10
224.1431394280383
 20
46.1593486735938
 30
0.0
 10
224.1638287970449
 20
46.14598953358257
 30
0.0
 10
224.2056591197023
 20
46.11897966504006
 30
0.0
 10
224.2661500933005
 20
46.081457699512
 30
0.0
 10
224.3256342914822
 20
46.04593795842069
 30
0.0
 10
224.3837154509552
 20
46.01295782950427
 30
0.0
 10
224.4402475680428
 20
45.98275139323457
 30
0.0
 10
224.494992622796
 20
45.95563795327404
 30
0.0
 10
224.5477150003867
 20
45.93190633552518
 30
0.0
 10
224.5981566333152
 20
45.91186608208154
 30
0.0
 10
224.6460395517776
 20
45.89574622054409
 30
0.0
 10
224.7010037061526
 20
45.88146825085935
 30
0.0
 10
224.7638350201138
 20
45.87132969360885
 30
0.0
 10
224.8023425357738
 20
45.87780394492464
 30
0.0
 10
224.8236265009658
 20
45.88138240843461
 30
0.0
  0
LINE
  5
251
330
1F
100
AcDbEntity
  8
0
  6
Continuous
 62
     7
370
    25
100
AcDbLine
 10
224.8482621886
 20
45.9074528627
 30
0.0
 11
224.9159368564
 21
45.9790666835
 31
0.0
  0
SPLINE
  5
252
330
1F
100
AcDbEntity
  8
0
  6
Continuous
 62
     7
370
    25
100
AcDbSpline
210
0.0
220
0.0
230
1.0
 70
     8
 71
     3
 72
     9
 73
     5
 74
     0
 42
0.000000001
 43
0.00000001
 40
0.0
 40
0.0
 40
0.0
 40
0.0
 40
0.5232016984460688
 40
1.0
 40
1.0
 40
1.0
 40
1.0
 10
226.5324614503527
 20
46.94072440532668
 30
0.0
 10
226.463437287704
 20
46.96576657044318
 30
0.0
 10
226.3315107995951
 20
47.0136298805029
 30
0.0
 10
226.0900733867765
 20
47.15122801118957
 30
0.0
 10
225.974956438413
 20
47.21683456619796
 30
0.0
  0
LINE
  5
253
330
1F
100
AcDbEntity
  8
0
  6
Continuous
 62
     7
370
    25
100
AcDbLine
 10
222.2454552414
 20
46.9827241288
 30
0.0
 11
222.6969263557
 21
47.0949881017
 31
0.0
  0
LINE
  5
254
330
1F
100
AcDbEntity
  8
0
  6
Continuous
 62
     7
370
    25
100
AcDbLine
 10
222.6969263557
 20
47.0949881017
 30
0.0
 11
224.1431388276
 21
46.1593487687
 31
0.0
  0
SPLINE
  5
255
330
1F
100
AcDbEntity
  8
0
  6
Continuous
 62
     7
370
    25
100
AcDbSpline
210
0.0
220
0.0
230
1.0
 70
     8
 71
     3
 72
     8
 73
     4
 74
     0
 42
0.000000001
 43
0.00000001
 40
0.0
 40
0.0
 40
0.0
 40
0.0
 40
1.0
 40
1.0
 40
1.0
 40
1.0
 10
222.4162438120551
 20
46.58797447581048
 30
0.0
 10
222.3591185431317
 20
46.7197606596044
 30
0.0
 10
222.3021900514149
 20
46.85134488126349
 30
0.0
 10
222.2454559334662
 20
46.98272394816316
 30
0.0
  0
LINE
  5
256
330
1F
100
AcDbEntity
  8
0
  6
Continuous
 62
     7
370
    25
100
AcDbLine
 10
224.0346278148
 20
47.8672267165
 30
0.0
 11
222.6969263557
 21
47.0949881017
 31
0.0
  0
LINE
  5
257
330
1F
100
AcDbEntity
  8
0
  6
Continuous
 62
     7
370
    25
100
AcDbLine
 10
225.0176562997
 20
47.7694733136
 30
0.0
 11
224.0346278148
 21
47.8672267165
 31
0.0
  0
LINE
  5
258
330
1F
100
AcDbEntity
  8
0
  6
Continuous
 62
     7
370
    25
100
AcDbLine
 10
225.9749564384
 20
47.2168345662
 30
0.0
 11
225.0176553118
 21
47.7694727433
 31
0.0
  0
SPLINE
  5
259
330
1F
100
AcDbEntity
  8
0
  6
Continuous
 62
     7
370
    25
100
AcDbSpline
210
0.0
220
0.0
230
1.0
 70
     8
 71
     3
 72
     8
 73
     4
 74
     0
 42
0.000000001
 43
0.00000001
 40
0.0
 40
0.0
 40
0.0
 40
0.0
 40
1.0
 40
1.0
 40
1.0
 40
1.0
 10
222.2454559334662
 20
46.98272394816316
 30
0.0
 10
222.2423185957161
 20
47.01794025503567
 30
0.0
 10
222.2403261918181
 20
47.05358451126337
 30
0.0
 10
222.2395447944461
 20
47.08968141325824
 30
0.0
  0
LINE
  5
25A
330
1F
100
AcDbEntity
  8
0
  6
Continuous
 62
     7
370
    25
100
AcDbLine
 10
223.0506312695
 20
47.5579111279
 30
0.0
 11
222.239545463
 21
47.0896812584
 31
0.0
  0
SPLINE
  5
25B
330
1F
100
AcDbEntity
  8
0
  6
Continuous
 62
     7
370
    25
100
AcDbSpline
210
0.0
220
0.0
230
1.0
 70
     8
 71
     3
 72
     8
 73
     4
 74
     0
 42
0.000000001
 43
0.00000001
 40
0.0000004089325119
 40
0.0000004089325119
 40
0.0000004089325119
 40
0.0000004089325119
 40
0.0015399868451459
 40
0.0015399868451459
 40
0.0015399868451459
 40
0.0015399868451459
 10
223.0506303269348
 20
47.55791112461436
 30
0.0
 10
223.2891068949581
 20
47.65228751043071
 30
0.0
 10
223.5275538526267
 20
47.74671612236092
 30
0.0
 10
223.7659625914771
 20
47.84120950532338
 30
0.0
  0
LINE
  5
25C
330
1F
100
AcDbEntity
  8
0
  6
Continuous
 62
     7
370
    25
100
AcDbLine
 10
223.7659620704
 20
47.8412096524
 30
0.0
 11
223.7903585103
 21
47.8462036789
 31
0.0
  0
LINE
  5
25D
330
1F
100
AcDbEntity
  8
0
  6
Continuous
 62
     7
370
    25
100
AcDbLine
 10
224.0346278148
 20
47.8672267165
 30
0.0
 11
223.7903591688
 21
47.8462036788
 31
0.0
  0
SPLINE
  5
25E
330
1F
100
AcDbEntity
  8
0
  6
Continuous
 62
     7
370
    25
100
AcDbSpline
210
0.0
220
0.0
230
1.0
 70
     8
 71
     3
 72
     8
 73
     4
 74
     0
 42
0.000000001
 43
0.00000001
 40
0.0
 40
0.0
 40
0.0
 40
0.0
 40
1.0
 40
1.0
 40
1.0
 40
1.0
 10
225.0176545059851
 20
47.76947349791035
 30
0.0
 10
225.0482625401083
 20
47.75453349010423
 30
0.0
 10
225.0788140410802
 20
47.73965653271085
 30
0.0
 10
225.1093079791948
 20
47.72484296902993
 30
0.0
  0
ARC
  5
25F
330
1F
100
AcDbEntity
  8
0
  6
Continuous
 62
     7
370
    25
100
AcDbCircle
 10
225.8731506421
 20
53.2701538694
 30
0.0
 40
6.625640594020856
100
AcDbArc
 50
283.7328304029
 51
294.8489571919
  0
LINE
  5
260
330
1F
100
AcDbEntity
  8
0
  6
Continuous
 62
     7
370
    18
100
AcDbLine
 10
254.7649921993
 20
39.1919423666
 30
0.0
 11
254.7190317195
 21
39.3603021366
 31
0.0
  0
LINE
  5
261
330
1F
100
AcDbEntity
  8
0
  6
Continuous
 62
     7
370
    18
100
AcDbLine
 10
254.3655052713
 20
36.6744912149
 30
0.0
 11
253.757367077
 21
36.5757831604
 31
0.0
  0
LINE
  5
262
330
1F
100
AcDbEntity
  8
0
  6
Continuous
 62
     7
370
    18
100
AcDbLine
 10
255.3011231614
 20
38.8569872443
 30
0.0
 11
255.2928745621
 21
38.8872025398
 31
0.0
  0
LINE
  5
263
330
1F
100
AcDbEntity
  8
0
  6
Continuous
 62
     7
370
    18
100
AcDbLine
 10
253.757367077
 20
36.5757831604
 30
0.0
 11
253.588594632
 21
36.4252792459
 31
0.0
  0
LINE
  5
264
330
1F
100
AcDbEntity
  8
0
  6
Continuous
 62
     7
370
    18
100
AcDbLine
 10
254.5102342563
 20
36.8035544231
 30
0.0
 11
254.3655052713
 21
36.6744912149
 31
0.0
  0
LINE
  5
265
330
1F
100
AcDbEntity
  8
0
  6
Continuous
 62
     7
370
    18
100
AcDbLine
 10
262.181163908
 20
30.8994852607
 30
0.0
 11
261.7671343417
 21
31.1384994418
 31
0.0
  0
LINE
  5
266
330
1F
100
AcDbEntity
  8
0
  6
Continuous
 62
     7
370
    18
100
AcDbLine
 10
261.3519777793
 20
45.4095553005
 30
0.0
 11
261.4615961347
 21
46.2082453109
 31
0.0
  0
LINE
  5
267
330
1F
100
AcDbEntity
  8
0
  6
Continuous
 62
     7
370
    18
100
AcDbLine
 10
261.4615961347
 20
46.2082453109
 30
0.0
 11
261.5847770495
 21
46.4227657524
 31
0.0
  0
LINE
  5
268
330
1F
100
AcDbEntity
  8
0
  6
Continuous
 62
     7
370
    18
100
AcDbLine
 10
261.2463450177
 20
45.2255950279
 30
0.0
 11
261.3519777793
 21
45.4095553005
 31
0.0
  0
LINE
  5
269
330
1F
100
AcDbEntity
  8
0
  6
Continuous
 62
     7
370
    18
100
AcDbLine
 10
262.661992525
 20
31.1793256109
 30
0.0
 11
262.2479629586
 21
31.418339792
 31
0.0
  0
LINE
  5
26A
330
1F
100
AcDbEntity
  8
0
  6
Continuous
 62
     7
370
    18
100
AcDbLine
 10
255.1302953989
 20
29.4271158929
 30
0.0
 11
254.8013458317
 21
28.9158297623
 31
0.0
  0
LINE
  5
26B
330
1F
100
AcDbEntity
  8
0
  6
Continuous
 62
     7
370
    18
100
AcDbLine
 10
254.8013458317
 20
28.9158297623
 30
0.0
 11
254.7567630271
 21
28.6947742274
 31
0.0
  0
LWPOLYLINE
  5
26C
330
1F
100
AcDbEntity
  8
0
  6
Continuous
 62
     7
370
    18
100
AcDbPolyline
 90
       36
 70
   128
 43
0.0
 10
240.236106873
 20
31.090525895
 10
239.9072139406
 20
31.4474275421
 10
239.4363052266
 20
32.082684861
 10
239.0315881381
 20
32.7977986411
 10
238.695804196
 20
33.587925237
 10
238.431228013
 20
34.4477122974
 10
238.2396514888
 20
35.3713362194
 10
238.1223726144
 20
36.3525404581
 10
238.0801862533
 20
37.3846788555
 10
238.1133768965
 20
38.4607592674
 10
238.2217212975
 20
39.57349367
 10
238.4044845206
 20
40.7153438715
 10
238.6604285021
 20
41.8785756054
 10
238.9878192945
 20
43.0553087375
 10
239.3844402368
 20
44.2375738247
 10
239.8476044674
 20
45.4173611636
 10
240.3741746803
 20
46.5866804847
 10
240.9605828815
 20
47.7376100006
 10
241.6028587059
 20
48.8623541986
 10
242.2966498331
 20
49.953294029
 10
243.0372582064
 20
51.0030405149
 10
243.8196663752
 20
52.0044826583
 10
244.6385743734
 20
52.9508361065
 10
245.4884352806
 20
53.8356910582
 10
246.3634927592
 20
54.6530537047
 10
247.2578190855
 20
55.3973879571
 10
248.1653563908
 20
56.0636514217
 10
249.0799572445
 20
56.6473309954
 10
249.9954263891
 20
57.144473803
 10
250.9055626404
 20
57.5517113857
 10
251.8042011161
 20
57.8662856003
 10
252.6852546424
 20
58.0860649175
 10
253.5427553244
 20
58.2095615766
 10
254.370894141
 20
58.2359384725
 10
255.1640622686
 20
58.1650178032
 10
255.8626159896
 20
58.013003405
  0
LWPOLYLINE
  5
26D
330
1F
100
AcDbEntity
  8
0
  6
Continuous
 62
     7
370
    18
100
AcDbPolyline
 90
       21
 70
   128
 43
0.0
 10
238.7871581487
 20
37.4477633702
 10
238.8249460911
 20
36.4284547569
 10
238.9380445249
 20
35.45992469
 10
239.125659904
 20
34.5489666491
 10
239.3864771149
 20
33.7019707371
 10
239.7186660625
 20
32.9248776718
 10
240.1198968164
 20
32.2231380995
 10
240.5873547572
 20
31.6016747605
 10
241.1177616505
 20
31.0648465555
 10
241.7073960611
 20
30.6164177449
 10
242.3521236468
 20
30.2595362724
 10
243.0474208652
 20
29.9967033446
 10
243.7884105358
 20
29.8297627814
 10
244.5698960838
 20
29.759885803
 10
245.3863957847
 20
29.7875634222
 10
246.2321819478
 20
29.9126001672
 10
247.1013222393
 20
30.1341196859
 10
247.9877203482
 20
30.4505684493
 10
248.8851587501
 20
30.8597259902
 10
249.7873426236
 20
31.3587226508
 10
250.2486787347
 20
31.6476335877
  0
LWPOLYLINE
  5
26E
330
1F
100
AcDbEntity
  8
0
  6
Continuous
 62
     7
370
    18
100
AcDbPolyline
 90
       41
 70
   128
 43
0.0
 10
260.315693294
 20
49.1079564081
 10
260.3267864762
 20
49.3613075243
 10
260.3267864762
 20
50.4033447288
 10
260.2512771044
 20
51.3981367063
 10
260.1007878305
 20
52.3387055897
 10
259.8763743015
 20
53.2184540743
 10
259.5796110971
 20
54.0312114262
 10
259.2125792181
 20
54.7712770204
 10
258.7778535735
 20
55.4334593154
 10
258.2784832244
 20
56.0131134979
 10
257.717970969
 20
56.5061749454
 10
257.1002483179
 20
56.9091831827
 10
256.4296478356
 20
57.2193130639
 10
255.7108735055
 20
57.4343880831
 10
254.9489674735
 20
57.5529007199
 10
254.1492734992
 20
57.5740187164
 10
253.3174010645
 20
57.4975947771
 10
252.4591848739
 20
57.3241644808
 10
251.5806450119
 20
57.054943813
 10
250.6879437266
 20
56.6918224687
 10
249.7873426236
 20
56.2373467456
 10
248.8851587501
 20
55.6947040778
 10
247.9877203482
 20
55.0677012952
 10
247.1013222393
 20
54.3607365861
 10
246.2321819478
 20
53.578768084
 10
245.3863957847
 20
52.727280911
 10
244.5698960838
 20
51.8122480417
 10
243.7884105358
 20
50.8400870552
 10
243.0474208652
 20
49.8176180287
 10
242.3521236468
 20
48.7520120201
 10
241.7073960611
 20
47.6507439219
 10
241.1177616505
 20
46.5215377115
 10
240.5873547572
 20
45.3723147427
 10
240.1198968164
 20
44.2111359535
 10
239.7186660625
 20
43.0461452133
 10
239.3864771149
 20
41.8855149529
 10
239.125659904
 20
40.737385899
 10
238.9380445249
 20
39.6098117523
 10
238.8249460911
 20
38.5107010132
 10
238.7871581487
 20
37.4477633702
 10
238.7871581487
 20
37.4477633702
  0
LWPOLYLINE
  5
26F
330
1F
100
AcDbEntity
  8
0
  6
Continuous
 62
     7
370
    18
100
AcDbPolyline
 90
       21
 70
   128
 43
0.0
 10
254.6882217147
 20
47.2406201409
 10
254.0315010046
 20
46.817334139
 10
253.3836613434
 20
46.3114336096
 10
252.7534635544
 20
45.7297601144
 10
252.1494302327
 20
45.0801804362
 10
251.5797296351
 20
44.3714781057
 10
251.052065909
 20
43.6132375595
 10
250.5735750427
 20
42.8157129699
 10
250.1507275654
 20
41.9896884245
 10
249.7892422775
 20
41.1463361074
 10
249.4940068964
 20
40.2970592714
 10
249.2690145067
 20
39.4533439536
 10
249.1173079133
 20
38.6265998537
 10
249.0409378238
 20
37.8280067482
 10
249.0409378238
 20
37.0683647292
 10
249.1173079133
 20
36.3579466521
 10
249.2690145067
 20
35.7063592567
 10
249.4940068964
 20
35.1224146226
 10
249.7892422775
 20
34.614009302
 10
250.1507275654
 20
34.1880190145
 10
250.2760943541
 20
34.0731151866
  0
ARC
  5
270
330
1F
100
AcDbEntity
  8
0
  6
Continuous
 62
     7
370
    18
100
AcDbCircle
 10
257.1253555493
 20
43.6498091148
 30
0.0
 40
4.339763260040926
100
AcDbArc
 50
75.2847666871
 51
124.1652887532
  0
LWPOLYLINE
  5
271
330
1F
100
AcDbEntity
  8
0
  6
Continuous
 62
     7
370
    18
100
AcDbPolyline
 90
       33
 70
   128
 43
0.0
 10
240.7228628021
 20
38.5652218808
 10
240.7605677679
 20
39.528749541
 10
240.873360637
 20
40.5275896644
 10
241.0602799345
 20
41.5532211643
 10
241.3197300071
 20
42.5968929736
 10
241.6494974865
 20
43.6497012302
 10
242.0467690708
 20
44.7026636103
 10
242.5081552312
 20
45.7467963234
 10
243.0297198474
 20
46.7731920568
 10
243.607013134
 20
47.7730933571
 10
244.2351098366
 20
48.7379694336
 10
244.9086507201
 20
49.6595880177
 10
245.6218899837
 20
50.5300868427
 10
246.3687423467
 20
51.3420388483
 10
247.1428357326
 20
52.0885168156
 10
247.9375660924
 20
52.7631523923
 10
248.7461528872
 20
53.3601886553
 10
249.5616976986
 20
53.8745329564
 10
250.37724251
 20
54.3017966518
 10
251.1858293048
 20
54.6383348305
 10
251.9805596646
 20
54.8812753959
 10
252.7546530505
 20
55.0285466281
 10
253.5015054135
 20
55.0788920063
 10
254.2147446771
 20
55.0318817066
 10
254.8882855606
 20
54.8879168737
 10
255.5163822632
 20
54.6482258141
 10
256.0936755498
 20
54.3148531551
 10
256.615240166
 20
53.8906431096
 10
257.0766263264
 20
53.3792155184
 10
257.4738979107
 20
52.7849331462
 10
257.8036653901
 20
52.1128663171
 10
258.0631154627
 20
51.3687491853
 10
258.2027117518
 20
50.8034488481
  0
LWPOLYLINE
  5
272
330
1F
100
AcDbEntity
  8
0
  6
Continuous
 62
     7
370
    18
100
AcDbPolyline
 90
       16
 70
   128
 43
0.0
 10
247.7035649785
 20
32.6164223242
 10
247.1428357326
 20
32.4542699155
 10
246.3687423467
 20
32.3069986834
 10
245.6218899837
 20
32.2566533052
 10
244.9086507201
 20
32.3036636049
 10
244.2351098366
 20
32.4476284378
 10
243.607013134
 20
32.6873194973
 10
243.0297198474
 20
33.0206921564
 10
242.5081552312
 20
33.4449022019
 10
242.0467690708
 20
33.9563297931
 10
241.6494974865
 20
34.5506121653
 10
241.3197300071
 20
35.2226789944
 10
241.0602799345
 20
35.9667961262
 10
240.873360637
 20
36.7766151989
 10
240.7605677679
 20
37.6452274475
 10
240.7228628021
 20
38.5652218808
  0
ARC
  5
273
330
1F
100
AcDbEntity
  8
0
  6
Continuous
 62
     7
370
    18
100
AcDbCircle
 10
254.351135907
 20
40.9028888943
 30
0.0
 40
10.59060585271987
100
AcDbArc
 50
307.1291519848
 51
352.8762240935
  0
ARC
  5
274
330
1F
100
AcDbEntity
  8
0
  6
Continuous
 62
     7
370
    18
100
AcDbCircle
 10
254.3507053726
 20
40.9031374309
 30
0.0
 40
9.950605870849287
100
AcDbArc
 50
309.8370652839
 51
350.1683106127
  0
LWPOLYLINE
  5
275
330
1F
100
AcDbEntity
  8
0
  6
Continuous
 62
     7
370
    18
100
AcDbPolyline
 90
       26
 70
   128
 43
0.0
 10
254.3346689247
 20
48.6695324803
 10
253.6206408895
 20
48.2133872399
 10
252.9147030735
 20
47.6745192278
 10
252.2248541584
 20
47.0590326894
 10
251.5589100797
 20
46.3739028078
 10
250.924416605
 20
45.6268917749
 10
250.3285625707
 20
44.8264637239
 10
249.7780993752
 20
43.9816876818
 10
249.2792637642
 20
43.1021351999
 10
248.8377083545
 20
42.1977721845
 10
248.4584354502
 20
41.2788454036
 10
248.1457427127
 20
40.3557667117
 10
247.903172453
 20
39.4389942327
 10
247.7334740944
 20
38.538916487
 10
247.6385699283
 20
37.6657311493
 10
247.6195353578
 20
36.8293318833
 10
247.6765857271
 20
36.0391952249
 10
247.8090743454
 20
35.3042735462
 10
248.0155010483
 20
34.6328945322
 10
248.2935266858
 20
34.0326647422
 10
248.6400007809
 20
33.5103851014
 10
249.0509974205
 20
33.0719729498
 10
249.5218603657
 20
32.7223958778
 10
250.0472544181
 20
32.4656150668
 10
250.6212266648
 20
32.3045396559
 10
250.6228684162
 20
32.3042296132
  0
LWPOLYLINE
  5
276
330
1F
100
AcDbEntity
  8
0
  6
Continuous
 62
     7
370
    18
100
AcDbPolyline
 90
       11
 70
   128
 43
0.0
 10
259.9329524943
 20
48.4315161359
 10
259.8316294949
 20
48.5444277665
 10
259.3900740852
 20
48.9389817575
 10
258.8912384742
 20
49.2425909021
 10
258.3407752787
 20
49.4518156668
 10
257.7449212444
 20
49.5642852935
 10
257.1104277697
 20
49.5787257536
 10
256.444483691
 20
49.4949729681
 10
255.7546347759
 20
49.3139769027
 10
255.0486969599
 20
49.0377864615
 10
254.3346689247
 20
48.6695324803
  0
LWPOLYLINE
  5
277
330
1F
100
AcDbEntity
  8
0
  6
Continuous
 62
     7
370
    18
100
AcDbPolyline
 90
       25
 70
   128
 43
0.0
 10
253.6275620276
 20
49.8942775488
 10
252.8764255856
 20
49.4166667348
 10
252.1329967485
 20
48.8559799499
 10
251.4049041782
 20
48.2179694277
 10
250.6996191445
 20
47.5091824802
 10
250.0243788868
 20
46.7368929215
 10
249.3861119521
 20
45.9090237444
 10
248.7913682238
 20
45.0340717468
 10
248.2462501048
 20
44.1210149512
 10
247.7563519306
 20
43.1792217355
 10
247.3266997129
 20
42.2183559708
 10
246.961703395
 20
41.248278736
 10
246.6651074609
 20
40.2789431883
 10
246.439956362
 20
39.3202970373
 10
246.2885589553
 20
38.3821758936
 10
246.2124700643
 20
37.4742073565
 10
246.2124700643
 20
36.6057079739
 10
246.2885589553
 20
35.7855898004
 10
246.439956362
 20
35.0222683817
 10
246.6651074609
 20
34.3235761564
 10
246.961703395
 20
33.696682985
 10
247.3266997129
 20
33.1480215287
 10
247.7563519306
 20
32.6832216556
 10
248.2462501048
 20
32.3070528322
 10
248.4035559729
 20
32.2124691879
  0
LWPOLYLINE
  5
278
330
1F
100
AcDbEntity
  8
0
  6
Continuous
 62
     7
370
    18
100
AcDbPolyline
 90
        9
 70
   128
 43
0.0
 10
258.8725687374
 20
50.4167439366
 10
258.4637558314
 20
50.6178222591
 10
257.8690121031
 20
50.8060977645
 10
257.2307451684
 20
50.8970396246
 10
256.5555049107
 20
50.8897133765
 10
255.850219877
 20
50.7841955569
 10
255.1221273067
 20
50.581568291
 10
254.3786984696
 20
50.2839104109
 10
253.6275620276
 20
49.8942775488
  0
LWPOLYLINE
  5
279
330
1F
100
AcDbEntity
  8
0
  6
Continuous
 62
     7
370
    18
100
AcDbPolyline
 90
        9
 70
   128
 43
0.0
 10
243.5512903904
 20
38.5652218808
 10
243.5893838975
 20
37.7198281552
 10
243.7032725847
 20
36.9270905135
 10
243.8917888526
 20
36.1951442119
 10
244.1529978976
 20
35.5314998587
 10
244.4842187847
 20
34.9429670802
 10
244.8820540831
 20
34.4355854113
 10
245.3424201581
 20
34.0145609838
 10
245.7280621756
 20
33.7568565861
  0
LWPOLYLINE
  5
27A
330
1F
100
AcDbEntity
  8
0
  6
Continuous
 62
     7
370
    18
100
AcDbPolyline
 90
       25
 70
   128
 43
0.0
 10
256.211636347
 20
51.9528300863
 10
256.0912300448
 20
52.0185153399
 10
255.520566655
 20
52.2547947069
 10
254.9032687652
 20
52.3945827431
 10
254.2456712442
 20
52.4364440508
 10
253.5545213745
 20
52.3799497612
 10
252.8369116803
 20
52.2256786815
 10
252.1002053479
 20
51.9752153057
 10
251.3519623858
 20
51.6311284809
 10
250.5998605998
 20
51.1969493616
 10
249.8516176377
 20
50.677133251
 10
249.1149113052
 20
50.0770136006
 10
248.3973016111
 20
49.4027501633
 10
247.7061517413
 20
48.6612597989
 10
247.0485542203
 20
47.8601525544
 10
246.4312563305
 20
47.0076475452
 10
245.8605929408
 20
46.112494253
 10
245.3424201581
 20
45.183877189
 10
244.8820540831
 20
44.2313254053
 10
244.4842187847
 20
43.264612878
 10
244.1529978976
 20
42.2936606032
 10
243.8917888526
 20
41.3284307061
 10
243.7032725847
 20
40.3788281546
 10
243.5893838975
 20
39.4545974335
 10
243.5512903904
 20
38.5652218808
  0
LWPOLYLINE
  5
27B
330
1F
100
AcDbEntity
  8
0
  6
Continuous
 62
     7
370
    18
100
AcDbPolyline
 90
       30
 70
   128
 43
0.0
 10
232.1403546198
 20
40.8766772493
 10
232.1783631746
 20
41.9597893817
 10
232.2921273969
 20
43.0793854077
 10
232.4808715212
 20
44.2278183753
 10
232.7433054589
 20
45.3972425198
 10
233.0776366518
 20
46.5796697271
 10
233.4815819261
 20
47.7670231447
 10
233.9523813218
 20
48.9511923148
 10
234.4868185074
 20
50.1240865943
 10
235.0812438294
 20
51.2776952291
 10
235.7315953852
 20
52.4041371632
 10
236.433431292
 20
53.4957188299
 10
237.1819573459
 20
54.5449820591
 10
237.9720609366
 20
55.5447609184
 10
238.7983436455
 20
56.4882248662
 10
239.6551617462
 20
57.3689287488
 10
240.5366622596
 20
58.1808571883
 10
241.4368237841
 20
58.9184641236
 10
242.3494969957
 20
59.5767098787
 10
243.2684476182
 20
60.1510996573
 10
244.1873982407
 20
60.6377076835
 10
245.1000714523
 20
61.0332119888
 10
246.0002329768
 20
61.3349094275
 10
246.8817334903
 20
61.5407398171
 10
247.7385515909
 20
61.6492970566
 10
248.5648342998
 20
61.6598388178
 10
249.3549378905
 20
61.5722941469
 10
250.1034639444
 20
61.3872607039
 10
250.8052998513
 20
61.1060015271
 10
251.1365582755
 20
60.9302327931
  0
LWPOLYLINE
  5
27C
330
1F
100
AcDbEntity
  8
0
  6
Continuous
 62
     7
370
    18
100
AcDbPolyline
 90
       11
 70
   128
 43
0.0
 10
235.4003369609
 20
33.6713443993
 10
235.0812438294
 20
33.8711376761
 10
234.4868185074
 20
34.3384374427
 10
233.9523813218
 20
34.8942836818
 10
233.4815819261
 20
35.53487944
 10
233.0776366518
 20
36.2558475712
 10
232.7433054589
 20
37.0522641996
 10
232.4808715212
 20
37.9186885692
 10
232.2921273969
 20
38.8492022094
 10
232.1783631746
 20
39.8374488602
 10
232.1403546198
 20
40.8766772493
  0
LWPOLYLINE
  5
27D
330
1F
100
AcDbEntity
  8
0
  6
Continuous
 62
     7
370
    18
100
AcDbPolyline
 90
       23
 70
   128
 43
0.0
 10
254.3346689247
 20
47.852992295
 10
253.66171678
 20
47.4208638466
 10
252.9972274261
 20
46.9068877893
 10
252.3495571343
 20
46.3175284141
 10
251.7268507831
 20
45.6601952876
 10
251.1369391251
 20
44.9431561878
 10
250.5872411583
 20
44.1754282729
 10
250.0846689658
 20
43.3666653509
 10
249.6355429285
 20
42.5270385901
 10
249.2455113825
 20
41.6671072484
 10
248.9194788382
 20
40.7976844577
 10
248.6615450644
 20
39.929704149
 10
248.4749550392
 20
39.0740822725
 10
248.3620535102
 20
38.2415778273
 10
248.324260958
 20
37.442660353
 10
248.3620535102
 20
36.6873772306
 10
248.4749550392
 20
35.9852261162
 10
248.6615450644
 20
35.3450364972
 10
248.9194788382
 20
34.7748601848
 10
249.2455113825
 20
34.2818665572
 10
249.6355429285
 20
33.8722560531
 10
250.0846689658
 20
33.5511791774
 10
250.3517351056
 20
33.4152206155
  0
LWPOLYLINE
  5
27E
330
1F
100
AcDbEntity
  8
0
  6
Continuous
 62
     7
370
    18
100
AcDbPolyline
 90
        9
 70
   128
 43
0.0
 10
258.8352700935
 20
48.1107266086
 10
258.5846688836
 20
48.2736108561
 10
258.082096691
 20
48.5021162758
 10
257.5323987242
 20
48.6351764275
 10
256.9424870663
 20
48.6711180246
 10
256.3197807151
 20
48.6094897016
 10
255.6721104233
 20
48.4510648748
 10
255.0076210694
 20
48.1978378546
 10
254.3346689247
 20
47.852992295
  0
LWPOLYLINE
  5
27F
330
1F
100
AcDbEntity
  8
0
  6
Continuous
 62
     7
370
    18
100
AcDbPolyline
 90
       15
 70
   128
 43
0.0
 10
236.7644360583
 20
37.5410406215
 10
236.7571953614
 20
37.5758659386
 10
236.6146112558
 20
38.4797919363
 10
236.547610279
 20
39.4380030442
 10
236.5567107056
 20
40.4430891684
 10
236.6418420712
 20
41.4872779093
 10
236.80234649
 20
42.5624944485
 10
237.0369826054
 20
43.6604241914
 10
237.3439361275
 20
44.7725765499
 10
237.7208323447
 20
45.8903505314
 10
238.1647578561
 20
47.0051033681
 10
238.6722790106
 20
48.1082136343
 10
239.2394715415
 20
49.1911508255
 10
239.8619482253
 20
50.2455399953
 10
240.5348970773
 20
51.2632290527
  0
LWPOLYLINE
  5
280
330
1F
100
AcDbEntity
  8
0
  6
Continuous
 62
     7
370
    18
100
AcDbPolyline
 90
       19
 70
   128
 43
0.0
 10
237.2762318252
 20
34.6111129206
 10
237.1274514743
 20
34.822885758
 10
236.729113048
 20
35.5089811966
 10
236.401254689
 20
36.2722885645
 10
236.1463591103
 20
37.1070258293
 10
235.9663571643
 20
38.0068718424
 10
235.8626120382
 20
38.9650111124
 10
235.8359087169
 20
39.9741866345
 10
235.8864506908
 20
41.026755904
 10
236.0138540284
 20
42.1147464778
 10
236.2171546205
 20
43.2299188548
 10
236.4948121316
 20
44.3638262428
 10
236.8447244876
 20
45.5078820723
 10
237.2642403882
 20
46.6534203571
 10
237.7501836734
 20
47.7917656543
 10
238.2988730793
 20
48.9142969414
 10
238.9061538486
 20
50.0125118728
 10
239.5674260479
 20
51.0780933171
 10
240.2776821049
 20
52.1029709517
  0
ARC
  5
281
330
1F
100
AcDbEntity
  8
0
  6
Continuous
 62
     7
370
    18
100
AcDbCircle
 10
253.5055946098
 20
44.110835233
 30
0.0
 40
14.59972304561304
100
AcDbArc
 50
110.1861656722
 51
139.1704809678
  0
LWPOLYLINE
  5
282
330
1F
100
AcDbEntity
  8
0
  6
Continuous
 62
     7
370
    18
100
AcDbPolyline
 90
       13
 70
   128
 43
0.0
 10
241.6218751664
 20
53.775134469
 10
242.4497848095
 20
54.66100936
 10
243.3056149287
 20
55.4771286478
 10
244.1827005598
 20
56.2171359631
 10
245.074211279
 20
56.8752676384
 10
245.9732042163
 20
57.4464000408
 10
246.8726784673
 20
57.9260840262
 10
247.7656291764
 20
58.3105837651
 10
248.6451023605
 20
58.5969068705
 10
249.5042492392
 20
58.7828213136
 10
250.3363785062
 20
58.8668810368
 10
251.1350105776
 20
58.8484298931
 10
251.2608386767
 20
58.8357875581
  0
LINE
  5
283
330
1F
100
AcDbEntity
  8
0
  6
Continuous
 62
     7
370
    18
100
AcDbLine
 10
227.6539904063
 20
51.249284848
 30
0.0
 11
227.9601543335
 21
50.8785497921
 31
0.0
  0
LINE
  5
284
330
1F
100
AcDbEntity
  8
0
  6
Continuous
 62
     7
370
    18
100
AcDbLine
 10
227.6539904063
 20
43.4851747003
 30
0.0
 11
227.9601543335
 21
44.1727081689
 31
0.0
  0
LINE
  5
285
330
1F
100
AcDbEntity
  8
0
  6
Continuous
 62
     7
370
    18
100
AcDbLine
 10
228.6960646503
 20
44.5975401519
 30
0.0
 11
227.9601615775
 21
44.1727123507
 31
0.0
  0
LINE
  5
286
330
1F
100
AcDbEntity
  8
0
  6
Continuous
 62
     7
370
    18
100
AcDbLine
 10
228.6294890933
 20
45.3407661197
 30
0.0
 11
227.3202176592
 21
44.584939809
 31
0.0
  0
LINE
  5
287
330
1F
100
AcDbEntity
  8
0
  6
Continuous
 62
     7
370
    18
100
AcDbLine
 10
224.1431388276
 20
46.1593487687
 30
0.0
 11
223.8466515534
 21
45.6632871508
 31
0.0
  0
LINE
  5
288
330
1F
100
AcDbEntity
  8
0
  6
Continuous
 62
     7
370
    18
100
AcDbLine
 10
225.9749564384
 20
47.2168345662
 30
0.0
 11
224.1431994137
 21
46.1593837443
 31
0.0
  0
LINE
  5
289
330
1F
100
AcDbEntity
  8
0
  6
Continuous
 62
     7
370
    18
100
AcDbLine
 10
225.9749564384
 20
47.2168345662
 30
0.0
 11
226.096266593
 21
47.1550840529
 31
0.0
  0
OLE2FRAME
  5
28A
330
1F
100
AcDbEntity
  8
0
100
AcDbOle2Frame
 70
     2
  3
Paintbrush-Bild
 10
13.8511154363
 20
38.264191557
 30
0.0
 11
51.6290888628
 21
31.9806341108
 31
0.0
 71
     2
 72
     0
 73
     1
 90
    12928
310
80552BED0767C5B32B40DDAF6807D121434000000000000000006FFBDDFB85D0
310
4940DDAF6807D121434000000000000000006FFBDDFB85D04940416F4BD60AFB
310
3F4000000000000000002BED0767C5B32B40416F4BD60AFB3F40000000000000
310
0000000000000100000000010000010000000100000000000100000000320000
310
D0CF11E0A1B11AE1000000000000000000000000000000003E000300FEFF0900
310
0600000000000000000000000100000001000000000000000010000002000000
310
01000000FEFFFFFF0000000000000000FFFFFFFFFFFFFFFFFFFFFFFFFFFFFFFF
310
FFFFFFFFFFFFFFFFFFFFFFFFFFFFFFFFFFFFFFFFFFFFFFFFFFFFFFFFFFFFFFFF
310
FFFFFFFFFFFFFFFFFFFFFFFFFFFFFFFFFFFFFFFFFFFFFFFFFFFFFFFFFFFFFFFF
310
FFFFFFFFFFFFFFFFFFFFFFFFFFFFFFFFFFFFFFFFFFFFFFFFFFFFFFFFFFFFFFFF
310
FFFFFFFFFFFFFFFFFFFFFFFFFFFFFFFFFFFFFFFFFFFFFFFFFFFFFFFFFFFFFFFF
310
FFFFFFFFFFFFFFFFFFFFFFFFFFFFFFFFFFFFFFFFFFFFFFFFFFFFFFFFFFFFFFFF
310
FFFFFFFFFFFFFFFFFFFFFFFFFFFFFFFFFFFFFFFFFFFFFFFFFFFFFFFFFFFFFFFF
310
FFFFFFFFFFFFFFFFFFFFFFFFFFFFFFFFFFFFFFFFFFFFFFFFFFFFFFFFFFFFFFFF
310
FFFFFFFFFFFFFFFFFFFFFFFFFFFFFFFFFFFFFFFFFFFFFFFFFFFFFFFFFFFFFFFF
310
FFFFFFFFFFFFFFFFFFFFFFFFFFFFFFFFFFFFFFFFFFFFFFFFFFFFFFFFFFFFFFFF
310
FFFFFFFFFFFFFFFFFFFFFFFFFFFFFFFFFFFFFFFFFFFFFFFFFFFFFFFFFFFFFFFF
310
FFFFFFFFFFFFFFFFFFFFFFFFFFFFFFFFFFFFFFFFFFFFFFFFFFFFFFFFFFFFFFFF
310
FFFFFFFFFFFFFFFFFFFFFFFFFFFFFFFFFFFFFFFFFFFFFFFFFFFFFFFFFFFFFFFF
310
FFFFFFFFFFFFFFFFFFFFFFFFFFFFFFFFFFFFFFFFFFFFFFFFFFFFFFFFFFFFFFFF
310
FDFFFFFFFEFFFFFFFEFFFFFFFEFFFFFF05000000060000000700000008000000
310
090000000A0000000B0000000C0000000D0000000E0000000F00000010000000
310
11000000120000001300000014000000150000001600000017000000FEFFFFFF
310
FFFFFFFFFFFFFFFFFFFFFFFFFFFFFFFFFFFFFFFFFFFFFFFFFFFFFFFFFFFFFFFF
310
FFFFFFFFFFFFFFFFFFFFFFFFFFFFFFFFFFFFFFFFFFFFFFFFFFFFFFFFFFFFFFFF
310
FFFFFFFFFFFFFFFFFFFFFFFFFFFFFFFFFFFFFFFFFFFFFFFFFFFFFFFFFFFFFFFF
310
FFFFFFFFFFFFFFFFFFFFFFFFFFFFFFFFFFFFFFFFFFFFFFFFFFFFFFFFFFFFFFFF
310
FFFFFFFFFFFFFFFFFFFFFFFFFFFFFFFFFFFFFFFFFFFFFFFFFFFFFFFFFFFFFFFF
310
FFFFFFFFFFFFFFFFFFFFFFFFFFFFFFFFFFFFFFFFFFFFFFFFFFFFFFFFFFFFFFFF
310
FFFFFFFFFFFFFFFFFFFFFFFFFFFFFFFFFFFFFFFFFFFFFFFFFFFFFFFFFFFFFFFF
310
FFFFFFFFFFFFFFFFFFFFFFFFFFFFFFFFFFFFFFFFFFFFFFFFFFFFFFFFFFFFFFFF
310
FFFFFFFFFFFFFFFFFFFFFFFFFFFFFFFFFFFFFFFFFFFFFFFFFFFFFFFFFFFFFFFF
310
FFFFFFFFFFFFFFFFFFFFFFFFFFFFFFFFFFFFFFFFFFFFFFFFFFFFFFFFFFFFFFFF
310
FFFFFFFFFFFFFFFFFFFFFFFFFFFFFFFFFFFFFFFFFFFFFFFFFFFFFFFFFFFFFFFF
310
FFFFFFFFFFFFFFFFFFFFFFFFFFFFFFFFFFFFFFFFFFFFFFFFFFFFFFFFFFFFFFFF
310
FFFFFFFFFFFFFFFFFFFFFFFFFFFFFFFFFFFFFFFFFFFFFFFFFFFFFFFFFFFFFFFF
310
52006F006F007400200045006E00740072007900000000000000000000000000
310
0000000000000000000000000000000000000000000000000000000000000000
310
16000500FFFFFFFFFFFFFFFF020000000A00030000000000C000000000000046
310
00000000000000000000000090192D5A25A7D30103000000C000000000000000
310
01004F006C006500000000000000000000000000000000000000000000000000
310
0000000000000000000000000000000000000000000000000000000000000000
310
0A000200FFFFFFFFFFFFFFFFFFFFFFFF00000000000000000000000000000000
310
0000000000000000000000000000000000000000000000001400000000000000
310
010043006F006D0070004F0062006A0000000000000000000000000000000000
310
0000000000000000000000000000000000000000000000000000000000000000
310
120002010100000003000000FFFFFFFF00000000000000000000000000000000
310
0000000000000000000000000000000000000000010000004D00000000000000
310
01004F006C006500310030004E00610074006900760065000000000000000000
310
0000000000000000000000000000000000000000000000000000000000000000
310
1A000200FFFFFFFFFFFFFFFFFFFFFFFF00000000000000000000000000000000
310
0000000000000000000000000000000000000000040000002426000000000000
310
FEFFFFFF02000000FEFFFFFFFFFFFFFFFFFFFFFFFFFFFFFFFFFFFFFFFFFFFFFF
310
FFFFFFFFFFFFFFFFFFFFFFFFFFFFFFFFFFFFFFFFFFFFFFFFFFFFFFFFFFFFFFFF
310
FFFFFFFFFFFFFFFFFFFFFFFFFFFFFFFFFFFFFFFFFFFFFFFFFFFFFFFFFFFFFFFF
310
FFFFFFFFFFFFFFFFFFFFFFFFFFFFFFFFFFFFFFFFFFFFFFFFFFFFFFFFFFFFFFFF
310
FFFFFFFFFFFFFFFFFFFFFFFFFFFFFFFFFFFFFFFFFFFFFFFFFFFFFFFFFFFFFFFF
310
FFFFFFFFFFFFFFFFFFFFFFFFFFFFFFFFFFFFFFFFFFFFFFFFFFFFFFFFFFFFFFFF
310
FFFFFFFFFFFFFFFFFFFFFFFFFFFFFFFFFFFFFFFFFFFFFFFFFFFFFFFFFFFFFFFF
310
FFFFFFFFFFFFFFFFFFFFFFFFFFFFFFFFFFFFFFFFFFFFFFFFFFFFFFFFFFFFFFFF
310
FFFFFFFFFFFFFFFFFFFFFFFFFFFFFFFFFFFFFFFFFFFFFFFFFFFFFFFFFFFFFFFF
310
FFFFFFFFFFFFFFFFFFFFFFFFFFFFFFFFFFFFFFFFFFFFFFFFFFFFFFFFFFFFFFFF
310
FFFFFFFFFFFFFFFFFFFFFFFFFFFFFFFFFFFFFFFFFFFFFFFFFFFFFFFFFFFFFFFF
310
FFFFFFFFFFFFFFFFFFFFFFFFFFFFFFFFFFFFFFFFFFFFFFFFFFFFFFFFFFFFFFFF
310
FFFFFFFFFFFFFFFFFFFFFFFFFFFFFFFFFFFFFFFFFFFFFFFFFFFFFFFFFFFFFFFF
310
FFFFFFFFFFFFFFFFFFFFFFFFFFFFFFFFFFFFFFFFFFFFFFFFFFFFFFFFFFFFFFFF
310
FFFFFFFFFFFFFFFFFFFFFFFFFFFFFFFFFFFFFFFFFFFFFFFFFFFFFFFFFFFFFFFF
310
FFFFFFFFFFFFFFFFFFFFFFFFFFFFFFFFFFFFFFFFFFFFFFFFFFFFFFFFFFFFFFFF
310
0100000200000000000000000000000000000000000000000000000000000000
310
0000000000000000000000000000000000000000000000000000000000000000
310
0100FEFF030A0000FFFFFFFF0A00030000000000C00000000000004607000000
310
5042727573680007000000504272757368000700000050427275736800F439B2
310
7100000000000000000000000000000000000000000000000000000000000000
310
0000000000000000000000000000000000000000000000000000000000000000
310
0000000000000000000000000000000000000000000000000000000000000000
310
0000000000000000000000000000000000000000000000000000000000000000
310
0000000000000000000000000000000000000000000000000000000000000000
310
0000000000000000000000000000000000000000000000000000000000000000
310
0000000000000000000000000000000000000000000000000000000000000000
310
0000000000000000000000000000000000000000000000000000000000000000
310
0000000000000000000000000000000000000000000000000000000000000000
310
0000000000000000000000000000000000000000000000000000000000000000
310
0000000000000000000000000000000000000000000000000000000000000000
310
0000000000000000000000000000000000000000000000000000000000000000
310
20260000424D0E260000000000003E00000028000000B40200006E0000000100
310
01000000000000000000130B0000130B00000200000002000000000000FFFFFF
310
FFFFFFFFFFFFFFFFFFFFFFFFFFFFFFFFFFFFFFFFFFFFFFFFFFFFFFFFFFFFFFFF
310
FFFFFFFFFFFFFFFFFFFFFFFFFFFFFFFFFFFFFFFFFFFFFFFFFFFFFFFFFFFFFFFF
310
FFFFFFFFFFFFFFFFFFFFFFFFFFFFFFFFFFFFFFFFFFFFFFFFF000FFFFFFFFFFFF
310
FFFFFFFFFFFFFFFFFFFFFFFFFFFFFFFFFFFFFFFFFFFFFFFFFFFFFFFFFFFFFFFF
310
FFFFFFFFFFFFFFFFFFFFFFFFFFFFFFFFFFFFFFFFFFFFFFFFFFFFFFFFFFFFFFFF
310
FFFFFFFFFFFFFFFFFFFFFFFFFFFFFFFFF000FFFFFFFFFFFFFFFFFFFFFFFFFFFF
310
FFFFFFFFFFFFFFFFFFFFFFFFFFFFFFFFFFFFFFFFFFFFFFFFFFFFFFFFFFFFFFFF
310
FFFFFFFFFFFFFFFFFFFFFFFFFFFFFFFFFFFFFFFFFFFFFFFFFFFFFFFFFFFFFFFF
310
FFFFFFFFFFFFFFFFF000FFFFFFFFFFFFFFFFFFFFFFFFFFFFFFFFFFFFFFFFFFFF
310
FFFFFFFFFFFFFFFFFFFFFFFFFFFFFFFFFFFFFFFFFFFFFFFFFFFFFFFFFFFFFFFF
310
FFFFFFFFFFFFFFFFFFFFFFFFFFFFFFFFFFFFFFFFFFFFFFFFFFFFFFFFFFFFFFFF
310
F000FFFFFFFFFFFFFFFFFFFFFFFFFFFFFFFFFFFFFFFFFFFFFFFFFFFFFFFFFFFF
310
FFFFFFFFFFFFFFFFFFFFFFFFFFFFFFFFFFFFFFFFFFFFFFFFFFFFFFFFFFFFFFFF
310
FFFFFFFFFFFFFFFFFFFFFFFFFFFFFFFFFFFFFFFFFFFFFFFFF000FFFFFFFFFFFF
310
FFFFFFFFFFFFFFFFFFFFFFFFFFFFFFFFFFFFFFFFFFFFFFFFFFFFFFFFFFFFFFFF
310
FFFFFFFFFFFFFFFFFFFFFFFFFFFFFFFFFFFFFFFFFFFFFFFFFFFFFFFFFFFFFFFF
310
FFFFFFFFFFFFFFFFFFFFFFFFFFFFFFFFF000FFFFFFFFFFFFFFFFFFFFFFFFFFFF
310
FFFFFFFFFFFFFFFFFFFFFFFFFFFFFFFFFFFFFFFFFFFFFFFFFFFFFFFFFFFFFFFF
310
FFFFFFFFFFFFFFFFFFFFFFFFFFFFFFFFFFFFFFFFFFFFFFFFFFFFFFFFFFFFFFFF
310
FFFFFFFFFFFFFFFFF000FFFFFFFFFFFFFFFFFFFFFFFFFFFFFFFFFFFFFFFFFFFF
310
FFFFFFFFFFFFFFFFFFFFFFFFFFFFFFFFFFFFFFFFFFFFFFFFFFFFFFFFFFFFFFFF
310
FFFFFFFFFFFFFFFFFFFFFFFFFFFFFFFFFFFFFFFFFFFFFFFFFFFFFFFFFFFFFFFF
310
F000FFFFFFFFFFFFFFFFFFFFFFFFFFFFFFFFFFFFFFFFFFFFFFFFFFFFFFFFFFFF
310
FFFFFFFFFFFFFFFFFFFFFFFFFFFFFFFFFFFFFFFFFFFFFFFFFFFFFFFFFFFFFFFF
310
FFFFFFFFFFFFFFFFFFFFFFFFFFFFFFFFFFFFFFFFFFFFFFFFF000FFFFFFFFFFFF
310
FFFFFFFFFFFFFFFFFFFFFFFFFFFFFFFFFFFFFFFFFFFFFFFFFFFFFFFFFFFFFFFF
310
FFFFFFFFFFFFFFFFFFFFFFFFFFFFFFFFFFFFFFFFFFFFFFFFFFFFFFFFFFFFFFFF
310
FFFFFFFFFFFFFFFFFFFFFFFFFFFFFFFFF000FFFFFFFFFFFFFFFFFFFFFFFFFFFF
310
FFFFFFFFFFFFFFFFFFFFFFFFFFFFFFFFFFFFFFFFFFFFFFFFFFFFFFFFFFFFFFFF
310
FFFFFFFFFFFFFFFFFFFFFFFFFFFFFFFFFFFFFFFFFFFFFFFFFFFFFFFFFFFFFFFF
310
FFFFFFFFFFFFFFFFF000FFFFFFFFFFFFFFFFFFFFFFFFFFFFFFFFFFFFFFFFFFFF
310
FFFFFFFFFFFFFFFFFFFFFFFFFFFFFFFFFFFFFFFFFFFFFFFFFFFFFFFFFFFFFFFF
310
FFFFFFFFFFFFFFFFFFFFFFFFFFFFFFFFFFFFFFFFFFFFFFFFFFFFFFFFFFFFFFFF
310
F000FFFFFFFFFFFFFFFFFFFFFFFFFFFFFFFFFFFFFFFFFFFFFFFFFFFFFFFFFFFF
310
FFFFFFFFFFFFFFFFFFFFFFFFFFFFFFFFFFFFFFFFFFFFFFFFFFFFFFFFFFFFFFFF
310
FFFFFFFFFFFFFFFFFFFFFFFFFFFFFFFFFFFFFFFFFFFFFFFFF000FFFFFFFFFFFF
310
FFFFFFFFFFFFFFFFFFFFFFFFFFFFFFFFFFFFFFFFFFFFFFFFFFFFFFFFFFFFFFFF
310
FFFFFFFFFFFFFFFFFFFFFFFFFFFFFFFFFFFFFFFFFFFFFFFFFFFFFFFFFFFFFFFF
310
FFFFFFFFFFFFFFFFFFFFFFFFFFFFFFFFF000FFFFFFFFFFFFFFFFFFFFFFFFFFFF
310
FFFFFFFFFFFFFFFFFFFFFFFFFFFFFFFFFFFFFFFFFFFFFFFFFFFFFFFFFFFFFFFF
310
FFFFFFFFFFFFFFFFFFFFFFFFFFFFFFFFFFFFFFFFFFFFFFFFFFFFFFFFFFFFFFFF
310
FFFFFFFFFFFFFFFFF000FFFFFFFFFFFFFFFFFFFFFFFFFFFFFFFFFFFFFFFFFFFF
310
FFFFFFFFFFFFFFFFFFFFFFFFFFFFFFFFFFFFFFFFFFFFFFFFFFFFFFFFFFFFFFFF
310
FFFFFFFFFFFFFFFFFFFFFFFFFFFFFFFFFFFFFFFFFFFFFFFFFFFFFFFFFFFFFFFF
310
F000FFFFFFFFFFFFFFFFFFFFFFFFFFFFFFFFFFFFFFFFFFFFFFFFFFFFFFFFFFFF
310
FFFFFFFFFFFFFFFFFFFFFFFFFFFFFFFFFFFFFFFFFFFFFFFFFFFFFFFFFFFFFFFF
310
FFFFFFFFFFFFFFFFFFFFFFFFFFFFFFFFFFFFFFFFFFFFFFFFF000FFFFFFFFFFFF
310
FFFFFFFFFFFFFFFFFFFFFFFFFFFFFFFFFFFFFFFFFFFFFFFFFFFFFFFFFFFFFFFF
310
FFFFFFFFFFFFFFFFFFFFFFFFFFFFFFFFFFFFFFFFFFFFFFFFFFFFFFFFFFFFFFFF
310
FFFFFFFFFFFFFFFFFFFFFFFFFFFFFFFFF000FFFFFFFFFFFFFFFFFFFFFFFFFFFF
310
FFFFFFFFFFFFFFFFFFFFFFFFFFFFFFFFFFFFFFFFFFFFFFFFFFFFFFFFFFFFFFFF
310
FFFFFFFFFFFFFFFFFFFFFFFFFFFFFFFFFFFFFFFFFFFFFFFFFFFFFFFFFFFFFFFF
310
FFFFFFFFFFFFFFFFF000FFFFF80003FFFFFFFFFFFFFFFFFFFFFFFFFFFFFFFFFF
310
FFFFF00007FFFFFFFFFF00007FFFFFF800000000000000007FFFFFFFFFFFFFFF
310
FFFFFFFC001FFFFFFFFFFFFFFC001FFFFFFFFFFFFFFFFFFFFFFFFFFE0007FFFF
310
F000FFFF8000007FFFFFFFF8000FFFFFC0007FFFFF80007FFFFF0000007FFFFF
310
FFF8000007FFFFF800000000000000007FFFFFF0001FFFFFFFFFFFC00001FFFF
310
FFFFFFFFC00001FFFFFFFF000000000003FFFFE000007FFFF000FFFE0000000F
310
FFFFFFF0000FFFFF80007FFFFF80007FFFFC0000001FFFFFFFC0000001FFFFF8
310
00000000000000007FFFFFF0001FFFFFFFFFFE0000003FFFFFFFFFFE0000003F
310
FFFFFF000000000003FFFF0000000FFFF000FFF800000003FFFFFFF00007FFFF
310
80007FFFFF80007FFFF000000007FFFFFF000000003FFFF80000000000000000
310
7FFFFFF0001FFFFFFFFFF80000000FFFFFFFFFF80000000FFFFFFF0000000000
310
03FFFC00000003FFF000FFE000000000FFFFFFF00007FFFF80003FFFFF80007F
310
FFC000000001FFFFFC000000001FFFF800000000000000007FFFFFF0001FFFFF
310
FFFFE000000003FFFFFFFFE000000003FFFFFF000000000003FFF000000000FF
310
F000FF80000000007FFFFFF00007FFFF80003FFFFF80007FFF8000000000FFFF
310
F80000000007FFF800000000000000007FFFFFF0001FFFFFFFFFC000000001FF
310
FFFFFFC000000001FFFFFF000000000003FFC0000000007FF000FF0000000000
310
3FFFFFE00007FFFF00003FFFFF80007FFE00000000003FFFF00000000003FFF8
310
00000000000000007FFFFFF0001FFFFFFFFF8000000000FFFFFFFF8000000000
310
FFFFFF000000000003FF80000000003FF000FE00000000001FFFFFE00003FFFF
310
00003FFFFF80007FFC00000000001FFFE00000000001FFF8000001FFFE000000
310
7FFFFFF0001FFFFFFFFE00000000003FFFFFFE00000000003FFFFF0000000000
310
03FF00000000001FF000FC00000000000FFFFFE00003FFFF00001FFFFF80007F
310
F800000000001FFFC00000000000FFF8000001FFFE0000007FFFFFF0001FFFFF
310
FFFC00000000001FFFFFFC00000000001FFFFF000000000003FE00000000000F
310
F000F8000000000007FFFFE00003FFFF00001FFFFF80007FF800000000000FFF
310
800000000000FFF8000001FFFE0000007FFFFFF0001FFFFFFFF800000000000F
310
FFFFF800000000000FFFFF000000000003FC000000000007F000F80000000000
310
03FFFFC00003FFFE00001FFFFF80007FF0000000000007FF0000000000007FF8
310
000001FFFE0000007FFFFFF0001FFFFFFFF0000000000007FFFFF00000000000
310
07FFFF000000000003F8000000000003F000F0000000000003FFFFC00001FFFE
310
00001FFFFF80007FE0000000000007FE0000000000003FF8000001FFFE000000
310
7FFFFFF0001FFFFFFFF0000000000007FFFFF0000000000007FFFF0000000000
310
03F800001F800003F000E00001FFF00001FFFFC00001FFFE00000FFFFF80007F
310
E00001FFE00003FE00001FFF00003FF8000001FFFE0000007FFFFFF0001FFFFF
310
FFE000003E000003FFFFE000003E000003FFFF000000000003F00001FFF80001
310
F000E00007FFFC0001FFFFC00001FFFE00000FFFFF80007FC0000FFFFC0003FC
310
0000FFFFC0001FF8000001FFFE0000007FFFFFF0001FFFFFFFC00003FFE00001
310
FFFFC00003FFE00001FFFF0001FFFFFFFFF00007FFFE0001F000E0000FFFFF00
310
00FFFF800001FFFC00000FFFFF80007FC0001FFFFE0001FC0001FFFFE0001FF8
310
000001FFFE0000007FFFFFF0001FFFFFFF80000FFFF80000FFFF80000FFFF800
310
00FFFF0003FFFFFFFFE0000FFFFF8000F000C0003FFFFF8000FFFF800000FFFC
310
000007FFFF80007F80003FFFFF0001FC0003FFFFF0001FF8000001FFFE000000
310
7FFFFFF0001FFFFFFF80003FFFFE0000FFFF80003FFFFE0000FFFF0003FFFFFF
310
FFE0003FFFFF8000F000C0003FFFFF8000FFFF800000FFFC000007FFFF80007F
310
80007FFFFF8001F80007FFFFF8000FF8000001FFFE0000007FFFFFF0001FFFFF
310
FF00007FFFFF00007FFF00007FFFFF00007FFF0003FFFFFFFFE0003FFFFFC000
310
F000C0007FFFFFC000FFFF000000FFFC000007FFFF80007F8000FFFFFF8000F8
310
000FFFFFF8000FF8000001FFFE0000007FFFFFF0001FFFFFFF0000FFFFFF8000
310
7FFF0000FFFFFF80007FFF0003FFFFFFFFC0007FFFFFC00070008000FFFFFFC0
310
00FFFF000000FFF8000007FFFF80007F8000FFFFFF8000F8000FFFFFF8000FF8
310
000001FFFE0000007FFFFFF0001FFFFFFE0001FFFFFFC0003FFE0001FFFFFFC0
310
003FFF0003FFFFFFFFC0007FFFFFE00070008000FFFFFFC0007FFF0000007FF8
310
000003FFFF80007F0001FFFFFF8000F8000FFFFFF8000FF8000001FFFE000000
310
7FFFFFF0001FFFFFFE0001FFFFFFC0003FFE0001FFFFFFC0003FFF0003FFFFFF
310
FFC000FFFFFFE00070008000FFFFFFC0007FFF0000007FF8000003FFFF80007F
310
0001FFFFFF8000F8001FFFFFF8000FF8000001FFFE0000007FFFFFF0001FFFFF
310
FE0003FFFFFFE0003FFE0003FFFFFFE0003FFF0003FFFFFFFFC000FFFFFFE000
310
70008000FFFFFFC0007FFE0000007FF8000003FFFF80007F0001FFFFFF8000F0
310
001FFFFFF8000FF8000001FFFE0000007FFFFFF0001FFFFFFC0003FFFFFFE000
310
1FFC0003FFFFFFE0001FFF0003FFFFFFFFC000FFFFFFC00070008000FFFFFF80
310
007FFE0000007FF0000003FFFF80007F0001FFFFFF0000F0001FFFFFF8000FF8
310
000001FFFE0000007FFFFFF0001FFFFFFC0007FFFFFFF0001FFC0007FFFFFFF0
310
001FFF0003FFFFFFFFC000FFFFFFC00070008001FFFFFF0000FFFE0000003FF0
310
000001FFFF80007F0001FFFFFF0000F8001FFFFFF0000FF8000001FFFE000000
310
7FFFFFF0001FFFFFFC0007FFFFFFF0001FFC0007FFFFFFF0001FFF0003FFFFFF
310
FFC001FFFFFF80007000FFFFFFFFFE0000FFFE0008003FF0008001FFFF80007F
310
FFFFFFFFFC0000FFFFFFFFFFE0000FF8000001FFFE0000007FFFFFF0001FFFFF
310
F8000FFFFFFFF8000FF8000FFFFFFFF8000FFF0003FFFFFFFFFFFFFFFFFF0000
310
7000FFFFFFFFFC0000FFFC0008003FF0008001FFFF80007FFFFFFFFFF80001FF
310
FFFFFFFF80000FF8000001FFFE0000007FFFFFF0001FFFFFF8000FFFFFFFF800
310
0FF8000FFFFFFFF8000FFF0003FFFFFFFFFFFFFFFFFE0000F000FFFFFFFFE000
310
00FFFC000C003FE000C001FFFF80007FFFFFFFFFC00001FFFFFFFFFE00001FF8
310
000001FFFE0000007FFFFFF0001FFFFFF8000FFFFFFFF8000FF8000FFFFFFFF8
310
000FFF0003FFFFFFFFFFFFFFFFF00000F000FFFFFFFE000001FFFC000C001FE0
310
00C000FFFF80007FFFFFFFFE000001FFFFFFFFE000001FF80FFFFFFFFFFFFFC0
310
7FFFFFF0001FFFFFF8000FFFFFFFF8000FF8000FFFFFFFF8000FFF0003FFFFFF
310
FFFFFFFFFF800000F000FFFFFFC0000001FFFC001C001FE001C000FFFF80007F
310
FFFFFF80000003FFFFFFF80000001FF80FFFFFFFFFFFFFC07FFFFFF0001FFFFF
310
F8001FFFFFFFFC000FF8001FFFFFFFFC000FFF0003FFFFFFFFFFFFFFF0000001
310
F000FFFFF800000001FFF8001C001FE001C000FFFF80007FFFFFF800000003FF
310
FFFF800000003FF80FFFFFFFFFFFFFC07FFFFFF0001FFFFFF8001FFFFFFFFC00
310
0FF8001FFFFFFFFC000FFF0003FFFFFFFFFFFFFE00000001F000FFFFC0000000
310
03FFF8001E001FC001E000FFFF80007FFFFF8000000007FFFFFC000000003FF8
310
0FFFFFFFFFFFFFC07FFFFFF0001FFFFFF8001FFFFFFFFC000FF8001FFFFFFFFC
310
000FFF0003FFFFFFFFFFFFE000000003F000FFFE0000000007FFF8001E000FC0
310
01E0007FFF80007FFFFE0000000007FFFFE0000000007FF80FFFFFFFFFFFFFC0
310
7FFFFFF0001FFFFFF0001FFFFFFFFC0007F0001FFFFFFFFC0007FF0003FFFFFF
310
FFFFFF0000000003F000FFF80000000007FFF8001E000FC003E0007FFF80007F
310
FFF0000000000FFFFF8000000000FFF80FFFFFFFFFFFFFC07FFFFFF0001FFFFF
310
F0001FFFFFFFFC0007F0001FFFFFFFFC0007FF0003FFFFFFFFFFFC0000000007
310
F000FFE0000000000FFFF0003E000FC003E0007FFF80007FFFC0000000001FFF
310
FE0000000001FFF80FFFFFFFFFFFFFC07FFFFFF0001FFFFFF0001FFFFFFFFC00
310
07F0001FFFFFFFFC0007FF0003FFFFFFFFFFF0000000000FF000FFC000000000
310
1FFFF0003F000F8003F0003FFF80007FFF80000000003FFFF80000000003FFF8
310
0FFFFFFFFFFFFFC07FFFFFF0001FFFFFF0001FFFFFFFFC0007F0001FFFFFFFFC
310
0007FF0003FFFFFFFFFFE0000000001FF000FF00000000007FFFF0003F000780
310
03F0003FFF80007FFF00000000007FFFF00000000007FFF80FFFFFFFFFFFFFC0
310
7FFFFFF0001FFFFFF0001FFFFFFFFC0007F0001FFFFFFFFC0007FF0003FFFFFF
310
FFFF80000000007FF000FE0000000000FFFFE0003F00078007F0003FFF80007F
310
FE0000000001FFFFE0000000001FFFF80FFFFFFFFFFFFFC07FFFFFF0001FFFFF
310
F0001FFFFFFFFC0007F0001FFFFFFFFC0007FF0003FFFFFFFFFF0000000000FF
310
F000FC0000000003FFFFE0007F00078007F0003FFF80007FFC0000000007FFFF
310
C0000000007FFFF80FFFFFFFFFFFFFC07FFFFFF0001FFFFFF8001FFFFFFFFC00
310
0FF8001FFFFFFFFC000FFF0003FFFFFFFFFE0000000003FFF000FC000000000F
310
FFFFE0007F80070007F8001FFF80007FF8000000001FFFFF8000000001FFFFF8
310
0FFFFFFFFFFFFFC07FFFFFF0001FFFFFF8001FFFFFFFFC000FF8001FFFFFFFFC
310
000FFF0003FFFFFFFFFC000000000FFFF000F8000000007FFFFFE0007F800700
310
07F8001FFF80007FF000000000FFFFFF800000000FFFFFF80FFFFFFFFFFFFFC0
310
7FFFFFF0001FFFFFF8000FFFFFFFF8000FF8000FFFFFFFF8000FFF0003FFFFFF
310
FFFC000000007FFFF000F800000007FFFFFFC0007F8003000FF8001FFF80007F
310
F000000007FFFFFF000000007FFFFFF80FFFFFFFFFFFFFC07FFFFFF0001FFFFF
310
F8000FFFFFFFF8000FF8000FFFFFFFF8000FFF0003FFFFFFFFF80000000FFFFF
310
F000F0000000FFFFFFFFC000FF8003000FF8001FFF80007FE0000000FFFFFFFF
310
0000000FFFFFFFF8000001FFFE0000007FFFFFF0001FFFFFF8000FFFFFFFF800
310
0FF8000FFFFFFFF8000FFF0003FFFFFFFFF8000000FFFFFFF000F000000FFFFF
310
FFFFC000FFC002000FF8000FFF80007FE000001FFFFFFFFE000001FFFFFFFFF8
310
000001FFFE0000007FFFFFF0001FFFFFF8000FFFFFFFF8000FF8000FFFFFFFF8
310
000FFF0003FFFFFFFFF000001FFFFFFFF000E00000FFFFFFFFFFC000FFC00200
310
0FFC000FFF80007FE00001FFFFFFFFFE00001FFFFFFFFFF8000001FFFE000000
310
7FFFFFF0001FFFFFFC000FFFFFFFF8001FFC000FFFFFFFF8001FFF0003FFFFFF
310
FFF00001FFFFFFFFF000E00007FFFFFFFFFF8000FFC000001FFC000FFF80007F
310
C0000FFFFFFFFFFE0000FFFFFFFFFFF8000001FFFE0000007FFFFFF0001FFFFF
310
FC0007FFFFFFF0001FFC0007FFFFFFF0001FFF0003FFFFFFFFF00007FFFFFFFF
310
F000E0001FFFFFFFFFFF8000FFC000001FFC000FFF80007FC0003FFFFFFFFFFE
310
0001FFFFFFFFFFF8000001FFFE0000007FFFFFF0001FFFFFFC0007FFFFFFF000
310
1FFC0007FFFFFFF0001FFF0003FFFFFFFFF0001FFFFFFFFFF000E0003FFFFF00
310
03FF8001FFE000001FFC0007FF80007FC0007FFFFF0007FC0003FFFFF0003FF8
310
000001FFFE0000007FFFFFF0001FFFFFFC0003FFFFFFE0001FFC0003FFFFFFE0
310
001FFF0003FFFFFFFFF0003FFFFFFFFFF000E0003FFFFF0001FF8001FFE00000
310
1FFE0007FF80007FC0007FFFFE0003FC0007FFFFE0003FF8000001FFFE000000
310
7FFFFFF0001FFFFFFE0003FFFFFFE0003FFE0003FFFFFFE0003FFF0003FFFFFF
310
FFF0003FFFFF8001F000E0003FFFFF0001FF0001FFE000001FFE0007FF80007F
310
C0007FFFFE0003FC0007FFFFE0003FF8000001FFFE0000007FFFFFF0001FFFFF
310
FE0001FFFFFFC0003FFE0001FFFFFFC0003FFF0003FFFFFFFFF0003FFFFF0001
310
F000E0003FFFFF0003FF0001FFE000003FFE0007FF80007FC0007FFFFE0003FC
310
0007FFFFE0003FF8000001FFFE0000007FFFFFF0001FFFFFFF0001FFFFFFC000
310
7FFF0001FFFFFFC0007FFF0003FFFFFFFFF0003FFFFF0001F000E0003FFFFE00
310
03FF0003FFF000003FFE0003FF80007FC0007FFFFC0003FE0007FFFFE0003FF8
310
000001FFFE0000007FFFFFF0001FFFFFFF0000FFFFFF80007FFF0000FFFFFF80
310
007FFF0003FFFFFFFFF0003FFFFF0001F000E0003FFFFE0003FF0003FFF00000
310
3FFF0003FF80007FC0007FFFFC0007FE0007FFFFC0003FF8000001FFFE000000
310
7FFFFFF0001FFFFFFF80007FFFFF0000FFFF80007FFFFF0000FFFF0003FFFFFF
310
FFF0003FFFFF0003F000E0003FFFFC0003FE0003FFF000003FFF0003FF80007F
310
E0003FFFF80007FE0003FFFFC0007FF8000001FFFE0000007FFFFFF0001FFFFF
310
FF80003FFFFE0000FFFF80003FFFFE0000FFFF0003FFFFFFFFF0001FFFFE0003
310
F000F0001FFFF80003FE0003FFF000007FFF0001FF80007FE0003FFFF00007FE
310
0001FFFF80007FF8000001FFFE0000007FFFFFF0001FFFFFFFC0000FFFF80001
310
FFFFC0000FFFF80001FFFF0003FFFFFFFFF0001FFFFC0003F000F0000FFFF000
310
07FE0007FFF800007FFF0001FF80007FE0001FFFE00007FF0000FFFE00007FF8
310
000001FFFE0000007FFFFFF0001FFFFFFFC00003FFE00001FFFFC00003FFE000
310
01FFFF0003FFFFFFFFF8000FFFF80003F000F00003FFC00007FC0007FFF80000
310
7FFF8001FF80007FF00007FF80000FFF00007FF80000FFF8000001FFFE000000
310
7F80000000000001FFE000003E000003FFFFE000003E000003FFFF0003FFFFFF
310
FFF80003FFE00007F000F800000000000FFC0007FFF800007FFF8001FF80007F
310
F000000000000FFF000000000000FFF8000001FFFE0000007F80000000000001
310
FFF0000000000007FFFFF0000000000007FFFF0003FFFFFFFFFC00007E000007
310
F000F800000000000FFC0007FFF80000FFFF8000FF80007FF800000000001FFF
310
800000000001FFF8000001FFFE0000007F80000000000001FFF800000000000F
310
FFFFF800000000000FFFFF0003FFFFFFFFFC00000000000FF000FC0000000000
310
1FFC0007FFFC0000FFFF8000FF80007FF800000000003FFFC00000000001FFF8
310
000001FFFE0000007F80000000000001FFF800000000000FFFFFF80000000000
310
0FFFFF0003FFFFFFFFFE00000000001FF000FE00000000003FF8000FFFFC0000
310
FFFF8000FF80007FFC00000000003FFFC00000000003FFF8000001FFFE000000
310
7F80000000000001FFFC00000000001FFFFFFC00000000001FFFFF0003FFFFFF
310
FFFF00000000001FF000FF00000000003FF8000FFFFC0000FFFFC000FF80007F
310
FE00000000007FFFE00000000007FFF8000001FFFE0000007F80000000000001
310
FFFE00000000003FFFFFFE00000000003FFFFF0003FFFFFFFFFF80000000003F
310
F000FF80000000007FF8000FFFFC0001FFFFC0007F80007FFF0000000000FFFF
310
F0000000000FFFF800000000000000007F80000000000001FFFF8000000000FF
310
FFFFFF8000000000FFFFFF0003FFFFFFFFFFC0000000007FF000FFC000000000
310
FFF8000FFFFE0001FFFFC0007F80007FFF8000000001FFFFF8000000001FFFF8
310
00000000000000007F80000000000001FFFFC000000001FFFFFFFFC000000001
310
FFFFFF0003FFFFFFFFFFE000000000FFF000FFE000000003FFF0001FFFFE0001
310
FFFFC0007F80007FFFC000000007FFFFFE000000003FFFF80000000000000000
310
7F80000000000001FFFFE000000003FFFFFFFFE000000003FFFFFF0003FFFFFF
310
FFFFF000000003FFF000FFF80000000FFFF0001FFFFE0001FFFFE0007F80007F
310
FFF00000000FFFFFFF00000000FFFFF800000000000000007F80000000000001
310
FFFFF80000000FFFFFFFFFF80000000FFFFFFF0003FFFFFFFFFFFC0000000FFF
310
F000FFFE0000003FFFF0001FFFFE0003FFFFE0003F80007FFFFC0000003FFFFF
310
FFC0000003FFFFF800000000000000007F80000000000001FFFFFE0000003FFF
310
FFFFFFFE0000003FFFFFFF0003FFFFFFFFFFFF0000003FFFF000FFFF800000FF
310
FFF0001FFFFF0003FFFFE0003F80007FFFFF000001FFFFFFFFF800001FFFFFF8
310
00000000000000007F80000000000001FFFFFFC00001FFFFFFFFFFFFC00001FF
310
FFFFFF0003FFFFFFFFFFFFC00000FFFFF000FFFFF8000FFFFFFFFFFFFFFFFFFF
310
FFFFFFFFFFFFFFFFFFFFF0001FFFFFFFFFFF0000FFFFFFF80000000000000000
310
7FFFFFFFFFFFFFFFFFFFFFFC001FFFFFFFFFFFFFFC001FFFFFFFFFFFFFFFFFFF
310
FFFFFFFC001FFFFFF000FFFFFFFFFFFFFFFFFFFFFFFFFFFFFFFFFFFFFFFFFFFF
310
FFFFFFFFFFFFFFFFFFFFFFFFFFFFFFFFFFFFFFFFFFFFFFFFFFFFFFFFFFFFFFFF
310
FFFFFFFFFFFFFFFFFFFFFFFFFFFFFFFFFFFFFFFFFFFFFFFFFFFFFFFFFFFFFFFF
310
F000FFFFFFFFFFFFFFFFFFFFFFFFFFFFFFFFFFFFFFFFFFFFFFFFFFFFFFFFFFFF
310
FFFFFFFFFFFFFFFFFFFFFFFFFFFFFFFFFFFFFFFFFFFFFFFFFFFFFFFFFFFFFFFF
310
FFFFFFFFFFFFFFFFFFFFFFFFFFFFFFFFFFFFFFFFFFFFFFFFF000FFFFFFFFFFFF
310
FFFFFFFFFFFFFFFFFFFFFFFFFFFFFFFFFFFFFFFFFFFFFFFFFFFFFFFFFFFFFFFF
310
FFFFFFFFFFFFFFFFFFFFFFFFFFFFFFFFFFFFFFFFFFFFFFFFFFFFFFFFFFFFFFFF
310
FFFFFFFFFFFFFFFFFFFFFFFFFFFFFFFFF000FFFFFFFFFFFFFFFFFFFFFFFFFFFF
310
FFFFFFFFFFFFFFFFFFFFFFFFFFFFFFFFFFFFFFFFFFFFFFFFFFFFFFFFFFFFFFFF
310
FFFFFFFFFFFFFFFFFFFFFFFFFFFFFFFFFFFFFFFFFFFFFFFFFFFFFFFFFFFFFFFF
310
FFFFFFFFFFFFFFFFF000FFFFFFFFFFFFFFFFFFFFFFFFFFFFFFFFFFFFFFFFFFFF
310
FFFFFFFFFFFFFFFFFFFFFFFFFFFFFFFFFFFFFFFFFFFFFFFFFFFFFFFFFFFFFFFF
310
FFFFFFFFFFFFFFFFFFFFFFFFFFFFFFFFFFFFFFFFFFFFFFFFFFFFFFFFFFFFFFFF
310
F000FFFFFFFFFFFFFFFFFFFFFFFFFFFFFFFFFFFFFFFFFFFFFFFFFFFFFFFFFFFF
310
FFFFFFFFFFFFFFFFFFFFFFFFFFFFFFFFFFFFFFFFFFFFFFFFFFFFFFFFFFFFFFFF
310
FFFFFFFFFFFFFFFFFFFFFFFFFFFFFFFFFFFFFFFFFFFFFFFFF000FFFFFFFFFFFF
310
FFFFFFFFFFFFFFFFFFFFFFFFFFFFFFFFFFFFFFFFFFFFFFFFFFFFFFFFFFFFFFFF
310
FFFFFFFFFFFFFFFFFFFFFFFFFFFFFFFFFFFFFFFFFFFFFFFFFFFFFFFFFFFFFFFF
310
FFFFFFFFFFFFFFFFFFFFFFFFFFFFFFFFF000FFFFFFFFFFFFFFFFFFFFFFFFFFFF
310
FFFFFFFFFFFFFFFFFFFFFFFFFFFFFFFFFFFFFFFFFFFFFFFFFFFFFFFFFFFFFFFF
310
FFFFFFFFFFFFFFFFFFFFFFFFFFFFFFFFFFFFFFFFFFFFFFFFFFFFFFFFFFFFFFFF
310
FFFFFFFFFFFFFFFFF000FFFFFFFFFFFFFFFFFFFFFFFFFFFFFFFFFFFFFFFFFFFF
310
FFFFFFFFFFFFFFFFFFFFFFFFFFFFFFFFFFFFFFFFFFFFFFFFFFFFFFFFFFFFFFFF
310
FFFFFFFFFFFFFFFFFFFFFFFFFFFFFFFFFFFFFFFFFFFFFFFFFFFFFFFFFFFFFFFF
310
F000FFFFFFFFFFFFFFFFFFFFFFFFFFFFFFFFFFFFFFFFFFFFFFFFFFFFFFFFFFFF
310
FFFFFFFFFFFFFFFFFFFFFFFFFFFFFFFFFFFFFFFFFFFFFFFFFFFFFFFFFFFFFFFF
310
FFFFFFFFFFFFFFFFFFFFFFFFFFFFFFFFFFFFFFFFFFFFFFFFF000FFFFFFFFFFFF
310
FFFFFFFFFFFFFFFFFFFFFFFFFFFFFFFFFFFFFFFFFFFFFFFFFFFFFFFFFFFFFFFF
310
FFFFFFFFFFFFFFFFFFFFFFFFFFFFFFFFFFFFFFFFFFFFFFFFFFFFFFFFFFFFFFFF
310
FFFFFFFFFFFFFFFFFFFFFFFFFFFFFFFFF000FFFFFFFFFFFFFFFFFFFFFFFFFFFF
310
FFFFFFFFFFFFFFFFFFFFFFFFFFFFFFFFFFFFFFFFFFFFFFFFFFFFFFFFFFFFFFFF
310
FFFFFFFFFFFFFFFFFFFFFFFFFFFFFFFFFFFFFFFFFFFFFFFFFFFFFFFFFFFFFFFF
310
FFFFFFFFFFFFFFFFF000FFFFFFFFFFFFFFFFFFFFFFFFFFFFFFFFFFFFFFFFFFFF
310
FFFFFFFFFFFFFFFFFFFFFFFFFFFFFFFFFFFFFFFFFFFFFFFFFFFFFFFFFFFFFFFF
310
FFFFFFFFFFFFFFFFFFFFFFFFFFFFFFFFFFFFFFFFFFFFFFFFFFFFFFFFFFFFFFFF
310
F000FFFFFFFFFFFFFFFFFFFFFFFFFFFFFFFFFFFFFFFFFFFFFFFFFFFFFFFFFFFF
310
FFFFFFFFFFFFFFFFFFFFFFFFFFFFFFFFFFFFFFFFFFFFFFFFFFFFFFFFFFFFFFFF
310
FFFFFFFFFFFFFFFFFFFFFFFFFFFFFFFFFFFFFFFFFFFFFFFFF000FFFFFFFFFFFF
310
FFFFFFFFFFFFFFFFFFFFFFFFFFFFFFFFFFFFFFFFFFFFFFFFFFFFFFFFFFFFFFFF
310
FFFFFFFFFFFFFFFFFFFFFFFFFFFFFFFFFFFFFFFFFFFFFFFFFFFFFFFFFFFFFFFF
310
FFFFFFFFFFFFFFFFFFFFFFFFFFFFFFFFF000FFFFFFFFFFFFFFFFFFFFFFFFFFFF
310
FFFFFFFFFFFFFFFFFFFFFFFFFFFFFFFFFFFFFFFFFFFFFFFFFFFFFFFFFFFFFFFF
310
FFFFFFFFFFFFFFFFFFFFFFFFFFFFFFFFFFFFFFFFFFFFFFFFFFFFFFFFFFFFFFFF
310
FFFFFFFFFFFFFFFFF000FFFFFFFFFFFFFFFFFFFFFFFFFFFFFFFFFFFFFFFFFFFF
310
FFFFFFFFFFFFFFFFFFFFFFFFFFFFFFFFFFFFFFFFFFFFFFFFFFFFFFFFFFFFFFFF
310
FFFFFFFFFFFFFFFFFFFFFFFFFFFFFFFFFFFFFFFFFFFFFFFFFFFFFFFFFFFFFFFF
310
F000FFFFFFFFFFFFFFFFFFFFFFFFFFFFFFFFFFFFFFFFFFFFFFFFFFFFFFFFFFFF
310
FFFFFFFFFFFFFFFFFFFFFFFFFFFFFFFFFFFFFFFFFFFFFFFFFFFFFFFFFFFFFFFF
310
FFFFFFFFFFFFFFFFFFFFFFFFFFFFFFFFFFFFFFFFFFFFFFFFF000FFFFFFFFFFFF
310
FFFFFFFFFFFFFFFFFFFFFFFFFFFFFFFFFFFFFFFFFFFFFFFFFFFFFFFFFFFFFFFF
310
FFFFFFFFFFFFFFFFFFFFFFFFFFFFFFFFFFFFFFFFFFFFFFFFFFFFFFFFFFFFFFFF
310
FFFFFFFFFFFFFFFFFFFFFFFFFFFFFFFFF000FFFFFFFFFFFFFFFFFFFFFFFFFFFF
310
FFFFFFFFFFFFFFFFFFFFFFFFFFFFFFFFFFFFFFFFFFFFFFFFFFFFFFFFFFFFFFFF
310
FFFFFFFFFFFFFFFFFFFFFFFFFFFFFFFFFFFFFFFFFFFFFFFFFFFFFFFFFFFFFFFF
310
FFFFFFFFFFFFFFFFF000FFFFFFFFFFFFFFFFFFFFFFFFFFFFFFFFFFFFFFFFFFFF
310
FFFFFFFFFFFFFFFFFFFFFFFFFFFFFFFFFFFFFFFFFFFFFFFFFFFFFFFFFFFFFFFF
310
FFFFFFFFFFFFFFFFFFFFFFFFFFFFFFFFFFFFFFFFFFFFFFFFFFFFFFFFFFFFFFFF
310
F000FFFFFFFFFFFFFFFFFFFFFFFFFFFFFFFFFFFFFFFFFFFFFFFFFFFFFFFFFFFF
310
FFFFFFFFFFFFFFFFFFFFFFFFFFFFFFFFFFFFFFFFFFFFFFFFFFFFFFFFFFFFFFFF
310
FFFFFFFFFFFFFFFFFFFFFFFFFFFFFFFFFFFFFFFFFFFFFFFFF000FFFFFFFFFFFF
310
FFFFFFFFFFFFFFFFFFFFFFFFFFFFFFFFFFFFFFFFFFFFFFFFFFFFFFFFFFFFFFFF
310
FFFFFFFFFFFFFFFFFFFFFFFFFFFFFFFFFFFFFFFFFFFFFFFFFFFFFFFFFFFFFFFF
310
FFFFFFFFFFFFFFFFFFFFFFFFFFFFFFFFF0000000000000000000000000000000
310
0000000000000000000000000000000000000000000000000000000000000000
310
0000000000000000000000000000000000000000000000000000000000000000
310
0000000000000000000000000000000000000000000000000000000000000000
310
0000000000000000000000000000000000000000000000000000000000000000
310
0000000000000000000000000000000000000000000000000000000000000000
310
0000000000000000000000000000000000000000000000000000000000000000
310
0000000000000000000000000000000000000000000000000000000000000000
310
0000000000000000000000000000000000000000000000000000000000000000
310
0000000000000000000000000000000000000000000000000000000000000000
310
0000000000000000000000000000000000000000000000000000000000000000
310
0000000000000000000000000000000000000000000000000000000000000000
310
0000000000000000000000000000000000000000000000000000000000000000
310
0000000000000000000000000000000000000000000000000000000000000000
310
0000000000000000000000000000000000000000000000000000000000000000
310
0000000000000000000000000000000000000000000000000000000000000000
  1
OLE
  0
ENDSEC
  0
SECTION
  2
OBJECTS
  0
DICTIONARY
  5
C
330
0
100
AcDbDictionary
281
     1
  3
ACAD_GROUP
350
D
  3
ACAD_LAYOUT
350
1A
  3
ACAD_MLINESTYLE
350
17
  3
ACAD_PLOTSETTINGS
350
19
  3
ACAD_PLOTSTYLENAME
350
E
  3
ACAD_SCALELIST
350
47
  0
DICTIONARY
  5
D
102
{ACAD_REACTORS
330
C
102
}
330
C
100
AcDbDictionary
281
     1
  0
DICTIONARY
  5
1A
102
{ACAD_REACTORS
330
C
102
}
330
C
100
AcDbDictionary
281
     1
  3
Layout1
350
1E
  3
Layout2
350
26
  3
Model
350
22
  0
DICTIONARY
  5
17
102
{ACAD_REACTORS
330
C
102
}
330
C
100
AcDbDictionary
281
     1
  3
Standard
350
18
  0
DICTIONARY
  5
19
102
{ACAD_REACTORS
330
C
102
}
330
C
100
AcDbDictionary
281
     1
  0
ACDBDICTIONARYWDFLT
  5
E
102
{ACAD_REACTORS
330
C
102
}
330
C
100
AcDbDictionary
281
     1
  3
Normal
350
F
100
AcDbDictionaryWithDefault
340
F
  0
DICTIONARY
  5
47
102
{ACAD_REACTORS
330
C
102
}
330
C
100
AcDbDictionary
281
     1
  3
A0
350
48
  3
A1
350
49
  3
A2
350
4A
  3
A3
350
4B
  3
A4
350
4C
  3
A5
350
4D
  3
A6
350
4E
  3
A7
350
4F
  3
A8
350
50
  3
A9
350
51
  3
B0
350
52
  3
B1
350
53
  3
B2
350
54
  3
B3
350
55
  3
B4
350
56
  3
B5
350
57
  3
B6
350
58
  3
B7
350
59
  3
B8
350
5A
  3
B9
350
5B
  3
C0
350
5C
  3
C1
350
5D
  3
C2
350
5E
  3
C3
350
5F
  3
C4
350
60
  3
C5
350
61
  3
C6
350
62
  3
C7
350
63
  3
C8
350
64
  3
C9
350
65
  3
D0
350
66
  3
D1
350
67
  3
D2
350
68
  0
LAYOUT
  5
1E
102
{ACAD_REACTORS
330
1A
102
}
330
1A
100
AcDbPlotSettings
  1

  2
none_device
  4

  6

 40
0.0
 41
0.0
 42
0.0
 43
0.0
 44
0.0
 45
0.0
 46
0.0
 47
0.0
 48
0.0
 49
0.0
140
0.0
141
0.0
142
1.0
143
1.0
 70
   688
 72
     1
 73
     0
 74
     5
  7

 75
    16
147
1.0
148
0.0
149
0.0
100
AcDbLayout
  1
Layout1
 70
     1
 71
     1
 10
0.0
 20
0.0
 11
420.0
 21
297.0
 12
0.0
 22
0.0
 32
0.0
 14
1.0000000000E+20
 24
1.0000000000E+20
 34
1.0000000000E+20
 15
-1.0000000000E+20
 25
-1.0000000000E+20
 35
-1.0000000000E+20
146
0.0
 13
0.0
 23
0.0
 33
0.0
 16
1.0
 26
0.0
 36
0.0
 17
0.0
 27
1.0
 37
0.0
 76
     0
330
1B
  0
LAYOUT
  5
26
102
{ACAD_REACTORS
330
1A
102
}
330
1A
100
AcDbPlotSettings
  1

  2
none_device
  4

  6

 40
0.0
 41
0.0
 42
0.0
 43
0.0
 44
0.0
 45
0.0
 46
0.0
 47
0.0
 48
0.0
 49
0.0
140
0.0
141
0.0
142
1.0
143
1.0
 70
   688
 72
     1
 73
     0
 74
     5
  7

 75
    16
147
1.0
148
0.0
149
0.0
100
AcDbLayout
  1
Layout2
 70
     1
 71
     2
 10
0.0
 20
0.0
 11
0.0
 21
0.0
 12
0.0
 22
0.0
 32
0.0
 14
0.0
 24
0.0
 34
0.0
 15
0.0
 25
0.0
 35
0.0
146
0.0
 13
0.0
 23
0.0
 33
0.0
 16
1.0
 26
0.0
 36
0.0
 17
0.0
 27
1.0
 37
0.0
 76
     0
330
23
  0
LAYOUT
  5
22
102
{ACAD_REACTORS
330
1A
102
}
330
1A
100
AcDbPlotSettings
  1

  2
none_device
  4
Letter_(8.50_x_11.00_Inches)
  6

 40
6.35
 41
6.35
 42
6.35000508
 43
6.35000508
 44
215.9
 45
279.4
 46
0.0
 47
0.0
 48
0.0
 49
0.0
140
0.0
141
0.0
142
1.0
143
1.0
 70
  1712
 72
     1
 73
     0
 74
     0
  7

 75
     0
147
1.0
148
0.0
149
0.0
100
AcDbLayout
  1
Model
 70
     1
 71
     0
 10
0.0
 20
0.0
 11
297.0
 21
210.0
 12
0.0
 22
0.0
 32
0.0
 14
0.0
 24
0.0
 34
0.0
 15
297.0
 25
210.0
 35
0.0
146
0.0
 13
0.0
 23
0.0
 33
0.0
 16
1.0
 26
0.0
 36
0.0
 17
0.0
 27
1.0
 37
0.0
 76
     0
330
1F
331
29
  0
MLINESTYLE
  5
18
102
{ACAD_REACTORS
330
17
102
}
330
17
100
AcDbMlineStyle
  2
Standard
 70
     0
  3

 62
   256
 51
90.0
 52
90.0
 71
     2
 49
0.5
 62
   256
  6
BYLAYER
 49
-0.5
 62
   256
  6
BYLAYER
  0
ACDBPLACEHOLDER
  5
F
102
{ACAD_REACTORS
330
E
102
}
330
E
  0
SCALE
  5
48
102
{ACAD_REACTORS
330
47
102
}
330
47
100
AcDbScale
 70
     0
300
1:1
140
1.0
141
1.0
290
     1
  0
SCALE
  5
49
102
{ACAD_REACTORS
330
47
102
}
330
47
100
AcDbScale
 70
     0
300
1:2
140
1.0
141
2.0
290
     0
  0
SCALE
  5
4A
102
{ACAD_REACTORS
330
47
102
}
330
47
100
AcDbScale
 70
     0
300
1:4
140
1.0
141
4.0
290
     0
  0
SCALE
  5
4B
102
{ACAD_REACTORS
330
47
102
}
330
47
100
AcDbScale
 70
     0
300
1:5
140
1.0
141
5.0
290
     0
  0
SCALE
  5
4C
102
{ACAD_REACTORS
330
47
102
}
330
47
100
AcDbScale
 70
     0
300
1:8
140
1.0
141
8.0
290
     0
  0
SCALE
  5
4D
102
{ACAD_REACTORS
330
47
102
}
330
47
100
AcDbScale
 70
     0
300
1:10
140
1.0
141
10.0
290
     0
  0
SCALE
  5
4E
102
{ACAD_REACTORS
330
47
102
}
330
47
100
AcDbScale
 70
     0
300
1:16
140
1.0
141
16.0
290
     0
  0
SCALE
  5
4F
102
{ACAD_REACTORS
330
47
102
}
330
47
100
AcDbScale
 70
     0
300
1:20
140
1.0
141
20.0
290
     0
  0
SCALE
  5
50
102
{ACAD_REACTORS
330
47
102
}
330
47
100
AcDbScale
 70
     0
300
1:30
140
1.0
141
30.0
290
     0
  0
SCALE
  5
51
102
{ACAD_REACTORS
330
47
102
}
330
47
100
AcDbScale
 70
     0
300
1:40
140
1.0
141
40.0
290
     0
  0
SCALE
  5
52
102
{ACAD_REACTORS
330
47
102
}
330
47
100
AcDbScale
 70
     0
300
1:50
140
1.0
141
50.0
290
     0
  0
SCALE
  5
53
102
{ACAD_REACTORS
330
47
102
}
330
47
100
AcDbScale
 70
     0
300
1:100
140
1.0
141
100.0
290
     0
  0
SCALE
  5
54
102
{ACAD_REACTORS
330
47
102
}
330
47
100
AcDbScale
 70
     0
300
2:1
140
2.0
141
1.0
290
     0
  0
SCALE
  5
55
102
{ACAD_REACTORS
330
47
102
}
330
47
100
AcDbScale
 70
     0
300
4:1
140
4.0
141
1.0
290
     0
  0
SCALE
  5
56
102
{ACAD_REACTORS
330
47
102
}
330
47
100
AcDbScale
 70
     0
300
8:1
140
8.0
141
1.0
290
     0
  0
SCALE
  5
57
102
{ACAD_REACTORS
330
47
102
}
330
47
100
AcDbScale
 70
     0
300
10:1
140
10.0
141
1.0
290
     0
  0
SCALE
  5
58
102
{ACAD_REACTORS
330
47
102
}
330
47
100
AcDbScale
 70
     0
300
100:1
140
100.0
141
1.0
290
     0
  0
SCALE
  5
59
102
{ACAD_REACTORS
330
47
102
}
330
47
100
AcDbScale
 70
     0
300
1/128" = 1'-0"
140
0.0078125
141
12.0
290
     0
  0
SCALE
  5
5A
102
{ACAD_REACTORS
330
47
102
}
330
47
100
AcDbScale
 70
     0
300
1/64" = 1'-0"
140
0.015625
141
12.0
290
     0
  0
SCALE
  5
5B
102
{ACAD_REACTORS
330
47
102
}
330
47
100
AcDbScale
 70
     0
300
1/32" = 1'-0"
140
0.03125
141
12.0
290
     0
  0
SCALE
  5
5C
102
{ACAD_REACTORS
330
47
102
}
330
47
100
AcDbScale
 70
     0
300
1/16" = 1'-0"
140
0.0625
141
12.0
290
     0
  0
SCALE
  5
5D
102
{ACAD_REACTORS
330
47
102
}
330
47
100
AcDbScale
 70
     0
300
3/32" = 1'-0"
140
0.09375
141
12.0
290
     0
  0
SCALE
  5
5E
102
{ACAD_REACTORS
330
47
102
}
330
47
100
AcDbScale
 70
     0
300
1/8" = 1'-0"
140
0.125
141
12.0
290
     0
  0
SCALE
  5
5F
102
{ACAD_REACTORS
330
47
102
}
330
47
100
AcDbScale
 70
     0
300
3/16" = 1'-0"
140
0.1875
141
12.0
290
     0
  0
SCALE
  5
60
102
{ACAD_REACTORS
330
47
102
}
330
47
100
AcDbScale
 70
     0
300
1/4" = 1'-0"
140
0.25
141
12.0
290
     0
  0
SCALE
  5
61
102
{ACAD_REACTORS
330
47
102
}
330
47
100
AcDbScale
 70
     0
300
3/8" = 1'-0"
140
0.375
141
12.0
290
     0
  0
SCALE
  5
62
102
{ACAD_REACTORS
330
47
102
}
330
47
100
AcDbScale
 70
     0
300
1/2" = 1'-0"
140
0.5
141
12.0
290
     0
  0
SCALE
  5
63
102
{ACAD_REACTORS
330
47
102
}
330
47
100
AcDbScale
 70
     0
300
3/4" = 1'-0"
140
0.75
141
12.0
290
     0
  0
SCALE
  5
64
102
{ACAD_REACTORS
330
47
102
}
330
47
100
AcDbScale
 70
     0
300
1" = 1'-0"
140
1.0
141
12.0
290
     0
  0
SCALE
  5
65
102
{ACAD_REACTORS
330
47
102
}
330
47
100
AcDbScale
 70
     0
300
1-1/2" = 1'-0"
140
1.5
141
12.0
290
     0
  0
SCALE
  5
66
102
{ACAD_REACTORS
330
47
102
}
330
47
100
AcDbScale
 70
     0
300
3" = 1'-0"
140
3.0
141
12.0
290
     0
  0
SCALE
  5
67
102
{ACAD_REACTORS
330
47
102
}
330
47
100
AcDbScale
 70
     0
300
6" = 1'-0"
140
6.0
141
12.0
290
     0
  0
SCALE
  5
68
102
{ACAD_REACTORS
330
47
102
}
330
47
100
AcDbScale
 70
     0
300
1'-0" = 1'-0"
140
12.0
141
12.0
290
     0
  0
ENDSEC
  0
EOF
